  0
SECTION
  2
HEADER
  9
$ACADVER
  1
AC1014
  9
$ACADMAINTVER
 70
     9
  9
$DWGCODEPAGE
  3
ANSI_932
  9
$INSBASE
 10
0.0
 20
0.0
 30
0.0
  9
$EXTMIN
 10
0.866404317667
 20
206.985883478133
 30
0.0
  9
$EXTMAX
 10
779.651312276783
 20
594.929669771391
 30
0.0
  9
$LIMMIN
 10
-360.747566795242
 20
4.457354754526
  9
$LIMMAX
 10
-162.153696144267
 20
287.675440264018
  9
$ORTHOMODE
 70
     0
  9
$REGENMODE
 70
     1
  9
$FILLMODE
 70
     1
  9
$QTEXTMODE
 70
     0
  9
$MIRRTEXT
 70
     1
  9
$DRAGMODE
 70
     2
  9
$LTSCALE
 40
1.0
  9
$OSMODE
 70
   935
  9
$ATTMODE
 70
     1
  9
$TEXTSIZE
 40
2.333873885063
  9
$TRACEWID
 40
1.0
  9
$TEXTSTYLE
  7
STANDARD
  9
$CLAYER
  8
外形線
  9
$CELTYPE
  6
BYLAYER
  9
$CECOLOR
 62
   256
  9
$CELTSCALE
 40
10.0
  9
$DELOBJ
 70
     1
  9
$DISPSILH
 70
     0
  9
$DIMSCALE
 40
1.0
  9
$DIMASZ
 40
6.0
  9
$DIMEXO
 40
0.625
  9
$DIMDLI
 40
3.75
  9
$DIMRND
 40
0.0
  9
$DIMDLE
 40
0.0
  9
$DIMEXE
 40
1.25
  9
$DIMTP
 40
0.1
  9
$DIMTM
 40
0.1
  9
$DIMTXT
 40
5.0
  9
$DIMCEN
 40
2.5
  9
$DIMTSZ
 40
0.0
  9
$DIMTOL
 70
     0
  9
$DIMLIM
 70
     0
  9
$DIMTIH
 70
     0
  9
$DIMTOH
 70
     0
  9
$DIMSE1
 70
     0
  9
$DIMSE2
 70
     0
  9
$DIMTAD
 70
     1
  9
$DIMZIN
 70
     8
  9
$DIMBLK
  1
OPEN30
  9
$DIMASO
 70
     1
  9
$DIMSHO
 70
     1
  9
$DIMPOST
  1

  9
$DIMAPOST
  1

  9
$DIMALT
 70
     0
  9
$DIMALTD
 70
     2
  9
$DIMALTF
 40
0.0394
  9
$DIMLFAC
 40
1.0
  9
$DIMTOFL
 70
     1
  9
$DIMTVP
 40
1.0
  9
$DIMTIX
 70
     0
  9
$DIMSOXD
 70
     0
  9
$DIMSAH
 70
     0
  9
$DIMBLK1
  1

  9
$DIMBLK2
  1

  9
$DIMSTYLE
  2
ISO-25
  9
$DIMCLRD
 70
     0
  9
$DIMCLRE
 70
     0
  9
$DIMCLRT
 70
     0
  9
$DIMTFAC
 40
1.0
  9
$DIMGAP
 40
0.625
  9
$DIMJUST
 70
     0
  9
$DIMSD1
 70
     0
  9
$DIMSD2
 70
     0
  9
$DIMTOLJ
 70
     1
  9
$DIMTZIN
 70
     0
  9
$DIMALTZ
 70
     0
  9
$DIMALTTZ
 70
     0
  9
$DIMFIT
 70
     3
  9
$DIMUPT
 70
     0
  9
$DIMUNIT
 70
     2
  9
$DIMDEC
 70
     1
  9
$DIMTDEC
 70
     1
  9
$DIMALTU
 70
     2
  9
$DIMALTTD
 70
     2
  9
$DIMTXSTY
  7
STANDARD
  9
$DIMAUNIT
 70
     0
  9
$LUNITS
 70
     2
  9
$LUPREC
 70
     4
  9
$SKETCHINC
 40
1.0
  9
$FILLETRAD
 40
6.5
  9
$AUNITS
 70
     0
  9
$AUPREC
 70
     0
  9
$MENU
  1
.
  9
$ELEVATION
 40
0.0
  9
$PELEVATION
 40
0.0
  9
$THICKNESS
 40
0.0
  9
$LIMCHECK
 70
     0
  9
$CHAMFERA
 40
10.0
  9
$CHAMFERB
 40
10.0
  9
$CHAMFERC
 40
20.0
  9
$CHAMFERD
 40
0.0
  9
$SKPOLY
 70
     0
  9
$TDCREATE
 40
2450576.597302431
  9
$TDUPDATE
 40
2457269.379583472
  9
$TDINDWG
 40
1.4388884375
  9
$TDUSRTIMER
 40
1.4388884375
  9
$USRTIMER
 70
     1
  9
$ANGBASE
 50
0.0
  9
$ANGDIR
 70
     0
  9
$PDMODE
 70
     0
  9
$PDSIZE
 40
0.0
  9
$PLINEWID
 40
0.0
  9
$COORDS
 70
     0
  9
$SPLFRAME
 70
     0
  9
$SPLINETYPE
 70
     6
  9
$SPLINESEGS
 70
     8
  9
$ATTDIA
 70
     0
  9
$ATTREQ
 70
     1
  9
$HANDLING
 70
     1
  9
$HANDSEED
  5
557C
  9
$SURFTAB1
 70
     6
  9
$SURFTAB2
 70
     6
  9
$SURFTYPE
 70
     6
  9
$SURFU
 70
     6
  9
$SURFV
 70
     6
  9
$UCSNAME
  2

  9
$UCSORG
 10
0.0
 20
0.0
 30
0.0
  9
$UCSXDIR
 10
1.0
 20
0.0
 30
0.0
  9
$UCSYDIR
 10
0.0
 20
1.0
 30
0.0
  9
$PUCSNAME
  2

  9
$PUCSORG
 10
0.0
 20
0.0
 30
0.0
  9
$PUCSXDIR
 10
1.0
 20
0.0
 30
0.0
  9
$PUCSYDIR
 10
0.0
 20
1.0
 30
0.0
  9
$USERI1
 70
     0
  9
$USERI2
 70
     0
  9
$USERI3
 70
     0
  9
$USERI4
 70
     0
  9
$USERI5
 70
     0
  9
$USERR1
 40
0.0
  9
$USERR2
 40
0.0
  9
$USERR3
 40
0.0
  9
$USERR4
 40
0.0
  9
$USERR5
 40
0.0
  9
$WORLDVIEW
 70
     1
  9
$SHADEDGE
 70
     3
  9
$SHADEDIF
 70
    70
  9
$TILEMODE
 70
     0
  9
$MAXACTVP
 70
    16
  9
$PINSBASE
 10
0.0
 20
0.0
 30
0.0
  9
$PLIMCHECK
 70
     0
  9
$PEXTMIN
 10
4.746305129083
 20
1.396645458131
 30
0.0
  9
$PEXTMAX
 10
404.746305129083
 20
281.396645458131
 30
0.0
  9
$PLIMMIN
 10
-6.946593322754
 20
-6.94658241272
  9
$PLIMMAX
 10
417.718108215332
 20
293.315276107788
  9
$UNITMODE
 70
     0
  9
$VISRETAIN
 70
     0
  9
$PLINEGEN
 70
     0
  9
$PSLTSCALE
 70
     1
  9
$TREEDEPTH
 70
  3020
  9
$PICKSTYLE
 70
     1
  9
$CMLSTYLE
  2
STANDARD
  9
$CMLJUST
 70
     0
  9
$CMLSCALE
 40
1.0
  9
$PROXYGRAPHICS
 70
     1
  9
$MEASUREMENT
 70
     1
  0
ENDSEC
  0
SECTION
  2
CLASSES
  0
CLASS
  1
ACDBDICTIONARYWDFLT
  2
AcDbDictionaryWithDefault
  3
ObjectDBX Classes
 90
        0
280
     0
281
     0
  0
CLASS
  1
ACDBPLACEHOLDER
  2
AcDbPlaceHolder
  3
ObjectDBX Classes
 90
        0
280
     0
281
     0
  0
CLASS
  1
LAYOUT
  2
AcDbLayout
  3
ObjectDBX Classes
 90
        0
280
     0
281
     0
  0
CLASS
  1
SORTENTSTABLE
  2
AcDbSortentsTable
  3
ObjectDBX Classes
 90
        0
280
     0
281
     0
  0
CLASS
  1
VISUALSTYLE
  2
AcDbVisualStyle
  3
ObjectDBX Classes
 90
     4095
280
     0
281
     0
  0
CLASS
  1
SCALE
  2
AcDbScale
  3
ObjectDBX Classes
 90
     1153
280
     0
281
     0
  0
CLASS
  1
MATERIAL
  2
AcDbMaterial
  3
ObjectDBX Classes
 90
     1153
280
     0
281
     0
  0
CLASS
  1
TABLESTYLE
  2
AcDbTableStyle
  3
ObjectDBX Classes
 90
     4095
280
     0
281
     0
  0
CLASS
  1
MLEADERSTYLE
  2
AcDbMLeaderStyle
  3
ACDB_MLEADERSTYLE_CLASS
 90
     4095
280
     0
281
     0
  0
CLASS
  1
SUN
  2
AcDbSun
  3
SCENEOE
 90
     1153
280
     0
281
     0
  0
CLASS
  1
DICTIONARYVAR
  2
AcDbDictionaryVar
  3
ObjectDBX Classes
 90
        0
280
     0
281
     0
  0
CLASS
  1
CELLSTYLEMAP
  2
AcDbCellStyleMap
  3
ObjectDBX Classes
 90
     1152
280
     0
281
     0
  0
CLASS
  1
XRECORD
  2
AcDbXrecord
  3
ObjectDBX Classes
 90
        0
280
     0
281
     0
  0
CLASS
  1
LWPOLYLINE
  2
AcDbPolyline
  3
ObjectDBX Classes
 90
        0
280
     0
281
     1
  0
CLASS
  1
HATCH
  2
AcDbHatch
  3
ObjectDBX Classes
 90
        0
280
     0
281
     1
  0
ENDSEC
  0
SECTION
  2
TABLES
  0
TABLE
  2
VPORT
  5
8
102
{ACAD_XDICTIONARY
360
5574
102
}
330
0
100
AcDbSymbolTable
 70
     2
  0
VPORT
  5
44F6
330
8
100
AcDbSymbolTableRecord
100
AcDbViewportTableRecord
  2
*ACTIVE
 70
     0
 10
0.0
 20
0.0
 11
1.0
 21
1.0
 12
390.258858297225
 22
400.957776624762
 13
0.0
 23
0.0
 14
1.0
 24
1.0
 15
0.0
 25
0.0
 16
0.0
 26
0.0
 36
1.0
 17
0.0
 27
0.0
 37
0.0
 40
431.899721987445
 41
1.839224629418
 42
50.0
 43
0.0
 44
0.0
 50
0.0
 51
0.0
 71
    16
 72
   100
 73
     1
 74
     0
 75
     0
 76
     0
 77
     0
 78
     0
  0
ENDTAB
  0
TABLE
  2
LTYPE
  5
5
330
0
100
AcDbSymbolTable
 70
     4
  0
LTYPE
  5
14
330
5
100
AcDbSymbolTableRecord
100
AcDbLinetypeTableRecord
  2
BYBLOCK
 70
     0
  3

 72
    65
 73
     0
 40
0.0
  0
LTYPE
  5
15
330
5
100
AcDbSymbolTableRecord
100
AcDbLinetypeTableRecord
  2
BYLAYER
 70
     0
  3

 72
    65
 73
     0
 40
0.0
  0
LTYPE
  5
16
330
5
100
AcDbSymbolTableRecord
100
AcDbLinetypeTableRecord
  2
CONTINUOUS
 70
     0
  3
Solid line
 72
    65
 73
     0
 40
0.0
  0
LTYPE
  5
1EC
330
5
100
AcDbSymbolTableRecord
100
AcDbLinetypeTableRecord
  2
CENTER
 70
     0
  3
____ _ ____ _ ____ _ ____ _ ____ _ ____ _ ____ 
 72
    65
 73
     4
 40
2.0
 49
1.25
 74
     0
 49
-0.25
 74
     0
 49
0.25
 74
     0
 49
-0.25
 74
     0
  0
LTYPE
  5
1ED
330
5
100
AcDbSymbolTableRecord
100
AcDbLinetypeTableRecord
  2
DASHED
 70
     0
  3
__ __ __ __ __ __ __ __ __ __ __ __ __ __ __ __
 72
    65
 73
     2
 40
0.75
 49
0.5
 74
     0
 49
-0.25
 74
     0
  0
LTYPE
  5
2B1F
330
5
100
AcDbSymbolTableRecord
100
AcDbLinetypeTableRecord
  2
DASHDOT
 70
     0
  3
一点鎖線
 72
    65
 73
     4
 40
25.6
 49
20.0
 74
     0
 49
-2.0
 74
     0
 49
1.6
 74
     0
 49
-2.0
 74
     0
  0
ENDTAB
  0
TABLE
  2
LAYER
  5
2
102
{ACAD_XDICTIONARY
360
29EA
102
}
330
0
100
AcDbSymbolTable
 70
    16
  0
LAYER
  5
F
330
2
100
AcDbSymbolTableRecord
100
AcDbLayerTableRecord
  2
0
 70
     0
 62
     7
  6
CONTINUOUS
  0
LAYER
  5
61
330
2
100
AcDbSymbolTableRecord
100
AcDbLayerTableRecord
  2
図枠太線
 70
     0
 62
   251
  6
CONTINUOUS
  0
LAYER
  5
62
330
2
100
AcDbSymbolTableRecord
100
AcDbLayerTableRecord
  2
図枠細線
 70
     0
 62
   252
  6
CONTINUOUS
  0
LAYER
  5
63
330
2
100
AcDbSymbolTableRecord
100
AcDbLayerTableRecord
  2
図枠ロゴマーク
 70
     0
 62
   253
  6
CONTINUOUS
  0
LAYER
  5
1EF
330
2
100
AcDbSymbolTableRecord
100
AcDbLayerTableRecord
  2
外形線
 70
     0
 62
     7
  6
CONTINUOUS
  0
LAYER
  5
1F0
330
2
100
AcDbSymbolTableRecord
100
AcDbLayerTableRecord
  2
寸法線
 70
     0
 62
     1
  6
CONTINUOUS
  0
LAYER
  5
1F1
330
2
100
AcDbSymbolTableRecord
100
AcDbLayerTableRecord
  2
中心線
 70
     0
 62
     4
  6
CENTER
  0
LAYER
  5
1F4
330
2
100
AcDbSymbolTableRecord
100
AcDbLayerTableRecord
  2
DEFPOINTS
 70
     0
 62
     7
  6
CONTINUOUS
  0
LAYER
  5
2AA2
330
2
100
AcDbSymbolTableRecord
100
AcDbLayerTableRecord
  2
下書線
 70
     0
 62
     2
  6
CONTINUOUS
  0
LAYER
  5
2AA3
330
2
100
AcDbSymbolTableRecord
100
AcDbLayerTableRecord
  2
隠れ線
 70
     0
 62
     3
  6
DASHED
  0
LAYER
  5
2AA4
330
2
100
AcDbSymbolTableRecord
100
AcDbLayerTableRecord
  2
細線
 70
     0
 62
     6
  6
CONTINUOUS
  0
LAYER
  5
2AA5
330
2
100
AcDbSymbolTableRecord
100
AcDbLayerTableRecord
  2
太線
 70
     0
 62
   190
  6
CONTINUOUS
  0
LAYER
  5
2B20
330
2
100
AcDbSymbolTableRecord
100
AcDbLayerTableRecord
  2
LAY-1
 70
     0
 62
     7
  6
CONTINUOUS
  0
LAYER
  5
2B21
330
2
100
AcDbSymbolTableRecord
100
AcDbLayerTableRecord
  2
LAY-2
 70
     0
 62
     7
  6
CONTINUOUS
  0
LAYER
  5
2B22
330
2
100
AcDbSymbolTableRecord
100
AcDbLayerTableRecord
  2
LAY-5
 70
     0
 62
     7
  6
CONTINUOUS
  0
LAYER
  5
2B23
330
2
100
AcDbSymbolTableRecord
100
AcDbLayerTableRecord
  2
LAY-6
 70
     0
 62
     7
  6
CONTINUOUS
  0
ENDTAB
  0
TABLE
  2
STYLE
  5
3
330
0
100
AcDbSymbolTable
 70
     2
  0
STYLE
  5
10
330
3
100
AcDbSymbolTableRecord
100
AcDbTextStyleTableRecord
  2
STANDARD
 70
     0
 40
0.0
 41
1.0
 50
0.0
 71
     0
 42
2.333873885063
  3
ISOCP
  4
bigfont.shx
  0
STYLE
  5
64
330
3
100
AcDbSymbolTableRecord
100
AcDbTextStyleTableRecord
  2
EXCADSTD
 70
     0
 40
0.0
 41
1.0
 50
0.0
 71
     0
 42
0.2
  3
monotxt
  4
bigfont
  0
ENDTAB
  0
TABLE
  2
VIEW
  5
6
330
0
100
AcDbSymbolTable
 70
     0
  0
ENDTAB
  0
TABLE
  2
UCS
  5
7
330
0
100
AcDbSymbolTable
 70
     0
  0
ENDTAB
  0
TABLE
  2
APPID
  5
9
330
0
100
AcDbSymbolTable
 70
     3
  0
APPID
  5
11
330
9
100
AcDbSymbolTableRecord
100
AcDbRegAppTableRecord
  2
ACAD
 70
     0
  0
APPID
  5
453A
330
9
100
AcDbSymbolTableRecord
100
AcDbRegAppTableRecord
  2
ACADANNOTATIVE
 70
     0
  0
APPID
  5
4597
330
9
100
AcDbSymbolTableRecord
100
AcDbRegAppTableRecord
  2
ACAD_MLEADERVER
 70
     0
  0
ENDTAB
  0
TABLE
  2
DIMSTYLE
  5
A
330
0
100
AcDbSymbolTable
 70
     2
  0
DIMSTYLE
105
1D
330
A
100
AcDbSymbolTableRecord
100
AcDbDimStyleTableRecord
  2
STANDARD
 70
     0
  3

  4

  5

  6

  7

 40
1.0
 41
0.18
 42
0.0625
 43
0.38
 44
0.18
 45
0.0
 46
0.0
 47
0.0
 48
0.0
140
0.18
141
0.09
142
0.0
143
25.4
144
1.0
145
0.0
146
1.0
147
0.09
 71
     0
 72
     0
 73
     1
 74
     1
 75
     0
 76
     0
 77
     0
 78
     0
170
     0
171
     2
172
     0
173
     0
174
     0
175
     0
176
     0
177
     0
178
     0
270
     2
271
     4
272
     4
273
     2
274
     2
340
10
275
     0
280
     0
281
     0
282
     0
283
     1
284
     0
285
     0
286
     0
287
     3
288
     0
  0
DIMSTYLE
105
24
102
{ACAD_REACTORS
330
4395
330
4396
330
4399
330
43D0
102
}
330
A
100
AcDbSymbolTableRecord
100
AcDbDimStyleTableRecord
  2
ISO-25
 70
     0
  3

  4

  5

  6

  7

 40
1.0
 41
2.5
 42
0.625
 43
3.75
 44
1.25
 45
0.0
 46
0.0
 47
0.0
 48
0.0
140
2.5
141
2.5
142
0.0
143
0.0394
144
1.0
145
1.0
146
1.0
147
0.625
 71
     0
 72
     0
 73
     1
 74
     0
 75
     0
 76
     0
 77
     1
 78
     8
170
     0
171
     2
172
     1
173
     0
174
     0
175
     0
176
     0
177
     0
178
     0
270
     2
271
     4
272
     4
273
     2
274
     2
340
10
275
     0
280
     0
281
     0
282
     0
283
     1
284
     0
285
     0
286
     0
287
     3
288
     0
  0
ENDTAB
  0
TABLE
  2
BLOCK_RECORD
  5
1
330
0
100
AcDbSymbolTable
 70
    12
  0
BLOCK_RECORD
  5
1A
330
1
100
AcDbSymbolTableRecord
100
AcDbBlockTableRecord
  2
*MODEL_SPACE
  0
BLOCK_RECORD
  5
28FB
330
1
100
AcDbSymbolTableRecord
100
AcDbBlockTableRecord
  2
*PAPER_SPACE
  0
BLOCK_RECORD
  5
65
330
1
100
AcDbSymbolTableRecord
100
AcDbBlockTableRecord
  2
A$C3392
  0
BLOCK_RECORD
  5
29BF
330
1
100
AcDbSymbolTableRecord
100
AcDbBlockTableRecord
  2
A4横用_タイトル
1001
ACAD
1000
DesignCenter Data
1002
{
1070
     1
1070
     4
1002
}
  0
BLOCK_RECORD
  5
29F4
330
1
100
AcDbSymbolTableRecord
100
AcDbBlockTableRecord
  2
A4縦用_タイトル
1001
ACAD
1000
DesignCenter Data
1002
{
1070
     1
1070
     4
1002
}
  0
BLOCK_RECORD
  5
2A32
330
1
100
AcDbSymbolTableRecord
100
AcDbBlockTableRecord
  2
A3横用_タイトル
1001
ACAD
1000
DesignCenter Data
1002
{
1070
     1
1070
     4
1002
}
  0
BLOCK_RECORD
  5
2A6C
330
1
100
AcDbSymbolTableRecord
100
AcDbBlockTableRecord
  2
A3縦用_タイトル
1001
ACAD
1000
DesignCenter Data
1002
{
1070
     1
1070
     4
1002
}
  0
BLOCK_RECORD
  5
2AF4
330
1
100
AcDbSymbolTableRecord
100
AcDbBlockTableRecord
  2
_OPEN30
  0
BLOCK_RECORD
  5
4435
330
1
100
AcDbSymbolTableRecord
100
AcDbBlockTableRecord
  2
*D6
  0
BLOCK_RECORD
  5
4441
330
1
100
AcDbSymbolTableRecord
100
AcDbBlockTableRecord
  2
*D7
  0
BLOCK_RECORD
  5
444D
330
1
100
AcDbSymbolTableRecord
100
AcDbBlockTableRecord
  2
*D8
  0
BLOCK_RECORD
  5
4459
330
1
100
AcDbSymbolTableRecord
100
AcDbBlockTableRecord
  2
*D9
  0
ENDTAB
  0
ENDSEC
  0
SECTION
  2
BLOCKS
  0
BLOCK
  5
1B
330
1A
100
AcDbEntity
  8
0
100
AcDbBlockBegin
  2
*MODEL_SPACE
 70
     0
 10
0.0
 20
0.0
 30
0.0
  3
*MODEL_SPACE
  1

  0
ENDBLK
  5
1C
330
1A
100
AcDbEntity
  8
0
100
AcDbBlockEnd
  0
BLOCK
  5
28FD
330
28FB
100
AcDbEntity
 67
     1
  8
0
 48
10.0
100
AcDbBlockBegin
  2
*PAPER_SPACE
 70
     0
 10
0.0
 20
0.0
 30
0.0
  3
*PAPER_SPACE
  1

  0
ENDBLK
  5
28FE
330
28FB
100
AcDbEntity
 67
     1
  8
0
 48
10.0
100
AcDbBlockEnd
  0
BLOCK
  5
93
330
65
100
AcDbEntity
  8
0
100
AcDbBlockBegin
  2
A$C3392
 70
     0
 10
0.0
 20
0.0
 30
0.0
  3
A$C3392
  1

  0
LINE
  5
66
330
65
100
AcDbEntity
  8
図枠太線
  6
CONTINUOUS
100
AcDbLine
 10
211.858584505185
 20
30.927375675439
 30
0.0
 11
211.858584505185
 21
0.927375675439
 31
0.0
  0
LINE
  5
67
330
65
100
AcDbEntity
  8
図枠細線
  6
CONTINUOUS
100
AcDbLine
 10
231.858592505185
 20
15.927377675439
 30
0.0
 11
287.858592505185
 21
15.927375675439
 31
0.0
  0
LINE
  5
68
330
65
100
AcDbEntity
  8
図枠細線
  6
CONTINUOUS
100
AcDbLine
 10
211.858592505185
 20
15.927377675439
 30
0.0
 11
231.858592505185
 21
15.927377675439
 31
0.0
  0
LINE
  5
69
330
65
100
AcDbEntity
  8
図枠太線
  6
CONTINUOUS
 62
   251
100
AcDbLine
 10
1.858584505185
 20
0.927375675439
 30
0.0
 11
1.858584505185
 21
275.927375675439
 31
0.0
  0
TEXT
  5
6A
330
65
100
AcDbEntity
  8
図枠細線
  6
CONTINUOUS
 62
   252
100
AcDbText
 10
351.358592505185
 20
28.427377675439
 30
0.0
 40
2.0
  1
ＴＩＴＬＥ
 41
0.903614457831
  7
EXCADSTD
 72
     5
 11
361.358592505185
 21
28.427377675439
 31
0.0
100
AcDbText
  0
TEXT
  5
6B
330
65
100
AcDbEntity
  8
図枠細線
  6
CONTINUOUS
 62
   252
100
AcDbText
 10
345.358592505185
 20
28.427377675439
 30
0.0
 40
2.0
  1
名称
 41
1.171875
  7
EXCADSTD
 72
     5
 11
350.358592505185
 21
28.427377675439
 31
0.0
100
AcDbText
  0
TEXT
  5
6C
330
65
100
AcDbEntity
  8
図枠細線
  6
CONTINUOUS
 62
   252
100
AcDbText
 10
274.358592505185
 20
25.927377675439
 30
0.0
 40
2.0
  1
ＤＲＡＷＮ
 41
0.882352941176
  7
EXCADSTD
 72
     5
 11
284.358592505185
 21
25.927377675439
 31
0.0
100
AcDbText
  0
TEXT
  5
6D
330
65
100
AcDbEntity
  8
図枠細線
  6
CONTINUOUS
 62
   252
100
AcDbText
 10
260.358592505185
 20
25.927377675439
 30
0.0
 40
2.0
  1
ＤＥＳＩＧＮＥＤ
 41
0.713043472041
  7
EXCADSTD
 72
     5
 11
273.478592390744
 21
25.927377675439
 31
0.0
100
AcDbText
  0
TEXT
  5
6E
330
65
100
AcDbEntity
  8
図枠細線
  6
CONTINUOUS
 62
   252
100
AcDbText
 10
246.358592505185
 20
25.927377675439
 30
0.0
 40
2.0
  1
ＣＨＥＣＫＥＤ
 41
0.831249989569
  7
EXCADSTD
 72
     5
 11
259.658592338292
 21
25.927377675439
 31
0.0
100
AcDbText
  0
TEXT
  5
6F
330
65
100
AcDbEntity
  8
図枠細線
  6
CONTINUOUS
 62
   252
100
AcDbText
 10
274.358592505185
 20
28.427377675439
 30
0.0
 40
2.0
  1
製図
 41
1.209677419355
  7
EXCADSTD
 72
     5
 11
279.358592505185
 21
28.427377675439
 31
0.0
100
AcDbText
  0
TEXT
  5
70
330
65
100
AcDbEntity
  8
図枠細線
  6
CONTINUOUS
 62
   252
100
AcDbText
 10
260.358592505185
 20
28.427377675439
 30
0.0
 40
2.0
  1
設計
 41
1.171875
  7
EXCADSTD
 72
     5
 11
265.358592505185
 21
28.427377675439
 31
0.0
100
AcDbText
  0
TEXT
  5
71
330
65
100
AcDbEntity
  8
図枠細線
  6
CONTINUOUS
 62
   252
100
AcDbText
 10
246.358592505185
 20
28.427377675439
 30
0.0
 40
2.0
  1
検図
 41
1.209677419355
  7
EXCADSTD
 72
     5
 11
251.358592505185
 21
28.427377675439
 31
0.0
100
AcDbText
  0
TEXT
  5
72
330
65
100
AcDbEntity
  8
図枠細線
  6
CONTINUOUS
 62
   252
100
AcDbText
 10
232.358592505185
 20
25.927377675439
 30
0.0
 40
2.0
  1
ＡＰＰＲＯＶＥＤ
 41
0.695652184279
  7
EXCADSTD
 72
     5
 11
245.15859269592
 21
25.927377675439
 31
0.0
100
AcDbText
  0
TEXT
  5
73
330
65
100
AcDbEntity
  8
図枠細線
  6
CONTINUOUS
 62
   252
100
AcDbText
 10
232.358592505185
 20
28.427377675439
 30
0.0
 40
2.0
  1
承認
 41
1.171875
  7
EXCADSTD
 72
     5
 11
237.358592505185
 21
28.427377675439
 31
0.0
100
AcDbText
  0
TEXT
  5
74
330
65
100
AcDbEntity
  8
図枠細線
  6
CONTINUOUS
 62
   252
100
AcDbText
 10
290.069888505185
 20
2.574868675439
 30
0.0
 40
3.5
  1
ＴＯＷＡ　ＳＥＩＤＥＮ　ＩＮＤＵＳＴＲＩＡＬ　ＣＯ．，ＬＴＤ．
 41
0.414568012377
  7
EXCADSTD
 72
     5
 11
342.692388209546
 21
2.574868675439
 31
0.0
100
AcDbText
  0
TEXT
  5
75
330
65
100
AcDbEntity
  8
図枠ロゴマーク
  6
CONTINUOUS
 62
   253
100
AcDbText
 10
290.107348505185
 20
7.519769675439
 30
0.0
 40
7.0
  1
東和制電工業株式会社
 41
0.639204545455
  7
EXCADSTD
 72
     5
 11
342.607348505185
 21
7.519769675439
 31
0.0
100
AcDbText
  0
TEXT
  5
76
330
65
100
AcDbEntity
  8
図枠細線
  6
CONTINUOUS
 62
   252
100
AcDbText
 10
232.499705505185
 20
5.759088675439
 30
0.0
 40
2.0
  1
ＰＲＯＪＥＣＴＩＯＮ
 41
0.754285710199
  7
EXCADSTD
 72
     5
 11
250.099705409817
 21
5.759088675439
 31
0.0
100
AcDbText
  0
TEXT
  5
77
330
65
100
AcDbEntity
  8
図枠細線
  6
CONTINUOUS
 62
   252
100
AcDbText
 10
232.574629505185
 20
8.681077675439
 30
0.0
 40
2.0
  1
ＴＨＩＲＤ　ＡＮＧＬＥ
 41
0.691099486738
  7
EXCADSTD
 72
     5
 11
250.174629767445
 21
8.681077675439
 31
0.0
100
AcDbText
  0
TEXT
  5
78
330
65
100
AcDbEntity
  8
図枠細線
  6
CONTINUOUS
 62
   252
100
AcDbText
 10
256.823999505185
 20
13.427377675439
 30
0.0
 40
2.0
  1
ＳＣＡＬＥ
 41
0.903614457831
  7
EXCADSTD
 72
     5
 11
266.823999505185
 21
13.427377675439
 31
0.0
100
AcDbText
  0
TEXT
  5
79
330
65
100
AcDbEntity
  8
図枠細線
  6
CONTINUOUS
 62
   252
100
AcDbText
 10
274.858592505185
 20
13.427377675439
 30
0.0
 40
2.0
  1
ＤＡＴＥ
 41
0.923076923077
  7
EXCADSTD
 72
     5
 11
282.858592505185
 21
13.427377675439
 31
0.0
100
AcDbText
  0
TEXT
  5
7A
330
65
100
AcDbEntity
  8
図枠細線
  6
CONTINUOUS
 62
   252
100
AcDbText
 10
356.358592505185
 20
13.427377675439
 30
0.0
 40
2.0
  1
ＤＲＧ．ＮＯ．
 41
0.9375
  7
EXCADSTD
 72
     5
 11
370.358592505185
 21
13.427377675439
 31
0.0
100
AcDbText
  0
TEXT
  5
7B
330
65
100
AcDbEntity
  8
図枠細線
  6
CONTINUOUS
 62
   252
100
AcDbText
 10
345.358592505185
 20
13.427377675439
 30
0.0
 40
2.0
  1
図面番号
 41
1.102941176471
  7
EXCADSTD
 72
     5
 11
355.358592505185
 21
13.427377675439
 31
0.0
100
AcDbText
  0
TEXT
  5
7C
330
65
100
AcDbEntity
  8
図枠細線
  6
CONTINUOUS
 62
   252
100
AcDbText
 10
269.358592505185
 20
13.427377675439
 30
0.0
 40
2.0
  1
日付
 41
1.171875
  7
EXCADSTD
 72
     5
 11
274.358592505185
 21
13.427377675439
 31
0.0
100
AcDbText
  0
TEXT
  5
7D
330
65
100
AcDbEntity
  8
図枠細線
  6
CONTINUOUS
 62
   252
100
AcDbText
 10
251.451512505185
 20
13.427377675439
 30
0.0
 40
2.0
  1
尺度
 41
1.171875
  7
EXCADSTD
 72
     5
 11
256.451512505185
 21
13.427377675439
 31
0.0
100
AcDbText
  0
TEXT
  5
7E
330
65
100
AcDbEntity
  8
図枠細線
  6
CONTINUOUS
 62
   252
100
AcDbText
 10
232.358592505185
 20
13.427377675439
 30
0.0
 40
2.0
  1
第三角法
 41
1.102941176471
  7
EXCADSTD
 72
     5
 11
242.358592505185
 21
13.427377675439
 31
0.0
100
AcDbText
  0
TEXT
  5
7F
330
65
100
AcDbEntity
  8
図枠細線
  6
CONTINUOUS
 62
   252
100
AcDbText
 10
212.358592505185
 20
28.427377675439
 30
0.0
 40
2.0
  1
ＮＯＴＥ
 41
0.923076923077
  7
EXCADSTD
 72
     5
 11
220.358592505185
 21
28.427377675439
 31
0.0
100
AcDbText
  0
LINE
  5
80
330
65
100
AcDbEntity
  8
図枠細線
  6
CONTINUOUS
 62
   252
100
AcDbLine
 10
287.858592505185
 20
23.427375675439
 30
0.0
 11
344.858592505185
 21
23.427375675439
 31
0.0
  0
LINE
  5
81
330
65
100
AcDbEntity
  8
図枠太線
  6
CONTINUOUS
 62
   251
100
AcDbLine
 10
287.858584505185
 20
15.927375675439
 30
0.0
 11
344.858592505185
 21
15.927375675439
 31
0.0
  0
LINE
  5
82
330
65
100
AcDbEntity
  8
図枠細線
  6
CONTINUOUS
 62
   252
100
AcDbLine
 10
344.858592505185
 20
15.927375675439
 30
0.0
 11
401.858584505185
 21
15.927375675439
 31
0.0
  0
LINE
  5
83
330
65
100
AcDbEntity
  8
図枠太線
  6
CONTINUOUS
 62
   251
100
AcDbLine
 10
344.858592505185
 20
0.927377675439
 30
0.0
 11
344.858592505185
 21
30.927375675439
 31
0.0
  0
LINE
  5
84
330
65
100
AcDbEntity
  8
図枠太線
  6
CONTINUOUS
 62
   251
100
AcDbLine
 10
287.858592505185
 20
0.927377675439
 30
0.0
 11
287.858592505185
 21
30.927375675439
 31
0.0
  0
LINE
  5
85
330
65
100
AcDbEntity
  8
図枠細線
  6
CONTINUOUS
 62
   252
100
AcDbLine
 10
268.858592505185
 20
0.927377675439
 30
0.0
 11
268.858592505185
 21
15.927375675439
 31
0.0
  0
LINE
  5
86
330
65
100
AcDbEntity
  8
図枠細線
  6
CONTINUOUS
 62
   252
100
AcDbLine
 10
250.858592505185
 20
0.927377675439
 30
0.0
 11
250.858592505185
 21
15.927375675439
 31
0.0
  0
LINE
  5
87
330
65
100
AcDbEntity
  8
図枠細線
  6
CONTINUOUS
 62
   252
100
AcDbLine
 10
273.858592505185
 20
30.927375675439
 30
0.0
 11
273.858592505185
 21
15.927375675439
 31
0.0
  0
LINE
  5
88
330
65
100
AcDbEntity
  8
図枠細線
  6
CONTINUOUS
 62
   252
100
AcDbLine
 10
259.858592505185
 20
30.927375675439
 30
0.0
 11
259.858592505185
 21
15.927375675439
 31
0.0
  0
LINE
  5
89
330
65
100
AcDbEntity
  8
図枠細線
  6
CONTINUOUS
 62
   252
100
AcDbLine
 10
245.858592505185
 20
30.927375675439
 30
0.0
 11
245.858592505185
 21
15.927375675439
 31
0.0
  0
LINE
  5
8A
330
65
100
AcDbEntity
  8
図枠太線
  6
CONTINUOUS
 62
   251
100
AcDbLine
 10
231.858592505185
 20
0.927377675439
 30
0.0
 11
231.858592505185
 21
30.927375675439
 31
0.0
  0
LINE
  5
8B
330
65
100
AcDbEntity
  8
図枠細線
  6
CONTINUOUS
 62
   252
100
AcDbLine
 10
211.858592505185
 20
25.927375675439
 30
0.0
 11
231.858592505185
 21
25.927375675439
 31
0.0
  0
LINE
  5
8C
330
65
100
AcDbEntity
  8
図枠細線
  6
CONTINUOUS
 62
   252
100
AcDbLine
 10
211.858592505185
 20
20.927375675439
 30
0.0
 11
231.858592505185
 21
20.927375675439
 31
0.0
  0
LINE
  5
8D
330
65
100
AcDbEntity
  8
図枠細線
  6
CONTINUOUS
 62
   252
100
AcDbLine
 10
211.858592505185
 20
10.927375675439
 30
0.0
 11
231.858592505185
 21
10.927375675439
 31
0.0
  0
LINE
  5
8E
330
65
100
AcDbEntity
  8
図枠細線
  6
CONTINUOUS
 62
   252
100
AcDbLine
 10
211.858592505185
 20
5.927377675439
 30
0.0
 11
231.858592505185
 21
5.927377675439
 31
0.0
  0
LINE
  5
8F
330
65
100
AcDbEntity
  8
図枠太線
  6
CONTINUOUS
 62
   251
100
AcDbLine
 10
211.858592505185
 20
30.927375675439
 30
0.0
 11
401.858584505185
 21
30.927375675439
 31
0.0
  0
LINE
  5
90
330
65
100
AcDbEntity
  8
図枠太線
  6
CONTINUOUS
 62
   251
100
AcDbLine
 10
1.858584505185
 20
275.927375675439
 30
0.0
 11
401.858584505185
 21
275.927375675439
 31
0.0
  0
LINE
  5
91
330
65
100
AcDbEntity
  8
図枠太線
  6
CONTINUOUS
 62
   251
100
AcDbLine
 10
401.858584505185
 20
0.927375675439
 30
0.0
 11
401.858584505185
 21
275.927375675439
 31
0.0
  0
LINE
  5
92
330
65
100
AcDbEntity
  8
図枠太線
  6
CONTINUOUS
 62
   251
100
AcDbLine
 10
1.858584505185
 20
0.927375675439
 30
0.0
 11
401.858584505185
 21
0.927375675439
 31
0.0
  0
ENDBLK
  5
94
330
65
100
AcDbEntity
  8
0
100
AcDbBlockEnd
  0
BLOCK
  5
29C0
330
29BF
100
AcDbEntity
  8
0
100
AcDbBlockBegin
  2
A4横用_タイトル
 70
     0
 10
0.0
 20
0.0
 30
0.0
  3
A4横用_タイトル
  1

  0
LINE
  5
29C1
330
29BF
100
AcDbEntity
  8
図枠細線
  6
CONTINUOUS
100
AcDbLine
 10
75.061011071051
 20
16.806607253358
 30
0.0
 11
144.061011071051
 21
16.806604789072
 31
0.0
  0
LINE
  5
29C2
330
29BF
100
AcDbEntity
  8
図枠細線
  6
CONTINUOUS
 62
   252
100
AcDbLine
 10
4.061011071051
 20
11.806606253358
 30
0.0
 11
75.061011071051
 21
11.806606253358
 31
0.0
  0
LINE
  5
29C3
330
29BF
100
AcDbEntity
  8
図枠細線
  6
CONTINUOUS
 62
   252
100
AcDbLine
 10
4.061011071051
 20
21.806606253358
 30
0.0
 11
75.061011071051
 21
21.806606253358
 31
0.0
  0
LINE
  5
29C4
330
29BF
100
AcDbEntity
  8
図枠細線
  6
CONTINUOUS
 62
   252
100
AcDbLine
 10
4.061011071051
 20
26.806606253358
 30
0.0
 11
75.061011071051
 21
26.806606253358
 31
0.0
  0
LINE
  5
29C5
330
29BF
100
AcDbEntity
  8
図枠細線
  6
CONTINUOUS
100
AcDbLine
 10
4.061011071051
 20
16.806608253358
 30
0.0
 11
75.061011071051
 21
16.806608253358
 31
0.0
  0
TEXT
  5
29C6
330
29BF
100
AcDbEntity
  8
図枠細線
  6
CONTINUOUS
 62
   252
100
AcDbText
 10
76.405475827713
 20
9.560308253358
 30
0.0
 40
2.0
  1
ＴＨＩＲＤ　ＡＮＧＬＥ
 41
0.691099486738
  7
EXCADSTD
 72
     5
 11
94.005476089973
 21
9.560308253358
 31
0.0
100
AcDbText
  0
TEXT
  5
29C7
330
29BF
100
AcDbEntity
  8
図枠細線
  6
CONTINUOUS
 62
   252
100
AcDbText
 10
76.705775880921
 20
14.306608253358
 30
0.0
 40
2.0
  1
第三角法
 41
1.102941176471
  7
EXCADSTD
 72
     5
 11
86.705775880921
 21
14.306608253358
 31
0.0
100
AcDbText
  0
TEXT
  5
29C8
330
29BF
100
AcDbEntity
  8
図枠細線
  6
CONTINUOUS
 62
   252
100
AcDbText
 10
76.705775880921
 20
26.806608253358
 30
0.0
 40
2.0
  1
ＡＰＰＲＯＶＥＤ
 41
0.695652184279
  7
EXCADSTD
 72
     5
 11
89.505776071656
 21
26.806608253358
 31
0.0
100
AcDbText
  0
TEXT
  5
29C9
330
29BF
100
AcDbEntity
  8
図枠細線
  6
CONTINUOUS
 62
   252
100
AcDbText
 10
76.705775880921
 20
29.306608253358
 30
0.0
 40
2.0
  1
承認
 41
1.171875
  7
EXCADSTD
 72
     5
 11
81.705775880921
 21
29.306608253358
 31
0.0
100
AcDbText
  0
LINE
  5
29CA
330
29BF
100
AcDbEntity
  8
図枠細線
  6
CONTINUOUS
 62
   252
100
AcDbLine
 10
98.061011071051
 20
31.806606253358
 30
0.0
 11
98.061011071051
 21
16.806606253358
 31
0.0
  0
TEXT
  5
29CB
330
29BF
100
AcDbEntity
  8
図枠細線
  6
CONTINUOUS
 62
   252
100
AcDbText
 10
104.216531119804
 20
14.306608253358
 30
0.0
 40
2.0
  1
ＳＣＡＬＥ
 41
0.903614457831
  7
EXCADSTD
 72
     5
 11
114.216531119804
 21
14.306608253358
 31
0.0
100
AcDbText
  0
TEXT
  5
29CC
330
29BF
100
AcDbEntity
  8
図枠細線
  6
CONTINUOUS
 62
   252
100
AcDbText
 10
98.844044119804
 20
14.306608253358
 30
0.0
 40
2.0
  1
尺度
 41
1.171875
  7
EXCADSTD
 72
     5
 11
103.844044119804
 21
14.306608253358
 31
0.0
100
AcDbText
  0
TEXT
  5
29CD
330
29BF
100
AcDbEntity
  8
図枠細線
  6
CONTINUOUS
 62
   252
100
AcDbText
 10
98.968727707497
 20
26.806608253358
 30
0.0
 40
2.0
  1
ＣＨＥＣＫＥＤ
 41
0.831249989569
  7
EXCADSTD
 72
     5
 11
112.268727540604
 21
26.806608253358
 31
0.0
100
AcDbText
  0
TEXT
  5
29CE
330
29BF
100
AcDbEntity
  8
図枠細線
  6
CONTINUOUS
 62
   252
100
AcDbText
 10
98.968727707497
 20
29.306608253358
 30
0.0
 40
2.0
  1
検図
 41
1.209677419355
  7
EXCADSTD
 72
     5
 11
103.968727707497
 21
29.306608253358
 31
0.0
100
AcDbText
  0
LINE
  5
29CF
330
29BF
100
AcDbEntity
  8
図枠細線
  6
CONTINUOUS
 62
   252
100
AcDbLine
 10
121.061011071051
 20
31.806606253358
 30
0.0
 11
121.061011071051
 21
16.806606253358
 31
0.0
  0
TEXT
  5
29D0
330
29BF
100
AcDbEntity
  8
図枠細線
  6
CONTINUOUS
 62
   252
100
AcDbText
 10
128.001465247253
 20
14.306608253358
 30
0.0
 40
2.0
  1
ＤＡＴＥ
 41
0.923076923077
  7
EXCADSTD
 72
     5
 11
136.001465247253
 21
14.306608253358
 31
0.0
100
AcDbText
  0
TEXT
  5
29D1
330
29BF
100
AcDbEntity
  8
図枠細線
  6
CONTINUOUS
 62
   252
100
AcDbText
 10
122.066415498841
 20
14.306608253358
 30
0.0
 40
2.0
  1
日付
 41
1.171875
  7
EXCADSTD
 72
     5
 11
127.066415498841
 21
14.306608253358
 31
0.0
100
AcDbText
  0
TEXT
  5
29D2
330
29BF
100
AcDbEntity
  8
図枠細線
  6
CONTINUOUS
 62
   252
100
AcDbText
 10
121.59429406571
 20
29.306608253358
 30
0.0
 40
2.0
  1
製図
 41
1.209677419355
  7
EXCADSTD
 72
     5
 11
126.59429406571
 21
29.306608253358
 31
0.0
100
AcDbText
  0
TEXT
  5
29D3
330
29BF
100
AcDbEntity
  8
図枠細線
  6
CONTINUOUS
 62
   252
100
AcDbText
 10
121.59429406571
 20
26.806608253358
 30
0.0
 40
2.0
  1
ＤＲＡＷＮ
 41
0.882352941176
  7
EXCADSTD
 72
     5
 11
131.59429406571
 21
26.806608253358
 31
0.0
100
AcDbText
  0
TEXT
  5
29D4
330
29BF
100
AcDbEntity
  8
図枠細線
  6
CONTINUOUS
 62
   252
100
AcDbText
 10
226.591229661348
 20
14.306608253358
 30
0.0
 40
2.0
  1
ＤＲＧ．ＮＯ．
 41
0.9375
  7
EXCADSTD
 72
     5
 11
240.591229661348
 21
14.306608253358
 31
0.0
100
AcDbText
  0
LINE
  5
29D5
330
29BF
100
AcDbEntity
  8
図枠太線
  6
CONTINUOUS
 62
   251
100
AcDbLine
 10
144.061003071051
 20
16.806606253358
 30
0.0
 11
214.061011071051
 21
16.806606253358
 31
0.0
  0
LINE
  5
29D6
330
29BF
100
AcDbEntity
  8
図枠細線
  6
CONTINUOUS
 62
   252
100
AcDbLine
 10
144.061011071051
 20
24.306606253358
 30
0.0
 11
214.061011071051
 21
24.306606253358
 31
0.0
  0
TEXT
  5
29D7
330
29BF
100
AcDbEntity
  8
図枠ロゴマーク
  6
CONTINUOUS
 62
   253
100
AcDbText
 10
146.433776781596
 20
8.399000253358
 30
0.0
 40
7.0
  1
東和制電工業株式会社
 41
0.80361088462
  7
EXCADSTD
 72
     5
 11
212.437017438349
 21
8.399000253358
 31
0.0
100
AcDbText
  0
TEXT
  5
29D8
330
29BF
100
AcDbEntity
  8
図枠細線
  6
CONTINUOUS
 62
   252
100
AcDbText
 10
215.156179912936
 20
14.306608253358
 30
0.0
 40
2.0
  1
図面番号
 41
1.102941176471
  7
EXCADSTD
 72
     5
 11
225.156179912936
 21
14.306608253358
 31
0.0
100
AcDbText
  0
TEXT
  5
29D9
330
29BF
100
AcDbEntity
  8
図枠細線
  6
CONTINUOUS
 62
   252
100
AcDbText
 10
221.591229661348
 20
29.306608253358
 30
0.0
 40
2.0
  1
ＴＩＴＬＥ
 41
0.903614457831
  7
EXCADSTD
 72
     5
 11
231.591229661348
 21
29.306608253358
 31
0.0
100
AcDbText
  0
TEXT
  5
29DA
330
29BF
100
AcDbEntity
  8
図枠細線
  6
CONTINUOUS
 62
   252
100
AcDbText
 10
215.156179912936
 20
29.306608253358
 30
0.0
 40
2.0
  1
名称
 41
1.171875
  7
EXCADSTD
 72
     5
 11
220.156179912936
 21
29.306608253358
 31
0.0
100
AcDbText
  0
LINE
  5
29DB
330
29BF
100
AcDbEntity
  8
図枠太線
  6
CONTINUOUS
 62
   251
100
AcDbLine
 10
4.061011071051
 20
1.806608253358
 30
0.0
 11
284.061011071051
 21
1.806608253358
 31
0.0
  0
LINE
  5
29DC
330
29BF
100
AcDbEntity
  8
図枠細線
  6
CONTINUOUS
 62
   252
100
AcDbLine
 10
4.061011071051
 20
6.806608253358
 30
0.0
 11
75.061011071051
 21
6.806608253358
 31
0.0
  0
LINE
  5
29DD
330
29BF
100
AcDbEntity
  8
図枠太線
  6
CONTINUOUS
 62
   251
100
AcDbLine
 10
75.061011071051
 20
1.806608253358
 30
0.0
 11
75.061011071051
 21
31.806606253358
 31
0.0
  0
TEXT
  5
29DE
330
29BF
100
AcDbEntity
  8
図枠細線
  6
CONTINUOUS
 62
   252
100
AcDbText
 10
76.330551827713
 20
6.638319253358
 30
0.0
 40
2.0
  1
ＰＲＯＪＥＣＴＩＯＮ
 41
0.754285710199
  7
EXCADSTD
 72
     5
 11
93.930551732346
 21
6.638319253358
 31
0.0
100
AcDbText
  0
LINE
  5
29DF
330
29BF
100
AcDbEntity
  8
図枠細線
  6
CONTINUOUS
 62
   252
100
AcDbLine
 10
98.061011071051
 20
1.806606931929
 30
0.0
 11
98.061011071051
 21
16.806604931929
 31
0.0
  0
LINE
  5
29E0
330
29BF
100
AcDbEntity
  8
図枠細線
  6
CONTINUOUS
 62
   252
100
AcDbLine
 10
121.061011071051
 20
1.806607574787
 30
0.0
 11
121.061011071051
 21
16.806605574787
 31
0.0
  0
LINE
  5
29E1
330
29BF
100
AcDbEntity
  8
図枠太線
  6
CONTINUOUS
 62
   251
100
AcDbLine
 10
284.061011071051
 20
1.806608253358
 30
0.0
 11
284.061011071051
 21
31.806606253358
 31
0.0
  0
LINE
  5
29E2
330
29BF
100
AcDbEntity
  8
図枠細線
  6
CONTINUOUS
 62
   252
100
AcDbLine
 10
214.061011071051
 20
16.806606253358
 30
0.0
 11
284.061011071051
 21
16.806606253358
 31
0.0
  0
TEXT
  5
29E3
330
29BF
100
AcDbEntity
  8
図枠細線
  6
CONTINUOUS
 62
   252
100
AcDbText
 10
146.199593676182
 20
3.454099253358
 30
0.0
 40
3.5
  1
ＴＯＷＡ　ＳＥＩＤＥＮ　ＩＮＤＵＳＴＲＩＡＬ　ＣＯ．，ＬＴＤ．
 41
0.528937826907
  7
EXCADSTD
 72
     5
 11
213.339435171588
 21
3.454099253358
 31
0.0
100
AcDbText
  0
LINE
  5
29E4
330
29BF
100
AcDbEntity
  8
図枠太線
  6
CONTINUOUS
 62
   251
100
AcDbLine
 10
144.061011071051
 20
1.806608253358
 30
0.0
 11
144.061011071051
 21
31.806606253358
 31
0.0
  0
LINE
  5
29E5
330
29BF
100
AcDbEntity
  8
図枠太線
  6
CONTINUOUS
 62
   251
100
AcDbLine
 10
214.061011071051
 20
1.806608253358
 30
0.0
 11
214.061011071051
 21
31.806606253358
 31
0.0
  0
MTEXT
  5
29E6
330
29BF
100
AcDbEntity
  8
図枠太線
100
AcDbMText
 10
5.064337346478
 20
31.010982137407
 30
0.0
 40
2.5
 41
8.67856098472
 71
     1
 72
     5
  1
{\Fmonotxt.shx,bigfont.shx|c128;図暦}
  0
LINE
  5
29E7
330
29BF
100
AcDbEntity
  8
図枠太線
  6
CONTINUOUS
 62
   251
100
AcDbLine
 10
4.061011071051
 20
1.806608253358
 30
0.0
 11
4.061011071051
 21
31.806606253358
 31
0.0
  0
TEXT
  5
29E8
330
29BF
100
AcDbEntity
  8
図枠細線
 48
10.0
100
AcDbText
 10
12.260817420402
 20
28.625419626495
 30
0.0
 40
2.0
  1
CHANGE NOTICE
100
AcDbText
  0
ENDBLK
  5
29E9
330
29BF
100
AcDbEntity
  8
0
100
AcDbBlockEnd
  0
BLOCK
  5
29F5
330
29F4
100
AcDbEntity
  8
0
100
AcDbBlockBegin
  2
A4縦用_タイトル
 70
     0
 10
0.0
 20
0.0
 30
0.0
  3
A4縦用_タイトル
  1

  0
LINE
  5
29F6
330
29F4
100
AcDbEntity
  8
図枠太線
  6
CONTINUOUS
 62
   251
100
AcDbLine
 10
2.368253864267
 20
4.525433224584
 30
0.0
 11
192.368245864267
 21
4.525433224584
 31
0.0
  0
LINE
  5
29F7
330
29F4
100
AcDbEntity
  8
図枠太線
  6
CONTINUOUS
 62
   251
100
AcDbLine
 10
78.368245864267
 20
19.525431224584
 30
0.0
 11
135.368253864267
 21
19.525431224584
 31
0.0
  0
LINE
  5
29F8
330
29F4
100
AcDbEntity
  8
図枠細線
  6
CONTINUOUS
 62
   252
100
AcDbLine
 10
78.368253864267
 20
27.025431224584
 30
0.0
 11
135.368253864267
 21
27.025431224584
 31
0.0
  0
TEXT
  5
29F9
330
29F4
100
AcDbEntity
  8
図枠ロゴマーク
  6
CONTINUOUS
 62
   253
100
AcDbText
 10
80.617009864267
 20
11.117825224584
 30
0.0
 40
7.0
  1
東和制電工業株式会社
 41
0.639204545455
  7
EXCADSTD
 72
     5
 11
133.117009864267
 21
11.117825224584
 31
0.0
100
AcDbText
  0
TEXT
  5
29FA
330
29F4
100
AcDbEntity
  8
図枠細線
  6
CONTINUOUS
 62
   252
100
AcDbText
 10
80.579549864267
 20
6.172924224584
 30
0.0
 40
3.5
  1
ＴＯＷＡ　ＳＥＩＤＥＮ　ＩＮＤＵＳＴＲＩＡＬ　ＣＯ．，ＬＴＤ．
 41
0.414568012377
  7
EXCADSTD
 72
     5
 11
133.202049568628
 21
6.172924224584
 31
0.0
100
AcDbText
  0
LINE
  5
29FB
330
29F4
100
AcDbEntity
  8
図枠太線
  6
CONTINUOUS
 62
   251
100
AcDbLine
 10
2.368253864267
 20
4.525433224584
 30
0.0
 11
2.368253864267
 21
34.525431224584
 31
0.0
  0
TEXT
  5
29FC
330
29F4
100
AcDbEntity
  8
図枠細線
  6
CONTINUOUS
 62
   252
100
AcDbText
 10
22.504308136501
 20
12.279133224584
 30
0.0
 40
2.0
  1
ＴＨＩＲＤ　ＡＮＧＬＥ
 41
0.691099486738
  7
EXCADSTD
 72
     5
 11
40.104308398762
 21
12.279133224584
 31
0.0
100
AcDbText
  0
TEXT
  5
29FD
330
29F4
100
AcDbEntity
  8
図枠細線
  6
CONTINUOUS
 62
   252
100
AcDbText
 10
22.429384136501
 20
9.357144224584
 30
0.0
 40
2.0
  1
ＰＲＯＪＥＣＴＩＯＮ
 41
0.754285710199
  7
EXCADSTD
 72
     5
 11
40.029384041134
 21
9.357144224584
 31
0.0
100
AcDbText
  0
LINE
  5
29FE
330
29F4
100
AcDbEntity
  8
図枠細線
  6
CONTINUOUS
100
AcDbLine
 10
22.368253864267
 20
19.525433224584
 30
0.0
 11
78.368253864267
 21
19.525431224584
 31
0.0
  0
TEXT
  5
29FF
330
29F4
100
AcDbEntity
  8
図枠細線
  6
CONTINUOUS
 62
   252
100
AcDbText
 10
22.868253864267
 20
17.025433224584
 30
0.0
 40
2.0
  1
第三角法
 41
1.102941176471
  7
EXCADSTD
 72
     5
 11
32.868253864267
 21
17.025433224584
 31
0.0
100
AcDbText
  0
TEXT
  5
2A00
330
29F4
100
AcDbEntity
  8
図枠細線
  6
CONTINUOUS
 62
   252
100
AcDbText
 10
22.868253864267
 20
29.525433224584
 30
0.0
 40
2.0
  1
ＡＰＰＲＯＶＥＤ
 41
0.695652184279
  7
EXCADSTD
 72
     5
 11
35.668254055002
 21
29.525433224584
 31
0.0
100
AcDbText
  0
LINE
  5
2A01
330
29F4
100
AcDbEntity
  8
図枠細線
  6
CONTINUOUS
 62
   252
100
AcDbLine
 10
2.368253864267
 20
9.525433224584
 30
0.0
 11
22.368253864267
 21
9.525433224584
 31
0.0
  0
LINE
  5
2A02
330
29F4
100
AcDbEntity
  8
図枠細線
  6
CONTINUOUS
 62
   252
100
AcDbLine
 10
2.368253864267
 20
14.525431224584
 30
0.0
 11
22.368253864267
 21
14.525431224584
 31
0.0
  0
LINE
  5
2A03
330
29F4
100
AcDbEntity
  8
図枠細線
  6
CONTINUOUS
 62
   252
100
AcDbLine
 10
2.368253864267
 20
24.525431224584
 30
0.0
 11
22.368253864267
 21
24.525431224584
 31
0.0
  0
LINE
  5
2A04
330
29F4
100
AcDbEntity
  8
図枠細線
  6
CONTINUOUS
 62
   252
100
AcDbLine
 10
2.368253864267
 20
29.525431224584
 30
0.0
 11
22.368253864267
 21
29.525431224584
 31
0.0
  0
LINE
  5
2A05
330
29F4
100
AcDbEntity
  8
図枠細線
  6
CONTINUOUS
100
AcDbLine
 10
2.368253864267
 20
19.525433224584
 30
0.0
 11
22.368253864267
 21
19.525433224584
 31
0.0
  0
TEXT
  5
2A06
330
29F4
100
AcDbEntity
  8
図枠細線
  6
CONTINUOUS
 62
   252
100
AcDbText
 10
2.868253864267
 20
32.025433224584
 30
0.0
 40
2.0
  1
ＮＯＴＥ
 41
0.923076923077
  7
EXCADSTD
 72
     5
 11
10.868253864267
 21
32.025433224584
 31
0.0
100
AcDbText
  0
LINE
  5
2A07
330
29F4
100
AcDbEntity
  8
図枠太線
  6
CONTINUOUS
 62
   251
100
AcDbLine
 10
22.368253864267
 20
4.525433224584
 30
0.0
 11
22.368253864267
 21
34.525431224584
 31
0.0
  0
TEXT
  5
2A08
330
29F4
100
AcDbEntity
  8
図枠細線
  6
CONTINUOUS
 62
   252
100
AcDbText
 10
22.868253864267
 20
32.025433224584
 30
0.0
 40
2.0
  1
承認
 41
1.171875
  7
EXCADSTD
 72
     5
 11
27.868253864267
 21
32.025433224584
 31
0.0
100
AcDbText
  0
TEXT
  5
2A09
330
29F4
100
AcDbEntity
  8
図枠細線
  6
CONTINUOUS
 62
   252
100
AcDbText
 10
60.711709035982
 20
32.025433224584
 30
0.0
 40
2.0
  1
製図
 41
1.209677419355
  7
EXCADSTD
 72
     5
 11
65.711709035982
 21
32.025433224584
 31
0.0
100
AcDbText
  0
TEXT
  5
2A0A
330
29F4
100
AcDbEntity
  8
図枠細線
  6
CONTINUOUS
 62
   252
100
AcDbText
 10
60.711709035982
 20
29.525433224584
 30
0.0
 40
2.0
  1
ＤＲＡＷＮ
 41
0.882352941176
  7
EXCADSTD
 72
     5
 11
70.711709035982
 21
29.525433224584
 31
0.0
100
AcDbText
  0
TEXT
  5
2A0B
330
29F4
100
AcDbEntity
  8
図枠細線
  6
CONTINUOUS
 62
   252
100
AcDbText
 10
60.834891743877
 20
17.025433224584
 30
0.0
 40
2.0
  1
日付
 41
1.171875
  7
EXCADSTD
 72
     5
 11
65.834891743877
 21
17.025433224584
 31
0.0
100
AcDbText
  0
TEXT
  5
2A0C
330
29F4
100
AcDbEntity
  8
図枠細線
  6
CONTINUOUS
 62
   252
100
AcDbText
 10
47.333660864267
 20
17.025433224584
 30
0.0
 40
2.0
  1
ＳＣＡＬＥ
 41
0.903614457831
  7
EXCADSTD
 72
     5
 11
57.333660864267
 21
17.025433224584
 31
0.0
100
AcDbText
  0
TEXT
  5
2A0D
330
29F4
100
AcDbEntity
  8
図枠細線
  6
CONTINUOUS
 62
   252
100
AcDbText
 10
42.281425990082
 20
29.525433224584
 30
0.0
 40
2.0
  1
ＣＨＥＣＫＥＤ
 41
0.831249989569
  7
EXCADSTD
 72
     5
 11
55.581425823189
 21
29.525433224584
 31
0.0
100
AcDbText
  0
LINE
  5
2A0E
330
29F4
100
AcDbEntity
  8
図枠細線
  6
CONTINUOUS
 62
   252
100
AcDbLine
 10
40.968253864267
 20
34.525431224584
 30
0.0
 11
40.968253864267
 21
19.525431224584
 31
0.0
  0
LINE
  5
2A0F
330
29F4
100
AcDbEntity
  8
図枠細線
  6
CONTINUOUS
 62
   252
100
AcDbLine
 10
40.968253864267
 20
4.525433224584
 30
0.0
 11
40.968253864267
 21
19.525431224584
 31
0.0
  0
TEXT
  5
2A10
330
29F4
100
AcDbEntity
  8
図枠細線
  6
CONTINUOUS
 62
   252
100
AcDbText
 10
41.961173864267
 20
17.025433224584
 30
0.0
 40
2.0
  1
尺度
 41
1.171875
  7
EXCADSTD
 72
     5
 11
46.961173864267
 21
17.025433224584
 31
0.0
100
AcDbText
  0
TEXT
  5
2A11
330
29F4
100
AcDbEntity
  8
図枠細線
  6
CONTINUOUS
 62
   252
100
AcDbText
 10
42.281425990082
 20
32.025433224584
 30
0.0
 40
2.0
  1
検図
 41
1.209677419355
  7
EXCADSTD
 72
     5
 11
47.281425990082
 21
32.025433224584
 31
0.0
100
AcDbText
  0
LINE
  5
2A12
330
29F4
100
AcDbEntity
  8
図枠細線
  6
CONTINUOUS
 62
   252
100
AcDbLine
 10
59.768253864267
 20
34.525431224584
 30
0.0
 11
59.768253864267
 21
19.525431224584
 31
0.0
  0
LINE
  5
2A13
330
29F4
100
AcDbEntity
  8
図枠細線
  6
CONTINUOUS
 62
   252
100
AcDbLine
 10
59.768253864267
 20
4.525433224584
 30
0.0
 11
59.768253864267
 21
19.525431224584
 31
0.0
  0
LINE
  5
2A14
330
29F4
100
AcDbEntity
  8
図枠太線
  6
CONTINUOUS
 62
   251
100
AcDbLine
 10
78.368253864267
 20
4.525433224584
 30
0.0
 11
78.368253864267
 21
34.525431224584
 31
0.0
  0
TEXT
  5
2A15
330
29F4
100
AcDbEntity
  8
図枠細線
  6
CONTINUOUS
 62
   252
100
AcDbText
 10
66.334891743877
 20
17.025433224584
 30
0.0
 40
2.0
  1
ＤＡＴＥ
 41
0.923076923077
  7
EXCADSTD
 72
     5
 11
74.334891743877
 21
17.025433224584
 31
0.0
100
AcDbText
  0
LINE
  5
2A16
330
29F4
100
AcDbEntity
  8
図枠細線
  6
CONTINUOUS
 62
   252
100
AcDbLine
 10
135.368253864267
 20
19.525431224584
 30
0.0
 11
192.368245864267
 21
19.525431224584
 31
0.0
  0
TEXT
  5
2A17
330
29F4
100
AcDbEntity
  8
図枠細線
  6
CONTINUOUS
 62
   252
100
AcDbText
 10
141.868253864267
 20
32.025433224584
 30
0.0
 40
2.0
  1
ＴＩＴＬＥ
 41
0.903614457831
  7
EXCADSTD
 72
     5
 11
151.868253864267
 21
32.025433224584
 31
0.0
100
AcDbText
  0
LINE
  5
2A18
330
29F4
100
AcDbEntity
  8
図枠太線
  6
CONTINUOUS
 62
   251
100
AcDbLine
 10
135.368253864267
 20
4.525433224584
 30
0.0
 11
135.368253864267
 21
34.525431224584
 31
0.0
  0
TEXT
  5
2A19
330
29F4
100
AcDbEntity
  8
図枠細線
  6
CONTINUOUS
 62
   252
100
AcDbText
 10
135.868253864267
 20
17.025433224584
 30
0.0
 40
2.0
  1
図面番号
 41
1.102941176471
  7
EXCADSTD
 72
     5
 11
145.868253864267
 21
17.025433224584
 31
0.0
100
AcDbText
  0
TEXT
  5
2A1A
330
29F4
100
AcDbEntity
  8
図枠細線
  6
CONTINUOUS
 62
   252
100
AcDbText
 10
135.868253864267
 20
32.025433224584
 30
0.0
 40
2.0
  1
名称
 41
1.171875
  7
EXCADSTD
 72
     5
 11
140.868253864267
 21
32.025433224584
 31
0.0
100
AcDbText
  0
TEXT
  5
2A1B
330
29F4
100
AcDbEntity
  8
図枠細線
  6
CONTINUOUS
 62
   252
100
AcDbText
 10
146.868253864267
 20
17.025433224584
 30
0.0
 40
2.0
  1
ＤＲＧ．ＮＯ．
 41
0.9375
  7
EXCADSTD
 72
     5
 11
160.868253864267
 21
17.025433224584
 31
0.0
100
AcDbText
  0
LINE
  5
2A1C
330
29F4
100
AcDbEntity
  8
図枠太線
  6
CONTINUOUS
 62
   251
100
AcDbLine
 10
192.368245864267
 20
4.525433224584
 30
0.0
 11
192.368245864267
 21
34.525431224584
 31
0.0
  0
ENDBLK
  5
2A1D
330
29F4
100
AcDbEntity
  8
0
100
AcDbBlockEnd
  0
BLOCK
  5
2A33
330
2A32
100
AcDbEntity
  8
0
100
AcDbBlockBegin
  2
A3横用_タイトル
 70
     0
 10
0.0
 20
0.0
 30
0.0
  3
A3横用_タイトル
  1

  0
LINE
  5
2A34
330
2A32
100
AcDbEntity
  8
図枠細線
  6
CONTINUOUS
 62
   252
100
AcDbLine
 10
205.098414535793
 20
33.525959753527
 30
0.0
 11
305.098414535793
 21
33.525959753527
 31
0.0
  0
LINE
  5
2A35
330
2A32
100
AcDbEntity
  8
図枠太線
  6
CONTINUOUS
 62
   251
100
AcDbLine
 10
205.098414535793
 20
23.525959753527
 30
0.0
 11
305.098414535793
 21
23.525959753527
 31
0.0
  0
LINE
  5
2A36
330
2A32
100
AcDbEntity
  8
図枠細線
  6
CONTINUOUS
100
AcDbLine
 10
5.098414535793
 20
23.525959753527
 30
0.0
 11
105.098414535793
 21
23.525959753527
 31
0.0
  0
LINE
  5
2A37
330
2A32
100
AcDbEntity
  8
図枠細線
  6
CONTINUOUS
 62
   252
100
AcDbLine
 10
5.098414535793
 20
36.725957753527
 30
0.0
 11
105.098414535793
 21
36.725957753527
 31
0.0
  0
LINE
  5
2A38
330
2A32
100
AcDbEntity
  8
図枠細線
  6
CONTINUOUS
 62
   252
100
AcDbLine
 10
5.098414535793
 20
30.125957753527
 30
0.0
 11
105.098414535793
 21
30.125957753527
 31
0.0
  0
LINE
  5
2A39
330
2A32
100
AcDbEntity
  8
図枠細線
  6
CONTINUOUS
 62
   252
100
AcDbLine
 10
5.098414535793
 20
16.725959753527
 30
0.0
 11
105.098414535793
 21
16.725959753527
 31
0.0
  0
LINE
  5
2A3A
330
2A32
100
AcDbEntity
  8
図枠細線
  6
CONTINUOUS
 62
   252
100
AcDbLine
 10
5.098414535793
 20
10.125959753527
 30
0.0
 11
105.098414535793
 21
10.125959753527
 31
0.0
  0
LINE
  5
2A3B
330
2A32
100
AcDbEntity
  8
図枠細線
  6
CONTINUOUS
100
AcDbLine
 10
105.098414535793
 20
23.525961753527
 30
0.0
 11
205.098414535793
 21
23.525959753527
 31
0.0
  0
LINE
  5
2A3C
330
2A32
100
AcDbEntity
  8
図枠細線
  6
CONTINUOUS
 62
   252
100
AcDbLine
 10
138.398414535793
 20
43.525959753527
 30
0.0
 11
138.398414535793
 21
18.525957753527
 31
0.0
  0
LINE
  5
2A3D
330
2A32
100
AcDbEntity
  8
図枠細線
  6
CONTINUOUS
 62
   252
100
AcDbLine
 10
171.698414535793
 20
43.525959753527
 30
0.0
 11
171.698414535793
 21
18.525957753527
 31
0.0
  0
LINE
  5
2A3E
330
2A32
100
AcDbEntity
  8
図枠細線
  6
CONTINUOUS
 62
   252
100
AcDbLine
 10
305.098414535793
 20
23.525959753527
 30
0.0
 11
405.098414535793
 21
23.525959753527
 31
0.0
  0
TEXT
  5
2A3F
330
2A32
100
AcDbEntity
  8
図枠ロゴマーク
  6
CONTINUOUS
 62
   253
100
AcDbText
 10
206.102509212755
 20
13.294257570546
 30
0.0
 40
7.0
  1
東和制電工業株式会社
 50
0.016555220185
 41
1.186384129432
  7
EXCADSTD
 72
     5
 11
303.544188309143
 21
13.322412672217
 31
0.0
100
AcDbText
  0
MTEXT
  5
2A40
330
2A32
100
AcDbEntity
  8
図枠細線
100
AcDbMText
 10
6.356764112375
 20
41.976594175478
 30
0.0
 40
2.5
 41
49.938282706292
 71
     1
 72
     5
  1
{\Fmonotxt.shx,bigfont.shx|c128;図暦　CHANGE　NOTICE}
  0
MTEXT
  5
2A41
330
2A32
100
AcDbEntity
  8
図枠細線
 48
10.0
100
AcDbMText
 10
306.544114926828
 20
41.701835800934
 30
0.0
 40
2.5
 41
28.002809618823
 71
     1
 72
     5
  1
{\Fmonotxt.shx,bigfont.shx|c128;名称　TITLE}
  0
MTEXT
  5
2A42
330
2A32
100
AcDbEntity
  8
図枠細線
 48
10.0
100
AcDbMText
 10
307.329617114284
 20
21.606206797226
 30
0.0
 40
2.5
 41
24.385612216707
 71
     1
 72
     5
  1
{\Fmonotxt.shx,bigfont.shx|c128;図面番号\PDRG.　No.}
  0
MTEXT
  5
2A43
330
2A32
100
AcDbEntity
  8
図枠細線
 48
10.0
100
AcDbMText
 10
173.726349404609
 20
21.73680662198
 30
0.0
 40
2.5
 41
25.735090160813
 71
     1
 72
     5
  1
{\Fmonotxt.shx,bigfont.shx|c128;日付 DATE}
  0
MTEXT
  5
2A44
330
2A32
100
AcDbEntity
  8
図枠細線
 48
10.0
100
AcDbMText
 10
173.48708833982
 20
41.621592044998
 30
0.0
 40
2.5
 41
24.983741184205
 71
     1
 72
     5
  1
{\Fmonotxt.shx,bigfont.shx|c128;製図　DRAWN}
  0
MTEXT
  5
2A45
330
2A32
100
AcDbEntity
  8
図枠細線
 48
10.0
100
AcDbMText
 10
139.28009927741
 20
21.866713069868
 30
0.0
 40
2.5
 41
22.629632913243
 71
     1
 72
     5
  1
{\Fmonotxt.shx,bigfont.shx|c128;尺度　SCALE}
  0
MTEXT
  5
2A46
330
2A32
100
AcDbEntity
  8
図枠細線
 48
10.0
100
AcDbMText
 10
139.910091179835
 20
41.311840415554
 30
0.0
 40
2.5
 41
28.998753428368
 71
     1
 72
     5
  1
{\Fmonotxt.shx,bigfont.shx|c128;検図  CHECKED}
  0
MTEXT
  5
2A47
330
2A32
100
AcDbEntity
  8
図枠細線
 48
10.0
100
AcDbMText
 10
114.253294667728
 20
21.916124850174
 30
0.0
 40
3.0
 41
19.692400475383
 71
     1
 72
     5
  1
{\Fmonotxt.shx,bigfont.shx|c128;第三角法}
  0
MTEXT
  5
2A48
330
2A32
100
AcDbEntity
  8
図枠細線
 48
10.0
100
AcDbMText
 10
108.986959929915
 20
15.282880185837
 30
0.0
 40
2.5
 41
27.954882823547
 71
     1
 72
     5
  1
{\Fmonotxt.shx,bigfont.shx|c128;THIRD ANGLE\PPROJECTION}
  0
MTEXT
  5
2A49
330
2A32
100
AcDbEntity
  8
図枠細線
 48
10.0
100
AcDbMText
 10
106.319432640184
 20
41.511437145487
 30
0.0
 40
2.5
 41
28.233595265074
 71
     1
 72
     5
  1
{\Fmonotxt.shx,bigfont.shx|c128;承認 APPROVED}
  0
LINE
  5
2A4A
330
2A32
100
AcDbEntity
  8
図枠太線
  6
CONTINUOUS
 62
   251
100
AcDbLine
 10
5.098414535793
 20
3.525959753527
 30
0.0
 11
405.098414535793
 21
3.525959753527
 31
0.0
  0
LINE
  5
2A4B
330
2A32
100
AcDbEntity
  8
図枠太線
 48
10.0
100
AcDbLine
 10
5.098414535793
 20
3.525959753527
 30
0.0
 11
5.098414535793
 21
43.525959753527
 31
0.0
  0
LINE
  5
2A4C
330
2A32
100
AcDbEntity
  8
図枠太線
  6
CONTINUOUS
 62
   251
100
AcDbLine
 10
105.098414535793
 20
3.525959753527
 30
0.0
 11
105.098414535793
 21
43.525959753527
 31
0.0
  0
LINE
  5
2A4D
330
2A32
100
AcDbEntity
  8
図枠細線
  6
CONTINUOUS
 62
   252
100
AcDbLine
 10
138.398414535793
 20
3.525959753527
 30
0.0
 11
138.398414535793
 21
18.525957753527
 31
0.0
  0
LINE
  5
2A4E
330
2A32
100
AcDbEntity
  8
図枠細線
  6
CONTINUOUS
 62
   252
100
AcDbLine
 10
171.698414535793
 20
3.525959753527
 30
0.0
 11
171.698414535793
 21
18.525957753527
 31
0.0
  0
LINE
  5
2A4F
330
2A32
100
AcDbEntity
  8
図枠太線
  6
CONTINUOUS
 62
   251
100
AcDbLine
 10
205.098414535793
 20
3.525959753527
 30
0.0
 11
205.098414535793
 21
43.525959753527
 31
0.0
  0
LINE
  5
2A50
330
2A32
100
AcDbEntity
  8
図枠太線
 48
10.0
100
AcDbLine
 10
405.098414535793
 20
43.525959753527
 30
0.0
 11
405.098414535793
 21
3.525959753527
 31
0.0
  0
TEXT
  5
2A51
330
2A32
100
AcDbEntity
  8
図枠細線
  6
CONTINUOUS
 62
   252
100
AcDbText
 10
208.519754474572
 20
6.482358407285
 30
0.0
 40
3.5
  1
ＴＯＷＡ　ＳＥＩＤＥＮ　ＩＮＤＵＳＴＲＩＡＬ　ＣＯ．，ＬＴＤ．
 41
0.746656297509
  7
EXCADSTD
 72
     5
 11
303.295327171727
 21
6.482358407285
 31
0.0
100
AcDbText
  0
LINE
  5
2A52
330
2A32
100
AcDbEntity
  8
図枠太線
  6
CONTINUOUS
 62
   251
100
AcDbLine
 10
305.098414535793
 20
3.525959753527
 30
0.0
 11
305.098414535793
 21
43.525959753527
 31
0.0
  0
ENDBLK
  5
2A53
330
2A32
100
AcDbEntity
  8
0
100
AcDbBlockEnd
  0
BLOCK
  5
2A6D
330
2A6C
100
AcDbEntity
  8
0
100
AcDbBlockBegin
  2
A3縦用_タイトル
 70
     0
 10
0.0
 20
0.0
 30
0.0
  3
A3縦用_タイトル
  1

  0
MTEXT
  5
2A6E
330
2A6C
100
AcDbEntity
  8
図枠細線
100
AcDbMText
 10
5.040804501593
 20
31.626098649005
 30
0.0
 40
2.5
 41
49.938282706292
 71
     1
 72
     5
  1
{\Fmonotxt.shx,bigfont.shx|c128;図暦　CHANGE　NOTICE}
  0
LINE
  5
2A6F
330
2A6C
100
AcDbEntity
  8
図枠太線
  6
CONTINUOUS
 62
   251
100
AcDbLine
 10
283.577871882961
 20
2.820844689254
 30
0.0
 11
283.577871882961
 21
32.820842689254
 31
0.0
  0
MTEXT
  5
2A70
330
2A6C
100
AcDbEntity
  8
図枠細線
 48
10.0
100
AcDbMText
 10
214.912458947454
 20
31.621488632308
 30
0.0
 40
2.5
 41
28.002809618823
 71
     1
 72
     5
  1
{\Fmonotxt.shx,bigfont.shx|c128;名称　TITLE}
  0
MTEXT
  5
2A71
330
2A6C
100
AcDbEntity
  8
図枠細線
 48
10.0
100
AcDbMText
 10
214.740030458938
 20
16.310225796722
 30
0.0
 40
2.5
 41
24.385612216707
 71
     1
 72
     5
  1
{\Fmonotxt.shx,bigfont.shx|c128;図面番号\PDRG.　No.}
  0
LINE
  5
2A72
330
2A6C
100
AcDbEntity
  8
図枠太線
  6
CONTINUOUS
 62
   251
100
AcDbLine
 10
213.577871882961
 20
2.820844689254
 30
0.0
 11
213.577871882961
 21
32.820842689254
 31
0.0
  0
LINE
  5
2A73
330
2A6C
100
AcDbEntity
  8
図枠太線
  6
CONTINUOUS
 62
   251
100
AcDbLine
 10
143.577871882961
 20
2.820844689254
 30
0.0
 11
143.577871882961
 21
32.820842689254
 31
0.0
  0
TEXT
  5
2A74
330
2A6C
100
AcDbEntity
  8
図枠細線
  6
CONTINUOUS
 62
   252
100
AcDbText
 10
145.716454488093
 20
4.468335689254
 30
0.0
 40
3.5
  1
ＴＯＷＡ　ＳＥＩＤＥＮ　ＩＮＤＵＳＴＲＩＡＬ　ＣＯ．，ＬＴＤ．
 41
0.528937826907
  7
EXCADSTD
 72
     5
 11
212.856295983498
 21
4.468335689254
 31
0.0
100
AcDbText
  0
TEXT
  5
2A75
330
2A6C
100
AcDbEntity
  8
図枠ロゴマーク
  6
CONTINUOUS
 62
   253
100
AcDbText
 10
145.950637593507
 20
9.413236689254
 30
0.0
 40
7.0
  1
東和制電工業株式会社
 41
0.80361088462
  7
EXCADSTD
 72
     5
 11
211.953878250259
 21
9.413236689254
 31
0.0
100
AcDbText
  0
LINE
  5
2A76
330
2A6C
100
AcDbEntity
  8
図枠細線
  6
CONTINUOUS
 62
   252
100
AcDbLine
 10
143.577871882961
 20
25.320842689254
 30
0.0
 11
213.577871882961
 21
25.320842689254
 31
0.0
  0
LINE
  5
2A77
330
2A6C
100
AcDbEntity
  8
図枠太線
  6
CONTINUOUS
 62
   251
100
AcDbLine
 10
143.577863882961
 20
17.820842689254
 30
0.0
 11
213.577871882961
 21
17.820842689254
 31
0.0
  0
LINE
  5
2A78
330
2A6C
100
AcDbEntity
  8
図枠細線
  6
CONTINUOUS
 62
   252
100
AcDbLine
 10
213.577871882961
 20
17.820842689254
 30
0.0
 11
283.577871882961
 21
17.820842689254
 31
0.0
  0
LINE
  5
2A79
330
2A6C
100
AcDbEntity
  8
図枠細線
  6
CONTINUOUS
 62
   252
100
AcDbLine
 10
120.577871882961
 20
32.820842689254
 30
0.0
 11
120.577871882961
 21
17.820842689254
 31
0.0
  0
MTEXT
  5
2A7A
330
2A6C
100
AcDbEntity
  8
図枠細線
 48
10.0
100
AcDbMText
 10
121.100885670352
 20
16.33785922638
 30
0.0
 40
2.0
 41
17.705978285068
 71
     1
 72
     5
  1
{\Fmonotxt.shx,bigfont.shx|c128;日付 DATE}
  0
MTEXT
  5
2A7B
330
2A6C
100
AcDbEntity
  8
図枠細線
 48
10.0
100
AcDbMText
 10
121.254842273491
 20
31.208993514037
 30
0.0
 40
2.0
 41
18.363799568758
 71
     1
 72
     5
  1
{\Fmonotxt.shx,bigfont.shx|c128;製図　DRAWN}
  0
LINE
  5
2A7C
330
2A6C
100
AcDbEntity
  8
図枠細線
  6
CONTINUOUS
 62
   252
100
AcDbLine
 10
97.577871882961
 20
32.820842689254
 30
0.0
 11
97.577871882961
 21
17.820842689254
 31
0.0
  0
MTEXT
  5
2A7D
330
2A6C
100
AcDbEntity
  8
図枠細線
 48
10.0
100
AcDbMText
 10
98.239734796872
 20
16.467764839281
 30
0.0
 40
2.0
 41
17.757791689903
 71
     1
 72
     5
  1
{\Fmonotxt.shx,bigfont.shx|c128;尺度　SCALE}
  0
MTEXT
  5
2A7E
330
2A6C
100
AcDbEntity
  8
図枠細線
 48
10.0
100
AcDbMText
 10
97.864744625154
 20
31.298433377664
 30
0.0
 40
2.0
 41
23.162655920976
 71
     1
 72
     5
  1
{\Fmonotxt.shx,bigfont.shx|c128;検図  CHECKED}
  0
LINE
  5
2A7F
330
2A6C
100
AcDbEntity
  8
図枠細線
  6
CONTINUOUS
 62
   252
100
AcDbLine
 10
97.577871882961
 20
2.820843367826
 30
0.0
 11
97.577871882961
 21
17.820841367826
 31
0.0
  0
LINE
  5
2A80
330
2A6C
100
AcDbEntity
  8
図枠細線
  6
CONTINUOUS
 62
   252
100
AcDbLine
 10
120.577871882961
 20
2.820844010683
 30
0.0
 11
120.577871882961
 21
17.820842010683
 31
0.0
  0
MTEXT
  5
2A81
330
2A6C
100
AcDbEntity
  8
図枠細線
 48
10.0
100
AcDbMText
 10
81.402399084102
 20
16.316484117426
 30
0.0
 40
2.0
 41
12.920322819369
 71
     1
 72
     5
  1
{\Fmonotxt.shx,bigfont.shx|c128;第三角法}
  0
MTEXT
  5
2A82
330
2A6C
100
AcDbEntity
  8
図枠細線
 48
10.0
100
AcDbMText
 10
75.736576535096
 20
11.080410931319
 30
0.0
 40
2.0
 41
21.072870671471
 71
     1
 72
     5
  1
{\Fmonotxt.shx,bigfont.shx|c128;THIRD ANGLE\PPROJECTION}
  0
LINE
  5
2A83
330
2A6C
100
AcDbEntity
  8
図枠太線
  6
CONTINUOUS
 62
   251
100
AcDbLine
 10
74.577871882961
 20
2.820844689254
 30
0.0
 11
74.577871882961
 21
32.820842689254
 31
0.0
  0
MTEXT
  5
2A84
330
2A6C
100
AcDbEntity
  8
図枠細線
 48
10.0
100
AcDbMText
 10
75.060214781573
 20
31.298434778555
 30
0.0
 40
2.0
 41
22.240928805967
 71
     1
 72
     5
  1
{\Fmonotxt.shx,bigfont.shx|c128;承認 APPROVED}
  0
LINE
  5
2A85
330
2A6C
100
AcDbEntity
  8
図枠細線
  6
CONTINUOUS
100
AcDbLine
 10
3.577871882961
 20
17.820844689254
 30
0.0
 11
74.577871882961
 21
17.820844689254
 31
0.0
  0
LINE
  5
2A86
330
2A6C
100
AcDbEntity
  8
図枠細線
  6
CONTINUOUS
 62
   252
100
AcDbLine
 10
3.577871882961
 20
27.820842689254
 30
0.0
 11
74.577871882961
 21
27.820842689254
 31
0.0
  0
LINE
  5
2A87
330
2A6C
100
AcDbEntity
  8
図枠細線
  6
CONTINUOUS
 62
   252
100
AcDbLine
 10
3.577871882961
 20
22.820842689254
 30
0.0
 11
74.577871882961
 21
22.820842689254
 31
0.0
  0
LINE
  5
2A88
330
2A6C
100
AcDbEntity
  8
図枠細線
  6
CONTINUOUS
 62
   252
100
AcDbLine
 10
3.577871882961
 20
12.820842689254
 30
0.0
 11
74.577871882961
 21
12.820842689254
 31
0.0
  0
LINE
  5
2A89
330
2A6C
100
AcDbEntity
  8
図枠細線
  6
CONTINUOUS
 62
   252
100
AcDbLine
 10
3.577871882961
 20
7.820844689254
 30
0.0
 11
74.577871882961
 21
7.820844689254
 31
0.0
  0
LINE
  5
2A8A
330
2A6C
100
AcDbEntity
  8
図枠細線
  6
CONTINUOUS
100
AcDbLine
 10
74.577871882961
 20
17.820843689254
 30
0.0
 11
143.577871882961
 21
17.820841224969
 31
0.0
  0
LINE
  5
2A8B
330
2A6C
100
AcDbEntity
  8
図枠太線
  6
CONTINUOUS
 62
   251
100
AcDbLine
 10
3.577871882961
 20
2.820844689254
 30
0.0
 11
283.577871882961
 21
2.820844689254
 31
0.0
  0
LINE
  5
2A8C
330
2A6C
100
AcDbEntity
  8
図枠太線
  6
CONTINUOUS
 62
   251
100
AcDbLine
 10
3.577871882961
 20
2.820844689254
 30
0.0
 11
3.577871882961
 21
32.820842689254
 31
0.0
  0
ENDBLK
  5
2A8D
330
2A6C
100
AcDbEntity
  8
0
100
AcDbBlockEnd
  0
BLOCK
  5
2AF8
330
2AF4
100
AcDbEntity
  8
0
 48
10.0
100
AcDbBlockBegin
  2
_OPEN30
 70
     0
 10
0.0
 20
0.0
 30
0.0
  3
_OPEN30
  1

  0
LINE
  5
2AF5
330
2AF4
100
AcDbEntity
  8
0
  6
BYBLOCK
 62
     0
100
AcDbLine
 10
-1.0
 20
0.26794919
 30
0.0
 11
0.0
 21
0.0
 31
0.0
  0
LINE
  5
2AF6
330
2AF4
100
AcDbEntity
  8
0
  6
BYBLOCK
 62
     0
100
AcDbLine
 10
0.0
 20
0.0
 30
0.0
 11
-1.0
 21
-0.26794919
 31
0.0
  0
LINE
  5
2AF7
330
2AF4
100
AcDbEntity
  8
0
  6
BYBLOCK
 62
     0
100
AcDbLine
 10
0.0
 20
0.0
 30
0.0
 11
-1.0
 21
0.0
 31
0.0
  0
ENDBLK
  5
2AF9
330
2AF4
100
AcDbEntity
  8
0
 48
10.0
100
AcDbBlockEnd
  0
BLOCK
  5
443F
330
4435
100
AcDbEntity
  8
0
 48
10.0
100
AcDbBlockBegin
  2
*D6
 70
     1
 10
0.0
 20
0.0
 30
0.0
  3
*D6
  1

  0
LINE
  5
44C5
330
4435
100
AcDbEntity
  8
寸法線
 62
     0
 48
10.0
100
AcDbLine
 10
499.596825332582
 20
481.600960929674
 30
0.0
 11
519.616732306297
 21
481.600960929674
 31
0.0
  0
LINE
  5
44C6
330
4435
100
AcDbEntity
  8
寸法線
 62
     0
 48
10.0
100
AcDbLine
 10
457.024263298094
 20
392.600960929674
 30
0.0
 11
519.616732306297
 21
392.600960929674
 31
0.0
  0
LINE
  5
44C7
330
4435
100
AcDbEntity
  8
寸法線
 62
     0
 48
10.0
100
AcDbLine
 10
518.366732306297
 20
475.600960929674
 30
0.0
 11
518.366732306297
 21
398.600960929674
 31
0.0
  0
INSERT
  5
44C8
330
4435
100
AcDbEntity
  8
寸法線
 62
     0
100
AcDbBlockReference
  2
_OPEN30
 10
518.366732306297
 20
481.600960929674
 30
0.0
 41
6.0
 42
6.0
 43
6.0
 50
90.0
  0
INSERT
  5
44C9
330
4435
100
AcDbEntity
  8
寸法線
 62
     0
100
AcDbBlockReference
  2
_OPEN30
 10
518.366732306297
 20
392.600960929674
 30
0.0
 41
6.0
 42
6.0
 43
6.0
 50
270.0
  0
MTEXT
  5
44CA
330
4435
100
AcDbEntity
  8
寸法線
 62
     0
 48
10.0
100
AcDbMText
 10
513.733398972964
 20
442.634013592977
 30
0.0
 40
8.0
 41
0.0
 71
     5
 72
     1
  1
\A1;89
 11
0.0
 21
1.0
 31
0.0
  0
POINT
  5
44CB
330
4435
100
AcDbEntity
  8
DEFPOINTS
 62
     0
100
AcDbPoint
 10
498.971825332582
 20
481.600960929674
 30
0.0
  0
POINT
  5
44CC
330
4435
100
AcDbEntity
  8
DEFPOINTS
 62
     0
100
AcDbPoint
 10
456.399263298094
 20
392.600960929674
 30
0.0
  0
POINT
  5
44CD
330
4435
100
AcDbEntity
  8
DEFPOINTS
 62
     0
100
AcDbPoint
 10
518.366732306297
 20
392.600960929674
 30
0.0
  0
ENDBLK
  5
4440
330
4435
100
AcDbEntity
  8
0
 48
10.0
100
AcDbBlockEnd
  0
BLOCK
  5
444B
330
4441
100
AcDbEntity
  8
0
 48
10.0
100
AcDbBlockBegin
  2
*D7
 70
     1
 10
0.0
 20
0.0
 30
0.0
  3
*D7
  1

  0
LINE
  5
44BC
330
4441
100
AcDbEntity
  8
寸法線
 62
     0
 48
10.0
100
AcDbLine
 10
471.880371649013
 20
431.201720599558
 30
0.0
 11
541.299766136396
 21
431.201720599558
 31
0.0
  0
LINE
  5
44BD
330
4441
100
AcDbEntity
  8
寸法線
 62
     0
 48
10.0
100
AcDbLine
 10
471.880371649012
 20
531.769224603382
 30
0.0
 11
541.299766136396
 21
531.769224603382
 31
0.0
  0
LINE
  5
44BE
330
4441
100
AcDbEntity
  8
寸法線
 62
     0
 48
10.0
100
AcDbLine
 10
540.049766136396
 20
437.201720599558
 30
0.0
 11
540.049766136396
 21
525.769224603382
 31
0.0
  0
INSERT
  5
44BF
330
4441
100
AcDbEntity
  8
寸法線
 62
     0
100
AcDbBlockReference
  2
_OPEN30
 10
540.049766136396
 20
431.201720599558
 30
0.0
 41
6.0
 42
6.0
 43
6.0
 50
270.0
  0
INSERT
  5
44C0
330
4441
100
AcDbEntity
  8
寸法線
 62
     0
100
AcDbBlockReference
  2
_OPEN30
 10
540.049766136396
 20
531.769224603382
 30
0.0
 41
6.0
 42
6.0
 43
6.0
 50
90.0
  0
MTEXT
  5
44C1
330
4441
100
AcDbEntity
  8
寸法線
 62
     0
 48
10.0
100
AcDbMText
 10
535.424766136396
 20
481.48547260147
 30
0.0
 40
8.0
 41
0.0
 71
     5
 72
     1
  1
\A1;φ100
 11
0.0
 21
1.0
 31
0.0
  0
POINT
  5
44C2
330
4441
100
AcDbEntity
  8
DEFPOINTS
 62
     0
100
AcDbPoint
 10
471.255371649013
 20
431.201720599558
 30
0.0
  0
POINT
  5
44C3
330
4441
100
AcDbEntity
  8
DEFPOINTS
 62
     0
100
AcDbPoint
 10
471.255371649012
 20
531.769224603382
 30
0.0
  0
POINT
  5
44C4
330
4441
100
AcDbEntity
  8
DEFPOINTS
 62
     0
100
AcDbPoint
 10
540.049766136396
 20
531.769224603382
 30
0.0
  0
ENDBLK
  5
444C
330
4441
100
AcDbEntity
  8
0
 48
10.0
100
AcDbBlockEnd
  0
BLOCK
  5
4457
330
444D
100
AcDbEntity
  8
0
 48
10.0
100
AcDbBlockBegin
  2
*D8
 70
     1
 10
0.0
 20
0.0
 30
0.0
  3
*D8
  1

  0
LINE
  5
44B3
330
444D
100
AcDbEntity
  8
寸法線
 62
     0
 48
10.0
100
AcDbLine
 10
498.972578837086
 20
436.443290206024
 30
0.0
 11
498.972578837086
 21
362.850960929674
 31
0.0
  0
LINE
  5
44B4
330
444D
100
AcDbEntity
  8
寸法線
 62
     0
 48
10.0
100
AcDbLine
 10
383.472578837094
 20
457.016297064128
 30
0.0
 11
383.472578837094
 21
362.850960929674
 31
0.0
  0
LINE
  5
44B5
330
444D
100
AcDbEntity
  8
寸法線
 62
     0
 48
10.0
100
AcDbLine
 10
492.972578837086
 20
364.100960929674
 30
0.0
 11
389.472578837094
 21
364.100960929674
 31
0.0
  0
INSERT
  5
44B6
330
444D
100
AcDbEntity
  8
寸法線
 62
     0
100
AcDbBlockReference
  2
_OPEN30
 10
498.972578837086
 20
364.100960929674
 30
0.0
 41
6.0
 42
6.0
 43
6.0
  0
INSERT
  5
44B7
330
444D
100
AcDbEntity
  8
寸法線
 62
     0
100
AcDbBlockReference
  2
_OPEN30
 10
383.472578837094
 20
364.100960929674
 30
0.0
 41
6.0
 42
6.0
 43
6.0
 50
180.0
  0
MTEXT
  5
44B8
330
444D
100
AcDbEntity
  8
寸法線
 62
     0
 48
10.0
100
AcDbMText
 10
441.22257883709
 20
368.734294263007
 30
0.0
 40
8.0
 41
0.0
 71
     5
 72
     1
  1
\A1;118
  0
POINT
  5
44B9
330
444D
100
AcDbEntity
  8
DEFPOINTS
 62
     0
100
AcDbPoint
 10
498.972578837086
 20
437.068290206024
 30
0.0
  0
POINT
  5
44BA
330
444D
100
AcDbEntity
  8
DEFPOINTS
 62
     0
100
AcDbPoint
 10
383.472578837094
 20
457.641297064128
 30
0.0
  0
POINT
  5
44BB
330
444D
100
AcDbEntity
  8
DEFPOINTS
 62
     0
100
AcDbPoint
 10
383.472578837094
 20
364.100960929674
 30
0.0
  0
ENDBLK
  5
4458
330
444D
100
AcDbEntity
  8
0
 48
10.0
100
AcDbBlockEnd
  0
BLOCK
  5
4462
330
4459
100
AcDbEntity
  8
0
 48
10.0
100
AcDbBlockBegin
  2
*D9
 70
     1
 10
0.0
 20
0.0
 30
0.0
  3
*D9
  1

  0
LINE
  5
44AB
330
4459
100
AcDbEntity
  8
寸法線
 62
     0
 48
10.0
100
AcDbLine
 10
62.26120256424
 20
466.088009469274
 30
0.0
 11
62.26120256424
 21
362.850960929674
 31
0.0
  0
LINE
  5
44AC
330
4459
100
AcDbEntity
  8
寸法線
 62
     0
 48
10.0
100
AcDbLine
 10
383.472578837094
 20
363.475960929674
 30
0.0
 11
383.472578837094
 21
362.850960929674
 31
0.0
  0
LINE
  5
44AD
330
4459
100
AcDbEntity
  8
寸法線
 62
     0
 48
10.0
100
AcDbLine
 10
68.26120256424
 20
364.100960929674
 30
0.0
 11
377.472578837094
 21
364.100960929674
 31
0.0
  0
INSERT
  5
44AE
330
4459
100
AcDbEntity
  8
寸法線
 62
     0
100
AcDbBlockReference
  2
_OPEN30
 10
62.26120256424
 20
364.100960929674
 30
0.0
 41
6.0
 42
6.0
 43
6.0
 50
180.0
  0
INSERT
  5
44AF
330
4459
100
AcDbEntity
  8
寸法線
 62
     0
100
AcDbBlockReference
  2
_OPEN30
 10
383.472578837094
 20
364.100960929674
 30
0.0
 41
6.0
 42
6.0
 43
6.0
  0
POINT
  5
44B0
330
4459
100
AcDbEntity
  8
DEFPOINTS
 62
     0
100
AcDbPoint
 10
62.26120256424
 20
466.713009469274
 30
0.0
  0
POINT
  5
44B1
330
4459
100
AcDbEntity
  8
DEFPOINTS
 62
     0
100
AcDbPoint
 10
383.472578837094
 20
364.100960929674
 30
0.0
  0
POINT
  5
44B2
330
4459
100
AcDbEntity
  8
DEFPOINTS
 62
     0
100
AcDbPoint
 10
383.472578837094
 20
364.100960929674
 30
0.0
  0
ENDBLK
  5
4463
330
4459
100
AcDbEntity
  8
0
 48
10.0
100
AcDbBlockEnd
  0
ENDSEC
  0
SECTION
  2
ENTITIES
  0
MTEXT
  5
3FFD
330
1A
100
AcDbEntity
  8
寸法線
 48
10.0
100
AcDbMText
 10
381.967165443278
 20
267.066042760859
 30
0.0
 40
8.0
 41
165.013333333333
 71
     1
 72
     5
  1
○印が今回の貴社の御仕様です。
  0
MTEXT
  5
3FFE
330
1A
100
AcDbEntity
  8
寸法線
 48
10.0
100
AcDbMText
 10
348.384472711038
 20
336.991749963612
 30
0.0
 40
8.0
 41
165.013333333333
 71
     1
 72
     5
  1
フランジサイズ
  0
MTEXT
  5
3FFF
330
1A
100
AcDbEntity
  8
寸法線
 48
10.0
100
AcDbMText
 10
322.151698837109
 20
335.150015849242
 30
0.0
 40
8.0
 41
165.013333333333
 71
     1
 72
     5
  1
\PJIS5K50A\PJIS5K65A\PJIS5K80A\PJIS5K100A
  0
MTEXT
  5
4000
330
1A
100
AcDbEntity
  8
寸法線
 48
10.0
100
AcDbMText
 10
398.931003275507
 20
334.562106738883
 30
0.0
 40
8.0
 41
165.013333333333
 71
     1
 72
     5
  1
\PJIS10K50A\PJIS10K65A\PJIS10K80A\PJIS10K100A
  0
LINE
  5
4001
330
1A
100
AcDbEntity
  8
寸法線
 48
10.0
100
AcDbLine
 10
298.887871893657
 20
339.873574991106
 30
0.0
 11
521.393038662767
 21
339.873574991106
 31
0.0
  0
LINE
  5
4002
330
1A
100
AcDbEntity
  8
寸法線
 48
10.0
100
AcDbLine
 10
298.887871893657
 20
310.413495552425
 30
0.0
 11
456.751625146758
 21
310.413495552425
 31
0.0
  0
LINE
  5
4003
330
1A
100
AcDbEntity
  8
寸法線
 48
10.0
100
AcDbLine
 10
298.887871893657
 20
324.74380061218
 30
0.0
 11
521.393038662767
 21
324.74380061218
 31
0.0
  0
LINE
  5
4004
330
1A
100
AcDbEntity
  8
寸法線
 48
10.0
100
AcDbLine
 10
298.887871893657
 20
297.208853021348
 30
0.0
 11
521.393038662768
 21
297.208853021348
 31
0.0
  0
LINE
  5
4005
330
1A
100
AcDbEntity
  8
寸法線
 48
10.0
100
AcDbLine
 10
298.887871893657
 20
283.42283073002
 30
0.0
 11
456.751625146759
 21
283.42283073002
 31
0.0
  0
LINE
  5
4006
330
1A
100
AcDbEntity
  8
寸法線
 48
10.0
100
AcDbLine
 10
298.887871893657
 20
271.245804073275
 30
0.0
 11
521.393038662768
 21
271.245804073275
 31
0.0
  0
LINE
  5
4007
330
1A
100
AcDbEntity
  8
寸法線
 48
10.0
100
AcDbLine
 10
298.887871893657
 20
339.873574991106
 30
0.0
 11
298.887871893657
 21
271.245804073275
 31
0.0
  0
LINE
  5
4008
330
1A
100
AcDbEntity
  8
寸法線
 48
10.0
100
AcDbLine
 10
315.46412987989
 20
324.74380061218
 30
0.0
 11
315.46412987989
 21
271.245804073275
 31
0.0
  0
LINE
  5
4009
330
1A
100
AcDbEntity
  8
寸法線
 48
10.0
100
AcDbLine
 10
376.217111349594
 20
324.74380061218
 30
0.0
 11
376.217111349594
 21
271.245804073275
 31
0.0
  0
LINE
  5
400A
330
1A
100
AcDbEntity
  8
寸法線
 48
10.0
100
AcDbLine
 10
393.502478515043
 20
324.74380061218
 30
0.0
 11
393.502478515043
 21
271.245804073275
 31
0.0
  0
LINE
  5
400B
330
1A
100
AcDbEntity
  8
寸法線
 48
10.0
100
AcDbLine
 10
456.751625146759
 20
339.873574991106
 30
0.0
 11
456.751625146759
 21
271.245804073275
 31
0.0
  0
MTEXT
  5
400C
330
1A
100
AcDbEntity
  8
寸法線
 48
10.0
100
AcDbMText
 10
479.421815287348
 20
336.991749963612
 30
0.0
 40
8.0
 41
165.013333333333
 71
     1
 72
     5
  1
材質
  0
LINE
  5
400D
330
1A
100
AcDbEntity
  8
寸法線
 48
10.0
100
AcDbLine
 10
473.993309868987
 20
324.74380061218
 30
0.0
 11
473.993309868987
 21
271.245804073275
 31
0.0
  0
MTEXT
  5
400E
330
1A
100
AcDbEntity
  8
寸法線
 48
10.0
100
AcDbMText
 10
480.10681034043
 20
314.050586188596
 30
0.0
 40
8.0
 41
165.013333333333
 71
     1
 72
     5
  1
SUS304
  0
MTEXT
  5
400F
330
1A
100
AcDbEntity
  8
寸法線
 48
10.0
100
AcDbMText
 10
480.10681034043
 20
288.303649813225
 30
0.0
 40
8.0
 41
165.013333333333
 71
     1
 72
     5
  1
SUS316
  0
LINE
  5
4010
330
1A
100
AcDbEntity
  8
寸法線
 48
10.0
100
AcDbLine
 10
521.393038662768
 20
339.873574991106
 30
0.0
 11
521.393038662768
 21
271.245804073275
 31
0.0
  0
LINE
  5
4011
330
1A
100
AcDbEntity
  8
外形線
 48
10.0
100
AcDbLine
 10
368.472578837094
 20
559.100960929674
 30
0.0
 11
382.472578837094
 21
559.100960929674
 31
0.0
  0
LINE
  5
4012
330
1A
100
AcDbEntity
  8
外形線
 48
10.0
100
AcDbLine
 10
368.472578837094
 20
559.100960929674
 30
0.0
 11
368.472578837094
 21
404.100960929674
 31
0.0
  0
LINE
  5
4013
330
1A
100
AcDbEntity
  8
外形線
 48
10.0
100
AcDbLine
 10
368.472578837094
 20
404.100960929674
 30
0.0
 11
382.472578837094
 21
404.100960929674
 31
0.0
  0
LINE
  5
4014
330
1A
100
AcDbEntity
  8
外形線
 48
10.0
100
AcDbLine
 10
382.472578837094
 20
559.100960929674
 30
0.0
 11
382.472578837094
 21
404.100960929674
 31
0.0
  0
MTEXT
  5
4015
330
1A
100
AcDbEntity
  8
寸法線
 48
10.0
100
AcDbMText
 10
314.339320988799
 20
581.109765682674
 30
0.0
 40
8.0
 41
133.333333333333
 71
     1
 72
     5
  1
フランジ
  0
LEADER
  5
4016
330
1A
100
AcDbEntity
  8
寸法線
 48
10.0
100
AcDbLeader
  3
ISO-25
 76
     3
 10
368.472578837094
 20
550.159852906471
 30
0.0
 10
350.333812170997
 20
572.526723350516
 30
0.0
 10
338.597585186484
 20
572.526723350516
 30
0.0
213
50.15882062924177
223
0.0
233
0.0
1001
ACAD
1000
DSTYLE
1002
{
1070
     5
1000
OPEN30
1070
   147
1040
0.625
1070
    77
1070
     0
1070
    41
1040
6.0
1070
    47
1040
0.1
1070
    48
1040
0.1
1070
    73
1070
     0
1070
   140
1040
5.0
1070
   271
1070
     1
1070
   272
1070
     1
1070
   341
1005
2AF4
1070
   342
1005
2AF4
1002
}
  0
LINE
  5
4017
330
1A
100
AcDbEntity
  8
中心線
 48
10.0
100
AcDbLine
 10
358.066453003909
 20
533.687070418293
 30
0.0
 11
392.878704670279
 21
533.687070418293
 31
0.0
  0
LINE
  5
42DF
330
1A
100
AcDbEntity
  8
外形線
 62
     7
100
AcDbLine
 10
62.320508937816
 20
465.71476964135
 30
0.0
 11
150.224169356995
 21
470.937209357423
 31
0.0
  0
LINE
  5
42E0
330
1A
100
AcDbEntity
  8
外形線
 62
     7
100
AcDbLine
 10
62.26120256424
 20
466.713009469274
 30
0.0
 11
150.224169356995
 21
471.938972633168
 31
0.0
  0
LINE
  5
42E1
330
1A
100
AcDbEntity
  8
外形線
 62
     7
100
AcDbLine
 10
62.498428058544
 20
500.481871701769
 30
0.0
 11
150.224169356995
 21
495.27000232916
 31
0.0
  0
LINE
  5
42E2
330
1A
100
AcDbEntity
  8
外形線
 62
     7
100
AcDbLine
 10
62.26120256424
 20
496.488912390074
 30
0.0
 11
150.224169356995
 21
491.26294922618
 31
0.0
  0
LINE
  5
42E3
330
1A
100
AcDbEntity
  8
外形線
 62
     7
100
AcDbLine
 10
62.498428058544
 20
462.720050157579
 30
0.0
 11
150.224169356995
 21
467.931919530187
 31
0.0
  0
LINE
  5
42E4
330
1A
100
AcDbEntity
  8
外形線
 62
     7
100
AcDbLine
 10
62.320508937816
 20
497.487152217996
 30
0.0
 11
150.224169356995
 21
492.264712501923
 31
0.0
  0
LINE
  5
42E5
330
1A
100
AcDbEntity
  8
外形線
 62
     7
100
AcDbLine
 10
62.498428058544
 20
500.481871701769
 30
0.0
 11
62.26120256424
 21
496.488912390074
 31
0.0
  0
LINE
  5
42E6
330
1A
100
AcDbEntity
  8
外形線
 62
     7
100
AcDbLine
 10
62.498428058544
 20
462.720050157579
 30
0.0
 11
62.26120256424
 21
466.713009469274
 31
0.0
  0
LINE
  5
42E7
330
1A
100
AcDbEntity
  8
外形線
 62
     7
100
AcDbLine
 10
162.224169356995
 20
502.065666812027
 30
0.0
 11
162.224169356995
 21
493.773055310538
 31
0.0
  0
LINE
  5
42E8
330
1A
100
AcDbEntity
  8
外形線
 62
     7
100
AcDbLine
 10
157.093986216998
 20
471.835919281519
 30
0.0
 11
150.224169356995
 21
471.835919281519
 31
0.0
  0
LINE
  5
42E9
330
1A
100
AcDbEntity
  8
外形線
 62
     7
100
AcDbLine
 10
158.828571453187
 20
467.931919530187
 30
0.0
 11
150.224169356995
 21
467.931919530188
 31
0.0
  0
LINE
  5
42EA
330
1A
100
AcDbEntity
  8
外形線
 62
     7
100
AcDbLine
 10
150.224169356995
 20
470.937209357423
 30
0.0
 11
159.709901978721
 21
470.937209357423
 31
0.0
  0
LINE
  5
42EB
330
1A
100
AcDbEntity
  8
外形線
 62
     7
100
AcDbLine
 10
157.093986216998
 20
491.366002577829
 30
0.0
 11
150.224169356995
 21
491.366002577829
 31
0.0
  0
LINE
  5
42EC
330
1A
100
AcDbEntity
  8
外形線
 62
     7
100
AcDbLine
 10
150.224169356995
 20
492.264712501923
 30
0.0
 11
159.709901978721
 21
492.264712501923
 31
0.0
  0
LINE
  5
42ED
330
1A
100
AcDbEntity
  8
外形線
 62
     7
100
AcDbLine
 10
158.828571453187
 20
495.27000232916
 30
0.0
 11
150.224169356995
 21
495.27000232916
 31
0.0
  0
LINE
  5
42EE
330
1A
100
AcDbEntity
  8
外形線
 62
     7
100
AcDbLine
 10
150.224169356995
 20
495.27000232916
 30
0.0
 11
150.224169356995
 21
491.26294922618
 31
0.0
  0
LINE
  5
42EF
330
1A
100
AcDbEntity
  8
外形線
 62
     7
100
AcDbLine
 10
150.224169356995
 20
467.931919530188
 30
0.0
 11
150.224169356995
 21
471.938972633168
 31
0.0
  0
LINE
  5
42F0
330
1A
100
AcDbEntity
  8
外形線
 62
     7
100
AcDbLine
 10
162.224169356995
 20
477.100960929674
 30
0.0
 11
162.224169356995
 21
481.600960929674
 31
0.0
  0
LINE
  5
42F1
330
1A
100
AcDbEntity
  8
外形線
 62
     7
100
AcDbLine
 10
162.224169356995
 20
469.42886654881
 30
0.0
 11
162.224169356995
 21
481.600960929674
 31
0.0
  0
ARC
  5
42F2
330
1A
100
AcDbEntity
  8
外形線
 62
     7
100
AcDbCircle
 10
161.824169356995
 20
493.773055310538
 30
0.0
 40
0.4
100
AcDbArc
 50
239.999999999999
 51
0.0
  0
ARC
  5
42F3
330
1A
100
AcDbEntity
  8
外形線
 62
     7
100
AcDbCircle
 10
161.824169356995
 20
493.773055310538
 30
0.0
 40
0.4
100
AcDbArc
 50
239.999999999999
 51
0.0
  0
LINE
  5
42F4
330
1A
100
AcDbEntity
  8
外形線
 62
     7
100
AcDbLine
 10
161.624169356995
 20
493.426645149024
 30
0.0
 11
161.624169356995
 21
490.617314502317
 31
0.0
  0
LINE
  5
42F5
330
1A
100
AcDbEntity
  8
外形線
 62
     7
100
AcDbLine
 10
162.224169356995
 20
486.100960929674
 30
0.0
 11
162.224169356995
 21
481.600960929674
 31
0.0
  0
LINE
  5
42F6
330
1A
100
AcDbEntity
  8
外形線
 62
     7
100
AcDbLine
 10
162.224169356995
 20
493.773055310538
 30
0.0
 11
162.224169356995
 21
481.600960929674
 31
0.0
  0
ARC
  5
42F7
330
1A
100
AcDbEntity
  8
外形線
 62
     7
100
AcDbCircle
 10
156.401477657604
 20
485.559321627874
 30
0.0
 40
5.847829662311536
100
AcDbArc
 50
5.314482866102
 51
83.198990373673
  0
LINE
  5
42F8
330
1A
100
AcDbEntity
  8
外形線
 62
     7
100
AcDbLine
 10
156.217771795304
 20
495.27000232916
 30
0.0
 11
162.224169356995
 21
490.100960929674
 31
0.0
  0
LINE
  5
42F9
330
1A
100
AcDbEntity
  8
外形線
 62
     7
100
AcDbLine
 10
161.624169356995
 20
493.426645149024
 30
0.0
 11
158.828571453187
 21
495.27000232916
 31
0.0
  0
LINE
  5
42FA
330
1A
100
AcDbEntity
  8
外形線
 62
     7
100
AcDbLine
 10
161.624169356995
 20
469.775276710324
 30
0.0
 11
161.624169356995
 21
472.584607357031
 31
0.0
  0
ARC
  5
42FB
330
1A
100
AcDbEntity
  8
外形線
 62
     7
100
AcDbCircle
 10
161.824169356995
 20
469.42886654881
 30
0.0
 40
0.4
100
AcDbArc
 50
0.0
 51
120.000000000001
  0
LINE
  5
42FC
330
1A
100
AcDbEntity
  8
外形線
 62
     7
100
AcDbLine
 10
162.224169356995
 20
461.136255047321
 30
0.0
 11
162.224169356995
 21
469.42886654881
 31
0.0
  0
ARC
  5
42FD
330
1A
100
AcDbEntity
  8
外形線
 62
     7
100
AcDbCircle
 10
156.401477657604
 20
477.642600231474
 30
0.0
 40
5.847829662311536
100
AcDbArc
 50
276.801009626327
 51
354.685517133898
  0
LINE
  5
42FE
330
1A
100
AcDbEntity
  8
外形線
 62
     7
100
AcDbLine
 10
156.217771795304
 20
467.931919530187
 30
0.0
 11
162.224169356995
 21
473.100960929674
 31
0.0
  0
LINE
  5
42FF
330
1A
100
AcDbEntity
  8
外形線
 62
     7
100
AcDbLine
 10
161.624169356995
 20
469.775276710324
 30
0.0
 11
158.828571453187
 21
467.931919530187
 31
0.0
  0
ARC
  5
4300
330
1A
100
AcDbEntity
  8
外形線
100
AcDbCircle
 10
461.49391062876
 20
528.738354856372
 30
0.0
 40
2.073556783584
100
AcDbArc
 50
90.0
 51
136.09173190844
  0
LINE
  5
4301
330
1A
100
AcDbEntity
  8
外形線
100
AcDbLine
 10
460.00001448227
 20
530.176378513426
 30
0.0
 11
459.15104413293
 21
529.294422554536
 31
0.0
  0
ARC
  5
4302
330
1A
100
AcDbEntity
  8
外形線
100
AcDbCircle
 10
457.65714798644
 20
530.732446211592
 30
0.0
 40
2.073556783584
100
AcDbArc
 50
270.0
 51
316.09173190844
  0
LINE
  5
4303
330
1A
100
AcDbEntity
  8
外形線
100
AcDbLine
 10
465.795670299742
 20
530.811911639956
 30
0.0
 11
461.49391062876
 21
530.811911639956
 31
0.0
  0
ARC
  5
4304
330
1A
100
AcDbEntity
  8
外形線
100
AcDbCircle
 10
461.228952838888
 20
450.58947652607
 30
0.0
 40
1.2441340701504
100
AcDbArc
 50
217.230967965679
 51
270.0
  0
ARC
  5
4305
330
1A
100
AcDbEntity
  8
外形線
100
AcDbCircle
 10
457.237159571504
 20
453.52993275704
 30
0.0
 40
1.2441340701504
100
AcDbArc
 50
37.230967965668
 51
90.0
  0
LINE
  5
4306
330
1A
100
AcDbEntity
  8
外形線
100
AcDbLine
 10
465.795670299742
 20
449.345342455918
 30
0.0
 11
461.228952838888
 21
449.345342455918
 31
0.0
  0
LINE
  5
4307
330
1A
100
AcDbEntity
  8
細線
100
AcDbLine
 10
457.65714798644
 20
528.658889428006
 30
0.0
 11
457.65714798644
 21
455.443532929674
 31
0.0
  0
LINE
  5
4308
330
1A
100
AcDbEntity
  8
外形線
100
AcDbLine
 10
463.3456785231
 20
412.740960929674
 30
0.0
 11
463.3456785231
 21
418.670960929674
 31
0.0
  0
LINE
  5
4309
330
1A
100
AcDbEntity
  8
外形線
100
AcDbLine
 10
461.272121739516
 20
418.670960929674
 30
0.0
 11
461.272121739516
 21
420.350960929674
 31
0.0
  0
LINE
  5
430A
330
1A
100
AcDbEntity
  8
外形線
100
AcDbLine
 10
454.533062192868
 20
412.740960929674
 30
0.0
 11
454.533062192868
 21
418.670960929674
 31
0.0
  0
LINE
  5
430B
330
1A
100
AcDbEntity
  8
外形線
100
AcDbLine
 10
457.125008172348
 20
412.740960929674
 30
0.0
 11
457.125008172348
 21
418.670960929674
 31
0.0
  0
LINE
  5
430C
330
1A
100
AcDbEntity
  8
外形線
100
AcDbLine
 10
458.680175760036
 20
410.773098122716
 30
0.0
 11
459.543835024468
 21
409.940960929674
 31
0.0
  0
LINE
  5
430D
330
1A
100
AcDbEntity
  8
外形線
100
AcDbLine
 10
458.680175760036
 20
410.773098122716
 30
0.0
 11
458.680175760036
 21
409.940960929674
 31
0.0
  0
LINE
  5
430E
330
1A
100
AcDbEntity
  8
外形線
100
AcDbLine
 10
458.680175760036
 20
409.940960929674
 30
0.0
 11
458.680175760036
 21
412.740960929674
 31
0.0
  0
LINE
  5
430F
330
1A
100
AcDbEntity
  8
外形線
100
AcDbLine
 10
441.054943099572
 20
412.740960929674
 30
0.0
 11
441.054943099572
 21
418.670960929674
 31
0.0
  0
LINE
  5
4310
330
1A
100
AcDbEntity
  8
外形線
100
AcDbLine
 10
438.462997120092
 20
412.740960929674
 30
0.0
 11
438.462997120092
 21
418.670960929674
 31
0.0
  0
LINE
  5
4311
330
1A
100
AcDbEntity
  8
外形線
100
AcDbLine
 10
436.907829532404
 20
410.773098122716
 30
0.0
 11
436.907829532404
 21
409.940960929674
 31
0.0
  0
LINE
  5
4312
330
1A
100
AcDbEntity
  8
外形線
100
AcDbLine
 10
436.907829532404
 20
410.773098122716
 30
0.0
 11
436.044170267972
 21
409.940960929674
 31
0.0
  0
LINE
  5
4313
330
1A
100
AcDbEntity
  8
外形線
100
AcDbLine
 10
436.907829532404
 20
409.940960929674
 30
0.0
 11
436.907829532404
 21
412.740960929674
 31
0.0
  0
LINE
  5
4314
330
1A
100
AcDbEntity
  8
外形線
100
AcDbLine
 10
432.24232676934
 20
412.740960929674
 30
0.0
 11
432.24232676934
 21
418.670960929674
 31
0.0
  0
LINE
  5
4315
330
1A
100
AcDbEntity
  8
外形線
100
AcDbLine
 10
434.315883552924
 20
418.670960929674
 30
0.0
 11
434.315883552924
 21
419.18935012557
 31
0.0
  0
LINE
  5
4316
330
1A
100
AcDbEntity
  8
外形線
100
AcDbLine
 10
434.315883552924
 20
418.670960929674
 30
0.0
 11
434.315883552924
 21
420.350960929674
 31
0.0
  0
LINE
  5
4317
330
1A
100
AcDbEntity
  8
細線
100
AcDbLine
 10
436.907829532404
 20
410.773098122716
 30
0.0
 11
458.680175760036
 21
410.773098122716
 31
0.0
  0
LINE
  5
4318
330
1A
100
AcDbEntity
  8
外形線
100
AcDbLine
 10
463.3456785231
 20
412.740960929674
 30
0.0
 11
432.24232676934
 21
412.740960929674
 31
0.0
  0
LINE
  5
4319
330
1A
100
AcDbEntity
  8
外形線
100
AcDbLine
 10
463.3456785231
 20
418.670960929674
 30
0.0
 11
432.24232676934
 21
418.670960929674
 31
0.0
  0
LINE
  5
431A
330
1A
100
AcDbEntity
  8
外形線
100
AcDbLine
 10
463.3456785231
 20
409.940960929674
 30
0.0
 11
432.24232676934
 21
409.940960929674
 31
0.0
  0
LINE
  5
431B
330
1A
100
AcDbEntity
  8
外形線
100
AcDbLine
 10
461.583155257054
 20
397.390960929674
 30
0.0
 11
463.3456785231
 21
399.049806356542
 31
0.0
  0
LINE
  5
431C
330
1A
100
AcDbEntity
  8
外形線
100
AcDbLine
 10
454.533062192868
 20
399.049806356542
 30
0.0
 11
457.125008172348
 21
399.049806356542
 31
0.0
  0
ARC
  5
431D
330
1A
100
AcDbEntity
  8
外形線
100
AcDbCircle
 10
460.235343347724
 20
401.976381386794
 30
0.0
 40
4.2707173063642
100
AcDbArc
 50
223.256487111676
 51
316.743512888324
  0
ARC
  5
431E
330
1A
100
AcDbEntity
  8
外形線
100
AcDbCircle
 10
456.399263298094
 20
397.784852888634
 30
0.0
 40
5.183891958959999
100
AcDbArc
 50
270.0
 51
355.642247142048
  0
LINE
  5
431F
330
1A
100
AcDbEntity
  8
外形線
100
AcDbLine
 10
441.054943099572
 20
399.049806356542
 30
0.0
 11
438.462997120092
 21
399.049806356542
 31
0.0
  0
LINE
  5
4320
330
1A
100
AcDbEntity
  8
外形線
100
AcDbLine
 10
434.004850035386
 20
397.390960929674
 30
0.0
 11
432.24232676934
 21
399.049806356542
 31
0.0
  0
ARC
  5
4321
330
1A
100
AcDbEntity
  8
外形線
100
AcDbCircle
 10
435.352661944716
 20
401.976381386794
 30
0.0
 40
4.2707173063642
100
AcDbArc
 50
223.256487111676
 51
316.743512888334
  0
ARC
  5
4322
330
1A
100
AcDbEntity
  8
外形線
100
AcDbCircle
 10
439.188741994346
 20
397.784852888634
 30
0.0
 40
5.183891958959999
100
AcDbArc
 50
184.357752857946
 51
270.0
  0
LINE
  5
4323
330
1A
100
AcDbEntity
  8
外形線
100
AcDbLine
 10
456.399263298094
 20
392.600960929674
 30
0.0
 11
439.188741994346
 21
392.600960929674
 31
0.0
  0
LINE
  5
4324
330
1A
100
AcDbEntity
  8
外形線
100
AcDbLine
 10
461.583155257054
 20
397.390960929674
 30
0.0
 11
434.004850035386
 21
397.390960929674
 31
0.0
  0
ARC
  5
4325
330
1A
100
AcDbEntity
  8
外形線
100
AcDbCircle
 10
447.79400264622
 20
415.33389605978
 30
0.0
 40
17.62346450152246
100
AcDbArc
 50
247.518115682491
 51
292.481884317507
  0
LINE
  5
4326
330
1A
100
AcDbEntity
  8
外形線
100
AcDbLine
 10
432.24232676934
 20
409.940960929674
 30
0.0
 11
432.24232676934
 21
399.049806356538
 31
0.0
  0
LINE
  5
4327
330
1A
100
AcDbEntity
  8
外形線
100
AcDbLine
 10
441.054943099572
 20
399.049806356542
 30
0.0
 11
441.054943099572
 21
409.940960929674
 31
0.0
  0
LINE
  5
4328
330
1A
100
AcDbEntity
  8
外形線
100
AcDbLine
 10
438.462997120092
 20
399.049806356542
 30
0.0
 11
438.462997120092
 21
409.940960929674
 31
0.0
  0
LINE
  5
4329
330
1A
100
AcDbEntity
  8
外形線
100
AcDbLine
 10
454.533062192868
 20
399.049806356542
 30
0.0
 11
454.533062192868
 21
409.940960929674
 31
0.0
  0
LINE
  5
432A
330
1A
100
AcDbEntity
  8
外形線
100
AcDbLine
 10
463.3456785231
 20
409.940960929674
 30
0.0
 11
463.3456785231
 21
399.04980635654
 31
0.0
  0
LINE
  5
432B
330
1A
100
AcDbEntity
  8
外形線
100
AcDbLine
 10
457.125008172348
 20
399.049806356542
 30
0.0
 11
457.125008172348
 21
409.940960929674
 31
0.0
  0
LINE
  5
432C
330
1A
100
AcDbEntity
  8
外形線
100
AcDbLine
 10
397.856102130104
 20
455.644658408666
 30
0.0
 11
397.856102130104
 21
507.557263450682
 31
0.0
  0
ARC
  5
432D
330
1A
100
AcDbEntity
  8
外形線
100
AcDbCircle
 10
398.456102130104
 20
448.850960929674
 30
0.0
 40
0.6
100
AcDbArc
 50
180.0
 51
270.0
  0
ARC
  5
432E
330
1A
100
AcDbEntity
  8
外形線
100
AcDbCircle
 10
398.456102130104
 20
514.350960929674
 30
0.0
 40
0.6
100
AcDbArc
 50
90.0
 51
180.0
  0
LINE
  5
432F
330
1A
100
AcDbEntity
  8
外形線
100
AcDbLine
 10
397.856102130104
 20
514.466986333458
 30
0.0
 11
397.856102130104
 21
448.73493552589
 31
0.0
  0
LINE
  5
4330
330
1A
100
AcDbEntity
  8
外形線
100
AcDbLine
 10
428.881338911594
 20
421.26195701078
 30
0.0
 11
415.802832106234
 21
435.293998829008
 31
0.0
  0
LINE
  5
4331
330
1A
100
AcDbEntity
  8
外形線
100
AcDbLine
 10
418.353563563192
 20
437.36237995921
 30
0.0
 11
403.356102130094
 21
448.250960929674
 31
0.0
  0
LINE
  5
4332
330
1A
100
AcDbEntity
  8
外形線
100
AcDbLine
 10
418.353563563192
 20
525.608565243732
 30
0.0
 11
403.356102130094
 21
514.950960929674
 31
0.0
  0
CIRCLE
  5
4333
330
1A
100
AcDbEntity
  8
細線
100
AcDbCircle
 10
447.795670299738
 20
440.62223311118
 30
0.0
 40
13.76127218150634
  0
LINE
  5
4334
330
1A
100
AcDbEntity
  8
外形線
100
AcDbLine
 10
451.675229356778
 20
445.659601211302
 30
0.0
 11
452.993245638208
 21
444.283772468492
 31
0.0
  0
LINE
  5
4335
330
1A
100
AcDbEntity
  8
外形線
100
AcDbLine
 10
443.91277593566
 20
435.584865011058
 30
0.0
 11
452.993245638208
 21
444.283772468492
 31
0.0
  0
CIRCLE
  5
4336
330
1A
100
AcDbEntity
  8
外形線
100
AcDbCircle
 10
447.79400264622
 20
440.62223311118
 30
0.0
 40
10.51872781849356
  0
CIRCLE
  5
4337
330
1A
100
AcDbEntity
  8
細線
100
AcDbCircle
 10
447.79400264622
 20
440.62223311118
 30
0.0
 40
9.90742839250458
  0
LINE
  5
4338
330
1A
100
AcDbEntity
  8
外形線
100
AcDbLine
 10
442.594759654232
 20
436.960693753868
 30
0.0
 11
451.675229356778
 21
445.659601211302
 31
0.0
  0
LINE
  5
4339
330
1A
100
AcDbEntity
  8
外形線
100
AcDbLine
 10
442.594759654232
 20
436.960693753868
 30
0.0
 11
443.91277593566
 21
435.584865011058
 31
0.0
  0
LINE
  5
433A
330
1A
100
AcDbEntity
  8
外形線
100
AcDbLine
 10
398.456102130104
 20
514.950960929674
 30
0.0
 11
403.356102130094
 21
514.950960929674
 31
0.0
  0
LINE
  5
433B
330
1A
100
AcDbEntity
  8
外形線
100
AcDbLine
 10
398.456102130104
 20
448.250960929674
 30
0.0
 11
403.356102130094
 21
448.250960929674
 31
0.0
  0
LINE
  5
433C
330
1A
100
AcDbEntity
  8
外形線
100
AcDbLine
 10
403.356102130094
 20
514.950960929674
 30
0.0
 11
403.356102130094
 21
448.250960929674
 31
0.0
  0
LINE
  5
433D
330
1A
100
AcDbEntity
  8
外形線
100
AcDbLine
 10
397.856102130104
 20
502.443532929674
 30
0.0
 11
397.856102130104
 21
513.950960929674
 31
0.0
  0
LINE
  5
433E
330
1A
100
AcDbEntity
  8
外形線
100
AcDbLine
 10
458.2277428756
 20
454.282670627852
 30
0.0
 11
460.238369534792
 21
449.836738655256
 31
0.0
  0
ARC
  5
433F
330
1A
100
AcDbEntity
  8
外形線
100
AcDbCircle
 10
417.217045668608
 20
436.708212391382
 30
0.0
 40
2.0
100
AcDbArc
 50
180.0
 51
225.0
  0
LWPOLYLINE
  5
4340
330
1A
100
AcDbEntity
  8
外形線
100
AcDbPolyline
 90
       18
 70
     0
 43
0.0
 10
476.578165574378
 20
510.461543326058
 10
475.624785656636
 20
510.385103064102
 10
474.703871948542
 20
510.158385359674
 10
473.846785061906
 20
509.78911081228
 10
473.082712062694
 20
509.289854623738
 10
472.437672540488
 20
508.677618364756
 10
471.933632542576
 20
507.973251006836
 10
471.58775654656
 20
507.200738935556
 10
471.411822944648
 20
506.38638912298
 10
471.411822944648
 20
505.557933275268
 10
471.58775654656
 20
504.743583462692
 10
471.933632542576
 20
503.971071391412
 10
472.437672540488
 20
503.266704033492
 10
473.082712062694
 20
502.65446777451
 10
473.846785061906
 20
502.155211585966
 10
474.703871948542
 20
501.785937038574
 10
475.624785656636
 20
501.559219334146
 10
476.578165574378
 20
501.48277907219
  0
LWPOLYLINE
  5
4341
330
1A
100
AcDbEntity
  8
外形線
100
AcDbPolyline
 90
        8
 70
     0
 43
0.0
 10
476.578165574378
 20
509.895804453706
 10
475.58770690113
 20
509.819335591304
 10
474.63098972988
 20
509.59253403381
 10
473.740606106328
 20
509.223126126012
 10
472.946888321586
 20
508.723696317916
 10
472.276875595908
 20
508.111258456056
 10
471.753392945956
 20
507.406676180584
 10
471.394273615418
 20
506.633952173178
  0
LWPOLYLINE
  5
4342
330
1A
100
AcDbEntity
  8
外形線
100
AcDbPolyline
 90
        8
 70
     0
 43
0.0
 10
476.578165574378
 20
525.67242857812
 10
475.569309828036
 20
525.61434687358
 10
474.598960464846
 20
525.44231864416
 10
473.704154141936
 20
525.162909927612
 10
472.91904416144
 20
524.78678530025
 10
472.2735968945
 20
524.328300827412
 10
471.792448013618
 20
523.8049561158
 10
471.49396218909
 20
523.23672638195
  0
LWPOLYLINE
  5
4343
330
1A
100
AcDbEntity
  8
外形線
100
AcDbPolyline
 90
       18
 70
     0
 43
0.0
 10
476.578165574378
 20
526.489607341204
 10
475.624742977974
 20
526.437786878492
 10
474.703788044586
 20
526.284090174066
 10
473.846662789908
 20
526.033751184854
 10
473.082555586476
 20
525.695294904886
 10
472.437487188662
 20
525.280247056842
 10
471.933424627078
 20
524.802741597392
 10
471.5875331477
 20
524.279039402254
 10
471.411591670008
 20
523.726974521572
 10
471.411591670008
 20
523.165346862726
 10
471.5875331477
 20
522.613281982044
 10
471.933424627078
 20
522.089579786906
 10
472.437487188662
 20
521.612074327456
 10
473.082555586476
 20
521.197026479414
 10
473.846662789908
 20
520.858570199444
 10
474.703788044586
 20
520.608231210232
 10
475.624742977974
 20
520.454534505806
 10
476.578165574378
 20
520.402714043096
  0
ARC
  5
4344
330
1A
100
AcDbEntity
  8
外形線
100
AcDbCircle
 10
495.86224366171
 20
523.379272165828
 30
0.0
 40
3.110335175376
100
AcDbArc
 50
0.0
 51
90.0
  0
ARC
  5
4345
330
1A
100
AcDbEntity
  8
外形線
100
AcDbCircle
 10
493.788686878126
 20
523.598871794536
 30
0.0
 40
2.073556783584
100
AcDbArc
 50
0.0
 51
90.0
  0
ARC
  5
4346
330
1A
100
AcDbEntity
  8
外形線
100
AcDbCircle
 10
494.825465269918
 20
525.902654996918
 30
0.0
 40
4.147113567168
100
AcDbArc
 50
0.0
 51
87.000000000001
  0
ARC
  5
4347
330
1A
100
AcDbEntity
  8
外形線
100
AcDbCircle
 10
470.357495223626
 20
531.250835407486
 30
0.0
 40
1.036778391792
100
AcDbArc
 50
0.0
 51
30.000000000008
  0
LINE
  5
4348
330
1A
100
AcDbEntity
  8
外形線
100
AcDbLine
 10
465.795670299742
 20
531.250835407486
 30
0.0
 11
466.314059495638
 21
531.769224603382
 31
0.0
  0
LINE
  5
4349
330
1A
100
AcDbEntity
  8
外形線
100
AcDbLine
 10
466.314059495638
 20
531.769224603382
 30
0.0
 11
471.255371649012
 21
531.769224603382
 31
0.0
  0
LINE
  5
434A
330
1A
100
AcDbEntity
  8
外形線
100
AcDbLine
 10
476.578165574378
 20
526.489607341204
 30
0.0
 11
495.86224366171
 21
526.489607341204
 31
0.0
  0
LINE
  5
434B
330
1A
100
AcDbEntity
  8
外形線
100
AcDbLine
 10
476.578165574378
 20
525.67242857812
 30
0.0
 11
493.788686878126
 21
525.67242857812
 31
0.0
  0
LINE
  5
434C
330
1A
100
AcDbEntity
  8
外形線
100
AcDbLine
 10
471.394273615418
 20
531.250835407486
 30
0.0
 11
495.042508424102
 21
530.044085089074
 31
0.0
  0
ARC
  5
434D
330
1A
100
AcDbEntity
  8
外形線
100
AcDbCircle
 10
495.86224366171
 20
517.29237886772
 30
0.0
 40
3.110335175376
100
AcDbArc
 50
0.0
 51
90.0
  0
ARC
  5
434E
330
1A
100
AcDbEntity
  8
外形線
100
AcDbCircle
 10
494.307076074022
 20
508.340636866018
 30
0.0
 40
1.555167587688
100
AcDbArc
 50
0.0
 51
90.0
  0
LINE
  5
434F
330
1A
100
AcDbEntity
  8
外形線
100
AcDbLine
 10
498.561704767756
 20
505.452673584568
 30
0.0
 11
495.86224366171
 21
503.408461422802
 31
0.0
  0
ARC
  5
4350
330
1A
100
AcDbEntity
  8
外形線
100
AcDbCircle
 10
497.935800445294
 20
500.446000680398
 30
0.0
 40
1.036778391792
100
AcDbArc
 50
0.0
 51
90.0
  0
ARC
  5
4351
330
1A
100
AcDbEntity
  8
外形線
100
AcDbCircle
 10
497.935800445294
 20
506.279204414488
 30
0.0
 40
1.036778391792
100
AcDbArc
 50
307.135436470272
 51
0.0
  0
LINE
  5
4352
330
1A
100
AcDbEntity
  8
外形線
100
AcDbLine
 10
495.86224366171
 20
508.340636866018
 30
0.0
 11
495.86224366171
 21
501.48277907219
 31
0.0
  0
ARC
  5
4353
330
1A
100
AcDbEntity
  8
外形線
100
AcDbCircle
 10
495.86224366171
 20
507.351208150682
 30
0.0
 40
3.110335175376
100
AcDbArc
 50
0.0
 51
90.0
  0
ARC
  5
4354
330
1A
100
AcDbEntity
  8
外形線
100
AcDbCircle
 10
497.935800445294
 20
487.706142952222
 30
0.0
 40
1.036778391792
100
AcDbArc
 50
270.0
 51
0.0
  0
LINE
  5
4355
330
1A
100
AcDbEntity
  8
外形線
100
AcDbLine
 10
495.86224366171
 20
486.66936456043
 30
0.0
 11
495.86224366171
 21
481.485472601472
 31
0.0
  0
ARC
  5
4356
330
1A
100
AcDbEntity
  8
外形線
100
AcDbCircle
 10
497.935800445294
 20
475.26480225072
 30
0.0
 40
1.036778391792
100
AcDbArc
 50
0.0
 51
90.0
  0
LINE
  5
4357
330
1A
100
AcDbEntity
  8
外形線
100
AcDbLine
 10
495.86224366171
 20
476.30158064251
 30
0.0
 11
495.86224366171
 21
481.485472601472
 31
0.0
  0
LINE
  5
4358
330
1A
100
AcDbEntity
  8
外形線
100
AcDbLine
 10
498.972578837086
 20
500.446000680398
 30
0.0
 11
498.972578837086
 21
487.706142952222
 31
0.0
  0
ARC
  5
4359
330
1A
100
AcDbEntity
  8
外形線
100
AcDbCircle
 10
476.578165574378
 20
481.485472601472
 30
0.0
 40
5.183891958959999
100
AcDbArc
 50
90.0
 51
180.0
  0
ARC
  5
435A
330
1A
100
AcDbEntity
  8
外形線
100
AcDbCircle
 10
476.578165574378
 20
481.485472601472
 30
0.0
 40
5.183891958959999
100
AcDbArc
 50
180.0
 51
270.0
  0
LINE
  5
435B
330
1A
100
AcDbEntity
  8
外形線
100
AcDbLine
 10
476.578165574378
 20
476.30158064251
 30
0.0
 11
497.935800445294
 21
476.30158064251
 31
0.0
  0
LINE
  5
435C
330
1A
100
AcDbEntity
  8
外形線
100
AcDbLine
 10
476.578165574378
 20
486.66936456043
 30
0.0
 11
497.935800445294
 21
486.66936456043
 31
0.0
  0
LINE
  5
435D
330
1A
100
AcDbEntity
  8
外形線
100
AcDbLine
 10
476.57816557438
 20
520.402714043096
 30
0.0
 11
495.86224366171
 21
520.402714043096
 31
0.0
  0
LINE
  5
435E
330
1A
100
AcDbEntity
  8
外形線
100
AcDbLine
 10
476.578165574378
 20
510.461543326058
 30
0.0
 11
495.86224366171
 21
510.461543326058
 31
0.0
  0
LINE
  5
435F
330
1A
100
AcDbEntity
  8
外形線
100
AcDbLine
 10
476.578165574378
 20
509.895804453706
 30
0.0
 11
494.307076074022
 21
509.895804453706
 31
0.0
  0
LINE
  5
4360
330
1A
100
AcDbEntity
  8
外形線
100
AcDbLine
 10
476.57816557438
 20
501.48277907219
 30
0.0
 11
497.935800445294
 21
501.48277907219
 31
0.0
  0
LINE
  5
4361
330
1A
100
AcDbEntity
  8
外形線
100
AcDbLine
 10
471.394273615418
 20
531.250835407486
 30
0.0
 11
471.394273615418
 21
481.485472601472
 31
0.0
  0
LINE
  5
4362
330
1A
100
AcDbEntity
  8
外形線
100
AcDbLine
 10
498.972578837086
 20
506.279204414488
 30
0.0
 11
498.972578837086
 21
525.902654996918
 31
0.0
  0
LINE
  5
4363
330
1A
100
AcDbEntity
  8
外形線
100
AcDbLine
 10
495.86224366171
 20
523.598871794536
 30
0.0
 11
495.86224366171
 21
520.402714043096
 31
0.0
  0
LINE
  5
4364
330
1A
100
AcDbEntity
  8
外形線
100
AcDbLine
 10
418.795670299734
 20
526.457844382842
 30
0.0
 11
418.795670299734
 21
527.622111036214
 31
0.0
  0
LINE
  5
4365
330
1A
100
AcDbEntity
  8
外形線
100
AcDbLine
 10
419.832448691526
 20
528.658889428006
 30
0.0
 11
457.65714798644
 21
528.658889428006
 31
0.0
  0
LINE
  5
4366
330
1A
100
AcDbEntity
  8
外形線
100
AcDbLine
 10
498.561704767756
 20
457.518271618374
 30
0.0
 11
495.86224366171
 21
459.56248378014
 31
0.0
  0
ARC
  5
4367
330
1A
100
AcDbEntity
  8
外形線
100
AcDbCircle
 10
497.935800445294
 20
456.691740788454
 30
0.0
 40
1.036778391792
100
AcDbArc
 50
0.0
 51
52.864563529743
  0
ARC
  5
4368
330
1A
100
AcDbEntity
  8
外形線
100
AcDbCircle
 10
497.935800445294
 20
462.524944522544
 30
0.0
 40
1.036778391792
100
AcDbArc
 50
270.0
 51
0.0
  0
ARC
  5
4369
330
1A
100
AcDbEntity
  8
外形線
100
AcDbCircle
 10
495.86224366171
 20
455.61973705226
 30
0.0
 40
3.110335175376
100
AcDbArc
 50
270.0
 51
0.0
  0
LINE
  5
436A
330
1A
100
AcDbEntity
  8
外形線
100
AcDbLine
 10
495.86224366171
 20
454.630308336924
 30
0.0
 11
495.86224366171
 21
461.488166130752
 31
0.0
  0
ARC
  5
436B
330
1A
100
AcDbEntity
  8
外形線
100
AcDbCircle
 10
494.307076074022
 20
454.630308336924
 30
0.0
 40
1.555167587688
100
AcDbArc
 50
270.0
 51
0.0
  0
ARC
  5
436C
330
1A
100
AcDbEntity
  8
外形線
100
AcDbCircle
 10
495.86224366171
 20
445.678566335222
 30
0.0
 40
3.110335175376
100
AcDbArc
 50
270.0
 51
0.0
  0
ARC
  5
436D
330
1A
100
AcDbEntity
  8
外形線
100
AcDbCircle
 10
495.86224366171
 20
439.591673037114
 30
0.0
 40
3.110335175376
100
AcDbArc
 50
270.0
 51
0.0
  0
LINE
  5
436E
330
1A
100
AcDbEntity
  8
外形線
100
AcDbLine
 10
495.86224366171
 20
439.372073408406
 30
0.0
 11
495.86224366171
 21
442.568231159846
 31
0.0
  0
ARC
  5
436F
330
1A
100
AcDbEntity
  8
外形線
100
AcDbCircle
 10
493.788686878126
 20
439.372073408406
 30
0.0
 40
2.073556783584
100
AcDbArc
 50
270.0
 51
0.0
  0
LINE
  5
4370
330
1A
100
AcDbEntity
  8
外形線
100
AcDbLine
 10
498.972578837086
 20
456.691740788454
 30
0.0
 11
498.972578837086
 21
437.068290206024
 31
0.0
  0
ARC
  5
4371
330
1A
100
AcDbEntity
  8
外形線
100
AcDbCircle
 10
494.825465269918
 20
437.068290206024
 30
0.0
 40
4.147113567168
100
AcDbArc
 50
272.999999999999
 51
0.0
  0
LWPOLYLINE
  5
4372
330
1A
100
AcDbEntity
  8
外形線
100
AcDbPolyline
 90
       18
 70
     0
 43
0.0
 10
476.578165574378
 20
452.509401876884
 10
475.624785656636
 20
452.58584213884
 10
474.703871948542
 20
452.812559843268
 10
473.846785061906
 20
453.181834390662
 10
473.082712062694
 20
453.681090579204
 10
472.437672540488
 20
454.293326838186
 10
471.933632542576
 20
454.997694196106
 10
471.58775654656
 20
455.770206267386
 10
471.411822944648
 20
456.584556079962
 10
471.411822944648
 20
457.413011927674
 10
471.58775654656
 20
458.22736174025
 10
471.933632542576
 20
458.99987381153
 10
472.437672540488
 20
459.70424116945
 10
473.082712062694
 20
460.316477428432
 10
473.846785061906
 20
460.815733616976
 10
474.703871948542
 20
461.185008164368
 10
475.624785656636
 20
461.411725868796
 10
476.578165574378
 20
461.488166130752
  0
LWPOLYLINE
  5
4373
330
1A
100
AcDbEntity
  8
外形線
100
AcDbPolyline
 90
        8
 70
     0
 43
0.0
 10
476.578165574378
 20
453.075140749236
 10
475.58770690113
 20
453.151609611638
 10
474.63098972988
 20
453.378411169132
 10
473.740606106328
 20
453.74781907693
 10
472.946888321586
 20
454.247248885026
 10
472.276875595908
 20
454.859686746886
 10
471.753392945956
 20
455.564269022358
 10
471.394273615418
 20
456.336993029764
  0
LWPOLYLINE
  5
4374
330
1A
100
AcDbEntity
  8
外形線
100
AcDbPolyline
 90
        8
 70
     0
 43
0.0
 10
476.578165574378
 20
437.298516624822
 10
475.569309828036
 20
437.356598329362
 10
474.598960464846
 20
437.528626558782
 10
473.704154141936
 20
437.80803527533
 10
472.91904416144
 20
438.184159902692
 10
472.2735968945
 20
438.642644375532
 10
471.792448013618
 20
439.165989087142
 10
471.49396218909
 20
439.734218820992
  0
LWPOLYLINE
  5
4375
330
1A
100
AcDbEntity
  8
外形線
100
AcDbPolyline
 90
       18
 70
     0
 43
0.0
 10
476.578165574378
 20
436.481337861738
 10
475.624742977974
 20
436.53315832445
 10
474.703788044586
 20
436.686855028876
 10
473.846662789908
 20
436.937194018088
 10
473.082555586476
 20
437.275650298056
 10
472.437487188662
 20
437.6906981461
 10
471.933424627078
 20
438.16820360555
 10
471.5875331477
 20
438.691905800688
 10
471.411591670008
 20
439.24397068137
 10
471.411591670008
 20
439.805598340216
 10
471.5875331477
 20
440.357663220898
 10
471.933424627078
 20
440.881365416036
 10
472.437487188662
 20
441.358870875486
 10
473.082555586476
 20
441.77391872353
 10
473.846662789908
 20
442.112375003498
 10
474.703788044586
 20
442.36271399271
 10
475.624742977974
 20
442.516410697136
 10
476.578165574378
 20
442.568231159846
  0
ARC
  5
4376
330
1A
100
AcDbEntity
  8
外形線
100
AcDbCircle
 10
470.357495223626
 20
431.720109795454
 30
0.0
 40
1.036778391792
100
AcDbArc
 50
330.000000000009
 51
0.0
  0
LINE
  5
4377
330
1A
100
AcDbEntity
  8
外形線
100
AcDbLine
 10
465.795670299742
 20
431.720109795454
 30
0.0
 11
466.314059495636
 21
431.201720599558
 31
0.0
  0
LINE
  5
4378
330
1A
100
AcDbEntity
  8
外形線
100
AcDbLine
 10
466.314059495636
 20
431.201720599558
 30
0.0
 11
471.255371649012
 21
431.201720599558
 31
0.0
  0
LINE
  5
4379
330
1A
100
AcDbEntity
  8
外形線
100
AcDbLine
 10
476.578165574378
 20
452.509401876884
 30
0.0
 11
495.86224366171
 21
452.509401876884
 31
0.0
  0
LINE
  5
437A
330
1A
100
AcDbEntity
  8
外形線
100
AcDbLine
 10
476.578165574378
 20
453.075140749236
 30
0.0
 11
494.307076074022
 21
453.075140749236
 31
0.0
  0
LINE
  5
437B
330
1A
100
AcDbEntity
  8
外形線
100
AcDbLine
 10
476.57816557438
 20
442.568231159846
 30
0.0
 11
495.86224366171
 21
442.568231159846
 31
0.0
  0
LINE
  5
437C
330
1A
100
AcDbEntity
  8
外形線
100
AcDbLine
 10
476.578165574378
 20
436.481337861738
 30
0.0
 11
495.86224366171
 21
436.481337861738
 31
0.0
  0
LINE
  5
437D
330
1A
100
AcDbEntity
  8
外形線
100
AcDbLine
 10
476.578165574378
 20
437.298516624822
 30
0.0
 11
493.788686878126
 21
437.298516624822
 31
0.0
  0
LINE
  5
437E
330
1A
100
AcDbEntity
  8
外形線
100
AcDbLine
 10
471.394273615418
 20
431.720109795454
 30
0.0
 11
495.042508424102
 21
432.926860113868
 31
0.0
  0
LINE
  5
437F
330
1A
100
AcDbEntity
  8
外形線
100
AcDbLine
 10
476.57816557438
 20
461.488166130752
 30
0.0
 11
497.935800445294
 21
461.488166130752
 31
0.0
  0
LINE
  5
4380
330
1A
100
AcDbEntity
  8
外形線
100
AcDbLine
 10
418.795670299734
 20
436.5131008201
 30
0.0
 11
418.795670299734
 21
435.348834166726
 31
0.0
  0
LINE
  5
4381
330
1A
100
AcDbEntity
  8
外形線
100
AcDbLine
 10
419.832448691526
 20
434.312055774934
 30
0.0
 11
427.72211351615
 21
434.312055774934
 31
0.0
  0
ARC
  5
4382
330
1A
100
AcDbEntity
  8
外形線
100
AcDbCircle
 10
431.080678005866
 20
423.46129610505
 30
0.0
 40
3.110335175376
100
AcDbArc
 50
224.999999999991
 51
259.247872764006
  0
ARC
  5
4383
330
1A
100
AcDbEntity
  8
外形線
100
AcDbCircle
 10
430.832448691526
 20
421.387739321466
 30
0.0
 40
1.036778391792
100
AcDbArc
 50
180.0
 51
270.0
  0
LINE
  5
4384
330
1A
100
AcDbEntity
  8
外形線
100
AcDbLine
 10
429.795670299734
 20
421.387739321466
 30
0.0
 11
429.795670299734
 21
454.77406682719
 31
0.0
  0
ARC
  5
4385
330
1A
100
AcDbEntity
  8
外形線
100
AcDbCircle
 10
427.72211351615
 20
432.23849899135
 30
0.0
 40
2.073556783584
100
AcDbArc
 50
0.0
 51
90.0
  0
LINE
  5
4386
330
1A
100
AcDbEntity
  8
外形線
100
AcDbLine
 10
429.795670299734
 20
454.77406682719
 30
0.0
 11
457.237159571504
 21
454.77406682719
 31
0.0
  0
LINE
  5
4387
330
1A
100
AcDbEntity
  8
外形線
100
AcDbLine
 10
430.500412284352
 20
420.350960929674
 30
0.0
 11
464.75889190795
 21
420.350960929674
 31
0.0
  0
ARC
  5
4388
330
1A
100
AcDbEntity
  8
外形線
100
AcDbCircle
 10
464.75889190795
 20
421.387739321466
 30
0.0
 40
1.036778391792
100
AcDbArc
 50
270.0
 51
0.0
  0
LINE
  5
4389
330
1A
100
AcDbEntity
  8
外形線
100
AcDbLine
 10
465.795670299742
 20
421.387739321466
 30
0.0
 11
465.795670299742
 21
530.811911639956
 31
0.0
  0
LINE
  5
438A
330
1A
100
AcDbEntity
  8
外形線
100
AcDbLine
 10
460.611778340782
 20
450.61095474206
 30
0.0
 11
460.611778340782
 21
529.179445248568
 31
0.0
  0
LINE
  5
438B
330
1A
100
AcDbEntity
  8
外形線
100
AcDbLine
 10
418.795670299734
 20
526.457844382842
 30
0.0
 11
418.795670299734
 21
436.5131008201
 31
0.0
  0
LINE
  5
438C
330
1A
100
AcDbEntity
  8
外形線
100
AcDbLine
 10
471.394273615418
 20
431.720109795454
 30
0.0
 11
471.394273615418
 21
481.485472601472
 31
0.0
  0
LINE
  5
438D
330
1A
100
AcDbEntity
  8
外形線
100
AcDbLine
 10
498.972578837086
 20
462.524944522544
 30
0.0
 11
498.972578837086
 21
475.26480225072
 31
0.0
  0
LINE
  5
438E
330
1A
100
AcDbEntity
  8
外形線
100
AcDbLine
 10
415.217045668608
 20
437.939455424256
 30
0.0
 11
415.217045668608
 21
436.708212391382
 31
0.0
  0
ARC
  5
438F
330
1A
100
AcDbEntity
  8
外形線
100
AcDbCircle
 10
412.106710493232
 20
437.939455424256
 30
0.0
 40
3.110335175376
100
AcDbArc
 50
0.0
 51
55.000000000003
  0
LINE
  5
4390
330
1A
100
AcDbEntity
  8
外形線
100
AcDbLine
 10
397.856102130104
 20
514.350960929674
 30
0.0
 11
397.856102130104
 21
448.850960929674
 31
0.0
  0
ARC
  5
4391
330
1A
100
AcDbEntity
  8
外形線
100
AcDbCircle
 10
417.758891907942
 20
436.5131008201
 30
0.0
 40
1.036778391792
100
AcDbArc
 50
0.0
 51
55.000000000003
  0
ARC
  5
4392
330
1A
100
AcDbEntity
  8
外形線
100
AcDbCircle
 10
419.832448691526
 20
435.348834166726
 30
0.0
 40
1.036778391792
100
AcDbArc
 50
180.0
 51
270.0
  0
ARC
  5
4393
330
1A
100
AcDbEntity
  8
外形線
100
AcDbCircle
 10
417.758891907942
 20
526.457844382842
 30
0.0
 40
1.036778391792
100
AcDbArc
 50
304.999999999997
 51
0.0
  0
ARC
  5
4394
330
1A
100
AcDbEntity
  8
外形線
100
AcDbCircle
 10
419.832448691526
 20
527.622111036214
 30
0.0
 40
1.036778391792
100
AcDbArc
 50
90.0
 51
180.0
  0
DIMENSION
  5
4395
330
1A
100
AcDbEntity
  8
寸法線
 48
10.0
100
AcDbDimension
  2
*D6
 10
518.366732306297
 20
392.600960929674
 30
0.0
 11
518.366732306297
 21
442.634013592977
 31
0.0
 70
   160
  3
ISO-25
100
AcDbAlignedDimension
 13
498.971825332582
 23
481.600960929674
 33
0.0
 14
456.399263298094
 24
392.600960929674
 34
0.0
 50
90.0
100
AcDbRotatedDimension
1001
ACAD
1000
DSTYLE
1002
{
1070
     5
1000
OPEN30
1070
    41
1040
6.0
1070
    47
1040
0.1
1070
    48
1040
0.1
1070
    73
1070
     0
1070
   140
1040
8.0
1070
   271
1070
     1
1070
   272
1070
     1
1070
   341
1005
2AF4
1002
}
  0
DIMENSION
  5
4396
330
1A
100
AcDbEntity
  8
寸法線
 48
10.0
100
AcDbDimension
  2
*D7
 10
540.049766136396
 20
531.769224603382
 30
0.0
 11
535.424766136396
 21
481.48547260147
 31
0.0
 70
    32
  1
φ100
  3
ISO-25
100
AcDbAlignedDimension
 13
471.255371649013
 23
431.201720599558
 33
0.0
 14
471.255371649012
 24
531.769224603382
 34
0.0
 50
90.0
100
AcDbRotatedDimension
1001
ACAD
1000
DSTYLE
1002
{
1070
     5
1000
OPEN30
1070
    41
1040
6.0
1070
    47
1040
0.1
1070
    48
1040
0.1
1070
    73
1070
     0
1070
   140
1040
8.0
1070
   271
1070
     1
1070
   272
1070
     1
1070
   341
1005
2AF4
1002
}
  0
LINE
  5
4397
330
1A
100
AcDbEntity
  8
中心線
 48
10.0
100
AcDbLine
 10
447.795670299738
 20
426.443532929674
 30
0.0
 11
447.795670299738
 21
389.043532929674
 31
0.0
  0
LINE
  5
4398
330
1A
100
AcDbEntity
  8
中心線
 48
10.0
100
AcDbLine
 10
50.35724375671
 20
481.600960929674
 30
0.0
 11
498.971825332582
 21
481.600960929674
 31
0.0
  0
DIMENSION
  5
4399
330
1A
100
AcDbEntity
  8
寸法線
 48
10.0
100
AcDbDimension
  2
*D8
 10
383.472578837094
 20
364.100960929674
 30
0.0
 11
441.22257883709
 21
368.734294263007
 31
0.0
 70
    32
  1
118
  3
ISO-25
100
AcDbAlignedDimension
 13
498.972578837086
 23
437.068290206024
 33
0.0
 14
383.472578837094
 24
457.641297064128
 34
0.0
100
AcDbRotatedDimension
1001
ACAD
1000
DSTYLE
1002
{
1070
     5
1000
OPEN30
1070
    41
1040
6.0
1070
    47
1040
0.1
1070
    48
1040
0.1
1070
    73
1070
     0
1070
   140
1040
8.0
1070
   271
1070
     1
1070
   272
1070
     1
1070
   341
1005
2AF4
1002
}
  0
MTEXT
  5
439A
330
1A
100
AcDbEntity
  8
寸法線
 48
10.0
100
AcDbMText
 10
507.593158723315
 20
387.235178163566
 30
0.0
 40
8.0
 41
60.129060420842
 71
     1
 72
     5
  1
コードロック\P2×M20
  0
MTEXT
  5
439B
102
{ACAD_XDICTIONARY
360
4B30
102
}
330
1A
100
AcDbEntity
  8
寸法線
 48
10.0
100
AcDbMText
 10
419.363279469743
 20
412.089994317083
 30
0.0
 40
8.0
 41
42.299427293917
 71
     3
 72
     5
  1
2×NPT 1/2"
1001
ACADANNOTATIVE
1000
AnnotativeData
1002
{
1070
     1
1070
     0
1002
}
  0
MTEXT
  5
439C
330
1A
100
AcDbEntity
  8
寸法線
 48
10.0
100
AcDbMText
 10
447.112388171614
 20
581.214547501848
 30
0.0
 40
8.0
 41
49.592740337165
 71
     1
 72
     5
  1
アルミ鋳物
  0
LEADER
  5
439D
330
1A
100
AcDbEntity
  8
寸法線
 48
10.0
100
AcDbLeader
  3
ISO-25
 76
     3
 10
440.995734475824
 20
528.779448980524
 30
0.0
 10
446.083500370062
 20
572.526723350516
 30
0.0
 10
459.325116573381
 20
572.526723350516
 30
0.0
213
-71.84154336814322
223
0.0
233
0.0
1001
ACAD
1000
DSTYLE
1002
{
1070
     5
1000
OPEN30
1070
   147
1040
0.625
1070
    77
1070
     0
1070
    41
1040
6.0
1070
    47
1040
0.1
1070
    48
1040
0.1
1070
    73
1070
     0
1070
   140
1040
5.0
1070
   271
1070
     1
1070
   272
1070
     1
1070
   341
1005
2AF4
1070
   342
1005
2AF4
1002
}
  0
LEADER
  5
439E
330
1A
100
AcDbEntity
  8
寸法線
 48
10.0
100
AcDbLeader
  3
ISO-25
 76
     3
 10
112.739296378358
 20
497.49701413347
 30
0.0
 10
108.690955674564
 20
572.526723350516
 30
0.0
 10
95.838940061857
 20
572.526723350516
 30
0.0
213
39.00387194424621
223
0.0
233
0.0
1001
ACAD
1000
DSTYLE
1002
{
1070
     5
1000
OPEN30
1070
   147
1040
0.625
1070
    77
1070
     0
1070
    41
1040
6.0
1070
    47
1040
0.1
1070
    48
1040
0.1
1070
    73
1070
     0
1070
   140
1040
5.0
1070
   271
1070
     1
1070
   272
1070
     1
1070
   341
1005
2AF4
1070
   342
1005
2AF4
1002
}
  0
LINE
  5
439F
330
1A
100
AcDbEntity
  8
外形線
100
AcDbLine
 10
364.495710849323
 20
505.56062479522
 30
0.0
 11
364.495710849322
 21
457.641297064128
 31
0.0
  0
LINE
  5
43A0
330
1A
100
AcDbEntity
  8
外形線
100
AcDbLine
 10
362.566202720367
 20
459.586147834599
 30
0.0
 11
364.495710849322
 21
457.641297064128
 31
0.0
  0
LINE
  5
43A1
330
1A
100
AcDbEntity
  8
外形線
100
AcDbLine
 10
290.556732590267
 20
466.400960929674
 30
0.0
 11
240.191396247751
 21
466.400960929674
 31
0.0
  0
LINE
  5
43A2
330
1A
100
AcDbEntity
  8
外形線
100
AcDbLine
 10
355.351042123185
 20
459.753365296728
 30
0.0
 11
348.61921385751
 21
466.400960929674
 31
0.0
  0
LINE
  5
43A3
330
1A
100
AcDbEntity
  8
外形線
100
AcDbLine
 10
348.758118080895
 20
496.400960929674
 30
0.0
 11
348.801686769145
 21
466.400960929674
 31
0.0
  0
LINE
  5
43A4
330
1A
100
AcDbEntity
  8
外形線
100
AcDbLine
 10
234.091396247751
 20
460.636255047321
 30
0.0
 11
226.391396247751
 21
460.636255047321
 31
0.0
  0
LINE
  5
43A5
330
1A
100
AcDbEntity
  8
外形線
100
AcDbLine
 10
221.491396247751
 20
460.636255047321
 30
0.0
 11
162.724169356995
 21
460.636255047321
 31
0.0
  0
ARC
  5
43A6
330
1A
100
AcDbEntity
  8
外形線
100
AcDbCircle
 10
223.941396247751
 20
459.835607988497
 30
0.0
 40
2.577505715377329
100
AcDbArc
 50
18.097118485446
 51
161.902881514555
  0
LINE
  5
43A7
330
1A
100
AcDbEntity
  8
外形線
100
AcDbLine
 10
234.091396247751
 20
460.636255047321
 30
0.0
 11
240.191396247751
 21
466.400960929674
 31
0.0
  0
LINE
  5
43A8
330
1A
100
AcDbEntity
  8
外形線
100
AcDbLine
 10
348.61921385751
 20
466.400960929674
 30
0.0
 11
297.134399710363
 21
466.400960929674
 31
0.0
  0
LINE
  5
43A9
330
1A
100
AcDbEntity
  8
外形線
100
AcDbLine
 10
240.191396247751
 20
466.400960929674
 30
0.0
 11
240.191396247751
 21
496.400960929674
 31
0.0
  0
LINE
  5
43AA
330
1A
100
AcDbEntity
  8
外形線
100
AcDbLine
 10
234.091396247751
 20
460.636255047321
 30
0.0
 11
234.091396247751
 21
502.565666812027
 31
0.0
  0
LINE
  5
43AB
330
1A
100
AcDbEntity
  8
外形線
100
AcDbLine
 10
226.391396247751
 20
502.565666812027
 30
0.0
 11
226.391396247751
 21
460.636255047321
 31
0.0
  0
LINE
  5
43AC
330
1A
100
AcDbEntity
  8
外形線
100
AcDbLine
 10
221.491396247751
 20
460.636255047321
 30
0.0
 11
221.491396247751
 21
502.565666812027
 31
0.0
  0
LINE
  5
43AD
330
1A
100
AcDbEntity
  8
外形線
100
AcDbLine
 10
362.566202720367
 20
459.586147834599
 30
0.0
 11
362.566202720367
 21
503.615774024749
 31
0.0
  0
LINE
  5
43AF
330
1A
100
AcDbEntity
  8
外形線
100
AcDbLine
 10
355.351042123185
 20
459.753365296728
 30
0.0
 11
355.351042123185
 21
503.563986139758
 31
0.0
  0
LINE
  5
43B0
330
1A
100
AcDbEntity
  8
外形線
100
AcDbLine
 10
362.5659809324
 20
459.753365296728
 30
0.0
 11
355.351042123185
 21
459.753365296728
 31
0.0
  0
LINE
  5
43B1
330
1A
100
AcDbEntity
  8
外形線
100
AcDbLine
 10
162.224169356995
 20
502.065666812027
 30
0.0
 11
162.224169356995
 21
461.136255047321
 31
0.0
  0
ARC
  5
43B2
330
1A
100
AcDbEntity
  8
外形線
100
AcDbCircle
 10
162.724169356995
 20
461.136255047321
 30
0.0
 40
0.5
100
AcDbArc
 50
180.0
 51
270.0
  0
LINE
  5
43B4
330
1A
100
AcDbEntity
  8
外形線
100
AcDbLine
 10
362.566202720367
 20
503.615774024749
 30
0.0
 11
364.495710849323
 21
505.56062479522
 31
0.0
  0
LINE
  5
43B5
330
1A
100
AcDbEntity
  8
外形線
100
AcDbLine
 10
297.134399710363
 20
496.400960929674
 30
0.0
 11
348.758118080895
 21
496.400960929674
 31
0.0
  0
LINE
  5
43B6
330
1A
100
AcDbEntity
  8
外形線
100
AcDbLine
 10
355.351042123185
 20
503.563986139758
 30
0.0
 11
348.758118080895
 21
496.400960929674
 31
0.0
  0
LINE
  5
43B7
330
1A
100
AcDbEntity
  8
外形線
100
AcDbLine
 10
362.566202720367
 20
503.563986139758
 30
0.0
 11
355.351042123185
 21
503.563986139758
 31
0.0
  0
LINE
  5
43B9
330
1A
100
AcDbEntity
  8
外形線
100
AcDbLine
 10
234.091396247751
 20
502.565666812027
 30
0.0
 11
226.391396247751
 21
502.565666812027
 31
0.0
  0
LINE
  5
43BA
330
1A
100
AcDbEntity
  8
外形線
100
AcDbLine
 10
221.491396247751
 20
502.565666812027
 30
0.0
 11
162.724169356995
 21
502.565666812027
 31
0.0
  0
ARC
  5
43BB
330
1A
100
AcDbEntity
  8
外形線
100
AcDbCircle
 10
223.941396247751
 20
502.855324740416
 30
0.0
 40
2.467063378893744
100
AcDbArc
 50
186.742650169571
 51
353.257349830429
  0
LINE
  5
43BC
330
1A
100
AcDbEntity
  8
外形線
100
AcDbLine
 10
234.091396247751
 20
502.565666812027
 30
0.0
 11
240.191396247751
 21
496.400960929674
 31
0.0
  0
LINE
  5
43BD
330
1A
100
AcDbEntity
  8
外形線
100
AcDbLine
 10
240.191396247751
 20
496.400960929674
 30
0.0
 11
290.556732590267
 21
496.400960929674
 31
0.0
  0
ARC
  5
43BE
330
1A
100
AcDbEntity
  8
外形線
100
AcDbCircle
 10
162.724169356995
 20
502.065666812027
 30
0.0
 40
0.5
100
AcDbArc
 50
90.0
 51
180.0
  0
LWPOLYLINE
  5
43BF
330
1A
100
AcDbEntity
  8
細線
100
AcDbPolyline
 90
       67
 70
     0
 43
0.0
 10
297.134399710363
 20
466.400960929674
 10
297.094638291519
 20
466.507690534856
 10
296.984773202767
 20
466.810972632292
 10
296.818933195787
 20
467.285447144828
 10
296.611247022259
 20
467.905753995306
 10
296.375843433859
 20
468.646533106564
 10
296.126851182265
 20
469.482424401446
 10
295.878399019155
 20
470.388067802792
 10
295.644615696207
 20
471.338103233448
 10
295.439629965101
 20
472.307170616252
 10
295.277570577511
 20
473.269909874046
 10
295.172566285119
 20
474.200960929674
 10
295.135625630399
 20
475.04002684722
 10
295.158117751201
 20
475.831911020634
 10
295.234815644785
 20
476.581251454972
 10
295.360492308415
 20
477.29268615529
 10
295.529920739353
 20
477.970853126646
 10
295.737873934859
 20
478.620390374092
 10
295.979124892199
 20
479.245935902688
 10
296.248446608631
 20
479.852127717488
 10
296.540612081421
 20
480.44360382355
 10
296.850394307829
 20
481.025002225926
 10
297.172566285119
 20
481.600960929674
 10
297.501250460061
 20
482.175264936168
 10
297.830676041377
 20
482.752981382108
 10
298.154441191037
 20
483.33832221755
 10
298.466144071011
 20
483.935499392546
 10
298.759382843269
 20
484.548724857154
 10
299.027755669783
 20
485.182210561428
 10
299.264860712521
 20
485.84016845542
 10
299.464296133453
 20
486.526810489186
 10
299.619660094551
 20
487.24634861278
 10
299.724550757781
 20
488.002994776258
 10
299.772566285119
 20
488.800960929674
 10
299.756998906729
 20
489.68419360257
 10
299.677804226673
 20
490.595525416052
 10
299.541240282399
 20
491.51276841779
 10
299.353565111359
 20
492.413734655458
 10
299.121036750999
 20
493.27623617673
 10
298.849913238773
 20
494.078085029278
 10
298.546452612127
 20
494.797093260772
 10
298.216912908515
 20
495.411072918886
 10
297.867552165383
 20
495.897836051294
 10
297.504628420183
 20
496.235194705666
 10
297.134399710363
 20
496.400960929674
 10
296.714408125347
 20
496.362880231484
 10
296.303673318585
 20
496.100277477268
 10
295.912794994351
 20
495.637198732246
 10
295.552372856931
 20
494.99769006164
 10
295.233006610599
 20
494.205797530674
 10
294.965295959635
 20
493.285567204566
 10
294.759840608319
 20
492.261045148538
 10
294.627240260931
 20
491.156277427814
 10
294.578094621749
 20
489.995310107614
 10
294.623003395051
 20
488.80218925316
 10
294.772566285119
 20
487.600960929674
 10
294.942880832555
 20
486.76721298149
 10
295.157203124693
 20
485.953760327996
 10
295.402842943471
 20
485.173057431144
 10
295.667110070823
 20
484.437558752886
 10
295.937314288687
 20
483.759718755174
 10
296.200765379001
 20
483.15199189996
 10
296.444773123703
 20
482.626832649196
 10
296.656647304727
 20
482.196695464834
 10
296.823697704013
 20
481.874034808824
 10
296.933234103499
 20
481.67130514312
 10
296.972566285119
 20
481.600960929674
  0
LWPOLYLINE
  5
43C0
330
1A
100
AcDbEntity
  8
細線
100
AcDbPolyline
 90
       67
 70
     0
 43
0.0
 10
290.556732590267
 20
496.400960929674
 10
290.596494009113
 20
496.294231324494
 10
290.706359097865
 20
495.990949227056
 10
290.872199104843
 20
495.51647471452
 10
291.079885278373
 20
494.896167864044
 10
291.315288866773
 20
494.155388752786
 10
291.564281118367
 20
493.319497457904
 10
291.812733281477
 20
492.413854056556
 10
292.046516604423
 20
491.4638186259
 10
292.251502335531
 20
490.494751243096
 10
292.413561723121
 20
489.532011985302
 10
292.518566015513
 20
488.600960929674
 10
292.555506670233
 20
487.761895012128
 10
292.533014549431
 20
486.970010838716
 10
292.456316655845
 20
486.220670404376
 10
292.330639992215
 20
485.509235704058
 10
292.161211561279
 20
484.831068732704
 10
291.953258365771
 20
484.181531485256
 10
291.712007408433
 20
483.55598595666
 10
291.442685691999
 20
482.94979414186
 10
291.150520219209
 20
482.3583180358
 10
290.840737992801
 20
481.776919633422
 10
290.518566015513
 20
481.200960929674
 10
290.189881840571
 20
480.62665692318
 10
289.860456259255
 20
480.04894047724
 10
289.536691109595
 20
479.4635996418
 10
289.224988229621
 20
478.866422466802
 10
288.931749457361
 20
478.253197002194
 10
288.663376630849
 20
477.619711297922
 10
288.426271588111
 20
476.96175340393
 10
288.226836167179
 20
476.275111370162
 10
288.071472206081
 20
475.555573246568
 10
287.966581542849
 20
474.79892708309
 10
287.918566015513
 20
474.000960929674
 10
287.934133393901
 20
473.117728256778
 10
288.013328073957
 20
472.206396443298
 10
288.149892018231
 20
471.289153441558
 10
288.337567189273
 20
470.38818720389
 10
288.570095549631
 20
469.525685682618
 10
288.841219061859
 20
468.72383683007
 10
289.144679688503
 20
468.004828598576
 10
289.474219392117
 20
467.390848940462
 10
289.823580135249
 20
466.904085808054
 10
290.186503880449
 20
466.566727153684
 10
290.556732590267
 20
466.400960929674
 10
290.976724175283
 20
466.439041627864
 10
291.387458982047
 20
466.70164438208
 10
291.778337306279
 20
467.164723127102
 10
292.138759443701
 20
467.804231797708
 10
292.458125690033
 20
468.596124328676
 10
292.725836340997
 20
469.516354654782
 10
292.931291692313
 20
470.54087671081
 10
293.063892039701
 20
471.645644431534
 10
293.113037678883
 20
472.806611751734
 10
293.068128905581
 20
473.999732606188
 10
292.918566015513
 20
475.200960929674
 10
292.748251468077
 20
476.034708877858
 10
292.533929175937
 20
476.848161531352
 10
292.288289357161
 20
477.628864428204
 10
292.024022229809
 20
478.364363106462
 10
291.753818011945
 20
479.042203104174
 10
291.490366921631
 20
479.649929959388
 10
291.246359176929
 20
480.175089210152
 10
291.034484995903
 20
480.605226394516
 10
290.867434596617
 20
480.927887050524
 10
290.757898197133
 20
481.130616716228
 10
290.718566015513
 20
481.200960929674
  0
LINE
  5
43CF
330
1A
100
AcDbEntity
  8
外形線
100
AcDbLine
 10
383.472578837094
 20
457.641297064128
 30
0.0
 11
383.472578837094
 21
505.56062479522
 31
0.0
  0
DIMENSION
  5
43D0
330
1A
100
AcDbEntity
  8
寸法線
 48
10.0
100
AcDbDimension
  2
*D9
 10
383.472578837094
 20
364.100960929674
 30
0.0
 11
221.073778397592
 21
364.100960929674
 31
0.0
 70
    32
  1
 
  3
ISO-25
100
AcDbAlignedDimension
 13
62.26120256424
 23
466.713009469274
 33
0.0
 14
383.472578837094
 24
364.100960929674
 34
0.0
100
AcDbRotatedDimension
1001
ACAD
1000
DSTYLE
1002
{
1070
     5
1000
OPEN30
1070
    41
1040
6.0
1070
    47
1040
0.1
1070
    48
1040
0.1
1070
    73
1070
     0
1070
   140
1040
8.0
1070
   271
1070
     1
1070
   272
1070
     1
1070
   341
1005
2AF4
1002
}
  0
MTEXT
  5
43D5
330
1A
100
AcDbEntity
  8
寸法線
 48
10.0
100
AcDbMText
 10
107.958070984334
 20
573.588003104724
 30
0.0
 40
8.0
 41
0.0
 71
     9
 72
     1
  1
振動部（検知部）\PDIN1.4571（SUS316相当）
  0
LINE
  5
43D9
330
1A
100
AcDbEntity
  8
外形線
100
AcDbLine
 10
383.472578837094
 20
505.56062479522
 30
0.0
 11
383.472578837094
 21
457.641297064128
 31
0.0
  0
MTEXT
  5
43DA
102
{ACAD_XDICTIONARY
360
4EE3
102
}
330
1A
100
AcDbEntity
  8
寸法線
 48
10.0
100
AcDbMText
 10
406.947906004263
 20
581.515493324651
 30
0.0
 40
8.0
 41
49.592740337165
 71
     1
 72
     5
  1
平径46
1001
ACADANNOTATIVE
1000
AnnotativeData
1002
{
1070
     1
1070
     0
1002
}
  0
LEADER
  5
43DB
330
1A
100
AcDbEntity
  8
寸法線
 48
10.0
100
AcDbLeader
  3
ISO-25
 76
     3
 10
390.210751134772
 20
508.159073312397
 30
0.0
 10
405.441707456251
 20
572.526723350516
 30
0.0
 10
416.021834039159
 20
572.526723350516
 30
0.0
213
-29.97405100128452
223
0.0
233
0.0
1001
ACAD
1000
DSTYLE
1002
{
1070
     5
1000
OPEN30
1070
   147
1040
0.625
1070
    77
1070
     0
1070
    41
1040
6.0
1070
    47
1040
0.1
1070
    48
1040
0.1
1070
    73
1070
     0
1070
   140
1040
5.0
1070
   271
1070
     1
1070
   272
1070
     1
1070
   341
1005
2AF4
1070
   342
1005
2AF4
1002
}
  0
LEADER
  5
43DC
330
1A
100
AcDbEntity
  8
寸法線
 48
10.0
100
AcDbLeader
  3
ISO-25
 76
     3
 10
463.331419717804
 20
403.589136471915
 30
0.0
 10
506.10032038659
 20
364.100960929674
 30
0.0
 10
516.481991718345
 20
364.100960929674
 30
0.0
213
-48.41718681211694
223
0.0
233
0.0
1001
ACAD
1000
DSTYLE
1002
{
1070
     5
1000
OPEN30
1070
   147
1040
0.625
1070
    77
1070
     0
1070
    41
1040
6.0
1070
    47
1040
0.1
1070
    48
1040
0.1
1070
    73
1070
     0
1070
   140
1040
5.0
1070
   271
1070
     1
1070
   272
1070
     1
1070
   341
1005
2AF4
1070
   342
1005
2AF4
1002
}
  0
LEADER
  5
43DD
330
1A
100
AcDbEntity
  8
寸法線
 48
10.0
100
AcDbLeader
  3
ISO-25
 76
     3
 10
438.005479066957
 20
436.771461622535
 30
0.0
 10
419.842524195644
 20
390.222075503726
 30
0.0
 10
408.909956414074
 20
390.222075503726
 30
0.0
213
21.29473576399118
223
2.427865300706628
233
0.0
1001
ACAD
1000
DSTYLE
1002
{
1070
     5
1000
OPEN30
1070
   147
1040
0.625
1070
    77
1070
     0
1070
    41
1040
6.0
1070
    47
1040
0.1
1070
    48
1040
0.1
1070
    73
1070
     0
1070
   140
1040
5.0
1070
   271
1070
     1
1070
   272
1070
     1
1070
   341
1005
2AF4
1070
   342
1005
2AF4
1002
}
  0
SPLINE
  5
43E0
330
1A
100
AcDbEntity
  8
寸法線
 48
10.0
100
AcDbSpline
210
0.0
220
0.0
230
1.0
 70
  1064
 71
     3
 72
    13
 73
     9
 74
     7
 42
0.000000001
 43
0.0000000001
 44
0.0000000001
 40
0.0
 40
0.0
 40
0.0
 40
0.0
 40
3.86842211421227
 40
10.12254119268954
 40
15.16331027423529
 40
18.64952359630841
 40
20.50331406220848
 40
21.8476876304271
 40
21.8476876304271
 40
21.8476876304271
 40
21.8476876304271
 10
218.4558754961178
 20
365.630926626154
 30
0.0
 10
219.6062699714759
 20
366.1623397907403
 30
0.0
 10
222.6165194015659
 20
367.5528942571465
 30
0.0
 10
223.3419051175952
 20
377.2603017547668
 30
0.0
 10
219.0510290967077
 20
370.2783888559209
 30
0.0
 10
219.2389231289276
 20
366.7340060647553
 30
0.0
 10
221.4995940718177
 20
365.345476162781
 30
0.0
 10
222.4995257935297
 20
365.8456766179114
 30
0.0
 10
222.9198550081516
 20
366.0559398387825
 30
0.0
 11
218.4558754961178
 21
365.630926626154
 31
0.0
 11
221.5381468775164
 21
367.9685093060045
 31
0.0
 11
222.2290009428337
 21
374.1843540682398
 31
0.0
 11
219.5187285066246
 21
369.9342039232458
 31
0.0
 11
219.9970124918565
 21
366.4809550534899
 31
0.0
 11
221.6444319175592
 21
365.630926626154
 31
0.0
 11
222.9198550081516
 21
366.0559398387825
 31
0.0
  0
LINE
  5
43E1
330
1A
100
AcDbEntity
  8
下書線
 48
10.0
100
AcDbLine
 10
566.221843018621
 20
572.526723350516
 30
0.0
 11
58.897269186784
 21
572.526723350516
 31
0.0
  0
MTEXT
  5
43F3
330
1A
100
AcDbEntity
  8
寸法線
 48
10.0
100
AcDbMText
 10
137.433182080016
 20
245.22783905956
 30
0.0
 40
8.0
 41
95.557777777778
 71
     1
 72
     5
  1
{\C1;NC}
  0
MTEXT
  5
43F4
330
1A
100
AcDbEntity
  8
寸法線
 48
10.0
100
AcDbMText
 10
114.815480883611
 20
245.22783905956
 30
0.0
 40
8.0
 41
95.557777777778
 71
     1
 72
     5
  1
{\C1;C}
  0
MTEXT
  5
43F5
330
1A
100
AcDbEntity
  8
寸法線
 48
10.0
100
AcDbMText
 10
86.31650650662
 20
245.22783905956
 30
0.0
 40
8.0
 41
95.557777777778
 71
     1
 72
     5
  1
{\C1;NO}
  0
MTEXT
  5
43F6
330
1A
100
AcDbEntity
  8
寸法線
 48
10.0
100
AcDbMText
 10
62.053727929123
 20
245.22783905956
 30
0.0
 40
8.0
 41
95.557777777778
 71
     1
 72
     5
  1
{\C1;L1}
  0
MTEXT
  5
43F7
330
1A
100
AcDbEntity
  8
寸法線
 48
10.0
100
AcDbMText
 10
36.160051225778
 20
245.22783905956
 30
0.0
 40
8.0
 41
95.557777777778
 71
     1
 72
     5
  1
{\C1;N}
  0
MTEXT
  5
43F8
330
1A
100
AcDbEntity
  8
寸法線
 48
10.0
100
AcDbMText
 10
8.399209975342
 20
245.22783905956
 30
0.0
 40
8.0
 41
95.557777777778
 71
     1
 72
     5
  1
{\C1;PE}
  0
MTEXT
  5
43F9
330
1A
100
AcDbEntity
  8
寸法線
 48
10.0
100
AcDbMText
 10
141.597570146868
 20
300.080136679769
 30
0.0
 40
7.0
 41
95.557777777778
 71
     1
 72
     5
  1
{\C1;9}
  0
MTEXT
  5
43FA
330
1A
100
AcDbEntity
  8
寸法線
 48
10.0
100
AcDbMText
 10
115.996767886817
 20
300.080136679769
 30
0.0
 40
7.0
 41
95.557777777778
 71
     1
 72
     5
  1
{\C1;8}
  0
MTEXT
  5
43FB
330
1A
100
AcDbEntity
  8
寸法線
 48
10.0
100
AcDbMText
 10
89.414432287996
 20
300.080136679769
 30
0.0
 40
7.0
 41
95.557777777778
 71
     1
 72
     5
  1
{\C1;7}
  0
MTEXT
  5
43FC
330
1A
100
AcDbEntity
  8
寸法線
 48
10.0
100
AcDbMText
 10
63.42962121703
 20
300.080136679769
 30
0.0
 40
7.0
 41
95.557777777778
 71
     1
 72
     5
  1
{\C1;3}
  0
MTEXT
  5
43FD
330
1A
100
AcDbEntity
  8
寸法線
 48
10.0
100
AcDbMText
 10
37.006533031156
 20
300.080136679769
 30
0.0
 40
7.0
 41
95.557777777778
 71
     1
 72
     5
  1
{\C1;2}
  0
MTEXT
  5
43FE
330
1A
100
AcDbEntity
  8
寸法線
 48
10.0
100
AcDbMText
 10
10.986812239132
 20
300.080136679769
 30
0.0
 40
7.0
 41
95.557777777778
 71
     1
 72
     5
  1
{\C1;1}
  0
MTEXT
  5
43FF
330
1A
100
AcDbEntity
  8
寸法線
 48
10.0
100
AcDbMText
 10
7.769666076935
 20
334.745009436129
 30
0.0
 40
8.0
 41
95.557777777778
 71
     1
 72
     5
  1
{\C1;RRH-3□□}
  0
LINE
  5
4400
330
1A
100
AcDbEntity
  8
寸法線
100
AcDbLine
 10
77.786445126224
 20
287.873574991106
 30
0.0
 11
77.786445126224
 21
279.453574991106
 31
0.0
  0
LINE
  5
4401
330
1A
100
AcDbEntity
  8
寸法線
100
AcDbLine
 10
77.786445126224
 20
290.273574991106
 30
0.0
 11
77.786445126224
 21
294.273574991106
 31
0.0
  0
LINE
  5
4402
330
1A
100
AcDbEntity
  8
寸法線
100
AcDbLine
 10
79.786445126224
 20
292.273574991106
 30
0.0
 11
75.786445126224
 21
292.273574991106
 31
0.0
  0
LINE
  5
4403
330
1A
100
AcDbEntity
  8
寸法線
100
AcDbLine
 10
82.186445126224
 20
287.873574991106
 30
0.0
 11
82.186445126224
 21
296.673574991106
 31
0.0
  0
LINE
  5
4404
330
1A
100
AcDbEntity
  8
寸法線
100
AcDbLine
 10
73.386445126224
 20
287.873574991106
 30
0.0
 11
73.386445126224
 21
296.673574991106
 31
0.0
  0
CIRCLE
  5
4405
330
1A
100
AcDbEntity
  8
寸法線
100
AcDbCircle
 10
77.786445126224
 20
292.273574991106
 30
0.0
 40
4.40000000000004
  0
POINT
  5
4406
330
1A
100
AcDbEntity
  8
寸法線
100
AcDbPoint
 10
77.786445126224
 20
292.273574991106
 30
0.0
  0
LINE
  5
4407
330
1A
100
AcDbEntity
  8
寸法線
100
AcDbLine
 10
73.386445126224
 20
296.673574991106
 30
0.0
 11
82.186445126224
 21
296.673574991106
 31
0.0
  0
LINE
  5
4408
330
1A
100
AcDbEntity
  8
寸法線
100
AcDbLine
 10
76.886445126224
 20
272.373574991106
 30
0.0
 11
78.966445126224
 21
272.373574991106
 31
0.0
  0
LINE
  5
4409
330
1A
100
AcDbEntity
  8
寸法線
100
AcDbLine
 10
75.666445126224
 20
274.113574991106
 30
0.0
 11
80.086445126224
 21
274.113574991106
 31
0.0
  0
LINE
  5
440A
330
1A
100
AcDbEntity
  8
寸法線
100
AcDbLine
 10
74.126445126224
 20
275.913574991106
 30
0.0
 11
81.646445126224
 21
275.913574991106
 31
0.0
  0
CIRCLE
  5
440B
330
1A
100
AcDbEntity
  8
寸法線
100
AcDbCircle
 10
77.786445126224
 20
274.453574991106
 30
0.0
 40
5.0
  0
LINE
  5
440C
330
1A
100
AcDbEntity
  8
寸法線
100
AcDbLine
 10
77.786445126224
 20
279.453574991106
 30
0.0
 11
77.786445126224
 21
275.913574991106
 31
0.0
  0
POINT
  5
440D
330
1A
100
AcDbEntity
  8
寸法線
100
AcDbPoint
 10
77.786445126224
 20
287.873574991106
 30
0.0
  0
LINE
  5
440E
330
1A
100
AcDbEntity
  8
寸法線
100
AcDbLine
 10
130.066445126224
 20
331.073574991106
 30
0.0
 11
143.186445126224
 21
331.073574991106
 31
0.0
  0
LINE
  5
440F
330
1A
100
AcDbEntity
  8
寸法線
100
AcDbLine
 10
116.866954681658
 20
316.267205548178
 30
0.0
 11
131.226511002306
 21
332.473574991106
 31
0.0
  0
LINE
  5
4410
330
1A
100
AcDbEntity
  8
寸法線
100
AcDbLine
 10
108.095792712365
 20
331.073574991106
 30
0.0
 11
90.866445126224
 21
331.073574991106
 31
0.0
  0
CIRCLE
  5
4411
330
1A
100
AcDbEntity
  8
寸法線
100
AcDbCircle
 10
117.026445126224
 20
314.273574991106
 30
0.0
 40
2.0
  0
LINE
  5
4412
330
1A
100
AcDbEntity
  8
寸法線
100
AcDbLine
 10
90.866445126224
 20
302.873574991106
 30
0.0
 11
90.866445126224
 21
331.073574991106
 31
0.0
  0
LINE
  5
4413
330
1A
100
AcDbEntity
  8
寸法線
100
AcDbLine
 10
117.026445126224
 20
302.873574991106
 30
0.0
 11
117.026445126224
 21
312.273574991106
 31
0.0
  0
LINE
  5
4414
330
1A
100
AcDbEntity
  8
寸法線
100
AcDbLine
 10
143.186445126224
 20
302.673574991106
 30
0.0
 11
143.186445126224
 21
331.073574991106
 31
0.0
  0
LINE
  5
4415
330
1A
100
AcDbEntity
  8
寸法線
100
AcDbLine
 10
3.186445126224
 20
285.873574991106
 30
0.0
 11
152.386445126224
 21
285.873574991106
 31
0.0
  0
LINE
  5
4416
330
1A
100
AcDbEntity
  8
寸法線
100
AcDbLine
 10
152.386445126224
 20
285.873574991106
 30
0.0
 11
152.386445126224
 21
339.873574991106
 31
0.0
  0
LINE
  5
4417
330
1A
100
AcDbEntity
  8
寸法線
100
AcDbLine
 10
3.186445126224
 20
339.873574991106
 30
0.0
 11
152.386445126224
 21
339.873574991106
 31
0.0
  0
LINE
  5
4418
330
1A
100
AcDbEntity
  8
寸法線
100
AcDbLine
 10
3.186445126224
 20
285.873574991106
 30
0.0
 11
3.186445126224
 21
339.873574991106
 31
0.0
  0
CIRCLE
  5
4419
330
1A
100
AcDbEntity
  8
寸法線
100
AcDbCircle
 10
143.386445126224
 20
296.873574991106
 30
0.0
 40
5.0
  0
CIRCLE
  5
441A
330
1A
100
AcDbEntity
  8
寸法線
100
AcDbCircle
 10
117.186445126224
 20
296.873574991106
 30
0.0
 40
5.0
  0
CIRCLE
  5
441B
330
1A
100
AcDbEntity
  8
寸法線
100
AcDbCircle
 10
90.986445126224
 20
296.873574991106
 30
0.0
 40
5.0
  0
CIRCLE
  5
441C
330
1A
100
AcDbEntity
  8
寸法線
100
AcDbCircle
 10
64.786445126224
 20
296.873574991106
 30
0.0
 40
5.0
  0
CIRCLE
  5
441D
330
1A
100
AcDbEntity
  8
寸法線
100
AcDbCircle
 10
38.586445126224
 20
296.873574991106
 30
0.0
 40
5.0
  0
CIRCLE
  5
441E
330
1A
100
AcDbEntity
  8
寸法線
100
AcDbCircle
 10
12.186445126224
 20
296.873574991106
 30
0.0
 40
5.0
  0
LINE
  5
441F
330
1A
100
AcDbEntity
  8
寸法線
100
AcDbLine
 10
150.386445126224
 20
287.873574991106
 30
0.0
 11
145.186445126224
 21
287.873574991106
 31
0.0
  0
LINE
  5
4420
330
1A
100
AcDbEntity
  8
寸法線
100
AcDbLine
 10
119.026445126224
 20
287.873574991106
 30
0.0
 11
141.186445126224
 21
287.873574991106
 31
0.0
  0
LINE
  5
4421
330
1A
100
AcDbEntity
  8
寸法線
100
AcDbLine
 10
92.866445126224
 20
287.873574991106
 30
0.0
 11
115.026445126224
 21
287.873574991106
 31
0.0
  0
LINE
  5
4422
330
1A
100
AcDbEntity
  8
寸法線
100
AcDbLine
 10
66.706445126224
 20
287.873574991106
 30
0.0
 11
88.866445126224
 21
287.873574991106
 31
0.0
  0
LINE
  5
4423
330
1A
100
AcDbEntity
  8
寸法線
100
AcDbLine
 10
40.546445126224
 20
287.873574991106
 30
0.0
 11
62.706445126224
 21
287.873574991106
 31
0.0
  0
LINE
  5
4424
330
1A
100
AcDbEntity
  8
寸法線
100
AcDbLine
 10
14.386445126224
 20
287.873574991106
 30
0.0
 11
36.546445126224
 21
287.873574991106
 31
0.0
  0
LINE
  5
4425
330
1A
100
AcDbEntity
  8
寸法線
100
AcDbLine
 10
10.386445126224
 20
287.873574991106
 30
0.0
 11
5.186445126224
 21
287.873574991106
 31
0.0
  0
LINE
  5
4426
330
1A
100
AcDbEntity
  8
寸法線
100
AcDbLine
 10
117.026445126224
 20
285.873574991106
 30
0.0
 11
117.026445126224
 21
247.873574991106
 31
0.0
  0
LINE
  5
4427
330
1A
100
AcDbEntity
  8
寸法線
100
AcDbLine
 10
90.866445126224
 20
285.873574991106
 30
0.0
 11
90.866445126224
 21
247.873574991106
 31
0.0
  0
LINE
  5
4428
330
1A
100
AcDbEntity
  8
寸法線
100
AcDbLine
 10
64.706445126224
 20
285.873574991106
 30
0.0
 11
64.706445126224
 21
247.873574991106
 31
0.0
  0
LINE
  5
4429
330
1A
100
AcDbEntity
  8
寸法線
100
AcDbLine
 10
38.546445126224
 20
285.873574991106
 30
0.0
 11
38.546445126224
 21
247.873574991106
 31
0.0
  0
CIRCLE
  5
442A
330
1A
100
AcDbEntity
  8
寸法線
100
AcDbCircle
 10
143.186445126224
 20
287.873574991106
 30
0.0
 40
2.0
  0
CIRCLE
  5
442B
330
1A
100
AcDbEntity
  8
寸法線
100
AcDbCircle
 10
117.026445126224
 20
287.873574991106
 30
0.0
 40
2.0
  0
CIRCLE
  5
442C
330
1A
100
AcDbEntity
  8
寸法線
100
AcDbCircle
 10
90.866445126224
 20
287.873574991106
 30
0.0
 40
2.0
  0
CIRCLE
  5
442D
330
1A
100
AcDbEntity
  8
寸法線
100
AcDbCircle
 10
64.706445126224
 20
287.873574991106
 30
0.0
 40
2.0
  0
CIRCLE
  5
442E
330
1A
100
AcDbEntity
  8
寸法線
100
AcDbCircle
 10
38.546445126224
 20
287.873574991106
 30
0.0
 40
2.0
  0
CIRCLE
  5
442F
330
1A
100
AcDbEntity
  8
寸法線
100
AcDbCircle
 10
12.386445126224
 20
287.873574991106
 30
0.0
 40
2.0
  0
LINE
  5
4430
330
1A
100
AcDbEntity
  8
寸法線
100
AcDbLine
 10
143.186445126224
 20
285.873574991106
 30
0.0
 11
143.186445126224
 21
247.873574991106
 31
0.0
  0
LINE
  5
4431
330
1A
100
AcDbEntity
  8
寸法線
100
AcDbLine
 10
12.386445126224
 20
285.873574991106
 30
0.0
 11
12.386445126224
 21
247.873574991106
 31
0.0
  0
LINE
  5
4432
330
1A
100
AcDbEntity
  8
寸法線
100
AcDbLine
 10
5.186445126224
 20
337.873574991106
 30
0.0
 11
5.186445126224
 21
287.873574991106
 31
0.0
  0
LINE
  5
4433
330
1A
100
AcDbEntity
  8
寸法線
100
AcDbLine
 10
150.386445126224
 20
337.873574991106
 30
0.0
 11
5.186445126224
 21
337.873574991106
 31
0.0
  0
LINE
  5
4434
330
1A
100
AcDbEntity
  8
寸法線
100
AcDbLine
 10
150.386445126224
 20
337.873574991106
 30
0.0
 11
150.386445126224
 21
287.873574991106
 31
0.0
  0
LINE
  5
45A5
330
1A
100
AcDbEntity
  8
中心線
 48
10.0
100
AcDbLine
 10
358.066453003909
 20
429.514851441054
 30
0.0
 11
392.878704670279
 21
429.514851441054
 31
0.0
  0
MTEXT
  5
4694
330
1A
100
AcDbEntity
  8
寸法線
 48
10.0
100
AcDbMText
 10
184.050700508092
 20
292.930185918526
 30
0.0
 40
7.0
 41
125.633939393939
 71
     1
 72
     5
  1
{\C1;：グランド\P：電源\P：電源\P：コモン\P：オープン（クローズ）\P：クローズ（オープン）}
  0
MTEXT
  5
4695
330
1A
100
AcDbEntity
  8
寸法線
 48
10.0
100
AcDbMText
 10
172.160507708357
 20
292.930185918526
 30
0.0
 40
7.0
 41
125.633939393939
 71
     1
 72
     5
  1
{\C1;PE\PN\PL1\PC\PNO\PNC}
  0
MTEXT
  5
4696
102
{ACAD_XDICTIONARY
360
4697
102
}
330
1A
100
AcDbEntity
  8
寸法線
 48
10.0
100
AcDbMText
 10
169.84471765959
 20
325.434049571268
 30
0.0
 40
8.0
 41
124.815667100994
 71
     1
 72
     5
  1
電源電圧：AC20～255V　　　　　　：DC20～60V
1001
ACADANNOTATIVE
1000
AnnotativeData
1002
{
1070
     1
1070
     0
1002
}
  0
MTEXT
  5
469A
330
1A
100
AcDbEntity
  8
寸法線
 48
10.0
100
AcDbMText
 10
133.26682051664
 20
233.316357898182
 30
0.0
 40
8.0
 41
95.557777777778
 71
     1
 72
     5
  1
{\C1;（NO）}
  0
MTEXT
  5
469B
330
1A
100
AcDbEntity
  8
寸法線
 48
10.0
100
AcDbMText
 10
82.217241291806
 20
233.316357898182
 30
0.0
 40
8.0
 41
95.557777777778
 71
     1
 72
     5
  1
{\C1;（NC）}
  0
LINE
  5
4725
330
1A
100
AcDbEntity
  8
寸法線
 48
10.0
100
AcDbLine
 10
699.651312276783
 20
464.556365686648
 30
0.0
 11
699.651312276783
 21
342.453434328771
 31
0.0
  0
LINE
  5
4726
330
1A
100
AcDbEntity
  8
寸法線
 48
10.0
100
AcDbLine
 10
569.419450610193
 20
434.921371188785
 30
0.0
 11
666.779981179613
 21
434.921371188785
 31
0.0
  0
MTEXT
  5
4727
102
{ACAD_XDICTIONARY
360
4728
102
}
330
1A
100
AcDbEntity
  8
寸法線
 48
10.0
100
AcDbMText
 10
633.676995442454
 20
445.741675963216
 30
0.0
 40
8.0
 41
66.205971474318
 71
     2
 72
     5
  1
RRH-303-0
1001
ACADANNOTATIVE
1000
AnnotativeData
1002
{
1070
     1
1070
     0
1002
}
1001
ACAD
1000
MTEXTBEGIN
1070
    44
1040
1.1475
1000
MTEXTEND
  0
MTEXT
  5
472B
330
1A
100
AcDbEntity
  8
寸法線
 48
10.0
100
AcDbMText
 10
625.614898018627
 20
461.674540659154
 30
0.0
 40
8.0
 41
19.77375149039
 71
     1
 72
     5
  1
型式
  0
LINE
  5
472C
330
1A
100
AcDbEntity
  8
寸法線
 48
10.0
100
AcDbLine
 10
569.419450610193
 20
450.355339618792
 30
0.0
 11
666.779981179613
 21
450.355339618792
 31
0.0
  0
LINE
  5
472D
330
1A
100
AcDbEntity
  8
寸法線
 48
10.0
100
AcDbLine
 10
569.419450610193
 20
464.556365686648
 30
0.0
 11
666.779981179613
 21
464.556365686648
 31
0.0
  0
LINE
  5
472E
330
1A
100
AcDbEntity
  8
寸法線
 48
10.0
100
AcDbLine
 10
600.574009705295
 20
464.556365686648
 30
0.0
 11
600.574009705295
 21
342.453434328771
 31
0.0
  0
LINE
  5
472F
330
1A
100
AcDbEntity
  8
寸法線
 48
10.0
100
AcDbLine
 10
666.779981179613
 20
464.556365686648
 30
0.0
 11
666.779981179613
 21
342.453434328771
 31
0.0
  0
LINE
  5
4730
330
1A
100
AcDbEntity
  8
寸法線
 48
10.0
100
AcDbLine
 10
666.779981179613
 20
464.556365686648
 30
0.0
 11
666.779981179613
 21
342.453434328771
 31
0.0
  0
LINE
  5
4731
330
1A
100
AcDbEntity
  8
寸法線
 48
10.0
100
AcDbLine
 10
569.419450610193
 20
464.556365686648
 30
0.0
 11
569.419450610193
 21
342.453434328771
 31
0.0
  0
MTEXT
  5
4732
330
1A
100
AcDbEntity
  8
寸法線
 48
10.0
100
AcDbMText
 10
639.038118634004
 20
215.2525501448
 30
0.0
 40
8.0
 41
165.013333333333
 71
     1
 72
     5
  1
○印が今回の貴社の御仕様です。
  0
SPLINE
  5
4733
330
1A
100
AcDbEntity
  8
寸法線
 48
10.0
100
AcDbSpline
210
0.0
220
0.0
230
1.0
 70
  1064
 71
     3
 72
    13
 73
     9
 74
     7
 42
0.000000001
 43
0.0000000001
 44
0.0000000001
 40
0.0
 40
0.0
 40
0.0
 40
0.0
 40
3.86842211421227
 40
10.12254119268954
 40
15.16331027423529
 40
18.64952359630841
 40
20.50331406220848
 40
21.8476876304271
 40
21.8476876304271
 40
21.8476876304271
 40
21.8476876304271
 10
680.9857670334134
 20
453.0101615803803
 30
0.0
 10
682.1361615087715
 20
453.5415747449667
 30
0.0
 10
685.1464109388614
 20
454.9321292113728
 30
0.0
 10
685.8717966548909
 20
464.6395367089932
 30
0.0
 10
681.5809206340033
 20
457.6576238101472
 30
0.0
 10
681.7688146662233
 20
454.1132410189817
 30
0.0
 10
684.0294856091132
 20
452.7247111170075
 30
0.0
 10
685.0294173308255
 20
453.2249115721378
 30
0.0
 10
685.4497465454472
 20
453.4351747930089
 30
0.0
 11
680.9857670334134
 21
453.0101615803803
 31
0.0
 11
684.068038414812
 21
455.3477442602309
 31
0.0
 11
684.7588924801294
 21
461.5635890224662
 31
0.0
 11
682.0486200439202
 21
457.3134388774722
 31
0.0
 11
682.5269040291521
 21
453.8601900077163
 31
0.0
 11
684.1743234548549
 21
453.0101615803803
 31
0.0
 11
685.4497465454472
 21
453.4351747930089
 31
0.0
  0
LINE
  5
4734
330
1A
100
AcDbEntity
  8
寸法線
 48
10.0
100
AcDbLine
 10
569.419450610193
 20
419.487402758778
 30
0.0
 11
600.574009705295
 21
419.487402758778
 31
0.0
  0
MTEXT
  5
4735
102
{ACAD_XDICTIONARY
360
4736
102
}
330
1A
100
AcDbEntity
  8
寸法線
 48
10.0
100
AcDbMText
 10
675.292440157873
 20
446.272008373354
 30
0.0
 40
8.0
 41
25.186395132728
 71
     1
 72
     5
  1
300\P350\P400\P450\P500\P550\P600
1001
ACADANNOTATIVE
1000
AnnotativeData
1002
{
1070
     1
1070
     0
1002
}
1001
ACAD
1000
MTEXTBEGIN
1070
    44
1040
1.1475
1000
MTEXTEND
  0
LINE
  5
4739
330
1A
100
AcDbEntity
  8
寸法線
 48
10.0
100
AcDbLine
 10
569.419450610193
 20
404.053434328771
 30
0.0
 11
666.779981179613
 21
404.053434328771
 31
0.0
  0
LINE
  5
473A
330
1A
100
AcDbEntity
  8
寸法線
 48
10.0
100
AcDbLine
 10
666.779981179613
 20
434.921371188785
 30
0.0
 11
779.651312276783
 21
434.921371188785
 31
0.0
  0
LINE
  5
473B
330
1A
100
AcDbEntity
  8
寸法線
 48
10.0
100
AcDbLine
 10
666.779981179613
 20
419.487402758778
 30
0.0
 11
779.651312276783
 21
419.487402758778
 31
0.0
  0
LINE
  5
473C
330
1A
100
AcDbEntity
  8
寸法線
 48
10.0
100
AcDbLine
 10
666.779981179613
 20
450.355339618792
 30
0.0
 11
779.651312276783
 21
450.355339618792
 31
0.0
  0
LINE
  5
473D
330
1A
100
AcDbEntity
  8
寸法線
 48
10.0
100
AcDbLine
 10
666.779981179613
 20
464.556365686648
 30
0.0
 11
779.651312276783
 21
464.556365686648
 31
0.0
  0
LINE
  5
473E
330
1A
100
AcDbEntity
  8
寸法線
 48
10.0
100
AcDbLine
 10
666.779981179613
 20
404.053434328771
 30
0.0
 11
779.651312276783
 21
404.053434328771
 31
0.0
  0
MTEXT
  5
473F
102
{ACAD_XDICTIONARY
360
4740
102
}
330
1A
100
AcDbEntity
  8
寸法線
 48
10.0
100
AcDbMText
 10
570.886375475852
 20
461.082635968344
 30
0.0
 40
8.0
 41
32.516763780405
 71
     1
 72
     5
  1
御仕様
1001
ACADANNOTATIVE
1000
AnnotativeData
1002
{
1070
     1
1070
     0
1002
}
  0
LINE
  5
4743
330
1A
100
AcDbEntity
  8
寸法線
 48
10.0
100
AcDbLine
 10
569.419450610193
 20
388.653434328771
 30
0.0
 11
600.574009705295
 21
388.653434328771
 31
0.0
  0
LINE
  5
4744
330
1A
100
AcDbEntity
  8
寸法線
 48
10.0
100
AcDbLine
 10
569.419450610193
 20
373.253434328771
 30
0.0
 11
779.651312276783
 21
373.253434328771
 31
0.0
  0
LINE
  5
4745
330
1A
100
AcDbEntity
  8
寸法線
 48
10.0
100
AcDbLine
 10
569.419450610193
 20
357.853434328771
 30
0.0
 11
600.574009705295
 21
357.853434328771
 31
0.0
  0
LINE
  5
4746
330
1A
100
AcDbEntity
  8
寸法線
 48
10.0
100
AcDbLine
 10
569.419450610193
 20
342.453434328771
 30
0.0
 11
779.651312276783
 21
342.453434328771
 31
0.0
  0
MTEXT
  5
4747
102
{ACAD_XDICTIONARY
360
4748
102
}
330
1A
100
AcDbEntity
  8
寸法線
 48
10.0
100
AcDbMText
 10
755.866647832362
 20
461.329824601406
 30
0.0
 40
8.0
 41
19.77375149039
 71
     1
 72
     5
  1
台数
1001
ACADANNOTATIVE
1000
AnnotativeData
1002
{
1070
     1
1070
     0
1002
}
  0
LINE
  5
474B
330
1A
100
AcDbEntity
  8
寸法線
 48
10.0
100
AcDbLine
 10
569.419450610193
 20
342.453434328771
 30
0.0
 11
569.419450610193
 21
340.979704610468
 31
0.0
  0
LINE
  5
474C
330
1A
100
AcDbEntity
  8
寸法線
 48
10.0
100
AcDbLine
 10
699.651312276783
 20
342.453434328771
 30
0.0
 11
699.651312276783
 21
219.15152903875
 31
0.0
  0
LINE
  5
474D
330
1A
100
AcDbEntity
  8
寸法線
 48
10.0
100
AcDbLine
 10
569.419450610193
 20
327.019465898764
 30
0.0
 11
600.574009705295
 21
327.019465898764
 31
0.0
  0
LINE
  5
4752
330
1A
100
AcDbEntity
  8
寸法線
 48
10.0
100
AcDbLine
 10
569.419450610193
 20
342.453434328771
 30
0.0
 11
666.779981179613
 21
342.453434328771
 31
0.0
  0
LINE
  5
4753
330
1A
100
AcDbEntity
  8
寸法線
 48
10.0
100
AcDbLine
 10
569.419450610193
 20
342.453434328771
 30
0.0
 11
666.779981179613
 21
342.453434328771
 31
0.0
  0
LINE
  5
4754
330
1A
100
AcDbEntity
  8
寸法線
 48
10.0
100
AcDbLine
 10
600.574009705295
 20
342.453434328771
 30
0.0
 11
600.574009705295
 21
219.15152903875
 31
0.0
  0
LINE
  5
4755
330
1A
100
AcDbEntity
  8
寸法線
 48
10.0
100
AcDbLine
 10
666.779981179613
 20
342.453434328771
 30
0.0
 11
666.779981179613
 21
219.15152903875
 31
0.0
  0
LINE
  5
4756
330
1A
100
AcDbEntity
  8
寸法線
 48
10.0
100
AcDbLine
 10
666.779981179613
 20
342.453434328771
 30
0.0
 11
666.779981179613
 21
219.15152903875
 31
0.0
  0
LINE
  5
4757
330
1A
100
AcDbEntity
  8
寸法線
 48
10.0
100
AcDbLine
 10
569.419450610193
 20
342.453434328771
 30
0.0
 11
569.419450610193
 21
340.979704610468
 31
0.0
  0
LINE
  5
4759
330
1A
100
AcDbEntity
  8
寸法線
 48
10.0
100
AcDbLine
 10
569.419450610193
 20
311.585497468757
 30
0.0
 11
666.779981179613
 21
311.585497468758
 31
0.0
  0
MTEXT
  5
475A
102
{ACAD_XDICTIONARY
360
475B
102
}
330
1A
100
AcDbEntity
  8
寸法線
 48
10.0
100
AcDbMText
 10
675.292440157874
 20
338.370103083333
 30
0.0
 40
8.0
 41
25.186395132728
 71
     1
 72
     5
  1
650\P700\P750\P800\P850\P900\P950\P1000\P
1001
ACADANNOTATIVE
1000
AnnotativeData
1002
{
1070
     1
1070
     0
1002
}
1001
ACAD
1000
MTEXTBEGIN
1070
    44
1040
1.1475
1000
MTEXTEND
  0
LINE
  5
475E
330
1A
100
AcDbEntity
  8
寸法線
 48
10.0
100
AcDbLine
 10
569.419450610193
 20
296.15152903875
 30
0.0
 11
600.574009705295
 21
296.15152903875
 31
0.0
  0
LINE
  5
475F
330
1A
100
AcDbEntity
  8
寸法線
 48
10.0
100
AcDbLine
 10
666.779981179613
 20
327.019465898764
 30
0.0
 11
779.651312276783
 21
327.019465898764
 31
0.0
  0
LINE
  5
4760
330
1A
100
AcDbEntity
  8
寸法線
 48
10.0
100
AcDbLine
 10
666.779981179613
 20
311.585497468757
 30
0.0
 11
779.651312276783
 21
311.585497468757
 31
0.0
  0
LINE
  5
4761
330
1A
100
AcDbEntity
  8
寸法線
 48
10.0
100
AcDbLine
 10
666.779981179613
 20
342.453434328771
 30
0.0
 11
779.651312276783
 21
342.453434328771
 31
0.0
  0
LINE
  5
4762
330
1A
100
AcDbEntity
  8
寸法線
 48
10.0
100
AcDbLine
 10
666.779981179613
 20
342.453434328771
 30
0.0
 11
779.651312276783
 21
342.453434328771
 31
0.0
  0
LINE
  5
4763
330
1A
100
AcDbEntity
  8
寸法線
 48
10.0
100
AcDbLine
 10
666.779981179613
 20
296.15152903875
 30
0.0
 11
779.651312276783
 21
296.15152903875
 31
0.0
  0
LINE
  5
4768
330
1A
100
AcDbEntity
  8
寸法線
 48
10.0
100
AcDbLine
 10
569.419450610193
 20
280.751529038751
 30
0.0
 11
779.651312276783
 21
280.751529038751
 31
0.0
  0
LINE
  5
4769
330
1A
100
AcDbEntity
  8
寸法線
 48
10.0
100
AcDbLine
 10
569.419450610193
 20
265.351529038751
 30
0.0
 11
600.574009705295
 21
265.351529038751
 31
0.0
  0
LINE
  5
476A
330
1A
100
AcDbEntity
  8
寸法線
 48
10.0
100
AcDbLine
 10
569.419450610193
 20
249.951529038751
 30
0.0
 11
779.651312276783
 21
249.95152903875
 31
0.0
  0
LINE
  5
476B
330
1A
100
AcDbEntity
  8
寸法線
 48
10.0
100
AcDbLine
 10
749.651312276783
 20
464.556365686648
 30
0.0
 11
749.651312276783
 21
342.453434328771
 31
0.0
  0
LINE
  5
476C
330
1A
100
AcDbEntity
  8
寸法線
 48
10.0
100
AcDbLine
 10
779.651312276783
 20
464.556365686648
 30
0.0
 11
779.651312276783
 21
342.453434328771
 31
0.0
  0
LINE
  5
476D
330
1A
100
AcDbEntity
  8
寸法線
 48
10.0
100
AcDbLine
 10
749.651312276783
 20
342.453434328771
 30
0.0
 11
749.651312276783
 21
219.15152903875
 31
0.0
  0
LINE
  5
476E
330
1A
100
AcDbEntity
  8
寸法線
 48
10.0
100
AcDbLine
 10
779.651312276783
 20
342.453434328771
 30
0.0
 11
779.651312276783
 21
219.15152903875
 31
0.0
  0
MTEXT
  5
4773
102
{ACAD_XDICTIONARY
360
4774
102
}
330
1A
100
AcDbEntity
  8
寸法線
 48
10.0
100
AcDbMText
 10
716.729100935707
 20
461.487987422239
 30
0.0
 40
8.0
 41
19.77375149039
 71
     1
 72
     5
  1
記事
1001
ACADANNOTATIVE
1000
AnnotativeData
1002
{
1070
     1
1070
     0
1002
}
  0
LINE
  5
477F
330
1A
100
AcDbEntity
  8
寸法線
 48
10.0
100
AcDbLine
 10
569.419450610193
 20
234.551529038751
 30
0.0
 11
600.574009705295
 21
234.551529038751
 31
0.0
  0
LINE
  5
4780
330
1A
100
AcDbEntity
  8
寸法線
 48
10.0
100
AcDbLine
 10
569.419450610193
 20
219.15152903875
 30
0.0
 11
779.651312276783
 21
219.15152903875
 31
0.0
  0
LINE
  5
4781
330
1A
100
AcDbEntity
  8
寸法線
 48
10.0
100
AcDbLine
 10
569.419450610193
 20
343.180730678323
 30
0.0
 11
569.419450610193
 21
219.15152903875
 31
0.0
  0
LINE
  5
4782
330
1A
100
AcDbEntity
  8
寸法線
 48
10.0
100
AcDbLine
 10
569.419450610193
 20
343.180730678323
 30
0.0
 11
569.419450610193
 21
219.15152903875
 31
0.0
  0
LINE
  5
48EF
330
1A
100
AcDbEntity
  8
寸法線
 48
10.0
100
AcDbLine
 10
666.779981179613
 20
388.653434328771
 30
0.0
 11
779.651312276783
 21
388.653434328771
 31
0.0
  0
LINE
  5
48F1
330
1A
100
AcDbEntity
  8
寸法線
 48
10.0
100
AcDbLine
 10
666.779981179613
 20
357.853434328771
 30
0.0
 11
779.651312276783
 21
357.853434328771
 31
0.0
  0
LINE
  5
48F3
330
1A
100
AcDbEntity
  8
寸法線
 48
10.0
100
AcDbLine
 10
666.779981179613
 20
265.35152903875
 30
0.0
 11
779.651312276783
 21
265.35152903875
 31
0.0
  0
LINE
  5
48F4
330
1A
100
AcDbEntity
  8
寸法線
 48
10.0
100
AcDbLine
 10
666.779981179613
 20
234.551529038751
 30
0.0
 11
779.651312276783
 21
234.55152903875
 31
0.0
  0
MTEXT
  5
4926
102
{ACAD_XDICTIONARY
360
4927
102
}
330
1A
100
AcDbEntity
  8
寸法線
 48
10.0
100
AcDbMText
 10
633.849710235471
 20
419.487402758778
 30
0.0
 40
8.0
 41
66.205971474318
 71
     5
 72
     5
  1
RRH-304-0
1001
ACADANNOTATIVE
1000
AnnotativeData
1002
{
1070
     1
1070
     0
1002
}
1001
ACAD
1000
MTEXTBEGIN
1070
    44
1040
1.1475
1000
MTEXTEND
  0
MTEXT
  5
495B
102
{ACAD_XDICTIONARY
360
495C
102
}
330
1A
100
AcDbEntity
  8
寸法線
 48
10.0
100
AcDbMText
 10
633.849710235471
 20
388.619465898764
 30
0.0
 40
8.0
 41
66.205971474318
 71
     5
 72
     5
  1
RRH-305-0
1001
ACADANNOTATIVE
1000
AnnotativeData
1002
{
1070
     1
1070
     0
1002
}
1001
ACAD
1000
MTEXTBEGIN
1070
    44
1040
1.1475
1000
MTEXTEND
  0
MTEXT
  5
4990
102
{ACAD_XDICTIONARY
360
4991
102
}
330
1A
100
AcDbEntity
  8
寸法線
 48
10.0
100
AcDbMText
 10
633.849710235471
 20
357.819465898764
 30
0.0
 40
8.0
 41
66.205971474318
 71
     5
 72
     5
  1
RRH-306-0
1001
ACADANNOTATIVE
1000
AnnotativeData
1002
{
1070
     1
1070
     0
1002
}
1001
ACAD
1000
MTEXTBEGIN
1070
    44
1040
1.1475
1000
MTEXTEND
  0
MTEXT
  5
49C5
102
{ACAD_XDICTIONARY
360
49C6
102
}
330
1A
100
AcDbEntity
  8
寸法線
 48
10.0
100
AcDbMText
 10
633.849710235471
 20
327.019465898764
 30
0.0
 40
8.0
 41
66.205971474318
 71
     5
 72
     5
  1
RRH-307-0
1001
ACADANNOTATIVE
1000
AnnotativeData
1002
{
1070
     1
1070
     0
1002
}
1001
ACAD
1000
MTEXTBEGIN
1070
    44
1040
1.1475
1000
MTEXTEND
  0
MTEXT
  5
49FA
102
{ACAD_XDICTIONARY
360
49FB
102
}
330
1A
100
AcDbEntity
  8
寸法線
 48
10.0
100
AcDbMText
 10
633.849710235471
 20
296.15152903875
 30
0.0
 40
8.0
 41
66.205971474318
 71
     5
 72
     5
  1
RRH-308-0
1001
ACADANNOTATIVE
1000
AnnotativeData
1002
{
1070
     1
1070
     0
1002
}
1001
ACAD
1000
MTEXTBEGIN
1070
    44
1040
1.1475
1000
MTEXTEND
  0
MTEXT
  5
4A2F
102
{ACAD_XDICTIONARY
360
4A30
102
}
330
1A
100
AcDbEntity
  8
寸法線
 48
10.0
100
AcDbMText
 10
633.849710235472
 20
265.368513253754
 30
0.0
 40
8.0
 41
66.205971474318
 71
     5
 72
     5
  1
RRH-309-0
1001
ACADANNOTATIVE
1000
AnnotativeData
1002
{
1070
     1
1070
     0
1002
}
1001
ACAD
1000
MTEXTBEGIN
1070
    44
1040
1.1475
1000
MTEXTEND
  0
MTEXT
  5
4A64
102
{ACAD_XDICTIONARY
360
4A65
102
}
330
1A
100
AcDbEntity
  8
寸法線
 48
10.0
100
AcDbMText
 10
633.849710235471
 20
234.517560608744
 30
0.0
 40
8.0
 41
66.205971474318
 71
     5
 72
     5
  1
RRH-310-0
1001
ACADANNOTATIVE
1000
AnnotativeData
1002
{
1070
     1
1070
     0
1002
}
1001
ACAD
1000
MTEXTBEGIN
1070
    44
1040
1.1475
1000
MTEXTEND
  0
LINE
  5
4CC5
330
1A
100
AcDbEntity
  8
外形線
100
AcDbLine
 10
383.472578837094
 20
505.56062479522
 30
0.0
 11
383.472578837094
 21
457.641297064128
 31
0.0
  0
LINE
  5
4E99
330
1A
100
AcDbEntity
  8
外形線
100
AcDbLine
 10
386.467536820288
 20
508.159073312397
 30
0.0
 11
383.472578837094
 21
502.668317009875
 31
0.0
  0
LINE
  5
4E9A
330
1A
100
AcDbEntity
  8
外形線
100
AcDbLine
 10
385.546775651126
 20
494.880017121035
 30
0.0
 11
395.781905316072
 21
494.880017121035
 31
0.0
  0
ARC
  5
4E9B
330
1A
100
AcDbEntity
  8
外形線
100
AcDbCircle
 10
440.758853039014
 20
481.600960929674
 30
0.0
 40
56.78650211819261
100
AcDbArc
 50
166.476641055109
 51
193.523358944891
  0
LINE
  5
4E9C
330
1A
100
AcDbEntity
  8
外形線
100
AcDbLine
 10
386.467536820288
 20
455.042848546951
 30
0.0
 11
383.472578837094
 21
460.533604849473
 31
0.0
  0
ARC
  5
4E9D
330
1A
100
AcDbEntity
  8
外形線
100
AcDbCircle
 10
394.631006968904
 20
462.479791306179
 30
0.0
 40
10.80062720349224
100
AcDbArc
 50
147.25473150955
 51
201.956277655799
  0
ARC
  5
4E9E
330
1A
100
AcDbEntity
  8
外形線
100
AcDbCircle
 10
340.569827928184
 20
481.600960929674
 30
0.0
 40
56.78650211819261
100
AcDbArc
 50
346.476641055109
 51
13.523358944891
  0
LINE
  5
4E9F
330
1A
100
AcDbEntity
  8
外形線
100
AcDbLine
 10
385.546775651126
 20
468.321904738312
 30
0.0
 11
395.781905316072
 21
468.321904738312
 31
0.0
  0
LINE
  5
4EA0
330
1A
100
AcDbEntity
  8
外形線
100
AcDbLine
 10
394.86114414691
 20
508.159073312397
 30
0.0
 11
386.467536820286
 21
508.159073312397
 31
0.0
  0
LINE
  5
4EA1
330
1A
100
AcDbEntity
  8
外形線
100
AcDbLine
 10
397.856102130104
 20
502.668317009875
 30
0.0
 11
394.86114414691
 21
508.159073312397
 31
0.0
  0
LINE
  5
4EA2
330
1A
100
AcDbEntity
  8
外形線
100
AcDbLine
 10
394.86114414691
 20
455.042848546951
 30
0.0
 11
397.856102130104
 21
460.533604849473
 31
0.0
  0
LINE
  5
4EA3
330
1A
100
AcDbEntity
  8
外形線
100
AcDbLine
 10
394.86114414691
 20
455.042848546951
 30
0.0
 11
386.467536820288
 21
455.042848546951
 31
0.0
  0
ARC
  5
4EA4
330
1A
100
AcDbEntity
  8
外形線
100
AcDbCircle
 10
394.631006968904
 20
500.722130553169
 30
0.0
 40
10.80062720349224
100
AcDbArc
 50
158.043722344201
 51
212.74526849045
  0
ARC
  5
4EA5
330
1A
100
AcDbEntity
  8
外形線
100
AcDbCircle
 10
386.697673998294
 20
500.722130553169
 30
0.0
 40
10.80062720349224
100
AcDbArc
 50
327.25473150955
 51
21.956277655792
  0
ARC
  5
4EA6
330
1A
100
AcDbEntity
  8
外形線
100
AcDbCircle
 10
386.697673998294
 20
462.479791306179
 30
0.0
 40
10.80062720349224
100
AcDbArc
 50
338.04372234421
 51
32.74526849045
  0
LINE
  5
4EE2
330
1A
100
AcDbEntity
  8
外形線
 48
10.0
100
AcDbLine
 10
383.472578837094
 20
502.668317009875
 30
0.0
 11
383.472578837094
 21
460.533604849473
 31
0.0
  0
LINE
  5
50AA
330
1A
100
AcDbEntity
  8
細線
100
AcDbLine
 10
364.495710849323
 20
459.254205632863
 30
0.0
 11
368.472578837094
 21
459.254205632863
 31
0.0
  0
LINE
  5
50AB
330
1A
100
AcDbEntity
  8
細線
100
AcDbLine
 10
364.495710849323
 20
504.063145803624
 30
0.0
 11
368.472578837094
 21
504.063145803624
 31
0.0
  0
LINE
  5
50AD
330
1A
100
AcDbEntity
  8
外形線
100
AcDbLine
 10
383.472578837094
 20
505.56062479522
 30
0.0
 11
382.472578837094
 21
505.56062479522
 31
0.0
  0
LINE
  5
50AE
330
1A
100
AcDbEntity
  8
外形線
100
AcDbLine
 10
383.472578837094
 20
457.641297064128
 30
0.0
 11
382.472578837094
 21
457.641297064128
 31
0.0
  0
LEADER
  5
51AE
330
1A
100
AcDbEntity
  8
寸法線
 48
10.0
100
AcDbLeader
  3
ISO-25
 76
     3
 10
365.912254619893
 20
505.56062479522
 30
0.0
 10
297.334203397966
 20
572.526723350516
 30
0.0
 10
288.141811309022
 20
572.526723350516
 30
0.0
1001
ACAD
1000
DSTYLE
1002
{
1070
     5
1000
OPEN30
1070
   147
1040
0.625
1070
    77
1070
     0
1070
    41
1040
6.0
1070
    47
1040
0.1
1070
    48
1040
0.1
1070
    73
1070
     0
1070
   140
1040
5.0
1070
   271
1070
     1
1070
   272
1070
     1
1070
   341
1005
2AF4
1070
   342
1005
2AF4
1002
}
  0
MTEXT
  5
51AF
330
1A
100
AcDbEntity
  8
寸法線
 48
10.0
100
AcDbMText
 10
287.668929134524
 20
582.134892056525
 30
0.0
 40
5.0
 41
47.557441667843
 71
     3
 72
     5
  1
1 
  0
MTEXT
  5
51B0
102
{ACAD_XDICTIONARY
360
51B1
102
}
330
1A
100
AcDbEntity
  8
寸法線
 48
10.0
100
AcDbMText
 10
296.544116825108
 20
573.323833028282
 30
0.0
 40
8.0
 41
47.557441667843
 71
     9
 72
     5
  1
取付ねじ\PG1 /"
1001
ACADANNOTATIVE
1000
AnnotativeData
1002
{
1070
     1
1070
     0
1002
}
  0
MTEXT
  5
51B4
330
1A
100
AcDbEntity
  8
寸法線
 48
10.0
100
AcDbMText
 10
293.838442411966
 20
578.095692251645
 30
0.0
 40
5.0
 41
47.557441667843
 71
     3
 72
     5
  1
2
  0
LINE
  5
527D
330
1A
100
AcDbEntity
  8
外形線
 48
10.0
100
AcDbLine
 10
368.472578837094
 20
559.100960929674
 30
0.0
 11
368.472578837094
 21
404.100960929674
 31
0.0
  0
LINE
  5
527E
330
1A
100
AcDbEntity
  8
細線
100
AcDbLine
 10
382.472578837094
 20
459.254205632862
 30
0.0
 11
383.472578837094
 21
459.254205632862
 31
0.0
  0
LINE
  5
527F
330
1A
100
AcDbEntity
  8
外形線
100
AcDbLine
 10
368.472578837094
 20
457.641297064128
 30
0.0
 11
364.495710849323
 21
457.641297064128
 31
0.0
  0
LINE
  5
5280
330
1A
100
AcDbEntity
  8
細線
100
AcDbLine
 10
382.472578837094
 20
504.063145803624
 30
0.0
 11
383.472578837094
 21
504.063145803624
 31
0.0
  0
LINE
  5
5281
330
1A
100
AcDbEntity
  8
外形線
100
AcDbLine
 10
368.472578837094
 20
505.56062479522
 30
0.0
 11
364.495710849323
 21
505.56062479522
 31
0.0
  0
VIEWPORT
  5
2902
330
28FB
100
AcDbEntity
 67
     1
  8
0
 48
10.0
100
AcDbViewport
 10
0.0
 20
0.0
 30
0.0
 40
552.319156214367
 41
300.3
 68
     1
 69
     1
1001
ACAD
1000
MVIEW
1002
{
1070
    16
1010
0.0
1020
0.0
1030
0.0
1010
0.0
1020
0.0
1030
1.0
1040
0.0
1040
300.3
1040
205.756503333333
1040
143.551503333333
1040
50.0
1040
0.0
1040
0.0
1070
    16
1070
   100
1070
     0
1070
     1
1070
     0
1070
     0
1070
     0
1070
     0
1040
0.0
1040
0.0
1040
0.0
1040
10.0
1040
10.0
1040
10.0
1040
10.0
1070
     0
1002
{
1002
}
1002
}
  0
VIEWPORT
  5
2904
330
28FB
100
AcDbEntity
 67
     1
  8
図枠太線
 48
10.0
100
AcDbViewport
 10
204.746305129083
 20
161.396645458131
 30
0.0
 40
400.0
 41
240.0
 68
     2
 69
     2
1001
ACAD
1000
MVIEW
1002
{
1070
    16
1010
0.0
1020
0.0
1030
0.0
1010
0.0
1020
0.0
1030
1.0
1040
0.0
1040
480.0
1040
389.513710581117
1040
397.16533771051
1040
50.0
1040
0.0
1040
0.0
1070
    16
1070
   100
1070
     0
1070
     0
1070
     0
1070
     0
1070
     0
1070
     0
1040
0.0
1040
0.0
1040
0.0
1040
1.0
1040
1.0
1040
0.0
1040
0.0
1070
     0
1002
{
1002
}
1002
}
  0
INSERT
  5
2A59
330
28FB
100
AcDbEntity
 67
     1
  8
図枠太線
100
AcDbBlockReference
  2
A3横用_タイトル
 10
-0.352109406709
 20
-2.129314295396
 30
0.0
  0
MTEXT
  5
2FE3
330
28FB
100
AcDbEntity
 67
     1
  8
寸法線
 48
10.0
100
AcDbMText
 10
149.281561913196
 20
13.738838105692
 30
0.0
 40
7.0
 41
10.579051054442
 71
     1
 72
     5
  1
1:2
  0
MTEXT
  5
2FE7
330
28FB
100
AcDbEntity
 67
     1
  8
寸法線
 48
10.0
100
AcDbMText
 10
312.502621362913
 20
33.107736922225
 30
0.0
 40
6.0
 41
53.647044270833
 71
     1
 72
     5
  1
RRH-3□□-0
  0
MTEXT
  5
2FE8
330
28FB
100
AcDbEntity
 67
     1
  8
寸法線
 48
10.0
100
AcDbMText
 10
363.257693177112
 20
37.807266065601
 30
0.0
 40
6.0
 41
50.761524795071
 71
     1
 72
     5
  1
{\H0.8333x;振動式\Pレベルスイッチ}
  0
MTEXT
  5
3100
330
28FB
100
AcDbEntity
 67
     1
  8
寸法線
 48
10.0
100
AcDbMText
 10
272.300488718679
 20
48.787921847374
 30
0.0
 40
5.0
 41
58.550841599714
 71
     1
 72
     5
  1
A3縮小図
  0
LINE
  5
3101
330
28FB
100
AcDbEntity
 67
     1
  8
寸法線
 48
10.0
100
AcDbLine
 10
272.300488718679
 20
42.916202519738
 30
0.0
 11
296.843718665885
 21
42.916202519738
 31
0.0
  0
MTEXT
  5
342E
102
{ACAD_XDICTIONARY
360
453B
102
}
330
28FB
100
AcDbEntity
 67
     1
  8
寸法線
 48
10.0
100
AcDbMText
 10
376.730127672352
 20
48.224963581677
 30
0.0
 40
5.0
 41
54.683098362957
 71
     1
 72
     5
  1
\C1;台数   台
1001
ACADANNOTATIVE
1000
AnnotativeData
1002
{
1070
     1
1070
     0
1002
}
  0
MTEXT
  5
44F5
102
{ACAD_XDICTIONARY
360
4B97
102
}
330
28FB
100
AcDbEntity
 67
     1
  8
寸法線
 48
10.0
100
AcDbMText
 10
342.31672153983
 20
14.40812917399
 30
0.0
 40
7.0
 41
68.56
 71
     1
 72
     5
  1
HVR-2019
1001
ACADANNOTATIVE
1000
AnnotativeData
1002
{
1070
     1
1070
     0
1002
}
  0
MTEXT
  5
481E
102
{ACAD_XDICTIONARY
360
481F
102
}
330
28FB
100
AcDbEntity
 67
     1
  8
寸法線
 48
10.0
100
AcDbMText
 10
175.506541278264
 20
12.819600893732
 30
0.0
 40
5.0
 41
60.244444444444
 71
     1
 72
     5
  1
2015.8.25
1001
ACADANNOTATIVE
1000
AnnotativeData
1002
{
1070
     1
1070
     0
1002
}
  0
MTEXT
  5
4822
102
{ACAD_XDICTIONARY
360
4823
102
}
330
28FB
100
AcDbEntity
 67
     1
  8
寸法線
 48
10.0
100
AcDbMText
 10
173.953401409015
 20
32.625226751426
 30
0.0
 40
5.0
 41
24.595673902063
 71
     1
 72
     5
  1
takahashi
1001
ACADANNOTATIVE
1000
AnnotativeData
1002
{
1070
     1
1070
     0
1002
}
  0
MTEXT
  5
4DF5
102
{ACAD_XDICTIONARY
360
4DF6
102
}
330
28FB
100
AcDbEntity
 67
     1
  8
下書線
 48
10.0
100
AcDbMText
 10
346.540076893491
 20
239.554975560308
 30
0.0
 40
10.0
 41
174.128675272846
 71
     5
 72
     5
  1
HP掲載図面\P変更・追記不可
1001
ACADANNOTATIVE
1000
AnnotativeData
1002
{
1070
     1
1070
     0
1002
}
  0
LWPOLYLINE
  5
4DF9
330
28FB
100
AcDbEntity
 67
     1
  8
下書線
 48
10.0
100
AcDbPolyline
 90
        4
 70
     1
 43
0.0
 10
304.309931639919
 20
257.981580391708
 10
388.144095403675
 20
257.981580391708
 10
388.144095403675
 20
220.859441455728
 10
304.309931639919
 20
220.859441455728
  0
MTEXT
  5
54AC
102
{ACAD_XDICTIONARY
360
54AD
102
}
330
28FB
100
AcDbEntity
 67
     1
  8
寸法線
 48
10.0
100
AcDbMText
 10
154.696305129083
 20
29.396646458131
 30
0.0
 40
4.5
 41
29.906507692735
 71
     5
 72
     5
  1
tahara
1001
ACADANNOTATIVE
1000
AnnotativeData
1002
{
1070
     1
1070
     0
1002
}
  0
MTEXT
  5
54B0
102
{ACAD_XDICTIONARY
360
54B1
102
}
330
28FB
100
AcDbEntity
 67
     1
  8
寸法線
 48
10.0
100
AcDbMText
 10
121.396304528483
 20
29.396646458131
 30
0.0
 40
4.5
 41
16.097226867587
 71
     5
 72
     5
  1
konishi
1001
ACADANNOTATIVE
1000
AnnotativeData
1002
{
1070
     1
1070
     0
1002
}
  0
ENDSEC
  0
SECTION
  2
OBJECTS
  0
DICTIONARY
  5
C
330
0
100
AcDbDictionary
  3
ACAD_COLOR
350
2948
  3
ACAD_GROUP
350
D
  3
ACAD_LAYOUT
350
2816
  3
ACAD_MATERIAL
350
2947
  3
ACAD_MLEADERSTYLE
350
4537
  3
ACAD_MLINESTYLE
350
E
  3
ACAD_PLOTSETTINGS
350
2817
  3
ACAD_SCALELIST
350
4510
  3
ACAD_VISUALSTYLE
350
44F7
  3
ACADDIM
350
30EB
  3
ACDBHEADERROUNDTRIPXREC
350
554E
  3
ACDBVARIABLEDICTIONARY
350
455C
  3
DWGPROPS
350
5573
  0
DICTIONARY
  5
5574
330
8
100
AcDbDictionary
280
     1
  3
ACAD_XREC_ROUNDTRIP
360
5575
  0
DICTIONARY
  5
29EA
330
2
100
AcDbDictionary
280
     1
  3
ACAD_LAYERFILTERS
360
2B0C
  3
ACAD_LAYERSTATES
360
29EB
  0
DICTIONARY
  5
4B30
330
439B
100
AcDbDictionary
280
     1
  3
ACDBCONTEXTDATAMANAGER
360
4B31
  0
DICTIONARY
  5
4EE3
330
43DA
100
AcDbDictionary
280
     1
  3
ACDBCONTEXTDATAMANAGER
360
4EE4
  0
DICTIONARY
  5
4697
330
4696
100
AcDbDictionary
280
     1
  3
ACDBCONTEXTDATAMANAGER
360
4698
  0
DICTIONARY
  5
4728
330
4727
100
AcDbDictionary
280
     1
  3
ACDBCONTEXTDATAMANAGER
360
4729
  0
DICTIONARY
  5
4736
330
4735
100
AcDbDictionary
280
     1
  3
ACDBCONTEXTDATAMANAGER
360
4737
  0
DICTIONARY
  5
4740
330
473F
100
AcDbDictionary
280
     1
  3
ACDBCONTEXTDATAMANAGER
360
4741
  0
DICTIONARY
  5
4748
330
4747
100
AcDbDictionary
280
     1
  3
ACDBCONTEXTDATAMANAGER
360
4749
  0
DICTIONARY
  5
475B
330
475A
100
AcDbDictionary
280
     1
  3
ACDBCONTEXTDATAMANAGER
360
475C
  0
DICTIONARY
  5
4774
330
4773
100
AcDbDictionary
280
     1
  3
ACDBCONTEXTDATAMANAGER
360
4775
  0
DICTIONARY
  5
4927
330
4926
100
AcDbDictionary
280
     1
  3
ACDBCONTEXTDATAMANAGER
360
4928
  0
DICTIONARY
  5
495C
330
495B
100
AcDbDictionary
280
     1
  3
ACDBCONTEXTDATAMANAGER
360
495D
  0
DICTIONARY
  5
4991
330
4990
100
AcDbDictionary
280
     1
  3
ACDBCONTEXTDATAMANAGER
360
4992
  0
DICTIONARY
  5
49C6
330
49C5
100
AcDbDictionary
280
     1
  3
ACDBCONTEXTDATAMANAGER
360
49C7
  0
DICTIONARY
  5
49FB
330
49FA
100
AcDbDictionary
280
     1
  3
ACDBCONTEXTDATAMANAGER
360
49FC
  0
DICTIONARY
  5
4A30
330
4A2F
100
AcDbDictionary
280
     1
  3
ACDBCONTEXTDATAMANAGER
360
4A31
  0
DICTIONARY
  5
4A65
330
4A64
100
AcDbDictionary
280
     1
  3
ACDBCONTEXTDATAMANAGER
360
4A66
  0
DICTIONARY
  5
51B1
330
51B0
100
AcDbDictionary
280
     1
  3
ACDBCONTEXTDATAMANAGER
360
51B2
  0
DICTIONARY
  5
453B
330
342E
100
AcDbDictionary
280
     1
  3
ACDBCONTEXTDATAMANAGER
360
453C
  0
DICTIONARY
  5
4B97
330
44F5
100
AcDbDictionary
280
     1
  3
ACDBCONTEXTDATAMANAGER
360
4B98
  0
DICTIONARY
  5
481F
330
481E
100
AcDbDictionary
280
     1
  3
ACDBCONTEXTDATAMANAGER
360
4820
  0
DICTIONARY
  5
4823
330
4822
100
AcDbDictionary
280
     1
  3
ACDBCONTEXTDATAMANAGER
360
4824
  0
DICTIONARY
  5
4DF6
330
4DF5
100
AcDbDictionary
280
     1
  3
ACDBCONTEXTDATAMANAGER
360
4DF7
  0
DICTIONARY
  5
54AD
330
54AC
100
AcDbDictionary
280
     1
  3
ACDBCONTEXTDATAMANAGER
360
54AE
  0
DICTIONARY
  5
54B1
330
54B0
100
AcDbDictionary
280
     1
  3
ACDBCONTEXTDATAMANAGER
360
54B2
  0
DICTIONARY
  5
2948
102
{ACAD_REACTORS
330
C
102
}
330
C
100
AcDbDictionary
  0
DICTIONARY
  5
D
102
{ACAD_REACTORS
330
C
102
}
330
C
100
AcDbDictionary
  0
DICTIONARY
  5
2816
102
{ACAD_REACTORS
330
C
102
}
330
C
100
AcDbDictionary
  0
DICTIONARY
  5
2947
102
{ACAD_REACTORS
330
C
102
}
330
C
100
AcDbDictionary
  3
BYBLOCK
350
4533
  3
BYLAYER
350
4532
  3
GLOBAL
350
4534
  0
DICTIONARY
  5
4537
102
{ACAD_REACTORS
330
C
102
}
330
C
100
AcDbDictionary
  3
STANDARD
350
4538
  0
DICTIONARY
  5
E
102
{ACAD_REACTORS
330
C
102
}
330
C
100
AcDbDictionary
  3
STANDARD
350
13
  0
DICTIONARY
  5
2817
102
{ACAD_REACTORS
330
C
102
}
330
C
100
AcDbDictionary
  0
DICTIONARY
  5
4510
102
{ACAD_REACTORS
330
C
102
}
330
C
100
AcDbDictionary
  3
A0
350
4511
  3
A1
350
4512
  3
A2
350
4513
  3
A3
350
4514
  3
A4
350
4515
  3
A5
350
4516
  3
A6
350
4517
  3
A7
350
4518
  3
A8
350
4519
  3
A9
350
451A
  3
B0
350
451B
  3
B1
350
451C
  3
B2
350
451D
  3
B3
350
451E
  3
B4
350
451F
  3
B5
350
4520
  3
B6
350
4521
  3
B7
350
4522
  3
B8
350
4523
  3
B9
350
4524
  3
C0
350
4525
  3
C1
350
4526
  3
C2
350
4527
  3
C3
350
4528
  3
C4
350
4529
  3
C5
350
452A
  3
C6
350
452B
  3
C7
350
452C
  3
C8
350
452D
  3
C9
350
452E
  3
D0
350
452F
  3
D1
350
4530
  3
D2
350
4531
  0
DICTIONARY
  5
44F7
102
{ACAD_REACTORS
330
C
102
}
330
C
100
AcDbDictionary
  3
2DWIREFRAME
350
44FC
  3
BASIC
350
44FF
  3
BRIGHTEN
350
4503
  3
COLORCHANGE
350
4507
  3
CONCEPTUAL
350
4501
  3
DIM
350
4502
  3
EDGECOLOROFF
350
450A
  3
FACEPATTERN
350
4506
  3
FLAT
350
44F8
  3
FLATWITHEDGES
350
44F9
  3
GOURAUD
350
44FA
  3
GOURAUDWITHEDGES
350
44FB
  3
HIDDEN
350
44FE
  3
JITTEROFF
350
4508
  3
LINEPATTERN
350
4505
  3
MODELING
350
465E
  3
OVERHANGOFF
350
4509
  3
REALISTIC
350
4500
  3
SHADED
350
450F
  3
SHADED_WITH_EDGES
350
450E
  3
SHADES_OF_GRAY
350
450B
  3
SKETCHY
350
450C
  3
THICKEN
350
4504
  3
WIREFRAME
350
44FD
  3
X-RAY
350
450D
  0
XRECORD
  5
30EB
102
{ACAD_REACTORS
330
C
102
}
330
C
100
AcDbXrecord
 90
   990106
  3

 60
     0
 61
     0
 62
     1
 63
     3
 64
     0
 65
     0
 66
     0
 67
     3
 68
     1
 69
     0
 70
     0
 71
     0
 72
     0
 40
0.0
170
     0
  0
DICTIONARY
  5
554E
102
{ACAD_REACTORS
330
C
102
}
330
C
100
AcDbDictionary
  3
CEPSNID
350
5558
  3
CEPSNTYPE
350
5557
  3
COLORDICT
350
5571
  3
DIMSTYLEDATA
350
556E
  3
FINGERPRINTGUID
350
5559
  3
HYPERLINKBASE
350
5551
  3
INSUNITS
350
5556
  3
LAYOUTDICT
350
5553
  3
LWETCUNION
350
5555
  3
MATERIALDICT
350
5572
  3
PLOTSETDICT
350
5554
  3
PSVPSCALE
350
555B
  3
PUCSBASE
350
555E
  3
PUCSORGBACK
350
5564
  3
PUCSORGBOTTOM
350
5560
  3
PUCSORGFRONT
350
5563
  3
PUCSORGLEFT
350
5561
  3
PUCSORGRIGHT
350
5562
  3
PUCSORGTOP
350
555F
  3
PUCSORTHOREF
350
555C
  3
PUCSORTHOVIEW
350
555D
  3
STYLESHEET
350
5552
  3
TSTACKALIGN
350
554F
  3
TSTACKSIZE
350
5550
  3
UCSBASE
350
5567
  3
UCSORGBACK
350
556D
  3
UCSORGBOTTOM
350
5569
  3
UCSORGFRONT
350
556C
  3
UCSORGLEFT
350
556A
  3
UCSORGRIGHT
350
556B
  3
UCSORGTOP
350
5568
  3
UCSORTHOREF
350
5565
  3
UCSORTHOVIEW
350
5566
  3
VERSIONGUID
350
555A
  0
DICTIONARY
  5
455C
102
{ACAD_REACTORS
330
C
102
}
330
C
100
AcDbDictionary
  3
CANNOSCALE
350
455D
  3
CMLEADERSTYLE
350
459C
  3
CTABLESTYLE
350
459B
  3
DIMASSOC
350
556F
  3
HIDETEXT
350
5570
  3
MSLTSCALE
350
459D
  3
XCLIPFRAME
350
459E
  0
XRECORD
  5
5573
102
{ACAD_REACTORS
330
C
102
}
330
C
100
AcDbXrecord
  1
DWGPROPS COOKIE
  2

  3

  4

  6

  7

  8
takahashi
  9

300
=
301
=
302
=
303
=
304
=
305
=
306
=
307
=
308
=
309
=
 40
0.0
 41
2450576.222302431
 42
2457269.004583472
  1

 90
        0
  0
XRECORD
  5
5575
102
{ACAD_REACTORS
330
5574
102
}
330
5574
100
AcDbXrecord
102
VTR_0.000_0.000_1.000_1.000_VISUALSTYLE
340
44FC
102
VTR_0.000_0.000_1.000_1.000_GRIDDISPLAY
 70
     3
102
VTR_0.000_0.000_1.000_1.000_GRIDMAJOR
 70
     5
102
VTR_0.000_0.000_1.000_1.000_DEFAULTLIGHTING
280
     1
102
VTR_0.000_0.000_1.000_1.000_DEFAULTLIGHTINGTYPE
 70
     1
102
VTR_0.000_0.000_1.000_1.000_BRIGHTNESS
141
0.0
102
VTR_0.000_0.000_1.000_1.000_CONTRAST
142
0.0
  0
DICTIONARY
  5
2B0C
102
{ACAD_REACTORS
330
29EA
102
}
330
29EA
100
AcDbDictionary
  0
DICTIONARY
  5
29EB
102
{ACAD_REACTORS
330
29EA
102
}
330
29EA
100
AcDbDictionary
  0
DICTIONARY
  5
4B31
102
{ACAD_REACTORS
330
4B30
102
}
330
4B30
100
AcDbDictionary
  3
ACDB_ANNOTATIONSCALES
350
4B32
  0
DICTIONARY
  5
4EE4
102
{ACAD_REACTORS
330
4EE3
102
}
330
4EE3
100
AcDbDictionary
  3
ACDB_ANNOTATIONSCALES
350
4EE5
  0
DICTIONARY
  5
4698
102
{ACAD_REACTORS
330
4697
102
}
330
4697
100
AcDbDictionary
  3
ACDB_ANNOTATIONSCALES
350
4699
  0
DICTIONARY
  5
4729
102
{ACAD_REACTORS
330
4728
102
}
330
4728
100
AcDbDictionary
  3
ACDB_ANNOTATIONSCALES
350
472A
  0
DICTIONARY
  5
4737
102
{ACAD_REACTORS
330
4736
102
}
330
4736
100
AcDbDictionary
  3
ACDB_ANNOTATIONSCALES
350
4738
  0
DICTIONARY
  5
4741
102
{ACAD_REACTORS
330
4740
102
}
330
4740
100
AcDbDictionary
  3
ACDB_ANNOTATIONSCALES
350
4742
  0
DICTIONARY
  5
4749
102
{ACAD_REACTORS
330
4748
102
}
330
4748
100
AcDbDictionary
  3
ACDB_ANNOTATIONSCALES
350
474A
  0
DICTIONARY
  5
475C
102
{ACAD_REACTORS
330
475B
102
}
330
475B
100
AcDbDictionary
  3
ACDB_ANNOTATIONSCALES
350
475D
  0
DICTIONARY
  5
4775
102
{ACAD_REACTORS
330
4774
102
}
330
4774
100
AcDbDictionary
  3
ACDB_ANNOTATIONSCALES
350
4776
  0
DICTIONARY
  5
4928
102
{ACAD_REACTORS
330
4927
102
}
330
4927
100
AcDbDictionary
  3
ACDB_ANNOTATIONSCALES
350
4929
  0
DICTIONARY
  5
495D
102
{ACAD_REACTORS
330
495C
102
}
330
495C
100
AcDbDictionary
  3
ACDB_ANNOTATIONSCALES
350
495E
  0
DICTIONARY
  5
4992
102
{ACAD_REACTORS
330
4991
102
}
330
4991
100
AcDbDictionary
  3
ACDB_ANNOTATIONSCALES
350
4993
  0
DICTIONARY
  5
49C7
102
{ACAD_REACTORS
330
49C6
102
}
330
49C6
100
AcDbDictionary
  3
ACDB_ANNOTATIONSCALES
350
49C8
  0
DICTIONARY
  5
49FC
102
{ACAD_REACTORS
330
49FB
102
}
330
49FB
100
AcDbDictionary
  3
ACDB_ANNOTATIONSCALES
350
49FD
  0
DICTIONARY
  5
4A31
102
{ACAD_REACTORS
330
4A30
102
}
330
4A30
100
AcDbDictionary
  3
ACDB_ANNOTATIONSCALES
350
4A32
  0
DICTIONARY
  5
4A66
102
{ACAD_REACTORS
330
4A65
102
}
330
4A65
100
AcDbDictionary
  3
ACDB_ANNOTATIONSCALES
350
4A67
  0
DICTIONARY
  5
51B2
102
{ACAD_REACTORS
330
51B1
102
}
330
51B1
100
AcDbDictionary
  3
ACDB_ANNOTATIONSCALES
350
51B3
  0
DICTIONARY
  5
453C
102
{ACAD_REACTORS
330
453B
102
}
330
453B
100
AcDbDictionary
  3
ACDB_ANNOTATIONSCALES
350
453D
  0
DICTIONARY
  5
4B98
102
{ACAD_REACTORS
330
4B97
102
}
330
4B97
100
AcDbDictionary
  3
ACDB_ANNOTATIONSCALES
350
4B99
  0
DICTIONARY
  5
4820
102
{ACAD_REACTORS
330
481F
102
}
330
481F
100
AcDbDictionary
  3
ACDB_ANNOTATIONSCALES
350
4821
  0
DICTIONARY
  5
4824
102
{ACAD_REACTORS
330
4823
102
}
330
4823
100
AcDbDictionary
  3
ACDB_ANNOTATIONSCALES
350
4825
  0
DICTIONARY
  5
4DF7
102
{ACAD_REACTORS
330
4DF6
102
}
330
4DF6
100
AcDbDictionary
  3
ACDB_ANNOTATIONSCALES
350
4DF8
  0
DICTIONARY
  5
54AE
102
{ACAD_REACTORS
330
54AD
102
}
330
54AD
100
AcDbDictionary
  3
ACDB_ANNOTATIONSCALES
350
54AF
  0
DICTIONARY
  5
54B2
102
{ACAD_REACTORS
330
54B1
102
}
330
54B1
100
AcDbDictionary
  3
ACDB_ANNOTATIONSCALES
350
54B3
  0
MATERIAL
  5
4533
102
{ACAD_REACTORS
330
2947
102
}
102
{ACAD_XDICTIONARY
360
5578
102
}
330
2947
100
AcDbMaterial
  1
BYBLOCK
  0
MATERIAL
  5
4532
102
{ACAD_REACTORS
330
2947
102
}
102
{ACAD_XDICTIONARY
360
5576
102
}
330
2947
100
AcDbMaterial
  1
BYLAYER
  0
MATERIAL
  5
4534
102
{ACAD_REACTORS
330
2947
102
}
102
{ACAD_XDICTIONARY
360
557A
102
}
330
2947
100
AcDbMaterial
  1
GLOBAL
  0
ACAD_PROXY_OBJECT
  5
4538
102
{ACAD_REACTORS
330
4537
102
}
330
4537
100
AcDbProxyObject
 90
      499
 91
      508
 93
      610
310
40901902A4063FBFFFFFE0000000000000020400000000000020404214DD185B99185C990000000000000104090141901A00000000000004100000000000000041025764000000000000039000
340
14
340
0
340
10
340
0
 94
        0
1001
ACAD_MLEADERVER
1070
     2
  0
MLINESTYLE
  5
13
102
{ACAD_REACTORS
330
E
102
}
330
E
100
AcDbMlineStyle
  2
STANDARD
 70
     0
  3

 62
     0
 51
90.0
 52
90.0
 71
     2
 49
0.5
 62
   256
  6
BYLAYER
 49
-0.5
 62
   256
  6
BYLAYER
  0
ACAD_PROXY_OBJECT
  5
4511
102
{ACAD_REACTORS
330
4510
102
}
330
4510
100
AcDbProxyObject
 90
      499
 91
      505
 93
       41
310
903313A31580
  0
ACAD_PROXY_OBJECT
  5
4512
102
{ACAD_REACTORS
330
4510
102
}
330
4510
100
AcDbProxyObject
 90
      499
 91
      505
 93
      105
310
903313A324000000000000004000
  0
ACAD_PROXY_OBJECT
  5
4513
102
{ACAD_REACTORS
330
4510
102
}
330
4510
100
AcDbProxyObject
 90
      499
 91
      505
 93
      105
310
903313A344000000000000104000
  0
ACAD_PROXY_OBJECT
  5
4514
102
{ACAD_REACTORS
330
4510
102
}
330
4510
100
AcDbProxyObject
 90
      499
 91
      505
 93
      105
310
903313A354000000000000144000
  0
ACAD_PROXY_OBJECT
  5
4515
102
{ACAD_REACTORS
330
4510
102
}
330
4510
100
AcDbProxyObject
 90
      499
 91
      505
 93
      105
310
903313A384000000000000204000
  0
ACAD_PROXY_OBJECT
  5
4516
102
{ACAD_REACTORS
330
4510
102
}
330
4510
100
AcDbProxyObject
 90
      499
 91
      505
 93
      113
310
904313A31304000000000000244000
  0
ACAD_PROXY_OBJECT
  5
4517
102
{ACAD_REACTORS
330
4510
102
}
330
4510
100
AcDbProxyObject
 90
      499
 91
      505
 93
      113
310
904313A31364000000000000304000
  0
ACAD_PROXY_OBJECT
  5
4518
102
{ACAD_REACTORS
330
4510
102
}
330
4510
100
AcDbProxyObject
 90
      499
 91
      505
 93
      113
310
904313A32304000000000000344000
  0
ACAD_PROXY_OBJECT
  5
4519
102
{ACAD_REACTORS
330
4510
102
}
330
4510
100
AcDbProxyObject
 90
      499
 91
      505
 93
      113
310
904313A333040000000000003E4000
  0
ACAD_PROXY_OBJECT
  5
451A
102
{ACAD_REACTORS
330
4510
102
}
330
4510
100
AcDbProxyObject
 90
      499
 91
      505
 93
      113
310
904313A34304000000000000444000
  0
ACAD_PROXY_OBJECT
  5
451B
102
{ACAD_REACTORS
330
4510
102
}
330
4510
100
AcDbProxyObject
 90
      499
 91
      505
 93
      113
310
904313A35304000000000000494000
  0
ACAD_PROXY_OBJECT
  5
451C
102
{ACAD_REACTORS
330
4510
102
}
330
4510
100
AcDbProxyObject
 90
      499
 91
      505
 93
      121
310
905313A3130304000000000000594000
  0
ACAD_PROXY_OBJECT
  5
451D
102
{ACAD_REACTORS
330
4510
102
}
330
4510
100
AcDbProxyObject
 90
      499
 91
      505
 93
      105
310
903323A310000000000000010100
  0
ACAD_PROXY_OBJECT
  5
451E
102
{ACAD_REACTORS
330
4510
102
}
330
4510
100
AcDbProxyObject
 90
      499
 91
      505
 93
      105
310
903343A310000000000000410100
  0
ACAD_PROXY_OBJECT
  5
451F
102
{ACAD_REACTORS
330
4510
102
}
330
4510
100
AcDbProxyObject
 90
      499
 91
      505
 93
      105
310
903383A310000000000000810100
  0
ACAD_PROXY_OBJECT
  5
4520
102
{ACAD_REACTORS
330
4510
102
}
330
4510
100
AcDbProxyObject
 90
      499
 91
      505
 93
      113
310
90431303A310000000000000910100
  0
ACAD_PROXY_OBJECT
  5
4521
102
{ACAD_REACTORS
330
4510
102
}
330
4510
100
AcDbProxyObject
 90
      499
 91
      505
 93
      121
310
9053130303A310000000000001650100
  0
ACAD_PROXY_OBJECT
  5
4522
102
{ACAD_REACTORS
330
4510
102
}
330
4510
100
AcDbProxyObject
 90
      499
 91
      505
 93
      257
310
90E312F31323822203D2031272D3022000000000000200FC000000000000284000
  0
ACAD_PROXY_OBJECT
  5
4523
102
{ACAD_REACTORS
330
4510
102
}
330
4510
100
AcDbProxyObject
 90
      499
 91
      505
 93
      249
310
90D312F363422203D2031272D3022000000000000240FC000000000000284000
  0
ACAD_PROXY_OBJECT
  5
4524
102
{ACAD_REACTORS
330
4510
102
}
330
4510
100
AcDbProxyObject
 90
      499
 91
      505
 93
      249
310
90D312F333222203D2031272D3022000000000000280FC000000000000284000
  0
ACAD_PROXY_OBJECT
  5
4525
102
{ACAD_REACTORS
330
4510
102
}
330
4510
100
AcDbProxyObject
 90
      499
 91
      505
 93
      249
310
90D312F313622203D2031272D30220000000000002C0FC000000000000284000
  0
ACAD_PROXY_OBJECT
  5
4526
102
{ACAD_REACTORS
330
4510
102
}
330
4510
100
AcDbProxyObject
 90
      499
 91
      505
 93
      249
310
90D332F333222203D2031272D30220000000000002E0FC000000000000284000
  0
ACAD_PROXY_OBJECT
  5
4527
102
{ACAD_REACTORS
330
4510
102
}
330
4510
100
AcDbProxyObject
 90
      499
 91
      505
 93
      241
310
90C312F3822203D2031272D3022000000000000300FC000000000000284000
  0
ACAD_PROXY_OBJECT
  5
4528
102
{ACAD_REACTORS
330
4510
102
}
330
4510
100
AcDbProxyObject
 90
      499
 91
      505
 93
      249
310
90D332F313622203D2031272D3022000000000000320FC000000000000284000
  0
ACAD_PROXY_OBJECT
  5
4529
102
{ACAD_REACTORS
330
4510
102
}
330
4510
100
AcDbProxyObject
 90
      499
 91
      505
 93
      241
310
90C312F3422203D2031272D3022000000000000340FC000000000000284000
  0
ACAD_PROXY_OBJECT
  5
452A
102
{ACAD_REACTORS
330
4510
102
}
330
4510
100
AcDbProxyObject
 90
      499
 91
      505
 93
      241
310
90C332F3822203D2031272D3022000000000000360FC000000000000284000
  0
ACAD_PROXY_OBJECT
  5
452B
102
{ACAD_REACTORS
330
4510
102
}
330
4510
100
AcDbProxyObject
 90
      499
 91
      505
 93
      241
310
90C312F3222203D2031272D3022000000000000380FC000000000000284000
  0
ACAD_PROXY_OBJECT
  5
452C
102
{ACAD_REACTORS
330
4510
102
}
330
4510
100
AcDbProxyObject
 90
      499
 91
      505
 93
      241
310
90C332F3422203D2031272D30220000000000003A0FC000000000000284000
  0
ACAD_PROXY_OBJECT
  5
452D
102
{ACAD_REACTORS
330
4510
102
}
330
4510
100
AcDbProxyObject
 90
      499
 91
      505
 93
      161
310
90A3122203D2031272D30224000000000000284000
  0
ACAD_PROXY_OBJECT
  5
452E
102
{ACAD_REACTORS
330
4510
102
}
330
4510
100
AcDbProxyObject
 90
      499
 91
      505
 93
      257
310
90E312D312F3222203D2031272D30220000000000003E0FC000000000000284000
  0
ACAD_PROXY_OBJECT
  5
452F
102
{ACAD_REACTORS
330
4510
102
}
330
4510
100
AcDbProxyObject
 90
      499
 91
      505
 93
      225
310
90A3322203D2031272D302200000000000002100000000000000284000
  0
ACAD_PROXY_OBJECT
  5
4530
102
{ACAD_REACTORS
330
4510
102
}
330
4510
100
AcDbProxyObject
 90
      499
 91
      505
 93
      225
310
90A3622203D2031272D302200000000000006100000000000000284000
  0
ACAD_PROXY_OBJECT
  5
4531
102
{ACAD_REACTORS
330
4510
102
}
330
4510
100
AcDbProxyObject
 90
      499
 91
      505
 93
      249
310
90D31272D3022203D2031272D30220000000000000A100000000000000284000
  0
ACAD_PROXY_OBJECT
  5
44FC
102
{ACAD_REACTORS
330
44F7
102
}
330
44F7
100
AcDbProxyObject
 90
      499
 91
      504
 93
      436
310
42CC9915DA5C99599C985B595049028333333333333E33F0000000000000F90107901411070040501600405405064090741402480A0340
1001
ACAD
1000
AcDbSavedByObjectVersion
1070
     0
  0
ACAD_PROXY_OBJECT
  5
44FF
102
{ACAD_REACTORS
330
44F7
102
}
330
44F7
100
AcDbProxyObject
 90
      499
 91
      504
 93
      388
310
4150985CDA58D07406404333333333333E33F0000000000000F90107A41107004050150841D405064090741402480A0350
1001
ACAD
1000
AcDbSavedByObjectVersion
1070
     0
  0
ACAD_PROXY_OBJECT
  5
4503
102
{ACAD_REACTORS
330
44F7
102
}
330
44F7
100
AcDbProxyObject
 90
      499
 91
      504
 93
      428
310
42109C9A59DA1D195B90C409028333333333333E33F0000000000000F9010790141107004050150841D405064090741402480A029950
1001
ACAD
1000
AcDbSavedByObjectVersion
1070
     0
  0
ACAD_PROXY_OBJECT
  5
4507
102
{ACAD_REACTORS
330
44F7
102
}
330
44F7
100
AcDbProxyObject
 90
      499
 91
      504
 93
      452
310
42D0DBDB1BDC90DA185B99D95104090240C333333333333E33F0000000000000F90108901411070040501508421405064090741402480A0350
1001
ACAD
1000
AcDbSavedByObjectVersion
1070
     0
  0
ACAD_PROXY_OBJECT
  5
4501
102
{ACAD_REACTORS
330
44F7
102
}
330
44F7
100
AcDbProxyObject
 90
      499
 91
      504
 93
      500
310
4290DBDB98D95C1D1D585B10940D028333333333333E33F0000000000000F90107902409070040501000000000018199010841D405064090740C02480A0340
1001
ACAD
1000
AcDbSavedByObjectVersion
1070
     0
  0
ACAD_PROXY_OBJECT
  5
4502
102
{ACAD_REACTORS
330
44F7
102
}
330
44F7
100
AcDbProxyObject
 90
      499
 91
      504
 93
      412
310
40D11A5B50B409028333333333333E33F0000000000000F9010790141107004050150841D405064090741402480A02677FFFFFD0
1001
ACAD
1000
AcDbSavedByObjectVersion
1070
     0
  0
ACAD_PROXY_OBJECT
  5
450A
102
{ACAD_REACTORS
330
44F7
102
}
330
44F7
100
AcDbProxyObject
 90
      499
 91
      504
 93
      452
310
43115919D950DBDB1BDC93D999916409028333333333333E33F0000000000000F9010790141107004050150841D405064090741402480A0350
1001
ACAD
1000
AcDbSavedByObjectVersion
1070
     0
  0
ACAD_PROXY_OBJECT
  5
4506
102
{ACAD_REACTORS
330
44F7
102
}
330
44F7
100
AcDbProxyObject
 90
      499
 91
      504
 93
      444
310
42D19858D95C185D1D195C9B90F409028333333333333E33F0000000000000F9010790141107004050150841D405064090741402480A0350
1001
ACAD
1000
AcDbSavedByObjectVersion
1070
     0
  0
ACAD_PROXY_OBJECT
  5
44F8
102
{ACAD_REACTORS
330
44F7
102
}
330
44F7
100
AcDbProxyObject
 90
      499
 91
      504
 93
      380
310
41119B185D240901404333333333333E33F0000000000000F9010740A907004050150841D405064090741402480A1B50
1001
ACAD
1000
AcDbSavedByObjectVersion
1070
     0
  0
ACAD_PROXY_OBJECT
  5
44F9
102
{ACAD_REACTORS
330
44F7
102
}
330
44F7
100
AcDbProxyObject
 90
      499
 91
      504
 93
      468
310
43519B185D15DA5D1A115919D95CD0140901404333333333333E33F0000000000000F90107409019070040501600405405064090741402480A1B50
1001
ACAD
1000
AcDbSavedByObjectVersion
1070
     0
  0
ACAD_PROXY_OBJECT
  5
44FA
102
{ACAD_REACTORS
330
44F7
102
}
330
44F7
100
AcDbProxyObject
 90
      499
 91
      504
 93
      404
310
41D1DBDD5C985D5910240902404333333333333E33F0000000000000F9010740A9070040501641D405064090741402480A1B50
1001
ACAD
1000
AcDbSavedByObjectVersion
1070
     0
  0
ACAD_PROXY_OBJECT
  5
44FB
102
{ACAD_REACTORS
330
44F7
102
}
330
44F7
100
AcDbProxyObject
 90
      499
 91
      504
 93
      492
310
4411DBDD5C985D5915DA5D1A115919D95CD0340902404333333333333E33F0000000000000F90107409019070040501600405405064090741402480A1B50
1001
ACAD
1000
AcDbSavedByObjectVersion
1070
     0
  0
ACAD_PROXY_OBJECT
  5
44FE
102
{ACAD_REACTORS
330
44F7
102
}
330
44F7
100
AcDbProxyObject
 90
      499
 91
      504
 93
      476
310
41921A5919195B90640502408333333333333E33F0000000000000F901079024090700405020000000000001110200405405064090740C02480A0340
1001
ACAD
1000
AcDbSavedByObjectVersion
1070
     0
  0
ACAD_PROXY_OBJECT
  5
4508
102
{ACAD_REACTORS
330
44F7
102
}
330
44F7
100
AcDbProxyObject
 90
      499
 91
      504
 93
      428
310
42529A5D1D195C93D999914409028333333333333E33F0000000000000F9010790141107004050150A41D405064090741402480A0350
1001
ACAD
1000
AcDbSavedByObjectVersion
1070
     0
  0
ACAD_PROXY_OBJECT
  5
4505
102
{ACAD_REACTORS
330
44F7
102
}
330
44F7
100
AcDbProxyObject
 90
      499
 91
      504
 93
      444
310
42D31A5B995C185D1D195C9B90E409028333333333333E33F0000000000000F9010790141107004050750841D405064090741402483A0350
1001
ACAD
1000
AcDbSavedByObjectVersion
1070
     0
  0
ACAD_PROXY_OBJECT
  5
465E
102
{ACAD_REACTORS
330
44F7
102
}
330
44F7
100
AcDbProxyObject
 90
      499
 91
      504
 93
      412
310
90A409038333333333333E33F0000000000000F901074090290700405010000000000201990108421405064090741402480A1B40
1001
ACAD
1000
AcDbSavedByObjectVersion
1070
     0
  0
ACAD_PROXY_OBJECT
  5
4509
102
{ACAD_REACTORS
330
44F7
102
}
330
44F7
100
AcDbProxyObject
 90
      499
 91
      504
 93
      444
310
42D3DD995C9A185B99D3D999915409028333333333333E33F0000000000000F9010790141107004050150941D405064090741402480A0350
1001
ACAD
1000
AcDbSavedByObjectVersion
1070
     0
  0
ACAD_PROXY_OBJECT
  5
4500
102
{ACAD_REACTORS
330
44F7
102
}
330
44F7
100
AcDbProxyObject
 90
      499
 91
      504
 93
      428
310
425499585B1A5CDD1A58D08409038333333333333E33F0000000000000F9010740A907004050150800405405064090740C02480A1B40
1001
ACAD
1000
AcDbSavedByObjectVersion
1070
     0
  0
ACAD_PROXY_OBJECT
  5
450F
102
{ACAD_REACTORS
330
44F7
102
}
330
44F7
100
AcDbProxyObject
 90
      499
 91
      504
 93
      420
310
4194DA1859195911B40902404333333333333E33F0000000000000F9010740A41107004050150800405405064090840C02480A0B40
1001
ACAD
1000
AcDbSavedByObjectVersion
1070
     0
  0
ACAD_PROXY_OBJECT
  5
450E
102
{ACAD_REACTORS
330
44F7
102
}
330
44F7
100
AcDbProxyObject
 90
      499
 91
      504
 93
      516
310
4454DA18591959081DDA5D1A08195919D95CD1A40902404333333333333E33F0000000000000F901074090142907004050250800405405064090740C02480A0B40
1001
ACAD
1000
AcDbSavedByObjectVersion
1070
     0
  0
ACAD_PROXY_OBJECT
  5
450B
102
{ACAD_REACTORS
330
44F7
102
}
330
44F7
100
AcDbProxyObject
 90
      499
 91
      504
 93
      532
310
4394DA1859195CC81BD98811DC985E5174090240C333333333333E33F0000000000000F901079024090741D01000000000000111010841D405064090740C02480A0340
1001
ACAD
1000
AcDbSavedByObjectVersion
1070
     0
  0
ACAD_PROXY_OBJECT
  5
450C
102
{ACAD_REACTORS
330
44F7
102
}
330
44F7
100
AcDbProxyObject
 90
      499
 91
      504
 93
      476
310
41D4DAD95D18DA1E51840502408333333333333E33F0000000000000F901079024090741D01000000000000111010B41D405064090741802480A0340
1001
ACAD
1000
AcDbSavedByObjectVersion
1070
     0
  0
ACAD_PROXY_OBJECT
  5
4504
102
{ACAD_REACTORS
330
44F7
102
}
330
44F7
100
AcDbProxyObject
 90
      499
 91
      504
 93
      412
310
41D51A1A58DAD95B90D409028333333333333E33F0000000000000F9010790141107004050150C41D405064090741402480A0350
1001
ACAD
1000
AcDbSavedByObjectVersion
1070
     0
  0
ACAD_PROXY_OBJECT
  5
44FD
102
{ACAD_REACTORS
330
44F7
102
}
330
44F7
100
AcDbProxyObject
 90
      499
 91
      504
 93
      420
310
4255DA5C99599C985B595059028333333333333E33F0000000000000F90107901411070040501600405405064090740C02480A0340
1001
ACAD
1000
AcDbSavedByObjectVersion
1070
     0
  0
ACAD_PROXY_OBJECT
  5
450D
102
{ACAD_REACTORS
330
44F7
102
}
330
44F7
100
AcDbProxyObject
 90
      499
 91
      504
 93
      404
310
41560B54985E51940902404000000000000E03F0000000000000F9010740501907004050150841D405064090740C02480A1B40
1001
ACAD
1000
AcDbSavedByObjectVersion
1070
     0
  0
XRECORD
  5
5558
102
{ACAD_REACTORS
330
554E
102
}
330
554E
100
AcDbXrecord
340
0
  0
XRECORD
  5
5557
102
{ACAD_REACTORS
330
554E
102
}
330
554E
100
AcDbXrecord
 90
        0
  0
XRECORD
  5
5571
102
{ACAD_REACTORS
330
554E
102
}
330
554E
100
AcDbXrecord
340
2948
  0
XRECORD
  5
556E
102
{ACAD_REACTORS
330
554E
102
}
330
554E
100
AcDbXrecord
1000
DSTYLE
1002
{
1070
   171
 70
     2
1070
   143
 40
0.0394
1070
   274
 70
     2
1070
    41
 40
6.0
1070
   342
340
2AF4
1070
   271
 70
     1
1070
   278
 70
    46
1070
   341
340
2AF4
1070
   272
 70
     1
1070
    48
 40
0.1
1070
   283
 70
     1
1070
    47
 40
0.1
1070
   145
 40
1.0
1070
   340
340
10
1070
   140
 40
5.0
1070
   284
 70
     0
1002
}
  0
XRECORD
  5
5559
102
{ACAD_REACTORS
330
554E
102
}
330
554E
100
AcDbXrecord
  1
{23698909-1D67-4744-B0E2-8DE11E3ED422}
  0
XRECORD
  5
5551
102
{ACAD_REACTORS
330
554E
102
}
330
554E
100
AcDbXrecord
  1

  0
XRECORD
  5
5556
102
{ACAD_REACTORS
330
554E
102
}
330
554E
100
AcDbXrecord
 90
        0
  0
XRECORD
  5
5553
102
{ACAD_REACTORS
330
554E
102
}
330
554E
100
AcDbXrecord
340
2816
  0
XRECORD
  5
5555
102
{ACAD_REACTORS
330
554E
102
}
330
554E
100
AcDbXrecord
 90
    10781
  0
XRECORD
  5
5572
102
{ACAD_REACTORS
330
554E
102
}
330
554E
100
AcDbXrecord
340
2947
  0
XRECORD
  5
5554
102
{ACAD_REACTORS
330
554E
102
}
330
554E
100
AcDbXrecord
340
2817
  0
XRECORD
  5
555B
102
{ACAD_REACTORS
330
554E
102
}
330
554E
100
AcDbXrecord
 40
0.25
  0
XRECORD
  5
555E
102
{ACAD_REACTORS
330
554E
102
}
330
554E
100
AcDbXrecord
340
0
  0
XRECORD
  5
5564
102
{ACAD_REACTORS
330
554E
102
}
330
554E
100
AcDbXrecord
 10
0.0
 20
0.0
 30
0.0
  0
XRECORD
  5
5560
102
{ACAD_REACTORS
330
554E
102
}
330
554E
100
AcDbXrecord
 10
0.0
 20
0.0
 30
0.0
  0
XRECORD
  5
5563
102
{ACAD_REACTORS
330
554E
102
}
330
554E
100
AcDbXrecord
 10
0.0
 20
0.0
 30
0.0
  0
XRECORD
  5
5561
102
{ACAD_REACTORS
330
554E
102
}
330
554E
100
AcDbXrecord
 10
0.0
 20
0.0
 30
0.0
  0
XRECORD
  5
5562
102
{ACAD_REACTORS
330
554E
102
}
330
554E
100
AcDbXrecord
 10
0.0
 20
0.0
 30
0.0
  0
XRECORD
  5
555F
102
{ACAD_REACTORS
330
554E
102
}
330
554E
100
AcDbXrecord
 10
0.0
 20
0.0
 30
0.0
  0
XRECORD
  5
555C
102
{ACAD_REACTORS
330
554E
102
}
330
554E
100
AcDbXrecord
340
0
  0
XRECORD
  5
555D
102
{ACAD_REACTORS
330
554E
102
}
330
554E
100
AcDbXrecord
 70
     0
  0
XRECORD
  5
5552
102
{ACAD_REACTORS
330
554E
102
}
330
554E
100
AcDbXrecord
  1

  0
XRECORD
  5
554F
102
{ACAD_REACTORS
330
554E
102
}
330
554E
100
AcDbXrecord
 90
        1
  0
XRECORD
  5
5550
102
{ACAD_REACTORS
330
554E
102
}
330
554E
100
AcDbXrecord
 90
       70
  0
XRECORD
  5
5567
102
{ACAD_REACTORS
330
554E
102
}
330
554E
100
AcDbXrecord
340
0
  0
XRECORD
  5
556D
102
{ACAD_REACTORS
330
554E
102
}
330
554E
100
AcDbXrecord
 10
0.0
 20
0.0
 30
0.0
  0
XRECORD
  5
5569
102
{ACAD_REACTORS
330
554E
102
}
330
554E
100
AcDbXrecord
 10
0.0
 20
0.0
 30
0.0
  0
XRECORD
  5
556C
102
{ACAD_REACTORS
330
554E
102
}
330
554E
100
AcDbXrecord
 10
0.0
 20
0.0
 30
0.0
  0
XRECORD
  5
556A
102
{ACAD_REACTORS
330
554E
102
}
330
554E
100
AcDbXrecord
 10
0.0
 20
0.0
 30
0.0
  0
XRECORD
  5
556B
102
{ACAD_REACTORS
330
554E
102
}
330
554E
100
AcDbXrecord
 10
0.0
 20
0.0
 30
0.0
  0
XRECORD
  5
5568
102
{ACAD_REACTORS
330
554E
102
}
330
554E
100
AcDbXrecord
 10
0.0
 20
0.0
 30
0.0
  0
XRECORD
  5
5565
102
{ACAD_REACTORS
330
554E
102
}
330
554E
100
AcDbXrecord
340
0
  0
XRECORD
  5
5566
102
{ACAD_REACTORS
330
554E
102
}
330
554E
100
AcDbXrecord
 70
     0
  0
XRECORD
  5
555A
102
{ACAD_REACTORS
330
554E
102
}
330
554E
100
AcDbXrecord
  1
{7E3BA1A0-C946-42AC-9687-C73859AFC5A9}
  0
DICTIONARYVAR
  5
455D
102
{ACAD_REACTORS
330
455C
102
}
330
455C
100
DictionaryVariables
280
     0
  1
1:1
  0
DICTIONARYVAR
  5
459C
102
{ACAD_REACTORS
330
455C
102
}
330
455C
100
DictionaryVariables
280
     0
  1
Standard
  0
DICTIONARYVAR
  5
459B
102
{ACAD_REACTORS
330
455C
102
}
330
455C
100
DictionaryVariables
280
     0
  1
Standard
  0
DICTIONARYVAR
  5
556F
102
{ACAD_REACTORS
330
455C
102
}
330
455C
100
DictionaryVariables
280
     0
  1
1
  0
DICTIONARYVAR
  5
5570
102
{ACAD_REACTORS
330
455C
102
}
330
455C
100
DictionaryVariables
280
     0
  1
0
  0
DICTIONARYVAR
  5
459D
102
{ACAD_REACTORS
330
455C
102
}
330
455C
100
DictionaryVariables
280
     0
  1
0
  0
DICTIONARYVAR
  5
459E
102
{ACAD_REACTORS
330
455C
102
}
330
455C
100
DictionaryVariables
280
     0
  1
0
  0
DICTIONARY
  5
4B32
102
{ACAD_REACTORS
330
4B31
102
}
330
4B31
100
AcDbDictionary
  0
DICTIONARY
  5
4EE5
102
{ACAD_REACTORS
330
4EE4
102
}
330
4EE4
100
AcDbDictionary
  0
DICTIONARY
  5
4699
102
{ACAD_REACTORS
330
4698
102
}
330
4698
100
AcDbDictionary
  0
DICTIONARY
  5
472A
102
{ACAD_REACTORS
330
4729
102
}
330
4729
100
AcDbDictionary
  0
DICTIONARY
  5
4738
102
{ACAD_REACTORS
330
4737
102
}
330
4737
100
AcDbDictionary
  0
DICTIONARY
  5
4742
102
{ACAD_REACTORS
330
4741
102
}
330
4741
100
AcDbDictionary
  0
DICTIONARY
  5
474A
102
{ACAD_REACTORS
330
4749
102
}
330
4749
100
AcDbDictionary
  0
DICTIONARY
  5
475D
102
{ACAD_REACTORS
330
475C
102
}
330
475C
100
AcDbDictionary
  0
DICTIONARY
  5
4776
102
{ACAD_REACTORS
330
4775
102
}
330
4775
100
AcDbDictionary
  0
DICTIONARY
  5
4929
102
{ACAD_REACTORS
330
4928
102
}
330
4928
100
AcDbDictionary
  0
DICTIONARY
  5
495E
102
{ACAD_REACTORS
330
495D
102
}
330
495D
100
AcDbDictionary
  0
DICTIONARY
  5
4993
102
{ACAD_REACTORS
330
4992
102
}
330
4992
100
AcDbDictionary
  0
DICTIONARY
  5
49C8
102
{ACAD_REACTORS
330
49C7
102
}
330
49C7
100
AcDbDictionary
  0
DICTIONARY
  5
49FD
102
{ACAD_REACTORS
330
49FC
102
}
330
49FC
100
AcDbDictionary
  0
DICTIONARY
  5
4A32
102
{ACAD_REACTORS
330
4A31
102
}
330
4A31
100
AcDbDictionary
  0
DICTIONARY
  5
4A67
102
{ACAD_REACTORS
330
4A66
102
}
330
4A66
100
AcDbDictionary
  0
DICTIONARY
  5
51B3
102
{ACAD_REACTORS
330
51B2
102
}
330
51B2
100
AcDbDictionary
  0
DICTIONARY
  5
453D
102
{ACAD_REACTORS
330
453C
102
}
330
453C
100
AcDbDictionary
  0
DICTIONARY
  5
4B99
102
{ACAD_REACTORS
330
4B98
102
}
330
4B98
100
AcDbDictionary
  0
DICTIONARY
  5
4821
102
{ACAD_REACTORS
330
4820
102
}
330
4820
100
AcDbDictionary
  0
DICTIONARY
  5
4825
102
{ACAD_REACTORS
330
4824
102
}
330
4824
100
AcDbDictionary
  0
DICTIONARY
  5
4DF8
102
{ACAD_REACTORS
330
4DF7
102
}
330
4DF7
100
AcDbDictionary
  0
DICTIONARY
  5
54AF
102
{ACAD_REACTORS
330
54AE
102
}
330
54AE
100
AcDbDictionary
  0
DICTIONARY
  5
54B3
102
{ACAD_REACTORS
330
54B2
102
}
330
54B2
100
AcDbDictionary
  0
DICTIONARY
  5
5578
330
4533
100
AcDbDictionary
280
     1
  3
ACAD_XREC_ROUNDTRIP
360
5579
  0
DICTIONARY
  5
5576
330
4532
100
AcDbDictionary
280
     1
  3
ACAD_XREC_ROUNDTRIP
360
5577
  0
DICTIONARY
  5
557A
330
4534
100
AcDbDictionary
280
     1
  3
ACAD_XREC_ROUNDTRIP
360
557B
  0
XRECORD
  5
5579
102
{ACAD_REACTORS
330
5578
102
}
330
5578
100
AcDbXrecord
102
MATERIAL
148
0.0
149
0.0
149
0.0
 93
        0
 94
      127
282
     0
 72
     1
 77
     1
171
     1
175
     1
179
     1
273
     0
  0
XRECORD
  5
5577
102
{ACAD_REACTORS
330
5576
102
}
330
5576
100
AcDbXrecord
102
MATERIAL
148
0.0
149
0.0
149
0.0
 93
        0
 94
      127
282
     0
 72
     1
 77
     1
171
     1
175
     1
179
     1
273
     0
  0
XRECORD
  5
557B
102
{ACAD_REACTORS
330
557A
102
}
330
557A
100
AcDbXrecord
102
MATERIAL
148
0.0
149
0.0
149
0.0
 93
        0
 94
      127
282
     0
 72
     1
 77
     1
171
     1
175
     1
179
     1
273
     0
  0
ENDSEC
  0
EOF
