  0
SECTION
  2
HEADER
  9
$ACADVER
  1
AC1014
  9
$ACADMAINTVER
 70
     9
  9
$DWGCODEPAGE
  3
ANSI_932
  9
$INSBASE
 10
0.0
 20
0.0
 30
0.0
  9
$EXTMIN
 10
40.479963963507
 20
233.667301230806
 30
0.0
  9
$EXTMAX
 10
542.087163678091
 20
592.286222938774
 30
0.0
  9
$LIMMIN
 10
-360.747566795242
 20
4.457354754526
  9
$LIMMAX
 10
-162.153696144267
 20
287.675440264018
  9
$ORTHOMODE
 70
     0
  9
$REGENMODE
 70
     1
  9
$FILLMODE
 70
     1
  9
$QTEXTMODE
 70
     0
  9
$MIRRTEXT
 70
     1
  9
$DRAGMODE
 70
     2
  9
$LTSCALE
 40
1.0
  9
$OSMODE
 70
   935
  9
$ATTMODE
 70
     1
  9
$TEXTSIZE
 40
2.333873885063
  9
$TRACEWID
 40
1.0
  9
$TEXTSTYLE
  7
STANDARD
  9
$CLAYER
  8
外形線
  9
$CELTYPE
  6
BYLAYER
  9
$CECOLOR
 62
   256
  9
$CELTSCALE
 40
10.0
  9
$DELOBJ
 70
     1
  9
$DISPSILH
 70
     0
  9
$DIMSCALE
 40
1.0
  9
$DIMASZ
 40
6.0
  9
$DIMEXO
 40
0.625
  9
$DIMDLI
 40
3.75
  9
$DIMRND
 40
0.0
  9
$DIMDLE
 40
0.0
  9
$DIMEXE
 40
1.25
  9
$DIMTP
 40
0.1
  9
$DIMTM
 40
0.1
  9
$DIMTXT
 40
5.0
  9
$DIMCEN
 40
2.5
  9
$DIMTSZ
 40
0.0
  9
$DIMTOL
 70
     0
  9
$DIMLIM
 70
     0
  9
$DIMTIH
 70
     0
  9
$DIMTOH
 70
     0
  9
$DIMSE1
 70
     0
  9
$DIMSE2
 70
     0
  9
$DIMTAD
 70
     1
  9
$DIMZIN
 70
     8
  9
$DIMBLK
  1
OPEN30
  9
$DIMASO
 70
     1
  9
$DIMSHO
 70
     1
  9
$DIMPOST
  1

  9
$DIMAPOST
  1

  9
$DIMALT
 70
     0
  9
$DIMALTD
 70
     2
  9
$DIMALTF
 40
0.0394
  9
$DIMLFAC
 40
1.0
  9
$DIMTOFL
 70
     1
  9
$DIMTVP
 40
1.0
  9
$DIMTIX
 70
     0
  9
$DIMSOXD
 70
     0
  9
$DIMSAH
 70
     0
  9
$DIMBLK1
  1

  9
$DIMBLK2
  1

  9
$DIMSTYLE
  2
ISO-25
  9
$DIMCLRD
 70
     0
  9
$DIMCLRE
 70
     0
  9
$DIMCLRT
 70
     0
  9
$DIMTFAC
 40
1.0
  9
$DIMGAP
 40
0.625
  9
$DIMJUST
 70
     0
  9
$DIMSD1
 70
     0
  9
$DIMSD2
 70
     0
  9
$DIMTOLJ
 70
     1
  9
$DIMTZIN
 70
     0
  9
$DIMALTZ
 70
     0
  9
$DIMALTTZ
 70
     0
  9
$DIMFIT
 70
     3
  9
$DIMUPT
 70
     0
  9
$DIMUNIT
 70
     2
  9
$DIMDEC
 70
     1
  9
$DIMTDEC
 70
     1
  9
$DIMALTU
 70
     2
  9
$DIMALTTD
 70
     2
  9
$DIMTXSTY
  7
STANDARD
  9
$DIMAUNIT
 70
     0
  9
$LUNITS
 70
     2
  9
$LUPREC
 70
     4
  9
$SKETCHINC
 40
1.0
  9
$FILLETRAD
 40
6.5
  9
$AUNITS
 70
     0
  9
$AUPREC
 70
     0
  9
$MENU
  1
.
  9
$ELEVATION
 40
0.0
  9
$PELEVATION
 40
0.0
  9
$THICKNESS
 40
0.0
  9
$LIMCHECK
 70
     0
  9
$CHAMFERA
 40
10.0
  9
$CHAMFERB
 40
10.0
  9
$CHAMFERC
 40
20.0
  9
$CHAMFERD
 40
0.0
  9
$SKPOLY
 70
     0
  9
$TDCREATE
 40
2450576.597302431
  9
$TDUPDATE
 40
2457269.373387199
  9
$TDINDWG
 40
1.2635915394
  9
$TDUSRTIMER
 40
1.2635915394
  9
$USRTIMER
 70
     1
  9
$ANGBASE
 50
0.0
  9
$ANGDIR
 70
     0
  9
$PDMODE
 70
     0
  9
$PDSIZE
 40
0.0
  9
$PLINEWID
 40
0.0
  9
$COORDS
 70
     0
  9
$SPLFRAME
 70
     0
  9
$SPLINETYPE
 70
     6
  9
$SPLINESEGS
 70
     8
  9
$ATTDIA
 70
     0
  9
$ATTREQ
 70
     1
  9
$HANDLING
 70
     1
  9
$HANDSEED
  5
4C33
  9
$SURFTAB1
 70
     6
  9
$SURFTAB2
 70
     6
  9
$SURFTYPE
 70
     6
  9
$SURFU
 70
     6
  9
$SURFV
 70
     6
  9
$UCSNAME
  2

  9
$UCSORG
 10
0.0
 20
0.0
 30
0.0
  9
$UCSXDIR
 10
1.0
 20
0.0
 30
0.0
  9
$UCSYDIR
 10
0.0
 20
1.0
 30
0.0
  9
$PUCSNAME
  2

  9
$PUCSORG
 10
0.0
 20
0.0
 30
0.0
  9
$PUCSXDIR
 10
1.0
 20
0.0
 30
0.0
  9
$PUCSYDIR
 10
0.0
 20
1.0
 30
0.0
  9
$USERI1
 70
     0
  9
$USERI2
 70
     0
  9
$USERI3
 70
     0
  9
$USERI4
 70
     0
  9
$USERI5
 70
     0
  9
$USERR1
 40
0.0
  9
$USERR2
 40
0.0
  9
$USERR3
 40
0.0
  9
$USERR4
 40
0.0
  9
$USERR5
 40
0.0
  9
$WORLDVIEW
 70
     1
  9
$SHADEDGE
 70
     3
  9
$SHADEDIF
 70
    70
  9
$TILEMODE
 70
     0
  9
$MAXACTVP
 70
    16
  9
$PINSBASE
 10
0.0
 20
0.0
 30
0.0
  9
$PLIMCHECK
 70
     0
  9
$PEXTMIN
 10
4.746305129083
 20
1.396645458131
 30
0.0
  9
$PEXTMAX
 10
404.746305129083
 20
281.396645458131
 30
0.0
  9
$PLIMMIN
 10
-6.946593322754
 20
-6.94658241272
  9
$PLIMMAX
 10
417.718108215332
 20
293.315276107788
  9
$UNITMODE
 70
     0
  9
$VISRETAIN
 70
     0
  9
$PLINEGEN
 70
     0
  9
$PSLTSCALE
 70
     1
  9
$TREEDEPTH
 70
  3020
  9
$PICKSTYLE
 70
     1
  9
$CMLSTYLE
  2
STANDARD
  9
$CMLJUST
 70
     0
  9
$CMLSCALE
 40
1.0
  9
$PROXYGRAPHICS
 70
     1
  9
$MEASUREMENT
 70
     1
  0
ENDSEC
  0
SECTION
  2
CLASSES
  0
CLASS
  1
ACDBDICTIONARYWDFLT
  2
AcDbDictionaryWithDefault
  3
ObjectDBX Classes
 90
        0
280
     0
281
     0
  0
CLASS
  1
ACDBPLACEHOLDER
  2
AcDbPlaceHolder
  3
ObjectDBX Classes
 90
        0
280
     0
281
     0
  0
CLASS
  1
LAYOUT
  2
AcDbLayout
  3
ObjectDBX Classes
 90
        0
280
     0
281
     0
  0
CLASS
  1
VISUALSTYLE
  2
AcDbVisualStyle
  3
ObjectDBX Classes
 90
     4095
280
     0
281
     0
  0
CLASS
  1
SCALE
  2
AcDbScale
  3
ObjectDBX Classes
 90
     1153
280
     0
281
     0
  0
CLASS
  1
MATERIAL
  2
AcDbMaterial
  3
ObjectDBX Classes
 90
     1153
280
     0
281
     0
  0
CLASS
  1
TABLESTYLE
  2
AcDbTableStyle
  3
ObjectDBX Classes
 90
     4095
280
     0
281
     0
  0
CLASS
  1
MLEADERSTYLE
  2
AcDbMLeaderStyle
  3
ACDB_MLEADERSTYLE_CLASS
 90
     4095
280
     0
281
     0
  0
CLASS
  1
SUN
  2
AcDbSun
  3
SCENEOE
 90
     1153
280
     0
281
     0
  0
CLASS
  1
DICTIONARYVAR
  2
AcDbDictionaryVar
  3
ObjectDBX Classes
 90
        0
280
     0
281
     0
  0
CLASS
  1
CELLSTYLEMAP
  2
AcDbCellStyleMap
  3
ObjectDBX Classes
 90
     1152
280
     0
281
     0
  0
CLASS
  1
XRECORD
  2
AcDbXrecord
  3
ObjectDBX Classes
 90
        0
280
     0
281
     0
  0
CLASS
  1
LWPOLYLINE
  2
AcDbPolyline
  3
ObjectDBX Classes
 90
        0
280
     0
281
     1
  0
CLASS
  1
HATCH
  2
AcDbHatch
  3
ObjectDBX Classes
 90
        0
280
     0
281
     1
  0
ENDSEC
  0
SECTION
  2
TABLES
  0
TABLE
  2
VPORT
  5
8
102
{ACAD_XDICTIONARY
360
4C2B
102
}
330
0
100
AcDbSymbolTable
 70
     1
  0
VPORT
  5
4342
330
8
100
AcDbSymbolTableRecord
100
AcDbViewportTableRecord
  2
*ACTIVE
 70
     0
 10
0.0
 20
0.0
 11
1.0
 21
1.0
 12
291.283563820799
 22
412.97676208479
 13
0.0
 23
0.0
 14
1.0
 24
1.0
 15
0.0
 25
0.0
 16
0.0
 26
0.0
 36
1.0
 17
0.0
 27
0.0
 37
0.0
 40
365.791300142127
 41
1.839224629418
 42
50.0
 43
0.0
 44
0.0
 50
0.0
 51
0.0
 71
    16
 72
   100
 73
     1
 74
     0
 75
     0
 76
     0
 77
     0
 78
     0
  0
ENDTAB
  0
TABLE
  2
LTYPE
  5
5
330
0
100
AcDbSymbolTable
 70
     4
  0
LTYPE
  5
14
330
5
100
AcDbSymbolTableRecord
100
AcDbLinetypeTableRecord
  2
BYBLOCK
 70
     0
  3

 72
    65
 73
     0
 40
0.0
  0
LTYPE
  5
15
330
5
100
AcDbSymbolTableRecord
100
AcDbLinetypeTableRecord
  2
BYLAYER
 70
     0
  3

 72
    65
 73
     0
 40
0.0
  0
LTYPE
  5
16
330
5
100
AcDbSymbolTableRecord
100
AcDbLinetypeTableRecord
  2
CONTINUOUS
 70
     0
  3
Solid line
 72
    65
 73
     0
 40
0.0
  0
LTYPE
  5
1EC
330
5
100
AcDbSymbolTableRecord
100
AcDbLinetypeTableRecord
  2
CENTER
 70
     0
  3
____ _ ____ _ ____ _ ____ _ ____ _ ____ _ ____ 
 72
    65
 73
     4
 40
2.0
 49
1.25
 74
     0
 49
-0.25
 74
     0
 49
0.25
 74
     0
 49
-0.25
 74
     0
  0
LTYPE
  5
1ED
330
5
100
AcDbSymbolTableRecord
100
AcDbLinetypeTableRecord
  2
DASHED
 70
     0
  3
__ __ __ __ __ __ __ __ __ __ __ __ __ __ __ __
 72
    65
 73
     2
 40
0.75
 49
0.5
 74
     0
 49
-0.25
 74
     0
  0
LTYPE
  5
2B1F
330
5
100
AcDbSymbolTableRecord
100
AcDbLinetypeTableRecord
  2
DASHDOT
 70
     0
  3
一点鎖線
 72
    65
 73
     4
 40
25.6
 49
20.0
 74
     0
 49
-2.0
 74
     0
 49
1.6
 74
     0
 49
-2.0
 74
     0
  0
ENDTAB
  0
TABLE
  2
LAYER
  5
2
102
{ACAD_XDICTIONARY
360
29EA
102
}
330
0
100
AcDbSymbolTable
 70
    16
  0
LAYER
  5
F
330
2
100
AcDbSymbolTableRecord
100
AcDbLayerTableRecord
  2
0
 70
     0
 62
     7
  6
CONTINUOUS
  0
LAYER
  5
61
330
2
100
AcDbSymbolTableRecord
100
AcDbLayerTableRecord
  2
図枠太線
 70
     0
 62
   251
  6
CONTINUOUS
  0
LAYER
  5
62
330
2
100
AcDbSymbolTableRecord
100
AcDbLayerTableRecord
  2
図枠細線
 70
     0
 62
   252
  6
CONTINUOUS
  0
LAYER
  5
63
330
2
100
AcDbSymbolTableRecord
100
AcDbLayerTableRecord
  2
図枠ロゴマーク
 70
     0
 62
   253
  6
CONTINUOUS
  0
LAYER
  5
1EF
330
2
100
AcDbSymbolTableRecord
100
AcDbLayerTableRecord
  2
外形線
 70
     0
 62
     7
  6
CONTINUOUS
  0
LAYER
  5
1F0
330
2
100
AcDbSymbolTableRecord
100
AcDbLayerTableRecord
  2
寸法線
 70
     0
 62
     1
  6
CONTINUOUS
  0
LAYER
  5
1F1
330
2
100
AcDbSymbolTableRecord
100
AcDbLayerTableRecord
  2
中心線
 70
     0
 62
     4
  6
CENTER
  0
LAYER
  5
1F4
330
2
100
AcDbSymbolTableRecord
100
AcDbLayerTableRecord
  2
DEFPOINTS
 70
     0
 62
     7
  6
CONTINUOUS
  0
LAYER
  5
2AA2
330
2
100
AcDbSymbolTableRecord
100
AcDbLayerTableRecord
  2
下書線
 70
     0
 62
     2
  6
CONTINUOUS
  0
LAYER
  5
2AA3
330
2
100
AcDbSymbolTableRecord
100
AcDbLayerTableRecord
  2
隠れ線
 70
     0
 62
     3
  6
DASHED
  0
LAYER
  5
2AA4
330
2
100
AcDbSymbolTableRecord
100
AcDbLayerTableRecord
  2
細線
 70
     0
 62
     6
  6
CONTINUOUS
  0
LAYER
  5
2AA5
330
2
100
AcDbSymbolTableRecord
100
AcDbLayerTableRecord
  2
太線
 70
     0
 62
   190
  6
CONTINUOUS
  0
LAYER
  5
2B20
330
2
100
AcDbSymbolTableRecord
100
AcDbLayerTableRecord
  2
LAY-1
 70
     0
 62
     7
  6
CONTINUOUS
  0
LAYER
  5
2B21
330
2
100
AcDbSymbolTableRecord
100
AcDbLayerTableRecord
  2
LAY-2
 70
     0
 62
     7
  6
CONTINUOUS
  0
LAYER
  5
2B22
330
2
100
AcDbSymbolTableRecord
100
AcDbLayerTableRecord
  2
LAY-5
 70
     0
 62
     7
  6
CONTINUOUS
  0
LAYER
  5
2B23
330
2
100
AcDbSymbolTableRecord
100
AcDbLayerTableRecord
  2
LAY-6
 70
     0
 62
     7
  6
CONTINUOUS
  0
ENDTAB
  0
TABLE
  2
STYLE
  5
3
330
0
100
AcDbSymbolTable
 70
     2
  0
STYLE
  5
10
330
3
100
AcDbSymbolTableRecord
100
AcDbTextStyleTableRecord
  2
STANDARD
 70
     0
 40
0.0
 41
1.0
 50
0.0
 71
     0
 42
2.333873885063
  3
ISOCP
  4
bigfont.shx
  0
STYLE
  5
64
330
3
100
AcDbSymbolTableRecord
100
AcDbTextStyleTableRecord
  2
EXCADSTD
 70
     0
 40
0.0
 41
1.0
 50
0.0
 71
     0
 42
0.2
  3
monotxt
  4
bigfont
  0
ENDTAB
  0
TABLE
  2
VIEW
  5
6
330
0
100
AcDbSymbolTable
 70
     0
  0
ENDTAB
  0
TABLE
  2
UCS
  5
7
330
0
100
AcDbSymbolTable
 70
     0
  0
ENDTAB
  0
TABLE
  2
APPID
  5
9
330
0
100
AcDbSymbolTable
 70
     3
  0
APPID
  5
11
330
9
100
AcDbSymbolTableRecord
100
AcDbRegAppTableRecord
  2
ACAD
 70
     0
  0
APPID
  5
43A4
330
9
100
AcDbSymbolTableRecord
100
AcDbRegAppTableRecord
  2
ACADANNOTATIVE
 70
     0
  0
APPID
  5
44B6
330
9
100
AcDbSymbolTableRecord
100
AcDbRegAppTableRecord
  2
ACAD_MLEADERVER
 70
     0
  0
ENDTAB
  0
TABLE
  2
DIMSTYLE
  5
A
330
0
100
AcDbSymbolTable
 70
     2
  0
DIMSTYLE
105
1D
330
A
100
AcDbSymbolTableRecord
100
AcDbDimStyleTableRecord
  2
STANDARD
 70
     0
  3

  4

  5

  6

  7

 40
1.0
 41
0.18
 42
0.0625
 43
0.38
 44
0.18
 45
0.0
 46
0.0
 47
0.0
 48
0.0
140
0.18
141
0.09
142
0.0
143
25.4
144
1.0
145
0.0
146
1.0
147
0.09
 71
     0
 72
     0
 73
     1
 74
     1
 75
     0
 76
     0
 77
     0
 78
     0
170
     0
171
     2
172
     0
173
     0
174
     0
175
     0
176
     0
177
     0
178
     0
270
     2
271
     4
272
     4
273
     2
274
     2
340
10
275
     0
280
     0
281
     0
282
     0
283
     1
284
     0
285
     0
286
     0
287
     3
288
     0
  0
DIMSTYLE
105
24
102
{ACAD_REACTORS
330
3002
330
300F
330
30D2
330
3F66
102
}
330
A
100
AcDbSymbolTableRecord
100
AcDbDimStyleTableRecord
  2
ISO-25
 70
     0
  3

  4

  5

  6

  7

 40
1.0
 41
2.5
 42
0.625
 43
3.75
 44
1.25
 45
0.0
 46
0.0
 47
0.0
 48
0.0
140
2.5
141
2.5
142
0.0
143
0.0394
144
1.0
145
1.0
146
1.0
147
0.625
 71
     0
 72
     0
 73
     1
 74
     0
 75
     0
 76
     0
 77
     1
 78
     8
170
     0
171
     2
172
     1
173
     0
174
     0
175
     0
176
     0
177
     0
178
     0
270
     2
271
     4
272
     4
273
     2
274
     2
340
10
275
     0
280
     0
281
     0
282
     0
283
     1
284
     0
285
     0
286
     0
287
     3
288
     0
  0
ENDTAB
  0
TABLE
  2
BLOCK_RECORD
  5
1
330
0
100
AcDbSymbolTable
 70
    11
  0
BLOCK_RECORD
  5
1A
330
1
100
AcDbSymbolTableRecord
100
AcDbBlockTableRecord
  2
*MODEL_SPACE
  0
BLOCK_RECORD
  5
28FB
330
1
100
AcDbSymbolTableRecord
100
AcDbBlockTableRecord
  2
*PAPER_SPACE
  0
BLOCK_RECORD
  5
65
330
1
100
AcDbSymbolTableRecord
100
AcDbBlockTableRecord
  2
A$C3392
  0
BLOCK_RECORD
  5
29BF
330
1
100
AcDbSymbolTableRecord
100
AcDbBlockTableRecord
  2
A4横用_タイトル
1001
ACAD
1000
DesignCenter Data
1002
{
1070
     1
1070
     4
1002
}
  0
BLOCK_RECORD
  5
29F4
330
1
100
AcDbSymbolTableRecord
100
AcDbBlockTableRecord
  2
A4縦用_タイトル
1001
ACAD
1000
DesignCenter Data
1002
{
1070
     1
1070
     4
1002
}
  0
BLOCK_RECORD
  5
2A32
330
1
100
AcDbSymbolTableRecord
100
AcDbBlockTableRecord
  2
A3横用_タイトル
1001
ACAD
1000
DesignCenter Data
1002
{
1070
     1
1070
     4
1002
}
  0
BLOCK_RECORD
  5
2A6C
330
1
100
AcDbSymbolTableRecord
100
AcDbBlockTableRecord
  2
A3縦用_タイトル
1001
ACAD
1000
DesignCenter Data
1002
{
1070
     1
1070
     4
1002
}
  0
BLOCK_RECORD
  5
2AF4
330
1
100
AcDbSymbolTableRecord
100
AcDbBlockTableRecord
  2
_OPEN30
  0
BLOCK_RECORD
  5
3003
330
1
100
AcDbSymbolTableRecord
100
AcDbBlockTableRecord
  2
*D6
  0
BLOCK_RECORD
  5
3010
330
1
100
AcDbSymbolTableRecord
100
AcDbBlockTableRecord
  2
*D7
  0
BLOCK_RECORD
  5
30D3
330
1
100
AcDbSymbolTableRecord
100
AcDbBlockTableRecord
  2
*D8
  0
BLOCK_RECORD
  5
3EB1
330
1
100
AcDbSymbolTableRecord
100
AcDbBlockTableRecord
  2
A$C753C1317
  0
BLOCK_RECORD
  5
3F67
330
1
100
AcDbSymbolTableRecord
100
AcDbBlockTableRecord
  2
*D10
  0
ENDTAB
  0
ENDSEC
  0
SECTION
  2
BLOCKS
  0
BLOCK
  5
1B
330
1A
100
AcDbEntity
  8
0
100
AcDbBlockBegin
  2
*MODEL_SPACE
 70
     0
 10
0.0
 20
0.0
 30
0.0
  3
*MODEL_SPACE
  1

  0
ENDBLK
  5
1C
330
1A
100
AcDbEntity
  8
0
100
AcDbBlockEnd
  0
BLOCK
  5
28FD
330
28FB
100
AcDbEntity
 67
     1
  8
0
 48
10.0
100
AcDbBlockBegin
  2
*PAPER_SPACE
 70
     0
 10
0.0
 20
0.0
 30
0.0
  3
*PAPER_SPACE
  1

  0
ENDBLK
  5
28FE
330
28FB
100
AcDbEntity
 67
     1
  8
0
 48
10.0
100
AcDbBlockEnd
  0
BLOCK
  5
93
330
65
100
AcDbEntity
  8
0
100
AcDbBlockBegin
  2
A$C3392
 70
     0
 10
0.0
 20
0.0
 30
0.0
  3
A$C3392
  1

  0
LINE
  5
66
330
65
100
AcDbEntity
  8
図枠太線
  6
CONTINUOUS
100
AcDbLine
 10
211.858584505185
 20
30.927375675439
 30
0.0
 11
211.858584505185
 21
0.927375675439
 31
0.0
  0
LINE
  5
67
330
65
100
AcDbEntity
  8
図枠細線
  6
CONTINUOUS
100
AcDbLine
 10
231.858592505185
 20
15.927377675439
 30
0.0
 11
287.858592505185
 21
15.927375675439
 31
0.0
  0
LINE
  5
68
330
65
100
AcDbEntity
  8
図枠細線
  6
CONTINUOUS
100
AcDbLine
 10
211.858592505185
 20
15.927377675439
 30
0.0
 11
231.858592505185
 21
15.927377675439
 31
0.0
  0
LINE
  5
69
330
65
100
AcDbEntity
  8
図枠太線
  6
CONTINUOUS
 62
   251
100
AcDbLine
 10
1.858584505185
 20
0.927375675439
 30
0.0
 11
1.858584505185
 21
275.927375675439
 31
0.0
  0
TEXT
  5
6A
330
65
100
AcDbEntity
  8
図枠細線
  6
CONTINUOUS
 62
   252
100
AcDbText
 10
351.358592505185
 20
28.427377675439
 30
0.0
 40
2.0
  1
ＴＩＴＬＥ
 41
0.903614457831
  7
EXCADSTD
 72
     5
 11
361.358592505185
 21
28.427377675439
 31
0.0
100
AcDbText
  0
TEXT
  5
6B
330
65
100
AcDbEntity
  8
図枠細線
  6
CONTINUOUS
 62
   252
100
AcDbText
 10
345.358592505185
 20
28.427377675439
 30
0.0
 40
2.0
  1
名称
 41
1.171875
  7
EXCADSTD
 72
     5
 11
350.358592505185
 21
28.427377675439
 31
0.0
100
AcDbText
  0
TEXT
  5
6C
330
65
100
AcDbEntity
  8
図枠細線
  6
CONTINUOUS
 62
   252
100
AcDbText
 10
274.358592505185
 20
25.927377675439
 30
0.0
 40
2.0
  1
ＤＲＡＷＮ
 41
0.882352941176
  7
EXCADSTD
 72
     5
 11
284.358592505185
 21
25.927377675439
 31
0.0
100
AcDbText
  0
TEXT
  5
6D
330
65
100
AcDbEntity
  8
図枠細線
  6
CONTINUOUS
 62
   252
100
AcDbText
 10
260.358592505185
 20
25.927377675439
 30
0.0
 40
2.0
  1
ＤＥＳＩＧＮＥＤ
 41
0.713043472041
  7
EXCADSTD
 72
     5
 11
273.478592390744
 21
25.927377675439
 31
0.0
100
AcDbText
  0
TEXT
  5
6E
330
65
100
AcDbEntity
  8
図枠細線
  6
CONTINUOUS
 62
   252
100
AcDbText
 10
246.358592505185
 20
25.927377675439
 30
0.0
 40
2.0
  1
ＣＨＥＣＫＥＤ
 41
0.831249989569
  7
EXCADSTD
 72
     5
 11
259.658592338292
 21
25.927377675439
 31
0.0
100
AcDbText
  0
TEXT
  5
6F
330
65
100
AcDbEntity
  8
図枠細線
  6
CONTINUOUS
 62
   252
100
AcDbText
 10
274.358592505185
 20
28.427377675439
 30
0.0
 40
2.0
  1
製図
 41
1.209677419355
  7
EXCADSTD
 72
     5
 11
279.358592505185
 21
28.427377675439
 31
0.0
100
AcDbText
  0
TEXT
  5
70
330
65
100
AcDbEntity
  8
図枠細線
  6
CONTINUOUS
 62
   252
100
AcDbText
 10
260.358592505185
 20
28.427377675439
 30
0.0
 40
2.0
  1
設計
 41
1.171875
  7
EXCADSTD
 72
     5
 11
265.358592505185
 21
28.427377675439
 31
0.0
100
AcDbText
  0
TEXT
  5
71
330
65
100
AcDbEntity
  8
図枠細線
  6
CONTINUOUS
 62
   252
100
AcDbText
 10
246.358592505185
 20
28.427377675439
 30
0.0
 40
2.0
  1
検図
 41
1.209677419355
  7
EXCADSTD
 72
     5
 11
251.358592505185
 21
28.427377675439
 31
0.0
100
AcDbText
  0
TEXT
  5
72
330
65
100
AcDbEntity
  8
図枠細線
  6
CONTINUOUS
 62
   252
100
AcDbText
 10
232.358592505185
 20
25.927377675439
 30
0.0
 40
2.0
  1
ＡＰＰＲＯＶＥＤ
 41
0.695652184279
  7
EXCADSTD
 72
     5
 11
245.15859269592
 21
25.927377675439
 31
0.0
100
AcDbText
  0
TEXT
  5
73
330
65
100
AcDbEntity
  8
図枠細線
  6
CONTINUOUS
 62
   252
100
AcDbText
 10
232.358592505185
 20
28.427377675439
 30
0.0
 40
2.0
  1
承認
 41
1.171875
  7
EXCADSTD
 72
     5
 11
237.358592505185
 21
28.427377675439
 31
0.0
100
AcDbText
  0
TEXT
  5
74
330
65
100
AcDbEntity
  8
図枠細線
  6
CONTINUOUS
 62
   252
100
AcDbText
 10
290.069888505185
 20
2.574868675439
 30
0.0
 40
3.5
  1
ＴＯＷＡ　ＳＥＩＤＥＮ　ＩＮＤＵＳＴＲＩＡＬ　ＣＯ．，ＬＴＤ．
 41
0.414568012377
  7
EXCADSTD
 72
     5
 11
342.692388209546
 21
2.574868675439
 31
0.0
100
AcDbText
  0
TEXT
  5
75
330
65
100
AcDbEntity
  8
図枠ロゴマーク
  6
CONTINUOUS
 62
   253
100
AcDbText
 10
290.107348505185
 20
7.519769675439
 30
0.0
 40
7.0
  1
東和制電工業株式会社
 41
0.639204545455
  7
EXCADSTD
 72
     5
 11
342.607348505185
 21
7.519769675439
 31
0.0
100
AcDbText
  0
TEXT
  5
76
330
65
100
AcDbEntity
  8
図枠細線
  6
CONTINUOUS
 62
   252
100
AcDbText
 10
232.499705505185
 20
5.759088675439
 30
0.0
 40
2.0
  1
ＰＲＯＪＥＣＴＩＯＮ
 41
0.754285710199
  7
EXCADSTD
 72
     5
 11
250.099705409817
 21
5.759088675439
 31
0.0
100
AcDbText
  0
TEXT
  5
77
330
65
100
AcDbEntity
  8
図枠細線
  6
CONTINUOUS
 62
   252
100
AcDbText
 10
232.574629505185
 20
8.681077675439
 30
0.0
 40
2.0
  1
ＴＨＩＲＤ　ＡＮＧＬＥ
 41
0.691099486738
  7
EXCADSTD
 72
     5
 11
250.174629767445
 21
8.681077675439
 31
0.0
100
AcDbText
  0
TEXT
  5
78
330
65
100
AcDbEntity
  8
図枠細線
  6
CONTINUOUS
 62
   252
100
AcDbText
 10
256.823999505185
 20
13.427377675439
 30
0.0
 40
2.0
  1
ＳＣＡＬＥ
 41
0.903614457831
  7
EXCADSTD
 72
     5
 11
266.823999505185
 21
13.427377675439
 31
0.0
100
AcDbText
  0
TEXT
  5
79
330
65
100
AcDbEntity
  8
図枠細線
  6
CONTINUOUS
 62
   252
100
AcDbText
 10
274.858592505185
 20
13.427377675439
 30
0.0
 40
2.0
  1
ＤＡＴＥ
 41
0.923076923077
  7
EXCADSTD
 72
     5
 11
282.858592505185
 21
13.427377675439
 31
0.0
100
AcDbText
  0
TEXT
  5
7A
330
65
100
AcDbEntity
  8
図枠細線
  6
CONTINUOUS
 62
   252
100
AcDbText
 10
356.358592505185
 20
13.427377675439
 30
0.0
 40
2.0
  1
ＤＲＧ．ＮＯ．
 41
0.9375
  7
EXCADSTD
 72
     5
 11
370.358592505185
 21
13.427377675439
 31
0.0
100
AcDbText
  0
TEXT
  5
7B
330
65
100
AcDbEntity
  8
図枠細線
  6
CONTINUOUS
 62
   252
100
AcDbText
 10
345.358592505185
 20
13.427377675439
 30
0.0
 40
2.0
  1
図面番号
 41
1.102941176471
  7
EXCADSTD
 72
     5
 11
355.358592505185
 21
13.427377675439
 31
0.0
100
AcDbText
  0
TEXT
  5
7C
330
65
100
AcDbEntity
  8
図枠細線
  6
CONTINUOUS
 62
   252
100
AcDbText
 10
269.358592505185
 20
13.427377675439
 30
0.0
 40
2.0
  1
日付
 41
1.171875
  7
EXCADSTD
 72
     5
 11
274.358592505185
 21
13.427377675439
 31
0.0
100
AcDbText
  0
TEXT
  5
7D
330
65
100
AcDbEntity
  8
図枠細線
  6
CONTINUOUS
 62
   252
100
AcDbText
 10
251.451512505185
 20
13.427377675439
 30
0.0
 40
2.0
  1
尺度
 41
1.171875
  7
EXCADSTD
 72
     5
 11
256.451512505185
 21
13.427377675439
 31
0.0
100
AcDbText
  0
TEXT
  5
7E
330
65
100
AcDbEntity
  8
図枠細線
  6
CONTINUOUS
 62
   252
100
AcDbText
 10
232.358592505185
 20
13.427377675439
 30
0.0
 40
2.0
  1
第三角法
 41
1.102941176471
  7
EXCADSTD
 72
     5
 11
242.358592505185
 21
13.427377675439
 31
0.0
100
AcDbText
  0
TEXT
  5
7F
330
65
100
AcDbEntity
  8
図枠細線
  6
CONTINUOUS
 62
   252
100
AcDbText
 10
212.358592505185
 20
28.427377675439
 30
0.0
 40
2.0
  1
ＮＯＴＥ
 41
0.923076923077
  7
EXCADSTD
 72
     5
 11
220.358592505185
 21
28.427377675439
 31
0.0
100
AcDbText
  0
LINE
  5
80
330
65
100
AcDbEntity
  8
図枠細線
  6
CONTINUOUS
 62
   252
100
AcDbLine
 10
287.858592505185
 20
23.427375675439
 30
0.0
 11
344.858592505185
 21
23.427375675439
 31
0.0
  0
LINE
  5
81
330
65
100
AcDbEntity
  8
図枠太線
  6
CONTINUOUS
 62
   251
100
AcDbLine
 10
287.858584505185
 20
15.927375675439
 30
0.0
 11
344.858592505185
 21
15.927375675439
 31
0.0
  0
LINE
  5
82
330
65
100
AcDbEntity
  8
図枠細線
  6
CONTINUOUS
 62
   252
100
AcDbLine
 10
344.858592505185
 20
15.927375675439
 30
0.0
 11
401.858584505185
 21
15.927375675439
 31
0.0
  0
LINE
  5
83
330
65
100
AcDbEntity
  8
図枠太線
  6
CONTINUOUS
 62
   251
100
AcDbLine
 10
344.858592505185
 20
0.927377675439
 30
0.0
 11
344.858592505185
 21
30.927375675439
 31
0.0
  0
LINE
  5
84
330
65
100
AcDbEntity
  8
図枠太線
  6
CONTINUOUS
 62
   251
100
AcDbLine
 10
287.858592505185
 20
0.927377675439
 30
0.0
 11
287.858592505185
 21
30.927375675439
 31
0.0
  0
LINE
  5
85
330
65
100
AcDbEntity
  8
図枠細線
  6
CONTINUOUS
 62
   252
100
AcDbLine
 10
268.858592505185
 20
0.927377675439
 30
0.0
 11
268.858592505185
 21
15.927375675439
 31
0.0
  0
LINE
  5
86
330
65
100
AcDbEntity
  8
図枠細線
  6
CONTINUOUS
 62
   252
100
AcDbLine
 10
250.858592505185
 20
0.927377675439
 30
0.0
 11
250.858592505185
 21
15.927375675439
 31
0.0
  0
LINE
  5
87
330
65
100
AcDbEntity
  8
図枠細線
  6
CONTINUOUS
 62
   252
100
AcDbLine
 10
273.858592505185
 20
30.927375675439
 30
0.0
 11
273.858592505185
 21
15.927375675439
 31
0.0
  0
LINE
  5
88
330
65
100
AcDbEntity
  8
図枠細線
  6
CONTINUOUS
 62
   252
100
AcDbLine
 10
259.858592505185
 20
30.927375675439
 30
0.0
 11
259.858592505185
 21
15.927375675439
 31
0.0
  0
LINE
  5
89
330
65
100
AcDbEntity
  8
図枠細線
  6
CONTINUOUS
 62
   252
100
AcDbLine
 10
245.858592505185
 20
30.927375675439
 30
0.0
 11
245.858592505185
 21
15.927375675439
 31
0.0
  0
LINE
  5
8A
330
65
100
AcDbEntity
  8
図枠太線
  6
CONTINUOUS
 62
   251
100
AcDbLine
 10
231.858592505185
 20
0.927377675439
 30
0.0
 11
231.858592505185
 21
30.927375675439
 31
0.0
  0
LINE
  5
8B
330
65
100
AcDbEntity
  8
図枠細線
  6
CONTINUOUS
 62
   252
100
AcDbLine
 10
211.858592505185
 20
25.927375675439
 30
0.0
 11
231.858592505185
 21
25.927375675439
 31
0.0
  0
LINE
  5
8C
330
65
100
AcDbEntity
  8
図枠細線
  6
CONTINUOUS
 62
   252
100
AcDbLine
 10
211.858592505185
 20
20.927375675439
 30
0.0
 11
231.858592505185
 21
20.927375675439
 31
0.0
  0
LINE
  5
8D
330
65
100
AcDbEntity
  8
図枠細線
  6
CONTINUOUS
 62
   252
100
AcDbLine
 10
211.858592505185
 20
10.927375675439
 30
0.0
 11
231.858592505185
 21
10.927375675439
 31
0.0
  0
LINE
  5
8E
330
65
100
AcDbEntity
  8
図枠細線
  6
CONTINUOUS
 62
   252
100
AcDbLine
 10
211.858592505185
 20
5.927377675439
 30
0.0
 11
231.858592505185
 21
5.927377675439
 31
0.0
  0
LINE
  5
8F
330
65
100
AcDbEntity
  8
図枠太線
  6
CONTINUOUS
 62
   251
100
AcDbLine
 10
211.858592505185
 20
30.927375675439
 30
0.0
 11
401.858584505185
 21
30.927375675439
 31
0.0
  0
LINE
  5
90
330
65
100
AcDbEntity
  8
図枠太線
  6
CONTINUOUS
 62
   251
100
AcDbLine
 10
1.858584505185
 20
275.927375675439
 30
0.0
 11
401.858584505185
 21
275.927375675439
 31
0.0
  0
LINE
  5
91
330
65
100
AcDbEntity
  8
図枠太線
  6
CONTINUOUS
 62
   251
100
AcDbLine
 10
401.858584505185
 20
0.927375675439
 30
0.0
 11
401.858584505185
 21
275.927375675439
 31
0.0
  0
LINE
  5
92
330
65
100
AcDbEntity
  8
図枠太線
  6
CONTINUOUS
 62
   251
100
AcDbLine
 10
1.858584505185
 20
0.927375675439
 30
0.0
 11
401.858584505185
 21
0.927375675439
 31
0.0
  0
ENDBLK
  5
94
330
65
100
AcDbEntity
  8
0
100
AcDbBlockEnd
  0
BLOCK
  5
29C0
330
29BF
100
AcDbEntity
  8
0
100
AcDbBlockBegin
  2
A4横用_タイトル
 70
     0
 10
0.0
 20
0.0
 30
0.0
  3
A4横用_タイトル
  1

  0
LINE
  5
29C1
330
29BF
100
AcDbEntity
  8
図枠細線
  6
CONTINUOUS
100
AcDbLine
 10
75.061011071051
 20
16.806607253358
 30
0.0
 11
144.061011071051
 21
16.806604789072
 31
0.0
  0
LINE
  5
29C2
330
29BF
100
AcDbEntity
  8
図枠細線
  6
CONTINUOUS
 62
   252
100
AcDbLine
 10
4.061011071051
 20
11.806606253358
 30
0.0
 11
75.061011071051
 21
11.806606253358
 31
0.0
  0
LINE
  5
29C3
330
29BF
100
AcDbEntity
  8
図枠細線
  6
CONTINUOUS
 62
   252
100
AcDbLine
 10
4.061011071051
 20
21.806606253358
 30
0.0
 11
75.061011071051
 21
21.806606253358
 31
0.0
  0
LINE
  5
29C4
330
29BF
100
AcDbEntity
  8
図枠細線
  6
CONTINUOUS
 62
   252
100
AcDbLine
 10
4.061011071051
 20
26.806606253358
 30
0.0
 11
75.061011071051
 21
26.806606253358
 31
0.0
  0
LINE
  5
29C5
330
29BF
100
AcDbEntity
  8
図枠細線
  6
CONTINUOUS
100
AcDbLine
 10
4.061011071051
 20
16.806608253358
 30
0.0
 11
75.061011071051
 21
16.806608253358
 31
0.0
  0
TEXT
  5
29C6
330
29BF
100
AcDbEntity
  8
図枠細線
  6
CONTINUOUS
 62
   252
100
AcDbText
 10
76.405475827713
 20
9.560308253358
 30
0.0
 40
2.0
  1
ＴＨＩＲＤ　ＡＮＧＬＥ
 41
0.691099486738
  7
EXCADSTD
 72
     5
 11
94.005476089973
 21
9.560308253358
 31
0.0
100
AcDbText
  0
TEXT
  5
29C7
330
29BF
100
AcDbEntity
  8
図枠細線
  6
CONTINUOUS
 62
   252
100
AcDbText
 10
76.705775880921
 20
14.306608253358
 30
0.0
 40
2.0
  1
第三角法
 41
1.102941176471
  7
EXCADSTD
 72
     5
 11
86.705775880921
 21
14.306608253358
 31
0.0
100
AcDbText
  0
TEXT
  5
29C8
330
29BF
100
AcDbEntity
  8
図枠細線
  6
CONTINUOUS
 62
   252
100
AcDbText
 10
76.705775880921
 20
26.806608253358
 30
0.0
 40
2.0
  1
ＡＰＰＲＯＶＥＤ
 41
0.695652184279
  7
EXCADSTD
 72
     5
 11
89.505776071656
 21
26.806608253358
 31
0.0
100
AcDbText
  0
TEXT
  5
29C9
330
29BF
100
AcDbEntity
  8
図枠細線
  6
CONTINUOUS
 62
   252
100
AcDbText
 10
76.705775880921
 20
29.306608253358
 30
0.0
 40
2.0
  1
承認
 41
1.171875
  7
EXCADSTD
 72
     5
 11
81.705775880921
 21
29.306608253358
 31
0.0
100
AcDbText
  0
LINE
  5
29CA
330
29BF
100
AcDbEntity
  8
図枠細線
  6
CONTINUOUS
 62
   252
100
AcDbLine
 10
98.061011071051
 20
31.806606253358
 30
0.0
 11
98.061011071051
 21
16.806606253358
 31
0.0
  0
TEXT
  5
29CB
330
29BF
100
AcDbEntity
  8
図枠細線
  6
CONTINUOUS
 62
   252
100
AcDbText
 10
104.216531119804
 20
14.306608253358
 30
0.0
 40
2.0
  1
ＳＣＡＬＥ
 41
0.903614457831
  7
EXCADSTD
 72
     5
 11
114.216531119804
 21
14.306608253358
 31
0.0
100
AcDbText
  0
TEXT
  5
29CC
330
29BF
100
AcDbEntity
  8
図枠細線
  6
CONTINUOUS
 62
   252
100
AcDbText
 10
98.844044119804
 20
14.306608253358
 30
0.0
 40
2.0
  1
尺度
 41
1.171875
  7
EXCADSTD
 72
     5
 11
103.844044119804
 21
14.306608253358
 31
0.0
100
AcDbText
  0
TEXT
  5
29CD
330
29BF
100
AcDbEntity
  8
図枠細線
  6
CONTINUOUS
 62
   252
100
AcDbText
 10
98.968727707497
 20
26.806608253358
 30
0.0
 40
2.0
  1
ＣＨＥＣＫＥＤ
 41
0.831249989569
  7
EXCADSTD
 72
     5
 11
112.268727540604
 21
26.806608253358
 31
0.0
100
AcDbText
  0
TEXT
  5
29CE
330
29BF
100
AcDbEntity
  8
図枠細線
  6
CONTINUOUS
 62
   252
100
AcDbText
 10
98.968727707497
 20
29.306608253358
 30
0.0
 40
2.0
  1
検図
 41
1.209677419355
  7
EXCADSTD
 72
     5
 11
103.968727707497
 21
29.306608253358
 31
0.0
100
AcDbText
  0
LINE
  5
29CF
330
29BF
100
AcDbEntity
  8
図枠細線
  6
CONTINUOUS
 62
   252
100
AcDbLine
 10
121.061011071051
 20
31.806606253358
 30
0.0
 11
121.061011071051
 21
16.806606253358
 31
0.0
  0
TEXT
  5
29D0
330
29BF
100
AcDbEntity
  8
図枠細線
  6
CONTINUOUS
 62
   252
100
AcDbText
 10
128.001465247253
 20
14.306608253358
 30
0.0
 40
2.0
  1
ＤＡＴＥ
 41
0.923076923077
  7
EXCADSTD
 72
     5
 11
136.001465247253
 21
14.306608253358
 31
0.0
100
AcDbText
  0
TEXT
  5
29D1
330
29BF
100
AcDbEntity
  8
図枠細線
  6
CONTINUOUS
 62
   252
100
AcDbText
 10
122.066415498841
 20
14.306608253358
 30
0.0
 40
2.0
  1
日付
 41
1.171875
  7
EXCADSTD
 72
     5
 11
127.066415498841
 21
14.306608253358
 31
0.0
100
AcDbText
  0
TEXT
  5
29D2
330
29BF
100
AcDbEntity
  8
図枠細線
  6
CONTINUOUS
 62
   252
100
AcDbText
 10
121.59429406571
 20
29.306608253358
 30
0.0
 40
2.0
  1
製図
 41
1.209677419355
  7
EXCADSTD
 72
     5
 11
126.59429406571
 21
29.306608253358
 31
0.0
100
AcDbText
  0
TEXT
  5
29D3
330
29BF
100
AcDbEntity
  8
図枠細線
  6
CONTINUOUS
 62
   252
100
AcDbText
 10
121.59429406571
 20
26.806608253358
 30
0.0
 40
2.0
  1
ＤＲＡＷＮ
 41
0.882352941176
  7
EXCADSTD
 72
     5
 11
131.59429406571
 21
26.806608253358
 31
0.0
100
AcDbText
  0
TEXT
  5
29D4
330
29BF
100
AcDbEntity
  8
図枠細線
  6
CONTINUOUS
 62
   252
100
AcDbText
 10
226.591229661348
 20
14.306608253358
 30
0.0
 40
2.0
  1
ＤＲＧ．ＮＯ．
 41
0.9375
  7
EXCADSTD
 72
     5
 11
240.591229661348
 21
14.306608253358
 31
0.0
100
AcDbText
  0
LINE
  5
29D5
330
29BF
100
AcDbEntity
  8
図枠太線
  6
CONTINUOUS
 62
   251
100
AcDbLine
 10
144.061003071051
 20
16.806606253358
 30
0.0
 11
214.061011071051
 21
16.806606253358
 31
0.0
  0
LINE
  5
29D6
330
29BF
100
AcDbEntity
  8
図枠細線
  6
CONTINUOUS
 62
   252
100
AcDbLine
 10
144.061011071051
 20
24.306606253358
 30
0.0
 11
214.061011071051
 21
24.306606253358
 31
0.0
  0
TEXT
  5
29D7
330
29BF
100
AcDbEntity
  8
図枠ロゴマーク
  6
CONTINUOUS
 62
   253
100
AcDbText
 10
146.433776781596
 20
8.399000253358
 30
0.0
 40
7.0
  1
東和制電工業株式会社
 41
0.80361088462
  7
EXCADSTD
 72
     5
 11
212.437017438349
 21
8.399000253358
 31
0.0
100
AcDbText
  0
TEXT
  5
29D8
330
29BF
100
AcDbEntity
  8
図枠細線
  6
CONTINUOUS
 62
   252
100
AcDbText
 10
215.156179912936
 20
14.306608253358
 30
0.0
 40
2.0
  1
図面番号
 41
1.102941176471
  7
EXCADSTD
 72
     5
 11
225.156179912936
 21
14.306608253358
 31
0.0
100
AcDbText
  0
TEXT
  5
29D9
330
29BF
100
AcDbEntity
  8
図枠細線
  6
CONTINUOUS
 62
   252
100
AcDbText
 10
221.591229661348
 20
29.306608253358
 30
0.0
 40
2.0
  1
ＴＩＴＬＥ
 41
0.903614457831
  7
EXCADSTD
 72
     5
 11
231.591229661348
 21
29.306608253358
 31
0.0
100
AcDbText
  0
TEXT
  5
29DA
330
29BF
100
AcDbEntity
  8
図枠細線
  6
CONTINUOUS
 62
   252
100
AcDbText
 10
215.156179912936
 20
29.306608253358
 30
0.0
 40
2.0
  1
名称
 41
1.171875
  7
EXCADSTD
 72
     5
 11
220.156179912936
 21
29.306608253358
 31
0.0
100
AcDbText
  0
LINE
  5
29DB
330
29BF
100
AcDbEntity
  8
図枠太線
  6
CONTINUOUS
 62
   251
100
AcDbLine
 10
4.061011071051
 20
1.806608253358
 30
0.0
 11
284.061011071051
 21
1.806608253358
 31
0.0
  0
LINE
  5
29DC
330
29BF
100
AcDbEntity
  8
図枠細線
  6
CONTINUOUS
 62
   252
100
AcDbLine
 10
4.061011071051
 20
6.806608253358
 30
0.0
 11
75.061011071051
 21
6.806608253358
 31
0.0
  0
LINE
  5
29DD
330
29BF
100
AcDbEntity
  8
図枠太線
  6
CONTINUOUS
 62
   251
100
AcDbLine
 10
75.061011071051
 20
1.806608253358
 30
0.0
 11
75.061011071051
 21
31.806606253358
 31
0.0
  0
TEXT
  5
29DE
330
29BF
100
AcDbEntity
  8
図枠細線
  6
CONTINUOUS
 62
   252
100
AcDbText
 10
76.330551827713
 20
6.638319253358
 30
0.0
 40
2.0
  1
ＰＲＯＪＥＣＴＩＯＮ
 41
0.754285710199
  7
EXCADSTD
 72
     5
 11
93.930551732346
 21
6.638319253358
 31
0.0
100
AcDbText
  0
LINE
  5
29DF
330
29BF
100
AcDbEntity
  8
図枠細線
  6
CONTINUOUS
 62
   252
100
AcDbLine
 10
98.061011071051
 20
1.806606931929
 30
0.0
 11
98.061011071051
 21
16.806604931929
 31
0.0
  0
LINE
  5
29E0
330
29BF
100
AcDbEntity
  8
図枠細線
  6
CONTINUOUS
 62
   252
100
AcDbLine
 10
121.061011071051
 20
1.806607574787
 30
0.0
 11
121.061011071051
 21
16.806605574787
 31
0.0
  0
LINE
  5
29E1
330
29BF
100
AcDbEntity
  8
図枠太線
  6
CONTINUOUS
 62
   251
100
AcDbLine
 10
284.061011071051
 20
1.806608253358
 30
0.0
 11
284.061011071051
 21
31.806606253358
 31
0.0
  0
LINE
  5
29E2
330
29BF
100
AcDbEntity
  8
図枠細線
  6
CONTINUOUS
 62
   252
100
AcDbLine
 10
214.061011071051
 20
16.806606253358
 30
0.0
 11
284.061011071051
 21
16.806606253358
 31
0.0
  0
TEXT
  5
29E3
330
29BF
100
AcDbEntity
  8
図枠細線
  6
CONTINUOUS
 62
   252
100
AcDbText
 10
146.199593676182
 20
3.454099253358
 30
0.0
 40
3.5
  1
ＴＯＷＡ　ＳＥＩＤＥＮ　ＩＮＤＵＳＴＲＩＡＬ　ＣＯ．，ＬＴＤ．
 41
0.528937826907
  7
EXCADSTD
 72
     5
 11
213.339435171588
 21
3.454099253358
 31
0.0
100
AcDbText
  0
LINE
  5
29E4
330
29BF
100
AcDbEntity
  8
図枠太線
  6
CONTINUOUS
 62
   251
100
AcDbLine
 10
144.061011071051
 20
1.806608253358
 30
0.0
 11
144.061011071051
 21
31.806606253358
 31
0.0
  0
LINE
  5
29E5
330
29BF
100
AcDbEntity
  8
図枠太線
  6
CONTINUOUS
 62
   251
100
AcDbLine
 10
214.061011071051
 20
1.806608253358
 30
0.0
 11
214.061011071051
 21
31.806606253358
 31
0.0
  0
MTEXT
  5
29E6
330
29BF
100
AcDbEntity
  8
図枠太線
100
AcDbMText
 10
5.064337346478
 20
31.010982137407
 30
0.0
 40
2.5
 41
8.67856098472
 71
     1
 72
     5
  1
{\Fmonotxt.shx,bigfont.shx|c128;図暦}
  0
LINE
  5
29E7
330
29BF
100
AcDbEntity
  8
図枠太線
  6
CONTINUOUS
 62
   251
100
AcDbLine
 10
4.061011071051
 20
1.806608253358
 30
0.0
 11
4.061011071051
 21
31.806606253358
 31
0.0
  0
TEXT
  5
29E8
330
29BF
100
AcDbEntity
  8
図枠細線
 48
10.0
100
AcDbText
 10
12.260817420402
 20
28.625419626495
 30
0.0
 40
2.0
  1
CHANGE NOTICE
100
AcDbText
  0
ENDBLK
  5
29E9
330
29BF
100
AcDbEntity
  8
0
100
AcDbBlockEnd
  0
BLOCK
  5
29F5
330
29F4
100
AcDbEntity
  8
0
100
AcDbBlockBegin
  2
A4縦用_タイトル
 70
     0
 10
0.0
 20
0.0
 30
0.0
  3
A4縦用_タイトル
  1

  0
LINE
  5
29F6
330
29F4
100
AcDbEntity
  8
図枠太線
  6
CONTINUOUS
 62
   251
100
AcDbLine
 10
2.368253864267
 20
4.525433224584
 30
0.0
 11
192.368245864267
 21
4.525433224584
 31
0.0
  0
LINE
  5
29F7
330
29F4
100
AcDbEntity
  8
図枠太線
  6
CONTINUOUS
 62
   251
100
AcDbLine
 10
78.368245864267
 20
19.525431224584
 30
0.0
 11
135.368253864267
 21
19.525431224584
 31
0.0
  0
LINE
  5
29F8
330
29F4
100
AcDbEntity
  8
図枠細線
  6
CONTINUOUS
 62
   252
100
AcDbLine
 10
78.368253864267
 20
27.025431224584
 30
0.0
 11
135.368253864267
 21
27.025431224584
 31
0.0
  0
TEXT
  5
29F9
330
29F4
100
AcDbEntity
  8
図枠ロゴマーク
  6
CONTINUOUS
 62
   253
100
AcDbText
 10
80.617009864267
 20
11.117825224584
 30
0.0
 40
7.0
  1
東和制電工業株式会社
 41
0.639204545455
  7
EXCADSTD
 72
     5
 11
133.117009864267
 21
11.117825224584
 31
0.0
100
AcDbText
  0
TEXT
  5
29FA
330
29F4
100
AcDbEntity
  8
図枠細線
  6
CONTINUOUS
 62
   252
100
AcDbText
 10
80.579549864267
 20
6.172924224584
 30
0.0
 40
3.5
  1
ＴＯＷＡ　ＳＥＩＤＥＮ　ＩＮＤＵＳＴＲＩＡＬ　ＣＯ．，ＬＴＤ．
 41
0.414568012377
  7
EXCADSTD
 72
     5
 11
133.202049568628
 21
6.172924224584
 31
0.0
100
AcDbText
  0
LINE
  5
29FB
330
29F4
100
AcDbEntity
  8
図枠太線
  6
CONTINUOUS
 62
   251
100
AcDbLine
 10
2.368253864267
 20
4.525433224584
 30
0.0
 11
2.368253864267
 21
34.525431224584
 31
0.0
  0
TEXT
  5
29FC
330
29F4
100
AcDbEntity
  8
図枠細線
  6
CONTINUOUS
 62
   252
100
AcDbText
 10
22.504308136501
 20
12.279133224584
 30
0.0
 40
2.0
  1
ＴＨＩＲＤ　ＡＮＧＬＥ
 41
0.691099486738
  7
EXCADSTD
 72
     5
 11
40.104308398762
 21
12.279133224584
 31
0.0
100
AcDbText
  0
TEXT
  5
29FD
330
29F4
100
AcDbEntity
  8
図枠細線
  6
CONTINUOUS
 62
   252
100
AcDbText
 10
22.429384136501
 20
9.357144224584
 30
0.0
 40
2.0
  1
ＰＲＯＪＥＣＴＩＯＮ
 41
0.754285710199
  7
EXCADSTD
 72
     5
 11
40.029384041134
 21
9.357144224584
 31
0.0
100
AcDbText
  0
LINE
  5
29FE
330
29F4
100
AcDbEntity
  8
図枠細線
  6
CONTINUOUS
100
AcDbLine
 10
22.368253864267
 20
19.525433224584
 30
0.0
 11
78.368253864267
 21
19.525431224584
 31
0.0
  0
TEXT
  5
29FF
330
29F4
100
AcDbEntity
  8
図枠細線
  6
CONTINUOUS
 62
   252
100
AcDbText
 10
22.868253864267
 20
17.025433224584
 30
0.0
 40
2.0
  1
第三角法
 41
1.102941176471
  7
EXCADSTD
 72
     5
 11
32.868253864267
 21
17.025433224584
 31
0.0
100
AcDbText
  0
TEXT
  5
2A00
330
29F4
100
AcDbEntity
  8
図枠細線
  6
CONTINUOUS
 62
   252
100
AcDbText
 10
22.868253864267
 20
29.525433224584
 30
0.0
 40
2.0
  1
ＡＰＰＲＯＶＥＤ
 41
0.695652184279
  7
EXCADSTD
 72
     5
 11
35.668254055002
 21
29.525433224584
 31
0.0
100
AcDbText
  0
LINE
  5
2A01
330
29F4
100
AcDbEntity
  8
図枠細線
  6
CONTINUOUS
 62
   252
100
AcDbLine
 10
2.368253864267
 20
9.525433224584
 30
0.0
 11
22.368253864267
 21
9.525433224584
 31
0.0
  0
LINE
  5
2A02
330
29F4
100
AcDbEntity
  8
図枠細線
  6
CONTINUOUS
 62
   252
100
AcDbLine
 10
2.368253864267
 20
14.525431224584
 30
0.0
 11
22.368253864267
 21
14.525431224584
 31
0.0
  0
LINE
  5
2A03
330
29F4
100
AcDbEntity
  8
図枠細線
  6
CONTINUOUS
 62
   252
100
AcDbLine
 10
2.368253864267
 20
24.525431224584
 30
0.0
 11
22.368253864267
 21
24.525431224584
 31
0.0
  0
LINE
  5
2A04
330
29F4
100
AcDbEntity
  8
図枠細線
  6
CONTINUOUS
 62
   252
100
AcDbLine
 10
2.368253864267
 20
29.525431224584
 30
0.0
 11
22.368253864267
 21
29.525431224584
 31
0.0
  0
LINE
  5
2A05
330
29F4
100
AcDbEntity
  8
図枠細線
  6
CONTINUOUS
100
AcDbLine
 10
2.368253864267
 20
19.525433224584
 30
0.0
 11
22.368253864267
 21
19.525433224584
 31
0.0
  0
TEXT
  5
2A06
330
29F4
100
AcDbEntity
  8
図枠細線
  6
CONTINUOUS
 62
   252
100
AcDbText
 10
2.868253864267
 20
32.025433224584
 30
0.0
 40
2.0
  1
ＮＯＴＥ
 41
0.923076923077
  7
EXCADSTD
 72
     5
 11
10.868253864267
 21
32.025433224584
 31
0.0
100
AcDbText
  0
LINE
  5
2A07
330
29F4
100
AcDbEntity
  8
図枠太線
  6
CONTINUOUS
 62
   251
100
AcDbLine
 10
22.368253864267
 20
4.525433224584
 30
0.0
 11
22.368253864267
 21
34.525431224584
 31
0.0
  0
TEXT
  5
2A08
330
29F4
100
AcDbEntity
  8
図枠細線
  6
CONTINUOUS
 62
   252
100
AcDbText
 10
22.868253864267
 20
32.025433224584
 30
0.0
 40
2.0
  1
承認
 41
1.171875
  7
EXCADSTD
 72
     5
 11
27.868253864267
 21
32.025433224584
 31
0.0
100
AcDbText
  0
TEXT
  5
2A09
330
29F4
100
AcDbEntity
  8
図枠細線
  6
CONTINUOUS
 62
   252
100
AcDbText
 10
60.711709035982
 20
32.025433224584
 30
0.0
 40
2.0
  1
製図
 41
1.209677419355
  7
EXCADSTD
 72
     5
 11
65.711709035982
 21
32.025433224584
 31
0.0
100
AcDbText
  0
TEXT
  5
2A0A
330
29F4
100
AcDbEntity
  8
図枠細線
  6
CONTINUOUS
 62
   252
100
AcDbText
 10
60.711709035982
 20
29.525433224584
 30
0.0
 40
2.0
  1
ＤＲＡＷＮ
 41
0.882352941176
  7
EXCADSTD
 72
     5
 11
70.711709035982
 21
29.525433224584
 31
0.0
100
AcDbText
  0
TEXT
  5
2A0B
330
29F4
100
AcDbEntity
  8
図枠細線
  6
CONTINUOUS
 62
   252
100
AcDbText
 10
60.834891743877
 20
17.025433224584
 30
0.0
 40
2.0
  1
日付
 41
1.171875
  7
EXCADSTD
 72
     5
 11
65.834891743877
 21
17.025433224584
 31
0.0
100
AcDbText
  0
TEXT
  5
2A0C
330
29F4
100
AcDbEntity
  8
図枠細線
  6
CONTINUOUS
 62
   252
100
AcDbText
 10
47.333660864267
 20
17.025433224584
 30
0.0
 40
2.0
  1
ＳＣＡＬＥ
 41
0.903614457831
  7
EXCADSTD
 72
     5
 11
57.333660864267
 21
17.025433224584
 31
0.0
100
AcDbText
  0
TEXT
  5
2A0D
330
29F4
100
AcDbEntity
  8
図枠細線
  6
CONTINUOUS
 62
   252
100
AcDbText
 10
42.281425990082
 20
29.525433224584
 30
0.0
 40
2.0
  1
ＣＨＥＣＫＥＤ
 41
0.831249989569
  7
EXCADSTD
 72
     5
 11
55.581425823189
 21
29.525433224584
 31
0.0
100
AcDbText
  0
LINE
  5
2A0E
330
29F4
100
AcDbEntity
  8
図枠細線
  6
CONTINUOUS
 62
   252
100
AcDbLine
 10
40.968253864267
 20
34.525431224584
 30
0.0
 11
40.968253864267
 21
19.525431224584
 31
0.0
  0
LINE
  5
2A0F
330
29F4
100
AcDbEntity
  8
図枠細線
  6
CONTINUOUS
 62
   252
100
AcDbLine
 10
40.968253864267
 20
4.525433224584
 30
0.0
 11
40.968253864267
 21
19.525431224584
 31
0.0
  0
TEXT
  5
2A10
330
29F4
100
AcDbEntity
  8
図枠細線
  6
CONTINUOUS
 62
   252
100
AcDbText
 10
41.961173864267
 20
17.025433224584
 30
0.0
 40
2.0
  1
尺度
 41
1.171875
  7
EXCADSTD
 72
     5
 11
46.961173864267
 21
17.025433224584
 31
0.0
100
AcDbText
  0
TEXT
  5
2A11
330
29F4
100
AcDbEntity
  8
図枠細線
  6
CONTINUOUS
 62
   252
100
AcDbText
 10
42.281425990082
 20
32.025433224584
 30
0.0
 40
2.0
  1
検図
 41
1.209677419355
  7
EXCADSTD
 72
     5
 11
47.281425990082
 21
32.025433224584
 31
0.0
100
AcDbText
  0
LINE
  5
2A12
330
29F4
100
AcDbEntity
  8
図枠細線
  6
CONTINUOUS
 62
   252
100
AcDbLine
 10
59.768253864267
 20
34.525431224584
 30
0.0
 11
59.768253864267
 21
19.525431224584
 31
0.0
  0
LINE
  5
2A13
330
29F4
100
AcDbEntity
  8
図枠細線
  6
CONTINUOUS
 62
   252
100
AcDbLine
 10
59.768253864267
 20
4.525433224584
 30
0.0
 11
59.768253864267
 21
19.525431224584
 31
0.0
  0
LINE
  5
2A14
330
29F4
100
AcDbEntity
  8
図枠太線
  6
CONTINUOUS
 62
   251
100
AcDbLine
 10
78.368253864267
 20
4.525433224584
 30
0.0
 11
78.368253864267
 21
34.525431224584
 31
0.0
  0
TEXT
  5
2A15
330
29F4
100
AcDbEntity
  8
図枠細線
  6
CONTINUOUS
 62
   252
100
AcDbText
 10
66.334891743877
 20
17.025433224584
 30
0.0
 40
2.0
  1
ＤＡＴＥ
 41
0.923076923077
  7
EXCADSTD
 72
     5
 11
74.334891743877
 21
17.025433224584
 31
0.0
100
AcDbText
  0
LINE
  5
2A16
330
29F4
100
AcDbEntity
  8
図枠細線
  6
CONTINUOUS
 62
   252
100
AcDbLine
 10
135.368253864267
 20
19.525431224584
 30
0.0
 11
192.368245864267
 21
19.525431224584
 31
0.0
  0
TEXT
  5
2A17
330
29F4
100
AcDbEntity
  8
図枠細線
  6
CONTINUOUS
 62
   252
100
AcDbText
 10
141.868253864267
 20
32.025433224584
 30
0.0
 40
2.0
  1
ＴＩＴＬＥ
 41
0.903614457831
  7
EXCADSTD
 72
     5
 11
151.868253864267
 21
32.025433224584
 31
0.0
100
AcDbText
  0
LINE
  5
2A18
330
29F4
100
AcDbEntity
  8
図枠太線
  6
CONTINUOUS
 62
   251
100
AcDbLine
 10
135.368253864267
 20
4.525433224584
 30
0.0
 11
135.368253864267
 21
34.525431224584
 31
0.0
  0
TEXT
  5
2A19
330
29F4
100
AcDbEntity
  8
図枠細線
  6
CONTINUOUS
 62
   252
100
AcDbText
 10
135.868253864267
 20
17.025433224584
 30
0.0
 40
2.0
  1
図面番号
 41
1.102941176471
  7
EXCADSTD
 72
     5
 11
145.868253864267
 21
17.025433224584
 31
0.0
100
AcDbText
  0
TEXT
  5
2A1A
330
29F4
100
AcDbEntity
  8
図枠細線
  6
CONTINUOUS
 62
   252
100
AcDbText
 10
135.868253864267
 20
32.025433224584
 30
0.0
 40
2.0
  1
名称
 41
1.171875
  7
EXCADSTD
 72
     5
 11
140.868253864267
 21
32.025433224584
 31
0.0
100
AcDbText
  0
TEXT
  5
2A1B
330
29F4
100
AcDbEntity
  8
図枠細線
  6
CONTINUOUS
 62
   252
100
AcDbText
 10
146.868253864267
 20
17.025433224584
 30
0.0
 40
2.0
  1
ＤＲＧ．ＮＯ．
 41
0.9375
  7
EXCADSTD
 72
     5
 11
160.868253864267
 21
17.025433224584
 31
0.0
100
AcDbText
  0
LINE
  5
2A1C
330
29F4
100
AcDbEntity
  8
図枠太線
  6
CONTINUOUS
 62
   251
100
AcDbLine
 10
192.368245864267
 20
4.525433224584
 30
0.0
 11
192.368245864267
 21
34.525431224584
 31
0.0
  0
ENDBLK
  5
2A1D
330
29F4
100
AcDbEntity
  8
0
100
AcDbBlockEnd
  0
BLOCK
  5
2A33
330
2A32
100
AcDbEntity
  8
0
100
AcDbBlockBegin
  2
A3横用_タイトル
 70
     0
 10
0.0
 20
0.0
 30
0.0
  3
A3横用_タイトル
  1

  0
LINE
  5
2A34
330
2A32
100
AcDbEntity
  8
図枠細線
  6
CONTINUOUS
 62
   252
100
AcDbLine
 10
205.098414535793
 20
33.525959753527
 30
0.0
 11
305.098414535793
 21
33.525959753527
 31
0.0
  0
LINE
  5
2A35
330
2A32
100
AcDbEntity
  8
図枠太線
  6
CONTINUOUS
 62
   251
100
AcDbLine
 10
205.098414535793
 20
23.525959753527
 30
0.0
 11
305.098414535793
 21
23.525959753527
 31
0.0
  0
LINE
  5
2A36
330
2A32
100
AcDbEntity
  8
図枠細線
  6
CONTINUOUS
100
AcDbLine
 10
5.098414535793
 20
23.525959753527
 30
0.0
 11
105.098414535793
 21
23.525959753527
 31
0.0
  0
LINE
  5
2A37
330
2A32
100
AcDbEntity
  8
図枠細線
  6
CONTINUOUS
 62
   252
100
AcDbLine
 10
5.098414535793
 20
36.725957753527
 30
0.0
 11
105.098414535793
 21
36.725957753527
 31
0.0
  0
LINE
  5
2A38
330
2A32
100
AcDbEntity
  8
図枠細線
  6
CONTINUOUS
 62
   252
100
AcDbLine
 10
5.098414535793
 20
30.125957753527
 30
0.0
 11
105.098414535793
 21
30.125957753527
 31
0.0
  0
LINE
  5
2A39
330
2A32
100
AcDbEntity
  8
図枠細線
  6
CONTINUOUS
 62
   252
100
AcDbLine
 10
5.098414535793
 20
16.725959753527
 30
0.0
 11
105.098414535793
 21
16.725959753527
 31
0.0
  0
LINE
  5
2A3A
330
2A32
100
AcDbEntity
  8
図枠細線
  6
CONTINUOUS
 62
   252
100
AcDbLine
 10
5.098414535793
 20
10.125959753527
 30
0.0
 11
105.098414535793
 21
10.125959753527
 31
0.0
  0
LINE
  5
2A3B
330
2A32
100
AcDbEntity
  8
図枠細線
  6
CONTINUOUS
100
AcDbLine
 10
105.098414535793
 20
23.525961753527
 30
0.0
 11
205.098414535793
 21
23.525959753527
 31
0.0
  0
LINE
  5
2A3C
330
2A32
100
AcDbEntity
  8
図枠細線
  6
CONTINUOUS
 62
   252
100
AcDbLine
 10
138.398414535793
 20
43.525959753527
 30
0.0
 11
138.398414535793
 21
18.525957753527
 31
0.0
  0
LINE
  5
2A3D
330
2A32
100
AcDbEntity
  8
図枠細線
  6
CONTINUOUS
 62
   252
100
AcDbLine
 10
171.698414535793
 20
43.525959753527
 30
0.0
 11
171.698414535793
 21
18.525957753527
 31
0.0
  0
LINE
  5
2A3E
330
2A32
100
AcDbEntity
  8
図枠細線
  6
CONTINUOUS
 62
   252
100
AcDbLine
 10
305.098414535793
 20
23.525959753527
 30
0.0
 11
405.098414535793
 21
23.525959753527
 31
0.0
  0
TEXT
  5
2A3F
330
2A32
100
AcDbEntity
  8
図枠ロゴマーク
  6
CONTINUOUS
 62
   253
100
AcDbText
 10
206.102509212755
 20
13.294257570546
 30
0.0
 40
7.0
  1
東和制電工業株式会社
 50
0.016555220185
 41
1.186384129432
  7
EXCADSTD
 72
     5
 11
303.544188309143
 21
13.322412672217
 31
0.0
100
AcDbText
  0
MTEXT
  5
2A40
330
2A32
100
AcDbEntity
  8
図枠細線
100
AcDbMText
 10
6.356764112375
 20
41.976594175478
 30
0.0
 40
2.5
 41
49.938282706292
 71
     1
 72
     5
  1
{\Fmonotxt.shx,bigfont.shx|c128;図暦　CHANGE　NOTICE}
  0
MTEXT
  5
2A41
330
2A32
100
AcDbEntity
  8
図枠細線
 48
10.0
100
AcDbMText
 10
306.544114926828
 20
41.701835800934
 30
0.0
 40
2.5
 41
28.002809618823
 71
     1
 72
     5
  1
{\Fmonotxt.shx,bigfont.shx|c128;名称　TITLE}
  0
MTEXT
  5
2A42
330
2A32
100
AcDbEntity
  8
図枠細線
 48
10.0
100
AcDbMText
 10
307.329617114284
 20
21.606206797226
 30
0.0
 40
2.5
 41
24.385612216707
 71
     1
 72
     5
  1
{\Fmonotxt.shx,bigfont.shx|c128;図面番号\PDRG.　No.}
  0
MTEXT
  5
2A43
330
2A32
100
AcDbEntity
  8
図枠細線
 48
10.0
100
AcDbMText
 10
173.726349404609
 20
21.73680662198
 30
0.0
 40
2.5
 41
25.735090160813
 71
     1
 72
     5
  1
{\Fmonotxt.shx,bigfont.shx|c128;日付 DATE}
  0
MTEXT
  5
2A44
330
2A32
100
AcDbEntity
  8
図枠細線
 48
10.0
100
AcDbMText
 10
173.48708833982
 20
41.621592044998
 30
0.0
 40
2.5
 41
24.983741184205
 71
     1
 72
     5
  1
{\Fmonotxt.shx,bigfont.shx|c128;製図　DRAWN}
  0
MTEXT
  5
2A45
330
2A32
100
AcDbEntity
  8
図枠細線
 48
10.0
100
AcDbMText
 10
139.28009927741
 20
21.866713069868
 30
0.0
 40
2.5
 41
22.629632913243
 71
     1
 72
     5
  1
{\Fmonotxt.shx,bigfont.shx|c128;尺度　SCALE}
  0
MTEXT
  5
2A46
330
2A32
100
AcDbEntity
  8
図枠細線
 48
10.0
100
AcDbMText
 10
139.910091179835
 20
41.311840415554
 30
0.0
 40
2.5
 41
28.998753428368
 71
     1
 72
     5
  1
{\Fmonotxt.shx,bigfont.shx|c128;検図  CHECKED}
  0
MTEXT
  5
2A47
330
2A32
100
AcDbEntity
  8
図枠細線
 48
10.0
100
AcDbMText
 10
114.253294667728
 20
21.916124850174
 30
0.0
 40
3.0
 41
19.692400475383
 71
     1
 72
     5
  1
{\Fmonotxt.shx,bigfont.shx|c128;第三角法}
  0
MTEXT
  5
2A48
330
2A32
100
AcDbEntity
  8
図枠細線
 48
10.0
100
AcDbMText
 10
108.986959929915
 20
15.282880185837
 30
0.0
 40
2.5
 41
27.954882823547
 71
     1
 72
     5
  1
{\Fmonotxt.shx,bigfont.shx|c128;THIRD ANGLE\PPROJECTION}
  0
MTEXT
  5
2A49
330
2A32
100
AcDbEntity
  8
図枠細線
 48
10.0
100
AcDbMText
 10
106.319432640184
 20
41.511437145487
 30
0.0
 40
2.5
 41
28.233595265074
 71
     1
 72
     5
  1
{\Fmonotxt.shx,bigfont.shx|c128;承認 APPROVED}
  0
LINE
  5
2A4A
330
2A32
100
AcDbEntity
  8
図枠太線
  6
CONTINUOUS
 62
   251
100
AcDbLine
 10
5.098414535793
 20
3.525959753527
 30
0.0
 11
405.098414535793
 21
3.525959753527
 31
0.0
  0
LINE
  5
2A4B
330
2A32
100
AcDbEntity
  8
図枠太線
 48
10.0
100
AcDbLine
 10
5.098414535793
 20
3.525959753527
 30
0.0
 11
5.098414535793
 21
43.525959753527
 31
0.0
  0
LINE
  5
2A4C
330
2A32
100
AcDbEntity
  8
図枠太線
  6
CONTINUOUS
 62
   251
100
AcDbLine
 10
105.098414535793
 20
3.525959753527
 30
0.0
 11
105.098414535793
 21
43.525959753527
 31
0.0
  0
LINE
  5
2A4D
330
2A32
100
AcDbEntity
  8
図枠細線
  6
CONTINUOUS
 62
   252
100
AcDbLine
 10
138.398414535793
 20
3.525959753527
 30
0.0
 11
138.398414535793
 21
18.525957753527
 31
0.0
  0
LINE
  5
2A4E
330
2A32
100
AcDbEntity
  8
図枠細線
  6
CONTINUOUS
 62
   252
100
AcDbLine
 10
171.698414535793
 20
3.525959753527
 30
0.0
 11
171.698414535793
 21
18.525957753527
 31
0.0
  0
LINE
  5
2A4F
330
2A32
100
AcDbEntity
  8
図枠太線
  6
CONTINUOUS
 62
   251
100
AcDbLine
 10
205.098414535793
 20
3.525959753527
 30
0.0
 11
205.098414535793
 21
43.525959753527
 31
0.0
  0
LINE
  5
2A50
330
2A32
100
AcDbEntity
  8
図枠太線
 48
10.0
100
AcDbLine
 10
405.098414535793
 20
43.525959753527
 30
0.0
 11
405.098414535793
 21
3.525959753527
 31
0.0
  0
TEXT
  5
2A51
330
2A32
100
AcDbEntity
  8
図枠細線
  6
CONTINUOUS
 62
   252
100
AcDbText
 10
208.519754474572
 20
6.482358407285
 30
0.0
 40
3.5
  1
ＴＯＷＡ　ＳＥＩＤＥＮ　ＩＮＤＵＳＴＲＩＡＬ　ＣＯ．，ＬＴＤ．
 41
0.746656297509
  7
EXCADSTD
 72
     5
 11
303.295327171727
 21
6.482358407285
 31
0.0
100
AcDbText
  0
LINE
  5
2A52
330
2A32
100
AcDbEntity
  8
図枠太線
  6
CONTINUOUS
 62
   251
100
AcDbLine
 10
305.098414535793
 20
3.525959753527
 30
0.0
 11
305.098414535793
 21
43.525959753527
 31
0.0
  0
ENDBLK
  5
2A53
330
2A32
100
AcDbEntity
  8
0
100
AcDbBlockEnd
  0
BLOCK
  5
2A6D
330
2A6C
100
AcDbEntity
  8
0
100
AcDbBlockBegin
  2
A3縦用_タイトル
 70
     0
 10
0.0
 20
0.0
 30
0.0
  3
A3縦用_タイトル
  1

  0
MTEXT
  5
2A6E
330
2A6C
100
AcDbEntity
  8
図枠細線
100
AcDbMText
 10
5.040804501593
 20
31.626098649005
 30
0.0
 40
2.5
 41
49.938282706292
 71
     1
 72
     5
  1
{\Fmonotxt.shx,bigfont.shx|c128;図暦　CHANGE　NOTICE}
  0
LINE
  5
2A6F
330
2A6C
100
AcDbEntity
  8
図枠太線
  6
CONTINUOUS
 62
   251
100
AcDbLine
 10
283.577871882961
 20
2.820844689254
 30
0.0
 11
283.577871882961
 21
32.820842689254
 31
0.0
  0
MTEXT
  5
2A70
330
2A6C
100
AcDbEntity
  8
図枠細線
 48
10.0
100
AcDbMText
 10
214.912458947454
 20
31.621488632308
 30
0.0
 40
2.5
 41
28.002809618823
 71
     1
 72
     5
  1
{\Fmonotxt.shx,bigfont.shx|c128;名称　TITLE}
  0
MTEXT
  5
2A71
330
2A6C
100
AcDbEntity
  8
図枠細線
 48
10.0
100
AcDbMText
 10
214.740030458938
 20
16.310225796722
 30
0.0
 40
2.5
 41
24.385612216707
 71
     1
 72
     5
  1
{\Fmonotxt.shx,bigfont.shx|c128;図面番号\PDRG.　No.}
  0
LINE
  5
2A72
330
2A6C
100
AcDbEntity
  8
図枠太線
  6
CONTINUOUS
 62
   251
100
AcDbLine
 10
213.577871882961
 20
2.820844689254
 30
0.0
 11
213.577871882961
 21
32.820842689254
 31
0.0
  0
LINE
  5
2A73
330
2A6C
100
AcDbEntity
  8
図枠太線
  6
CONTINUOUS
 62
   251
100
AcDbLine
 10
143.577871882961
 20
2.820844689254
 30
0.0
 11
143.577871882961
 21
32.820842689254
 31
0.0
  0
TEXT
  5
2A74
330
2A6C
100
AcDbEntity
  8
図枠細線
  6
CONTINUOUS
 62
   252
100
AcDbText
 10
145.716454488093
 20
4.468335689254
 30
0.0
 40
3.5
  1
ＴＯＷＡ　ＳＥＩＤＥＮ　ＩＮＤＵＳＴＲＩＡＬ　ＣＯ．，ＬＴＤ．
 41
0.528937826907
  7
EXCADSTD
 72
     5
 11
212.856295983498
 21
4.468335689254
 31
0.0
100
AcDbText
  0
TEXT
  5
2A75
330
2A6C
100
AcDbEntity
  8
図枠ロゴマーク
  6
CONTINUOUS
 62
   253
100
AcDbText
 10
145.950637593507
 20
9.413236689254
 30
0.0
 40
7.0
  1
東和制電工業株式会社
 41
0.80361088462
  7
EXCADSTD
 72
     5
 11
211.953878250259
 21
9.413236689254
 31
0.0
100
AcDbText
  0
LINE
  5
2A76
330
2A6C
100
AcDbEntity
  8
図枠細線
  6
CONTINUOUS
 62
   252
100
AcDbLine
 10
143.577871882961
 20
25.320842689254
 30
0.0
 11
213.577871882961
 21
25.320842689254
 31
0.0
  0
LINE
  5
2A77
330
2A6C
100
AcDbEntity
  8
図枠太線
  6
CONTINUOUS
 62
   251
100
AcDbLine
 10
143.577863882961
 20
17.820842689254
 30
0.0
 11
213.577871882961
 21
17.820842689254
 31
0.0
  0
LINE
  5
2A78
330
2A6C
100
AcDbEntity
  8
図枠細線
  6
CONTINUOUS
 62
   252
100
AcDbLine
 10
213.577871882961
 20
17.820842689254
 30
0.0
 11
283.577871882961
 21
17.820842689254
 31
0.0
  0
LINE
  5
2A79
330
2A6C
100
AcDbEntity
  8
図枠細線
  6
CONTINUOUS
 62
   252
100
AcDbLine
 10
120.577871882961
 20
32.820842689254
 30
0.0
 11
120.577871882961
 21
17.820842689254
 31
0.0
  0
MTEXT
  5
2A7A
330
2A6C
100
AcDbEntity
  8
図枠細線
 48
10.0
100
AcDbMText
 10
121.100885670352
 20
16.33785922638
 30
0.0
 40
2.0
 41
17.705978285068
 71
     1
 72
     5
  1
{\Fmonotxt.shx,bigfont.shx|c128;日付 DATE}
  0
MTEXT
  5
2A7B
330
2A6C
100
AcDbEntity
  8
図枠細線
 48
10.0
100
AcDbMText
 10
121.254842273491
 20
31.208993514037
 30
0.0
 40
2.0
 41
18.363799568758
 71
     1
 72
     5
  1
{\Fmonotxt.shx,bigfont.shx|c128;製図　DRAWN}
  0
LINE
  5
2A7C
330
2A6C
100
AcDbEntity
  8
図枠細線
  6
CONTINUOUS
 62
   252
100
AcDbLine
 10
97.577871882961
 20
32.820842689254
 30
0.0
 11
97.577871882961
 21
17.820842689254
 31
0.0
  0
MTEXT
  5
2A7D
330
2A6C
100
AcDbEntity
  8
図枠細線
 48
10.0
100
AcDbMText
 10
98.239734796872
 20
16.467764839281
 30
0.0
 40
2.0
 41
17.757791689903
 71
     1
 72
     5
  1
{\Fmonotxt.shx,bigfont.shx|c128;尺度　SCALE}
  0
MTEXT
  5
2A7E
330
2A6C
100
AcDbEntity
  8
図枠細線
 48
10.0
100
AcDbMText
 10
97.864744625154
 20
31.298433377664
 30
0.0
 40
2.0
 41
23.162655920976
 71
     1
 72
     5
  1
{\Fmonotxt.shx,bigfont.shx|c128;検図  CHECKED}
  0
LINE
  5
2A7F
330
2A6C
100
AcDbEntity
  8
図枠細線
  6
CONTINUOUS
 62
   252
100
AcDbLine
 10
97.577871882961
 20
2.820843367826
 30
0.0
 11
97.577871882961
 21
17.820841367826
 31
0.0
  0
LINE
  5
2A80
330
2A6C
100
AcDbEntity
  8
図枠細線
  6
CONTINUOUS
 62
   252
100
AcDbLine
 10
120.577871882961
 20
2.820844010683
 30
0.0
 11
120.577871882961
 21
17.820842010683
 31
0.0
  0
MTEXT
  5
2A81
330
2A6C
100
AcDbEntity
  8
図枠細線
 48
10.0
100
AcDbMText
 10
81.402399084102
 20
16.316484117426
 30
0.0
 40
2.0
 41
12.920322819369
 71
     1
 72
     5
  1
{\Fmonotxt.shx,bigfont.shx|c128;第三角法}
  0
MTEXT
  5
2A82
330
2A6C
100
AcDbEntity
  8
図枠細線
 48
10.0
100
AcDbMText
 10
75.736576535096
 20
11.080410931319
 30
0.0
 40
2.0
 41
21.072870671471
 71
     1
 72
     5
  1
{\Fmonotxt.shx,bigfont.shx|c128;THIRD ANGLE\PPROJECTION}
  0
LINE
  5
2A83
330
2A6C
100
AcDbEntity
  8
図枠太線
  6
CONTINUOUS
 62
   251
100
AcDbLine
 10
74.577871882961
 20
2.820844689254
 30
0.0
 11
74.577871882961
 21
32.820842689254
 31
0.0
  0
MTEXT
  5
2A84
330
2A6C
100
AcDbEntity
  8
図枠細線
 48
10.0
100
AcDbMText
 10
75.060214781573
 20
31.298434778555
 30
0.0
 40
2.0
 41
22.240928805967
 71
     1
 72
     5
  1
{\Fmonotxt.shx,bigfont.shx|c128;承認 APPROVED}
  0
LINE
  5
2A85
330
2A6C
100
AcDbEntity
  8
図枠細線
  6
CONTINUOUS
100
AcDbLine
 10
3.577871882961
 20
17.820844689254
 30
0.0
 11
74.577871882961
 21
17.820844689254
 31
0.0
  0
LINE
  5
2A86
330
2A6C
100
AcDbEntity
  8
図枠細線
  6
CONTINUOUS
 62
   252
100
AcDbLine
 10
3.577871882961
 20
27.820842689254
 30
0.0
 11
74.577871882961
 21
27.820842689254
 31
0.0
  0
LINE
  5
2A87
330
2A6C
100
AcDbEntity
  8
図枠細線
  6
CONTINUOUS
 62
   252
100
AcDbLine
 10
3.577871882961
 20
22.820842689254
 30
0.0
 11
74.577871882961
 21
22.820842689254
 31
0.0
  0
LINE
  5
2A88
330
2A6C
100
AcDbEntity
  8
図枠細線
  6
CONTINUOUS
 62
   252
100
AcDbLine
 10
3.577871882961
 20
12.820842689254
 30
0.0
 11
74.577871882961
 21
12.820842689254
 31
0.0
  0
LINE
  5
2A89
330
2A6C
100
AcDbEntity
  8
図枠細線
  6
CONTINUOUS
 62
   252
100
AcDbLine
 10
3.577871882961
 20
7.820844689254
 30
0.0
 11
74.577871882961
 21
7.820844689254
 31
0.0
  0
LINE
  5
2A8A
330
2A6C
100
AcDbEntity
  8
図枠細線
  6
CONTINUOUS
100
AcDbLine
 10
74.577871882961
 20
17.820843689254
 30
0.0
 11
143.577871882961
 21
17.820841224969
 31
0.0
  0
LINE
  5
2A8B
330
2A6C
100
AcDbEntity
  8
図枠太線
  6
CONTINUOUS
 62
   251
100
AcDbLine
 10
3.577871882961
 20
2.820844689254
 30
0.0
 11
283.577871882961
 21
2.820844689254
 31
0.0
  0
LINE
  5
2A8C
330
2A6C
100
AcDbEntity
  8
図枠太線
  6
CONTINUOUS
 62
   251
100
AcDbLine
 10
3.577871882961
 20
2.820844689254
 30
0.0
 11
3.577871882961
 21
32.820842689254
 31
0.0
  0
ENDBLK
  5
2A8D
330
2A6C
100
AcDbEntity
  8
0
100
AcDbBlockEnd
  0
BLOCK
  5
2AF8
330
2AF4
100
AcDbEntity
  8
0
 48
10.0
100
AcDbBlockBegin
  2
_OPEN30
 70
     0
 10
0.0
 20
0.0
 30
0.0
  3
_OPEN30
  1

  0
LINE
  5
2AF5
330
2AF4
100
AcDbEntity
  8
0
  6
BYBLOCK
 62
     0
100
AcDbLine
 10
-1.0
 20
0.26794919
 30
0.0
 11
0.0
 21
0.0
 31
0.0
  0
LINE
  5
2AF6
330
2AF4
100
AcDbEntity
  8
0
  6
BYBLOCK
 62
     0
100
AcDbLine
 10
0.0
 20
0.0
 30
0.0
 11
-1.0
 21
-0.26794919
 31
0.0
  0
LINE
  5
2AF7
330
2AF4
100
AcDbEntity
  8
0
  6
BYBLOCK
 62
     0
100
AcDbLine
 10
0.0
 20
0.0
 30
0.0
 11
-1.0
 21
0.0
 31
0.0
  0
ENDBLK
  5
2AF9
330
2AF4
100
AcDbEntity
  8
0
 48
10.0
100
AcDbBlockEnd
  0
BLOCK
  5
300D
330
3003
100
AcDbEntity
  8
0
 48
10.0
100
AcDbBlockBegin
  2
*D6
 70
     1
 10
0.0
 20
0.0
 30
0.0
  3
*D6
  1

  0
LINE
  5
344B
330
3003
100
AcDbEntity
  8
寸法線
 62
     0
 48
10.0
100
AcDbLine
 10
469.289081678798
 20
492.330844094271
 30
0.0
 11
489.308988652513
 21
492.330844094271
 31
0.0
  0
LINE
  5
344C
330
3003
100
AcDbEntity
  8
寸法線
 62
     0
 48
10.0
100
AcDbLine
 10
426.553908442367
 20
406.054004094271
 30
0.0
 11
489.308988652513
 21
406.054004094271
 31
0.0
  0
LINE
  5
344D
330
3003
100
AcDbEntity
  8
寸法線
 62
     0
 48
10.0
100
AcDbLine
 10
488.058988652513
 20
486.330844094271
 30
0.0
 11
488.058988652513
 21
412.054004094271
 31
0.0
  0
INSERT
  5
344E
330
3003
100
AcDbEntity
  8
寸法線
 62
     0
100
AcDbBlockReference
  2
_OPEN30
 10
488.058988652513
 20
492.330844094271
 30
0.0
 41
6.0
 42
6.0
 43
6.0
 50
90.0
  0
INSERT
  5
344F
330
3003
100
AcDbEntity
  8
寸法線
 62
     0
100
AcDbBlockReference
  2
_OPEN30
 10
488.058988652513
 20
406.054004094271
 30
0.0
 41
6.0
 42
6.0
 43
6.0
 50
270.0
  0
MTEXT
  5
3450
330
3003
100
AcDbEntity
  8
寸法線
 62
     0
 48
10.0
100
AcDbMText
 10
483.42565531918
 20
454.601424178714
 30
0.0
 40
8.0
 41
0.0
 71
     5
 72
     1
  1
\A1;89
 11
0.0
 21
1.0
 31
0.0
  0
POINT
  5
3451
330
3003
100
AcDbEntity
  8
DEFPOINTS
 62
     0
100
AcDbPoint
 10
468.664081678798
 20
492.330844094271
 30
0.0
  0
POINT
  5
3452
330
3003
100
AcDbEntity
  8
DEFPOINTS
 62
     0
100
AcDbPoint
 10
425.928908442367
 20
406.054004094271
 30
0.0
  0
POINT
  5
3453
330
3003
100
AcDbEntity
  8
DEFPOINTS
 62
     0
100
AcDbPoint
 10
488.058988652513
 20
406.054004094271
 30
0.0
  0
ENDBLK
  5
300E
330
3003
100
AcDbEntity
  8
0
 48
10.0
100
AcDbBlockEnd
  0
BLOCK
  5
301A
330
3010
100
AcDbEntity
  8
0
 48
10.0
100
AcDbBlockBegin
  2
*D7
 70
     1
 10
0.0
 20
0.0
 30
0.0
  3
*D7
  1

  0
LINE
  5
316A
330
3010
100
AcDbEntity
  8
寸法線
 62
     0
 48
10.0
100
AcDbLine
 10
441.572627995228
 20
441.931603764155
 30
0.0
 11
510.992022482611
 21
441.931603764155
 31
0.0
  0
LINE
  5
316B
330
3010
100
AcDbEntity
  8
寸法線
 62
     0
 48
10.0
100
AcDbLine
 10
441.572627995228
 20
542.499107767979
 30
0.0
 11
510.992022482611
 21
542.499107767979
 31
0.0
  0
LINE
  5
316C
330
3010
100
AcDbEntity
  8
寸法線
 62
     0
 48
10.0
100
AcDbLine
 10
509.742022482611
 20
447.931603764155
 30
0.0
 11
509.742022482611
 21
536.499107767979
 31
0.0
  0
INSERT
  5
316D
330
3010
100
AcDbEntity
  8
寸法線
 62
     0
 48
10.0
100
AcDbBlockReference
  2
_OPEN30
 10
509.742022482611
 20
441.931603764155
 30
0.0
 41
6.0
 42
6.0
 43
6.0
 50
270.0
  0
INSERT
  5
316E
330
3010
100
AcDbEntity
  8
寸法線
 62
     0
 48
10.0
100
AcDbBlockReference
  2
_OPEN30
 10
509.742022482611
 20
542.499107767979
 30
0.0
 41
6.0
 42
6.0
 43
6.0
 50
90.0
  0
MTEXT
  5
316F
330
3010
100
AcDbEntity
  8
寸法線
 62
     0
 48
10.0
100
AcDbMText
 10
505.117022482611
 20
492.215355766067
 30
0.0
 40
8.0
 41
0.0
 71
     5
 72
     1
  1
\A1;φ100
 11
6.123031769111886E-17
 21
1.0
 31
0.0
  0
POINT
  5
3170
330
3010
100
AcDbEntity
  8
DEFPOINTS
 62
     0
 48
10.0
100
AcDbPoint
 10
440.947627995228
 20
441.931603764155
 30
0.0
  0
POINT
  5
3171
330
3010
100
AcDbEntity
  8
DEFPOINTS
 62
     0
 48
10.0
100
AcDbPoint
 10
440.947627995228
 20
542.499107767979
 30
0.0
  0
POINT
  5
3172
330
3010
100
AcDbEntity
  8
DEFPOINTS
 62
     0
 48
10.0
100
AcDbPoint
 10
509.742022482611
 20
542.499107767979
 30
0.0
  0
ENDBLK
  5
301B
330
3010
100
AcDbEntity
  8
0
 48
10.0
100
AcDbBlockEnd
  0
BLOCK
  5
30DD
330
30D3
100
AcDbEntity
  8
0
 48
10.0
100
AcDbBlockBegin
  2
*D8
 70
     1
 10
0.0
 20
0.0
 30
0.0
  3
*D8
  1

  0
LINE
  5
431D
330
30D3
100
AcDbEntity
  8
寸法線
 62
     0
 48
10.0
100
AcDbLine
 10
468.664835183302
 20
447.173173370621
 30
0.0
 11
468.664835183302
 21
373.580844094271
 31
0.0
  0
LINE
  5
431E
330
30D3
100
AcDbEntity
  8
寸法線
 62
     0
 48
10.0
100
AcDbLine
 10
353.16480518331
 20
464.205844094271
 30
0.0
 11
353.16480518331
 21
373.580844094271
 31
0.0
  0
LINE
  5
431F
330
30D3
100
AcDbEntity
  8
寸法線
 62
     0
 48
10.0
100
AcDbLine
 10
462.664835183302
 20
374.830844094271
 30
0.0
 11
359.16480518331
 21
374.830844094271
 31
0.0
  0
INSERT
  5
4320
330
30D3
100
AcDbEntity
  8
寸法線
 62
     0
100
AcDbBlockReference
  2
_OPEN30
 10
468.664835183302
 20
374.830844094271
 30
0.0
 41
6.0
 42
6.0
 43
6.0
  0
INSERT
  5
4321
330
30D3
100
AcDbEntity
  8
寸法線
 62
     0
100
AcDbBlockReference
  2
_OPEN30
 10
353.16480518331
 20
374.830844094271
 30
0.0
 41
6.0
 42
6.0
 43
6.0
 50
180.0
  0
MTEXT
  5
4322
330
30D3
100
AcDbEntity
  8
寸法線
 62
     0
 48
10.0
100
AcDbMText
 10
410.914820183306
 20
379.464177427604
 30
0.0
 40
8.0
 41
0.0
 71
     5
 72
     1
  1
\A1;118
  0
POINT
  5
4323
330
30D3
100
AcDbEntity
  8
DEFPOINTS
 62
     0
100
AcDbPoint
 10
468.664835183302
 20
447.798173370621
 30
0.0
  0
POINT
  5
4324
330
30D3
100
AcDbEntity
  8
DEFPOINTS
 62
     0
100
AcDbPoint
 10
353.16480518331
 20
464.830844094271
 30
0.0
  0
POINT
  5
4325
330
30D3
100
AcDbEntity
  8
DEFPOINTS
 62
     0
100
AcDbPoint
 10
353.16480518331
 20
374.830844094271
 30
0.0
  0
ENDBLK
  5
30DE
330
30D3
100
AcDbEntity
  8
0
 48
10.0
100
AcDbBlockEnd
  0
BLOCK
  5
3EEC
330
3EB1
100
AcDbEntity
  8
0
 48
10.0
100
AcDbBlockBegin
  2
A$C753C1317
 70
     0
 10
0.0
 20
0.0
 30
0.0
  3
A$C753C1317
  1

  0
LINE
  5
3EB2
330
3EB1
100
AcDbEntity
  8
外形線
 62
     7
100
AcDbLine
 10
-134.897329525586
 20
-15.886191288323
 30
0.0
 11
-46.993669106408
 21
-10.66375157225
 31
0.0
  0
LINE
  5
3EB3
330
3EB1
100
AcDbEntity
  8
外形線
 62
     7
100
AcDbLine
 10
-134.956635899162
 20
-14.887951460399
 30
0.0
 11
-46.993669106408
 21
-9.661988296505
 31
0.0
  0
LINE
  5
3EB4
330
3EB1
100
AcDbEntity
  8
外形線
 62
     7
100
AcDbLine
 10
-134.719410404858
 20
18.880910772096
 30
0.0
 11
-46.993669106408
 21
13.669041399488
 31
0.0
  0
LINE
  5
3EB5
330
3EB1
100
AcDbEntity
  8
外形線
 62
     7
100
AcDbLine
 10
-134.956635899162
 20
14.887951460401
 30
0.0
 11
-46.993669106408
 21
9.661988296508
 31
0.0
  0
LINE
  5
3EB6
330
3EB1
100
AcDbEntity
  8
外形線
 62
     7
100
AcDbLine
 10
-134.719410404859
 20
-18.880910772094
 30
0.0
 11
-46.993669106408
 21
-13.669041399485
 31
0.0
  0
LINE
  5
3EB7
330
3EB1
100
AcDbEntity
  8
外形線
 62
     7
100
AcDbLine
 10
-134.897329525586
 20
15.886191288323
 30
0.0
 11
-46.993669106408
 21
10.663751572251
 31
0.0
  0
LINE
  5
3EB8
330
3EB1
100
AcDbEntity
  8
外形線
 62
     7
100
AcDbLine
 10
-134.719410404858
 20
18.880910772096
 30
0.0
 11
-134.956635899162
 21
14.887951460401
 31
0.0
  0
LINE
  5
3EB9
330
3EB1
100
AcDbEntity
  8
外形線
 62
     7
100
AcDbLine
 10
-134.719410404859
 20
-18.880910772094
 30
0.0
 11
-134.956635899162
 21
-14.887951460399
 31
0.0
  0
LINE
  5
3EBA
330
3EB1
100
AcDbEntity
  8
外形線
 62
     7
100
AcDbLine
 10
-34.493669106408
 20
-21.599999999999
 30
0.0
 11
-23.993669106408
 21
-21.599999999999
 31
0.0
  0
LINE
  5
3EBB
330
3EB1
100
AcDbEntity
  8
外形線
 62
     7
100
AcDbLine
 10
-34.493669106408
 20
21.600000000001
 30
0.0
 11
-18.0
 21
21.600000000001
 31
0.0
  0
LINE
  5
3EBC
330
3EB1
100
AcDbEntity
  8
外形線
 62
     7
100
AcDbLine
 10
-34.993669106408
 20
21.100000000001
 30
0.0
 11
-34.993669106408
 21
12.172094380865
 31
0.0
  0
LINE
  5
3EBD
330
3EB1
100
AcDbEntity
  8
外形線
 62
     7
100
AcDbLine
 10
-34.493669106408
 20
21.600000000001
 30
0.0
 11
-34.493669106408
 21
-21.599999999999
 31
0.0
  0
LINE
  5
3EBE
330
3EB1
100
AcDbEntity
  8
外形線
 62
     7
100
AcDbLine
 10
-34.993669106408
 20
21.100000000001
 30
0.0
 11
-34.493669106408
 21
21.600000000001
 31
0.0
  0
LINE
  5
3EBF
330
3EB1
100
AcDbEntity
  8
外形線
 62
     7
100
AcDbLine
 10
-40.123852246405
 20
-9.765041648154
 30
0.0
 11
-46.993669106408
 21
-9.765041648154
 31
0.0
  0
LINE
  5
3EC0
330
3EB1
100
AcDbEntity
  8
外形線
 62
     7
100
AcDbLine
 10
-38.389267010215
 20
-13.669041399485
 30
0.0
 11
-46.993669106408
 21
-13.669041399485
 31
0.0
  0
LINE
  5
3EC1
330
3EB1
100
AcDbEntity
  8
外形線
 62
     7
100
AcDbLine
 10
-46.993669106408
 20
-10.66375157225
 30
0.0
 11
-37.507936484682
 21
-10.66375157225
 31
0.0
  0
LINE
  5
3EC2
330
3EB1
100
AcDbEntity
  8
外形線
 62
     7
100
AcDbLine
 10
-40.123852246405
 20
9.765041648156
 30
0.0
 11
-46.993669106408
 21
9.765041648156
 31
0.0
  0
LINE
  5
3EC3
330
3EB1
100
AcDbEntity
  8
外形線
 62
     7
100
AcDbLine
 10
-46.993669106408
 20
10.663751572251
 30
0.0
 11
-37.507936484682
 21
10.663751572251
 31
0.0
  0
LINE
  5
3EC4
330
3EB1
100
AcDbEntity
  8
外形線
 62
     7
100
AcDbLine
 10
-38.389267010215
 20
13.669041399488
 30
0.0
 11
-46.993669106408
 21
13.669041399488
 31
0.0
  0
LINE
  5
3EC5
330
3EB1
100
AcDbEntity
  8
外形線
 62
     7
100
AcDbLine
 10
-46.993669106408
 20
13.669041399488
 30
0.0
 11
-46.993669106408
 21
9.661988296508
 31
0.0
  0
LINE
  5
3EC6
330
3EB1
100
AcDbEntity
  8
外形線
 62
     7
100
AcDbLine
 10
-46.993669106408
 20
-13.669041399485
 30
0.0
 11
-46.993669106408
 21
-9.661988296505
 31
0.0
  0
LINE
  5
3EC7
330
3EB1
100
AcDbEntity
  8
外形線
 62
     7
100
AcDbLine
 10
-34.993669106408
 20
-4.499999999999
 30
0.0
 11
-34.993669106408
 21
0.000000000001
 31
0.0
  0
LINE
  5
3EC8
330
3EB1
100
AcDbEntity
  8
外形線
 62
     7
100
AcDbLine
 10
-34.993669106408
 20
-12.172094380863
 30
0.0
 11
-34.993669106408
 21
0.000000000001
 31
0.0
  0
ARC
  5
3EC9
330
3EB1
100
AcDbEntity
  8
外形線
 62
     7
100
AcDbCircle
 10
-35.393669106408
 20
12.172094380865
 30
0.0
 40
0.4
100
AcDbArc
 50
239.999999999999
 51
0.0
  0
ARC
  5
3ECA
330
3EB1
100
AcDbEntity
  8
外形線
 62
     7
100
AcDbCircle
 10
-35.393669106408
 20
12.172094380865
 30
0.0
 40
0.4
100
AcDbArc
 50
239.999999999999
 51
0.0
  0
LINE
  5
3ECB
330
3EB1
100
AcDbEntity
  8
外形線
 62
     7
100
AcDbLine
 10
-35.593669106408
 20
11.825684219351
 30
0.0
 11
-35.593669106408
 21
9.016353572644
 31
0.0
  0
LINE
  5
3ECC
330
3EB1
100
AcDbEntity
  8
外形線
 62
     7
100
AcDbLine
 10
-34.993669106408
 20
4.500000000001
 30
0.0
 11
-34.993669106408
 21
0.000000000001
 31
0.0
  0
LINE
  5
3ECD
330
3EB1
100
AcDbEntity
  8
外形線
 62
     7
100
AcDbLine
 10
-34.993669106408
 20
12.172094380865
 30
0.0
 11
-34.993669106408
 21
0.000000000001
 31
0.0
  0
ARC
  5
3ECE
330
3EB1
100
AcDbEntity
  8
外形線
 62
     7
100
AcDbCircle
 10
-40.816360805799
 20
3.958360698201
 30
0.0
 40
5.847829662311536
100
AcDbArc
 50
5.314482866102
 51
83.198990373673
  0
LINE
  5
3ECF
330
3EB1
100
AcDbEntity
  8
外形線
 62
     7
100
AcDbLine
 10
-41.000066668099
 20
13.669041399488
 30
0.0
 11
-34.993669106408
 21
8.500000000001
 31
0.0
  0
LINE
  5
3ED0
330
3EB1
100
AcDbEntity
  8
外形線
 62
     7
100
AcDbLine
 10
-35.593669106408
 20
11.825684219351
 30
0.0
 11
-38.389267010215
 21
13.669041399488
 31
0.0
  0
LINE
  5
3ED1
330
3EB1
100
AcDbEntity
  8
外形線
 62
     7
100
AcDbLine
 10
-34.993669106408
 20
-21.099999999999
 30
0.0
 11
-34.493669106408
 21
-21.599999999999
 31
0.0
  0
LINE
  5
3ED2
330
3EB1
100
AcDbEntity
  8
外形線
 62
     7
100
AcDbLine
 10
-35.593669106408
 20
-11.825684219349
 30
0.0
 11
-35.593669106408
 21
-9.016353572642
 31
0.0
  0
ARC
  5
3ED3
330
3EB1
100
AcDbEntity
  8
外形線
 62
     7
100
AcDbCircle
 10
-35.393669106408
 20
-12.172094380863
 30
0.0
 40
0.4
100
AcDbArc
 50
0.0
 51
120.000000000001
  0
LINE
  5
3ED4
330
3EB1
100
AcDbEntity
  8
外形線
 62
     7
100
AcDbLine
 10
-34.993669106408
 20
-21.099999999999
 30
0.0
 11
-34.993669106408
 21
-12.172094380863
 31
0.0
  0
ARC
  5
3ED5
330
3EB1
100
AcDbEntity
  8
外形線
 62
     7
100
AcDbCircle
 10
-40.816360805799
 20
-3.958360698199
 30
0.0
 40
5.847829662311536
100
AcDbArc
 50
276.801009626327
 51
354.685517133898
  0
LINE
  5
3ED6
330
3EB1
100
AcDbEntity
  8
外形線
 62
     7
100
AcDbLine
 10
-41.000066668099
 20
-13.669041399485
 30
0.0
 11
-34.993669106408
 21
-8.499999999999
 31
0.0
  0
LINE
  5
3ED7
330
3EB1
100
AcDbEntity
  8
外形線
 62
     7
100
AcDbLine
 10
-35.593669106408
 20
-11.825684219349
 30
0.0
 11
-38.389267010215
 21
-13.669041399485
 31
0.0
  0
ARC
  5
3ED8
330
3EB1
100
AcDbEntity
  8
外形線
 62
     7
100
AcDbCircle
 10
19.396631540536
 20
-23.849999999999
 30
0.0
 40
16.38075778524953
100
AcDbArc
 50
150.966197367541
 51
209.30792529184
  0
LINE
  5
3ED9
330
3EB1
100
AcDbEntity
  8
外形線
  6
CONTINUOUS
 62
     7
100
AcDbLine
 10
2.010362971082
 20
-24.0
 30
0.0
 11
2.010362971082
 21
24.0
 31
0.0
  0
LINE
  5
3EDA
330
3EB1
100
AcDbEntity
  8
外形線
 62
     7
100
AcDbLine
 10
0.0
 20
26.956302521008
 30
0.0
 11
0.0
 21
-26.956302521008
 31
0.0
  0
LINE
  5
3EDB
330
3EB1
100
AcDbEntity
  8
外形線
 62
     7
100
AcDbLine
 10
2.010362971082
 20
-26.956302521008
 30
0.0
 11
2.010362971082
 21
26.956302521008
 31
0.0
  0
LINE
  5
3EDC
330
3EB1
100
AcDbEntity
  8
外形線
  6
CONTINUOUS
 62
     7
100
AcDbLine
 10
-18.0
 20
-21.6
 30
0.0
 11
-23.993669106408
 21
-21.6
 31
0.0
  0
ARC
  5
3EDD
330
3EB1
100
AcDbEntity
  8
外形線
 62
     7
100
AcDbCircle
 10
19.604945149783
 20
23.903939126422
 30
0.0
 40
16.58915908541087
100
AcDbArc
 50
151.307921404126
 51
208.847506888108
  0
LINE
  5
3EDE
330
3EB1
100
AcDbEntity
  8
外形線
  6
CONTINUOUS
 62
     7
100
AcDbLine
 10
2.010362971082
 20
26.541572404834
 30
0.0
 11
5.074385710394
 21
31.906354055693
 31
0.0
  0
LINE
  5
3EDF
330
3EB1
100
AcDbEntity
  8
外形線
  6
CONTINUOUS
 62
     7
100
AcDbLine
 10
2.010362971082
 20
26.956302521008
 30
0.0
 11
0.0
 21
26.956302521008
 31
0.0
  0
ARC
  5
3EE0
330
3EB1
100
AcDbEntity
  8
外形線
 62
     7
100
AcDbCircle
 10
44.796963733364
 20
0.000000000001
 30
0.0
 40
42.78660076228179
100
AcDbArc
 50
158.184952704416
 51
201.815047295584
  0
LINE
  5
3EE1
330
3EB1
100
AcDbEntity
  8
外形線
  6
CONTINUOUS
 62
     7
100
AcDbLine
 10
2.010362971082
 20
-26.541572404832
 30
0.0
 11
5.074385710394
 21
-31.906354055691
 31
0.0
  0
LINE
  5
3EE2
330
3EB1
100
AcDbEntity
  8
外形線
100
AcDbLine
 10
2.010362971082
 20
-26.956302521008
 30
0.0
 11
0.0
 21
-26.956302521008
 31
0.0
  0
LINE
  5
3EE3
330
3EB1
100
AcDbEntity
  8
下書線
 48
10.0
100
AcDbLine
 10
0.0
 20
26.956302521008
 30
0.0
 11
0.0
 21
-26.956302521008
 31
0.0
  0
LINE
  5
3EE4
330
3EB1
100
AcDbEntity
  8
外形線
100
AcDbLine
 10
-18.0
 20
-22.0
 30
0.0
 11
-18.0
 21
22.0
 31
0.0
  0
LINE
  5
3EE5
330
3EB1
100
AcDbEntity
  8
外形線
100
AcDbLine
 10
0.0
 20
24.0
 30
0.0
 11
-16.496276
 21
24.0
 31
0.0
  0
LINE
  5
3EE6
330
3EB1
100
AcDbEntity
  8
細線
100
AcDbLine
 10
0.0
 20
22.0
 30
0.0
 11
-18.0
 21
22.0
 31
0.0
  0
LINE
  5
3EE7
330
3EB1
100
AcDbEntity
  8
外形線
100
AcDbLine
 10
-16.496276
 20
24.0
 30
0.0
 11
-18.0
 21
22.0
 31
0.0
  0
LINE
  5
3EE8
330
3EB1
100
AcDbEntity
  8
外形線
100
AcDbLine
 10
0.0
 20
-24.0
 30
0.0
 11
-16.496276
 21
-24.0
 31
0.0
  0
LINE
  5
3EE9
330
3EB1
100
AcDbEntity
  8
細線
100
AcDbLine
 10
0.0
 20
-22.0
 30
0.0
 11
-18.0
 21
-22.0
 31
0.0
  0
LINE
  5
3EEA
330
3EB1
100
AcDbEntity
  8
外形線
100
AcDbLine
 10
-16.496276
 20
-24.0
 30
0.0
 11
-18.0
 21
-22.0
 31
0.0
  0
LINE
  5
3EEB
330
3EB1
100
AcDbEntity
  8
外形線
 48
10.0
100
AcDbLine
 10
0.0
 20
24.0
 30
0.0
 11
0.0
 21
-24.0
 31
0.0
  0
ENDBLK
  5
3EED
330
3EB1
100
AcDbEntity
  8
0
 48
10.0
100
AcDbBlockEnd
  0
BLOCK
  5
3F71
330
3F67
100
AcDbEntity
  8
0
 48
10.0
100
AcDbBlockBegin
  2
*D10
 70
     1
 10
0.0
 20
0.0
 30
0.0
  3
*D10
  1

  0
LINE
  5
3F85
330
3F67
100
AcDbEntity
  8
寸法線
 62
     0
 48
10.0
100
AcDbLine
 10
216.445424778451
 20
472.824933322177
 30
0.0
 11
216.445424778451
 21
373.497109973054
 31
0.0
  0
LINE
  5
3F86
330
3F67
100
AcDbEntity
  8
寸法線
 62
     0
 48
10.0
100
AcDbLine
 10
353.16480518331
 20
464.205844094271
 30
0.0
 11
353.16480518331
 21
373.497109973054
 31
0.0
  0
LINE
  5
3F87
330
3F67
100
AcDbEntity
  8
寸法線
 62
     0
 48
10.0
100
AcDbLine
 10
222.445424778451
 20
374.747109973054
 30
0.0
 11
347.16480518331
 21
374.747109973054
 31
0.0
  0
INSERT
  5
3F88
330
3F67
100
AcDbEntity
  8
寸法線
 62
     0
100
AcDbBlockReference
  2
_OPEN30
 10
216.445424778451
 20
374.747109973054
 30
0.0
 41
6.0
 42
6.0
 43
6.0
 50
180.0
  0
INSERT
  5
3F89
330
3F67
100
AcDbEntity
  8
寸法線
 62
     0
100
AcDbBlockReference
  2
_OPEN30
 10
353.16480518331
 20
374.747109973054
 30
0.0
 41
6.0
 42
6.0
 43
6.0
  0
MTEXT
  5
3F8A
330
3F67
100
AcDbEntity
  8
寸法線
 62
     0
 48
10.0
100
AcDbMText
 10
284.80511498088
 20
379.376276639721
 30
0.0
 40
8.0
 41
0.0
 71
     5
 72
     1
  1
\A1;137
  0
POINT
  5
3F8B
330
3F67
100
AcDbEntity
  8
DEFPOINTS
 62
     0
100
AcDbPoint
 10
216.445424778451
 20
473.449933322177
 30
0.0
  0
POINT
  5
3F8C
330
3F67
100
AcDbEntity
  8
DEFPOINTS
 62
     0
100
AcDbPoint
 10
353.16480518331
 20
464.830844094271
 30
0.0
  0
POINT
  5
3F8D
330
3F67
100
AcDbEntity
  8
DEFPOINTS
 62
     0
100
AcDbPoint
 10
353.16480518331
 20
374.747109973054
 30
0.0
  0
ENDBLK
  5
3F72
330
3F67
100
AcDbEntity
  8
0
 48
10.0
100
AcDbBlockEnd
  0
ENDSEC
  0
SECTION
  2
ENTITIES
  0
ARC
  5
2D85
330
1A
100
AcDbEntity
  8
外形線
100
AcDbCircle
 10
431.186166974976
 20
539.468238020969
 30
0.0
 40
2.073556783584
100
AcDbArc
 50
90.0
 51
136.091731908436
  0
LINE
  5
2D86
330
1A
100
AcDbEntity
  8
外形線
100
AcDbLine
 10
429.692270828486
 20
540.906261678023
 30
0.0
 11
428.843300479146
 21
540.024305719133
 31
0.0
  0
ARC
  5
2D87
330
1A
100
AcDbEntity
  8
外形線
100
AcDbCircle
 10
427.349404332656
 20
541.462329376189
 30
0.0
 40
2.073556783584
100
AcDbArc
 50
270.0
 51
316.091731908441
  0
LINE
  5
2D88
330
1A
100
AcDbEntity
  8
外形線
100
AcDbLine
 10
435.487926645958
 20
541.541794804553
 30
0.0
 11
431.186166974976
 21
541.541794804553
 31
0.0
  0
ARC
  5
2D89
330
1A
100
AcDbEntity
  8
外形線
100
AcDbCircle
 10
430.921209185104
 20
461.319359690667
 30
0.0
 40
1.2441340701504
100
AcDbArc
 50
217.230967965681
 51
270.0
  0
ARC
  5
2D8A
330
1A
100
AcDbEntity
  8
外形線
100
AcDbCircle
 10
426.92941591772
 20
464.259815921637
 30
0.0
 40
1.2441340701504
100
AcDbArc
 50
37.230967965672
 51
90.0
  0
LINE
  5
2D8B
330
1A
100
AcDbEntity
  8
外形線
100
AcDbLine
 10
435.487926645958
 20
460.075225620515
 30
0.0
 11
430.921209185104
 21
460.075225620515
 31
0.0
  0
LINE
  5
2D8C
330
1A
100
AcDbEntity
  8
細線
100
AcDbLine
 10
427.349404332656
 20
539.388772592603
 30
0.0
 11
427.349404332656
 21
466.173416094271
 31
0.0
  0
LINE
  5
2DBB
330
1A
100
AcDbEntity
  8
外形線
100
AcDbLine
 10
353.16483518331
 20
519.830844094271
 30
0.0
 11
353.16483518331
 21
464.830844094271
 31
0.0
  0
LINE
  5
2DBE
330
1A
100
AcDbEntity
  8
外形線
100
AcDbLine
 10
367.54835847632
 20
466.374541573263
 30
0.0
 11
367.54835847632
 21
518.287146615279
 31
0.0
  0
ARC
  5
2DD1
330
1A
100
AcDbEntity
  8
外形線
100
AcDbCircle
 10
368.14835847632
 20
459.580844094271
 30
0.0
 40
0.6
100
AcDbArc
 50
180.0
 51
270.0
  0
ARC
  5
2DE3
330
1A
100
AcDbEntity
  8
外形線
100
AcDbCircle
 10
368.14835847632
 20
525.080844094271
 30
0.0
 40
0.6
100
AcDbArc
 50
90.0
 51
180.0
  0
LINE
  5
2DE4
330
1A
100
AcDbEntity
  8
外形線
100
AcDbLine
 10
367.54835847632
 20
525.196869498055
 30
0.0
 11
367.54835847632
 21
459.464818690487
 31
0.0
  0
LINE
  5
2DE5
330
1A
100
AcDbEntity
  8
外形線
100
AcDbLine
 10
398.57359525781
 20
431.991840175377
 30
0.0
 11
385.49508845245
 21
446.023881993605
 31
0.0
  0
LINE
  5
2DE6
330
1A
100
AcDbEntity
  8
外形線
100
AcDbLine
 10
388.045819909408
 20
448.092263123807
 30
0.0
 11
373.04835847631
 21
458.980844094271
 31
0.0
  0
LINE
  5
2DE7
330
1A
100
AcDbEntity
  8
外形線
100
AcDbLine
 10
388.045819909408
 20
536.338448408329
 30
0.0
 11
373.04835847631
 21
525.680844094271
 31
0.0
  0
CIRCLE
  5
2DE8
330
1A
100
AcDbEntity
  8
細線
100
AcDbCircle
 10
417.487926645954
 20
451.352116275777
 30
0.0
 40
13.76127218150634
  0
LINE
  5
2DE9
330
1A
100
AcDbEntity
  8
外形線
100
AcDbLine
 10
421.367485702994
 20
456.389484375899
 30
0.0
 11
422.685501984424
 21
455.013655633089
 31
0.0
  0
LINE
  5
2DEA
330
1A
100
AcDbEntity
  8
外形線
100
AcDbLine
 10
413.605032281876
 20
446.314748175655
 30
0.0
 11
422.685501984424
 21
455.013655633089
 31
0.0
  0
CIRCLE
  5
2DEB
330
1A
100
AcDbEntity
  8
外形線
100
AcDbCircle
 10
417.486258992436
 20
451.352116275777
 30
0.0
 40
10.51872781849356
  0
CIRCLE
  5
2DEC
330
1A
100
AcDbEntity
  8
細線
100
AcDbCircle
 10
417.486258992436
 20
451.352116275777
 30
0.0
 40
9.90742839250458
  0
LINE
  5
2DED
330
1A
100
AcDbEntity
  8
外形線
100
AcDbLine
 10
412.287016000448
 20
447.690576918465
 30
0.0
 11
421.367485702994
 21
456.389484375899
 31
0.0
  0
LINE
  5
2DEE
330
1A
100
AcDbEntity
  8
外形線
100
AcDbLine
 10
412.287016000448
 20
447.690576918465
 30
0.0
 11
413.605032281876
 21
446.314748175655
 31
0.0
  0
LINE
  5
2DEF
330
1A
100
AcDbEntity
  8
外形線
100
AcDbLine
 10
368.14835847632
 20
525.680844094271
 30
0.0
 11
373.04835847631
 21
525.680844094271
 31
0.0
  0
LINE
  5
2DF0
330
1A
100
AcDbEntity
  8
外形線
100
AcDbLine
 10
368.14835847632
 20
458.980844094271
 30
0.0
 11
373.04835847631
 21
458.980844094271
 31
0.0
  0
LINE
  5
2DF1
330
1A
100
AcDbEntity
  8
外形線
100
AcDbLine
 10
373.04835847631
 20
525.680844094271
 30
0.0
 11
373.04835847631
 21
458.980844094271
 31
0.0
  0
LINE
  5
2DF2
330
1A
100
AcDbEntity
  8
外形線
100
AcDbLine
 10
367.54835847632
 20
513.173416094271
 30
0.0
 11
367.54835847632
 21
524.680844094271
 31
0.0
  0
LINE
  5
2DF3
330
1A
100
AcDbEntity
  8
外形線
100
AcDbLine
 10
427.919999221816
 20
465.012553792449
 30
0.0
 11
429.930625881008
 21
460.566621819853
 31
0.0
  0
ARC
  5
2DF5
330
1A
100
AcDbEntity
  8
外形線
100
AcDbCircle
 10
386.909302014824
 20
447.438095555979
 30
0.0
 40
2.0
100
AcDbArc
 50
180.0
 51
225.0
  0
LWPOLYLINE
  5
2DF7
330
1A
100
AcDbEntity
  8
外形線
100
AcDbPolyline
 90
       18
 70
     0
 43
0.0
 10
446.270421920594
 20
521.191426490655
 10
445.317042002852
 20
521.114986228699
 10
444.396128294758
 20
520.888268524271
 10
443.539041408122
 20
520.518993976877
 10
442.77496840891
 20
520.019737788335
 10
442.129928886704
 20
519.407501529353
 10
441.625888888792
 20
518.703134171433
 10
441.280012892776
 20
517.930622100153
 10
441.104079290864
 20
517.116272287577
 10
441.104079290864
 20
516.287816439865
 10
441.280012892776
 20
515.473466627289
 10
441.625888888792
 20
514.700954556009
 10
442.129928886704
 20
513.996587198089
 10
442.77496840891
 20
513.384350939107
 10
443.539041408122
 20
512.885094750563
 10
444.396128294758
 20
512.515820203171
 10
445.317042002852
 20
512.289102498743
 10
446.270421920594
 20
512.212662236787
  0
LWPOLYLINE
  5
2DF8
330
1A
100
AcDbEntity
  8
外形線
100
AcDbPolyline
 90
        8
 70
     0
 43
0.0
 10
446.270421920594
 20
520.625687618303
 10
445.279963247346
 20
520.549218755901
 10
444.323246076096
 20
520.322417198407
 10
443.432862452544
 20
519.953009290609
 10
442.639144667802
 20
519.453579482513
 10
441.969131942124
 20
518.841141620653
 10
441.445649292172
 20
518.136559345181
 10
441.086529961634
 20
517.363835337775
  0
LWPOLYLINE
  5
2DF9
330
1A
100
AcDbEntity
  8
外形線
100
AcDbPolyline
 90
        8
 70
     0
 43
0.0
 10
446.270421920594
 20
536.402311742717
 10
445.261566174252
 20
536.344230038177
 10
444.291216811062
 20
536.172201808757
 10
443.396410488152
 20
535.892793092209
 10
442.611300507656
 20
535.516668464847
 10
441.965853240716
 20
535.058183992009
 10
441.484704359834
 20
534.534839280397
 10
441.186218535306
 20
533.966609546547
  0
LWPOLYLINE
  5
2DFA
330
1A
100
AcDbEntity
  8
外形線
100
AcDbPolyline
 90
       18
 70
     0
 43
0.0
 10
446.270421920594
 20
537.219490505801
 10
445.31699932419
 20
537.167670043089
 10
444.396044390802
 20
537.013973338663
 10
443.538919136124
 20
536.763634349451
 10
442.774811932692
 20
536.425178069483
 10
442.129743534878
 20
536.010130221439
 10
441.625680973294
 20
535.532624761989
 10
441.279789493916
 20
535.008922566851
 10
441.103848016224
 20
534.456857686169
 10
441.103848016224
 20
533.895230027323
 10
441.279789493916
 20
533.343165146641
 10
441.625680973294
 20
532.819462951503
 10
442.129743534878
 20
532.341957492053
 10
442.774811932692
 20
531.926909644011
 10
443.538919136124
 20
531.588453364041
 10
444.396044390802
 20
531.338114374829
 10
445.31699932419
 20
531.184417670403
 10
446.270421920594
 20
531.132597207693
  0
ARC
  5
2DFB
330
1A
100
AcDbEntity
  8
外形線
100
AcDbCircle
 10
465.554500007926
 20
534.109155330425
 30
0.0
 40
3.110335175376
100
AcDbArc
 50
0.0
 51
90.0
  0
ARC
  5
2DFC
330
1A
100
AcDbEntity
  8
外形線
100
AcDbCircle
 10
463.480943224342
 20
534.328754959133
 30
0.0
 40
2.073556783584
100
AcDbArc
 50
0.0
 51
90.0
  0
ARC
  5
2DFD
330
1A
100
AcDbEntity
  8
外形線
100
AcDbCircle
 10
464.517721616134
 20
536.632538161515
 30
0.0
 40
4.147113567168
100
AcDbArc
 50
0.0
 51
87.000000000002
  0
ARC
  5
2DFE
330
1A
100
AcDbEntity
  8
外形線
100
AcDbCircle
 10
440.049751569842
 20
541.980718572083
 30
0.0
 40
1.036778391792
100
AcDbArc
 50
0.0
 51
30.000000000005
  0
LINE
  5
2DFF
330
1A
100
AcDbEntity
  8
外形線
100
AcDbLine
 10
435.487926645958
 20
541.980718572083
 30
0.0
 11
436.006315841854
 21
542.499107767979
 31
0.0
  0
LINE
  5
2E00
330
1A
100
AcDbEntity
  8
外形線
100
AcDbLine
 10
436.006315841854
 20
542.499107767979
 30
0.0
 11
440.947627995228
 21
542.499107767979
 31
0.0
  0
LINE
  5
2E01
330
1A
100
AcDbEntity
  8
外形線
100
AcDbLine
 10
446.270421920594
 20
537.219490505801
 30
0.0
 11
465.554500007926
 21
537.219490505801
 31
0.0
  0
LINE
  5
2E02
330
1A
100
AcDbEntity
  8
外形線
100
AcDbLine
 10
446.270421920594
 20
536.402311742717
 30
0.0
 11
463.480943224342
 21
536.402311742717
 31
0.0
  0
LINE
  5
2E03
330
1A
100
AcDbEntity
  8
外形線
100
AcDbLine
 10
441.086529961634
 20
541.980718572083
 30
0.0
 11
464.734764770318
 21
540.773968253671
 31
0.0
  0
ARC
  5
2E04
330
1A
100
AcDbEntity
  8
外形線
100
AcDbCircle
 10
465.554500007926
 20
528.022262032317
 30
0.0
 40
3.110335175376
100
AcDbArc
 50
0.0
 51
90.0
  0
ARC
  5
2E05
330
1A
100
AcDbEntity
  8
外形線
100
AcDbCircle
 10
463.999332420238
 20
519.070520030615
 30
0.0
 40
1.555167587688
100
AcDbArc
 50
0.0
 51
90.0
  0
LINE
  5
2E06
330
1A
100
AcDbEntity
  8
外形線
100
AcDbLine
 10
468.253961113972
 20
516.182556749165
 30
0.0
 11
465.554500007926
 21
514.138344587399
 31
0.0
  0
ARC
  5
2E07
330
1A
100
AcDbEntity
  8
外形線
100
AcDbCircle
 10
467.62805679151
 20
511.175883844995
 30
0.0
 40
1.036778391792
100
AcDbArc
 50
0.0
 51
90.0
  0
ARC
  5
2E08
330
1A
100
AcDbEntity
  8
外形線
100
AcDbCircle
 10
467.62805679151
 20
517.009087579085
 30
0.0
 40
1.036778391792
100
AcDbArc
 50
307.135436470274
 51
0.0
  0
LINE
  5
2E09
330
1A
100
AcDbEntity
  8
外形線
100
AcDbLine
 10
465.554500007926
 20
519.070520030615
 30
0.0
 11
465.554500007926
 21
512.212662236787
 31
0.0
  0
ARC
  5
2E0A
330
1A
100
AcDbEntity
  8
外形線
100
AcDbCircle
 10
465.554500007926
 20
518.081091315279
 30
0.0
 40
3.110335175376
100
AcDbArc
 50
0.0
 51
90.0
  0
ARC
  5
2E0B
330
1A
100
AcDbEntity
  8
外形線
100
AcDbCircle
 10
467.62805679151
 20
498.436026116819
 30
0.0
 40
1.036778391792
100
AcDbArc
 50
270.0
 51
0.0
  0
LINE
  5
2E0C
330
1A
100
AcDbEntity
  8
外形線
100
AcDbLine
 10
465.554500007926
 20
497.399247725027
 30
0.0
 11
465.554500007926
 21
492.215355766069
 31
0.0
  0
ARC
  5
2E0D
330
1A
100
AcDbEntity
  8
外形線
100
AcDbCircle
 10
467.62805679151
 20
485.994685415317
 30
0.0
 40
1.036778391792
100
AcDbArc
 50
0.0
 51
90.0
  0
LINE
  5
2E0E
330
1A
100
AcDbEntity
  8
外形線
100
AcDbLine
 10
465.554500007926
 20
487.031463807107
 30
0.0
 11
465.554500007926
 21
492.215355766069
 31
0.0
  0
LINE
  5
2E0F
330
1A
100
AcDbEntity
  8
外形線
100
AcDbLine
 10
468.664835183302
 20
511.175883844995
 30
0.0
 11
468.664835183302
 21
498.436026116819
 31
0.0
  0
ARC
  5
2E10
330
1A
100
AcDbEntity
  8
外形線
100
AcDbCircle
 10
446.270421920594
 20
492.215355766069
 30
0.0
 40
5.183891958959999
100
AcDbArc
 50
90.0
 51
180.0
  0
ARC
  5
2E11
330
1A
100
AcDbEntity
  8
外形線
100
AcDbCircle
 10
446.270421920594
 20
492.215355766069
 30
0.0
 40
5.183891958959999
100
AcDbArc
 50
180.0
 51
270.0
  0
LINE
  5
2E12
330
1A
100
AcDbEntity
  8
外形線
100
AcDbLine
 10
446.270421920594
 20
487.031463807107
 30
0.0
 11
467.62805679151
 21
487.031463807107
 31
0.0
  0
LINE
  5
2E13
330
1A
100
AcDbEntity
  8
外形線
100
AcDbLine
 10
446.270421920594
 20
497.399247725027
 30
0.0
 11
467.62805679151
 21
497.399247725027
 31
0.0
  0
LINE
  5
2E14
330
1A
100
AcDbEntity
  8
外形線
100
AcDbLine
 10
446.270421920596
 20
531.132597207693
 30
0.0
 11
465.554500007926
 21
531.132597207693
 31
0.0
  0
LINE
  5
2E15
330
1A
100
AcDbEntity
  8
外形線
100
AcDbLine
 10
446.270421920594
 20
521.191426490655
 30
0.0
 11
465.554500007926
 21
521.191426490655
 31
0.0
  0
LINE
  5
2E16
330
1A
100
AcDbEntity
  8
外形線
100
AcDbLine
 10
446.270421920594
 20
520.625687618303
 30
0.0
 11
463.999332420238
 21
520.625687618303
 31
0.0
  0
LINE
  5
2E17
330
1A
100
AcDbEntity
  8
外形線
100
AcDbLine
 10
446.270421920596
 20
512.212662236787
 30
0.0
 11
467.62805679151
 21
512.212662236787
 31
0.0
  0
LINE
  5
2E19
330
1A
100
AcDbEntity
  8
外形線
100
AcDbLine
 10
441.086529961634
 20
541.980718572083
 30
0.0
 11
441.086529961634
 21
492.215355766069
 31
0.0
  0
LINE
  5
2E1A
330
1A
100
AcDbEntity
  8
外形線
100
AcDbLine
 10
468.664835183302
 20
517.009087579085
 30
0.0
 11
468.664835183302
 21
536.632538161515
 31
0.0
  0
LINE
  5
2E1B
330
1A
100
AcDbEntity
  8
外形線
100
AcDbLine
 10
465.554500007926
 20
534.328754959133
 30
0.0
 11
465.554500007926
 21
531.132597207693
 31
0.0
  0
LINE
  5
2E1C
330
1A
100
AcDbEntity
  8
外形線
100
AcDbLine
 10
388.48792664595
 20
537.187727547439
 30
0.0
 11
388.48792664595
 21
538.351994200811
 31
0.0
  0
LINE
  5
2E1D
330
1A
100
AcDbEntity
  8
外形線
100
AcDbLine
 10
389.524705037742
 20
539.388772592603
 30
0.0
 11
427.349404332656
 21
539.388772592603
 31
0.0
  0
LINE
  5
2E1E
330
1A
100
AcDbEntity
  8
外形線
100
AcDbLine
 10
468.253961113972
 20
468.248154782971
 30
0.0
 11
465.554500007926
 21
470.292366944737
 31
0.0
  0
ARC
  5
2E1F
330
1A
100
AcDbEntity
  8
外形線
100
AcDbCircle
 10
467.62805679151
 20
467.421623953051
 30
0.0
 40
1.036778391792
100
AcDbArc
 50
0.0
 51
52.864563529744
  0
ARC
  5
2E20
330
1A
100
AcDbEntity
  8
外形線
100
AcDbCircle
 10
467.62805679151
 20
473.254827687141
 30
0.0
 40
1.036778391792
100
AcDbArc
 50
270.0
 51
0.0
  0
ARC
  5
2E21
330
1A
100
AcDbEntity
  8
外形線
100
AcDbCircle
 10
465.554500007926
 20
466.349620216857
 30
0.0
 40
3.110335175376
100
AcDbArc
 50
270.0
 51
0.0
  0
LINE
  5
2E22
330
1A
100
AcDbEntity
  8
外形線
100
AcDbLine
 10
465.554500007926
 20
465.360191501521
 30
0.0
 11
465.554500007926
 21
472.218049295349
 31
0.0
  0
ARC
  5
2E23
330
1A
100
AcDbEntity
  8
外形線
100
AcDbCircle
 10
463.999332420238
 20
465.360191501521
 30
0.0
 40
1.555167587688
100
AcDbArc
 50
270.0
 51
0.0
  0
ARC
  5
2E24
330
1A
100
AcDbEntity
  8
外形線
100
AcDbCircle
 10
465.554500007926
 20
456.408449499819
 30
0.0
 40
3.110335175376
100
AcDbArc
 50
270.0
 51
0.0
  0
ARC
  5
2E25
330
1A
100
AcDbEntity
  8
外形線
100
AcDbCircle
 10
465.554500007926
 20
450.321556201711
 30
0.0
 40
3.110335175376
100
AcDbArc
 50
270.0
 51
0.0
  0
LINE
  5
2E26
330
1A
100
AcDbEntity
  8
外形線
100
AcDbLine
 10
465.554500007926
 20
450.101956573003
 30
0.0
 11
465.554500007926
 21
453.298114324443
 31
0.0
  0
ARC
  5
2E27
330
1A
100
AcDbEntity
  8
外形線
100
AcDbCircle
 10
463.480943224342
 20
450.101956573003
 30
0.0
 40
2.073556783584
100
AcDbArc
 50
270.0
 51
0.0
  0
LINE
  5
2E28
330
1A
100
AcDbEntity
  8
外形線
100
AcDbLine
 10
468.664835183302
 20
467.421623953051
 30
0.0
 11
468.664835183302
 21
447.798173370621
 31
0.0
  0
ARC
  5
2E29
330
1A
100
AcDbEntity
  8
外形線
100
AcDbCircle
 10
464.517721616134
 20
447.798173370621
 30
0.0
 40
4.147113567168
100
AcDbArc
 50
272.999999999999
 51
0.0
  0
LWPOLYLINE
  5
2E2A
330
1A
100
AcDbEntity
  8
外形線
100
AcDbPolyline
 90
       18
 70
     0
 43
0.0
 10
446.270421920594
 20
463.239285041481
 10
445.317042002852
 20
463.315725303437
 10
444.396128294758
 20
463.542443007865
 10
443.539041408122
 20
463.911717555259
 10
442.77496840891
 20
464.410973743801
 10
442.129928886704
 20
465.023210002783
 10
441.625888888792
 20
465.727577360703
 10
441.280012892776
 20
466.500089431983
 10
441.104079290864
 20
467.314439244559
 10
441.104079290864
 20
468.142895092271
 10
441.280012892776
 20
468.957244904847
 10
441.625888888792
 20
469.729756976127
 10
442.129928886704
 20
470.434124334047
 10
442.77496840891
 20
471.046360593029
 10
443.539041408122
 20
471.545616781573
 10
444.396128294758
 20
471.914891328965
 10
445.317042002852
 20
472.141609033393
 10
446.270421920594
 20
472.218049295349
  0
LWPOLYLINE
  5
2E2B
330
1A
100
AcDbEntity
  8
外形線
100
AcDbPolyline
 90
        8
 70
     0
 43
0.0
 10
446.270421920594
 20
463.805023913833
 10
445.279963247346
 20
463.881492776235
 10
444.323246076096
 20
464.108294333729
 10
443.432862452544
 20
464.477702241527
 10
442.639144667802
 20
464.977132049623
 10
441.969131942124
 20
465.589569911483
 10
441.445649292172
 20
466.294152186955
 10
441.086529961634
 20
467.066876194361
  0
LWPOLYLINE
  5
2E2C
330
1A
100
AcDbEntity
  8
外形線
100
AcDbPolyline
 90
        8
 70
     0
 43
0.0
 10
446.270421920594
 20
448.028399789419
 10
445.261566174252
 20
448.086481493959
 10
444.291216811062
 20
448.258509723379
 10
443.396410488152
 20
448.537918439927
 10
442.611300507656
 20
448.914043067289
 10
441.965853240716
 20
449.372527540129
 10
441.484704359834
 20
449.895872251739
 10
441.186218535306
 20
450.464101985589
  0
LWPOLYLINE
  5
2E2D
330
1A
100
AcDbEntity
  8
外形線
100
AcDbPolyline
 90
       18
 70
     0
 43
0.0
 10
446.270421920594
 20
447.211221026335
 10
445.31699932419
 20
447.263041489047
 10
444.396044390802
 20
447.416738193473
 10
443.538919136124
 20
447.667077182685
 10
442.774811932692
 20
448.005533462653
 10
442.129743534878
 20
448.420581310697
 10
441.625680973294
 20
448.898086770147
 10
441.279789493916
 20
449.421788965285
 10
441.103848016224
 20
449.973853845967
 10
441.103848016224
 20
450.535481504813
 10
441.279789493916
 20
451.087546385495
 10
441.625680973294
 20
451.611248580633
 10
442.129743534878
 20
452.088754040083
 10
442.774811932692
 20
452.503801888127
 10
443.538919136124
 20
452.842258168095
 10
444.396044390802
 20
453.092597157307
 10
445.31699932419
 20
453.246293861733
 10
446.270421920594
 20
453.298114324443
  0
ARC
  5
2E2E
330
1A
100
AcDbEntity
  8
外形線
100
AcDbCircle
 10
440.049751569842
 20
442.449992960051
 30
0.0
 40
1.036778391792
100
AcDbArc
 50
330.000000000004
 51
0.0
  0
LINE
  5
2E2F
330
1A
100
AcDbEntity
  8
外形線
100
AcDbLine
 10
435.487926645958
 20
442.449992960051
 30
0.0
 11
436.006315841852
 21
441.931603764155
 31
0.0
  0
LINE
  5
2E30
330
1A
100
AcDbEntity
  8
外形線
100
AcDbLine
 10
436.006315841852
 20
441.931603764155
 30
0.0
 11
440.947627995228
 21
441.931603764155
 31
0.0
  0
LINE
  5
2E31
330
1A
100
AcDbEntity
  8
外形線
100
AcDbLine
 10
446.270421920594
 20
463.239285041481
 30
0.0
 11
465.554500007926
 21
463.239285041481
 31
0.0
  0
LINE
  5
2E32
330
1A
100
AcDbEntity
  8
外形線
100
AcDbLine
 10
446.270421920594
 20
463.805023913833
 30
0.0
 11
463.999332420238
 21
463.805023913833
 31
0.0
  0
LINE
  5
2E33
330
1A
100
AcDbEntity
  8
外形線
100
AcDbLine
 10
446.270421920596
 20
453.298114324443
 30
0.0
 11
465.554500007926
 21
453.298114324443
 31
0.0
  0
LINE
  5
2E34
330
1A
100
AcDbEntity
  8
外形線
100
AcDbLine
 10
446.270421920594
 20
447.211221026335
 30
0.0
 11
465.554500007926
 21
447.211221026335
 31
0.0
  0
LINE
  5
2E35
330
1A
100
AcDbEntity
  8
外形線
100
AcDbLine
 10
446.270421920594
 20
448.028399789419
 30
0.0
 11
463.480943224342
 21
448.028399789419
 31
0.0
  0
LINE
  5
2E36
330
1A
100
AcDbEntity
  8
外形線
100
AcDbLine
 10
441.086529961634
 20
442.449992960051
 30
0.0
 11
464.734764770318
 21
443.656743278465
 31
0.0
  0
LINE
  5
2E37
330
1A
100
AcDbEntity
  8
外形線
100
AcDbLine
 10
446.270421920596
 20
472.218049295349
 30
0.0
 11
467.62805679151
 21
472.218049295349
 31
0.0
  0
LINE
  5
2E38
330
1A
100
AcDbEntity
  8
外形線
100
AcDbLine
 10
388.48792664595
 20
447.242983984697
 30
0.0
 11
388.48792664595
 21
446.078717331323
 31
0.0
  0
LINE
  5
2E39
330
1A
100
AcDbEntity
  8
外形線
100
AcDbLine
 10
389.524705037742
 20
445.041938939531
 30
0.0
 11
397.414369862366
 21
445.041938939531
 31
0.0
  0
ARC
  5
2E3A
330
1A
100
AcDbEntity
  8
外形線
100
AcDbCircle
 10
400.772934352082
 20
434.191179269647
 30
0.0
 40
3.110335175376
100
AcDbArc
 50
224.999999999995
 51
259.247872764004
  0
ARC
  5
2E3B
330
1A
100
AcDbEntity
  8
外形線
100
AcDbCircle
 10
400.524705037742
 20
432.117622486063
 30
0.0
 40
1.036778391792
100
AcDbArc
 50
180.0
 51
270.0
  0
LINE
  5
2E3C
330
1A
100
AcDbEntity
  8
外形線
100
AcDbLine
 10
399.48792664595
 20
432.117622486063
 30
0.0
 11
399.48792664595
 21
465.503949991787
 31
0.0
  0
ARC
  5
2E3D
330
1A
100
AcDbEntity
  8
外形線
100
AcDbCircle
 10
397.414369862366
 20
442.968382155947
 30
0.0
 40
2.073556783584
100
AcDbArc
 50
0.0
 51
90.0
  0
LINE
  5
2E3E
330
1A
100
AcDbEntity
  8
外形線
100
AcDbLine
 10
399.48792664595
 20
465.503949991787
 30
0.0
 11
426.92941591772
 21
465.503949991787
 31
0.0
  0
LINE
  5
2E3F
330
1A
100
AcDbEntity
  8
外形線
100
AcDbLine
 10
400.192668630568
 20
431.080844094271
 30
0.0
 11
434.451148254166
 21
431.080844094271
 31
0.0
  0
ARC
  5
2E40
330
1A
100
AcDbEntity
  8
外形線
100
AcDbCircle
 10
434.451148254166
 20
432.117622486063
 30
0.0
 40
1.036778391792
100
AcDbArc
 50
270.0
 51
0.0
  0
LINE
  5
2E42
330
1A
100
AcDbEntity
  8
外形線
100
AcDbLine
 10
435.487926645958
 20
432.117622486063
 30
0.0
 11
435.487926645958
 21
541.541794804553
 31
0.0
  0
LINE
  5
2E43
330
1A
100
AcDbEntity
  8
外形線
100
AcDbLine
 10
430.304034686998
 20
461.340837906657
 30
0.0
 11
430.304034686998
 21
539.909328413165
 31
0.0
  0
LINE
  5
2E44
330
1A
100
AcDbEntity
  8
外形線
100
AcDbLine
 10
388.48792664595
 20
537.187727547439
 30
0.0
 11
388.48792664595
 21
447.242983984697
 31
0.0
  0
LINE
  5
2E46
330
1A
100
AcDbEntity
  8
外形線
100
AcDbLine
 10
441.086529961634
 20
442.449992960051
 30
0.0
 11
441.086529961634
 21
492.215355766069
 31
0.0
  0
LINE
  5
2E47
330
1A
100
AcDbEntity
  8
外形線
100
AcDbLine
 10
468.664835183302
 20
473.254827687141
 30
0.0
 11
468.664835183302
 21
485.994685415317
 31
0.0
  0
LINE
  5
2E48
330
1A
100
AcDbEntity
  8
外形線
100
AcDbLine
 10
384.909302014824
 20
448.669338588853
 30
0.0
 11
384.909302014824
 21
447.438095555979
 31
0.0
  0
ARC
  5
2E49
330
1A
100
AcDbEntity
  8
外形線
100
AcDbCircle
 10
381.798966839448
 20
448.669338588853
 30
0.0
 40
3.110335175376
100
AcDbArc
 50
0.0
 51
54.999999999999
  0
LINE
  5
2E4A
330
1A
100
AcDbEntity
  8
外形線
100
AcDbLine
 10
367.54835847632
 20
525.080844094271
 30
0.0
 11
367.54835847632
 21
459.580844094271
 31
0.0
  0
ARC
  5
2E4B
330
1A
100
AcDbEntity
  8
外形線
100
AcDbCircle
 10
387.451148254158
 20
447.242983984697
 30
0.0
 40
1.036778391792
100
AcDbArc
 50
0.0
 51
54.999999999999
  0
ARC
  5
2E4C
330
1A
100
AcDbEntity
  8
外形線
100
AcDbCircle
 10
389.524705037742
 20
446.078717331323
 30
0.0
 40
1.036778391792
100
AcDbArc
 50
180.0
 51
270.0
  0
ARC
  5
2E4D
330
1A
100
AcDbEntity
  8
外形線
100
AcDbCircle
 10
387.451148254158
 20
537.187727547439
 30
0.0
 40
1.036778391792
100
AcDbArc
 50
305.000000000002
 51
0.0
  0
ARC
  5
2E4E
330
1A
100
AcDbEntity
  8
外形線
100
AcDbCircle
 10
389.524705037742
 20
538.351994200811
 30
0.0
 40
1.036778391792
100
AcDbArc
 50
90.0
 51
180.0
  0
LINE
  5
2FA3
330
1A
100
AcDbEntity
  8
下書線
100
AcDbLine
 10
102.42675518331
 20
569.698193747198
 30
0.0
 11
501.483151402889
 21
569.698193747198
 31
0.0
  0
LINE
  5
2FAD
330
1A
100
AcDbEntity
  8
外形線
100
AcDbLine
 10
351.16483518331
 20
519.830844094271
 30
0.0
 11
353.16480518331
 21
519.830844094271
 31
0.0
  0
LINE
  5
2FAE
330
1A
100
AcDbEntity
  8
外形線
100
AcDbLine
 10
351.16483518331
 20
464.830844094271
 30
0.0
 11
353.16480518331
 21
464.830844094271
 31
0.0
  0
LINE
  5
2FAF
330
1A
100
AcDbEntity
  8
外形線
100
AcDbLine
 10
351.16483518331
 20
519.830844094271
 30
0.0
 11
351.16483518331
 21
464.830844094271
 31
0.0
  0
DIMENSION
  5
3002
330
1A
100
AcDbEntity
  8
寸法線
 48
10.0
100
AcDbDimension
  2
*D6
 10
488.058988652513
 20
406.054004094271
 30
0.0
 11
488.058988652513
 21
454.601424178714
 31
0.0
 70
   160
  1
89
  3
ISO-25
100
AcDbAlignedDimension
 13
468.664081678798
 23
492.330844094271
 33
0.0
 14
425.928908442367
 24
406.054004094271
 34
0.0
 50
90.0
100
AcDbRotatedDimension
1001
ACAD
1000
DSTYLE
1002
{
1070
     5
1000
OPEN30
1070
    41
1040
6.0
1070
    47
1040
0.1
1070
    48
1040
0.1
1070
    73
1070
     0
1070
   140
1040
8.0
1070
   271
1070
     1
1070
   272
1070
     1
1070
   341
1005
2AF4
1002
}
  0
DIMENSION
  5
300F
330
1A
100
AcDbEntity
  8
寸法線
 48
10.0
100
AcDbDimension
  2
*D7
 10
509.742022482611
 20
542.499107767979
 30
0.0
 11
505.117022482611
 21
492.215355766067
 31
0.0
 70
    32
  1
φ100
  3
ISO-25
100
AcDbAlignedDimension
 13
440.947627995228
 23
441.931603764155
 33
0.0
 14
440.947627995228
 24
542.499107767979
 34
0.0
 50
90.0
100
AcDbRotatedDimension
1001
ACAD
1000
DSTYLE
1002
{
1070
     5
1000
OPEN30
1070
    41
1040
6.0
1070
    47
1040
0.1
1070
    48
1040
0.1
1070
    73
1070
     0
1070
   140
1040
8.0
1070
   271
1070
     1
1070
   272
1070
     1
1070
   341
1005
2AF4
1002
}
  0
LINE
  5
3081
330
1A
100
AcDbEntity
  8
中心線
 48
10.0
100
AcDbLine
 10
200.610286879788
 20
492.330844094271
 30
0.0
 11
468.664081678798
 21
492.330844094271
 31
0.0
  0
DIMENSION
  5
30D2
330
1A
100
AcDbEntity
  8
寸法線
 48
10.0
100
AcDbDimension
  2
*D8
 10
353.16480518331
 20
374.830844094271
 30
0.0
 11
410.914820183306
 21
379.464177427604
 31
0.0
 70
    32
  1
118
  3
ISO-25
100
AcDbAlignedDimension
 13
468.664835183302
 23
447.798173370621
 33
0.0
 14
353.16480518331
 24
464.830844094271
 34
0.0
100
AcDbRotatedDimension
1001
ACAD
1000
DSTYLE
1002
{
1070
     5
1000
OPEN30
1070
    41
1040
6.0
1070
    47
1040
0.1
1070
    48
1040
0.1
1070
    73
1070
     0
1070
   140
1040
8.0
1070
   271
1070
     1
1070
   272
1070
     1
1070
   341
1005
2AF4
1002
}
  0
MTEXT
  5
30E8
330
1A
100
AcDbEntity
  8
寸法線
 48
10.0
100
AcDbMText
 10
488.487163678091
 20
396.322868692533
 30
0.0
 40
8.0
 41
54.634281616298
 71
     1
 72
     5
  1
コードロック\P2×M20
  0
LEADER
  5
30EA
330
1A
100
AcDbEntity
  8
寸法線
 48
10.0
100
AcDbLeader
  3
ISO-25
 76
     3
 10
430.907307173594
 20
416.21390987993
 30
0.0
 10
486.956485347852
 20
374.830844094271
 30
0.0
 10
501.773301409609
 20
374.830844094271
 30
0.0
213
-19.4593001190168
223
5.684341886080801E-14
233
0.0
1001
ACAD
1000
DSTYLE
1002
{
1070
     5
1000
OPEN30
1070
   147
1040
0.625
1070
    77
1070
     0
1070
    41
1040
6.0
1070
    47
1040
0.1
1070
    48
1040
0.1
1070
    73
1070
     0
1070
   140
1040
5.0
1070
   271
1070
     1
1070
   272
1070
     1
1070
   341
1005
2AF4
1070
   342
1005
2AF4
1002
}
  0
MTEXT
  5
30ED
102
{ACAD_XDICTIONARY
360
4650
102
}
330
1A
100
AcDbEntity
  8
寸法線
 48
10.0
100
AcDbMText
 10
390.564932591558
 20
416.478282119551
 30
0.0
 40
8.0
 41
43.585115063315
 71
     3
 72
     5
  1
2×NPT 1/2"
1001
ACADANNOTATIVE
1000
AnnotativeData
1002
{
1070
     1
1070
     0
1002
}
  0
MTEXT
  5
30F0
330
1A
100
AcDbEntity
  8
寸法線
 48
10.0
100
AcDbMText
 10
439.089328331978
 20
577.884105282725
 30
0.0
 40
8.0
 41
52.299095688858
 71
     1
 72
     5
  1
アルミ鋳物
  0
MTEXT
  5
30F2
102
{ACAD_XDICTIONARY
360
4832
102
}
330
1A
100
AcDbEntity
  8
寸法線
 48
10.0
100
AcDbMText
 10
386.777124936983
 20
578.449163079819
 30
0.0
 40
8.0
 41
32.682938326441
 71
     1
 72
     5
  1
平径46
1001
ACADANNOTATIVE
1000
AnnotativeData
1002
{
1070
     1
1070
     0
1002
}
  0
MTEXT
  5
30F5
330
1A
100
AcDbEntity
  8
寸法線
 48
10.0
100
AcDbMText
 10
325.005101801422
 20
578.809768184475
 30
0.0
 40
8.0
 41
133.333333333333
 71
     1
 72
     5
  1
ガスケット
  0
LEADER
  5
30FB
330
1A
100
AcDbEntity
  8
寸法線
 48
10.0
100
AcDbLeader
  3
ISO-25
 76
     3
 10
408.437054685199
 20
539.388772592603
 30
0.0
 10
438.990001880947
 20
569.698193747198
 30
0.0
 10
452.999900044917
 20
569.698193747198
 30
0.0
1001
ACAD
1000
DSTYLE
1002
{
1070
     5
1000
OPEN30
1070
   147
1040
0.625
1070
    77
1070
     0
1070
    41
1040
6.0
1070
    47
1040
0.1
1070
    48
1040
0.1
1070
    73
1070
     0
1070
   140
1040
5.0
1070
   271
1070
     1
1070
   272
1070
     1
1070
   341
1005
2AF4
1070
   342
1005
2AF4
1002
}
  0
LEADER
  5
30FC
330
1A
100
AcDbEntity
  8
寸法線
 48
10.0
100
AcDbLeader
  3
ISO-25
 76
     3
 10
360.356596829814
 20
518.888956476994
 30
0.0
 10
385.703509557515
 20
569.698193747198
 30
0.0
 10
395.680707605248
 20
569.698193747198
 30
0.0
1001
ACAD
1000
DSTYLE
1002
{
1070
     5
1000
OPEN30
1070
   147
1040
0.625
1070
    77
1070
     0
1070
    41
1040
6.0
1070
    47
1040
0.1
1070
    48
1040
0.1
1070
    73
1070
     0
1070
   140
1040
5.0
1070
   271
1070
     1
1070
   272
1070
     1
1070
   341
1005
2AF4
1070
   342
1005
2AF4
1002
}
  0
LEADER
  5
30FD
330
1A
100
AcDbEntity
  8
寸法線
 48
10.0
100
AcDbLeader
  3
ISO-25
 76
     3
 10
352.16482018331
 20
519.830844094271
 30
0.0
 10
324.756003322843
 20
569.698193747198
 30
0.0
 10
336.243444259661
 20
569.698193747198
 30
0.0
1001
ACAD
1000
DSTYLE
1002
{
1070
     5
1000
OPEN30
1070
   147
1040
0.625
1070
    77
1070
     0
1070
    41
1040
6.0
1070
    47
1040
0.1
1070
    48
1040
0.1
1070
    73
1070
     0
1070
   140
1040
5.0
1070
   271
1070
     1
1070
   272
1070
     1
1070
   341
1005
2AF4
1070
   342
1005
2AF4
1002
}
  0
LEADER
  5
30FE
330
1A
100
AcDbEntity
  8
寸法線
 48
10.0
100
AcDbLeader
  3
ISO-25
 76
     3
 10
342.91669718331
 20
516.330844094271
 30
0.0
 10
306.437464015087
 20
569.698193747198
 30
0.0
 10
297.063540235736
 20
569.698193747198
 30
0.0
1001
ACAD
1000
DSTYLE
1002
{
1070
     5
1000
OPEN30
1070
   147
1040
0.625
1070
    77
1070
     0
1070
    41
1040
6.0
1070
    47
1040
0.1
1070
    48
1040
0.1
1070
    73
1070
     0
1070
   140
1040
5.0
1070
   271
1070
     1
1070
   272
1070
     1
1070
   341
1005
2AF4
1070
   342
1005
2AF4
1002
}
  0
LEADER
  5
3104
330
1A
100
AcDbEntity
  8
寸法線
 48
10.0
100
AcDbLeader
  3
ISO-25
 76
     3
 10
249.326094791083
 20
509.258283120752
 30
0.0
 10
214.12040913527
 20
569.698193747198
 30
0.0
 10
198.397028150473
 20
569.698193747198
 30
0.0
1001
ACAD
1000
DSTYLE
1002
{
1070
     5
1000
OPEN30
1070
   147
1040
0.625
1070
    77
1070
     0
1070
    41
1040
6.0
1070
    47
1040
0.1
1070
    48
1040
0.1
1070
    73
1070
     0
1070
   140
1040
5.0
1070
   271
1070
     1
1070
   272
1070
     1
1070
   341
1005
2AF4
1070
   342
1005
2AF4
1002
}
  0
LINE
  5
32A9
330
1A
100
AcDbEntity
  8
細線
100
AcDbLine
 10
424.821908442367
 20
424.300844094271
 30
0.0
 11
424.821908442367
 21
429.400844094271
 31
0.0
  0
LINE
  5
32AA
330
1A
100
AcDbEntity
  8
細線
100
AcDbLine
 10
422.821908442367
 20
424.300844094271
 30
0.0
 11
422.821908442367
 21
429.400844094271
 31
0.0
  0
LINE
  5
32AB
330
1A
100
AcDbEntity
  8
細線
100
AcDbLine
 10
411.821908442367
 20
424.300844094271
 30
0.0
 11
411.821908442367
 21
429.400844094271
 31
0.0
  0
LINE
  5
32AC
330
1A
100
AcDbEntity
  8
細線
100
AcDbLine
 10
409.821908442367
 20
424.300844094271
 30
0.0
 11
409.821908442367
 21
429.400844094271
 31
0.0
  0
LINE
  5
32AD
330
1A
100
AcDbEntity
  8
外形線
100
AcDbLine
 10
430.798658442367
 20
421.764044094271
 30
0.0
 11
430.798658442367
 21
411.390076253107
 31
0.0
  0
LINE
  5
32AE
330
1A
100
AcDbEntity
  8
外形線
100
AcDbLine
 10
429.552908442367
 20
410.393744094271
 30
0.0
 11
430.798658442367
 21
411.462824094271
 31
0.0
  0
ARC
  5
32AF
330
1A
100
AcDbEntity
  8
細線
100
AcDbCircle
 10
427.810283442366
 20
414.989190408234
 30
0.0
 40
4.622298618747672
100
AcDbArc
 50
229.720808613669
 51
310.279191386337
  0
ARC
  5
32B0
330
1A
100
AcDbEntity
  8
外形線
100
AcDbCircle
 10
425.928908442367
 20
409.678004094271
 30
0.0
 40
3.624
100
AcDbArc
 50
270.0
 51
0.0
  0
LINE
  5
32B1
330
1A
100
AcDbEntity
  8
外形線
100
AcDbLine
 10
429.552908442367
 20
409.678004094271
 30
0.0
 11
429.552908442367
 21
410.393744094271
 31
0.0
  0
LINE
  5
32B2
330
1A
100
AcDbEntity
  8
外形線
100
AcDbLine
 10
430.821908442367
 20
429.400844094271
 30
0.0
 11
430.821908442367
 21
424.300844094271
 31
0.0
  0
LINE
  5
32B3
330
1A
100
AcDbEntity
  8
細線
100
AcDbLine
 10
422.821908442367
 20
411.462824094271
 30
0.0
 11
422.821908442367
 21
421.764044094271
 31
0.0
  0
LINE
  5
32B4
330
1A
100
AcDbEntity
  8
細線
100
AcDbLine
 10
424.821908442367
 20
411.462824094271
 30
0.0
 11
424.821908442367
 21
421.764044094271
 31
0.0
  0
LINE
  5
32B5
330
1A
100
AcDbEntity
  8
細線
100
AcDbLine
 10
425.475908442367
 20
421.764044094271
 30
0.0
 11
425.475908442367
 21
424.300844094271
 31
0.0
  0
LINE
  5
32B6
330
1A
100
AcDbEntity
  8
外形線
100
AcDbLine
 10
426.381908442367
 20
421.764044094271
 30
0.0
 11
426.381908442367
 21
424.300844094271
 31
0.0
  0
LINE
  5
32B7
330
1A
100
AcDbEntity
  8
細線
100
AcDbLine
 10
426.321908442367
 20
431.080844094271
 30
0.0
 11
426.321908442367
 21
429.400844094271
 31
0.0
  0
LINE
  5
32B8
330
1A
100
AcDbEntity
  8
外形線
100
AcDbLine
 10
427.321908442367
 20
429.400844094271
 30
0.0
 11
427.321908442367
 21
431.080844094271
 31
0.0
  0
LINE
  5
32B9
330
1A
100
AcDbEntity
  8
細線
100
AcDbLine
 10
408.321908442367
 20
431.080844094271
 30
0.0
 11
408.321908442367
 21
429.400844094271
 31
0.0
  0
LINE
  5
32BA
330
1A
100
AcDbEntity
  8
細線
100
AcDbLine
 10
409.167908442367
 20
421.764044094271
 30
0.0
 11
409.167908442367
 21
424.300844094271
 31
0.0
  0
LINE
  5
32BB
330
1A
100
AcDbEntity
  8
外形線
100
AcDbLine
 10
407.321908442367
 20
429.400844094271
 30
0.0
 11
407.321908442367
 21
431.080844094271
 31
0.0
  0
ARC
  5
32BC
330
1A
100
AcDbEntity
  8
外形線
100
AcDbCircle
 10
408.714908442367
 20
409.678004094271
 30
0.0
 40
3.624
100
AcDbArc
 50
180.0
 51
270.0
  0
ARC
  5
32BD
330
1A
100
AcDbEntity
  8
細線
100
AcDbCircle
 10
406.833533442367
 20
414.989190408234
 30
0.0
 40
4.622298618747632
100
AcDbArc
 50
229.72080861366
 51
310.279191386331
  0
LINE
  5
32BE
330
1A
100
AcDbEntity
  8
外形線
100
AcDbLine
 10
405.090908442367
 20
410.393744094271
 30
0.0
 11
403.845158442367
 21
411.462824094271
 31
0.0
  0
LINE
  5
32BF
330
1A
100
AcDbEntity
  8
外形線
100
AcDbLine
 10
405.090908442367
 20
409.678004094271
 30
0.0
 11
405.090908442367
 21
410.393744094271
 31
0.0
  0
LINE
  5
32C0
330
1A
100
AcDbEntity
  8
外形線
100
AcDbLine
 10
408.261908442367
 20
421.764044094271
 30
0.0
 11
408.261908442367
 21
424.300844094271
 31
0.0
  0
LINE
  5
32C1
330
1A
100
AcDbEntity
  8
外形線
100
AcDbLine
 10
403.845158442367
 20
421.764044094271
 30
0.0
 11
403.845158442367
 21
411.462824094271
 31
0.0
  0
LINE
  5
32C2
330
1A
100
AcDbEntity
  8
外形線
100
AcDbLine
 10
403.845158442367
 20
421.764044094271
 30
0.0
 11
430.798658442367
 21
421.764044094271
 31
0.0
  0
LINE
  5
32C3
330
1A
100
AcDbEntity
  8
外形線
100
AcDbLine
 10
403.821908442367
 20
429.400844094271
 30
0.0
 11
403.821908442367
 21
424.300844094271
 31
0.0
  0
LINE
  5
32C4
330
1A
100
AcDbEntity
  8
細線
100
AcDbLine
 10
411.821908442367
 20
411.462824094271
 30
0.0
 11
411.821908442367
 21
421.764044094271
 31
0.0
  0
LINE
  5
32C5
330
1A
100
AcDbEntity
  8
細線
100
AcDbLine
 10
409.821908442367
 20
411.462824094271
 30
0.0
 11
409.821908442367
 21
421.764044094271
 31
0.0
  0
LINE
  5
32C6
330
1A
100
AcDbEntity
  8
外形線
100
AcDbLine
 10
403.821908442367
 20
424.300844094271
 30
0.0
 11
430.821908442367
 21
424.300844094271
 31
0.0
  0
LINE
  5
32C7
330
1A
100
AcDbEntity
  8
外形線
100
AcDbLine
 10
430.821908442367
 20
429.400844094271
 30
0.0
 11
403.821908442367
 21
429.400844094271
 31
0.0
  0
ARC
  5
32C8
330
1A
100
AcDbEntity
  8
細線
100
AcDbCircle
 10
417.321908442367
 20
425.060973852137
 30
0.0
 40
14.668322222986
100
AcDbArc
 50
247.978303068449
 51
292.021696931551
  0
LINE
  5
32C9
330
1A
100
AcDbEntity
  8
細線
100
AcDbLine
 10
422.821908442367
 20
411.462824094271
 30
0.0
 11
424.821908442367
 21
411.462824094271
 31
0.0
  0
LINE
  5
32CA
330
1A
100
AcDbEntity
  8
細線
100
AcDbLine
 10
409.821908442367
 20
411.462824094271
 30
0.0
 11
411.821908442366
 21
411.462824094271
 31
0.0
  0
LINE
  5
32CB
330
1A
100
AcDbEntity
  8
外形線
100
AcDbLine
 10
408.714908442367
 20
406.054004094271
 30
0.0
 11
425.928908442367
 21
406.054004094271
 31
0.0
  0
LINE
  5
32CC
330
1A
100
AcDbEntity
  8
細線
100
AcDbLine
 10
405.090908442367
 20
410.393744094271
 30
0.0
 11
429.481526104373
 21
410.393744094271
 31
0.0
  0
LINE
  5
32CD
330
1A
100
AcDbEntity
  8
中心線
 48
10.0
100
AcDbLine
 10
417.321908442367
 20
431.080844094271
 30
0.0
 11
417.321908442367
 21
397.973416094271
 31
0.0
  0
LEADER
  5
34F2
330
1A
100
AcDbEntity
  8
寸法線
 48
10.0
100
AcDbLeader
  3
ISO-25
 76
     2
 10
408.639255063281
 20
445.662287069458
 30
0.0
 10
390.558114223119
 20
394.830844094271
 30
0.0
1001
ACAD
1000
DSTYLE
1002
{
1070
     5
1000
OPEN30
1070
   147
1040
0.625
1070
    77
1070
     0
1070
    41
1040
6.0
1070
    47
1040
0.1
1070
    48
1040
0.1
1070
    73
1070
     0
1070
   140
1040
5.0
1070
   271
1070
     1
1070
   272
1070
     1
1070
   341
1005
2AF4
1070
   342
1005
2AF4
1002
}
  0
LINE
  5
34F3
330
1A
100
AcDbEntity
  8
寸法線
 48
10.0
100
AcDbLine
 10
379.435326293222
 20
394.830844094271
 30
0.0
 11
390.558114223119
 21
394.830844094271
 31
0.0
  0
LINE
  5
3F22
330
1A
100
AcDbEntity
  8
外形線
 62
     7
100
AcDbLine
 10
216.267505657723
 20
476.444652805949
 30
0.0
 11
304.171166076902
 21
481.667092522021
 31
0.0
  0
LINE
  5
3F23
330
1A
100
AcDbEntity
  8
外形線
 62
     7
100
AcDbLine
 10
216.208199284147
 20
477.442892633872
 30
0.0
 11
304.171166076902
 21
482.668855797766
 31
0.0
  0
LINE
  5
3F24
330
1A
100
AcDbEntity
  8
外形線
 62
     7
100
AcDbLine
 10
216.445424778451
 20
511.211754866367
 30
0.0
 11
304.171166076902
 21
505.999885493759
 31
0.0
  0
LINE
  5
3F25
330
1A
100
AcDbEntity
  8
外形線
 62
     7
100
AcDbLine
 10
216.208199284147
 20
507.218795554672
 30
0.0
 11
304.171166076902
 21
501.992832390779
 31
0.0
  0
LINE
  5
3F26
330
1A
100
AcDbEntity
  8
外形線
 62
     7
100
AcDbLine
 10
216.445424778451
 20
473.449933322177
 30
0.0
 11
304.171166076902
 21
478.661802694786
 31
0.0
  0
LINE
  5
3F27
330
1A
100
AcDbEntity
  8
外形線
 62
     7
100
AcDbLine
 10
216.267505657723
 20
508.217035382594
 30
0.0
 11
304.171166076902
 21
502.994595666522
 31
0.0
  0
LINE
  5
3F28
330
1A
100
AcDbEntity
  8
外形線
 62
     7
100
AcDbLine
 10
216.445424778451
 20
511.211754866367
 30
0.0
 11
216.208199284147
 21
507.218795554672
 31
0.0
  0
LINE
  5
3F29
330
1A
100
AcDbEntity
  8
外形線
 62
     7
100
AcDbLine
 10
216.445424778451
 20
473.449933322177
 30
0.0
 11
216.208199284147
 21
477.442892633872
 31
0.0
  0
LINE
  5
3F2A
330
1A
100
AcDbEntity
  8
外形線
 62
     7
100
AcDbLine
 10
316.671166076902
 20
470.730844094272
 30
0.0
 11
327.171166076902
 21
470.730844094272
 31
0.0
  0
LINE
  5
3F2B
330
1A
100
AcDbEntity
  8
外形線
 62
     7
100
AcDbLine
 10
316.671166076902
 20
513.930844094272
 30
0.0
 11
333.16483518331
 21
513.930844094272
 31
0.0
  0
LINE
  5
3F2C
330
1A
100
AcDbEntity
  8
外形線
 62
     7
100
AcDbLine
 10
316.171166076902
 20
513.430844094272
 30
0.0
 11
316.171166076902
 21
504.502938475136
 31
0.0
  0
LINE
  5
3F2D
330
1A
100
AcDbEntity
  8
外形線
 62
     7
100
AcDbLine
 10
316.671166076902
 20
513.930844094272
 30
0.0
 11
316.671166076902
 21
470.730844094272
 31
0.0
  0
LINE
  5
3F2E
330
1A
100
AcDbEntity
  8
外形線
 62
     7
100
AcDbLine
 10
316.171166076902
 20
513.430844094272
 30
0.0
 11
316.671166076902
 21
513.930844094272
 31
0.0
  0
LINE
  5
3F2F
330
1A
100
AcDbEntity
  8
外形線
 62
     7
100
AcDbLine
 10
311.040982936905
 20
482.565802446117
 30
0.0
 11
304.171166076902
 21
482.565802446117
 31
0.0
  0
LINE
  5
3F30
330
1A
100
AcDbEntity
  8
外形線
 62
     7
100
AcDbLine
 10
312.775568173094
 20
478.661802694786
 30
0.0
 11
304.171166076902
 21
478.661802694786
 31
0.0
  0
LINE
  5
3F31
330
1A
100
AcDbEntity
  8
外形線
 62
     7
100
AcDbLine
 10
304.171166076902
 20
481.667092522021
 30
0.0
 11
313.656898698628
 21
481.667092522021
 31
0.0
  0
LINE
  5
3F32
330
1A
100
AcDbEntity
  8
外形線
 62
     7
100
AcDbLine
 10
311.040982936905
 20
502.095885742428
 30
0.0
 11
304.171166076902
 21
502.095885742428
 31
0.0
  0
LINE
  5
3F33
330
1A
100
AcDbEntity
  8
外形線
 62
     7
100
AcDbLine
 10
304.171166076902
 20
502.994595666522
 30
0.0
 11
313.656898698628
 21
502.994595666522
 31
0.0
  0
LINE
  5
3F34
330
1A
100
AcDbEntity
  8
外形線
 62
     7
100
AcDbLine
 10
312.775568173094
 20
505.999885493759
 30
0.0
 11
304.171166076902
 21
505.999885493759
 31
0.0
  0
LINE
  5
3F35
330
1A
100
AcDbEntity
  8
外形線
 62
     7
100
AcDbLine
 10
304.171166076902
 20
505.999885493759
 30
0.0
 11
304.171166076902
 21
501.992832390779
 31
0.0
  0
LINE
  5
3F36
330
1A
100
AcDbEntity
  8
外形線
 62
     7
100
AcDbLine
 10
304.171166076902
 20
478.661802694786
 30
0.0
 11
304.171166076902
 21
482.668855797766
 31
0.0
  0
LINE
  5
3F37
330
1A
100
AcDbEntity
  8
外形線
 62
     7
100
AcDbLine
 10
316.171166076902
 20
487.830844094272
 30
0.0
 11
316.171166076902
 21
492.330844094272
 31
0.0
  0
LINE
  5
3F38
330
1A
100
AcDbEntity
  8
外形線
 62
     7
100
AcDbLine
 10
316.171166076902
 20
480.158749713408
 30
0.0
 11
316.171166076902
 21
492.330844094272
 31
0.0
  0
ARC
  5
3F39
330
1A
100
AcDbEntity
  8
外形線
 62
     7
100
AcDbCircle
 10
315.771166076902
 20
504.502938475136
 30
0.0
 40
0.4
100
AcDbArc
 50
239.999999999999
 51
0.0
  0
ARC
  5
3F3A
330
1A
100
AcDbEntity
  8
外形線
 62
     7
100
AcDbCircle
 10
315.771166076902
 20
504.502938475136
 30
0.0
 40
0.4
100
AcDbArc
 50
239.999999999999
 51
0.0
  0
LINE
  5
3F3B
330
1A
100
AcDbEntity
  8
外形線
 62
     7
100
AcDbLine
 10
315.571166076902
 20
504.156528313622
 30
0.0
 11
315.571166076902
 21
501.347197666915
 31
0.0
  0
LINE
  5
3F3C
330
1A
100
AcDbEntity
  8
外形線
 62
     7
100
AcDbLine
 10
316.171166076902
 20
496.830844094272
 30
0.0
 11
316.171166076902
 21
492.330844094272
 31
0.0
  0
LINE
  5
3F3D
330
1A
100
AcDbEntity
  8
外形線
 62
     7
100
AcDbLine
 10
316.171166076902
 20
504.502938475136
 30
0.0
 11
316.171166076902
 21
492.330844094272
 31
0.0
  0
ARC
  5
3F3E
330
1A
100
AcDbEntity
  8
外形線
 62
     7
100
AcDbCircle
 10
310.348474377511
 20
496.289204792472
 30
0.0
 40
5.847829662311536
100
AcDbArc
 50
5.314482866102
 51
83.198990373673
  0
LINE
  5
3F3F
330
1A
100
AcDbEntity
  8
外形線
 62
     7
100
AcDbLine
 10
310.164768515211
 20
505.999885493759
 30
0.0
 11
316.171166076902
 21
500.830844094272
 31
0.0
  0
LINE
  5
3F40
330
1A
100
AcDbEntity
  8
外形線
 62
     7
100
AcDbLine
 10
315.571166076902
 20
504.156528313622
 30
0.0
 11
312.775568173094
 21
505.999885493759
 31
0.0
  0
LINE
  5
3F41
330
1A
100
AcDbEntity
  8
外形線
 62
     7
100
AcDbLine
 10
316.171166076902
 20
471.230844094272
 30
0.0
 11
316.671166076902
 21
470.730844094272
 31
0.0
  0
LINE
  5
3F42
330
1A
100
AcDbEntity
  8
外形線
 62
     7
100
AcDbLine
 10
315.571166076902
 20
480.505159874922
 30
0.0
 11
315.571166076902
 21
483.31449052163
 31
0.0
  0
ARC
  5
3F43
330
1A
100
AcDbEntity
  8
外形線
 62
     7
100
AcDbCircle
 10
315.771166076902
 20
480.158749713408
 30
0.0
 40
0.4
100
AcDbArc
 50
0.0
 51
120.000000000001
  0
LINE
  5
3F44
330
1A
100
AcDbEntity
  8
外形線
 62
     7
100
AcDbLine
 10
316.171166076902
 20
471.230844094272
 30
0.0
 11
316.171166076902
 21
480.158749713408
 31
0.0
  0
ARC
  5
3F45
330
1A
100
AcDbEntity
  8
外形線
 62
     7
100
AcDbCircle
 10
310.348474377511
 20
488.372483396073
 30
0.0
 40
5.847829662311536
100
AcDbArc
 50
276.801009626327
 51
354.685517133898
  0
LINE
  5
3F46
330
1A
100
AcDbEntity
  8
外形線
 62
     7
100
AcDbLine
 10
310.164768515211
 20
478.661802694786
 30
0.0
 11
316.171166076902
 21
483.830844094272
 31
0.0
  0
LINE
  5
3F47
330
1A
100
AcDbEntity
  8
外形線
 62
     7
100
AcDbLine
 10
315.571166076902
 20
480.505159874922
 30
0.0
 11
312.775568173094
 21
478.661802694786
 31
0.0
  0
LINE
  5
3F48
330
1A
100
AcDbEntity
  8
外形線
  6
CONTINUOUS
 62
     7
100
AcDbLine
 10
333.16483518331
 20
470.730844094271
 30
0.0
 11
327.171166076902
 21
470.730844094271
 31
0.0
  0
LINE
  5
3F49
330
1A
100
AcDbEntity
  8
外形線
100
AcDbLine
 10
333.16483518331
 20
470.330844094271
 30
0.0
 11
333.16483518331
 21
514.330844094271
 31
0.0
  0
LINE
  5
3F4A
330
1A
100
AcDbEntity
  8
外形線
100
AcDbLine
 10
334.66855918331
 20
516.330844094271
 30
0.0
 11
333.16483518331
 21
514.330844094271
 31
0.0
  0
LINE
  5
3F4B
330
1A
100
AcDbEntity
  8
外形線
100
AcDbLine
 10
334.66855918331
 20
468.330844094271
 30
0.0
 11
333.16483518331
 21
470.330844094271
 31
0.0
  0
LINE
  5
3F4C
330
1A
100
AcDbEntity
  8
外形線
100
AcDbLine
 10
351.16483518331
 20
468.330844094271
 30
0.0
 11
334.66855918331
 21
468.330844094271
 31
0.0
  0
LINE
  5
3F4D
330
1A
100
AcDbEntity
  8
細線
100
AcDbLine
 10
351.16483518331
 20
470.330844094271
 30
0.0
 11
333.16483518331
 21
470.330844094271
 31
0.0
  0
LINE
  5
3F4E
330
1A
100
AcDbEntity
  8
細線
100
AcDbLine
 10
351.16483518331
 20
514.330844094271
 30
0.0
 11
333.16483518331
 21
514.330844094271
 31
0.0
  0
LINE
  5
3F4F
330
1A
100
AcDbEntity
  8
外形線
100
AcDbLine
 10
351.16483518331
 20
516.330844094271
 30
0.0
 11
334.66855918331
 21
516.330844094271
 31
0.0
  0
DIMENSION
  5
3F66
330
1A
100
AcDbEntity
  8
寸法線
 48
10.0
100
AcDbDimension
  2
*D10
 10
353.16480518331
 20
374.747109973054
 30
0.0
 11
284.80511498088
 21
379.376276639721
 31
0.0
 70
    32
  1
137
  3
ISO-25
100
AcDbAlignedDimension
 13
216.445424778451
 23
473.449933322177
 33
0.0
 14
353.16480518331
 24
464.830844094271
 34
0.0
100
AcDbRotatedDimension
1001
ACAD
1000
DSTYLE
1002
{
1070
     5
1000
OPEN30
1070
    41
1040
6.0
1070
    47
1040
0.1
1070
    48
1040
0.1
1070
    73
1070
     0
1070
   140
1040
8.0
1070
   271
1070
     1
1070
   272
1070
     1
1070
   341
1005
2AF4
1002
}
  0
MTEXT
  5
424E
330
1A
100
AcDbEntity
  8
寸法線
 48
10.0
100
AcDbMText
 10
216.666821992614
 20
570.944556272107
 30
0.0
 40
8.0
 41
0.0
 71
     9
 72
     1
  1
振動部（検知部）\PDIN1.4571（SUS316相当）
  0
MTEXT
  5
426C
330
1A
100
AcDbEntity
  8
寸法線
 48
10.0
100
AcDbMText
 10
174.7267009173
 20
253.312115725517
 30
0.0
 40
8.0
 41
95.557777777778
 71
     1
 72
     5
  1
{\C1;NC}
  0
MTEXT
  5
426D
330
1A
100
AcDbEntity
  8
寸法線
 48
10.0
100
AcDbMText
 10
152.108999720895
 20
253.312115725517
 30
0.0
 40
8.0
 41
95.557777777778
 71
     1
 72
     5
  1
{\C1;C}
  0
MTEXT
  5
426E
330
1A
100
AcDbEntity
  8
寸法線
 48
10.0
100
AcDbMText
 10
123.610025343903
 20
253.312115725517
 30
0.0
 40
8.0
 41
95.557777777778
 71
     1
 72
     5
  1
{\C1;NO}
  0
MTEXT
  5
426F
330
1A
100
AcDbEntity
  8
寸法線
 48
10.0
100
AcDbMText
 10
99.347246766407
 20
253.312115725517
 30
0.0
 40
8.0
 41
95.557777777778
 71
     1
 72
     5
  1
{\C1;L1}
  0
MTEXT
  5
4270
330
1A
100
AcDbEntity
  8
寸法線
 48
10.0
100
AcDbMText
 10
73.453570063061
 20
253.312115725517
 30
0.0
 40
8.0
 41
95.557777777778
 71
     1
 72
     5
  1
{\C1;N}
  0
MTEXT
  5
4271
330
1A
100
AcDbEntity
  8
寸法線
 48
10.0
100
AcDbMText
 10
45.692728812625
 20
253.312115725517
 30
0.0
 40
8.0
 41
95.557777777778
 71
     1
 72
     5
  1
{\C1;PE}
  0
MTEXT
  5
4272
330
1A
100
AcDbEntity
  8
寸法線
 48
10.0
100
AcDbMText
 10
178.891088984152
 20
308.164413345726
 30
0.0
 40
7.0
 41
95.557777777778
 71
     1
 72
     5
  1
{\C1;9}
  0
MTEXT
  5
4273
330
1A
100
AcDbEntity
  8
寸法線
 48
10.0
100
AcDbMText
 10
153.290286724101
 20
308.164413345726
 30
0.0
 40
7.0
 41
95.557777777778
 71
     1
 72
     5
  1
{\C1;8}
  0
MTEXT
  5
4274
330
1A
100
AcDbEntity
  8
寸法線
 48
10.0
100
AcDbMText
 10
126.70795112528
 20
308.164413345726
 30
0.0
 40
7.0
 41
95.557777777778
 71
     1
 72
     5
  1
{\C1;7}
  0
MTEXT
  5
4275
330
1A
100
AcDbEntity
  8
寸法線
 48
10.0
100
AcDbMText
 10
100.723140054313
 20
308.164413345726
 30
0.0
 40
7.0
 41
95.557777777778
 71
     1
 72
     5
  1
{\C1;3}
  0
MTEXT
  5
4276
330
1A
100
AcDbEntity
  8
寸法線
 48
10.0
100
AcDbMText
 10
74.300051868439
 20
308.164413345726
 30
0.0
 40
7.0
 41
95.557777777778
 71
     1
 72
     5
  1
{\C1;2}
  0
MTEXT
  5
4277
330
1A
100
AcDbEntity
  8
寸法線
 48
10.0
100
AcDbMText
 10
48.280331076415
 20
308.164413345726
 30
0.0
 40
7.0
 41
95.557777777778
 71
     1
 72
     5
  1
{\C1;1}
  0
MTEXT
  5
4278
330
1A
100
AcDbEntity
  8
寸法線
 48
10.0
100
AcDbMText
 10
45.063184914219
 20
342.829286102086
 30
0.0
 40
8.0
 41
95.557777777778
 71
     1
 72
     5
  1
{\C1;RRH-301}
  0
LINE
  5
4279
330
1A
100
AcDbEntity
  8
寸法線
100
AcDbLine
 10
115.079963963507
 20
295.957851657063
 30
0.0
 11
115.079963963507
 21
287.537851657063
 31
0.0
  0
LINE
  5
427A
330
1A
100
AcDbEntity
  8
寸法線
100
AcDbLine
 10
115.079963963507
 20
298.357851657063
 30
0.0
 11
115.079963963507
 21
302.357851657063
 31
0.0
  0
LINE
  5
427B
330
1A
100
AcDbEntity
  8
寸法線
100
AcDbLine
 10
117.079963963507
 20
300.357851657063
 30
0.0
 11
113.079963963507
 21
300.357851657063
 31
0.0
  0
LINE
  5
427C
330
1A
100
AcDbEntity
  8
寸法線
100
AcDbLine
 10
119.479963963507
 20
295.957851657063
 30
0.0
 11
119.479963963507
 21
304.757851657063
 31
0.0
  0
LINE
  5
427D
330
1A
100
AcDbEntity
  8
寸法線
100
AcDbLine
 10
110.679963963507
 20
295.957851657063
 30
0.0
 11
110.679963963507
 21
304.757851657063
 31
0.0
  0
CIRCLE
  5
427E
330
1A
100
AcDbEntity
  8
寸法線
100
AcDbCircle
 10
115.079963963507
 20
300.357851657063
 30
0.0
 40
4.40000000000004
  0
POINT
  5
427F
330
1A
100
AcDbEntity
  8
寸法線
100
AcDbPoint
 10
115.079963963507
 20
300.357851657063
 30
0.0
  0
LINE
  5
4280
330
1A
100
AcDbEntity
  8
寸法線
100
AcDbLine
 10
110.679963963507
 20
304.757851657063
 30
0.0
 11
119.479963963507
 21
304.757851657063
 31
0.0
  0
LINE
  5
4281
330
1A
100
AcDbEntity
  8
寸法線
100
AcDbLine
 10
114.179963963507
 20
280.457851657063
 30
0.0
 11
116.259963963507
 21
280.457851657063
 31
0.0
  0
LINE
  5
4282
330
1A
100
AcDbEntity
  8
寸法線
100
AcDbLine
 10
112.959963963507
 20
282.197851657063
 30
0.0
 11
117.379963963507
 21
282.197851657063
 31
0.0
  0
LINE
  5
4283
330
1A
100
AcDbEntity
  8
寸法線
100
AcDbLine
 10
111.419963963507
 20
283.997851657063
 30
0.0
 11
118.939963963507
 21
283.997851657063
 31
0.0
  0
CIRCLE
  5
4284
330
1A
100
AcDbEntity
  8
寸法線
100
AcDbCircle
 10
115.079963963507
 20
282.537851657063
 30
0.0
 40
5.0
  0
LINE
  5
4285
330
1A
100
AcDbEntity
  8
寸法線
100
AcDbLine
 10
115.079963963507
 20
287.537851657063
 30
0.0
 11
115.079963963507
 21
283.997851657063
 31
0.0
  0
POINT
  5
4286
330
1A
100
AcDbEntity
  8
寸法線
100
AcDbPoint
 10
115.079963963507
 20
295.957851657063
 30
0.0
  0
LINE
  5
4287
330
1A
100
AcDbEntity
  8
寸法線
100
AcDbLine
 10
167.359963963507
 20
339.157851657063
 30
0.0
 11
180.479963963507
 21
339.157851657063
 31
0.0
  0
LINE
  5
4288
330
1A
100
AcDbEntity
  8
寸法線
100
AcDbLine
 10
154.160473518941
 20
324.351482214135
 30
0.0
 11
168.520029839589
 21
340.557851657063
 31
0.0
  0
LINE
  5
4289
330
1A
100
AcDbEntity
  8
寸法線
100
AcDbLine
 10
145.389311549648
 20
339.157851657063
 30
0.0
 11
128.159963963507
 21
339.157851657063
 31
0.0
  0
CIRCLE
  5
428A
330
1A
100
AcDbEntity
  8
寸法線
100
AcDbCircle
 10
154.319963963507
 20
322.357851657063
 30
0.0
 40
2.0
  0
LINE
  5
428B
330
1A
100
AcDbEntity
  8
寸法線
100
AcDbLine
 10
128.159963963507
 20
310.957851657063
 30
0.0
 11
128.159963963507
 21
339.157851657063
 31
0.0
  0
LINE
  5
428C
330
1A
100
AcDbEntity
  8
寸法線
100
AcDbLine
 10
154.319963963507
 20
310.957851657063
 30
0.0
 11
154.319963963507
 21
320.357851657063
 31
0.0
  0
LINE
  5
428D
330
1A
100
AcDbEntity
  8
寸法線
100
AcDbLine
 10
180.479963963507
 20
310.757851657063
 30
0.0
 11
180.479963963507
 21
339.157851657063
 31
0.0
  0
LINE
  5
428E
330
1A
100
AcDbEntity
  8
寸法線
100
AcDbLine
 10
40.479963963507
 20
293.957851657063
 30
0.0
 11
189.679963963507
 21
293.957851657063
 31
0.0
  0
LINE
  5
428F
330
1A
100
AcDbEntity
  8
寸法線
100
AcDbLine
 10
189.679963963507
 20
293.957851657063
 30
0.0
 11
189.679963963507
 21
347.957851657063
 31
0.0
  0
LINE
  5
4290
330
1A
100
AcDbEntity
  8
寸法線
100
AcDbLine
 10
40.479963963507
 20
347.957851657063
 30
0.0
 11
189.679963963507
 21
347.957851657063
 31
0.0
  0
LINE
  5
4291
330
1A
100
AcDbEntity
  8
寸法線
100
AcDbLine
 10
40.479963963507
 20
293.957851657063
 30
0.0
 11
40.479963963507
 21
347.957851657063
 31
0.0
  0
CIRCLE
  5
4292
330
1A
100
AcDbEntity
  8
寸法線
100
AcDbCircle
 10
180.679963963507
 20
304.957851657063
 30
0.0
 40
5.0
  0
CIRCLE
  5
4293
330
1A
100
AcDbEntity
  8
寸法線
100
AcDbCircle
 10
154.479963963507
 20
304.957851657063
 30
0.0
 40
5.0
  0
CIRCLE
  5
4294
330
1A
100
AcDbEntity
  8
寸法線
100
AcDbCircle
 10
128.279963963507
 20
304.957851657063
 30
0.0
 40
5.0
  0
CIRCLE
  5
4295
330
1A
100
AcDbEntity
  8
寸法線
100
AcDbCircle
 10
102.079963963507
 20
304.957851657063
 30
0.0
 40
5.0
  0
CIRCLE
  5
4296
330
1A
100
AcDbEntity
  8
寸法線
100
AcDbCircle
 10
75.879963963507
 20
304.957851657063
 30
0.0
 40
5.0
  0
CIRCLE
  5
4297
330
1A
100
AcDbEntity
  8
寸法線
100
AcDbCircle
 10
49.479963963507
 20
304.957851657063
 30
0.0
 40
5.0
  0
LINE
  5
4298
330
1A
100
AcDbEntity
  8
寸法線
100
AcDbLine
 10
187.679963963507
 20
295.957851657063
 30
0.0
 11
182.479963963507
 21
295.957851657063
 31
0.0
  0
LINE
  5
4299
330
1A
100
AcDbEntity
  8
寸法線
100
AcDbLine
 10
156.319963963507
 20
295.957851657063
 30
0.0
 11
178.479963963507
 21
295.957851657063
 31
0.0
  0
LINE
  5
429A
330
1A
100
AcDbEntity
  8
寸法線
100
AcDbLine
 10
130.159963963507
 20
295.957851657063
 30
0.0
 11
152.319963963507
 21
295.957851657063
 31
0.0
  0
LINE
  5
429B
330
1A
100
AcDbEntity
  8
寸法線
100
AcDbLine
 10
103.999963963507
 20
295.957851657063
 30
0.0
 11
126.159963963507
 21
295.957851657063
 31
0.0
  0
LINE
  5
429C
330
1A
100
AcDbEntity
  8
寸法線
100
AcDbLine
 10
77.839963963507
 20
295.957851657063
 30
0.0
 11
99.999963963507
 21
295.957851657063
 31
0.0
  0
LINE
  5
429D
330
1A
100
AcDbEntity
  8
寸法線
100
AcDbLine
 10
51.679963963507
 20
295.957851657063
 30
0.0
 11
73.839963963507
 21
295.957851657063
 31
0.0
  0
LINE
  5
429E
330
1A
100
AcDbEntity
  8
寸法線
100
AcDbLine
 10
47.679963963507
 20
295.957851657063
 30
0.0
 11
42.479963963507
 21
295.957851657063
 31
0.0
  0
LINE
  5
429F
330
1A
100
AcDbEntity
  8
寸法線
100
AcDbLine
 10
154.319963963507
 20
293.957851657063
 30
0.0
 11
154.319963963507
 21
255.957851657063
 31
0.0
  0
LINE
  5
42A0
330
1A
100
AcDbEntity
  8
寸法線
100
AcDbLine
 10
128.159963963507
 20
293.957851657063
 30
0.0
 11
128.159963963507
 21
255.957851657063
 31
0.0
  0
LINE
  5
42A1
330
1A
100
AcDbEntity
  8
寸法線
100
AcDbLine
 10
101.999963963507
 20
293.957851657063
 30
0.0
 11
101.999963963507
 21
255.957851657063
 31
0.0
  0
LINE
  5
42A2
330
1A
100
AcDbEntity
  8
寸法線
100
AcDbLine
 10
75.839963963507
 20
293.957851657063
 30
0.0
 11
75.839963963507
 21
255.957851657063
 31
0.0
  0
CIRCLE
  5
42A3
330
1A
100
AcDbEntity
  8
寸法線
100
AcDbCircle
 10
180.479963963507
 20
295.957851657063
 30
0.0
 40
2.0
  0
CIRCLE
  5
42A4
330
1A
100
AcDbEntity
  8
寸法線
100
AcDbCircle
 10
154.319963963507
 20
295.957851657063
 30
0.0
 40
2.0
  0
CIRCLE
  5
42A5
330
1A
100
AcDbEntity
  8
寸法線
100
AcDbCircle
 10
128.159963963507
 20
295.957851657063
 30
0.0
 40
2.0
  0
CIRCLE
  5
42A6
330
1A
100
AcDbEntity
  8
寸法線
100
AcDbCircle
 10
101.999963963507
 20
295.957851657063
 30
0.0
 40
2.0
  0
CIRCLE
  5
42A7
330
1A
100
AcDbEntity
  8
寸法線
100
AcDbCircle
 10
75.839963963507
 20
295.957851657063
 30
0.0
 40
2.0
  0
CIRCLE
  5
42A8
330
1A
100
AcDbEntity
  8
寸法線
100
AcDbCircle
 10
49.679963963507
 20
295.957851657063
 30
0.0
 40
2.0
  0
LINE
  5
42A9
330
1A
100
AcDbEntity
  8
寸法線
100
AcDbLine
 10
180.479963963507
 20
293.957851657063
 30
0.0
 11
180.479963963507
 21
255.957851657063
 31
0.0
  0
LINE
  5
42AA
330
1A
100
AcDbEntity
  8
寸法線
100
AcDbLine
 10
49.679963963507
 20
293.957851657063
 30
0.0
 11
49.679963963507
 21
255.957851657063
 31
0.0
  0
LINE
  5
42AB
330
1A
100
AcDbEntity
  8
寸法線
100
AcDbLine
 10
42.479963963507
 20
345.957851657063
 30
0.0
 11
42.479963963507
 21
295.957851657063
 31
0.0
  0
LINE
  5
42AC
330
1A
100
AcDbEntity
  8
寸法線
100
AcDbLine
 10
187.679963963507
 20
345.957851657063
 30
0.0
 11
42.479963963507
 21
345.957851657063
 31
0.0
  0
LINE
  5
42AD
330
1A
100
AcDbEntity
  8
寸法線
100
AcDbLine
 10
187.679963963507
 20
345.957851657063
 30
0.0
 11
187.679963963507
 21
295.957851657063
 31
0.0
  0
MTEXT
  5
433F
330
1A
100
AcDbEntity
  8
寸法線
 48
10.0
100
AcDbMText
 10
306.602258606633
 20
591.738596419996
 30
0.0
 40
8.0
 41
39.44464816509
 71
     3
 72
     5
  1
取付ねじ\PG1／"
  0
MTEXT
  5
4340
330
1A
100
AcDbEntity
  8
寸法線
 48
10.0
100
AcDbMText
 10
295.018064870477
 20
578.071376422701
 30
0.0
 40
4.0
 41
11.96254261794
 71
     1
 72
     5
  1
1
  0
MTEXT
  5
4341
330
1A
100
AcDbEntity
  8
寸法線
 48
10.0
100
AcDbMText
 10
299.520901232814
 20
574.768291519539
 30
0.0
 40
4.0
 41
7.712692385119
 71
     1
 72
     5
  1
2
  0
MTEXT
  5
43E1
330
1A
100
AcDbEntity
  8
寸法線
 48
10.0
100
AcDbMText
 10
170.560339353924
 20
241.400634564139
 30
0.0
 40
8.0
 41
95.557777777778
 71
     1
 72
     5
  1
{\C1;（NO）}
  0
MTEXT
  5
43E2
330
1A
100
AcDbEntity
  8
寸法線
 48
10.0
100
AcDbMText
 10
119.510760129089
 20
241.400634564139
 30
0.0
 40
8.0
 41
95.557777777778
 71
     1
 72
     5
  1
{\C1;（NC）}
  0
MTEXT
  5
43E3
330
1A
100
AcDbEntity
  8
寸法線
 48
10.0
100
AcDbMText
 10
221.344219345376
 20
301.014462584482
 30
0.0
 40
7.0
 41
125.633939393939
 71
     1
 72
     5
  1
{\C1;：グランド\P：電源\P：電源\P：コモン\P：オープン（クローズ）\P：クローズ（オープン）}
  0
MTEXT
  5
43E4
102
{ACAD_XDICTIONARY
360
43E5
102
}
330
1A
100
AcDbEntity
  8
寸法線
 48
10.0
100
AcDbMText
 10
207.138236496874
 20
333.518326237225
 30
0.0
 40
8.0
 41
124.815667100994
 71
     1
 72
     5
  1
電源電圧：AC20～255V　　　　　　：DC20～60V
1001
ACADANNOTATIVE
1000
AnnotativeData
1002
{
1070
     1
1070
     0
1002
}
  0
MTEXT
  5
4415
330
1A
100
AcDbEntity
  8
寸法線
 48
10.0
100
AcDbMText
 10
209.45402654564
 20
301.014462584482
 30
0.0
 40
7.0
 41
125.633939393939
 71
     1
 72
     5
  1
{\C1;PE\PN\PL1\PC\PNO\PNC}
  0
LINE
  5
4824
330
1A
100
AcDbEntity
  8
外形線
100
AcDbLine
 10
356.159793166504
 20
518.888956476994
 30
0.0
 11
353.16483518331
 21
513.398200174472
 31
0.0
  0
LINE
  5
4825
330
1A
100
AcDbEntity
  8
外形線
100
AcDbLine
 10
355.239031997341
 20
505.609900285633
 30
0.0
 11
365.474161662288
 21
505.609900285633
 31
0.0
  0
ARC
  5
4826
330
1A
100
AcDbEntity
  8
外形線
100
AcDbCircle
 10
410.45110938523
 20
492.330844094271
 30
0.0
 40
56.78650211819261
100
AcDbArc
 50
166.476641055109
 51
193.523358944891
  0
LINE
  5
4827
330
1A
100
AcDbEntity
  8
外形線
100
AcDbLine
 10
356.159793166504
 20
465.772731711548
 30
0.0
 11
353.16483518331
 21
471.26348801407
 31
0.0
  0
ARC
  5
4828
330
1A
100
AcDbEntity
  8
外形線
100
AcDbCircle
 10
364.32326331512
 20
473.209674470776
 30
0.0
 40
10.80062720349224
100
AcDbArc
 50
147.25473150955
 51
201.956277655799
  0
ARC
  5
4829
330
1A
100
AcDbEntity
  8
外形線
100
AcDbCircle
 10
310.2620842744
 20
492.330844094271
 30
0.0
 40
56.78650211819261
100
AcDbArc
 50
346.476641055109
 51
13.523358944891
  0
LINE
  5
482A
330
1A
100
AcDbEntity
  8
外形線
100
AcDbLine
 10
355.239031997341
 20
479.05178790291
 30
0.0
 11
365.474161662288
 21
479.05178790291
 31
0.0
  0
LINE
  5
482B
330
1A
100
AcDbEntity
  8
外形線
100
AcDbLine
 10
364.553400493126
 20
518.888956476994
 30
0.0
 11
356.159793166502
 21
518.888956476994
 31
0.0
  0
LINE
  5
482C
330
1A
100
AcDbEntity
  8
外形線
100
AcDbLine
 10
367.54835847632
 20
513.398200174472
 30
0.0
 11
364.553400493126
 21
518.888956476994
 31
0.0
  0
LINE
  5
482D
330
1A
100
AcDbEntity
  8
外形線
100
AcDbLine
 10
364.553400493126
 20
465.772731711548
 30
0.0
 11
367.54835847632
 21
471.26348801407
 31
0.0
  0
LINE
  5
482E
330
1A
100
AcDbEntity
  8
外形線
100
AcDbLine
 10
364.553400493126
 20
465.772731711548
 30
0.0
 11
356.159793166504
 21
465.772731711548
 31
0.0
  0
ARC
  5
482F
330
1A
100
AcDbEntity
  8
外形線
100
AcDbCircle
 10
364.32326331512
 20
511.452013717766
 30
0.0
 40
10.80062720349224
100
AcDbArc
 50
158.043722344201
 51
212.74526849045
  0
ARC
  5
4830
330
1A
100
AcDbEntity
  8
外形線
100
AcDbCircle
 10
356.38993034451
 20
511.452013717766
 30
0.0
 40
10.80062720349224
100
AcDbArc
 50
327.25473150955
 51
21.956277655792
  0
ARC
  5
4831
330
1A
100
AcDbEntity
  8
外形線
100
AcDbCircle
 10
356.38993034451
 20
473.209674470776
 30
0.0
 40
10.80062720349224
100
AcDbArc
 50
338.04372234421
 51
32.74526849045
  0
CIRCLE
  5
490A
330
1A
100
AcDbEntity
  8
外形線
 48
10.0
100
AcDbCircle
 10
360.356596829815
 20
492.330844094271
 30
0.0
 40
2.0
  0
VIEWPORT
  5
2902
330
28FB
100
AcDbEntity
 67
     1
  8
0
 48
10.0
100
AcDbViewport
 10
0.0
 20
0.0
 30
0.0
 40
552.319156214367
 41
300.3
 68
     1
 69
     1
1001
ACAD
1000
MVIEW
1002
{
1070
    16
1010
0.0
1020
0.0
1030
0.0
1010
0.0
1020
0.0
1030
1.0
1040
0.0
1040
300.3
1040
205.756503333333
1040
143.551503333333
1040
50.0
1040
0.0
1040
0.0
1070
    16
1070
   100
1070
     0
1070
     1
1070
     0
1070
     0
1070
     0
1070
     0
1040
0.0
1040
0.0
1040
0.0
1040
10.0
1040
10.0
1040
10.0
1040
10.0
1070
     0
1002
{
1002
}
1002
}
  0
VIEWPORT
  5
2904
330
28FB
100
AcDbEntity
 67
     1
  8
図枠太線
 48
10.0
100
AcDbViewport
 10
204.746305129083
 20
161.396645458131
 30
0.0
 40
400.0
 41
240.0
 68
     2
 69
     2
1001
ACAD
1000
MVIEW
1002
{
1070
    16
1010
0.0
1020
0.0
1030
0.0
1010
0.0
1020
0.0
1030
1.0
1040
0.0
1040
480.0
1040
296.705910160613
1040
422.611009988269
1040
50.0
1040
0.0
1040
0.0
1070
    16
1070
   100
1070
     0
1070
     0
1070
     0
1070
     0
1070
     0
1070
     0
1040
0.0
1040
0.0
1040
0.0
1040
1.0
1040
1.0
1040
0.0
1040
0.0
1070
     0
1002
{
1002
}
1002
}
  0
INSERT
  5
2A59
330
28FB
100
AcDbEntity
 67
     1
  8
図枠太線
100
AcDbBlockReference
  2
A3横用_タイトル
 10
-0.352109406709
 20
-2.129314295396
 30
0.0
  0
MTEXT
  5
2FE3
330
28FB
100
AcDbEntity
 67
     1
  8
寸法線
 48
10.0
100
AcDbMText
 10
149.281561913196
 20
13.738838105692
 30
0.0
 40
7.0
 41
10.579051054442
 71
     1
 72
     5
  1
1:2
  0
MTEXT
  5
2FE7
330
28FB
100
AcDbEntity
 67
     1
  8
寸法線
 48
10.0
100
AcDbMText
 10
312.604602487298
 20
32.24042583589
 30
0.0
 40
6.0
 41
53.647044270833
 71
     1
 72
     5
  1
RRH-301-0
  0
MTEXT
  5
2FE8
330
28FB
100
AcDbEntity
 67
     1
  8
寸法線
 48
10.0
100
AcDbMText
 10
363.257693177112
 20
37.807266065601
 30
0.0
 40
6.0
 41
50.761524795071
 71
     1
 72
     5
  1
{\H0.8333x;振動式\Pレベルスイッチ}
  0
MTEXT
  5
3100
330
28FB
100
AcDbEntity
 67
     1
  8
寸法線
 48
10.0
100
AcDbMText
 10
272.300488718679
 20
48.787921847374
 30
0.0
 40
5.0
 41
58.550841599714
 71
     1
 72
     5
  1
A3縮小図
  0
LINE
  5
3101
330
28FB
100
AcDbEntity
 67
     1
  8
寸法線
 48
10.0
100
AcDbLine
 10
272.300488718679
 20
42.916202519738
 30
0.0
 11
296.843718665885
 21
42.916202519738
 31
0.0
  0
MTEXT
  5
342E
102
{ACAD_XDICTIONARY
360
43A5
102
}
330
28FB
100
AcDbEntity
 67
     1
  8
寸法線
 48
10.0
100
AcDbMText
 10
373.050334218884
 20
49.129711919637
 30
0.0
 40
5.0
 41
54.683098362957
 71
     1
 72
     5
  1
\C1;台数 　 台
1001
ACADANNOTATIVE
1000
AnnotativeData
1002
{
1070
     1
1070
     0
1002
}
  0
MTEXT
  5
4335
102
{ACAD_XDICTIONARY
360
43A8
102
}
330
28FB
100
AcDbEntity
 67
     1
  8
寸法線
 48
10.0
100
AcDbMText
 10
340.381880955765
 20
14.170751279872
 30
0.0
 40
7.0
 41
68.56
 71
     1
 72
     5
  1
HVR-2004
1001
ACADANNOTATIVE
1000
AnnotativeData
1002
{
1070
     1
1070
     0
1002
}
  0
MTEXT
  5
444B
102
{ACAD_XDICTIONARY
360
444C
102
}
330
28FB
100
AcDbEntity
 67
     1
  8
寸法線
 48
10.0
100
AcDbMText
 10
175.506541278264
 20
12.819600893732
 30
0.0
 40
5.0
 41
60.244444444444
 71
     1
 72
     5
  1
2015.8.25
1001
ACADANNOTATIVE
1000
AnnotativeData
1002
{
1070
     1
1070
     0
1002
}
  0
MTEXT
  5
444F
102
{ACAD_XDICTIONARY
360
4450
102
}
330
28FB
100
AcDbEntity
 67
     1
  8
寸法線
 48
10.0
100
AcDbMText
 10
173.953401409015
 20
32.625226751426
 30
0.0
 40
5.0
 41
24.595673902063
 71
     1
 72
     5
  1
takahashi
1001
ACADANNOTATIVE
1000
AnnotativeData
1002
{
1070
     1
1070
     0
1002
}
  0
MTEXT
  5
474D
102
{ACAD_XDICTIONARY
360
474E
102
}
330
28FB
100
AcDbEntity
 67
     1
  8
下書線
 48
10.0
100
AcDbMText
 10
84.856480849885
 20
159.929351740591
 30
0.0
 40
10.0
 41
174.128675272846
 71
     5
 72
     5
  1
HP掲載図面\P変更・追記不可
1001
ACADANNOTATIVE
1000
AnnotativeData
1002
{
1070
     1
1070
     0
1002
}
  0
LWPOLYLINE
  5
4751
330
28FB
100
AcDbEntity
 67
     1
  8
下書線
 48
10.0
100
AcDbPolyline
 90
        4
 70
     1
 43
0.0
 10
42.626335596314
 20
178.355956571991
 10
126.460499360069
 20
178.355956571991
 10
126.460499360069
 20
141.23381763601
 10
42.626335596314
 20
141.23381763601
  0
MTEXT
  5
4B35
102
{ACAD_XDICTIONARY
360
4B36
102
}
330
28FB
100
AcDbEntity
 67
     1
  8
寸法線
 48
10.0
100
AcDbMText
 10
154.696305129083
 20
29.396646458131
 30
0.0
 40
4.5
 41
29.906507692735
 71
     5
 72
     5
  1
tahara
1001
ACADANNOTATIVE
1000
AnnotativeData
1002
{
1070
     1
1070
     0
1002
}
  0
MTEXT
  5
4B39
102
{ACAD_XDICTIONARY
360
4B3A
102
}
330
28FB
100
AcDbEntity
 67
     1
  8
寸法線
 48
10.0
100
AcDbMText
 10
121.396304528483
 20
29.396646458131
 30
0.0
 40
4.5
 41
16.097226867587
 71
     5
 72
     5
  1
konishi
1001
ACADANNOTATIVE
1000
AnnotativeData
1002
{
1070
     1
1070
     0
1002
}
  0
ENDSEC
  0
SECTION
  2
OBJECTS
  0
DICTIONARY
  5
C
330
0
100
AcDbDictionary
  3
ACAD_COLOR
350
2948
  3
ACAD_GROUP
350
D
  3
ACAD_LAYOUT
350
2816
  3
ACAD_MATERIAL
350
2947
  3
ACAD_MLEADERSTYLE
350
439F
  3
ACAD_MLINESTYLE
350
E
  3
ACAD_PLOTSETTINGS
350
2817
  3
ACAD_SCALELIST
350
4378
  3
ACAD_VISUALSTYLE
350
435F
  3
ACADDIM
350
30EB
  3
ACDBHEADERROUNDTRIPXREC
350
4C05
  3
ACDBVARIABLEDICTIONARY
350
4479
  3
DWGPROPS
350
4C2A
  0
DICTIONARY
  5
4C2B
330
8
100
AcDbDictionary
280
     1
  3
ACAD_XREC_ROUNDTRIP
360
4C2C
  0
DICTIONARY
  5
29EA
330
2
100
AcDbDictionary
280
     1
  3
ACAD_LAYERFILTERS
360
2B0C
  3
ACAD_LAYERSTATES
360
29EB
  0
DICTIONARY
  5
4650
330
30ED
100
AcDbDictionary
280
     1
  3
ACDBCONTEXTDATAMANAGER
360
4651
  0
DICTIONARY
  5
4832
330
30F2
100
AcDbDictionary
280
     1
  3
ACDBCONTEXTDATAMANAGER
360
4833
  0
DICTIONARY
  5
43E5
330
43E4
100
AcDbDictionary
280
     1
  3
ACDBCONTEXTDATAMANAGER
360
43E6
  0
DICTIONARY
  5
43A5
330
342E
100
AcDbDictionary
280
     1
  3
ACDBCONTEXTDATAMANAGER
360
43A6
  0
DICTIONARY
  5
43A8
330
4335
100
AcDbDictionary
280
     1
  3
ACDBCONTEXTDATAMANAGER
360
43A9
  0
DICTIONARY
  5
444C
330
444B
100
AcDbDictionary
280
     1
  3
ACDBCONTEXTDATAMANAGER
360
444D
  0
DICTIONARY
  5
4450
330
444F
100
AcDbDictionary
280
     1
  3
ACDBCONTEXTDATAMANAGER
360
4451
  0
DICTIONARY
  5
474E
330
474D
100
AcDbDictionary
280
     1
  3
ACDBCONTEXTDATAMANAGER
360
474F
  0
DICTIONARY
  5
4B36
330
4B35
100
AcDbDictionary
280
     1
  3
ACDBCONTEXTDATAMANAGER
360
4B37
  0
DICTIONARY
  5
4B3A
330
4B39
100
AcDbDictionary
280
     1
  3
ACDBCONTEXTDATAMANAGER
360
4B3B
  0
DICTIONARY
  5
2948
102
{ACAD_REACTORS
330
C
102
}
330
C
100
AcDbDictionary
  0
DICTIONARY
  5
D
102
{ACAD_REACTORS
330
C
102
}
330
C
100
AcDbDictionary
  0
DICTIONARY
  5
2816
102
{ACAD_REACTORS
330
C
102
}
330
C
100
AcDbDictionary
  0
DICTIONARY
  5
2947
102
{ACAD_REACTORS
330
C
102
}
330
C
100
AcDbDictionary
  3
BYBLOCK
350
439B
  3
BYLAYER
350
439A
  3
GLOBAL
350
439C
  0
DICTIONARY
  5
439F
102
{ACAD_REACTORS
330
C
102
}
330
C
100
AcDbDictionary
  3
STANDARD
350
43A0
  0
DICTIONARY
  5
E
102
{ACAD_REACTORS
330
C
102
}
330
C
100
AcDbDictionary
  3
STANDARD
350
13
  0
DICTIONARY
  5
2817
102
{ACAD_REACTORS
330
C
102
}
330
C
100
AcDbDictionary
  0
DICTIONARY
  5
4378
102
{ACAD_REACTORS
330
C
102
}
330
C
100
AcDbDictionary
  3
A0
350
4379
  3
A1
350
437A
  3
A2
350
437B
  3
A3
350
437C
  3
A4
350
437D
  3
A5
350
437E
  3
A6
350
437F
  3
A7
350
4380
  3
A8
350
4381
  3
A9
350
4382
  3
B0
350
4383
  3
B1
350
4384
  3
B2
350
4385
  3
B3
350
4386
  3
B4
350
4387
  3
B5
350
4388
  3
B6
350
4389
  3
B7
350
438A
  3
B8
350
438B
  3
B9
350
438C
  3
C0
350
438D
  3
C1
350
438E
  3
C2
350
438F
  3
C3
350
4390
  3
C4
350
4391
  3
C5
350
4392
  3
C6
350
4393
  3
C7
350
4394
  3
C8
350
4395
  3
C9
350
4396
  3
D0
350
4397
  3
D1
350
4398
  3
D2
350
4399
  0
DICTIONARY
  5
435F
102
{ACAD_REACTORS
330
C
102
}
330
C
100
AcDbDictionary
  3
2DWIREFRAME
350
4364
  3
BASIC
350
4367
  3
BRIGHTEN
350
436B
  3
COLORCHANGE
350
436F
  3
CONCEPTUAL
350
4369
  3
DIM
350
436A
  3
EDGECOLOROFF
350
4372
  3
FACEPATTERN
350
436E
  3
FLAT
350
4360
  3
FLATWITHEDGES
350
4361
  3
GOURAUD
350
4362
  3
GOURAUDWITHEDGES
350
4363
  3
HIDDEN
350
4366
  3
JITTEROFF
350
4370
  3
LINEPATTERN
350
436D
  3
MODELING
350
43A1
  3
OVERHANGOFF
350
4371
  3
REALISTIC
350
4368
  3
SHADED
350
4377
  3
SHADED_WITH_EDGES
350
4376
  3
SHADES_OF_GRAY
350
4373
  3
SKETCHY
350
4374
  3
THICKEN
350
436C
  3
WIREFRAME
350
4365
  3
X-RAY
350
4375
  0
XRECORD
  5
30EB
102
{ACAD_REACTORS
330
C
102
}
330
C
100
AcDbXrecord
 90
   990106
  3

 60
     0
 61
     0
 62
     1
 63
     3
 64
     0
 65
     0
 66
     0
 67
     3
 68
     1
 69
     0
 70
     0
 71
     0
 72
     0
 40
0.0
170
     0
  0
DICTIONARY
  5
4C05
102
{ACAD_REACTORS
330
C
102
}
330
C
100
AcDbDictionary
  3
CEPSNID
350
4C0F
  3
CEPSNTYPE
350
4C0E
  3
COLORDICT
350
4C28
  3
DIMSTYLEDATA
350
4C25
  3
FINGERPRINTGUID
350
4C10
  3
HYPERLINKBASE
350
4C08
  3
INSUNITS
350
4C0D
  3
LAYOUTDICT
350
4C0A
  3
LWETCUNION
350
4C0C
  3
MATERIALDICT
350
4C29
  3
PLOTSETDICT
350
4C0B
  3
PSVPSCALE
350
4C12
  3
PUCSBASE
350
4C15
  3
PUCSORGBACK
350
4C1B
  3
PUCSORGBOTTOM
350
4C17
  3
PUCSORGFRONT
350
4C1A
  3
PUCSORGLEFT
350
4C18
  3
PUCSORGRIGHT
350
4C19
  3
PUCSORGTOP
350
4C16
  3
PUCSORTHOREF
350
4C13
  3
PUCSORTHOVIEW
350
4C14
  3
STYLESHEET
350
4C09
  3
TSTACKALIGN
350
4C06
  3
TSTACKSIZE
350
4C07
  3
UCSBASE
350
4C1E
  3
UCSORGBACK
350
4C24
  3
UCSORGBOTTOM
350
4C20
  3
UCSORGFRONT
350
4C23
  3
UCSORGLEFT
350
4C21
  3
UCSORGRIGHT
350
4C22
  3
UCSORGTOP
350
4C1F
  3
UCSORTHOREF
350
4C1C
  3
UCSORTHOVIEW
350
4C1D
  3
VERSIONGUID
350
4C11
  0
DICTIONARY
  5
4479
102
{ACAD_REACTORS
330
C
102
}
330
C
100
AcDbDictionary
  3
CANNOSCALE
350
447A
  3
CMLEADERSTYLE
350
44BB
  3
CTABLESTYLE
350
44BA
  3
DIMASSOC
350
4C26
  3
HIDETEXT
350
4C27
  3
MSLTSCALE
350
44BC
  3
XCLIPFRAME
350
44BD
  0
XRECORD
  5
4C2A
102
{ACAD_REACTORS
330
C
102
}
330
C
100
AcDbXrecord
  1
DWGPROPS COOKIE
  2

  3

  4

  6

  7

  8
takahashi
  9

300
=
301
=
302
=
303
=
304
=
305
=
306
=
307
=
308
=
309
=
 40
0.0
 41
2450576.222302431
 42
2457268.998387199
  1

 90
        0
  0
XRECORD
  5
4C2C
102
{ACAD_REACTORS
330
4C2B
102
}
330
4C2B
100
AcDbXrecord
102
VTR_0.000_0.000_1.000_1.000_VISUALSTYLE
340
4364
102
VTR_0.000_0.000_1.000_1.000_GRIDDISPLAY
 70
     3
102
VTR_0.000_0.000_1.000_1.000_GRIDMAJOR
 70
     5
102
VTR_0.000_0.000_1.000_1.000_DEFAULTLIGHTING
280
     1
102
VTR_0.000_0.000_1.000_1.000_DEFAULTLIGHTINGTYPE
 70
     1
102
VTR_0.000_0.000_1.000_1.000_BRIGHTNESS
141
0.0
102
VTR_0.000_0.000_1.000_1.000_CONTRAST
142
0.0
  0
DICTIONARY
  5
2B0C
102
{ACAD_REACTORS
330
29EA
102
}
330
29EA
100
AcDbDictionary
  0
DICTIONARY
  5
29EB
102
{ACAD_REACTORS
330
29EA
102
}
330
29EA
100
AcDbDictionary
  0
DICTIONARY
  5
4651
102
{ACAD_REACTORS
330
4650
102
}
330
4650
100
AcDbDictionary
  3
ACDB_ANNOTATIONSCALES
350
4652
  0
DICTIONARY
  5
4833
102
{ACAD_REACTORS
330
4832
102
}
330
4832
100
AcDbDictionary
  3
ACDB_ANNOTATIONSCALES
350
4834
  0
DICTIONARY
  5
43E6
102
{ACAD_REACTORS
330
43E5
102
}
330
43E5
100
AcDbDictionary
  3
ACDB_ANNOTATIONSCALES
350
43E7
  0
DICTIONARY
  5
43A6
102
{ACAD_REACTORS
330
43A5
102
}
330
43A5
100
AcDbDictionary
  3
ACDB_ANNOTATIONSCALES
350
43A7
  0
DICTIONARY
  5
43A9
102
{ACAD_REACTORS
330
43A8
102
}
330
43A8
100
AcDbDictionary
  3
ACDB_ANNOTATIONSCALES
350
43AA
  0
DICTIONARY
  5
444D
102
{ACAD_REACTORS
330
444C
102
}
330
444C
100
AcDbDictionary
  3
ACDB_ANNOTATIONSCALES
350
444E
  0
DICTIONARY
  5
4451
102
{ACAD_REACTORS
330
4450
102
}
330
4450
100
AcDbDictionary
  3
ACDB_ANNOTATIONSCALES
350
4452
  0
DICTIONARY
  5
474F
102
{ACAD_REACTORS
330
474E
102
}
330
474E
100
AcDbDictionary
  3
ACDB_ANNOTATIONSCALES
350
4750
  0
DICTIONARY
  5
4B37
102
{ACAD_REACTORS
330
4B36
102
}
330
4B36
100
AcDbDictionary
  3
ACDB_ANNOTATIONSCALES
350
4B38
  0
DICTIONARY
  5
4B3B
102
{ACAD_REACTORS
330
4B3A
102
}
330
4B3A
100
AcDbDictionary
  3
ACDB_ANNOTATIONSCALES
350
4B3C
  0
MATERIAL
  5
439B
102
{ACAD_REACTORS
330
2947
102
}
102
{ACAD_XDICTIONARY
360
4C2F
102
}
330
2947
100
AcDbMaterial
  1
BYBLOCK
  0
MATERIAL
  5
439A
102
{ACAD_REACTORS
330
2947
102
}
102
{ACAD_XDICTIONARY
360
4C2D
102
}
330
2947
100
AcDbMaterial
  1
BYLAYER
  0
MATERIAL
  5
439C
102
{ACAD_REACTORS
330
2947
102
}
102
{ACAD_XDICTIONARY
360
4C31
102
}
330
2947
100
AcDbMaterial
  1
GLOBAL
  0
ACAD_PROXY_OBJECT
  5
43A0
102
{ACAD_REACTORS
330
439F
102
}
330
439F
100
AcDbProxyObject
 90
      499
 91
      507
 93
      610
310
40901902A4063FBFFFFFE0000000000000020400000000000020404214DD185B99185C990000000000000104090141901A00000000000004100000000000000041025764000000000000039000
340
14
340
0
340
10
340
0
 94
        0
1001
ACAD_MLEADERVER
1070
     2
  0
MLINESTYLE
  5
13
102
{ACAD_REACTORS
330
E
102
}
330
E
100
AcDbMlineStyle
  2
STANDARD
 70
     0
  3

 62
     0
 51
90.0
 52
90.0
 71
     2
 49
0.5
 62
   256
  6
BYLAYER
 49
-0.5
 62
   256
  6
BYLAYER
  0
ACAD_PROXY_OBJECT
  5
4379
102
{ACAD_REACTORS
330
4378
102
}
330
4378
100
AcDbProxyObject
 90
      499
 91
      504
 93
       41
310
903313A31580
  0
ACAD_PROXY_OBJECT
  5
437A
102
{ACAD_REACTORS
330
4378
102
}
330
4378
100
AcDbProxyObject
 90
      499
 91
      504
 93
      105
310
903313A324000000000000004000
  0
ACAD_PROXY_OBJECT
  5
437B
102
{ACAD_REACTORS
330
4378
102
}
330
4378
100
AcDbProxyObject
 90
      499
 91
      504
 93
      105
310
903313A344000000000000104000
  0
ACAD_PROXY_OBJECT
  5
437C
102
{ACAD_REACTORS
330
4378
102
}
330
4378
100
AcDbProxyObject
 90
      499
 91
      504
 93
      105
310
903313A354000000000000144000
  0
ACAD_PROXY_OBJECT
  5
437D
102
{ACAD_REACTORS
330
4378
102
}
330
4378
100
AcDbProxyObject
 90
      499
 91
      504
 93
      105
310
903313A384000000000000204000
  0
ACAD_PROXY_OBJECT
  5
437E
102
{ACAD_REACTORS
330
4378
102
}
330
4378
100
AcDbProxyObject
 90
      499
 91
      504
 93
      113
310
904313A31304000000000000244000
  0
ACAD_PROXY_OBJECT
  5
437F
102
{ACAD_REACTORS
330
4378
102
}
330
4378
100
AcDbProxyObject
 90
      499
 91
      504
 93
      113
310
904313A31364000000000000304000
  0
ACAD_PROXY_OBJECT
  5
4380
102
{ACAD_REACTORS
330
4378
102
}
330
4378
100
AcDbProxyObject
 90
      499
 91
      504
 93
      113
310
904313A32304000000000000344000
  0
ACAD_PROXY_OBJECT
  5
4381
102
{ACAD_REACTORS
330
4378
102
}
330
4378
100
AcDbProxyObject
 90
      499
 91
      504
 93
      113
310
904313A333040000000000003E4000
  0
ACAD_PROXY_OBJECT
  5
4382
102
{ACAD_REACTORS
330
4378
102
}
330
4378
100
AcDbProxyObject
 90
      499
 91
      504
 93
      113
310
904313A34304000000000000444000
  0
ACAD_PROXY_OBJECT
  5
4383
102
{ACAD_REACTORS
330
4378
102
}
330
4378
100
AcDbProxyObject
 90
      499
 91
      504
 93
      113
310
904313A35304000000000000494000
  0
ACAD_PROXY_OBJECT
  5
4384
102
{ACAD_REACTORS
330
4378
102
}
330
4378
100
AcDbProxyObject
 90
      499
 91
      504
 93
      121
310
905313A3130304000000000000594000
  0
ACAD_PROXY_OBJECT
  5
4385
102
{ACAD_REACTORS
330
4378
102
}
330
4378
100
AcDbProxyObject
 90
      499
 91
      504
 93
      105
310
903323A310000000000000010100
  0
ACAD_PROXY_OBJECT
  5
4386
102
{ACAD_REACTORS
330
4378
102
}
330
4378
100
AcDbProxyObject
 90
      499
 91
      504
 93
      105
310
903343A310000000000000410100
  0
ACAD_PROXY_OBJECT
  5
4387
102
{ACAD_REACTORS
330
4378
102
}
330
4378
100
AcDbProxyObject
 90
      499
 91
      504
 93
      105
310
903383A310000000000000810100
  0
ACAD_PROXY_OBJECT
  5
4388
102
{ACAD_REACTORS
330
4378
102
}
330
4378
100
AcDbProxyObject
 90
      499
 91
      504
 93
      113
310
90431303A310000000000000910100
  0
ACAD_PROXY_OBJECT
  5
4389
102
{ACAD_REACTORS
330
4378
102
}
330
4378
100
AcDbProxyObject
 90
      499
 91
      504
 93
      121
310
9053130303A310000000000001650100
  0
ACAD_PROXY_OBJECT
  5
438A
102
{ACAD_REACTORS
330
4378
102
}
330
4378
100
AcDbProxyObject
 90
      499
 91
      504
 93
      257
310
90E312F31323822203D2031272D3022000000000000200FC000000000000284000
  0
ACAD_PROXY_OBJECT
  5
438B
102
{ACAD_REACTORS
330
4378
102
}
330
4378
100
AcDbProxyObject
 90
      499
 91
      504
 93
      249
310
90D312F363422203D2031272D3022000000000000240FC000000000000284000
  0
ACAD_PROXY_OBJECT
  5
438C
102
{ACAD_REACTORS
330
4378
102
}
330
4378
100
AcDbProxyObject
 90
      499
 91
      504
 93
      249
310
90D312F333222203D2031272D3022000000000000280FC000000000000284000
  0
ACAD_PROXY_OBJECT
  5
438D
102
{ACAD_REACTORS
330
4378
102
}
330
4378
100
AcDbProxyObject
 90
      499
 91
      504
 93
      249
310
90D312F313622203D2031272D30220000000000002C0FC000000000000284000
  0
ACAD_PROXY_OBJECT
  5
438E
102
{ACAD_REACTORS
330
4378
102
}
330
4378
100
AcDbProxyObject
 90
      499
 91
      504
 93
      249
310
90D332F333222203D2031272D30220000000000002E0FC000000000000284000
  0
ACAD_PROXY_OBJECT
  5
438F
102
{ACAD_REACTORS
330
4378
102
}
330
4378
100
AcDbProxyObject
 90
      499
 91
      504
 93
      241
310
90C312F3822203D2031272D3022000000000000300FC000000000000284000
  0
ACAD_PROXY_OBJECT
  5
4390
102
{ACAD_REACTORS
330
4378
102
}
330
4378
100
AcDbProxyObject
 90
      499
 91
      504
 93
      249
310
90D332F313622203D2031272D3022000000000000320FC000000000000284000
  0
ACAD_PROXY_OBJECT
  5
4391
102
{ACAD_REACTORS
330
4378
102
}
330
4378
100
AcDbProxyObject
 90
      499
 91
      504
 93
      241
310
90C312F3422203D2031272D3022000000000000340FC000000000000284000
  0
ACAD_PROXY_OBJECT
  5
4392
102
{ACAD_REACTORS
330
4378
102
}
330
4378
100
AcDbProxyObject
 90
      499
 91
      504
 93
      241
310
90C332F3822203D2031272D3022000000000000360FC000000000000284000
  0
ACAD_PROXY_OBJECT
  5
4393
102
{ACAD_REACTORS
330
4378
102
}
330
4378
100
AcDbProxyObject
 90
      499
 91
      504
 93
      241
310
90C312F3222203D2031272D3022000000000000380FC000000000000284000
  0
ACAD_PROXY_OBJECT
  5
4394
102
{ACAD_REACTORS
330
4378
102
}
330
4378
100
AcDbProxyObject
 90
      499
 91
      504
 93
      241
310
90C332F3422203D2031272D30220000000000003A0FC000000000000284000
  0
ACAD_PROXY_OBJECT
  5
4395
102
{ACAD_REACTORS
330
4378
102
}
330
4378
100
AcDbProxyObject
 90
      499
 91
      504
 93
      161
310
90A3122203D2031272D30224000000000000284000
  0
ACAD_PROXY_OBJECT
  5
4396
102
{ACAD_REACTORS
330
4378
102
}
330
4378
100
AcDbProxyObject
 90
      499
 91
      504
 93
      257
310
90E312D312F3222203D2031272D30220000000000003E0FC000000000000284000
  0
ACAD_PROXY_OBJECT
  5
4397
102
{ACAD_REACTORS
330
4378
102
}
330
4378
100
AcDbProxyObject
 90
      499
 91
      504
 93
      225
310
90A3322203D2031272D302200000000000002100000000000000284000
  0
ACAD_PROXY_OBJECT
  5
4398
102
{ACAD_REACTORS
330
4378
102
}
330
4378
100
AcDbProxyObject
 90
      499
 91
      504
 93
      225
310
90A3622203D2031272D302200000000000006100000000000000284000
  0
ACAD_PROXY_OBJECT
  5
4399
102
{ACAD_REACTORS
330
4378
102
}
330
4378
100
AcDbProxyObject
 90
      499
 91
      504
 93
      249
310
90D31272D3022203D2031272D30220000000000000A100000000000000284000
  0
ACAD_PROXY_OBJECT
  5
4364
102
{ACAD_REACTORS
330
435F
102
}
330
435F
100
AcDbProxyObject
 90
      499
 91
      503
 93
      436
310
42CC9915DA5C99599C985B595049028333333333333E33F0000000000000F90107901411070040501600405405064090741402480A0340
1001
ACAD
1000
AcDbSavedByObjectVersion
1070
     0
  0
ACAD_PROXY_OBJECT
  5
4367
102
{ACAD_REACTORS
330
435F
102
}
330
435F
100
AcDbProxyObject
 90
      499
 91
      503
 93
      388
310
4150985CDA58D07406404333333333333E33F0000000000000F90107A41107004050150841D405064090741402480A0350
1001
ACAD
1000
AcDbSavedByObjectVersion
1070
     0
  0
ACAD_PROXY_OBJECT
  5
436B
102
{ACAD_REACTORS
330
435F
102
}
330
435F
100
AcDbProxyObject
 90
      499
 91
      503
 93
      428
310
42109C9A59DA1D195B90C409028333333333333E33F0000000000000F9010790141107004050150841D405064090741402480A029950
1001
ACAD
1000
AcDbSavedByObjectVersion
1070
     0
  0
ACAD_PROXY_OBJECT
  5
436F
102
{ACAD_REACTORS
330
435F
102
}
330
435F
100
AcDbProxyObject
 90
      499
 91
      503
 93
      452
310
42D0DBDB1BDC90DA185B99D95104090240C333333333333E33F0000000000000F90108901411070040501508421405064090741402480A0350
1001
ACAD
1000
AcDbSavedByObjectVersion
1070
     0
  0
ACAD_PROXY_OBJECT
  5
4369
102
{ACAD_REACTORS
330
435F
102
}
330
435F
100
AcDbProxyObject
 90
      499
 91
      503
 93
      500
310
4290DBDB98D95C1D1D585B10940D028333333333333E33F0000000000000F90107902409070040501000000000018199010841D405064090740C02480A0340
1001
ACAD
1000
AcDbSavedByObjectVersion
1070
     0
  0
ACAD_PROXY_OBJECT
  5
436A
102
{ACAD_REACTORS
330
435F
102
}
330
435F
100
AcDbProxyObject
 90
      499
 91
      503
 93
      412
310
40D11A5B50B409028333333333333E33F0000000000000F9010790141107004050150841D405064090741402480A02677FFFFFD0
1001
ACAD
1000
AcDbSavedByObjectVersion
1070
     0
  0
ACAD_PROXY_OBJECT
  5
4372
102
{ACAD_REACTORS
330
435F
102
}
330
435F
100
AcDbProxyObject
 90
      499
 91
      503
 93
      452
310
43115919D950DBDB1BDC93D999916409028333333333333E33F0000000000000F9010790141107004050150841D405064090741402480A0350
1001
ACAD
1000
AcDbSavedByObjectVersion
1070
     0
  0
ACAD_PROXY_OBJECT
  5
436E
102
{ACAD_REACTORS
330
435F
102
}
330
435F
100
AcDbProxyObject
 90
      499
 91
      503
 93
      444
310
42D19858D95C185D1D195C9B90F409028333333333333E33F0000000000000F9010790141107004050150841D405064090741402480A0350
1001
ACAD
1000
AcDbSavedByObjectVersion
1070
     0
  0
ACAD_PROXY_OBJECT
  5
4360
102
{ACAD_REACTORS
330
435F
102
}
330
435F
100
AcDbProxyObject
 90
      499
 91
      503
 93
      380
310
41119B185D240901404333333333333E33F0000000000000F9010740A907004050150841D405064090741402480A1B50
1001
ACAD
1000
AcDbSavedByObjectVersion
1070
     0
  0
ACAD_PROXY_OBJECT
  5
4361
102
{ACAD_REACTORS
330
435F
102
}
330
435F
100
AcDbProxyObject
 90
      499
 91
      503
 93
      468
310
43519B185D15DA5D1A115919D95CD0140901404333333333333E33F0000000000000F90107409019070040501600405405064090741402480A1B50
1001
ACAD
1000
AcDbSavedByObjectVersion
1070
     0
  0
ACAD_PROXY_OBJECT
  5
4362
102
{ACAD_REACTORS
330
435F
102
}
330
435F
100
AcDbProxyObject
 90
      499
 91
      503
 93
      404
310
41D1DBDD5C985D5910240902404333333333333E33F0000000000000F9010740A9070040501641D405064090741402480A1B50
1001
ACAD
1000
AcDbSavedByObjectVersion
1070
     0
  0
ACAD_PROXY_OBJECT
  5
4363
102
{ACAD_REACTORS
330
435F
102
}
330
435F
100
AcDbProxyObject
 90
      499
 91
      503
 93
      492
310
4411DBDD5C985D5915DA5D1A115919D95CD0340902404333333333333E33F0000000000000F90107409019070040501600405405064090741402480A1B50
1001
ACAD
1000
AcDbSavedByObjectVersion
1070
     0
  0
ACAD_PROXY_OBJECT
  5
4366
102
{ACAD_REACTORS
330
435F
102
}
330
435F
100
AcDbProxyObject
 90
      499
 91
      503
 93
      476
310
41921A5919195B90640502408333333333333E33F0000000000000F901079024090700405020000000000001110200405405064090740C02480A0340
1001
ACAD
1000
AcDbSavedByObjectVersion
1070
     0
  0
ACAD_PROXY_OBJECT
  5
4370
102
{ACAD_REACTORS
330
435F
102
}
330
435F
100
AcDbProxyObject
 90
      499
 91
      503
 93
      428
310
42529A5D1D195C93D999914409028333333333333E33F0000000000000F9010790141107004050150A41D405064090741402480A0350
1001
ACAD
1000
AcDbSavedByObjectVersion
1070
     0
  0
ACAD_PROXY_OBJECT
  5
436D
102
{ACAD_REACTORS
330
435F
102
}
330
435F
100
AcDbProxyObject
 90
      499
 91
      503
 93
      444
310
42D31A5B995C185D1D195C9B90E409028333333333333E33F0000000000000F9010790141107004050750841D405064090741402483A0350
1001
ACAD
1000
AcDbSavedByObjectVersion
1070
     0
  0
ACAD_PROXY_OBJECT
  5
43A1
102
{ACAD_REACTORS
330
435F
102
}
330
435F
100
AcDbProxyObject
 90
      499
 91
      503
 93
      412
310
90A409038333333333333E33F0000000000000F901074090290700405010000000000201990108421405064090741402480A1B40
1001
ACAD
1000
AcDbSavedByObjectVersion
1070
     0
  0
ACAD_PROXY_OBJECT
  5
4371
102
{ACAD_REACTORS
330
435F
102
}
330
435F
100
AcDbProxyObject
 90
      499
 91
      503
 93
      444
310
42D3DD995C9A185B99D3D999915409028333333333333E33F0000000000000F9010790141107004050150941D405064090741402480A0350
1001
ACAD
1000
AcDbSavedByObjectVersion
1070
     0
  0
ACAD_PROXY_OBJECT
  5
4368
102
{ACAD_REACTORS
330
435F
102
}
330
435F
100
AcDbProxyObject
 90
      499
 91
      503
 93
      428
310
425499585B1A5CDD1A58D08409038333333333333E33F0000000000000F9010740A907004050150800405405064090740C02480A1B40
1001
ACAD
1000
AcDbSavedByObjectVersion
1070
     0
  0
ACAD_PROXY_OBJECT
  5
4377
102
{ACAD_REACTORS
330
435F
102
}
330
435F
100
AcDbProxyObject
 90
      499
 91
      503
 93
      420
310
4194DA1859195911B40902404333333333333E33F0000000000000F9010740A41107004050150800405405064090840C02480A0B40
1001
ACAD
1000
AcDbSavedByObjectVersion
1070
     0
  0
ACAD_PROXY_OBJECT
  5
4376
102
{ACAD_REACTORS
330
435F
102
}
330
435F
100
AcDbProxyObject
 90
      499
 91
      503
 93
      516
310
4454DA18591959081DDA5D1A08195919D95CD1A40902404333333333333E33F0000000000000F901074090142907004050250800405405064090740C02480A0B40
1001
ACAD
1000
AcDbSavedByObjectVersion
1070
     0
  0
ACAD_PROXY_OBJECT
  5
4373
102
{ACAD_REACTORS
330
435F
102
}
330
435F
100
AcDbProxyObject
 90
      499
 91
      503
 93
      532
310
4394DA1859195CC81BD98811DC985E5174090240C333333333333E33F0000000000000F901079024090741D01000000000000111010841D405064090740C02480A0340
1001
ACAD
1000
AcDbSavedByObjectVersion
1070
     0
  0
ACAD_PROXY_OBJECT
  5
4374
102
{ACAD_REACTORS
330
435F
102
}
330
435F
100
AcDbProxyObject
 90
      499
 91
      503
 93
      476
310
41D4DAD95D18DA1E51840502408333333333333E33F0000000000000F901079024090741D01000000000000111010B41D405064090741802480A0340
1001
ACAD
1000
AcDbSavedByObjectVersion
1070
     0
  0
ACAD_PROXY_OBJECT
  5
436C
102
{ACAD_REACTORS
330
435F
102
}
330
435F
100
AcDbProxyObject
 90
      499
 91
      503
 93
      412
310
41D51A1A58DAD95B90D409028333333333333E33F0000000000000F9010790141107004050150C41D405064090741402480A0350
1001
ACAD
1000
AcDbSavedByObjectVersion
1070
     0
  0
ACAD_PROXY_OBJECT
  5
4365
102
{ACAD_REACTORS
330
435F
102
}
330
435F
100
AcDbProxyObject
 90
      499
 91
      503
 93
      420
310
4255DA5C99599C985B595059028333333333333E33F0000000000000F90107901411070040501600405405064090740C02480A0340
1001
ACAD
1000
AcDbSavedByObjectVersion
1070
     0
  0
ACAD_PROXY_OBJECT
  5
4375
102
{ACAD_REACTORS
330
435F
102
}
330
435F
100
AcDbProxyObject
 90
      499
 91
      503
 93
      404
310
41560B54985E51940902404000000000000E03F0000000000000F9010740501907004050150841D405064090740C02480A1B40
1001
ACAD
1000
AcDbSavedByObjectVersion
1070
     0
  0
XRECORD
  5
4C0F
102
{ACAD_REACTORS
330
4C05
102
}
330
4C05
100
AcDbXrecord
340
0
  0
XRECORD
  5
4C0E
102
{ACAD_REACTORS
330
4C05
102
}
330
4C05
100
AcDbXrecord
 90
        0
  0
XRECORD
  5
4C28
102
{ACAD_REACTORS
330
4C05
102
}
330
4C05
100
AcDbXrecord
340
2948
  0
XRECORD
  5
4C25
102
{ACAD_REACTORS
330
4C05
102
}
330
4C05
100
AcDbXrecord
1000
DSTYLE
1002
{
1070
   171
 70
     2
1070
   143
 40
0.0394
1070
   274
 70
     2
1070
    41
 40
6.0
1070
   342
340
2AF4
1070
   271
 70
     1
1070
   278
 70
    46
1070
   341
340
2AF4
1070
   272
 70
     1
1070
    48
 40
0.1
1070
   283
 70
     1
1070
    47
 40
0.1
1070
   145
 40
1.0
1070
   340
340
10
1070
   140
 40
5.0
1070
   284
 70
     0
1002
}
  0
XRECORD
  5
4C10
102
{ACAD_REACTORS
330
4C05
102
}
330
4C05
100
AcDbXrecord
  1
{23698909-1D67-4744-B0E2-8DE11E3ED422}
  0
XRECORD
  5
4C08
102
{ACAD_REACTORS
330
4C05
102
}
330
4C05
100
AcDbXrecord
  1

  0
XRECORD
  5
4C0D
102
{ACAD_REACTORS
330
4C05
102
}
330
4C05
100
AcDbXrecord
 90
        0
  0
XRECORD
  5
4C0A
102
{ACAD_REACTORS
330
4C05
102
}
330
4C05
100
AcDbXrecord
340
2816
  0
XRECORD
  5
4C0C
102
{ACAD_REACTORS
330
4C05
102
}
330
4C05
100
AcDbXrecord
 90
    10781
  0
XRECORD
  5
4C29
102
{ACAD_REACTORS
330
4C05
102
}
330
4C05
100
AcDbXrecord
340
2947
  0
XRECORD
  5
4C0B
102
{ACAD_REACTORS
330
4C05
102
}
330
4C05
100
AcDbXrecord
340
2817
  0
XRECORD
  5
4C12
102
{ACAD_REACTORS
330
4C05
102
}
330
4C05
100
AcDbXrecord
 40
0.0
  0
XRECORD
  5
4C15
102
{ACAD_REACTORS
330
4C05
102
}
330
4C05
100
AcDbXrecord
340
0
  0
XRECORD
  5
4C1B
102
{ACAD_REACTORS
330
4C05
102
}
330
4C05
100
AcDbXrecord
 10
0.0
 20
0.0
 30
0.0
  0
XRECORD
  5
4C17
102
{ACAD_REACTORS
330
4C05
102
}
330
4C05
100
AcDbXrecord
 10
0.0
 20
0.0
 30
0.0
  0
XRECORD
  5
4C1A
102
{ACAD_REACTORS
330
4C05
102
}
330
4C05
100
AcDbXrecord
 10
0.0
 20
0.0
 30
0.0
  0
XRECORD
  5
4C18
102
{ACAD_REACTORS
330
4C05
102
}
330
4C05
100
AcDbXrecord
 10
0.0
 20
0.0
 30
0.0
  0
XRECORD
  5
4C19
102
{ACAD_REACTORS
330
4C05
102
}
330
4C05
100
AcDbXrecord
 10
0.0
 20
0.0
 30
0.0
  0
XRECORD
  5
4C16
102
{ACAD_REACTORS
330
4C05
102
}
330
4C05
100
AcDbXrecord
 10
0.0
 20
0.0
 30
0.0
  0
XRECORD
  5
4C13
102
{ACAD_REACTORS
330
4C05
102
}
330
4C05
100
AcDbXrecord
340
0
  0
XRECORD
  5
4C14
102
{ACAD_REACTORS
330
4C05
102
}
330
4C05
100
AcDbXrecord
 70
     0
  0
XRECORD
  5
4C09
102
{ACAD_REACTORS
330
4C05
102
}
330
4C05
100
AcDbXrecord
  1

  0
XRECORD
  5
4C06
102
{ACAD_REACTORS
330
4C05
102
}
330
4C05
100
AcDbXrecord
 90
        1
  0
XRECORD
  5
4C07
102
{ACAD_REACTORS
330
4C05
102
}
330
4C05
100
AcDbXrecord
 90
       70
  0
XRECORD
  5
4C1E
102
{ACAD_REACTORS
330
4C05
102
}
330
4C05
100
AcDbXrecord
340
0
  0
XRECORD
  5
4C24
102
{ACAD_REACTORS
330
4C05
102
}
330
4C05
100
AcDbXrecord
 10
0.0
 20
0.0
 30
0.0
  0
XRECORD
  5
4C20
102
{ACAD_REACTORS
330
4C05
102
}
330
4C05
100
AcDbXrecord
 10
0.0
 20
0.0
 30
0.0
  0
XRECORD
  5
4C23
102
{ACAD_REACTORS
330
4C05
102
}
330
4C05
100
AcDbXrecord
 10
0.0
 20
0.0
 30
0.0
  0
XRECORD
  5
4C21
102
{ACAD_REACTORS
330
4C05
102
}
330
4C05
100
AcDbXrecord
 10
0.0
 20
0.0
 30
0.0
  0
XRECORD
  5
4C22
102
{ACAD_REACTORS
330
4C05
102
}
330
4C05
100
AcDbXrecord
 10
0.0
 20
0.0
 30
0.0
  0
XRECORD
  5
4C1F
102
{ACAD_REACTORS
330
4C05
102
}
330
4C05
100
AcDbXrecord
 10
0.0
 20
0.0
 30
0.0
  0
XRECORD
  5
4C1C
102
{ACAD_REACTORS
330
4C05
102
}
330
4C05
100
AcDbXrecord
340
0
  0
XRECORD
  5
4C1D
102
{ACAD_REACTORS
330
4C05
102
}
330
4C05
100
AcDbXrecord
 70
     0
  0
XRECORD
  5
4C11
102
{ACAD_REACTORS
330
4C05
102
}
330
4C05
100
AcDbXrecord
  1
{5C4969BE-7259-407C-BA6B-DB1E4C23D975}
  0
DICTIONARYVAR
  5
447A
102
{ACAD_REACTORS
330
4479
102
}
330
4479
100
DictionaryVariables
280
     0
  1
1:1
  0
DICTIONARYVAR
  5
44BB
102
{ACAD_REACTORS
330
4479
102
}
330
4479
100
DictionaryVariables
280
     0
  1
Standard
  0
DICTIONARYVAR
  5
44BA
102
{ACAD_REACTORS
330
4479
102
}
330
4479
100
DictionaryVariables
280
     0
  1
Standard
  0
DICTIONARYVAR
  5
4C26
102
{ACAD_REACTORS
330
4479
102
}
330
4479
100
DictionaryVariables
280
     0
  1
1
  0
DICTIONARYVAR
  5
4C27
102
{ACAD_REACTORS
330
4479
102
}
330
4479
100
DictionaryVariables
280
     0
  1
0
  0
DICTIONARYVAR
  5
44BC
102
{ACAD_REACTORS
330
4479
102
}
330
4479
100
DictionaryVariables
280
     0
  1
0
  0
DICTIONARYVAR
  5
44BD
102
{ACAD_REACTORS
330
4479
102
}
330
4479
100
DictionaryVariables
280
     0
  1
0
  0
DICTIONARY
  5
4652
102
{ACAD_REACTORS
330
4651
102
}
330
4651
100
AcDbDictionary
  0
DICTIONARY
  5
4834
102
{ACAD_REACTORS
330
4833
102
}
330
4833
100
AcDbDictionary
  0
DICTIONARY
  5
43E7
102
{ACAD_REACTORS
330
43E6
102
}
330
43E6
100
AcDbDictionary
  0
DICTIONARY
  5
43A7
102
{ACAD_REACTORS
330
43A6
102
}
330
43A6
100
AcDbDictionary
  0
DICTIONARY
  5
43AA
102
{ACAD_REACTORS
330
43A9
102
}
330
43A9
100
AcDbDictionary
  0
DICTIONARY
  5
444E
102
{ACAD_REACTORS
330
444D
102
}
330
444D
100
AcDbDictionary
  0
DICTIONARY
  5
4452
102
{ACAD_REACTORS
330
4451
102
}
330
4451
100
AcDbDictionary
  0
DICTIONARY
  5
4750
102
{ACAD_REACTORS
330
474F
102
}
330
474F
100
AcDbDictionary
  0
DICTIONARY
  5
4B38
102
{ACAD_REACTORS
330
4B37
102
}
330
4B37
100
AcDbDictionary
  0
DICTIONARY
  5
4B3C
102
{ACAD_REACTORS
330
4B3B
102
}
330
4B3B
100
AcDbDictionary
  0
DICTIONARY
  5
4C2F
330
439B
100
AcDbDictionary
280
     1
  3
ACAD_XREC_ROUNDTRIP
360
4C30
  0
DICTIONARY
  5
4C2D
330
439A
100
AcDbDictionary
280
     1
  3
ACAD_XREC_ROUNDTRIP
360
4C2E
  0
DICTIONARY
  5
4C31
330
439C
100
AcDbDictionary
280
     1
  3
ACAD_XREC_ROUNDTRIP
360
4C32
  0
XRECORD
  5
4C30
102
{ACAD_REACTORS
330
4C2F
102
}
330
4C2F
100
AcDbXrecord
102
MATERIAL
148
0.0
149
0.0
149
0.0
 93
        0
 94
      127
282
     0
 72
     1
 77
     1
171
     1
175
     1
179
     1
273
     0
  0
XRECORD
  5
4C2E
102
{ACAD_REACTORS
330
4C2D
102
}
330
4C2D
100
AcDbXrecord
102
MATERIAL
148
0.0
149
0.0
149
0.0
 93
        0
 94
      127
282
     0
 72
     1
 77
     1
171
     1
175
     1
179
     1
273
     0
  0
XRECORD
  5
4C32
102
{ACAD_REACTORS
330
4C31
102
}
330
4C31
100
AcDbXrecord
102
MATERIAL
148
0.0
149
0.0
149
0.0
 93
        0
 94
      127
282
     0
 72
     1
 77
     1
171
     1
175
     1
179
     1
273
     0
  0
ENDSEC
  0
EOF
