  0
SECTION
  2
HEADER
  9
$ACADVER
  1
AC1014
  9
$ACADMAINTVER
 70
     9
  9
$DWGCODEPAGE
  3
ANSI_932
  9
$INSBASE
 10
0.0
 20
0.0
 30
0.0
  9
$EXTMIN
 10
-90.356905872954
 20
192.161435521184
 30
0.0
  9
$EXTMAX
 10
753.234026059733
 20
597.833069155493
 30
0.0
  9
$LIMMIN
 10
-360.747566795242
 20
4.457354754526
  9
$LIMMAX
 10
-162.153696144267
 20
287.675440264018
  9
$ORTHOMODE
 70
     0
  9
$REGENMODE
 70
     1
  9
$FILLMODE
 70
     1
  9
$QTEXTMODE
 70
     0
  9
$MIRRTEXT
 70
     1
  9
$DRAGMODE
 70
     2
  9
$LTSCALE
 40
1.0
  9
$OSMODE
 70
   935
  9
$ATTMODE
 70
     1
  9
$TEXTSIZE
 40
2.333873885063
  9
$TRACEWID
 40
1.0
  9
$TEXTSTYLE
  7
STANDARD
  9
$CLAYER
  8
外形線
  9
$CELTYPE
  6
BYLAYER
  9
$CECOLOR
 62
   256
  9
$CELTSCALE
 40
10.0
  9
$DELOBJ
 70
     1
  9
$DISPSILH
 70
     0
  9
$DIMSCALE
 40
1.0
  9
$DIMASZ
 40
6.0
  9
$DIMEXO
 40
0.625
  9
$DIMDLI
 40
3.75
  9
$DIMRND
 40
0.0
  9
$DIMDLE
 40
0.0
  9
$DIMEXE
 40
1.25
  9
$DIMTP
 40
0.1
  9
$DIMTM
 40
0.1
  9
$DIMTXT
 40
5.0
  9
$DIMCEN
 40
2.5
  9
$DIMTSZ
 40
0.0
  9
$DIMTOL
 70
     0
  9
$DIMLIM
 70
     0
  9
$DIMTIH
 70
     0
  9
$DIMTOH
 70
     0
  9
$DIMSE1
 70
     0
  9
$DIMSE2
 70
     0
  9
$DIMTAD
 70
     1
  9
$DIMZIN
 70
     8
  9
$DIMBLK
  1
OPEN30
  9
$DIMASO
 70
     1
  9
$DIMSHO
 70
     1
  9
$DIMPOST
  1

  9
$DIMAPOST
  1

  9
$DIMALT
 70
     0
  9
$DIMALTD
 70
     2
  9
$DIMALTF
 40
0.0394
  9
$DIMLFAC
 40
1.0
  9
$DIMTOFL
 70
     1
  9
$DIMTVP
 40
1.0
  9
$DIMTIX
 70
     0
  9
$DIMSOXD
 70
     0
  9
$DIMSAH
 70
     0
  9
$DIMBLK1
  1

  9
$DIMBLK2
  1

  9
$DIMSTYLE
  2
ISO-25
  9
$DIMCLRD
 70
     0
  9
$DIMCLRE
 70
     0
  9
$DIMCLRT
 70
     0
  9
$DIMTFAC
 40
1.0
  9
$DIMGAP
 40
0.625
  9
$DIMJUST
 70
     0
  9
$DIMSD1
 70
     0
  9
$DIMSD2
 70
     0
  9
$DIMTOLJ
 70
     1
  9
$DIMTZIN
 70
     0
  9
$DIMALTZ
 70
     0
  9
$DIMALTTZ
 70
     0
  9
$DIMFIT
 70
     3
  9
$DIMUPT
 70
     0
  9
$DIMUNIT
 70
     2
  9
$DIMDEC
 70
     1
  9
$DIMTDEC
 70
     1
  9
$DIMALTU
 70
     2
  9
$DIMALTTD
 70
     2
  9
$DIMTXSTY
  7
STANDARD
  9
$DIMAUNIT
 70
     0
  9
$LUNITS
 70
     2
  9
$LUPREC
 70
     4
  9
$SKETCHINC
 40
1.0
  9
$FILLETRAD
 40
6.5
  9
$AUNITS
 70
     0
  9
$AUPREC
 70
     0
  9
$MENU
  1
.
  9
$ELEVATION
 40
0.0
  9
$PELEVATION
 40
0.0
  9
$THICKNESS
 40
0.0
  9
$LIMCHECK
 70
     0
  9
$CHAMFERA
 40
10.0
  9
$CHAMFERB
 40
10.0
  9
$CHAMFERC
 40
20.0
  9
$CHAMFERD
 40
0.0
  9
$SKPOLY
 70
     0
  9
$TDCREATE
 40
2450576.597302431
  9
$TDUPDATE
 40
2457269.379013484
  9
$TDINDWG
 40
1.4694184491
  9
$TDUSRTIMER
 40
1.4694184491
  9
$USRTIMER
 70
     1
  9
$ANGBASE
 50
0.0
  9
$ANGDIR
 70
     0
  9
$PDMODE
 70
     0
  9
$PDSIZE
 40
0.0
  9
$PLINEWID
 40
0.0
  9
$COORDS
 70
     0
  9
$SPLFRAME
 70
     0
  9
$SPLINETYPE
 70
     6
  9
$SPLINESEGS
 70
     8
  9
$ATTDIA
 70
     0
  9
$ATTREQ
 70
     1
  9
$HANDLING
 70
     1
  9
$HANDSEED
  5
51D7
  9
$SURFTAB1
 70
     6
  9
$SURFTAB2
 70
     6
  9
$SURFTYPE
 70
     6
  9
$SURFU
 70
     6
  9
$SURFV
 70
     6
  9
$UCSNAME
  2

  9
$UCSORG
 10
0.0
 20
0.0
 30
0.0
  9
$UCSXDIR
 10
1.0
 20
0.0
 30
0.0
  9
$UCSYDIR
 10
0.0
 20
1.0
 30
0.0
  9
$PUCSNAME
  2

  9
$PUCSORG
 10
0.0
 20
0.0
 30
0.0
  9
$PUCSXDIR
 10
1.0
 20
0.0
 30
0.0
  9
$PUCSYDIR
 10
0.0
 20
1.0
 30
0.0
  9
$USERI1
 70
     0
  9
$USERI2
 70
     0
  9
$USERI3
 70
     0
  9
$USERI4
 70
     0
  9
$USERI5
 70
     0
  9
$USERR1
 40
0.0
  9
$USERR2
 40
0.0
  9
$USERR3
 40
0.0
  9
$USERR4
 40
0.0
  9
$USERR5
 40
0.0
  9
$WORLDVIEW
 70
     1
  9
$SHADEDGE
 70
     3
  9
$SHADEDIF
 70
    70
  9
$TILEMODE
 70
     0
  9
$MAXACTVP
 70
    16
  9
$PINSBASE
 10
0.0
 20
0.0
 30
0.0
  9
$PLIMCHECK
 70
     0
  9
$PEXTMIN
 10
4.746305129083
 20
1.396645458131
 30
0.0
  9
$PEXTMAX
 10
404.746305129083
 20
281.396645458131
 30
0.0
  9
$PLIMMIN
 10
-7.733555908203
 20
-7.733559317589
  9
$PLIMMAX
 10
416.991674499512
 20
292.588849892616
  9
$UNITMODE
 70
     0
  9
$VISRETAIN
 70
     0
  9
$PLINEGEN
 70
     0
  9
$PSLTSCALE
 70
     1
  9
$TREEDEPTH
 70
  3020
  9
$PICKSTYLE
 70
     1
  9
$CMLSTYLE
  2
STANDARD
  9
$CMLJUST
 70
     0
  9
$CMLSCALE
 40
1.0
  9
$PROXYGRAPHICS
 70
     1
  9
$MEASUREMENT
 70
     1
  0
ENDSEC
  0
SECTION
  2
CLASSES
  0
CLASS
  1
ACDBDICTIONARYWDFLT
  2
AcDbDictionaryWithDefault
  3
ObjectDBX Classes
 90
        0
280
     0
281
     0
  0
CLASS
  1
ACDBPLACEHOLDER
  2
AcDbPlaceHolder
  3
ObjectDBX Classes
 90
        0
280
     0
281
     0
  0
CLASS
  1
LAYOUT
  2
AcDbLayout
  3
ObjectDBX Classes
 90
        0
280
     0
281
     0
  0
CLASS
  1
VISUALSTYLE
  2
AcDbVisualStyle
  3
ObjectDBX Classes
 90
     4095
280
     0
281
     0
  0
CLASS
  1
SCALE
  2
AcDbScale
  3
ObjectDBX Classes
 90
     1153
280
     0
281
     0
  0
CLASS
  1
MATERIAL
  2
AcDbMaterial
  3
ObjectDBX Classes
 90
     1153
280
     0
281
     0
  0
CLASS
  1
TABLESTYLE
  2
AcDbTableStyle
  3
ObjectDBX Classes
 90
     4095
280
     0
281
     0
  0
CLASS
  1
MLEADERSTYLE
  2
AcDbMLeaderStyle
  3
ACDB_MLEADERSTYLE_CLASS
 90
     4095
280
     0
281
     0
  0
CLASS
  1
SUN
  2
AcDbSun
  3
SCENEOE
 90
     1153
280
     0
281
     0
  0
CLASS
  1
DICTIONARYVAR
  2
AcDbDictionaryVar
  3
ObjectDBX Classes
 90
        0
280
     0
281
     0
  0
CLASS
  1
CELLSTYLEMAP
  2
AcDbCellStyleMap
  3
ObjectDBX Classes
 90
     1152
280
     0
281
     0
  0
CLASS
  1
XRECORD
  2
AcDbXrecord
  3
ObjectDBX Classes
 90
        0
280
     0
281
     0
  0
CLASS
  1
LWPOLYLINE
  2
AcDbPolyline
  3
ObjectDBX Classes
 90
        0
280
     0
281
     1
  0
CLASS
  1
HATCH
  2
AcDbHatch
  3
ObjectDBX Classes
 90
        0
280
     0
281
     1
  0
ENDSEC
  0
SECTION
  2
TABLES
  0
TABLE
  2
VPORT
  5
8
102
{ACAD_XDICTIONARY
360
51CF
102
}
330
0
100
AcDbSymbolTable
 70
     1
  0
VPORT
  5
4542
330
8
100
AcDbSymbolTableRecord
100
AcDbViewportTableRecord
  2
*ACTIVE
 70
     0
 10
0.0
 20
0.0
 11
1.0
 21
1.0
 12
331.43856009339
 22
394.997252338338
 13
0.0
 23
0.0
 14
1.0
 24
1.0
 15
0.0
 25
0.0
 16
0.0
 26
0.0
 36
1.0
 17
0.0
 27
0.0
 37
0.0
 40
467.839945598924
 41
1.839224629418
 42
50.0
 43
0.0
 44
0.0
 50
0.0
 51
0.0
 71
    16
 72
   100
 73
     1
 74
     0
 75
     0
 76
     0
 77
     0
 78
     0
  0
ENDTAB
  0
TABLE
  2
LTYPE
  5
5
330
0
100
AcDbSymbolTable
 70
     4
  0
LTYPE
  5
14
330
5
100
AcDbSymbolTableRecord
100
AcDbLinetypeTableRecord
  2
BYBLOCK
 70
     0
  3

 72
    65
 73
     0
 40
0.0
  0
LTYPE
  5
15
330
5
100
AcDbSymbolTableRecord
100
AcDbLinetypeTableRecord
  2
BYLAYER
 70
     0
  3

 72
    65
 73
     0
 40
0.0
  0
LTYPE
  5
16
330
5
100
AcDbSymbolTableRecord
100
AcDbLinetypeTableRecord
  2
CONTINUOUS
 70
     0
  3
Solid line
 72
    65
 73
     0
 40
0.0
  0
LTYPE
  5
1EC
330
5
100
AcDbSymbolTableRecord
100
AcDbLinetypeTableRecord
  2
CENTER
 70
     0
  3
____ _ ____ _ ____ _ ____ _ ____ _ ____ _ ____ 
 72
    65
 73
     4
 40
2.0
 49
1.25
 74
     0
 49
-0.25
 74
     0
 49
0.25
 74
     0
 49
-0.25
 74
     0
  0
LTYPE
  5
1ED
330
5
100
AcDbSymbolTableRecord
100
AcDbLinetypeTableRecord
  2
DASHED
 70
     0
  3
__ __ __ __ __ __ __ __ __ __ __ __ __ __ __ __
 72
    65
 73
     2
 40
0.75
 49
0.5
 74
     0
 49
-0.25
 74
     0
  0
LTYPE
  5
2B1F
330
5
100
AcDbSymbolTableRecord
100
AcDbLinetypeTableRecord
  2
DASHDOT
 70
     0
  3
一点鎖線
 72
    65
 73
     4
 40
25.6
 49
20.0
 74
     0
 49
-2.0
 74
     0
 49
1.6
 74
     0
 49
-2.0
 74
     0
  0
ENDTAB
  0
TABLE
  2
LAYER
  5
2
102
{ACAD_XDICTIONARY
360
29EA
102
}
330
0
100
AcDbSymbolTable
 70
    19
  0
LAYER
  5
F
330
2
100
AcDbSymbolTableRecord
100
AcDbLayerTableRecord
  2
0
 70
     0
 62
     7
  6
CONTINUOUS
  0
LAYER
  5
61
330
2
100
AcDbSymbolTableRecord
100
AcDbLayerTableRecord
  2
図枠太線
 70
     0
 62
   251
  6
CONTINUOUS
  0
LAYER
  5
62
330
2
100
AcDbSymbolTableRecord
100
AcDbLayerTableRecord
  2
図枠細線
 70
     0
 62
   252
  6
CONTINUOUS
  0
LAYER
  5
63
330
2
100
AcDbSymbolTableRecord
100
AcDbLayerTableRecord
  2
図枠ロゴマーク
 70
     0
 62
   253
  6
CONTINUOUS
  0
LAYER
  5
1EF
330
2
100
AcDbSymbolTableRecord
100
AcDbLayerTableRecord
  2
外形線
 70
     0
 62
     7
  6
CONTINUOUS
  0
LAYER
  5
1F0
330
2
100
AcDbSymbolTableRecord
100
AcDbLayerTableRecord
  2
寸法線
 70
     0
 62
     1
  6
CONTINUOUS
  0
LAYER
  5
1F1
330
2
100
AcDbSymbolTableRecord
100
AcDbLayerTableRecord
  2
中心線
 70
     0
 62
     4
  6
CENTER
  0
LAYER
  5
1F4
330
2
100
AcDbSymbolTableRecord
100
AcDbLayerTableRecord
  2
DEFPOINTS
 70
     0
 62
     7
  6
CONTINUOUS
  0
LAYER
  5
2AA2
330
2
100
AcDbSymbolTableRecord
100
AcDbLayerTableRecord
  2
下書線
 70
     0
 62
     2
  6
CONTINUOUS
  0
LAYER
  5
2AA3
330
2
100
AcDbSymbolTableRecord
100
AcDbLayerTableRecord
  2
隠れ線
 70
     0
 62
     3
  6
DASHED
  0
LAYER
  5
2AA4
330
2
100
AcDbSymbolTableRecord
100
AcDbLayerTableRecord
  2
細線
 70
     0
 62
     6
  6
CONTINUOUS
  0
LAYER
  5
2AA5
330
2
100
AcDbSymbolTableRecord
100
AcDbLayerTableRecord
  2
太線
 70
     0
 62
   190
  6
CONTINUOUS
  0
LAYER
  5
2B20
330
2
100
AcDbSymbolTableRecord
100
AcDbLayerTableRecord
  2
LAY-1
 70
     0
 62
     7
  6
CONTINUOUS
  0
LAYER
  5
2B21
330
2
100
AcDbSymbolTableRecord
100
AcDbLayerTableRecord
  2
LAY-2
 70
     0
 62
     7
  6
CONTINUOUS
  0
LAYER
  5
2B22
330
2
100
AcDbSymbolTableRecord
100
AcDbLayerTableRecord
  2
LAY-5
 70
     0
 62
     7
  6
CONTINUOUS
  0
LAYER
  5
2B23
330
2
100
AcDbSymbolTableRecord
100
AcDbLayerTableRecord
  2
LAY-6
 70
     0
 62
     7
  6
CONTINUOUS
  0
LAYER
  5
315D
330
2
100
AcDbSymbolTableRecord
100
AcDbLayerTableRecord
  2
1
 70
     0
 62
     7
  6
CONTINUOUS
  0
LAYER
  5
315E
330
2
100
AcDbSymbolTableRecord
100
AcDbLayerTableRecord
  2
TOMSZ
 70
     0
 62
     7
  6
CONTINUOUS
  0
LAYER
  5
315F
330
2
100
AcDbSymbolTableRecord
100
AcDbLayerTableRecord
  2
SORK
 70
     0
 62
     7
  6
CONTINUOUS
  0
ENDTAB
  0
TABLE
  2
STYLE
  5
3
330
0
100
AcDbSymbolTable
 70
     4
  0
STYLE
  5
10
330
3
100
AcDbSymbolTableRecord
100
AcDbTextStyleTableRecord
  2
STANDARD
 70
     0
 40
0.0
 41
1.0
 50
0.0
 71
     0
 42
2.333873885063
  3
ISOCP
  4
bigfont.shx
  0
STYLE
  5
64
330
3
100
AcDbSymbolTableRecord
100
AcDbTextStyleTableRecord
  2
EXCADSTD
 70
     0
 40
0.0
 41
1.0
 50
0.0
 71
     0
 42
0.2
  3
monotxt
  4
bigfont
  0
STYLE
  5
3160
330
3
100
AcDbSymbolTableRecord
100
AcDbTextStyleTableRecord
  2
TXTR3
 70
     0
 40
0.0
 41
1.0
 50
0.0
 71
     0
 42
9.0
  3
romans
  4

  0
STYLE
  5
3161
330
3
100
AcDbSymbolTableRecord
100
AcDbTextStyleTableRecord
  2
ROMANS
 70
     0
 40
0.0
 41
0.7
 50
0.0
 71
     0
 42
30.281113161952
  3
romans
  4

  0
ENDTAB
  0
TABLE
  2
VIEW
  5
6
330
0
100
AcDbSymbolTable
 70
     0
  0
ENDTAB
  0
TABLE
  2
UCS
  5
7
330
0
100
AcDbSymbolTable
 70
     0
  0
ENDTAB
  0
TABLE
  2
APPID
  5
9
330
0
100
AcDbSymbolTable
 70
     3
  0
APPID
  5
11
330
9
100
AcDbSymbolTableRecord
100
AcDbRegAppTableRecord
  2
ACAD
 70
     0
  0
APPID
  5
4591
330
9
100
AcDbSymbolTableRecord
100
AcDbRegAppTableRecord
  2
ACADANNOTATIVE
 70
     0
  0
APPID
  5
45F6
330
9
100
AcDbSymbolTableRecord
100
AcDbRegAppTableRecord
  2
ACAD_MLEADERVER
 70
     0
  0
ENDTAB
  0
TABLE
  2
DIMSTYLE
  5
A
330
0
100
AcDbSymbolTable
 70
     3
  0
DIMSTYLE
105
1D
330
A
100
AcDbSymbolTableRecord
100
AcDbDimStyleTableRecord
  2
STANDARD
 70
     0
  3

  4

  5

  6

  7

 40
1.0
 41
0.18
 42
0.0625
 43
0.38
 44
0.18
 45
0.0
 46
0.0
 47
0.0
 48
0.0
140
0.18
141
0.09
142
0.0
143
25.4
144
1.0
145
0.0
146
1.0
147
0.09
 71
     0
 72
     0
 73
     1
 74
     1
 75
     0
 76
     0
 77
     0
 78
     0
170
     0
171
     2
172
     0
173
     0
174
     0
175
     0
176
     0
177
     0
178
     0
270
     2
271
     4
272
     4
273
     2
274
     2
340
10
275
     0
280
     0
281
     0
282
     0
283
     1
284
     0
285
     0
286
     0
287
     3
288
     0
  0
DIMSTYLE
105
24
102
{ACAD_REACTORS
330
3082
330
3099
330
358B
330
369E
330
4271
330
4310
330
4315
330
4316
102
}
330
A
100
AcDbSymbolTableRecord
100
AcDbDimStyleTableRecord
  2
ISO-25
 70
     0
  3

  4

  5

  6

  7

 40
1.0
 41
2.5
 42
0.625
 43
3.75
 44
1.25
 45
0.0
 46
0.0
 47
0.0
 48
0.0
140
2.5
141
2.5
142
0.0
143
0.0394
144
1.0
145
1.0
146
1.0
147
0.625
 71
     0
 72
     0
 73
     1
 74
     0
 75
     0
 76
     0
 77
     1
 78
     8
170
     0
171
     2
172
     1
173
     0
174
     0
175
     0
176
     0
177
     0
178
     0
270
     2
271
     4
272
     4
273
     2
274
     2
340
10
275
     0
280
     0
281
     0
282
     0
283
     1
284
     0
285
     0
286
     0
287
     3
288
     0
  0
DIMSTYLE
105
3162
330
A
100
AcDbSymbolTableRecord
100
AcDbDimStyleTableRecord
  2
NORMAL
 70
     0
  3

  4

  5

  6

  7

 40
1.0
 41
8.0
 42
1.0
 43
0.38
 44
1.0
 45
0.0
 46
0.0
 47
0.0
 48
0.0
140
10.0
141
0.0
142
0.0
143
25.4
144
1.0
145
0.0
146
1.0
147
3.0
 71
     0
 72
     0
 73
     0
 74
     0
 75
     0
 76
     0
 77
     1
 78
     8
170
     0
171
     2
172
     1
173
     0
174
     0
175
     0
176
     7
177
     7
178
     4
270
     2
271
     1
272
     1
273
     2
274
     2
340
3161
275
     0
280
     0
281
     0
282
     0
283
     1
284
     8
285
     8
286
     8
287
     5
288
     0
  0
ENDTAB
  0
TABLE
  2
BLOCK_RECORD
  5
1
330
0
100
AcDbSymbolTable
 70
    19
  0
BLOCK_RECORD
  5
1A
330
1
100
AcDbSymbolTableRecord
100
AcDbBlockTableRecord
  2
*MODEL_SPACE
  0
BLOCK_RECORD
  5
28FB
330
1
100
AcDbSymbolTableRecord
100
AcDbBlockTableRecord
  2
*PAPER_SPACE
  0
BLOCK_RECORD
  5
65
330
1
100
AcDbSymbolTableRecord
100
AcDbBlockTableRecord
  2
A$C3392
  0
BLOCK_RECORD
  5
29BF
330
1
100
AcDbSymbolTableRecord
100
AcDbBlockTableRecord
  2
A4横用_タイトル
1001
ACAD
1000
DesignCenter Data
1002
{
1070
     1
1070
     4
1002
}
  0
BLOCK_RECORD
  5
29F4
330
1
100
AcDbSymbolTableRecord
100
AcDbBlockTableRecord
  2
A4縦用_タイトル
1001
ACAD
1000
DesignCenter Data
1002
{
1070
     1
1070
     4
1002
}
  0
BLOCK_RECORD
  5
2A32
330
1
100
AcDbSymbolTableRecord
100
AcDbBlockTableRecord
  2
A3横用_タイトル
1001
ACAD
1000
DesignCenter Data
1002
{
1070
     1
1070
     4
1002
}
  0
BLOCK_RECORD
  5
2A6C
330
1
100
AcDbSymbolTableRecord
100
AcDbBlockTableRecord
  2
A3縦用_タイトル
1001
ACAD
1000
DesignCenter Data
1002
{
1070
     1
1070
     4
1002
}
  0
BLOCK_RECORD
  5
2AF4
330
1
100
AcDbSymbolTableRecord
100
AcDbBlockTableRecord
  2
_OPEN30
  0
BLOCK_RECORD
  5
3083
330
1
100
AcDbSymbolTableRecord
100
AcDbBlockTableRecord
  2
*D6
  0
BLOCK_RECORD
  5
309A
330
1
100
AcDbSymbolTableRecord
100
AcDbBlockTableRecord
  2
*D7
  0
BLOCK_RECORD
  5
3494
330
1
100
AcDbSymbolTableRecord
100
AcDbBlockTableRecord
  2
A$C5338004D
  0
BLOCK_RECORD
  5
358C
330
1
100
AcDbSymbolTableRecord
100
AcDbBlockTableRecord
  2
*D10
  0
BLOCK_RECORD
  5
369F
330
1
100
AcDbSymbolTableRecord
100
AcDbBlockTableRecord
  2
*D12
  0
BLOCK_RECORD
  5
380B
330
1
100
AcDbSymbolTableRecord
100
AcDbBlockTableRecord
  2
A$C6CF77348
  0
BLOCK_RECORD
  5
43AC
330
1
100
AcDbSymbolTableRecord
100
AcDbBlockTableRecord
  2
*D14
  0
BLOCK_RECORD
  5
43E9
330
1
100
AcDbSymbolTableRecord
100
AcDbBlockTableRecord
  2
*D15
  0
BLOCK_RECORD
  5
440D
330
1
100
AcDbSymbolTableRecord
100
AcDbBlockTableRecord
  2
*D16
  0
BLOCK_RECORD
  5
4419
330
1
100
AcDbSymbolTableRecord
100
AcDbBlockTableRecord
  2
*D17
  0
ENDTAB
  0
ENDSEC
  0
SECTION
  2
BLOCKS
  0
BLOCK
  5
1B
330
1A
100
AcDbEntity
  8
0
100
AcDbBlockBegin
  2
*MODEL_SPACE
 70
     0
 10
0.0
 20
0.0
 30
0.0
  3
*MODEL_SPACE
  1

  0
ENDBLK
  5
1C
330
1A
100
AcDbEntity
  8
0
100
AcDbBlockEnd
  0
BLOCK
  5
28FD
330
28FB
100
AcDbEntity
 67
     1
  8
0
 48
10.0
100
AcDbBlockBegin
  2
*PAPER_SPACE
 70
     0
 10
0.0
 20
0.0
 30
0.0
  3
*PAPER_SPACE
  1

  0
ENDBLK
  5
28FE
330
28FB
100
AcDbEntity
 67
     1
  8
0
 48
10.0
100
AcDbBlockEnd
  0
BLOCK
  5
93
330
65
100
AcDbEntity
  8
0
100
AcDbBlockBegin
  2
A$C3392
 70
     0
 10
0.0
 20
0.0
 30
0.0
  3
A$C3392
  1

  0
LINE
  5
66
330
65
100
AcDbEntity
  8
図枠太線
  6
CONTINUOUS
100
AcDbLine
 10
211.858584505185
 20
30.927375675439
 30
0.0
 11
211.858584505185
 21
0.927375675439
 31
0.0
  0
LINE
  5
67
330
65
100
AcDbEntity
  8
図枠細線
  6
CONTINUOUS
100
AcDbLine
 10
231.858592505185
 20
15.927377675439
 30
0.0
 11
287.858592505185
 21
15.927375675439
 31
0.0
  0
LINE
  5
68
330
65
100
AcDbEntity
  8
図枠細線
  6
CONTINUOUS
100
AcDbLine
 10
211.858592505185
 20
15.927377675439
 30
0.0
 11
231.858592505185
 21
15.927377675439
 31
0.0
  0
LINE
  5
69
330
65
100
AcDbEntity
  8
図枠太線
  6
CONTINUOUS
 62
   251
100
AcDbLine
 10
1.858584505185
 20
0.927375675439
 30
0.0
 11
1.858584505185
 21
275.927375675439
 31
0.0
  0
TEXT
  5
6A
330
65
100
AcDbEntity
  8
図枠細線
  6
CONTINUOUS
 62
   252
100
AcDbText
 10
351.358592505185
 20
28.427377675439
 30
0.0
 40
2.0
  1
ＴＩＴＬＥ
 41
0.903614457831
  7
EXCADSTD
 72
     5
 11
361.358592505185
 21
28.427377675439
 31
0.0
100
AcDbText
  0
TEXT
  5
6B
330
65
100
AcDbEntity
  8
図枠細線
  6
CONTINUOUS
 62
   252
100
AcDbText
 10
345.358592505185
 20
28.427377675439
 30
0.0
 40
2.0
  1
名称
 41
1.171875
  7
EXCADSTD
 72
     5
 11
350.358592505185
 21
28.427377675439
 31
0.0
100
AcDbText
  0
TEXT
  5
6C
330
65
100
AcDbEntity
  8
図枠細線
  6
CONTINUOUS
 62
   252
100
AcDbText
 10
274.358592505185
 20
25.927377675439
 30
0.0
 40
2.0
  1
ＤＲＡＷＮ
 41
0.882352941176
  7
EXCADSTD
 72
     5
 11
284.358592505185
 21
25.927377675439
 31
0.0
100
AcDbText
  0
TEXT
  5
6D
330
65
100
AcDbEntity
  8
図枠細線
  6
CONTINUOUS
 62
   252
100
AcDbText
 10
260.358592505185
 20
25.927377675439
 30
0.0
 40
2.0
  1
ＤＥＳＩＧＮＥＤ
 41
0.713043472041
  7
EXCADSTD
 72
     5
 11
273.478592390744
 21
25.927377675439
 31
0.0
100
AcDbText
  0
TEXT
  5
6E
330
65
100
AcDbEntity
  8
図枠細線
  6
CONTINUOUS
 62
   252
100
AcDbText
 10
246.358592505185
 20
25.927377675439
 30
0.0
 40
2.0
  1
ＣＨＥＣＫＥＤ
 41
0.831249989569
  7
EXCADSTD
 72
     5
 11
259.658592338292
 21
25.927377675439
 31
0.0
100
AcDbText
  0
TEXT
  5
6F
330
65
100
AcDbEntity
  8
図枠細線
  6
CONTINUOUS
 62
   252
100
AcDbText
 10
274.358592505185
 20
28.427377675439
 30
0.0
 40
2.0
  1
製図
 41
1.209677419355
  7
EXCADSTD
 72
     5
 11
279.358592505185
 21
28.427377675439
 31
0.0
100
AcDbText
  0
TEXT
  5
70
330
65
100
AcDbEntity
  8
図枠細線
  6
CONTINUOUS
 62
   252
100
AcDbText
 10
260.358592505185
 20
28.427377675439
 30
0.0
 40
2.0
  1
設計
 41
1.171875
  7
EXCADSTD
 72
     5
 11
265.358592505185
 21
28.427377675439
 31
0.0
100
AcDbText
  0
TEXT
  5
71
330
65
100
AcDbEntity
  8
図枠細線
  6
CONTINUOUS
 62
   252
100
AcDbText
 10
246.358592505185
 20
28.427377675439
 30
0.0
 40
2.0
  1
検図
 41
1.209677419355
  7
EXCADSTD
 72
     5
 11
251.358592505185
 21
28.427377675439
 31
0.0
100
AcDbText
  0
TEXT
  5
72
330
65
100
AcDbEntity
  8
図枠細線
  6
CONTINUOUS
 62
   252
100
AcDbText
 10
232.358592505185
 20
25.927377675439
 30
0.0
 40
2.0
  1
ＡＰＰＲＯＶＥＤ
 41
0.695652184279
  7
EXCADSTD
 72
     5
 11
245.15859269592
 21
25.927377675439
 31
0.0
100
AcDbText
  0
TEXT
  5
73
330
65
100
AcDbEntity
  8
図枠細線
  6
CONTINUOUS
 62
   252
100
AcDbText
 10
232.358592505185
 20
28.427377675439
 30
0.0
 40
2.0
  1
承認
 41
1.171875
  7
EXCADSTD
 72
     5
 11
237.358592505185
 21
28.427377675439
 31
0.0
100
AcDbText
  0
TEXT
  5
74
330
65
100
AcDbEntity
  8
図枠細線
  6
CONTINUOUS
 62
   252
100
AcDbText
 10
290.069888505185
 20
2.574868675439
 30
0.0
 40
3.5
  1
ＴＯＷＡ　ＳＥＩＤＥＮ　ＩＮＤＵＳＴＲＩＡＬ　ＣＯ．，ＬＴＤ．
 41
0.414568012377
  7
EXCADSTD
 72
     5
 11
342.692388209546
 21
2.574868675439
 31
0.0
100
AcDbText
  0
TEXT
  5
75
330
65
100
AcDbEntity
  8
図枠ロゴマーク
  6
CONTINUOUS
 62
   253
100
AcDbText
 10
290.107348505185
 20
7.519769675439
 30
0.0
 40
7.0
  1
東和制電工業株式会社
 41
0.639204545455
  7
EXCADSTD
 72
     5
 11
342.607348505185
 21
7.519769675439
 31
0.0
100
AcDbText
  0
TEXT
  5
76
330
65
100
AcDbEntity
  8
図枠細線
  6
CONTINUOUS
 62
   252
100
AcDbText
 10
232.499705505185
 20
5.759088675439
 30
0.0
 40
2.0
  1
ＰＲＯＪＥＣＴＩＯＮ
 41
0.754285710199
  7
EXCADSTD
 72
     5
 11
250.099705409817
 21
5.759088675439
 31
0.0
100
AcDbText
  0
TEXT
  5
77
330
65
100
AcDbEntity
  8
図枠細線
  6
CONTINUOUS
 62
   252
100
AcDbText
 10
232.574629505185
 20
8.681077675439
 30
0.0
 40
2.0
  1
ＴＨＩＲＤ　ＡＮＧＬＥ
 41
0.691099486738
  7
EXCADSTD
 72
     5
 11
250.174629767445
 21
8.681077675439
 31
0.0
100
AcDbText
  0
TEXT
  5
78
330
65
100
AcDbEntity
  8
図枠細線
  6
CONTINUOUS
 62
   252
100
AcDbText
 10
256.823999505185
 20
13.427377675439
 30
0.0
 40
2.0
  1
ＳＣＡＬＥ
 41
0.903614457831
  7
EXCADSTD
 72
     5
 11
266.823999505185
 21
13.427377675439
 31
0.0
100
AcDbText
  0
TEXT
  5
79
330
65
100
AcDbEntity
  8
図枠細線
  6
CONTINUOUS
 62
   252
100
AcDbText
 10
274.858592505185
 20
13.427377675439
 30
0.0
 40
2.0
  1
ＤＡＴＥ
 41
0.923076923077
  7
EXCADSTD
 72
     5
 11
282.858592505185
 21
13.427377675439
 31
0.0
100
AcDbText
  0
TEXT
  5
7A
330
65
100
AcDbEntity
  8
図枠細線
  6
CONTINUOUS
 62
   252
100
AcDbText
 10
356.358592505185
 20
13.427377675439
 30
0.0
 40
2.0
  1
ＤＲＧ．ＮＯ．
 41
0.9375
  7
EXCADSTD
 72
     5
 11
370.358592505185
 21
13.427377675439
 31
0.0
100
AcDbText
  0
TEXT
  5
7B
330
65
100
AcDbEntity
  8
図枠細線
  6
CONTINUOUS
 62
   252
100
AcDbText
 10
345.358592505185
 20
13.427377675439
 30
0.0
 40
2.0
  1
図面番号
 41
1.102941176471
  7
EXCADSTD
 72
     5
 11
355.358592505185
 21
13.427377675439
 31
0.0
100
AcDbText
  0
TEXT
  5
7C
330
65
100
AcDbEntity
  8
図枠細線
  6
CONTINUOUS
 62
   252
100
AcDbText
 10
269.358592505185
 20
13.427377675439
 30
0.0
 40
2.0
  1
日付
 41
1.171875
  7
EXCADSTD
 72
     5
 11
274.358592505185
 21
13.427377675439
 31
0.0
100
AcDbText
  0
TEXT
  5
7D
330
65
100
AcDbEntity
  8
図枠細線
  6
CONTINUOUS
 62
   252
100
AcDbText
 10
251.451512505185
 20
13.427377675439
 30
0.0
 40
2.0
  1
尺度
 41
1.171875
  7
EXCADSTD
 72
     5
 11
256.451512505185
 21
13.427377675439
 31
0.0
100
AcDbText
  0
TEXT
  5
7E
330
65
100
AcDbEntity
  8
図枠細線
  6
CONTINUOUS
 62
   252
100
AcDbText
 10
232.358592505185
 20
13.427377675439
 30
0.0
 40
2.0
  1
第三角法
 41
1.102941176471
  7
EXCADSTD
 72
     5
 11
242.358592505185
 21
13.427377675439
 31
0.0
100
AcDbText
  0
TEXT
  5
7F
330
65
100
AcDbEntity
  8
図枠細線
  6
CONTINUOUS
 62
   252
100
AcDbText
 10
212.358592505185
 20
28.427377675439
 30
0.0
 40
2.0
  1
ＮＯＴＥ
 41
0.923076923077
  7
EXCADSTD
 72
     5
 11
220.358592505185
 21
28.427377675439
 31
0.0
100
AcDbText
  0
LINE
  5
80
330
65
100
AcDbEntity
  8
図枠細線
  6
CONTINUOUS
 62
   252
100
AcDbLine
 10
287.858592505185
 20
23.427375675439
 30
0.0
 11
344.858592505185
 21
23.427375675439
 31
0.0
  0
LINE
  5
81
330
65
100
AcDbEntity
  8
図枠太線
  6
CONTINUOUS
 62
   251
100
AcDbLine
 10
287.858584505185
 20
15.927375675439
 30
0.0
 11
344.858592505185
 21
15.927375675439
 31
0.0
  0
LINE
  5
82
330
65
100
AcDbEntity
  8
図枠細線
  6
CONTINUOUS
 62
   252
100
AcDbLine
 10
344.858592505185
 20
15.927375675439
 30
0.0
 11
401.858584505185
 21
15.927375675439
 31
0.0
  0
LINE
  5
83
330
65
100
AcDbEntity
  8
図枠太線
  6
CONTINUOUS
 62
   251
100
AcDbLine
 10
344.858592505185
 20
0.927377675439
 30
0.0
 11
344.858592505185
 21
30.927375675439
 31
0.0
  0
LINE
  5
84
330
65
100
AcDbEntity
  8
図枠太線
  6
CONTINUOUS
 62
   251
100
AcDbLine
 10
287.858592505185
 20
0.927377675439
 30
0.0
 11
287.858592505185
 21
30.927375675439
 31
0.0
  0
LINE
  5
85
330
65
100
AcDbEntity
  8
図枠細線
  6
CONTINUOUS
 62
   252
100
AcDbLine
 10
268.858592505185
 20
0.927377675439
 30
0.0
 11
268.858592505185
 21
15.927375675439
 31
0.0
  0
LINE
  5
86
330
65
100
AcDbEntity
  8
図枠細線
  6
CONTINUOUS
 62
   252
100
AcDbLine
 10
250.858592505185
 20
0.927377675439
 30
0.0
 11
250.858592505185
 21
15.927375675439
 31
0.0
  0
LINE
  5
87
330
65
100
AcDbEntity
  8
図枠細線
  6
CONTINUOUS
 62
   252
100
AcDbLine
 10
273.858592505185
 20
30.927375675439
 30
0.0
 11
273.858592505185
 21
15.927375675439
 31
0.0
  0
LINE
  5
88
330
65
100
AcDbEntity
  8
図枠細線
  6
CONTINUOUS
 62
   252
100
AcDbLine
 10
259.858592505185
 20
30.927375675439
 30
0.0
 11
259.858592505185
 21
15.927375675439
 31
0.0
  0
LINE
  5
89
330
65
100
AcDbEntity
  8
図枠細線
  6
CONTINUOUS
 62
   252
100
AcDbLine
 10
245.858592505185
 20
30.927375675439
 30
0.0
 11
245.858592505185
 21
15.927375675439
 31
0.0
  0
LINE
  5
8A
330
65
100
AcDbEntity
  8
図枠太線
  6
CONTINUOUS
 62
   251
100
AcDbLine
 10
231.858592505185
 20
0.927377675439
 30
0.0
 11
231.858592505185
 21
30.927375675439
 31
0.0
  0
LINE
  5
8B
330
65
100
AcDbEntity
  8
図枠細線
  6
CONTINUOUS
 62
   252
100
AcDbLine
 10
211.858592505185
 20
25.927375675439
 30
0.0
 11
231.858592505185
 21
25.927375675439
 31
0.0
  0
LINE
  5
8C
330
65
100
AcDbEntity
  8
図枠細線
  6
CONTINUOUS
 62
   252
100
AcDbLine
 10
211.858592505185
 20
20.927375675439
 30
0.0
 11
231.858592505185
 21
20.927375675439
 31
0.0
  0
LINE
  5
8D
330
65
100
AcDbEntity
  8
図枠細線
  6
CONTINUOUS
 62
   252
100
AcDbLine
 10
211.858592505185
 20
10.927375675439
 30
0.0
 11
231.858592505185
 21
10.927375675439
 31
0.0
  0
LINE
  5
8E
330
65
100
AcDbEntity
  8
図枠細線
  6
CONTINUOUS
 62
   252
100
AcDbLine
 10
211.858592505185
 20
5.927377675439
 30
0.0
 11
231.858592505185
 21
5.927377675439
 31
0.0
  0
LINE
  5
8F
330
65
100
AcDbEntity
  8
図枠太線
  6
CONTINUOUS
 62
   251
100
AcDbLine
 10
211.858592505185
 20
30.927375675439
 30
0.0
 11
401.858584505185
 21
30.927375675439
 31
0.0
  0
LINE
  5
90
330
65
100
AcDbEntity
  8
図枠太線
  6
CONTINUOUS
 62
   251
100
AcDbLine
 10
1.858584505185
 20
275.927375675439
 30
0.0
 11
401.858584505185
 21
275.927375675439
 31
0.0
  0
LINE
  5
91
330
65
100
AcDbEntity
  8
図枠太線
  6
CONTINUOUS
 62
   251
100
AcDbLine
 10
401.858584505185
 20
0.927375675439
 30
0.0
 11
401.858584505185
 21
275.927375675439
 31
0.0
  0
LINE
  5
92
330
65
100
AcDbEntity
  8
図枠太線
  6
CONTINUOUS
 62
   251
100
AcDbLine
 10
1.858584505185
 20
0.927375675439
 30
0.0
 11
401.858584505185
 21
0.927375675439
 31
0.0
  0
ENDBLK
  5
94
330
65
100
AcDbEntity
  8
0
100
AcDbBlockEnd
  0
BLOCK
  5
29C0
330
29BF
100
AcDbEntity
  8
0
100
AcDbBlockBegin
  2
A4横用_タイトル
 70
     0
 10
0.0
 20
0.0
 30
0.0
  3
A4横用_タイトル
  1

  0
LINE
  5
29C1
330
29BF
100
AcDbEntity
  8
図枠細線
  6
CONTINUOUS
100
AcDbLine
 10
75.061011071051
 20
16.806607253358
 30
0.0
 11
144.061011071051
 21
16.806604789072
 31
0.0
  0
LINE
  5
29C2
330
29BF
100
AcDbEntity
  8
図枠細線
  6
CONTINUOUS
 62
   252
100
AcDbLine
 10
4.061011071051
 20
11.806606253358
 30
0.0
 11
75.061011071051
 21
11.806606253358
 31
0.0
  0
LINE
  5
29C3
330
29BF
100
AcDbEntity
  8
図枠細線
  6
CONTINUOUS
 62
   252
100
AcDbLine
 10
4.061011071051
 20
21.806606253358
 30
0.0
 11
75.061011071051
 21
21.806606253358
 31
0.0
  0
LINE
  5
29C4
330
29BF
100
AcDbEntity
  8
図枠細線
  6
CONTINUOUS
 62
   252
100
AcDbLine
 10
4.061011071051
 20
26.806606253358
 30
0.0
 11
75.061011071051
 21
26.806606253358
 31
0.0
  0
LINE
  5
29C5
330
29BF
100
AcDbEntity
  8
図枠細線
  6
CONTINUOUS
100
AcDbLine
 10
4.061011071051
 20
16.806608253358
 30
0.0
 11
75.061011071051
 21
16.806608253358
 31
0.0
  0
TEXT
  5
29C6
330
29BF
100
AcDbEntity
  8
図枠細線
  6
CONTINUOUS
 62
   252
100
AcDbText
 10
76.405475827713
 20
9.560308253358
 30
0.0
 40
2.0
  1
ＴＨＩＲＤ　ＡＮＧＬＥ
 41
0.691099486738
  7
EXCADSTD
 72
     5
 11
94.005476089973
 21
9.560308253358
 31
0.0
100
AcDbText
  0
TEXT
  5
29C7
330
29BF
100
AcDbEntity
  8
図枠細線
  6
CONTINUOUS
 62
   252
100
AcDbText
 10
76.705775880921
 20
14.306608253358
 30
0.0
 40
2.0
  1
第三角法
 41
1.102941176471
  7
EXCADSTD
 72
     5
 11
86.705775880921
 21
14.306608253358
 31
0.0
100
AcDbText
  0
TEXT
  5
29C8
330
29BF
100
AcDbEntity
  8
図枠細線
  6
CONTINUOUS
 62
   252
100
AcDbText
 10
76.705775880921
 20
26.806608253358
 30
0.0
 40
2.0
  1
ＡＰＰＲＯＶＥＤ
 41
0.695652184279
  7
EXCADSTD
 72
     5
 11
89.505776071656
 21
26.806608253358
 31
0.0
100
AcDbText
  0
TEXT
  5
29C9
330
29BF
100
AcDbEntity
  8
図枠細線
  6
CONTINUOUS
 62
   252
100
AcDbText
 10
76.705775880921
 20
29.306608253358
 30
0.0
 40
2.0
  1
承認
 41
1.171875
  7
EXCADSTD
 72
     5
 11
81.705775880921
 21
29.306608253358
 31
0.0
100
AcDbText
  0
LINE
  5
29CA
330
29BF
100
AcDbEntity
  8
図枠細線
  6
CONTINUOUS
 62
   252
100
AcDbLine
 10
98.061011071051
 20
31.806606253358
 30
0.0
 11
98.061011071051
 21
16.806606253358
 31
0.0
  0
TEXT
  5
29CB
330
29BF
100
AcDbEntity
  8
図枠細線
  6
CONTINUOUS
 62
   252
100
AcDbText
 10
104.216531119804
 20
14.306608253358
 30
0.0
 40
2.0
  1
ＳＣＡＬＥ
 41
0.903614457831
  7
EXCADSTD
 72
     5
 11
114.216531119804
 21
14.306608253358
 31
0.0
100
AcDbText
  0
TEXT
  5
29CC
330
29BF
100
AcDbEntity
  8
図枠細線
  6
CONTINUOUS
 62
   252
100
AcDbText
 10
98.844044119804
 20
14.306608253358
 30
0.0
 40
2.0
  1
尺度
 41
1.171875
  7
EXCADSTD
 72
     5
 11
103.844044119804
 21
14.306608253358
 31
0.0
100
AcDbText
  0
TEXT
  5
29CD
330
29BF
100
AcDbEntity
  8
図枠細線
  6
CONTINUOUS
 62
   252
100
AcDbText
 10
98.968727707497
 20
26.806608253358
 30
0.0
 40
2.0
  1
ＣＨＥＣＫＥＤ
 41
0.831249989569
  7
EXCADSTD
 72
     5
 11
112.268727540604
 21
26.806608253358
 31
0.0
100
AcDbText
  0
TEXT
  5
29CE
330
29BF
100
AcDbEntity
  8
図枠細線
  6
CONTINUOUS
 62
   252
100
AcDbText
 10
98.968727707497
 20
29.306608253358
 30
0.0
 40
2.0
  1
検図
 41
1.209677419355
  7
EXCADSTD
 72
     5
 11
103.968727707497
 21
29.306608253358
 31
0.0
100
AcDbText
  0
LINE
  5
29CF
330
29BF
100
AcDbEntity
  8
図枠細線
  6
CONTINUOUS
 62
   252
100
AcDbLine
 10
121.061011071051
 20
31.806606253358
 30
0.0
 11
121.061011071051
 21
16.806606253358
 31
0.0
  0
TEXT
  5
29D0
330
29BF
100
AcDbEntity
  8
図枠細線
  6
CONTINUOUS
 62
   252
100
AcDbText
 10
128.001465247253
 20
14.306608253358
 30
0.0
 40
2.0
  1
ＤＡＴＥ
 41
0.923076923077
  7
EXCADSTD
 72
     5
 11
136.001465247253
 21
14.306608253358
 31
0.0
100
AcDbText
  0
TEXT
  5
29D1
330
29BF
100
AcDbEntity
  8
図枠細線
  6
CONTINUOUS
 62
   252
100
AcDbText
 10
122.066415498841
 20
14.306608253358
 30
0.0
 40
2.0
  1
日付
 41
1.171875
  7
EXCADSTD
 72
     5
 11
127.066415498841
 21
14.306608253358
 31
0.0
100
AcDbText
  0
TEXT
  5
29D2
330
29BF
100
AcDbEntity
  8
図枠細線
  6
CONTINUOUS
 62
   252
100
AcDbText
 10
121.59429406571
 20
29.306608253358
 30
0.0
 40
2.0
  1
製図
 41
1.209677419355
  7
EXCADSTD
 72
     5
 11
126.59429406571
 21
29.306608253358
 31
0.0
100
AcDbText
  0
TEXT
  5
29D3
330
29BF
100
AcDbEntity
  8
図枠細線
  6
CONTINUOUS
 62
   252
100
AcDbText
 10
121.59429406571
 20
26.806608253358
 30
0.0
 40
2.0
  1
ＤＲＡＷＮ
 41
0.882352941176
  7
EXCADSTD
 72
     5
 11
131.59429406571
 21
26.806608253358
 31
0.0
100
AcDbText
  0
TEXT
  5
29D4
330
29BF
100
AcDbEntity
  8
図枠細線
  6
CONTINUOUS
 62
   252
100
AcDbText
 10
226.591229661348
 20
14.306608253358
 30
0.0
 40
2.0
  1
ＤＲＧ．ＮＯ．
 41
0.9375
  7
EXCADSTD
 72
     5
 11
240.591229661348
 21
14.306608253358
 31
0.0
100
AcDbText
  0
LINE
  5
29D5
330
29BF
100
AcDbEntity
  8
図枠太線
  6
CONTINUOUS
 62
   251
100
AcDbLine
 10
144.061003071051
 20
16.806606253358
 30
0.0
 11
214.061011071051
 21
16.806606253358
 31
0.0
  0
LINE
  5
29D6
330
29BF
100
AcDbEntity
  8
図枠細線
  6
CONTINUOUS
 62
   252
100
AcDbLine
 10
144.061011071051
 20
24.306606253358
 30
0.0
 11
214.061011071051
 21
24.306606253358
 31
0.0
  0
TEXT
  5
29D7
330
29BF
100
AcDbEntity
  8
図枠ロゴマーク
  6
CONTINUOUS
 62
   253
100
AcDbText
 10
146.433776781596
 20
8.399000253358
 30
0.0
 40
7.0
  1
東和制電工業株式会社
 41
0.80361088462
  7
EXCADSTD
 72
     5
 11
212.437017438349
 21
8.399000253358
 31
0.0
100
AcDbText
  0
TEXT
  5
29D8
330
29BF
100
AcDbEntity
  8
図枠細線
  6
CONTINUOUS
 62
   252
100
AcDbText
 10
215.156179912936
 20
14.306608253358
 30
0.0
 40
2.0
  1
図面番号
 41
1.102941176471
  7
EXCADSTD
 72
     5
 11
225.156179912936
 21
14.306608253358
 31
0.0
100
AcDbText
  0
TEXT
  5
29D9
330
29BF
100
AcDbEntity
  8
図枠細線
  6
CONTINUOUS
 62
   252
100
AcDbText
 10
221.591229661348
 20
29.306608253358
 30
0.0
 40
2.0
  1
ＴＩＴＬＥ
 41
0.903614457831
  7
EXCADSTD
 72
     5
 11
231.591229661348
 21
29.306608253358
 31
0.0
100
AcDbText
  0
TEXT
  5
29DA
330
29BF
100
AcDbEntity
  8
図枠細線
  6
CONTINUOUS
 62
   252
100
AcDbText
 10
215.156179912936
 20
29.306608253358
 30
0.0
 40
2.0
  1
名称
 41
1.171875
  7
EXCADSTD
 72
     5
 11
220.156179912936
 21
29.306608253358
 31
0.0
100
AcDbText
  0
LINE
  5
29DB
330
29BF
100
AcDbEntity
  8
図枠太線
  6
CONTINUOUS
 62
   251
100
AcDbLine
 10
4.061011071051
 20
1.806608253358
 30
0.0
 11
284.061011071051
 21
1.806608253358
 31
0.0
  0
LINE
  5
29DC
330
29BF
100
AcDbEntity
  8
図枠細線
  6
CONTINUOUS
 62
   252
100
AcDbLine
 10
4.061011071051
 20
6.806608253358
 30
0.0
 11
75.061011071051
 21
6.806608253358
 31
0.0
  0
LINE
  5
29DD
330
29BF
100
AcDbEntity
  8
図枠太線
  6
CONTINUOUS
 62
   251
100
AcDbLine
 10
75.061011071051
 20
1.806608253358
 30
0.0
 11
75.061011071051
 21
31.806606253358
 31
0.0
  0
TEXT
  5
29DE
330
29BF
100
AcDbEntity
  8
図枠細線
  6
CONTINUOUS
 62
   252
100
AcDbText
 10
76.330551827713
 20
6.638319253358
 30
0.0
 40
2.0
  1
ＰＲＯＪＥＣＴＩＯＮ
 41
0.754285710199
  7
EXCADSTD
 72
     5
 11
93.930551732346
 21
6.638319253358
 31
0.0
100
AcDbText
  0
LINE
  5
29DF
330
29BF
100
AcDbEntity
  8
図枠細線
  6
CONTINUOUS
 62
   252
100
AcDbLine
 10
98.061011071051
 20
1.806606931929
 30
0.0
 11
98.061011071051
 21
16.806604931929
 31
0.0
  0
LINE
  5
29E0
330
29BF
100
AcDbEntity
  8
図枠細線
  6
CONTINUOUS
 62
   252
100
AcDbLine
 10
121.061011071051
 20
1.806607574787
 30
0.0
 11
121.061011071051
 21
16.806605574787
 31
0.0
  0
LINE
  5
29E1
330
29BF
100
AcDbEntity
  8
図枠太線
  6
CONTINUOUS
 62
   251
100
AcDbLine
 10
284.061011071051
 20
1.806608253358
 30
0.0
 11
284.061011071051
 21
31.806606253358
 31
0.0
  0
LINE
  5
29E2
330
29BF
100
AcDbEntity
  8
図枠細線
  6
CONTINUOUS
 62
   252
100
AcDbLine
 10
214.061011071051
 20
16.806606253358
 30
0.0
 11
284.061011071051
 21
16.806606253358
 31
0.0
  0
TEXT
  5
29E3
330
29BF
100
AcDbEntity
  8
図枠細線
  6
CONTINUOUS
 62
   252
100
AcDbText
 10
146.199593676182
 20
3.454099253358
 30
0.0
 40
3.5
  1
ＴＯＷＡ　ＳＥＩＤＥＮ　ＩＮＤＵＳＴＲＩＡＬ　ＣＯ．，ＬＴＤ．
 41
0.528937826907
  7
EXCADSTD
 72
     5
 11
213.339435171588
 21
3.454099253358
 31
0.0
100
AcDbText
  0
LINE
  5
29E4
330
29BF
100
AcDbEntity
  8
図枠太線
  6
CONTINUOUS
 62
   251
100
AcDbLine
 10
144.061011071051
 20
1.806608253358
 30
0.0
 11
144.061011071051
 21
31.806606253358
 31
0.0
  0
LINE
  5
29E5
330
29BF
100
AcDbEntity
  8
図枠太線
  6
CONTINUOUS
 62
   251
100
AcDbLine
 10
214.061011071051
 20
1.806608253358
 30
0.0
 11
214.061011071051
 21
31.806606253358
 31
0.0
  0
MTEXT
  5
29E6
330
29BF
100
AcDbEntity
  8
図枠太線
100
AcDbMText
 10
5.064337346478
 20
31.010982137407
 30
0.0
 40
2.5
 41
8.67856098472
 71
     1
 72
     5
  1
{\Fmonotxt.shx,bigfont.shx|c128;図暦}
  0
LINE
  5
29E7
330
29BF
100
AcDbEntity
  8
図枠太線
  6
CONTINUOUS
 62
   251
100
AcDbLine
 10
4.061011071051
 20
1.806608253358
 30
0.0
 11
4.061011071051
 21
31.806606253358
 31
0.0
  0
TEXT
  5
29E8
330
29BF
100
AcDbEntity
  8
図枠細線
 48
10.0
100
AcDbText
 10
12.260817420402
 20
28.625419626495
 30
0.0
 40
2.0
  1
CHANGE NOTICE
100
AcDbText
  0
ENDBLK
  5
29E9
330
29BF
100
AcDbEntity
  8
0
100
AcDbBlockEnd
  0
BLOCK
  5
29F5
330
29F4
100
AcDbEntity
  8
0
100
AcDbBlockBegin
  2
A4縦用_タイトル
 70
     0
 10
0.0
 20
0.0
 30
0.0
  3
A4縦用_タイトル
  1

  0
LINE
  5
29F6
330
29F4
100
AcDbEntity
  8
図枠太線
  6
CONTINUOUS
 62
   251
100
AcDbLine
 10
2.368253864267
 20
4.525433224584
 30
0.0
 11
192.368245864267
 21
4.525433224584
 31
0.0
  0
LINE
  5
29F7
330
29F4
100
AcDbEntity
  8
図枠太線
  6
CONTINUOUS
 62
   251
100
AcDbLine
 10
78.368245864267
 20
19.525431224584
 30
0.0
 11
135.368253864267
 21
19.525431224584
 31
0.0
  0
LINE
  5
29F8
330
29F4
100
AcDbEntity
  8
図枠細線
  6
CONTINUOUS
 62
   252
100
AcDbLine
 10
78.368253864267
 20
27.025431224584
 30
0.0
 11
135.368253864267
 21
27.025431224584
 31
0.0
  0
TEXT
  5
29F9
330
29F4
100
AcDbEntity
  8
図枠ロゴマーク
  6
CONTINUOUS
 62
   253
100
AcDbText
 10
80.617009864267
 20
11.117825224584
 30
0.0
 40
7.0
  1
東和制電工業株式会社
 41
0.639204545455
  7
EXCADSTD
 72
     5
 11
133.117009864267
 21
11.117825224584
 31
0.0
100
AcDbText
  0
TEXT
  5
29FA
330
29F4
100
AcDbEntity
  8
図枠細線
  6
CONTINUOUS
 62
   252
100
AcDbText
 10
80.579549864267
 20
6.172924224584
 30
0.0
 40
3.5
  1
ＴＯＷＡ　ＳＥＩＤＥＮ　ＩＮＤＵＳＴＲＩＡＬ　ＣＯ．，ＬＴＤ．
 41
0.414568012377
  7
EXCADSTD
 72
     5
 11
133.202049568628
 21
6.172924224584
 31
0.0
100
AcDbText
  0
LINE
  5
29FB
330
29F4
100
AcDbEntity
  8
図枠太線
  6
CONTINUOUS
 62
   251
100
AcDbLine
 10
2.368253864267
 20
4.525433224584
 30
0.0
 11
2.368253864267
 21
34.525431224584
 31
0.0
  0
TEXT
  5
29FC
330
29F4
100
AcDbEntity
  8
図枠細線
  6
CONTINUOUS
 62
   252
100
AcDbText
 10
22.504308136501
 20
12.279133224584
 30
0.0
 40
2.0
  1
ＴＨＩＲＤ　ＡＮＧＬＥ
 41
0.691099486738
  7
EXCADSTD
 72
     5
 11
40.104308398762
 21
12.279133224584
 31
0.0
100
AcDbText
  0
TEXT
  5
29FD
330
29F4
100
AcDbEntity
  8
図枠細線
  6
CONTINUOUS
 62
   252
100
AcDbText
 10
22.429384136501
 20
9.357144224584
 30
0.0
 40
2.0
  1
ＰＲＯＪＥＣＴＩＯＮ
 41
0.754285710199
  7
EXCADSTD
 72
     5
 11
40.029384041134
 21
9.357144224584
 31
0.0
100
AcDbText
  0
LINE
  5
29FE
330
29F4
100
AcDbEntity
  8
図枠細線
  6
CONTINUOUS
100
AcDbLine
 10
22.368253864267
 20
19.525433224584
 30
0.0
 11
78.368253864267
 21
19.525431224584
 31
0.0
  0
TEXT
  5
29FF
330
29F4
100
AcDbEntity
  8
図枠細線
  6
CONTINUOUS
 62
   252
100
AcDbText
 10
22.868253864267
 20
17.025433224584
 30
0.0
 40
2.0
  1
第三角法
 41
1.102941176471
  7
EXCADSTD
 72
     5
 11
32.868253864267
 21
17.025433224584
 31
0.0
100
AcDbText
  0
TEXT
  5
2A00
330
29F4
100
AcDbEntity
  8
図枠細線
  6
CONTINUOUS
 62
   252
100
AcDbText
 10
22.868253864267
 20
29.525433224584
 30
0.0
 40
2.0
  1
ＡＰＰＲＯＶＥＤ
 41
0.695652184279
  7
EXCADSTD
 72
     5
 11
35.668254055002
 21
29.525433224584
 31
0.0
100
AcDbText
  0
LINE
  5
2A01
330
29F4
100
AcDbEntity
  8
図枠細線
  6
CONTINUOUS
 62
   252
100
AcDbLine
 10
2.368253864267
 20
9.525433224584
 30
0.0
 11
22.368253864267
 21
9.525433224584
 31
0.0
  0
LINE
  5
2A02
330
29F4
100
AcDbEntity
  8
図枠細線
  6
CONTINUOUS
 62
   252
100
AcDbLine
 10
2.368253864267
 20
14.525431224584
 30
0.0
 11
22.368253864267
 21
14.525431224584
 31
0.0
  0
LINE
  5
2A03
330
29F4
100
AcDbEntity
  8
図枠細線
  6
CONTINUOUS
 62
   252
100
AcDbLine
 10
2.368253864267
 20
24.525431224584
 30
0.0
 11
22.368253864267
 21
24.525431224584
 31
0.0
  0
LINE
  5
2A04
330
29F4
100
AcDbEntity
  8
図枠細線
  6
CONTINUOUS
 62
   252
100
AcDbLine
 10
2.368253864267
 20
29.525431224584
 30
0.0
 11
22.368253864267
 21
29.525431224584
 31
0.0
  0
LINE
  5
2A05
330
29F4
100
AcDbEntity
  8
図枠細線
  6
CONTINUOUS
100
AcDbLine
 10
2.368253864267
 20
19.525433224584
 30
0.0
 11
22.368253864267
 21
19.525433224584
 31
0.0
  0
TEXT
  5
2A06
330
29F4
100
AcDbEntity
  8
図枠細線
  6
CONTINUOUS
 62
   252
100
AcDbText
 10
2.868253864267
 20
32.025433224584
 30
0.0
 40
2.0
  1
ＮＯＴＥ
 41
0.923076923077
  7
EXCADSTD
 72
     5
 11
10.868253864267
 21
32.025433224584
 31
0.0
100
AcDbText
  0
LINE
  5
2A07
330
29F4
100
AcDbEntity
  8
図枠太線
  6
CONTINUOUS
 62
   251
100
AcDbLine
 10
22.368253864267
 20
4.525433224584
 30
0.0
 11
22.368253864267
 21
34.525431224584
 31
0.0
  0
TEXT
  5
2A08
330
29F4
100
AcDbEntity
  8
図枠細線
  6
CONTINUOUS
 62
   252
100
AcDbText
 10
22.868253864267
 20
32.025433224584
 30
0.0
 40
2.0
  1
承認
 41
1.171875
  7
EXCADSTD
 72
     5
 11
27.868253864267
 21
32.025433224584
 31
0.0
100
AcDbText
  0
TEXT
  5
2A09
330
29F4
100
AcDbEntity
  8
図枠細線
  6
CONTINUOUS
 62
   252
100
AcDbText
 10
60.711709035982
 20
32.025433224584
 30
0.0
 40
2.0
  1
製図
 41
1.209677419355
  7
EXCADSTD
 72
     5
 11
65.711709035982
 21
32.025433224584
 31
0.0
100
AcDbText
  0
TEXT
  5
2A0A
330
29F4
100
AcDbEntity
  8
図枠細線
  6
CONTINUOUS
 62
   252
100
AcDbText
 10
60.711709035982
 20
29.525433224584
 30
0.0
 40
2.0
  1
ＤＲＡＷＮ
 41
0.882352941176
  7
EXCADSTD
 72
     5
 11
70.711709035982
 21
29.525433224584
 31
0.0
100
AcDbText
  0
TEXT
  5
2A0B
330
29F4
100
AcDbEntity
  8
図枠細線
  6
CONTINUOUS
 62
   252
100
AcDbText
 10
60.834891743877
 20
17.025433224584
 30
0.0
 40
2.0
  1
日付
 41
1.171875
  7
EXCADSTD
 72
     5
 11
65.834891743877
 21
17.025433224584
 31
0.0
100
AcDbText
  0
TEXT
  5
2A0C
330
29F4
100
AcDbEntity
  8
図枠細線
  6
CONTINUOUS
 62
   252
100
AcDbText
 10
47.333660864267
 20
17.025433224584
 30
0.0
 40
2.0
  1
ＳＣＡＬＥ
 41
0.903614457831
  7
EXCADSTD
 72
     5
 11
57.333660864267
 21
17.025433224584
 31
0.0
100
AcDbText
  0
TEXT
  5
2A0D
330
29F4
100
AcDbEntity
  8
図枠細線
  6
CONTINUOUS
 62
   252
100
AcDbText
 10
42.281425990082
 20
29.525433224584
 30
0.0
 40
2.0
  1
ＣＨＥＣＫＥＤ
 41
0.831249989569
  7
EXCADSTD
 72
     5
 11
55.581425823189
 21
29.525433224584
 31
0.0
100
AcDbText
  0
LINE
  5
2A0E
330
29F4
100
AcDbEntity
  8
図枠細線
  6
CONTINUOUS
 62
   252
100
AcDbLine
 10
40.968253864267
 20
34.525431224584
 30
0.0
 11
40.968253864267
 21
19.525431224584
 31
0.0
  0
LINE
  5
2A0F
330
29F4
100
AcDbEntity
  8
図枠細線
  6
CONTINUOUS
 62
   252
100
AcDbLine
 10
40.968253864267
 20
4.525433224584
 30
0.0
 11
40.968253864267
 21
19.525431224584
 31
0.0
  0
TEXT
  5
2A10
330
29F4
100
AcDbEntity
  8
図枠細線
  6
CONTINUOUS
 62
   252
100
AcDbText
 10
41.961173864267
 20
17.025433224584
 30
0.0
 40
2.0
  1
尺度
 41
1.171875
  7
EXCADSTD
 72
     5
 11
46.961173864267
 21
17.025433224584
 31
0.0
100
AcDbText
  0
TEXT
  5
2A11
330
29F4
100
AcDbEntity
  8
図枠細線
  6
CONTINUOUS
 62
   252
100
AcDbText
 10
42.281425990082
 20
32.025433224584
 30
0.0
 40
2.0
  1
検図
 41
1.209677419355
  7
EXCADSTD
 72
     5
 11
47.281425990082
 21
32.025433224584
 31
0.0
100
AcDbText
  0
LINE
  5
2A12
330
29F4
100
AcDbEntity
  8
図枠細線
  6
CONTINUOUS
 62
   252
100
AcDbLine
 10
59.768253864267
 20
34.525431224584
 30
0.0
 11
59.768253864267
 21
19.525431224584
 31
0.0
  0
LINE
  5
2A13
330
29F4
100
AcDbEntity
  8
図枠細線
  6
CONTINUOUS
 62
   252
100
AcDbLine
 10
59.768253864267
 20
4.525433224584
 30
0.0
 11
59.768253864267
 21
19.525431224584
 31
0.0
  0
LINE
  5
2A14
330
29F4
100
AcDbEntity
  8
図枠太線
  6
CONTINUOUS
 62
   251
100
AcDbLine
 10
78.368253864267
 20
4.525433224584
 30
0.0
 11
78.368253864267
 21
34.525431224584
 31
0.0
  0
TEXT
  5
2A15
330
29F4
100
AcDbEntity
  8
図枠細線
  6
CONTINUOUS
 62
   252
100
AcDbText
 10
66.334891743877
 20
17.025433224584
 30
0.0
 40
2.0
  1
ＤＡＴＥ
 41
0.923076923077
  7
EXCADSTD
 72
     5
 11
74.334891743877
 21
17.025433224584
 31
0.0
100
AcDbText
  0
LINE
  5
2A16
330
29F4
100
AcDbEntity
  8
図枠細線
  6
CONTINUOUS
 62
   252
100
AcDbLine
 10
135.368253864267
 20
19.525431224584
 30
0.0
 11
192.368245864267
 21
19.525431224584
 31
0.0
  0
TEXT
  5
2A17
330
29F4
100
AcDbEntity
  8
図枠細線
  6
CONTINUOUS
 62
   252
100
AcDbText
 10
141.868253864267
 20
32.025433224584
 30
0.0
 40
2.0
  1
ＴＩＴＬＥ
 41
0.903614457831
  7
EXCADSTD
 72
     5
 11
151.868253864267
 21
32.025433224584
 31
0.0
100
AcDbText
  0
LINE
  5
2A18
330
29F4
100
AcDbEntity
  8
図枠太線
  6
CONTINUOUS
 62
   251
100
AcDbLine
 10
135.368253864267
 20
4.525433224584
 30
0.0
 11
135.368253864267
 21
34.525431224584
 31
0.0
  0
TEXT
  5
2A19
330
29F4
100
AcDbEntity
  8
図枠細線
  6
CONTINUOUS
 62
   252
100
AcDbText
 10
135.868253864267
 20
17.025433224584
 30
0.0
 40
2.0
  1
図面番号
 41
1.102941176471
  7
EXCADSTD
 72
     5
 11
145.868253864267
 21
17.025433224584
 31
0.0
100
AcDbText
  0
TEXT
  5
2A1A
330
29F4
100
AcDbEntity
  8
図枠細線
  6
CONTINUOUS
 62
   252
100
AcDbText
 10
135.868253864267
 20
32.025433224584
 30
0.0
 40
2.0
  1
名称
 41
1.171875
  7
EXCADSTD
 72
     5
 11
140.868253864267
 21
32.025433224584
 31
0.0
100
AcDbText
  0
TEXT
  5
2A1B
330
29F4
100
AcDbEntity
  8
図枠細線
  6
CONTINUOUS
 62
   252
100
AcDbText
 10
146.868253864267
 20
17.025433224584
 30
0.0
 40
2.0
  1
ＤＲＧ．ＮＯ．
 41
0.9375
  7
EXCADSTD
 72
     5
 11
160.868253864267
 21
17.025433224584
 31
0.0
100
AcDbText
  0
LINE
  5
2A1C
330
29F4
100
AcDbEntity
  8
図枠太線
  6
CONTINUOUS
 62
   251
100
AcDbLine
 10
192.368245864267
 20
4.525433224584
 30
0.0
 11
192.368245864267
 21
34.525431224584
 31
0.0
  0
ENDBLK
  5
2A1D
330
29F4
100
AcDbEntity
  8
0
100
AcDbBlockEnd
  0
BLOCK
  5
2A33
330
2A32
100
AcDbEntity
  8
0
100
AcDbBlockBegin
  2
A3横用_タイトル
 70
     0
 10
0.0
 20
0.0
 30
0.0
  3
A3横用_タイトル
  1

  0
LINE
  5
2A34
330
2A32
100
AcDbEntity
  8
図枠細線
  6
CONTINUOUS
 62
   252
100
AcDbLine
 10
205.098414535793
 20
33.525959753527
 30
0.0
 11
305.098414535793
 21
33.525959753527
 31
0.0
  0
LINE
  5
2A35
330
2A32
100
AcDbEntity
  8
図枠太線
  6
CONTINUOUS
 62
   251
100
AcDbLine
 10
205.098414535793
 20
23.525959753527
 30
0.0
 11
305.098414535793
 21
23.525959753527
 31
0.0
  0
LINE
  5
2A36
330
2A32
100
AcDbEntity
  8
図枠細線
  6
CONTINUOUS
100
AcDbLine
 10
5.098414535793
 20
23.525959753527
 30
0.0
 11
105.098414535793
 21
23.525959753527
 31
0.0
  0
LINE
  5
2A37
330
2A32
100
AcDbEntity
  8
図枠細線
  6
CONTINUOUS
 62
   252
100
AcDbLine
 10
5.098414535793
 20
36.725957753527
 30
0.0
 11
105.098414535793
 21
36.725957753527
 31
0.0
  0
LINE
  5
2A38
330
2A32
100
AcDbEntity
  8
図枠細線
  6
CONTINUOUS
 62
   252
100
AcDbLine
 10
5.098414535793
 20
30.125957753527
 30
0.0
 11
105.098414535793
 21
30.125957753527
 31
0.0
  0
LINE
  5
2A39
330
2A32
100
AcDbEntity
  8
図枠細線
  6
CONTINUOUS
 62
   252
100
AcDbLine
 10
5.098414535793
 20
16.725959753527
 30
0.0
 11
105.098414535793
 21
16.725959753527
 31
0.0
  0
LINE
  5
2A3A
330
2A32
100
AcDbEntity
  8
図枠細線
  6
CONTINUOUS
 62
   252
100
AcDbLine
 10
5.098414535793
 20
10.125959753527
 30
0.0
 11
105.098414535793
 21
10.125959753527
 31
0.0
  0
LINE
  5
2A3B
330
2A32
100
AcDbEntity
  8
図枠細線
  6
CONTINUOUS
100
AcDbLine
 10
105.098414535793
 20
23.525961753527
 30
0.0
 11
205.098414535793
 21
23.525959753527
 31
0.0
  0
LINE
  5
2A3C
330
2A32
100
AcDbEntity
  8
図枠細線
  6
CONTINUOUS
 62
   252
100
AcDbLine
 10
138.398414535793
 20
43.525959753527
 30
0.0
 11
138.398414535793
 21
18.525957753527
 31
0.0
  0
LINE
  5
2A3D
330
2A32
100
AcDbEntity
  8
図枠細線
  6
CONTINUOUS
 62
   252
100
AcDbLine
 10
171.698414535793
 20
43.525959753527
 30
0.0
 11
171.698414535793
 21
18.525957753527
 31
0.0
  0
LINE
  5
2A3E
330
2A32
100
AcDbEntity
  8
図枠細線
  6
CONTINUOUS
 62
   252
100
AcDbLine
 10
305.098414535793
 20
23.525959753527
 30
0.0
 11
405.098414535793
 21
23.525959753527
 31
0.0
  0
TEXT
  5
2A3F
330
2A32
100
AcDbEntity
  8
図枠ロゴマーク
  6
CONTINUOUS
 62
   253
100
AcDbText
 10
206.102509212755
 20
13.294257570546
 30
0.0
 40
7.0
  1
東和制電工業株式会社
 50
0.016555220185
 41
1.186384129432
  7
EXCADSTD
 72
     5
 11
303.544188309143
 21
13.322412672217
 31
0.0
100
AcDbText
  0
MTEXT
  5
2A40
330
2A32
100
AcDbEntity
  8
図枠細線
100
AcDbMText
 10
6.356764112375
 20
41.976594175478
 30
0.0
 40
2.5
 41
49.938282706292
 71
     1
 72
     5
  1
{\Fmonotxt.shx,bigfont.shx|c128;図暦　CHANGE　NOTICE}
  0
MTEXT
  5
2A41
330
2A32
100
AcDbEntity
  8
図枠細線
 48
10.0
100
AcDbMText
 10
306.544114926828
 20
41.701835800934
 30
0.0
 40
2.5
 41
28.002809618823
 71
     1
 72
     5
  1
{\Fmonotxt.shx,bigfont.shx|c128;名称　TITLE}
  0
MTEXT
  5
2A42
330
2A32
100
AcDbEntity
  8
図枠細線
 48
10.0
100
AcDbMText
 10
307.329617114284
 20
21.606206797226
 30
0.0
 40
2.5
 41
24.385612216707
 71
     1
 72
     5
  1
{\Fmonotxt.shx,bigfont.shx|c128;図面番号\PDRG.　No.}
  0
MTEXT
  5
2A43
330
2A32
100
AcDbEntity
  8
図枠細線
 48
10.0
100
AcDbMText
 10
173.726349404609
 20
21.73680662198
 30
0.0
 40
2.5
 41
25.735090160813
 71
     1
 72
     5
  1
{\Fmonotxt.shx,bigfont.shx|c128;日付 DATE}
  0
MTEXT
  5
2A44
330
2A32
100
AcDbEntity
  8
図枠細線
 48
10.0
100
AcDbMText
 10
173.48708833982
 20
41.621592044998
 30
0.0
 40
2.5
 41
24.983741184205
 71
     1
 72
     5
  1
{\Fmonotxt.shx,bigfont.shx|c128;製図　DRAWN}
  0
MTEXT
  5
2A45
330
2A32
100
AcDbEntity
  8
図枠細線
 48
10.0
100
AcDbMText
 10
139.28009927741
 20
21.866713069868
 30
0.0
 40
2.5
 41
22.629632913243
 71
     1
 72
     5
  1
{\Fmonotxt.shx,bigfont.shx|c128;尺度　SCALE}
  0
MTEXT
  5
2A46
330
2A32
100
AcDbEntity
  8
図枠細線
 48
10.0
100
AcDbMText
 10
139.910091179835
 20
41.311840415554
 30
0.0
 40
2.5
 41
28.998753428368
 71
     1
 72
     5
  1
{\Fmonotxt.shx,bigfont.shx|c128;検図  CHECKED}
  0
MTEXT
  5
2A47
330
2A32
100
AcDbEntity
  8
図枠細線
 48
10.0
100
AcDbMText
 10
114.253294667728
 20
21.916124850174
 30
0.0
 40
3.0
 41
19.692400475383
 71
     1
 72
     5
  1
{\Fmonotxt.shx,bigfont.shx|c128;第三角法}
  0
MTEXT
  5
2A48
330
2A32
100
AcDbEntity
  8
図枠細線
 48
10.0
100
AcDbMText
 10
108.986959929915
 20
15.282880185837
 30
0.0
 40
2.5
 41
27.954882823547
 71
     1
 72
     5
  1
{\Fmonotxt.shx,bigfont.shx|c128;THIRD ANGLE\PPROJECTION}
  0
MTEXT
  5
2A49
330
2A32
100
AcDbEntity
  8
図枠細線
 48
10.0
100
AcDbMText
 10
106.319432640184
 20
41.511437145487
 30
0.0
 40
2.5
 41
28.233595265074
 71
     1
 72
     5
  1
{\Fmonotxt.shx,bigfont.shx|c128;承認 APPROVED}
  0
LINE
  5
2A4A
330
2A32
100
AcDbEntity
  8
図枠太線
  6
CONTINUOUS
 62
   251
100
AcDbLine
 10
5.098414535793
 20
3.525959753527
 30
0.0
 11
405.098414535793
 21
3.525959753527
 31
0.0
  0
LINE
  5
2A4B
330
2A32
100
AcDbEntity
  8
図枠太線
 48
10.0
100
AcDbLine
 10
5.098414535793
 20
3.525959753527
 30
0.0
 11
5.098414535793
 21
43.525959753527
 31
0.0
  0
LINE
  5
2A4C
330
2A32
100
AcDbEntity
  8
図枠太線
  6
CONTINUOUS
 62
   251
100
AcDbLine
 10
105.098414535793
 20
3.525959753527
 30
0.0
 11
105.098414535793
 21
43.525959753527
 31
0.0
  0
LINE
  5
2A4D
330
2A32
100
AcDbEntity
  8
図枠細線
  6
CONTINUOUS
 62
   252
100
AcDbLine
 10
138.398414535793
 20
3.525959753527
 30
0.0
 11
138.398414535793
 21
18.525957753527
 31
0.0
  0
LINE
  5
2A4E
330
2A32
100
AcDbEntity
  8
図枠細線
  6
CONTINUOUS
 62
   252
100
AcDbLine
 10
171.698414535793
 20
3.525959753527
 30
0.0
 11
171.698414535793
 21
18.525957753527
 31
0.0
  0
LINE
  5
2A4F
330
2A32
100
AcDbEntity
  8
図枠太線
  6
CONTINUOUS
 62
   251
100
AcDbLine
 10
205.098414535793
 20
3.525959753527
 30
0.0
 11
205.098414535793
 21
43.525959753527
 31
0.0
  0
LINE
  5
2A50
330
2A32
100
AcDbEntity
  8
図枠太線
 48
10.0
100
AcDbLine
 10
405.098414535793
 20
43.525959753527
 30
0.0
 11
405.098414535793
 21
3.525959753527
 31
0.0
  0
TEXT
  5
2A51
330
2A32
100
AcDbEntity
  8
図枠細線
  6
CONTINUOUS
 62
   252
100
AcDbText
 10
208.519754474572
 20
6.482358407285
 30
0.0
 40
3.5
  1
ＴＯＷＡ　ＳＥＩＤＥＮ　ＩＮＤＵＳＴＲＩＡＬ　ＣＯ．，ＬＴＤ．
 41
0.746656297509
  7
EXCADSTD
 72
     5
 11
303.295327171727
 21
6.482358407285
 31
0.0
100
AcDbText
  0
LINE
  5
2A52
330
2A32
100
AcDbEntity
  8
図枠太線
  6
CONTINUOUS
 62
   251
100
AcDbLine
 10
305.098414535793
 20
3.525959753527
 30
0.0
 11
305.098414535793
 21
43.525959753527
 31
0.0
  0
ENDBLK
  5
2A53
330
2A32
100
AcDbEntity
  8
0
100
AcDbBlockEnd
  0
BLOCK
  5
2A6D
330
2A6C
100
AcDbEntity
  8
0
100
AcDbBlockBegin
  2
A3縦用_タイトル
 70
     0
 10
0.0
 20
0.0
 30
0.0
  3
A3縦用_タイトル
  1

  0
MTEXT
  5
2A6E
330
2A6C
100
AcDbEntity
  8
図枠細線
100
AcDbMText
 10
5.040804501593
 20
31.626098649005
 30
0.0
 40
2.5
 41
49.938282706292
 71
     1
 72
     5
  1
{\Fmonotxt.shx,bigfont.shx|c128;図暦　CHANGE　NOTICE}
  0
LINE
  5
2A6F
330
2A6C
100
AcDbEntity
  8
図枠太線
  6
CONTINUOUS
 62
   251
100
AcDbLine
 10
283.577871882961
 20
2.820844689254
 30
0.0
 11
283.577871882961
 21
32.820842689254
 31
0.0
  0
MTEXT
  5
2A70
330
2A6C
100
AcDbEntity
  8
図枠細線
 48
10.0
100
AcDbMText
 10
214.912458947454
 20
31.621488632308
 30
0.0
 40
2.5
 41
28.002809618823
 71
     1
 72
     5
  1
{\Fmonotxt.shx,bigfont.shx|c128;名称　TITLE}
  0
MTEXT
  5
2A71
330
2A6C
100
AcDbEntity
  8
図枠細線
 48
10.0
100
AcDbMText
 10
214.740030458938
 20
16.310225796722
 30
0.0
 40
2.5
 41
24.385612216707
 71
     1
 72
     5
  1
{\Fmonotxt.shx,bigfont.shx|c128;図面番号\PDRG.　No.}
  0
LINE
  5
2A72
330
2A6C
100
AcDbEntity
  8
図枠太線
  6
CONTINUOUS
 62
   251
100
AcDbLine
 10
213.577871882961
 20
2.820844689254
 30
0.0
 11
213.577871882961
 21
32.820842689254
 31
0.0
  0
LINE
  5
2A73
330
2A6C
100
AcDbEntity
  8
図枠太線
  6
CONTINUOUS
 62
   251
100
AcDbLine
 10
143.577871882961
 20
2.820844689254
 30
0.0
 11
143.577871882961
 21
32.820842689254
 31
0.0
  0
TEXT
  5
2A74
330
2A6C
100
AcDbEntity
  8
図枠細線
  6
CONTINUOUS
 62
   252
100
AcDbText
 10
145.716454488093
 20
4.468335689254
 30
0.0
 40
3.5
  1
ＴＯＷＡ　ＳＥＩＤＥＮ　ＩＮＤＵＳＴＲＩＡＬ　ＣＯ．，ＬＴＤ．
 41
0.528937826907
  7
EXCADSTD
 72
     5
 11
212.856295983498
 21
4.468335689254
 31
0.0
100
AcDbText
  0
TEXT
  5
2A75
330
2A6C
100
AcDbEntity
  8
図枠ロゴマーク
  6
CONTINUOUS
 62
   253
100
AcDbText
 10
145.950637593507
 20
9.413236689254
 30
0.0
 40
7.0
  1
東和制電工業株式会社
 41
0.80361088462
  7
EXCADSTD
 72
     5
 11
211.953878250259
 21
9.413236689254
 31
0.0
100
AcDbText
  0
LINE
  5
2A76
330
2A6C
100
AcDbEntity
  8
図枠細線
  6
CONTINUOUS
 62
   252
100
AcDbLine
 10
143.577871882961
 20
25.320842689254
 30
0.0
 11
213.577871882961
 21
25.320842689254
 31
0.0
  0
LINE
  5
2A77
330
2A6C
100
AcDbEntity
  8
図枠太線
  6
CONTINUOUS
 62
   251
100
AcDbLine
 10
143.577863882961
 20
17.820842689254
 30
0.0
 11
213.577871882961
 21
17.820842689254
 31
0.0
  0
LINE
  5
2A78
330
2A6C
100
AcDbEntity
  8
図枠細線
  6
CONTINUOUS
 62
   252
100
AcDbLine
 10
213.577871882961
 20
17.820842689254
 30
0.0
 11
283.577871882961
 21
17.820842689254
 31
0.0
  0
LINE
  5
2A79
330
2A6C
100
AcDbEntity
  8
図枠細線
  6
CONTINUOUS
 62
   252
100
AcDbLine
 10
120.577871882961
 20
32.820842689254
 30
0.0
 11
120.577871882961
 21
17.820842689254
 31
0.0
  0
MTEXT
  5
2A7A
330
2A6C
100
AcDbEntity
  8
図枠細線
 48
10.0
100
AcDbMText
 10
121.100885670352
 20
16.33785922638
 30
0.0
 40
2.0
 41
17.705978285068
 71
     1
 72
     5
  1
{\Fmonotxt.shx,bigfont.shx|c128;日付 DATE}
  0
MTEXT
  5
2A7B
330
2A6C
100
AcDbEntity
  8
図枠細線
 48
10.0
100
AcDbMText
 10
121.254842273491
 20
31.208993514037
 30
0.0
 40
2.0
 41
18.363799568758
 71
     1
 72
     5
  1
{\Fmonotxt.shx,bigfont.shx|c128;製図　DRAWN}
  0
LINE
  5
2A7C
330
2A6C
100
AcDbEntity
  8
図枠細線
  6
CONTINUOUS
 62
   252
100
AcDbLine
 10
97.577871882961
 20
32.820842689254
 30
0.0
 11
97.577871882961
 21
17.820842689254
 31
0.0
  0
MTEXT
  5
2A7D
330
2A6C
100
AcDbEntity
  8
図枠細線
 48
10.0
100
AcDbMText
 10
98.239734796872
 20
16.467764839281
 30
0.0
 40
2.0
 41
17.757791689903
 71
     1
 72
     5
  1
{\Fmonotxt.shx,bigfont.shx|c128;尺度　SCALE}
  0
MTEXT
  5
2A7E
330
2A6C
100
AcDbEntity
  8
図枠細線
 48
10.0
100
AcDbMText
 10
97.864744625154
 20
31.298433377664
 30
0.0
 40
2.0
 41
23.162655920976
 71
     1
 72
     5
  1
{\Fmonotxt.shx,bigfont.shx|c128;検図  CHECKED}
  0
LINE
  5
2A7F
330
2A6C
100
AcDbEntity
  8
図枠細線
  6
CONTINUOUS
 62
   252
100
AcDbLine
 10
97.577871882961
 20
2.820843367826
 30
0.0
 11
97.577871882961
 21
17.820841367826
 31
0.0
  0
LINE
  5
2A80
330
2A6C
100
AcDbEntity
  8
図枠細線
  6
CONTINUOUS
 62
   252
100
AcDbLine
 10
120.577871882961
 20
2.820844010683
 30
0.0
 11
120.577871882961
 21
17.820842010683
 31
0.0
  0
MTEXT
  5
2A81
330
2A6C
100
AcDbEntity
  8
図枠細線
 48
10.0
100
AcDbMText
 10
81.402399084102
 20
16.316484117426
 30
0.0
 40
2.0
 41
12.920322819369
 71
     1
 72
     5
  1
{\Fmonotxt.shx,bigfont.shx|c128;第三角法}
  0
MTEXT
  5
2A82
330
2A6C
100
AcDbEntity
  8
図枠細線
 48
10.0
100
AcDbMText
 10
75.736576535096
 20
11.080410931319
 30
0.0
 40
2.0
 41
21.072870671471
 71
     1
 72
     5
  1
{\Fmonotxt.shx,bigfont.shx|c128;THIRD ANGLE\PPROJECTION}
  0
LINE
  5
2A83
330
2A6C
100
AcDbEntity
  8
図枠太線
  6
CONTINUOUS
 62
   251
100
AcDbLine
 10
74.577871882961
 20
2.820844689254
 30
0.0
 11
74.577871882961
 21
32.820842689254
 31
0.0
  0
MTEXT
  5
2A84
330
2A6C
100
AcDbEntity
  8
図枠細線
 48
10.0
100
AcDbMText
 10
75.060214781573
 20
31.298434778555
 30
0.0
 40
2.0
 41
22.240928805967
 71
     1
 72
     5
  1
{\Fmonotxt.shx,bigfont.shx|c128;承認 APPROVED}
  0
LINE
  5
2A85
330
2A6C
100
AcDbEntity
  8
図枠細線
  6
CONTINUOUS
100
AcDbLine
 10
3.577871882961
 20
17.820844689254
 30
0.0
 11
74.577871882961
 21
17.820844689254
 31
0.0
  0
LINE
  5
2A86
330
2A6C
100
AcDbEntity
  8
図枠細線
  6
CONTINUOUS
 62
   252
100
AcDbLine
 10
3.577871882961
 20
27.820842689254
 30
0.0
 11
74.577871882961
 21
27.820842689254
 31
0.0
  0
LINE
  5
2A87
330
2A6C
100
AcDbEntity
  8
図枠細線
  6
CONTINUOUS
 62
   252
100
AcDbLine
 10
3.577871882961
 20
22.820842689254
 30
0.0
 11
74.577871882961
 21
22.820842689254
 31
0.0
  0
LINE
  5
2A88
330
2A6C
100
AcDbEntity
  8
図枠細線
  6
CONTINUOUS
 62
   252
100
AcDbLine
 10
3.577871882961
 20
12.820842689254
 30
0.0
 11
74.577871882961
 21
12.820842689254
 31
0.0
  0
LINE
  5
2A89
330
2A6C
100
AcDbEntity
  8
図枠細線
  6
CONTINUOUS
 62
   252
100
AcDbLine
 10
3.577871882961
 20
7.820844689254
 30
0.0
 11
74.577871882961
 21
7.820844689254
 31
0.0
  0
LINE
  5
2A8A
330
2A6C
100
AcDbEntity
  8
図枠細線
  6
CONTINUOUS
100
AcDbLine
 10
74.577871882961
 20
17.820843689254
 30
0.0
 11
143.577871882961
 21
17.820841224969
 31
0.0
  0
LINE
  5
2A8B
330
2A6C
100
AcDbEntity
  8
図枠太線
  6
CONTINUOUS
 62
   251
100
AcDbLine
 10
3.577871882961
 20
2.820844689254
 30
0.0
 11
283.577871882961
 21
2.820844689254
 31
0.0
  0
LINE
  5
2A8C
330
2A6C
100
AcDbEntity
  8
図枠太線
  6
CONTINUOUS
 62
   251
100
AcDbLine
 10
3.577871882961
 20
2.820844689254
 30
0.0
 11
3.577871882961
 21
32.820842689254
 31
0.0
  0
ENDBLK
  5
2A8D
330
2A6C
100
AcDbEntity
  8
0
100
AcDbBlockEnd
  0
BLOCK
  5
2AF8
330
2AF4
100
AcDbEntity
  8
0
 48
10.0
100
AcDbBlockBegin
  2
_OPEN30
 70
     0
 10
0.0
 20
0.0
 30
0.0
  3
_OPEN30
  1

  0
LINE
  5
2AF5
330
2AF4
100
AcDbEntity
  8
0
  6
BYBLOCK
 62
     0
100
AcDbLine
 10
-1.0
 20
0.26794919
 30
0.0
 11
0.0
 21
0.0
 31
0.0
  0
LINE
  5
2AF6
330
2AF4
100
AcDbEntity
  8
0
  6
BYBLOCK
 62
     0
100
AcDbLine
 10
0.0
 20
0.0
 30
0.0
 11
-1.0
 21
-0.26794919
 31
0.0
  0
LINE
  5
2AF7
330
2AF4
100
AcDbEntity
  8
0
  6
BYBLOCK
 62
     0
100
AcDbLine
 10
0.0
 20
0.0
 30
0.0
 11
-1.0
 21
0.0
 31
0.0
  0
ENDBLK
  5
2AF9
330
2AF4
100
AcDbEntity
  8
0
 48
10.0
100
AcDbBlockEnd
  0
BLOCK
  5
308D
330
3083
100
AcDbEntity
  8
0
 48
10.0
100
AcDbBlockBegin
  2
*D6
 70
     1
 10
0.0
 20
0.0
 30
0.0
  3
*D6
  1

  0
LINE
  5
3F8D
330
3083
100
AcDbEntity
  8
寸法線
 62
     0
 48
10.0
100
AcDbLine
 10
10.258955624965
 20
502.34765081696
 30
0.0
 11
-7.66914893421
 21
502.34765081696
 31
0.0
  0
LINE
  5
3F8E
330
3083
100
AcDbEntity
  8
寸法線
 62
     0
 48
10.0
100
AcDbLine
 10
10.258955624965
 20
482.34765081696
 30
0.0
 11
-7.66914893421
 21
482.34765081696
 31
0.0
  0
LINE
  5
3F8F
330
3083
100
AcDbEntity
  8
寸法線
 62
     0
 48
10.0
100
AcDbLine
 10
-6.41914893421
 20
496.34765081696
 30
0.0
 11
-6.41914893421
 21
488.34765081696
 31
0.0
  0
INSERT
  5
3F90
330
3083
100
AcDbEntity
  8
寸法線
 62
     0
 48
10.0
100
AcDbBlockReference
  2
_OPEN30
 10
-6.41914893421
 20
502.34765081696
 30
0.0
 41
6.0
 42
6.0
 43
6.0
 50
90.0
  0
INSERT
  5
3F91
330
3083
100
AcDbEntity
  8
寸法線
 62
     0
 48
10.0
100
AcDbBlockReference
  2
_OPEN30
 10
-6.41914893421
 20
482.34765081696
 30
0.0
 41
6.0
 42
6.0
 43
6.0
 50
270.0
  0
MTEXT
  5
3F92
330
3083
100
AcDbEntity
  8
寸法線
 62
     0
 48
10.0
100
AcDbMText
 10
-11.044936335785
 20
492.34765081696
 30
0.0
 40
8.0
 41
0.0
 71
     5
 72
     1
  1
\A1;φ20
 11
6.123031769111886E-17
 21
1.0
 31
0.0
  0
POINT
  5
3F93
330
3083
100
AcDbEntity
  8
DEFPOINTS
 62
     0
 48
10.0
100
AcDbPoint
 10
10.883955624965
 20
502.34765081696
 30
0.0
  0
POINT
  5
3F94
330
3083
100
AcDbEntity
  8
DEFPOINTS
 62
     0
 48
10.0
100
AcDbPoint
 10
10.883955624965
 20
482.34765081696
 30
0.0
  0
POINT
  5
3F95
330
3083
100
AcDbEntity
  8
DEFPOINTS
 62
     0
 48
10.0
100
AcDbPoint
 10
-6.41914893421
 20
482.34765081696
 30
0.0
  0
ENDBLK
  5
308E
330
3083
100
AcDbEntity
  8
0
 48
10.0
100
AcDbBlockEnd
  0
BLOCK
  5
30A4
330
309A
100
AcDbEntity
  8
0
 48
10.0
100
AcDbBlockBegin
  2
*D7
 70
     1
 10
0.0
 20
0.0
 30
0.0
  3
*D7
  1

  0
LINE
  5
3FFB
330
309A
100
AcDbEntity
  8
寸法線
 62
     0
 48
10.0
100
AcDbLine
 10
10.883955624965
 20
481.72265081696
 30
0.0
 11
10.883955624965
 21
443.744451318452
 31
0.0
  0
LINE
  5
3FFC
330
309A
100
AcDbEntity
  8
寸法線
 62
     0
 48
10.0
100
AcDbLine
 10
143.883955624965
 20
471.241138211918
 30
0.0
 11
143.883955624965
 21
443.744451318452
 31
0.0
  0
LINE
  5
3FFD
330
309A
100
AcDbEntity
  8
寸法線
 62
     0
 48
10.0
100
AcDbLine
 10
16.883955624965
 20
444.994451318452
 30
0.0
 11
137.883955624965
 21
444.994451318452
 31
0.0
  0
INSERT
  5
3FFE
330
309A
100
AcDbEntity
  8
寸法線
 62
     0
 48
10.0
100
AcDbBlockReference
  2
_OPEN30
 10
10.883955624965
 20
444.994451318452
 30
0.0
 41
6.0
 42
6.0
 43
6.0
 50
180.0
  0
INSERT
  5
3FFF
330
309A
100
AcDbEntity
  8
寸法線
 62
     0
 48
10.0
100
AcDbBlockReference
  2
_OPEN30
 10
143.883955624965
 20
444.994451318452
 30
0.0
 41
6.0
 42
6.0
 43
6.0
  0
MTEXT
  5
4000
330
309A
100
AcDbEntity
  8
寸法線
 62
     0
 48
10.0
100
AcDbMText
 10
77.383955624965
 20
449.619451318452
 30
0.0
 40
8.0
 41
0.0
 71
     5
 72
     1
  1
\A1;133
  0
POINT
  5
4001
330
309A
100
AcDbEntity
  8
DEFPOINTS
 62
     0
 48
10.0
100
AcDbPoint
 10
10.883955624965
 20
482.34765081696
 30
0.0
  0
POINT
  5
4002
330
309A
100
AcDbEntity
  8
DEFPOINTS
 62
     0
 48
10.0
100
AcDbPoint
 10
143.883955624965
 20
471.866138211918
 30
0.0
  0
POINT
  5
4003
330
309A
100
AcDbEntity
  8
DEFPOINTS
 62
     0
 48
10.0
100
AcDbPoint
 10
143.883955624965
 20
444.994451318452
 30
0.0
  0
ENDBLK
  5
30A5
330
309A
100
AcDbEntity
  8
0
 48
10.0
100
AcDbBlockEnd
  0
BLOCK
  5
34C0
330
3494
100
AcDbEntity
  8
0
 48
10.0
100
AcDbBlockBegin
  2
A$C5338004D
 70
     0
 10
0.0
 20
0.0
 30
0.0
  3
A$C5338004D
  1

  0
LINE
  5
3495
330
3494
100
AcDbEntity
  8
1
  6
DASHED
 62
     7
100
AcDbLine
 10
290.68260249956
 20
-0.000000034179
 30
0.0
 11
290.68260249956
 21
50.999999965821
 31
0.0
  0
LINE
  5
3496
330
3494
100
AcDbEntity
  8
1
  6
CONTINUOUS
 62
     3
100
AcDbLine
 10
361.162525920228
 20
49.959663831367
 30
0.0
 11
361.162525920227
 21
2.040336100275
 31
0.0
  0
LINE
  5
3497
330
3494
100
AcDbEntity
  8
1
 62
     3
100
AcDbLine
 10
359.233017791272
 20
3.985186870746
 30
0.0
 11
361.162525920227
 21
2.040336100275
 31
0.0
  0
LINE
  5
3498
330
3494
100
AcDbEntity
  8
1
 62
     3
100
AcDbLine
 10
284.682602499561
 20
10.799999965821
 30
0.0
 11
240.444435924806
 21
10.799999965821
 31
0.0
  0
LINE
  5
3499
330
3494
100
AcDbEntity
  8
1
 62
     3
100
AcDbLine
 10
352.01785719409
 20
4.152404332875
 30
0.0
 11
345.286028928414
 21
10.799999965821
 31
0.0
  0
LINE
  5
349A
330
3494
100
AcDbEntity
  8
1
 62
     3
100
AcDbLine
 10
345.4249331518
 20
40.799999965821
 30
0.0
 11
345.46850184005
 21
10.799999965821
 31
0.0
  0
LINE
  5
349B
330
3494
100
AcDbEntity
  8
1
 62
     3
100
AcDbLine
 10
234.344435924806
 20
5.035294083468
 30
0.0
 11
226.644435924806
 21
5.035294083468
 31
0.0
  0
LINE
  5
349C
330
3494
100
AcDbEntity
  8
1
 62
     3
100
AcDbLine
 10
221.744435924806
 20
5.035294083468
 30
0.0
 11
162.977209034049
 21
5.035294083468
 31
0.0
  0
ARC
  5
349D
330
3494
100
AcDbEntity
  8
1
 62
     3
100
AcDbCircle
 10
224.194435924806
 20
4.234647024644
 30
0.0
 40
2.577505715377329
100
AcDbArc
 50
18.097118485446
 51
161.902881514554
  0
LINE
  5
349E
330
3494
100
AcDbEntity
  8
1
 62
     3
100
AcDbLine
 10
234.344435924806
 20
5.035294083468
 30
0.0
 11
240.444435924806
 21
10.799999965821
 31
0.0
  0
LINE
  5
349F
330
3494
100
AcDbEntity
  8
1
 62
     3
100
AcDbLine
 10
345.46850184005
 20
10.799999965821
 30
0.0
 11
290.682602499561
 21
10.799999965821
 31
0.0
  0
LINE
  5
34A0
330
3494
100
AcDbEntity
  8
1
 62
     3
100
AcDbLine
 10
240.444435924806
 20
10.799999965821
 30
0.0
 11
240.444435924806
 21
40.799999965821
 31
0.0
  0
LINE
  5
34A1
330
3494
100
AcDbEntity
  8
1
 62
     3
100
AcDbLine
 10
234.344435924806
 20
5.035294083468
 30
0.0
 11
234.344435924806
 21
46.964705848174
 31
0.0
  0
LINE
  5
34A2
330
3494
100
AcDbEntity
  8
1
 62
     3
100
AcDbLine
 10
226.644435924806
 20
46.964705848174
 30
0.0
 11
226.644435924806
 21
5.035294083468
 31
0.0
  0
LINE
  5
34A3
330
3494
100
AcDbEntity
  8
1
 62
     3
100
AcDbLine
 10
221.744435924806
 20
5.035294083468
 30
0.0
 11
221.744435924806
 21
46.964705848174
 31
0.0
  0
LINE
  5
34A4
330
3494
100
AcDbEntity
  8
1
  6
DASHED
 62
     7
100
AcDbLine
 10
284.68260249956
 20
-0.000000034179
 30
0.0
 11
284.68260249956
 21
50.999999965821
 31
0.0
  0
LINE
  5
34A5
330
3494
100
AcDbEntity
  8
1
 62
     3
100
AcDbLine
 10
359.233017791272
 20
3.985186870746
 30
0.0
 11
359.233017791272
 21
48.014813060896
 31
0.0
  0
LINE
  5
34A6
330
3494
100
AcDbEntity
  8
1
100
AcDbLine
 10
359.673847689512
 20
3.65324466901
 30
0.0
 11
377.278185353633
 21
3.65324466901
 31
0.0
  0
LINE
  5
34A7
330
3494
100
AcDbEntity
  8
1
 62
     3
100
AcDbLine
 10
377.144435924806
 20
2.040336100275
 30
0.0
 11
361.162525920227
 21
2.040336100275
 31
0.0
  0
LINE
  5
34A8
330
3494
100
AcDbEntity
  8
1
 62
     3
100
AcDbLine
 10
352.01785719409
 20
4.152404332875
 30
0.0
 11
352.01785719409
 21
47.963025175905
 31
0.0
  0
LINE
  5
34A9
330
3494
100
AcDbEntity
  8
1
 62
     3
100
AcDbLine
 10
359.232796003305
 20
4.152404332875
 30
0.0
 11
352.01785719409
 21
4.152404332875
 31
0.0
  0
LINE
  5
34AA
330
3494
100
AcDbEntity
  8
1
 62
     3
100
AcDbLine
 10
-0.000000543892
 20
16.01680668851
 30
0.0
 11
-0.000000543892
 21
35.983193243132
 31
0.0
  0
LINE
  5
34AB
330
3494
100
AcDbEntity
  8
1
 62
     3
100
AcDbLine
 10
162.477209034049
 20
46.464705848174
 30
0.0
 11
162.477209034049
 21
5.535294083468
 31
0.0
  0
LINE
  5
34AC
330
3494
100
AcDbEntity
  8
1
 62
     3
100
AcDbLine
 10
162.477209034049
 20
16.01680668851
 30
0.0
 11
-0.000000543892
 21
16.01680668851
 31
0.0
  0
ARC
  5
34AD
330
3494
100
AcDbEntity
  8
1
 62
     3
100
AcDbCircle
 10
162.97720903405
 20
5.535294083468
 30
0.0
 40
0.5
100
AcDbArc
 50
180.0
 51
270.0
  0
LINE
  5
34AE
330
3494
100
AcDbEntity
  8
1
 62
     3
100
AcDbLine
 10
377.144435924806
 20
49.959663831367
 30
0.0
 11
361.162525920228
 21
49.959663831367
 31
0.0
  0
LINE
  5
34AF
330
3494
100
AcDbEntity
  8
1
 62
     3
100
AcDbLine
 10
359.233017791272
 20
48.014813060896
 30
0.0
 11
361.162525920228
 21
49.959663831367
 31
0.0
  0
LINE
  5
34B0
330
3494
100
AcDbEntity
  8
1
 62
     3
100
AcDbLine
 10
290.682602499561
 20
40.799999965821
 30
0.0
 11
345.4249331518
 21
40.799999965821
 31
0.0
  0
LINE
  5
34B1
330
3494
100
AcDbEntity
  8
1
 62
     3
100
AcDbLine
 10
352.01785719409
 20
47.963025175905
 30
0.0
 11
345.4249331518
 21
40.799999965821
 31
0.0
  0
LINE
  5
34B2
330
3494
100
AcDbEntity
  8
1
 62
     3
100
AcDbLine
 10
359.233017791272
 20
47.963025175905
 30
0.0
 11
352.01785719409
 21
47.963025175905
 31
0.0
  0
LINE
  5
34B3
330
3494
100
AcDbEntity
  8
1
100
AcDbLine
 10
359.673847689512
 20
48.462184839771
 30
0.0
 11
377.278185353633
 21
48.462184839771
 31
0.0
  0
LINE
  5
34B4
330
3494
100
AcDbEntity
  8
1
 62
     3
100
AcDbLine
 10
234.344435924806
 20
46.964705848174
 30
0.0
 11
226.644435924806
 21
46.964705848174
 31
0.0
  0
LINE
  5
34B5
330
3494
100
AcDbEntity
  8
1
 62
     3
100
AcDbLine
 10
221.744435924806
 20
46.964705848174
 30
0.0
 11
162.977209034049
 21
46.964705848174
 31
0.0
  0
ARC
  5
34B6
330
3494
100
AcDbEntity
  8
1
 62
     3
100
AcDbCircle
 10
224.194435924806
 20
47.254363776563
 30
0.0
 40
2.467063378893744
100
AcDbArc
 50
186.742650169572
 51
353.257349830428
  0
LINE
  5
34B7
330
3494
100
AcDbEntity
  8
1
 62
     3
100
AcDbLine
 10
234.344435924806
 20
46.964705848174
 30
0.0
 11
240.444435924806
 21
40.799999965821
 31
0.0
  0
LINE
  5
34B8
330
3494
100
AcDbEntity
  8
1
 62
     3
100
AcDbLine
 10
240.444435924806
 20
40.799999965821
 30
0.0
 11
284.682602499561
 21
40.799999965821
 31
0.0
  0
LINE
  5
34B9
330
3494
100
AcDbEntity
  8
1
 62
     3
100
AcDbLine
 10
162.477209034049
 20
35.983193243132
 30
0.0
 11
-0.000000543892
 21
35.983193243132
 31
0.0
  0
LINE
  5
34BA
330
3494
100
AcDbEntity
  8
1
 62
     3
100
AcDbLine
 10
377.144435924806
 20
2.040336100275
 30
0.0
 11
377.144435924806
 21
49.959663831367
 31
0.0
  0
ARC
  5
34BB
330
3494
100
AcDbEntity
  8
1
 62
     3
100
AcDbCircle
 10
378.142755252537
 20
48.961344503636
 30
0.0
 40
0.9983193277310926
100
AcDbArc
 50
180.0
 51
270.0
  0
LINE
  5
34BC
330
3494
100
AcDbEntity
  8
1
 62
     3
100
AcDbLine
 10
379.141074580268
 20
47.963025175905
 30
0.0
 11
378.142755252537
 21
47.963025175905
 31
0.0
  0
ARC
  5
34BD
330
3494
100
AcDbEntity
  8
1
 62
     3
100
AcDbCircle
 10
378.142755252537
 20
3.038655428006
 30
0.0
 40
0.9983193277310926
100
AcDbArc
 50
90.0
 51
180.0
  0
LINE
  5
34BE
330
3494
100
AcDbEntity
  8
1
 62
     3
100
AcDbLine
 10
379.141074580268
 20
4.036974755737
 30
0.0
 11
378.142755252537
 21
4.036974755737
 31
0.0
  0
ARC
  5
34BF
330
3494
100
AcDbEntity
  8
1
 62
     3
100
AcDbCircle
 10
379.141074580268
 20
3.038655428006
 30
0.0
 40
0.9983193277310926
100
AcDbArc
 50
0.0
 51
90.0
  0
ENDBLK
  5
34C1
330
3494
100
AcDbEntity
  8
0
 48
10.0
100
AcDbBlockEnd
  0
BLOCK
  5
3596
330
358C
100
AcDbEntity
  8
0
 48
10.0
100
AcDbBlockBegin
  2
*D10
 70
     1
 10
0.0
 20
0.0
 30
0.0
  3
*D10
  1

  0
LINE
  5
368A
330
358C
100
AcDbEntity
  8
寸法線
 62
     0
 48
10.0
100
AcDbLine
 10
162.425039148589
 20
471.366138211918
 30
0.0
 11
163.050039148589
 21
471.366138211918
 31
0.0
  0
LINE
  5
368B
330
358C
100
AcDbEntity
  8
寸法線
 62
     0
 48
10.0
100
AcDbLine
 10
162.425039148589
 20
513.295549976624
 30
0.0
 11
163.050039148589
 21
513.295549976624
 31
0.0
  0
LINE
  5
368C
330
358C
100
AcDbEntity
  8
寸法線
 62
     0
 48
10.0
100
AcDbLine
 10
161.800039148589
 20
477.366138211918
 30
0.0
 11
161.800039148589
 21
507.295549976624
 31
0.0
  0
LINE
  5
368D
330
358C
100
AcDbEntity
  8
寸法線
 62
     0
 48
10.0
100
AcDbLine
 10
161.800039148589
 20
513.295549976624
 30
0.0
 11
161.800039148589
 21
540.145549976624
 31
0.0
  0
INSERT
  5
368E
330
358C
100
AcDbEntity
  8
寸法線
 62
     0
 48
10.0
100
AcDbBlockReference
  2
_OPEN30
 10
161.800039148589
 20
471.366138211918
 30
0.0
 41
6.0
 42
6.0
 43
6.0
 50
270.0
  0
INSERT
  5
368F
330
358C
100
AcDbEntity
  8
寸法線
 62
     0
 48
10.0
100
AcDbBlockReference
  2
_OPEN30
 10
161.800039148589
 20
513.295549976624
 30
0.0
 41
6.0
 42
6.0
 43
6.0
 50
90.0
  0
MTEXT
  5
3690
330
358C
100
AcDbEntity
  8
寸法線
 62
     0
 48
10.0
100
AcDbMText
 10
157.175039148589
 20
529.720549976624
 30
0.0
 40
8.0
 41
0.0
 71
     5
 72
     1
  1
\A1;φ44
 11
6.123031769111886E-17
 21
1.0
 31
0.0
  0
POINT
  5
3691
330
358C
100
AcDbEntity
  8
DEFPOINTS
 62
     0
 48
10.0
100
AcDbPoint
 10
161.800039148589
 20
471.366138211918
 30
0.0
  0
POINT
  5
3692
330
358C
100
AcDbEntity
  8
DEFPOINTS
 62
     0
 48
10.0
100
AcDbPoint
 10
161.800039148589
 20
513.295549976624
 30
0.0
  0
POINT
  5
3693
330
358C
100
AcDbEntity
  8
DEFPOINTS
 62
     0
 48
10.0
100
AcDbPoint
 10
161.800039148589
 20
513.295549976624
 30
0.0
  0
ENDBLK
  5
3597
330
358C
100
AcDbEntity
  8
0
 48
10.0
100
AcDbBlockEnd
  0
BLOCK
  5
36A9
330
369F
100
AcDbEntity
  8
0
 48
10.0
100
AcDbBlockBegin
  2
*D12
 70
     1
 10
0.0
 20
0.0
 30
0.0
  3
*D12
  1

  0
LINE
  5
4016
330
369F
100
AcDbEntity
  8
寸法線
 62
     0
 48
10.0
100
AcDbLine
 10
10.883955624965
 20
444.369451318452
 30
0.0
 11
10.883955624965
 21
373.580844094271
 31
0.0
  0
LINE
  5
4017
330
369F
100
AcDbEntity
  8
寸法線
 62
     0
 48
10.0
100
AcDbLine
 10
353.16483518331
 20
374.205844094271
 30
0.0
 11
353.16483518331
 21
373.580844094271
 31
0.0
  0
LINE
  5
4018
330
369F
100
AcDbEntity
  8
寸法線
 62
     0
 48
10.0
100
AcDbLine
 10
16.883955624965
 20
374.830844094271
 30
0.0
 11
347.16483518331
 21
374.830844094271
 31
0.0
  0
INSERT
  5
4019
330
369F
100
AcDbEntity
  8
寸法線
 62
     0
100
AcDbBlockReference
  2
_OPEN30
 10
10.883955624965
 20
374.830844094271
 30
0.0
 41
6.0
 42
6.0
 43
6.0
 50
180.0
  0
INSERT
  5
401A
330
369F
100
AcDbEntity
  8
寸法線
 62
     0
100
AcDbBlockReference
  2
_OPEN30
 10
353.16483518331
 20
374.830844094271
 30
0.0
 41
6.0
 42
6.0
 43
6.0
  0
POINT
  5
401B
330
369F
100
AcDbEntity
  8
DEFPOINTS
 62
     0
100
AcDbPoint
 10
10.883955624965
 20
444.994451318452
 30
0.0
  0
POINT
  5
401C
330
369F
100
AcDbEntity
  8
DEFPOINTS
 62
     0
100
AcDbPoint
 10
353.16483518331
 20
374.830844094271
 30
0.0
  0
POINT
  5
401D
330
369F
100
AcDbEntity
  8
DEFPOINTS
 62
     0
100
AcDbPoint
 10
353.16483518331
 20
374.830844094271
 30
0.0
  0
ENDBLK
  5
36AA
330
369F
100
AcDbEntity
  8
0
 48
10.0
100
AcDbBlockEnd
  0
BLOCK
  5
3856
330
380B
100
AcDbEntity
  8
0
 48
10.0
100
AcDbBlockBegin
  2
A$C6CF77348
 70
     0
 10
0.0
 20
0.0
 30
0.0
  3
A$C6CF77348
  1

  0
TEXT
  5
380C
330
380B
100
AcDbEntity
  8
寸法線
100
AcDbText
 10
46.814933987079
 20
-262.123153326433
 30
0.0
 40
7.0
  1
(ＮＯ)
 41
1.004408876742
  7
EXCADSTD
 72
     5
 11
73.06348596593
 21
-262.123153326433
 31
0.0
100
AcDbText
  0
TEXT
  5
380D
330
380B
100
AcDbEntity
  8
寸法線
100
AcDbText
 10
-4.843109179304
 20
-262.323153326433
 30
0.0
 40
7.0
  1
(ＮＣ)
 41
0.941824109314
  7
EXCADSTD
 72
     5
 11
19.769894210757
 21
-262.323153326433
 31
0.0
100
AcDbText
  0
TEXT
  5
380E
330
380B
100
AcDbEntity
  8
寸法線
100
AcDbText
 10
-79.743207764812
 20
-278.787091814671
 30
0.0
 40
7.0
  1
ＰＥ：グランド
 41
0.875
  7
EXCADSTD
 72
     5
 11
-30.743207764812
 21
-278.787091814671
 31
0.0
100
AcDbText
  0
TEXT
  5
380F
330
380B
100
AcDbEntity
  8
寸法線
100
AcDbText
 10
-79.743207764812
 20
-287.787091814671
 30
0.0
 40
7.0
  1
 Ｎ ：電源
 41
0.874347749435
  7
EXCADSTD
 72
     5
 11
-44.652718087475
 21
-287.787091814671
 31
0.0
100
AcDbText
  0
TEXT
  5
3810
330
380B
100
AcDbEntity
  8
寸法線
100
AcDbText
 10
-79.743207764812
 20
-296.787091814671
 30
0.0
 40
7.0
  1
Ｌ１：電源
 41
0.877216798635
  7
EXCADSTD
 72
     5
 11
-44.537573579604
 21
-296.787091814671
 31
0.0
100
AcDbText
  0
TEXT
  5
3811
330
380B
100
AcDbEntity
  8
寸法線
100
AcDbText
 10
-79.743207764812
 20
-305.787091814671
 30
0.0
 40
7.0
  1
 Ｃ ：コモン
 41
0.873786407767
  7
EXCADSTD
 72
     5
 11
-37.743207764812
 21
-305.787091814671
 31
0.0
100
AcDbText
  0
TEXT
  5
3812
330
380B
100
AcDbEntity
  8
寸法線
100
AcDbText
 10
-79.743207764812
 20
-324.510800534122
 30
0.0
 40
7.0
  1
ＮＣ：クローズ（オープン）
 41
0.875493548803
  7
EXCADSTD
 72
     5
 11
10.957923891221
 21
-324.510800534122
 31
0.0
100
AcDbText
  0
TEXT
  5
3813
330
380B
100
AcDbEntity
  8
寸法線
100
AcDbText
 10
-79.743207764812
 20
-314.921355410973
 30
0.0
 40
7.0
  1
ＮＯ：オープン（クローズ）
 41
0.87427630648
  7
EXCADSTD
 72
     5
 11
10.831817586514
 21
-314.921355410973
 31
0.0
100
AcDbText
  0
LINE
  5
3814
330
380B
100
AcDbEntity
  8
寸法線
100
AcDbLine
 10
-3.594719550215
 20
-205.316854837469
 30
0.0
 11
-3.594719550215
 21
-213.736854837469
 31
0.0
  0
LINE
  5
3815
330
380B
100
AcDbEntity
  8
寸法線
100
AcDbLine
 10
-3.594719550215
 20
-202.916854837469
 30
0.0
 11
-3.594719550215
 21
-198.916854837469
 31
0.0
  0
LINE
  5
3816
330
380B
100
AcDbEntity
  8
寸法線
100
AcDbLine
 10
-1.594719550215
 20
-200.916854837469
 30
0.0
 11
-5.594719550215
 21
-200.916854837469
 31
0.0
  0
LINE
  5
3817
330
380B
100
AcDbEntity
  8
寸法線
100
AcDbLine
 10
0.805280449785
 20
-205.316854837469
 30
0.0
 11
0.805280449785
 21
-196.516854837469
 31
0.0
  0
LINE
  5
3818
330
380B
100
AcDbEntity
  8
寸法線
100
AcDbLine
 10
-7.994719550215
 20
-205.316854837469
 30
0.0
 11
-7.994719550215
 21
-196.516854837469
 31
0.0
  0
CIRCLE
  5
3819
330
380B
100
AcDbEntity
  8
寸法線
100
AcDbCircle
 10
-3.594719550215
 20
-200.916854837469
 30
0.0
 40
4.40000000000004
  0
POINT
  5
381A
330
380B
100
AcDbEntity
  8
寸法線
100
AcDbPoint
 10
-3.594719550215
 20
-200.916854837469
 30
0.0
  0
LINE
  5
381B
330
380B
100
AcDbEntity
  8
寸法線
100
AcDbLine
 10
-7.994719550215
 20
-196.516854837469
 30
0.0
 11
0.805280449785
 21
-196.516854837469
 31
0.0
  0
LINE
  5
381C
330
380B
100
AcDbEntity
  8
寸法線
100
AcDbLine
 10
-4.494719550215
 20
-220.816854837469
 30
0.0
 11
-2.414719550215
 21
-220.816854837469
 31
0.0
  0
LINE
  5
381D
330
380B
100
AcDbEntity
  8
寸法線
100
AcDbLine
 10
-5.714719550215
 20
-219.076854837469
 30
0.0
 11
-1.294719550215
 21
-219.076854837469
 31
0.0
  0
LINE
  5
381E
330
380B
100
AcDbEntity
  8
寸法線
100
AcDbLine
 10
-7.254719550215
 20
-217.276854837469
 30
0.0
 11
0.265280449785
 21
-217.276854837469
 31
0.0
  0
CIRCLE
  5
381F
330
380B
100
AcDbEntity
  8
寸法線
100
AcDbCircle
 10
-3.594719550215
 20
-218.736854837469
 30
0.0
 40
5.0
  0
LINE
  5
3820
330
380B
100
AcDbEntity
  8
寸法線
100
AcDbLine
 10
-3.594719550215
 20
-213.736854837469
 30
0.0
 11
-3.594719550215
 21
-217.276854837469
 31
0.0
  0
POINT
  5
3821
330
380B
100
AcDbEntity
  8
寸法線
100
AcDbPoint
 10
-3.594719550215
 20
-205.316854837469
 30
0.0
  0
LINE
  5
3822
330
380B
100
AcDbEntity
  8
寸法線
100
AcDbLine
 10
48.685280449785
 20
-162.116854837469
 30
0.0
 11
61.805280449785
 21
-162.116854837469
 31
0.0
  0
LINE
  5
3823
330
380B
100
AcDbEntity
  8
寸法線
100
AcDbLine
 10
35.485790005219
 20
-176.923224280397
 30
0.0
 11
49.845346325867
 21
-160.716854837469
 31
0.0
  0
LINE
  5
3824
330
380B
100
AcDbEntity
  8
寸法線
100
AcDbLine
 10
26.714628035926
 20
-162.116854837469
 30
0.0
 11
9.485280449785
 21
-162.116854837469
 31
0.0
  0
CIRCLE
  5
3825
330
380B
100
AcDbEntity
  8
寸法線
100
AcDbCircle
 10
35.645280449785
 20
-178.916854837469
 30
0.0
 40
2.0
  0
LINE
  5
3826
330
380B
100
AcDbEntity
  8
寸法線
100
AcDbLine
 10
9.485280449785
 20
-190.316854837469
 30
0.0
 11
9.485280449785
 21
-162.116854837469
 31
0.0
  0
LINE
  5
3827
330
380B
100
AcDbEntity
  8
寸法線
100
AcDbLine
 10
35.645280449785
 20
-190.316854837469
 30
0.0
 11
35.645280449785
 21
-180.916854837469
 31
0.0
  0
LINE
  5
3828
330
380B
100
AcDbEntity
  8
寸法線
100
AcDbLine
 10
61.805280449785
 20
-190.516854837469
 30
0.0
 11
61.805280449785
 21
-162.116854837469
 31
0.0
  0
LINE
  5
3829
330
380B
100
AcDbEntity
  8
寸法線
100
AcDbLine
 10
-78.194719550215
 20
-207.316854837469
 30
0.0
 11
71.005280449785
 21
-207.316854837469
 31
0.0
  0
LINE
  5
382A
330
380B
100
AcDbEntity
  8
寸法線
100
AcDbLine
 10
71.005280449785
 20
-207.316854837469
 30
0.0
 11
71.005280449785
 21
-153.316854837469
 31
0.0
  0
LINE
  5
382B
330
380B
100
AcDbEntity
  8
寸法線
100
AcDbLine
 10
-78.194719550215
 20
-153.316854837469
 30
0.0
 11
71.005280449785
 21
-153.316854837469
 31
0.0
  0
LINE
  5
382C
330
380B
100
AcDbEntity
  8
寸法線
100
AcDbLine
 10
-78.194719550215
 20
-207.316854837469
 30
0.0
 11
-78.194719550215
 21
-153.316854837469
 31
0.0
  0
TEXT
  5
382D
330
380B
100
AcDbEntity
  8
寸法線
100
AcDbText
 10
53.68577482571
 20
-253.716854837469
 30
0.0
 40
7.0
  1
ＮＣ
 41
1.04850766672
  7
EXCADSTD
 72
     5
 11
68.364882159786
 21
-253.716854837469
 31
0.0
100
AcDbText
  0
TEXT
  5
382E
330
380B
100
AcDbEntity
  8
寸法線
100
AcDbText
 10
32.605280449785
 20
-253.716854837469
 30
0.0
 40
7.0
  1
Ｃ
 41
1.071428571429
  7
EXCADSTD
 72
     5
 11
38.605280449785
 21
-253.716854837469
 31
0.0
100
AcDbText
  0
TEXT
  5
382F
330
380B
100
AcDbEntity
  8
寸法線
100
AcDbText
 10
1.383893578297
 20
-253.516854837469
 30
0.0
 40
7.0
  1
ＮＯ
 41
1.015055885342
  7
EXCADSTD
 72
     5
 11
16.068368719579
 21
-253.516854837469
 31
0.0
100
AcDbText
  0
TEXT
  5
3830
330
380B
100
AcDbEntity
  8
寸法線
100
AcDbText
 10
-21.693136248829
 20
-253.516854837469
 30
0.0
 40
7.0
  1
Ｌ１
 41
0.724186142201
  7
EXCADSTD
 72
     5
 11
-12.906344390122
 21
-253.516854837469
 31
0.0
100
AcDbText
  0
TEXT
  5
3831
330
380B
100
AcDbEntity
  8
寸法線
100
AcDbText
 10
-45.969475824313
 20
-253.516854837469
 30
0.0
 40
7.0
  1
Ｎ
 41
0.880295194184
  7
EXCADSTD
 72
     5
 11
-40.629018312929
 21
-253.516854837469
 31
0.0
100
AcDbText
  0
TEXT
  5
3832
330
380B
100
AcDbEntity
  8
寸法線
100
AcDbText
 10
-76.394719550215
 20
-253.716854837469
 30
0.0
 40
7.0
  1
ＰＥ
 41
1.034482758621
  7
EXCADSTD
 72
     5
 11
-62.394719550215
 21
-253.716854837469
 31
0.0
100
AcDbText
  0
TEXT
  5
3833
330
380B
100
AcDbEntity
  8
寸法線
100
AcDbText
 10
58.469746544755
 20
-199.852388742499
 30
0.0
 40
7.071067810059
  1
6
 41
1.5
  7
EXCADSTD
 72
     5
 11
65.540814354814
 21
-199.852388742499
 31
0.0
100
AcDbText
  0
CIRCLE
  5
3834
330
380B
100
AcDbEntity
  8
寸法線
100
AcDbCircle
 10
62.005280449785
 20
-196.316854837469
 30
0.0
 40
5.0
  0
TEXT
  5
3835
330
380B
100
AcDbEntity
  8
寸法線
100
AcDbText
 10
32.269746544755
 20
-199.852388742499
 30
0.0
 40
7.071067810059
  1
5
 41
1.5
  7
EXCADSTD
 72
     5
 11
39.340814354814
 21
-199.852388742499
 31
0.0
100
AcDbText
  0
CIRCLE
  5
3836
330
380B
100
AcDbEntity
  8
寸法線
100
AcDbCircle
 10
35.805280449785
 20
-196.316854837469
 30
0.0
 40
5.0
  0
TEXT
  5
3837
330
380B
100
AcDbEntity
  8
寸法線
100
AcDbText
 10
6.069746544755
 20
-199.852388742499
 30
0.0
 40
7.071067810059
  1
4
 41
1.5
  7
EXCADSTD
 72
     5
 11
13.140814354814
 21
-199.852388742499
 31
0.0
100
AcDbText
  0
CIRCLE
  5
3838
330
380B
100
AcDbEntity
  8
寸法線
100
AcDbCircle
 10
9.605280449785
 20
-196.316854837469
 30
0.0
 40
5.0
  0
TEXT
  5
3839
330
380B
100
AcDbEntity
  8
寸法線
100
AcDbText
 10
-20.130253455245
 20
-199.852388742499
 30
0.0
 40
7.071067810059
  1
3
 41
1.5
  7
EXCADSTD
 72
     5
 11
-13.059185645186
 21
-199.852388742499
 31
0.0
100
AcDbText
  0
CIRCLE
  5
383A
330
380B
100
AcDbEntity
  8
寸法線
100
AcDbCircle
 10
-16.594719550215
 20
-196.316854837469
 30
0.0
 40
5.0
  0
TEXT
  5
383B
330
380B
100
AcDbEntity
  8
寸法線
100
AcDbText
 10
-46.330253455245
 20
-199.852388742499
 30
0.0
 40
7.071067810059
  1
2
 41
1.5
  7
EXCADSTD
 72
     5
 11
-39.259185645186
 21
-199.852388742499
 31
0.0
100
AcDbText
  0
CIRCLE
  5
383C
330
380B
100
AcDbEntity
  8
寸法線
100
AcDbCircle
 10
-42.794719550215
 20
-196.316854837469
 30
0.0
 40
5.0
  0
TEXT
  5
383D
330
380B
100
AcDbEntity
  8
寸法線
100
AcDbText
 10
-72.730253455245
 20
-199.852388742499
 30
0.0
 40
7.071067810059
  1
1
 41
2.0
  7
EXCADSTD
 72
     5
 11
-65.659185645186
 21
-199.852388742499
 31
0.0
100
AcDbText
  0
CIRCLE
  5
383E
330
380B
100
AcDbEntity
  8
寸法線
100
AcDbCircle
 10
-69.194719550215
 20
-196.316854837469
 30
0.0
 40
5.0
  0
LINE
  5
383F
330
380B
100
AcDbEntity
  8
寸法線
100
AcDbLine
 10
69.005280449785
 20
-205.316854837469
 30
0.0
 11
63.805280449785
 21
-205.316854837469
 31
0.0
  0
LINE
  5
3840
330
380B
100
AcDbEntity
  8
寸法線
100
AcDbLine
 10
37.645280449785
 20
-205.316854837469
 30
0.0
 11
59.805280449785
 21
-205.316854837469
 31
0.0
  0
LINE
  5
3841
330
380B
100
AcDbEntity
  8
寸法線
100
AcDbLine
 10
11.485280449785
 20
-205.316854837469
 30
0.0
 11
33.645280449785
 21
-205.316854837469
 31
0.0
  0
LINE
  5
3842
330
380B
100
AcDbEntity
  8
寸法線
100
AcDbLine
 10
-14.674719550215
 20
-205.316854837469
 30
0.0
 11
7.485280449785
 21
-205.316854837469
 31
0.0
  0
LINE
  5
3843
330
380B
100
AcDbEntity
  8
寸法線
100
AcDbLine
 10
-40.834719550215
 20
-205.316854837469
 30
0.0
 11
-18.674719550215
 21
-205.316854837469
 31
0.0
  0
LINE
  5
3844
330
380B
100
AcDbEntity
  8
寸法線
100
AcDbLine
 10
-66.994719550215
 20
-205.316854837469
 30
0.0
 11
-44.834719550215
 21
-205.316854837469
 31
0.0
  0
LINE
  5
3845
330
380B
100
AcDbEntity
  8
寸法線
100
AcDbLine
 10
-70.994719550215
 20
-205.316854837469
 30
0.0
 11
-76.194719550215
 21
-205.316854837469
 31
0.0
  0
LINE
  5
3846
330
380B
100
AcDbEntity
  8
寸法線
100
AcDbLine
 10
35.645280449785
 20
-207.316854837469
 30
0.0
 11
35.645280449785
 21
-245.316854837469
 31
0.0
  0
LINE
  5
3847
330
380B
100
AcDbEntity
  8
寸法線
100
AcDbLine
 10
9.485280449785
 20
-207.316854837469
 30
0.0
 11
9.485280449785
 21
-245.316854837469
 31
0.0
  0
LINE
  5
3848
330
380B
100
AcDbEntity
  8
寸法線
100
AcDbLine
 10
-16.674719550215
 20
-207.316854837469
 30
0.0
 11
-16.674719550215
 21
-245.316854837469
 31
0.0
  0
LINE
  5
3849
330
380B
100
AcDbEntity
  8
寸法線
100
AcDbLine
 10
-42.834719550215
 20
-207.316854837469
 30
0.0
 11
-42.834719550215
 21
-245.316854837469
 31
0.0
  0
CIRCLE
  5
384A
330
380B
100
AcDbEntity
  8
寸法線
100
AcDbCircle
 10
61.805280449785
 20
-205.316854837469
 30
0.0
 40
2.0
  0
CIRCLE
  5
384B
330
380B
100
AcDbEntity
  8
寸法線
100
AcDbCircle
 10
35.645280449785
 20
-205.316854837469
 30
0.0
 40
2.0
  0
CIRCLE
  5
384C
330
380B
100
AcDbEntity
  8
寸法線
100
AcDbCircle
 10
9.485280449785
 20
-205.316854837469
 30
0.0
 40
2.0
  0
CIRCLE
  5
384D
330
380B
100
AcDbEntity
  8
寸法線
100
AcDbCircle
 10
-16.674719550215
 20
-205.316854837469
 30
0.0
 40
2.0
  0
CIRCLE
  5
384E
330
380B
100
AcDbEntity
  8
寸法線
100
AcDbCircle
 10
-42.834719550215
 20
-205.316854837469
 30
0.0
 40
2.0
  0
CIRCLE
  5
384F
330
380B
100
AcDbEntity
  8
寸法線
100
AcDbCircle
 10
-68.994719550215
 20
-205.316854837469
 30
0.0
 40
2.0
  0
LINE
  5
3850
330
380B
100
AcDbEntity
  8
寸法線
100
AcDbLine
 10
61.805280449785
 20
-207.316854837469
 30
0.0
 11
61.805280449785
 21
-245.316854837469
 31
0.0
  0
LINE
  5
3851
330
380B
100
AcDbEntity
  8
寸法線
100
AcDbLine
 10
-68.994719550215
 20
-207.316854837469
 30
0.0
 11
-68.994719550215
 21
-245.316854837469
 31
0.0
  0
LINE
  5
3852
330
380B
100
AcDbEntity
  8
寸法線
100
AcDbLine
 10
-76.194719550215
 20
-155.316854837469
 30
0.0
 11
-76.194719550215
 21
-205.316854837469
 31
0.0
  0
LINE
  5
3853
330
380B
100
AcDbEntity
  8
寸法線
100
AcDbLine
 10
69.005280449785
 20
-155.316854837469
 30
0.0
 11
-76.194719550215
 21
-155.316854837469
 31
0.0
  0
LINE
  5
3854
330
380B
100
AcDbEntity
  8
寸法線
100
AcDbLine
 10
69.005280449785
 20
-155.316854837469
 30
0.0
 11
69.005280449785
 21
-205.316854837469
 31
0.0
  0
MTEXT
  5
3855
330
380B
100
AcDbEntity
  8
寸法線
 48
10.0
100
AcDbMText
 10
39.371862693352
 20
95.25299534473
 30
0.0
 40
8.0
 41
0.0
 71
     7
 72
     1
  1
振動部（検知部）\PKO36（SUS316相当）
  0
ENDBLK
  5
3857
330
380B
100
AcDbEntity
  8
0
 48
10.0
100
AcDbBlockEnd
  0
BLOCK
  5
43B6
330
43AC
100
AcDbEntity
  8
0
 48
10.0
100
AcDbBlockBegin
  2
*D14
 70
     1
 10
0.0
 20
0.0
 30
0.0
  3
*D14
  1

  0
LINE
  5
44F6
330
43AC
100
AcDbEntity
  8
寸法線
 62
     0
 48
10.0
100
AcDbLine
 10
332.16483518331
 20
469.691030999196
 30
0.0
 11
332.16483518331
 21
395.216773515649
 31
0.0
  0
LINE
  5
44F7
330
43AC
100
AcDbEntity
  8
寸法線
 62
     0
 48
10.0
100
AcDbLine
 10
353.16483518331
 20
464.205844094271
 30
0.0
 11
353.16483518331
 21
395.216773515649
 31
0.0
  0
LINE
  5
44F8
330
43AC
100
AcDbEntity
  8
寸法線
 62
     0
 48
10.0
100
AcDbLine
 10
338.16483518331
 20
396.466773515649
 30
0.0
 11
347.16483518331
 21
396.466773515649
 31
0.0
  0
INSERT
  5
44F9
330
43AC
100
AcDbEntity
  8
寸法線
 62
     0
100
AcDbBlockReference
  2
_OPEN30
 10
332.16483518331
 20
396.466773515649
 30
0.0
 41
6.0
 42
6.0
 43
6.0
 50
180.0
  0
INSERT
  5
44FA
330
43AC
100
AcDbEntity
  8
寸法線
 62
     0
100
AcDbBlockReference
  2
_OPEN30
 10
353.16483518331
 20
396.466773515649
 30
0.0
 41
6.0
 42
6.0
 43
6.0
  0
MTEXT
  5
44FB
330
43AC
100
AcDbEntity
  8
寸法線
 62
     0
 48
10.0
100
AcDbMText
 10
341.987773234087
 20
401.095940182315
 30
0.0
 40
8.0
 41
0.0
 71
     5
 72
     1
  1
\A1;21
  0
POINT
  5
44FC
330
43AC
100
AcDbEntity
  8
DEFPOINTS
 62
     0
100
AcDbPoint
 10
332.16483518331
 20
470.316030999196
 30
0.0
  0
POINT
  5
44FD
330
43AC
100
AcDbEntity
  8
DEFPOINTS
 62
     0
100
AcDbPoint
 10
353.16483518331
 20
464.830844094271
 30
0.0
  0
POINT
  5
44FE
330
43AC
100
AcDbEntity
  8
DEFPOINTS
 62
     0
100
AcDbPoint
 10
353.16483518331
 20
396.466773515649
 30
0.0
  0
ENDBLK
  5
43B7
330
43AC
100
AcDbEntity
  8
0
 48
10.0
100
AcDbBlockEnd
  0
BLOCK
  5
43F3
330
43E9
100
AcDbEntity
  8
0
 48
10.0
100
AcDbBlockBegin
  2
*D15
 70
     1
 10
0.0
 20
0.0
 30
0.0
  3
*D15
  1

  0
LINE
  5
44ED
330
43E9
100
AcDbEntity
  8
寸法線
 62
     0
 48
10.0
100
AcDbLine
 10
468.664835183302
 20
447.173173370621
 30
0.0
 11
468.664835183302
 21
373.580844094271
 31
0.0
  0
LINE
  5
44EE
330
43E9
100
AcDbEntity
  8
寸法線
 62
     0
 48
10.0
100
AcDbLine
 10
353.16483518331
 20
464.205844094271
 30
0.0
 11
353.16483518331
 21
373.580844094271
 31
0.0
  0
LINE
  5
44EF
330
43E9
100
AcDbEntity
  8
寸法線
 62
     0
 48
10.0
100
AcDbLine
 10
462.664835183302
 20
374.830844094271
 30
0.0
 11
359.16483518331
 21
374.830844094271
 31
0.0
  0
INSERT
  5
44F0
330
43E9
100
AcDbEntity
  8
寸法線
 62
     0
100
AcDbBlockReference
  2
_OPEN30
 10
468.664835183302
 20
374.830844094271
 30
0.0
 41
6.0
 42
6.0
 43
6.0
  0
INSERT
  5
44F1
330
43E9
100
AcDbEntity
  8
寸法線
 62
     0
100
AcDbBlockReference
  2
_OPEN30
 10
353.16483518331
 20
374.830844094271
 30
0.0
 41
6.0
 42
6.0
 43
6.0
 50
180.0
  0
MTEXT
  5
44F2
330
43E9
100
AcDbEntity
  8
寸法線
 62
     0
 48
10.0
100
AcDbMText
 10
410.914835183306
 20
379.460010760938
 30
0.0
 40
8.0
 41
0.0
 71
     5
 72
     1
  1
\A1;120
  0
POINT
  5
44F3
330
43E9
100
AcDbEntity
  8
DEFPOINTS
 62
     0
100
AcDbPoint
 10
468.664835183302
 20
447.798173370621
 30
0.0
  0
POINT
  5
44F4
330
43E9
100
AcDbEntity
  8
DEFPOINTS
 62
     0
100
AcDbPoint
 10
353.16483518331
 20
464.830844094271
 30
0.0
  0
POINT
  5
44F5
330
43E9
100
AcDbEntity
  8
DEFPOINTS
 62
     0
100
AcDbPoint
 10
353.16483518331
 20
374.830844094271
 30
0.0
  0
ENDBLK
  5
43F4
330
43E9
100
AcDbEntity
  8
0
 48
10.0
100
AcDbBlockEnd
  0
BLOCK
  5
4417
330
440D
100
AcDbEntity
  8
0
 48
10.0
100
AcDbBlockBegin
  2
*D16
 70
     1
 10
0.0
 20
0.0
 30
0.0
  3
*D16
  1

  0
LINE
  5
44E4
330
440D
100
AcDbEntity
  8
寸法線
 62
     0
 48
10.0
100
AcDbLine
 10
441.572627995228
 20
441.931603764155
 30
0.0
 11
510.992022482611
 21
441.931603764155
 31
0.0
  0
LINE
  5
44E5
330
440D
100
AcDbEntity
  8
寸法線
 62
     0
 48
10.0
100
AcDbLine
 10
441.572627995228
 20
542.499107767979
 30
0.0
 11
510.992022482611
 21
542.499107767979
 31
0.0
  0
LINE
  5
44E6
330
440D
100
AcDbEntity
  8
寸法線
 62
     0
 48
10.0
100
AcDbLine
 10
509.742022482611
 20
447.931603764155
 30
0.0
 11
509.742022482611
 21
536.499107767979
 31
0.0
  0
INSERT
  5
44E7
330
440D
100
AcDbEntity
  8
寸法線
 62
     0
 48
10.0
100
AcDbBlockReference
  2
_OPEN30
 10
509.742022482611
 20
441.931603764155
 30
0.0
 41
6.0
 42
6.0
 43
6.0
 50
270.0
  0
INSERT
  5
44E8
330
440D
100
AcDbEntity
  8
寸法線
 62
     0
 48
10.0
100
AcDbBlockReference
  2
_OPEN30
 10
509.742022482611
 20
542.499107767979
 30
0.0
 41
6.0
 42
6.0
 43
6.0
 50
90.0
  0
MTEXT
  5
44E9
330
440D
100
AcDbEntity
  8
寸法線
 62
     0
 48
10.0
100
AcDbMText
 10
505.117022482611
 20
492.215355766067
 30
0.0
 40
8.0
 41
0.0
 71
     5
 72
     1
  1
\A1;φ100
 11
6.123031769111886E-17
 21
1.0
 31
0.0
  0
POINT
  5
44EA
330
440D
100
AcDbEntity
  8
DEFPOINTS
 62
     0
 48
10.0
100
AcDbPoint
 10
440.947627995228
 20
441.931603764155
 30
0.0
  0
POINT
  5
44EB
330
440D
100
AcDbEntity
  8
DEFPOINTS
 62
     0
 48
10.0
100
AcDbPoint
 10
440.947627995228
 20
542.499107767979
 30
0.0
  0
POINT
  5
44EC
330
440D
100
AcDbEntity
  8
DEFPOINTS
 62
     0
 48
10.0
100
AcDbPoint
 10
509.742022482611
 20
542.499107767979
 30
0.0
  0
ENDBLK
  5
4418
330
440D
100
AcDbEntity
  8
0
 48
10.0
100
AcDbBlockEnd
  0
BLOCK
  5
4423
330
4419
100
AcDbEntity
  8
0
 48
10.0
100
AcDbBlockBegin
  2
*D17
 70
     1
 10
0.0
 20
0.0
 30
0.0
  3
*D17
  1

  0
LINE
  5
44DB
330
4419
100
AcDbEntity
  8
寸法線
 62
     0
 48
10.0
100
AcDbLine
 10
469.289081678798
 20
492.330844094271
 30
0.0
 11
489.308988652513
 21
492.330844094271
 31
0.0
  0
LINE
  5
44DC
330
4419
100
AcDbEntity
  8
寸法線
 62
     0
 48
10.0
100
AcDbLine
 10
426.71651964431
 20
403.330844094271
 30
0.0
 11
489.308988652513
 21
403.330844094271
 31
0.0
  0
LINE
  5
44DD
330
4419
100
AcDbEntity
  8
寸法線
 62
     0
 48
10.0
100
AcDbLine
 10
488.058988652513
 20
486.330844094271
 30
0.0
 11
488.058988652513
 21
409.330844094271
 31
0.0
  0
INSERT
  5
44DE
330
4419
100
AcDbEntity
  8
寸法線
 62
     0
100
AcDbBlockReference
  2
_OPEN30
 10
488.058988652513
 20
492.330844094271
 30
0.0
 41
6.0
 42
6.0
 43
6.0
 50
90.0
  0
INSERT
  5
44DF
330
4419
100
AcDbEntity
  8
寸法線
 62
     0
100
AcDbBlockReference
  2
_OPEN30
 10
488.058988652513
 20
403.330844094271
 30
0.0
 41
6.0
 42
6.0
 43
6.0
 50
270.0
  0
MTEXT
  5
44E0
330
4419
100
AcDbEntity
  8
寸法線
 62
     0
 48
10.0
100
AcDbMText
 10
483.42565531918
 20
451.180591016996
 30
0.0
 40
8.0
 41
0.0
 71
     5
 72
     1
  1
\A1;89
 11
0.0
 21
1.0
 31
0.0
  0
POINT
  5
44E1
330
4419
100
AcDbEntity
  8
DEFPOINTS
 62
     0
100
AcDbPoint
 10
468.664081678798
 20
492.330844094271
 30
0.0
  0
POINT
  5
44E2
330
4419
100
AcDbEntity
  8
DEFPOINTS
 62
     0
100
AcDbPoint
 10
426.09151964431
 20
403.330844094271
 30
0.0
  0
POINT
  5
44E3
330
4419
100
AcDbEntity
  8
DEFPOINTS
 62
     0
100
AcDbPoint
 10
488.058988652513
 20
403.330844094271
 30
0.0
  0
ENDBLK
  5
4424
330
4419
100
AcDbEntity
  8
0
 48
10.0
100
AcDbBlockEnd
  0
ENDSEC
  0
SECTION
  2
ENTITIES
  0
LINE
  5
3081
330
1A
100
AcDbEntity
  8
中心線
 48
10.0
100
AcDbLine
 10
1.4607488955
 20
492.330844094271
 30
0.0
 11
468.664081678798
 21
492.330844094271
 31
0.0
  0
DIMENSION
  5
3082
330
1A
100
AcDbEntity
  8
寸法線
 48
10.0
100
AcDbDimension
  2
*D6
 10
-6.41914893421
 20
482.34765081696
 30
0.0
 11
-11.044936335785
 21
492.34765081696
 31
0.0
 70
    32
  1
φ<>
  3
ISO-25
100
AcDbAlignedDimension
 13
10.883955624965
 23
502.34765081696
 33
0.0
 14
10.883955624965
 24
482.34765081696
 34
0.0
 50
90.0
100
AcDbRotatedDimension
1001
ACAD
1000
DSTYLE
1002
{
1070
     5
1000
OPEN30
1070
    41
1040
6.0
1070
    47
1040
0.1
1070
    48
1040
0.1
1070
    73
1070
     0
1070
   140
1040
8.0
1070
   271
1070
     1
1070
   272
1070
     1
1070
   341
1005
2AF4
1002
}
  0
DIMENSION
  5
3099
330
1A
100
AcDbEntity
  8
寸法線
 48
10.0
100
AcDbDimension
  2
*D7
 10
143.883955624965
 20
444.994451318452
 30
0.0
 11
77.383955624965
 21
444.994451318452
 31
0.0
 70
   160
  3
ISO-25
100
AcDbAlignedDimension
 13
10.883955624965
 23
482.34765081696
 33
0.0
 14
143.883955624965
 24
471.866138211918
 34
0.0
100
AcDbRotatedDimension
1001
ACAD
1000
DSTYLE
1002
{
1070
     5
1000
OPEN30
1070
    41
1040
6.0
1070
    47
1040
0.1
1070
    48
1040
0.1
1070
    73
1070
     0
1070
   140
1040
8.0
1070
   271
1070
     1
1070
   272
1070
     1
1070
   341
1005
2AF4
1002
}
  0
LEADER
  5
3104
330
1A
100
AcDbEntity
  8
寸法線
 48
10.0
100
AcDbLeader
  3
ISO-25
 76
     3
 10
88.028943680376
 20
502.330844094271
 30
0.0
 10
78.368898288156
 20
575.534428518342
 30
0.0
 10
66.865144165978
 20
575.534428518342
 30
0.0
1001
ACAD
1000
DSTYLE
1002
{
1070
     5
1000
OPEN30
1070
   147
1040
0.625
1070
    77
1070
     0
1070
    41
1040
6.0
1070
    47
1040
0.1
1070
    48
1040
0.1
1070
    73
1070
     0
1070
   140
1040
5.0
1070
   271
1070
     1
1070
   272
1070
     1
1070
   341
1005
2AF4
1070
   342
1005
2AF4
1002
}
  0
LINE
  5
346C
330
1A
100
AcDbEntity
  8
外形線
100
AcDbLine
 10
323.16483518331
 20
477.330844094271
 30
0.0
 11
268.123004793058
 21
477.330844094271
 31
0.0
  0
LINE
  5
346F
330
1A
100
AcDbEntity
  8
外形線
100
AcDbLine
 10
203.783652593967
 20
471.366138211918
 30
0.0
 11
196.083652593967
 21
471.366138211918
 31
0.0
  0
LINE
  5
3470
330
1A
100
AcDbEntity
  8
外形線
100
AcDbLine
 10
191.183652593967
 20
471.366138211918
 30
0.0
 11
144.383955624966
 21
471.366138211918
 31
0.0
  0
ARC
  5
3471
330
1A
100
AcDbEntity
  8
外形線
100
AcDbCircle
 10
193.633652593967
 20
470.565491153094
 30
0.0
 40
2.577505715377329
100
AcDbArc
 50
18.097118485446
 51
161.902881514554
  0
LINE
  5
3472
330
1A
100
AcDbEntity
  8
外形線
100
AcDbLine
 10
203.783652593967
 20
471.366138211918
 30
0.0
 11
209.883652593967
 21
477.330844094271
 31
0.0
  0
LINE
  5
3474
330
1A
100
AcDbEntity
  8
外形線
100
AcDbLine
 10
209.883652593967
 20
477.330844094271
 30
0.0
 11
209.883652593967
 21
507.330844094271
 31
0.0
  0
LINE
  5
3475
330
1A
100
AcDbEntity
  8
外形線
100
AcDbLine
 10
203.783652593967
 20
471.366138211918
 30
0.0
 11
203.783652593967
 21
513.295549976624
 31
0.0
  0
LINE
  5
3476
330
1A
100
AcDbEntity
  8
外形線
100
AcDbLine
 10
196.083652593967
 20
513.295549976624
 30
0.0
 11
196.083652593967
 21
471.366138211918
 31
0.0
  0
LINE
  5
3477
330
1A
100
AcDbEntity
  8
外形線
100
AcDbLine
 10
191.183652593967
 20
471.366138211918
 30
0.0
 11
191.183652593967
 21
513.295549976624
 31
0.0
  0
LINE
  5
347E
330
1A
100
AcDbEntity
  8
外形線
100
AcDbLine
 10
10.883955624965
 20
482.34765081696
 30
0.0
 11
10.883955624965
 21
502.314037371582
 31
0.0
  0
LINE
  5
347F
330
1A
100
AcDbEntity
  8
外形線
100
AcDbLine
 10
143.883955624965
 20
512.795549976624
 30
0.0
 11
143.883955624965
 21
471.866138211918
 31
0.0
  0
LINE
  5
3480
330
1A
100
AcDbEntity
  8
外形線
100
AcDbLine
 10
143.883955624965
 20
482.34765081696
 30
0.0
 11
10.883955624965
 21
482.34765081696
 31
0.0
  0
ARC
  5
3481
330
1A
100
AcDbEntity
  8
外形線
100
AcDbCircle
 10
144.383955624966
 20
471.866138211918
 30
0.0
 40
0.5
100
AcDbArc
 50
180.0
 51
270.0
  0
LINE
  5
3488
330
1A
100
AcDbEntity
  8
外形線
100
AcDbLine
 10
203.783652593967
 20
513.295549976624
 30
0.0
 11
196.083652593967
 21
513.295549976624
 31
0.0
  0
LINE
  5
3489
330
1A
100
AcDbEntity
  8
外形線
100
AcDbLine
 10
191.183652593967
 20
513.295549976624
 30
0.0
 11
144.383955624965
 21
513.295549976624
 31
0.0
  0
ARC
  5
348A
330
1A
100
AcDbEntity
  8
外形線
100
AcDbCircle
 10
193.633652593967
 20
513.585207905013
 30
0.0
 40
2.467063378893744
100
AcDbArc
 50
186.742650169572
 51
353.257349830428
  0
LINE
  5
348B
330
1A
100
AcDbEntity
  8
外形線
100
AcDbLine
 10
203.783652593967
 20
513.295549976624
 30
0.0
 11
209.883652593967
 21
507.330844094271
 31
0.0
  0
LINE
  5
348C
330
1A
100
AcDbEntity
  8
外形線
100
AcDbLine
 10
209.883652593967
 20
507.330844094271
 30
0.0
 11
261.545337672962
 21
507.330844094271
 31
0.0
  0
LINE
  5
348D
330
1A
100
AcDbEntity
  8
外形線
100
AcDbLine
 10
143.883955624965
 20
502.314037371582
 30
0.0
 11
10.883955624965
 21
502.314037371582
 31
0.0
  0
ARC
  5
3516
330
1A
100
AcDbEntity
  8
外形線
100
AcDbCircle
 10
144.383955624965
 20
512.795549976624
 30
0.0
 40
0.5
100
AcDbArc
 50
90.0
 51
180.0
  0
LWPOLYLINE
  5
352F
330
1A
100
AcDbEntity
  8
細線
100
AcDbPolyline
 90
       67
 70
     0
 43
0.0
 10
268.123004793058
 20
477.330844094271
 10
268.083243374214
 20
477.437573699453
 10
267.973378285462
 20
477.740855796889
 10
267.807538278482
 20
478.215330309425
 10
267.599852104954
 20
478.835637159903
 10
267.364448516554
 20
479.576416271161
 10
267.11545626496
 20
480.412307566043
 10
266.86700410185
 20
481.317950967389
 10
266.633220778902
 20
482.267986398045
 10
266.428235047796
 20
483.237053780849
 10
266.266175660206
 20
484.199793038643
 10
266.161171367814
 20
485.130844094271
 10
266.124230713094
 20
485.969910011817
 10
266.146722833896
 20
486.761794185231
 10
266.22342072748
 20
487.511134619569
 10
266.34909739111
 20
488.222569319887
 10
266.518525822048
 20
488.900736291243
 10
266.726479017554
 20
489.550273538689
 10
266.967729974894
 20
490.175819067285
 10
267.237051691326
 20
490.782010882085
 10
267.529217164116
 20
491.373486988147
 10
267.838999390524
 20
491.954885390523
 10
268.161171367814
 20
492.530844094271
 10
268.489855542756
 20
493.105148100765
 10
268.819281124072
 20
493.682864546705
 10
269.143046273732
 20
494.268205382147
 10
269.454749153706
 20
494.865382557143
 10
269.747987925964
 20
495.478608021751
 10
270.016360752478
 20
496.112093726025
 10
270.253465795216
 20
496.770051620017
 10
270.452901216148
 20
497.456693653783
 10
270.608265177246
 20
498.176231777377
 10
270.713155840476
 20
498.932877940855
 10
270.761171367814
 20
499.730844094271
 10
270.745603989424
 20
500.614076767167
 10
270.666409309368
 20
501.525408580649
 10
270.529845365094
 20
502.442651582387
 10
270.342170194054
 20
503.343617820055
 10
270.109641833694
 20
504.206119341327
 10
269.838518321468
 20
505.007968193875
 10
269.535057694822
 20
505.726976425369
 10
269.20551799121
 20
506.340956083483
 10
268.856157248078
 20
506.827719215891
 10
268.493233502878
 20
507.165077870263
 10
268.123004793058
 20
507.330844094271
 10
267.703013208042
 20
507.292763396081
 10
267.29227840128
 20
507.030160641865
 10
266.901400077046
 20
506.567081896843
 10
266.540977939626
 20
505.927573226237
 10
266.221611693294
 20
505.135680695271
 10
265.95390104233
 20
504.215450369163
 10
265.748445691014
 20
503.190928313135
 10
265.615845343626
 20
502.086160592411
 10
265.566699704444
 20
500.925193272211
 10
265.611608477746
 20
499.732072417757
 10
265.761171367814
 20
498.530844094271
 10
265.93148591525
 20
497.697096146087
 10
266.145808207388
 20
496.883643492593
 10
266.391448026166
 20
496.102940595741
 10
266.655715153518
 20
495.367441917483
 10
266.925919371382
 20
494.689601919771
 10
267.189370461696
 20
494.081875064557
 10
267.433378206398
 20
493.556715813793
 10
267.645252387422
 20
493.126578629431
 10
267.812302786708
 20
492.803917973421
 10
267.921839186194
 20
492.601188307717
 10
267.961171367814
 20
492.530844094271
  0
LWPOLYLINE
  5
3530
330
1A
100
AcDbEntity
  8
細線
100
AcDbPolyline
 90
       67
 70
     0
 43
0.0
 10
261.545337672962
 20
507.330844094271
 10
261.585099091808
 20
507.224114489091
 10
261.69496418056
 20
506.920832391653
 10
261.860804187538
 20
506.446357879117
 10
262.068490361068
 20
505.826051028641
 10
262.303893949468
 20
505.085271917383
 10
262.552886201062
 20
504.249380622501
 10
262.801338364172
 20
503.343737221153
 10
263.035121687118
 20
502.393701790497
 10
263.240107418226
 20
501.424634407693
 10
263.402166805816
 20
500.461895149899
 10
263.507171098208
 20
499.530844094271
 10
263.544111752928
 20
498.691778176725
 10
263.521619632126
 20
497.899894003313
 10
263.44492173854
 20
497.150553568973
 10
263.31924507491
 20
496.439118868655
 10
263.149816643974
 20
495.760951897301
 10
262.941863448466
 20
495.111414649853
 10
262.700612491128
 20
494.485869121257
 10
262.431290774694
 20
493.879677306457
 10
262.139125301904
 20
493.288201200397
 10
261.829343075496
 20
492.706802798019
 10
261.507171098208
 20
492.130844094271
 10
261.178486923266
 20
491.556540087777
 10
260.84906134195
 20
490.978823641837
 10
260.52529619229
 20
490.393482806397
 10
260.213593312316
 20
489.796305631399
 10
259.920354540056
 20
489.183080166791
 10
259.651981713544
 20
488.549594462519
 10
259.414876670806
 20
487.891636568527
 10
259.215441249874
 20
487.204994534759
 10
259.060077288776
 20
486.485456411165
 10
258.955186625544
 20
485.728810247687
 10
258.907171098208
 20
484.930844094271
 10
258.922738476596
 20
484.047611421375
 10
259.001933156652
 20
483.136279607895
 10
259.138497100926
 20
482.219036606155
 10
259.326172271968
 20
481.318070368487
 10
259.558700632326
 20
480.455568847215
 10
259.829824144554
 20
479.653719994667
 10
260.133284771198
 20
478.934711763173
 10
260.462824474812
 20
478.320732105059
 10
260.812185217944
 20
477.833968972651
 10
261.175108963144
 20
477.496610318281
 10
261.545337672962
 20
477.330844094271
 10
261.965329257978
 20
477.368924792461
 10
262.376064064742
 20
477.631527546677
 10
262.766942388974
 20
478.094606291699
 10
263.127364526396
 20
478.734114962305
 10
263.446730772728
 20
479.526007493273
 10
263.714441423692
 20
480.446237819379
 10
263.919896775008
 20
481.470759875407
 10
264.052497122396
 20
482.575527596131
 10
264.101642761578
 20
483.736494916331
 10
264.056733988276
 20
484.929615770785
 10
263.907171098208
 20
486.130844094271
 10
263.736856550772
 20
486.964592042455
 10
263.522534258632
 20
487.778044695949
 10
263.276894439856
 20
488.558747592801
 10
263.012627312504
 20
489.294246271059
 10
262.74242309464
 20
489.972086268771
 10
262.478972004326
 20
490.579813123985
 10
262.234964259624
 20
491.104972374749
 10
262.023090078598
 20
491.535109559113
 10
261.856039679312
 20
491.857770215121
 10
261.746503279828
 20
492.060499880825
 10
261.707171098208
 20
492.130844094271
  0
DIMENSION
  5
358B
330
1A
100
AcDbEntity
  8
寸法線
 48
10.0
100
AcDbDimension
  2
*D10
 10
161.800039148589
 20
513.295549976624
 30
0.0
 11
161.800039148589
 21
529.720549976624
 31
0.0
 70
   160
  1
φ44
  3
ISO-25
100
AcDbAlignedDimension
 13
161.800039148589
 23
471.366138211918
 33
0.0
 14
161.800039148589
 24
513.295549976624
 34
0.0
 50
90.0
100
AcDbRotatedDimension
1001
ACAD
1000
DSTYLE
1002
{
1070
     5
1000
OPEN30
1070
    41
1040
6.0
1070
    47
1040
0.1
1070
    48
1040
0.1
1070
    73
1070
     0
1070
   140
1040
8.0
1070
   271
1070
     1
1070
   272
1070
     1
1070
   341
1005
2AF4
1002
}
  0
DIMENSION
  5
369E
330
1A
100
AcDbEntity
  8
寸法線
 48
10.0
100
AcDbDimension
  2
*D12
 10
353.16483518331
 20
374.830844094271
 30
0.0
 11
180.231283101063
 21
374.830844094271
 31
0.0
 70
    32
  1
 
  3
ISO-25
100
AcDbAlignedDimension
 13
10.883955624965
 23
444.994451318452
 33
0.0
 14
353.16483518331
 24
374.830844094271
 34
0.0
100
AcDbRotatedDimension
1001
ACAD
1000
DSTYLE
1002
{
1070
     5
1000
OPEN30
1070
    41
1040
6.0
1070
    47
1040
0.1
1070
    48
1040
0.1
1070
    73
1070
     0
1070
   140
1040
8.0
1070
   271
1070
     1
1070
   272
1070
     1
1070
   341
1005
2AF4
1002
}
  0
MTEXT
  5
3AF2
330
1A
100
AcDbEntity
  8
寸法線
 48
10.0
100
AcDbMText
 10
81.153114419636
 20
576.466640113745
 30
0.0
 40
8.0
 41
0.0
 71
     9
 72
     1
  1
振動部（検知部）\PDIN1.4571（SUS316相当）
  0
MTEXT
  5
3CD2
330
1A
100
AcDbEntity
  8
寸法線
 48
10.0
100
AcDbMText
 10
129.69408706799
 20
253.956433446659
 30
0.0
 40
8.0
 41
95.557777777778
 71
     1
 72
     5
  1
{\C1;NC}
  0
MTEXT
  5
3CD3
330
1A
100
AcDbEntity
  8
寸法線
 48
10.0
100
AcDbMText
 10
107.076385871585
 20
253.956433446659
 30
0.0
 40
8.0
 41
95.557777777778
 71
     1
 72
     5
  1
{\C1;C}
  0
MTEXT
  5
3CD4
330
1A
100
AcDbEntity
  8
寸法線
 48
10.0
100
AcDbMText
 10
78.577411494594
 20
253.956433446659
 30
0.0
 40
8.0
 41
95.557777777778
 71
     1
 72
     5
  1
{\C1;NO}
  0
MTEXT
  5
3CD5
330
1A
100
AcDbEntity
  8
寸法線
 48
10.0
100
AcDbMText
 10
54.314632917097
 20
253.956433446659
 30
0.0
 40
8.0
 41
95.557777777778
 71
     1
 72
     5
  1
{\C1;L1}
  0
MTEXT
  5
3CD6
330
1A
100
AcDbEntity
  8
寸法線
 48
10.0
100
AcDbMText
 10
28.420956213752
 20
253.956433446659
 30
0.0
 40
8.0
 41
95.557777777778
 71
     1
 72
     5
  1
{\C1;N}
  0
MTEXT
  5
3CD7
330
1A
100
AcDbEntity
  8
寸法線
 48
10.0
100
AcDbMText
 10
0.660114963316
 20
253.956433446659
 30
0.0
 40
8.0
 41
95.557777777778
 71
     1
 72
     5
  1
{\C1;PE}
  0
MTEXT
  5
3CD8
330
1A
100
AcDbEntity
  8
寸法線
 48
10.0
100
AcDbMText
 10
133.858475134842
 20
308.808731066868
 30
0.0
 40
7.0
 41
95.557777777778
 71
     1
 72
     5
  1
{\C1;6}
  0
MTEXT
  5
3CD9
330
1A
100
AcDbEntity
  8
寸法線
 48
10.0
100
AcDbMText
 10
108.257672874792
 20
308.808731066868
 30
0.0
 40
7.0
 41
95.557777777778
 71
     1
 72
     5
  1
{\C1;5}
  0
MTEXT
  5
3CDA
330
1A
100
AcDbEntity
  8
寸法線
 48
10.0
100
AcDbMText
 10
81.67533727597
 20
308.808731066868
 30
0.0
 40
7.0
 41
95.557777777778
 71
     1
 72
     5
  1
{\C1;4}
  0
MTEXT
  5
3CDB
330
1A
100
AcDbEntity
  8
寸法線
 48
10.0
100
AcDbMText
 10
55.690526205004
 20
308.808731066868
 30
0.0
 40
7.0
 41
95.557777777778
 71
     1
 72
     5
  1
{\C1;3}
  0
MTEXT
  5
3CDC
330
1A
100
AcDbEntity
  8
寸法線
 48
10.0
100
AcDbMText
 10
29.26743801913
 20
308.808731066868
 30
0.0
 40
7.0
 41
95.557777777778
 71
     1
 72
     5
  1
{\C1;2}
  0
MTEXT
  5
3CDD
330
1A
100
AcDbEntity
  8
寸法線
 48
10.0
100
AcDbMText
 10
3.247717227106
 20
308.808731066868
 30
0.0
 40
7.0
 41
95.557777777778
 71
     1
 72
     5
  1
{\C1;1}
  0
MTEXT
  5
3CDE
102
{ACAD_XDICTIONARY
360
4660
102
}
330
1A
100
AcDbEntity
  8
寸法線
 48
10.0
100
AcDbMText
 10
0.03057106491
 20
343.473603823228
 30
0.0
 40
8.0
 41
95.557777777778
 71
     1
 72
     5
  1
\C1;RKR-5□□
1001
ACADANNOTATIVE
1000
AnnotativeData
1002
{
1070
     1
1070
     0
1002
}
  0
LINE
  5
3CDF
330
1A
100
AcDbEntity
  8
寸法線
100
AcDbLine
 10
70.047350114198
 20
296.602169378205
 30
0.0
 11
70.047350114198
 21
288.182169378205
 31
0.0
  0
LINE
  5
3CE0
330
1A
100
AcDbEntity
  8
寸法線
100
AcDbLine
 10
70.047350114198
 20
299.002169378205
 30
0.0
 11
70.047350114198
 21
303.002169378205
 31
0.0
  0
LINE
  5
3CE1
330
1A
100
AcDbEntity
  8
寸法線
100
AcDbLine
 10
72.047350114198
 20
301.002169378205
 30
0.0
 11
68.047350114198
 21
301.002169378205
 31
0.0
  0
LINE
  5
3CE2
330
1A
100
AcDbEntity
  8
寸法線
100
AcDbLine
 10
74.447350114198
 20
296.602169378205
 30
0.0
 11
74.447350114198
 21
305.402169378205
 31
0.0
  0
LINE
  5
3CE3
330
1A
100
AcDbEntity
  8
寸法線
100
AcDbLine
 10
65.647350114198
 20
296.602169378205
 30
0.0
 11
65.647350114198
 21
305.402169378205
 31
0.0
  0
CIRCLE
  5
3CE4
330
1A
100
AcDbEntity
  8
寸法線
100
AcDbCircle
 10
70.047350114198
 20
301.002169378205
 30
0.0
 40
4.40000000000004
  0
POINT
  5
3CE5
330
1A
100
AcDbEntity
  8
寸法線
100
AcDbPoint
 10
70.047350114198
 20
301.002169378205
 30
0.0
  0
LINE
  5
3CE6
330
1A
100
AcDbEntity
  8
寸法線
100
AcDbLine
 10
65.647350114198
 20
305.402169378205
 30
0.0
 11
74.447350114198
 21
305.402169378205
 31
0.0
  0
LINE
  5
3CE7
330
1A
100
AcDbEntity
  8
寸法線
100
AcDbLine
 10
69.147350114198
 20
281.102169378205
 30
0.0
 11
71.227350114198
 21
281.102169378205
 31
0.0
  0
LINE
  5
3CE8
330
1A
100
AcDbEntity
  8
寸法線
100
AcDbLine
 10
67.927350114198
 20
282.842169378205
 30
0.0
 11
72.347350114198
 21
282.842169378205
 31
0.0
  0
LINE
  5
3CE9
330
1A
100
AcDbEntity
  8
寸法線
100
AcDbLine
 10
66.387350114198
 20
284.642169378205
 30
0.0
 11
73.907350114198
 21
284.642169378205
 31
0.0
  0
CIRCLE
  5
3CEA
330
1A
100
AcDbEntity
  8
寸法線
100
AcDbCircle
 10
70.047350114198
 20
283.182169378205
 30
0.0
 40
5.0
  0
LINE
  5
3CEB
330
1A
100
AcDbEntity
  8
寸法線
100
AcDbLine
 10
70.047350114198
 20
288.182169378205
 30
0.0
 11
70.047350114198
 21
284.642169378205
 31
0.0
  0
POINT
  5
3CEC
330
1A
100
AcDbEntity
  8
寸法線
100
AcDbPoint
 10
70.047350114198
 20
296.602169378205
 30
0.0
  0
LINE
  5
3CED
330
1A
100
AcDbEntity
  8
寸法線
100
AcDbLine
 10
122.327350114198
 20
339.802169378205
 30
0.0
 11
135.447350114198
 21
339.802169378205
 31
0.0
  0
LINE
  5
3CEE
330
1A
100
AcDbEntity
  8
寸法線
100
AcDbLine
 10
109.127859669632
 20
324.995799935277
 30
0.0
 11
123.48741599028
 21
341.202169378205
 31
0.0
  0
LINE
  5
3CEF
330
1A
100
AcDbEntity
  8
寸法線
100
AcDbLine
 10
100.356697700339
 20
339.802169378205
 30
0.0
 11
83.127350114198
 21
339.802169378205
 31
0.0
  0
CIRCLE
  5
3CF0
330
1A
100
AcDbEntity
  8
寸法線
100
AcDbCircle
 10
109.287350114198
 20
323.002169378205
 30
0.0
 40
2.0
  0
LINE
  5
3CF1
330
1A
100
AcDbEntity
  8
寸法線
100
AcDbLine
 10
83.127350114198
 20
311.602169378205
 30
0.0
 11
83.127350114198
 21
339.802169378205
 31
0.0
  0
LINE
  5
3CF2
330
1A
100
AcDbEntity
  8
寸法線
100
AcDbLine
 10
109.287350114198
 20
311.602169378205
 30
0.0
 11
109.287350114198
 21
321.002169378205
 31
0.0
  0
LINE
  5
3CF3
330
1A
100
AcDbEntity
  8
寸法線
100
AcDbLine
 10
135.447350114198
 20
311.402169378206
 30
0.0
 11
135.447350114198
 21
339.802169378205
 31
0.0
  0
LINE
  5
3CF4
330
1A
100
AcDbEntity
  8
寸法線
100
AcDbLine
 10
-4.552649885802
 20
294.602169378205
 30
0.0
 11
144.647350114198
 21
294.602169378205
 31
0.0
  0
LINE
  5
3CF5
330
1A
100
AcDbEntity
  8
寸法線
100
AcDbLine
 10
144.647350114198
 20
294.602169378205
 30
0.0
 11
144.647350114198
 21
348.602169378205
 31
0.0
  0
LINE
  5
3CF6
330
1A
100
AcDbEntity
  8
寸法線
100
AcDbLine
 10
-4.552649885802
 20
348.602169378205
 30
0.0
 11
144.647350114198
 21
348.602169378205
 31
0.0
  0
LINE
  5
3CF7
330
1A
100
AcDbEntity
  8
寸法線
100
AcDbLine
 10
-4.552649885802
 20
294.602169378205
 30
0.0
 11
-4.552649885802
 21
348.602169378205
 31
0.0
  0
CIRCLE
  5
3CF8
330
1A
100
AcDbEntity
  8
寸法線
100
AcDbCircle
 10
135.647350114198
 20
305.602169378205
 30
0.0
 40
5.0
  0
CIRCLE
  5
3CF9
330
1A
100
AcDbEntity
  8
寸法線
100
AcDbCircle
 10
109.447350114198
 20
305.602169378205
 30
0.0
 40
5.0
  0
CIRCLE
  5
3CFA
330
1A
100
AcDbEntity
  8
寸法線
100
AcDbCircle
 10
83.247350114198
 20
305.602169378205
 30
0.0
 40
5.0
  0
CIRCLE
  5
3CFB
330
1A
100
AcDbEntity
  8
寸法線
100
AcDbCircle
 10
57.047350114198
 20
305.602169378205
 30
0.0
 40
5.0
  0
CIRCLE
  5
3CFC
330
1A
100
AcDbEntity
  8
寸法線
100
AcDbCircle
 10
30.847350114198
 20
305.602169378205
 30
0.0
 40
5.0
  0
CIRCLE
  5
3CFD
330
1A
100
AcDbEntity
  8
寸法線
100
AcDbCircle
 10
4.447350114198
 20
305.602169378205
 30
0.0
 40
5.0
  0
LINE
  5
3CFE
330
1A
100
AcDbEntity
  8
寸法線
100
AcDbLine
 10
142.647350114198
 20
296.602169378205
 30
0.0
 11
137.447350114198
 21
296.602169378205
 31
0.0
  0
LINE
  5
3CFF
330
1A
100
AcDbEntity
  8
寸法線
100
AcDbLine
 10
111.287350114198
 20
296.602169378205
 30
0.0
 11
133.447350114198
 21
296.602169378205
 31
0.0
  0
LINE
  5
3D00
330
1A
100
AcDbEntity
  8
寸法線
100
AcDbLine
 10
85.127350114198
 20
296.602169378205
 30
0.0
 11
107.287350114198
 21
296.602169378205
 31
0.0
  0
LINE
  5
3D01
330
1A
100
AcDbEntity
  8
寸法線
100
AcDbLine
 10
58.967350114198
 20
296.602169378205
 30
0.0
 11
81.127350114198
 21
296.602169378205
 31
0.0
  0
LINE
  5
3D02
330
1A
100
AcDbEntity
  8
寸法線
100
AcDbLine
 10
32.807350114198
 20
296.602169378205
 30
0.0
 11
54.967350114198
 21
296.602169378205
 31
0.0
  0
LINE
  5
3D03
330
1A
100
AcDbEntity
  8
寸法線
100
AcDbLine
 10
6.647350114198
 20
296.602169378205
 30
0.0
 11
28.807350114198
 21
296.602169378205
 31
0.0
  0
LINE
  5
3D04
330
1A
100
AcDbEntity
  8
寸法線
100
AcDbLine
 10
2.647350114198
 20
296.602169378205
 30
0.0
 11
-2.552649885802
 21
296.602169378205
 31
0.0
  0
LINE
  5
3D05
330
1A
100
AcDbEntity
  8
寸法線
100
AcDbLine
 10
109.287350114198
 20
294.602169378205
 30
0.0
 11
109.287350114198
 21
256.602169378205
 31
0.0
  0
LINE
  5
3D06
330
1A
100
AcDbEntity
  8
寸法線
100
AcDbLine
 10
83.127350114198
 20
294.602169378205
 30
0.0
 11
83.127350114198
 21
256.602169378205
 31
0.0
  0
LINE
  5
3D07
330
1A
100
AcDbEntity
  8
寸法線
100
AcDbLine
 10
56.967350114198
 20
294.602169378205
 30
0.0
 11
56.967350114198
 21
256.602169378205
 31
0.0
  0
LINE
  5
3D08
330
1A
100
AcDbEntity
  8
寸法線
100
AcDbLine
 10
30.807350114198
 20
294.602169378205
 30
0.0
 11
30.807350114198
 21
256.602169378205
 31
0.0
  0
CIRCLE
  5
3D09
330
1A
100
AcDbEntity
  8
寸法線
100
AcDbCircle
 10
135.447350114198
 20
296.602169378205
 30
0.0
 40
2.0
  0
CIRCLE
  5
3D0A
330
1A
100
AcDbEntity
  8
寸法線
100
AcDbCircle
 10
109.287350114198
 20
296.602169378205
 30
0.0
 40
2.0
  0
CIRCLE
  5
3D0B
330
1A
100
AcDbEntity
  8
寸法線
100
AcDbCircle
 10
83.127350114198
 20
296.602169378205
 30
0.0
 40
2.0
  0
CIRCLE
  5
3D0C
330
1A
100
AcDbEntity
  8
寸法線
100
AcDbCircle
 10
56.967350114198
 20
296.602169378205
 30
0.0
 40
2.0
  0
CIRCLE
  5
3D0D
330
1A
100
AcDbEntity
  8
寸法線
100
AcDbCircle
 10
30.807350114198
 20
296.602169378205
 30
0.0
 40
2.0
  0
CIRCLE
  5
3D0E
330
1A
100
AcDbEntity
  8
寸法線
100
AcDbCircle
 10
4.647350114198
 20
296.602169378205
 30
0.0
 40
2.0
  0
LINE
  5
3D0F
330
1A
100
AcDbEntity
  8
寸法線
100
AcDbLine
 10
135.447350114198
 20
294.602169378205
 30
0.0
 11
135.447350114198
 21
256.602169378205
 31
0.0
  0
LINE
  5
3D10
330
1A
100
AcDbEntity
  8
寸法線
100
AcDbLine
 10
4.647350114198
 20
294.602169378205
 30
0.0
 11
4.647350114198
 21
256.602169378205
 31
0.0
  0
LINE
  5
3D11
330
1A
100
AcDbEntity
  8
寸法線
100
AcDbLine
 10
-2.552649885802
 20
346.602169378205
 30
0.0
 11
-2.552649885802
 21
296.602169378205
 31
0.0
  0
LINE
  5
3D12
330
1A
100
AcDbEntity
  8
寸法線
100
AcDbLine
 10
142.647350114198
 20
346.602169378205
 30
0.0
 11
-2.552649885802
 21
346.602169378205
 31
0.0
  0
LINE
  5
3D13
330
1A
100
AcDbEntity
  8
寸法線
100
AcDbLine
 10
142.647350114198
 20
346.602169378205
 30
0.0
 11
142.647350114198
 21
296.602169378205
 31
0.0
  0
SPLINE
  5
3ECB
330
1A
100
AcDbEntity
  8
寸法線
 48
10.0
100
AcDbSpline
210
0.0
220
0.0
230
1.0
 70
  1064
 71
     3
 72
    13
 73
     9
 74
     7
 42
0.000000001
 43
0.0000000001
 44
0.0000000001
 40
0.0
 40
0.0
 40
0.0
 40
0.0
 40
3.86842211421227
 40
10.12254119268954
 40
15.16331027423529
 40
18.64952359630841
 40
20.50331406220848
 40
21.8476876304271
 40
21.8476876304271
 40
21.8476876304271
 40
21.8476876304271
 10
178.2251183539788
 20
376.3608097907512
 30
0.0
 10
179.375512829337
 20
376.8922229553376
 30
0.0
 10
182.385762259427
 20
378.2827774217437
 30
0.0
 10
183.1111479754563
 20
387.990184919364
 30
0.0
 10
178.8202719545688
 20
381.0082720205182
 30
0.0
 10
179.0081659867886
 20
377.4638892293525
 30
0.0
 10
181.2688369296787
 20
376.0753593273782
 30
0.0
 10
182.2687686513908
 20
376.5755597825086
 30
0.0
 10
182.6890978660126
 20
376.7858230033797
 30
0.0
 11
178.2251183539788
 21
376.3608097907512
 31
0.0
 11
181.3073897353775
 21
378.6983924706018
 31
0.0
 11
181.9982438006948
 21
384.9142372328371
 31
0.0
 11
179.2879713644857
 21
380.6640870878431
 31
0.0
 11
179.7662553497175
 21
377.2108382180871
 31
0.0
 11
181.4136747754203
 21
376.3608097907512
 31
0.0
 11
182.6890978660126
 21
376.7858230033797
 31
0.0
  0
LINE
  5
3ECD
330
1A
100
AcDbEntity
  8
下書線
 48
10.0
100
AcDbLine
 10
536.125980234818
 20
575.534428518342
 30
0.0
 11
-90.356905872954
 21
575.534428518342
 31
0.0
  0
LINE
  5
3FD7
330
1A
100
AcDbEntity
  8
外形線
100
AcDbLine
 10
268.123004793058
 20
507.330844094271
 30
0.0
 11
323.16483518331
 21
507.330844094271
 31
0.0
  0
LINE
  5
3FD8
330
1A
100
AcDbEntity
  8
外形線
100
AcDbLine
 10
261.545337672962
 20
477.330844094271
 30
0.0
 11
209.883652593967
 21
477.330844094271
 31
0.0
  0
MTEXT
  5
4242
330
1A
100
AcDbEntity
  8
寸法線
 48
10.0
100
AcDbMText
 10
256.570664421159
 20
581.310894679869
 30
0.0
 40
5.0
 41
47.557441667843
 71
     3
 72
     5
  1
2
  0
MTEXT
  5
4243
102
{ACAD_XDICTIONARY
360
4E18
102
}
330
1A
100
AcDbEntity
  8
寸法線
 48
10.0
100
AcDbMText
 10
258.910826508831
 20
576.499735822159
 30
0.0
 40
8.0
 41
47.557441667843
 71
     9
 72
     5
  1
取付ねじ\PG1 /"
1001
ACADANNOTATIVE
1000
AnnotativeData
1002
{
1070
     1
1070
     0
1002
}
  0
LINE
  5
4244
330
1A
100
AcDbEntity
  8
外形線
 48
10.0
100
AcDbLine
 10
337.16483518331
 20
569.830844094271
 30
0.0
 11
351.16483518331
 21
569.830844094271
 31
0.0
  0
LINE
  5
4245
330
1A
100
AcDbEntity
  8
外形線
 48
10.0
100
AcDbLine
 10
337.16483518331
 20
569.830844094271
 30
0.0
 11
337.16483518331
 21
414.830844094271
 31
0.0
  0
LINE
  5
4246
330
1A
100
AcDbEntity
  8
外形線
 48
10.0
100
AcDbLine
 10
337.16483518331
 20
414.830844094271
 30
0.0
 11
351.16483518331
 21
414.830844094271
 31
0.0
  0
LINE
  5
4247
330
1A
100
AcDbEntity
  8
外形線
 48
10.0
100
AcDbLine
 10
351.16483518331
 20
569.830844094271
 30
0.0
 11
351.16483518331
 21
414.830844094271
 31
0.0
  0
MTEXT
  5
4248
330
1A
100
AcDbEntity
  8
寸法線
 48
10.0
100
AcDbMText
 10
275.493622063975
 20
584.410997222386
 30
0.0
 40
8.0
 41
133.333333333333
 71
     1
 72
     5
  1
フランジ
  0
LINE
  5
4249
330
1A
100
AcDbEntity
  8
中心線
 48
10.0
100
AcDbLine
 10
332.980578948955
 20
557.330844094271
 30
0.0
 11
355.475462386033
 21
557.330844094271
 31
0.0
  0
LINE
  5
424A
330
1A
100
AcDbEntity
  8
中心線
 48
10.0
100
AcDbLine
 10
329.715342500217
 20
427.330844094271
 30
0.0
 11
357.190008622634
 21
427.330844094271
 31
0.0
  0
MTEXT
  5
424B
330
1A
100
AcDbEntity
  8
寸法線
 48
10.0
100
AcDbMText
 10
377.066452000864
 20
277.36477450191
 30
0.0
 40
8.0
 41
165.013333333333
 71
     1
 72
     5
  1
○印が今回の貴社の御仕様です。
  0
MTEXT
  5
424C
330
1A
100
AcDbEntity
  8
寸法線
 48
10.0
100
AcDbMText
 10
343.483759268624
 20
347.226158015079
 30
0.0
 40
8.0
 41
165.013333333333
 71
     1
 72
     5
  1
フランジサイズ
  0
MTEXT
  5
424D
330
1A
100
AcDbEntity
  8
寸法線
 48
10.0
100
AcDbMText
 10
317.250985394695
 20
331.339567130926
 30
0.0
 40
8.0
 41
165.013333333333
 71
     1
 72
     5
  1
JIS5K50A\PJIS5K65A\PJIS5K80A\PJIS5K100A
  0
MTEXT
  5
424E
330
1A
100
AcDbEntity
  8
寸法線
 48
10.0
100
AcDbMText
 10
394.030289833093
 20
331.339567130926
 30
0.0
 40
8.0
 41
165.013333333333
 71
     1
 72
     5
  1
JIS10K50A\PJIS10K65A\PJIS10K80A\PJIS10K100A
  0
LINE
  5
424F
330
1A
100
AcDbEntity
  8
寸法線
 48
10.0
100
AcDbLine
 10
293.987158451243
 20
350.107983042573
 30
0.0
 11
516.492325220353
 21
350.107983042573
 31
0.0
  0
LINE
  5
4250
330
1A
100
AcDbEntity
  8
寸法線
 48
10.0
100
AcDbLine
 10
293.987158451243
 20
320.647903603891
 30
0.0
 11
451.850911704344
 21
320.647903603891
 31
0.0
  0
LINE
  5
4251
330
1A
100
AcDbEntity
  8
寸法線
 48
10.0
100
AcDbLine
 10
293.987158451243
 20
334.978208663646
 30
0.0
 11
516.492325220353
 21
334.978208663646
 31
0.0
  0
LINE
  5
4252
330
1A
100
AcDbEntity
  8
寸法線
 48
10.0
100
AcDbLine
 10
293.987158451243
 20
307.443261072815
 30
0.0
 11
516.492325220353
 21
307.443261072815
 31
0.0
  0
LINE
  5
4253
330
1A
100
AcDbEntity
  8
寸法線
 48
10.0
100
AcDbLine
 10
293.987158451243
 20
293.657238781486
 30
0.0
 11
451.850911704344
 21
293.657238781486
 31
0.0
  0
LINE
  5
4254
330
1A
100
AcDbEntity
  8
寸法線
 48
10.0
100
AcDbLine
 10
293.987158451243
 20
281.480212124742
 30
0.0
 11
516.492325220353
 21
281.480212124742
 31
0.0
  0
LINE
  5
4255
330
1A
100
AcDbEntity
  8
寸法線
 48
10.0
100
AcDbLine
 10
293.987158451243
 20
350.107983042573
 30
0.0
 11
293.987158451243
 21
281.480212124742
 31
0.0
  0
LINE
  5
4256
330
1A
100
AcDbEntity
  8
寸法線
 48
10.0
100
AcDbLine
 10
310.563416437476
 20
334.978208663646
 30
0.0
 11
310.563416437476
 21
281.480212124742
 31
0.0
  0
LINE
  5
4257
330
1A
100
AcDbEntity
  8
寸法線
 48
10.0
100
AcDbLine
 10
371.31639790718
 20
334.978208663646
 30
0.0
 11
371.31639790718
 21
281.480212124742
 31
0.0
  0
LINE
  5
4258
330
1A
100
AcDbEntity
  8
寸法線
 48
10.0
100
AcDbLine
 10
388.601765072629
 20
334.978208663646
 30
0.0
 11
388.601765072629
 21
281.480212124742
 31
0.0
  0
LINE
  5
4259
330
1A
100
AcDbEntity
  8
寸法線
 48
10.0
100
AcDbLine
 10
451.850911704345
 20
350.107983042573
 30
0.0
 11
451.850911704345
 21
281.480212124742
 31
0.0
  0
MTEXT
  5
425A
330
1A
100
AcDbEntity
  8
寸法線
 48
10.0
100
AcDbMText
 10
474.521101844934
 20
347.226158015079
 30
0.0
 40
8.0
 41
165.013333333333
 71
     1
 72
     5
  1
材質
  0
LINE
  5
425B
330
1A
100
AcDbEntity
  8
寸法線
 48
10.0
100
AcDbLine
 10
469.092596426573
 20
334.978208663646
 30
0.0
 11
469.092596426573
 21
281.480212124742
 31
0.0
  0
MTEXT
  5
425C
330
1A
100
AcDbEntity
  8
寸法線
 48
10.0
100
AcDbMText
 10
475.206096898015
 20
325.496052701664
 30
0.0
 40
8.0
 41
165.013333333333
 71
     1
 72
     5
  1
SUS304
  0
MTEXT
  5
425D
330
1A
100
AcDbEntity
  8
寸法線
 48
10.0
100
AcDbMText
 10
475.206096898015
 20
297.825206250134
 30
0.0
 40
8.0
 41
165.013333333333
 71
     1
 72
     5
  1
SUS316
  0
LINE
  5
425E
330
1A
100
AcDbEntity
  8
寸法線
 48
10.0
100
AcDbLine
 10
516.492325220353
 20
350.107983042573
 30
0.0
 11
516.492325220353
 21
281.480212124742
 31
0.0
  0
MTEXT
  5
425F
330
1A
100
AcDbEntity
  8
寸法線
 48
10.0
100
AcDbMText
 10
250.401151143717
 20
585.350094484749
 30
0.0
 40
5.0
 41
47.557441667843
 71
     3
 72
     5
  1
1 
  0
LEADER
  5
4260
330
1A
100
AcDbEntity
  8
寸法線
 48
10.0
100
AcDbLeader
  3
ISO-25
 76
     3
 10
335.629589247787
 20
516.290507959818
 30
0.0
 10
258.800017992643
 20
575.606478254021
 30
0.0
 10
249.607625903699
 20
575.606478254021
 30
0.0
1001
ACAD
1000
DSTYLE
1002
{
1070
     5
1000
OPEN30
1070
   147
1040
0.625
1070
    77
1070
     0
1070
    41
1040
6.0
1070
    47
1040
0.1
1070
    48
1040
0.1
1070
    73
1070
     0
1070
   140
1040
5.0
1070
   271
1070
     1
1070
   272
1070
     1
1070
   341
1005
2AF4
1070
   342
1005
2AF4
1002
}
  0
LEADER
  5
4261
330
1A
100
AcDbEntity
  8
寸法線
 48
10.0
100
AcDbLeader
  3
ISO-25
 76
     3
 10
337.16483518331
 20
559.267831629814
 30
0.0
 10
312.459072250821
 20
575.534428518342
 30
0.0
 10
302.052588328997
 20
575.534428518342
 30
0.0
1001
ACAD
1000
DSTYLE
1002
{
1070
     5
1000
OPEN30
1070
   147
1040
0.625
1070
    77
1070
     0
1070
    41
1040
6.0
1070
    47
1040
0.1
1070
    48
1040
0.1
1070
    73
1070
     0
1070
   140
1040
5.0
1070
   271
1070
     1
1070
   272
1070
     1
1070
   341
1005
2AF4
1070
   342
1005
2AF4
1002
}
  0
LINE
  5
4264
330
1A
100
AcDbEntity
  8
外形線
 48
10.0
100
AcDbLine
 10
323.16483518331
 20
507.330844094271
 30
0.0
 11
323.16483518331
 21
477.330844094271
 31
0.0
  0
DIMENSION
  5
4271
330
1A
100
AcDbEntity
  8
寸法線
 48
10.0
100
AcDbDimension
  2
*D14
 10
353.16483518331
 20
396.466773515649
 30
0.0
 11
341.987773234087
 21
396.466773515649
 31
0.0
 70
   160
  3
ISO-25
100
AcDbAlignedDimension
 13
332.16483518331
 23
470.316030999196
 33
0.0
 14
353.16483518331
 24
464.830844094271
 34
0.0
100
AcDbRotatedDimension
1001
ACAD
1000
DSTYLE
1002
{
1070
     5
1000
OPEN30
1070
    41
1040
6.0
1070
    47
1040
0.1
1070
    48
1040
0.1
1070
    73
1070
     0
1070
   140
1040
8.0
1070
   271
1070
     1
1070
   272
1070
     1
1070
   341
1005
2AF4
1002
}
  0
LEADER
  5
4272
330
1A
100
AcDbEntity
  8
寸法線
 48
10.0
100
AcDbLeader
  3
ISO-25
 76
     3
 10
352.16482018331
 20
519.830844094271
 30
0.0
 10
369.402035258544
 20
575.534428518342
 30
0.0
 10
360.58628990463
 20
575.534428518342
 30
0.0
1001
ACAD
1000
DSTYLE
1002
{
1070
     5
1000
OPEN30
1070
   147
1040
0.625
1070
    77
1070
     0
1070
    41
1040
6.0
1070
    47
1040
0.1
1070
    48
1040
0.1
1070
    73
1070
     0
1070
   140
1040
5.0
1070
   271
1070
     1
1070
   272
1070
     1
1070
   341
1005
2AF4
1070
   342
1005
2AF4
1002
}
  0
MTEXT
  5
4273
330
1A
100
AcDbEntity
  8
寸法線
 48
10.0
100
AcDbMText
 10
324.409125578426
 20
583.805135360661
 30
0.0
 40
8.0
 41
49.592740337165
 71
     1
 72
     5
  1
ガスケット
  0
LEADER
  5
4274
330
1A
100
AcDbEntity
  8
寸法線
 48
10.0
100
AcDbLeader
  3
ISO-25
 76
     3
 10
411.490844290561
 20
443.162788351828
 30
0.0
 10
384.733482791796
 20
398.524093367617
 30
0.0
 10
375.118253095762
 20
398.524093367617
 30
0.0
1001
ACAD
1000
DSTYLE
1002
{
1070
     5
1000
OPEN30
1070
   147
1040
0.625
1070
    77
1070
     0
1070
    41
1040
6.0
1070
    47
1040
0.1
1070
    48
1040
0.1
1070
    73
1070
     0
1070
   140
1040
5.0
1070
   271
1070
     1
1070
   272
1070
     1
1070
   341
1005
2AF4
1070
   342
1005
2AF4
1002
}
  0
LEADER
  5
4275
330
1A
100
AcDbEntity
  8
寸法線
 48
10.0
100
AcDbLeader
  3
ISO-25
 76
     3
 10
433.121048019812
 20
412.374440479286
 30
0.0
 10
475.792576732806
 20
374.830844094271
 30
0.0
 10
486.154624394511
 20
374.830844094271
 30
0.0
1001
ACAD
1000
DSTYLE
1002
{
1070
     5
1000
OPEN30
1070
   147
1040
0.625
1070
    77
1070
     0
1070
    41
1040
6.0
1070
    47
1040
0.1
1070
    48
1040
0.1
1070
    73
1070
     0
1070
   140
1040
5.0
1070
   271
1070
     1
1070
   272
1070
     1
1070
   341
1005
2AF4
1070
   342
1005
2AF4
1002
}
  0
LEADER
  5
4276
330
1A
100
AcDbEntity
  8
寸法線
 48
10.0
100
AcDbLeader
  3
ISO-25
 76
     3
 10
360.356596829814
 20
518.888956476994
 30
0.0
 10
383.249526268992
 20
575.534428518342
 30
0.0
 10
394.232426594217
 20
575.534428518342
 30
0.0
1001
ACAD
1000
DSTYLE
1002
{
1070
     5
1000
OPEN30
1070
   147
1040
0.625
1070
    77
1070
     0
1070
    41
1040
6.0
1070
    47
1040
0.1
1070
    48
1040
0.1
1070
    73
1070
     0
1070
   140
1040
5.0
1070
   271
1070
     1
1070
   272
1070
     1
1070
   341
1005
2AF4
1070
   342
1005
2AF4
1002
}
  0
MTEXT
  5
4277
102
{ACAD_XDICTIONARY
360
4D41
102
}
330
1A
100
AcDbEntity
  8
寸法線
 48
10.0
100
AcDbMText
 10
383.888013589727
 20
584.3821556924
 30
0.0
 40
8.0
 41
49.592740337165
 71
     1
 72
     5
  1
平径46
1001
ACADANNOTATIVE
1000
AnnotativeData
1002
{
1070
     1
1070
     0
1002
}
  0
LINE
  5
4278
330
1A
100
AcDbEntity
  8
外形線
100
AcDbLine
 10
353.16483518331
 20
519.830844094271
 30
0.0
 11
353.16483518331
 21
464.830844094271
 31
0.0
  0
LINE
  5
4279
330
1A
100
AcDbEntity
  8
外形線
100
AcDbLine
 10
351.16483518331
 20
519.830844094271
 30
0.0
 11
353.16480518331
 21
519.830844094271
 31
0.0
  0
LINE
  5
427A
330
1A
100
AcDbEntity
  8
外形線
100
AcDbLine
 10
351.16483518331
 20
464.830844094271
 30
0.0
 11
353.16480518331
 21
464.830844094271
 31
0.0
  0
LINE
  5
427B
330
1A
100
AcDbEntity
  8
外形線
100
AcDbLine
 10
351.16483518331
 20
519.830844094271
 30
0.0
 11
351.16483518331
 21
464.830844094271
 31
0.0
  0
LINE
  5
42D4
330
1A
100
AcDbEntity
  8
細線
100
AcDbLine
 10
334.094343312265
 20
469.98408879746
 30
0.0
 11
337.16483518331
 21
469.98408879746
 31
0.0
  0
LINE
  5
42D7
330
1A
100
AcDbEntity
  8
外形線
100
AcDbLine
 10
353.16483518331
 20
466.374541573263
 30
0.0
 11
353.16483518331
 21
518.28714661528
 31
0.0
  0
LINE
  5
42F2
330
1A
100
AcDbEntity
  8
細線
100
AcDbLine
 10
334.094343312265
 20
514.793028968221
 30
0.0
 11
337.16483518331
 21
514.793028968221
 31
0.0
  0
LINE
  5
42F3
330
1A
100
AcDbEntity
  8
外形線
100
AcDbLine
 10
332.16483518331
 20
514.236154515786
 30
0.0
 11
329.16483518331
 21
514.236154515786
 31
0.0
  0
LINE
  5
42F4
330
1A
100
AcDbEntity
  8
外形線
100
AcDbLine
 10
329.16483518331
 20
514.236154515786
 30
0.0
 11
323.164835183311
 21
507.330844094271
 31
0.0
  0
LINE
  5
42F5
330
1A
100
AcDbEntity
  8
外形線
100
AcDbLine
 10
332.16483518331
 20
514.345657189346
 30
0.0
 11
334.094343312265
 21
516.290507959817
 31
0.0
  0
LINE
  5
42F6
330
1A
100
AcDbEntity
  8
外形線
100
AcDbLine
 10
337.16483518331
 20
516.290507959818
 30
0.0
 11
334.094343312265
 21
516.290507959818
 31
0.0
  0
LINE
  5
42FB
330
1A
100
AcDbEntity
  8
外形線
100
AcDbLine
 10
332.16483518331
 20
470.425533672756
 30
0.0
 11
329.16483518331
 21
470.425533672756
 31
0.0
  0
LINE
  5
42FC
330
1A
100
AcDbEntity
  8
外形線
100
AcDbLine
 10
329.16483518331
 20
470.425533672756
 30
0.0
 11
329.16483518331
 21
514.236154515786
 31
0.0
  0
LINE
  5
42FD
330
1A
100
AcDbEntity
  8
外形線
100
AcDbLine
 10
337.16483518331
 20
468.371180228725
 30
0.0
 11
334.094343312265
 21
468.371180228725
 31
0.0
  0
LINE
  5
42FE
330
1A
100
AcDbEntity
  8
外形線
100
AcDbLine
 10
332.16483518331
 20
470.316030999196
 30
0.0
 11
332.16483518331
 21
514.345657189346
 31
0.0
  0
LINE
  5
4307
330
1A
100
AcDbEntity
  8
外形線
100
AcDbLine
 10
329.16483518331
 20
470.425533672756
 30
0.0
 11
323.16483518331
 21
477.330844094271
 31
0.0
  0
LINE
  5
4309
330
1A
100
AcDbEntity
  8
外形線
100
AcDbLine
 10
332.16483518331
 20
470.316030999196
 30
0.0
 11
334.094343312265
 21
468.371180228725
 31
0.0
  0
LINE
  5
430A
330
1A
100
AcDbEntity
  8
外形線
100
AcDbLine
 10
334.094343312265
 20
516.290507959817
 30
0.0
 11
334.094343312265
 21
468.371180228725
 31
0.0
  0
LEADER
  5
430C
330
1A
100
AcDbEntity
  8
寸法線
 48
10.0
100
AcDbLeader
  3
ISO-25
 76
     3
 10
420.266199174618
 20
539.388772592603
 30
0.0
 10
431.572055950629
 20
575.534428518342
 30
0.0
 10
442.283635373706
 20
575.534428518342
 30
0.0
1001
ACAD
1000
DSTYLE
1002
{
1070
     5
1000
OPEN30
1070
   147
1040
0.625
1070
    77
1070
     0
1070
    41
1040
6.0
1070
    47
1040
0.1
1070
    48
1040
0.1
1070
    73
1070
     0
1070
   140
1040
5.0
1070
   271
1070
     1
1070
   272
1070
     1
1070
   341
1005
2AF4
1070
   342
1005
2AF4
1002
}
  0
MTEXT
  5
430D
330
1A
100
AcDbEntity
  8
寸法線
 48
10.0
100
AcDbMText
 10
431.627858061231
 20
584.3821556924
 30
0.0
 40
8.0
 41
49.592740337165
 71
     1
 72
     5
  1
アルミ鋳物
  0
MTEXT
  5
430E
330
1A
100
AcDbEntity
  8
寸法線
 48
10.0
100
AcDbMText
 10
386.980249870868
 20
422.81987748168
 30
0.0
 40
8.0
 41
42.299427293917
 71
     3
 72
     5
  1
2×NPT 1/2"
  0
MTEXT
  5
430F
330
1A
100
AcDbEntity
  8
寸法線
 48
10.0
100
AcDbMText
 10
477.28541506953
 20
396.27598995254
 30
0.0
 40
8.0
 41
60.129060420842
 71
     1
 72
     5
  1
コードロック\P2×M20
  0
DIMENSION
  5
4310
330
1A
100
AcDbEntity
  8
寸法線
 48
10.0
100
AcDbDimension
  2
*D15
 10
353.16483518331
 20
374.830844094271
 30
0.0
 11
410.914835183306
 21
379.460010760938
 31
0.0
 70
    32
  1
120
  3
ISO-25
100
AcDbAlignedDimension
 13
468.664835183302
 23
447.798173370621
 33
0.0
 14
353.16483518331
 24
464.830844094271
 34
0.0
100
AcDbRotatedDimension
1001
ACAD
1000
DSTYLE
1002
{
1070
     5
1000
OPEN30
1070
    41
1040
6.0
1070
    47
1040
0.1
1070
    48
1040
0.1
1070
    73
1070
     0
1070
   140
1040
8.0
1070
   271
1070
     1
1070
   272
1070
     1
1070
   341
1005
2AF4
1002
}
  0
LINE
  5
4314
330
1A
100
AcDbEntity
  8
中心線
 48
10.0
100
AcDbLine
 10
417.487926645954
 20
437.173416094271
 30
0.0
 11
417.487926645954
 21
399.773416094271
 31
0.0
  0
DIMENSION
  5
4315
330
1A
100
AcDbEntity
  8
寸法線
 48
10.0
100
AcDbDimension
  2
*D16
 10
509.742022482611
 20
542.499107767979
 30
0.0
 11
505.117022482611
 21
492.215355766067
 31
0.0
 70
    32
  1
φ100
  3
ISO-25
100
AcDbAlignedDimension
 13
440.947627995228
 23
441.931603764155
 33
0.0
 14
440.947627995228
 24
542.499107767979
 34
0.0
 50
90.0
100
AcDbRotatedDimension
1001
ACAD
1000
DSTYLE
1002
{
1070
     5
1000
OPEN30
1070
    41
1040
6.0
1070
    47
1040
0.1
1070
    48
1040
0.1
1070
    73
1070
     0
1070
   140
1040
8.0
1070
   271
1070
     1
1070
   272
1070
     1
1070
   341
1005
2AF4
1002
}
  0
DIMENSION
  5
4316
330
1A
100
AcDbEntity
  8
寸法線
 48
10.0
100
AcDbDimension
  2
*D17
 10
488.058988652513
 20
403.330844094271
 30
0.0
 11
488.058988652513
 21
451.180591016996
 31
0.0
 70
   160
  1
89
  3
ISO-25
100
AcDbAlignedDimension
 13
468.664081678798
 23
492.330844094271
 33
0.0
 14
426.09151964431
 24
403.330844094271
 34
0.0
 50
90.0
100
AcDbRotatedDimension
1001
ACAD
1000
DSTYLE
1002
{
1070
     5
1000
OPEN30
1070
    41
1040
6.0
1070
    47
1040
0.1
1070
    48
1040
0.1
1070
    73
1070
     0
1070
   140
1040
8.0
1070
   271
1070
     1
1070
   272
1070
     1
1070
   341
1005
2AF4
1002
}
  0
ARC
  5
4317
330
1A
100
AcDbEntity
  8
外形線
100
AcDbCircle
 10
389.524705037742
 20
538.351994200811
 30
0.0
 40
1.036778391792
100
AcDbArc
 50
90.0
 51
180.0
  0
ARC
  5
4318
330
1A
100
AcDbEntity
  8
外形線
100
AcDbCircle
 10
387.451148254158
 20
537.187727547439
 30
0.0
 40
1.036778391792
100
AcDbArc
 50
305.000000000001
 51
0.0
  0
ARC
  5
4319
330
1A
100
AcDbEntity
  8
外形線
100
AcDbCircle
 10
389.524705037742
 20
446.078717331323
 30
0.0
 40
1.036778391792
100
AcDbArc
 50
180.0
 51
270.0
  0
ARC
  5
431A
330
1A
100
AcDbEntity
  8
外形線
100
AcDbCircle
 10
387.451148254158
 20
447.242983984697
 30
0.0
 40
1.036778391792
100
AcDbArc
 50
0.0
 51
55.0
  0
LINE
  5
431B
330
1A
100
AcDbEntity
  8
外形線
100
AcDbLine
 10
367.54835847632
 20
525.080844094271
 30
0.0
 11
367.54835847632
 21
459.580844094271
 31
0.0
  0
ARC
  5
431C
330
1A
100
AcDbEntity
  8
外形線
100
AcDbCircle
 10
381.798966839448
 20
448.669338588853
 30
0.0
 40
3.110335175376
100
AcDbArc
 50
0.0
 51
55.0
  0
LINE
  5
431D
330
1A
100
AcDbEntity
  8
外形線
100
AcDbLine
 10
384.909302014824
 20
448.669338588853
 30
0.0
 11
384.909302014824
 21
447.438095555979
 31
0.0
  0
LINE
  5
431E
330
1A
100
AcDbEntity
  8
外形線
100
AcDbLine
 10
468.664835183302
 20
473.254827687141
 30
0.0
 11
468.664835183302
 21
485.994685415317
 31
0.0
  0
LINE
  5
431F
330
1A
100
AcDbEntity
  8
外形線
100
AcDbLine
 10
441.086529961634
 20
442.449992960051
 30
0.0
 11
441.086529961634
 21
492.215355766069
 31
0.0
  0
LINE
  5
4320
330
1A
100
AcDbEntity
  8
外形線
100
AcDbLine
 10
388.48792664595
 20
537.187727547439
 30
0.0
 11
388.48792664595
 21
447.242983984697
 31
0.0
  0
LINE
  5
4321
330
1A
100
AcDbEntity
  8
外形線
100
AcDbLine
 10
430.304034686998
 20
461.340837906657
 30
0.0
 11
430.304034686998
 21
539.909328413165
 31
0.0
  0
LINE
  5
4322
330
1A
100
AcDbEntity
  8
外形線
100
AcDbLine
 10
435.487926645958
 20
432.117622486063
 30
0.0
 11
435.487926645958
 21
541.541794804553
 31
0.0
  0
ARC
  5
4323
330
1A
100
AcDbEntity
  8
外形線
100
AcDbCircle
 10
434.451148254166
 20
432.117622486063
 30
0.0
 40
1.036778391792
100
AcDbArc
 50
270.0
 51
0.0
  0
LINE
  5
4324
330
1A
100
AcDbEntity
  8
外形線
100
AcDbLine
 10
400.192668630568
 20
431.080844094271
 30
0.0
 11
434.451148254166
 21
431.080844094271
 31
0.0
  0
LINE
  5
4325
330
1A
100
AcDbEntity
  8
外形線
100
AcDbLine
 10
399.48792664595
 20
465.503949991787
 30
0.0
 11
426.92941591772
 21
465.503949991787
 31
0.0
  0
ARC
  5
4326
330
1A
100
AcDbEntity
  8
外形線
100
AcDbCircle
 10
397.414369862366
 20
442.968382155947
 30
0.0
 40
2.073556783584
100
AcDbArc
 50
0.0
 51
90.0
  0
LINE
  5
4327
330
1A
100
AcDbEntity
  8
外形線
100
AcDbLine
 10
399.48792664595
 20
432.117622486063
 30
0.0
 11
399.48792664595
 21
465.503949991787
 31
0.0
  0
ARC
  5
4328
330
1A
100
AcDbEntity
  8
外形線
100
AcDbCircle
 10
400.524705037742
 20
432.117622486063
 30
0.0
 40
1.036778391792
100
AcDbArc
 50
180.0
 51
270.0
  0
ARC
  5
4329
330
1A
100
AcDbEntity
  8
外形線
100
AcDbCircle
 10
400.772934352082
 20
434.191179269647
 30
0.0
 40
3.110335175376
100
AcDbArc
 50
224.999999999993
 51
259.247872764004
  0
LINE
  5
432A
330
1A
100
AcDbEntity
  8
外形線
100
AcDbLine
 10
389.524705037742
 20
445.041938939531
 30
0.0
 11
397.414369862366
 21
445.041938939531
 31
0.0
  0
LINE
  5
432B
330
1A
100
AcDbEntity
  8
外形線
100
AcDbLine
 10
388.48792664595
 20
447.242983984697
 30
0.0
 11
388.48792664595
 21
446.078717331323
 31
0.0
  0
LINE
  5
432C
330
1A
100
AcDbEntity
  8
外形線
100
AcDbLine
 10
446.270421920596
 20
472.218049295349
 30
0.0
 11
467.62805679151
 21
472.218049295349
 31
0.0
  0
LINE
  5
432D
330
1A
100
AcDbEntity
  8
外形線
100
AcDbLine
 10
441.086529961634
 20
442.449992960051
 30
0.0
 11
464.734764770318
 21
443.656743278465
 31
0.0
  0
LINE
  5
432E
330
1A
100
AcDbEntity
  8
外形線
100
AcDbLine
 10
446.270421920594
 20
448.028399789419
 30
0.0
 11
463.480943224342
 21
448.028399789419
 31
0.0
  0
LINE
  5
432F
330
1A
100
AcDbEntity
  8
外形線
100
AcDbLine
 10
446.270421920594
 20
447.211221026335
 30
0.0
 11
465.554500007926
 21
447.211221026335
 31
0.0
  0
LINE
  5
4330
330
1A
100
AcDbEntity
  8
外形線
100
AcDbLine
 10
446.270421920596
 20
453.298114324443
 30
0.0
 11
465.554500007926
 21
453.298114324443
 31
0.0
  0
LINE
  5
4331
330
1A
100
AcDbEntity
  8
外形線
100
AcDbLine
 10
446.270421920594
 20
463.805023913833
 30
0.0
 11
463.999332420238
 21
463.805023913833
 31
0.0
  0
LINE
  5
4332
330
1A
100
AcDbEntity
  8
外形線
100
AcDbLine
 10
446.270421920594
 20
463.239285041481
 30
0.0
 11
465.554500007926
 21
463.239285041481
 31
0.0
  0
LINE
  5
4333
330
1A
100
AcDbEntity
  8
外形線
100
AcDbLine
 10
436.006315841852
 20
441.931603764155
 30
0.0
 11
440.947627995228
 21
441.931603764155
 31
0.0
  0
LINE
  5
4334
330
1A
100
AcDbEntity
  8
外形線
100
AcDbLine
 10
435.487926645958
 20
442.449992960051
 30
0.0
 11
436.006315841852
 21
441.931603764155
 31
0.0
  0
ARC
  5
4335
330
1A
100
AcDbEntity
  8
外形線
100
AcDbCircle
 10
440.049751569842
 20
442.449992960051
 30
0.0
 40
1.036778391792
100
AcDbArc
 50
330.000000000007
 51
0.0
  0
LWPOLYLINE
  5
4336
330
1A
100
AcDbEntity
  8
外形線
100
AcDbPolyline
 90
       18
 70
     0
 43
0.0
 10
446.270421920594
 20
447.211221026335
 10
445.31699932419
 20
447.263041489047
 10
444.396044390802
 20
447.416738193473
 10
443.538919136124
 20
447.667077182685
 10
442.774811932692
 20
448.005533462653
 10
442.129743534878
 20
448.420581310697
 10
441.625680973294
 20
448.898086770147
 10
441.279789493916
 20
449.421788965285
 10
441.103848016224
 20
449.973853845967
 10
441.103848016224
 20
450.535481504813
 10
441.279789493916
 20
451.087546385495
 10
441.625680973294
 20
451.611248580633
 10
442.129743534878
 20
452.088754040083
 10
442.774811932692
 20
452.503801888127
 10
443.538919136124
 20
452.842258168095
 10
444.396044390802
 20
453.092597157307
 10
445.31699932419
 20
453.246293861733
 10
446.270421920594
 20
453.298114324443
  0
LWPOLYLINE
  5
4337
330
1A
100
AcDbEntity
  8
外形線
100
AcDbPolyline
 90
        8
 70
     0
 43
0.0
 10
446.270421920594
 20
448.028399789419
 10
445.261566174252
 20
448.086481493959
 10
444.291216811062
 20
448.258509723379
 10
443.396410488152
 20
448.537918439927
 10
442.611300507656
 20
448.914043067289
 10
441.965853240716
 20
449.372527540129
 10
441.484704359834
 20
449.895872251739
 10
441.186218535306
 20
450.464101985589
  0
LWPOLYLINE
  5
4338
330
1A
100
AcDbEntity
  8
外形線
100
AcDbPolyline
 90
        8
 70
     0
 43
0.0
 10
446.270421920594
 20
463.805023913833
 10
445.279963247346
 20
463.881492776235
 10
444.323246076096
 20
464.108294333729
 10
443.432862452544
 20
464.477702241527
 10
442.639144667802
 20
464.977132049623
 10
441.969131942124
 20
465.589569911483
 10
441.445649292172
 20
466.294152186955
 10
441.086529961634
 20
467.066876194361
  0
LWPOLYLINE
  5
4339
330
1A
100
AcDbEntity
  8
外形線
100
AcDbPolyline
 90
       18
 70
     0
 43
0.0
 10
446.270421920594
 20
463.239285041481
 10
445.317042002852
 20
463.315725303437
 10
444.396128294758
 20
463.542443007865
 10
443.539041408122
 20
463.911717555259
 10
442.77496840891
 20
464.410973743801
 10
442.129928886704
 20
465.023210002783
 10
441.625888888792
 20
465.727577360703
 10
441.280012892776
 20
466.500089431983
 10
441.104079290864
 20
467.314439244559
 10
441.104079290864
 20
468.142895092271
 10
441.280012892776
 20
468.957244904847
 10
441.625888888792
 20
469.729756976127
 10
442.129928886704
 20
470.434124334047
 10
442.77496840891
 20
471.046360593029
 10
443.539041408122
 20
471.545616781573
 10
444.396128294758
 20
471.914891328965
 10
445.317042002852
 20
472.141609033393
 10
446.270421920594
 20
472.218049295349
  0
ARC
  5
433A
330
1A
100
AcDbEntity
  8
外形線
100
AcDbCircle
 10
464.517721616134
 20
447.798173370621
 30
0.0
 40
4.147113567168
100
AcDbArc
 50
272.999999999999
 51
0.0
  0
LINE
  5
433B
330
1A
100
AcDbEntity
  8
外形線
100
AcDbLine
 10
468.664835183302
 20
467.421623953051
 30
0.0
 11
468.664835183302
 21
447.798173370621
 31
0.0
  0
ARC
  5
433C
330
1A
100
AcDbEntity
  8
外形線
100
AcDbCircle
 10
463.480943224342
 20
450.101956573003
 30
0.0
 40
2.073556783584
100
AcDbArc
 50
270.0
 51
0.0
  0
LINE
  5
433D
330
1A
100
AcDbEntity
  8
外形線
100
AcDbLine
 10
465.554500007926
 20
450.101956573003
 30
0.0
 11
465.554500007926
 21
453.298114324443
 31
0.0
  0
ARC
  5
433E
330
1A
100
AcDbEntity
  8
外形線
100
AcDbCircle
 10
465.554500007926
 20
450.321556201711
 30
0.0
 40
3.110335175376
100
AcDbArc
 50
270.0
 51
0.0
  0
ARC
  5
433F
330
1A
100
AcDbEntity
  8
外形線
100
AcDbCircle
 10
465.554500007926
 20
456.408449499819
 30
0.0
 40
3.110335175376
100
AcDbArc
 50
270.0
 51
0.0
  0
ARC
  5
4340
330
1A
100
AcDbEntity
  8
外形線
100
AcDbCircle
 10
463.999332420238
 20
465.360191501521
 30
0.0
 40
1.555167587688
100
AcDbArc
 50
270.0
 51
0.0
  0
LINE
  5
4341
330
1A
100
AcDbEntity
  8
外形線
100
AcDbLine
 10
465.554500007926
 20
465.360191501521
 30
0.0
 11
465.554500007926
 21
472.218049295349
 31
0.0
  0
ARC
  5
4342
330
1A
100
AcDbEntity
  8
外形線
100
AcDbCircle
 10
465.554500007926
 20
466.349620216857
 30
0.0
 40
3.110335175376
100
AcDbArc
 50
270.0
 51
0.0
  0
ARC
  5
4343
330
1A
100
AcDbEntity
  8
外形線
100
AcDbCircle
 10
467.62805679151
 20
473.254827687141
 30
0.0
 40
1.036778391792
100
AcDbArc
 50
270.0
 51
0.0
  0
ARC
  5
4344
330
1A
100
AcDbEntity
  8
外形線
100
AcDbCircle
 10
467.62805679151
 20
467.421623953051
 30
0.0
 40
1.036778391792
100
AcDbArc
 50
0.0
 51
52.864563529744
  0
LINE
  5
4345
330
1A
100
AcDbEntity
  8
外形線
100
AcDbLine
 10
468.253961113972
 20
468.248154782971
 30
0.0
 11
465.554500007926
 21
470.292366944737
 31
0.0
  0
LINE
  5
4346
330
1A
100
AcDbEntity
  8
外形線
100
AcDbLine
 10
389.524705037742
 20
539.388772592603
 30
0.0
 11
427.349404332656
 21
539.388772592603
 31
0.0
  0
LINE
  5
4347
330
1A
100
AcDbEntity
  8
外形線
100
AcDbLine
 10
388.48792664595
 20
537.187727547439
 30
0.0
 11
388.48792664595
 21
538.351994200811
 31
0.0
  0
LINE
  5
4348
330
1A
100
AcDbEntity
  8
外形線
100
AcDbLine
 10
465.554500007926
 20
534.328754959133
 30
0.0
 11
465.554500007926
 21
531.132597207693
 31
0.0
  0
LINE
  5
4349
330
1A
100
AcDbEntity
  8
外形線
100
AcDbLine
 10
468.664835183302
 20
517.009087579085
 30
0.0
 11
468.664835183302
 21
536.632538161515
 31
0.0
  0
LINE
  5
434A
330
1A
100
AcDbEntity
  8
外形線
100
AcDbLine
 10
441.086529961634
 20
541.980718572083
 30
0.0
 11
441.086529961634
 21
492.215355766069
 31
0.0
  0
LINE
  5
434B
330
1A
100
AcDbEntity
  8
外形線
100
AcDbLine
 10
446.270421920596
 20
512.212662236787
 30
0.0
 11
467.62805679151
 21
512.212662236787
 31
0.0
  0
LINE
  5
434C
330
1A
100
AcDbEntity
  8
外形線
100
AcDbLine
 10
446.270421920594
 20
520.625687618303
 30
0.0
 11
463.999332420238
 21
520.625687618303
 31
0.0
  0
LINE
  5
434D
330
1A
100
AcDbEntity
  8
外形線
100
AcDbLine
 10
446.270421920594
 20
521.191426490655
 30
0.0
 11
465.554500007926
 21
521.191426490655
 31
0.0
  0
LINE
  5
434E
330
1A
100
AcDbEntity
  8
外形線
100
AcDbLine
 10
446.270421920596
 20
531.132597207693
 30
0.0
 11
465.554500007926
 21
531.132597207693
 31
0.0
  0
LINE
  5
434F
330
1A
100
AcDbEntity
  8
外形線
100
AcDbLine
 10
446.270421920594
 20
497.399247725027
 30
0.0
 11
467.62805679151
 21
497.399247725027
 31
0.0
  0
LINE
  5
4350
330
1A
100
AcDbEntity
  8
外形線
100
AcDbLine
 10
446.270421920594
 20
487.031463807107
 30
0.0
 11
467.62805679151
 21
487.031463807107
 31
0.0
  0
ARC
  5
4351
330
1A
100
AcDbEntity
  8
外形線
100
AcDbCircle
 10
446.270421920594
 20
492.215355766069
 30
0.0
 40
5.183891958959999
100
AcDbArc
 50
180.0
 51
270.0
  0
ARC
  5
4352
330
1A
100
AcDbEntity
  8
外形線
100
AcDbCircle
 10
446.270421920594
 20
492.215355766069
 30
0.0
 40
5.183891958959999
100
AcDbArc
 50
90.0
 51
180.0
  0
LINE
  5
4353
330
1A
100
AcDbEntity
  8
外形線
100
AcDbLine
 10
468.664835183302
 20
511.175883844995
 30
0.0
 11
468.664835183302
 21
498.436026116819
 31
0.0
  0
LINE
  5
4354
330
1A
100
AcDbEntity
  8
外形線
100
AcDbLine
 10
465.554500007926
 20
487.031463807107
 30
0.0
 11
465.554500007926
 21
492.215355766069
 31
0.0
  0
ARC
  5
4355
330
1A
100
AcDbEntity
  8
外形線
100
AcDbCircle
 10
467.62805679151
 20
485.994685415317
 30
0.0
 40
1.036778391792
100
AcDbArc
 50
0.0
 51
90.0
  0
LINE
  5
4356
330
1A
100
AcDbEntity
  8
外形線
100
AcDbLine
 10
465.554500007926
 20
497.399247725027
 30
0.0
 11
465.554500007926
 21
492.215355766069
 31
0.0
  0
ARC
  5
4357
330
1A
100
AcDbEntity
  8
外形線
100
AcDbCircle
 10
467.62805679151
 20
498.436026116819
 30
0.0
 40
1.036778391792
100
AcDbArc
 50
270.0
 51
0.0
  0
ARC
  5
4358
330
1A
100
AcDbEntity
  8
外形線
100
AcDbCircle
 10
465.554500007926
 20
518.081091315279
 30
0.0
 40
3.110335175376
100
AcDbArc
 50
0.0
 51
90.0
  0
LINE
  5
4359
330
1A
100
AcDbEntity
  8
外形線
100
AcDbLine
 10
465.554500007926
 20
519.070520030615
 30
0.0
 11
465.554500007926
 21
512.212662236787
 31
0.0
  0
ARC
  5
435A
330
1A
100
AcDbEntity
  8
外形線
100
AcDbCircle
 10
467.62805679151
 20
517.009087579085
 30
0.0
 40
1.036778391792
100
AcDbArc
 50
307.135436470275
 51
0.0
  0
ARC
  5
435B
330
1A
100
AcDbEntity
  8
外形線
100
AcDbCircle
 10
467.62805679151
 20
511.175883844995
 30
0.0
 40
1.036778391792
100
AcDbArc
 50
0.0
 51
90.0
  0
LINE
  5
435C
330
1A
100
AcDbEntity
  8
外形線
100
AcDbLine
 10
468.253961113972
 20
516.182556749165
 30
0.0
 11
465.554500007926
 21
514.138344587399
 31
0.0
  0
ARC
  5
435D
330
1A
100
AcDbEntity
  8
外形線
100
AcDbCircle
 10
463.999332420238
 20
519.070520030615
 30
0.0
 40
1.555167587688
100
AcDbArc
 50
0.0
 51
90.0
  0
ARC
  5
435E
330
1A
100
AcDbEntity
  8
外形線
100
AcDbCircle
 10
465.554500007926
 20
528.022262032317
 30
0.0
 40
3.110335175376
100
AcDbArc
 50
0.0
 51
90.0
  0
LINE
  5
435F
330
1A
100
AcDbEntity
  8
外形線
100
AcDbLine
 10
441.086529961634
 20
541.980718572083
 30
0.0
 11
464.734764770318
 21
540.773968253671
 31
0.0
  0
LINE
  5
4360
330
1A
100
AcDbEntity
  8
外形線
100
AcDbLine
 10
446.270421920594
 20
536.402311742717
 30
0.0
 11
463.480943224342
 21
536.402311742717
 31
0.0
  0
LINE
  5
4361
330
1A
100
AcDbEntity
  8
外形線
100
AcDbLine
 10
446.270421920594
 20
537.219490505801
 30
0.0
 11
465.554500007926
 21
537.219490505801
 31
0.0
  0
LINE
  5
4362
330
1A
100
AcDbEntity
  8
外形線
100
AcDbLine
 10
436.006315841854
 20
542.499107767979
 30
0.0
 11
440.947627995228
 21
542.499107767979
 31
0.0
  0
LINE
  5
4363
330
1A
100
AcDbEntity
  8
外形線
100
AcDbLine
 10
435.487926645958
 20
541.980718572083
 30
0.0
 11
436.006315841854
 21
542.499107767979
 31
0.0
  0
ARC
  5
4364
330
1A
100
AcDbEntity
  8
外形線
100
AcDbCircle
 10
440.049751569842
 20
541.980718572083
 30
0.0
 40
1.036778391792
100
AcDbArc
 50
0.0
 51
30.000000000007
  0
ARC
  5
4365
330
1A
100
AcDbEntity
  8
外形線
100
AcDbCircle
 10
464.517721616134
 20
536.632538161515
 30
0.0
 40
4.147113567168
100
AcDbArc
 50
0.0
 51
87.000000000002
  0
ARC
  5
4366
330
1A
100
AcDbEntity
  8
外形線
100
AcDbCircle
 10
463.480943224342
 20
534.328754959133
 30
0.0
 40
2.073556783584
100
AcDbArc
 50
0.0
 51
90.0
  0
ARC
  5
4367
330
1A
100
AcDbEntity
  8
外形線
100
AcDbCircle
 10
465.554500007926
 20
534.109155330425
 30
0.0
 40
3.110335175376
100
AcDbArc
 50
0.0
 51
90.0
  0
LWPOLYLINE
  5
4368
330
1A
100
AcDbEntity
  8
外形線
100
AcDbPolyline
 90
       18
 70
     0
 43
0.0
 10
446.270421920594
 20
537.219490505801
 10
445.31699932419
 20
537.167670043089
 10
444.396044390802
 20
537.013973338663
 10
443.538919136124
 20
536.763634349451
 10
442.774811932692
 20
536.425178069483
 10
442.129743534878
 20
536.010130221439
 10
441.625680973294
 20
535.532624761989
 10
441.279789493916
 20
535.008922566851
 10
441.103848016224
 20
534.456857686169
 10
441.103848016224
 20
533.895230027323
 10
441.279789493916
 20
533.343165146641
 10
441.625680973294
 20
532.819462951503
 10
442.129743534878
 20
532.341957492053
 10
442.774811932692
 20
531.926909644011
 10
443.538919136124
 20
531.588453364041
 10
444.396044390802
 20
531.338114374829
 10
445.31699932419
 20
531.184417670403
 10
446.270421920594
 20
531.132597207693
  0
LWPOLYLINE
  5
4369
330
1A
100
AcDbEntity
  8
外形線
100
AcDbPolyline
 90
        8
 70
     0
 43
0.0
 10
446.270421920594
 20
536.402311742717
 10
445.261566174252
 20
536.344230038177
 10
444.291216811062
 20
536.172201808757
 10
443.396410488152
 20
535.892793092209
 10
442.611300507656
 20
535.516668464847
 10
441.965853240716
 20
535.058183992009
 10
441.484704359834
 20
534.534839280397
 10
441.186218535306
 20
533.966609546547
  0
LWPOLYLINE
  5
436A
330
1A
100
AcDbEntity
  8
外形線
100
AcDbPolyline
 90
        8
 70
     0
 43
0.0
 10
446.270421920594
 20
520.625687618303
 10
445.279963247346
 20
520.549218755901
 10
444.323246076096
 20
520.322417198407
 10
443.432862452544
 20
519.953009290609
 10
442.639144667802
 20
519.453579482513
 10
441.969131942124
 20
518.841141620653
 10
441.445649292172
 20
518.136559345181
 10
441.086529961634
 20
517.363835337775
  0
LWPOLYLINE
  5
436B
330
1A
100
AcDbEntity
  8
外形線
100
AcDbPolyline
 90
       18
 70
     0
 43
0.0
 10
446.270421920594
 20
521.191426490655
 10
445.317042002852
 20
521.114986228699
 10
444.396128294758
 20
520.888268524271
 10
443.539041408122
 20
520.518993976877
 10
442.77496840891
 20
520.019737788335
 10
442.129928886704
 20
519.407501529353
 10
441.625888888792
 20
518.703134171433
 10
441.280012892776
 20
517.930622100153
 10
441.104079290864
 20
517.116272287577
 10
441.104079290864
 20
516.287816439865
 10
441.280012892776
 20
515.473466627289
 10
441.625888888792
 20
514.700954556009
 10
442.129928886704
 20
513.996587198089
 10
442.77496840891
 20
513.384350939107
 10
443.539041408122
 20
512.885094750563
 10
444.396128294758
 20
512.515820203171
 10
445.317042002852
 20
512.289102498743
 10
446.270421920594
 20
512.212662236787
  0
ARC
  5
436C
330
1A
100
AcDbEntity
  8
外形線
100
AcDbCircle
 10
386.909302014824
 20
447.438095555979
 30
0.0
 40
2.0
100
AcDbArc
 50
180.0
 51
225.000000000001
  0
LINE
  5
436D
330
1A
100
AcDbEntity
  8
外形線
100
AcDbLine
 10
427.919999221816
 20
465.012553792449
 30
0.0
 11
429.930625881008
 21
460.566621819853
 31
0.0
  0
LINE
  5
436E
330
1A
100
AcDbEntity
  8
外形線
100
AcDbLine
 10
367.54835847632
 20
513.173416094271
 30
0.0
 11
367.54835847632
 21
524.680844094271
 31
0.0
  0
LINE
  5
436F
330
1A
100
AcDbEntity
  8
外形線
100
AcDbLine
 10
373.04835847631
 20
525.680844094271
 30
0.0
 11
373.04835847631
 21
458.980844094271
 31
0.0
  0
LINE
  5
4370
330
1A
100
AcDbEntity
  8
外形線
100
AcDbLine
 10
368.14835847632
 20
458.980844094271
 30
0.0
 11
373.04835847631
 21
458.980844094271
 31
0.0
  0
LINE
  5
4371
330
1A
100
AcDbEntity
  8
外形線
100
AcDbLine
 10
368.14835847632
 20
525.680844094271
 30
0.0
 11
373.04835847631
 21
525.680844094271
 31
0.0
  0
LINE
  5
4372
330
1A
100
AcDbEntity
  8
外形線
100
AcDbLine
 10
412.287016000448
 20
447.690576918465
 30
0.0
 11
413.605032281876
 21
446.314748175655
 31
0.0
  0
LINE
  5
4373
330
1A
100
AcDbEntity
  8
外形線
100
AcDbLine
 10
412.287016000448
 20
447.690576918465
 30
0.0
 11
421.367485702994
 21
456.389484375899
 31
0.0
  0
CIRCLE
  5
4374
330
1A
100
AcDbEntity
  8
細線
100
AcDbCircle
 10
417.486258992436
 20
451.352116275777
 30
0.0
 40
9.90742839250458
  0
CIRCLE
  5
4375
330
1A
100
AcDbEntity
  8
外形線
100
AcDbCircle
 10
417.486258992436
 20
451.352116275777
 30
0.0
 40
10.51872781849356
  0
LINE
  5
4376
330
1A
100
AcDbEntity
  8
外形線
100
AcDbLine
 10
413.605032281876
 20
446.314748175655
 30
0.0
 11
422.685501984424
 21
455.013655633089
 31
0.0
  0
LINE
  5
4377
330
1A
100
AcDbEntity
  8
外形線
100
AcDbLine
 10
421.367485702994
 20
456.389484375899
 30
0.0
 11
422.685501984424
 21
455.013655633089
 31
0.0
  0
CIRCLE
  5
4378
330
1A
100
AcDbEntity
  8
細線
100
AcDbCircle
 10
417.487926645954
 20
451.352116275777
 30
0.0
 40
13.76127218150634
  0
LINE
  5
4379
330
1A
100
AcDbEntity
  8
外形線
100
AcDbLine
 10
388.045819909408
 20
536.338448408329
 30
0.0
 11
373.04835847631
 21
525.680844094271
 31
0.0
  0
LINE
  5
437A
330
1A
100
AcDbEntity
  8
外形線
100
AcDbLine
 10
388.045819909408
 20
448.092263123807
 30
0.0
 11
373.04835847631
 21
458.980844094271
 31
0.0
  0
LINE
  5
437B
330
1A
100
AcDbEntity
  8
外形線
100
AcDbLine
 10
398.57359525781
 20
431.991840175377
 30
0.0
 11
385.49508845245
 21
446.023881993605
 31
0.0
  0
LINE
  5
437C
330
1A
100
AcDbEntity
  8
外形線
100
AcDbLine
 10
367.54835847632
 20
525.196869498055
 30
0.0
 11
367.54835847632
 21
459.464818690487
 31
0.0
  0
ARC
  5
437D
330
1A
100
AcDbEntity
  8
外形線
100
AcDbCircle
 10
368.14835847632
 20
525.080844094271
 30
0.0
 40
0.6
100
AcDbArc
 50
90.0
 51
180.0
  0
ARC
  5
437E
330
1A
100
AcDbEntity
  8
外形線
100
AcDbCircle
 10
368.14835847632
 20
459.580844094271
 30
0.0
 40
0.6
100
AcDbArc
 50
180.0
 51
270.0
  0
LINE
  5
437F
330
1A
100
AcDbEntity
  8
外形線
100
AcDbLine
 10
367.54835847632
 20
466.374541573263
 30
0.0
 11
367.54835847632
 21
518.287146615279
 31
0.0
  0
LINE
  5
4380
330
1A
100
AcDbEntity
  8
外形線
100
AcDbLine
 10
426.817264518564
 20
409.779689521139
 30
0.0
 11
426.817264518564
 21
420.670844094271
 31
0.0
  0
LINE
  5
4381
330
1A
100
AcDbEntity
  8
外形線
100
AcDbLine
 10
433.037934869316
 20
420.670844094271
 30
0.0
 11
433.037934869316
 21
409.779689521137
 31
0.0
  0
LINE
  5
4382
330
1A
100
AcDbEntity
  8
外形線
100
AcDbLine
 10
424.225318539084
 20
409.779689521139
 30
0.0
 11
424.225318539084
 21
420.670844094271
 31
0.0
  0
LINE
  5
4383
330
1A
100
AcDbEntity
  8
外形線
100
AcDbLine
 10
408.155253466308
 20
409.779689521139
 30
0.0
 11
408.155253466308
 21
420.670844094271
 31
0.0
  0
LINE
  5
4384
330
1A
100
AcDbEntity
  8
外形線
100
AcDbLine
 10
410.747199445788
 20
409.779689521139
 30
0.0
 11
410.747199445788
 21
420.670844094271
 31
0.0
  0
LINE
  5
4385
330
1A
100
AcDbEntity
  8
外形線
100
AcDbLine
 10
401.934583115556
 20
420.670844094271
 30
0.0
 11
401.934583115556
 21
409.779689521135
 31
0.0
  0
ARC
  5
4386
330
1A
100
AcDbEntity
  8
外形線
100
AcDbCircle
 10
417.486258992436
 20
426.063779224377
 30
0.0
 40
17.62346450152246
100
AcDbArc
 50
247.51811568249
 51
292.481884317509
  0
LINE
  5
4387
330
1A
100
AcDbEntity
  8
外形線
100
AcDbLine
 10
431.27541160327
 20
408.120844094271
 30
0.0
 11
403.697106381602
 21
408.120844094271
 31
0.0
  0
LINE
  5
4388
330
1A
100
AcDbEntity
  8
外形線
100
AcDbLine
 10
426.09151964431
 20
403.330844094271
 30
0.0
 11
408.880998340562
 21
403.330844094271
 31
0.0
  0
ARC
  5
4389
330
1A
100
AcDbEntity
  8
外形線
100
AcDbCircle
 10
408.880998340562
 20
408.514736053231
 30
0.0
 40
5.183891958959999
100
AcDbArc
 50
184.357752857945
 51
270.0
  0
ARC
  5
438A
330
1A
100
AcDbEntity
  8
外形線
100
AcDbCircle
 10
405.044918290932
 20
412.706264551391
 30
0.0
 40
4.2707173063642
100
AcDbArc
 50
223.256487111673
 51
316.743512888333
  0
LINE
  5
438B
330
1A
100
AcDbEntity
  8
外形線
100
AcDbLine
 10
403.697106381602
 20
408.120844094271
 30
0.0
 11
401.934583115556
 21
409.779689521139
 31
0.0
  0
LINE
  5
438C
330
1A
100
AcDbEntity
  8
外形線
100
AcDbLine
 10
410.747199445788
 20
409.779689521139
 30
0.0
 11
408.155253466308
 21
409.779689521139
 31
0.0
  0
ARC
  5
438D
330
1A
100
AcDbEntity
  8
外形線
100
AcDbCircle
 10
426.09151964431
 20
408.514736053231
 30
0.0
 40
5.183891958959999
100
AcDbArc
 50
270.0
 51
355.642247142048
  0
ARC
  5
438E
330
1A
100
AcDbEntity
  8
外形線
100
AcDbCircle
 10
429.92759969394
 20
412.706264551391
 30
0.0
 40
4.2707173063642
100
AcDbArc
 50
223.256487111674
 51
316.743512888326
  0
LINE
  5
438F
330
1A
100
AcDbEntity
  8
外形線
100
AcDbLine
 10
424.225318539084
 20
409.779689521139
 30
0.0
 11
426.817264518564
 21
409.779689521139
 31
0.0
  0
LINE
  5
4390
330
1A
100
AcDbEntity
  8
外形線
100
AcDbLine
 10
431.27541160327
 20
408.120844094271
 30
0.0
 11
433.037934869316
 21
409.779689521139
 31
0.0
  0
LINE
  5
4391
330
1A
100
AcDbEntity
  8
外形線
100
AcDbLine
 10
433.037934869316
 20
420.670844094271
 30
0.0
 11
401.934583115556
 21
420.670844094271
 31
0.0
  0
LINE
  5
4392
330
1A
100
AcDbEntity
  8
外形線
100
AcDbLine
 10
433.037934869316
 20
429.400844094271
 30
0.0
 11
401.934583115556
 21
429.400844094271
 31
0.0
  0
LINE
  5
4393
330
1A
100
AcDbEntity
  8
外形線
100
AcDbLine
 10
433.037934869316
 20
423.470844094271
 30
0.0
 11
401.934583115556
 21
423.470844094271
 31
0.0
  0
LINE
  5
4394
330
1A
100
AcDbEntity
  8
細線
100
AcDbLine
 10
406.60008587862
 20
421.502981287313
 30
0.0
 11
428.372432106252
 21
421.502981287313
 31
0.0
  0
LINE
  5
4395
330
1A
100
AcDbEntity
  8
外形線
100
AcDbLine
 10
404.00813989914
 20
429.400844094271
 30
0.0
 11
404.00813989914
 21
431.080844094271
 31
0.0
  0
LINE
  5
4396
330
1A
100
AcDbEntity
  8
外形線
100
AcDbLine
 10
404.00813989914
 20
429.400844094271
 30
0.0
 11
404.00813989914
 21
429.919233290167
 31
0.0
  0
LINE
  5
4397
330
1A
100
AcDbEntity
  8
外形線
100
AcDbLine
 10
401.934583115556
 20
423.470844094271
 30
0.0
 11
401.934583115556
 21
429.400844094271
 31
0.0
  0
LINE
  5
4398
330
1A
100
AcDbEntity
  8
外形線
100
AcDbLine
 10
406.60008587862
 20
420.670844094271
 30
0.0
 11
406.60008587862
 21
423.470844094271
 31
0.0
  0
LINE
  5
4399
330
1A
100
AcDbEntity
  8
外形線
100
AcDbLine
 10
406.60008587862
 20
421.502981287313
 30
0.0
 11
405.736426614188
 21
420.670844094271
 31
0.0
  0
LINE
  5
439A
330
1A
100
AcDbEntity
  8
外形線
100
AcDbLine
 10
406.60008587862
 20
421.502981287313
 30
0.0
 11
406.60008587862
 21
420.670844094271
 31
0.0
  0
LINE
  5
439B
330
1A
100
AcDbEntity
  8
外形線
100
AcDbLine
 10
408.155253466308
 20
423.470844094271
 30
0.0
 11
408.155253466308
 21
429.400844094271
 31
0.0
  0
LINE
  5
439C
330
1A
100
AcDbEntity
  8
外形線
100
AcDbLine
 10
410.747199445788
 20
423.470844094271
 30
0.0
 11
410.747199445788
 21
429.400844094271
 31
0.0
  0
LINE
  5
439D
330
1A
100
AcDbEntity
  8
外形線
100
AcDbLine
 10
428.372432106252
 20
420.670844094271
 30
0.0
 11
428.372432106252
 21
423.470844094271
 31
0.0
  0
LINE
  5
439E
330
1A
100
AcDbEntity
  8
外形線
100
AcDbLine
 10
428.372432106252
 20
421.502981287313
 30
0.0
 11
428.372432106252
 21
420.670844094271
 31
0.0
  0
LINE
  5
439F
330
1A
100
AcDbEntity
  8
外形線
100
AcDbLine
 10
428.372432106252
 20
421.502981287313
 30
0.0
 11
429.236091370684
 21
420.670844094271
 31
0.0
  0
LINE
  5
43A0
330
1A
100
AcDbEntity
  8
外形線
100
AcDbLine
 10
426.817264518564
 20
423.470844094271
 30
0.0
 11
426.817264518564
 21
429.400844094271
 31
0.0
  0
LINE
  5
43A1
330
1A
100
AcDbEntity
  8
外形線
100
AcDbLine
 10
424.225318539084
 20
423.470844094271
 30
0.0
 11
424.225318539084
 21
429.400844094271
 31
0.0
  0
LINE
  5
43A2
330
1A
100
AcDbEntity
  8
外形線
100
AcDbLine
 10
430.964378085732
 20
429.400844094271
 30
0.0
 11
430.964378085732
 21
431.080844094271
 31
0.0
  0
LINE
  5
43A3
330
1A
100
AcDbEntity
  8
外形線
100
AcDbLine
 10
433.037934869316
 20
423.470844094271
 30
0.0
 11
433.037934869316
 21
429.400844094271
 31
0.0
  0
LINE
  5
43A4
330
1A
100
AcDbEntity
  8
細線
100
AcDbLine
 10
427.349404332656
 20
539.388772592603
 30
0.0
 11
427.349404332656
 21
466.173416094271
 31
0.0
  0
LINE
  5
43A5
330
1A
100
AcDbEntity
  8
外形線
100
AcDbLine
 10
435.487926645958
 20
460.075225620515
 30
0.0
 11
430.921209185104
 21
460.075225620515
 31
0.0
  0
ARC
  5
43A6
330
1A
100
AcDbEntity
  8
外形線
100
AcDbCircle
 10
426.92941591772
 20
464.259815921637
 30
0.0
 40
1.2441340701504
100
AcDbArc
 50
37.23096796567
 51
90.0
  0
ARC
  5
43A7
330
1A
100
AcDbEntity
  8
外形線
100
AcDbCircle
 10
430.921209185104
 20
461.319359690667
 30
0.0
 40
1.2441340701504
100
AcDbArc
 50
217.230967965679
 51
270.0
  0
LINE
  5
43A8
330
1A
100
AcDbEntity
  8
外形線
100
AcDbLine
 10
435.487926645958
 20
541.541794804553
 30
0.0
 11
431.186166974976
 21
541.541794804553
 31
0.0
  0
ARC
  5
43A9
330
1A
100
AcDbEntity
  8
外形線
100
AcDbCircle
 10
427.349404332656
 20
541.462329376189
 30
0.0
 40
2.073556783584
100
AcDbArc
 50
270.0
 51
316.091731908441
  0
LINE
  5
43AA
330
1A
100
AcDbEntity
  8
外形線
100
AcDbLine
 10
429.692270828486
 20
540.906261678023
 30
0.0
 11
428.843300479146
 21
540.024305719133
 31
0.0
  0
ARC
  5
43AB
330
1A
100
AcDbEntity
  8
外形線
100
AcDbCircle
 10
431.186166974976
 20
539.468238020969
 30
0.0
 40
2.073556783584
100
AcDbArc
 50
90.0
 51
136.091731908434
  0
MTEXT
  5
4698
330
1A
100
AcDbEntity
  8
寸法線
 48
10.0
100
AcDbMText
 10
125.527725504614
 20
242.044952285281
 30
0.0
 40
8.0
 41
95.557777777778
 71
     1
 72
     5
  1
{\C1;（NO）}
  0
MTEXT
  5
4699
330
1A
100
AcDbEntity
  8
寸法線
 48
10.0
100
AcDbMText
 10
74.47814627978
 20
242.044952285281
 30
0.0
 40
8.0
 41
95.557777777778
 71
     1
 72
     5
  1
{\C1;（NC）}
  0
MTEXT
  5
469A
330
1A
100
AcDbEntity
  8
寸法線
 48
10.0
100
AcDbMText
 10
176.311605496066
 20
301.658780305625
 30
0.0
 40
7.0
 41
125.633939393939
 71
     1
 72
     5
  1
{\C1;：グランド\P：電源\P：電源\P：コモン\P：オープン（クローズ）\P：クローズ（オープン）}
  0
MTEXT
  5
469B
330
1A
100
AcDbEntity
  8
寸法線
 48
10.0
100
AcDbMText
 10
164.421412696331
 20
301.658780305625
 30
0.0
 40
7.0
 41
125.633939393939
 71
     1
 72
     5
  1
{\C1;PE\PN\PL1\PC\PNO\PNC}
  0
MTEXT
  5
469C
102
{ACAD_XDICTIONARY
360
469D
102
}
330
1A
100
AcDbEntity
  8
寸法線
 48
10.0
100
AcDbMText
 10
162.105622647564
 20
322.472510325622
 30
0.0
 40
8.0
 41
124.815667100994
 71
     1
 72
     5
  1
電源電圧：AC/DC20～255V
1001
ACADANNOTATIVE
1000
AnnotativeData
1002
{
1070
     1
1070
     0
1002
}
  0
LINE
  5
4724
330
1A
100
AcDbEntity
  8
寸法線
 48
10.0
100
AcDbLine
 10
670.071413453592
 20
421.825102145516
 30
0.0
 11
670.071413453592
 21
299.72217078764
 31
0.0
  0
LINE
  5
4725
330
1A
100
AcDbEntity
  8
寸法線
 48
10.0
100
AcDbLine
 10
539.839551787002
 20
392.190107647654
 30
0.0
 11
637.200082356422
 21
392.190107647654
 31
0.0
  0
MTEXT
  5
4726
102
{ACAD_XDICTIONARY
360
4727
102
}
330
1A
100
AcDbEntity
  8
寸法線
 48
10.0
100
AcDbMText
 10
577.056290741421
 20
403.010412422084
 30
0.0
 40
8.0
 41
60.143791615001
 71
     1
 72
     5
  1
RKR-504-1
1001
ACADANNOTATIVE
1000
AnnotativeData
1002
{
1070
     1
1070
     0
1002
}
1001
ACAD
1000
MTEXTBEGIN
1070
    44
1040
1.1475
1000
MTEXTEND
  0
MTEXT
  5
472A
330
1A
100
AcDbEntity
  8
寸法線
 48
10.0
100
AcDbMText
 10
596.034999195436
 20
418.943277118022
 30
0.0
 40
8.0
 41
19.77375149039
 71
     1
 72
     5
  1
型式
  0
LINE
  5
472B
330
1A
100
AcDbEntity
  8
寸法線
 48
10.0
100
AcDbLine
 10
539.839551787002
 20
407.624076077661
 30
0.0
 11
637.200082356422
 21
407.624076077661
 31
0.0
  0
LINE
  5
472C
330
1A
100
AcDbEntity
  8
寸法線
 48
10.0
100
AcDbLine
 10
539.839551787002
 20
421.825102145516
 30
0.0
 11
637.200082356422
 21
421.825102145516
 31
0.0
  0
LINE
  5
472D
330
1A
100
AcDbEntity
  8
寸法線
 48
10.0
100
AcDbLine
 10
570.994110882104
 20
421.825102145516
 30
0.0
 11
570.994110882104
 21
299.72217078764
 31
0.0
  0
LINE
  5
472E
330
1A
100
AcDbEntity
  8
寸法線
 48
10.0
100
AcDbLine
 10
637.200082356422
 20
421.825102145516
 30
0.0
 11
637.200082356422
 21
299.72217078764
 31
0.0
  0
LINE
  5
472F
330
1A
100
AcDbEntity
  8
寸法線
 48
10.0
100
AcDbLine
 10
637.200082356422
 20
421.825102145516
 30
0.0
 11
637.200082356422
 21
299.72217078764
 31
0.0
  0
LINE
  5
4730
330
1A
100
AcDbEntity
  8
寸法線
 48
10.0
100
AcDbLine
 10
539.839551787002
 20
421.825102145516
 30
0.0
 11
539.839551787002
 21
299.72217078764
 31
0.0
  0
MTEXT
  5
4731
330
1A
100
AcDbEntity
  8
寸法線
 48
10.0
100
AcDbMText
 10
617.234026059732
 20
200.42810218785
 30
0.0
 40
8.0
 41
165.013333333333
 71
     1
 72
     5
  1
○印が今回の貴社の御仕様です。
  0
SPLINE
  5
4732
330
1A
100
AcDbEntity
  8
寸法線
 48
10.0
100
AcDbSpline
210
0.0
220
0.0
230
1.0
 70
  1064
 71
     3
 72
    13
 73
     9
 74
     7
 42
0.000000001
 43
0.0000000001
 44
0.0000000001
 40
0.0
 40
0.0
 40
0.0
 40
0.0
 40
3.86842211421227
 40
10.12254119268954
 40
15.16331027423529
 40
18.64952359630841
 40
20.50331406220848
 40
21.8476876304271
 40
21.8476876304271
 40
21.8476876304271
 40
21.8476876304271
 10
651.4058682102225
 20
410.2788980392486
 30
0.0
 10
652.5562626855806
 20
410.8103112038349
 30
0.0
 10
655.5665121156704
 20
412.2008656702411
 30
0.0
 10
656.2918978317
 20
421.9082731678615
 30
0.0
 10
652.0010218108123
 20
414.9263602690156
 30
0.0
 10
652.1889158430325
 20
411.38197747785
 30
0.0
 10
654.4495867859223
 20
409.9934475758756
 30
0.0
 10
655.4495185076345
 20
410.493648031006
 30
0.0
 10
655.8698477222563
 20
410.7039112518771
 30
0.0
 11
651.4058682102225
 21
410.2788980392486
 31
0.0
 11
654.4881395916211
 21
412.6164807190992
 31
0.0
 11
655.1789936569385
 21
418.8323254813345
 31
0.0
 11
652.4687212207293
 21
414.5821753363405
 31
0.0
 11
652.9470052059612
 21
411.1289264665845
 31
0.0
 11
654.594424631664
 21
410.2788980392486
 31
0.0
 11
655.8698477222563
 21
410.7039112518771
 31
0.0
  0
LINE
  5
4733
330
1A
100
AcDbEntity
  8
寸法線
 48
10.0
100
AcDbLine
 10
539.839551787002
 20
376.756139217647
 30
0.0
 11
570.994110882104
 21
376.756139217647
 31
0.0
  0
MTEXT
  5
4734
102
{ACAD_XDICTIONARY
360
4735
102
}
330
1A
100
AcDbEntity
  8
寸法線
 48
10.0
100
AcDbMText
 10
645.712541334683
 20
403.540744832222
 30
0.0
 40
8.0
 41
25.186395132728
 71
     1
 72
     5
  1
400\P450\P500\P550\P600\P650\P700
1001
ACADANNOTATIVE
1000
AnnotativeData
1002
{
1070
     1
1070
     0
1002
}
1001
ACAD
1000
MTEXTBEGIN
1070
    44
1040
1.1475
1000
MTEXTEND
  0
LINE
  5
4738
330
1A
100
AcDbEntity
  8
寸法線
 48
10.0
100
AcDbLine
 10
539.839551787002
 20
361.32217078764
 30
0.0
 11
637.200082356422
 21
361.322170787639
 31
0.0
  0
LINE
  5
4739
330
1A
100
AcDbEntity
  8
寸法線
 48
10.0
100
AcDbLine
 10
637.200082356422
 20
392.190107647654
 30
0.0
 11
750.071413453592
 21
392.190107647654
 31
0.0
  0
LINE
  5
473A
330
1A
100
AcDbEntity
  8
寸法線
 48
10.0
100
AcDbLine
 10
637.200082356422
 20
376.756139217646
 30
0.0
 11
750.071413453592
 21
376.756139217646
 31
0.0
  0
LINE
  5
473B
330
1A
100
AcDbEntity
  8
寸法線
 48
10.0
100
AcDbLine
 10
637.200082356422
 20
407.624076077661
 30
0.0
 11
750.071413453592
 21
407.624076077661
 31
0.0
  0
LINE
  5
473C
330
1A
100
AcDbEntity
  8
寸法線
 48
10.0
100
AcDbLine
 10
637.200082356422
 20
421.825102145516
 30
0.0
 11
750.071413453592
 21
421.825102145516
 31
0.0
  0
LINE
  5
473D
330
1A
100
AcDbEntity
  8
寸法線
 48
10.0
100
AcDbLine
 10
637.200082356422
 20
361.32217078764
 30
0.0
 11
750.071413453592
 21
361.322170787639
 31
0.0
  0
MTEXT
  5
473E
102
{ACAD_XDICTIONARY
360
473F
102
}
330
1A
100
AcDbEntity
  8
寸法線
 48
10.0
100
AcDbMText
 10
541.306476652661
 20
418.351372427212
 30
0.0
 40
8.0
 41
32.516763780405
 71
     1
 72
     5
  1
御仕様
1001
ACADANNOTATIVE
1000
AnnotativeData
1002
{
1070
     1
1070
     0
1002
}
  0
LINE
  5
4742
330
1A
100
AcDbEntity
  8
寸法線
 48
10.0
100
AcDbLine
 10
539.839551787002
 20
345.92217078764
 30
0.0
 11
570.994110882104
 21
345.92217078764
 31
0.0
  0
LINE
  5
4743
330
1A
100
AcDbEntity
  8
寸法線
 48
10.0
100
AcDbLine
 10
539.839551787002
 20
330.52217078764
 30
0.0
 11
750.071413453592
 21
330.522170787639
 31
0.0
  0
LINE
  5
4744
330
1A
100
AcDbEntity
  8
寸法線
 48
10.0
100
AcDbLine
 10
539.839551787002
 20
315.12217078764
 30
0.0
 11
570.994110882104
 21
315.12217078764
 31
0.0
  0
LINE
  5
4745
330
1A
100
AcDbEntity
  8
寸法線
 48
10.0
100
AcDbLine
 10
539.839551787002
 20
299.72217078764
 30
0.0
 11
750.071413453592
 21
299.72217078764
 31
0.0
  0
MTEXT
  5
4746
102
{ACAD_XDICTIONARY
360
4747
102
}
330
1A
100
AcDbEntity
  8
寸法線
 48
10.0
100
AcDbMText
 10
726.286749009171
 20
418.598561060274
 30
0.0
 40
8.0
 41
19.77375149039
 71
     1
 72
     5
  1
台数
1001
ACADANNOTATIVE
1000
AnnotativeData
1002
{
1070
     1
1070
     0
1002
}
  0
LINE
  5
474A
330
1A
100
AcDbEntity
  8
寸法線
 48
10.0
100
AcDbLine
 10
539.839551787002
 20
299.72217078764
 30
0.0
 11
539.839551787002
 21
298.248441069336
 31
0.0
  0
LINE
  5
474B
330
1A
100
AcDbEntity
  8
寸法線
 48
10.0
100
AcDbLine
 10
670.071413453592
 20
299.72217078764
 30
0.0
 11
670.071413453592
 21
207.220265497619
 31
0.0
  0
LINE
  5
474C
330
1A
100
AcDbEntity
  8
寸法線
 48
10.0
100
AcDbLine
 10
539.839551787002
 20
284.288202357633
 30
0.0
 11
570.994110882104
 21
284.288202357633
 31
0.0
  0
LINE
  5
4752
330
1A
100
AcDbEntity
  8
寸法線
 48
10.0
100
AcDbLine
 10
539.839551787002
 20
299.72217078764
 30
0.0
 11
637.200082356422
 21
299.72217078764
 31
0.0
  0
LINE
  5
4753
330
1A
100
AcDbEntity
  8
寸法線
 48
10.0
100
AcDbLine
 10
539.839551787002
 20
299.72217078764
 30
0.0
 11
637.200082356422
 21
299.72217078764
 31
0.0
  0
LINE
  5
4754
330
1A
100
AcDbEntity
  8
寸法線
 48
10.0
100
AcDbLine
 10
570.994110882104
 20
299.72217078764
 30
0.0
 11
570.994110882104
 21
207.220265497619
 31
0.0
  0
LINE
  5
4755
330
1A
100
AcDbEntity
  8
寸法線
 48
10.0
100
AcDbLine
 10
637.200082356422
 20
299.72217078764
 30
0.0
 11
637.200082356422
 21
207.220265497619
 31
0.0
  0
LINE
  5
4756
330
1A
100
AcDbEntity
  8
寸法線
 48
10.0
100
AcDbLine
 10
637.200082356422
 20
299.72217078764
 30
0.0
 11
637.200082356422
 21
207.220265497619
 31
0.0
  0
LINE
  5
4757
330
1A
100
AcDbEntity
  8
寸法線
 48
10.0
100
AcDbLine
 10
539.839551787002
 20
299.72217078764
 30
0.0
 11
539.839551787002
 21
298.248441069336
 31
0.0
  0
SPLINE
  5
4758
330
1A
100
AcDbEntity
  8
寸法線
 48
10.0
100
AcDbSpline
210
0.0
220
0.0
230
1.0
 70
     8
 71
     3
 72
     8
 73
     4
 74
     0
 42
0.000000001
 43
0.0000000001
 40
0.0
 40
0.0
 40
0.0
 40
0.0
 40
0.2294097180870619
 40
0.2294097180870619
 40
0.2294097180870619
 40
0.2294097180870619
 10
651.4058682102226
 20
302.3769927492276
 30
0.0
 10
651.4740902564444
 20
302.408507237739
 30
0.0
 10
651.542312302666
 20
302.4400217262503
 30
0.0
 10
651.6104574080879
 20
302.4716912474317
 30
0.0
  0
LINE
  5
4759
330
1A
100
AcDbEntity
  8
寸法線
 48
10.0
100
AcDbLine
 10
539.839551787002
 20
268.854233927626
 30
0.0
 11
637.200082356422
 21
268.854233927626
 31
0.0
  0
MTEXT
  5
475A
102
{ACAD_XDICTIONARY
360
475B
102
}
330
1A
100
AcDbEntity
  8
寸法線
 48
10.0
100
AcDbMText
 10
645.712541334683
 20
295.638839542201
 30
0.0
 40
8.0
 41
25.186395132728
 71
     1
 72
     5
  1
750\P800\P850\P900\P950\P1000\P
1001
ACADANNOTATIVE
1000
AnnotativeData
1002
{
1070
     1
1070
     0
1002
}
1001
ACAD
1000
MTEXTBEGIN
1070
    44
1040
1.1475
1000
MTEXTEND
  0
LINE
  5
475E
330
1A
100
AcDbEntity
  8
寸法線
 48
10.0
100
AcDbLine
 10
539.839551787002
 20
253.420265497619
 30
0.0
 11
570.994110882104
 21
253.420265497619
 31
0.0
  0
LINE
  5
475F
330
1A
100
AcDbEntity
  8
寸法線
 48
10.0
100
AcDbLine
 10
637.200082356422
 20
284.288202357633
 30
0.0
 11
750.071413453592
 21
284.288202357633
 31
0.0
  0
LINE
  5
4760
330
1A
100
AcDbEntity
  8
寸法線
 48
10.0
100
AcDbLine
 10
637.200082356422
 20
268.854233927626
 30
0.0
 11
750.071413453592
 21
268.854233927626
 31
0.0
  0
LINE
  5
4761
330
1A
100
AcDbEntity
  8
寸法線
 48
10.0
100
AcDbLine
 10
637.200082356422
 20
299.72217078764
 30
0.0
 11
750.071413453592
 21
299.72217078764
 31
0.0
  0
LINE
  5
4762
330
1A
100
AcDbEntity
  8
寸法線
 48
10.0
100
AcDbLine
 10
637.200082356422
 20
299.72217078764
 30
0.0
 11
750.071413453592
 21
299.72217078764
 31
0.0
  0
LINE
  5
4763
330
1A
100
AcDbEntity
  8
寸法線
 48
10.0
100
AcDbLine
 10
637.200082356422
 20
253.420265497619
 30
0.0
 11
750.071413453592
 21
253.420265497618
 31
0.0
  0
LINE
  5
4768
330
1A
100
AcDbEntity
  8
寸法線
 48
10.0
100
AcDbLine
 10
539.839551787002
 20
238.020265497619
 30
0.0
 11
750.071413453592
 21
238.020265497619
 31
0.0
  0
LINE
  5
4769
330
1A
100
AcDbEntity
  8
寸法線
 48
10.0
100
AcDbLine
 10
539.839551787002
 20
222.620265497619
 30
0.0
 11
570.994110882104
 21
222.620265497619
 31
0.0
  0
LINE
  5
476A
330
1A
100
AcDbEntity
  8
寸法線
 48
10.0
100
AcDbLine
 10
539.839551787002
 20
207.220265497619
 30
0.0
 11
750.071413453592
 21
207.220265497619
 31
0.0
  0
LINE
  5
476B
330
1A
100
AcDbEntity
  8
寸法線
 48
10.0
100
AcDbLine
 10
720.071413453592
 20
421.825102145516
 30
0.0
 11
720.071413453592
 21
299.72217078764
 31
0.0
  0
LINE
  5
476C
330
1A
100
AcDbEntity
  8
寸法線
 48
10.0
100
AcDbLine
 10
750.071413453592
 20
421.825102145516
 30
0.0
 11
750.071413453592
 21
299.72217078764
 31
0.0
  0
LINE
  5
476D
330
1A
100
AcDbEntity
  8
寸法線
 48
10.0
100
AcDbLine
 10
720.071413453592
 20
299.72217078764
 30
0.0
 11
720.071413453592
 21
207.220265497619
 31
0.0
  0
LINE
  5
476E
330
1A
100
AcDbEntity
  8
寸法線
 48
10.0
100
AcDbLine
 10
750.071413453592
 20
299.72217078764
 30
0.0
 11
750.071413453592
 21
207.220265497619
 31
0.0
  0
MTEXT
  5
4773
102
{ACAD_XDICTIONARY
360
4774
102
}
330
1A
100
AcDbEntity
  8
寸法線
 48
10.0
100
AcDbMText
 10
687.149202112516
 20
418.756723881107
 30
0.0
 40
8.0
 41
19.77375149039
 71
     1
 72
     5
  1
記事
1001
ACADANNOTATIVE
1000
AnnotativeData
1002
{
1070
     1
1070
     0
1002
}
  0
LINE
  5
4994
330
1A
100
AcDbEntity
  8
寸法線
 48
10.0
100
AcDbLine
 10
539.839551787002
 20
300.449467137191
 30
0.0
 11
539.839551787002
 21
207.220265497619
 31
0.0
  0
LINE
  5
4995
330
1A
100
AcDbEntity
  8
寸法線
 48
10.0
100
AcDbLine
 10
539.839551787002
 20
300.449467137191
 30
0.0
 11
539.839551787002
 21
207.220265497619
 31
0.0
  0
LINE
  5
4996
330
1A
100
AcDbEntity
  8
寸法線
 48
10.0
100
AcDbLine
 10
637.200082356422
 20
345.92217078764
 30
0.0
 11
750.071413453592
 21
345.92217078764
 31
0.0
  0
LINE
  5
4998
330
1A
100
AcDbEntity
  8
寸法線
 48
10.0
100
AcDbLine
 10
637.200082356422
 20
315.12217078764
 30
0.0
 11
750.071413453592
 21
315.12217078764
 31
0.0
  0
LINE
  5
499A
330
1A
100
AcDbEntity
  8
寸法線
 48
10.0
100
AcDbLine
 10
637.200082356422
 20
222.620265497619
 30
0.0
 11
750.071413453592
 21
222.620265497619
 31
0.0
  0
MTEXT
  5
49CC
102
{ACAD_XDICTIONARY
360
49CD
102
}
330
1A
100
AcDbEntity
  8
寸法線
 48
10.0
100
AcDbMText
 10
602.000281453475
 20
376.756139217647
 30
0.0
 40
8.0
 41
60.143791615001
 71
     5
 72
     5
  1
RKR-505-1
1001
ACADANNOTATIVE
1000
AnnotativeData
1002
{
1070
     1
1070
     0
1002
}
1001
ACAD
1000
MTEXTBEGIN
1070
    44
1040
1.1475
1000
MTEXTEND
  0
MTEXT
  5
4A01
102
{ACAD_XDICTIONARY
360
4A02
102
}
330
1A
100
AcDbEntity
  8
寸法線
 48
10.0
100
AcDbMText
 10
602.000281453475
 20
345.339668036571
 30
0.0
 40
8.0
 41
60.143791615001
 71
     5
 72
     5
  1
RKR-506-1
1001
ACADANNOTATIVE
1000
AnnotativeData
1002
{
1070
     1
1070
     0
1002
}
1001
ACAD
1000
MTEXTBEGIN
1070
    44
1040
1.1475
1000
MTEXTEND
  0
MTEXT
  5
4A36
102
{ACAD_XDICTIONARY
360
4A37
102
}
330
1A
100
AcDbEntity
  8
寸法線
 48
10.0
100
AcDbMText
 10
602.000281453475
 20
315.088202357633
 30
0.0
 40
8.0
 41
60.143791615001
 71
     5
 72
     5
  1
RKR-507-1
1001
ACADANNOTATIVE
1000
AnnotativeData
1002
{
1070
     1
1070
     0
1002
}
1001
ACAD
1000
MTEXTBEGIN
1070
    44
1040
1.1475
1000
MTEXTEND
  0
MTEXT
  5
4A6B
102
{ACAD_XDICTIONARY
360
4A6C
102
}
330
1A
100
AcDbEntity
  8
寸法線
 48
10.0
100
AcDbMText
 10
602.000281453475
 20
284.288202357633
 30
0.0
 40
8.0
 41
60.143791615001
 71
     5
 72
     5
  1
RKR-508-1
1001
ACADANNOTATIVE
1000
AnnotativeData
1002
{
1070
     1
1070
     0
1002
}
1001
ACAD
1000
MTEXTBEGIN
1070
    44
1040
1.1475
1000
MTEXTEND
  0
MTEXT
  5
4AA0
102
{ACAD_XDICTIONARY
360
4AA1
102
}
330
1A
100
AcDbEntity
  8
寸法線
 48
10.0
100
AcDbMText
 10
602.000281453475
 20
253.420265497619
 30
0.0
 40
8.0
 41
60.143791615001
 71
     5
 72
     5
  1
RKR-509-1
1001
ACADANNOTATIVE
1000
AnnotativeData
1002
{
1070
     1
1070
     0
1002
}
1001
ACAD
1000
MTEXTBEGIN
1070
    44
1040
1.1475
1000
MTEXTEND
  0
MTEXT
  5
4AD5
102
{ACAD_XDICTIONARY
360
4AD6
102
}
330
1A
100
AcDbEntity
  8
寸法線
 48
10.0
100
AcDbMText
 10
602.000281453475
 20
222.586297067612
 30
0.0
 40
8.0
 41
60.143791615001
 71
     5
 72
     5
  1
RKR-510-1
1001
ACADANNOTATIVE
1000
AnnotativeData
1002
{
1070
     1
1070
     0
1002
}
1001
ACAD
1000
MTEXTBEGIN
1070
    44
1040
1.1475
1000
MTEXTEND
  0
LINE
  5
4D31
330
1A
100
AcDbEntity
  8
外形線
100
AcDbLine
 10
356.159793166504
 20
518.888956476994
 30
0.0
 11
353.16483518331
 21
513.398200174472
 31
0.0
  0
LINE
  5
4D32
330
1A
100
AcDbEntity
  8
外形線
100
AcDbLine
 10
355.239031997341
 20
505.609900285633
 30
0.0
 11
365.474161662288
 21
505.609900285633
 31
0.0
  0
ARC
  5
4D33
330
1A
100
AcDbEntity
  8
外形線
100
AcDbCircle
 10
410.45110938523
 20
492.330844094271
 30
0.0
 40
56.78650211819261
100
AcDbArc
 50
166.476641055109
 51
193.523358944891
  0
LINE
  5
4D34
330
1A
100
AcDbEntity
  8
外形線
100
AcDbLine
 10
356.159793166504
 20
465.772731711548
 30
0.0
 11
353.16483518331
 21
471.26348801407
 31
0.0
  0
ARC
  5
4D35
330
1A
100
AcDbEntity
  8
外形線
100
AcDbCircle
 10
364.32326331512
 20
473.209674470776
 30
0.0
 40
10.80062720349224
100
AcDbArc
 50
147.25473150955
 51
201.956277655799
  0
ARC
  5
4D36
330
1A
100
AcDbEntity
  8
外形線
100
AcDbCircle
 10
310.2620842744
 20
492.330844094271
 30
0.0
 40
56.78650211819261
100
AcDbArc
 50
346.476641055109
 51
13.523358944891
  0
LINE
  5
4D37
330
1A
100
AcDbEntity
  8
外形線
100
AcDbLine
 10
355.239031997341
 20
479.05178790291
 30
0.0
 11
365.474161662288
 21
479.05178790291
 31
0.0
  0
LINE
  5
4D38
330
1A
100
AcDbEntity
  8
外形線
100
AcDbLine
 10
364.553400493126
 20
518.888956476994
 30
0.0
 11
356.159793166502
 21
518.888956476994
 31
0.0
  0
LINE
  5
4D39
330
1A
100
AcDbEntity
  8
外形線
100
AcDbLine
 10
367.54835847632
 20
513.398200174472
 30
0.0
 11
364.553400493126
 21
518.888956476994
 31
0.0
  0
LINE
  5
4D3A
330
1A
100
AcDbEntity
  8
外形線
100
AcDbLine
 10
364.553400493126
 20
465.772731711548
 30
0.0
 11
367.54835847632
 21
471.26348801407
 31
0.0
  0
LINE
  5
4D3B
330
1A
100
AcDbEntity
  8
外形線
100
AcDbLine
 10
364.553400493126
 20
465.772731711548
 30
0.0
 11
356.159793166504
 21
465.772731711548
 31
0.0
  0
ARC
  5
4D3C
330
1A
100
AcDbEntity
  8
外形線
100
AcDbCircle
 10
364.32326331512
 20
511.452013717766
 30
0.0
 40
10.80062720349224
100
AcDbArc
 50
158.043722344201
 51
212.74526849045
  0
ARC
  5
4D3D
330
1A
100
AcDbEntity
  8
外形線
100
AcDbCircle
 10
356.38993034451
 20
511.452013717766
 30
0.0
 40
10.80062720349224
100
AcDbArc
 50
327.25473150955
 51
21.956277655791
  0
ARC
  5
4D3E
330
1A
100
AcDbEntity
  8
外形線
100
AcDbCircle
 10
356.38993034451
 20
473.209674470776
 30
0.0
 40
10.80062720349224
100
AcDbArc
 50
338.04372234421
 51
32.74526849045
  0
LINE
  5
4D3F
330
1A
100
AcDbEntity
  8
外形線
 48
10.0
100
AcDbLine
 10
353.16483518331
 20
471.26348801407
 30
0.0
 11
353.16483518331
 21
513.398200174472
 31
0.0
  0
VIEWPORT
  5
2902
330
28FB
100
AcDbEntity
 67
     1
  8
0
 48
10.0
100
AcDbViewport
 10
0.0
 20
0.0
 30
0.0
 40
552.319156214367
 41
300.3
 68
     1
 69
     1
1001
ACAD
1000
MVIEW
1002
{
1070
    16
1010
0.0
1020
0.0
1030
0.0
1010
0.0
1020
0.0
1030
1.0
1040
0.0
1040
300.3
1040
205.756503333333
1040
143.551503333333
1040
50.0
1040
0.0
1040
0.0
1070
    16
1070
   100
1070
     0
1070
     1
1070
     0
1070
     0
1070
     0
1070
     0
1040
0.0
1040
0.0
1040
0.0
1040
10.0
1040
10.0
1040
10.0
1040
10.0
1070
     0
1002
{
1002
}
1002
}
  0
VIEWPORT
  5
2904
330
28FB
100
AcDbEntity
 67
     1
  8
図枠太線
 48
10.0
100
AcDbViewport
 10
204.746305129083
 20
161.396645458131
 30
0.0
 40
400.0
 41
240.0
 68
     2
 69
     2
1001
ACAD
1000
MVIEW
1002
{
1070
    16
1010
0.0
1020
0.0
1030
0.0
1010
0.0
1020
0.0
1030
1.0
1040
0.0
1040
480.0
1040
359.443987501803
1040
398.892605207786
1040
50.0
1040
0.0
1040
0.0
1070
    16
1070
   100
1070
     0
1070
     0
1070
     0
1070
     0
1070
     0
1070
     0
1040
0.0
1040
0.0
1040
0.0
1040
1.0
1040
1.0
1040
0.0
1040
0.0
1070
     0
1002
{
1002
}
1002
}
  0
INSERT
  5
2A59
330
28FB
100
AcDbEntity
 67
     1
  8
図枠太線
100
AcDbBlockReference
  2
A3横用_タイトル
 10
-0.352109406709
 20
-2.129314295396
 30
0.0
  0
MTEXT
  5
2FE3
330
28FB
100
AcDbEntity
 67
     1
  8
寸法線
 48
10.0
100
AcDbMText
 10
149.281561913196
 20
13.738838105692
 30
0.0
 40
7.0
 41
10.579051054442
 71
     1
 72
     5
  1
1:2
  0
MTEXT
  5
2FE8
330
28FB
100
AcDbEntity
 67
     1
  8
寸法線
 48
10.0
100
AcDbMText
 10
363.257693177112
 20
37.807266065601
 30
0.0
 40
6.0
 41
50.761524795071
 71
     1
 72
     5
  1
{\H0.8333x;振動式\Pレベルスイッチ}
  0
MTEXT
  5
3100
330
28FB
100
AcDbEntity
 67
     1
  8
寸法線
 48
10.0
100
AcDbMText
 10
117.332741067279
 20
49.768531359361
 30
0.0
 40
5.0
 41
58.550841599714
 71
     1
 72
     5
  1
A3縮小図
  0
LINE
  5
3101
330
28FB
100
AcDbEntity
 67
     1
  8
寸法線
 48
10.0
100
AcDbLine
 10
117.332741067279
 20
43.896812031725
 30
0.0
 11
141.875971014484
 21
43.896812031725
 31
0.0
  0
MTEXT
  5
36BA
102
{ACAD_XDICTIONARY
360
4595
102
}
330
28FB
100
AcDbEntity
 67
     1
  8
寸法線
 48
10.0
100
AcDbMText
 10
373.753857416705
 20
49.086912928764
 30
0.0
 40
5.0
 41
58.550841599714
 71
     1
 72
     5
  1
台数   台
1001
ACADANNOTATIVE
1000
AnnotativeData
1002
{
1070
     1
1070
     0
1002
}
  0
MTEXT
  5
3EF9
102
{ACAD_XDICTIONARY
360
47E6
102
}
330
28FB
100
AcDbEntity
 67
     1
  8
寸法線
 48
10.0
100
AcDbMText
 10
311.920584795111
 20
33.060655972016
 30
0.0
 40
6.0
 41
53.647044270833
 71
     1
 72
     5
  1
RKR-5□□-1
1001
ACADANNOTATIVE
1000
AnnotativeData
1002
{
1070
     1
1070
     0
1002
}
  0
MTEXT
  5
3F34
102
{ACAD_XDICTIONARY
360
4927
102
}
330
28FB
100
AcDbEntity
 67
     1
  8
寸法線
 48
10.0
100
AcDbMText
 10
341.895691376087
 20
14.369549986048
 30
0.0
 40
7.0
 41
68.56
 71
     1
 72
     5
  1
HVR-2016
1001
ACADANNOTATIVE
1000
AnnotativeData
1002
{
1070
     1
1070
     0
1002
}
  0
MTEXT
  5
4B78
102
{ACAD_XDICTIONARY
360
4B79
102
}
330
28FB
100
AcDbEntity
 67
     1
  8
寸法線
 48
10.0
100
AcDbMText
 10
175.506541278264
 20
12.819600893732
 30
0.0
 40
5.0
 41
60.244444444444
 71
     1
 72
     5
  1
2015.8.25
1001
ACADANNOTATIVE
1000
AnnotativeData
1002
{
1070
     1
1070
     0
1002
}
  0
MTEXT
  5
4B7C
102
{ACAD_XDICTIONARY
360
4B7D
102
}
330
28FB
100
AcDbEntity
 67
     1
  8
寸法線
 48
10.0
100
AcDbMText
 10
173.953401409015
 20
32.625226751426
 30
0.0
 40
5.0
 41
24.595673902063
 71
     1
 72
     5
  1
takahashi
1001
ACADANNOTATIVE
1000
AnnotativeData
1002
{
1070
     1
1070
     0
1002
}
  0
MTEXT
  5
4C87
102
{ACAD_XDICTIONARY
360
4C88
102
}
330
28FB
100
AcDbEntity
 67
     1
  8
下書線
 48
10.0
100
AcDbMText
 10
353.25750003475
 20
239.150420748361
 30
0.0
 40
10.0
 41
174.128675272846
 71
     5
 72
     5
  1
HP掲載図面\P変更・追記不可
1001
ACADANNOTATIVE
1000
AnnotativeData
1002
{
1070
     1
1070
     0
1002
}
  0
LWPOLYLINE
  5
4C8B
330
28FB
100
AcDbEntity
 67
     1
  8
下書線
 48
10.0
100
AcDbPolyline
 90
        4
 70
     1
 43
0.0
 10
311.027354781179
 20
257.577025579761
 10
394.861518544935
 20
257.577025579761
 10
394.861518544935
 20
220.454886643781
 10
311.027354781179
 20
220.454886643781
  0
MTEXT
  5
5137
102
{ACAD_XDICTIONARY
360
5138
102
}
330
28FB
100
AcDbEntity
 67
     1
  8
寸法線
 48
10.0
100
AcDbMText
 10
154.696305129083
 20
29.396646458131
 30
0.0
 40
4.5
 41
29.906507692735
 71
     5
 72
     5
  1
tahara
1001
ACADANNOTATIVE
1000
AnnotativeData
1002
{
1070
     1
1070
     0
1002
}
  0
MTEXT
  5
513B
102
{ACAD_XDICTIONARY
360
513C
102
}
330
28FB
100
AcDbEntity
 67
     1
  8
寸法線
 48
10.0
100
AcDbMText
 10
121.396304528483
 20
29.396646458131
 30
0.0
 40
4.5
 41
16.097226867587
 71
     5
 72
     5
  1
konishi
1001
ACADANNOTATIVE
1000
AnnotativeData
1002
{
1070
     1
1070
     0
1002
}
  0
ENDSEC
  0
SECTION
  2
OBJECTS
  0
DICTIONARY
  5
C
330
0
100
AcDbDictionary
  3
ACAD_COLOR
350
2948
  3
ACAD_GROUP
350
D
  3
ACAD_LAYOUT
350
2816
  3
ACAD_MATERIAL
350
2947
  3
ACAD_MLEADERSTYLE
350
458E
  3
ACAD_MLINESTYLE
350
E
  3
ACAD_PLOTSETTINGS
350
2817
  3
ACAD_SCALELIST
350
4567
  3
ACAD_VISUALSTYLE
350
454E
  3
ACADDIM
350
30EB
  3
ACDBHEADERROUNDTRIPXREC
350
51A9
  3
ACDBVARIABLEDICTIONARY
350
45BB
  3
DWGPROPS
350
51CE
  0
DICTIONARY
  5
51CF
330
8
100
AcDbDictionary
280
     1
  3
ACAD_XREC_ROUNDTRIP
360
51D0
  0
DICTIONARY
  5
29EA
330
2
100
AcDbDictionary
280
     1
  3
ACAD_LAYERFILTERS
360
2B0C
  3
ACAD_LAYERSTATES
360
29EB
  0
DICTIONARY
  5
4660
330
3CDE
100
AcDbDictionary
280
     1
  3
ACDBCONTEXTDATAMANAGER
360
4661
  0
DICTIONARY
  5
4E18
330
4243
100
AcDbDictionary
280
     1
  3
ACDBCONTEXTDATAMANAGER
360
4E19
  0
DICTIONARY
  5
4D41
330
4277
100
AcDbDictionary
280
     1
  3
ACDBCONTEXTDATAMANAGER
360
4D42
  0
DICTIONARY
  5
469D
330
469C
100
AcDbDictionary
280
     1
  3
ACDBCONTEXTDATAMANAGER
360
469E
  0
DICTIONARY
  5
4727
330
4726
100
AcDbDictionary
280
     1
  3
ACDBCONTEXTDATAMANAGER
360
4728
  0
DICTIONARY
  5
4735
330
4734
100
AcDbDictionary
280
     1
  3
ACDBCONTEXTDATAMANAGER
360
4736
  0
DICTIONARY
  5
473F
330
473E
100
AcDbDictionary
280
     1
  3
ACDBCONTEXTDATAMANAGER
360
4740
  0
DICTIONARY
  5
4747
330
4746
100
AcDbDictionary
280
     1
  3
ACDBCONTEXTDATAMANAGER
360
4748
  0
DICTIONARY
  5
475B
330
475A
100
AcDbDictionary
280
     1
  3
ACDBCONTEXTDATAMANAGER
360
475C
  0
DICTIONARY
  5
4774
330
4773
100
AcDbDictionary
280
     1
  3
ACDBCONTEXTDATAMANAGER
360
4775
  0
DICTIONARY
  5
49CD
330
49CC
100
AcDbDictionary
280
     1
  3
ACDBCONTEXTDATAMANAGER
360
49CE
  0
DICTIONARY
  5
4A02
330
4A01
100
AcDbDictionary
280
     1
  3
ACDBCONTEXTDATAMANAGER
360
4A03
  0
DICTIONARY
  5
4A37
330
4A36
100
AcDbDictionary
280
     1
  3
ACDBCONTEXTDATAMANAGER
360
4A38
  0
DICTIONARY
  5
4A6C
330
4A6B
100
AcDbDictionary
280
     1
  3
ACDBCONTEXTDATAMANAGER
360
4A6D
  0
DICTIONARY
  5
4AA1
330
4AA0
100
AcDbDictionary
280
     1
  3
ACDBCONTEXTDATAMANAGER
360
4AA2
  0
DICTIONARY
  5
4AD6
330
4AD5
100
AcDbDictionary
280
     1
  3
ACDBCONTEXTDATAMANAGER
360
4AD7
  0
DICTIONARY
  5
4595
330
36BA
100
AcDbDictionary
280
     1
  3
ACDBCONTEXTDATAMANAGER
360
4596
  0
DICTIONARY
  5
47E6
330
3EF9
100
AcDbDictionary
280
     1
  3
ACDBCONTEXTDATAMANAGER
360
47E7
  0
DICTIONARY
  5
4927
330
3F34
100
AcDbDictionary
280
     1
  3
ACDBCONTEXTDATAMANAGER
360
4928
  0
DICTIONARY
  5
4B79
330
4B78
100
AcDbDictionary
280
     1
  3
ACDBCONTEXTDATAMANAGER
360
4B7A
  0
DICTIONARY
  5
4B7D
330
4B7C
100
AcDbDictionary
280
     1
  3
ACDBCONTEXTDATAMANAGER
360
4B7E
  0
DICTIONARY
  5
4C88
330
4C87
100
AcDbDictionary
280
     1
  3
ACDBCONTEXTDATAMANAGER
360
4C89
  0
DICTIONARY
  5
5138
330
5137
100
AcDbDictionary
280
     1
  3
ACDBCONTEXTDATAMANAGER
360
5139
  0
DICTIONARY
  5
513C
330
513B
100
AcDbDictionary
280
     1
  3
ACDBCONTEXTDATAMANAGER
360
513D
  0
DICTIONARY
  5
2948
102
{ACAD_REACTORS
330
C
102
}
330
C
100
AcDbDictionary
  0
DICTIONARY
  5
D
102
{ACAD_REACTORS
330
C
102
}
330
C
100
AcDbDictionary
  0
DICTIONARY
  5
2816
102
{ACAD_REACTORS
330
C
102
}
330
C
100
AcDbDictionary
  0
DICTIONARY
  5
2947
102
{ACAD_REACTORS
330
C
102
}
330
C
100
AcDbDictionary
  3
BYBLOCK
350
458A
  3
BYLAYER
350
4589
  3
GLOBAL
350
458B
  0
DICTIONARY
  5
458E
102
{ACAD_REACTORS
330
C
102
}
330
C
100
AcDbDictionary
  3
STANDARD
350
458F
  0
DICTIONARY
  5
E
102
{ACAD_REACTORS
330
C
102
}
330
C
100
AcDbDictionary
  3
STANDARD
350
13
  0
DICTIONARY
  5
2817
102
{ACAD_REACTORS
330
C
102
}
330
C
100
AcDbDictionary
  0
DICTIONARY
  5
4567
102
{ACAD_REACTORS
330
C
102
}
330
C
100
AcDbDictionary
  3
A0
350
4568
  3
A1
350
4569
  3
A2
350
456A
  3
A3
350
456B
  3
A4
350
456C
  3
A5
350
456D
  3
A6
350
456E
  3
A7
350
456F
  3
A8
350
4570
  3
A9
350
4571
  3
B0
350
4572
  3
B1
350
4573
  3
B2
350
4574
  3
B3
350
4575
  3
B4
350
4576
  3
B5
350
4577
  3
B6
350
4578
  3
B7
350
4579
  3
B8
350
457A
  3
B9
350
457B
  3
C0
350
457C
  3
C1
350
457D
  3
C2
350
457E
  3
C3
350
457F
  3
C4
350
4580
  3
C5
350
4581
  3
C6
350
4582
  3
C7
350
4583
  3
C8
350
4584
  3
C9
350
4585
  3
D0
350
4586
  3
D1
350
4587
  3
D2
350
4588
  0
DICTIONARY
  5
454E
102
{ACAD_REACTORS
330
C
102
}
330
C
100
AcDbDictionary
  3
2DWIREFRAME
350
4553
  3
BASIC
350
4556
  3
BRIGHTEN
350
455A
  3
COLORCHANGE
350
455E
  3
CONCEPTUAL
350
4558
  3
DIM
350
4559
  3
EDGECOLOROFF
350
4561
  3
FACEPATTERN
350
455D
  3
FLAT
350
454F
  3
FLATWITHEDGES
350
4550
  3
GOURAUD
350
4551
  3
GOURAUDWITHEDGES
350
4552
  3
HIDDEN
350
4555
  3
JITTEROFF
350
455F
  3
LINEPATTERN
350
455C
  3
MODELING
350
465F
  3
OVERHANGOFF
350
4560
  3
REALISTIC
350
4557
  3
SHADED
350
4566
  3
SHADED_WITH_EDGES
350
4565
  3
SHADES_OF_GRAY
350
4562
  3
SKETCHY
350
4563
  3
THICKEN
350
455B
  3
WIREFRAME
350
4554
  3
X-RAY
350
4564
  0
XRECORD
  5
30EB
102
{ACAD_REACTORS
330
C
102
}
330
C
100
AcDbXrecord
 90
   990106
  3

 60
     0
 61
     0
 62
     1
 63
     3
 64
     0
 65
     0
 66
     0
 67
     3
 68
     1
 69
     0
 70
     0
 71
     0
 72
     0
 40
0.0
170
     0
  0
DICTIONARY
  5
51A9
102
{ACAD_REACTORS
330
C
102
}
330
C
100
AcDbDictionary
  3
CEPSNID
350
51B3
  3
CEPSNTYPE
350
51B2
  3
COLORDICT
350
51CC
  3
DIMSTYLEDATA
350
51C9
  3
FINGERPRINTGUID
350
51B4
  3
HYPERLINKBASE
350
51AC
  3
INSUNITS
350
51B1
  3
LAYOUTDICT
350
51AE
  3
LWETCUNION
350
51B0
  3
MATERIALDICT
350
51CD
  3
PLOTSETDICT
350
51AF
  3
PSVPSCALE
350
51B6
  3
PUCSBASE
350
51B9
  3
PUCSORGBACK
350
51BF
  3
PUCSORGBOTTOM
350
51BB
  3
PUCSORGFRONT
350
51BE
  3
PUCSORGLEFT
350
51BC
  3
PUCSORGRIGHT
350
51BD
  3
PUCSORGTOP
350
51BA
  3
PUCSORTHOREF
350
51B7
  3
PUCSORTHOVIEW
350
51B8
  3
STYLESHEET
350
51AD
  3
TSTACKALIGN
350
51AA
  3
TSTACKSIZE
350
51AB
  3
UCSBASE
350
51C2
  3
UCSORGBACK
350
51C8
  3
UCSORGBOTTOM
350
51C4
  3
UCSORGFRONT
350
51C7
  3
UCSORGLEFT
350
51C5
  3
UCSORGRIGHT
350
51C6
  3
UCSORGTOP
350
51C3
  3
UCSORTHOREF
350
51C0
  3
UCSORTHOVIEW
350
51C1
  3
VERSIONGUID
350
51B5
  0
DICTIONARY
  5
45BB
102
{ACAD_REACTORS
330
C
102
}
330
C
100
AcDbDictionary
  3
CANNOSCALE
350
45BC
  3
CMLEADERSTYLE
350
45FB
  3
CTABLESTYLE
350
45FA
  3
DIMASSOC
350
51CA
  3
HIDETEXT
350
51CB
  3
MSLTSCALE
350
45FC
  3
XCLIPFRAME
350
45FD
  0
XRECORD
  5
51CE
102
{ACAD_REACTORS
330
C
102
}
330
C
100
AcDbXrecord
  1
DWGPROPS COOKIE
  2

  3

  4

  6

  7

  8
takahashi
  9

300
=
301
=
302
=
303
=
304
=
305
=
306
=
307
=
308
=
309
=
 40
0.0
 41
2450576.222302431
 42
2457269.004013484
  1

 90
        0
  0
XRECORD
  5
51D0
102
{ACAD_REACTORS
330
51CF
102
}
330
51CF
100
AcDbXrecord
102
VTR_0.000_0.000_1.000_1.000_VISUALSTYLE
340
4553
102
VTR_0.000_0.000_1.000_1.000_GRIDDISPLAY
 70
     3
102
VTR_0.000_0.000_1.000_1.000_GRIDMAJOR
 70
     5
102
VTR_0.000_0.000_1.000_1.000_DEFAULTLIGHTING
280
     1
102
VTR_0.000_0.000_1.000_1.000_DEFAULTLIGHTINGTYPE
 70
     1
102
VTR_0.000_0.000_1.000_1.000_BRIGHTNESS
141
0.0
102
VTR_0.000_0.000_1.000_1.000_CONTRAST
142
0.0
  0
DICTIONARY
  5
2B0C
102
{ACAD_REACTORS
330
29EA
102
}
330
29EA
100
AcDbDictionary
  0
DICTIONARY
  5
29EB
102
{ACAD_REACTORS
330
29EA
102
}
330
29EA
100
AcDbDictionary
  0
DICTIONARY
  5
4661
102
{ACAD_REACTORS
330
4660
102
}
330
4660
100
AcDbDictionary
  3
ACDB_ANNOTATIONSCALES
350
4662
  0
DICTIONARY
  5
4E19
102
{ACAD_REACTORS
330
4E18
102
}
330
4E18
100
AcDbDictionary
  3
ACDB_ANNOTATIONSCALES
350
4E1A
  0
DICTIONARY
  5
4D42
102
{ACAD_REACTORS
330
4D41
102
}
330
4D41
100
AcDbDictionary
  3
ACDB_ANNOTATIONSCALES
350
4D43
  0
DICTIONARY
  5
469E
102
{ACAD_REACTORS
330
469D
102
}
330
469D
100
AcDbDictionary
  3
ACDB_ANNOTATIONSCALES
350
469F
  0
DICTIONARY
  5
4728
102
{ACAD_REACTORS
330
4727
102
}
330
4727
100
AcDbDictionary
  3
ACDB_ANNOTATIONSCALES
350
4729
  0
DICTIONARY
  5
4736
102
{ACAD_REACTORS
330
4735
102
}
330
4735
100
AcDbDictionary
  3
ACDB_ANNOTATIONSCALES
350
4737
  0
DICTIONARY
  5
4740
102
{ACAD_REACTORS
330
473F
102
}
330
473F
100
AcDbDictionary
  3
ACDB_ANNOTATIONSCALES
350
4741
  0
DICTIONARY
  5
4748
102
{ACAD_REACTORS
330
4747
102
}
330
4747
100
AcDbDictionary
  3
ACDB_ANNOTATIONSCALES
350
4749
  0
DICTIONARY
  5
475C
102
{ACAD_REACTORS
330
475B
102
}
330
475B
100
AcDbDictionary
  3
ACDB_ANNOTATIONSCALES
350
475D
  0
DICTIONARY
  5
4775
102
{ACAD_REACTORS
330
4774
102
}
330
4774
100
AcDbDictionary
  3
ACDB_ANNOTATIONSCALES
350
4776
  0
DICTIONARY
  5
49CE
102
{ACAD_REACTORS
330
49CD
102
}
330
49CD
100
AcDbDictionary
  3
ACDB_ANNOTATIONSCALES
350
49CF
  0
DICTIONARY
  5
4A03
102
{ACAD_REACTORS
330
4A02
102
}
330
4A02
100
AcDbDictionary
  3
ACDB_ANNOTATIONSCALES
350
4A04
  0
DICTIONARY
  5
4A38
102
{ACAD_REACTORS
330
4A37
102
}
330
4A37
100
AcDbDictionary
  3
ACDB_ANNOTATIONSCALES
350
4A39
  0
DICTIONARY
  5
4A6D
102
{ACAD_REACTORS
330
4A6C
102
}
330
4A6C
100
AcDbDictionary
  3
ACDB_ANNOTATIONSCALES
350
4A6E
  0
DICTIONARY
  5
4AA2
102
{ACAD_REACTORS
330
4AA1
102
}
330
4AA1
100
AcDbDictionary
  3
ACDB_ANNOTATIONSCALES
350
4AA3
  0
DICTIONARY
  5
4AD7
102
{ACAD_REACTORS
330
4AD6
102
}
330
4AD6
100
AcDbDictionary
  3
ACDB_ANNOTATIONSCALES
350
4AD8
  0
DICTIONARY
  5
4596
102
{ACAD_REACTORS
330
4595
102
}
330
4595
100
AcDbDictionary
  3
ACDB_ANNOTATIONSCALES
350
4597
  0
DICTIONARY
  5
47E7
102
{ACAD_REACTORS
330
47E6
102
}
330
47E6
100
AcDbDictionary
  3
ACDB_ANNOTATIONSCALES
350
47E8
  0
DICTIONARY
  5
4928
102
{ACAD_REACTORS
330
4927
102
}
330
4927
100
AcDbDictionary
  3
ACDB_ANNOTATIONSCALES
350
4929
  0
DICTIONARY
  5
4B7A
102
{ACAD_REACTORS
330
4B79
102
}
330
4B79
100
AcDbDictionary
  3
ACDB_ANNOTATIONSCALES
350
4B7B
  0
DICTIONARY
  5
4B7E
102
{ACAD_REACTORS
330
4B7D
102
}
330
4B7D
100
AcDbDictionary
  3
ACDB_ANNOTATIONSCALES
350
4B7F
  0
DICTIONARY
  5
4C89
102
{ACAD_REACTORS
330
4C88
102
}
330
4C88
100
AcDbDictionary
  3
ACDB_ANNOTATIONSCALES
350
4C8A
  0
DICTIONARY
  5
5139
102
{ACAD_REACTORS
330
5138
102
}
330
5138
100
AcDbDictionary
  3
ACDB_ANNOTATIONSCALES
350
513A
  0
DICTIONARY
  5
513D
102
{ACAD_REACTORS
330
513C
102
}
330
513C
100
AcDbDictionary
  3
ACDB_ANNOTATIONSCALES
350
513E
  0
MATERIAL
  5
458A
102
{ACAD_REACTORS
330
2947
102
}
102
{ACAD_XDICTIONARY
360
51D3
102
}
330
2947
100
AcDbMaterial
  1
BYBLOCK
  0
MATERIAL
  5
4589
102
{ACAD_REACTORS
330
2947
102
}
102
{ACAD_XDICTIONARY
360
51D1
102
}
330
2947
100
AcDbMaterial
  1
BYLAYER
  0
MATERIAL
  5
458B
102
{ACAD_REACTORS
330
2947
102
}
102
{ACAD_XDICTIONARY
360
51D5
102
}
330
2947
100
AcDbMaterial
  1
GLOBAL
  0
ACAD_PROXY_OBJECT
  5
458F
102
{ACAD_REACTORS
330
458E
102
}
330
458E
100
AcDbProxyObject
 90
      499
 91
      507
 93
      610
310
40901902A4063FBFFFFFE0000000000000020400000000000020404214DD185B99185C990000000000000104090141901A00000000000004100000000000000041025764000000000000039000
340
14
340
0
340
10
340
0
 94
        0
1001
ACAD_MLEADERVER
1070
     2
  0
MLINESTYLE
  5
13
102
{ACAD_REACTORS
330
E
102
}
330
E
100
AcDbMlineStyle
  2
STANDARD
 70
     0
  3

 62
     0
 51
90.0
 52
90.0
 71
     2
 49
0.5
 62
   256
  6
BYLAYER
 49
-0.5
 62
   256
  6
BYLAYER
  0
ACAD_PROXY_OBJECT
  5
4568
102
{ACAD_REACTORS
330
4567
102
}
330
4567
100
AcDbProxyObject
 90
      499
 91
      504
 93
       41
310
903313A31580
  0
ACAD_PROXY_OBJECT
  5
4569
102
{ACAD_REACTORS
330
4567
102
}
330
4567
100
AcDbProxyObject
 90
      499
 91
      504
 93
      105
310
903313A324000000000000004000
  0
ACAD_PROXY_OBJECT
  5
456A
102
{ACAD_REACTORS
330
4567
102
}
330
4567
100
AcDbProxyObject
 90
      499
 91
      504
 93
      105
310
903313A344000000000000104000
  0
ACAD_PROXY_OBJECT
  5
456B
102
{ACAD_REACTORS
330
4567
102
}
330
4567
100
AcDbProxyObject
 90
      499
 91
      504
 93
      105
310
903313A354000000000000144000
  0
ACAD_PROXY_OBJECT
  5
456C
102
{ACAD_REACTORS
330
4567
102
}
330
4567
100
AcDbProxyObject
 90
      499
 91
      504
 93
      105
310
903313A384000000000000204000
  0
ACAD_PROXY_OBJECT
  5
456D
102
{ACAD_REACTORS
330
4567
102
}
330
4567
100
AcDbProxyObject
 90
      499
 91
      504
 93
      113
310
904313A31304000000000000244000
  0
ACAD_PROXY_OBJECT
  5
456E
102
{ACAD_REACTORS
330
4567
102
}
330
4567
100
AcDbProxyObject
 90
      499
 91
      504
 93
      113
310
904313A31364000000000000304000
  0
ACAD_PROXY_OBJECT
  5
456F
102
{ACAD_REACTORS
330
4567
102
}
330
4567
100
AcDbProxyObject
 90
      499
 91
      504
 93
      113
310
904313A32304000000000000344000
  0
ACAD_PROXY_OBJECT
  5
4570
102
{ACAD_REACTORS
330
4567
102
}
330
4567
100
AcDbProxyObject
 90
      499
 91
      504
 93
      113
310
904313A333040000000000003E4000
  0
ACAD_PROXY_OBJECT
  5
4571
102
{ACAD_REACTORS
330
4567
102
}
330
4567
100
AcDbProxyObject
 90
      499
 91
      504
 93
      113
310
904313A34304000000000000444000
  0
ACAD_PROXY_OBJECT
  5
4572
102
{ACAD_REACTORS
330
4567
102
}
330
4567
100
AcDbProxyObject
 90
      499
 91
      504
 93
      113
310
904313A35304000000000000494000
  0
ACAD_PROXY_OBJECT
  5
4573
102
{ACAD_REACTORS
330
4567
102
}
330
4567
100
AcDbProxyObject
 90
      499
 91
      504
 93
      121
310
905313A3130304000000000000594000
  0
ACAD_PROXY_OBJECT
  5
4574
102
{ACAD_REACTORS
330
4567
102
}
330
4567
100
AcDbProxyObject
 90
      499
 91
      504
 93
      105
310
903323A310000000000000010100
  0
ACAD_PROXY_OBJECT
  5
4575
102
{ACAD_REACTORS
330
4567
102
}
330
4567
100
AcDbProxyObject
 90
      499
 91
      504
 93
      105
310
903343A310000000000000410100
  0
ACAD_PROXY_OBJECT
  5
4576
102
{ACAD_REACTORS
330
4567
102
}
330
4567
100
AcDbProxyObject
 90
      499
 91
      504
 93
      105
310
903383A310000000000000810100
  0
ACAD_PROXY_OBJECT
  5
4577
102
{ACAD_REACTORS
330
4567
102
}
330
4567
100
AcDbProxyObject
 90
      499
 91
      504
 93
      113
310
90431303A310000000000000910100
  0
ACAD_PROXY_OBJECT
  5
4578
102
{ACAD_REACTORS
330
4567
102
}
330
4567
100
AcDbProxyObject
 90
      499
 91
      504
 93
      121
310
9053130303A310000000000001650100
  0
ACAD_PROXY_OBJECT
  5
4579
102
{ACAD_REACTORS
330
4567
102
}
330
4567
100
AcDbProxyObject
 90
      499
 91
      504
 93
      257
310
90E312F31323822203D2031272D3022000000000000200FC000000000000284000
  0
ACAD_PROXY_OBJECT
  5
457A
102
{ACAD_REACTORS
330
4567
102
}
330
4567
100
AcDbProxyObject
 90
      499
 91
      504
 93
      249
310
90D312F363422203D2031272D3022000000000000240FC000000000000284000
  0
ACAD_PROXY_OBJECT
  5
457B
102
{ACAD_REACTORS
330
4567
102
}
330
4567
100
AcDbProxyObject
 90
      499
 91
      504
 93
      249
310
90D312F333222203D2031272D3022000000000000280FC000000000000284000
  0
ACAD_PROXY_OBJECT
  5
457C
102
{ACAD_REACTORS
330
4567
102
}
330
4567
100
AcDbProxyObject
 90
      499
 91
      504
 93
      249
310
90D312F313622203D2031272D30220000000000002C0FC000000000000284000
  0
ACAD_PROXY_OBJECT
  5
457D
102
{ACAD_REACTORS
330
4567
102
}
330
4567
100
AcDbProxyObject
 90
      499
 91
      504
 93
      249
310
90D332F333222203D2031272D30220000000000002E0FC000000000000284000
  0
ACAD_PROXY_OBJECT
  5
457E
102
{ACAD_REACTORS
330
4567
102
}
330
4567
100
AcDbProxyObject
 90
      499
 91
      504
 93
      241
310
90C312F3822203D2031272D3022000000000000300FC000000000000284000
  0
ACAD_PROXY_OBJECT
  5
457F
102
{ACAD_REACTORS
330
4567
102
}
330
4567
100
AcDbProxyObject
 90
      499
 91
      504
 93
      249
310
90D332F313622203D2031272D3022000000000000320FC000000000000284000
  0
ACAD_PROXY_OBJECT
  5
4580
102
{ACAD_REACTORS
330
4567
102
}
330
4567
100
AcDbProxyObject
 90
      499
 91
      504
 93
      241
310
90C312F3422203D2031272D3022000000000000340FC000000000000284000
  0
ACAD_PROXY_OBJECT
  5
4581
102
{ACAD_REACTORS
330
4567
102
}
330
4567
100
AcDbProxyObject
 90
      499
 91
      504
 93
      241
310
90C332F3822203D2031272D3022000000000000360FC000000000000284000
  0
ACAD_PROXY_OBJECT
  5
4582
102
{ACAD_REACTORS
330
4567
102
}
330
4567
100
AcDbProxyObject
 90
      499
 91
      504
 93
      241
310
90C312F3222203D2031272D3022000000000000380FC000000000000284000
  0
ACAD_PROXY_OBJECT
  5
4583
102
{ACAD_REACTORS
330
4567
102
}
330
4567
100
AcDbProxyObject
 90
      499
 91
      504
 93
      241
310
90C332F3422203D2031272D30220000000000003A0FC000000000000284000
  0
ACAD_PROXY_OBJECT
  5
4584
102
{ACAD_REACTORS
330
4567
102
}
330
4567
100
AcDbProxyObject
 90
      499
 91
      504
 93
      161
310
90A3122203D2031272D30224000000000000284000
  0
ACAD_PROXY_OBJECT
  5
4585
102
{ACAD_REACTORS
330
4567
102
}
330
4567
100
AcDbProxyObject
 90
      499
 91
      504
 93
      257
310
90E312D312F3222203D2031272D30220000000000003E0FC000000000000284000
  0
ACAD_PROXY_OBJECT
  5
4586
102
{ACAD_REACTORS
330
4567
102
}
330
4567
100
AcDbProxyObject
 90
      499
 91
      504
 93
      225
310
90A3322203D2031272D302200000000000002100000000000000284000
  0
ACAD_PROXY_OBJECT
  5
4587
102
{ACAD_REACTORS
330
4567
102
}
330
4567
100
AcDbProxyObject
 90
      499
 91
      504
 93
      225
310
90A3622203D2031272D302200000000000006100000000000000284000
  0
ACAD_PROXY_OBJECT
  5
4588
102
{ACAD_REACTORS
330
4567
102
}
330
4567
100
AcDbProxyObject
 90
      499
 91
      504
 93
      249
310
90D31272D3022203D2031272D30220000000000000A100000000000000284000
  0
ACAD_PROXY_OBJECT
  5
4553
102
{ACAD_REACTORS
330
454E
102
}
330
454E
100
AcDbProxyObject
 90
      499
 91
      503
 93
      436
310
42CC9915DA5C99599C985B595049028333333333333E33F0000000000000F90107901411070040501600405405064090741402480A0340
1001
ACAD
1000
AcDbSavedByObjectVersion
1070
     0
  0
ACAD_PROXY_OBJECT
  5
4556
102
{ACAD_REACTORS
330
454E
102
}
330
454E
100
AcDbProxyObject
 90
      499
 91
      503
 93
      388
310
4150985CDA58D07406404333333333333E33F0000000000000F90107A41107004050150841D405064090741402480A0350
1001
ACAD
1000
AcDbSavedByObjectVersion
1070
     0
  0
ACAD_PROXY_OBJECT
  5
455A
102
{ACAD_REACTORS
330
454E
102
}
330
454E
100
AcDbProxyObject
 90
      499
 91
      503
 93
      428
310
42109C9A59DA1D195B90C409028333333333333E33F0000000000000F9010790141107004050150841D405064090741402480A029950
1001
ACAD
1000
AcDbSavedByObjectVersion
1070
     0
  0
ACAD_PROXY_OBJECT
  5
455E
102
{ACAD_REACTORS
330
454E
102
}
330
454E
100
AcDbProxyObject
 90
      499
 91
      503
 93
      452
310
42D0DBDB1BDC90DA185B99D95104090240C333333333333E33F0000000000000F90108901411070040501508421405064090741402480A0350
1001
ACAD
1000
AcDbSavedByObjectVersion
1070
     0
  0
ACAD_PROXY_OBJECT
  5
4558
102
{ACAD_REACTORS
330
454E
102
}
330
454E
100
AcDbProxyObject
 90
      499
 91
      503
 93
      500
310
4290DBDB98D95C1D1D585B10940D028333333333333E33F0000000000000F90107902409070040501000000000018199010841D405064090740C02480A0340
1001
ACAD
1000
AcDbSavedByObjectVersion
1070
     0
  0
ACAD_PROXY_OBJECT
  5
4559
102
{ACAD_REACTORS
330
454E
102
}
330
454E
100
AcDbProxyObject
 90
      499
 91
      503
 93
      412
310
40D11A5B50B409028333333333333E33F0000000000000F9010790141107004050150841D405064090741402480A02677FFFFFD0
1001
ACAD
1000
AcDbSavedByObjectVersion
1070
     0
  0
ACAD_PROXY_OBJECT
  5
4561
102
{ACAD_REACTORS
330
454E
102
}
330
454E
100
AcDbProxyObject
 90
      499
 91
      503
 93
      452
310
43115919D950DBDB1BDC93D999916409028333333333333E33F0000000000000F9010790141107004050150841D405064090741402480A0350
1001
ACAD
1000
AcDbSavedByObjectVersion
1070
     0
  0
ACAD_PROXY_OBJECT
  5
455D
102
{ACAD_REACTORS
330
454E
102
}
330
454E
100
AcDbProxyObject
 90
      499
 91
      503
 93
      444
310
42D19858D95C185D1D195C9B90F409028333333333333E33F0000000000000F9010790141107004050150841D405064090741402480A0350
1001
ACAD
1000
AcDbSavedByObjectVersion
1070
     0
  0
ACAD_PROXY_OBJECT
  5
454F
102
{ACAD_REACTORS
330
454E
102
}
330
454E
100
AcDbProxyObject
 90
      499
 91
      503
 93
      380
310
41119B185D240901404333333333333E33F0000000000000F9010740A907004050150841D405064090741402480A1B50
1001
ACAD
1000
AcDbSavedByObjectVersion
1070
     0
  0
ACAD_PROXY_OBJECT
  5
4550
102
{ACAD_REACTORS
330
454E
102
}
330
454E
100
AcDbProxyObject
 90
      499
 91
      503
 93
      468
310
43519B185D15DA5D1A115919D95CD0140901404333333333333E33F0000000000000F90107409019070040501600405405064090741402480A1B50
1001
ACAD
1000
AcDbSavedByObjectVersion
1070
     0
  0
ACAD_PROXY_OBJECT
  5
4551
102
{ACAD_REACTORS
330
454E
102
}
330
454E
100
AcDbProxyObject
 90
      499
 91
      503
 93
      404
310
41D1DBDD5C985D5910240902404333333333333E33F0000000000000F9010740A9070040501641D405064090741402480A1B50
1001
ACAD
1000
AcDbSavedByObjectVersion
1070
     0
  0
ACAD_PROXY_OBJECT
  5
4552
102
{ACAD_REACTORS
330
454E
102
}
330
454E
100
AcDbProxyObject
 90
      499
 91
      503
 93
      492
310
4411DBDD5C985D5915DA5D1A115919D95CD0340902404333333333333E33F0000000000000F90107409019070040501600405405064090741402480A1B50
1001
ACAD
1000
AcDbSavedByObjectVersion
1070
     0
  0
ACAD_PROXY_OBJECT
  5
4555
102
{ACAD_REACTORS
330
454E
102
}
330
454E
100
AcDbProxyObject
 90
      499
 91
      503
 93
      476
310
41921A5919195B90640502408333333333333E33F0000000000000F901079024090700405020000000000001110200405405064090740C02480A0340
1001
ACAD
1000
AcDbSavedByObjectVersion
1070
     0
  0
ACAD_PROXY_OBJECT
  5
455F
102
{ACAD_REACTORS
330
454E
102
}
330
454E
100
AcDbProxyObject
 90
      499
 91
      503
 93
      428
310
42529A5D1D195C93D999914409028333333333333E33F0000000000000F9010790141107004050150A41D405064090741402480A0350
1001
ACAD
1000
AcDbSavedByObjectVersion
1070
     0
  0
ACAD_PROXY_OBJECT
  5
455C
102
{ACAD_REACTORS
330
454E
102
}
330
454E
100
AcDbProxyObject
 90
      499
 91
      503
 93
      444
310
42D31A5B995C185D1D195C9B90E409028333333333333E33F0000000000000F9010790141107004050750841D405064090741402483A0350
1001
ACAD
1000
AcDbSavedByObjectVersion
1070
     0
  0
ACAD_PROXY_OBJECT
  5
465F
102
{ACAD_REACTORS
330
454E
102
}
330
454E
100
AcDbProxyObject
 90
      499
 91
      503
 93
      412
310
90A409038333333333333E33F0000000000000F901074090290700405010000000000201990108421405064090741402480A1B40
1001
ACAD
1000
AcDbSavedByObjectVersion
1070
     0
  0
ACAD_PROXY_OBJECT
  5
4560
102
{ACAD_REACTORS
330
454E
102
}
330
454E
100
AcDbProxyObject
 90
      499
 91
      503
 93
      444
310
42D3DD995C9A185B99D3D999915409028333333333333E33F0000000000000F9010790141107004050150941D405064090741402480A0350
1001
ACAD
1000
AcDbSavedByObjectVersion
1070
     0
  0
ACAD_PROXY_OBJECT
  5
4557
102
{ACAD_REACTORS
330
454E
102
}
330
454E
100
AcDbProxyObject
 90
      499
 91
      503
 93
      428
310
425499585B1A5CDD1A58D08409038333333333333E33F0000000000000F9010740A907004050150800405405064090740C02480A1B40
1001
ACAD
1000
AcDbSavedByObjectVersion
1070
     0
  0
ACAD_PROXY_OBJECT
  5
4566
102
{ACAD_REACTORS
330
454E
102
}
330
454E
100
AcDbProxyObject
 90
      499
 91
      503
 93
      420
310
4194DA1859195911B40902404333333333333E33F0000000000000F9010740A41107004050150800405405064090840C02480A0B40
1001
ACAD
1000
AcDbSavedByObjectVersion
1070
     0
  0
ACAD_PROXY_OBJECT
  5
4565
102
{ACAD_REACTORS
330
454E
102
}
330
454E
100
AcDbProxyObject
 90
      499
 91
      503
 93
      516
310
4454DA18591959081DDA5D1A08195919D95CD1A40902404333333333333E33F0000000000000F901074090142907004050250800405405064090740C02480A0B40
1001
ACAD
1000
AcDbSavedByObjectVersion
1070
     0
  0
ACAD_PROXY_OBJECT
  5
4562
102
{ACAD_REACTORS
330
454E
102
}
330
454E
100
AcDbProxyObject
 90
      499
 91
      503
 93
      532
310
4394DA1859195CC81BD98811DC985E5174090240C333333333333E33F0000000000000F901079024090741D01000000000000111010841D405064090740C02480A0340
1001
ACAD
1000
AcDbSavedByObjectVersion
1070
     0
  0
ACAD_PROXY_OBJECT
  5
4563
102
{ACAD_REACTORS
330
454E
102
}
330
454E
100
AcDbProxyObject
 90
      499
 91
      503
 93
      476
310
41D4DAD95D18DA1E51840502408333333333333E33F0000000000000F901079024090741D01000000000000111010B41D405064090741802480A0340
1001
ACAD
1000
AcDbSavedByObjectVersion
1070
     0
  0
ACAD_PROXY_OBJECT
  5
455B
102
{ACAD_REACTORS
330
454E
102
}
330
454E
100
AcDbProxyObject
 90
      499
 91
      503
 93
      412
310
41D51A1A58DAD95B90D409028333333333333E33F0000000000000F9010790141107004050150C41D405064090741402480A0350
1001
ACAD
1000
AcDbSavedByObjectVersion
1070
     0
  0
ACAD_PROXY_OBJECT
  5
4554
102
{ACAD_REACTORS
330
454E
102
}
330
454E
100
AcDbProxyObject
 90
      499
 91
      503
 93
      420
310
4255DA5C99599C985B595059028333333333333E33F0000000000000F90107901411070040501600405405064090740C02480A0340
1001
ACAD
1000
AcDbSavedByObjectVersion
1070
     0
  0
ACAD_PROXY_OBJECT
  5
4564
102
{ACAD_REACTORS
330
454E
102
}
330
454E
100
AcDbProxyObject
 90
      499
 91
      503
 93
      404
310
41560B54985E51940902404000000000000E03F0000000000000F9010740501907004050150841D405064090740C02480A1B40
1001
ACAD
1000
AcDbSavedByObjectVersion
1070
     0
  0
XRECORD
  5
51B3
102
{ACAD_REACTORS
330
51A9
102
}
330
51A9
100
AcDbXrecord
340
0
  0
XRECORD
  5
51B2
102
{ACAD_REACTORS
330
51A9
102
}
330
51A9
100
AcDbXrecord
 90
        0
  0
XRECORD
  5
51CC
102
{ACAD_REACTORS
330
51A9
102
}
330
51A9
100
AcDbXrecord
340
2948
  0
XRECORD
  5
51C9
102
{ACAD_REACTORS
330
51A9
102
}
330
51A9
100
AcDbXrecord
1000
DSTYLE
1002
{
1070
   171
 70
     2
1070
   143
 40
0.0394
1070
   274
 70
     2
1070
    41
 40
6.0
1070
   342
340
2AF4
1070
   271
 70
     1
1070
   278
 70
    46
1070
   341
340
2AF4
1070
   272
 70
     1
1070
    48
 40
0.1
1070
   283
 70
     1
1070
    47
 40
0.1
1070
   145
 40
1.0
1070
   340
340
10
1070
   140
 40
5.0
1070
   284
 70
     0
1002
}
  0
XRECORD
  5
51B4
102
{ACAD_REACTORS
330
51A9
102
}
330
51A9
100
AcDbXrecord
  1
{23698909-1D67-4744-B0E2-8DE11E3ED422}
  0
XRECORD
  5
51AC
102
{ACAD_REACTORS
330
51A9
102
}
330
51A9
100
AcDbXrecord
  1

  0
XRECORD
  5
51B1
102
{ACAD_REACTORS
330
51A9
102
}
330
51A9
100
AcDbXrecord
 90
        0
  0
XRECORD
  5
51AE
102
{ACAD_REACTORS
330
51A9
102
}
330
51A9
100
AcDbXrecord
340
2816
  0
XRECORD
  5
51B0
102
{ACAD_REACTORS
330
51A9
102
}
330
51A9
100
AcDbXrecord
 90
    10781
  0
XRECORD
  5
51CD
102
{ACAD_REACTORS
330
51A9
102
}
330
51A9
100
AcDbXrecord
340
2947
  0
XRECORD
  5
51AF
102
{ACAD_REACTORS
330
51A9
102
}
330
51A9
100
AcDbXrecord
340
2817
  0
XRECORD
  5
51B6
102
{ACAD_REACTORS
330
51A9
102
}
330
51A9
100
AcDbXrecord
 40
0.25
  0
XRECORD
  5
51B9
102
{ACAD_REACTORS
330
51A9
102
}
330
51A9
100
AcDbXrecord
340
0
  0
XRECORD
  5
51BF
102
{ACAD_REACTORS
330
51A9
102
}
330
51A9
100
AcDbXrecord
 10
0.0
 20
0.0
 30
0.0
  0
XRECORD
  5
51BB
102
{ACAD_REACTORS
330
51A9
102
}
330
51A9
100
AcDbXrecord
 10
0.0
 20
0.0
 30
0.0
  0
XRECORD
  5
51BE
102
{ACAD_REACTORS
330
51A9
102
}
330
51A9
100
AcDbXrecord
 10
0.0
 20
0.0
 30
0.0
  0
XRECORD
  5
51BC
102
{ACAD_REACTORS
330
51A9
102
}
330
51A9
100
AcDbXrecord
 10
0.0
 20
0.0
 30
0.0
  0
XRECORD
  5
51BD
102
{ACAD_REACTORS
330
51A9
102
}
330
51A9
100
AcDbXrecord
 10
0.0
 20
0.0
 30
0.0
  0
XRECORD
  5
51BA
102
{ACAD_REACTORS
330
51A9
102
}
330
51A9
100
AcDbXrecord
 10
0.0
 20
0.0
 30
0.0
  0
XRECORD
  5
51B7
102
{ACAD_REACTORS
330
51A9
102
}
330
51A9
100
AcDbXrecord
340
0
  0
XRECORD
  5
51B8
102
{ACAD_REACTORS
330
51A9
102
}
330
51A9
100
AcDbXrecord
 70
     0
  0
XRECORD
  5
51AD
102
{ACAD_REACTORS
330
51A9
102
}
330
51A9
100
AcDbXrecord
  1

  0
XRECORD
  5
51AA
102
{ACAD_REACTORS
330
51A9
102
}
330
51A9
100
AcDbXrecord
 90
        1
  0
XRECORD
  5
51AB
102
{ACAD_REACTORS
330
51A9
102
}
330
51A9
100
AcDbXrecord
 90
       70
  0
XRECORD
  5
51C2
102
{ACAD_REACTORS
330
51A9
102
}
330
51A9
100
AcDbXrecord
340
0
  0
XRECORD
  5
51C8
102
{ACAD_REACTORS
330
51A9
102
}
330
51A9
100
AcDbXrecord
 10
0.0
 20
0.0
 30
0.0
  0
XRECORD
  5
51C4
102
{ACAD_REACTORS
330
51A9
102
}
330
51A9
100
AcDbXrecord
 10
0.0
 20
0.0
 30
0.0
  0
XRECORD
  5
51C7
102
{ACAD_REACTORS
330
51A9
102
}
330
51A9
100
AcDbXrecord
 10
0.0
 20
0.0
 30
0.0
  0
XRECORD
  5
51C5
102
{ACAD_REACTORS
330
51A9
102
}
330
51A9
100
AcDbXrecord
 10
0.0
 20
0.0
 30
0.0
  0
XRECORD
  5
51C6
102
{ACAD_REACTORS
330
51A9
102
}
330
51A9
100
AcDbXrecord
 10
0.0
 20
0.0
 30
0.0
  0
XRECORD
  5
51C3
102
{ACAD_REACTORS
330
51A9
102
}
330
51A9
100
AcDbXrecord
 10
0.0
 20
0.0
 30
0.0
  0
XRECORD
  5
51C0
102
{ACAD_REACTORS
330
51A9
102
}
330
51A9
100
AcDbXrecord
340
0
  0
XRECORD
  5
51C1
102
{ACAD_REACTORS
330
51A9
102
}
330
51A9
100
AcDbXrecord
 70
     0
  0
XRECORD
  5
51B5
102
{ACAD_REACTORS
330
51A9
102
}
330
51A9
100
AcDbXrecord
  1
{065D5042-125D-42CE-BB12-5DD18BB739CE}
  0
DICTIONARYVAR
  5
45BC
102
{ACAD_REACTORS
330
45BB
102
}
330
45BB
100
DictionaryVariables
280
     0
  1
1:1
  0
DICTIONARYVAR
  5
45FB
102
{ACAD_REACTORS
330
45BB
102
}
330
45BB
100
DictionaryVariables
280
     0
  1
Standard
  0
DICTIONARYVAR
  5
45FA
102
{ACAD_REACTORS
330
45BB
102
}
330
45BB
100
DictionaryVariables
280
     0
  1
Standard
  0
DICTIONARYVAR
  5
51CA
102
{ACAD_REACTORS
330
45BB
102
}
330
45BB
100
DictionaryVariables
280
     0
  1
1
  0
DICTIONARYVAR
  5
51CB
102
{ACAD_REACTORS
330
45BB
102
}
330
45BB
100
DictionaryVariables
280
     0
  1
0
  0
DICTIONARYVAR
  5
45FC
102
{ACAD_REACTORS
330
45BB
102
}
330
45BB
100
DictionaryVariables
280
     0
  1
0
  0
DICTIONARYVAR
  5
45FD
102
{ACAD_REACTORS
330
45BB
102
}
330
45BB
100
DictionaryVariables
280
     0
  1
0
  0
DICTIONARY
  5
4662
102
{ACAD_REACTORS
330
4661
102
}
330
4661
100
AcDbDictionary
  0
DICTIONARY
  5
4E1A
102
{ACAD_REACTORS
330
4E19
102
}
330
4E19
100
AcDbDictionary
  0
DICTIONARY
  5
4D43
102
{ACAD_REACTORS
330
4D42
102
}
330
4D42
100
AcDbDictionary
  0
DICTIONARY
  5
469F
102
{ACAD_REACTORS
330
469E
102
}
330
469E
100
AcDbDictionary
  0
DICTIONARY
  5
4729
102
{ACAD_REACTORS
330
4728
102
}
330
4728
100
AcDbDictionary
  0
DICTIONARY
  5
4737
102
{ACAD_REACTORS
330
4736
102
}
330
4736
100
AcDbDictionary
  0
DICTIONARY
  5
4741
102
{ACAD_REACTORS
330
4740
102
}
330
4740
100
AcDbDictionary
  0
DICTIONARY
  5
4749
102
{ACAD_REACTORS
330
4748
102
}
330
4748
100
AcDbDictionary
  0
DICTIONARY
  5
475D
102
{ACAD_REACTORS
330
475C
102
}
330
475C
100
AcDbDictionary
  0
DICTIONARY
  5
4776
102
{ACAD_REACTORS
330
4775
102
}
330
4775
100
AcDbDictionary
  0
DICTIONARY
  5
49CF
102
{ACAD_REACTORS
330
49CE
102
}
330
49CE
100
AcDbDictionary
  0
DICTIONARY
  5
4A04
102
{ACAD_REACTORS
330
4A03
102
}
330
4A03
100
AcDbDictionary
  0
DICTIONARY
  5
4A39
102
{ACAD_REACTORS
330
4A38
102
}
330
4A38
100
AcDbDictionary
  0
DICTIONARY
  5
4A6E
102
{ACAD_REACTORS
330
4A6D
102
}
330
4A6D
100
AcDbDictionary
  0
DICTIONARY
  5
4AA3
102
{ACAD_REACTORS
330
4AA2
102
}
330
4AA2
100
AcDbDictionary
  0
DICTIONARY
  5
4AD8
102
{ACAD_REACTORS
330
4AD7
102
}
330
4AD7
100
AcDbDictionary
  0
DICTIONARY
  5
4597
102
{ACAD_REACTORS
330
4596
102
}
330
4596
100
AcDbDictionary
  0
DICTIONARY
  5
47E8
102
{ACAD_REACTORS
330
47E7
102
}
330
47E7
100
AcDbDictionary
  0
DICTIONARY
  5
4929
102
{ACAD_REACTORS
330
4928
102
}
330
4928
100
AcDbDictionary
  0
DICTIONARY
  5
4B7B
102
{ACAD_REACTORS
330
4B7A
102
}
330
4B7A
100
AcDbDictionary
  0
DICTIONARY
  5
4B7F
102
{ACAD_REACTORS
330
4B7E
102
}
330
4B7E
100
AcDbDictionary
  0
DICTIONARY
  5
4C8A
102
{ACAD_REACTORS
330
4C89
102
}
330
4C89
100
AcDbDictionary
  0
DICTIONARY
  5
513A
102
{ACAD_REACTORS
330
5139
102
}
330
5139
100
AcDbDictionary
  0
DICTIONARY
  5
513E
102
{ACAD_REACTORS
330
513D
102
}
330
513D
100
AcDbDictionary
  0
DICTIONARY
  5
51D3
330
458A
100
AcDbDictionary
280
     1
  3
ACAD_XREC_ROUNDTRIP
360
51D4
  0
DICTIONARY
  5
51D1
330
4589
100
AcDbDictionary
280
     1
  3
ACAD_XREC_ROUNDTRIP
360
51D2
  0
DICTIONARY
  5
51D5
330
458B
100
AcDbDictionary
280
     1
  3
ACAD_XREC_ROUNDTRIP
360
51D6
  0
XRECORD
  5
51D4
102
{ACAD_REACTORS
330
51D3
102
}
330
51D3
100
AcDbXrecord
102
MATERIAL
148
0.0
149
0.0
149
0.0
 93
        0
 94
      127
282
     0
 72
     1
 77
     1
171
     1
175
     1
179
     1
273
     0
  0
XRECORD
  5
51D2
102
{ACAD_REACTORS
330
51D1
102
}
330
51D1
100
AcDbXrecord
102
MATERIAL
148
0.0
149
0.0
149
0.0
 93
        0
 94
      127
282
     0
 72
     1
 77
     1
171
     1
175
     1
179
     1
273
     0
  0
XRECORD
  5
51D6
102
{ACAD_REACTORS
330
51D5
102
}
330
51D5
100
AcDbXrecord
102
MATERIAL
148
0.0
149
0.0
149
0.0
 93
        0
 94
      127
282
     0
 72
     1
 77
     1
171
     1
175
     1
179
     1
273
     0
  0
ENDSEC
  0
EOF
