  0
SECTION
  2
HEADER
  9
$ACADVER
  1
AC1014
  9
$ACADMAINTVER
 70
     9
  9
$DWGCODEPAGE
  3
ANSI_932
  9
$INSBASE
 10
0.0
 20
0.0
 30
0.0
  9
$EXTMIN
 10
14.16793236908
 20
169.159965715942
 30
0.0
  9
$EXTMAX
 10
779.538220987626
 20
610.498147382804
 30
0.0
  9
$LIMMIN
 10
-360.747566795242
 20
4.457354754526
  9
$LIMMAX
 10
-162.153696144267
 20
287.675440264018
  9
$ORTHOMODE
 70
     0
  9
$REGENMODE
 70
     1
  9
$FILLMODE
 70
     1
  9
$QTEXTMODE
 70
     0
  9
$MIRRTEXT
 70
     1
  9
$DRAGMODE
 70
     2
  9
$LTSCALE
 40
1.0
  9
$OSMODE
 70
   935
  9
$ATTMODE
 70
     1
  9
$TEXTSIZE
 40
2.333873885063
  9
$TRACEWID
 40
1.0
  9
$TEXTSTYLE
  7
STANDARD
  9
$CLAYER
  8
外形線
  9
$CELTYPE
  6
BYLAYER
  9
$CECOLOR
 62
   256
  9
$CELTSCALE
 40
10.0
  9
$DELOBJ
 70
     1
  9
$DISPSILH
 70
     0
  9
$DIMSCALE
 40
1.0
  9
$DIMASZ
 40
6.0
  9
$DIMEXO
 40
0.625
  9
$DIMDLI
 40
3.75
  9
$DIMRND
 40
0.0
  9
$DIMDLE
 40
0.0
  9
$DIMEXE
 40
1.25
  9
$DIMTP
 40
0.1
  9
$DIMTM
 40
0.1
  9
$DIMTXT
 40
5.0
  9
$DIMCEN
 40
2.5
  9
$DIMTSZ
 40
0.0
  9
$DIMTOL
 70
     0
  9
$DIMLIM
 70
     0
  9
$DIMTIH
 70
     0
  9
$DIMTOH
 70
     0
  9
$DIMSE1
 70
     0
  9
$DIMSE2
 70
     0
  9
$DIMTAD
 70
     1
  9
$DIMZIN
 70
     8
  9
$DIMBLK
  1
OPEN30
  9
$DIMASO
 70
     1
  9
$DIMSHO
 70
     1
  9
$DIMPOST
  1

  9
$DIMAPOST
  1

  9
$DIMALT
 70
     0
  9
$DIMALTD
 70
     2
  9
$DIMALTF
 40
0.0394
  9
$DIMLFAC
 40
1.0
  9
$DIMTOFL
 70
     1
  9
$DIMTVP
 40
1.0
  9
$DIMTIX
 70
     0
  9
$DIMSOXD
 70
     0
  9
$DIMSAH
 70
     0
  9
$DIMBLK1
  1

  9
$DIMBLK2
  1

  9
$DIMSTYLE
  2
ISO-25
  9
$DIMCLRD
 70
     0
  9
$DIMCLRE
 70
     0
  9
$DIMCLRT
 70
     0
  9
$DIMTFAC
 40
1.0
  9
$DIMGAP
 40
0.625
  9
$DIMJUST
 70
     0
  9
$DIMSD1
 70
     0
  9
$DIMSD2
 70
     0
  9
$DIMTOLJ
 70
     1
  9
$DIMTZIN
 70
     0
  9
$DIMALTZ
 70
     0
  9
$DIMALTTZ
 70
     0
  9
$DIMFIT
 70
     3
  9
$DIMUPT
 70
     0
  9
$DIMUNIT
 70
     2
  9
$DIMDEC
 70
     1
  9
$DIMTDEC
 70
     1
  9
$DIMALTU
 70
     2
  9
$DIMALTTD
 70
     2
  9
$DIMTXSTY
  7
STANDARD
  9
$DIMAUNIT
 70
     0
  9
$LUNITS
 70
     2
  9
$LUPREC
 70
     4
  9
$SKETCHINC
 40
1.0
  9
$FILLETRAD
 40
6.5
  9
$AUNITS
 70
     0
  9
$AUPREC
 70
     0
  9
$MENU
  1
.
  9
$ELEVATION
 40
0.0
  9
$PELEVATION
 40
0.0
  9
$THICKNESS
 40
0.0
  9
$LIMCHECK
 70
     0
  9
$CHAMFERA
 40
10.0
  9
$CHAMFERB
 40
10.0
  9
$CHAMFERC
 40
20.0
  9
$CHAMFERD
 40
0.0
  9
$SKPOLY
 70
     0
  9
$TDCREATE
 40
2450576.597302431
  9
$TDUPDATE
 40
2457269.379671586
  9
$TDINDWG
 40
1.5643395602
  9
$TDUSRTIMER
 40
1.5643395602
  9
$USRTIMER
 70
     1
  9
$ANGBASE
 50
0.0
  9
$ANGDIR
 70
     0
  9
$PDMODE
 70
     0
  9
$PDSIZE
 40
0.0
  9
$PLINEWID
 40
0.0
  9
$COORDS
 70
     0
  9
$SPLFRAME
 70
     0
  9
$SPLINETYPE
 70
     6
  9
$SPLINESEGS
 70
     8
  9
$ATTDIA
 70
     0
  9
$ATTREQ
 70
     1
  9
$HANDLING
 70
     1
  9
$HANDSEED
  5
5617
  9
$SURFTAB1
 70
     6
  9
$SURFTAB2
 70
     6
  9
$SURFTYPE
 70
     6
  9
$SURFU
 70
     6
  9
$SURFV
 70
     6
  9
$UCSNAME
  2

  9
$UCSORG
 10
0.0
 20
0.0
 30
0.0
  9
$UCSXDIR
 10
1.0
 20
0.0
 30
0.0
  9
$UCSYDIR
 10
0.0
 20
1.0
 30
0.0
  9
$PUCSNAME
  2

  9
$PUCSORG
 10
0.0
 20
0.0
 30
0.0
  9
$PUCSXDIR
 10
1.0
 20
0.0
 30
0.0
  9
$PUCSYDIR
 10
0.0
 20
1.0
 30
0.0
  9
$USERI1
 70
     0
  9
$USERI2
 70
     0
  9
$USERI3
 70
     0
  9
$USERI4
 70
     0
  9
$USERI5
 70
     0
  9
$USERR1
 40
0.0
  9
$USERR2
 40
0.0
  9
$USERR3
 40
0.0
  9
$USERR4
 40
0.0
  9
$USERR5
 40
0.0
  9
$WORLDVIEW
 70
     1
  9
$SHADEDGE
 70
     3
  9
$SHADEDIF
 70
    70
  9
$TILEMODE
 70
     0
  9
$MAXACTVP
 70
    16
  9
$PINSBASE
 10
0.0
 20
0.0
 30
0.0
  9
$PLIMCHECK
 70
     0
  9
$PEXTMIN
 10
4.746305129083
 20
1.396645458131
 30
0.0
  9
$PEXTMAX
 10
404.746305129083
 20
281.396645458131
 30
0.0
  9
$PLIMMIN
 10
-6.946593322754
 20
-6.94658241272
  9
$PLIMMAX
 10
417.718108215332
 20
293.315276107788
  9
$UNITMODE
 70
     0
  9
$VISRETAIN
 70
     0
  9
$PLINEGEN
 70
     0
  9
$PSLTSCALE
 70
     1
  9
$TREEDEPTH
 70
  3020
  9
$PICKSTYLE
 70
     1
  9
$CMLSTYLE
  2
STANDARD
  9
$CMLJUST
 70
     0
  9
$CMLSCALE
 40
1.0
  9
$PROXYGRAPHICS
 70
     1
  9
$MEASUREMENT
 70
     1
  0
ENDSEC
  0
SECTION
  2
CLASSES
  0
CLASS
  1
ACDBDICTIONARYWDFLT
  2
AcDbDictionaryWithDefault
  3
ObjectDBX Classes
 90
        0
280
     0
281
     0
  0
CLASS
  1
ACDBPLACEHOLDER
  2
AcDbPlaceHolder
  3
ObjectDBX Classes
 90
        0
280
     0
281
     0
  0
CLASS
  1
LAYOUT
  2
AcDbLayout
  3
ObjectDBX Classes
 90
        0
280
     0
281
     0
  0
CLASS
  1
VISUALSTYLE
  2
AcDbVisualStyle
  3
ObjectDBX Classes
 90
     4095
280
     0
281
     0
  0
CLASS
  1
SCALE
  2
AcDbScale
  3
ObjectDBX Classes
 90
     1153
280
     0
281
     0
  0
CLASS
  1
MATERIAL
  2
AcDbMaterial
  3
ObjectDBX Classes
 90
     1153
280
     0
281
     0
  0
CLASS
  1
TABLESTYLE
  2
AcDbTableStyle
  3
ObjectDBX Classes
 90
     4095
280
     0
281
     0
  0
CLASS
  1
MLEADERSTYLE
  2
AcDbMLeaderStyle
  3
ACDB_MLEADERSTYLE_CLASS
 90
     4095
280
     0
281
     0
  0
CLASS
  1
SUN
  2
AcDbSun
  3
SCENEOE
 90
     1153
280
     0
281
     0
  0
CLASS
  1
DICTIONARYVAR
  2
AcDbDictionaryVar
  3
ObjectDBX Classes
 90
        0
280
     0
281
     0
  0
CLASS
  1
CELLSTYLEMAP
  2
AcDbCellStyleMap
  3
ObjectDBX Classes
 90
     1152
280
     0
281
     0
  0
CLASS
  1
XRECORD
  2
AcDbXrecord
  3
ObjectDBX Classes
 90
        0
280
     0
281
     0
  0
CLASS
  1
LWPOLYLINE
  2
AcDbPolyline
  3
ObjectDBX Classes
 90
        0
280
     0
281
     1
  0
CLASS
  1
HATCH
  2
AcDbHatch
  3
ObjectDBX Classes
 90
        0
280
     0
281
     1
  0
ENDSEC
  0
SECTION
  2
TABLES
  0
TABLE
  2
VPORT
  5
8
102
{ACAD_XDICTIONARY
360
560F
102
}
330
0
100
AcDbSymbolTable
 70
     5
  0
VPORT
  5
495D
330
8
100
AcDbSymbolTableRecord
100
AcDbViewportTableRecord
  2
*ACTIVE
 70
     0
 10
0.0
 20
0.0
 11
1.0
 21
1.0
 12
396.853076678353
 22
389.829056549373
 13
0.0
 23
0.0
 14
1.0
 24
1.0
 15
0.0
 25
0.0
 16
0.0
 26
0.0
 36
1.0
 17
0.0
 27
0.0
 37
0.0
 40
450.1649453002
 41
1.839224629418
 42
50.0
 43
0.0
 44
0.0
 50
0.0
 51
0.0
 71
    16
 72
   100
 73
     1
 74
     0
 75
     0
 76
     0
 77
     0
 78
     0
  0
ENDTAB
  0
TABLE
  2
LTYPE
  5
5
330
0
100
AcDbSymbolTable
 70
     4
  0
LTYPE
  5
14
330
5
100
AcDbSymbolTableRecord
100
AcDbLinetypeTableRecord
  2
BYBLOCK
 70
     0
  3

 72
    65
 73
     0
 40
0.0
  0
LTYPE
  5
15
330
5
100
AcDbSymbolTableRecord
100
AcDbLinetypeTableRecord
  2
BYLAYER
 70
     0
  3

 72
    65
 73
     0
 40
0.0
  0
LTYPE
  5
16
330
5
100
AcDbSymbolTableRecord
100
AcDbLinetypeTableRecord
  2
CONTINUOUS
 70
     0
  3
Solid line
 72
    65
 73
     0
 40
0.0
  0
LTYPE
  5
1EC
330
5
100
AcDbSymbolTableRecord
100
AcDbLinetypeTableRecord
  2
CENTER
 70
     0
  3
____ _ ____ _ ____ _ ____ _ ____ _ ____ _ ____ 
 72
    65
 73
     4
 40
2.0
 49
1.25
 74
     0
 49
-0.25
 74
     0
 49
0.25
 74
     0
 49
-0.25
 74
     0
  0
LTYPE
  5
1ED
330
5
100
AcDbSymbolTableRecord
100
AcDbLinetypeTableRecord
  2
DASHED
 70
     0
  3
__ __ __ __ __ __ __ __ __ __ __ __ __ __ __ __
 72
    65
 73
     2
 40
0.75
 49
0.5
 74
     0
 49
-0.25
 74
     0
  0
LTYPE
  5
2B1F
330
5
100
AcDbSymbolTableRecord
100
AcDbLinetypeTableRecord
  2
DASHDOT
 70
     0
  3
一点鎖線
 72
    65
 73
     4
 40
25.6
 49
20.0
 74
     0
 49
-2.0
 74
     0
 49
1.6
 74
     0
 49
-2.0
 74
     0
  0
ENDTAB
  0
TABLE
  2
LAYER
  5
2
102
{ACAD_XDICTIONARY
360
29EA
102
}
330
0
100
AcDbSymbolTable
 70
    19
  0
LAYER
  5
F
330
2
100
AcDbSymbolTableRecord
100
AcDbLayerTableRecord
  2
0
 70
     0
 62
     7
  6
CONTINUOUS
  0
LAYER
  5
61
330
2
100
AcDbSymbolTableRecord
100
AcDbLayerTableRecord
  2
図枠太線
 70
     0
 62
   251
  6
CONTINUOUS
  0
LAYER
  5
62
330
2
100
AcDbSymbolTableRecord
100
AcDbLayerTableRecord
  2
図枠細線
 70
     0
 62
   252
  6
CONTINUOUS
  0
LAYER
  5
63
330
2
100
AcDbSymbolTableRecord
100
AcDbLayerTableRecord
  2
図枠ロゴマーク
 70
     0
 62
   253
  6
CONTINUOUS
  0
LAYER
  5
1EF
330
2
100
AcDbSymbolTableRecord
100
AcDbLayerTableRecord
  2
外形線
 70
     0
 62
     7
  6
CONTINUOUS
  0
LAYER
  5
1F0
330
2
100
AcDbSymbolTableRecord
100
AcDbLayerTableRecord
  2
寸法線
 70
     0
 62
     1
  6
CONTINUOUS
  0
LAYER
  5
1F1
330
2
100
AcDbSymbolTableRecord
100
AcDbLayerTableRecord
  2
中心線
 70
     0
 62
     4
  6
CENTER
  0
LAYER
  5
1F4
330
2
100
AcDbSymbolTableRecord
100
AcDbLayerTableRecord
  2
DEFPOINTS
 70
     0
 62
     7
  6
CONTINUOUS
  0
LAYER
  5
2AA2
330
2
100
AcDbSymbolTableRecord
100
AcDbLayerTableRecord
  2
下書線
 70
     0
 62
     2
  6
CONTINUOUS
  0
LAYER
  5
2AA3
330
2
100
AcDbSymbolTableRecord
100
AcDbLayerTableRecord
  2
隠れ線
 70
     0
 62
     3
  6
DASHED
  0
LAYER
  5
2AA4
330
2
100
AcDbSymbolTableRecord
100
AcDbLayerTableRecord
  2
細線
 70
     0
 62
     6
  6
CONTINUOUS
  0
LAYER
  5
2AA5
330
2
100
AcDbSymbolTableRecord
100
AcDbLayerTableRecord
  2
太線
 70
     0
 62
   190
  6
CONTINUOUS
  0
LAYER
  5
2B20
330
2
100
AcDbSymbolTableRecord
100
AcDbLayerTableRecord
  2
LAY-1
 70
     0
 62
     7
  6
CONTINUOUS
  0
LAYER
  5
2B21
330
2
100
AcDbSymbolTableRecord
100
AcDbLayerTableRecord
  2
LAY-2
 70
     0
 62
     7
  6
CONTINUOUS
  0
LAYER
  5
2B22
330
2
100
AcDbSymbolTableRecord
100
AcDbLayerTableRecord
  2
LAY-5
 70
     0
 62
     7
  6
CONTINUOUS
  0
LAYER
  5
2B23
330
2
100
AcDbSymbolTableRecord
100
AcDbLayerTableRecord
  2
LAY-6
 70
     0
 62
     7
  6
CONTINUOUS
  0
LAYER
  5
315D
330
2
100
AcDbSymbolTableRecord
100
AcDbLayerTableRecord
  2
1
 70
     0
 62
     7
  6
CONTINUOUS
  0
LAYER
  5
315E
330
2
100
AcDbSymbolTableRecord
100
AcDbLayerTableRecord
  2
TOMSZ
 70
     0
 62
     7
  6
CONTINUOUS
  0
LAYER
  5
315F
330
2
100
AcDbSymbolTableRecord
100
AcDbLayerTableRecord
  2
SORK
 70
     0
 62
     7
  6
CONTINUOUS
  0
ENDTAB
  0
TABLE
  2
STYLE
  5
3
330
0
100
AcDbSymbolTable
 70
     4
  0
STYLE
  5
10
330
3
100
AcDbSymbolTableRecord
100
AcDbTextStyleTableRecord
  2
STANDARD
 70
     0
 40
0.0
 41
1.0
 50
0.0
 71
     0
 42
2.333873885063
  3
ISOCP
  4
bigfont.shx
  0
STYLE
  5
64
330
3
100
AcDbSymbolTableRecord
100
AcDbTextStyleTableRecord
  2
EXCADSTD
 70
     0
 40
0.0
 41
1.0
 50
0.0
 71
     0
 42
0.2
  3
monotxt
  4
bigfont
  0
STYLE
  5
3160
330
3
100
AcDbSymbolTableRecord
100
AcDbTextStyleTableRecord
  2
TXTR3
 70
     0
 40
0.0
 41
1.0
 50
0.0
 71
     0
 42
9.0
  3
romans
  4

  0
STYLE
  5
3161
330
3
100
AcDbSymbolTableRecord
100
AcDbTextStyleTableRecord
  2
ROMANS
 70
     0
 40
0.0
 41
0.7
 50
0.0
 71
     0
 42
30.281113161952
  3
romans
  4

  0
ENDTAB
  0
TABLE
  2
VIEW
  5
6
330
0
100
AcDbSymbolTable
 70
     0
  0
ENDTAB
  0
TABLE
  2
UCS
  5
7
330
0
100
AcDbSymbolTable
 70
     0
  0
ENDTAB
  0
TABLE
  2
APPID
  5
9
330
0
100
AcDbSymbolTable
 70
     3
  0
APPID
  5
11
330
9
100
AcDbSymbolTableRecord
100
AcDbRegAppTableRecord
  2
ACAD
 70
     0
  0
APPID
  5
49A8
330
9
100
AcDbSymbolTableRecord
100
AcDbRegAppTableRecord
  2
ACADANNOTATIVE
 70
     0
  0
APPID
  5
4C5E
330
9
100
AcDbSymbolTableRecord
100
AcDbRegAppTableRecord
  2
ACAD_MLEADERVER
 70
     0
  0
ENDTAB
  0
TABLE
  2
DIMSTYLE
  5
A
330
0
100
AcDbSymbolTable
 70
     3
  0
DIMSTYLE
105
1D
330
A
100
AcDbSymbolTableRecord
100
AcDbDimStyleTableRecord
  2
STANDARD
 70
     0
  3

  4

  5

  6

  7

 40
1.0
 41
0.18
 42
0.0625
 43
0.38
 44
0.18
 45
0.0
 46
0.0
 47
0.0
 48
0.0
140
0.18
141
0.09
142
0.0
143
25.4
144
1.0
145
0.0
146
1.0
147
0.09
 71
     0
 72
     0
 73
     1
 74
     1
 75
     0
 76
     0
 77
     0
 78
     0
170
     0
171
     2
172
     0
173
     0
174
     0
175
     0
176
     0
177
     0
178
     0
270
     2
271
     4
272
     4
273
     2
274
     2
340
10
275
     0
280
     0
281
     0
282
     0
283
     1
284
     0
285
     0
286
     0
287
     3
288
     0
  0
DIMSTYLE
105
24
102
{ACAD_REACTORS
330
3002
330
300F
330
3082
330
3099
330
30D2
330
369E
330
4449
102
}
330
A
100
AcDbSymbolTableRecord
100
AcDbDimStyleTableRecord
  2
ISO-25
 70
     0
  3

  4

  5

  6

  7

 40
1.0
 41
2.5
 42
0.625
 43
3.75
 44
1.25
 45
0.0
 46
0.0
 47
0.0
 48
0.0
140
2.5
141
2.5
142
0.0
143
0.0394
144
1.0
145
1.0
146
1.0
147
0.625
 71
     0
 72
     0
 73
     1
 74
     0
 75
     0
 76
     0
 77
     1
 78
     8
170
     0
171
     2
172
     1
173
     0
174
     0
175
     0
176
     0
177
     0
178
     0
270
     2
271
     4
272
     4
273
     2
274
     2
340
10
275
     0
280
     0
281
     0
282
     0
283
     1
284
     0
285
     0
286
     0
287
     3
288
     0
  0
DIMSTYLE
105
3162
330
A
100
AcDbSymbolTableRecord
100
AcDbDimStyleTableRecord
  2
NORMAL
 70
     0
  3

  4

  5

  6

  7

 40
1.0
 41
8.0
 42
1.0
 43
0.38
 44
1.0
 45
0.0
 46
0.0
 47
0.0
 48
0.0
140
10.0
141
0.0
142
0.0
143
25.4
144
1.0
145
0.0
146
1.0
147
3.0
 71
     0
 72
     0
 73
     0
 74
     0
 75
     0
 76
     0
 77
     1
 78
     8
170
     0
171
     2
172
     1
173
     0
174
     0
175
     0
176
     7
177
     7
178
     4
270
     2
271
     1
272
     1
273
     2
274
     2
340
3161
275
     0
280
     0
281
     0
282
     0
283
     1
284
     8
285
     8
286
     8
287
     5
288
     0
  0
ENDTAB
  0
TABLE
  2
BLOCK_RECORD
  5
1
330
0
100
AcDbSymbolTable
 70
    15
  0
BLOCK_RECORD
  5
1A
330
1
100
AcDbSymbolTableRecord
100
AcDbBlockTableRecord
  2
*MODEL_SPACE
  0
BLOCK_RECORD
  5
28FB
330
1
100
AcDbSymbolTableRecord
100
AcDbBlockTableRecord
  2
*PAPER_SPACE
  0
BLOCK_RECORD
  5
65
330
1
100
AcDbSymbolTableRecord
100
AcDbBlockTableRecord
  2
A$C3392
  0
BLOCK_RECORD
  5
29BF
330
1
100
AcDbSymbolTableRecord
100
AcDbBlockTableRecord
  2
A4横用_タイトル
1001
ACAD
1000
DesignCenter Data
1002
{
1070
     1
1070
     4
1002
}
  0
BLOCK_RECORD
  5
29F4
330
1
100
AcDbSymbolTableRecord
100
AcDbBlockTableRecord
  2
A4縦用_タイトル
1001
ACAD
1000
DesignCenter Data
1002
{
1070
     1
1070
     4
1002
}
  0
BLOCK_RECORD
  5
2A32
330
1
100
AcDbSymbolTableRecord
100
AcDbBlockTableRecord
  2
A3横用_タイトル
1001
ACAD
1000
DesignCenter Data
1002
{
1070
     1
1070
     4
1002
}
  0
BLOCK_RECORD
  5
2A6C
330
1
100
AcDbSymbolTableRecord
100
AcDbBlockTableRecord
  2
A3縦用_タイトル
1001
ACAD
1000
DesignCenter Data
1002
{
1070
     1
1070
     4
1002
}
  0
BLOCK_RECORD
  5
2AF4
330
1
100
AcDbSymbolTableRecord
100
AcDbBlockTableRecord
  2
_OPEN30
  0
BLOCK_RECORD
  5
3003
330
1
100
AcDbSymbolTableRecord
100
AcDbBlockTableRecord
  2
*D6
  0
BLOCK_RECORD
  5
3010
330
1
100
AcDbSymbolTableRecord
100
AcDbBlockTableRecord
  2
*D7
  0
BLOCK_RECORD
  5
3083
330
1
100
AcDbSymbolTableRecord
100
AcDbBlockTableRecord
  2
*D8
  0
BLOCK_RECORD
  5
309A
330
1
100
AcDbSymbolTableRecord
100
AcDbBlockTableRecord
  2
*D9
  0
BLOCK_RECORD
  5
30D3
330
1
100
AcDbSymbolTableRecord
100
AcDbBlockTableRecord
  2
*D10
  0
BLOCK_RECORD
  5
3494
330
1
100
AcDbSymbolTableRecord
100
AcDbBlockTableRecord
  2
A$C5338004D
  0
BLOCK_RECORD
  5
369F
330
1
100
AcDbSymbolTableRecord
100
AcDbBlockTableRecord
  2
*D12
  0
BLOCK_RECORD
  5
444A
330
1
100
AcDbSymbolTableRecord
100
AcDbBlockTableRecord
  2
*D13
  0
ENDTAB
  0
ENDSEC
  0
SECTION
  2
BLOCKS
  0
BLOCK
  5
1B
330
1A
100
AcDbEntity
  8
0
100
AcDbBlockBegin
  2
*MODEL_SPACE
 70
     0
 10
0.0
 20
0.0
 30
0.0
  3
*MODEL_SPACE
  1

  0
ENDBLK
  5
1C
330
1A
100
AcDbEntity
  8
0
100
AcDbBlockEnd
  0
BLOCK
  5
28FD
330
28FB
100
AcDbEntity
 67
     1
  8
0
 48
10.0
100
AcDbBlockBegin
  2
*PAPER_SPACE
 70
     0
 10
0.0
 20
0.0
 30
0.0
  3
*PAPER_SPACE
  1

  0
ENDBLK
  5
28FE
330
28FB
100
AcDbEntity
 67
     1
  8
0
 48
10.0
100
AcDbBlockEnd
  0
BLOCK
  5
93
330
65
100
AcDbEntity
  8
0
100
AcDbBlockBegin
  2
A$C3392
 70
     0
 10
0.0
 20
0.0
 30
0.0
  3
A$C3392
  1

  0
LINE
  5
66
330
65
100
AcDbEntity
  8
図枠太線
  6
CONTINUOUS
100
AcDbLine
 10
211.858584505185
 20
30.927375675439
 30
0.0
 11
211.858584505185
 21
0.927375675439
 31
0.0
  0
LINE
  5
67
330
65
100
AcDbEntity
  8
図枠細線
  6
CONTINUOUS
100
AcDbLine
 10
231.858592505185
 20
15.927377675439
 30
0.0
 11
287.858592505185
 21
15.927375675439
 31
0.0
  0
LINE
  5
68
330
65
100
AcDbEntity
  8
図枠細線
  6
CONTINUOUS
100
AcDbLine
 10
211.858592505185
 20
15.927377675439
 30
0.0
 11
231.858592505185
 21
15.927377675439
 31
0.0
  0
LINE
  5
69
330
65
100
AcDbEntity
  8
図枠太線
  6
CONTINUOUS
 62
   251
100
AcDbLine
 10
1.858584505185
 20
0.927375675439
 30
0.0
 11
1.858584505185
 21
275.927375675439
 31
0.0
  0
TEXT
  5
6A
330
65
100
AcDbEntity
  8
図枠細線
  6
CONTINUOUS
 62
   252
100
AcDbText
 10
351.358592505185
 20
28.427377675439
 30
0.0
 40
2.0
  1
ＴＩＴＬＥ
 41
0.903614457831
  7
EXCADSTD
 72
     5
 11
361.358592505185
 21
28.427377675439
 31
0.0
100
AcDbText
  0
TEXT
  5
6B
330
65
100
AcDbEntity
  8
図枠細線
  6
CONTINUOUS
 62
   252
100
AcDbText
 10
345.358592505185
 20
28.427377675439
 30
0.0
 40
2.0
  1
名称
 41
1.171875
  7
EXCADSTD
 72
     5
 11
350.358592505185
 21
28.427377675439
 31
0.0
100
AcDbText
  0
TEXT
  5
6C
330
65
100
AcDbEntity
  8
図枠細線
  6
CONTINUOUS
 62
   252
100
AcDbText
 10
274.358592505185
 20
25.927377675439
 30
0.0
 40
2.0
  1
ＤＲＡＷＮ
 41
0.882352941176
  7
EXCADSTD
 72
     5
 11
284.358592505185
 21
25.927377675439
 31
0.0
100
AcDbText
  0
TEXT
  5
6D
330
65
100
AcDbEntity
  8
図枠細線
  6
CONTINUOUS
 62
   252
100
AcDbText
 10
260.358592505185
 20
25.927377675439
 30
0.0
 40
2.0
  1
ＤＥＳＩＧＮＥＤ
 41
0.713043472041
  7
EXCADSTD
 72
     5
 11
273.478592390744
 21
25.927377675439
 31
0.0
100
AcDbText
  0
TEXT
  5
6E
330
65
100
AcDbEntity
  8
図枠細線
  6
CONTINUOUS
 62
   252
100
AcDbText
 10
246.358592505185
 20
25.927377675439
 30
0.0
 40
2.0
  1
ＣＨＥＣＫＥＤ
 41
0.831249989569
  7
EXCADSTD
 72
     5
 11
259.658592338292
 21
25.927377675439
 31
0.0
100
AcDbText
  0
TEXT
  5
6F
330
65
100
AcDbEntity
  8
図枠細線
  6
CONTINUOUS
 62
   252
100
AcDbText
 10
274.358592505185
 20
28.427377675439
 30
0.0
 40
2.0
  1
製図
 41
1.209677419355
  7
EXCADSTD
 72
     5
 11
279.358592505185
 21
28.427377675439
 31
0.0
100
AcDbText
  0
TEXT
  5
70
330
65
100
AcDbEntity
  8
図枠細線
  6
CONTINUOUS
 62
   252
100
AcDbText
 10
260.358592505185
 20
28.427377675439
 30
0.0
 40
2.0
  1
設計
 41
1.171875
  7
EXCADSTD
 72
     5
 11
265.358592505185
 21
28.427377675439
 31
0.0
100
AcDbText
  0
TEXT
  5
71
330
65
100
AcDbEntity
  8
図枠細線
  6
CONTINUOUS
 62
   252
100
AcDbText
 10
246.358592505185
 20
28.427377675439
 30
0.0
 40
2.0
  1
検図
 41
1.209677419355
  7
EXCADSTD
 72
     5
 11
251.358592505185
 21
28.427377675439
 31
0.0
100
AcDbText
  0
TEXT
  5
72
330
65
100
AcDbEntity
  8
図枠細線
  6
CONTINUOUS
 62
   252
100
AcDbText
 10
232.358592505185
 20
25.927377675439
 30
0.0
 40
2.0
  1
ＡＰＰＲＯＶＥＤ
 41
0.695652184279
  7
EXCADSTD
 72
     5
 11
245.15859269592
 21
25.927377675439
 31
0.0
100
AcDbText
  0
TEXT
  5
73
330
65
100
AcDbEntity
  8
図枠細線
  6
CONTINUOUS
 62
   252
100
AcDbText
 10
232.358592505185
 20
28.427377675439
 30
0.0
 40
2.0
  1
承認
 41
1.171875
  7
EXCADSTD
 72
     5
 11
237.358592505185
 21
28.427377675439
 31
0.0
100
AcDbText
  0
TEXT
  5
74
330
65
100
AcDbEntity
  8
図枠細線
  6
CONTINUOUS
 62
   252
100
AcDbText
 10
290.069888505185
 20
2.574868675439
 30
0.0
 40
3.5
  1
ＴＯＷＡ　ＳＥＩＤＥＮ　ＩＮＤＵＳＴＲＩＡＬ　ＣＯ．，ＬＴＤ．
 41
0.414568012377
  7
EXCADSTD
 72
     5
 11
342.692388209546
 21
2.574868675439
 31
0.0
100
AcDbText
  0
TEXT
  5
75
330
65
100
AcDbEntity
  8
図枠ロゴマーク
  6
CONTINUOUS
 62
   253
100
AcDbText
 10
290.107348505185
 20
7.519769675439
 30
0.0
 40
7.0
  1
東和制電工業株式会社
 41
0.639204545455
  7
EXCADSTD
 72
     5
 11
342.607348505185
 21
7.519769675439
 31
0.0
100
AcDbText
  0
TEXT
  5
76
330
65
100
AcDbEntity
  8
図枠細線
  6
CONTINUOUS
 62
   252
100
AcDbText
 10
232.499705505185
 20
5.759088675439
 30
0.0
 40
2.0
  1
ＰＲＯＪＥＣＴＩＯＮ
 41
0.754285710199
  7
EXCADSTD
 72
     5
 11
250.099705409817
 21
5.759088675439
 31
0.0
100
AcDbText
  0
TEXT
  5
77
330
65
100
AcDbEntity
  8
図枠細線
  6
CONTINUOUS
 62
   252
100
AcDbText
 10
232.574629505185
 20
8.681077675439
 30
0.0
 40
2.0
  1
ＴＨＩＲＤ　ＡＮＧＬＥ
 41
0.691099486738
  7
EXCADSTD
 72
     5
 11
250.174629767445
 21
8.681077675439
 31
0.0
100
AcDbText
  0
TEXT
  5
78
330
65
100
AcDbEntity
  8
図枠細線
  6
CONTINUOUS
 62
   252
100
AcDbText
 10
256.823999505185
 20
13.427377675439
 30
0.0
 40
2.0
  1
ＳＣＡＬＥ
 41
0.903614457831
  7
EXCADSTD
 72
     5
 11
266.823999505185
 21
13.427377675439
 31
0.0
100
AcDbText
  0
TEXT
  5
79
330
65
100
AcDbEntity
  8
図枠細線
  6
CONTINUOUS
 62
   252
100
AcDbText
 10
274.858592505185
 20
13.427377675439
 30
0.0
 40
2.0
  1
ＤＡＴＥ
 41
0.923076923077
  7
EXCADSTD
 72
     5
 11
282.858592505185
 21
13.427377675439
 31
0.0
100
AcDbText
  0
TEXT
  5
7A
330
65
100
AcDbEntity
  8
図枠細線
  6
CONTINUOUS
 62
   252
100
AcDbText
 10
356.358592505185
 20
13.427377675439
 30
0.0
 40
2.0
  1
ＤＲＧ．ＮＯ．
 41
0.9375
  7
EXCADSTD
 72
     5
 11
370.358592505185
 21
13.427377675439
 31
0.0
100
AcDbText
  0
TEXT
  5
7B
330
65
100
AcDbEntity
  8
図枠細線
  6
CONTINUOUS
 62
   252
100
AcDbText
 10
345.358592505185
 20
13.427377675439
 30
0.0
 40
2.0
  1
図面番号
 41
1.102941176471
  7
EXCADSTD
 72
     5
 11
355.358592505185
 21
13.427377675439
 31
0.0
100
AcDbText
  0
TEXT
  5
7C
330
65
100
AcDbEntity
  8
図枠細線
  6
CONTINUOUS
 62
   252
100
AcDbText
 10
269.358592505185
 20
13.427377675439
 30
0.0
 40
2.0
  1
日付
 41
1.171875
  7
EXCADSTD
 72
     5
 11
274.358592505185
 21
13.427377675439
 31
0.0
100
AcDbText
  0
TEXT
  5
7D
330
65
100
AcDbEntity
  8
図枠細線
  6
CONTINUOUS
 62
   252
100
AcDbText
 10
251.451512505185
 20
13.427377675439
 30
0.0
 40
2.0
  1
尺度
 41
1.171875
  7
EXCADSTD
 72
     5
 11
256.451512505185
 21
13.427377675439
 31
0.0
100
AcDbText
  0
TEXT
  5
7E
330
65
100
AcDbEntity
  8
図枠細線
  6
CONTINUOUS
 62
   252
100
AcDbText
 10
232.358592505185
 20
13.427377675439
 30
0.0
 40
2.0
  1
第三角法
 41
1.102941176471
  7
EXCADSTD
 72
     5
 11
242.358592505185
 21
13.427377675439
 31
0.0
100
AcDbText
  0
TEXT
  5
7F
330
65
100
AcDbEntity
  8
図枠細線
  6
CONTINUOUS
 62
   252
100
AcDbText
 10
212.358592505185
 20
28.427377675439
 30
0.0
 40
2.0
  1
ＮＯＴＥ
 41
0.923076923077
  7
EXCADSTD
 72
     5
 11
220.358592505185
 21
28.427377675439
 31
0.0
100
AcDbText
  0
LINE
  5
80
330
65
100
AcDbEntity
  8
図枠細線
  6
CONTINUOUS
 62
   252
100
AcDbLine
 10
287.858592505185
 20
23.427375675439
 30
0.0
 11
344.858592505185
 21
23.427375675439
 31
0.0
  0
LINE
  5
81
330
65
100
AcDbEntity
  8
図枠太線
  6
CONTINUOUS
 62
   251
100
AcDbLine
 10
287.858584505185
 20
15.927375675439
 30
0.0
 11
344.858592505185
 21
15.927375675439
 31
0.0
  0
LINE
  5
82
330
65
100
AcDbEntity
  8
図枠細線
  6
CONTINUOUS
 62
   252
100
AcDbLine
 10
344.858592505185
 20
15.927375675439
 30
0.0
 11
401.858584505185
 21
15.927375675439
 31
0.0
  0
LINE
  5
83
330
65
100
AcDbEntity
  8
図枠太線
  6
CONTINUOUS
 62
   251
100
AcDbLine
 10
344.858592505185
 20
0.927377675439
 30
0.0
 11
344.858592505185
 21
30.927375675439
 31
0.0
  0
LINE
  5
84
330
65
100
AcDbEntity
  8
図枠太線
  6
CONTINUOUS
 62
   251
100
AcDbLine
 10
287.858592505185
 20
0.927377675439
 30
0.0
 11
287.858592505185
 21
30.927375675439
 31
0.0
  0
LINE
  5
85
330
65
100
AcDbEntity
  8
図枠細線
  6
CONTINUOUS
 62
   252
100
AcDbLine
 10
268.858592505185
 20
0.927377675439
 30
0.0
 11
268.858592505185
 21
15.927375675439
 31
0.0
  0
LINE
  5
86
330
65
100
AcDbEntity
  8
図枠細線
  6
CONTINUOUS
 62
   252
100
AcDbLine
 10
250.858592505185
 20
0.927377675439
 30
0.0
 11
250.858592505185
 21
15.927375675439
 31
0.0
  0
LINE
  5
87
330
65
100
AcDbEntity
  8
図枠細線
  6
CONTINUOUS
 62
   252
100
AcDbLine
 10
273.858592505185
 20
30.927375675439
 30
0.0
 11
273.858592505185
 21
15.927375675439
 31
0.0
  0
LINE
  5
88
330
65
100
AcDbEntity
  8
図枠細線
  6
CONTINUOUS
 62
   252
100
AcDbLine
 10
259.858592505185
 20
30.927375675439
 30
0.0
 11
259.858592505185
 21
15.927375675439
 31
0.0
  0
LINE
  5
89
330
65
100
AcDbEntity
  8
図枠細線
  6
CONTINUOUS
 62
   252
100
AcDbLine
 10
245.858592505185
 20
30.927375675439
 30
0.0
 11
245.858592505185
 21
15.927375675439
 31
0.0
  0
LINE
  5
8A
330
65
100
AcDbEntity
  8
図枠太線
  6
CONTINUOUS
 62
   251
100
AcDbLine
 10
231.858592505185
 20
0.927377675439
 30
0.0
 11
231.858592505185
 21
30.927375675439
 31
0.0
  0
LINE
  5
8B
330
65
100
AcDbEntity
  8
図枠細線
  6
CONTINUOUS
 62
   252
100
AcDbLine
 10
211.858592505185
 20
25.927375675439
 30
0.0
 11
231.858592505185
 21
25.927375675439
 31
0.0
  0
LINE
  5
8C
330
65
100
AcDbEntity
  8
図枠細線
  6
CONTINUOUS
 62
   252
100
AcDbLine
 10
211.858592505185
 20
20.927375675439
 30
0.0
 11
231.858592505185
 21
20.927375675439
 31
0.0
  0
LINE
  5
8D
330
65
100
AcDbEntity
  8
図枠細線
  6
CONTINUOUS
 62
   252
100
AcDbLine
 10
211.858592505185
 20
10.927375675439
 30
0.0
 11
231.858592505185
 21
10.927375675439
 31
0.0
  0
LINE
  5
8E
330
65
100
AcDbEntity
  8
図枠細線
  6
CONTINUOUS
 62
   252
100
AcDbLine
 10
211.858592505185
 20
5.927377675439
 30
0.0
 11
231.858592505185
 21
5.927377675439
 31
0.0
  0
LINE
  5
8F
330
65
100
AcDbEntity
  8
図枠太線
  6
CONTINUOUS
 62
   251
100
AcDbLine
 10
211.858592505185
 20
30.927375675439
 30
0.0
 11
401.858584505185
 21
30.927375675439
 31
0.0
  0
LINE
  5
90
330
65
100
AcDbEntity
  8
図枠太線
  6
CONTINUOUS
 62
   251
100
AcDbLine
 10
1.858584505185
 20
275.927375675439
 30
0.0
 11
401.858584505185
 21
275.927375675439
 31
0.0
  0
LINE
  5
91
330
65
100
AcDbEntity
  8
図枠太線
  6
CONTINUOUS
 62
   251
100
AcDbLine
 10
401.858584505185
 20
0.927375675439
 30
0.0
 11
401.858584505185
 21
275.927375675439
 31
0.0
  0
LINE
  5
92
330
65
100
AcDbEntity
  8
図枠太線
  6
CONTINUOUS
 62
   251
100
AcDbLine
 10
1.858584505185
 20
0.927375675439
 30
0.0
 11
401.858584505185
 21
0.927375675439
 31
0.0
  0
ENDBLK
  5
94
330
65
100
AcDbEntity
  8
0
100
AcDbBlockEnd
  0
BLOCK
  5
29C0
330
29BF
100
AcDbEntity
  8
0
100
AcDbBlockBegin
  2
A4横用_タイトル
 70
     0
 10
0.0
 20
0.0
 30
0.0
  3
A4横用_タイトル
  1

  0
LINE
  5
29C1
330
29BF
100
AcDbEntity
  8
図枠細線
  6
CONTINUOUS
100
AcDbLine
 10
75.061011071051
 20
16.806607253358
 30
0.0
 11
144.061011071051
 21
16.806604789072
 31
0.0
  0
LINE
  5
29C2
330
29BF
100
AcDbEntity
  8
図枠細線
  6
CONTINUOUS
 62
   252
100
AcDbLine
 10
4.061011071051
 20
11.806606253358
 30
0.0
 11
75.061011071051
 21
11.806606253358
 31
0.0
  0
LINE
  5
29C3
330
29BF
100
AcDbEntity
  8
図枠細線
  6
CONTINUOUS
 62
   252
100
AcDbLine
 10
4.061011071051
 20
21.806606253358
 30
0.0
 11
75.061011071051
 21
21.806606253358
 31
0.0
  0
LINE
  5
29C4
330
29BF
100
AcDbEntity
  8
図枠細線
  6
CONTINUOUS
 62
   252
100
AcDbLine
 10
4.061011071051
 20
26.806606253358
 30
0.0
 11
75.061011071051
 21
26.806606253358
 31
0.0
  0
LINE
  5
29C5
330
29BF
100
AcDbEntity
  8
図枠細線
  6
CONTINUOUS
100
AcDbLine
 10
4.061011071051
 20
16.806608253358
 30
0.0
 11
75.061011071051
 21
16.806608253358
 31
0.0
  0
TEXT
  5
29C6
330
29BF
100
AcDbEntity
  8
図枠細線
  6
CONTINUOUS
 62
   252
100
AcDbText
 10
76.405475827713
 20
9.560308253358
 30
0.0
 40
2.0
  1
ＴＨＩＲＤ　ＡＮＧＬＥ
 41
0.691099486738
  7
EXCADSTD
 72
     5
 11
94.005476089973
 21
9.560308253358
 31
0.0
100
AcDbText
  0
TEXT
  5
29C7
330
29BF
100
AcDbEntity
  8
図枠細線
  6
CONTINUOUS
 62
   252
100
AcDbText
 10
76.705775880921
 20
14.306608253358
 30
0.0
 40
2.0
  1
第三角法
 41
1.102941176471
  7
EXCADSTD
 72
     5
 11
86.705775880921
 21
14.306608253358
 31
0.0
100
AcDbText
  0
TEXT
  5
29C8
330
29BF
100
AcDbEntity
  8
図枠細線
  6
CONTINUOUS
 62
   252
100
AcDbText
 10
76.705775880921
 20
26.806608253358
 30
0.0
 40
2.0
  1
ＡＰＰＲＯＶＥＤ
 41
0.695652184279
  7
EXCADSTD
 72
     5
 11
89.505776071656
 21
26.806608253358
 31
0.0
100
AcDbText
  0
TEXT
  5
29C9
330
29BF
100
AcDbEntity
  8
図枠細線
  6
CONTINUOUS
 62
   252
100
AcDbText
 10
76.705775880921
 20
29.306608253358
 30
0.0
 40
2.0
  1
承認
 41
1.171875
  7
EXCADSTD
 72
     5
 11
81.705775880921
 21
29.306608253358
 31
0.0
100
AcDbText
  0
LINE
  5
29CA
330
29BF
100
AcDbEntity
  8
図枠細線
  6
CONTINUOUS
 62
   252
100
AcDbLine
 10
98.061011071051
 20
31.806606253358
 30
0.0
 11
98.061011071051
 21
16.806606253358
 31
0.0
  0
TEXT
  5
29CB
330
29BF
100
AcDbEntity
  8
図枠細線
  6
CONTINUOUS
 62
   252
100
AcDbText
 10
104.216531119804
 20
14.306608253358
 30
0.0
 40
2.0
  1
ＳＣＡＬＥ
 41
0.903614457831
  7
EXCADSTD
 72
     5
 11
114.216531119804
 21
14.306608253358
 31
0.0
100
AcDbText
  0
TEXT
  5
29CC
330
29BF
100
AcDbEntity
  8
図枠細線
  6
CONTINUOUS
 62
   252
100
AcDbText
 10
98.844044119804
 20
14.306608253358
 30
0.0
 40
2.0
  1
尺度
 41
1.171875
  7
EXCADSTD
 72
     5
 11
103.844044119804
 21
14.306608253358
 31
0.0
100
AcDbText
  0
TEXT
  5
29CD
330
29BF
100
AcDbEntity
  8
図枠細線
  6
CONTINUOUS
 62
   252
100
AcDbText
 10
98.968727707497
 20
26.806608253358
 30
0.0
 40
2.0
  1
ＣＨＥＣＫＥＤ
 41
0.831249989569
  7
EXCADSTD
 72
     5
 11
112.268727540604
 21
26.806608253358
 31
0.0
100
AcDbText
  0
TEXT
  5
29CE
330
29BF
100
AcDbEntity
  8
図枠細線
  6
CONTINUOUS
 62
   252
100
AcDbText
 10
98.968727707497
 20
29.306608253358
 30
0.0
 40
2.0
  1
検図
 41
1.209677419355
  7
EXCADSTD
 72
     5
 11
103.968727707497
 21
29.306608253358
 31
0.0
100
AcDbText
  0
LINE
  5
29CF
330
29BF
100
AcDbEntity
  8
図枠細線
  6
CONTINUOUS
 62
   252
100
AcDbLine
 10
121.061011071051
 20
31.806606253358
 30
0.0
 11
121.061011071051
 21
16.806606253358
 31
0.0
  0
TEXT
  5
29D0
330
29BF
100
AcDbEntity
  8
図枠細線
  6
CONTINUOUS
 62
   252
100
AcDbText
 10
128.001465247253
 20
14.306608253358
 30
0.0
 40
2.0
  1
ＤＡＴＥ
 41
0.923076923077
  7
EXCADSTD
 72
     5
 11
136.001465247253
 21
14.306608253358
 31
0.0
100
AcDbText
  0
TEXT
  5
29D1
330
29BF
100
AcDbEntity
  8
図枠細線
  6
CONTINUOUS
 62
   252
100
AcDbText
 10
122.066415498841
 20
14.306608253358
 30
0.0
 40
2.0
  1
日付
 41
1.171875
  7
EXCADSTD
 72
     5
 11
127.066415498841
 21
14.306608253358
 31
0.0
100
AcDbText
  0
TEXT
  5
29D2
330
29BF
100
AcDbEntity
  8
図枠細線
  6
CONTINUOUS
 62
   252
100
AcDbText
 10
121.59429406571
 20
29.306608253358
 30
0.0
 40
2.0
  1
製図
 41
1.209677419355
  7
EXCADSTD
 72
     5
 11
126.59429406571
 21
29.306608253358
 31
0.0
100
AcDbText
  0
TEXT
  5
29D3
330
29BF
100
AcDbEntity
  8
図枠細線
  6
CONTINUOUS
 62
   252
100
AcDbText
 10
121.59429406571
 20
26.806608253358
 30
0.0
 40
2.0
  1
ＤＲＡＷＮ
 41
0.882352941176
  7
EXCADSTD
 72
     5
 11
131.59429406571
 21
26.806608253358
 31
0.0
100
AcDbText
  0
TEXT
  5
29D4
330
29BF
100
AcDbEntity
  8
図枠細線
  6
CONTINUOUS
 62
   252
100
AcDbText
 10
226.591229661348
 20
14.306608253358
 30
0.0
 40
2.0
  1
ＤＲＧ．ＮＯ．
 41
0.9375
  7
EXCADSTD
 72
     5
 11
240.591229661348
 21
14.306608253358
 31
0.0
100
AcDbText
  0
LINE
  5
29D5
330
29BF
100
AcDbEntity
  8
図枠太線
  6
CONTINUOUS
 62
   251
100
AcDbLine
 10
144.061003071051
 20
16.806606253358
 30
0.0
 11
214.061011071051
 21
16.806606253358
 31
0.0
  0
LINE
  5
29D6
330
29BF
100
AcDbEntity
  8
図枠細線
  6
CONTINUOUS
 62
   252
100
AcDbLine
 10
144.061011071051
 20
24.306606253358
 30
0.0
 11
214.061011071051
 21
24.306606253358
 31
0.0
  0
TEXT
  5
29D7
330
29BF
100
AcDbEntity
  8
図枠ロゴマーク
  6
CONTINUOUS
 62
   253
100
AcDbText
 10
146.433776781596
 20
8.399000253358
 30
0.0
 40
7.0
  1
東和制電工業株式会社
 41
0.80361088462
  7
EXCADSTD
 72
     5
 11
212.437017438349
 21
8.399000253358
 31
0.0
100
AcDbText
  0
TEXT
  5
29D8
330
29BF
100
AcDbEntity
  8
図枠細線
  6
CONTINUOUS
 62
   252
100
AcDbText
 10
215.156179912936
 20
14.306608253358
 30
0.0
 40
2.0
  1
図面番号
 41
1.102941176471
  7
EXCADSTD
 72
     5
 11
225.156179912936
 21
14.306608253358
 31
0.0
100
AcDbText
  0
TEXT
  5
29D9
330
29BF
100
AcDbEntity
  8
図枠細線
  6
CONTINUOUS
 62
   252
100
AcDbText
 10
221.591229661348
 20
29.306608253358
 30
0.0
 40
2.0
  1
ＴＩＴＬＥ
 41
0.903614457831
  7
EXCADSTD
 72
     5
 11
231.591229661348
 21
29.306608253358
 31
0.0
100
AcDbText
  0
TEXT
  5
29DA
330
29BF
100
AcDbEntity
  8
図枠細線
  6
CONTINUOUS
 62
   252
100
AcDbText
 10
215.156179912936
 20
29.306608253358
 30
0.0
 40
2.0
  1
名称
 41
1.171875
  7
EXCADSTD
 72
     5
 11
220.156179912936
 21
29.306608253358
 31
0.0
100
AcDbText
  0
LINE
  5
29DB
330
29BF
100
AcDbEntity
  8
図枠太線
  6
CONTINUOUS
 62
   251
100
AcDbLine
 10
4.061011071051
 20
1.806608253358
 30
0.0
 11
284.061011071051
 21
1.806608253358
 31
0.0
  0
LINE
  5
29DC
330
29BF
100
AcDbEntity
  8
図枠細線
  6
CONTINUOUS
 62
   252
100
AcDbLine
 10
4.061011071051
 20
6.806608253358
 30
0.0
 11
75.061011071051
 21
6.806608253358
 31
0.0
  0
LINE
  5
29DD
330
29BF
100
AcDbEntity
  8
図枠太線
  6
CONTINUOUS
 62
   251
100
AcDbLine
 10
75.061011071051
 20
1.806608253358
 30
0.0
 11
75.061011071051
 21
31.806606253358
 31
0.0
  0
TEXT
  5
29DE
330
29BF
100
AcDbEntity
  8
図枠細線
  6
CONTINUOUS
 62
   252
100
AcDbText
 10
76.330551827713
 20
6.638319253358
 30
0.0
 40
2.0
  1
ＰＲＯＪＥＣＴＩＯＮ
 41
0.754285710199
  7
EXCADSTD
 72
     5
 11
93.930551732346
 21
6.638319253358
 31
0.0
100
AcDbText
  0
LINE
  5
29DF
330
29BF
100
AcDbEntity
  8
図枠細線
  6
CONTINUOUS
 62
   252
100
AcDbLine
 10
98.061011071051
 20
1.806606931929
 30
0.0
 11
98.061011071051
 21
16.806604931929
 31
0.0
  0
LINE
  5
29E0
330
29BF
100
AcDbEntity
  8
図枠細線
  6
CONTINUOUS
 62
   252
100
AcDbLine
 10
121.061011071051
 20
1.806607574787
 30
0.0
 11
121.061011071051
 21
16.806605574787
 31
0.0
  0
LINE
  5
29E1
330
29BF
100
AcDbEntity
  8
図枠太線
  6
CONTINUOUS
 62
   251
100
AcDbLine
 10
284.061011071051
 20
1.806608253358
 30
0.0
 11
284.061011071051
 21
31.806606253358
 31
0.0
  0
LINE
  5
29E2
330
29BF
100
AcDbEntity
  8
図枠細線
  6
CONTINUOUS
 62
   252
100
AcDbLine
 10
214.061011071051
 20
16.806606253358
 30
0.0
 11
284.061011071051
 21
16.806606253358
 31
0.0
  0
TEXT
  5
29E3
330
29BF
100
AcDbEntity
  8
図枠細線
  6
CONTINUOUS
 62
   252
100
AcDbText
 10
146.199593676182
 20
3.454099253358
 30
0.0
 40
3.5
  1
ＴＯＷＡ　ＳＥＩＤＥＮ　ＩＮＤＵＳＴＲＩＡＬ　ＣＯ．，ＬＴＤ．
 41
0.528937826907
  7
EXCADSTD
 72
     5
 11
213.339435171588
 21
3.454099253358
 31
0.0
100
AcDbText
  0
LINE
  5
29E4
330
29BF
100
AcDbEntity
  8
図枠太線
  6
CONTINUOUS
 62
   251
100
AcDbLine
 10
144.061011071051
 20
1.806608253358
 30
0.0
 11
144.061011071051
 21
31.806606253358
 31
0.0
  0
LINE
  5
29E5
330
29BF
100
AcDbEntity
  8
図枠太線
  6
CONTINUOUS
 62
   251
100
AcDbLine
 10
214.061011071051
 20
1.806608253358
 30
0.0
 11
214.061011071051
 21
31.806606253358
 31
0.0
  0
MTEXT
  5
29E6
330
29BF
100
AcDbEntity
  8
図枠太線
100
AcDbMText
 10
5.064337346478
 20
31.010982137407
 30
0.0
 40
2.5
 41
8.67856098472
 71
     1
 72
     5
  1
{\Fmonotxt.shx,bigfont.shx|c128;図暦}
  0
LINE
  5
29E7
330
29BF
100
AcDbEntity
  8
図枠太線
  6
CONTINUOUS
 62
   251
100
AcDbLine
 10
4.061011071051
 20
1.806608253358
 30
0.0
 11
4.061011071051
 21
31.806606253358
 31
0.0
  0
TEXT
  5
29E8
330
29BF
100
AcDbEntity
  8
図枠細線
 48
10.0
100
AcDbText
 10
12.260817420402
 20
28.625419626495
 30
0.0
 40
2.0
  1
CHANGE NOTICE
100
AcDbText
  0
ENDBLK
  5
29E9
330
29BF
100
AcDbEntity
  8
0
100
AcDbBlockEnd
  0
BLOCK
  5
29F5
330
29F4
100
AcDbEntity
  8
0
100
AcDbBlockBegin
  2
A4縦用_タイトル
 70
     0
 10
0.0
 20
0.0
 30
0.0
  3
A4縦用_タイトル
  1

  0
LINE
  5
29F6
330
29F4
100
AcDbEntity
  8
図枠太線
  6
CONTINUOUS
 62
   251
100
AcDbLine
 10
2.368253864267
 20
4.525433224584
 30
0.0
 11
192.368245864267
 21
4.525433224584
 31
0.0
  0
LINE
  5
29F7
330
29F4
100
AcDbEntity
  8
図枠太線
  6
CONTINUOUS
 62
   251
100
AcDbLine
 10
78.368245864267
 20
19.525431224584
 30
0.0
 11
135.368253864267
 21
19.525431224584
 31
0.0
  0
LINE
  5
29F8
330
29F4
100
AcDbEntity
  8
図枠細線
  6
CONTINUOUS
 62
   252
100
AcDbLine
 10
78.368253864267
 20
27.025431224584
 30
0.0
 11
135.368253864267
 21
27.025431224584
 31
0.0
  0
TEXT
  5
29F9
330
29F4
100
AcDbEntity
  8
図枠ロゴマーク
  6
CONTINUOUS
 62
   253
100
AcDbText
 10
80.617009864267
 20
11.117825224584
 30
0.0
 40
7.0
  1
東和制電工業株式会社
 41
0.639204545455
  7
EXCADSTD
 72
     5
 11
133.117009864267
 21
11.117825224584
 31
0.0
100
AcDbText
  0
TEXT
  5
29FA
330
29F4
100
AcDbEntity
  8
図枠細線
  6
CONTINUOUS
 62
   252
100
AcDbText
 10
80.579549864267
 20
6.172924224584
 30
0.0
 40
3.5
  1
ＴＯＷＡ　ＳＥＩＤＥＮ　ＩＮＤＵＳＴＲＩＡＬ　ＣＯ．，ＬＴＤ．
 41
0.414568012377
  7
EXCADSTD
 72
     5
 11
133.202049568628
 21
6.172924224584
 31
0.0
100
AcDbText
  0
LINE
  5
29FB
330
29F4
100
AcDbEntity
  8
図枠太線
  6
CONTINUOUS
 62
   251
100
AcDbLine
 10
2.368253864267
 20
4.525433224584
 30
0.0
 11
2.368253864267
 21
34.525431224584
 31
0.0
  0
TEXT
  5
29FC
330
29F4
100
AcDbEntity
  8
図枠細線
  6
CONTINUOUS
 62
   252
100
AcDbText
 10
22.504308136501
 20
12.279133224584
 30
0.0
 40
2.0
  1
ＴＨＩＲＤ　ＡＮＧＬＥ
 41
0.691099486738
  7
EXCADSTD
 72
     5
 11
40.104308398762
 21
12.279133224584
 31
0.0
100
AcDbText
  0
TEXT
  5
29FD
330
29F4
100
AcDbEntity
  8
図枠細線
  6
CONTINUOUS
 62
   252
100
AcDbText
 10
22.429384136501
 20
9.357144224584
 30
0.0
 40
2.0
  1
ＰＲＯＪＥＣＴＩＯＮ
 41
0.754285710199
  7
EXCADSTD
 72
     5
 11
40.029384041134
 21
9.357144224584
 31
0.0
100
AcDbText
  0
LINE
  5
29FE
330
29F4
100
AcDbEntity
  8
図枠細線
  6
CONTINUOUS
100
AcDbLine
 10
22.368253864267
 20
19.525433224584
 30
0.0
 11
78.368253864267
 21
19.525431224584
 31
0.0
  0
TEXT
  5
29FF
330
29F4
100
AcDbEntity
  8
図枠細線
  6
CONTINUOUS
 62
   252
100
AcDbText
 10
22.868253864267
 20
17.025433224584
 30
0.0
 40
2.0
  1
第三角法
 41
1.102941176471
  7
EXCADSTD
 72
     5
 11
32.868253864267
 21
17.025433224584
 31
0.0
100
AcDbText
  0
TEXT
  5
2A00
330
29F4
100
AcDbEntity
  8
図枠細線
  6
CONTINUOUS
 62
   252
100
AcDbText
 10
22.868253864267
 20
29.525433224584
 30
0.0
 40
2.0
  1
ＡＰＰＲＯＶＥＤ
 41
0.695652184279
  7
EXCADSTD
 72
     5
 11
35.668254055002
 21
29.525433224584
 31
0.0
100
AcDbText
  0
LINE
  5
2A01
330
29F4
100
AcDbEntity
  8
図枠細線
  6
CONTINUOUS
 62
   252
100
AcDbLine
 10
2.368253864267
 20
9.525433224584
 30
0.0
 11
22.368253864267
 21
9.525433224584
 31
0.0
  0
LINE
  5
2A02
330
29F4
100
AcDbEntity
  8
図枠細線
  6
CONTINUOUS
 62
   252
100
AcDbLine
 10
2.368253864267
 20
14.525431224584
 30
0.0
 11
22.368253864267
 21
14.525431224584
 31
0.0
  0
LINE
  5
2A03
330
29F4
100
AcDbEntity
  8
図枠細線
  6
CONTINUOUS
 62
   252
100
AcDbLine
 10
2.368253864267
 20
24.525431224584
 30
0.0
 11
22.368253864267
 21
24.525431224584
 31
0.0
  0
LINE
  5
2A04
330
29F4
100
AcDbEntity
  8
図枠細線
  6
CONTINUOUS
 62
   252
100
AcDbLine
 10
2.368253864267
 20
29.525431224584
 30
0.0
 11
22.368253864267
 21
29.525431224584
 31
0.0
  0
LINE
  5
2A05
330
29F4
100
AcDbEntity
  8
図枠細線
  6
CONTINUOUS
100
AcDbLine
 10
2.368253864267
 20
19.525433224584
 30
0.0
 11
22.368253864267
 21
19.525433224584
 31
0.0
  0
TEXT
  5
2A06
330
29F4
100
AcDbEntity
  8
図枠細線
  6
CONTINUOUS
 62
   252
100
AcDbText
 10
2.868253864267
 20
32.025433224584
 30
0.0
 40
2.0
  1
ＮＯＴＥ
 41
0.923076923077
  7
EXCADSTD
 72
     5
 11
10.868253864267
 21
32.025433224584
 31
0.0
100
AcDbText
  0
LINE
  5
2A07
330
29F4
100
AcDbEntity
  8
図枠太線
  6
CONTINUOUS
 62
   251
100
AcDbLine
 10
22.368253864267
 20
4.525433224584
 30
0.0
 11
22.368253864267
 21
34.525431224584
 31
0.0
  0
TEXT
  5
2A08
330
29F4
100
AcDbEntity
  8
図枠細線
  6
CONTINUOUS
 62
   252
100
AcDbText
 10
22.868253864267
 20
32.025433224584
 30
0.0
 40
2.0
  1
承認
 41
1.171875
  7
EXCADSTD
 72
     5
 11
27.868253864267
 21
32.025433224584
 31
0.0
100
AcDbText
  0
TEXT
  5
2A09
330
29F4
100
AcDbEntity
  8
図枠細線
  6
CONTINUOUS
 62
   252
100
AcDbText
 10
60.711709035982
 20
32.025433224584
 30
0.0
 40
2.0
  1
製図
 41
1.209677419355
  7
EXCADSTD
 72
     5
 11
65.711709035982
 21
32.025433224584
 31
0.0
100
AcDbText
  0
TEXT
  5
2A0A
330
29F4
100
AcDbEntity
  8
図枠細線
  6
CONTINUOUS
 62
   252
100
AcDbText
 10
60.711709035982
 20
29.525433224584
 30
0.0
 40
2.0
  1
ＤＲＡＷＮ
 41
0.882352941176
  7
EXCADSTD
 72
     5
 11
70.711709035982
 21
29.525433224584
 31
0.0
100
AcDbText
  0
TEXT
  5
2A0B
330
29F4
100
AcDbEntity
  8
図枠細線
  6
CONTINUOUS
 62
   252
100
AcDbText
 10
60.834891743877
 20
17.025433224584
 30
0.0
 40
2.0
  1
日付
 41
1.171875
  7
EXCADSTD
 72
     5
 11
65.834891743877
 21
17.025433224584
 31
0.0
100
AcDbText
  0
TEXT
  5
2A0C
330
29F4
100
AcDbEntity
  8
図枠細線
  6
CONTINUOUS
 62
   252
100
AcDbText
 10
47.333660864267
 20
17.025433224584
 30
0.0
 40
2.0
  1
ＳＣＡＬＥ
 41
0.903614457831
  7
EXCADSTD
 72
     5
 11
57.333660864267
 21
17.025433224584
 31
0.0
100
AcDbText
  0
TEXT
  5
2A0D
330
29F4
100
AcDbEntity
  8
図枠細線
  6
CONTINUOUS
 62
   252
100
AcDbText
 10
42.281425990082
 20
29.525433224584
 30
0.0
 40
2.0
  1
ＣＨＥＣＫＥＤ
 41
0.831249989569
  7
EXCADSTD
 72
     5
 11
55.581425823189
 21
29.525433224584
 31
0.0
100
AcDbText
  0
LINE
  5
2A0E
330
29F4
100
AcDbEntity
  8
図枠細線
  6
CONTINUOUS
 62
   252
100
AcDbLine
 10
40.968253864267
 20
34.525431224584
 30
0.0
 11
40.968253864267
 21
19.525431224584
 31
0.0
  0
LINE
  5
2A0F
330
29F4
100
AcDbEntity
  8
図枠細線
  6
CONTINUOUS
 62
   252
100
AcDbLine
 10
40.968253864267
 20
4.525433224584
 30
0.0
 11
40.968253864267
 21
19.525431224584
 31
0.0
  0
TEXT
  5
2A10
330
29F4
100
AcDbEntity
  8
図枠細線
  6
CONTINUOUS
 62
   252
100
AcDbText
 10
41.961173864267
 20
17.025433224584
 30
0.0
 40
2.0
  1
尺度
 41
1.171875
  7
EXCADSTD
 72
     5
 11
46.961173864267
 21
17.025433224584
 31
0.0
100
AcDbText
  0
TEXT
  5
2A11
330
29F4
100
AcDbEntity
  8
図枠細線
  6
CONTINUOUS
 62
   252
100
AcDbText
 10
42.281425990082
 20
32.025433224584
 30
0.0
 40
2.0
  1
検図
 41
1.209677419355
  7
EXCADSTD
 72
     5
 11
47.281425990082
 21
32.025433224584
 31
0.0
100
AcDbText
  0
LINE
  5
2A12
330
29F4
100
AcDbEntity
  8
図枠細線
  6
CONTINUOUS
 62
   252
100
AcDbLine
 10
59.768253864267
 20
34.525431224584
 30
0.0
 11
59.768253864267
 21
19.525431224584
 31
0.0
  0
LINE
  5
2A13
330
29F4
100
AcDbEntity
  8
図枠細線
  6
CONTINUOUS
 62
   252
100
AcDbLine
 10
59.768253864267
 20
4.525433224584
 30
0.0
 11
59.768253864267
 21
19.525431224584
 31
0.0
  0
LINE
  5
2A14
330
29F4
100
AcDbEntity
  8
図枠太線
  6
CONTINUOUS
 62
   251
100
AcDbLine
 10
78.368253864267
 20
4.525433224584
 30
0.0
 11
78.368253864267
 21
34.525431224584
 31
0.0
  0
TEXT
  5
2A15
330
29F4
100
AcDbEntity
  8
図枠細線
  6
CONTINUOUS
 62
   252
100
AcDbText
 10
66.334891743877
 20
17.025433224584
 30
0.0
 40
2.0
  1
ＤＡＴＥ
 41
0.923076923077
  7
EXCADSTD
 72
     5
 11
74.334891743877
 21
17.025433224584
 31
0.0
100
AcDbText
  0
LINE
  5
2A16
330
29F4
100
AcDbEntity
  8
図枠細線
  6
CONTINUOUS
 62
   252
100
AcDbLine
 10
135.368253864267
 20
19.525431224584
 30
0.0
 11
192.368245864267
 21
19.525431224584
 31
0.0
  0
TEXT
  5
2A17
330
29F4
100
AcDbEntity
  8
図枠細線
  6
CONTINUOUS
 62
   252
100
AcDbText
 10
141.868253864267
 20
32.025433224584
 30
0.0
 40
2.0
  1
ＴＩＴＬＥ
 41
0.903614457831
  7
EXCADSTD
 72
     5
 11
151.868253864267
 21
32.025433224584
 31
0.0
100
AcDbText
  0
LINE
  5
2A18
330
29F4
100
AcDbEntity
  8
図枠太線
  6
CONTINUOUS
 62
   251
100
AcDbLine
 10
135.368253864267
 20
4.525433224584
 30
0.0
 11
135.368253864267
 21
34.525431224584
 31
0.0
  0
TEXT
  5
2A19
330
29F4
100
AcDbEntity
  8
図枠細線
  6
CONTINUOUS
 62
   252
100
AcDbText
 10
135.868253864267
 20
17.025433224584
 30
0.0
 40
2.0
  1
図面番号
 41
1.102941176471
  7
EXCADSTD
 72
     5
 11
145.868253864267
 21
17.025433224584
 31
0.0
100
AcDbText
  0
TEXT
  5
2A1A
330
29F4
100
AcDbEntity
  8
図枠細線
  6
CONTINUOUS
 62
   252
100
AcDbText
 10
135.868253864267
 20
32.025433224584
 30
0.0
 40
2.0
  1
名称
 41
1.171875
  7
EXCADSTD
 72
     5
 11
140.868253864267
 21
32.025433224584
 31
0.0
100
AcDbText
  0
TEXT
  5
2A1B
330
29F4
100
AcDbEntity
  8
図枠細線
  6
CONTINUOUS
 62
   252
100
AcDbText
 10
146.868253864267
 20
17.025433224584
 30
0.0
 40
2.0
  1
ＤＲＧ．ＮＯ．
 41
0.9375
  7
EXCADSTD
 72
     5
 11
160.868253864267
 21
17.025433224584
 31
0.0
100
AcDbText
  0
LINE
  5
2A1C
330
29F4
100
AcDbEntity
  8
図枠太線
  6
CONTINUOUS
 62
   251
100
AcDbLine
 10
192.368245864267
 20
4.525433224584
 30
0.0
 11
192.368245864267
 21
34.525431224584
 31
0.0
  0
ENDBLK
  5
2A1D
330
29F4
100
AcDbEntity
  8
0
100
AcDbBlockEnd
  0
BLOCK
  5
2A33
330
2A32
100
AcDbEntity
  8
0
100
AcDbBlockBegin
  2
A3横用_タイトル
 70
     0
 10
0.0
 20
0.0
 30
0.0
  3
A3横用_タイトル
  1

  0
LINE
  5
2A34
330
2A32
100
AcDbEntity
  8
図枠細線
  6
CONTINUOUS
 62
   252
100
AcDbLine
 10
205.098414535793
 20
33.525959753527
 30
0.0
 11
305.098414535793
 21
33.525959753527
 31
0.0
  0
LINE
  5
2A35
330
2A32
100
AcDbEntity
  8
図枠太線
  6
CONTINUOUS
 62
   251
100
AcDbLine
 10
205.098414535793
 20
23.525959753527
 30
0.0
 11
305.098414535793
 21
23.525959753527
 31
0.0
  0
LINE
  5
2A36
330
2A32
100
AcDbEntity
  8
図枠細線
  6
CONTINUOUS
100
AcDbLine
 10
5.098414535793
 20
23.525959753527
 30
0.0
 11
105.098414535793
 21
23.525959753527
 31
0.0
  0
LINE
  5
2A37
330
2A32
100
AcDbEntity
  8
図枠細線
  6
CONTINUOUS
 62
   252
100
AcDbLine
 10
5.098414535793
 20
36.725957753527
 30
0.0
 11
105.098414535793
 21
36.725957753527
 31
0.0
  0
LINE
  5
2A38
330
2A32
100
AcDbEntity
  8
図枠細線
  6
CONTINUOUS
 62
   252
100
AcDbLine
 10
5.098414535793
 20
30.125957753527
 30
0.0
 11
105.098414535793
 21
30.125957753527
 31
0.0
  0
LINE
  5
2A39
330
2A32
100
AcDbEntity
  8
図枠細線
  6
CONTINUOUS
 62
   252
100
AcDbLine
 10
5.098414535793
 20
16.725959753527
 30
0.0
 11
105.098414535793
 21
16.725959753527
 31
0.0
  0
LINE
  5
2A3A
330
2A32
100
AcDbEntity
  8
図枠細線
  6
CONTINUOUS
 62
   252
100
AcDbLine
 10
5.098414535793
 20
10.125959753527
 30
0.0
 11
105.098414535793
 21
10.125959753527
 31
0.0
  0
LINE
  5
2A3B
330
2A32
100
AcDbEntity
  8
図枠細線
  6
CONTINUOUS
100
AcDbLine
 10
105.098414535793
 20
23.525961753527
 30
0.0
 11
205.098414535793
 21
23.525959753527
 31
0.0
  0
LINE
  5
2A3C
330
2A32
100
AcDbEntity
  8
図枠細線
  6
CONTINUOUS
 62
   252
100
AcDbLine
 10
138.398414535793
 20
43.525959753527
 30
0.0
 11
138.398414535793
 21
18.525957753527
 31
0.0
  0
LINE
  5
2A3D
330
2A32
100
AcDbEntity
  8
図枠細線
  6
CONTINUOUS
 62
   252
100
AcDbLine
 10
171.698414535793
 20
43.525959753527
 30
0.0
 11
171.698414535793
 21
18.525957753527
 31
0.0
  0
LINE
  5
2A3E
330
2A32
100
AcDbEntity
  8
図枠細線
  6
CONTINUOUS
 62
   252
100
AcDbLine
 10
305.098414535793
 20
23.525959753527
 30
0.0
 11
405.098414535793
 21
23.525959753527
 31
0.0
  0
TEXT
  5
2A3F
330
2A32
100
AcDbEntity
  8
図枠ロゴマーク
  6
CONTINUOUS
 62
   253
100
AcDbText
 10
206.102509212755
 20
13.294257570546
 30
0.0
 40
7.0
  1
東和制電工業株式会社
 50
0.016555220185
 41
1.186384129432
  7
EXCADSTD
 72
     5
 11
303.544188309143
 21
13.322412672217
 31
0.0
100
AcDbText
  0
MTEXT
  5
2A40
330
2A32
100
AcDbEntity
  8
図枠細線
100
AcDbMText
 10
6.356764112375
 20
41.976594175478
 30
0.0
 40
2.5
 41
49.938282706292
 71
     1
 72
     5
  1
{\Fmonotxt.shx,bigfont.shx|c128;図暦　CHANGE　NOTICE}
  0
MTEXT
  5
2A41
330
2A32
100
AcDbEntity
  8
図枠細線
 48
10.0
100
AcDbMText
 10
306.544114926828
 20
41.701835800934
 30
0.0
 40
2.5
 41
28.002809618823
 71
     1
 72
     5
  1
{\Fmonotxt.shx,bigfont.shx|c128;名称　TITLE}
  0
MTEXT
  5
2A42
330
2A32
100
AcDbEntity
  8
図枠細線
 48
10.0
100
AcDbMText
 10
307.329617114284
 20
21.606206797226
 30
0.0
 40
2.5
 41
24.385612216707
 71
     1
 72
     5
  1
{\Fmonotxt.shx,bigfont.shx|c128;図面番号\PDRG.　No.}
  0
MTEXT
  5
2A43
330
2A32
100
AcDbEntity
  8
図枠細線
 48
10.0
100
AcDbMText
 10
173.726349404609
 20
21.73680662198
 30
0.0
 40
2.5
 41
25.735090160813
 71
     1
 72
     5
  1
{\Fmonotxt.shx,bigfont.shx|c128;日付 DATE}
  0
MTEXT
  5
2A44
330
2A32
100
AcDbEntity
  8
図枠細線
 48
10.0
100
AcDbMText
 10
173.48708833982
 20
41.621592044998
 30
0.0
 40
2.5
 41
24.983741184205
 71
     1
 72
     5
  1
{\Fmonotxt.shx,bigfont.shx|c128;製図　DRAWN}
  0
MTEXT
  5
2A45
330
2A32
100
AcDbEntity
  8
図枠細線
 48
10.0
100
AcDbMText
 10
139.28009927741
 20
21.866713069868
 30
0.0
 40
2.5
 41
22.629632913243
 71
     1
 72
     5
  1
{\Fmonotxt.shx,bigfont.shx|c128;尺度　SCALE}
  0
MTEXT
  5
2A46
330
2A32
100
AcDbEntity
  8
図枠細線
 48
10.0
100
AcDbMText
 10
139.910091179835
 20
41.311840415554
 30
0.0
 40
2.5
 41
28.998753428368
 71
     1
 72
     5
  1
{\Fmonotxt.shx,bigfont.shx|c128;検図  CHECKED}
  0
MTEXT
  5
2A47
330
2A32
100
AcDbEntity
  8
図枠細線
 48
10.0
100
AcDbMText
 10
114.253294667728
 20
21.916124850174
 30
0.0
 40
3.0
 41
19.692400475383
 71
     1
 72
     5
  1
{\Fmonotxt.shx,bigfont.shx|c128;第三角法}
  0
MTEXT
  5
2A48
330
2A32
100
AcDbEntity
  8
図枠細線
 48
10.0
100
AcDbMText
 10
108.986959929915
 20
15.282880185837
 30
0.0
 40
2.5
 41
27.954882823547
 71
     1
 72
     5
  1
{\Fmonotxt.shx,bigfont.shx|c128;THIRD ANGLE\PPROJECTION}
  0
MTEXT
  5
2A49
330
2A32
100
AcDbEntity
  8
図枠細線
 48
10.0
100
AcDbMText
 10
106.319432640184
 20
41.511437145487
 30
0.0
 40
2.5
 41
28.233595265074
 71
     1
 72
     5
  1
{\Fmonotxt.shx,bigfont.shx|c128;承認 APPROVED}
  0
LINE
  5
2A4A
330
2A32
100
AcDbEntity
  8
図枠太線
  6
CONTINUOUS
 62
   251
100
AcDbLine
 10
5.098414535793
 20
3.525959753527
 30
0.0
 11
405.098414535793
 21
3.525959753527
 31
0.0
  0
LINE
  5
2A4B
330
2A32
100
AcDbEntity
  8
図枠太線
 48
10.0
100
AcDbLine
 10
5.098414535793
 20
3.525959753527
 30
0.0
 11
5.098414535793
 21
43.525959753527
 31
0.0
  0
LINE
  5
2A4C
330
2A32
100
AcDbEntity
  8
図枠太線
  6
CONTINUOUS
 62
   251
100
AcDbLine
 10
105.098414535793
 20
3.525959753527
 30
0.0
 11
105.098414535793
 21
43.525959753527
 31
0.0
  0
LINE
  5
2A4D
330
2A32
100
AcDbEntity
  8
図枠細線
  6
CONTINUOUS
 62
   252
100
AcDbLine
 10
138.398414535793
 20
3.525959753527
 30
0.0
 11
138.398414535793
 21
18.525957753527
 31
0.0
  0
LINE
  5
2A4E
330
2A32
100
AcDbEntity
  8
図枠細線
  6
CONTINUOUS
 62
   252
100
AcDbLine
 10
171.698414535793
 20
3.525959753527
 30
0.0
 11
171.698414535793
 21
18.525957753527
 31
0.0
  0
LINE
  5
2A4F
330
2A32
100
AcDbEntity
  8
図枠太線
  6
CONTINUOUS
 62
   251
100
AcDbLine
 10
205.098414535793
 20
3.525959753527
 30
0.0
 11
205.098414535793
 21
43.525959753527
 31
0.0
  0
LINE
  5
2A50
330
2A32
100
AcDbEntity
  8
図枠太線
 48
10.0
100
AcDbLine
 10
405.098414535793
 20
43.525959753527
 30
0.0
 11
405.098414535793
 21
3.525959753527
 31
0.0
  0
TEXT
  5
2A51
330
2A32
100
AcDbEntity
  8
図枠細線
  6
CONTINUOUS
 62
   252
100
AcDbText
 10
208.519754474572
 20
6.482358407285
 30
0.0
 40
3.5
  1
ＴＯＷＡ　ＳＥＩＤＥＮ　ＩＮＤＵＳＴＲＩＡＬ　ＣＯ．，ＬＴＤ．
 41
0.746656297509
  7
EXCADSTD
 72
     5
 11
303.295327171727
 21
6.482358407285
 31
0.0
100
AcDbText
  0
LINE
  5
2A52
330
2A32
100
AcDbEntity
  8
図枠太線
  6
CONTINUOUS
 62
   251
100
AcDbLine
 10
305.098414535793
 20
3.525959753527
 30
0.0
 11
305.098414535793
 21
43.525959753527
 31
0.0
  0
ENDBLK
  5
2A53
330
2A32
100
AcDbEntity
  8
0
100
AcDbBlockEnd
  0
BLOCK
  5
2A6D
330
2A6C
100
AcDbEntity
  8
0
100
AcDbBlockBegin
  2
A3縦用_タイトル
 70
     0
 10
0.0
 20
0.0
 30
0.0
  3
A3縦用_タイトル
  1

  0
MTEXT
  5
2A6E
330
2A6C
100
AcDbEntity
  8
図枠細線
100
AcDbMText
 10
5.040804501593
 20
31.626098649005
 30
0.0
 40
2.5
 41
49.938282706292
 71
     1
 72
     5
  1
{\Fmonotxt.shx,bigfont.shx|c128;図暦　CHANGE　NOTICE}
  0
LINE
  5
2A6F
330
2A6C
100
AcDbEntity
  8
図枠太線
  6
CONTINUOUS
 62
   251
100
AcDbLine
 10
283.577871882961
 20
2.820844689254
 30
0.0
 11
283.577871882961
 21
32.820842689254
 31
0.0
  0
MTEXT
  5
2A70
330
2A6C
100
AcDbEntity
  8
図枠細線
 48
10.0
100
AcDbMText
 10
214.912458947454
 20
31.621488632308
 30
0.0
 40
2.5
 41
28.002809618823
 71
     1
 72
     5
  1
{\Fmonotxt.shx,bigfont.shx|c128;名称　TITLE}
  0
MTEXT
  5
2A71
330
2A6C
100
AcDbEntity
  8
図枠細線
 48
10.0
100
AcDbMText
 10
214.740030458938
 20
16.310225796722
 30
0.0
 40
2.5
 41
24.385612216707
 71
     1
 72
     5
  1
{\Fmonotxt.shx,bigfont.shx|c128;図面番号\PDRG.　No.}
  0
LINE
  5
2A72
330
2A6C
100
AcDbEntity
  8
図枠太線
  6
CONTINUOUS
 62
   251
100
AcDbLine
 10
213.577871882961
 20
2.820844689254
 30
0.0
 11
213.577871882961
 21
32.820842689254
 31
0.0
  0
LINE
  5
2A73
330
2A6C
100
AcDbEntity
  8
図枠太線
  6
CONTINUOUS
 62
   251
100
AcDbLine
 10
143.577871882961
 20
2.820844689254
 30
0.0
 11
143.577871882961
 21
32.820842689254
 31
0.0
  0
TEXT
  5
2A74
330
2A6C
100
AcDbEntity
  8
図枠細線
  6
CONTINUOUS
 62
   252
100
AcDbText
 10
145.716454488093
 20
4.468335689254
 30
0.0
 40
3.5
  1
ＴＯＷＡ　ＳＥＩＤＥＮ　ＩＮＤＵＳＴＲＩＡＬ　ＣＯ．，ＬＴＤ．
 41
0.528937826907
  7
EXCADSTD
 72
     5
 11
212.856295983498
 21
4.468335689254
 31
0.0
100
AcDbText
  0
TEXT
  5
2A75
330
2A6C
100
AcDbEntity
  8
図枠ロゴマーク
  6
CONTINUOUS
 62
   253
100
AcDbText
 10
145.950637593507
 20
9.413236689254
 30
0.0
 40
7.0
  1
東和制電工業株式会社
 41
0.80361088462
  7
EXCADSTD
 72
     5
 11
211.953878250259
 21
9.413236689254
 31
0.0
100
AcDbText
  0
LINE
  5
2A76
330
2A6C
100
AcDbEntity
  8
図枠細線
  6
CONTINUOUS
 62
   252
100
AcDbLine
 10
143.577871882961
 20
25.320842689254
 30
0.0
 11
213.577871882961
 21
25.320842689254
 31
0.0
  0
LINE
  5
2A77
330
2A6C
100
AcDbEntity
  8
図枠太線
  6
CONTINUOUS
 62
   251
100
AcDbLine
 10
143.577863882961
 20
17.820842689254
 30
0.0
 11
213.577871882961
 21
17.820842689254
 31
0.0
  0
LINE
  5
2A78
330
2A6C
100
AcDbEntity
  8
図枠細線
  6
CONTINUOUS
 62
   252
100
AcDbLine
 10
213.577871882961
 20
17.820842689254
 30
0.0
 11
283.577871882961
 21
17.820842689254
 31
0.0
  0
LINE
  5
2A79
330
2A6C
100
AcDbEntity
  8
図枠細線
  6
CONTINUOUS
 62
   252
100
AcDbLine
 10
120.577871882961
 20
32.820842689254
 30
0.0
 11
120.577871882961
 21
17.820842689254
 31
0.0
  0
MTEXT
  5
2A7A
330
2A6C
100
AcDbEntity
  8
図枠細線
 48
10.0
100
AcDbMText
 10
121.100885670352
 20
16.33785922638
 30
0.0
 40
2.0
 41
17.705978285068
 71
     1
 72
     5
  1
{\Fmonotxt.shx,bigfont.shx|c128;日付 DATE}
  0
MTEXT
  5
2A7B
330
2A6C
100
AcDbEntity
  8
図枠細線
 48
10.0
100
AcDbMText
 10
121.254842273491
 20
31.208993514037
 30
0.0
 40
2.0
 41
18.363799568758
 71
     1
 72
     5
  1
{\Fmonotxt.shx,bigfont.shx|c128;製図　DRAWN}
  0
LINE
  5
2A7C
330
2A6C
100
AcDbEntity
  8
図枠細線
  6
CONTINUOUS
 62
   252
100
AcDbLine
 10
97.577871882961
 20
32.820842689254
 30
0.0
 11
97.577871882961
 21
17.820842689254
 31
0.0
  0
MTEXT
  5
2A7D
330
2A6C
100
AcDbEntity
  8
図枠細線
 48
10.0
100
AcDbMText
 10
98.239734796872
 20
16.467764839281
 30
0.0
 40
2.0
 41
17.757791689903
 71
     1
 72
     5
  1
{\Fmonotxt.shx,bigfont.shx|c128;尺度　SCALE}
  0
MTEXT
  5
2A7E
330
2A6C
100
AcDbEntity
  8
図枠細線
 48
10.0
100
AcDbMText
 10
97.864744625154
 20
31.298433377664
 30
0.0
 40
2.0
 41
23.162655920976
 71
     1
 72
     5
  1
{\Fmonotxt.shx,bigfont.shx|c128;検図  CHECKED}
  0
LINE
  5
2A7F
330
2A6C
100
AcDbEntity
  8
図枠細線
  6
CONTINUOUS
 62
   252
100
AcDbLine
 10
97.577871882961
 20
2.820843367826
 30
0.0
 11
97.577871882961
 21
17.820841367826
 31
0.0
  0
LINE
  5
2A80
330
2A6C
100
AcDbEntity
  8
図枠細線
  6
CONTINUOUS
 62
   252
100
AcDbLine
 10
120.577871882961
 20
2.820844010683
 30
0.0
 11
120.577871882961
 21
17.820842010683
 31
0.0
  0
MTEXT
  5
2A81
330
2A6C
100
AcDbEntity
  8
図枠細線
 48
10.0
100
AcDbMText
 10
81.402399084102
 20
16.316484117426
 30
0.0
 40
2.0
 41
12.920322819369
 71
     1
 72
     5
  1
{\Fmonotxt.shx,bigfont.shx|c128;第三角法}
  0
MTEXT
  5
2A82
330
2A6C
100
AcDbEntity
  8
図枠細線
 48
10.0
100
AcDbMText
 10
75.736576535096
 20
11.080410931319
 30
0.0
 40
2.0
 41
21.072870671471
 71
     1
 72
     5
  1
{\Fmonotxt.shx,bigfont.shx|c128;THIRD ANGLE\PPROJECTION}
  0
LINE
  5
2A83
330
2A6C
100
AcDbEntity
  8
図枠太線
  6
CONTINUOUS
 62
   251
100
AcDbLine
 10
74.577871882961
 20
2.820844689254
 30
0.0
 11
74.577871882961
 21
32.820842689254
 31
0.0
  0
MTEXT
  5
2A84
330
2A6C
100
AcDbEntity
  8
図枠細線
 48
10.0
100
AcDbMText
 10
75.060214781573
 20
31.298434778555
 30
0.0
 40
2.0
 41
22.240928805967
 71
     1
 72
     5
  1
{\Fmonotxt.shx,bigfont.shx|c128;承認 APPROVED}
  0
LINE
  5
2A85
330
2A6C
100
AcDbEntity
  8
図枠細線
  6
CONTINUOUS
100
AcDbLine
 10
3.577871882961
 20
17.820844689254
 30
0.0
 11
74.577871882961
 21
17.820844689254
 31
0.0
  0
LINE
  5
2A86
330
2A6C
100
AcDbEntity
  8
図枠細線
  6
CONTINUOUS
 62
   252
100
AcDbLine
 10
3.577871882961
 20
27.820842689254
 30
0.0
 11
74.577871882961
 21
27.820842689254
 31
0.0
  0
LINE
  5
2A87
330
2A6C
100
AcDbEntity
  8
図枠細線
  6
CONTINUOUS
 62
   252
100
AcDbLine
 10
3.577871882961
 20
22.820842689254
 30
0.0
 11
74.577871882961
 21
22.820842689254
 31
0.0
  0
LINE
  5
2A88
330
2A6C
100
AcDbEntity
  8
図枠細線
  6
CONTINUOUS
 62
   252
100
AcDbLine
 10
3.577871882961
 20
12.820842689254
 30
0.0
 11
74.577871882961
 21
12.820842689254
 31
0.0
  0
LINE
  5
2A89
330
2A6C
100
AcDbEntity
  8
図枠細線
  6
CONTINUOUS
 62
   252
100
AcDbLine
 10
3.577871882961
 20
7.820844689254
 30
0.0
 11
74.577871882961
 21
7.820844689254
 31
0.0
  0
LINE
  5
2A8A
330
2A6C
100
AcDbEntity
  8
図枠細線
  6
CONTINUOUS
100
AcDbLine
 10
74.577871882961
 20
17.820843689254
 30
0.0
 11
143.577871882961
 21
17.820841224969
 31
0.0
  0
LINE
  5
2A8B
330
2A6C
100
AcDbEntity
  8
図枠太線
  6
CONTINUOUS
 62
   251
100
AcDbLine
 10
3.577871882961
 20
2.820844689254
 30
0.0
 11
283.577871882961
 21
2.820844689254
 31
0.0
  0
LINE
  5
2A8C
330
2A6C
100
AcDbEntity
  8
図枠太線
  6
CONTINUOUS
 62
   251
100
AcDbLine
 10
3.577871882961
 20
2.820844689254
 30
0.0
 11
3.577871882961
 21
32.820842689254
 31
0.0
  0
ENDBLK
  5
2A8D
330
2A6C
100
AcDbEntity
  8
0
100
AcDbBlockEnd
  0
BLOCK
  5
2AF8
330
2AF4
100
AcDbEntity
  8
0
 48
10.0
100
AcDbBlockBegin
  2
_OPEN30
 70
     0
 10
0.0
 20
0.0
 30
0.0
  3
_OPEN30
  1

  0
LINE
  5
2AF5
330
2AF4
100
AcDbEntity
  8
0
  6
BYBLOCK
 62
     0
100
AcDbLine
 10
-1.0
 20
0.26794919
 30
0.0
 11
0.0
 21
0.0
 31
0.0
  0
LINE
  5
2AF6
330
2AF4
100
AcDbEntity
  8
0
  6
BYBLOCK
 62
     0
100
AcDbLine
 10
0.0
 20
0.0
 30
0.0
 11
-1.0
 21
-0.26794919
 31
0.0
  0
LINE
  5
2AF7
330
2AF4
100
AcDbEntity
  8
0
  6
BYBLOCK
 62
     0
100
AcDbLine
 10
0.0
 20
0.0
 30
0.0
 11
-1.0
 21
0.0
 31
0.0
  0
ENDBLK
  5
2AF9
330
2AF4
100
AcDbEntity
  8
0
 48
10.0
100
AcDbBlockEnd
  0
BLOCK
  5
300D
330
3003
100
AcDbEntity
  8
0
 48
10.0
100
AcDbBlockBegin
  2
*D6
 70
     1
 10
0.0
 20
0.0
 30
0.0
  3
*D6
  1

  0
LINE
  5
44B3
330
3003
100
AcDbEntity
  8
寸法線
 62
     0
 48
10.0
100
AcDbLine
 10
627.709838632385
 20
492.330844094271
 30
0.0
 11
647.7297456061
 21
492.330844094271
 31
0.0
  0
LINE
  5
44B4
330
3003
100
AcDbEntity
  8
寸法線
 62
     0
 48
10.0
100
AcDbLine
 10
585.137276597897
 20
403.330844094271
 30
0.0
 11
647.7297456061
 21
403.330844094271
 31
0.0
  0
LINE
  5
44B5
330
3003
100
AcDbEntity
  8
寸法線
 62
     0
 48
10.0
100
AcDbLine
 10
646.4797456061
 20
486.330844094271
 30
0.0
 11
646.4797456061
 21
409.330844094271
 31
0.0
  0
INSERT
  5
44B6
330
3003
100
AcDbEntity
  8
寸法線
 62
     0
100
AcDbBlockReference
  2
_OPEN30
 10
646.4797456061
 20
492.330844094271
 30
0.0
 41
6.0
 42
6.0
 43
6.0
 50
90.0
  0
INSERT
  5
44B7
330
3003
100
AcDbEntity
  8
寸法線
 62
     0
100
AcDbBlockReference
  2
_OPEN30
 10
646.4797456061
 20
403.330844094271
 30
0.0
 41
6.0
 42
6.0
 43
6.0
 50
270.0
  0
MTEXT
  5
44B8
330
3003
100
AcDbEntity
  8
寸法線
 62
     0
 48
10.0
100
AcDbMText
 10
641.846412272767
 20
453.759802947092
 30
0.0
 40
8.0
 41
0.0
 71
     5
 72
     1
  1
\A1;89
 11
0.0
 21
1.0
 31
0.0
  0
POINT
  5
44B9
330
3003
100
AcDbEntity
  8
DEFPOINTS
 62
     0
100
AcDbPoint
 10
627.084838632385
 20
492.330844094271
 30
0.0
  0
POINT
  5
44BA
330
3003
100
AcDbEntity
  8
DEFPOINTS
 62
     0
100
AcDbPoint
 10
584.512276597897
 20
403.330844094271
 30
0.0
  0
POINT
  5
44BB
330
3003
100
AcDbEntity
  8
DEFPOINTS
 62
     0
100
AcDbPoint
 10
646.4797456061
 20
403.330844094271
 30
0.0
  0
ENDBLK
  5
300E
330
3003
100
AcDbEntity
  8
0
 48
10.0
100
AcDbBlockEnd
  0
BLOCK
  5
301A
330
3010
100
AcDbEntity
  8
0
 48
10.0
100
AcDbBlockBegin
  2
*D7
 70
     1
 10
0.0
 20
0.0
 30
0.0
  3
*D7
  1

  0
LINE
  5
3677
330
3010
100
AcDbEntity
  8
寸法線
 62
     0
 48
10.0
100
AcDbLine
 10
599.993384948815
 20
441.931603764155
 30
0.0
 11
669.412779436199
 21
441.931603764155
 31
0.0
  0
LINE
  5
3678
330
3010
100
AcDbEntity
  8
寸法線
 62
     0
 48
10.0
100
AcDbLine
 10
599.993384948815
 20
542.499107767979
 30
0.0
 11
669.412779436199
 21
542.499107767979
 31
0.0
  0
LINE
  5
3679
330
3010
100
AcDbEntity
  8
寸法線
 62
     0
 48
10.0
100
AcDbLine
 10
668.162779436199
 20
447.931603764155
 30
0.0
 11
668.162779436199
 21
536.499107767979
 31
0.0
  0
INSERT
  5
367A
330
3010
100
AcDbEntity
  8
寸法線
 62
     0
100
AcDbBlockReference
  2
_OPEN30
 10
668.162779436199
 20
441.931603764155
 30
0.0
 41
6.0
 42
6.0
 43
6.0
 50
270.0
  0
INSERT
  5
367B
330
3010
100
AcDbEntity
  8
寸法線
 62
     0
100
AcDbBlockReference
  2
_OPEN30
 10
668.162779436199
 20
542.499107767979
 30
0.0
 41
6.0
 42
6.0
 43
6.0
 50
90.0
  0
MTEXT
  5
367C
330
3010
100
AcDbEntity
  8
寸法線
 62
     0
 48
10.0
100
AcDbMText
 10
663.537779436199
 20
492.215355766067
 30
0.0
 40
8.0
 41
0.0
 71
     5
 72
     1
  1
\A1;φ100
 11
0.0
 21
1.0
 31
0.0
  0
POINT
  5
367D
330
3010
100
AcDbEntity
  8
DEFPOINTS
 62
     0
100
AcDbPoint
 10
599.368384948815
 20
441.931603764155
 30
0.0
  0
POINT
  5
367E
330
3010
100
AcDbEntity
  8
DEFPOINTS
 62
     0
100
AcDbPoint
 10
599.368384948815
 20
542.499107767979
 30
0.0
  0
POINT
  5
367F
330
3010
100
AcDbEntity
  8
DEFPOINTS
 62
     0
100
AcDbPoint
 10
668.162779436199
 20
542.499107767979
 30
0.0
  0
ENDBLK
  5
301B
330
3010
100
AcDbEntity
  8
0
 48
10.0
100
AcDbBlockEnd
  0
BLOCK
  5
308D
330
3083
100
AcDbEntity
  8
0
 48
10.0
100
AcDbBlockBegin
  2
*D8
 70
     1
 10
0.0
 20
0.0
 30
0.0
  3
*D8
  1

  0
LINE
  5
455D
330
3083
100
AcDbEntity
  8
寸法線
 62
     0
 48
10.0
100
AcDbLine
 10
140.633752187897
 20
502.314037371582
 30
0.0
 11
122.283831495138
 21
502.314037371582
 31
0.0
  0
LINE
  5
455E
330
3083
100
AcDbEntity
  8
寸法線
 62
     0
 48
10.0
100
AcDbLine
 10
140.633752187897
 20
482.314037371582
 30
0.0
 11
122.283831495138
 21
482.314037371582
 31
0.0
  0
LINE
  5
455F
330
3083
100
AcDbEntity
  8
寸法線
 62
     0
 48
10.0
100
AcDbLine
 10
123.533831495138
 20
496.314037371582
 30
0.0
 11
123.533831495138
 21
488.314037371582
 31
0.0
  0
INSERT
  5
4560
330
3083
100
AcDbEntity
  8
寸法線
 62
     0
100
AcDbBlockReference
  2
_OPEN30
 10
123.533831495138
 20
502.314037371582
 30
0.0
 41
6.0
 42
6.0
 43
6.0
 50
90.0
  0
INSERT
  5
4561
330
3083
100
AcDbEntity
  8
寸法線
 62
     0
100
AcDbBlockReference
  2
_OPEN30
 10
123.533831495138
 20
482.314037371582
 30
0.0
 41
6.0
 42
6.0
 43
6.0
 50
270.0
  0
MTEXT
  5
4562
330
3083
100
AcDbEntity
  8
寸法線
 62
     0
 48
10.0
100
AcDbMText
 10
117.680688706199
 20
490.701202102181
 30
0.0
 40
8.0
 41
0.0
 71
     5
 72
     1
  1
\A1;φ20
 11
0.0
 21
1.0
 31
0.0
  0
POINT
  5
4563
330
3083
100
AcDbEntity
  8
DEFPOINTS
 62
     0
100
AcDbPoint
 10
141.258752187897
 20
502.314037371582
 30
0.0
  0
POINT
  5
4564
330
3083
100
AcDbEntity
  8
DEFPOINTS
 62
     0
100
AcDbPoint
 10
141.258752187897
 20
482.314037371582
 30
0.0
  0
POINT
  5
4565
330
3083
100
AcDbEntity
  8
DEFPOINTS
 62
     0
100
AcDbPoint
 10
123.533831495138
 20
482.314037371582
 30
0.0
  0
ENDBLK
  5
308E
330
3083
100
AcDbEntity
  8
0
 48
10.0
100
AcDbBlockEnd
  0
BLOCK
  5
30A4
330
309A
100
AcDbEntity
  8
0
 48
10.0
100
AcDbBlockBegin
  2
*D9
 70
     1
 10
0.0
 20
0.0
 30
0.0
  3
*D9
  1

  0
LINE
  5
453A
330
309A
100
AcDbEntity
  8
寸法線
 62
     0
 48
10.0
100
AcDbLine
 10
141.258752187897
 20
481.873445549273
 30
0.0
 11
141.258752187897
 21
442.314258954871
 31
0.0
  0
LINE
  5
453B
330
309A
100
AcDbEntity
  8
寸法線
 62
     0
 48
10.0
100
AcDbLine
 10
274.258752187897
 20
471.391932944231
 30
0.0
 11
274.258752187897
 21
442.314258954871
 31
0.0
  0
LINE
  5
453C
330
309A
100
AcDbEntity
  8
寸法線
 62
     0
 48
10.0
100
AcDbLine
 10
147.258752187897
 20
443.564258954871
 30
0.0
 11
268.258752187897
 21
443.564258954871
 31
0.0
  0
INSERT
  5
453D
330
309A
100
AcDbEntity
  8
寸法線
 62
     0
100
AcDbBlockReference
  2
_OPEN30
 10
141.258752187897
 20
443.564258954871
 30
0.0
 41
6.0
 42
6.0
 43
6.0
 50
180.0
  0
INSERT
  5
453E
330
309A
100
AcDbEntity
  8
寸法線
 62
     0
100
AcDbBlockReference
  2
_OPEN30
 10
274.258752187897
 20
443.564258954871
 30
0.0
 41
6.0
 42
6.0
 43
6.0
  0
MTEXT
  5
453F
330
309A
100
AcDbEntity
  8
寸法線
 62
     0
 48
10.0
100
AcDbMText
 10
207.758752187897
 20
448.197592288204
 30
0.0
 40
8.0
 41
0.0
 71
     5
 72
     1
  1
\A1;133
  0
POINT
  5
4540
330
309A
100
AcDbEntity
  8
DEFPOINTS
 62
     0
100
AcDbPoint
 10
141.258752187897
 20
482.498445549273
 30
0.0
  0
POINT
  5
4541
330
309A
100
AcDbEntity
  8
DEFPOINTS
 62
     0
100
AcDbPoint
 10
274.258752187897
 20
472.016932944231
 30
0.0
  0
POINT
  5
4542
330
309A
100
AcDbEntity
  8
DEFPOINTS
 62
     0
100
AcDbPoint
 10
274.258752187897
 20
443.564258954871
 30
0.0
  0
ENDBLK
  5
30A5
330
309A
100
AcDbEntity
  8
0
 48
10.0
100
AcDbBlockEnd
  0
BLOCK
  5
30DD
330
30D3
100
AcDbEntity
  8
0
 48
10.0
100
AcDbBlockBegin
  2
*D10
 70
     1
 10
0.0
 20
0.0
 30
0.0
  3
*D10
  1

  0
LINE
  5
450F
330
30D3
100
AcDbEntity
  8
寸法線
 62
     0
 48
10.0
100
AcDbLine
 10
627.085592136889
 20
447.173173370621
 30
0.0
 11
627.085592136889
 21
373.954461481477
 31
0.0
  0
LINE
  5
4510
330
30D3
100
AcDbEntity
  8
寸法線
 62
     0
 48
10.0
100
AcDbLine
 10
511.585592136897
 20
464.205844094271
 30
0.0
 11
511.585592136897
 21
373.954461481477
 31
0.0
  0
LINE
  5
4511
330
30D3
100
AcDbEntity
  8
寸法線
 62
     0
 48
10.0
100
AcDbLine
 10
621.085592136889
 20
375.204461481477
 30
0.0
 11
517.585592136897
 21
375.204461481477
 31
0.0
  0
INSERT
  5
4512
330
30D3
100
AcDbEntity
  8
寸法線
 62
     0
100
AcDbBlockReference
  2
_OPEN30
 10
627.085592136889
 20
375.204461481477
 30
0.0
 41
6.0
 42
6.0
 43
6.0
  0
INSERT
  5
4513
330
30D3
100
AcDbEntity
  8
寸法線
 62
     0
100
AcDbBlockReference
  2
_OPEN30
 10
511.585592136897
 20
375.204461481477
 30
0.0
 41
6.0
 42
6.0
 43
6.0
 50
180.0
  0
MTEXT
  5
4514
330
30D3
100
AcDbEntity
  8
寸法線
 62
     0
 48
10.0
100
AcDbMText
 10
567.542479833818
 20
379.833628148144
 30
0.0
 40
8.0
 41
0.0
 71
     5
 72
     1
  1
\A1;120
  0
POINT
  5
4515
330
30D3
100
AcDbEntity
  8
DEFPOINTS
 62
     0
100
AcDbPoint
 10
627.085592136889
 20
447.798173370621
 30
0.0
  0
POINT
  5
4516
330
30D3
100
AcDbEntity
  8
DEFPOINTS
 62
     0
100
AcDbPoint
 10
511.585592136897
 20
464.830844094271
 30
0.0
  0
POINT
  5
4517
330
30D3
100
AcDbEntity
  8
DEFPOINTS
 62
     0
100
AcDbPoint
 10
511.585592136897
 20
375.204461481477
 30
0.0
  0
ENDBLK
  5
30DE
330
30D3
100
AcDbEntity
  8
0
 48
10.0
100
AcDbBlockEnd
  0
BLOCK
  5
34C0
330
3494
100
AcDbEntity
  8
0
 48
10.0
100
AcDbBlockBegin
  2
A$C5338004D
 70
     0
 10
0.0
 20
0.0
 30
0.0
  3
A$C5338004D
  1

  0
LINE
  5
3495
330
3494
100
AcDbEntity
  8
1
  6
DASHED
 62
     7
100
AcDbLine
 10
290.68260249956
 20
-0.000000034179
 30
0.0
 11
290.68260249956
 21
50.999999965821
 31
0.0
  0
LINE
  5
3496
330
3494
100
AcDbEntity
  8
1
  6
CONTINUOUS
 62
     3
100
AcDbLine
 10
361.162525920228
 20
49.959663831367
 30
0.0
 11
361.162525920227
 21
2.040336100275
 31
0.0
  0
LINE
  5
3497
330
3494
100
AcDbEntity
  8
1
 62
     3
100
AcDbLine
 10
359.233017791272
 20
3.985186870746
 30
0.0
 11
361.162525920227
 21
2.040336100275
 31
0.0
  0
LINE
  5
3498
330
3494
100
AcDbEntity
  8
1
 62
     3
100
AcDbLine
 10
284.682602499561
 20
10.799999965821
 30
0.0
 11
240.444435924806
 21
10.799999965821
 31
0.0
  0
LINE
  5
3499
330
3494
100
AcDbEntity
  8
1
 62
     3
100
AcDbLine
 10
352.01785719409
 20
4.152404332875
 30
0.0
 11
345.286028928414
 21
10.799999965821
 31
0.0
  0
LINE
  5
349A
330
3494
100
AcDbEntity
  8
1
 62
     3
100
AcDbLine
 10
345.4249331518
 20
40.799999965821
 30
0.0
 11
345.46850184005
 21
10.799999965821
 31
0.0
  0
LINE
  5
349B
330
3494
100
AcDbEntity
  8
1
 62
     3
100
AcDbLine
 10
234.344435924806
 20
5.035294083468
 30
0.0
 11
226.644435924806
 21
5.035294083468
 31
0.0
  0
LINE
  5
349C
330
3494
100
AcDbEntity
  8
1
 62
     3
100
AcDbLine
 10
221.744435924806
 20
5.035294083468
 30
0.0
 11
162.977209034049
 21
5.035294083468
 31
0.0
  0
ARC
  5
349D
330
3494
100
AcDbEntity
  8
1
 62
     3
100
AcDbCircle
 10
224.194435924806
 20
4.234647024644
 30
0.0
 40
2.577505715377329
100
AcDbArc
 50
18.097118485446
 51
161.902881514554
  0
LINE
  5
349E
330
3494
100
AcDbEntity
  8
1
 62
     3
100
AcDbLine
 10
234.344435924806
 20
5.035294083468
 30
0.0
 11
240.444435924806
 21
10.799999965821
 31
0.0
  0
LINE
  5
349F
330
3494
100
AcDbEntity
  8
1
 62
     3
100
AcDbLine
 10
345.46850184005
 20
10.799999965821
 30
0.0
 11
290.682602499561
 21
10.799999965821
 31
0.0
  0
LINE
  5
34A0
330
3494
100
AcDbEntity
  8
1
 62
     3
100
AcDbLine
 10
240.444435924806
 20
10.799999965821
 30
0.0
 11
240.444435924806
 21
40.799999965821
 31
0.0
  0
LINE
  5
34A1
330
3494
100
AcDbEntity
  8
1
 62
     3
100
AcDbLine
 10
234.344435924806
 20
5.035294083468
 30
0.0
 11
234.344435924806
 21
46.964705848174
 31
0.0
  0
LINE
  5
34A2
330
3494
100
AcDbEntity
  8
1
 62
     3
100
AcDbLine
 10
226.644435924806
 20
46.964705848174
 30
0.0
 11
226.644435924806
 21
5.035294083468
 31
0.0
  0
LINE
  5
34A3
330
3494
100
AcDbEntity
  8
1
 62
     3
100
AcDbLine
 10
221.744435924806
 20
5.035294083468
 30
0.0
 11
221.744435924806
 21
46.964705848174
 31
0.0
  0
LINE
  5
34A4
330
3494
100
AcDbEntity
  8
1
  6
DASHED
 62
     7
100
AcDbLine
 10
284.68260249956
 20
-0.000000034179
 30
0.0
 11
284.68260249956
 21
50.999999965821
 31
0.0
  0
LINE
  5
34A5
330
3494
100
AcDbEntity
  8
1
 62
     3
100
AcDbLine
 10
359.233017791272
 20
3.985186870746
 30
0.0
 11
359.233017791272
 21
48.014813060896
 31
0.0
  0
LINE
  5
34A6
330
3494
100
AcDbEntity
  8
1
100
AcDbLine
 10
359.673847689512
 20
3.65324466901
 30
0.0
 11
377.278185353633
 21
3.65324466901
 31
0.0
  0
LINE
  5
34A7
330
3494
100
AcDbEntity
  8
1
 62
     3
100
AcDbLine
 10
377.144435924806
 20
2.040336100275
 30
0.0
 11
361.162525920227
 21
2.040336100275
 31
0.0
  0
LINE
  5
34A8
330
3494
100
AcDbEntity
  8
1
 62
     3
100
AcDbLine
 10
352.01785719409
 20
4.152404332875
 30
0.0
 11
352.01785719409
 21
47.963025175905
 31
0.0
  0
LINE
  5
34A9
330
3494
100
AcDbEntity
  8
1
 62
     3
100
AcDbLine
 10
359.232796003305
 20
4.152404332875
 30
0.0
 11
352.01785719409
 21
4.152404332875
 31
0.0
  0
LINE
  5
34AA
330
3494
100
AcDbEntity
  8
1
 62
     3
100
AcDbLine
 10
-0.000000543892
 20
16.01680668851
 30
0.0
 11
-0.000000543892
 21
35.983193243132
 31
0.0
  0
LINE
  5
34AB
330
3494
100
AcDbEntity
  8
1
 62
     3
100
AcDbLine
 10
162.477209034049
 20
46.464705848174
 30
0.0
 11
162.477209034049
 21
5.535294083468
 31
0.0
  0
LINE
  5
34AC
330
3494
100
AcDbEntity
  8
1
 62
     3
100
AcDbLine
 10
162.477209034049
 20
16.01680668851
 30
0.0
 11
-0.000000543892
 21
16.01680668851
 31
0.0
  0
ARC
  5
34AD
330
3494
100
AcDbEntity
  8
1
 62
     3
100
AcDbCircle
 10
162.97720903405
 20
5.535294083468
 30
0.0
 40
0.5
100
AcDbArc
 50
180.0
 51
270.0
  0
LINE
  5
34AE
330
3494
100
AcDbEntity
  8
1
 62
     3
100
AcDbLine
 10
377.144435924806
 20
49.959663831367
 30
0.0
 11
361.162525920228
 21
49.959663831367
 31
0.0
  0
LINE
  5
34AF
330
3494
100
AcDbEntity
  8
1
 62
     3
100
AcDbLine
 10
359.233017791272
 20
48.014813060896
 30
0.0
 11
361.162525920228
 21
49.959663831367
 31
0.0
  0
LINE
  5
34B0
330
3494
100
AcDbEntity
  8
1
 62
     3
100
AcDbLine
 10
290.682602499561
 20
40.799999965821
 30
0.0
 11
345.4249331518
 21
40.799999965821
 31
0.0
  0
LINE
  5
34B1
330
3494
100
AcDbEntity
  8
1
 62
     3
100
AcDbLine
 10
352.01785719409
 20
47.963025175905
 30
0.0
 11
345.4249331518
 21
40.799999965821
 31
0.0
  0
LINE
  5
34B2
330
3494
100
AcDbEntity
  8
1
 62
     3
100
AcDbLine
 10
359.233017791272
 20
47.963025175905
 30
0.0
 11
352.01785719409
 21
47.963025175905
 31
0.0
  0
LINE
  5
34B3
330
3494
100
AcDbEntity
  8
1
100
AcDbLine
 10
359.673847689512
 20
48.462184839771
 30
0.0
 11
377.278185353633
 21
48.462184839771
 31
0.0
  0
LINE
  5
34B4
330
3494
100
AcDbEntity
  8
1
 62
     3
100
AcDbLine
 10
234.344435924806
 20
46.964705848174
 30
0.0
 11
226.644435924806
 21
46.964705848174
 31
0.0
  0
LINE
  5
34B5
330
3494
100
AcDbEntity
  8
1
 62
     3
100
AcDbLine
 10
221.744435924806
 20
46.964705848174
 30
0.0
 11
162.977209034049
 21
46.964705848174
 31
0.0
  0
ARC
  5
34B6
330
3494
100
AcDbEntity
  8
1
 62
     3
100
AcDbCircle
 10
224.194435924806
 20
47.254363776563
 30
0.0
 40
2.467063378893744
100
AcDbArc
 50
186.742650169572
 51
353.257349830428
  0
LINE
  5
34B7
330
3494
100
AcDbEntity
  8
1
 62
     3
100
AcDbLine
 10
234.344435924806
 20
46.964705848174
 30
0.0
 11
240.444435924806
 21
40.799999965821
 31
0.0
  0
LINE
  5
34B8
330
3494
100
AcDbEntity
  8
1
 62
     3
100
AcDbLine
 10
240.444435924806
 20
40.799999965821
 30
0.0
 11
284.682602499561
 21
40.799999965821
 31
0.0
  0
LINE
  5
34B9
330
3494
100
AcDbEntity
  8
1
 62
     3
100
AcDbLine
 10
162.477209034049
 20
35.983193243132
 30
0.0
 11
-0.000000543892
 21
35.983193243132
 31
0.0
  0
LINE
  5
34BA
330
3494
100
AcDbEntity
  8
1
 62
     3
100
AcDbLine
 10
377.144435924806
 20
2.040336100275
 30
0.0
 11
377.144435924806
 21
49.959663831367
 31
0.0
  0
ARC
  5
34BB
330
3494
100
AcDbEntity
  8
1
 62
     3
100
AcDbCircle
 10
378.142755252537
 20
48.961344503636
 30
0.0
 40
0.9983193277310926
100
AcDbArc
 50
180.0
 51
270.0
  0
LINE
  5
34BC
330
3494
100
AcDbEntity
  8
1
 62
     3
100
AcDbLine
 10
379.141074580268
 20
47.963025175905
 30
0.0
 11
378.142755252537
 21
47.963025175905
 31
0.0
  0
ARC
  5
34BD
330
3494
100
AcDbEntity
  8
1
 62
     3
100
AcDbCircle
 10
378.142755252537
 20
3.038655428006
 30
0.0
 40
0.9983193277310926
100
AcDbArc
 50
90.0
 51
180.0
  0
LINE
  5
34BE
330
3494
100
AcDbEntity
  8
1
 62
     3
100
AcDbLine
 10
379.141074580268
 20
4.036974755737
 30
0.0
 11
378.142755252537
 21
4.036974755737
 31
0.0
  0
ARC
  5
34BF
330
3494
100
AcDbEntity
  8
1
 62
     3
100
AcDbCircle
 10
379.141074580268
 20
3.038655428006
 30
0.0
 40
0.9983193277310926
100
AcDbArc
 50
0.0
 51
90.0
  0
ENDBLK
  5
34C1
330
3494
100
AcDbEntity
  8
0
 48
10.0
100
AcDbBlockEnd
  0
BLOCK
  5
36A9
330
369F
100
AcDbEntity
  8
0
 48
10.0
100
AcDbBlockBegin
  2
*D12
 70
     1
 10
0.0
 20
0.0
 30
0.0
  3
*D12
  1

  0
LINE
  5
454C
330
369F
100
AcDbEntity
  8
寸法線
 62
     0
 48
10.0
100
AcDbLine
 10
141.258752187897
 20
442.939258954871
 30
0.0
 11
141.258752187897
 21
373.954461481477
 31
0.0
  0
LINE
  5
454D
330
369F
100
AcDbEntity
  8
寸法線
 62
     0
 48
10.0
100
AcDbLine
 10
511.585592136897
 20
393.087736536279
 30
0.0
 11
511.585592136897
 21
373.954461481477
 31
0.0
  0
LINE
  5
454E
330
369F
100
AcDbEntity
  8
寸法線
 62
     0
 48
10.0
100
AcDbLine
 10
147.258752187897
 20
375.204461481477
 30
0.0
 11
505.585592136897
 21
375.204461481477
 31
0.0
  0
INSERT
  5
454F
330
369F
100
AcDbEntity
  8
寸法線
 62
     0
100
AcDbBlockReference
  2
_OPEN30
 10
141.258752187897
 20
375.204461481477
 30
0.0
 41
6.0
 42
6.0
 43
6.0
 50
180.0
  0
INSERT
  5
4550
330
369F
100
AcDbEntity
  8
寸法線
 62
     0
100
AcDbBlockReference
  2
_OPEN30
 10
511.585592136897
 20
375.204461481477
 30
0.0
 41
6.0
 42
6.0
 43
6.0
  0
POINT
  5
4551
330
369F
100
AcDbEntity
  8
DEFPOINTS
 62
     0
100
AcDbPoint
 10
141.258752187897
 20
443.564258954871
 30
0.0
  0
POINT
  5
4552
330
369F
100
AcDbEntity
  8
DEFPOINTS
 62
     0
100
AcDbPoint
 10
511.585592136897
 20
393.712736536279
 30
0.0
  0
POINT
  5
4553
330
369F
100
AcDbEntity
  8
DEFPOINTS
 62
     0
100
AcDbPoint
 10
511.585592136897
 20
375.204461481477
 30
0.0
  0
ENDBLK
  5
36AA
330
369F
100
AcDbEntity
  8
0
 48
10.0
100
AcDbBlockEnd
  0
BLOCK
  5
4454
330
444A
100
AcDbEntity
  8
0
 48
10.0
100
AcDbBlockBegin
  2
*D13
 70
     1
 10
0.0
 20
0.0
 30
0.0
  3
*D13
  1

  0
LINE
  5
494F
330
444A
100
AcDbEntity
  8
寸法線
 62
     0
 48
10.0
100
AcDbLine
 10
490.585592136897
 20
469.691030999196
 30
0.0
 11
490.585592136897
 21
392.462736536279
 31
0.0
  0
LINE
  5
4950
330
444A
100
AcDbEntity
  8
寸法線
 62
     0
 48
10.0
100
AcDbLine
 10
511.585592136897
 20
464.205844094271
 30
0.0
 11
511.585592136897
 21
392.462736536279
 31
0.0
  0
LINE
  5
4951
330
444A
100
AcDbEntity
  8
寸法線
 62
     0
 48
10.0
100
AcDbLine
 10
496.585592136897
 20
393.712736536279
 30
0.0
 11
505.585592136897
 21
393.712736536279
 31
0.0
  0
INSERT
  5
4952
330
444A
100
AcDbEntity
  8
寸法線
 62
     0
100
AcDbBlockReference
  2
_OPEN30
 10
490.585592136897
 20
393.712736536279
 30
0.0
 41
6.0
 42
6.0
 43
6.0
 50
180.0
  0
INSERT
  5
4953
330
444A
100
AcDbEntity
  8
寸法線
 62
     0
100
AcDbBlockReference
  2
_OPEN30
 10
511.585592136897
 20
393.712736536279
 30
0.0
 41
6.0
 42
6.0
 43
6.0
  0
MTEXT
  5
4954
330
444A
100
AcDbEntity
  8
寸法線
 62
     0
 48
10.0
100
AcDbMText
 10
498.533577515697
 20
398.341903202946
 30
0.0
 40
8.0
 41
0.0
 71
     5
 72
     1
  1
\A1;21
  0
POINT
  5
4955
330
444A
100
AcDbEntity
  8
DEFPOINTS
 62
     0
100
AcDbPoint
 10
490.585592136897
 20
470.316030999196
 30
0.0
  0
POINT
  5
4956
330
444A
100
AcDbEntity
  8
DEFPOINTS
 62
     0
100
AcDbPoint
 10
511.585592136897
 20
464.830844094271
 30
0.0
  0
POINT
  5
4957
330
444A
100
AcDbEntity
  8
DEFPOINTS
 62
     0
100
AcDbPoint
 10
511.585592136897
 20
393.712736536279
 30
0.0
  0
ENDBLK
  5
4455
330
444A
100
AcDbEntity
  8
0
 48
10.0
100
AcDbBlockEnd
  0
ENDSEC
  0
SECTION
  2
ENTITIES
  0
ARC
  5
2D85
330
1A
100
AcDbEntity
  8
外形線
100
AcDbCircle
 10
589.606923928563
 20
539.468238020969
 30
0.0
 40
2.073556783584
100
AcDbArc
 50
90.0
 51
136.091731908435
  0
LINE
  5
2D86
330
1A
100
AcDbEntity
  8
外形線
100
AcDbLine
 10
588.113027782073
 20
540.906261678023
 30
0.0
 11
587.264057432733
 21
540.024305719133
 31
0.0
  0
ARC
  5
2D87
330
1A
100
AcDbEntity
  8
外形線
100
AcDbCircle
 10
585.770161286243
 20
541.462329376189
 30
0.0
 40
2.073556783584
100
AcDbArc
 50
270.0
 51
316.09173190844
  0
LINE
  5
2D88
330
1A
100
AcDbEntity
  8
外形線
100
AcDbLine
 10
593.908683599545
 20
541.541794804553
 30
0.0
 11
589.606923928563
 21
541.541794804553
 31
0.0
  0
ARC
  5
2D89
330
1A
100
AcDbEntity
  8
外形線
100
AcDbCircle
 10
589.341966138691
 20
461.319359690667
 30
0.0
 40
1.2441340701504
100
AcDbArc
 50
217.230967965681
 51
270.0
  0
ARC
  5
2D8A
330
1A
100
AcDbEntity
  8
外形線
100
AcDbCircle
 10
585.350172871307
 20
464.259815921637
 30
0.0
 40
1.2441340701504
100
AcDbArc
 50
37.230967965674
 51
90.0
  0
LINE
  5
2D8B
330
1A
100
AcDbEntity
  8
外形線
100
AcDbLine
 10
593.908683599545
 20
460.075225620515
 30
0.0
 11
589.341966138691
 21
460.075225620515
 31
0.0
  0
LINE
  5
2D8C
330
1A
100
AcDbEntity
  8
細線
100
AcDbLine
 10
585.770161286243
 20
539.388772592603
 30
0.0
 11
585.770161286243
 21
466.173416094271
 31
0.0
  0
LINE
  5
2D8D
330
1A
100
AcDbEntity
  8
外形線
100
AcDbLine
 10
591.458691822903
 20
423.470844094271
 30
0.0
 11
591.458691822903
 21
429.400844094271
 31
0.0
  0
LINE
  5
2D8E
330
1A
100
AcDbEntity
  8
外形線
100
AcDbLine
 10
589.385135039319
 20
429.400844094271
 30
0.0
 11
589.385135039319
 21
431.080844094271
 31
0.0
  0
LINE
  5
2D8F
330
1A
100
AcDbEntity
  8
外形線
100
AcDbLine
 10
582.646075492671
 20
423.470844094271
 30
0.0
 11
582.646075492671
 21
429.400844094271
 31
0.0
  0
LINE
  5
2D90
330
1A
100
AcDbEntity
  8
外形線
100
AcDbLine
 10
585.238021472151
 20
423.470844094271
 30
0.0
 11
585.238021472151
 21
429.400844094271
 31
0.0
  0
LINE
  5
2D91
330
1A
100
AcDbEntity
  8
外形線
100
AcDbLine
 10
586.793189059839
 20
421.502981287313
 30
0.0
 11
587.656848324271
 21
420.670844094271
 31
0.0
  0
LINE
  5
2D92
330
1A
100
AcDbEntity
  8
外形線
100
AcDbLine
 10
586.793189059839
 20
421.502981287313
 30
0.0
 11
586.793189059839
 21
420.670844094271
 31
0.0
  0
LINE
  5
2D93
330
1A
100
AcDbEntity
  8
外形線
100
AcDbLine
 10
586.793189059839
 20
420.670844094271
 30
0.0
 11
586.793189059839
 21
423.470844094271
 31
0.0
  0
LINE
  5
2D94
330
1A
100
AcDbEntity
  8
外形線
100
AcDbLine
 10
569.167956399375
 20
423.470844094271
 30
0.0
 11
569.167956399375
 21
429.400844094271
 31
0.0
  0
LINE
  5
2D95
330
1A
100
AcDbEntity
  8
外形線
100
AcDbLine
 10
566.576010419895
 20
423.470844094271
 30
0.0
 11
566.576010419895
 21
429.400844094271
 31
0.0
  0
LINE
  5
2D96
330
1A
100
AcDbEntity
  8
外形線
100
AcDbLine
 10
565.020842832207
 20
421.502981287313
 30
0.0
 11
565.020842832207
 21
420.670844094271
 31
0.0
  0
LINE
  5
2D97
330
1A
100
AcDbEntity
  8
外形線
100
AcDbLine
 10
565.020842832207
 20
421.502981287313
 30
0.0
 11
564.157183567775
 21
420.670844094271
 31
0.0
  0
LINE
  5
2D98
330
1A
100
AcDbEntity
  8
外形線
100
AcDbLine
 10
565.020842832207
 20
420.670844094271
 30
0.0
 11
565.020842832207
 21
423.470844094271
 31
0.0
  0
LINE
  5
2D99
330
1A
100
AcDbEntity
  8
外形線
100
AcDbLine
 10
560.355340069143
 20
423.470844094271
 30
0.0
 11
560.355340069143
 21
429.400844094271
 31
0.0
  0
LINE
  5
2D9A
330
1A
100
AcDbEntity
  8
外形線
100
AcDbLine
 10
562.428896852727
 20
429.400844094271
 30
0.0
 11
562.428896852727
 21
429.919233290167
 31
0.0
  0
LINE
  5
2D9B
330
1A
100
AcDbEntity
  8
外形線
100
AcDbLine
 10
562.428896852727
 20
429.400844094271
 30
0.0
 11
562.428896852727
 21
431.080844094271
 31
0.0
  0
LINE
  5
2D9C
330
1A
100
AcDbEntity
  8
細線
100
AcDbLine
 10
565.020842832207
 20
421.502981287313
 30
0.0
 11
586.793189059839
 21
421.502981287313
 31
0.0
  0
LINE
  5
2D9D
330
1A
100
AcDbEntity
  8
外形線
100
AcDbLine
 10
591.458691822903
 20
423.470844094271
 30
0.0
 11
560.355340069143
 21
423.470844094271
 31
0.0
  0
LINE
  5
2D9E
330
1A
100
AcDbEntity
  8
外形線
100
AcDbLine
 10
591.458691822903
 20
429.400844094271
 30
0.0
 11
560.355340069143
 21
429.400844094271
 31
0.0
  0
LINE
  5
2D9F
330
1A
100
AcDbEntity
  8
外形線
100
AcDbLine
 10
591.458691822903
 20
420.670844094271
 30
0.0
 11
560.355340069143
 21
420.670844094271
 31
0.0
  0
LINE
  5
2DA0
330
1A
100
AcDbEntity
  8
外形線
100
AcDbLine
 10
589.696168556857
 20
408.120844094271
 30
0.0
 11
591.458691822903
 21
409.779689521139
 31
0.0
  0
LINE
  5
2DA1
330
1A
100
AcDbEntity
  8
外形線
100
AcDbLine
 10
582.646075492671
 20
409.779689521139
 30
0.0
 11
585.238021472151
 21
409.779689521139
 31
0.0
  0
ARC
  5
2DA2
330
1A
100
AcDbEntity
  8
外形線
100
AcDbCircle
 10
588.348356647527
 20
412.706264551391
 30
0.0
 40
4.2707173063642
100
AcDbArc
 50
223.256487111671
 51
316.743512888327
  0
ARC
  5
2DA3
330
1A
100
AcDbEntity
  8
外形線
100
AcDbCircle
 10
584.512276597897
 20
408.514736053231
 30
0.0
 40
5.183891958959999
100
AcDbArc
 50
270.0
 51
355.642247142051
  0
LINE
  5
2DA4
330
1A
100
AcDbEntity
  8
外形線
100
AcDbLine
 10
569.167956399375
 20
409.779689521139
 30
0.0
 11
566.576010419895
 21
409.779689521139
 31
0.0
  0
LINE
  5
2DA5
330
1A
100
AcDbEntity
  8
外形線
100
AcDbLine
 10
562.117863335189
 20
408.120844094271
 30
0.0
 11
560.355340069143
 21
409.779689521139
 31
0.0
  0
ARC
  5
2DA6
330
1A
100
AcDbEntity
  8
外形線
100
AcDbCircle
 10
563.465675244519
 20
412.706264551391
 30
0.0
 40
4.2707173063642
100
AcDbArc
 50
223.256487111671
 51
316.743512888332
  0
ARC
  5
2DA7
330
1A
100
AcDbEntity
  8
外形線
100
AcDbCircle
 10
567.301755294149
 20
408.514736053231
 30
0.0
 40
5.183891958959999
100
AcDbArc
 50
184.357752857949
 51
270.0
  0
LINE
  5
2DA8
330
1A
100
AcDbEntity
  8
外形線
100
AcDbLine
 10
584.512276597897
 20
403.330844094271
 30
0.0
 11
567.301755294149
 21
403.330844094271
 31
0.0
  0
LINE
  5
2DA9
330
1A
100
AcDbEntity
  8
外形線
100
AcDbLine
 10
589.696168556857
 20
408.120844094271
 30
0.0
 11
562.117863335189
 21
408.120844094271
 31
0.0
  0
ARC
  5
2DAA
330
1A
100
AcDbEntity
  8
外形線
100
AcDbCircle
 10
575.907015946023
 20
426.063779224377
 30
0.0
 40
17.62346450152246
100
AcDbArc
 50
247.518115682491
 51
292.481884317508
  0
LINE
  5
2DAB
330
1A
100
AcDbEntity
  8
外形線
100
AcDbLine
 10
560.355340069143
 20
420.670844094271
 30
0.0
 11
560.355340069143
 21
409.779689521135
 31
0.0
  0
LINE
  5
2DAC
330
1A
100
AcDbEntity
  8
外形線
100
AcDbLine
 10
569.167956399375
 20
409.779689521139
 30
0.0
 11
569.167956399375
 21
420.670844094271
 31
0.0
  0
LINE
  5
2DAD
330
1A
100
AcDbEntity
  8
外形線
100
AcDbLine
 10
566.576010419895
 20
409.779689521139
 30
0.0
 11
566.576010419895
 21
420.670844094271
 31
0.0
  0
LINE
  5
2DAE
330
1A
100
AcDbEntity
  8
外形線
100
AcDbLine
 10
582.646075492671
 20
409.779689521139
 30
0.0
 11
582.646075492671
 21
420.670844094271
 31
0.0
  0
LINE
  5
2DAF
330
1A
100
AcDbEntity
  8
外形線
100
AcDbLine
 10
591.458691822903
 20
420.670844094271
 30
0.0
 11
591.458691822903
 21
409.779689521137
 31
0.0
  0
LINE
  5
2DB0
330
1A
100
AcDbEntity
  8
外形線
100
AcDbLine
 10
585.238021472151
 20
409.779689521139
 30
0.0
 11
585.238021472151
 21
420.670844094271
 31
0.0
  0
LINE
  5
2DBE
330
1A
100
AcDbEntity
  8
外形線
100
AcDbLine
 10
525.969115429907
 20
466.374541573263
 30
0.0
 11
525.969115429907
 21
518.287146615279
 31
0.0
  0
ARC
  5
2DD1
330
1A
100
AcDbEntity
  8
外形線
100
AcDbCircle
 10
526.569115429907
 20
459.580844094271
 30
0.0
 40
0.6
100
AcDbArc
 50
180.0
 51
270.0
  0
ARC
  5
2DE3
330
1A
100
AcDbEntity
  8
外形線
100
AcDbCircle
 10
526.569115429907
 20
525.080844094271
 30
0.0
 40
0.6
100
AcDbArc
 50
90.0
 51
180.0
  0
LINE
  5
2DE4
330
1A
100
AcDbEntity
  8
外形線
100
AcDbLine
 10
525.969115429907
 20
525.196869498055
 30
0.0
 11
525.969115429907
 21
459.464818690487
 31
0.0
  0
LINE
  5
2DE5
330
1A
100
AcDbEntity
  8
外形線
100
AcDbLine
 10
556.994352211397
 20
431.991840175377
 30
0.0
 11
543.915845406037
 21
446.023881993605
 31
0.0
  0
LINE
  5
2DE6
330
1A
100
AcDbEntity
  8
外形線
100
AcDbLine
 10
546.466576862995
 20
448.092263123807
 30
0.0
 11
531.469115429897
 21
458.980844094271
 31
0.0
  0
LINE
  5
2DE7
330
1A
100
AcDbEntity
  8
外形線
100
AcDbLine
 10
546.466576862995
 20
536.338448408329
 30
0.0
 11
531.469115429897
 21
525.680844094271
 31
0.0
  0
CIRCLE
  5
2DE8
330
1A
100
AcDbEntity
  8
細線
100
AcDbCircle
 10
575.908683599541
 20
451.352116275777
 30
0.0
 40
13.76127218150634
  0
LINE
  5
2DE9
330
1A
100
AcDbEntity
  8
外形線
100
AcDbLine
 10
579.788242656581
 20
456.389484375899
 30
0.0
 11
581.106258938011
 21
455.013655633089
 31
0.0
  0
LINE
  5
2DEA
330
1A
100
AcDbEntity
  8
外形線
100
AcDbLine
 10
572.025789235463
 20
446.314748175655
 30
0.0
 11
581.106258938011
 21
455.013655633089
 31
0.0
  0
CIRCLE
  5
2DEB
330
1A
100
AcDbEntity
  8
外形線
100
AcDbCircle
 10
575.907015946023
 20
451.352116275777
 30
0.0
 40
10.51872781849356
  0
CIRCLE
  5
2DEC
330
1A
100
AcDbEntity
  8
細線
100
AcDbCircle
 10
575.907015946023
 20
451.352116275777
 30
0.0
 40
9.90742839250458
  0
LINE
  5
2DED
330
1A
100
AcDbEntity
  8
外形線
100
AcDbLine
 10
570.707772954035
 20
447.690576918465
 30
0.0
 11
579.788242656581
 21
456.389484375899
 31
0.0
  0
LINE
  5
2DEE
330
1A
100
AcDbEntity
  8
外形線
100
AcDbLine
 10
570.707772954035
 20
447.690576918465
 30
0.0
 11
572.025789235463
 21
446.314748175655
 31
0.0
  0
LINE
  5
2DEF
330
1A
100
AcDbEntity
  8
外形線
100
AcDbLine
 10
526.569115429907
 20
525.680844094271
 30
0.0
 11
531.469115429897
 21
525.680844094271
 31
0.0
  0
LINE
  5
2DF0
330
1A
100
AcDbEntity
  8
外形線
100
AcDbLine
 10
526.569115429907
 20
458.980844094271
 30
0.0
 11
531.469115429897
 21
458.980844094271
 31
0.0
  0
LINE
  5
2DF1
330
1A
100
AcDbEntity
  8
外形線
100
AcDbLine
 10
531.469115429897
 20
525.680844094271
 30
0.0
 11
531.469115429897
 21
458.980844094271
 31
0.0
  0
LINE
  5
2DF2
330
1A
100
AcDbEntity
  8
外形線
100
AcDbLine
 10
525.969115429907
 20
513.173416094271
 30
0.0
 11
525.969115429907
 21
524.680844094271
 31
0.0
  0
LINE
  5
2DF3
330
1A
100
AcDbEntity
  8
外形線
100
AcDbLine
 10
586.340756175403
 20
465.012553792449
 30
0.0
 11
588.351382834595
 21
460.566621819853
 31
0.0
  0
ARC
  5
2DF5
330
1A
100
AcDbEntity
  8
外形線
100
AcDbCircle
 10
545.330058968411
 20
447.438095555979
 30
0.0
 40
2.0
100
AcDbArc
 50
180.0
 51
225.0
  0
LWPOLYLINE
  5
2DF7
330
1A
100
AcDbEntity
  8
外形線
100
AcDbPolyline
 90
       18
 70
     0
 43
0.0
 10
604.691178874181
 20
521.191426490655
 10
603.737798956439
 20
521.114986228699
 10
602.816885248345
 20
520.888268524271
 10
601.959798361709
 20
520.518993976877
 10
601.195725362497
 20
520.019737788335
 10
600.550685840291
 20
519.407501529353
 10
600.046645842379
 20
518.703134171433
 10
599.700769846363
 20
517.930622100153
 10
599.524836244451
 20
517.116272287577
 10
599.524836244451
 20
516.287816439865
 10
599.700769846363
 20
515.473466627289
 10
600.046645842379
 20
514.700954556009
 10
600.550685840291
 20
513.996587198089
 10
601.195725362497
 20
513.384350939107
 10
601.959798361709
 20
512.885094750563
 10
602.816885248345
 20
512.515820203171
 10
603.737798956439
 20
512.289102498743
 10
604.691178874181
 20
512.212662236787
  0
LWPOLYLINE
  5
2DF8
330
1A
100
AcDbEntity
  8
外形線
100
AcDbPolyline
 90
        8
 70
     0
 43
0.0
 10
604.691178874181
 20
520.625687618303
 10
603.700720200933
 20
520.549218755901
 10
602.744003029683
 20
520.322417198407
 10
601.853619406131
 20
519.953009290609
 10
601.059901621389
 20
519.453579482513
 10
600.389888895711
 20
518.841141620653
 10
599.866406245759
 20
518.136559345181
 10
599.507286915221
 20
517.363835337775
  0
LWPOLYLINE
  5
2DF9
330
1A
100
AcDbEntity
  8
外形線
100
AcDbPolyline
 90
        8
 70
     0
 43
0.0
 10
604.691178874181
 20
536.402311742717
 10
603.682323127839
 20
536.344230038177
 10
602.711973764649
 20
536.172201808757
 10
601.817167441739
 20
535.892793092209
 10
601.032057461243
 20
535.516668464847
 10
600.386610194303
 20
535.058183992009
 10
599.905461313421
 20
534.534839280397
 10
599.606975488893
 20
533.966609546547
  0
LWPOLYLINE
  5
2DFA
330
1A
100
AcDbEntity
  8
外形線
100
AcDbPolyline
 90
       18
 70
     0
 43
0.0
 10
604.691178874181
 20
537.219490505801
 10
603.737756277777
 20
537.167670043089
 10
602.816801344389
 20
537.013973338663
 10
601.959676089711
 20
536.763634349451
 10
601.195568886279
 20
536.425178069483
 10
600.550500488465
 20
536.010130221439
 10
600.046437926881
 20
535.532624761989
 10
599.700546447503
 20
535.008922566851
 10
599.524604969811
 20
534.456857686169
 10
599.524604969811
 20
533.895230027323
 10
599.700546447503
 20
533.343165146641
 10
600.046437926881
 20
532.819462951503
 10
600.550500488465
 20
532.341957492053
 10
601.195568886279
 20
531.926909644011
 10
601.959676089711
 20
531.588453364041
 10
602.816801344389
 20
531.338114374829
 10
603.737756277777
 20
531.184417670403
 10
604.691178874181
 20
531.132597207693
  0
ARC
  5
2DFB
330
1A
100
AcDbEntity
  8
外形線
100
AcDbCircle
 10
623.975256961513
 20
534.109155330425
 30
0.0
 40
3.110335175376
100
AcDbArc
 50
0.0
 51
90.0
  0
ARC
  5
2DFC
330
1A
100
AcDbEntity
  8
外形線
100
AcDbCircle
 10
621.901700177929
 20
534.328754959133
 30
0.0
 40
2.073556783584
100
AcDbArc
 50
0.0
 51
90.0
  0
ARC
  5
2DFD
330
1A
100
AcDbEntity
  8
外形線
100
AcDbCircle
 10
622.938478569721
 20
536.632538161515
 30
0.0
 40
4.147113567168
100
AcDbArc
 50
0.0
 51
87.000000000001
  0
ARC
  5
2DFE
330
1A
100
AcDbEntity
  8
外形線
100
AcDbCircle
 10
598.470508523429
 20
541.980718572083
 30
0.0
 40
1.036778391792
100
AcDbArc
 50
0.0
 51
30.000000000008
  0
LINE
  5
2DFF
330
1A
100
AcDbEntity
  8
外形線
100
AcDbLine
 10
593.908683599545
 20
541.980718572083
 30
0.0
 11
594.427072795441
 21
542.499107767979
 31
0.0
  0
LINE
  5
2E00
330
1A
100
AcDbEntity
  8
外形線
100
AcDbLine
 10
594.427072795441
 20
542.499107767979
 30
0.0
 11
599.368384948815
 21
542.499107767979
 31
0.0
  0
LINE
  5
2E01
330
1A
100
AcDbEntity
  8
外形線
100
AcDbLine
 10
604.691178874181
 20
537.219490505801
 30
0.0
 11
623.975256961513
 21
537.219490505801
 31
0.0
  0
LINE
  5
2E02
330
1A
100
AcDbEntity
  8
外形線
100
AcDbLine
 10
604.691178874181
 20
536.402311742717
 30
0.0
 11
621.901700177929
 21
536.402311742717
 31
0.0
  0
LINE
  5
2E03
330
1A
100
AcDbEntity
  8
外形線
100
AcDbLine
 10
599.507286915221
 20
541.980718572083
 30
0.0
 11
623.155521723905
 21
540.773968253671
 31
0.0
  0
ARC
  5
2E04
330
1A
100
AcDbEntity
  8
外形線
100
AcDbCircle
 10
623.975256961513
 20
528.022262032317
 30
0.0
 40
3.110335175376
100
AcDbArc
 50
0.0
 51
90.0
  0
ARC
  5
2E05
330
1A
100
AcDbEntity
  8
外形線
100
AcDbCircle
 10
622.420089373825
 20
519.070520030615
 30
0.0
 40
1.555167587688
100
AcDbArc
 50
0.0
 51
90.0
  0
LINE
  5
2E06
330
1A
100
AcDbEntity
  8
外形線
100
AcDbLine
 10
626.674718067559
 20
516.182556749165
 30
0.0
 11
623.975256961513
 21
514.138344587399
 31
0.0
  0
ARC
  5
2E07
330
1A
100
AcDbEntity
  8
外形線
100
AcDbCircle
 10
626.048813745097
 20
511.175883844995
 30
0.0
 40
1.036778391792
100
AcDbArc
 50
0.0
 51
90.0
  0
ARC
  5
2E08
330
1A
100
AcDbEntity
  8
外形線
100
AcDbCircle
 10
626.048813745097
 20
517.009087579085
 30
0.0
 40
1.036778391792
100
AcDbArc
 50
307.135436470272
 51
0.0
  0
LINE
  5
2E09
330
1A
100
AcDbEntity
  8
外形線
100
AcDbLine
 10
623.975256961513
 20
519.070520030615
 30
0.0
 11
623.975256961513
 21
512.212662236787
 31
0.0
  0
ARC
  5
2E0A
330
1A
100
AcDbEntity
  8
外形線
100
AcDbCircle
 10
623.975256961513
 20
518.081091315279
 30
0.0
 40
3.110335175376
100
AcDbArc
 50
0.0
 51
90.0
  0
ARC
  5
2E0B
330
1A
100
AcDbEntity
  8
外形線
100
AcDbCircle
 10
626.048813745097
 20
498.436026116819
 30
0.0
 40
1.036778391792
100
AcDbArc
 50
270.0
 51
0.0
  0
LINE
  5
2E0C
330
1A
100
AcDbEntity
  8
外形線
100
AcDbLine
 10
623.975256961513
 20
497.399247725027
 30
0.0
 11
623.975256961513
 21
492.215355766069
 31
0.0
  0
ARC
  5
2E0D
330
1A
100
AcDbEntity
  8
外形線
100
AcDbCircle
 10
626.048813745097
 20
485.994685415317
 30
0.0
 40
1.036778391792
100
AcDbArc
 50
0.0
 51
90.0
  0
LINE
  5
2E0E
330
1A
100
AcDbEntity
  8
外形線
100
AcDbLine
 10
623.975256961513
 20
487.031463807107
 30
0.0
 11
623.975256961513
 21
492.215355766069
 31
0.0
  0
LINE
  5
2E0F
330
1A
100
AcDbEntity
  8
外形線
100
AcDbLine
 10
627.085592136889
 20
511.175883844995
 30
0.0
 11
627.085592136889
 21
498.436026116819
 31
0.0
  0
ARC
  5
2E10
330
1A
100
AcDbEntity
  8
外形線
100
AcDbCircle
 10
604.691178874181
 20
492.215355766069
 30
0.0
 40
5.183891958959999
100
AcDbArc
 50
90.0
 51
180.0
  0
ARC
  5
2E11
330
1A
100
AcDbEntity
  8
外形線
100
AcDbCircle
 10
604.691178874181
 20
492.215355766069
 30
0.0
 40
5.183891958959999
100
AcDbArc
 50
180.0
 51
270.0
  0
LINE
  5
2E12
330
1A
100
AcDbEntity
  8
外形線
100
AcDbLine
 10
604.691178874181
 20
487.031463807107
 30
0.0
 11
626.048813745097
 21
487.031463807107
 31
0.0
  0
LINE
  5
2E13
330
1A
100
AcDbEntity
  8
外形線
100
AcDbLine
 10
604.691178874181
 20
497.399247725027
 30
0.0
 11
626.048813745097
 21
497.399247725027
 31
0.0
  0
LINE
  5
2E14
330
1A
100
AcDbEntity
  8
外形線
100
AcDbLine
 10
604.691178874183
 20
531.132597207693
 30
0.0
 11
623.975256961513
 21
531.132597207693
 31
0.0
  0
LINE
  5
2E15
330
1A
100
AcDbEntity
  8
外形線
100
AcDbLine
 10
604.691178874181
 20
521.191426490655
 30
0.0
 11
623.975256961513
 21
521.191426490655
 31
0.0
  0
LINE
  5
2E16
330
1A
100
AcDbEntity
  8
外形線
100
AcDbLine
 10
604.691178874181
 20
520.625687618303
 30
0.0
 11
622.420089373825
 21
520.625687618303
 31
0.0
  0
LINE
  5
2E17
330
1A
100
AcDbEntity
  8
外形線
100
AcDbLine
 10
604.691178874183
 20
512.212662236787
 30
0.0
 11
626.048813745097
 21
512.212662236787
 31
0.0
  0
LINE
  5
2E19
330
1A
100
AcDbEntity
  8
外形線
100
AcDbLine
 10
599.507286915221
 20
541.980718572083
 30
0.0
 11
599.507286915221
 21
492.215355766069
 31
0.0
  0
LINE
  5
2E1A
330
1A
100
AcDbEntity
  8
外形線
100
AcDbLine
 10
627.085592136889
 20
517.009087579085
 30
0.0
 11
627.085592136889
 21
536.632538161515
 31
0.0
  0
LINE
  5
2E1B
330
1A
100
AcDbEntity
  8
外形線
100
AcDbLine
 10
623.975256961513
 20
534.328754959133
 30
0.0
 11
623.975256961513
 21
531.132597207693
 31
0.0
  0
LINE
  5
2E1C
330
1A
100
AcDbEntity
  8
外形線
100
AcDbLine
 10
546.908683599537
 20
537.187727547439
 30
0.0
 11
546.908683599537
 21
538.351994200811
 31
0.0
  0
LINE
  5
2E1D
330
1A
100
AcDbEntity
  8
外形線
100
AcDbLine
 10
547.945461991329
 20
539.388772592603
 30
0.0
 11
585.770161286243
 21
539.388772592603
 31
0.0
  0
LINE
  5
2E1E
330
1A
100
AcDbEntity
  8
外形線
100
AcDbLine
 10
626.674718067559
 20
468.248154782971
 30
0.0
 11
623.975256961513
 21
470.292366944737
 31
0.0
  0
ARC
  5
2E1F
330
1A
100
AcDbEntity
  8
外形線
100
AcDbCircle
 10
626.048813745097
 20
467.421623953051
 30
0.0
 40
1.036778391792
100
AcDbArc
 50
0.0
 51
52.864563529743
  0
ARC
  5
2E20
330
1A
100
AcDbEntity
  8
外形線
100
AcDbCircle
 10
626.048813745097
 20
473.254827687141
 30
0.0
 40
1.036778391792
100
AcDbArc
 50
270.0
 51
0.0
  0
ARC
  5
2E21
330
1A
100
AcDbEntity
  8
外形線
100
AcDbCircle
 10
623.975256961513
 20
466.349620216857
 30
0.0
 40
3.110335175376
100
AcDbArc
 50
270.0
 51
0.0
  0
LINE
  5
2E22
330
1A
100
AcDbEntity
  8
外形線
100
AcDbLine
 10
623.975256961513
 20
465.360191501521
 30
0.0
 11
623.975256961513
 21
472.218049295349
 31
0.0
  0
ARC
  5
2E23
330
1A
100
AcDbEntity
  8
外形線
100
AcDbCircle
 10
622.420089373825
 20
465.360191501521
 30
0.0
 40
1.555167587688
100
AcDbArc
 50
270.0
 51
0.0
  0
ARC
  5
2E24
330
1A
100
AcDbEntity
  8
外形線
100
AcDbCircle
 10
623.975256961513
 20
456.408449499819
 30
0.0
 40
3.110335175376
100
AcDbArc
 50
270.0
 51
0.0
  0
ARC
  5
2E25
330
1A
100
AcDbEntity
  8
外形線
100
AcDbCircle
 10
623.975256961513
 20
450.321556201711
 30
0.0
 40
3.110335175376
100
AcDbArc
 50
270.0
 51
0.0
  0
LINE
  5
2E26
330
1A
100
AcDbEntity
  8
外形線
100
AcDbLine
 10
623.975256961513
 20
450.101956573003
 30
0.0
 11
623.975256961513
 21
453.298114324443
 31
0.0
  0
ARC
  5
2E27
330
1A
100
AcDbEntity
  8
外形線
100
AcDbCircle
 10
621.901700177929
 20
450.101956573003
 30
0.0
 40
2.073556783584
100
AcDbArc
 50
270.0
 51
0.0
  0
LINE
  5
2E28
330
1A
100
AcDbEntity
  8
外形線
100
AcDbLine
 10
627.085592136889
 20
467.421623953051
 30
0.0
 11
627.085592136889
 21
447.798173370621
 31
0.0
  0
ARC
  5
2E29
330
1A
100
AcDbEntity
  8
外形線
100
AcDbCircle
 10
622.938478569721
 20
447.798173370621
 30
0.0
 40
4.147113567168
100
AcDbArc
 50
273.0
 51
0.0
  0
LWPOLYLINE
  5
2E2A
330
1A
100
AcDbEntity
  8
外形線
100
AcDbPolyline
 90
       18
 70
     0
 43
0.0
 10
604.691178874181
 20
463.239285041481
 10
603.737798956439
 20
463.315725303437
 10
602.816885248345
 20
463.542443007865
 10
601.959798361709
 20
463.911717555259
 10
601.195725362497
 20
464.410973743801
 10
600.550685840291
 20
465.023210002783
 10
600.046645842379
 20
465.727577360703
 10
599.700769846363
 20
466.500089431983
 10
599.524836244451
 20
467.314439244559
 10
599.524836244451
 20
468.142895092271
 10
599.700769846363
 20
468.957244904847
 10
600.046645842379
 20
469.729756976127
 10
600.550685840291
 20
470.434124334047
 10
601.195725362497
 20
471.046360593029
 10
601.959798361709
 20
471.545616781573
 10
602.816885248345
 20
471.914891328965
 10
603.737798956439
 20
472.141609033393
 10
604.691178874181
 20
472.218049295349
  0
LWPOLYLINE
  5
2E2B
330
1A
100
AcDbEntity
  8
外形線
100
AcDbPolyline
 90
        8
 70
     0
 43
0.0
 10
604.691178874181
 20
463.805023913833
 10
603.700720200933
 20
463.881492776235
 10
602.744003029683
 20
464.108294333729
 10
601.853619406131
 20
464.477702241527
 10
601.059901621389
 20
464.977132049623
 10
600.389888895711
 20
465.589569911483
 10
599.866406245759
 20
466.294152186955
 10
599.507286915221
 20
467.066876194361
  0
LWPOLYLINE
  5
2E2C
330
1A
100
AcDbEntity
  8
外形線
100
AcDbPolyline
 90
        8
 70
     0
 43
0.0
 10
604.691178874181
 20
448.028399789419
 10
603.682323127839
 20
448.086481493959
 10
602.711973764649
 20
448.258509723379
 10
601.817167441739
 20
448.537918439927
 10
601.032057461243
 20
448.914043067289
 10
600.386610194303
 20
449.372527540129
 10
599.905461313421
 20
449.895872251739
 10
599.606975488893
 20
450.464101985589
  0
LWPOLYLINE
  5
2E2D
330
1A
100
AcDbEntity
  8
外形線
100
AcDbPolyline
 90
       18
 70
     0
 43
0.0
 10
604.691178874181
 20
447.211221026335
 10
603.737756277777
 20
447.263041489047
 10
602.816801344389
 20
447.416738193473
 10
601.959676089711
 20
447.667077182685
 10
601.195568886279
 20
448.005533462653
 10
600.550500488465
 20
448.420581310697
 10
600.046437926881
 20
448.898086770147
 10
599.700546447503
 20
449.421788965285
 10
599.524604969811
 20
449.973853845967
 10
599.524604969811
 20
450.535481504813
 10
599.700546447503
 20
451.087546385495
 10
600.046437926881
 20
451.611248580633
 10
600.550500488465
 20
452.088754040083
 10
601.195568886279
 20
452.503801888127
 10
601.959676089711
 20
452.842258168095
 10
602.816801344389
 20
453.092597157307
 10
603.737756277777
 20
453.246293861733
 10
604.691178874181
 20
453.298114324443
  0
ARC
  5
2E2E
330
1A
100
AcDbEntity
  8
外形線
100
AcDbCircle
 10
598.470508523429
 20
442.449992960051
 30
0.0
 40
1.036778391792
100
AcDbArc
 50
330.000000000006
 51
0.0
  0
LINE
  5
2E2F
330
1A
100
AcDbEntity
  8
外形線
100
AcDbLine
 10
593.908683599545
 20
442.449992960051
 30
0.0
 11
594.427072795439
 21
441.931603764155
 31
0.0
  0
LINE
  5
2E30
330
1A
100
AcDbEntity
  8
外形線
100
AcDbLine
 10
594.427072795439
 20
441.931603764155
 30
0.0
 11
599.368384948815
 21
441.931603764155
 31
0.0
  0
LINE
  5
2E31
330
1A
100
AcDbEntity
  8
外形線
100
AcDbLine
 10
604.691178874181
 20
463.239285041481
 30
0.0
 11
623.975256961513
 21
463.239285041481
 31
0.0
  0
LINE
  5
2E32
330
1A
100
AcDbEntity
  8
外形線
100
AcDbLine
 10
604.691178874181
 20
463.805023913833
 30
0.0
 11
622.420089373825
 21
463.805023913833
 31
0.0
  0
LINE
  5
2E33
330
1A
100
AcDbEntity
  8
外形線
100
AcDbLine
 10
604.691178874183
 20
453.298114324443
 30
0.0
 11
623.975256961513
 21
453.298114324443
 31
0.0
  0
LINE
  5
2E34
330
1A
100
AcDbEntity
  8
外形線
100
AcDbLine
 10
604.691178874181
 20
447.211221026335
 30
0.0
 11
623.975256961513
 21
447.211221026335
 31
0.0
  0
LINE
  5
2E35
330
1A
100
AcDbEntity
  8
外形線
100
AcDbLine
 10
604.691178874181
 20
448.028399789419
 30
0.0
 11
621.901700177929
 21
448.028399789419
 31
0.0
  0
LINE
  5
2E36
330
1A
100
AcDbEntity
  8
外形線
100
AcDbLine
 10
599.507286915221
 20
442.449992960051
 30
0.0
 11
623.155521723905
 21
443.656743278465
 31
0.0
  0
LINE
  5
2E37
330
1A
100
AcDbEntity
  8
外形線
100
AcDbLine
 10
604.691178874183
 20
472.218049295349
 30
0.0
 11
626.048813745097
 21
472.218049295349
 31
0.0
  0
LINE
  5
2E38
330
1A
100
AcDbEntity
  8
外形線
100
AcDbLine
 10
546.908683599537
 20
447.242983984697
 30
0.0
 11
546.908683599537
 21
446.078717331323
 31
0.0
  0
LINE
  5
2E39
330
1A
100
AcDbEntity
  8
外形線
100
AcDbLine
 10
547.945461991329
 20
445.041938939531
 30
0.0
 11
555.835126815953
 21
445.041938939531
 31
0.0
  0
ARC
  5
2E3A
330
1A
100
AcDbEntity
  8
外形線
100
AcDbCircle
 10
559.193691305669
 20
434.191179269647
 30
0.0
 40
3.110335175376
100
AcDbArc
 50
224.999999999995
 51
259.247872764004
  0
ARC
  5
2E3B
330
1A
100
AcDbEntity
  8
外形線
100
AcDbCircle
 10
558.945461991329
 20
432.117622486063
 30
0.0
 40
1.036778391792
100
AcDbArc
 50
180.0
 51
270.0
  0
LINE
  5
2E3C
330
1A
100
AcDbEntity
  8
外形線
100
AcDbLine
 10
557.908683599537
 20
432.117622486063
 30
0.0
 11
557.908683599537
 21
465.503949991787
 31
0.0
  0
ARC
  5
2E3D
330
1A
100
AcDbEntity
  8
外形線
100
AcDbCircle
 10
555.835126815953
 20
442.968382155947
 30
0.0
 40
2.073556783584
100
AcDbArc
 50
0.0
 51
90.0
  0
LINE
  5
2E3E
330
1A
100
AcDbEntity
  8
外形線
100
AcDbLine
 10
557.908683599537
 20
465.503949991787
 30
0.0
 11
585.350172871307
 21
465.503949991787
 31
0.0
  0
LINE
  5
2E3F
330
1A
100
AcDbEntity
  8
外形線
100
AcDbLine
 10
558.613425584155
 20
431.080844094271
 30
0.0
 11
592.871905207753
 21
431.080844094271
 31
0.0
  0
ARC
  5
2E40
330
1A
100
AcDbEntity
  8
外形線
100
AcDbCircle
 10
592.871905207753
 20
432.117622486063
 30
0.0
 40
1.036778391792
100
AcDbArc
 50
270.0
 51
0.0
  0
LINE
  5
2E42
330
1A
100
AcDbEntity
  8
外形線
100
AcDbLine
 10
593.908683599545
 20
432.117622486063
 30
0.0
 11
593.908683599545
 21
541.541794804553
 31
0.0
  0
LINE
  5
2E43
330
1A
100
AcDbEntity
  8
外形線
100
AcDbLine
 10
588.724791640585
 20
461.340837906657
 30
0.0
 11
588.724791640585
 21
539.909328413165
 31
0.0
  0
LINE
  5
2E44
330
1A
100
AcDbEntity
  8
外形線
100
AcDbLine
 10
546.908683599537
 20
537.187727547439
 30
0.0
 11
546.908683599537
 21
447.242983984697
 31
0.0
  0
LINE
  5
2E46
330
1A
100
AcDbEntity
  8
外形線
100
AcDbLine
 10
599.507286915221
 20
442.449992960051
 30
0.0
 11
599.507286915221
 21
492.215355766069
 31
0.0
  0
LINE
  5
2E47
330
1A
100
AcDbEntity
  8
外形線
100
AcDbLine
 10
627.085592136889
 20
473.254827687141
 30
0.0
 11
627.085592136889
 21
485.994685415317
 31
0.0
  0
LINE
  5
2E48
330
1A
100
AcDbEntity
  8
外形線
100
AcDbLine
 10
543.330058968411
 20
448.669338588853
 30
0.0
 11
543.330058968411
 21
447.438095555979
 31
0.0
  0
ARC
  5
2E49
330
1A
100
AcDbEntity
  8
外形線
100
AcDbCircle
 10
540.219723793035
 20
448.669338588853
 30
0.0
 40
3.110335175376
100
AcDbArc
 50
0.0
 51
54.999999999999
  0
LINE
  5
2E4A
330
1A
100
AcDbEntity
  8
外形線
100
AcDbLine
 10
525.969115429907
 20
525.080844094271
 30
0.0
 11
525.969115429907
 21
459.580844094271
 31
0.0
  0
ARC
  5
2E4B
330
1A
100
AcDbEntity
  8
外形線
100
AcDbCircle
 10
545.871905207745
 20
447.242983984697
 30
0.0
 40
1.036778391792
100
AcDbArc
 50
0.0
 51
54.999999999999
  0
ARC
  5
2E4C
330
1A
100
AcDbEntity
  8
外形線
100
AcDbCircle
 10
547.945461991329
 20
446.078717331323
 30
0.0
 40
1.036778391792
100
AcDbArc
 50
180.0
 51
270.0
  0
ARC
  5
2E4D
330
1A
100
AcDbEntity
  8
外形線
100
AcDbCircle
 10
545.871905207745
 20
537.187727547439
 30
0.0
 40
1.036778391792
100
AcDbArc
 50
305.0
 51
0.0
  0
ARC
  5
2E4E
330
1A
100
AcDbEntity
  8
外形線
100
AcDbCircle
 10
547.945461991329
 20
538.351994200811
 30
0.0
 40
1.036778391792
100
AcDbArc
 50
90.0
 51
180.0
  0
LINE
  5
2FA3
330
1A
100
AcDbEntity
  8
下書線
100
AcDbLine
 10
82.435443783124
 20
586.306644406272
 30
0.0
 11
660.495842686555
 21
586.306644406272
 31
0.0
  0
DIMENSION
  5
3002
330
1A
100
AcDbEntity
  8
寸法線
 48
10.0
100
AcDbDimension
  2
*D6
 10
646.4797456061
 20
403.330844094271
 30
0.0
 11
646.4797456061
 21
453.759802947092
 31
0.0
 70
   160
  1
89
  3
ISO-25
100
AcDbAlignedDimension
 13
627.084838632385
 23
492.330844094271
 33
0.0
 14
584.512276597897
 24
403.330844094271
 34
0.0
 50
90.0
100
AcDbRotatedDimension
1001
ACAD
1000
DSTYLE
1002
{
1070
     5
1000
OPEN30
1070
    41
1040
6.0
1070
    47
1040
0.1
1070
    48
1040
0.1
1070
    73
1070
     0
1070
   140
1040
8.0
1070
   271
1070
     1
1070
   272
1070
     1
1070
   341
1005
2AF4
1002
}
  0
DIMENSION
  5
300F
330
1A
100
AcDbEntity
  8
寸法線
 48
10.0
100
AcDbDimension
  2
*D7
 10
668.162779436199
 20
542.499107767979
 30
0.0
 11
663.537779436199
 21
492.215355766067
 31
0.0
 70
    32
  1
φ100
  3
ISO-25
100
AcDbAlignedDimension
 13
599.368384948815
 23
441.931603764155
 33
0.0
 14
599.368384948815
 24
542.499107767979
 34
0.0
 50
90.0
100
AcDbRotatedDimension
1001
ACAD
1000
DSTYLE
1002
{
1070
     5
1000
OPEN30
1070
    41
1040
6.0
1070
    47
1040
0.1
1070
    48
1040
0.1
1070
    73
1070
     0
1070
   140
1040
8.0
1070
   271
1070
     1
1070
   272
1070
     1
1070
   341
1005
2AF4
1002
}
  0
LINE
  5
3042
330
1A
100
AcDbEntity
  8
中心線
 48
10.0
100
AcDbLine
 10
575.908683599541
 20
437.173416094271
 30
0.0
 11
575.908683599541
 21
399.773416094271
 31
0.0
  0
LINE
  5
3081
330
1A
100
AcDbEntity
  8
中心線
 48
10.0
100
AcDbLine
 10
134.547269646245
 20
492.330844094271
 30
0.0
 11
627.084838632385
 21
492.330844094271
 31
0.0
  0
DIMENSION
  5
3082
330
1A
100
AcDbEntity
  8
寸法線
 48
10.0
100
AcDbDimension
  2
*D8
 10
123.533831495138
 20
482.314037371582
 30
0.0
 11
117.680688706199
 21
490.701202102181
 31
0.0
 70
   160
  1
φ<>
  3
ISO-25
100
AcDbAlignedDimension
 13
141.258752187897
 23
502.314037371582
 33
0.0
 14
141.258752187897
 24
482.314037371582
 34
0.0
 50
90.0
100
AcDbRotatedDimension
1001
ACAD
1000
DSTYLE
1002
{
1070
   287
1070
     5
1070
     5
1000
OPEN30
1070
    41
1040
6.0
1070
    47
1040
0.1
1070
    48
1040
0.1
1070
    73
1070
     0
1070
   140
1040
8.0
1070
   271
1070
     1
1070
   272
1070
     1
1070
   279
1070
     2
1070
   341
1005
2AF4
1002
}
  0
DIMENSION
  5
3099
330
1A
100
AcDbEntity
  8
寸法線
 48
10.0
100
AcDbDimension
  2
*D9
 10
274.258752187897
 20
443.564258954871
 30
0.0
 11
207.758752187897
 21
443.564258954871
 31
0.0
 70
   160
  3
ISO-25
100
AcDbAlignedDimension
 13
141.258752187897
 23
482.498445549273
 33
0.0
 14
274.258752187897
 24
472.016932944231
 34
0.0
100
AcDbRotatedDimension
1001
ACAD
1000
DSTYLE
1002
{
1070
     5
1000
OPEN30
1070
    41
1040
6.0
1070
    47
1040
0.1
1070
    48
1040
0.1
1070
    73
1070
     0
1070
   140
1040
8.0
1070
   271
1070
     1
1070
   272
1070
     1
1070
   341
1005
2AF4
1002
}
  0
DIMENSION
  5
30D2
330
1A
100
AcDbEntity
  8
寸法線
 48
10.0
100
AcDbDimension
  2
*D10
 10
511.585592136897
 20
375.204461481477
 30
0.0
 11
567.542479833818
 21
375.204461481477
 31
0.0
 70
   160
  1
120
  3
ISO-25
100
AcDbAlignedDimension
 13
627.085592136889
 23
447.798173370621
 33
0.0
 14
511.585592136897
 24
464.830844094271
 34
0.0
100
AcDbRotatedDimension
1001
ACAD
1000
DSTYLE
1002
{
1070
     5
1000
OPEN30
1070
    41
1040
6.0
1070
    47
1040
0.1
1070
    48
1040
0.1
1070
    73
1070
     0
1070
   140
1040
8.0
1070
   271
1070
     1
1070
   272
1070
     1
1070
   341
1005
2AF4
1002
}
  0
MTEXT
  5
30E8
330
1A
100
AcDbEntity
  8
寸法線
 48
10.0
100
AcDbMText
 10
641.422897867917
 20
397.106298878514
 30
0.0
 40
8.0
 41
60.129060420842
 71
     1
 72
     5
  1
コードロック\P2×M20
  0
LEADER
  5
30EA
330
1A
100
AcDbEntity
  8
寸法線
 48
10.0
100
AcDbLeader
  3
ISO-25
 76
     3
 10
591.288450314098
 20
414.684523394212
 30
0.0
 10
639.327735734652
 20
375.204461481477
 30
0.0
 10
650.699463034555
 20
375.204461481477
 30
0.0
1001
ACAD
1000
DSTYLE
1002
{
1070
     5
1000
OPEN30
1070
   147
1040
0.625
1070
    77
1070
     0
1070
    41
1040
6.0
1070
    47
1040
0.1
1070
    48
1040
0.1
1070
    73
1070
     0
1070
   140
1040
5.0
1070
   271
1070
     1
1070
   272
1070
     1
1070
   341
1005
2AF4
1070
   342
1005
2AF4
1002
}
  0
LEADER
  5
30EC
330
1A
100
AcDbEntity
  8
寸法線
 48
10.0
100
AcDbLeader
  3
ISO-25
 76
     3
 10
568.641832702423
 20
444.616075169198
 30
0.0
 10
548.222324074363
 20
413.001341867114
 30
0.0
 10
539.68799734931
 20
413.001341867114
 30
0.0
1001
ACAD
1000
DSTYLE
1002
{
1070
     5
1000
OPEN30
1070
   147
1040
0.625
1070
    77
1070
     0
1070
    41
1040
6.0
1070
    47
1040
0.1
1070
    48
1040
0.1
1070
    73
1070
     0
1070
   140
1040
5.0
1070
   271
1070
     1
1070
   272
1070
     1
1070
   341
1005
2AF4
1070
   342
1005
2AF4
1002
}
  0
MTEXT
  5
30ED
330
1A
100
AcDbEntity
  8
寸法線
 48
10.0
100
AcDbMText
 10
551.291501637063
 20
434.723844377492
 30
0.0
 40
8.0
 41
42.299427293917
 71
     3
 72
     5
  1
2×NPT\P 1/2"
  0
MTEXT
  5
30F0
330
1A
100
AcDbEntity
  8
寸法線
 48
10.0
100
AcDbMText
 10
597.96180283367
 20
595.353228667497
 30
0.0
 40
8.0
 41
49.592740337165
 71
     1
 72
     5
  1
アルミ鋳物
  0
MTEXT
  5
30F2
102
{ACAD_XDICTIONARY
360
519E
102
}
330
1A
100
AcDbEntity
  8
寸法線
 48
10.0
100
AcDbMText
 10
544.302611109894
 20
595.406049956404
 30
0.0
 40
8.0
 41
32.947694142829
 71
     1
 72
     5
  1
平径46
1001
ACADANNOTATIVE
1000
AnnotativeData
1002
{
1070
     1
1070
     0
1002
}
  0
MTEXT
  5
30F9
102
{ACAD_XDICTIONARY
360
4F88
102
}
330
1A
100
AcDbEntity
  8
寸法線
 48
10.0
100
AcDbMText
 10
192.228347137391
 20
588.364814049471
 30
0.0
 40
8.0
 41
230.650980392157
 71
     9
 72
     5
  1
振動部（検知部）\PDIN1.4571(SUS316相当)
1001
ACADANNOTATIVE
1000
AnnotativeData
1002
{
1070
     1
1070
     0
1002
}
  0
LEADER
  5
30FB
330
1A
100
AcDbEntity
  8
寸法線
 48
10.0
100
AcDbLeader
  3
ISO-25
 76
     3
 10
566.857811638786
 20
539.388772592603
 30
0.0
 10
596.515488053859
 20
586.306644406272
 30
0.0
 10
607.231187637543
 20
586.306644406272
 30
0.0
1001
ACAD
1000
DSTYLE
1002
{
1070
     5
1000
OPEN30
1070
   147
1040
0.625
1070
    77
1070
     0
1070
    41
1040
6.0
1070
    47
1040
0.1
1070
    48
1040
0.1
1070
    73
1070
     0
1070
   140
1040
5.0
1070
   271
1070
     1
1070
   272
1070
     1
1070
   341
1005
2AF4
1070
   342
1005
2AF4
1002
}
  0
LEADER
  5
30FC
330
1A
100
AcDbEntity
  8
寸法線
 48
10.0
100
AcDbLeader
  3
ISO-25
 76
     3
 10
518.777353783401
 20
518.888956476994
 30
0.0
 10
543.228995730427
 20
586.306644406272
 30
0.0
 10
555.156988237393
 20
586.306644406272
 30
0.0
1001
ACAD
1000
DSTYLE
1002
{
1070
     5
1000
OPEN30
1070
   147
1040
0.625
1070
    77
1070
     0
1070
    41
1040
6.0
1070
    47
1040
0.1
1070
    48
1040
0.1
1070
    73
1070
     0
1070
   140
1040
5.0
1070
   271
1070
     1
1070
   272
1070
     1
1070
   341
1005
2AF4
1070
   342
1005
2AF4
1002
}
  0
LEADER
  5
3104
330
1A
100
AcDbEntity
  8
寸法線
 48
10.0
100
AcDbLeader
  3
ISO-25
 76
     3
 10
207.758752187897
 20
502.314037371582
 30
0.0
 10
192.944268787242
 20
586.306644406272
 30
0.0
 10
181.144159867166
 20
586.306644406272
 30
0.0
1001
ACAD
1000
DSTYLE
1002
{
1070
     5
1000
OPEN30
1070
   147
1040
0.625
1070
    77
1070
     0
1070
    41
1040
6.0
1070
    47
1040
0.1
1070
    48
1040
0.1
1070
    73
1070
     0
1070
   140
1040
5.0
1070
   271
1070
     1
1070
   272
1070
     1
1070
   341
1005
2AF4
1070
   342
1005
2AF4
1002
}
  0
LINE
  5
347C
330
1A
100
AcDbEntity
  8
外形線
100
AcDbLine
 10
461.492012406865
 20
470.425533672756
 30
0.0
 11
461.492012406865
 21
514.236154515786
 31
0.0
  0
LINE
  5
347D
330
1A
100
AcDbEntity
  8
外形線
100
AcDbLine
 10
486.668274641456
 20
470.425533672757
 30
0.0
 11
461.492012406865
 21
470.425533672756
 31
0.0
  0
LINE
  5
3486
330
1A
100
AcDbEntity
  8
外形線
100
AcDbLine
 10
486.668274641456
 20
514.236154515786
 30
0.0
 11
461.492012406865
 21
514.236154515786
 31
0.0
  0
LINE
  5
35EF
330
1A
100
AcDbEntity
  8
外形線
100
AcDbLine
 10
511.585592136897
 20
466.374541573263
 30
0.0
 11
511.585592136897
 21
518.28714661528
 31
0.0
  0
DIMENSION
  5
369E
330
1A
100
AcDbEntity
  8
寸法線
 48
10.0
100
AcDbDimension
  2
*D12
 10
511.585592136897
 20
375.204461481477
 30
0.0
 11
317.929670304802
 21
375.204461481477
 31
0.0
 70
   160
  1
 
  3
ISO-25
100
AcDbAlignedDimension
 13
141.258752187897
 23
443.564258954871
 33
0.0
 14
511.585592136897
 24
393.712736536279
 34
0.0
100
AcDbRotatedDimension
1001
ACAD
1000
DSTYLE
1002
{
1070
     5
1000
OPEN30
1070
    41
1040
6.0
1070
    47
1040
0.1
1070
    48
1040
0.1
1070
    73
1070
     0
1070
   140
1040
8.0
1070
   271
1070
     1
1070
   272
1070
     1
1070
   341
1005
2AF4
1002
}
  0
LINE
  5
3ED6
330
1A
100
AcDbEntity
  8
外形線
100
AcDbLine
 10
379.389548190456
 20
484.570149154702
 30
0.0
 11
387.989533994912
 21
484.570149154702
 31
0.0
  0
LINE
  5
3ED7
330
1A
100
AcDbEntity
  8
外形線
100
AcDbLine
 10
387.989533994912
 20
500.09153903384
 30
0.0
 11
387.989533994912
 21
484.570149154702
 31
0.0
  0
LINE
  5
3ED9
330
1A
100
AcDbEntity
  8
外形線
100
AcDbLine
 10
379.389548190456
 20
500.09153903384
 30
0.0
 11
387.989533994912
 21
500.09153903384
 31
0.0
  0
LINE
  5
3EDA
330
1A
100
AcDbEntity
  8
外形線
100
AcDbLine
 10
387.989533994912
 20
498.636408732671
 30
0.0
 11
401.570750139158
 21
498.636408732671
 31
0.0
  0
LINE
  5
3EDB
330
1A
100
AcDbEntity
  8
外形線
100
AcDbLine
 10
401.570750139158
 20
486.025279455871
 30
0.0
 11
387.989533994912
 21
486.025279455871
 31
0.0
  0
LINE
  5
3EDC
330
1A
100
AcDbEntity
  8
外形線
100
AcDbLine
 10
401.570750139158
 20
498.636408732671
 30
0.0
 11
401.570750139158
 21
486.025279455871
 31
0.0
  0
LINE
  5
3EE1
330
1A
100
AcDbEntity
  8
外形線
100
AcDbLine
 10
429.310810458164
 20
486.025279455871
 30
0.0
 11
442.89202660241
 21
486.025279455871
 31
0.0
  0
LINE
  5
3EE2
330
1A
100
AcDbEntity
  8
外形線
100
AcDbLine
 10
429.310810458164
 20
498.636408732671
 30
0.0
 11
429.310810458164
 21
486.025279455871
 31
0.0
  0
LINE
  5
3EE4
330
1A
100
AcDbEntity
  8
外形線
100
AcDbLine
 10
442.89202660241
 20
500.09153903384
 30
0.0
 11
442.89202660241
 21
484.570149154702
 31
0.0
  0
LINE
  5
3EE5
330
1A
100
AcDbEntity
  8
外形線
100
AcDbLine
 10
442.89202660241
 20
498.636408732671
 30
0.0
 11
429.310810458164
 21
498.636408732671
 31
0.0
  0
LINE
  5
3EE9
330
1A
100
AcDbEntity
  8
外形線
100
AcDbLine
 10
451.492012406865
 20
500.09153903384
 30
0.0
 11
442.89202660241
 21
500.09153903384
 31
0.0
  0
LINE
  5
3EEB
330
1A
100
AcDbEntity
  8
外形線
100
AcDbLine
 10
451.492012406865
 20
484.570149154702
 30
0.0
 11
442.89202660241
 21
484.570149154702
 31
0.0
  0
ARC
  5
3F24
330
1A
100
AcDbEntity
  8
外形線
100
AcDbCircle
 10
274.758752187897
 20
512.795549976624
 30
0.0
 40
0.5
100
AcDbArc
 50
90.0
 51
180.0
  0
LINE
  5
3F25
330
1A
100
AcDbEntity
  8
外形線
100
AcDbLine
 10
274.258752187897
 20
502.314037371582
 30
0.0
 11
141.258752187897
 21
502.314037371582
 31
0.0
  0
LINE
  5
3F26
330
1A
100
AcDbEntity
  8
外形線
100
AcDbLine
 10
369.258752187897
 20
513.295549976624
 30
0.0
 11
274.758752187897
 21
513.295549976624
 31
0.0
  0
LINE
  5
3F27
330
1A
100
AcDbEntity
  8
外形線
100
AcDbLine
 10
274.258752187897
 20
512.795549976624
 30
0.0
 11
274.258752187897
 21
471.866138211918
 31
0.0
  0
ARC
  5
3F28
330
1A
100
AcDbEntity
  8
外形線
100
AcDbCircle
 10
274.758752187897
 20
471.866138211918
 30
0.0
 40
0.5
100
AcDbArc
 50
180.0
 51
270.0
  0
LINE
  5
3F29
330
1A
100
AcDbEntity
  8
外形線
100
AcDbLine
 10
369.258752187897
 20
471.366138211918
 30
0.0
 11
274.758752187897
 21
471.366138211918
 31
0.0
  0
LINE
  5
3F2A
330
1A
100
AcDbEntity
  8
外形線
100
AcDbLine
 10
274.258752187897
 20
482.34765081696
 30
0.0
 11
141.258752187897
 21
482.34765081696
 31
0.0
  0
LINE
  5
3F2B
330
1A
100
AcDbEntity
  8
外形線
100
AcDbLine
 10
141.258752187897
 20
482.34765081696
 30
0.0
 11
141.258752187897
 21
502.314037371582
 31
0.0
  0
LINE
  5
3F2D
330
1A
100
AcDbEntity
  8
外形線
 48
10.0
100
AcDbLine
 10
369.258752187897
 20
471.366138211918
 30
0.0
 11
369.258752187897
 21
513.295549976624
 31
0.0
  0
LINE
  5
3F30
330
1A
100
AcDbEntity
  8
外形線
 48
10.0
100
AcDbLine
 10
369.258752187897
 20
513.295549976624
 30
0.0
 11
379.258752187897
 21
504.330844094271
 31
0.0
  0
LINE
  5
3F31
330
1A
100
AcDbEntity
  8
外形線
 48
10.0
100
AcDbLine
 10
379.258752187897
 20
504.330844094271
 30
0.0
 11
379.258752187897
 21
480.330844094271
 31
0.0
  0
LINE
  5
3F32
330
1A
100
AcDbEntity
  8
外形線
 48
10.0
100
AcDbLine
 10
379.258752187897
 20
480.330844094271
 30
0.0
 11
369.258752187897
 21
471.366138211918
 31
0.0
  0
ARC
  5
3F96
330
1A
100
AcDbEntity
  8
細線
100
AcDbCircle
 10
408.519354294992
 20
495.043529010332
 30
0.0
 40
4.69454886737746
100
AcDbArc
 50
324.701434699944
 51
32.012398236748
  0
ARC
  5
3F97
330
1A
100
AcDbEntity
  8
細線
100
AcDbCircle
 10
413.056671355469
 20
494.830915459884
 30
0.0
 40
4.366980026728
100
AcDbArc
 50
325.075652251193
 51
38.210514812107
  0
ARC
  5
3F98
330
1A
100
AcDbEntity
  8
細線
100
AcDbCircle
 10
418.711050028057
 20
494.9931117719
 30
0.0
 40
3.37469097004054
100
AcDbArc
 50
131.204052888542
 51
232.082114174772
  0
ARC
  5
3F99
330
1A
100
AcDbEntity
  8
細線
100
AcDbCircle
 10
415.931344804466
 20
489.830772728628
 30
0.0
 40
4.366980026728
100
AcDbArc
 50
145.075652251193
 51
218.210514812107
  0
ARC
  5
3F9A
330
1A
100
AcDbEntity
  8
細線
100
AcDbCircle
 10
410.276966131878
 20
489.668576416612
 30
0.0
 40
3.37469097004054
100
AcDbArc
 50
311.204052888543
 51
52.082114174771
  0
ARC
  5
3F9B
330
1A
100
AcDbEntity
  8
細線
100
AcDbCircle
 10
420.468661864943
 20
489.61815917818
 30
0.0
 40
4.69454886737746
100
AcDbArc
 50
144.701434699943
 51
212.012398236749
  0
LINE
  5
3FBB
330
1A
100
AcDbEntity
  8
外形線
 48
10.0
100
AcDbLine
 10
416.487997049288
 20
497.532122326596
 30
0.0
 11
429.310810458164
 21
497.532122326596
 31
0.0
  0
LINE
  5
3FBC
330
1A
100
AcDbEntity
  8
外形線
 48
10.0
100
AcDbLine
 10
416.487997049288
 20
487.129565861946
 30
0.0
 11
429.310810458164
 21
487.129565861946
 31
0.0
  0
LINE
  5
3FBD
330
1A
100
AcDbEntity
  8
外形線
 48
10.0
100
AcDbLine
 10
412.500019110647
 20
497.532122326566
 30
0.0
 11
401.570750139158
 21
497.532122326566
 31
0.0
  0
LINE
  5
3FBE
330
1A
100
AcDbEntity
  8
外形線
 48
10.0
100
AcDbLine
 10
412.500019110647
 20
487.129565861915
 30
0.0
 11
401.570750139158
 21
487.129565861915
 31
0.0
  0
LINE
  5
3FC0
330
1A
100
AcDbEntity
  8
外形線
 48
10.0
100
AcDbLine
 10
451.492012406865
 20
504.264396203159
 30
0.0
 11
461.492012406865
 21
514.236154515786
 31
0.0
  0
LINE
  5
3FC1
330
1A
100
AcDbEntity
  8
外形線
 48
10.0
100
AcDbLine
 10
451.492012406865
 20
480.264396203159
 30
0.0
 11
451.492012406865
 21
504.264396203159
 31
0.0
  0
LINE
  5
3FC4
330
1A
100
AcDbEntity
  8
外形線
 48
10.0
100
AcDbLine
 10
461.492012406865
 20
470.425533672756
 30
0.0
 11
451.492012406865
 21
480.264396203159
 31
0.0
  0
SPLINE
  5
421C
330
1A
100
AcDbEntity
  8
寸法線
 48
10.0
100
AcDbSpline
210
0.0
220
0.0
230
1.0
 70
  1064
 71
     3
 72
    13
 73
     9
 74
     7
 42
0.000000001
 43
0.0000000001
 44
0.0000000001
 40
0.0
 40
0.0
 40
0.0
 40
0.0
 40
3.86842211421227
 40
10.12254119268977
 40
15.16331027423571
 40
18.64952359630882
 40
20.5033140622089
 40
21.84768763042752
 40
21.84768763042752
 40
21.84768763042752
 40
21.84768763042752
 10
318.1623943930025
 20
376.3930880691712
 30
0.0
 10
319.3127888683607
 20
376.9245012337576
 30
0.0
 10
322.3230382984508
 20
378.3150557001639
 30
0.0
 10
323.0484240144798
 20
388.0224631977843
 30
0.0
 10
318.7575479935925
 20
381.0405502989383
 30
0.0
 10
318.9454420258123
 20
377.4961675077724
 30
0.0
 10
321.2061129687024
 20
376.1076376057983
 30
0.0
 10
322.2060446904145
 20
376.6078380609287
 30
0.0
 10
322.6263739050363
 20
376.8181012817997
 30
0.0
 11
318.1623943930025
 21
376.3930880691712
 31
0.0
 11
321.2446657744011
 21
378.7306707490218
 31
0.0
 11
321.9355198397185
 21
384.9465155112573
 31
0.0
 11
319.2252474035093
 21
380.6963653662631
 31
0.0
 11
319.7035313887412
 21
377.2431164965071
 31
0.0
 11
321.350950814444
 21
376.3930880691712
 31
0.0
 11
322.6263739050363
 21
376.8181012817997
 31
0.0
  0
LEADER
  5
421F
330
1A
100
AcDbEntity
  8
寸法線
 48
10.0
100
AcDbLeader
  3
ISO-25
 76
     3
 10
510.585577136897
 20
519.830844094271
 30
0.0
 10
526.154851935247
 20
586.306644406272
 30
0.0
 10
515.212437689812
 20
586.306644406272
 30
0.0
1001
ACAD
1000
DSTYLE
1002
{
1070
     5
1000
OPEN30
1070
   147
1040
0.625
1070
    77
1070
     0
1070
    41
1040
6.0
1070
    47
1040
0.1
1070
    48
1040
0.1
1070
    73
1070
     0
1070
   140
1040
5.0
1070
   271
1070
     1
1070
   272
1070
     1
1070
   341
1005
2AF4
1070
   342
1005
2AF4
1002
}
  0
MTEXT
  5
4220
330
1A
100
AcDbEntity
  8
寸法線
 48
10.0
100
AcDbMText
 10
481.161942255129
 20
595.474652275183
 30
0.0
 40
8.0
 41
49.592740337165
 71
     1
 72
     5
  1
ガスケット
  0
LINE
  5
4225
330
1A
100
AcDbEntity
  8
外形線
100
AcDbLine
 10
511.585592136897
 20
519.830844094271
 30
0.0
 11
511.585592136897
 21
464.830844094271
 31
0.0
  0
LINE
  5
4226
330
1A
100
AcDbEntity
  8
外形線
100
AcDbLine
 10
509.585592136897
 20
519.830844094271
 30
0.0
 11
511.585562136897
 21
519.830844094271
 31
0.0
  0
LINE
  5
4227
330
1A
100
AcDbEntity
  8
外形線
100
AcDbLine
 10
509.585592136897
 20
464.830844094271
 30
0.0
 11
511.585562136897
 21
464.830844094271
 31
0.0
  0
LINE
  5
4228
330
1A
100
AcDbEntity
  8
外形線
100
AcDbLine
 10
509.585592136897
 20
519.830844094271
 30
0.0
 11
509.585592136897
 21
464.830844094271
 31
0.0
  0
LINE
  5
4229
330
1A
100
AcDbEntity
  8
寸法線
100
AcDbLine
 10
161.36793236908
 20
350.263685663818
 30
0.0
 11
161.36793236908
 21
300.263685663818
 31
0.0
  0
LINE
  5
422A
330
1A
100
AcDbEntity
  8
寸法線
100
AcDbLine
 10
161.36793236908
 20
350.263685663818
 30
0.0
 11
16.16793236908
 21
350.263685663818
 31
0.0
  0
LINE
  5
422B
330
1A
100
AcDbEntity
  8
寸法線
100
AcDbLine
 10
16.16793236908
 20
350.263685663818
 30
0.0
 11
16.16793236908
 21
300.263685663818
 31
0.0
  0
LINE
  5
422C
330
1A
100
AcDbEntity
  8
寸法線
100
AcDbLine
 10
23.36793236908
 20
298.263685663818
 30
0.0
 11
23.36793236908
 21
260.263685663818
 31
0.0
  0
LINE
  5
422D
330
1A
100
AcDbEntity
  8
寸法線
100
AcDbLine
 10
154.16793236908
 20
298.263685663818
 30
0.0
 11
154.16793236908
 21
260.263685663818
 31
0.0
  0
CIRCLE
  5
422E
330
1A
100
AcDbEntity
  8
寸法線
100
AcDbCircle
 10
23.36793236908
 20
300.263685663818
 30
0.0
 40
2.0
  0
CIRCLE
  5
422F
330
1A
100
AcDbEntity
  8
寸法線
100
AcDbCircle
 10
49.52793236908
 20
300.263685663818
 30
0.0
 40
2.0
  0
CIRCLE
  5
4230
330
1A
100
AcDbEntity
  8
寸法線
100
AcDbCircle
 10
75.68793236908
 20
300.263685663818
 30
0.0
 40
2.0
  0
CIRCLE
  5
4231
330
1A
100
AcDbEntity
  8
寸法線
100
AcDbCircle
 10
101.84793236908
 20
300.263685663818
 30
0.0
 40
2.0
  0
CIRCLE
  5
4232
330
1A
100
AcDbEntity
  8
寸法線
100
AcDbCircle
 10
128.00793236908
 20
300.263685663818
 30
0.0
 40
2.0
  0
CIRCLE
  5
4233
330
1A
100
AcDbEntity
  8
寸法線
100
AcDbCircle
 10
154.16793236908
 20
300.263685663818
 30
0.0
 40
2.0
  0
LINE
  5
4234
330
1A
100
AcDbEntity
  8
寸法線
100
AcDbLine
 10
49.52793236908
 20
298.263685663818
 30
0.0
 11
49.52793236908
 21
260.263685663818
 31
0.0
  0
LINE
  5
4235
330
1A
100
AcDbEntity
  8
寸法線
100
AcDbLine
 10
75.68793236908
 20
298.263685663818
 30
0.0
 11
75.68793236908
 21
260.263685663818
 31
0.0
  0
LINE
  5
4236
330
1A
100
AcDbEntity
  8
寸法線
100
AcDbLine
 10
101.84793236908
 20
298.263685663818
 30
0.0
 11
101.84793236908
 21
260.263685663818
 31
0.0
  0
LINE
  5
4237
330
1A
100
AcDbEntity
  8
寸法線
100
AcDbLine
 10
128.00793236908
 20
298.263685663818
 30
0.0
 11
128.00793236908
 21
260.263685663818
 31
0.0
  0
LINE
  5
4238
330
1A
100
AcDbEntity
  8
寸法線
100
AcDbLine
 10
21.36793236908
 20
300.263685663818
 30
0.0
 11
16.16793236908
 21
300.263685663818
 31
0.0
  0
LINE
  5
4239
330
1A
100
AcDbEntity
  8
寸法線
100
AcDbLine
 10
25.36793236908
 20
300.263685663818
 30
0.0
 11
47.52793236908
 21
300.263685663818
 31
0.0
  0
LINE
  5
423A
330
1A
100
AcDbEntity
  8
寸法線
100
AcDbLine
 10
51.52793236908
 20
300.263685663818
 30
0.0
 11
73.68793236908
 21
300.263685663818
 31
0.0
  0
LINE
  5
423B
330
1A
100
AcDbEntity
  8
寸法線
100
AcDbLine
 10
77.68793236908
 20
300.263685663818
 30
0.0
 11
99.84793236908
 21
300.263685663818
 31
0.0
  0
LINE
  5
423C
330
1A
100
AcDbEntity
  8
寸法線
100
AcDbLine
 10
103.84793236908
 20
300.263685663818
 30
0.0
 11
126.00793236908
 21
300.263685663818
 31
0.0
  0
LINE
  5
423D
330
1A
100
AcDbEntity
  8
寸法線
100
AcDbLine
 10
130.00793236908
 20
300.263685663818
 30
0.0
 11
152.16793236908
 21
300.263685663818
 31
0.0
  0
LINE
  5
423E
330
1A
100
AcDbEntity
  8
寸法線
100
AcDbLine
 10
161.36793236908
 20
300.263685663818
 30
0.0
 11
156.16793236908
 21
300.263685663818
 31
0.0
  0
CIRCLE
  5
423F
330
1A
100
AcDbEntity
  8
寸法線
100
AcDbCircle
 10
23.16793236908
 20
309.263685663818
 30
0.0
 40
5.0
  0
CIRCLE
  5
4240
330
1A
100
AcDbEntity
  8
寸法線
100
AcDbCircle
 10
49.56793236908
 20
309.263685663818
 30
0.0
 40
5.0
  0
CIRCLE
  5
4241
330
1A
100
AcDbEntity
  8
寸法線
100
AcDbCircle
 10
75.76793236908
 20
309.263685663818
 30
0.0
 40
5.0
  0
CIRCLE
  5
4242
330
1A
100
AcDbEntity
  8
寸法線
100
AcDbCircle
 10
101.96793236908
 20
309.263685663818
 30
0.0
 40
5.0
  0
CIRCLE
  5
4243
330
1A
100
AcDbEntity
  8
寸法線
100
AcDbCircle
 10
128.16793236908
 20
309.263685663818
 30
0.0
 40
5.0
  0
CIRCLE
  5
4244
330
1A
100
AcDbEntity
  8
寸法線
100
AcDbCircle
 10
154.36793236908
 20
309.263685663818
 30
0.0
 40
5.0
  0
LINE
  5
4245
330
1A
100
AcDbEntity
  8
寸法線
100
AcDbLine
 10
14.16793236908
 20
298.263685663818
 30
0.0
 11
14.16793236908
 21
352.263685663818
 31
0.0
  0
LINE
  5
4246
330
1A
100
AcDbEntity
  8
寸法線
100
AcDbLine
 10
14.16793236908
 20
352.263685663818
 30
0.0
 11
163.36793236908
 21
352.263685663818
 31
0.0
  0
LINE
  5
4247
330
1A
100
AcDbEntity
  8
寸法線
100
AcDbLine
 10
163.36793236908
 20
298.263685663818
 30
0.0
 11
163.36793236908
 21
352.263685663818
 31
0.0
  0
LINE
  5
4248
330
1A
100
AcDbEntity
  8
寸法線
100
AcDbLine
 10
14.16793236908
 20
298.263685663818
 30
0.0
 11
163.36793236908
 21
298.263685663818
 31
0.0
  0
LINE
  5
4249
330
1A
100
AcDbEntity
  8
寸法線
100
AcDbLine
 10
154.16793236908
 20
315.063685663818
 30
0.0
 11
154.16793236908
 21
343.463685663818
 31
0.0
  0
LINE
  5
424A
330
1A
100
AcDbEntity
  8
寸法線
100
AcDbLine
 10
128.00793236908
 20
315.263685663818
 30
0.0
 11
128.00793236908
 21
324.663685663818
 31
0.0
  0
LINE
  5
424B
330
1A
100
AcDbEntity
  8
寸法線
100
AcDbLine
 10
101.84793236908
 20
315.263685663818
 30
0.0
 11
101.84793236908
 21
343.463685663818
 31
0.0
  0
CIRCLE
  5
424C
330
1A
100
AcDbEntity
  8
寸法線
100
AcDbCircle
 10
128.00793236908
 20
326.663685663818
 30
0.0
 40
2.0
  0
LINE
  5
424D
330
1A
100
AcDbEntity
  8
寸法線
100
AcDbLine
 10
119.077279955221
 20
343.463685663818
 30
0.0
 11
101.84793236908
 21
343.463685663818
 31
0.0
  0
LINE
  5
424E
330
1A
100
AcDbEntity
  8
寸法線
100
AcDbLine
 10
127.848441924514
 20
328.65731622089
 30
0.0
 11
142.207998245161
 21
344.863685663818
 31
0.0
  0
LINE
  5
424F
330
1A
100
AcDbEntity
  8
寸法線
100
AcDbLine
 10
141.04793236908
 20
343.463685663818
 30
0.0
 11
154.16793236908
 21
343.463685663818
 31
0.0
  0
POINT
  5
4250
330
1A
100
AcDbEntity
  8
寸法線
100
AcDbPoint
 10
88.76793236908
 20
300.263685663818
 30
0.0
  0
LINE
  5
4251
330
1A
100
AcDbEntity
  8
寸法線
100
AcDbLine
 10
88.76793236908
 20
291.843685663818
 30
0.0
 11
88.76793236908
 21
288.303685663818
 31
0.0
  0
CIRCLE
  5
4252
330
1A
100
AcDbEntity
  8
寸法線
100
AcDbCircle
 10
88.76793236908
 20
286.843685663818
 30
0.0
 40
5.0
  0
LINE
  5
4253
330
1A
100
AcDbEntity
  8
寸法線
100
AcDbLine
 10
85.10793236908
 20
288.303685663818
 30
0.0
 11
92.62793236908
 21
288.303685663818
 31
0.0
  0
LINE
  5
4254
330
1A
100
AcDbEntity
  8
寸法線
100
AcDbLine
 10
86.64793236908
 20
286.503685663818
 30
0.0
 11
91.06793236908
 21
286.503685663818
 31
0.0
  0
LINE
  5
4255
330
1A
100
AcDbEntity
  8
寸法線
100
AcDbLine
 10
87.86793236908
 20
284.763685663818
 30
0.0
 11
89.94793236908
 21
284.763685663818
 31
0.0
  0
LINE
  5
4256
330
1A
100
AcDbEntity
  8
寸法線
100
AcDbLine
 10
84.36793236908
 20
309.063685663818
 30
0.0
 11
93.16793236908
 21
309.063685663818
 31
0.0
  0
POINT
  5
4257
330
1A
100
AcDbEntity
  8
寸法線
100
AcDbPoint
 10
88.76793236908
 20
304.663685663818
 30
0.0
  0
CIRCLE
  5
4258
330
1A
100
AcDbEntity
  8
寸法線
100
AcDbCircle
 10
88.76793236908
 20
304.663685663818
 30
0.0
 40
4.40000000000004
  0
LINE
  5
4259
330
1A
100
AcDbEntity
  8
寸法線
100
AcDbLine
 10
84.36793236908
 20
300.263685663818
 30
0.0
 11
84.36793236908
 21
309.063685663818
 31
0.0
  0
LINE
  5
425A
330
1A
100
AcDbEntity
  8
寸法線
100
AcDbLine
 10
93.16793236908
 20
300.263685663818
 30
0.0
 11
93.16793236908
 21
309.063685663818
 31
0.0
  0
LINE
  5
425B
330
1A
100
AcDbEntity
  8
寸法線
100
AcDbLine
 10
90.76793236908
 20
304.663685663818
 30
0.0
 11
86.76793236908
 21
304.663685663818
 31
0.0
  0
LINE
  5
425C
330
1A
100
AcDbEntity
  8
寸法線
100
AcDbLine
 10
88.76793236908
 20
302.663685663818
 30
0.0
 11
88.76793236908
 21
306.663685663818
 31
0.0
  0
LINE
  5
425D
330
1A
100
AcDbEntity
  8
寸法線
100
AcDbLine
 10
88.76793236908
 20
300.263685663818
 30
0.0
 11
88.76793236908
 21
291.843685663818
 31
0.0
  0
MTEXT
  5
425E
330
1A
100
AcDbEntity
  8
寸法線
 48
10.0
100
AcDbMText
 10
18.751153319791
 20
347.135120108841
 30
0.0
 40
8.0
 41
95.557777777778
 71
     1
 72
     5
  1
{\C1;RKK-5□□}
  0
MTEXT
  5
425F
330
1A
100
AcDbEntity
  8
寸法線
 48
10.0
100
AcDbMText
 10
21.968299481988
 20
312.47024735248
 30
0.0
 40
7.0
 41
95.557777777778
 71
     1
 72
     5
  1
{\C1;1}
  0
MTEXT
  5
4260
330
1A
100
AcDbEntity
  8
寸法線
 48
10.0
100
AcDbMText
 10
47.988020274011
 20
312.47024735248
 30
0.0
 40
7.0
 41
95.557777777778
 71
     1
 72
     5
  1
{\C1;2}
  0
MTEXT
  5
4261
330
1A
100
AcDbEntity
  8
寸法線
 48
10.0
100
AcDbMText
 10
74.411108459886
 20
312.47024735248
 30
0.0
 40
7.0
 41
95.557777777778
 71
     1
 72
     5
  1
{\C1;3}
  0
MTEXT
  5
4262
330
1A
100
AcDbEntity
  8
寸法線
 48
10.0
100
AcDbMText
 10
100.395919530852
 20
312.47024735248
 30
0.0
 40
7.0
 41
95.557777777778
 71
     1
 72
     5
  1
{\C1;4}
  0
MTEXT
  5
4263
330
1A
100
AcDbEntity
  8
寸法線
 48
10.0
100
AcDbMText
 10
126.978255129673
 20
312.47024735248
 30
0.0
 40
7.0
 41
95.557777777778
 71
     1
 72
     5
  1
{\C1;5}
  0
MTEXT
  5
4264
330
1A
100
AcDbEntity
  8
寸法線
 48
10.0
100
AcDbMText
 10
152.579057389724
 20
312.47024735248
 30
0.0
 40
7.0
 41
95.557777777778
 71
     1
 72
     5
  1
{\C1;6}
  0
MTEXT
  5
4265
330
1A
100
AcDbEntity
  8
寸法線
 48
10.0
100
AcDbMText
 10
19.380697218197
 20
257.617949732271
 30
0.0
 40
8.0
 41
95.557777777778
 71
     1
 72
     5
  1
{\C1;PE}
  0
MTEXT
  5
4266
330
1A
100
AcDbEntity
  8
寸法線
 48
10.0
100
AcDbMText
 10
47.141538468633
 20
257.617949732271
 30
0.0
 40
8.0
 41
95.557777777778
 71
     1
 72
     5
  1
{\C1;N}
  0
MTEXT
  5
4267
330
1A
100
AcDbEntity
  8
寸法線
 48
10.0
100
AcDbMText
 10
73.035215171979
 20
257.617949732271
 30
0.0
 40
8.0
 41
95.557777777778
 71
     1
 72
     5
  1
{\C1;L1}
  0
MTEXT
  5
4268
330
1A
100
AcDbEntity
  8
寸法線
 48
10.0
100
AcDbMText
 10
97.297993749476
 20
257.617949732271
 30
0.0
 40
8.0
 41
95.557777777778
 71
     1
 72
     5
  1
{\C1;NO}
  0
MTEXT
  5
4269
330
1A
100
AcDbEntity
  8
寸法線
 48
10.0
100
AcDbMText
 10
125.796968126467
 20
257.617949732271
 30
0.0
 40
8.0
 41
95.557777777778
 71
     1
 72
     5
  1
{\C1;C}
  0
MTEXT
  5
426A
330
1A
100
AcDbEntity
  8
寸法線
 48
10.0
100
AcDbMText
 10
148.414669322872
 20
257.617949732271
 30
0.0
 40
8.0
 41
95.557777777778
 71
     1
 72
     5
  1
{\C1;NC}
  0
LINE
  5
4286
330
1A
100
AcDbEntity
  8
外形線
100
AcDbLine
 10
511.585592136897
 20
466.374541573262
 30
0.0
 11
511.585592136897
 21
518.28714661528
 31
0.0
  0
LINE
  5
4435
330
1A
100
AcDbEntity
  8
外形線
100
AcDbLine
 10
492.515100265852
 20
516.290507959817
 30
0.0
 11
492.515100265852
 21
468.371180228725
 31
0.0
  0
LINE
  5
4436
330
1A
100
AcDbEntity
  8
外形線
100
AcDbLine
 10
490.585592136897
 20
470.316030999196
 30
0.0
 11
492.515100265852
 21
468.371180228725
 31
0.0
  0
LINE
  5
4439
330
1A
100
AcDbEntity
  8
外形線
100
AcDbLine
 10
490.585592136897
 20
470.316030999196
 30
0.0
 11
490.585592136897
 21
514.345657189346
 31
0.0
  0
LINE
  5
443A
330
1A
100
AcDbEntity
  8
外形線
100
AcDbLine
 10
495.585592136897
 20
468.371180228725
 30
0.0
 11
492.515100265852
 21
468.371180228725
 31
0.0
  0
LINE
  5
443C
330
1A
100
AcDbEntity
  8
外形線
100
AcDbLine
 10
490.585370348929
 20
470.425533672757
 30
0.0
 11
483.370431539715
 21
470.425533672757
 31
0.0
  0
LINE
  5
443D
330
1A
100
AcDbEntity
  8
外形線
100
AcDbLine
 10
495.585592136897
 20
516.290507959818
 30
0.0
 11
492.515100265852
 21
516.290507959818
 31
0.0
  0
LINE
  5
443E
330
1A
100
AcDbEntity
  8
外形線
100
AcDbLine
 10
490.585592136897
 20
514.345657189346
 30
0.0
 11
492.515100265852
 21
516.290507959817
 31
0.0
  0
LINE
  5
4440
330
1A
100
AcDbEntity
  8
外形線
100
AcDbLine
 10
490.585592136897
 20
514.236154515786
 30
0.0
 11
483.370431539715
 21
514.236154515786
 31
0.0
  0
LINE
  5
4441
330
1A
100
AcDbEntity
  8
細線
100
AcDbLine
 10
492.515100265852
 20
514.793028968221
 30
0.0
 11
495.585592136897
 21
514.793028968221
 31
0.0
  0
LINE
  5
4445
330
1A
100
AcDbEntity
  8
細線
100
AcDbLine
 10
492.515100265852
 20
469.98408879746
 30
0.0
 11
495.585592136897
 21
469.98408879746
 31
0.0
  0
DIMENSION
  5
4449
330
1A
100
AcDbEntity
  8
寸法線
 48
10.0
100
AcDbDimension
  2
*D13
 10
511.585592136897
 20
393.712736536279
 30
0.0
 11
498.533577515697
 21
393.712736536279
 31
0.0
 70
   160
  3
ISO-25
100
AcDbAlignedDimension
 13
490.585592136897
 23
470.316030999196
 33
0.0
 14
511.585592136897
 24
464.830844094271
 34
0.0
100
AcDbRotatedDimension
1001
ACAD
1000
DSTYLE
1002
{
1070
     5
1000
OPEN30
1070
    41
1040
6.0
1070
    47
1040
0.1
1070
    48
1040
0.1
1070
    73
1070
     0
1070
   140
1040
8.0
1070
   271
1070
     1
1070
   272
1070
     1
1070
   341
1005
2AF4
1002
}
  0
MTEXT
  5
4719
330
1A
100
AcDbEntity
  8
寸法線
 48
10.0
100
AcDbMText
 10
417.95704951582
 20
592.01106083212
 30
0.0
 40
5.0
 41
47.557441667843
 71
     3
 72
     5
  1
2
  0
MTEXT
  5
471A
102
{ACAD_XDICTIONARY
360
5329
102
}
330
1A
100
AcDbEntity
  8
寸法線
 48
10.0
100
AcDbMText
 10
420.297211603492
 20
587.199901974411
 30
0.0
 40
8.0
 41
47.557441667843
 71
     9
 72
     5
  1
取付ねじ\PG1 /"
1001
ACADANNOTATIVE
1000
AnnotativeData
1002
{
1070
     1
1070
     0
1002
}
  0
LINE
  5
471C
330
1A
100
AcDbEntity
  8
外形線
 48
10.0
100
AcDbLine
 10
495.585592136897
 20
569.830844094271
 30
0.0
 11
509.585592136897
 21
569.830844094271
 31
0.0
  0
LINE
  5
471D
330
1A
100
AcDbEntity
  8
外形線
 48
10.0
100
AcDbLine
 10
495.585592136897
 20
569.830844094271
 30
0.0
 11
495.585592136897
 21
414.830844094271
 31
0.0
  0
LINE
  5
471E
330
1A
100
AcDbEntity
  8
外形線
 48
10.0
100
AcDbLine
 10
495.585592136897
 20
414.830844094271
 30
0.0
 11
509.585592136897
 21
414.830844094271
 31
0.0
  0
LINE
  5
471F
330
1A
100
AcDbEntity
  8
外形線
 48
10.0
100
AcDbLine
 10
509.585592136897
 20
569.830844094271
 30
0.0
 11
509.585592136897
 21
414.830844094271
 31
0.0
  0
MTEXT
  5
4720
330
1A
100
AcDbEntity
  8
寸法線
 48
10.0
100
AcDbMText
 10
430.743888883007
 20
594.540151678611
 30
0.0
 40
8.0
 41
133.333333333333
 71
     1
 72
     5
  1
フランジ
  0
LINE
  5
4721
330
1A
100
AcDbEntity
  8
中心線
 48
10.0
100
AcDbLine
 10
491.401335902542
 20
557.330844094271
 30
0.0
 11
513.89621933962
 21
557.330844094271
 31
0.0
  0
LINE
  5
4722
330
1A
100
AcDbEntity
  8
中心線
 48
10.0
100
AcDbLine
 10
488.136099453805
 20
427.330844094271
 30
0.0
 11
515.610765576221
 21
427.330844094271
 31
0.0
  0
MTEXT
  5
4723
330
1A
100
AcDbEntity
  8
寸法線
 48
10.0
100
AcDbMText
 10
411.25983130144
 20
280.692242814924
 30
0.0
 40
8.0
 41
165.013333333333
 71
     1
 72
     5
  1
○印が今回の貴社の御仕様です。
  0
MTEXT
  5
4724
330
1A
100
AcDbEntity
  8
寸法線
 48
10.0
100
AcDbMText
 10
377.677138569201
 20
350.553626328092
 30
0.0
 40
8.0
 41
165.013333333333
 71
     1
 72
     5
  1
フランジサイズ
  0
MTEXT
  5
4725
330
1A
100
AcDbEntity
  8
寸法線
 48
10.0
100
AcDbMText
 10
351.444364695271
 20
334.667035443939
 30
0.0
 40
8.0
 41
165.013333333333
 71
     1
 72
     5
  1
JIS5K50A\PJIS5K65A\PJIS5K80A\PJIS5K100A
  0
MTEXT
  5
4726
330
1A
100
AcDbEntity
  8
寸法線
 48
10.0
100
AcDbMText
 10
428.22366913367
 20
334.667035443939
 30
0.0
 40
8.0
 41
165.013333333333
 71
     1
 72
     5
  1
JIS10K50A\PJIS10K65A\PJIS10K80A\PJIS10K100A
  0
LINE
  5
4727
330
1A
100
AcDbEntity
  8
寸法線
 48
10.0
100
AcDbLine
 10
328.180537751819
 20
353.435451355586
 30
0.0
 11
550.68570452093
 21
353.435451355586
 31
0.0
  0
LINE
  5
4728
330
1A
100
AcDbEntity
  8
寸法線
 48
10.0
100
AcDbLine
 10
328.180537751819
 20
323.975371916905
 30
0.0
 11
486.044291004921
 21
323.975371916905
 31
0.0
  0
LINE
  5
4729
330
1A
100
AcDbEntity
  8
寸法線
 48
10.0
100
AcDbLine
 10
328.18053775182
 20
338.30567697666
 30
0.0
 11
550.68570452093
 21
338.30567697666
 31
0.0
  0
LINE
  5
472A
330
1A
100
AcDbEntity
  8
寸法線
 48
10.0
100
AcDbLine
 10
328.180537751819
 20
310.770729385828
 30
0.0
 11
550.68570452093
 21
310.770729385828
 31
0.0
  0
LINE
  5
472B
330
1A
100
AcDbEntity
  8
寸法線
 48
10.0
100
AcDbLine
 10
328.180537751819
 20
296.9847070945
 30
0.0
 11
486.044291004921
 21
296.9847070945
 31
0.0
  0
LINE
  5
472C
330
1A
100
AcDbEntity
  8
寸法線
 48
10.0
100
AcDbLine
 10
328.180537751819
 20
284.807680437755
 30
0.0
 11
550.68570452093
 21
284.807680437755
 31
0.0
  0
LINE
  5
472D
330
1A
100
AcDbEntity
  8
寸法線
 48
10.0
100
AcDbLine
 10
328.180537751819
 20
353.435451355586
 30
0.0
 11
328.180537751819
 21
284.807680437755
 31
0.0
  0
LINE
  5
472E
330
1A
100
AcDbEntity
  8
寸法線
 48
10.0
100
AcDbLine
 10
344.756795738052
 20
338.30567697666
 30
0.0
 11
344.756795738052
 21
284.807680437755
 31
0.0
  0
LINE
  5
472F
330
1A
100
AcDbEntity
  8
寸法線
 48
10.0
100
AcDbLine
 10
405.509777207756
 20
338.30567697666
 30
0.0
 11
405.509777207756
 21
284.807680437755
 31
0.0
  0
LINE
  5
4730
330
1A
100
AcDbEntity
  8
寸法線
 48
10.0
100
AcDbLine
 10
422.795144373206
 20
338.30567697666
 30
0.0
 11
422.795144373205
 21
284.807680437755
 31
0.0
  0
LINE
  5
4731
330
1A
100
AcDbEntity
  8
寸法線
 48
10.0
100
AcDbLine
 10
486.044291004921
 20
353.435451355586
 30
0.0
 11
486.044291004921
 21
284.807680437755
 31
0.0
  0
MTEXT
  5
4732
330
1A
100
AcDbEntity
  8
寸法線
 48
10.0
100
AcDbMText
 10
508.714481145511
 20
350.553626328092
 30
0.0
 40
8.0
 41
165.013333333333
 71
     1
 72
     5
  1
材質
  0
LINE
  5
4733
330
1A
100
AcDbEntity
  8
寸法線
 48
10.0
100
AcDbLine
 10
503.285975727149
 20
338.30567697666
 30
0.0
 11
503.285975727149
 21
284.807680437755
 31
0.0
  0
MTEXT
  5
4734
330
1A
100
AcDbEntity
  8
寸法線
 48
10.0
100
AcDbMText
 10
509.399476198592
 20
328.823521014678
 30
0.0
 40
8.0
 41
165.013333333333
 71
     1
 72
     5
  1
SUS304
  0
MTEXT
  5
4735
330
1A
100
AcDbEntity
  8
寸法線
 48
10.0
100
AcDbMText
 10
509.399476198592
 20
301.152674563148
 30
0.0
 40
8.0
 41
165.013333333333
 71
     1
 72
     5
  1
SUS316
  0
LINE
  5
4736
330
1A
100
AcDbEntity
  8
寸法線
 48
10.0
100
AcDbLine
 10
550.68570452093
 20
353.435451355586
 30
0.0
 11
550.68570452093
 21
284.807680437755
 31
0.0
  0
MTEXT
  5
47BA
330
1A
100
AcDbEntity
  8
寸法線
 48
10.0
100
AcDbMText
 10
411.787536238378
 20
596.050260637
 30
0.0
 40
5.0
 41
47.557441667843
 71
     3
 72
     5
  1
1 
  0
LEADER
  5
4958
330
1A
100
AcDbEntity
  8
寸法線
 48
10.0
100
AcDbLeader
  3
ISO-25
 76
     3
 10
493.898985054663
 20
516.290507959818
 30
0.0
 10
420.186403087304
 20
586.306644406272
 30
0.0
 10
410.99401099836
 20
586.306644406272
 30
0.0
1001
ACAD
1000
DSTYLE
1002
{
1070
     5
1000
OPEN30
1070
   147
1040
0.625
1070
    77
1070
     0
1070
    41
1040
6.0
1070
    47
1040
0.1
1070
    48
1040
0.1
1070
    73
1070
     0
1070
   140
1040
5.0
1070
   271
1070
     1
1070
   272
1070
     1
1070
   341
1005
2AF4
1070
   342
1005
2AF4
1002
}
  0
LEADER
  5
4959
330
1A
100
AcDbEntity
  8
寸法線
 48
10.0
100
AcDbLeader
  3
ISO-25
 76
     3
 10
495.536460738875
 20
564.1942824995
 30
0.0
 10
467.709339069852
 20
586.255584323799
 30
0.0
 10
457.302855148029
 20
586.255584323799
 30
0.0
1001
ACAD
1000
DSTYLE
1002
{
1070
     5
1000
OPEN30
1070
   147
1040
0.625
1070
    77
1070
     0
1070
    41
1040
6.0
1070
    47
1040
0.1
1070
    48
1040
0.1
1070
    73
1070
     0
1070
   140
1040
5.0
1070
   271
1070
     1
1070
   272
1070
     1
1070
   341
1005
2AF4
1070
   342
1005
2AF4
1002
}
  0
MTEXT
  5
4A15
330
1A
100
AcDbEntity
  8
寸法線
 48
10.0
100
AcDbMText
 10
144.248307759496
 20
245.706468570894
 30
0.0
 40
8.0
 41
95.557777777778
 71
     1
 72
     5
  1
{\C1;（NO）}
  0
MTEXT
  5
4A16
330
1A
100
AcDbEntity
  8
寸法線
 48
10.0
100
AcDbMText
 10
93.198728534662
 20
245.706468570894
 30
0.0
 40
8.0
 41
95.557777777778
 71
     1
 72
     5
  1
{\C1;（NC）}
  0
MTEXT
  5
4A17
330
1A
100
AcDbEntity
  8
寸法線
 48
10.0
100
AcDbMText
 10
195.032187750948
 20
305.320296591237
 30
0.0
 40
7.0
 41
125.633939393939
 71
     1
 72
     5
  1
{\C1;：グランド\P：電源\P：電源\P：コモン\P：オープン（クローズ）\P：クローズ（オープン）}
  0
MTEXT
  5
4A18
330
1A
100
AcDbEntity
  8
寸法線
 48
10.0
100
AcDbMText
 10
183.141994951212
 20
305.320296591237
 30
0.0
 40
7.0
 41
125.633939393939
 71
     1
 72
     5
  1
{\C1;PE\PN\PL1\PC\PNO\PNC}
  0
MTEXT
  5
4A19
102
{ACAD_XDICTIONARY
360
4A1A
102
}
330
1A
100
AcDbEntity
  8
寸法線
 48
10.0
100
AcDbMText
 10
180.826204902446
 20
326.134026611234
 30
0.0
 40
8.0
 41
124.815667100994
 71
     1
 72
     5
  1
電源電圧：AC/DC20～255V
1001
ACADANNOTATIVE
1000
AnnotativeData
1002
{
1070
     1
1070
     0
1002
}
  0
LINE
  5
4AA7
330
1A
100
AcDbEntity
  8
寸法線
 48
10.0
100
AcDbLine
 10
697.461422924953
 20
365.437762239854
 30
0.0
 11
697.461422924953
 21
258.734830881977
 31
0.0
  0
LINE
  5
4AA8
330
1A
100
AcDbEntity
  8
寸法線
 48
10.0
100
AcDbLine
 10
567.229561258363
 20
335.802767741991
 30
0.0
 11
664.590091827783
 21
335.802767741991
 31
0.0
  0
MTEXT
  5
4AA9
102
{ACAD_XDICTIONARY
360
4AAA
102
}
330
1A
100
AcDbEntity
  8
寸法線
 48
10.0
100
AcDbMText
 10
631.487106090624
 20
346.623072516422
 30
0.0
 40
8.0
 41
66.205971474318
 71
     2
 72
     5
  1
RKK-501-1
1001
ACADANNOTATIVE
1000
AnnotativeData
1002
{
1070
     1
1070
     0
1002
}
1001
ACAD
1000
MTEXTBEGIN
1070
    44
1040
1.1475
1000
MTEXTEND
  0
MTEXT
  5
4AAD
330
1A
100
AcDbEntity
  8
寸法線
 48
10.0
100
AcDbMText
 10
623.425008666796
 20
362.555937212359
 30
0.0
 40
8.0
 41
19.77375149039
 71
     1
 72
     5
  1
型式
  0
LINE
  5
4AAE
330
1A
100
AcDbEntity
  8
寸法線
 48
10.0
100
AcDbLine
 10
567.229561258363
 20
351.236736171998
 30
0.0
 11
664.590091827783
 21
351.236736171998
 31
0.0
  0
LINE
  5
4AAF
330
1A
100
AcDbEntity
  8
寸法線
 48
10.0
100
AcDbLine
 10
567.229561258363
 20
365.437762239854
 30
0.0
 11
664.590091827783
 21
365.437762239854
 31
0.0
  0
LINE
  5
4AB0
330
1A
100
AcDbEntity
  8
寸法線
 48
10.0
100
AcDbLine
 10
598.384120353465
 20
365.437762239854
 30
0.0
 11
598.384120353465
 21
258.734830881977
 31
0.0
  0
LINE
  5
4AB1
330
1A
100
AcDbEntity
  8
寸法線
 48
10.0
100
AcDbLine
 10
664.590091827783
 20
365.437762239854
 30
0.0
 11
664.590091827783
 21
258.734830881977
 31
0.0
  0
LINE
  5
4AB2
330
1A
100
AcDbEntity
  8
寸法線
 48
10.0
100
AcDbLine
 10
664.590091827783
 20
365.437762239854
 30
0.0
 11
664.590091827783
 21
258.734830881977
 31
0.0
  0
LINE
  5
4AB3
330
1A
100
AcDbEntity
  8
寸法線
 48
10.0
100
AcDbLine
 10
567.229561258363
 20
365.437762239854
 30
0.0
 11
567.229561258363
 21
258.734830881977
 31
0.0
  0
MTEXT
  5
4AB4
330
1A
100
AcDbEntity
  8
寸法線
 48
10.0
100
AcDbMText
 10
643.538220987626
 20
177.426632382609
 30
0.0
 40
8.0
 41
165.013333333333
 71
     1
 72
     5
  1
○印が今回の貴社の御仕様です。
  0
SPLINE
  5
4AB5
330
1A
100
AcDbEntity
  8
寸法線
 48
10.0
100
AcDbSpline
210
0.0
220
0.0
230
1.0
 70
  1064
 71
     3
 72
    13
 73
     9
 74
     7
 42
0.000000001
 43
0.0000000001
 44
0.0000000001
 40
0.0
 40
0.0
 40
0.0
 40
0.0
 40
3.86842211421227
 40
10.12254119268954
 40
15.16331027423529
 40
18.64952359630841
 40
20.50331406220848
 40
21.8476876304271
 40
21.8476876304271
 40
21.8476876304271
 40
21.8476876304271
 10
678.7958776815831
 20
353.891558133586
 30
0.0
 10
679.9462721569413
 20
354.4229712981724
 30
0.0
 10
682.9565215870311
 20
355.8135257645786
 30
0.0
 10
683.6819073030608
 20
365.5209332621989
 30
0.0
 10
679.3910312821729
 20
358.539020363353
 30
0.0
 10
679.5789253143931
 20
354.9946375721873
 30
0.0
 10
681.8395962572829
 20
353.6061076702131
 30
0.0
 10
682.8395279789951
 20
354.1063081253434
 30
0.0
 10
683.2598571936169
 20
354.3165713462146
 30
0.0
 11
678.7958776815831
 21
353.891558133586
 31
0.0
 11
681.8781490629817
 21
356.2291408134366
 31
0.0
 11
682.5690031282991
 21
362.4449855756719
 31
0.0
 11
679.8587306920899
 21
358.1948354306779
 31
0.0
 11
680.3370146773218
 21
354.741586560922
 31
0.0
 11
681.9844341030246
 21
353.891558133586
 31
0.0
 11
683.2598571936169
 21
354.3165713462146
 31
0.0
  0
LINE
  5
4AB6
330
1A
100
AcDbEntity
  8
寸法線
 48
10.0
100
AcDbLine
 10
567.229561258363
 20
320.368799311984
 30
0.0
 11
598.384120353465
 21
320.368799311984
 31
0.0
  0
MTEXT
  5
4AB7
102
{ACAD_XDICTIONARY
360
4AB8
102
}
330
1A
100
AcDbEntity
  8
寸法線
 48
10.0
100
AcDbMText
 10
681.025757376368
 20
347.153404926559
 30
0.0
 40
8.0
 41
32.87133109717
 71
     2
 72
     5
  1
1000\P1100\P1200\P1300\P1400\P1500
1001
ACADANNOTATIVE
1000
AnnotativeData
1002
{
1070
     1
1070
     0
1002
}
1001
ACAD
1000
MTEXTBEGIN
1070
    44
1040
1.1475
1000
MTEXTEND
  0
LINE
  5
4ABB
330
1A
100
AcDbEntity
  8
寸法線
 48
10.0
100
AcDbLine
 10
567.229561258363
 20
304.934830881977
 30
0.0
 11
598.384120353465
 21
304.934830881977
 31
0.0
  0
LINE
  5
4ABC
330
1A
100
AcDbEntity
  8
寸法線
 48
10.0
100
AcDbLine
 10
664.590091827783
 20
335.802767741991
 30
0.0
 11
777.461422924953
 21
335.802767741991
 31
0.0
  0
LINE
  5
4ABD
330
1A
100
AcDbEntity
  8
寸法線
 48
10.0
100
AcDbLine
 10
664.590091827783
 20
320.368799311984
 30
0.0
 11
777.461422924953
 21
320.368799311984
 31
0.0
  0
LINE
  5
4ABE
330
1A
100
AcDbEntity
  8
寸法線
 48
10.0
100
AcDbLine
 10
664.590091827783
 20
351.236736171998
 30
0.0
 11
777.461422924953
 21
351.236736171998
 31
0.0
  0
LINE
  5
4ABF
330
1A
100
AcDbEntity
  8
寸法線
 48
10.0
100
AcDbLine
 10
664.590091827783
 20
365.437762239854
 30
0.0
 11
777.461422924953
 21
365.437762239854
 31
0.0
  0
LINE
  5
4AC0
330
1A
100
AcDbEntity
  8
寸法線
 48
10.0
100
AcDbLine
 10
664.590091827783
 20
258.734830881977
 30
0.0
 11
777.461422924953
 21
258.734830881977
 31
0.0
  0
MTEXT
  5
4AC1
102
{ACAD_XDICTIONARY
360
4AC2
102
}
330
1A
100
AcDbEntity
  8
寸法線
 48
10.0
100
AcDbMText
 10
568.696486124022
 20
361.96403252155
 30
0.0
 40
8.0
 41
32.516763780405
 71
     1
 72
     5
  1
御仕様
1001
ACADANNOTATIVE
1000
AnnotativeData
1002
{
1070
     1
1070
     0
1002
}
  0
LINE
  5
4AC5
330
1A
100
AcDbEntity
  8
寸法線
 48
10.0
100
AcDbLine
 10
567.229561258363
 20
289.534830881977
 30
0.0
 11
598.384120353465
 21
289.534830881977
 31
0.0
  0
LINE
  5
4AC6
330
1A
100
AcDbEntity
  8
寸法線
 48
10.0
100
AcDbLine
 10
567.229561258363
 20
274.134830881977
 30
0.0
 11
598.384120353465
 21
274.134830881977
 31
0.0
  0
LINE
  5
4AC7
330
1A
100
AcDbEntity
  8
寸法線
 48
10.0
100
AcDbLine
 10
567.229561258363
 20
258.734830881977
 30
0.0
 11
598.384120353465
 21
258.734830881977
 31
0.0
  0
MTEXT
  5
4AC8
102
{ACAD_XDICTIONARY
360
4AC9
102
}
330
1A
100
AcDbEntity
  8
寸法線
 48
10.0
100
AcDbMText
 10
753.676758480532
 20
362.211221154612
 30
0.0
 40
8.0
 41
19.77375149039
 71
     1
 72
     5
  1
台数
1001
ACADANNOTATIVE
1000
AnnotativeData
1002
{
1070
     1
1070
     0
1002
}
  0
LINE
  5
4ACD
330
1A
100
AcDbEntity
  8
寸法線
 48
10.0
100
AcDbLine
 10
697.461422924953
 20
258.734830881977
 30
0.0
 11
697.461422924953
 21
257.752556902016
 31
0.0
  0
LINE
  5
4ACE
330
1A
100
AcDbEntity
  8
寸法線
 48
10.0
100
AcDbLine
 10
567.229561258363
 20
243.30086245197
 30
0.0
 11
598.384120353465
 21
243.30086245197
 31
0.0
  0
LINE
  5
4AD0
330
1A
100
AcDbEntity
  8
寸法線
 48
10.0
100
AcDbLine
 10
567.229561258363
 20
258.734830881977
 30
0.0
 11
598.384120353465
 21
258.734830881977
 31
0.0
  0
LINE
  5
4AD2
330
1A
100
AcDbEntity
  8
寸法線
 48
10.0
100
AcDbLine
 10
598.384120353465
 20
258.734830881977
 30
0.0
 11
598.384120353465
 21
181.632925591956
 31
0.0
  0
LINE
  5
4AD3
330
1A
100
AcDbEntity
  8
寸法線
 48
10.0
100
AcDbLine
 10
664.590091827783
 20
258.734830881977
 30
0.0
 11
664.590091827783
 21
257.752556902016
 31
0.0
  0
LINE
  5
4AD4
330
1A
100
AcDbEntity
  8
寸法線
 48
10.0
100
AcDbLine
 10
664.590091827783
 20
258.734830881977
 30
0.0
 11
664.590091827783
 21
257.752556902016
 31
0.0
  0
LINE
  5
4AD7
330
1A
100
AcDbEntity
  8
寸法線
 48
10.0
100
AcDbLine
 10
567.229561258363
 20
227.866894021963
 30
0.0
 11
598.384120353465
 21
227.866894021963
 31
0.0
  0
MTEXT
  5
4AD8
102
{ACAD_XDICTIONARY
360
4AD9
102
}
330
1A
100
AcDbEntity
  8
寸法線
 48
10.0
100
AcDbMText
 10
681.025757376368
 20
254.651499636538
 30
0.0
 40
8.0
 41
32.87133109717
 71
     2
 72
     5
  1
1600\P1700\P1800\P1900\P2000
1001
ACADANNOTATIVE
1000
AnnotativeData
1002
{
1070
     1
1070
     0
1002
}
1001
ACAD
1000
MTEXTBEGIN
1070
    44
1040
1.1475
1000
MTEXTEND
  0
LINE
  5
4ADC
330
1A
100
AcDbEntity
  8
寸法線
 48
10.0
100
AcDbLine
 10
567.229561258363
 20
212.432925591956
 30
0.0
 11
598.384120353465
 21
212.432925591956
 31
0.0
  0
LINE
  5
4ADD
330
1A
100
AcDbEntity
  8
寸法線
 48
10.0
100
AcDbLine
 10
664.590091827783
 20
243.30086245197
 30
0.0
 11
777.461422924953
 21
243.30086245197
 31
0.0
  0
LINE
  5
4ADE
330
1A
100
AcDbEntity
  8
寸法線
 48
10.0
100
AcDbLine
 10
664.590091827783
 20
227.866894021963
 30
0.0
 11
777.461422924953
 21
227.866894021963
 31
0.0
  0
LINE
  5
4ADF
330
1A
100
AcDbEntity
  8
寸法線
 48
10.0
100
AcDbLine
 10
664.590091827783
 20
258.734830881977
 30
0.0
 11
777.461422924953
 21
258.734830881977
 31
0.0
  0
LINE
  5
4AE0
330
1A
100
AcDbEntity
  8
寸法線
 48
10.0
100
AcDbLine
 10
664.590091827783
 20
258.734830881977
 30
0.0
 11
777.461422924953
 21
258.734830881977
 31
0.0
  0
LINE
  5
4AE1
330
1A
100
AcDbEntity
  8
寸法線
 48
10.0
100
AcDbLine
 10
664.590091827783
 20
212.432925591956
 30
0.0
 11
777.461422924953
 21
212.432925591956
 31
0.0
  0
LINE
  5
4AE6
330
1A
100
AcDbEntity
  8
寸法線
 48
10.0
100
AcDbLine
 10
567.229561258363
 20
197.032925591956
 30
0.0
 11
598.384120353465
 21
197.032925591956
 31
0.0
  0
LINE
  5
4AE7
330
1A
100
AcDbEntity
  8
寸法線
 48
10.0
100
AcDbLine
 10
567.229561258363
 20
181.632925591956
 30
0.0
 11
598.384120353465
 21
181.632925591956
 31
0.0
  0
LINE
  5
4AE8
330
1A
100
AcDbEntity
  8
寸法線
 48
10.0
100
AcDbLine
 10
747.461422924953
 20
365.437762239854
 30
0.0
 11
747.461422924953
 21
258.734830881977
 31
0.0
  0
LINE
  5
4AE9
330
1A
100
AcDbEntity
  8
寸法線
 48
10.0
100
AcDbLine
 10
777.461422924953
 20
365.437762239854
 30
0.0
 11
777.461422924953
 21
258.734830881977
 31
0.0
  0
LINE
  5
4AEA
330
1A
100
AcDbEntity
  8
寸法線
 48
10.0
100
AcDbLine
 10
747.461422924953
 20
258.734830881977
 30
0.0
 11
747.461422924953
 21
181.632925591956
 31
0.0
  0
LINE
  5
4AEB
330
1A
100
AcDbEntity
  8
寸法線
 48
10.0
100
AcDbLine
 10
777.461422924953
 20
258.734830881977
 30
0.0
 11
777.461422924953
 21
181.632925591956
 31
0.0
  0
MTEXT
  5
4AF0
102
{ACAD_XDICTIONARY
360
4AF1
102
}
330
1A
100
AcDbEntity
  8
寸法線
 48
10.0
100
AcDbMText
 10
714.539211583877
 20
362.369383975444
 30
0.0
 40
8.0
 41
19.77375149039
 71
     1
 72
     5
  1
記事
1001
ACADANNOTATIVE
1000
AnnotativeData
1002
{
1070
     1
1070
     0
1002
}
  0
LINE
  5
4AF8
330
1A
100
AcDbEntity
  8
寸法線
 48
10.0
100
AcDbLine
 10
664.590091827783
 20
289.534830881977
 30
0.0
 11
777.461422924953
 21
289.534830881977
 31
0.0
  0
LINE
  5
4AF9
330
1A
100
AcDbEntity
  8
寸法線
 48
10.0
100
AcDbLine
 10
664.590091827783
 20
274.134830881977
 30
0.0
 11
777.461422924953
 21
274.134830881977
 31
0.0
  0
MTEXT
  5
4AFA
102
{ACAD_XDICTIONARY
360
4AFB
102
}
330
1A
100
AcDbEntity
  8
寸法線
 48
10.0
100
AcDbMText
 10
631.361565453717
 20
258.243693891997
 30
0.0
 40
8.0
 41
66.205971474317
 71
     5
 72
     5
  1
RKK-502-1
1001
ACADANNOTATIVE
1000
AnnotativeData
1002
{
1070
     1
1070
     0
1002
}
1001
ACAD
1000
MTEXTBEGIN
1070
    44
1040
1.1475
1000
MTEXTEND
  0
LINE
  5
4AFE
330
1A
100
AcDbEntity
  8
寸法線
 48
10.0
100
AcDbLine
 10
598.384120353465
 20
181.632925591956
 30
0.0
 11
777.461422924953
 21
181.632925591956
 31
0.0
  0
LINE
  5
4AFF
330
1A
100
AcDbEntity
  8
寸法線
 48
10.0
100
AcDbLine
 10
664.590091827783
 20
197.032925591956
 30
0.0
 11
777.461422924953
 21
197.032925591956
 31
0.0
  0
LINE
  5
4D6E
330
1A
100
AcDbEntity
  8
寸法線
 48
10.0
100
AcDbLine
 10
567.229561258363
 20
258.734830881977
 30
0.0
 11
567.229561258363
 21
181.632925591956
 31
0.0
  0
LINE
  5
4D6F
330
1A
100
AcDbEntity
  8
寸法線
 48
10.0
100
AcDbLine
 10
697.461422924953
 20
258.734830881977
 30
0.0
 11
697.461422924953
 21
181.632925591956
 31
0.0
  0
LINE
  5
4D70
330
1A
100
AcDbEntity
  8
寸法線
 48
10.0
100
AcDbLine
 10
664.590091827783
 20
258.734830881977
 30
0.0
 11
664.590091827783
 21
181.632925591956
 31
0.0
  0
LINE
  5
4D71
330
1A
100
AcDbEntity
  8
寸法線
 48
10.0
100
AcDbLine
 10
664.590091827783
 20
258.734830881977
 30
0.0
 11
664.590091827783
 21
181.632925591956
 31
0.0
  0
LINE
  5
4D72
330
1A
100
AcDbEntity
  8
寸法線
 48
10.0
100
AcDbLine
 10
567.229561258363
 20
258.734830881977
 30
0.0
 11
567.229561258363
 21
181.632925591956
 31
0.0
  0
LINE
  5
4D73
330
1A
100
AcDbEntity
  8
寸法線
 48
10.0
100
AcDbLine
 10
664.590091827783
 20
258.734830881977
 30
0.0
 11
777.461422924953
 21
258.734830881977
 31
0.0
  0
LINE
  5
4D75
330
1A
100
AcDbEntity
  8
寸法線
 48
10.0
100
AcDbLine
 10
664.590091827783
 20
304.934830881977
 30
0.0
 11
777.461422924953
 21
304.934830881977
 31
0.0
  0
LINE
  5
51DC
330
1A
100
AcDbEntity
  8
外形線
100
AcDbLine
 10
514.580550120091
 20
518.888956476994
 30
0.0
 11
511.585592136897
 21
513.398200174472
 31
0.0
  0
LINE
  5
51DD
330
1A
100
AcDbEntity
  8
外形線
100
AcDbLine
 10
513.659788950929
 20
505.609900285633
 30
0.0
 11
523.894918615875
 21
505.609900285633
 31
0.0
  0
ARC
  5
51DE
330
1A
100
AcDbEntity
  8
外形線
100
AcDbCircle
 10
568.871866338817
 20
492.330844094271
 30
0.0
 40
56.78650211819261
100
AcDbArc
 50
166.476641055109
 51
193.523358944891
  0
LINE
  5
51DF
330
1A
100
AcDbEntity
  8
外形線
100
AcDbLine
 10
514.580550120091
 20
465.772731711548
 30
0.0
 11
511.585592136897
 21
471.26348801407
 31
0.0
  0
ARC
  5
51E0
330
1A
100
AcDbEntity
  8
外形線
100
AcDbCircle
 10
522.744020268707
 20
473.209674470776
 30
0.0
 40
10.80062720349224
100
AcDbArc
 50
147.25473150955
 51
201.956277655798
  0
ARC
  5
51E1
330
1A
100
AcDbEntity
  8
外形線
100
AcDbCircle
 10
468.682841227987
 20
492.330844094271
 30
0.0
 40
56.78650211819261
100
AcDbArc
 50
346.476641055109
 51
13.523358944891
  0
LINE
  5
51E2
330
1A
100
AcDbEntity
  8
外形線
100
AcDbLine
 10
513.659788950929
 20
479.05178790291
 30
0.0
 11
523.894918615875
 21
479.05178790291
 31
0.0
  0
LINE
  5
51E3
330
1A
100
AcDbEntity
  8
外形線
100
AcDbLine
 10
522.974157446713
 20
518.888956476994
 30
0.0
 11
514.580550120089
 21
518.888956476994
 31
0.0
  0
LINE
  5
51E4
330
1A
100
AcDbEntity
  8
外形線
100
AcDbLine
 10
525.969115429907
 20
513.398200174472
 30
0.0
 11
522.974157446713
 21
518.888956476994
 31
0.0
  0
LINE
  5
51E5
330
1A
100
AcDbEntity
  8
外形線
100
AcDbLine
 10
522.974157446713
 20
465.772731711548
 30
0.0
 11
525.969115429907
 21
471.26348801407
 31
0.0
  0
LINE
  5
51E6
330
1A
100
AcDbEntity
  8
外形線
100
AcDbLine
 10
522.974157446713
 20
465.772731711548
 30
0.0
 11
514.580550120091
 21
465.772731711548
 31
0.0
  0
ARC
  5
51E7
330
1A
100
AcDbEntity
  8
外形線
100
AcDbCircle
 10
522.744020268707
 20
511.452013717766
 30
0.0
 40
10.80062720349224
100
AcDbArc
 50
158.043722344201
 51
212.74526849045
  0
ARC
  5
51E8
330
1A
100
AcDbEntity
  8
外形線
100
AcDbCircle
 10
514.810687298097
 20
511.452013717766
 30
0.0
 40
10.80062720349224
100
AcDbArc
 50
327.25473150955
 51
21.956277655792
  0
ARC
  5
51E9
330
1A
100
AcDbEntity
  8
外形線
100
AcDbCircle
 10
514.810687298097
 20
473.209674470776
 30
0.0
 40
10.80062720349224
100
AcDbArc
 50
338.04372234421
 51
32.74526849045
  0
LINE
  5
51EA
330
1A
100
AcDbEntity
  8
外形線
 48
10.0
100
AcDbLine
 10
511.585592136897
 20
513.398200174472
 30
0.0
 11
511.585592136897
 21
471.26348801407
 31
0.0
  0
VIEWPORT
  5
2902
330
28FB
100
AcDbEntity
 67
     1
  8
0
 48
10.0
100
AcDbViewport
 10
0.0
 20
0.0
 30
0.0
 40
552.319156214367
 41
300.3
 68
     1
 69
     1
1001
ACAD
1000
MVIEW
1002
{
1070
    16
1010
0.0
1020
0.0
1030
0.0
1010
0.0
1020
0.0
1030
1.0
1040
0.0
1040
300.3
1040
205.756503333333
1040
143.551503333333
1040
50.0
1040
0.0
1040
0.0
1070
    16
1070
   100
1070
     0
1070
     1
1070
     0
1070
     0
1070
     0
1070
     0
1040
0.0
1040
0.0
1040
0.0
1040
10.0
1040
10.0
1040
10.0
1040
10.0
1070
     0
1002
{
1002
}
1002
}
  0
VIEWPORT
  5
2904
330
28FB
100
AcDbEntity
 67
     1
  8
図枠太線
 48
10.0
100
AcDbViewport
 10
204.746305129083
 20
161.396645458131
 30
0.0
 40
400.0
 41
240.0
 68
     2
 69
     2
1001
ACAD
1000
MVIEW
1002
{
1070
    16
1010
0.0
1020
0.0
1030
0.0
1010
0.0
1020
0.0
1030
1.0
1040
0.0
1040
480.0
1040
395.922844120213
1040
378.12921035844
1040
50.0
1040
0.0
1040
0.0
1070
    16
1070
   100
1070
     0
1070
     0
1070
     0
1070
     0
1070
     0
1070
     0
1040
0.0
1040
0.0
1040
0.0
1040
1.0
1040
1.0
1040
0.0
1040
0.0
1070
     0
1002
{
1002
}
1002
}
  0
INSERT
  5
2A59
330
28FB
100
AcDbEntity
 67
     1
  8
図枠太線
100
AcDbBlockReference
  2
A3横用_タイトル
 10
-0.352109406709
 20
-2.129314295396
 30
0.0
  0
MTEXT
  5
2FE3
330
28FB
100
AcDbEntity
 67
     1
  8
寸法線
 48
10.0
100
AcDbMText
 10
149.281561913196
 20
13.738838105692
 30
0.0
 40
7.0
 41
10.579051054442
 71
     1
 72
     5
  1
1:2
  0
MTEXT
  5
2FE7
102
{ACAD_XDICTIONARY
360
546A
102
}
330
28FB
100
AcDbEntity
 67
     1
  8
寸法線
 48
10.0
100
AcDbMText
 10
310.820088207327
 20
33.538456506654
 30
0.0
 40
6.0
 41
50.444470326786
 71
     1
 72
     5
  1
RKK-5□□-1
1001
ACADANNOTATIVE
1000
AnnotativeData
1002
{
1070
     1
1070
     0
1002
}
  0
MTEXT
  5
2FE8
330
28FB
100
AcDbEntity
 67
     1
  8
寸法線
 48
10.0
100
AcDbMText
 10
363.257693177112
 20
37.807266065601
 30
0.0
 40
6.0
 41
50.761524795071
 71
     1
 72
     5
  1
{\H0.8333x;振動式\Pレベルスイッチ}
  0
MTEXT
  5
3100
330
28FB
100
AcDbEntity
 67
     1
  8
寸法線
 48
10.0
100
AcDbMText
 10
140.602583929626
 20
50.696653557005
 30
0.0
 40
5.0
 41
58.550841599714
 71
     1
 72
     5
  1
A3縮小図
  0
LINE
  5
3101
330
28FB
100
AcDbEntity
 67
     1
  8
寸法線
 48
10.0
100
AcDbLine
 10
140.602583929626
 20
44.82493422937
 30
0.0
 11
165.145813876831
 21
44.82493422937
 31
0.0
  0
MTEXT
  5
36BA
330
28FB
100
AcDbEntity
 67
     1
  8
寸法線
 48
10.0
100
AcDbMText
 10
373.753857416705
 20
50.416964775703
 30
0.0
 40
5.0
 41
58.550841599714
 71
     1
 72
     5
  1
台数   台
  0
MTEXT
  5
44A8
102
{ACAD_XDICTIONARY
360
4C62
102
}
330
28FB
100
AcDbEntity
 67
     1
  8
寸法線
 48
10.0
100
AcDbMText
 10
339.054277101384
 20
14.152099085336
 30
0.0
 40
7.0
 41
68.56
 71
     1
 72
     5
  1
HVR-2017
1001
ACADANNOTATIVE
1000
AnnotativeData
1002
{
1070
     1
1070
     0
1002
}
  0
MTEXT
  5
4B7C
102
{ACAD_XDICTIONARY
360
4B7D
102
}
330
28FB
100
AcDbEntity
 67
     1
  8
寸法線
 48
10.0
100
AcDbMText
 10
188.046305129083
 20
31.926341542085
 30
0.0
 40
5.0
 41
33.4
 71
     2
 72
     5
  1
takahashi
1001
ACADANNOTATIVE
1000
AnnotativeData
1002
{
1070
     1
1070
     0
1002
}
  0
MTEXT
  5
4B80
102
{ACAD_XDICTIONARY
360
4B81
102
}
330
28FB
100
AcDbEntity
 67
     1
  8
寸法線
 48
10.0
100
AcDbMText
 10
175.926140975372
 20
12.58249481613
 30
0.0
 40
5.0
 41
26.317357973135
 71
     1
 72
     5
  1
2015.8.25
1001
ACADANNOTATIVE
1000
AnnotativeData
1002
{
1070
     1
1070
     0
1002
}
  0
MTEXT
  5
50FC
102
{ACAD_XDICTIONARY
360
50FD
102
}
330
28FB
100
AcDbEntity
 67
     1
  8
下書線
 48
10.0
100
AcDbMText
 10
216.674589977738
 20
78.225187814196
 30
0.0
 40
10.0
 41
174.128675272846
 71
     5
 72
     5
  1
HP掲載図面\P変更・追記不可
1001
ACADANNOTATIVE
1000
AnnotativeData
1002
{
1070
     1
1070
     0
1002
}
  0
LWPOLYLINE
  5
5100
330
28FB
100
AcDbEntity
 67
     1
  8
下書線
 48
10.0
100
AcDbPolyline
 90
        4
 70
     1
 43
0.0
 10
174.444444724167
 20
96.651792645596
 10
258.278608487922
 20
96.651792645596
 10
258.278608487922
 20
59.529653709616
 10
174.444444724167
 20
59.529653709616
  0
MTEXT
  5
5577
102
{ACAD_XDICTIONARY
360
5578
102
}
330
28FB
100
AcDbEntity
 67
     1
  8
寸法線
 48
10.0
100
AcDbMText
 10
154.696305129083
 20
29.396646458131
 30
0.0
 40
4.5
 41
29.906507692735
 71
     5
 72
     5
  1
tahara
1001
ACADANNOTATIVE
1000
AnnotativeData
1002
{
1070
     1
1070
     0
1002
}
  0
MTEXT
  5
557B
102
{ACAD_XDICTIONARY
360
557C
102
}
330
28FB
100
AcDbEntity
 67
     1
  8
寸法線
 48
10.0
100
AcDbMText
 10
121.396304528483
 20
29.396646458131
 30
0.0
 40
4.5
 41
16.097226867587
 71
     5
 72
     5
  1
konishi
1001
ACADANNOTATIVE
1000
AnnotativeData
1002
{
1070
     1
1070
     0
1002
}
  0
ENDSEC
  0
SECTION
  2
OBJECTS
  0
DICTIONARY
  5
C
330
0
100
AcDbDictionary
  3
ACAD_COLOR
350
2948
  3
ACAD_GROUP
350
D
  3
ACAD_LAYOUT
350
2816
  3
ACAD_MATERIAL
350
2947
  3
ACAD_MLEADERSTYLE
350
499E
  3
ACAD_MLINESTYLE
350
E
  3
ACAD_PLOTSETTINGS
350
2817
  3
ACAD_SCALELIST
350
4977
  3
ACAD_VISUALSTYLE
350
495E
  3
ACADDIM
350
36CC
  3
ACDBHEADERROUNDTRIPXREC
350
55E9
  3
ACDBVARIABLEDICTIONARY
350
4BB0
  3
DWGPROPS
350
560E
  0
DICTIONARY
  5
560F
330
8
100
AcDbDictionary
280
     1
  3
ACAD_XREC_ROUNDTRIP
360
5610
  0
DICTIONARY
  5
29EA
330
2
100
AcDbDictionary
280
     1
  3
ACAD_LAYERFILTERS
360
2B0C
  3
ACAD_LAYERSTATES
360
29EB
  0
DICTIONARY
  5
519E
330
30F2
100
AcDbDictionary
280
     1
  3
ACDBCONTEXTDATAMANAGER
360
519F
  0
DICTIONARY
  5
4F88
330
30F9
100
AcDbDictionary
280
     1
  3
ACDBCONTEXTDATAMANAGER
360
4F89
  0
DICTIONARY
  5
5329
330
471A
100
AcDbDictionary
280
     1
  3
ACDBCONTEXTDATAMANAGER
360
532A
  0
DICTIONARY
  5
4A1A
330
4A19
100
AcDbDictionary
280
     1
  3
ACDBCONTEXTDATAMANAGER
360
4A1B
  0
DICTIONARY
  5
4AAA
330
4AA9
100
AcDbDictionary
280
     1
  3
ACDBCONTEXTDATAMANAGER
360
4AAB
  0
DICTIONARY
  5
4AB8
330
4AB7
100
AcDbDictionary
280
     1
  3
ACDBCONTEXTDATAMANAGER
360
4AB9
  0
DICTIONARY
  5
4AC2
330
4AC1
100
AcDbDictionary
280
     1
  3
ACDBCONTEXTDATAMANAGER
360
4AC3
  0
DICTIONARY
  5
4AC9
330
4AC8
100
AcDbDictionary
280
     1
  3
ACDBCONTEXTDATAMANAGER
360
4ACA
  0
DICTIONARY
  5
4AD9
330
4AD8
100
AcDbDictionary
280
     1
  3
ACDBCONTEXTDATAMANAGER
360
4ADA
  0
DICTIONARY
  5
4AF1
330
4AF0
100
AcDbDictionary
280
     1
  3
ACDBCONTEXTDATAMANAGER
360
4AF2
  0
DICTIONARY
  5
4AFB
330
4AFA
100
AcDbDictionary
280
     1
  3
ACDBCONTEXTDATAMANAGER
360
4AFC
  0
DICTIONARY
  5
546A
330
2FE7
100
AcDbDictionary
280
     1
  3
ACDBCONTEXTDATAMANAGER
360
546B
  0
DICTIONARY
  5
4C62
330
44A8
100
AcDbDictionary
280
     1
  3
ACDBCONTEXTDATAMANAGER
360
4C63
  0
DICTIONARY
  5
4B7D
330
4B7C
100
AcDbDictionary
280
     1
  3
ACDBCONTEXTDATAMANAGER
360
4B7E
  0
DICTIONARY
  5
4B81
330
4B80
100
AcDbDictionary
280
     1
  3
ACDBCONTEXTDATAMANAGER
360
4B82
  0
DICTIONARY
  5
50FD
330
50FC
100
AcDbDictionary
280
     1
  3
ACDBCONTEXTDATAMANAGER
360
50FE
  0
DICTIONARY
  5
5578
330
5577
100
AcDbDictionary
280
     1
  3
ACDBCONTEXTDATAMANAGER
360
5579
  0
DICTIONARY
  5
557C
330
557B
100
AcDbDictionary
280
     1
  3
ACDBCONTEXTDATAMANAGER
360
557D
  0
DICTIONARY
  5
2948
102
{ACAD_REACTORS
330
C
102
}
330
C
100
AcDbDictionary
  0
DICTIONARY
  5
D
102
{ACAD_REACTORS
330
C
102
}
330
C
100
AcDbDictionary
  0
DICTIONARY
  5
2816
102
{ACAD_REACTORS
330
C
102
}
330
C
100
AcDbDictionary
  0
DICTIONARY
  5
2947
102
{ACAD_REACTORS
330
C
102
}
330
C
100
AcDbDictionary
  3
BYBLOCK
350
499A
  3
BYLAYER
350
4999
  3
GLOBAL
350
499B
  0
DICTIONARY
  5
499E
102
{ACAD_REACTORS
330
C
102
}
330
C
100
AcDbDictionary
  3
STANDARD
350
499F
  0
DICTIONARY
  5
E
102
{ACAD_REACTORS
330
C
102
}
330
C
100
AcDbDictionary
  3
STANDARD
350
13
  0
DICTIONARY
  5
2817
102
{ACAD_REACTORS
330
C
102
}
330
C
100
AcDbDictionary
  0
DICTIONARY
  5
4977
102
{ACAD_REACTORS
330
C
102
}
330
C
100
AcDbDictionary
  3
A0
350
4978
  3
A1
350
4979
  3
A2
350
497A
  3
A3
350
497B
  3
A4
350
497C
  3
A5
350
497D
  3
A6
350
497E
  3
A7
350
497F
  3
A8
350
4980
  3
A9
350
4981
  3
B0
350
4982
  3
B1
350
4983
  3
B2
350
4984
  3
B3
350
4985
  3
B4
350
4986
  3
B5
350
4987
  3
B6
350
4988
  3
B7
350
4989
  3
B8
350
498A
  3
B9
350
498B
  3
C0
350
498C
  3
C1
350
498D
  3
C2
350
498E
  3
C3
350
498F
  3
C4
350
4990
  3
C5
350
4991
  3
C6
350
4992
  3
C7
350
4993
  3
C8
350
4994
  3
C9
350
4995
  3
D0
350
4996
  3
D1
350
4997
  3
D2
350
4998
  0
DICTIONARY
  5
495E
102
{ACAD_REACTORS
330
C
102
}
330
C
100
AcDbDictionary
  3
2DWIREFRAME
350
4963
  3
BASIC
350
4966
  3
BRIGHTEN
350
496A
  3
COLORCHANGE
350
496E
  3
CONCEPTUAL
350
4968
  3
DIM
350
4969
  3
EDGECOLOROFF
350
4971
  3
FACEPATTERN
350
496D
  3
FLAT
350
495F
  3
FLATWITHEDGES
350
4960
  3
GOURAUD
350
4961
  3
GOURAUDWITHEDGES
350
4962
  3
HIDDEN
350
4965
  3
JITTEROFF
350
496F
  3
LINEPATTERN
350
496C
  3
MODELING
350
49A0
  3
OVERHANGOFF
350
4970
  3
REALISTIC
350
4967
  3
SHADED
350
4976
  3
SHADED_WITH_EDGES
350
4975
  3
SHADES_OF_GRAY
350
4972
  3
SKETCHY
350
4973
  3
THICKEN
350
496B
  3
WIREFRAME
350
4964
  3
X-RAY
350
4974
  0
XRECORD
  5
36CC
102
{ACAD_REACTORS
330
C
102
}
330
C
100
AcDbXrecord
 90
   990106
  3

 60
     0
 61
     0
 62
     1
 63
     3
 64
     0
 65
     0
 66
     0
 67
     3
 68
     1
 69
     0
 70
     0
 71
     0
 72
     0
 40
0.0
170
     0
  0
DICTIONARY
  5
55E9
102
{ACAD_REACTORS
330
C
102
}
330
C
100
AcDbDictionary
  3
CEPSNID
350
55F3
  3
CEPSNTYPE
350
55F2
  3
COLORDICT
350
560C
  3
DIMSTYLEDATA
350
5609
  3
FINGERPRINTGUID
350
55F4
  3
HYPERLINKBASE
350
55EC
  3
INSUNITS
350
55F1
  3
LAYOUTDICT
350
55EE
  3
LWETCUNION
350
55F0
  3
MATERIALDICT
350
560D
  3
PLOTSETDICT
350
55EF
  3
PSVPSCALE
350
55F6
  3
PUCSBASE
350
55F9
  3
PUCSORGBACK
350
55FF
  3
PUCSORGBOTTOM
350
55FB
  3
PUCSORGFRONT
350
55FE
  3
PUCSORGLEFT
350
55FC
  3
PUCSORGRIGHT
350
55FD
  3
PUCSORGTOP
350
55FA
  3
PUCSORTHOREF
350
55F7
  3
PUCSORTHOVIEW
350
55F8
  3
STYLESHEET
350
55ED
  3
TSTACKALIGN
350
55EA
  3
TSTACKSIZE
350
55EB
  3
UCSBASE
350
5602
  3
UCSORGBACK
350
5608
  3
UCSORGBOTTOM
350
5604
  3
UCSORGFRONT
350
5607
  3
UCSORGLEFT
350
5605
  3
UCSORGRIGHT
350
5606
  3
UCSORGTOP
350
5603
  3
UCSORTHOREF
350
5600
  3
UCSORTHOVIEW
350
5601
  3
VERSIONGUID
350
55F5
  0
DICTIONARY
  5
4BB0
102
{ACAD_REACTORS
330
C
102
}
330
C
100
AcDbDictionary
  3
CANNOSCALE
350
4BB1
  3
CMLEADERSTYLE
350
4BF2
  3
CTABLESTYLE
350
4BF1
  3
DIMASSOC
350
560A
  3
HIDETEXT
350
560B
  3
MSLTSCALE
350
4BF3
  3
XCLIPFRAME
350
4BF4
  0
XRECORD
  5
560E
102
{ACAD_REACTORS
330
C
102
}
330
C
100
AcDbXrecord
  1
DWGPROPS COOKIE
  2

  3

  4

  6

  7

  8
takahashi
  9

300
=
301
=
302
=
303
=
304
=
305
=
306
=
307
=
308
=
309
=
 40
0.0
 41
2450576.222302431
 42
2457269.004671586
  1

 90
        0
  0
XRECORD
  5
5610
102
{ACAD_REACTORS
330
560F
102
}
330
560F
100
AcDbXrecord
102
VTR_0.000_0.000_1.000_1.000_VISUALSTYLE
340
4963
102
VTR_0.000_0.000_1.000_1.000_GRIDDISPLAY
 70
     3
102
VTR_0.000_0.000_1.000_1.000_GRIDMAJOR
 70
     5
102
VTR_0.000_0.000_1.000_1.000_DEFAULTLIGHTING
280
     1
102
VTR_0.000_0.000_1.000_1.000_DEFAULTLIGHTINGTYPE
 70
     1
102
VTR_0.000_0.000_1.000_1.000_BRIGHTNESS
141
0.0
102
VTR_0.000_0.000_1.000_1.000_CONTRAST
142
0.0
  0
DICTIONARY
  5
2B0C
102
{ACAD_REACTORS
330
29EA
102
}
330
29EA
100
AcDbDictionary
  0
DICTIONARY
  5
29EB
102
{ACAD_REACTORS
330
29EA
102
}
330
29EA
100
AcDbDictionary
  0
DICTIONARY
  5
519F
102
{ACAD_REACTORS
330
519E
102
}
330
519E
100
AcDbDictionary
  3
ACDB_ANNOTATIONSCALES
350
51A0
  0
DICTIONARY
  5
4F89
102
{ACAD_REACTORS
330
4F88
102
}
330
4F88
100
AcDbDictionary
  3
ACDB_ANNOTATIONSCALES
350
4F8A
  0
DICTIONARY
  5
532A
102
{ACAD_REACTORS
330
5329
102
}
330
5329
100
AcDbDictionary
  3
ACDB_ANNOTATIONSCALES
350
532B
  0
DICTIONARY
  5
4A1B
102
{ACAD_REACTORS
330
4A1A
102
}
330
4A1A
100
AcDbDictionary
  3
ACDB_ANNOTATIONSCALES
350
4A1C
  0
DICTIONARY
  5
4AAB
102
{ACAD_REACTORS
330
4AAA
102
}
330
4AAA
100
AcDbDictionary
  3
ACDB_ANNOTATIONSCALES
350
4AAC
  0
DICTIONARY
  5
4AB9
102
{ACAD_REACTORS
330
4AB8
102
}
330
4AB8
100
AcDbDictionary
  3
ACDB_ANNOTATIONSCALES
350
4ABA
  0
DICTIONARY
  5
4AC3
102
{ACAD_REACTORS
330
4AC2
102
}
330
4AC2
100
AcDbDictionary
  3
ACDB_ANNOTATIONSCALES
350
4AC4
  0
DICTIONARY
  5
4ACA
102
{ACAD_REACTORS
330
4AC9
102
}
330
4AC9
100
AcDbDictionary
  3
ACDB_ANNOTATIONSCALES
350
4ACB
  0
DICTIONARY
  5
4ADA
102
{ACAD_REACTORS
330
4AD9
102
}
330
4AD9
100
AcDbDictionary
  3
ACDB_ANNOTATIONSCALES
350
4ADB
  0
DICTIONARY
  5
4AF2
102
{ACAD_REACTORS
330
4AF1
102
}
330
4AF1
100
AcDbDictionary
  3
ACDB_ANNOTATIONSCALES
350
4AF3
  0
DICTIONARY
  5
4AFC
102
{ACAD_REACTORS
330
4AFB
102
}
330
4AFB
100
AcDbDictionary
  3
ACDB_ANNOTATIONSCALES
350
4AFD
  0
DICTIONARY
  5
546B
102
{ACAD_REACTORS
330
546A
102
}
330
546A
100
AcDbDictionary
  3
ACDB_ANNOTATIONSCALES
350
546C
  0
DICTIONARY
  5
4C63
102
{ACAD_REACTORS
330
4C62
102
}
330
4C62
100
AcDbDictionary
  3
ACDB_ANNOTATIONSCALES
350
4C64
  0
DICTIONARY
  5
4B7E
102
{ACAD_REACTORS
330
4B7D
102
}
330
4B7D
100
AcDbDictionary
  3
ACDB_ANNOTATIONSCALES
350
4B7F
  0
DICTIONARY
  5
4B82
102
{ACAD_REACTORS
330
4B81
102
}
330
4B81
100
AcDbDictionary
  3
ACDB_ANNOTATIONSCALES
350
4B83
  0
DICTIONARY
  5
50FE
102
{ACAD_REACTORS
330
50FD
102
}
330
50FD
100
AcDbDictionary
  3
ACDB_ANNOTATIONSCALES
350
50FF
  0
DICTIONARY
  5
5579
102
{ACAD_REACTORS
330
5578
102
}
330
5578
100
AcDbDictionary
  3
ACDB_ANNOTATIONSCALES
350
557A
  0
DICTIONARY
  5
557D
102
{ACAD_REACTORS
330
557C
102
}
330
557C
100
AcDbDictionary
  3
ACDB_ANNOTATIONSCALES
350
557E
  0
MATERIAL
  5
499A
102
{ACAD_REACTORS
330
2947
102
}
102
{ACAD_XDICTIONARY
360
5613
102
}
330
2947
100
AcDbMaterial
  1
BYBLOCK
  0
MATERIAL
  5
4999
102
{ACAD_REACTORS
330
2947
102
}
102
{ACAD_XDICTIONARY
360
5611
102
}
330
2947
100
AcDbMaterial
  1
BYLAYER
  0
MATERIAL
  5
499B
102
{ACAD_REACTORS
330
2947
102
}
102
{ACAD_XDICTIONARY
360
5615
102
}
330
2947
100
AcDbMaterial
  1
GLOBAL
  0
ACAD_PROXY_OBJECT
  5
499F
102
{ACAD_REACTORS
330
499E
102
}
330
499E
100
AcDbProxyObject
 90
      499
 91
      507
 93
      610
310
40901902A4063FBFFFFFE0000000000000020400000000000020404214DD185B99185C990000000000000104090141901A00000000000004100000000000000041025764000000000000039000
340
14
340
0
340
10
340
0
 94
        0
1001
ACAD_MLEADERVER
1070
     2
  0
MLINESTYLE
  5
13
102
{ACAD_REACTORS
330
E
102
}
330
E
100
AcDbMlineStyle
  2
STANDARD
 70
     0
  3

 62
     0
 51
90.0
 52
90.0
 71
     2
 49
0.5
 62
   256
  6
BYLAYER
 49
-0.5
 62
   256
  6
BYLAYER
  0
ACAD_PROXY_OBJECT
  5
4978
102
{ACAD_REACTORS
330
4977
102
}
330
4977
100
AcDbProxyObject
 90
      499
 91
      504
 93
       41
310
903313A31580
  0
ACAD_PROXY_OBJECT
  5
4979
102
{ACAD_REACTORS
330
4977
102
}
330
4977
100
AcDbProxyObject
 90
      499
 91
      504
 93
      105
310
903313A324000000000000004000
  0
ACAD_PROXY_OBJECT
  5
497A
102
{ACAD_REACTORS
330
4977
102
}
330
4977
100
AcDbProxyObject
 90
      499
 91
      504
 93
      105
310
903313A344000000000000104000
  0
ACAD_PROXY_OBJECT
  5
497B
102
{ACAD_REACTORS
330
4977
102
}
330
4977
100
AcDbProxyObject
 90
      499
 91
      504
 93
      105
310
903313A354000000000000144000
  0
ACAD_PROXY_OBJECT
  5
497C
102
{ACAD_REACTORS
330
4977
102
}
330
4977
100
AcDbProxyObject
 90
      499
 91
      504
 93
      105
310
903313A384000000000000204000
  0
ACAD_PROXY_OBJECT
  5
497D
102
{ACAD_REACTORS
330
4977
102
}
330
4977
100
AcDbProxyObject
 90
      499
 91
      504
 93
      113
310
904313A31304000000000000244000
  0
ACAD_PROXY_OBJECT
  5
497E
102
{ACAD_REACTORS
330
4977
102
}
330
4977
100
AcDbProxyObject
 90
      499
 91
      504
 93
      113
310
904313A31364000000000000304000
  0
ACAD_PROXY_OBJECT
  5
497F
102
{ACAD_REACTORS
330
4977
102
}
330
4977
100
AcDbProxyObject
 90
      499
 91
      504
 93
      113
310
904313A32304000000000000344000
  0
ACAD_PROXY_OBJECT
  5
4980
102
{ACAD_REACTORS
330
4977
102
}
330
4977
100
AcDbProxyObject
 90
      499
 91
      504
 93
      113
310
904313A333040000000000003E4000
  0
ACAD_PROXY_OBJECT
  5
4981
102
{ACAD_REACTORS
330
4977
102
}
330
4977
100
AcDbProxyObject
 90
      499
 91
      504
 93
      113
310
904313A34304000000000000444000
  0
ACAD_PROXY_OBJECT
  5
4982
102
{ACAD_REACTORS
330
4977
102
}
330
4977
100
AcDbProxyObject
 90
      499
 91
      504
 93
      113
310
904313A35304000000000000494000
  0
ACAD_PROXY_OBJECT
  5
4983
102
{ACAD_REACTORS
330
4977
102
}
330
4977
100
AcDbProxyObject
 90
      499
 91
      504
 93
      121
310
905313A3130304000000000000594000
  0
ACAD_PROXY_OBJECT
  5
4984
102
{ACAD_REACTORS
330
4977
102
}
330
4977
100
AcDbProxyObject
 90
      499
 91
      504
 93
      105
310
903323A310000000000000010100
  0
ACAD_PROXY_OBJECT
  5
4985
102
{ACAD_REACTORS
330
4977
102
}
330
4977
100
AcDbProxyObject
 90
      499
 91
      504
 93
      105
310
903343A310000000000000410100
  0
ACAD_PROXY_OBJECT
  5
4986
102
{ACAD_REACTORS
330
4977
102
}
330
4977
100
AcDbProxyObject
 90
      499
 91
      504
 93
      105
310
903383A310000000000000810100
  0
ACAD_PROXY_OBJECT
  5
4987
102
{ACAD_REACTORS
330
4977
102
}
330
4977
100
AcDbProxyObject
 90
      499
 91
      504
 93
      113
310
90431303A310000000000000910100
  0
ACAD_PROXY_OBJECT
  5
4988
102
{ACAD_REACTORS
330
4977
102
}
330
4977
100
AcDbProxyObject
 90
      499
 91
      504
 93
      121
310
9053130303A310000000000001650100
  0
ACAD_PROXY_OBJECT
  5
4989
102
{ACAD_REACTORS
330
4977
102
}
330
4977
100
AcDbProxyObject
 90
      499
 91
      504
 93
      257
310
90E312F31323822203D2031272D3022000000000000200FC000000000000284000
  0
ACAD_PROXY_OBJECT
  5
498A
102
{ACAD_REACTORS
330
4977
102
}
330
4977
100
AcDbProxyObject
 90
      499
 91
      504
 93
      249
310
90D312F363422203D2031272D3022000000000000240FC000000000000284000
  0
ACAD_PROXY_OBJECT
  5
498B
102
{ACAD_REACTORS
330
4977
102
}
330
4977
100
AcDbProxyObject
 90
      499
 91
      504
 93
      249
310
90D312F333222203D2031272D3022000000000000280FC000000000000284000
  0
ACAD_PROXY_OBJECT
  5
498C
102
{ACAD_REACTORS
330
4977
102
}
330
4977
100
AcDbProxyObject
 90
      499
 91
      504
 93
      249
310
90D312F313622203D2031272D30220000000000002C0FC000000000000284000
  0
ACAD_PROXY_OBJECT
  5
498D
102
{ACAD_REACTORS
330
4977
102
}
330
4977
100
AcDbProxyObject
 90
      499
 91
      504
 93
      249
310
90D332F333222203D2031272D30220000000000002E0FC000000000000284000
  0
ACAD_PROXY_OBJECT
  5
498E
102
{ACAD_REACTORS
330
4977
102
}
330
4977
100
AcDbProxyObject
 90
      499
 91
      504
 93
      241
310
90C312F3822203D2031272D3022000000000000300FC000000000000284000
  0
ACAD_PROXY_OBJECT
  5
498F
102
{ACAD_REACTORS
330
4977
102
}
330
4977
100
AcDbProxyObject
 90
      499
 91
      504
 93
      249
310
90D332F313622203D2031272D3022000000000000320FC000000000000284000
  0
ACAD_PROXY_OBJECT
  5
4990
102
{ACAD_REACTORS
330
4977
102
}
330
4977
100
AcDbProxyObject
 90
      499
 91
      504
 93
      241
310
90C312F3422203D2031272D3022000000000000340FC000000000000284000
  0
ACAD_PROXY_OBJECT
  5
4991
102
{ACAD_REACTORS
330
4977
102
}
330
4977
100
AcDbProxyObject
 90
      499
 91
      504
 93
      241
310
90C332F3822203D2031272D3022000000000000360FC000000000000284000
  0
ACAD_PROXY_OBJECT
  5
4992
102
{ACAD_REACTORS
330
4977
102
}
330
4977
100
AcDbProxyObject
 90
      499
 91
      504
 93
      241
310
90C312F3222203D2031272D3022000000000000380FC000000000000284000
  0
ACAD_PROXY_OBJECT
  5
4993
102
{ACAD_REACTORS
330
4977
102
}
330
4977
100
AcDbProxyObject
 90
      499
 91
      504
 93
      241
310
90C332F3422203D2031272D30220000000000003A0FC000000000000284000
  0
ACAD_PROXY_OBJECT
  5
4994
102
{ACAD_REACTORS
330
4977
102
}
330
4977
100
AcDbProxyObject
 90
      499
 91
      504
 93
      161
310
90A3122203D2031272D30224000000000000284000
  0
ACAD_PROXY_OBJECT
  5
4995
102
{ACAD_REACTORS
330
4977
102
}
330
4977
100
AcDbProxyObject
 90
      499
 91
      504
 93
      257
310
90E312D312F3222203D2031272D30220000000000003E0FC000000000000284000
  0
ACAD_PROXY_OBJECT
  5
4996
102
{ACAD_REACTORS
330
4977
102
}
330
4977
100
AcDbProxyObject
 90
      499
 91
      504
 93
      225
310
90A3322203D2031272D302200000000000002100000000000000284000
  0
ACAD_PROXY_OBJECT
  5
4997
102
{ACAD_REACTORS
330
4977
102
}
330
4977
100
AcDbProxyObject
 90
      499
 91
      504
 93
      225
310
90A3622203D2031272D302200000000000006100000000000000284000
  0
ACAD_PROXY_OBJECT
  5
4998
102
{ACAD_REACTORS
330
4977
102
}
330
4977
100
AcDbProxyObject
 90
      499
 91
      504
 93
      249
310
90D31272D3022203D2031272D30220000000000000A100000000000000284000
  0
ACAD_PROXY_OBJECT
  5
4963
102
{ACAD_REACTORS
330
495E
102
}
330
495E
100
AcDbProxyObject
 90
      499
 91
      503
 93
      436
310
42CC9915DA5C99599C985B595049028333333333333E33F0000000000000F90107901411070040501600405405064090741402480A0340
1001
ACAD
1000
AcDbSavedByObjectVersion
1070
     0
  0
ACAD_PROXY_OBJECT
  5
4966
102
{ACAD_REACTORS
330
495E
102
}
330
495E
100
AcDbProxyObject
 90
      499
 91
      503
 93
      388
310
4150985CDA58D07406404333333333333E33F0000000000000F90107A41107004050150841D405064090741402480A0350
1001
ACAD
1000
AcDbSavedByObjectVersion
1070
     0
  0
ACAD_PROXY_OBJECT
  5
496A
102
{ACAD_REACTORS
330
495E
102
}
330
495E
100
AcDbProxyObject
 90
      499
 91
      503
 93
      428
310
42109C9A59DA1D195B90C409028333333333333E33F0000000000000F9010790141107004050150841D405064090741402480A029950
1001
ACAD
1000
AcDbSavedByObjectVersion
1070
     0
  0
ACAD_PROXY_OBJECT
  5
496E
102
{ACAD_REACTORS
330
495E
102
}
330
495E
100
AcDbProxyObject
 90
      499
 91
      503
 93
      452
310
42D0DBDB1BDC90DA185B99D95104090240C333333333333E33F0000000000000F90108901411070040501508421405064090741402480A0350
1001
ACAD
1000
AcDbSavedByObjectVersion
1070
     0
  0
ACAD_PROXY_OBJECT
  5
4968
102
{ACAD_REACTORS
330
495E
102
}
330
495E
100
AcDbProxyObject
 90
      499
 91
      503
 93
      500
310
4290DBDB98D95C1D1D585B10940D028333333333333E33F0000000000000F90107902409070040501000000000018199010841D405064090740C02480A0340
1001
ACAD
1000
AcDbSavedByObjectVersion
1070
     0
  0
ACAD_PROXY_OBJECT
  5
4969
102
{ACAD_REACTORS
330
495E
102
}
330
495E
100
AcDbProxyObject
 90
      499
 91
      503
 93
      412
310
40D11A5B50B409028333333333333E33F0000000000000F9010790141107004050150841D405064090741402480A02677FFFFFD0
1001
ACAD
1000
AcDbSavedByObjectVersion
1070
     0
  0
ACAD_PROXY_OBJECT
  5
4971
102
{ACAD_REACTORS
330
495E
102
}
330
495E
100
AcDbProxyObject
 90
      499
 91
      503
 93
      452
310
43115919D950DBDB1BDC93D999916409028333333333333E33F0000000000000F9010790141107004050150841D405064090741402480A0350
1001
ACAD
1000
AcDbSavedByObjectVersion
1070
     0
  0
ACAD_PROXY_OBJECT
  5
496D
102
{ACAD_REACTORS
330
495E
102
}
330
495E
100
AcDbProxyObject
 90
      499
 91
      503
 93
      444
310
42D19858D95C185D1D195C9B90F409028333333333333E33F0000000000000F9010790141107004050150841D405064090741402480A0350
1001
ACAD
1000
AcDbSavedByObjectVersion
1070
     0
  0
ACAD_PROXY_OBJECT
  5
495F
102
{ACAD_REACTORS
330
495E
102
}
330
495E
100
AcDbProxyObject
 90
      499
 91
      503
 93
      380
310
41119B185D240901404333333333333E33F0000000000000F9010740A907004050150841D405064090741402480A1B50
1001
ACAD
1000
AcDbSavedByObjectVersion
1070
     0
  0
ACAD_PROXY_OBJECT
  5
4960
102
{ACAD_REACTORS
330
495E
102
}
330
495E
100
AcDbProxyObject
 90
      499
 91
      503
 93
      468
310
43519B185D15DA5D1A115919D95CD0140901404333333333333E33F0000000000000F90107409019070040501600405405064090741402480A1B50
1001
ACAD
1000
AcDbSavedByObjectVersion
1070
     0
  0
ACAD_PROXY_OBJECT
  5
4961
102
{ACAD_REACTORS
330
495E
102
}
330
495E
100
AcDbProxyObject
 90
      499
 91
      503
 93
      404
310
41D1DBDD5C985D5910240902404333333333333E33F0000000000000F9010740A9070040501641D405064090741402480A1B50
1001
ACAD
1000
AcDbSavedByObjectVersion
1070
     0
  0
ACAD_PROXY_OBJECT
  5
4962
102
{ACAD_REACTORS
330
495E
102
}
330
495E
100
AcDbProxyObject
 90
      499
 91
      503
 93
      492
310
4411DBDD5C985D5915DA5D1A115919D95CD0340902404333333333333E33F0000000000000F90107409019070040501600405405064090741402480A1B50
1001
ACAD
1000
AcDbSavedByObjectVersion
1070
     0
  0
ACAD_PROXY_OBJECT
  5
4965
102
{ACAD_REACTORS
330
495E
102
}
330
495E
100
AcDbProxyObject
 90
      499
 91
      503
 93
      476
310
41921A5919195B90640502408333333333333E33F0000000000000F901079024090700405020000000000001110200405405064090740C02480A0340
1001
ACAD
1000
AcDbSavedByObjectVersion
1070
     0
  0
ACAD_PROXY_OBJECT
  5
496F
102
{ACAD_REACTORS
330
495E
102
}
330
495E
100
AcDbProxyObject
 90
      499
 91
      503
 93
      428
310
42529A5D1D195C93D999914409028333333333333E33F0000000000000F9010790141107004050150A41D405064090741402480A0350
1001
ACAD
1000
AcDbSavedByObjectVersion
1070
     0
  0
ACAD_PROXY_OBJECT
  5
496C
102
{ACAD_REACTORS
330
495E
102
}
330
495E
100
AcDbProxyObject
 90
      499
 91
      503
 93
      444
310
42D31A5B995C185D1D195C9B90E409028333333333333E33F0000000000000F9010790141107004050750841D405064090741402483A0350
1001
ACAD
1000
AcDbSavedByObjectVersion
1070
     0
  0
ACAD_PROXY_OBJECT
  5
49A0
102
{ACAD_REACTORS
330
495E
102
}
330
495E
100
AcDbProxyObject
 90
      499
 91
      503
 93
      412
310
90A409038333333333333E33F0000000000000F901074090290700405010000000000201990108421405064090741402480A1B40
1001
ACAD
1000
AcDbSavedByObjectVersion
1070
     0
  0
ACAD_PROXY_OBJECT
  5
4970
102
{ACAD_REACTORS
330
495E
102
}
330
495E
100
AcDbProxyObject
 90
      499
 91
      503
 93
      444
310
42D3DD995C9A185B99D3D999915409028333333333333E33F0000000000000F9010790141107004050150941D405064090741402480A0350
1001
ACAD
1000
AcDbSavedByObjectVersion
1070
     0
  0
ACAD_PROXY_OBJECT
  5
4967
102
{ACAD_REACTORS
330
495E
102
}
330
495E
100
AcDbProxyObject
 90
      499
 91
      503
 93
      428
310
425499585B1A5CDD1A58D08409038333333333333E33F0000000000000F9010740A907004050150800405405064090740C02480A1B40
1001
ACAD
1000
AcDbSavedByObjectVersion
1070
     0
  0
ACAD_PROXY_OBJECT
  5
4976
102
{ACAD_REACTORS
330
495E
102
}
330
495E
100
AcDbProxyObject
 90
      499
 91
      503
 93
      420
310
4194DA1859195911B40902404333333333333E33F0000000000000F9010740A41107004050150800405405064090840C02480A0B40
1001
ACAD
1000
AcDbSavedByObjectVersion
1070
     0
  0
ACAD_PROXY_OBJECT
  5
4975
102
{ACAD_REACTORS
330
495E
102
}
330
495E
100
AcDbProxyObject
 90
      499
 91
      503
 93
      516
310
4454DA18591959081DDA5D1A08195919D95CD1A40902404333333333333E33F0000000000000F901074090142907004050250800405405064090740C02480A0B40
1001
ACAD
1000
AcDbSavedByObjectVersion
1070
     0
  0
ACAD_PROXY_OBJECT
  5
4972
102
{ACAD_REACTORS
330
495E
102
}
330
495E
100
AcDbProxyObject
 90
      499
 91
      503
 93
      532
310
4394DA1859195CC81BD98811DC985E5174090240C333333333333E33F0000000000000F901079024090741D01000000000000111010841D405064090740C02480A0340
1001
ACAD
1000
AcDbSavedByObjectVersion
1070
     0
  0
ACAD_PROXY_OBJECT
  5
4973
102
{ACAD_REACTORS
330
495E
102
}
330
495E
100
AcDbProxyObject
 90
      499
 91
      503
 93
      476
310
41D4DAD95D18DA1E51840502408333333333333E33F0000000000000F901079024090741D01000000000000111010B41D405064090741802480A0340
1001
ACAD
1000
AcDbSavedByObjectVersion
1070
     0
  0
ACAD_PROXY_OBJECT
  5
496B
102
{ACAD_REACTORS
330
495E
102
}
330
495E
100
AcDbProxyObject
 90
      499
 91
      503
 93
      412
310
41D51A1A58DAD95B90D409028333333333333E33F0000000000000F9010790141107004050150C41D405064090741402480A0350
1001
ACAD
1000
AcDbSavedByObjectVersion
1070
     0
  0
ACAD_PROXY_OBJECT
  5
4964
102
{ACAD_REACTORS
330
495E
102
}
330
495E
100
AcDbProxyObject
 90
      499
 91
      503
 93
      420
310
4255DA5C99599C985B595059028333333333333E33F0000000000000F90107901411070040501600405405064090740C02480A0340
1001
ACAD
1000
AcDbSavedByObjectVersion
1070
     0
  0
ACAD_PROXY_OBJECT
  5
4974
102
{ACAD_REACTORS
330
495E
102
}
330
495E
100
AcDbProxyObject
 90
      499
 91
      503
 93
      404
310
41560B54985E51940902404000000000000E03F0000000000000F9010740501907004050150841D405064090740C02480A1B40
1001
ACAD
1000
AcDbSavedByObjectVersion
1070
     0
  0
XRECORD
  5
55F3
102
{ACAD_REACTORS
330
55E9
102
}
330
55E9
100
AcDbXrecord
340
0
  0
XRECORD
  5
55F2
102
{ACAD_REACTORS
330
55E9
102
}
330
55E9
100
AcDbXrecord
 90
        0
  0
XRECORD
  5
560C
102
{ACAD_REACTORS
330
55E9
102
}
330
55E9
100
AcDbXrecord
340
2948
  0
XRECORD
  5
5609
102
{ACAD_REACTORS
330
55E9
102
}
330
55E9
100
AcDbXrecord
1000
DSTYLE
1002
{
1070
   171
 70
     2
1070
   143
 40
0.0394
1070
   274
 70
     2
1070
    41
 40
6.0
1070
   342
340
2AF4
1070
   271
 70
     1
1070
   278
 70
    46
1070
   341
340
2AF4
1070
   272
 70
     1
1070
    48
 40
0.1
1070
   283
 70
     1
1070
    47
 40
0.1
1070
   145
 40
1.0
1070
   340
340
10
1070
   140
 40
5.0
1070
   284
 70
     0
1002
}
  0
XRECORD
  5
55F4
102
{ACAD_REACTORS
330
55E9
102
}
330
55E9
100
AcDbXrecord
  1
{23698909-1D67-4744-B0E2-8DE11E3ED422}
  0
XRECORD
  5
55EC
102
{ACAD_REACTORS
330
55E9
102
}
330
55E9
100
AcDbXrecord
  1

  0
XRECORD
  5
55F1
102
{ACAD_REACTORS
330
55E9
102
}
330
55E9
100
AcDbXrecord
 90
        0
  0
XRECORD
  5
55EE
102
{ACAD_REACTORS
330
55E9
102
}
330
55E9
100
AcDbXrecord
340
2816
  0
XRECORD
  5
55F0
102
{ACAD_REACTORS
330
55E9
102
}
330
55E9
100
AcDbXrecord
 90
    10781
  0
XRECORD
  5
560D
102
{ACAD_REACTORS
330
55E9
102
}
330
55E9
100
AcDbXrecord
340
2947
  0
XRECORD
  5
55EF
102
{ACAD_REACTORS
330
55E9
102
}
330
55E9
100
AcDbXrecord
340
2817
  0
XRECORD
  5
55F6
102
{ACAD_REACTORS
330
55E9
102
}
330
55E9
100
AcDbXrecord
 40
0.25
  0
XRECORD
  5
55F9
102
{ACAD_REACTORS
330
55E9
102
}
330
55E9
100
AcDbXrecord
340
0
  0
XRECORD
  5
55FF
102
{ACAD_REACTORS
330
55E9
102
}
330
55E9
100
AcDbXrecord
 10
0.0
 20
0.0
 30
0.0
  0
XRECORD
  5
55FB
102
{ACAD_REACTORS
330
55E9
102
}
330
55E9
100
AcDbXrecord
 10
0.0
 20
0.0
 30
0.0
  0
XRECORD
  5
55FE
102
{ACAD_REACTORS
330
55E9
102
}
330
55E9
100
AcDbXrecord
 10
0.0
 20
0.0
 30
0.0
  0
XRECORD
  5
55FC
102
{ACAD_REACTORS
330
55E9
102
}
330
55E9
100
AcDbXrecord
 10
0.0
 20
0.0
 30
0.0
  0
XRECORD
  5
55FD
102
{ACAD_REACTORS
330
55E9
102
}
330
55E9
100
AcDbXrecord
 10
0.0
 20
0.0
 30
0.0
  0
XRECORD
  5
55FA
102
{ACAD_REACTORS
330
55E9
102
}
330
55E9
100
AcDbXrecord
 10
0.0
 20
0.0
 30
0.0
  0
XRECORD
  5
55F7
102
{ACAD_REACTORS
330
55E9
102
}
330
55E9
100
AcDbXrecord
340
0
  0
XRECORD
  5
55F8
102
{ACAD_REACTORS
330
55E9
102
}
330
55E9
100
AcDbXrecord
 70
     0
  0
XRECORD
  5
55ED
102
{ACAD_REACTORS
330
55E9
102
}
330
55E9
100
AcDbXrecord
  1

  0
XRECORD
  5
55EA
102
{ACAD_REACTORS
330
55E9
102
}
330
55E9
100
AcDbXrecord
 90
        1
  0
XRECORD
  5
55EB
102
{ACAD_REACTORS
330
55E9
102
}
330
55E9
100
AcDbXrecord
 90
       70
  0
XRECORD
  5
5602
102
{ACAD_REACTORS
330
55E9
102
}
330
55E9
100
AcDbXrecord
340
0
  0
XRECORD
  5
5608
102
{ACAD_REACTORS
330
55E9
102
}
330
55E9
100
AcDbXrecord
 10
0.0
 20
0.0
 30
0.0
  0
XRECORD
  5
5604
102
{ACAD_REACTORS
330
55E9
102
}
330
55E9
100
AcDbXrecord
 10
0.0
 20
0.0
 30
0.0
  0
XRECORD
  5
5607
102
{ACAD_REACTORS
330
55E9
102
}
330
55E9
100
AcDbXrecord
 10
0.0
 20
0.0
 30
0.0
  0
XRECORD
  5
5605
102
{ACAD_REACTORS
330
55E9
102
}
330
55E9
100
AcDbXrecord
 10
0.0
 20
0.0
 30
0.0
  0
XRECORD
  5
5606
102
{ACAD_REACTORS
330
55E9
102
}
330
55E9
100
AcDbXrecord
 10
0.0
 20
0.0
 30
0.0
  0
XRECORD
  5
5603
102
{ACAD_REACTORS
330
55E9
102
}
330
55E9
100
AcDbXrecord
 10
0.0
 20
0.0
 30
0.0
  0
XRECORD
  5
5600
102
{ACAD_REACTORS
330
55E9
102
}
330
55E9
100
AcDbXrecord
340
0
  0
XRECORD
  5
5601
102
{ACAD_REACTORS
330
55E9
102
}
330
55E9
100
AcDbXrecord
 70
     0
  0
XRECORD
  5
55F5
102
{ACAD_REACTORS
330
55E9
102
}
330
55E9
100
AcDbXrecord
  1
{AAA14F79-6F2E-405C-954A-3F1255E433D1}
  0
DICTIONARYVAR
  5
4BB1
102
{ACAD_REACTORS
330
4BB0
102
}
330
4BB0
100
DictionaryVariables
280
     0
  1
1:1
  0
DICTIONARYVAR
  5
4BF2
102
{ACAD_REACTORS
330
4BB0
102
}
330
4BB0
100
DictionaryVariables
280
     0
  1
Standard
  0
DICTIONARYVAR
  5
4BF1
102
{ACAD_REACTORS
330
4BB0
102
}
330
4BB0
100
DictionaryVariables
280
     0
  1
Standard
  0
DICTIONARYVAR
  5
560A
102
{ACAD_REACTORS
330
4BB0
102
}
330
4BB0
100
DictionaryVariables
280
     0
  1
1
  0
DICTIONARYVAR
  5
560B
102
{ACAD_REACTORS
330
4BB0
102
}
330
4BB0
100
DictionaryVariables
280
     0
  1
0
  0
DICTIONARYVAR
  5
4BF3
102
{ACAD_REACTORS
330
4BB0
102
}
330
4BB0
100
DictionaryVariables
280
     0
  1
0
  0
DICTIONARYVAR
  5
4BF4
102
{ACAD_REACTORS
330
4BB0
102
}
330
4BB0
100
DictionaryVariables
280
     0
  1
0
  0
DICTIONARY
  5
51A0
102
{ACAD_REACTORS
330
519F
102
}
330
519F
100
AcDbDictionary
  0
DICTIONARY
  5
4F8A
102
{ACAD_REACTORS
330
4F89
102
}
330
4F89
100
AcDbDictionary
  0
DICTIONARY
  5
532B
102
{ACAD_REACTORS
330
532A
102
}
330
532A
100
AcDbDictionary
  0
DICTIONARY
  5
4A1C
102
{ACAD_REACTORS
330
4A1B
102
}
330
4A1B
100
AcDbDictionary
  0
DICTIONARY
  5
4AAC
102
{ACAD_REACTORS
330
4AAB
102
}
330
4AAB
100
AcDbDictionary
  0
DICTIONARY
  5
4ABA
102
{ACAD_REACTORS
330
4AB9
102
}
330
4AB9
100
AcDbDictionary
  0
DICTIONARY
  5
4AC4
102
{ACAD_REACTORS
330
4AC3
102
}
330
4AC3
100
AcDbDictionary
  0
DICTIONARY
  5
4ACB
102
{ACAD_REACTORS
330
4ACA
102
}
330
4ACA
100
AcDbDictionary
  0
DICTIONARY
  5
4ADB
102
{ACAD_REACTORS
330
4ADA
102
}
330
4ADA
100
AcDbDictionary
  0
DICTIONARY
  5
4AF3
102
{ACAD_REACTORS
330
4AF2
102
}
330
4AF2
100
AcDbDictionary
  0
DICTIONARY
  5
4AFD
102
{ACAD_REACTORS
330
4AFC
102
}
330
4AFC
100
AcDbDictionary
  0
DICTIONARY
  5
546C
102
{ACAD_REACTORS
330
546B
102
}
330
546B
100
AcDbDictionary
  0
DICTIONARY
  5
4C64
102
{ACAD_REACTORS
330
4C63
102
}
330
4C63
100
AcDbDictionary
  0
DICTIONARY
  5
4B7F
102
{ACAD_REACTORS
330
4B7E
102
}
330
4B7E
100
AcDbDictionary
  0
DICTIONARY
  5
4B83
102
{ACAD_REACTORS
330
4B82
102
}
330
4B82
100
AcDbDictionary
  0
DICTIONARY
  5
50FF
102
{ACAD_REACTORS
330
50FE
102
}
330
50FE
100
AcDbDictionary
  0
DICTIONARY
  5
557A
102
{ACAD_REACTORS
330
5579
102
}
330
5579
100
AcDbDictionary
  0
DICTIONARY
  5
557E
102
{ACAD_REACTORS
330
557D
102
}
330
557D
100
AcDbDictionary
  0
DICTIONARY
  5
5613
330
499A
100
AcDbDictionary
280
     1
  3
ACAD_XREC_ROUNDTRIP
360
5614
  0
DICTIONARY
  5
5611
330
4999
100
AcDbDictionary
280
     1
  3
ACAD_XREC_ROUNDTRIP
360
5612
  0
DICTIONARY
  5
5615
330
499B
100
AcDbDictionary
280
     1
  3
ACAD_XREC_ROUNDTRIP
360
5616
  0
XRECORD
  5
5614
102
{ACAD_REACTORS
330
5613
102
}
330
5613
100
AcDbXrecord
102
MATERIAL
148
0.0
149
0.0
149
0.0
 93
        0
 94
      127
282
     0
 72
     1
 77
     1
171
     1
175
     1
179
     1
273
     0
  0
XRECORD
  5
5612
102
{ACAD_REACTORS
330
5611
102
}
330
5611
100
AcDbXrecord
102
MATERIAL
148
0.0
149
0.0
149
0.0
 93
        0
 94
      127
282
     0
 72
     1
 77
     1
171
     1
175
     1
179
     1
273
     0
  0
XRECORD
  5
5616
102
{ACAD_REACTORS
330
5615
102
}
330
5615
100
AcDbXrecord
102
MATERIAL
148
0.0
149
0.0
149
0.0
 93
        0
 94
      127
282
     0
 72
     1
 77
     1
171
     1
175
     1
179
     1
273
     0
  0
ENDSEC
  0
EOF
