  0
SECTION
  2
HEADER
  9
$ACADVER
  1
AC1014
  9
$ACADMAINTVER
 70
     9
  9
$DWGCODEPAGE
  3
ANSI_932
  9
$INSBASE
 10
0.0
 20
0.0
 30
0.0
  9
$EXTMIN
 10
741.412093635647
 20
794.100432173142
 30
0.0
  9
$EXTMAX
 10
1498.089442987476
 20
1195.213757164288
 30
0.0
  9
$LIMMIN
 10
-360.747566795242
 20
4.457354754526
  9
$LIMMAX
 10
-162.153696144267
 20
287.675440264018
  9
$ORTHOMODE
 70
     0
  9
$REGENMODE
 70
     1
  9
$FILLMODE
 70
     1
  9
$QTEXTMODE
 70
     0
  9
$MIRRTEXT
 70
     1
  9
$DRAGMODE
 70
     2
  9
$LTSCALE
 40
1.0
  9
$OSMODE
 70
   935
  9
$ATTMODE
 70
     1
  9
$TEXTSIZE
 40
2.333873885063
  9
$TRACEWID
 40
1.0
  9
$TEXTSTYLE
  7
STANDARD
  9
$CLAYER
  8
寸法線
  9
$CELTYPE
  6
BYLAYER
  9
$CECOLOR
 62
   256
  9
$CELTSCALE
 40
10.0
  9
$DELOBJ
 70
     1
  9
$DISPSILH
 70
     0
  9
$DIMSCALE
 40
1.0
  9
$DIMASZ
 40
6.0
  9
$DIMEXO
 40
0.625
  9
$DIMDLI
 40
3.75
  9
$DIMRND
 40
0.0
  9
$DIMDLE
 40
0.0
  9
$DIMEXE
 40
1.25
  9
$DIMTP
 40
0.1
  9
$DIMTM
 40
0.1
  9
$DIMTXT
 40
5.0
  9
$DIMCEN
 40
2.5
  9
$DIMTSZ
 40
0.0
  9
$DIMTOL
 70
     0
  9
$DIMLIM
 70
     0
  9
$DIMTIH
 70
     0
  9
$DIMTOH
 70
     0
  9
$DIMSE1
 70
     0
  9
$DIMSE2
 70
     0
  9
$DIMTAD
 70
     1
  9
$DIMZIN
 70
     8
  9
$DIMBLK
  1
OPEN30
  9
$DIMASO
 70
     1
  9
$DIMSHO
 70
     1
  9
$DIMPOST
  1

  9
$DIMAPOST
  1

  9
$DIMALT
 70
     0
  9
$DIMALTD
 70
     2
  9
$DIMALTF
 40
0.0394
  9
$DIMLFAC
 40
1.0
  9
$DIMTOFL
 70
     1
  9
$DIMTVP
 40
1.0
  9
$DIMTIX
 70
     0
  9
$DIMSOXD
 70
     0
  9
$DIMSAH
 70
     0
  9
$DIMBLK1
  1

  9
$DIMBLK2
  1

  9
$DIMSTYLE
  2
ISO-25
  9
$DIMCLRD
 70
     0
  9
$DIMCLRE
 70
     0
  9
$DIMCLRT
 70
     0
  9
$DIMTFAC
 40
1.0
  9
$DIMGAP
 40
0.625
  9
$DIMJUST
 70
     0
  9
$DIMSD1
 70
     0
  9
$DIMSD2
 70
     0
  9
$DIMTOLJ
 70
     1
  9
$DIMTZIN
 70
     0
  9
$DIMALTZ
 70
     0
  9
$DIMALTTZ
 70
     0
  9
$DIMFIT
 70
     3
  9
$DIMUPT
 70
     0
  9
$DIMUNIT
 70
     2
  9
$DIMDEC
 70
     1
  9
$DIMTDEC
 70
     1
  9
$DIMALTU
 70
     2
  9
$DIMALTTD
 70
     2
  9
$DIMTXSTY
  7
STANDARD
  9
$DIMAUNIT
 70
     0
  9
$LUNITS
 70
     2
  9
$LUPREC
 70
     4
  9
$SKETCHINC
 40
1.0
  9
$FILLETRAD
 40
6.5
  9
$AUNITS
 70
     0
  9
$AUPREC
 70
     0
  9
$MENU
  1
.
  9
$ELEVATION
 40
0.0
  9
$PELEVATION
 40
0.0
  9
$THICKNESS
 40
0.0
  9
$LIMCHECK
 70
     0
  9
$CHAMFERA
 40
10.0
  9
$CHAMFERB
 40
10.0
  9
$CHAMFERC
 40
20.0
  9
$CHAMFERD
 40
0.0
  9
$SKPOLY
 70
     0
  9
$TDCREATE
 40
2450576.597302431
  9
$TDUPDATE
 40
2457269.378805671
  9
$TDINDWG
 40
1.3878679167
  9
$TDUSRTIMER
 40
1.3878679167
  9
$USRTIMER
 70
     1
  9
$ANGBASE
 50
0.0
  9
$ANGDIR
 70
     0
  9
$PDMODE
 70
     0
  9
$PDSIZE
 40
0.0
  9
$PLINEWID
 40
0.0
  9
$COORDS
 70
     0
  9
$SPLFRAME
 70
     0
  9
$SPLINETYPE
 70
     6
  9
$SPLINESEGS
 70
     8
  9
$ATTDIA
 70
     0
  9
$ATTREQ
 70
     1
  9
$HANDLING
 70
     1
  9
$HANDSEED
  5
6047
  9
$SURFTAB1
 70
     6
  9
$SURFTAB2
 70
     6
  9
$SURFTYPE
 70
     6
  9
$SURFU
 70
     6
  9
$SURFV
 70
     6
  9
$UCSNAME
  2

  9
$UCSORG
 10
0.0
 20
0.0
 30
0.0
  9
$UCSXDIR
 10
1.0
 20
0.0
 30
0.0
  9
$UCSYDIR
 10
0.0
 20
1.0
 30
0.0
  9
$PUCSNAME
  2

  9
$PUCSORG
 10
0.0
 20
0.0
 30
0.0
  9
$PUCSXDIR
 10
1.0
 20
0.0
 30
0.0
  9
$PUCSYDIR
 10
0.0
 20
1.0
 30
0.0
  9
$USERI1
 70
     0
  9
$USERI2
 70
     0
  9
$USERI3
 70
     0
  9
$USERI4
 70
     0
  9
$USERI5
 70
     0
  9
$USERR1
 40
0.0
  9
$USERR2
 40
0.0
  9
$USERR3
 40
0.0
  9
$USERR4
 40
0.0
  9
$USERR5
 40
0.0
  9
$WORLDVIEW
 70
     1
  9
$SHADEDGE
 70
     3
  9
$SHADEDIF
 70
    70
  9
$TILEMODE
 70
     0
  9
$MAXACTVP
 70
    16
  9
$PINSBASE
 10
0.0
 20
0.0
 30
0.0
  9
$PLIMCHECK
 70
     0
  9
$PEXTMIN
 10
4.746305129083
 20
1.396645458131
 30
0.0
  9
$PEXTMAX
 10
404.746305129083
 20
281.396645458131
 30
0.0
  9
$PLIMMIN
 10
-6.946593322754
 20
-6.94658241272
  9
$PLIMMAX
 10
417.718108215332
 20
293.315276107788
  9
$UNITMODE
 70
     0
  9
$VISRETAIN
 70
     0
  9
$PLINEGEN
 70
     0
  9
$PSLTSCALE
 70
     1
  9
$TREEDEPTH
 70
  3020
  9
$PICKSTYLE
 70
     1
  9
$CMLSTYLE
  2
STANDARD
  9
$CMLJUST
 70
     0
  9
$CMLSCALE
 40
1.0
  9
$PROXYGRAPHICS
 70
     1
  9
$MEASUREMENT
 70
     1
  0
ENDSEC
  0
SECTION
  2
CLASSES
  0
CLASS
  1
ACDBDICTIONARYWDFLT
  2
AcDbDictionaryWithDefault
  3
ObjectDBX Classes
 90
        0
280
     0
281
     0
  0
CLASS
  1
ACDBPLACEHOLDER
  2
AcDbPlaceHolder
  3
ObjectDBX Classes
 90
        0
280
     0
281
     0
  0
CLASS
  1
LAYOUT
  2
AcDbLayout
  3
ObjectDBX Classes
 90
        0
280
     0
281
     0
  0
CLASS
  1
SORTENTSTABLE
  2
AcDbSortentsTable
  3
ObjectDBX Classes
 90
        0
280
     0
281
     0
  0
CLASS
  1
VISUALSTYLE
  2
AcDbVisualStyle
  3
ObjectDBX Classes
 90
     4095
280
     0
281
     0
  0
CLASS
  1
SCALE
  2
AcDbScale
  3
ObjectDBX Classes
 90
     1153
280
     0
281
     0
  0
CLASS
  1
MATERIAL
  2
AcDbMaterial
  3
ObjectDBX Classes
 90
     1153
280
     0
281
     0
  0
CLASS
  1
TABLESTYLE
  2
AcDbTableStyle
  3
ObjectDBX Classes
 90
     4095
280
     0
281
     0
  0
CLASS
  1
MLEADERSTYLE
  2
AcDbMLeaderStyle
  3
ACDB_MLEADERSTYLE_CLASS
 90
     4095
280
     0
281
     0
  0
CLASS
  1
SUN
  2
AcDbSun
  3
SCENEOE
 90
     1153
280
     0
281
     0
  0
CLASS
  1
DICTIONARYVAR
  2
AcDbDictionaryVar
  3
ObjectDBX Classes
 90
        0
280
     0
281
     0
  0
CLASS
  1
CELLSTYLEMAP
  2
AcDbCellStyleMap
  3
ObjectDBX Classes
 90
     1152
280
     0
281
     0
  0
CLASS
  1
XRECORD
  2
AcDbXrecord
  3
ObjectDBX Classes
 90
        0
280
     0
281
     0
  0
CLASS
  1
LWPOLYLINE
  2
AcDbPolyline
  3
ObjectDBX Classes
 90
        0
280
     0
281
     1
  0
CLASS
  1
HATCH
  2
AcDbHatch
  3
ObjectDBX Classes
 90
        0
280
     0
281
     1
  0
ENDSEC
  0
SECTION
  2
TABLES
  0
TABLE
  2
VPORT
  5
8
102
{ACAD_XDICTIONARY
360
603F
102
}
330
0
100
AcDbSymbolTable
 70
     1
  0
VPORT
  5
4F72
330
8
100
AcDbSymbolTableRecord
100
AcDbViewportTableRecord
  2
*ACTIVE
 70
     0
 10
0.0
 20
0.0
 11
1.0
 21
1.0
 12
1119.750768311562
 22
994.657094668715
 13
0.0
 23
0.0
 14
1.0
 24
1.0
 15
0.0
 25
0.0
 16
0.0
 26
0.0
 36
1.0
 17
0.0
 27
0.0
 37
0.0
 40
419.639278418589
 41
1.839224629418
 42
50.0
 43
0.0
 44
0.0
 50
0.0
 51
0.0
 71
    16
 72
   100
 73
     1
 74
     0
 75
     0
 76
     0
 77
     0
 78
     0
  0
ENDTAB
  0
TABLE
  2
LTYPE
  5
5
330
0
100
AcDbSymbolTable
 70
     4
  0
LTYPE
  5
14
330
5
100
AcDbSymbolTableRecord
100
AcDbLinetypeTableRecord
  2
BYBLOCK
 70
     0
  3

 72
    65
 73
     0
 40
0.0
  0
LTYPE
  5
15
330
5
100
AcDbSymbolTableRecord
100
AcDbLinetypeTableRecord
  2
BYLAYER
 70
     0
  3

 72
    65
 73
     0
 40
0.0
  0
LTYPE
  5
16
330
5
100
AcDbSymbolTableRecord
100
AcDbLinetypeTableRecord
  2
CONTINUOUS
 70
     0
  3
Solid line
 72
    65
 73
     0
 40
0.0
  0
LTYPE
  5
1EC
330
5
100
AcDbSymbolTableRecord
100
AcDbLinetypeTableRecord
  2
CENTER
 70
     0
  3
____ _ ____ _ ____ _ ____ _ ____ _ ____ _ ____ 
 72
    65
 73
     4
 40
2.0
 49
1.25
 74
     0
 49
-0.25
 74
     0
 49
0.25
 74
     0
 49
-0.25
 74
     0
  0
LTYPE
  5
1ED
330
5
100
AcDbSymbolTableRecord
100
AcDbLinetypeTableRecord
  2
DASHED
 70
     0
  3
__ __ __ __ __ __ __ __ __ __ __ __ __ __ __ __
 72
    65
 73
     2
 40
0.75
 49
0.5
 74
     0
 49
-0.25
 74
     0
  0
LTYPE
  5
2B1F
330
5
100
AcDbSymbolTableRecord
100
AcDbLinetypeTableRecord
  2
DASHDOT
 70
     0
  3
一点鎖線
 72
    65
 73
     4
 40
25.6
 49
20.0
 74
     0
 49
-2.0
 74
     0
 49
1.6
 74
     0
 49
-2.0
 74
     0
  0
ENDTAB
  0
TABLE
  2
LAYER
  5
2
102
{ACAD_XDICTIONARY
360
29EA
102
}
330
0
100
AcDbSymbolTable
 70
    16
  0
LAYER
  5
F
330
2
100
AcDbSymbolTableRecord
100
AcDbLayerTableRecord
  2
0
 70
     0
 62
     7
  6
CONTINUOUS
  0
LAYER
  5
61
330
2
100
AcDbSymbolTableRecord
100
AcDbLayerTableRecord
  2
図枠太線
 70
     0
 62
   251
  6
CONTINUOUS
  0
LAYER
  5
62
330
2
100
AcDbSymbolTableRecord
100
AcDbLayerTableRecord
  2
図枠細線
 70
     0
 62
   252
  6
CONTINUOUS
  0
LAYER
  5
63
330
2
100
AcDbSymbolTableRecord
100
AcDbLayerTableRecord
  2
図枠ロゴマーク
 70
     0
 62
   253
  6
CONTINUOUS
  0
LAYER
  5
1EF
330
2
100
AcDbSymbolTableRecord
100
AcDbLayerTableRecord
  2
外形線
 70
     0
 62
     7
  6
CONTINUOUS
  0
LAYER
  5
1F0
330
2
100
AcDbSymbolTableRecord
100
AcDbLayerTableRecord
  2
寸法線
 70
     0
 62
     1
  6
CONTINUOUS
  0
LAYER
  5
1F1
330
2
100
AcDbSymbolTableRecord
100
AcDbLayerTableRecord
  2
中心線
 70
     0
 62
     4
  6
CENTER
  0
LAYER
  5
1F4
330
2
100
AcDbSymbolTableRecord
100
AcDbLayerTableRecord
  2
DEFPOINTS
 70
     0
 62
     7
  6
CONTINUOUS
  0
LAYER
  5
2AA2
330
2
100
AcDbSymbolTableRecord
100
AcDbLayerTableRecord
  2
下書線
 70
     0
 62
     2
  6
CONTINUOUS
  0
LAYER
  5
2AA3
330
2
100
AcDbSymbolTableRecord
100
AcDbLayerTableRecord
  2
隠れ線
 70
     0
 62
     3
  6
DASHED
  0
LAYER
  5
2AA4
330
2
100
AcDbSymbolTableRecord
100
AcDbLayerTableRecord
  2
細線
 70
     0
 62
     6
  6
CONTINUOUS
  0
LAYER
  5
2AA5
330
2
100
AcDbSymbolTableRecord
100
AcDbLayerTableRecord
  2
太線
 70
     0
 62
   190
  6
CONTINUOUS
  0
LAYER
  5
2B20
330
2
100
AcDbSymbolTableRecord
100
AcDbLayerTableRecord
  2
LAY-1
 70
     0
 62
     7
  6
CONTINUOUS
  0
LAYER
  5
2B21
330
2
100
AcDbSymbolTableRecord
100
AcDbLayerTableRecord
  2
LAY-2
 70
     0
 62
     7
  6
CONTINUOUS
  0
LAYER
  5
2B22
330
2
100
AcDbSymbolTableRecord
100
AcDbLayerTableRecord
  2
LAY-5
 70
     0
 62
     7
  6
CONTINUOUS
  0
LAYER
  5
2B23
330
2
100
AcDbSymbolTableRecord
100
AcDbLayerTableRecord
  2
LAY-6
 70
     0
 62
     7
  6
CONTINUOUS
  0
ENDTAB
  0
TABLE
  2
STYLE
  5
3
330
0
100
AcDbSymbolTable
 70
     2
  0
STYLE
  5
10
330
3
100
AcDbSymbolTableRecord
100
AcDbTextStyleTableRecord
  2
STANDARD
 70
     0
 40
0.0
 41
1.0
 50
0.0
 71
     0
 42
2.333873885063
  3
ISOCP
  4
bigfont.shx
  0
STYLE
  5
64
330
3
100
AcDbSymbolTableRecord
100
AcDbTextStyleTableRecord
  2
EXCADSTD
 70
     0
 40
0.0
 41
1.0
 50
0.0
 71
     0
 42
0.2
  3
monotxt
  4
bigfont
  0
ENDTAB
  0
TABLE
  2
VIEW
  5
6
330
0
100
AcDbSymbolTable
 70
     0
  0
ENDTAB
  0
TABLE
  2
UCS
  5
7
330
0
100
AcDbSymbolTable
 70
     0
  0
ENDTAB
  0
TABLE
  2
APPID
  5
9
330
0
100
AcDbSymbolTable
 70
     3
  0
APPID
  5
11
330
9
100
AcDbSymbolTableRecord
100
AcDbRegAppTableRecord
  2
ACAD
 70
     0
  0
APPID
  5
4FCD
330
9
100
AcDbSymbolTableRecord
100
AcDbRegAppTableRecord
  2
ACADANNOTATIVE
 70
     0
  0
APPID
  5
5191
330
9
100
AcDbSymbolTableRecord
100
AcDbRegAppTableRecord
  2
ACAD_MLEADERVER
 70
     0
  0
ENDTAB
  0
TABLE
  2
DIMSTYLE
  5
A
330
0
100
AcDbSymbolTable
 70
     2
  0
DIMSTYLE
105
1D
330
A
100
AcDbSymbolTableRecord
100
AcDbDimStyleTableRecord
  2
STANDARD
 70
     0
  3

  4

  5

  6

  7

 40
1.0
 41
0.18
 42
0.0625
 43
0.38
 44
0.18
 45
0.0
 46
0.0
 47
0.0
 48
0.0
140
0.18
141
0.09
142
0.0
143
25.4
144
1.0
145
0.0
146
1.0
147
0.09
 71
     0
 72
     0
 73
     1
 74
     1
 75
     0
 76
     0
 77
     0
 78
     0
170
     0
171
     2
172
     0
173
     0
174
     0
175
     0
176
     0
177
     0
178
     0
270
     2
271
     4
272
     4
273
     2
274
     2
340
10
275
     0
280
     0
281
     0
282
     0
283
     1
284
     0
285
     0
286
     0
287
     3
288
     0
  0
DIMSTYLE
105
24
102
{ACAD_REACTORS
330
4AC1
330
4AC0
330
4ABD
330
4A20
330
4A1F
330
4C84
330
4C91
330
4CB9
102
}
330
A
100
AcDbSymbolTableRecord
100
AcDbDimStyleTableRecord
  2
ISO-25
 70
     0
  3

  4

  5

  6

  7

 40
1.0
 41
2.5
 42
0.625
 43
3.75
 44
1.25
 45
0.0
 46
0.0
 47
0.0
 48
0.0
140
2.5
141
2.5
142
0.0
143
0.0394
144
1.0
145
1.0
146
1.0
147
0.625
 71
     0
 72
     0
 73
     1
 74
     0
 75
     0
 76
     0
 77
     1
 78
     8
170
     0
171
     2
172
     1
173
     0
174
     0
175
     0
176
     0
177
     0
178
     0
270
     2
271
     4
272
     4
273
     2
274
     2
340
10
275
     0
280
     0
281
     0
282
     0
283
     1
284
     0
285
     0
286
     0
287
     3
288
     0
  0
ENDTAB
  0
TABLE
  2
BLOCK_RECORD
  5
1
330
0
100
AcDbSymbolTable
 70
    15
  0
BLOCK_RECORD
  5
1A
330
1
100
AcDbSymbolTableRecord
100
AcDbBlockTableRecord
  2
*MODEL_SPACE
  0
BLOCK_RECORD
  5
28FB
330
1
100
AcDbSymbolTableRecord
100
AcDbBlockTableRecord
  2
*PAPER_SPACE
  0
BLOCK_RECORD
  5
65
330
1
100
AcDbSymbolTableRecord
100
AcDbBlockTableRecord
  2
A$C3392
  0
BLOCK_RECORD
  5
29BF
330
1
100
AcDbSymbolTableRecord
100
AcDbBlockTableRecord
  2
A4横用_タイトル
1001
ACAD
1000
DesignCenter Data
1002
{
1070
     1
1070
     4
1002
}
  0
BLOCK_RECORD
  5
29F4
330
1
100
AcDbSymbolTableRecord
100
AcDbBlockTableRecord
  2
A4縦用_タイトル
1001
ACAD
1000
DesignCenter Data
1002
{
1070
     1
1070
     4
1002
}
  0
BLOCK_RECORD
  5
2A32
330
1
100
AcDbSymbolTableRecord
100
AcDbBlockTableRecord
  2
A3横用_タイトル
1001
ACAD
1000
DesignCenter Data
1002
{
1070
     1
1070
     4
1002
}
  0
BLOCK_RECORD
  5
2A6C
330
1
100
AcDbSymbolTableRecord
100
AcDbBlockTableRecord
  2
A3縦用_タイトル
1001
ACAD
1000
DesignCenter Data
1002
{
1070
     1
1070
     4
1002
}
  0
BLOCK_RECORD
  5
2AF4
330
1
100
AcDbSymbolTableRecord
100
AcDbBlockTableRecord
  2
_OPEN30
  0
BLOCK_RECORD
  5
4B0D
330
1
100
AcDbSymbolTableRecord
100
AcDbBlockTableRecord
  2
*D6
  0
BLOCK_RECORD
  5
4B19
330
1
100
AcDbSymbolTableRecord
100
AcDbBlockTableRecord
  2
*D7
  0
BLOCK_RECORD
  5
4B3D
330
1
100
AcDbSymbolTableRecord
100
AcDbBlockTableRecord
  2
*D8
  0
BLOCK_RECORD
  5
4B56
330
1
100
AcDbSymbolTableRecord
100
AcDbBlockTableRecord
  2
*D9
  0
BLOCK_RECORD
  5
4B62
330
1
100
AcDbSymbolTableRecord
100
AcDbBlockTableRecord
  2
*D10
  0
BLOCK_RECORD
  5
4C85
330
1
100
AcDbSymbolTableRecord
100
AcDbBlockTableRecord
  2
*D11
  0
BLOCK_RECORD
  5
4C92
330
1
100
AcDbSymbolTableRecord
100
AcDbBlockTableRecord
  2
*D12
  0
BLOCK_RECORD
  5
4CBA
330
1
100
AcDbSymbolTableRecord
100
AcDbBlockTableRecord
  2
*D13
  0
ENDTAB
  0
ENDSEC
  0
SECTION
  2
BLOCKS
  0
BLOCK
  5
1B
330
1A
100
AcDbEntity
  8
0
100
AcDbBlockBegin
  2
*MODEL_SPACE
 70
     0
 10
0.0
 20
0.0
 30
0.0
  3
*MODEL_SPACE
  1

  0
ENDBLK
  5
1C
330
1A
100
AcDbEntity
  8
0
100
AcDbBlockEnd
  0
BLOCK
  5
28FD
330
28FB
100
AcDbEntity
 67
     1
  8
0
 48
10.0
100
AcDbBlockBegin
  2
*PAPER_SPACE
 70
     0
 10
0.0
 20
0.0
 30
0.0
  3
*PAPER_SPACE
  1

  0
ENDBLK
  5
28FE
330
28FB
100
AcDbEntity
 67
     1
  8
0
 48
10.0
100
AcDbBlockEnd
  0
BLOCK
  5
93
330
65
100
AcDbEntity
  8
0
100
AcDbBlockBegin
  2
A$C3392
 70
     0
 10
0.0
 20
0.0
 30
0.0
  3
A$C3392
  1

  0
LINE
  5
66
330
65
100
AcDbEntity
  8
図枠太線
  6
CONTINUOUS
100
AcDbLine
 10
211.858584505185
 20
30.927375675439
 30
0.0
 11
211.858584505185
 21
0.927375675439
 31
0.0
  0
LINE
  5
67
330
65
100
AcDbEntity
  8
図枠細線
  6
CONTINUOUS
100
AcDbLine
 10
231.858592505185
 20
15.927377675439
 30
0.0
 11
287.858592505185
 21
15.927375675439
 31
0.0
  0
LINE
  5
68
330
65
100
AcDbEntity
  8
図枠細線
  6
CONTINUOUS
100
AcDbLine
 10
211.858592505185
 20
15.927377675439
 30
0.0
 11
231.858592505185
 21
15.927377675439
 31
0.0
  0
LINE
  5
69
330
65
100
AcDbEntity
  8
図枠太線
  6
CONTINUOUS
 62
   251
100
AcDbLine
 10
1.858584505185
 20
0.927375675439
 30
0.0
 11
1.858584505185
 21
275.927375675439
 31
0.0
  0
TEXT
  5
6A
330
65
100
AcDbEntity
  8
図枠細線
  6
CONTINUOUS
 62
   252
100
AcDbText
 10
351.358592505185
 20
28.427377675439
 30
0.0
 40
2.0
  1
ＴＩＴＬＥ
 41
0.903614457831
  7
EXCADSTD
 72
     5
 11
361.358592505185
 21
28.427377675439
 31
0.0
100
AcDbText
  0
TEXT
  5
6B
330
65
100
AcDbEntity
  8
図枠細線
  6
CONTINUOUS
 62
   252
100
AcDbText
 10
345.358592505185
 20
28.427377675439
 30
0.0
 40
2.0
  1
名称
 41
1.171875
  7
EXCADSTD
 72
     5
 11
350.358592505185
 21
28.427377675439
 31
0.0
100
AcDbText
  0
TEXT
  5
6C
330
65
100
AcDbEntity
  8
図枠細線
  6
CONTINUOUS
 62
   252
100
AcDbText
 10
274.358592505185
 20
25.927377675439
 30
0.0
 40
2.0
  1
ＤＲＡＷＮ
 41
0.882352941176
  7
EXCADSTD
 72
     5
 11
284.358592505185
 21
25.927377675439
 31
0.0
100
AcDbText
  0
TEXT
  5
6D
330
65
100
AcDbEntity
  8
図枠細線
  6
CONTINUOUS
 62
   252
100
AcDbText
 10
260.358592505185
 20
25.927377675439
 30
0.0
 40
2.0
  1
ＤＥＳＩＧＮＥＤ
 41
0.713043472041
  7
EXCADSTD
 72
     5
 11
273.478592390744
 21
25.927377675439
 31
0.0
100
AcDbText
  0
TEXT
  5
6E
330
65
100
AcDbEntity
  8
図枠細線
  6
CONTINUOUS
 62
   252
100
AcDbText
 10
246.358592505185
 20
25.927377675439
 30
0.0
 40
2.0
  1
ＣＨＥＣＫＥＤ
 41
0.831249989569
  7
EXCADSTD
 72
     5
 11
259.658592338292
 21
25.927377675439
 31
0.0
100
AcDbText
  0
TEXT
  5
6F
330
65
100
AcDbEntity
  8
図枠細線
  6
CONTINUOUS
 62
   252
100
AcDbText
 10
274.358592505185
 20
28.427377675439
 30
0.0
 40
2.0
  1
製図
 41
1.209677419355
  7
EXCADSTD
 72
     5
 11
279.358592505185
 21
28.427377675439
 31
0.0
100
AcDbText
  0
TEXT
  5
70
330
65
100
AcDbEntity
  8
図枠細線
  6
CONTINUOUS
 62
   252
100
AcDbText
 10
260.358592505185
 20
28.427377675439
 30
0.0
 40
2.0
  1
設計
 41
1.171875
  7
EXCADSTD
 72
     5
 11
265.358592505185
 21
28.427377675439
 31
0.0
100
AcDbText
  0
TEXT
  5
71
330
65
100
AcDbEntity
  8
図枠細線
  6
CONTINUOUS
 62
   252
100
AcDbText
 10
246.358592505185
 20
28.427377675439
 30
0.0
 40
2.0
  1
検図
 41
1.209677419355
  7
EXCADSTD
 72
     5
 11
251.358592505185
 21
28.427377675439
 31
0.0
100
AcDbText
  0
TEXT
  5
72
330
65
100
AcDbEntity
  8
図枠細線
  6
CONTINUOUS
 62
   252
100
AcDbText
 10
232.358592505185
 20
25.927377675439
 30
0.0
 40
2.0
  1
ＡＰＰＲＯＶＥＤ
 41
0.695652184279
  7
EXCADSTD
 72
     5
 11
245.15859269592
 21
25.927377675439
 31
0.0
100
AcDbText
  0
TEXT
  5
73
330
65
100
AcDbEntity
  8
図枠細線
  6
CONTINUOUS
 62
   252
100
AcDbText
 10
232.358592505185
 20
28.427377675439
 30
0.0
 40
2.0
  1
承認
 41
1.171875
  7
EXCADSTD
 72
     5
 11
237.358592505185
 21
28.427377675439
 31
0.0
100
AcDbText
  0
TEXT
  5
74
330
65
100
AcDbEntity
  8
図枠細線
  6
CONTINUOUS
 62
   252
100
AcDbText
 10
290.069888505185
 20
2.574868675439
 30
0.0
 40
3.5
  1
ＴＯＷＡ　ＳＥＩＤＥＮ　ＩＮＤＵＳＴＲＩＡＬ　ＣＯ．，ＬＴＤ．
 41
0.414568012377
  7
EXCADSTD
 72
     5
 11
342.692388209546
 21
2.574868675439
 31
0.0
100
AcDbText
  0
TEXT
  5
75
330
65
100
AcDbEntity
  8
図枠ロゴマーク
  6
CONTINUOUS
 62
   253
100
AcDbText
 10
290.107348505185
 20
7.519769675439
 30
0.0
 40
7.0
  1
東和制電工業株式会社
 41
0.639204545455
  7
EXCADSTD
 72
     5
 11
342.607348505185
 21
7.519769675439
 31
0.0
100
AcDbText
  0
TEXT
  5
76
330
65
100
AcDbEntity
  8
図枠細線
  6
CONTINUOUS
 62
   252
100
AcDbText
 10
232.499705505185
 20
5.759088675439
 30
0.0
 40
2.0
  1
ＰＲＯＪＥＣＴＩＯＮ
 41
0.754285710199
  7
EXCADSTD
 72
     5
 11
250.099705409817
 21
5.759088675439
 31
0.0
100
AcDbText
  0
TEXT
  5
77
330
65
100
AcDbEntity
  8
図枠細線
  6
CONTINUOUS
 62
   252
100
AcDbText
 10
232.574629505185
 20
8.681077675439
 30
0.0
 40
2.0
  1
ＴＨＩＲＤ　ＡＮＧＬＥ
 41
0.691099486738
  7
EXCADSTD
 72
     5
 11
250.174629767445
 21
8.681077675439
 31
0.0
100
AcDbText
  0
TEXT
  5
78
330
65
100
AcDbEntity
  8
図枠細線
  6
CONTINUOUS
 62
   252
100
AcDbText
 10
256.823999505185
 20
13.427377675439
 30
0.0
 40
2.0
  1
ＳＣＡＬＥ
 41
0.903614457831
  7
EXCADSTD
 72
     5
 11
266.823999505185
 21
13.427377675439
 31
0.0
100
AcDbText
  0
TEXT
  5
79
330
65
100
AcDbEntity
  8
図枠細線
  6
CONTINUOUS
 62
   252
100
AcDbText
 10
274.858592505185
 20
13.427377675439
 30
0.0
 40
2.0
  1
ＤＡＴＥ
 41
0.923076923077
  7
EXCADSTD
 72
     5
 11
282.858592505185
 21
13.427377675439
 31
0.0
100
AcDbText
  0
TEXT
  5
7A
330
65
100
AcDbEntity
  8
図枠細線
  6
CONTINUOUS
 62
   252
100
AcDbText
 10
356.358592505185
 20
13.427377675439
 30
0.0
 40
2.0
  1
ＤＲＧ．ＮＯ．
 41
0.9375
  7
EXCADSTD
 72
     5
 11
370.358592505185
 21
13.427377675439
 31
0.0
100
AcDbText
  0
TEXT
  5
7B
330
65
100
AcDbEntity
  8
図枠細線
  6
CONTINUOUS
 62
   252
100
AcDbText
 10
345.358592505185
 20
13.427377675439
 30
0.0
 40
2.0
  1
図面番号
 41
1.102941176471
  7
EXCADSTD
 72
     5
 11
355.358592505185
 21
13.427377675439
 31
0.0
100
AcDbText
  0
TEXT
  5
7C
330
65
100
AcDbEntity
  8
図枠細線
  6
CONTINUOUS
 62
   252
100
AcDbText
 10
269.358592505185
 20
13.427377675439
 30
0.0
 40
2.0
  1
日付
 41
1.171875
  7
EXCADSTD
 72
     5
 11
274.358592505185
 21
13.427377675439
 31
0.0
100
AcDbText
  0
TEXT
  5
7D
330
65
100
AcDbEntity
  8
図枠細線
  6
CONTINUOUS
 62
   252
100
AcDbText
 10
251.451512505185
 20
13.427377675439
 30
0.0
 40
2.0
  1
尺度
 41
1.171875
  7
EXCADSTD
 72
     5
 11
256.451512505185
 21
13.427377675439
 31
0.0
100
AcDbText
  0
TEXT
  5
7E
330
65
100
AcDbEntity
  8
図枠細線
  6
CONTINUOUS
 62
   252
100
AcDbText
 10
232.358592505185
 20
13.427377675439
 30
0.0
 40
2.0
  1
第三角法
 41
1.102941176471
  7
EXCADSTD
 72
     5
 11
242.358592505185
 21
13.427377675439
 31
0.0
100
AcDbText
  0
TEXT
  5
7F
330
65
100
AcDbEntity
  8
図枠細線
  6
CONTINUOUS
 62
   252
100
AcDbText
 10
212.358592505185
 20
28.427377675439
 30
0.0
 40
2.0
  1
ＮＯＴＥ
 41
0.923076923077
  7
EXCADSTD
 72
     5
 11
220.358592505185
 21
28.427377675439
 31
0.0
100
AcDbText
  0
LINE
  5
80
330
65
100
AcDbEntity
  8
図枠細線
  6
CONTINUOUS
 62
   252
100
AcDbLine
 10
287.858592505185
 20
23.427375675439
 30
0.0
 11
344.858592505185
 21
23.427375675439
 31
0.0
  0
LINE
  5
81
330
65
100
AcDbEntity
  8
図枠太線
  6
CONTINUOUS
 62
   251
100
AcDbLine
 10
287.858584505185
 20
15.927375675439
 30
0.0
 11
344.858592505185
 21
15.927375675439
 31
0.0
  0
LINE
  5
82
330
65
100
AcDbEntity
  8
図枠細線
  6
CONTINUOUS
 62
   252
100
AcDbLine
 10
344.858592505185
 20
15.927375675439
 30
0.0
 11
401.858584505185
 21
15.927375675439
 31
0.0
  0
LINE
  5
83
330
65
100
AcDbEntity
  8
図枠太線
  6
CONTINUOUS
 62
   251
100
AcDbLine
 10
344.858592505185
 20
0.927377675439
 30
0.0
 11
344.858592505185
 21
30.927375675439
 31
0.0
  0
LINE
  5
84
330
65
100
AcDbEntity
  8
図枠太線
  6
CONTINUOUS
 62
   251
100
AcDbLine
 10
287.858592505185
 20
0.927377675439
 30
0.0
 11
287.858592505185
 21
30.927375675439
 31
0.0
  0
LINE
  5
85
330
65
100
AcDbEntity
  8
図枠細線
  6
CONTINUOUS
 62
   252
100
AcDbLine
 10
268.858592505185
 20
0.927377675439
 30
0.0
 11
268.858592505185
 21
15.927375675439
 31
0.0
  0
LINE
  5
86
330
65
100
AcDbEntity
  8
図枠細線
  6
CONTINUOUS
 62
   252
100
AcDbLine
 10
250.858592505185
 20
0.927377675439
 30
0.0
 11
250.858592505185
 21
15.927375675439
 31
0.0
  0
LINE
  5
87
330
65
100
AcDbEntity
  8
図枠細線
  6
CONTINUOUS
 62
   252
100
AcDbLine
 10
273.858592505185
 20
30.927375675439
 30
0.0
 11
273.858592505185
 21
15.927375675439
 31
0.0
  0
LINE
  5
88
330
65
100
AcDbEntity
  8
図枠細線
  6
CONTINUOUS
 62
   252
100
AcDbLine
 10
259.858592505185
 20
30.927375675439
 30
0.0
 11
259.858592505185
 21
15.927375675439
 31
0.0
  0
LINE
  5
89
330
65
100
AcDbEntity
  8
図枠細線
  6
CONTINUOUS
 62
   252
100
AcDbLine
 10
245.858592505185
 20
30.927375675439
 30
0.0
 11
245.858592505185
 21
15.927375675439
 31
0.0
  0
LINE
  5
8A
330
65
100
AcDbEntity
  8
図枠太線
  6
CONTINUOUS
 62
   251
100
AcDbLine
 10
231.858592505185
 20
0.927377675439
 30
0.0
 11
231.858592505185
 21
30.927375675439
 31
0.0
  0
LINE
  5
8B
330
65
100
AcDbEntity
  8
図枠細線
  6
CONTINUOUS
 62
   252
100
AcDbLine
 10
211.858592505185
 20
25.927375675439
 30
0.0
 11
231.858592505185
 21
25.927375675439
 31
0.0
  0
LINE
  5
8C
330
65
100
AcDbEntity
  8
図枠細線
  6
CONTINUOUS
 62
   252
100
AcDbLine
 10
211.858592505185
 20
20.927375675439
 30
0.0
 11
231.858592505185
 21
20.927375675439
 31
0.0
  0
LINE
  5
8D
330
65
100
AcDbEntity
  8
図枠細線
  6
CONTINUOUS
 62
   252
100
AcDbLine
 10
211.858592505185
 20
10.927375675439
 30
0.0
 11
231.858592505185
 21
10.927375675439
 31
0.0
  0
LINE
  5
8E
330
65
100
AcDbEntity
  8
図枠細線
  6
CONTINUOUS
 62
   252
100
AcDbLine
 10
211.858592505185
 20
5.927377675439
 30
0.0
 11
231.858592505185
 21
5.927377675439
 31
0.0
  0
LINE
  5
8F
330
65
100
AcDbEntity
  8
図枠太線
  6
CONTINUOUS
 62
   251
100
AcDbLine
 10
211.858592505185
 20
30.927375675439
 30
0.0
 11
401.858584505185
 21
30.927375675439
 31
0.0
  0
LINE
  5
90
330
65
100
AcDbEntity
  8
図枠太線
  6
CONTINUOUS
 62
   251
100
AcDbLine
 10
1.858584505185
 20
275.927375675439
 30
0.0
 11
401.858584505185
 21
275.927375675439
 31
0.0
  0
LINE
  5
91
330
65
100
AcDbEntity
  8
図枠太線
  6
CONTINUOUS
 62
   251
100
AcDbLine
 10
401.858584505185
 20
0.927375675439
 30
0.0
 11
401.858584505185
 21
275.927375675439
 31
0.0
  0
LINE
  5
92
330
65
100
AcDbEntity
  8
図枠太線
  6
CONTINUOUS
 62
   251
100
AcDbLine
 10
1.858584505185
 20
0.927375675439
 30
0.0
 11
401.858584505185
 21
0.927375675439
 31
0.0
  0
ENDBLK
  5
94
330
65
100
AcDbEntity
  8
0
100
AcDbBlockEnd
  0
BLOCK
  5
29C0
330
29BF
100
AcDbEntity
  8
0
100
AcDbBlockBegin
  2
A4横用_タイトル
 70
     0
 10
0.0
 20
0.0
 30
0.0
  3
A4横用_タイトル
  1

  0
LINE
  5
29C1
330
29BF
100
AcDbEntity
  8
図枠細線
  6
CONTINUOUS
100
AcDbLine
 10
75.061011071051
 20
16.806607253358
 30
0.0
 11
144.061011071051
 21
16.806604789072
 31
0.0
  0
LINE
  5
29C2
330
29BF
100
AcDbEntity
  8
図枠細線
  6
CONTINUOUS
 62
   252
100
AcDbLine
 10
4.061011071051
 20
11.806606253358
 30
0.0
 11
75.061011071051
 21
11.806606253358
 31
0.0
  0
LINE
  5
29C3
330
29BF
100
AcDbEntity
  8
図枠細線
  6
CONTINUOUS
 62
   252
100
AcDbLine
 10
4.061011071051
 20
21.806606253358
 30
0.0
 11
75.061011071051
 21
21.806606253358
 31
0.0
  0
LINE
  5
29C4
330
29BF
100
AcDbEntity
  8
図枠細線
  6
CONTINUOUS
 62
   252
100
AcDbLine
 10
4.061011071051
 20
26.806606253358
 30
0.0
 11
75.061011071051
 21
26.806606253358
 31
0.0
  0
LINE
  5
29C5
330
29BF
100
AcDbEntity
  8
図枠細線
  6
CONTINUOUS
100
AcDbLine
 10
4.061011071051
 20
16.806608253358
 30
0.0
 11
75.061011071051
 21
16.806608253358
 31
0.0
  0
TEXT
  5
29C6
330
29BF
100
AcDbEntity
  8
図枠細線
  6
CONTINUOUS
 62
   252
100
AcDbText
 10
76.405475827713
 20
9.560308253358
 30
0.0
 40
2.0
  1
ＴＨＩＲＤ　ＡＮＧＬＥ
 41
0.691099486738
  7
EXCADSTD
 72
     5
 11
94.005476089973
 21
9.560308253358
 31
0.0
100
AcDbText
  0
TEXT
  5
29C7
330
29BF
100
AcDbEntity
  8
図枠細線
  6
CONTINUOUS
 62
   252
100
AcDbText
 10
76.705775880921
 20
14.306608253358
 30
0.0
 40
2.0
  1
第三角法
 41
1.102941176471
  7
EXCADSTD
 72
     5
 11
86.705775880921
 21
14.306608253358
 31
0.0
100
AcDbText
  0
TEXT
  5
29C8
330
29BF
100
AcDbEntity
  8
図枠細線
  6
CONTINUOUS
 62
   252
100
AcDbText
 10
76.705775880921
 20
26.806608253358
 30
0.0
 40
2.0
  1
ＡＰＰＲＯＶＥＤ
 41
0.695652184279
  7
EXCADSTD
 72
     5
 11
89.505776071656
 21
26.806608253358
 31
0.0
100
AcDbText
  0
TEXT
  5
29C9
330
29BF
100
AcDbEntity
  8
図枠細線
  6
CONTINUOUS
 62
   252
100
AcDbText
 10
76.705775880921
 20
29.306608253358
 30
0.0
 40
2.0
  1
承認
 41
1.171875
  7
EXCADSTD
 72
     5
 11
81.705775880921
 21
29.306608253358
 31
0.0
100
AcDbText
  0
LINE
  5
29CA
330
29BF
100
AcDbEntity
  8
図枠細線
  6
CONTINUOUS
 62
   252
100
AcDbLine
 10
98.061011071051
 20
31.806606253358
 30
0.0
 11
98.061011071051
 21
16.806606253358
 31
0.0
  0
TEXT
  5
29CB
330
29BF
100
AcDbEntity
  8
図枠細線
  6
CONTINUOUS
 62
   252
100
AcDbText
 10
104.216531119804
 20
14.306608253358
 30
0.0
 40
2.0
  1
ＳＣＡＬＥ
 41
0.903614457831
  7
EXCADSTD
 72
     5
 11
114.216531119804
 21
14.306608253358
 31
0.0
100
AcDbText
  0
TEXT
  5
29CC
330
29BF
100
AcDbEntity
  8
図枠細線
  6
CONTINUOUS
 62
   252
100
AcDbText
 10
98.844044119804
 20
14.306608253358
 30
0.0
 40
2.0
  1
尺度
 41
1.171875
  7
EXCADSTD
 72
     5
 11
103.844044119804
 21
14.306608253358
 31
0.0
100
AcDbText
  0
TEXT
  5
29CD
330
29BF
100
AcDbEntity
  8
図枠細線
  6
CONTINUOUS
 62
   252
100
AcDbText
 10
98.968727707497
 20
26.806608253358
 30
0.0
 40
2.0
  1
ＣＨＥＣＫＥＤ
 41
0.831249989569
  7
EXCADSTD
 72
     5
 11
112.268727540604
 21
26.806608253358
 31
0.0
100
AcDbText
  0
TEXT
  5
29CE
330
29BF
100
AcDbEntity
  8
図枠細線
  6
CONTINUOUS
 62
   252
100
AcDbText
 10
98.968727707497
 20
29.306608253358
 30
0.0
 40
2.0
  1
検図
 41
1.209677419355
  7
EXCADSTD
 72
     5
 11
103.968727707497
 21
29.306608253358
 31
0.0
100
AcDbText
  0
LINE
  5
29CF
330
29BF
100
AcDbEntity
  8
図枠細線
  6
CONTINUOUS
 62
   252
100
AcDbLine
 10
121.061011071051
 20
31.806606253358
 30
0.0
 11
121.061011071051
 21
16.806606253358
 31
0.0
  0
TEXT
  5
29D0
330
29BF
100
AcDbEntity
  8
図枠細線
  6
CONTINUOUS
 62
   252
100
AcDbText
 10
128.001465247253
 20
14.306608253358
 30
0.0
 40
2.0
  1
ＤＡＴＥ
 41
0.923076923077
  7
EXCADSTD
 72
     5
 11
136.001465247253
 21
14.306608253358
 31
0.0
100
AcDbText
  0
TEXT
  5
29D1
330
29BF
100
AcDbEntity
  8
図枠細線
  6
CONTINUOUS
 62
   252
100
AcDbText
 10
122.066415498841
 20
14.306608253358
 30
0.0
 40
2.0
  1
日付
 41
1.171875
  7
EXCADSTD
 72
     5
 11
127.066415498841
 21
14.306608253358
 31
0.0
100
AcDbText
  0
TEXT
  5
29D2
330
29BF
100
AcDbEntity
  8
図枠細線
  6
CONTINUOUS
 62
   252
100
AcDbText
 10
121.59429406571
 20
29.306608253358
 30
0.0
 40
2.0
  1
製図
 41
1.209677419355
  7
EXCADSTD
 72
     5
 11
126.59429406571
 21
29.306608253358
 31
0.0
100
AcDbText
  0
TEXT
  5
29D3
330
29BF
100
AcDbEntity
  8
図枠細線
  6
CONTINUOUS
 62
   252
100
AcDbText
 10
121.59429406571
 20
26.806608253358
 30
0.0
 40
2.0
  1
ＤＲＡＷＮ
 41
0.882352941176
  7
EXCADSTD
 72
     5
 11
131.59429406571
 21
26.806608253358
 31
0.0
100
AcDbText
  0
TEXT
  5
29D4
330
29BF
100
AcDbEntity
  8
図枠細線
  6
CONTINUOUS
 62
   252
100
AcDbText
 10
226.591229661348
 20
14.306608253358
 30
0.0
 40
2.0
  1
ＤＲＧ．ＮＯ．
 41
0.9375
  7
EXCADSTD
 72
     5
 11
240.591229661348
 21
14.306608253358
 31
0.0
100
AcDbText
  0
LINE
  5
29D5
330
29BF
100
AcDbEntity
  8
図枠太線
  6
CONTINUOUS
 62
   251
100
AcDbLine
 10
144.061003071051
 20
16.806606253358
 30
0.0
 11
214.061011071051
 21
16.806606253358
 31
0.0
  0
LINE
  5
29D6
330
29BF
100
AcDbEntity
  8
図枠細線
  6
CONTINUOUS
 62
   252
100
AcDbLine
 10
144.061011071051
 20
24.306606253358
 30
0.0
 11
214.061011071051
 21
24.306606253358
 31
0.0
  0
TEXT
  5
29D7
330
29BF
100
AcDbEntity
  8
図枠ロゴマーク
  6
CONTINUOUS
 62
   253
100
AcDbText
 10
146.433776781596
 20
8.399000253358
 30
0.0
 40
7.0
  1
東和制電工業株式会社
 41
0.80361088462
  7
EXCADSTD
 72
     5
 11
212.437017438349
 21
8.399000253358
 31
0.0
100
AcDbText
  0
TEXT
  5
29D8
330
29BF
100
AcDbEntity
  8
図枠細線
  6
CONTINUOUS
 62
   252
100
AcDbText
 10
215.156179912936
 20
14.306608253358
 30
0.0
 40
2.0
  1
図面番号
 41
1.102941176471
  7
EXCADSTD
 72
     5
 11
225.156179912936
 21
14.306608253358
 31
0.0
100
AcDbText
  0
TEXT
  5
29D9
330
29BF
100
AcDbEntity
  8
図枠細線
  6
CONTINUOUS
 62
   252
100
AcDbText
 10
221.591229661348
 20
29.306608253358
 30
0.0
 40
2.0
  1
ＴＩＴＬＥ
 41
0.903614457831
  7
EXCADSTD
 72
     5
 11
231.591229661348
 21
29.306608253358
 31
0.0
100
AcDbText
  0
TEXT
  5
29DA
330
29BF
100
AcDbEntity
  8
図枠細線
  6
CONTINUOUS
 62
   252
100
AcDbText
 10
215.156179912936
 20
29.306608253358
 30
0.0
 40
2.0
  1
名称
 41
1.171875
  7
EXCADSTD
 72
     5
 11
220.156179912936
 21
29.306608253358
 31
0.0
100
AcDbText
  0
LINE
  5
29DB
330
29BF
100
AcDbEntity
  8
図枠太線
  6
CONTINUOUS
 62
   251
100
AcDbLine
 10
4.061011071051
 20
1.806608253358
 30
0.0
 11
284.061011071051
 21
1.806608253358
 31
0.0
  0
LINE
  5
29DC
330
29BF
100
AcDbEntity
  8
図枠細線
  6
CONTINUOUS
 62
   252
100
AcDbLine
 10
4.061011071051
 20
6.806608253358
 30
0.0
 11
75.061011071051
 21
6.806608253358
 31
0.0
  0
LINE
  5
29DD
330
29BF
100
AcDbEntity
  8
図枠太線
  6
CONTINUOUS
 62
   251
100
AcDbLine
 10
75.061011071051
 20
1.806608253358
 30
0.0
 11
75.061011071051
 21
31.806606253358
 31
0.0
  0
TEXT
  5
29DE
330
29BF
100
AcDbEntity
  8
図枠細線
  6
CONTINUOUS
 62
   252
100
AcDbText
 10
76.330551827713
 20
6.638319253358
 30
0.0
 40
2.0
  1
ＰＲＯＪＥＣＴＩＯＮ
 41
0.754285710199
  7
EXCADSTD
 72
     5
 11
93.930551732346
 21
6.638319253358
 31
0.0
100
AcDbText
  0
LINE
  5
29DF
330
29BF
100
AcDbEntity
  8
図枠細線
  6
CONTINUOUS
 62
   252
100
AcDbLine
 10
98.061011071051
 20
1.806606931929
 30
0.0
 11
98.061011071051
 21
16.806604931929
 31
0.0
  0
LINE
  5
29E0
330
29BF
100
AcDbEntity
  8
図枠細線
  6
CONTINUOUS
 62
   252
100
AcDbLine
 10
121.061011071051
 20
1.806607574787
 30
0.0
 11
121.061011071051
 21
16.806605574787
 31
0.0
  0
LINE
  5
29E1
330
29BF
100
AcDbEntity
  8
図枠太線
  6
CONTINUOUS
 62
   251
100
AcDbLine
 10
284.061011071051
 20
1.806608253358
 30
0.0
 11
284.061011071051
 21
31.806606253358
 31
0.0
  0
LINE
  5
29E2
330
29BF
100
AcDbEntity
  8
図枠細線
  6
CONTINUOUS
 62
   252
100
AcDbLine
 10
214.061011071051
 20
16.806606253358
 30
0.0
 11
284.061011071051
 21
16.806606253358
 31
0.0
  0
TEXT
  5
29E3
330
29BF
100
AcDbEntity
  8
図枠細線
  6
CONTINUOUS
 62
   252
100
AcDbText
 10
146.199593676182
 20
3.454099253358
 30
0.0
 40
3.5
  1
ＴＯＷＡ　ＳＥＩＤＥＮ　ＩＮＤＵＳＴＲＩＡＬ　ＣＯ．，ＬＴＤ．
 41
0.528937826907
  7
EXCADSTD
 72
     5
 11
213.339435171588
 21
3.454099253358
 31
0.0
100
AcDbText
  0
LINE
  5
29E4
330
29BF
100
AcDbEntity
  8
図枠太線
  6
CONTINUOUS
 62
   251
100
AcDbLine
 10
144.061011071051
 20
1.806608253358
 30
0.0
 11
144.061011071051
 21
31.806606253358
 31
0.0
  0
LINE
  5
29E5
330
29BF
100
AcDbEntity
  8
図枠太線
  6
CONTINUOUS
 62
   251
100
AcDbLine
 10
214.061011071051
 20
1.806608253358
 30
0.0
 11
214.061011071051
 21
31.806606253358
 31
0.0
  0
MTEXT
  5
29E6
330
29BF
100
AcDbEntity
  8
図枠太線
100
AcDbMText
 10
5.064337346478
 20
31.010982137407
 30
0.0
 40
2.5
 41
8.67856098472
 71
     1
 72
     5
  1
{\Fmonotxt.shx,bigfont.shx|c128;図暦}
  0
LINE
  5
29E7
330
29BF
100
AcDbEntity
  8
図枠太線
  6
CONTINUOUS
 62
   251
100
AcDbLine
 10
4.061011071051
 20
1.806608253358
 30
0.0
 11
4.061011071051
 21
31.806606253358
 31
0.0
  0
TEXT
  5
29E8
330
29BF
100
AcDbEntity
  8
図枠細線
 48
10.0
100
AcDbText
 10
12.260817420402
 20
28.625419626495
 30
0.0
 40
2.0
  1
CHANGE NOTICE
100
AcDbText
  0
ENDBLK
  5
29E9
330
29BF
100
AcDbEntity
  8
0
100
AcDbBlockEnd
  0
BLOCK
  5
29F5
330
29F4
100
AcDbEntity
  8
0
100
AcDbBlockBegin
  2
A4縦用_タイトル
 70
     0
 10
0.0
 20
0.0
 30
0.0
  3
A4縦用_タイトル
  1

  0
LINE
  5
29F6
330
29F4
100
AcDbEntity
  8
図枠太線
  6
CONTINUOUS
 62
   251
100
AcDbLine
 10
2.368253864267
 20
4.525433224584
 30
0.0
 11
192.368245864267
 21
4.525433224584
 31
0.0
  0
LINE
  5
29F7
330
29F4
100
AcDbEntity
  8
図枠太線
  6
CONTINUOUS
 62
   251
100
AcDbLine
 10
78.368245864267
 20
19.525431224584
 30
0.0
 11
135.368253864267
 21
19.525431224584
 31
0.0
  0
LINE
  5
29F8
330
29F4
100
AcDbEntity
  8
図枠細線
  6
CONTINUOUS
 62
   252
100
AcDbLine
 10
78.368253864267
 20
27.025431224584
 30
0.0
 11
135.368253864267
 21
27.025431224584
 31
0.0
  0
TEXT
  5
29F9
330
29F4
100
AcDbEntity
  8
図枠ロゴマーク
  6
CONTINUOUS
 62
   253
100
AcDbText
 10
80.617009864267
 20
11.117825224584
 30
0.0
 40
7.0
  1
東和制電工業株式会社
 41
0.639204545455
  7
EXCADSTD
 72
     5
 11
133.117009864267
 21
11.117825224584
 31
0.0
100
AcDbText
  0
TEXT
  5
29FA
330
29F4
100
AcDbEntity
  8
図枠細線
  6
CONTINUOUS
 62
   252
100
AcDbText
 10
80.579549864267
 20
6.172924224584
 30
0.0
 40
3.5
  1
ＴＯＷＡ　ＳＥＩＤＥＮ　ＩＮＤＵＳＴＲＩＡＬ　ＣＯ．，ＬＴＤ．
 41
0.414568012377
  7
EXCADSTD
 72
     5
 11
133.202049568628
 21
6.172924224584
 31
0.0
100
AcDbText
  0
LINE
  5
29FB
330
29F4
100
AcDbEntity
  8
図枠太線
  6
CONTINUOUS
 62
   251
100
AcDbLine
 10
2.368253864267
 20
4.525433224584
 30
0.0
 11
2.368253864267
 21
34.525431224584
 31
0.0
  0
TEXT
  5
29FC
330
29F4
100
AcDbEntity
  8
図枠細線
  6
CONTINUOUS
 62
   252
100
AcDbText
 10
22.504308136501
 20
12.279133224584
 30
0.0
 40
2.0
  1
ＴＨＩＲＤ　ＡＮＧＬＥ
 41
0.691099486738
  7
EXCADSTD
 72
     5
 11
40.104308398762
 21
12.279133224584
 31
0.0
100
AcDbText
  0
TEXT
  5
29FD
330
29F4
100
AcDbEntity
  8
図枠細線
  6
CONTINUOUS
 62
   252
100
AcDbText
 10
22.429384136501
 20
9.357144224584
 30
0.0
 40
2.0
  1
ＰＲＯＪＥＣＴＩＯＮ
 41
0.754285710199
  7
EXCADSTD
 72
     5
 11
40.029384041134
 21
9.357144224584
 31
0.0
100
AcDbText
  0
LINE
  5
29FE
330
29F4
100
AcDbEntity
  8
図枠細線
  6
CONTINUOUS
100
AcDbLine
 10
22.368253864267
 20
19.525433224584
 30
0.0
 11
78.368253864267
 21
19.525431224584
 31
0.0
  0
TEXT
  5
29FF
330
29F4
100
AcDbEntity
  8
図枠細線
  6
CONTINUOUS
 62
   252
100
AcDbText
 10
22.868253864267
 20
17.025433224584
 30
0.0
 40
2.0
  1
第三角法
 41
1.102941176471
  7
EXCADSTD
 72
     5
 11
32.868253864267
 21
17.025433224584
 31
0.0
100
AcDbText
  0
TEXT
  5
2A00
330
29F4
100
AcDbEntity
  8
図枠細線
  6
CONTINUOUS
 62
   252
100
AcDbText
 10
22.868253864267
 20
29.525433224584
 30
0.0
 40
2.0
  1
ＡＰＰＲＯＶＥＤ
 41
0.695652184279
  7
EXCADSTD
 72
     5
 11
35.668254055002
 21
29.525433224584
 31
0.0
100
AcDbText
  0
LINE
  5
2A01
330
29F4
100
AcDbEntity
  8
図枠細線
  6
CONTINUOUS
 62
   252
100
AcDbLine
 10
2.368253864267
 20
9.525433224584
 30
0.0
 11
22.368253864267
 21
9.525433224584
 31
0.0
  0
LINE
  5
2A02
330
29F4
100
AcDbEntity
  8
図枠細線
  6
CONTINUOUS
 62
   252
100
AcDbLine
 10
2.368253864267
 20
14.525431224584
 30
0.0
 11
22.368253864267
 21
14.525431224584
 31
0.0
  0
LINE
  5
2A03
330
29F4
100
AcDbEntity
  8
図枠細線
  6
CONTINUOUS
 62
   252
100
AcDbLine
 10
2.368253864267
 20
24.525431224584
 30
0.0
 11
22.368253864267
 21
24.525431224584
 31
0.0
  0
LINE
  5
2A04
330
29F4
100
AcDbEntity
  8
図枠細線
  6
CONTINUOUS
 62
   252
100
AcDbLine
 10
2.368253864267
 20
29.525431224584
 30
0.0
 11
22.368253864267
 21
29.525431224584
 31
0.0
  0
LINE
  5
2A05
330
29F4
100
AcDbEntity
  8
図枠細線
  6
CONTINUOUS
100
AcDbLine
 10
2.368253864267
 20
19.525433224584
 30
0.0
 11
22.368253864267
 21
19.525433224584
 31
0.0
  0
TEXT
  5
2A06
330
29F4
100
AcDbEntity
  8
図枠細線
  6
CONTINUOUS
 62
   252
100
AcDbText
 10
2.868253864267
 20
32.025433224584
 30
0.0
 40
2.0
  1
ＮＯＴＥ
 41
0.923076923077
  7
EXCADSTD
 72
     5
 11
10.868253864267
 21
32.025433224584
 31
0.0
100
AcDbText
  0
LINE
  5
2A07
330
29F4
100
AcDbEntity
  8
図枠太線
  6
CONTINUOUS
 62
   251
100
AcDbLine
 10
22.368253864267
 20
4.525433224584
 30
0.0
 11
22.368253864267
 21
34.525431224584
 31
0.0
  0
TEXT
  5
2A08
330
29F4
100
AcDbEntity
  8
図枠細線
  6
CONTINUOUS
 62
   252
100
AcDbText
 10
22.868253864267
 20
32.025433224584
 30
0.0
 40
2.0
  1
承認
 41
1.171875
  7
EXCADSTD
 72
     5
 11
27.868253864267
 21
32.025433224584
 31
0.0
100
AcDbText
  0
TEXT
  5
2A09
330
29F4
100
AcDbEntity
  8
図枠細線
  6
CONTINUOUS
 62
   252
100
AcDbText
 10
60.711709035982
 20
32.025433224584
 30
0.0
 40
2.0
  1
製図
 41
1.209677419355
  7
EXCADSTD
 72
     5
 11
65.711709035982
 21
32.025433224584
 31
0.0
100
AcDbText
  0
TEXT
  5
2A0A
330
29F4
100
AcDbEntity
  8
図枠細線
  6
CONTINUOUS
 62
   252
100
AcDbText
 10
60.711709035982
 20
29.525433224584
 30
0.0
 40
2.0
  1
ＤＲＡＷＮ
 41
0.882352941176
  7
EXCADSTD
 72
     5
 11
70.711709035982
 21
29.525433224584
 31
0.0
100
AcDbText
  0
TEXT
  5
2A0B
330
29F4
100
AcDbEntity
  8
図枠細線
  6
CONTINUOUS
 62
   252
100
AcDbText
 10
60.834891743877
 20
17.025433224584
 30
0.0
 40
2.0
  1
日付
 41
1.171875
  7
EXCADSTD
 72
     5
 11
65.834891743877
 21
17.025433224584
 31
0.0
100
AcDbText
  0
TEXT
  5
2A0C
330
29F4
100
AcDbEntity
  8
図枠細線
  6
CONTINUOUS
 62
   252
100
AcDbText
 10
47.333660864267
 20
17.025433224584
 30
0.0
 40
2.0
  1
ＳＣＡＬＥ
 41
0.903614457831
  7
EXCADSTD
 72
     5
 11
57.333660864267
 21
17.025433224584
 31
0.0
100
AcDbText
  0
TEXT
  5
2A0D
330
29F4
100
AcDbEntity
  8
図枠細線
  6
CONTINUOUS
 62
   252
100
AcDbText
 10
42.281425990082
 20
29.525433224584
 30
0.0
 40
2.0
  1
ＣＨＥＣＫＥＤ
 41
0.831249989569
  7
EXCADSTD
 72
     5
 11
55.581425823189
 21
29.525433224584
 31
0.0
100
AcDbText
  0
LINE
  5
2A0E
330
29F4
100
AcDbEntity
  8
図枠細線
  6
CONTINUOUS
 62
   252
100
AcDbLine
 10
40.968253864267
 20
34.525431224584
 30
0.0
 11
40.968253864267
 21
19.525431224584
 31
0.0
  0
LINE
  5
2A0F
330
29F4
100
AcDbEntity
  8
図枠細線
  6
CONTINUOUS
 62
   252
100
AcDbLine
 10
40.968253864267
 20
4.525433224584
 30
0.0
 11
40.968253864267
 21
19.525431224584
 31
0.0
  0
TEXT
  5
2A10
330
29F4
100
AcDbEntity
  8
図枠細線
  6
CONTINUOUS
 62
   252
100
AcDbText
 10
41.961173864267
 20
17.025433224584
 30
0.0
 40
2.0
  1
尺度
 41
1.171875
  7
EXCADSTD
 72
     5
 11
46.961173864267
 21
17.025433224584
 31
0.0
100
AcDbText
  0
TEXT
  5
2A11
330
29F4
100
AcDbEntity
  8
図枠細線
  6
CONTINUOUS
 62
   252
100
AcDbText
 10
42.281425990082
 20
32.025433224584
 30
0.0
 40
2.0
  1
検図
 41
1.209677419355
  7
EXCADSTD
 72
     5
 11
47.281425990082
 21
32.025433224584
 31
0.0
100
AcDbText
  0
LINE
  5
2A12
330
29F4
100
AcDbEntity
  8
図枠細線
  6
CONTINUOUS
 62
   252
100
AcDbLine
 10
59.768253864267
 20
34.525431224584
 30
0.0
 11
59.768253864267
 21
19.525431224584
 31
0.0
  0
LINE
  5
2A13
330
29F4
100
AcDbEntity
  8
図枠細線
  6
CONTINUOUS
 62
   252
100
AcDbLine
 10
59.768253864267
 20
4.525433224584
 30
0.0
 11
59.768253864267
 21
19.525431224584
 31
0.0
  0
LINE
  5
2A14
330
29F4
100
AcDbEntity
  8
図枠太線
  6
CONTINUOUS
 62
   251
100
AcDbLine
 10
78.368253864267
 20
4.525433224584
 30
0.0
 11
78.368253864267
 21
34.525431224584
 31
0.0
  0
TEXT
  5
2A15
330
29F4
100
AcDbEntity
  8
図枠細線
  6
CONTINUOUS
 62
   252
100
AcDbText
 10
66.334891743877
 20
17.025433224584
 30
0.0
 40
2.0
  1
ＤＡＴＥ
 41
0.923076923077
  7
EXCADSTD
 72
     5
 11
74.334891743877
 21
17.025433224584
 31
0.0
100
AcDbText
  0
LINE
  5
2A16
330
29F4
100
AcDbEntity
  8
図枠細線
  6
CONTINUOUS
 62
   252
100
AcDbLine
 10
135.368253864267
 20
19.525431224584
 30
0.0
 11
192.368245864267
 21
19.525431224584
 31
0.0
  0
TEXT
  5
2A17
330
29F4
100
AcDbEntity
  8
図枠細線
  6
CONTINUOUS
 62
   252
100
AcDbText
 10
141.868253864267
 20
32.025433224584
 30
0.0
 40
2.0
  1
ＴＩＴＬＥ
 41
0.903614457831
  7
EXCADSTD
 72
     5
 11
151.868253864267
 21
32.025433224584
 31
0.0
100
AcDbText
  0
LINE
  5
2A18
330
29F4
100
AcDbEntity
  8
図枠太線
  6
CONTINUOUS
 62
   251
100
AcDbLine
 10
135.368253864267
 20
4.525433224584
 30
0.0
 11
135.368253864267
 21
34.525431224584
 31
0.0
  0
TEXT
  5
2A19
330
29F4
100
AcDbEntity
  8
図枠細線
  6
CONTINUOUS
 62
   252
100
AcDbText
 10
135.868253864267
 20
17.025433224584
 30
0.0
 40
2.0
  1
図面番号
 41
1.102941176471
  7
EXCADSTD
 72
     5
 11
145.868253864267
 21
17.025433224584
 31
0.0
100
AcDbText
  0
TEXT
  5
2A1A
330
29F4
100
AcDbEntity
  8
図枠細線
  6
CONTINUOUS
 62
   252
100
AcDbText
 10
135.868253864267
 20
32.025433224584
 30
0.0
 40
2.0
  1
名称
 41
1.171875
  7
EXCADSTD
 72
     5
 11
140.868253864267
 21
32.025433224584
 31
0.0
100
AcDbText
  0
TEXT
  5
2A1B
330
29F4
100
AcDbEntity
  8
図枠細線
  6
CONTINUOUS
 62
   252
100
AcDbText
 10
146.868253864267
 20
17.025433224584
 30
0.0
 40
2.0
  1
ＤＲＧ．ＮＯ．
 41
0.9375
  7
EXCADSTD
 72
     5
 11
160.868253864267
 21
17.025433224584
 31
0.0
100
AcDbText
  0
LINE
  5
2A1C
330
29F4
100
AcDbEntity
  8
図枠太線
  6
CONTINUOUS
 62
   251
100
AcDbLine
 10
192.368245864267
 20
4.525433224584
 30
0.0
 11
192.368245864267
 21
34.525431224584
 31
0.0
  0
ENDBLK
  5
2A1D
330
29F4
100
AcDbEntity
  8
0
100
AcDbBlockEnd
  0
BLOCK
  5
2A33
330
2A32
100
AcDbEntity
  8
0
100
AcDbBlockBegin
  2
A3横用_タイトル
 70
     0
 10
0.0
 20
0.0
 30
0.0
  3
A3横用_タイトル
  1

  0
LINE
  5
2A34
330
2A32
100
AcDbEntity
  8
図枠細線
  6
CONTINUOUS
 62
   252
100
AcDbLine
 10
205.098414535793
 20
33.525959753527
 30
0.0
 11
305.098414535793
 21
33.525959753527
 31
0.0
  0
LINE
  5
2A35
330
2A32
100
AcDbEntity
  8
図枠太線
  6
CONTINUOUS
 62
   251
100
AcDbLine
 10
205.098414535793
 20
23.525959753527
 30
0.0
 11
305.098414535793
 21
23.525959753527
 31
0.0
  0
LINE
  5
2A36
330
2A32
100
AcDbEntity
  8
図枠細線
  6
CONTINUOUS
100
AcDbLine
 10
5.098414535793
 20
23.525959753527
 30
0.0
 11
105.098414535793
 21
23.525959753527
 31
0.0
  0
LINE
  5
2A37
330
2A32
100
AcDbEntity
  8
図枠細線
  6
CONTINUOUS
 62
   252
100
AcDbLine
 10
5.098414535793
 20
36.725957753527
 30
0.0
 11
105.098414535793
 21
36.725957753527
 31
0.0
  0
LINE
  5
2A38
330
2A32
100
AcDbEntity
  8
図枠細線
  6
CONTINUOUS
 62
   252
100
AcDbLine
 10
5.098414535793
 20
30.125957753527
 30
0.0
 11
105.098414535793
 21
30.125957753527
 31
0.0
  0
LINE
  5
2A39
330
2A32
100
AcDbEntity
  8
図枠細線
  6
CONTINUOUS
 62
   252
100
AcDbLine
 10
5.098414535793
 20
16.725959753527
 30
0.0
 11
105.098414535793
 21
16.725959753527
 31
0.0
  0
LINE
  5
2A3A
330
2A32
100
AcDbEntity
  8
図枠細線
  6
CONTINUOUS
 62
   252
100
AcDbLine
 10
5.098414535793
 20
10.125959753527
 30
0.0
 11
105.098414535793
 21
10.125959753527
 31
0.0
  0
LINE
  5
2A3B
330
2A32
100
AcDbEntity
  8
図枠細線
  6
CONTINUOUS
100
AcDbLine
 10
105.098414535793
 20
23.525961753527
 30
0.0
 11
205.098414535793
 21
23.525959753527
 31
0.0
  0
LINE
  5
2A3C
330
2A32
100
AcDbEntity
  8
図枠細線
  6
CONTINUOUS
 62
   252
100
AcDbLine
 10
138.398414535793
 20
43.525959753527
 30
0.0
 11
138.398414535793
 21
18.525957753527
 31
0.0
  0
LINE
  5
2A3D
330
2A32
100
AcDbEntity
  8
図枠細線
  6
CONTINUOUS
 62
   252
100
AcDbLine
 10
171.698414535793
 20
43.525959753527
 30
0.0
 11
171.698414535793
 21
18.525957753527
 31
0.0
  0
LINE
  5
2A3E
330
2A32
100
AcDbEntity
  8
図枠細線
  6
CONTINUOUS
 62
   252
100
AcDbLine
 10
305.098414535793
 20
23.525959753527
 30
0.0
 11
405.098414535793
 21
23.525959753527
 31
0.0
  0
TEXT
  5
2A3F
330
2A32
100
AcDbEntity
  8
図枠ロゴマーク
  6
CONTINUOUS
 62
   253
100
AcDbText
 10
206.102509212755
 20
13.294257570546
 30
0.0
 40
7.0
  1
東和制電工業株式会社
 50
0.016555220185
 41
1.186384129432
  7
EXCADSTD
 72
     5
 11
303.544188309143
 21
13.322412672217
 31
0.0
100
AcDbText
  0
MTEXT
  5
2A40
330
2A32
100
AcDbEntity
  8
図枠細線
100
AcDbMText
 10
6.356764112375
 20
41.976594175478
 30
0.0
 40
2.5
 41
49.938282706292
 71
     1
 72
     5
  1
{\Fmonotxt.shx,bigfont.shx|c128;図暦　CHANGE　NOTICE}
  0
MTEXT
  5
2A41
330
2A32
100
AcDbEntity
  8
図枠細線
 48
10.0
100
AcDbMText
 10
306.544114926828
 20
41.701835800934
 30
0.0
 40
2.5
 41
28.002809618823
 71
     1
 72
     5
  1
{\Fmonotxt.shx,bigfont.shx|c128;名称　TITLE}
  0
MTEXT
  5
2A42
330
2A32
100
AcDbEntity
  8
図枠細線
 48
10.0
100
AcDbMText
 10
307.329617114284
 20
21.606206797226
 30
0.0
 40
2.5
 41
24.385612216707
 71
     1
 72
     5
  1
{\Fmonotxt.shx,bigfont.shx|c128;図面番号\PDRG.　No.}
  0
MTEXT
  5
2A43
330
2A32
100
AcDbEntity
  8
図枠細線
 48
10.0
100
AcDbMText
 10
173.726349404609
 20
21.73680662198
 30
0.0
 40
2.5
 41
25.735090160813
 71
     1
 72
     5
  1
{\Fmonotxt.shx,bigfont.shx|c128;日付 DATE}
  0
MTEXT
  5
2A44
330
2A32
100
AcDbEntity
  8
図枠細線
 48
10.0
100
AcDbMText
 10
173.48708833982
 20
41.621592044998
 30
0.0
 40
2.5
 41
24.983741184205
 71
     1
 72
     5
  1
{\Fmonotxt.shx,bigfont.shx|c128;製図　DRAWN}
  0
MTEXT
  5
2A45
330
2A32
100
AcDbEntity
  8
図枠細線
 48
10.0
100
AcDbMText
 10
139.28009927741
 20
21.866713069868
 30
0.0
 40
2.5
 41
22.629632913243
 71
     1
 72
     5
  1
{\Fmonotxt.shx,bigfont.shx|c128;尺度　SCALE}
  0
MTEXT
  5
2A46
330
2A32
100
AcDbEntity
  8
図枠細線
 48
10.0
100
AcDbMText
 10
139.910091179835
 20
41.311840415554
 30
0.0
 40
2.5
 41
28.998753428368
 71
     1
 72
     5
  1
{\Fmonotxt.shx,bigfont.shx|c128;検図  CHECKED}
  0
MTEXT
  5
2A47
330
2A32
100
AcDbEntity
  8
図枠細線
 48
10.0
100
AcDbMText
 10
114.253294667728
 20
21.916124850174
 30
0.0
 40
3.0
 41
19.692400475383
 71
     1
 72
     5
  1
{\Fmonotxt.shx,bigfont.shx|c128;第三角法}
  0
MTEXT
  5
2A48
330
2A32
100
AcDbEntity
  8
図枠細線
 48
10.0
100
AcDbMText
 10
108.986959929915
 20
15.282880185837
 30
0.0
 40
2.5
 41
27.954882823547
 71
     1
 72
     5
  1
{\Fmonotxt.shx,bigfont.shx|c128;THIRD ANGLE\PPROJECTION}
  0
MTEXT
  5
2A49
330
2A32
100
AcDbEntity
  8
図枠細線
 48
10.0
100
AcDbMText
 10
106.319432640184
 20
41.511437145487
 30
0.0
 40
2.5
 41
28.233595265074
 71
     1
 72
     5
  1
{\Fmonotxt.shx,bigfont.shx|c128;承認 APPROVED}
  0
LINE
  5
2A4A
330
2A32
100
AcDbEntity
  8
図枠太線
  6
CONTINUOUS
 62
   251
100
AcDbLine
 10
5.098414535793
 20
3.525959753527
 30
0.0
 11
405.098414535793
 21
3.525959753527
 31
0.0
  0
LINE
  5
2A4B
330
2A32
100
AcDbEntity
  8
図枠太線
 48
10.0
100
AcDbLine
 10
5.098414535793
 20
3.525959753527
 30
0.0
 11
5.098414535793
 21
43.525959753527
 31
0.0
  0
LINE
  5
2A4C
330
2A32
100
AcDbEntity
  8
図枠太線
  6
CONTINUOUS
 62
   251
100
AcDbLine
 10
105.098414535793
 20
3.525959753527
 30
0.0
 11
105.098414535793
 21
43.525959753527
 31
0.0
  0
LINE
  5
2A4D
330
2A32
100
AcDbEntity
  8
図枠細線
  6
CONTINUOUS
 62
   252
100
AcDbLine
 10
138.398414535793
 20
3.525959753527
 30
0.0
 11
138.398414535793
 21
18.525957753527
 31
0.0
  0
LINE
  5
2A4E
330
2A32
100
AcDbEntity
  8
図枠細線
  6
CONTINUOUS
 62
   252
100
AcDbLine
 10
171.698414535793
 20
3.525959753527
 30
0.0
 11
171.698414535793
 21
18.525957753527
 31
0.0
  0
LINE
  5
2A4F
330
2A32
100
AcDbEntity
  8
図枠太線
  6
CONTINUOUS
 62
   251
100
AcDbLine
 10
205.098414535793
 20
3.525959753527
 30
0.0
 11
205.098414535793
 21
43.525959753527
 31
0.0
  0
LINE
  5
2A50
330
2A32
100
AcDbEntity
  8
図枠太線
 48
10.0
100
AcDbLine
 10
405.098414535793
 20
43.525959753527
 30
0.0
 11
405.098414535793
 21
3.525959753527
 31
0.0
  0
TEXT
  5
2A51
330
2A32
100
AcDbEntity
  8
図枠細線
  6
CONTINUOUS
 62
   252
100
AcDbText
 10
208.519754474572
 20
6.482358407285
 30
0.0
 40
3.5
  1
ＴＯＷＡ　ＳＥＩＤＥＮ　ＩＮＤＵＳＴＲＩＡＬ　ＣＯ．，ＬＴＤ．
 41
0.746656297509
  7
EXCADSTD
 72
     5
 11
303.295327171727
 21
6.482358407285
 31
0.0
100
AcDbText
  0
LINE
  5
2A52
330
2A32
100
AcDbEntity
  8
図枠太線
  6
CONTINUOUS
 62
   251
100
AcDbLine
 10
305.098414535793
 20
3.525959753527
 30
0.0
 11
305.098414535793
 21
43.525959753527
 31
0.0
  0
ENDBLK
  5
2A53
330
2A32
100
AcDbEntity
  8
0
100
AcDbBlockEnd
  0
BLOCK
  5
2A6D
330
2A6C
100
AcDbEntity
  8
0
100
AcDbBlockBegin
  2
A3縦用_タイトル
 70
     0
 10
0.0
 20
0.0
 30
0.0
  3
A3縦用_タイトル
  1

  0
MTEXT
  5
2A6E
330
2A6C
100
AcDbEntity
  8
図枠細線
100
AcDbMText
 10
5.040804501593
 20
31.626098649005
 30
0.0
 40
2.5
 41
49.938282706292
 71
     1
 72
     5
  1
{\Fmonotxt.shx,bigfont.shx|c128;図暦　CHANGE　NOTICE}
  0
LINE
  5
2A6F
330
2A6C
100
AcDbEntity
  8
図枠太線
  6
CONTINUOUS
 62
   251
100
AcDbLine
 10
283.577871882961
 20
2.820844689254
 30
0.0
 11
283.577871882961
 21
32.820842689254
 31
0.0
  0
MTEXT
  5
2A70
330
2A6C
100
AcDbEntity
  8
図枠細線
 48
10.0
100
AcDbMText
 10
214.912458947454
 20
31.621488632308
 30
0.0
 40
2.5
 41
28.002809618823
 71
     1
 72
     5
  1
{\Fmonotxt.shx,bigfont.shx|c128;名称　TITLE}
  0
MTEXT
  5
2A71
330
2A6C
100
AcDbEntity
  8
図枠細線
 48
10.0
100
AcDbMText
 10
214.740030458938
 20
16.310225796722
 30
0.0
 40
2.5
 41
24.385612216707
 71
     1
 72
     5
  1
{\Fmonotxt.shx,bigfont.shx|c128;図面番号\PDRG.　No.}
  0
LINE
  5
2A72
330
2A6C
100
AcDbEntity
  8
図枠太線
  6
CONTINUOUS
 62
   251
100
AcDbLine
 10
213.577871882961
 20
2.820844689254
 30
0.0
 11
213.577871882961
 21
32.820842689254
 31
0.0
  0
LINE
  5
2A73
330
2A6C
100
AcDbEntity
  8
図枠太線
  6
CONTINUOUS
 62
   251
100
AcDbLine
 10
143.577871882961
 20
2.820844689254
 30
0.0
 11
143.577871882961
 21
32.820842689254
 31
0.0
  0
TEXT
  5
2A74
330
2A6C
100
AcDbEntity
  8
図枠細線
  6
CONTINUOUS
 62
   252
100
AcDbText
 10
145.716454488093
 20
4.468335689254
 30
0.0
 40
3.5
  1
ＴＯＷＡ　ＳＥＩＤＥＮ　ＩＮＤＵＳＴＲＩＡＬ　ＣＯ．，ＬＴＤ．
 41
0.528937826907
  7
EXCADSTD
 72
     5
 11
212.856295983498
 21
4.468335689254
 31
0.0
100
AcDbText
  0
TEXT
  5
2A75
330
2A6C
100
AcDbEntity
  8
図枠ロゴマーク
  6
CONTINUOUS
 62
   253
100
AcDbText
 10
145.950637593507
 20
9.413236689254
 30
0.0
 40
7.0
  1
東和制電工業株式会社
 41
0.80361088462
  7
EXCADSTD
 72
     5
 11
211.953878250259
 21
9.413236689254
 31
0.0
100
AcDbText
  0
LINE
  5
2A76
330
2A6C
100
AcDbEntity
  8
図枠細線
  6
CONTINUOUS
 62
   252
100
AcDbLine
 10
143.577871882961
 20
25.320842689254
 30
0.0
 11
213.577871882961
 21
25.320842689254
 31
0.0
  0
LINE
  5
2A77
330
2A6C
100
AcDbEntity
  8
図枠太線
  6
CONTINUOUS
 62
   251
100
AcDbLine
 10
143.577863882961
 20
17.820842689254
 30
0.0
 11
213.577871882961
 21
17.820842689254
 31
0.0
  0
LINE
  5
2A78
330
2A6C
100
AcDbEntity
  8
図枠細線
  6
CONTINUOUS
 62
   252
100
AcDbLine
 10
213.577871882961
 20
17.820842689254
 30
0.0
 11
283.577871882961
 21
17.820842689254
 31
0.0
  0
LINE
  5
2A79
330
2A6C
100
AcDbEntity
  8
図枠細線
  6
CONTINUOUS
 62
   252
100
AcDbLine
 10
120.577871882961
 20
32.820842689254
 30
0.0
 11
120.577871882961
 21
17.820842689254
 31
0.0
  0
MTEXT
  5
2A7A
330
2A6C
100
AcDbEntity
  8
図枠細線
 48
10.0
100
AcDbMText
 10
121.100885670352
 20
16.33785922638
 30
0.0
 40
2.0
 41
17.705978285068
 71
     1
 72
     5
  1
{\Fmonotxt.shx,bigfont.shx|c128;日付 DATE}
  0
MTEXT
  5
2A7B
330
2A6C
100
AcDbEntity
  8
図枠細線
 48
10.0
100
AcDbMText
 10
121.254842273491
 20
31.208993514037
 30
0.0
 40
2.0
 41
18.363799568758
 71
     1
 72
     5
  1
{\Fmonotxt.shx,bigfont.shx|c128;製図　DRAWN}
  0
LINE
  5
2A7C
330
2A6C
100
AcDbEntity
  8
図枠細線
  6
CONTINUOUS
 62
   252
100
AcDbLine
 10
97.577871882961
 20
32.820842689254
 30
0.0
 11
97.577871882961
 21
17.820842689254
 31
0.0
  0
MTEXT
  5
2A7D
330
2A6C
100
AcDbEntity
  8
図枠細線
 48
10.0
100
AcDbMText
 10
98.239734796872
 20
16.467764839281
 30
0.0
 40
2.0
 41
17.757791689903
 71
     1
 72
     5
  1
{\Fmonotxt.shx,bigfont.shx|c128;尺度　SCALE}
  0
MTEXT
  5
2A7E
330
2A6C
100
AcDbEntity
  8
図枠細線
 48
10.0
100
AcDbMText
 10
97.864744625154
 20
31.298433377664
 30
0.0
 40
2.0
 41
23.162655920976
 71
     1
 72
     5
  1
{\Fmonotxt.shx,bigfont.shx|c128;検図  CHECKED}
  0
LINE
  5
2A7F
330
2A6C
100
AcDbEntity
  8
図枠細線
  6
CONTINUOUS
 62
   252
100
AcDbLine
 10
97.577871882961
 20
2.820843367826
 30
0.0
 11
97.577871882961
 21
17.820841367826
 31
0.0
  0
LINE
  5
2A80
330
2A6C
100
AcDbEntity
  8
図枠細線
  6
CONTINUOUS
 62
   252
100
AcDbLine
 10
120.577871882961
 20
2.820844010683
 30
0.0
 11
120.577871882961
 21
17.820842010683
 31
0.0
  0
MTEXT
  5
2A81
330
2A6C
100
AcDbEntity
  8
図枠細線
 48
10.0
100
AcDbMText
 10
81.402399084102
 20
16.316484117426
 30
0.0
 40
2.0
 41
12.920322819369
 71
     1
 72
     5
  1
{\Fmonotxt.shx,bigfont.shx|c128;第三角法}
  0
MTEXT
  5
2A82
330
2A6C
100
AcDbEntity
  8
図枠細線
 48
10.0
100
AcDbMText
 10
75.736576535096
 20
11.080410931319
 30
0.0
 40
2.0
 41
21.072870671471
 71
     1
 72
     5
  1
{\Fmonotxt.shx,bigfont.shx|c128;THIRD ANGLE\PPROJECTION}
  0
LINE
  5
2A83
330
2A6C
100
AcDbEntity
  8
図枠太線
  6
CONTINUOUS
 62
   251
100
AcDbLine
 10
74.577871882961
 20
2.820844689254
 30
0.0
 11
74.577871882961
 21
32.820842689254
 31
0.0
  0
MTEXT
  5
2A84
330
2A6C
100
AcDbEntity
  8
図枠細線
 48
10.0
100
AcDbMText
 10
75.060214781573
 20
31.298434778555
 30
0.0
 40
2.0
 41
22.240928805967
 71
     1
 72
     5
  1
{\Fmonotxt.shx,bigfont.shx|c128;承認 APPROVED}
  0
LINE
  5
2A85
330
2A6C
100
AcDbEntity
  8
図枠細線
  6
CONTINUOUS
100
AcDbLine
 10
3.577871882961
 20
17.820844689254
 30
0.0
 11
74.577871882961
 21
17.820844689254
 31
0.0
  0
LINE
  5
2A86
330
2A6C
100
AcDbEntity
  8
図枠細線
  6
CONTINUOUS
 62
   252
100
AcDbLine
 10
3.577871882961
 20
27.820842689254
 30
0.0
 11
74.577871882961
 21
27.820842689254
 31
0.0
  0
LINE
  5
2A87
330
2A6C
100
AcDbEntity
  8
図枠細線
  6
CONTINUOUS
 62
   252
100
AcDbLine
 10
3.577871882961
 20
22.820842689254
 30
0.0
 11
74.577871882961
 21
22.820842689254
 31
0.0
  0
LINE
  5
2A88
330
2A6C
100
AcDbEntity
  8
図枠細線
  6
CONTINUOUS
 62
   252
100
AcDbLine
 10
3.577871882961
 20
12.820842689254
 30
0.0
 11
74.577871882961
 21
12.820842689254
 31
0.0
  0
LINE
  5
2A89
330
2A6C
100
AcDbEntity
  8
図枠細線
  6
CONTINUOUS
 62
   252
100
AcDbLine
 10
3.577871882961
 20
7.820844689254
 30
0.0
 11
74.577871882961
 21
7.820844689254
 31
0.0
  0
LINE
  5
2A8A
330
2A6C
100
AcDbEntity
  8
図枠細線
  6
CONTINUOUS
100
AcDbLine
 10
74.577871882961
 20
17.820843689254
 30
0.0
 11
143.577871882961
 21
17.820841224969
 31
0.0
  0
LINE
  5
2A8B
330
2A6C
100
AcDbEntity
  8
図枠太線
  6
CONTINUOUS
 62
   251
100
AcDbLine
 10
3.577871882961
 20
2.820844689254
 30
0.0
 11
283.577871882961
 21
2.820844689254
 31
0.0
  0
LINE
  5
2A8C
330
2A6C
100
AcDbEntity
  8
図枠太線
  6
CONTINUOUS
 62
   251
100
AcDbLine
 10
3.577871882961
 20
2.820844689254
 30
0.0
 11
3.577871882961
 21
32.820842689254
 31
0.0
  0
ENDBLK
  5
2A8D
330
2A6C
100
AcDbEntity
  8
0
100
AcDbBlockEnd
  0
BLOCK
  5
2AF8
330
2AF4
100
AcDbEntity
  8
0
 48
10.0
100
AcDbBlockBegin
  2
_OPEN30
 70
     0
 10
0.0
 20
0.0
 30
0.0
  3
_OPEN30
  1

  0
LINE
  5
2AF5
330
2AF4
100
AcDbEntity
  8
0
  6
BYBLOCK
 62
     0
100
AcDbLine
 10
-1.0
 20
0.26794919
 30
0.0
 11
0.0
 21
0.0
 31
0.0
  0
LINE
  5
2AF6
330
2AF4
100
AcDbEntity
  8
0
  6
BYBLOCK
 62
     0
100
AcDbLine
 10
0.0
 20
0.0
 30
0.0
 11
-1.0
 21
-0.26794919
 31
0.0
  0
LINE
  5
2AF7
330
2AF4
100
AcDbEntity
  8
0
  6
BYBLOCK
 62
     0
100
AcDbLine
 10
0.0
 20
0.0
 30
0.0
 11
-1.0
 21
0.0
 31
0.0
  0
ENDBLK
  5
2AF9
330
2AF4
100
AcDbEntity
  8
0
 48
10.0
100
AcDbBlockEnd
  0
BLOCK
  5
4B17
330
4B0D
100
AcDbEntity
  8
0
 48
10.0
100
AcDbBlockBegin
  2
*D6
 70
     1
 10
0.0
 20
0.0
 30
0.0
  3
*D6
  1

  0
LINE
  5
4C3B
330
4B0D
100
AcDbEntity
  8
寸法線
 62
     0
 48
10.0
100
AcDbLine
 10
898.250019750646
 20
1071.410567201735
 30
0.0
 11
846.439864152243
 21
1071.410567201735
 31
0.0
  0
LINE
  5
4C3C
330
4B0D
100
AcDbEntity
  8
寸法線
 62
     0
 48
10.0
100
AcDbLine
 10
898.250019750646
 20
1097.410567201735
 30
0.0
 11
846.439864152243
 21
1097.410567201735
 31
0.0
  0
LINE
  5
4C3D
330
4B0D
100
AcDbEntity
  8
寸法線
 62
     0
 48
10.0
100
AcDbLine
 10
847.689864152243
 20
1075.710567201735
 30
0.0
 11
847.689864152243
 21
1093.110567201735
 31
0.0
  0
INSERT
  5
4C3E
330
4B0D
100
AcDbEntity
  8
寸法線
 62
     0
 48
10.0
100
AcDbBlockReference
  2
_OPEN30
 10
847.689864152243
 20
1071.410567201735
 30
0.0
 41
4.3
 42
4.3
 43
4.3
 50
270.0
  0
INSERT
  5
4C3F
330
4B0D
100
AcDbEntity
  8
寸法線
 62
     0
 48
10.0
100
AcDbBlockReference
  2
_OPEN30
 10
847.689864152243
 20
1097.410567201735
 30
0.0
 41
4.3
 42
4.3
 43
4.3
 50
90.0
  0
MTEXT
  5
4C40
330
4B0D
100
AcDbEntity
  8
寸法線
 62
     0
 48
10.0
100
AcDbMText
 10
843.064076750668
 20
1084.410567201735
 30
0.0
 40
8.0
 41
0.0
 71
     5
 72
     1
  1
\A1;26
 11
6.123031769111886E-17
 21
1.0
 31
0.0
  0
POINT
  5
4C41
330
4B0D
100
AcDbEntity
  8
DEFPOINTS
 62
     0
 48
10.0
100
AcDbPoint
 10
898.875019750646
 20
1071.410567201735
 30
0.0
  0
POINT
  5
4C42
330
4B0D
100
AcDbEntity
  8
DEFPOINTS
 62
     0
 48
10.0
100
AcDbPoint
 10
898.875019750646
 20
1097.410567201735
 30
0.0
  0
POINT
  5
4C43
330
4B0D
100
AcDbEntity
  8
DEFPOINTS
 62
     0
 48
10.0
100
AcDbPoint
 10
847.689864152243
 20
1097.410567201735
 30
0.0
  0
ENDBLK
  5
4B18
330
4B0D
100
AcDbEntity
  8
0
 48
10.0
100
AcDbBlockEnd
  0
BLOCK
  5
4B23
330
4B19
100
AcDbEntity
  8
0
 48
10.0
100
AcDbBlockBegin
  2
*D7
 70
     1
 10
0.0
 20
0.0
 30
0.0
  3
*D7
  1

  0
LINE
  5
4C44
330
4B19
100
AcDbEntity
  8
寸法線
 62
     0
 48
10.0
100
AcDbLine
 10
885.250019750646
 20
1076.410567201735
 30
0.0
 11
867.940613025691
 21
1076.410567201735
 31
0.0
  0
LINE
  5
4C45
330
4B19
100
AcDbEntity
  8
寸法線
 62
     0
 48
10.0
100
AcDbLine
 10
885.250019750646
 20
1092.410567201735
 30
0.0
 11
867.940613025691
 21
1092.410567201735
 31
0.0
  0
LINE
  5
4C46
330
4B19
100
AcDbEntity
  8
寸法線
 62
     0
 48
10.0
100
AcDbLine
 10
869.190613025691
 20
1080.710567201735
 30
0.0
 11
869.190613025691
 21
1088.110567201735
 31
0.0
  0
INSERT
  5
4C47
330
4B19
100
AcDbEntity
  8
寸法線
 62
     0
 48
10.0
100
AcDbBlockReference
  2
_OPEN30
 10
869.190613025691
 20
1076.410567201735
 30
0.0
 41
4.3
 42
4.3
 43
4.3
 50
270.0
  0
INSERT
  5
4C48
330
4B19
100
AcDbEntity
  8
寸法線
 62
     0
 48
10.0
100
AcDbBlockReference
  2
_OPEN30
 10
869.190613025691
 20
1092.410567201735
 30
0.0
 41
4.3
 42
4.3
 43
4.3
 50
90.0
  0
MTEXT
  5
4C49
330
4B19
100
AcDbEntity
  8
寸法線
 62
     0
 48
10.0
100
AcDbMText
 10
864.565613025691
 20
1084.410567201735
 30
0.0
 40
8.0
 41
0.0
 71
     5
 72
     1
  1
\A1;15.6
 11
6.123031769111886E-17
 21
1.0
 31
0.0
  0
POINT
  5
4C4A
330
4B19
100
AcDbEntity
  8
DEFPOINTS
 62
     0
 48
10.0
100
AcDbPoint
 10
885.875019750646
 20
1076.410567201735
 30
0.0
  0
POINT
  5
4C4B
330
4B19
100
AcDbEntity
  8
DEFPOINTS
 62
     0
 48
10.0
100
AcDbPoint
 10
885.875019750646
 20
1092.410567201735
 30
0.0
  0
POINT
  5
4C4C
330
4B19
100
AcDbEntity
  8
DEFPOINTS
 62
     0
 48
10.0
100
AcDbPoint
 10
869.190613025691
 20
1092.410567201735
 30
0.0
  0
ENDBLK
  5
4B24
330
4B19
100
AcDbEntity
  8
0
 48
10.0
100
AcDbBlockEnd
  0
BLOCK
  5
4B48
330
4B3D
100
AcDbEntity
  8
0
 48
10.0
100
AcDbBlockBegin
  2
*D8
 70
     1
 10
0.0
 20
0.0
 30
0.0
  3
*D8
  1

  0
LINE
  5
4C5F
330
4B3D
100
AcDbEntity
  8
寸法線
 62
     0
 48
10.0
100
AcDbLine
 10
1001.542685459575
 20
1070.410567201735
 30
0.0
 11
1002.167685459575
 21
1070.410567201735
 31
0.0
  0
LINE
  5
4C60
330
4B3D
100
AcDbEntity
  8
寸法線
 62
     0
 48
10.0
100
AcDbLine
 10
1001.542685459575
 20
1098.410567201735
 30
0.0
 11
1002.167685459575
 21
1098.410567201735
 31
0.0
  0
LINE
  5
4C61
330
4B3D
100
AcDbEntity
  8
寸法線
 62
     0
 48
10.0
100
AcDbLine
 10
1000.917685459575
 20
1074.710567201735
 30
0.0
 11
1000.917685459575
 21
1094.110567201735
 31
0.0
  0
LINE
  5
4C62
330
4B3D
100
AcDbEntity
  8
寸法線
 62
     0
 48
10.0
100
AcDbLine
 10
1000.917685459575
 20
1098.410567201735
 30
0.0
 11
1000.917685459575
 21
1121.960567201735
 31
0.0
  0
INSERT
  5
4C63
330
4B3D
100
AcDbEntity
  8
寸法線
 62
     0
 48
10.0
100
AcDbBlockReference
  2
_OPEN30
 10
1000.917685459575
 20
1070.410567201735
 30
0.0
 41
4.3
 42
4.3
 43
4.3
 50
270.0
  0
INSERT
  5
4C64
330
4B3D
100
AcDbEntity
  8
寸法線
 62
     0
 48
10.0
100
AcDbBlockReference
  2
_OPEN30
 10
1000.917685459575
 20
1098.410567201735
 30
0.0
 41
4.3
 42
4.3
 43
4.3
 50
90.0
  0
MTEXT
  5
4C65
330
4B3D
100
AcDbEntity
  8
寸法線
 62
     0
 48
10.0
100
AcDbMText
 10
996.291898058
 20
1112.335567201735
 30
0.0
 40
8.0
 41
0.0
 71
     5
 72
     1
  1
\A1;φ28
 11
6.123031769111886E-17
 21
1.0
 31
0.0
  0
POINT
  5
4C66
330
4B3D
100
AcDbEntity
  8
DEFPOINTS
 62
     0
 48
10.0
100
AcDbPoint
 10
1000.917685459575
 20
1070.410567201735
 30
0.0
  0
POINT
  5
4C67
330
4B3D
100
AcDbEntity
  8
DEFPOINTS
 62
     0
 48
10.0
100
AcDbPoint
 10
1000.917685459575
 20
1098.410567201735
 30
0.0
  0
POINT
  5
4C68
330
4B3D
100
AcDbEntity
  8
DEFPOINTS
 62
     0
 48
10.0
100
AcDbPoint
 10
1000.917685459575
 20
1098.410567201735
 30
0.0
  0
ENDBLK
  5
4B49
330
4B3D
100
AcDbEntity
  8
0
 48
10.0
100
AcDbBlockEnd
  0
BLOCK
  5
4B60
330
4B56
100
AcDbEntity
  8
0
 48
10.0
100
AcDbBlockBegin
  2
*D9
 70
     1
 10
0.0
 20
0.0
 30
0.0
  3
*D9
  1

  0
LINE
  5
4C72
330
4B56
100
AcDbEntity
  8
寸法線
 62
     0
 48
10.0
100
AcDbLine
 10
1166.617143792532
 20
1084.410567201734
 30
0.0
 11
1188.41447788935
 21
1084.410567201734
 31
0.0
  0
LINE
  5
4C73
330
4B56
100
AcDbEntity
  8
寸法線
 62
     0
 48
10.0
100
AcDbLine
 10
1124.044581758043
 20
995.410567201734
 30
0.0
 11
1188.41447788935
 21
995.410567201734
 31
0.0
  0
LINE
  5
4C74
330
4B56
100
AcDbEntity
  8
寸法線
 62
     0
 48
10.0
100
AcDbLine
 10
1187.16447788935
 20
1078.410567201734
 30
0.0
 11
1187.16447788935
 21
1001.410567201734
 31
0.0
  0
INSERT
  5
4C75
330
4B56
100
AcDbEntity
  8
寸法線
 62
     0
 48
10.0
100
AcDbBlockReference
  2
_OPEN30
 10
1187.16447788935
 20
1084.410567201734
 30
0.0
 41
6.0
 42
6.0
 43
6.0
 50
90.0
  0
INSERT
  5
4C76
330
4B56
100
AcDbEntity
  8
寸法線
 62
     0
 48
10.0
100
AcDbBlockReference
  2
_OPEN30
 10
1187.16447788935
 20
995.410567201734
 30
0.0
 41
6.0
 42
6.0
 43
6.0
 50
270.0
  0
MTEXT
  5
4C77
330
4B56
100
AcDbEntity
  8
寸法線
 62
     0
 48
10.0
100
AcDbMText
 10
1182.53947788935
 20
1054.925830226037
 30
0.0
 40
8.0
 41
0.0
 71
     5
 72
     1
  1
\A1;89
 11
6.123031769111886E-17
 21
1.0
 31
0.0
  0
POINT
  5
4C78
330
4B56
100
AcDbEntity
  8
DEFPOINTS
 62
     0
 48
10.0
100
AcDbPoint
 10
1165.992143792532
 20
1084.410567201734
 30
0.0
  0
POINT
  5
4C79
330
4B56
100
AcDbEntity
  8
DEFPOINTS
 62
     0
 48
10.0
100
AcDbPoint
 10
1123.419581758043
 20
995.410567201734
 30
0.0
  0
POINT
  5
4C7A
330
4B56
100
AcDbEntity
  8
DEFPOINTS
 62
     0
 48
10.0
100
AcDbPoint
 10
1187.16447788935
 20
995.410567201734
 30
0.0
  0
ENDBLK
  5
4B61
330
4B56
100
AcDbEntity
  8
0
 48
10.0
100
AcDbBlockEnd
  0
BLOCK
  5
4B6C
330
4B62
100
AcDbEntity
  8
0
 48
10.0
100
AcDbBlockBegin
  2
*D10
 70
     1
 10
0.0
 20
0.0
 30
0.0
  3
*D10
  1

  0
LINE
  5
4C7B
330
4B62
100
AcDbEntity
  8
寸法線
 62
     0
 48
10.0
100
AcDbLine
 10
1138.900690108962
 20
1034.011326871618
 30
0.0
 11
1208.320084596346
 21
1034.011326871618
 31
0.0
  0
LINE
  5
4C7C
330
4B62
100
AcDbEntity
  8
寸法線
 62
     0
 48
10.0
100
AcDbLine
 10
1138.900690108962
 20
1134.578830875442
 30
0.0
 11
1208.320084596346
 21
1134.578830875442
 31
0.0
  0
LINE
  5
4C7D
330
4B62
100
AcDbEntity
  8
寸法線
 62
     0
 48
10.0
100
AcDbLine
 10
1207.070084596346
 20
1040.011326871618
 30
0.0
 11
1207.070084596346
 21
1128.578830875442
 31
0.0
  0
INSERT
  5
4C7E
330
4B62
100
AcDbEntity
  8
寸法線
 62
     0
 48
10.0
100
AcDbBlockReference
  2
_OPEN30
 10
1207.070084596346
 20
1034.011326871618
 30
0.0
 41
6.0
 42
6.0
 43
6.0
 50
270.0
  0
INSERT
  5
4C7F
330
4B62
100
AcDbEntity
  8
寸法線
 62
     0
 48
10.0
100
AcDbBlockReference
  2
_OPEN30
 10
1207.070084596346
 20
1134.578830875442
 30
0.0
 41
6.0
 42
6.0
 43
6.0
 50
90.0
  0
MTEXT
  5
4C80
330
4B62
100
AcDbEntity
  8
寸法線
 62
     0
 48
10.0
100
AcDbMText
 10
1202.445084596346
 20
1084.29507887353
 30
0.0
 40
8.0
 41
0.0
 71
     5
 72
     1
  1
\A1;φ100
 11
6.123031769111886E-17
 21
1.0
 31
0.0
  0
POINT
  5
4C81
330
4B62
100
AcDbEntity
  8
DEFPOINTS
 62
     0
 48
10.0
100
AcDbPoint
 10
1138.275690108962
 20
1034.011326871618
 30
0.0
  0
POINT
  5
4C82
330
4B62
100
AcDbEntity
  8
DEFPOINTS
 62
     0
 48
10.0
100
AcDbPoint
 10
1138.275690108962
 20
1134.578830875442
 30
0.0
  0
POINT
  5
4C83
330
4B62
100
AcDbEntity
  8
DEFPOINTS
 62
     0
 48
10.0
100
AcDbPoint
 10
1207.070084596346
 20
1134.578830875442
 30
0.0
  0
ENDBLK
  5
4B6D
330
4B62
100
AcDbEntity
  8
0
 48
10.0
100
AcDbBlockEnd
  0
BLOCK
  5
4C8F
330
4C85
100
AcDbEntity
  8
0
 48
10.0
100
AcDbBlockBegin
  2
*D11
 70
     1
 10
0.0
 20
0.0
 30
0.0
  3
*D11
  1

  0
LINE
  5
4CCF
330
4C85
100
AcDbEntity
  8
寸法線
 62
     0
 48
10.0
100
AcDbLine
 10
1051.876420590054
 20
1063.785567201735
 30
0.0
 11
1051.876420590054
 21
965.660567201736
 31
0.0
  0
LINE
  5
4CD0
330
4C85
100
AcDbEntity
  8
寸法線
 62
     0
 48
10.0
100
AcDbLine
 10
1165.992897297036
 20
1039.252896478084
 30
0.0
 11
1165.992897297036
 21
965.660567201736
 31
0.0
  0
LINE
  5
4CD1
330
4C85
100
AcDbEntity
  8
寸法線
 62
     0
 48
10.0
100
AcDbLine
 10
1057.876420590054
 20
966.910567201736
 30
0.0
 11
1159.992897297036
 21
966.910567201736
 31
0.0
  0
INSERT
  5
4CD2
330
4C85
100
AcDbEntity
  8
寸法線
 62
     0
100
AcDbBlockReference
  2
_OPEN30
 10
1051.876420590054
 20
966.910567201736
 30
0.0
 41
6.0
 42
6.0
 43
6.0
 50
180.0
  0
INSERT
  5
4CD3
330
4C85
100
AcDbEntity
  8
寸法線
 62
     0
100
AcDbBlockReference
  2
_OPEN30
 10
1165.992897297036
 20
966.910567201736
 30
0.0
 41
6.0
 42
6.0
 43
6.0
  0
MTEXT
  5
4CD4
330
4C85
100
AcDbEntity
  8
寸法線
 62
     0
 48
10.0
100
AcDbMText
 10
1108.934658943545
 20
971.535567201736
 30
0.0
 40
8.0
 41
0.0
 71
     5
 72
     1
  1
\A1;111
  0
POINT
  5
4CD5
330
4C85
100
AcDbEntity
  8
DEFPOINTS
 62
     0
100
AcDbPoint
 10
1051.876420590054
 20
1064.410567201735
 30
0.0
  0
POINT
  5
4CD6
330
4C85
100
AcDbEntity
  8
DEFPOINTS
 62
     0
100
AcDbPoint
 10
1165.992897297036
 20
1039.877896478084
 30
0.0
  0
POINT
  5
4CD7
330
4C85
100
AcDbEntity
  8
DEFPOINTS
 62
     0
100
AcDbPoint
 10
1165.992897297036
 20
966.910567201736
 30
0.0
  0
ENDBLK
  5
4C90
330
4C85
100
AcDbEntity
  8
0
 48
10.0
100
AcDbBlockEnd
  0
BLOCK
  5
4C9C
330
4C92
100
AcDbEntity
  8
0
 48
10.0
100
AcDbBlockBegin
  2
*D12
 70
     1
 10
0.0
 20
0.0
 30
0.0
  3
*D12
  1

  0
LINE
  5
4CA7
330
4C92
100
AcDbEntity
  8
寸法線
 62
     0
 48
10.0
100
AcDbLine
 10
885.875019750646
 20
1074.785567201736
 30
0.0
 11
885.875019750646
 21
965.660567201736
 31
0.0
  0
LINE
  5
4CA8
330
4C92
100
AcDbEntity
  8
寸法線
 62
     0
 48
10.0
100
AcDbLine
 10
1051.876420590054
 20
1063.785567201735
 30
0.0
 11
1051.876420590054
 21
965.660567201736
 31
0.0
  0
LINE
  5
4CA9
330
4C92
100
AcDbEntity
  8
寸法線
 62
     0
 48
10.0
100
AcDbLine
 10
891.875019750646
 20
966.910567201736
 30
0.0
 11
1045.876420590054
 21
966.910567201736
 31
0.0
  0
INSERT
  5
4CAA
330
4C92
100
AcDbEntity
  8
寸法線
 62
     0
100
AcDbBlockReference
  2
_OPEN30
 10
885.875019750646
 20
966.910567201736
 30
0.0
 41
6.0
 42
6.0
 43
6.0
 50
180.0
  0
INSERT
  5
4CAB
330
4C92
100
AcDbEntity
  8
寸法線
 62
     0
100
AcDbBlockReference
  2
_OPEN30
 10
1051.876420590054
 20
966.910567201736
 30
0.0
 41
6.0
 42
6.0
 43
6.0
  0
POINT
  5
4CAC
330
4C92
100
AcDbEntity
  8
DEFPOINTS
 62
     0
100
AcDbPoint
 10
885.875019750646
 20
1075.410567201736
 30
0.0
  0
POINT
  5
4CAD
330
4C92
100
AcDbEntity
  8
DEFPOINTS
 62
     0
100
AcDbPoint
 10
1051.876420590054
 20
1064.410567201735
 30
0.0
  0
POINT
  5
4CAE
330
4C92
100
AcDbEntity
  8
DEFPOINTS
 62
     0
100
AcDbPoint
 10
1051.876420590054
 20
966.910567201736
 30
0.0
  0
ENDBLK
  5
4C9D
330
4C92
100
AcDbEntity
  8
0
 48
10.0
100
AcDbBlockEnd
  0
BLOCK
  5
4CC4
330
4CBA
100
AcDbEntity
  8
0
 48
10.0
100
AcDbBlockBegin
  2
*D13
 70
     1
 10
0.0
 20
0.0
 30
0.0
  3
*D13
  1

  0
LINE
  5
4CC6
330
4CBA
100
AcDbEntity
  8
寸法線
 62
     0
 48
10.0
100
AcDbLine
 10
925.875019750646
 20
1069.785567201736
 30
0.0
 11
925.875019750646
 21
1037.832739329584
 31
0.0
  0
LINE
  5
4CC7
330
4CBA
100
AcDbEntity
  8
寸法線
 62
     0
 48
10.0
100
AcDbLine
 10
885.875019750646
 20
1074.785567201736
 30
0.0
 11
885.875019750646
 21
1037.832739329584
 31
0.0
  0
LINE
  5
4CC8
330
4CBA
100
AcDbEntity
  8
寸法線
 62
     0
 48
10.0
100
AcDbLine
 10
919.875019750646
 20
1039.082739329584
 30
0.0
 11
891.875019750646
 21
1039.082739329584
 31
0.0
  0
INSERT
  5
4CC9
330
4CBA
100
AcDbEntity
  8
寸法線
 62
     0
 48
10.0
100
AcDbBlockReference
  2
_OPEN30
 10
925.875019750646
 20
1039.082739329584
 30
0.0
 41
6.0
 42
6.0
 43
6.0
  0
INSERT
  5
4CCA
330
4CBA
100
AcDbEntity
  8
寸法線
 62
     0
 48
10.0
100
AcDbBlockReference
  2
_OPEN30
 10
885.875019750646
 20
1039.082739329584
 30
0.0
 41
6.0
 42
6.0
 43
6.0
 50
180.0
  0
MTEXT
  5
4CCB
330
4CBA
100
AcDbEntity
  8
寸法線
 62
     0
 48
10.0
100
AcDbMText
 10
905.875019750646
 20
1043.707739329584
 30
0.0
 40
8.0
 41
0.0
 71
     5
 72
     1
  1
\A1;40
  0
POINT
  5
4CCC
330
4CBA
100
AcDbEntity
  8
DEFPOINTS
 62
     0
 48
10.0
100
AcDbPoint
 10
925.875019750646
 20
1070.410567201736
 30
0.0
  0
POINT
  5
4CCD
330
4CBA
100
AcDbEntity
  8
DEFPOINTS
 62
     0
 48
10.0
100
AcDbPoint
 10
885.875019750646
 20
1075.410567201736
 30
0.0
  0
POINT
  5
4CCE
330
4CBA
100
AcDbEntity
  8
DEFPOINTS
 62
     0
 48
10.0
100
AcDbPoint
 10
885.875019750646
 20
1039.082739329584
 30
0.0
  0
ENDBLK
  5
4CC5
330
4CBA
100
AcDbEntity
  8
0
 48
10.0
100
AcDbBlockEnd
  0
ENDSEC
  0
SECTION
  2
ENTITIES
  0
LINE
  5
33A8
330
1A
100
AcDbEntity
  8
寸法線
100
AcDbLine
 10
888.612093635647
 20
946.577733895096
 30
0.0
 11
888.612093635647
 21
896.577733895096
 31
0.0
  0
LINE
  5
33A9
330
1A
100
AcDbEntity
  8
寸法線
100
AcDbLine
 10
888.612093635647
 20
946.577733895096
 30
0.0
 11
743.412093635647
 21
946.577733895096
 31
0.0
  0
LINE
  5
33AA
330
1A
100
AcDbEntity
  8
寸法線
100
AcDbLine
 10
743.412093635647
 20
946.577733895096
 30
0.0
 11
743.412093635647
 21
896.577733895096
 31
0.0
  0
LINE
  5
33AB
330
1A
100
AcDbEntity
  8
寸法線
100
AcDbLine
 10
750.612093635647
 20
894.577733895096
 30
0.0
 11
750.612093635647
 21
856.577733895096
 31
0.0
  0
LINE
  5
33AC
330
1A
100
AcDbEntity
  8
寸法線
100
AcDbLine
 10
881.412093635647
 20
894.577733895096
 30
0.0
 11
881.412093635647
 21
856.577733895096
 31
0.0
  0
CIRCLE
  5
33AD
330
1A
100
AcDbEntity
  8
寸法線
100
AcDbCircle
 10
750.612093635647
 20
896.577733895096
 30
0.0
 40
2.0
  0
CIRCLE
  5
33AE
330
1A
100
AcDbEntity
  8
寸法線
100
AcDbCircle
 10
776.772093635647
 20
896.577733895096
 30
0.0
 40
2.0
  0
CIRCLE
  5
33AF
330
1A
100
AcDbEntity
  8
寸法線
100
AcDbCircle
 10
802.932093635647
 20
896.577733895096
 30
0.0
 40
2.0
  0
CIRCLE
  5
33B0
330
1A
100
AcDbEntity
  8
寸法線
100
AcDbCircle
 10
829.092093635647
 20
896.577733895096
 30
0.0
 40
2.0
  0
CIRCLE
  5
33B1
330
1A
100
AcDbEntity
  8
寸法線
100
AcDbCircle
 10
855.252093635647
 20
896.577733895096
 30
0.0
 40
2.0
  0
CIRCLE
  5
33B2
330
1A
100
AcDbEntity
  8
寸法線
100
AcDbCircle
 10
881.412093635647
 20
896.577733895096
 30
0.0
 40
2.0
  0
LINE
  5
33B3
330
1A
100
AcDbEntity
  8
寸法線
100
AcDbLine
 10
776.772093635647
 20
894.577733895096
 30
0.0
 11
776.772093635647
 21
856.577733895096
 31
0.0
  0
LINE
  5
33B4
330
1A
100
AcDbEntity
  8
寸法線
100
AcDbLine
 10
802.932093635647
 20
894.577733895096
 30
0.0
 11
802.932093635647
 21
856.577733895096
 31
0.0
  0
LINE
  5
33B5
330
1A
100
AcDbEntity
  8
寸法線
100
AcDbLine
 10
829.092093635647
 20
894.577733895096
 30
0.0
 11
829.092093635647
 21
856.577733895096
 31
0.0
  0
LINE
  5
33B6
330
1A
100
AcDbEntity
  8
寸法線
100
AcDbLine
 10
855.252093635647
 20
894.577733895096
 30
0.0
 11
855.252093635647
 21
856.577733895096
 31
0.0
  0
LINE
  5
33B7
330
1A
100
AcDbEntity
  8
寸法線
100
AcDbLine
 10
748.612093635647
 20
896.577733895096
 30
0.0
 11
743.412093635647
 21
896.577733895096
 31
0.0
  0
LINE
  5
33B8
330
1A
100
AcDbEntity
  8
寸法線
100
AcDbLine
 10
752.612093635647
 20
896.577733895096
 30
0.0
 11
774.772093635647
 21
896.577733895096
 31
0.0
  0
LINE
  5
33B9
330
1A
100
AcDbEntity
  8
寸法線
100
AcDbLine
 10
778.772093635647
 20
896.577733895096
 30
0.0
 11
800.932093635647
 21
896.577733895096
 31
0.0
  0
LINE
  5
33BA
330
1A
100
AcDbEntity
  8
寸法線
100
AcDbLine
 10
804.932093635647
 20
896.577733895096
 30
0.0
 11
827.092093635647
 21
896.577733895096
 31
0.0
  0
LINE
  5
33BB
330
1A
100
AcDbEntity
  8
寸法線
100
AcDbLine
 10
831.092093635647
 20
896.577733895096
 30
0.0
 11
853.252093635647
 21
896.577733895096
 31
0.0
  0
LINE
  5
33BC
330
1A
100
AcDbEntity
  8
寸法線
100
AcDbLine
 10
857.252093635647
 20
896.577733895096
 30
0.0
 11
879.412093635647
 21
896.577733895096
 31
0.0
  0
LINE
  5
33BD
330
1A
100
AcDbEntity
  8
寸法線
100
AcDbLine
 10
888.612093635647
 20
896.577733895096
 30
0.0
 11
883.412093635647
 21
896.577733895096
 31
0.0
  0
CIRCLE
  5
33BE
330
1A
100
AcDbEntity
  8
寸法線
100
AcDbCircle
 10
750.412093635647
 20
905.577733895096
 30
0.0
 40
5.0
  0
CIRCLE
  5
33C0
330
1A
100
AcDbEntity
  8
寸法線
100
AcDbCircle
 10
776.812093635647
 20
905.577733895096
 30
0.0
 40
5.0
  0
CIRCLE
  5
33C2
330
1A
100
AcDbEntity
  8
寸法線
100
AcDbCircle
 10
803.012093635647
 20
905.577733895096
 30
0.0
 40
5.0
  0
CIRCLE
  5
33C4
330
1A
100
AcDbEntity
  8
寸法線
100
AcDbCircle
 10
829.212093635647
 20
905.577733895096
 30
0.0
 40
5.0
  0
CIRCLE
  5
33C6
330
1A
100
AcDbEntity
  8
寸法線
100
AcDbCircle
 10
855.412093635647
 20
905.577733895096
 30
0.0
 40
5.0
  0
CIRCLE
  5
33C8
330
1A
100
AcDbEntity
  8
寸法線
100
AcDbCircle
 10
881.612093635647
 20
905.577733895096
 30
0.0
 40
5.0
  0
LINE
  5
33D0
330
1A
100
AcDbEntity
  8
寸法線
100
AcDbLine
 10
741.412093635647
 20
894.577733895096
 30
0.0
 11
741.412093635647
 21
948.577733895096
 31
0.0
  0
LINE
  5
33D1
330
1A
100
AcDbEntity
  8
寸法線
100
AcDbLine
 10
741.412093635647
 20
948.577733895096
 30
0.0
 11
890.612093635647
 21
948.577733895096
 31
0.0
  0
LINE
  5
33D2
330
1A
100
AcDbEntity
  8
寸法線
100
AcDbLine
 10
890.612093635647
 20
894.577733895096
 30
0.0
 11
890.612093635647
 21
948.577733895096
 31
0.0
  0
LINE
  5
33D3
330
1A
100
AcDbEntity
  8
寸法線
100
AcDbLine
 10
741.412093635647
 20
894.577733895096
 30
0.0
 11
890.612093635647
 21
894.577733895096
 31
0.0
  0
LINE
  5
33D4
330
1A
100
AcDbEntity
  8
寸法線
100
AcDbLine
 10
881.412093635647
 20
911.377733895096
 30
0.0
 11
881.412093635647
 21
939.777733895096
 31
0.0
  0
LINE
  5
33D5
330
1A
100
AcDbEntity
  8
寸法線
100
AcDbLine
 10
855.252093635647
 20
911.577733895096
 30
0.0
 11
855.252093635647
 21
920.977733895096
 31
0.0
  0
LINE
  5
33D6
330
1A
100
AcDbEntity
  8
寸法線
100
AcDbLine
 10
829.092093635647
 20
911.577733895096
 30
0.0
 11
829.092093635647
 21
939.777733895096
 31
0.0
  0
CIRCLE
  5
33D7
330
1A
100
AcDbEntity
  8
寸法線
100
AcDbCircle
 10
855.252093635647
 20
922.977733895096
 30
0.0
 40
2.0
  0
LINE
  5
33D8
330
1A
100
AcDbEntity
  8
寸法線
100
AcDbLine
 10
846.321441221789
 20
939.777733895096
 30
0.0
 11
829.092093635647
 21
939.777733895096
 31
0.0
  0
LINE
  5
33D9
330
1A
100
AcDbEntity
  8
寸法線
100
AcDbLine
 10
855.092603191082
 20
924.971364452168
 30
0.0
 11
869.452159511729
 21
941.177733895096
 31
0.0
  0
LINE
  5
33DB
330
1A
100
AcDbEntity
  8
寸法線
100
AcDbLine
 10
868.292093635647
 20
939.777733895096
 30
0.0
 11
881.412093635647
 21
939.777733895096
 31
0.0
  0
POINT
  5
33DC
330
1A
100
AcDbEntity
  8
寸法線
100
AcDbPoint
 10
816.012093635647
 20
896.577733895096
 30
0.0
  0
LINE
  5
33DD
330
1A
100
AcDbEntity
  8
寸法線
100
AcDbLine
 10
816.012093635647
 20
888.157733895096
 30
0.0
 11
816.012093635647
 21
884.617733895096
 31
0.0
  0
CIRCLE
  5
33DE
330
1A
100
AcDbEntity
  8
寸法線
100
AcDbCircle
 10
816.012093635647
 20
883.157733895096
 30
0.0
 40
5.0
  0
LINE
  5
33DF
330
1A
100
AcDbEntity
  8
寸法線
100
AcDbLine
 10
812.352093635647
 20
884.617733895096
 30
0.0
 11
819.872093635647
 21
884.617733895096
 31
0.0
  0
LINE
  5
33E0
330
1A
100
AcDbEntity
  8
寸法線
100
AcDbLine
 10
813.892093635647
 20
882.817733895096
 30
0.0
 11
818.312093635647
 21
882.817733895096
 31
0.0
  0
LINE
  5
33E1
330
1A
100
AcDbEntity
  8
寸法線
100
AcDbLine
 10
815.112093635647
 20
881.077733895096
 30
0.0
 11
817.192093635647
 21
881.077733895096
 31
0.0
  0
LINE
  5
33E2
330
1A
100
AcDbEntity
  8
寸法線
100
AcDbLine
 10
811.612093635647
 20
905.377733895096
 30
0.0
 11
820.412093635648
 21
905.377733895096
 31
0.0
  0
POINT
  5
33E3
330
1A
100
AcDbEntity
  8
寸法線
100
AcDbPoint
 10
816.012093635647
 20
900.977733895096
 30
0.0
  0
CIRCLE
  5
33E4
330
1A
100
AcDbEntity
  8
寸法線
100
AcDbCircle
 10
816.012093635647
 20
900.977733895096
 30
0.0
 40
4.40000000000004
  0
LINE
  5
33E5
330
1A
100
AcDbEntity
  8
寸法線
100
AcDbLine
 10
811.612093635647
 20
896.577733895096
 30
0.0
 11
811.612093635647
 21
905.377733895096
 31
0.0
  0
LINE
  5
33E6
330
1A
100
AcDbEntity
  8
寸法線
100
AcDbLine
 10
820.412093635648
 20
896.577733895096
 30
0.0
 11
820.412093635648
 21
905.377733895096
 31
0.0
  0
LINE
  5
33E7
330
1A
100
AcDbEntity
  8
寸法線
100
AcDbLine
 10
818.012093635647
 20
900.977733895096
 30
0.0
 11
814.012093635647
 21
900.977733895096
 31
0.0
  0
LINE
  5
33E8
330
1A
100
AcDbEntity
  8
寸法線
100
AcDbLine
 10
816.012093635647
 20
898.977733895096
 30
0.0
 11
816.012093635647
 21
902.977733895096
 31
0.0
  0
LINE
  5
33E9
330
1A
100
AcDbEntity
  8
寸法線
100
AcDbLine
 10
816.012093635647
 20
896.577733895096
 30
0.0
 11
816.012093635647
 21
888.157733895096
 31
0.0
  0
MTEXT
  5
3454
330
1A
100
AcDbEntity
  8
寸法線
 48
10.0
100
AcDbMText
 10
745.995314586359
 20
943.449168340119
 30
0.0
 40
8.0
 41
95.557777777778
 71
     1
 72
     5
  1
{\C1;RFM-4□□}
  0
MTEXT
  5
3455
330
1A
100
AcDbEntity
  8
寸法線
 48
10.0
100
AcDbMText
 10
749.212460748556
 20
908.784295583758
 30
0.0
 40
7.0
 41
95.557777777778
 71
     1
 72
     5
  1
{\C1;1}
  0
MTEXT
  5
3456
330
1A
100
AcDbEntity
  8
寸法線
 48
10.0
100
AcDbMText
 10
775.232181540579
 20
908.784295583758
 30
0.0
 40
7.0
 41
95.557777777778
 71
     1
 72
     5
  1
{\C1;2}
  0
MTEXT
  5
3457
330
1A
100
AcDbEntity
  8
寸法線
 48
10.0
100
AcDbMText
 10
801.655269726453
 20
908.784295583758
 30
0.0
 40
7.0
 41
95.557777777778
 71
     1
 72
     5
  1
{\C1;3}
  0
MTEXT
  5
3458
330
1A
100
AcDbEntity
  8
寸法線
 48
10.0
100
AcDbMText
 10
827.64008079742
 20
908.784295583758
 30
0.0
 40
7.0
 41
95.557777777778
 71
     1
 72
     5
  1
{\C1;7}
  0
MTEXT
  5
3459
330
1A
100
AcDbEntity
  8
寸法線
 48
10.0
100
AcDbMText
 10
854.222416396241
 20
908.784295583758
 30
0.0
 40
7.0
 41
95.557777777778
 71
     1
 72
     5
  1
{\C1;8}
  0
MTEXT
  5
345A
330
1A
100
AcDbEntity
  8
寸法線
 48
10.0
100
AcDbMText
 10
879.823218656292
 20
908.784295583758
 30
0.0
 40
7.0
 41
95.557777777778
 71
     1
 72
     5
  1
{\C1;9}
  0
MTEXT
  5
345B
330
1A
100
AcDbEntity
  8
寸法線
 48
10.0
100
AcDbMText
 10
746.624858484765
 20
853.931997963549
 30
0.0
 40
8.0
 41
95.557777777778
 71
     1
 72
     5
  1
{\C1;PE}
  0
MTEXT
  5
345C
330
1A
100
AcDbEntity
  8
寸法線
 48
10.0
100
AcDbMText
 10
774.385699735201
 20
853.931997963549
 30
0.0
 40
8.0
 41
95.557777777778
 71
     1
 72
     5
  1
{\C1;N}
  0
MTEXT
  5
345D
330
1A
100
AcDbEntity
  8
寸法線
 48
10.0
100
AcDbMText
 10
800.279376438547
 20
853.931997963549
 30
0.0
 40
8.0
 41
95.557777777778
 71
     1
 72
     5
  1
{\C1;L1}
  0
MTEXT
  5
345E
330
1A
100
AcDbEntity
  8
寸法線
 48
10.0
100
AcDbMText
 10
824.542155016043
 20
853.931997963549
 30
0.0
 40
8.0
 41
95.557777777778
 71
     1
 72
     5
  1
{\C1;NO}
  0
MTEXT
  5
345F
330
1A
100
AcDbEntity
  8
寸法線
 48
10.0
100
AcDbMText
 10
853.041129393035
 20
853.931997963549
 30
0.0
 40
8.0
 41
95.557777777778
 71
     1
 72
     5
  1
{\C1;C}
  0
MTEXT
  5
3460
330
1A
100
AcDbEntity
  8
寸法線
 48
10.0
100
AcDbMText
 10
875.65883058944
 20
853.931997963549
 30
0.0
 40
8.0
 41
95.557777777778
 71
     1
 72
     5
  1
{\C1;NC}
  0
LINE
  5
40F4
330
1A
100
AcDbEntity
  8
下書線
 48
10.0
100
AcDbLine
 10
1235.586037514462
 20
1172.998763549323
 30
0.0
 11
776.566795936725
 21
1172.998763549323
 31
0.0
  0
MTEXT
  5
40FD
330
1A
100
AcDbEntity
  8
寸法線
 48
10.0
100
AcDbMText
 10
1079.851736084244
 20
1181.767359918745
 30
0.0
 40
8.0
 41
49.592740337165
 71
     1
 72
     5
  1
平径41
  0
MTEXT
  5
4158
330
1A
100
AcDbEntity
  8
寸法線
 48
10.0
100
AcDbMText
 10
891.614603940575
 20
1173.872090497621
 30
0.0
 40
8.0
 41
0.0
 71
     9
 72
     1
  1
振動部（検知部）\PDIN1.4571（SUS316相当）
  0
MTEXT
  5
4197
330
1A
100
AcDbEntity
  8
寸法線
 48
10.0
100
AcDbMText
 10
1131.992640711015
 20
1182.246575725416
 30
0.0
 40
8.0
 41
49.592740337165
 71
     1
 72
     5
  1
アルミ鋳物
  0
MTEXT
  5
4198
102
{ACAD_XDICTIONARY
360
5417
102
}
330
1A
100
AcDbEntity
  8
寸法線
 48
10.0
100
AcDbMText
 10
1087.830821574948
 20
1012.648027309772
 30
0.0
 40
8.0
 41
42.299427293917
 71
     3
 72
     5
  1
2×NPT 1/2"
1001
ACADANNOTATIVE
1000
AnnotativeData
1002
{
1070
     1
1070
     0
1002
}
  0
MTEXT
  5
4199
330
1A
100
AcDbEntity
  8
寸法線
 48
10.0
100
AcDbMText
 10
1185.353140958726
 20
988.355713060005
 30
0.0
 40
8.0
 41
60.129060420842
 71
     1
 72
     5
  1
コードロック\P2×M20
  0
CIRCLE
  5
4A05
330
1A
100
AcDbEntity
  8
外形線
100
AcDbCircle
 10
1058.376420590054
 20
1084.410567201735
 30
0.0
 40
2.39999999999998
  0
LINE
  5
4A07
330
1A
100
AcDbEntity
  8
外形線
100
AcDbLine
 10
925.875019750646
 20
1070.410567201736
 30
0.0
 11
925.875019750646
 21
1098.410567201736
 31
0.0
  0
LINE
  5
4A08
330
1A
100
AcDbEntity
  8
外形線
100
AcDbLine
 10
1064.876420590054
 20
1103.910567201735
 30
0.0
 11
1062.468084172584
 21
1108.081928238508
 31
0.0
  0
LINE
  5
4A09
330
1A
100
AcDbEntity
  8
外形線
100
AcDbLine
 10
1051.876420590054
 20
1104.410567201735
 30
0.0
 11
1053.996081872928
 21
1108.081928238508
 31
0.0
  0
LINE
  5
4A0A
330
1A
100
AcDbEntity
  8
外形線
100
AcDbLine
 10
1062.468084172584
 20
1108.081928238508
 30
0.0
 11
1053.996081872928
 21
1108.081928238508
 31
0.0
  0
LINE
  5
4A0B
330
1A
100
AcDbEntity
  8
細線
100
AcDbLine
 10
1062.532842505826
 20
1096.260567201735
 30
0.0
 11
1054.219998674282
 21
1096.260567201735
 31
0.0
  0
ARC
  5
4A0C
330
1A
100
AcDbEntity
  8
細線
100
AcDbCircle
 10
1053.678158562198
 20
1102.124979156473
 30
0.0
 40
10.62058168446546
100
AcDbArc
 50
325.983093941251
 51
34.293717569534
  0
ARC
  5
4A0D
330
1A
100
AcDbEntity
  8
細線
100
AcDbCircle
 10
1062.159546250296
 20
1102.318501545113
 30
0.0
 40
9.99295941604506
100
AcDbArc
 50
144.777810678596
 51
217.874914084167
  0
LINE
  5
4A0E
330
1A
100
AcDbEntity
  8
外形線
100
AcDbLine
 10
1036.876420590054
 20
1098.410567201734
 30
0.0
 11
987.52858868734
 21
1098.410567201735
 31
0.0
  0
LINE
  5
4A0F
330
1A
100
AcDbEntity
  8
細線
100
AcDbLine
 10
1062.532842505826
 20
1072.560567201735
 30
0.0
 11
1054.219998674282
 21
1072.560567201735
 31
0.0
  0
LINE
  5
4A10
330
1A
100
AcDbEntity
  8
外形線
100
AcDbLine
 10
1064.876420590054
 20
1064.910567201735
 30
0.0
 11
1062.468084172584
 21
1060.73920616496
 31
0.0
  0
LINE
  5
4A11
330
1A
100
AcDbEntity
  8
外形線
100
AcDbLine
 10
1051.876420590054
 20
1064.410567201735
 30
0.0
 11
1053.996081872928
 21
1060.73920616496
 31
0.0
  0
LINE
  5
4A12
330
1A
100
AcDbEntity
  8
外形線
100
AcDbLine
 10
1062.468084172584
 20
1060.73920616496
 30
0.0
 11
1053.996081872928
 21
1060.73920616496
 31
0.0
  0
ARC
  5
4A13
330
1A
100
AcDbEntity
  8
細線
100
AcDbCircle
 10
1062.159546250296
 20
1066.502632858357
 30
0.0
 40
9.99295941604506
100
AcDbArc
 50
142.125085915835
 51
215.222189321404
  0
ARC
  5
4A14
330
1A
100
AcDbEntity
  8
細線
100
AcDbCircle
 10
1053.678158562198
 20
1066.696155246997
 30
0.0
 40
10.62058168446546
100
AcDbArc
 50
325.706282430466
 51
34.016906058746
  0
LINE
  5
4A15
330
1A
100
AcDbEntity
  8
外形線
100
AcDbLine
 10
1051.876420590054
 20
1064.410567201735
 30
0.0
 11
1051.876420590054
 21
1104.410567201735
 31
0.0
  0
ARC
  5
4A16
330
1A
100
AcDbEntity
  8
細線
100
AcDbCircle
 10
1086.012413126788
 20
1083.894326633839
 30
0.0
 40
33.677772310861
100
AcDbArc
 50
179.121688811341
 51
199.526620176634
  0
ARC
  5
4A17
330
1A
100
AcDbEntity
  8
細線
100
AcDbCircle
 10
1030.74042805332
 20
1083.894326633839
 30
0.0
 40
33.677772310861
100
AcDbArc
 50
340.473379823369
 51
0.878311188659
  0
LINE
  5
4A18
330
1A
100
AcDbEntity
  8
外形線
100
AcDbLine
 10
1036.876420590054
 20
1070.410567201735
 30
0.0
 11
987.528588687341
 21
1070.410567201736
 31
0.0
  0
LINE
  5
4A19
330
1A
100
AcDbEntity
  8
外形線
100
AcDbLine
 10
1064.876420590054
 20
1103.910567201735
 30
0.0
 11
1064.876420590054
 21
1064.910567201735
 31
0.0
  0
ARC
  5
4A1A
330
1A
100
AcDbEntity
  8
細線
100
AcDbCircle
 10
1030.74042805332
 20
1084.926807769631
 30
0.0
 40
33.677772310861
100
AcDbArc
 50
359.121688811341
 51
19.526620176631
  0
ARC
  5
4A1B
330
1A
100
AcDbEntity
  8
細線
100
AcDbCircle
 10
1086.012413126788
 20
1084.926807769631
 30
0.0
 40
33.677772310861
100
AcDbArc
 50
160.473379823369
 51
180.878311188659
  0
LINE
  5
4A1D
330
1A
100
AcDbEntity
  8
中心線
 48
10.0
100
AcDbLine
 10
883.063192612714
 20
1084.410567201736
 30
0.0
 11
1165.992143792532
 21
1084.410567201734
 31
0.0
  0
LINE
  5
4A1E
330
1A
100
AcDbEntity
  8
中心線
 48
10.0
100
AcDbLine
 10
1114.815988759687
 20
1029.253139201734
 30
0.0
 11
1114.815988759687
 21
991.853139201734
 31
0.0
  0
DIMENSION
  5
4A1F
330
1A
100
AcDbEntity
  8
寸法線
 48
10.0
100
AcDbDimension
  2
*D10
 10
1207.070084596346
 20
1134.578830875442
 30
0.0
 11
1202.445084596346
 21
1084.29507887353
 31
0.0
 70
    32
  1
φ100
  3
ISO-25
100
AcDbAlignedDimension
 13
1138.275690108962
 23
1034.011326871618
 33
0.0
 14
1138.275690108962
 24
1134.578830875442
 34
0.0
 50
90.0
100
AcDbRotatedDimension
1001
ACAD
1000
DSTYLE
1002
{
1070
     5
1000
OPEN30
1070
    41
1040
6.0
1070
    47
1040
0.1
1070
    48
1040
0.1
1070
    73
1070
     0
1070
   140
1040
8.0
1070
   271
1070
     1
1070
   272
1070
     1
1070
   341
1005
2AF4
1002
}
  0
DIMENSION
  5
4A20
330
1A
100
AcDbEntity
  8
寸法線
 48
10.0
100
AcDbDimension
  2
*D9
 10
1187.16447788935
 20
995.410567201734
 30
0.0
 11
1187.16447788935
 21
1054.925830226037
 31
0.0
 70
   160
  3
ISO-25
100
AcDbAlignedDimension
 13
1165.992143792532
 23
1084.410567201734
 33
0.0
 14
1123.419581758043
 24
995.410567201734
 34
0.0
 50
90.0
100
AcDbRotatedDimension
1001
ACAD
1000
DSTYLE
1002
{
1070
     5
1000
OPEN30
1070
    41
1040
6.0
1070
    47
1040
0.1
1070
    48
1040
0.1
1070
    73
1070
     0
1070
   140
1040
8.0
1070
   271
1070
     1
1070
   272
1070
     1
1070
   341
1005
2AF4
1002
}
  0
ARC
  5
4A21
330
1A
100
AcDbEntity
  8
外形線
100
AcDbCircle
 10
1086.852767151477
 20
1130.431717308275
 30
0.0
 40
1.036778391792
100
AcDbArc
 50
90.0
 51
180.0
  0
ARC
  5
4A22
330
1A
100
AcDbEntity
  8
外形線
100
AcDbCircle
 10
1084.779210367893
 20
1129.267450654903
 30
0.0
 40
1.036778391792
100
AcDbArc
 50
304.999999999999
 51
0.0
  0
ARC
  5
4A23
330
1A
100
AcDbEntity
  8
外形線
100
AcDbCircle
 10
1086.852767151476
 20
1038.158440438787
 30
0.0
 40
1.036778391792
100
AcDbArc
 50
180.0
 51
270.0
  0
ARC
  5
4A24
330
1A
100
AcDbEntity
  8
外形線
100
AcDbCircle
 10
1084.779210367892
 20
1039.32270709216
 30
0.0
 40
1.036778391792
100
AcDbArc
 50
0.0
 51
55.000000000001
  0
LINE
  5
4A25
330
1A
100
AcDbEntity
  8
外形線
100
AcDbLine
 10
1064.876420590054
 20
1117.160567201735
 30
0.0
 11
1064.876420590053
 21
1051.660567201735
 31
0.0
  0
ARC
  5
4A26
330
1A
100
AcDbEntity
  8
外形線
100
AcDbCircle
 10
1079.127028953182
 20
1040.749061696317
 30
0.0
 40
3.110335175376
100
AcDbArc
 50
0.0
 51
55.000000000001
  0
LINE
  5
4A27
330
1A
100
AcDbEntity
  8
外形線
100
AcDbLine
 10
1082.237364128557
 20
1040.749061696317
 30
0.0
 11
1082.237364128557
 21
1039.517818663443
 31
0.0
  0
LINE
  5
4A28
330
1A
100
AcDbEntity
  8
外形線
100
AcDbLine
 10
1165.992897297035
 20
1065.334550794604
 30
0.0
 11
1165.992897297035
 21
1078.07440852278
 31
0.0
  0
LINE
  5
4A29
330
1A
100
AcDbEntity
  8
外形線
100
AcDbLine
 10
1138.414592075367
 20
1034.529716067514
 30
0.0
 11
1138.414592075368
 21
1084.295078873532
 31
0.0
  0
LINE
  5
4A2A
330
1A
100
AcDbEntity
  8
外形線
100
AcDbLine
 10
1085.815988759684
 20
1129.267450654903
 30
0.0
 11
1085.815988759683
 21
1039.32270709216
 31
0.0
  0
LINE
  5
4A2B
330
1A
100
AcDbEntity
  8
外形線
100
AcDbLine
 10
1127.632096800731
 20
1053.42056101412
 30
0.0
 11
1127.632096800732
 21
1131.989051520628
 31
0.0
  0
LINE
  5
4A2C
330
1A
100
AcDbEntity
  8
外形線
100
AcDbLine
 10
1132.815988759691
 20
1024.197345593526
 30
0.0
 11
1132.815988759692
 21
1133.621517912016
 31
0.0
  0
ARC
  5
4A2D
330
1A
100
AcDbEntity
  8
外形線
100
AcDbCircle
 10
1131.779210367899
 20
1024.197345593526
 30
0.0
 40
1.036778391792
100
AcDbArc
 50
270.0
 51
0.0
  0
LINE
  5
4A2E
330
1A
100
AcDbEntity
  8
外形線
100
AcDbLine
 10
1097.520730744301
 20
1023.160567201734
 30
0.0
 11
1131.779210367899
 21
1023.160567201734
 31
0.0
  0
LINE
  5
4A2F
330
1A
100
AcDbEntity
  8
外形線
100
AcDbLine
 10
1096.815988759683
 20
1057.58367309925
 30
0.0
 11
1124.257478031454
 21
1057.58367309925
 31
0.0
  0
ARC
  5
4A30
330
1A
100
AcDbEntity
  8
外形線
100
AcDbCircle
 10
1094.7424319761
 20
1035.04810526341
 30
0.0
 40
2.073556783584
100
AcDbArc
 50
0.0
 51
90.0
  0
LINE
  5
4A31
330
1A
100
AcDbEntity
  8
外形線
100
AcDbLine
 10
1096.815988759683
 20
1024.197345593527
 30
0.0
 11
1096.815988759683
 21
1057.58367309925
 31
0.0
  0
ARC
  5
4A32
330
1A
100
AcDbEntity
  8
外形線
100
AcDbCircle
 10
1097.852767151475
 20
1024.197345593526
 30
0.0
 40
1.036778391792
100
AcDbArc
 50
180.0
 51
270.0
  0
ARC
  5
4A33
330
1A
100
AcDbEntity
  8
外形線
100
AcDbCircle
 10
1098.100996465816
 20
1026.27090237711
 30
0.0
 40
3.110335175376
100
AcDbArc
 50
224.999999999993
 51
259.247872764006
  0
LINE
  5
4A34
330
1A
100
AcDbEntity
  8
外形線
100
AcDbLine
 10
1086.852767151475
 20
1037.121662046995
 30
0.0
 11
1094.742431976099
 21
1037.121662046994
 31
0.0
  0
LINE
  5
4A35
330
1A
100
AcDbEntity
  8
外形線
100
AcDbLine
 10
1085.815988759683
 20
1039.32270709216
 30
0.0
 11
1085.815988759683
 21
1038.158440438787
 31
0.0
  0
LINE
  5
4A36
330
1A
100
AcDbEntity
  8
外形線
100
AcDbLine
 10
1143.598484034329
 20
1064.297772402812
 30
0.0
 11
1164.956118905243
 21
1064.297772402812
 31
0.0
  0
LINE
  5
4A37
330
1A
100
AcDbEntity
  8
外形線
100
AcDbLine
 10
1138.414592075367
 20
1034.529716067514
 30
0.0
 11
1162.062826884051
 21
1035.736466385928
 31
0.0
  0
LINE
  5
4A38
330
1A
100
AcDbEntity
  8
外形線
100
AcDbLine
 10
1143.598484034327
 20
1040.108122896882
 30
0.0
 11
1160.809005338076
 21
1040.108122896882
 31
0.0
  0
LINE
  5
4A39
330
1A
100
AcDbEntity
  8
外形線
100
AcDbLine
 10
1143.598484034327
 20
1039.290944133798
 30
0.0
 11
1162.882562121659
 21
1039.290944133798
 31
0.0
  0
LINE
  5
4A3A
330
1A
100
AcDbEntity
  8
外形線
100
AcDbLine
 10
1143.598484034329
 20
1045.377837431906
 30
0.0
 11
1162.882562121659
 21
1045.377837431906
 31
0.0
  0
LINE
  5
4A3B
330
1A
100
AcDbEntity
  8
外形線
100
AcDbLine
 10
1143.598484034327
 20
1055.884747021296
 30
0.0
 11
1161.327394533972
 21
1055.884747021296
 31
0.0
  0
LINE
  5
4A3C
330
1A
100
AcDbEntity
  8
外形線
100
AcDbLine
 10
1143.598484034327
 20
1055.319008148944
 30
0.0
 11
1162.882562121659
 21
1055.319008148944
 31
0.0
  0
LINE
  5
4A3D
330
1A
100
AcDbEntity
  8
外形線
100
AcDbLine
 10
1133.334377955585
 20
1034.011326871618
 30
0.0
 11
1138.275690108961
 21
1034.011326871618
 31
0.0
  0
LINE
  5
4A3E
330
1A
100
AcDbEntity
  8
外形線
100
AcDbLine
 10
1132.815988759691
 20
1034.529716067514
 30
0.0
 11
1133.334377955585
 21
1034.011326871618
 31
0.0
  0
ARC
  5
4A3F
330
1A
100
AcDbEntity
  8
外形線
100
AcDbCircle
 10
1137.377813683576
 20
1034.529716067514
 30
0.0
 40
1.036778391792
100
AcDbArc
 50
330.0
 51
0.0
  0
LWPOLYLINE
  5
4A40
330
1A
100
AcDbEntity
  8
外形線
100
AcDbPolyline
 90
       18
 70
     0
 43
0.0
 10
1143.598484034327
 20
1039.290944133798
 10
1142.645061437923
 20
1039.34276459651
 10
1141.724106504535
 20
1039.496461300936
 10
1140.866981249857
 20
1039.746800290148
 10
1140.102874046425
 20
1040.085256570116
 10
1139.457805648611
 20
1040.50030441816
 10
1138.953743087027
 20
1040.97780987761
 10
1138.60785160765
 20
1041.501512072748
 10
1138.431910129957
 20
1042.05357695343
 10
1138.431910129957
 20
1042.615204612276
 10
1138.60785160765
 20
1043.167269492958
 10
1138.953743087027
 20
1043.690971688096
 10
1139.457805648611
 20
1044.168477147546
 10
1140.102874046425
 20
1044.58352499559
 10
1140.866981249857
 20
1044.921981275558
 10
1141.724106504535
 20
1045.17232026477
 10
1142.645061437923
 20
1045.326016969196
 10
1143.598484034327
 20
1045.377837431906
  0
LWPOLYLINE
  5
4A41
330
1A
100
AcDbEntity
  8
外形線
100
AcDbPolyline
 90
        8
 70
     0
 43
0.0
 10
1143.598484034327
 20
1040.108122896882
 10
1142.589628287985
 20
1040.166204601422
 10
1141.619278924795
 20
1040.338232830842
 10
1140.724472601885
 20
1040.61764154739
 10
1139.939362621389
 20
1040.993766174752
 10
1139.293915354449
 20
1041.452250647592
 10
1138.812766473568
 20
1041.975595359202
 10
1138.514280649039
 20
1042.543825093052
  0
LWPOLYLINE
  5
4A42
330
1A
100
AcDbEntity
  8
外形線
100
AcDbPolyline
 90
        8
 70
     0
 43
0.0
 10
1143.598484034327
 20
1055.884747021296
 10
1142.608025361079
 20
1055.961215883698
 10
1141.651308189829
 20
1056.188017441192
 10
1140.760924566277
 20
1056.55742534899
 10
1139.967206781535
 20
1057.056855157086
 10
1139.297194055857
 20
1057.669293018946
 10
1138.773711405905
 20
1058.373875294418
 10
1138.414592075367
 20
1059.146599301824
  0
LWPOLYLINE
  5
4A43
330
1A
100
AcDbEntity
  8
外形線
100
AcDbPolyline
 90
       18
 70
     0
 43
0.0
 10
1143.598484034327
 20
1055.319008148944
 10
1142.645104116586
 20
1055.3954484109
 10
1141.724190408491
 20
1055.622166115328
 10
1140.867103521855
 20
1055.991440662722
 10
1140.103030522643
 20
1056.490696851264
 10
1139.457991000437
 20
1057.102933110246
 10
1138.953951002525
 20
1057.807300468166
 10
1138.608075006509
 20
1058.579812539446
 10
1138.432141404597
 20
1059.394162352022
 10
1138.432141404597
 20
1060.222618199734
 10
1138.608075006509
 20
1061.03696801231
 10
1138.953951002525
 20
1061.80948008359
 10
1139.457991000437
 20
1062.51384744151
 10
1140.103030522643
 20
1063.126083700492
 10
1140.867103521855
 20
1063.625339889036
 10
1141.724190408491
 20
1063.994614436428
 10
1142.645104116586
 20
1064.221332140856
 10
1143.598484034327
 20
1064.297772402812
  0
ARC
  5
4A44
330
1A
100
AcDbEntity
  8
外形線
100
AcDbCircle
 10
1161.845783729868
 20
1039.877896478084
 30
0.0
 40
4.147113567168
100
AcDbArc
 50
273.000000000006
 51
0.0
  0
LINE
  5
4A45
330
1A
100
AcDbEntity
  8
外形線
100
AcDbLine
 10
1165.992897297035
 20
1059.501347060514
 30
0.0
 11
1165.992897297035
 21
1039.877896478084
 31
0.0
  0
ARC
  5
4A46
330
1A
100
AcDbEntity
  8
外形線
100
AcDbCircle
 10
1160.809005338076
 20
1042.181679680466
 30
0.0
 40
2.073556783584
100
AcDbArc
 50
270.0
 51
0.0
  0
LINE
  5
4A47
330
1A
100
AcDbEntity
  8
外形線
100
AcDbLine
 10
1162.882562121659
 20
1042.181679680466
 30
0.0
 11
1162.882562121659
 21
1045.377837431906
 31
0.0
  0
ARC
  5
4A48
330
1A
100
AcDbEntity
  8
外形線
100
AcDbCircle
 10
1162.88256212166
 20
1042.401279309174
 30
0.0
 40
3.110335175376
100
AcDbArc
 50
270.0
 51
0.0
  0
ARC
  5
4A49
330
1A
100
AcDbEntity
  8
外形線
100
AcDbCircle
 10
1162.88256212166
 20
1048.488172607282
 30
0.0
 40
3.110335175376
100
AcDbArc
 50
270.0
 51
0.0
  0
ARC
  5
4A4A
330
1A
100
AcDbEntity
  8
外形線
100
AcDbCircle
 10
1161.327394533972
 20
1057.439914608984
 30
0.0
 40
1.555167587688
100
AcDbArc
 50
270.0
 51
0.0
  0
LINE
  5
4A4B
330
1A
100
AcDbEntity
  8
外形線
100
AcDbLine
 10
1162.882562121659
 20
1057.439914608984
 30
0.0
 11
1162.882562121659
 21
1064.297772402812
 31
0.0
  0
ARC
  5
4A4C
330
1A
100
AcDbEntity
  8
外形線
100
AcDbCircle
 10
1162.88256212166
 20
1058.42934332432
 30
0.0
 40
3.110335175376
100
AcDbArc
 50
270.0
 51
0.0
  0
ARC
  5
4A4D
330
1A
100
AcDbEntity
  8
外形線
100
AcDbCircle
 10
1164.956118905244
 20
1065.334550794604
 30
0.0
 40
1.036778391792
100
AcDbArc
 50
270.0
 51
0.0
  0
ARC
  5
4A4E
330
1A
100
AcDbEntity
  8
外形線
100
AcDbCircle
 10
1164.956118905244
 20
1059.501347060514
 30
0.0
 40
1.036778391792
100
AcDbArc
 50
0.0
 51
52.864563529749
  0
LINE
  5
4A4F
330
1A
100
AcDbEntity
  8
外形線
100
AcDbLine
 10
1165.582023227706
 20
1060.327877890434
 30
0.0
 11
1162.882562121659
 21
1062.3720900522
 31
0.0
  0
LINE
  5
4A50
330
1A
100
AcDbEntity
  8
外形線
100
AcDbLine
 10
1086.852767151476
 20
1131.468495700067
 30
0.0
 11
1124.67746644639
 21
1131.468495700066
 31
0.0
  0
LINE
  5
4A51
330
1A
100
AcDbEntity
  8
外形線
100
AcDbLine
 10
1085.815988759684
 20
1129.267450654903
 30
0.0
 11
1085.815988759684
 21
1130.431717308275
 31
0.0
  0
LINE
  5
4A52
330
1A
100
AcDbEntity
  8
外形線
100
AcDbLine
 10
1162.88256212166
 20
1126.408478066596
 30
0.0
 11
1162.88256212166
 21
1123.212320315156
 31
0.0
  0
LINE
  5
4A53
330
1A
100
AcDbEntity
  8
外形線
100
AcDbLine
 10
1165.992897297036
 20
1109.088810686548
 30
0.0
 11
1165.992897297036
 21
1128.712261268978
 31
0.0
  0
LINE
  5
4A54
330
1A
100
AcDbEntity
  8
外形線
100
AcDbLine
 10
1138.414592075368
 20
1134.060441679546
 30
0.0
 11
1138.414592075368
 21
1084.295078873532
 31
0.0
  0
LINE
  5
4A55
330
1A
100
AcDbEntity
  8
外形線
100
AcDbLine
 10
1143.59848403433
 20
1104.29238534425
 30
0.0
 11
1164.956118905244
 21
1104.29238534425
 31
0.0
  0
LINE
  5
4A56
330
1A
100
AcDbEntity
  8
外形線
100
AcDbLine
 10
1143.598484034328
 20
1112.705410725766
 30
0.0
 11
1161.327394533972
 21
1112.705410725766
 31
0.0
  0
LINE
  5
4A57
330
1A
100
AcDbEntity
  8
外形線
100
AcDbLine
 10
1143.598484034328
 20
1113.271149598118
 30
0.0
 11
1162.88256212166
 21
1113.271149598118
 31
0.0
  0
LINE
  5
4A58
330
1A
100
AcDbEntity
  8
外形線
100
AcDbLine
 10
1143.59848403433
 20
1123.212320315156
 30
0.0
 11
1162.88256212166
 21
1123.212320315156
 31
0.0
  0
LINE
  5
4A59
330
1A
100
AcDbEntity
  8
外形線
100
AcDbLine
 10
1143.598484034328
 20
1089.47897083249
 30
0.0
 11
1164.956118905244
 21
1089.47897083249
 31
0.0
  0
LINE
  5
4A5A
330
1A
100
AcDbEntity
  8
外形線
100
AcDbLine
 10
1143.598484034327
 20
1079.11118691457
 30
0.0
 11
1164.956118905243
 21
1079.11118691457
 31
0.0
  0
ARC
  5
4A5B
330
1A
100
AcDbEntity
  8
外形線
100
AcDbCircle
 10
1143.598484034328
 20
1084.295078873532
 30
0.0
 40
5.183891958959999
100
AcDbArc
 50
180.0
 51
270.0
  0
ARC
  5
4A5C
330
1A
100
AcDbEntity
  8
外形線
100
AcDbCircle
 10
1143.598484034328
 20
1084.295078873532
 30
0.0
 40
5.183891958959999
100
AcDbArc
 50
90.0
 51
180.0
  0
LINE
  5
4A5D
330
1A
100
AcDbEntity
  8
外形線
100
AcDbLine
 10
1165.992897297036
 20
1103.255606952458
 30
0.0
 11
1165.992897297036
 21
1090.515749224282
 31
0.0
  0
LINE
  5
4A5E
330
1A
100
AcDbEntity
  8
外形線
100
AcDbLine
 10
1162.882562121659
 20
1079.11118691457
 30
0.0
 11
1162.88256212166
 21
1084.295078873532
 31
0.0
  0
ARC
  5
4A5F
330
1A
100
AcDbEntity
  8
外形線
100
AcDbCircle
 10
1164.956118905244
 20
1078.07440852278
 30
0.0
 40
1.036778391792
100
AcDbArc
 50
0.0
 51
90.0
  0
LINE
  5
4A60
330
1A
100
AcDbEntity
  8
外形線
100
AcDbLine
 10
1162.88256212166
 20
1089.47897083249
 30
0.0
 11
1162.88256212166
 21
1084.295078873532
 31
0.0
  0
ARC
  5
4A61
330
1A
100
AcDbEntity
  8
外形線
100
AcDbCircle
 10
1164.956118905244
 20
1090.515749224282
 30
0.0
 40
1.036778391792
100
AcDbArc
 50
270.0
 51
0.0
  0
ARC
  5
4A62
330
1A
100
AcDbEntity
  8
外形線
100
AcDbCircle
 10
1162.882562121661
 20
1110.160814422742
 30
0.0
 40
3.110335175376
100
AcDbArc
 50
0.0
 51
90.0
  0
LINE
  5
4A63
330
1A
100
AcDbEntity
  8
外形線
100
AcDbLine
 10
1162.88256212166
 20
1111.150243138078
 30
0.0
 11
1162.88256212166
 21
1104.29238534425
 31
0.0
  0
ARC
  5
4A64
330
1A
100
AcDbEntity
  8
外形線
100
AcDbCircle
 10
1164.956118905244
 20
1109.088810686548
 30
0.0
 40
1.036778391792
100
AcDbArc
 50
307.13543647028
 51
0.0
  0
ARC
  5
4A65
330
1A
100
AcDbEntity
  8
外形線
100
AcDbCircle
 10
1164.956118905244
 20
1103.255606952458
 30
0.0
 40
1.036778391792
100
AcDbArc
 50
0.0
 51
90.0
  0
LINE
  5
4A66
330
1A
100
AcDbEntity
  8
外形線
100
AcDbLine
 10
1165.582023227706
 20
1108.262279856628
 30
0.0
 11
1162.88256212166
 21
1106.218067694862
 31
0.0
  0
ARC
  5
4A67
330
1A
100
AcDbEntity
  8
外形線
100
AcDbCircle
 10
1161.327394533972
 20
1111.150243138078
 30
0.0
 40
1.555167587688
100
AcDbArc
 50
0.0
 51
90.0
  0
ARC
  5
4A68
330
1A
100
AcDbEntity
  8
外形線
100
AcDbCircle
 10
1162.882562121661
 20
1120.10198513978
 30
0.0
 40
3.110335175376
100
AcDbArc
 50
0.0
 51
90.0
  0
LINE
  5
4A69
330
1A
100
AcDbEntity
  8
外形線
100
AcDbLine
 10
1138.414592075368
 20
1134.060441679546
 30
0.0
 11
1162.062826884052
 21
1132.853691361134
 31
0.0
  0
LINE
  5
4A6A
330
1A
100
AcDbEntity
  8
外形線
100
AcDbLine
 10
1143.598484034328
 20
1128.48203485018
 30
0.0
 11
1160.809005338076
 21
1128.48203485018
 31
0.0
  0
LINE
  5
4A6B
330
1A
100
AcDbEntity
  8
外形線
100
AcDbLine
 10
1143.598484034328
 20
1129.299213613264
 30
0.0
 11
1162.88256212166
 21
1129.299213613264
 31
0.0
  0
LINE
  5
4A6C
330
1A
100
AcDbEntity
  8
外形線
100
AcDbLine
 10
1133.334377955588
 20
1134.578830875442
 30
0.0
 11
1138.275690108962
 21
1134.578830875442
 31
0.0
  0
LINE
  5
4A6D
330
1A
100
AcDbEntity
  8
外形線
100
AcDbLine
 10
1132.815988759692
 20
1134.060441679546
 30
0.0
 11
1133.334377955588
 21
1134.578830875442
 31
0.0
  0
ARC
  5
4A6E
330
1A
100
AcDbEntity
  8
外形線
100
AcDbCircle
 10
1137.377813683577
 20
1134.060441679546
 30
0.0
 40
1.036778391792
100
AcDbArc
 50
0.0
 51
30.000000000007
  0
ARC
  5
4A6F
330
1A
100
AcDbEntity
  8
外形線
100
AcDbCircle
 10
1161.845783729869
 20
1128.712261268978
 30
0.0
 40
4.147113567168
100
AcDbArc
 50
0.0
 51
86.999999999994
  0
ARC
  5
4A70
330
1A
100
AcDbEntity
  8
外形線
100
AcDbCircle
 10
1160.809005338077
 20
1126.408478066596
 30
0.0
 40
2.073556783584
100
AcDbArc
 50
0.0
 51
90.0
  0
ARC
  5
4A71
330
1A
100
AcDbEntity
  8
外形線
100
AcDbCircle
 10
1162.882562121661
 20
1126.188878437888
 30
0.0
 40
3.110335175376
100
AcDbArc
 50
0.0
 51
90.0
  0
LWPOLYLINE
  5
4A72
330
1A
100
AcDbEntity
  8
外形線
100
AcDbPolyline
 90
       18
 70
     0
 43
0.0
 10
1143.598484034328
 20
1129.299213613264
 10
1142.645061437924
 20
1129.247393150552
 10
1141.724106504536
 20
1129.093696446126
 10
1140.866981249858
 20
1128.843357456914
 10
1140.102874046426
 20
1128.504901176946
 10
1139.457805648612
 20
1128.089853328902
 10
1138.953743087028
 20
1127.612347869452
 10
1138.60785160765
 20
1127.088645674314
 10
1138.431910129958
 20
1126.536580793632
 10
1138.431910129958
 20
1125.974953134786
 10
1138.60785160765
 20
1125.422888254104
 10
1138.953743087028
 20
1124.899186058966
 10
1139.457805648612
 20
1124.421680599516
 10
1140.102874046426
 20
1124.006632751474
 10
1140.866981249858
 20
1123.668176471504
 10
1141.724106504536
 20
1123.417837482292
 10
1142.645061437924
 20
1123.264140777866
 10
1143.598484034328
 20
1123.212320315156
  0
LWPOLYLINE
  5
4A73
330
1A
100
AcDbEntity
  8
外形線
100
AcDbPolyline
 90
        8
 70
     0
 43
0.0
 10
1143.598484034328
 20
1128.48203485018
 10
1142.589628287986
 20
1128.42395314564
 10
1141.619278924796
 20
1128.25192491622
 10
1140.724472601886
 20
1127.972516199672
 10
1139.93936262139
 20
1127.59639157231
 10
1139.29391535445
 20
1127.137907099472
 10
1138.812766473568
 20
1126.61456238786
 10
1138.51428064904
 20
1126.04633265401
  0
LWPOLYLINE
  5
4A74
330
1A
100
AcDbEntity
  8
外形線
100
AcDbPolyline
 90
        8
 70
     0
 43
0.0
 10
1143.598484034328
 20
1112.705410725766
 10
1142.60802536108
 20
1112.628941863364
 10
1141.65130818983
 20
1112.40214030587
 10
1140.760924566278
 20
1112.032732398072
 10
1139.967206781536
 20
1111.533302589976
 10
1139.297194055858
 20
1110.920864728116
 10
1138.773711405906
 20
1110.216282452644
 10
1138.414592075368
 20
1109.443558445238
  0
LWPOLYLINE
  5
4A75
330
1A
100
AcDbEntity
  8
外形線
100
AcDbPolyline
 90
       18
 70
     0
 43
0.0
 10
1143.598484034328
 20
1113.271149598118
 10
1142.645104116586
 20
1113.194709336162
 10
1141.724190408492
 20
1112.967991631734
 10
1140.867103521856
 20
1112.59871708434
 10
1140.103030522644
 20
1112.099460895798
 10
1139.457991000438
 20
1111.487224636816
 10
1138.953951002526
 20
1110.782857278896
 10
1138.60807500651
 20
1110.010345207616
 10
1138.432141404598
 20
1109.19599539504
 10
1138.432141404598
 20
1108.367539547328
 10
1138.60807500651
 20
1107.553189734752
 10
1138.953951002526
 20
1106.780677663472
 10
1139.457991000438
 20
1106.076310305552
 10
1140.103030522644
 20
1105.46407404657
 10
1140.867103521856
 20
1104.964817858026
 10
1141.724190408492
 20
1104.595543310634
 10
1142.645104116586
 20
1104.368825606206
 10
1143.598484034328
 20
1104.29238534425
  0
ARC
  5
4A76
330
1A
100
AcDbEntity
  8
外形線
100
AcDbCircle
 10
1084.237364128558
 20
1039.517818663443
 30
0.0
 40
2.0
100
AcDbArc
 50
180.0
 51
225.000000000005
  0
LINE
  5
4A77
330
1A
100
AcDbEntity
  8
外形線
100
AcDbLine
 10
1125.248061335549
 20
1057.092276899912
 30
0.0
 11
1127.258687994741
 21
1052.646344927316
 31
0.0
  0
LINE
  5
4A78
330
1A
100
AcDbEntity
  8
外形線
100
AcDbLine
 10
1064.876420590054
 20
1105.253139201735
 30
0.0
 11
1064.876420590054
 21
1116.760567201735
 31
0.0
  0
LINE
  5
4A79
330
1A
100
AcDbEntity
  8
外形線
100
AcDbLine
 10
1070.376420590044
 20
1117.760567201735
 30
0.0
 11
1070.376420590043
 21
1051.060567201735
 31
0.0
  0
LINE
  5
4A7A
330
1A
100
AcDbEntity
  8
外形線
100
AcDbLine
 10
1065.476420590053
 20
1051.060567201735
 30
0.0
 11
1070.376420590043
 21
1051.060567201735
 31
0.0
  0
LINE
  5
4A7B
330
1A
100
AcDbEntity
  8
外形線
100
AcDbLine
 10
1065.476420590054
 20
1117.760567201735
 30
0.0
 11
1070.376420590044
 21
1117.760567201735
 31
0.0
  0
LINE
  5
4A7C
330
1A
100
AcDbEntity
  8
外形線
100
AcDbLine
 10
1109.615078114181
 20
1039.770300025928
 30
0.0
 11
1110.933094395609
 21
1038.394471283118
 31
0.0
  0
LINE
  5
4A7D
330
1A
100
AcDbEntity
  8
外形線
100
AcDbLine
 10
1109.615078114181
 20
1039.770300025928
 30
0.0
 11
1118.695547816727
 21
1048.469207483362
 31
0.0
  0
CIRCLE
  5
4A7E
330
1A
100
AcDbEntity
  8
細線
100
AcDbCircle
 10
1114.81432110617
 20
1043.43183938324
 30
0.0
 40
9.90742839250458
  0
CIRCLE
  5
4A7F
330
1A
100
AcDbEntity
  8
外形線
100
AcDbCircle
 10
1114.81432110617
 20
1043.43183938324
 30
0.0
 40
10.51872781849356
  0
LINE
  5
4A80
330
1A
100
AcDbEntity
  8
外形線
100
AcDbLine
 10
1110.933094395609
 20
1038.394471283118
 30
0.0
 11
1120.013564098158
 21
1047.093378740552
 31
0.0
  0
LINE
  5
4A81
330
1A
100
AcDbEntity
  8
外形線
100
AcDbLine
 10
1118.695547816727
 20
1048.469207483362
 30
0.0
 11
1120.013564098158
 21
1047.093378740552
 31
0.0
  0
CIRCLE
  5
4A82
330
1A
100
AcDbEntity
  8
細線
100
AcDbCircle
 10
1114.815988759688
 20
1043.43183938324
 30
0.0
 40
13.76127218150634
  0
LINE
  5
4A83
330
1A
100
AcDbEntity
  8
外形線
100
AcDbLine
 10
1085.373882023142
 20
1128.418171515793
 30
0.0
 11
1070.376420590044
 21
1117.760567201735
 31
0.0
  0
LINE
  5
4A84
330
1A
100
AcDbEntity
  8
外形線
100
AcDbLine
 10
1085.373882023142
 20
1040.17198623127
 30
0.0
 11
1070.376420590043
 21
1051.060567201735
 31
0.0
  0
LINE
  5
4A85
330
1A
100
AcDbEntity
  8
外形線
100
AcDbLine
 10
1095.901657371543
 20
1024.07156328284
 30
0.0
 11
1082.823150566183
 21
1038.103605101069
 31
0.0
  0
LINE
  5
4A86
330
1A
100
AcDbEntity
  8
外形線
100
AcDbLine
 10
1064.876420590054
 20
1117.276592605519
 30
0.0
 11
1064.876420590053
 21
1051.544541797951
 31
0.0
  0
ARC
  5
4A87
330
1A
100
AcDbEntity
  8
外形線
100
AcDbCircle
 10
1065.476420590055
 20
1117.160567201735
 30
0.0
 40
0.6
100
AcDbArc
 50
90.0
 51
180.0
  0
ARC
  5
4A88
330
1A
100
AcDbEntity
  8
外形線
100
AcDbCircle
 10
1065.476420590054
 20
1051.660567201735
 30
0.0
 40
0.6
100
AcDbArc
 50
180.0
 51
270.0
  0
LINE
  5
4A89
330
1A
100
AcDbEntity
  8
外形線
100
AcDbLine
 10
1064.876420590053
 20
1058.454264680727
 30
0.0
 11
1064.876420590054
 21
1110.366869722743
 31
0.0
  0
LINE
  5
4A8A
330
1A
100
AcDbEntity
  8
外形線
100
AcDbLine
 10
1124.145326632297
 20
1001.859412628602
 30
0.0
 11
1124.145326632297
 21
1012.750567201734
 31
0.0
  0
LINE
  5
4A8B
330
1A
100
AcDbEntity
  8
外形線
100
AcDbLine
 10
1130.365996983049
 20
1012.750567201734
 30
0.0
 11
1130.365996983049
 21
1001.8594126286
 31
0.0
  0
LINE
  5
4A8C
330
1A
100
AcDbEntity
  8
外形線
100
AcDbLine
 10
1121.553380652817
 20
1001.859412628602
 30
0.0
 11
1121.553380652817
 21
1012.750567201734
 31
0.0
  0
LINE
  5
4A8D
330
1A
100
AcDbEntity
  8
外形線
100
AcDbLine
 10
1105.483315580041
 20
1001.859412628602
 30
0.0
 11
1105.483315580041
 21
1012.750567201734
 31
0.0
  0
LINE
  5
4A8E
330
1A
100
AcDbEntity
  8
外形線
100
AcDbLine
 10
1108.075261559521
 20
1001.859412628602
 30
0.0
 11
1108.075261559521
 21
1012.750567201734
 31
0.0
  0
LINE
  5
4A8F
330
1A
100
AcDbEntity
  8
外形線
100
AcDbLine
 10
1099.262645229289
 20
1012.750567201734
 30
0.0
 11
1099.262645229289
 21
1001.859412628599
 31
0.0
  0
ARC
  5
4A90
330
1A
100
AcDbEntity
  8
外形線
100
AcDbCircle
 10
1114.81432110617
 20
1018.14350233184
 30
0.0
 40
17.62346450152246
100
AcDbArc
 50
247.518115682491
 51
292.481884317508
  0
LINE
  5
4A91
330
1A
100
AcDbEntity
  8
外形線
100
AcDbLine
 10
1128.603473717003
 20
1000.200567201734
 30
0.0
 11
1101.025168495335
 21
1000.200567201734
 31
0.0
  0
LINE
  5
4A92
330
1A
100
AcDbEntity
  8
外形線
100
AcDbLine
 10
1123.419581758043
 20
995.410567201734
 30
0.0
 11
1106.209060454295
 21
995.410567201734
 31
0.0
  0
ARC
  5
4A93
330
1A
100
AcDbEntity
  8
外形線
100
AcDbCircle
 10
1106.209060454295
 20
1000.594459160694
 30
0.0
 40
5.183891958959999
100
AcDbArc
 50
184.357752857952
 51
270.0
  0
ARC
  5
4A94
330
1A
100
AcDbEntity
  8
外形線
100
AcDbCircle
 10
1102.372980404665
 20
1004.785987658855
 30
0.0
 40
4.2707173063642
100
AcDbArc
 50
223.256487111674
 51
316.743512888335
  0
LINE
  5
4A95
330
1A
100
AcDbEntity
  8
外形線
100
AcDbLine
 10
1101.025168495335
 20
1000.200567201734
 30
0.0
 11
1099.262645229289
 21
1001.859412628602
 31
0.0
  0
LINE
  5
4A96
330
1A
100
AcDbEntity
  8
外形線
100
AcDbLine
 10
1108.075261559521
 20
1001.859412628602
 30
0.0
 11
1105.483315580041
 21
1001.859412628602
 31
0.0
  0
ARC
  5
4A97
330
1A
100
AcDbEntity
  8
外形線
100
AcDbCircle
 10
1123.419581758043
 20
1000.594459160694
 30
0.0
 40
5.183891958959999
100
AcDbArc
 50
270.0
 51
355.642247142048
  0
ARC
  5
4A98
330
1A
100
AcDbEntity
  8
外形線
100
AcDbCircle
 10
1127.255661807673
 20
1004.785987658854
 30
0.0
 40
4.2707173063642
100
AcDbArc
 50
223.256487111676
 51
316.743512888324
  0
LINE
  5
4A99
330
1A
100
AcDbEntity
  8
外形線
100
AcDbLine
 10
1121.553380652817
 20
1001.859412628602
 30
0.0
 11
1124.145326632297
 21
1001.859412628602
 31
0.0
  0
LINE
  5
4A9A
330
1A
100
AcDbEntity
  8
外形線
100
AcDbLine
 10
1128.603473717003
 20
1000.200567201734
 30
0.0
 11
1130.365996983049
 21
1001.859412628602
 31
0.0
  0
LINE
  5
4A9B
330
1A
100
AcDbEntity
  8
外形線
100
AcDbLine
 10
1130.365996983049
 20
1012.750567201734
 30
0.0
 11
1099.262645229289
 21
1012.750567201734
 31
0.0
  0
LINE
  5
4A9C
330
1A
100
AcDbEntity
  8
外形線
100
AcDbLine
 10
1130.365996983049
 20
1021.480567201734
 30
0.0
 11
1099.262645229289
 21
1021.480567201734
 31
0.0
  0
LINE
  5
4A9D
330
1A
100
AcDbEntity
  8
外形線
100
AcDbLine
 10
1130.365996983049
 20
1015.550567201734
 30
0.0
 11
1099.262645229289
 21
1015.550567201735
 31
0.0
  0
LINE
  5
4A9E
330
1A
100
AcDbEntity
  8
細線
100
AcDbLine
 10
1103.928147992353
 20
1013.582704394776
 30
0.0
 11
1125.700494219985
 21
1013.582704394776
 31
0.0
  0
LINE
  5
4A9F
330
1A
100
AcDbEntity
  8
外形線
100
AcDbLine
 10
1101.336202012873
 20
1021.480567201734
 30
0.0
 11
1101.336202012873
 21
1023.160567201734
 31
0.0
  0
LINE
  5
4AA0
330
1A
100
AcDbEntity
  8
外形線
100
AcDbLine
 10
1101.336202012873
 20
1021.480567201734
 30
0.0
 11
1101.336202012873
 21
1021.99895639763
 31
0.0
  0
LINE
  5
4AA1
330
1A
100
AcDbEntity
  8
外形線
100
AcDbLine
 10
1099.262645229289
 20
1015.550567201735
 30
0.0
 11
1099.262645229289
 21
1021.480567201734
 31
0.0
  0
LINE
  5
4AA2
330
1A
100
AcDbEntity
  8
外形線
100
AcDbLine
 10
1103.928147992353
 20
1012.750567201734
 30
0.0
 11
1103.928147992353
 21
1015.550567201735
 31
0.0
  0
LINE
  5
4AA3
330
1A
100
AcDbEntity
  8
外形線
100
AcDbLine
 10
1103.928147992353
 20
1013.582704394776
 30
0.0
 11
1103.064488727921
 21
1012.750567201734
 31
0.0
  0
LINE
  5
4AA4
330
1A
100
AcDbEntity
  8
外形線
100
AcDbLine
 10
1103.928147992353
 20
1013.582704394776
 30
0.0
 11
1103.928147992353
 21
1012.750567201734
 31
0.0
  0
LINE
  5
4AA5
330
1A
100
AcDbEntity
  8
外形線
100
AcDbLine
 10
1105.483315580041
 20
1015.550567201734
 30
0.0
 11
1105.483315580041
 21
1021.480567201734
 31
0.0
  0
LINE
  5
4AA6
330
1A
100
AcDbEntity
  8
外形線
100
AcDbLine
 10
1108.075261559521
 20
1015.550567201734
 30
0.0
 11
1108.075261559521
 21
1021.480567201734
 31
0.0
  0
LINE
  5
4AA7
330
1A
100
AcDbEntity
  8
外形線
100
AcDbLine
 10
1125.700494219985
 20
1012.750567201734
 30
0.0
 11
1125.700494219985
 21
1015.550567201734
 31
0.0
  0
LINE
  5
4AA8
330
1A
100
AcDbEntity
  8
外形線
100
AcDbLine
 10
1125.700494219985
 20
1013.582704394776
 30
0.0
 11
1125.700494219985
 21
1012.750567201734
 31
0.0
  0
LINE
  5
4AA9
330
1A
100
AcDbEntity
  8
外形線
100
AcDbLine
 10
1125.700494219985
 20
1013.582704394776
 30
0.0
 11
1126.564153484417
 21
1012.750567201734
 31
0.0
  0
LINE
  5
4AAA
330
1A
100
AcDbEntity
  8
外形線
100
AcDbLine
 10
1124.145326632297
 20
1015.550567201734
 30
0.0
 11
1124.145326632297
 21
1021.480567201734
 31
0.0
  0
LINE
  5
4AAB
330
1A
100
AcDbEntity
  8
外形線
100
AcDbLine
 10
1121.553380652817
 20
1015.550567201734
 30
0.0
 11
1121.553380652817
 21
1021.480567201734
 31
0.0
  0
LINE
  5
4AAC
330
1A
100
AcDbEntity
  8
外形線
100
AcDbLine
 10
1128.292440199465
 20
1021.480567201734
 30
0.0
 11
1128.292440199465
 21
1023.160567201734
 31
0.0
  0
LINE
  5
4AAD
330
1A
100
AcDbEntity
  8
外形線
100
AcDbLine
 10
1130.365996983049
 20
1015.550567201734
 30
0.0
 11
1130.365996983049
 21
1021.480567201734
 31
0.0
  0
LINE
  5
4AAE
330
1A
100
AcDbEntity
  8
細線
100
AcDbLine
 10
1124.67746644639
 20
1131.468495700066
 30
0.0
 11
1124.677466446389
 21
1058.253139201734
 31
0.0
  0
LINE
  5
4AAF
330
1A
100
AcDbEntity
  8
外形線
100
AcDbLine
 10
1132.815988759691
 20
1052.154948727978
 30
0.0
 11
1128.249271298837
 21
1052.154948727978
 31
0.0
  0
ARC
  5
4AB0
330
1A
100
AcDbEntity
  8
外形線
100
AcDbCircle
 10
1124.257478031454
 20
1056.3395390291
 30
0.0
 40
1.2441340701504
100
AcDbArc
 50
37.23096796567
 51
90.0
  0
ARC
  5
4AB1
330
1A
100
AcDbEntity
  8
外形線
100
AcDbCircle
 10
1128.249271298838
 20
1053.39908279813
 30
0.0
 40
1.2441340701504
100
AcDbArc
 50
217.230967965675
 51
270.0
  0
LINE
  5
4AB2
330
1A
100
AcDbEntity
  8
外形線
100
AcDbLine
 10
1132.815988759692
 20
1133.621517912016
 30
0.0
 11
1128.51422908871
 21
1133.621517912016
 31
0.0
  0
ARC
  5
4AB3
330
1A
100
AcDbEntity
  8
外形線
100
AcDbCircle
 10
1124.677466446391
 20
1133.542052483652
 30
0.0
 40
2.073556783584
100
AcDbArc
 50
270.0
 51
316.091731908441
  0
LINE
  5
4AB4
330
1A
100
AcDbEntity
  8
外形線
100
AcDbLine
 10
1127.02033294222
 20
1132.985984785486
 30
0.0
 11
1126.17136259288
 21
1132.104028826596
 31
0.0
  0
ARC
  5
4AB5
330
1A
100
AcDbEntity
  8
外形線
100
AcDbCircle
 10
1128.514229088711
 20
1131.547961128432
 30
0.0
 40
2.073556783584
100
AcDbArc
 50
90.0
 51
136.091731908427
  0
DIMENSION
  5
4ABD
330
1A
100
AcDbEntity
  8
寸法線
 48
10.0
100
AcDbDimension
  2
*D8
 10
1000.917685459575
 20
1098.410567201735
 30
0.0
 11
1000.917685459575
 21
1112.335567201735
 31
0.0
 70
   160
  1
φ<>
  3
ISO-25
100
AcDbAlignedDimension
 13
1000.917685459575
 23
1070.410567201735
 33
0.0
 14
1000.917685459575
 24
1098.410567201735
 34
0.0
 50
90.0
100
AcDbRotatedDimension
1001
ACAD
1000
DSTYLE
1002
{
1070
     5
1000
OPEN30
1070
    41
1040
4.3
1070
    47
1040
0.1
1070
    48
1040
0.1
1070
    73
1070
     0
1070
   140
1040
8.0
1070
   271
1070
     1
1070
   272
1070
     1
1070
   341
1005
2AF4
1002
}
  0
DIMENSION
  5
4AC0
330
1A
100
AcDbEntity
  8
寸法線
 48
10.0
100
AcDbDimension
  2
*D7
 10
869.190613025691
 20
1092.410567201735
 30
0.0
 11
869.190613025691
 21
1084.410567201735
 31
0.0
 70
   160
  1
15.6
  3
ISO-25
100
AcDbAlignedDimension
 13
885.875019750646
 23
1076.410567201735
 33
0.0
 14
885.875019750646
 24
1092.410567201735
 34
0.0
 50
90.0
100
AcDbRotatedDimension
1001
ACAD
1000
DSTYLE
1002
{
1070
     5
1000
OPEN30
1070
    41
1040
4.3
1070
    47
1040
0.1
1070
    48
1040
0.1
1070
    73
1070
     0
1070
   140
1040
8.0
1070
   271
1070
     1
1070
   272
1070
     1
1070
   341
1005
2AF4
1002
}
  0
DIMENSION
  5
4AC1
330
1A
100
AcDbEntity
  8
寸法線
 48
10.0
100
AcDbDimension
  2
*D6
 10
847.689864152243
 20
1097.410567201735
 30
0.0
 11
843.064076750668
 21
1084.410567201735
 31
0.0
 70
    32
  3
ISO-25
100
AcDbAlignedDimension
 13
898.875019750646
 23
1071.410567201735
 33
0.0
 14
898.875019750646
 24
1097.410567201735
 34
0.0
 50
90.0
100
AcDbRotatedDimension
1001
ACAD
1000
DSTYLE
1002
{
1070
     5
1000
OPEN30
1070
    41
1040
4.3
1070
    47
1040
0.1
1070
    48
1040
0.1
1070
    73
1070
     0
1070
   140
1040
8.0
1070
   271
1070
     1
1070
   272
1070
     1
1070
   341
1005
2AF4
1002
}
  0
LINE
  5
4AC4
330
1A
100
AcDbEntity
  8
細線
 48
10.0
100
AcDbLine
 10
922.375019750646
 20
1071.410567201736
 30
0.0
 11
922.375019750646
 21
1075.410567201736
 31
0.0
  0
LINE
  5
4AC5
330
1A
100
AcDbEntity
  8
外形線
 48
10.0
100
AcDbLine
 10
922.375019750646
 20
1071.410567201736
 30
0.0
 11
925.875019750646
 21
1072.910567201736
 31
0.0
  0
LINE
  5
4AC6
330
1A
100
AcDbEntity
  8
外形線
100
AcDbLine
 10
898.875019750646
 20
1071.410567201736
 30
0.0
 11
922.375019750646
 21
1071.410567201736
 31
0.0
  0
LINE
  5
4AC7
330
1A
100
AcDbEntity
  8
外形線
 48
10.0
100
AcDbLine
 10
922.375019750646
 20
1075.410567201736
 30
0.0
 11
925.875019750646
 21
1076.910567201736
 31
0.0
  0
LINE
  5
4AC8
330
1A
100
AcDbEntity
  8
外形線
100
AcDbLine
 10
885.875019750646
 20
1076.410567201736
 30
0.0
 11
920.875019750646
 21
1076.410567201736
 31
0.0
  0
ARC
  5
4AC9
330
1A
100
AcDbEntity
  8
外形線
100
AcDbCircle
 10
920.875019750646
 20
1081.410567201736
 30
0.0
 40
5.0
100
AcDbArc
 50
270.0
 51
0.0
  0
LINE
  5
4ACA
330
1A
100
AcDbEntity
  8
外形線
100
AcDbLine
 10
922.375019750646
 20
1075.410567201736
 30
0.0
 11
885.875019750646
 21
1075.410567201736
 31
0.0
  0
LINE
  5
4ACB
330
1A
100
AcDbEntity
  8
外形線
 48
10.0
100
AcDbLine
 10
925.875019750646
 20
1091.910567201736
 30
0.0
 11
922.375019750646
 21
1093.410567201736
 31
0.0
  0
LINE
  5
4ACC
330
1A
100
AcDbEntity
  8
細線
 48
10.0
100
AcDbLine
 10
922.375019750646
 20
1093.410567201736
 30
0.0
 11
922.375019750646
 21
1097.410567201736
 31
0.0
  0
ARC
  5
4ACD
330
1A
100
AcDbEntity
  8
外形線
100
AcDbCircle
 10
920.875019750646
 20
1087.410567201736
 30
0.0
 40
5.0
100
AcDbArc
 50
0.0
 51
90.0
  0
LINE
  5
4ACE
330
1A
100
AcDbEntity
  8
外形線
100
AcDbLine
 10
922.375019750646
 20
1093.410567201736
 30
0.0
 11
885.875019750646
 21
1093.410567201736
 31
0.0
  0
LINE
  5
4ACF
330
1A
100
AcDbEntity
  8
外形線
 48
10.0
100
AcDbLine
 10
925.875019750646
 20
1095.910567201736
 30
0.0
 11
922.375019750646
 21
1097.410567201736
 31
0.0
  0
LINE
  5
4AD0
330
1A
100
AcDbEntity
  8
外形線
100
AcDbLine
 10
898.875019750646
 20
1097.410567201736
 30
0.0
 11
922.375019750646
 21
1097.410567201736
 31
0.0
  0
LINE
  5
4AD1
330
1A
100
AcDbEntity
  8
外形線
100
AcDbLine
 10
885.875019750646
 20
1092.410567201736
 30
0.0
 11
920.875019750646
 21
1092.410567201736
 31
0.0
  0
LINE
  5
4AD2
330
1A
100
AcDbEntity
  8
外形線
100
AcDbLine
 10
885.875019750646
 20
1093.410567201736
 30
0.0
 11
898.875019750646
 21
1097.410567201736
 31
0.0
  0
LINE
  5
4AD3
330
1A
100
AcDbEntity
  8
外形線
100
AcDbLine
 10
885.875019750646
 20
1092.410567201736
 30
0.0
 11
885.875019750646
 21
1093.410567201736
 31
0.0
  0
LINE
  5
4AD4
330
1A
100
AcDbEntity
  8
外形線
100
AcDbLine
 10
885.875019750646
 20
1075.410567201736
 30
0.0
 11
898.875019750646
 21
1071.410567201736
 31
0.0
  0
LINE
  5
4AD5
330
1A
100
AcDbEntity
  8
外形線
100
AcDbLine
 10
885.875019750646
 20
1076.410567201736
 30
0.0
 11
885.875019750646
 21
1075.410567201736
 31
0.0
  0
ARC
  5
4AD8
330
1A
100
AcDbEntity
  8
細線
 48
10.0
100
AcDbCircle
 10
982.195255354008
 20
1091.410567201736
 30
0.0
 40
9.66666666666672
100
AcDbArc
 50
133.602818972701
 51
226.397181027299
  0
ARC
  5
4AD9
330
1A
100
AcDbEntity
  8
細線
 48
10.0
100
AcDbCircle
 10
968.861922020674
 20
1091.410567201736
 30
0.0
 40
9.66666666666672
100
AcDbArc
 50
313.602818972701
 51
46.397181027299
  0
ARC
  5
4ADA
330
1A
100
AcDbEntity
  8
細線
 48
10.0
100
AcDbCircle
 10
994.195255354008
 20
1091.410567201736
 30
0.0
 40
9.66666666666672
100
AcDbArc
 50
133.602818972701
 51
226.397181027299
  0
ARC
  5
4ADB
330
1A
100
AcDbEntity
  8
細線
 48
10.0
100
AcDbCircle
 10
968.861922020674
 20
1077.410567201736
 30
0.0
 40
9.66666666666672
100
AcDbArc
 50
313.602818972701
 51
46.397181027299
  0
ARC
  5
4ADC
330
1A
100
AcDbEntity
  8
細線
 48
10.0
100
AcDbCircle
 10
994.195255354008
 20
1077.410567201736
 30
0.0
 40
9.66666666666672
100
AcDbArc
 50
133.602818972701
 51
226.397181027299
  0
ARC
  5
4ADD
330
1A
100
AcDbEntity
  8
細線
 48
10.0
100
AcDbCircle
 10
980.861922020674
 20
1077.410567201736
 30
0.0
 40
9.66666666666672
100
AcDbArc
 50
313.602818972701
 51
46.397181027299
  0
LINE
  5
4ADE
330
1A
100
AcDbEntity
  8
外形線
100
AcDbLine
 10
975.528588687341
 20
1070.410567201736
 30
0.0
 11
925.875019750646
 21
1070.410567201736
 31
0.0
  0
LINE
  5
4ADF
330
1A
100
AcDbEntity
  8
外形線
100
AcDbLine
 10
975.52858868734
 20
1098.410567201735
 30
0.0
 11
925.875019750646
 21
1098.410567201735
 31
0.0
  0
DIMENSION
  5
4C84
330
1A
100
AcDbEntity
  8
寸法線
 48
10.0
100
AcDbDimension
  2
*D11
 10
1165.992897297036
 20
966.910567201736
 30
0.0
 11
1108.934658943545
 21
971.535567201736
 31
0.0
 70
    32
  1
111
  3
ISO-25
100
AcDbAlignedDimension
 13
1051.876420590054
 23
1064.410567201735
 33
0.0
 14
1165.992897297036
 24
1039.877896478084
 34
0.0
100
AcDbRotatedDimension
1001
ACAD
1000
DSTYLE
1002
{
1070
     5
1000
OPEN30
1070
    41
1040
6.0
1070
    47
1040
0.1
1070
    48
1040
0.1
1070
    73
1070
     0
1070
   140
1040
8.0
1070
   271
1070
     1
1070
   272
1070
     1
1070
   341
1005
2AF4
1002
}
  0
DIMENSION
  5
4C91
330
1A
100
AcDbEntity
  8
寸法線
 48
10.0
100
AcDbDimension
  2
*D12
 10
1051.876420590054
 20
966.910567201736
 30
0.0
 11
968.87572017035
 21
966.910567201736
 31
0.0
 70
    32
  1
 
  3
ISO-25
100
AcDbAlignedDimension
 13
885.875019750646
 23
1075.410567201736
 33
0.0
 14
1051.876420590054
 24
1064.410567201735
 34
0.0
100
AcDbRotatedDimension
1001
ACAD
1000
DSTYLE
1002
{
1070
     5
1000
OPEN30
1070
    41
1040
6.0
1070
    47
1040
0.1
1070
    48
1040
0.1
1070
    73
1070
     0
1070
   140
1040
5.0
1070
   271
1070
     1
1070
   272
1070
     1
1070
   341
1005
2AF4
1002
}
  0
DIMENSION
  5
4CB9
330
1A
100
AcDbEntity
  8
寸法線
 48
10.0
100
AcDbDimension
  2
*D13
 10
885.875019750646
 20
1039.082739329584
 30
0.0
 11
905.875019750646
 21
1043.707739329584
 31
0.0
 70
    32
  3
ISO-25
100
AcDbAlignedDimension
 13
925.875019750646
 23
1070.410567201736
 33
0.0
 14
885.875019750646
 24
1075.410567201736
 34
0.0
100
AcDbRotatedDimension
1001
ACAD
1000
DSTYLE
1002
{
1070
     5
1000
OPEN30
1070
    41
1040
6.0
1070
    47
1040
0.1
1070
    48
1040
0.1
1070
    73
1070
     0
1070
   140
1040
8.0
1070
   271
1070
     1
1070
   272
1070
     1
1070
   341
1005
2AF4
1002
}
  0
LEADER
  5
4CD8
330
1A
100
AcDbEntity
  8
寸法線
 48
10.0
100
AcDbLeader
  3
ISO-25
 76
     3
 10
1105.765116798933
 20
1131.468495700066
 30
0.0
 10
1132.0593028838
 20
1172.998763549323
 30
0.0
 10
1144.43195817651
 20
1172.998763549323
 30
0.0
213
-36.87336063543103
223
0.0
233
0.0
1001
ACAD
1000
DSTYLE
1002
{
1070
     5
1000
OPEN30
1070
   147
1040
0.625
1070
    77
1070
     0
1070
    41
1040
6.0
1070
    47
1040
0.1
1070
    48
1040
0.1
1070
    73
1070
     0
1070
   140
1040
5.0
1070
   271
1070
     1
1070
   272
1070
     1
1070
   341
1005
2AF4
1070
   342
1005
2AF4
1002
}
  0
LEADER
  5
4CD9
330
1A
100
AcDbEntity
  8
寸法線
 48
10.0
100
AcDbLeader
  3
ISO-25
 76
     3
 10
1058.232083022756
 20
1108.081928238508
 30
0.0
 10
1079.267504918055
 20
1172.998763549323
 30
0.0
 10
1093.027591357225
 20
1172.998763549323
 30
0.0
213
-20.57438816157901
223
0.0
233
0.0
1001
ACAD
1000
DSTYLE
1002
{
1070
     5
1000
OPEN30
1070
   147
1040
0.625
1070
    77
1070
     0
1070
    41
1040
6.0
1070
    47
1040
0.1
1070
    48
1040
0.1
1070
    73
1070
     0
1070
   140
1040
5.0
1070
   271
1070
     1
1070
   272
1070
     1
1070
   341
1005
2AF4
1070
   342
1005
2AF4
1002
}
  0
LEADER
  5
4CF4
330
1A
100
AcDbEntity
  8
寸法線
 48
10.0
100
AcDbLeader
  3
ISO-25
 76
     3
 10
913.987421572989
 20
1097.410567201736
 30
0.0
 10
897.849689300074
 20
1172.998763549323
 30
0.0
 10
885.303477378365
 20
1172.998763549323
 30
0.0
213
103.158017152564
223
0.0
233
0.0
1001
ACAD
1000
DSTYLE
1002
{
1070
     5
1000
OPEN30
1070
   147
1040
0.625
1070
    77
1070
     0
1070
    41
1040
6.0
1070
    47
1040
0.1
1070
    48
1040
0.1
1070
    73
1070
     0
1070
   140
1040
5.0
1070
   271
1070
     1
1070
   272
1070
     1
1070
   341
1005
2AF4
1070
   342
1005
2AF4
1002
}
  0
LEADER
  5
4CF5
330
1A
100
AcDbEntity
  8
寸法線
 48
10.0
100
AcDbLeader
  3
ISO-25
 76
     3
 10
1105.040974668053
 20
1039.542709105132
 30
0.0
 10
1086.758675177382
 20
990.367547351906
 30
0.0
 10
1075.289138931474
 20
990.367547351906
 30
0.0
213
17.06823250347338
223
0.0
233
0.0
1001
ACAD
1000
DSTYLE
1002
{
1070
     5
1000
OPEN30
1070
   147
1040
0.625
1070
    77
1070
     0
1070
    41
1040
6.0
1070
    47
1040
0.1
1070
    48
1040
0.1
1070
    73
1070
     0
1070
   140
1040
5.0
1070
   271
1070
     1
1070
   272
1070
     1
1070
   341
1005
2AF4
1070
   342
1005
2AF4
1002
}
  0
LEADER
  5
4CF7
330
1A
100
AcDbEntity
  8
寸法線
 48
10.0
100
AcDbLeader
  3
ISO-25
 76
     3
 10
1114.815988759687
 20
995.410567201734
 30
0.0
 10
1181.995747567564
 20
966.910567201736
 30
0.0
 10
1197.860031693467
 20
966.910567201736
 30
0.0
213
-46.4707282737636
223
0.0
233
0.0
1001
ACAD
1000
DSTYLE
1002
{
1070
     5
1000
OPEN30
1070
   147
1040
0.625
1070
    77
1070
     0
1070
    41
1040
6.0
1070
    47
1040
0.1
1070
    48
1040
0.1
1070
    73
1070
     0
1070
   140
1040
5.0
1070
   271
1070
     1
1070
   272
1070
     1
1070
   341
1005
2AF4
1070
   342
1005
2AF4
1002
}
  0
SPLINE
  5
4CF9
330
1A
100
AcDbEntity
  8
寸法線
 48
10.0
100
AcDbSpline
210
0.0
220
0.0
230
1.0
 70
  1064
 71
     3
 72
    13
 73
     9
 74
     7
 42
0.000000001
 43
0.0000000001
 44
0.0000000001
 40
0.0
 40
0.0
 40
0.0
 40
0.0
 40
3.86842211421227
 40
10.12254119268954
 40
15.16331027423529
 40
18.64952359630841
 40
20.50331406220848
 40
21.8476876304271
 40
21.8476876304271
 40
21.8476876304271
 40
21.8476876304271
 10
968.942977627453
 20
967.8815943600566
 30
0.0
 10
970.0933721028111
 20
968.413007524643
 30
0.0
 10
973.1036215329009
 20
969.8035619910489
 30
0.0
 10
973.8290072489306
 20
979.5109694886695
 30
0.0
 10
969.538131228043
 20
972.5290565898235
 30
0.0
 10
969.7260252602631
 20
968.984673798658
 30
0.0
 10
971.9866962031529
 20
967.5961438966838
 30
0.0
 10
972.986627924865
 20
968.096344351814
 30
0.0
 10
973.4069571394868
 20
968.3066075726852
 30
0.0
 11
968.942977627453
 21
967.8815943600566
 31
0.0
 11
972.0252490088517
 21
970.2191770399072
 31
0.0
 11
972.716103074169
 21
976.4350218021425
 31
0.0
 11
970.0058306379599
 21
972.1848716571485
 31
0.0
 11
970.4841146231918
 21
968.7316227873926
 31
0.0
 11
972.1315340488945
 21
967.8815943600566
 31
0.0
 11
973.4069571394868
 21
968.3066075726852
 31
0.0
  0
LINE
  5
4EFD
330
1A
100
AcDbEntity
  8
中心線
 48
10.0
100
AcDbLine
 10
1026.470294756869
 20
1019.410567201734
 30
0.0
 11
1061.282546423239
 21
1019.410567201734
 31
0.0
  0
LINE
  5
4EFE
330
1A
100
AcDbEntity
  8
中心線
 48
10.0
100
AcDbLine
 10
1026.470294756869
 20
1149.410567201734
 30
0.0
 11
1061.282546423239
 21
1149.410567201734
 31
0.0
  0
LINE
  5
4F01
330
1A
100
AcDbEntity
  8
外形線
 48
10.0
100
AcDbLine
 10
1050.876420590054
 20
1161.910567201734
 30
0.0
 11
1050.876420590054
 21
1006.910567201734
 31
0.0
  0
LINE
  5
4F02
330
1A
100
AcDbEntity
  8
外形線
 48
10.0
100
AcDbLine
 10
1036.876420590054
 20
1006.910567201734
 30
0.0
 11
1050.876420590054
 21
1006.910567201734
 31
0.0
  0
LINE
  5
4F03
330
1A
100
AcDbEntity
  8
外形線
 48
10.0
100
AcDbLine
 10
1036.876420590054
 20
1161.910567201734
 30
0.0
 11
1036.876420590054
 21
1006.910567201734
 31
0.0
  0
LINE
  5
4F04
330
1A
100
AcDbEntity
  8
外形線
 48
10.0
100
AcDbLine
 10
1036.876420590054
 20
1161.910567201734
 30
0.0
 11
1050.876420590054
 21
1161.910567201734
 31
0.0
  0
LINE
  5
4F05
330
1A
100
AcDbEntity
  8
寸法線
 48
10.0
100
AcDbLine
 10
1257.194835917108
 20
948.577733895096
 30
0.0
 11
1257.194835917108
 21
853.346698080661
 31
0.0
  0
MTEXT
  5
4F06
330
1A
100
AcDbEntity
  8
寸法線
 48
10.0
100
AcDbMText
 10
1215.90860759477
 20
877.227181962604
 30
0.0
 40
8.0
 41
165.013333333333
 71
     1
 72
     5
  1
SUS316
  0
MTEXT
  5
4F07
330
1A
100
AcDbEntity
  8
寸法線
 48
10.0
100
AcDbMText
 10
1215.90860759477
 20
916.805685309502
 30
0.0
 40
8.0
 41
165.013333333333
 71
     1
 72
     5
  1
SUS304
  0
LINE
  5
4F08
330
1A
100
AcDbEntity
  8
寸法線
 48
10.0
100
AcDbLine
 10
1209.795107123327
 20
933.447959516169
 30
0.0
 11
1209.795107123327
 21
853.346698080661
 31
0.0
  0
MTEXT
  5
4F09
330
1A
100
AcDbEntity
  8
寸法線
 48
10.0
100
AcDbMText
 10
1215.223612541688
 20
945.695908867602
 30
0.0
 40
8.0
 41
165.013333333333
 71
     1
 72
     5
  1
材質
  0
LINE
  5
4F0A
330
1A
100
AcDbEntity
  8
寸法線
 48
10.0
100
AcDbLine
 10
1192.553422401099
 20
948.577733895096
 30
0.0
 11
1192.553422401099
 21
853.346698080661
 31
0.0
  0
LINE
  5
4F0B
330
1A
100
AcDbEntity
  8
寸法線
 48
10.0
100
AcDbLine
 10
1129.304275769383
 20
933.447959516169
 30
0.0
 11
1129.304275769383
 21
853.346698080661
 31
0.0
  0
LINE
  5
4F0C
330
1A
100
AcDbEntity
  8
寸法線
 48
10.0
100
AcDbLine
 10
1112.018908603934
 20
933.447959516169
 30
0.0
 11
1112.018908603934
 21
853.346698080661
 31
0.0
  0
LINE
  5
4F0D
330
1A
100
AcDbEntity
  8
寸法線
 48
10.0
100
AcDbLine
 10
1051.26592713423
 20
933.447959516169
 30
0.0
 11
1051.26592713423
 21
879.949962977264
 31
0.0
  0
LINE
  5
4F0E
330
1A
100
AcDbEntity
  8
寸法線
 48
10.0
100
AcDbLine
 10
1034.689669147997
 20
948.577733895096
 30
0.0
 11
1034.689669147997
 21
879.949962977264
 31
0.0
  0
LINE
  5
4F0F
330
1A
100
AcDbEntity
  8
寸法線
 48
10.0
100
AcDbLine
 10
1034.689669147997
 20
879.949962977264
 30
0.0
 11
1192.553422401098
 21
879.949962977264
 31
0.0
  0
LINE
  5
4F10
330
1A
100
AcDbEntity
  8
寸法線
 48
10.0
100
AcDbLine
 10
1034.689669147997
 20
892.126989634009
 30
0.0
 11
1257.194835917108
 21
892.126989634009
 31
0.0
  0
LINE
  5
4F11
330
1A
100
AcDbEntity
  8
寸法線
 48
10.0
100
AcDbLine
 10
1034.689669147997
 20
905.913011925338
 30
0.0
 11
1192.553422401098
 21
905.913011925338
 31
0.0
  0
LINE
  5
4F12
330
1A
100
AcDbEntity
  8
寸法線
 48
10.0
100
AcDbLine
 10
1034.689669147997
 20
933.447959516169
 30
0.0
 11
1257.194835917107
 21
933.447959516169
 31
0.0
  0
LINE
  5
4F13
330
1A
100
AcDbEntity
  8
寸法線
 48
10.0
100
AcDbLine
 10
1034.689669147997
 20
919.117654456414
 30
0.0
 11
1192.553422401098
 21
919.117654456414
 31
0.0
  0
LINE
  5
4F14
330
1A
100
AcDbEntity
  8
寸法線
 48
10.0
100
AcDbLine
 10
1034.689669147997
 20
948.577733895096
 30
0.0
 11
1257.194835917107
 21
948.577733895096
 31
0.0
  0
MTEXT
  5
4F15
330
1A
100
AcDbEntity
  8
寸法線
 48
10.0
100
AcDbMText
 10
1134.732800529847
 20
930.117144597825
 30
0.0
 40
8.0
 41
165.013333333333
 71
     1
 72
     5
  1
JIS10K32A\PJIS10K40A\PJIS10K50A\PJIS10K65A\PJIS10K80A\PJIS10K100A
  0
MTEXT
  5
4F16
102
{ACAD_XDICTIONARY
360
5EA8
102
}
330
1A
100
AcDbEntity
  8
寸法線
 48
10.0
100
AcDbMText
 10
1057.953496091449
 20
930.421580176432
 30
0.0
 40
8.0
 41
165.013333333333
 71
     1
 72
     5
  1
JIS5K50A\PJIS5K65A\PJIS5K80A\PJIS5K100A
1001
ACADANNOTATIVE
1000
AnnotativeData
1002
{
1070
     1
1070
     0
1002
}
  0
MTEXT
  5
4F17
330
1A
100
AcDbEntity
  8
寸法線
 48
10.0
100
AcDbMText
 10
1084.186269965378
 20
945.695908867602
 30
0.0
 40
8.0
 41
165.013333333333
 71
     1
 72
     5
  1
フランジサイズ
  0
MTEXT
  5
4F18
330
1A
100
AcDbEntity
  8
寸法線
 48
10.0
100
AcDbMText
 10
1120.44009755566
 20
848.10583159655
 30
0.0
 40
8.0
 41
165.013333333333
 71
     1
 72
     5
  1
○印が今回の貴社の御仕様です。
  0
MTEXT
  5
4F58
330
1A
100
AcDbEntity
  8
寸法線
 48
10.0
100
AcDbMText
 10
985.785041993244
 20
1182.183318129835
 30
0.0
 40
8.0
 41
49.592740337165
 71
     1
 72
     5
  1
フランジ
  0
LEADER
  5
4F59
330
1A
100
AcDbEntity
  8
寸法線
 48
10.0
100
AcDbLeader
  3
ISO-25
 76
     3
 10
1036.876420590054
 20
1154.907927123809
 30
0.0
 10
1022.372135233827
 20
1172.998763549323
 30
0.0
 10
1008.669099925952
 20
1172.998763549323
 30
0.0
213
23.94752502694757
223
0.0
233
0.0
1001
ACAD
1000
DSTYLE
1002
{
1070
     5
1000
OPEN30
1070
   147
1040
0.625
1070
    77
1070
     0
1070
    41
1040
6.0
1070
    47
1040
0.1
1070
    48
1040
0.1
1070
    73
1070
     0
1070
   140
1040
5.0
1070
   271
1070
     1
1070
   272
1070
     1
1070
   341
1005
2AF4
1070
   342
1005
2AF4
1002
}
  0
MTEXT
  5
4FFD
330
1A
100
AcDbEntity
  8
寸法線
 48
10.0
100
AcDbMText
 10
922.276349017516
 20
901.634344822515
 30
0.0
 40
7.0
 41
125.633939393939
 71
     1
 72
     5
  1
{\C1;：グランド\P：電源\P：電源\P：コモン\P：オープン（クローズ）\P：クローズ（オープン）}
  0
MTEXT
  5
4FFE
330
1A
100
AcDbEntity
  8
寸法線
 48
10.0
100
AcDbMText
 10
910.38615621778
 20
901.634344822515
 30
0.0
 40
7.0
 41
125.633939393939
 71
     1
 72
     5
  1
{\C1;PE\PN\PL1\PC\PNO\PNC}
  0
MTEXT
  5
4FFF
102
{ACAD_XDICTIONARY
360
5000
102
}
330
1A
100
AcDbEntity
  8
寸法線
 48
10.0
100
AcDbMText
 10
908.070366169014
 20
934.138208475258
 30
0.0
 40
8.0
 41
124.815667100994
 71
     1
 72
     5
  1
電源電圧：AC20～255V　　　　　　：DC20～60V
1001
ACADANNOTATIVE
1000
AnnotativeData
1002
{
1070
     1
1070
     0
1002
}
  0
MTEXT
  5
5003
330
1A
100
AcDbEntity
  8
寸法線
 48
10.0
100
AcDbMText
 10
871.492469026064
 20
842.020516802172
 30
0.0
 40
8.0
 41
95.557777777778
 71
     1
 72
     5
  1
{\C1;（NO）}
  0
MTEXT
  5
5004
330
1A
100
AcDbEntity
  8
寸法線
 48
10.0
100
AcDbMText
 10
820.442889801229
 20
842.020516802172
 30
0.0
 40
8.0
 41
95.557777777778
 71
     1
 72
     5
  1
{\C1;（NC）}
  0
LINE
  5
5091
330
1A
100
AcDbEntity
  8
寸法線
 48
10.0
100
AcDbLine
 10
1414.926830381336
 20
1082.470914381656
 30
0.0
 11
1414.926830381336
 21
929.56798302378
 31
0.0
  0
LINE
  5
5092
330
1A
100
AcDbEntity
  8
寸法線
 48
10.0
100
AcDbLine
 10
1284.694968714746
 20
1052.835919883794
 30
0.0
 11
1382.055499284166
 21
1052.835919883794
 31
0.0
  0
MTEXT
  5
5093
102
{ACAD_XDICTIONARY
360
5094
102
}
330
1A
100
AcDbEntity
  8
寸法線
 48
10.0
100
AcDbMText
 10
1348.952513547007
 20
1063.656224658224
 30
0.0
 40
8.0
 41
66.205971474318
 71
     2
 72
     5
  1
RFM-402-0
1001
ACADANNOTATIVE
1000
AnnotativeData
1002
{
1070
     1
1070
     0
1002
}
1001
ACAD
1000
MTEXTBEGIN
1070
    44
1040
1.1475
1000
MTEXTEND
  0
MTEXT
  5
5097
330
1A
100
AcDbEntity
  8
寸法線
 48
10.0
100
AcDbMText
 10
1340.890416123179
 20
1079.589089354162
 30
0.0
 40
8.0
 41
19.77375149039
 71
     1
 72
     5
  1
型式
  0
LINE
  5
5098
330
1A
100
AcDbEntity
  8
寸法線
 48
10.0
100
AcDbLine
 10
1284.694968714746
 20
1068.269888313801
 30
0.0
 11
1382.055499284166
 21
1068.269888313801
 31
0.0
  0
LINE
  5
5099
330
1A
100
AcDbEntity
  8
寸法線
 48
10.0
100
AcDbLine
 10
1284.694968714746
 20
1082.470914381656
 30
0.0
 11
1382.055499284166
 21
1082.470914381656
 31
0.0
  0
LINE
  5
509A
330
1A
100
AcDbEntity
  8
寸法線
 48
10.0
100
AcDbLine
 10
1315.849527809848
 20
1082.470914381656
 30
0.0
 11
1315.849527809848
 21
929.56798302378
 31
0.0
  0
LINE
  5
509B
330
1A
100
AcDbEntity
  8
寸法線
 48
10.0
100
AcDbLine
 10
1382.055499284166
 20
1082.470914381656
 30
0.0
 11
1382.055499284166
 21
929.56798302378
 31
0.0
  0
LINE
  5
509C
330
1A
100
AcDbEntity
  8
寸法線
 48
10.0
100
AcDbLine
 10
1382.055499284166
 20
1082.470914381656
 30
0.0
 11
1382.055499284166
 21
929.56798302378
 31
0.0
  0
LINE
  5
509D
330
1A
100
AcDbEntity
  8
寸法線
 48
10.0
100
AcDbLine
 10
1284.694968714746
 20
1082.470914381656
 30
0.0
 11
1284.694968714746
 21
929.56798302378
 31
0.0
  0
MTEXT
  5
509E
330
1A
100
AcDbEntity
  8
寸法線
 48
10.0
100
AcDbMText
 10
1362.089442987476
 20
802.367098839809
 30
0.0
 40
8.0
 41
165.013333333333
 71
     1
 72
     5
  1
○印が今回の貴社の御仕様です。
  0
SPLINE
  5
509F
330
1A
100
AcDbEntity
  8
寸法線
 48
10.0
100
AcDbSpline
210
0.0
220
0.0
230
1.0
 70
  1064
 71
     3
 72
    13
 73
     9
 74
     7
 42
0.000000001
 43
0.0000000001
 44
0.0000000001
 40
0.0
 40
0.0
 40
0.0
 40
0.0
 40
3.86842211421227
 40
10.12254119268975
 40
15.16331027423556
 40
18.64952359630868
 40
20.50331406220855
 40
21.84768763042739
 40
21.84768763042739
 40
21.84768763042739
 40
21.84768763042739
 10
1396.261285137966
 20
1070.924710275389
 30
0.0
 10
1397.411679613324
 20
1071.456123439975
 30
0.0
 10
1400.421929043415
 20
1072.846677906381
 30
0.0
 10
1401.147314759444
 20
1082.554085404002
 30
0.0
 10
1396.856438738556
 20
1075.572172505155
 30
0.0
 10
1397.044332770776
 20
1072.02778971399
 30
0.0
 10
1399.305003713666
 20
1070.639259812016
 30
0.0
 10
1400.304935435378
 20
1071.139460267146
 30
0.0
 10
1400.72526465
 20
1071.349723488017
 30
0.0
 11
1396.261285137966
 21
1070.924710275389
 31
0.0
 11
1399.343556519365
 21
1073.262292955239
 31
0.0
 11
1400.034410584682
 21
1079.478137717475
 31
0.0
 11
1397.324138148473
 21
1075.227987572481
 31
0.0
 11
1397.802422133705
 21
1071.774738702725
 31
0.0
 11
1399.449841559408
 21
1070.924710275389
 31
0.0
 11
1400.72526465
 21
1071.349723488017
 31
0.0
  0
LINE
  5
50A0
330
1A
100
AcDbEntity
  8
寸法線
 48
10.0
100
AcDbLine
 10
1284.694968714746
 20
1037.401951453787
 30
0.0
 11
1315.849527809848
 21
1037.401951453787
 31
0.0
  0
MTEXT
  5
50A1
102
{ACAD_XDICTIONARY
360
50A2
102
}
330
1A
100
AcDbEntity
  8
寸法線
 48
10.0
100
AcDbMText
 10
1390.567958262426
 20
1064.186557068362
 30
0.0
 40
8.0
 41
25.186395132728
 71
     1
 72
     5
  1
200\P250\P300\P350\P400\P450\P500\P550\P600
1001
ACADANNOTATIVE
1000
AnnotativeData
1002
{
1070
     1
1070
     0
1002
}
1001
ACAD
1000
MTEXTBEGIN
1070
    44
1040
1.1475
1000
MTEXTEND
  0
LINE
  5
50A5
330
1A
100
AcDbEntity
  8
寸法線
 48
10.0
100
AcDbLine
 10
1284.694968714746
 20
1021.96798302378
 30
0.0
 11
1382.055499284166
 21
1021.96798302378
 31
0.0
  0
LINE
  5
50A6
330
1A
100
AcDbEntity
  8
寸法線
 48
10.0
100
AcDbLine
 10
1382.055499284166
 20
1052.835919883794
 30
0.0
 11
1494.926830381336
 21
1052.835919883794
 31
0.0
  0
LINE
  5
50A7
330
1A
100
AcDbEntity
  8
寸法線
 48
10.0
100
AcDbLine
 10
1382.055499284166
 20
1037.401951453787
 30
0.0
 11
1494.926830381336
 21
1037.401951453787
 31
0.0
  0
LINE
  5
50A8
330
1A
100
AcDbEntity
  8
寸法線
 48
10.0
100
AcDbLine
 10
1382.055499284166
 20
1068.269888313801
 30
0.0
 11
1494.926830381336
 21
1068.269888313801
 31
0.0
  0
LINE
  5
50A9
330
1A
100
AcDbEntity
  8
寸法線
 48
10.0
100
AcDbLine
 10
1382.055499284166
 20
1082.470914381656
 30
0.0
 11
1494.926830381336
 21
1082.470914381656
 31
0.0
  0
LINE
  5
50AA
330
1A
100
AcDbEntity
  8
寸法線
 48
10.0
100
AcDbLine
 10
1382.055499284166
 20
1021.96798302378
 30
0.0
 11
1494.926830381336
 21
1021.967983023779
 31
0.0
  0
MTEXT
  5
50AB
102
{ACAD_XDICTIONARY
360
50AC
102
}
330
1A
100
AcDbEntity
  8
寸法線
 48
10.0
100
AcDbMText
 10
1286.161893580405
 20
1078.997184663353
 30
0.0
 40
8.0
 41
32.516763780405
 71
     1
 72
     5
  1
御仕様
1001
ACADANNOTATIVE
1000
AnnotativeData
1002
{
1070
     1
1070
     0
1002
}
  0
LINE
  5
50AF
330
1A
100
AcDbEntity
  8
寸法線
 48
10.0
100
AcDbLine
 10
1284.694968714746
 20
1006.56798302378
 30
0.0
 11
1315.849527809848
 21
1006.56798302378
 31
0.0
  0
LINE
  5
50B0
330
1A
100
AcDbEntity
  8
寸法線
 48
10.0
100
AcDbLine
 10
1284.694968714746
 20
991.16798302378
 30
0.0
 11
1494.926830381336
 21
991.16798302378
 31
0.0
  0
LINE
  5
50B1
330
1A
100
AcDbEntity
  8
寸法線
 48
10.0
100
AcDbLine
 10
1284.694968714746
 20
975.76798302378
 30
0.0
 11
1315.849527809848
 21
975.76798302378
 31
0.0
  0
LINE
  5
50B2
330
1A
100
AcDbEntity
  8
寸法線
 48
10.0
100
AcDbLine
 10
1284.694968714746
 20
960.36798302378
 30
0.0
 11
1494.926830381336
 21
960.36798302378
 31
0.0
  0
MTEXT
  5
50B3
102
{ACAD_XDICTIONARY
360
50B4
102
}
330
1A
100
AcDbEntity
  8
寸法線
 48
10.0
100
AcDbMText
 10
1471.142165936915
 20
1079.244373296415
 30
0.0
 40
8.0
 41
19.77375149039
 71
     1
 72
     5
  1
台数
1001
ACADANNOTATIVE
1000
AnnotativeData
1002
{
1070
     1
1070
     0
1002
}
  0
LINE
  5
50B8
330
1A
100
AcDbEntity
  8
寸法線
 48
10.0
100
AcDbLine
 10
1414.926830381336
 20
929.56798302378
 30
0.0
 11
1414.926830381336
 21
806.266077733759
 31
0.0
  0
LINE
  5
50B9
330
1A
100
AcDbEntity
  8
寸法線
 48
10.0
100
AcDbLine
 10
1284.694968714746
 20
914.134014593773
 30
0.0
 11
1315.849527809848
 21
914.134014593773
 31
0.0
  0
LINE
  5
50BE
330
1A
100
AcDbEntity
  8
寸法線
 48
10.0
100
AcDbLine
 10
1284.694968714746
 20
929.56798302378
 30
0.0
 11
1382.055499284166
 21
929.56798302378
 31
0.0
  0
LINE
  5
50BF
330
1A
100
AcDbEntity
  8
寸法線
 48
10.0
100
AcDbLine
 10
1284.694968714746
 20
929.56798302378
 30
0.0
 11
1382.055499284166
 21
929.56798302378
 31
0.0
  0
LINE
  5
50C0
330
1A
100
AcDbEntity
  8
寸法線
 48
10.0
100
AcDbLine
 10
1315.849527809848
 20
929.56798302378
 30
0.0
 11
1315.849527809848
 21
806.266077733759
 31
0.0
  0
LINE
  5
50C1
330
1A
100
AcDbEntity
  8
寸法線
 48
10.0
100
AcDbLine
 10
1382.055499284166
 20
929.56798302378
 30
0.0
 11
1382.055499284166
 21
806.266077733759
 31
0.0
  0
LINE
  5
50C2
330
1A
100
AcDbEntity
  8
寸法線
 48
10.0
100
AcDbLine
 10
1382.055499284166
 20
929.56798302378
 30
0.0
 11
1382.055499284166
 21
806.266077733759
 31
0.0
  0
LINE
  5
50C5
330
1A
100
AcDbEntity
  8
寸法線
 48
10.0
100
AcDbLine
 10
1284.694968714746
 20
898.700046163766
 30
0.0
 11
1382.055499284166
 21
898.700046163766
 31
0.0
  0
MTEXT
  5
50C6
102
{ACAD_XDICTIONARY
360
50C7
102
}
330
1A
100
AcDbEntity
  8
寸法線
 48
10.0
100
AcDbMText
 10
1390.567958262426
 20
925.484651778341
 30
0.0
 40
8.0
 41
25.186395132728
 71
     1
 72
     5
  1
650\P700\P750\P800\P850\P900\P950\P1000\P
1001
ACADANNOTATIVE
1000
AnnotativeData
1002
{
1070
     1
1070
     0
1002
}
1001
ACAD
1000
MTEXTBEGIN
1070
    44
1040
1.1475
1000
MTEXTEND
  0
LINE
  5
50CA
330
1A
100
AcDbEntity
  8
寸法線
 48
10.0
100
AcDbLine
 10
1284.694968714746
 20
883.266077733759
 30
0.0
 11
1315.849527809848
 21
883.266077733759
 31
0.0
  0
LINE
  5
50CB
330
1A
100
AcDbEntity
  8
寸法線
 48
10.0
100
AcDbLine
 10
1382.055499284166
 20
914.134014593773
 30
0.0
 11
1494.926830381336
 21
914.134014593773
 31
0.0
  0
LINE
  5
50CC
330
1A
100
AcDbEntity
  8
寸法線
 48
10.0
100
AcDbLine
 10
1382.055499284166
 20
898.700046163766
 30
0.0
 11
1494.926830381336
 21
898.700046163766
 31
0.0
  0
LINE
  5
50CD
330
1A
100
AcDbEntity
  8
寸法線
 48
10.0
100
AcDbLine
 10
1382.055499284166
 20
929.56798302378
 30
0.0
 11
1494.926830381336
 21
929.56798302378
 31
0.0
  0
LINE
  5
50CE
330
1A
100
AcDbEntity
  8
寸法線
 48
10.0
100
AcDbLine
 10
1382.055499284166
 20
929.56798302378
 30
0.0
 11
1494.926830381336
 21
929.56798302378
 31
0.0
  0
LINE
  5
50CF
330
1A
100
AcDbEntity
  8
寸法線
 48
10.0
100
AcDbLine
 10
1382.055499284166
 20
883.266077733759
 30
0.0
 11
1494.926830381336
 21
883.266077733759
 31
0.0
  0
LINE
  5
50D4
330
1A
100
AcDbEntity
  8
寸法線
 48
10.0
100
AcDbLine
 10
1284.694968714746
 20
867.866077733759
 30
0.0
 11
1494.926830381336
 21
867.866077733759
 31
0.0
  0
LINE
  5
50D5
330
1A
100
AcDbEntity
  8
寸法線
 48
10.0
100
AcDbLine
 10
1284.694968714746
 20
852.466077733759
 30
0.0
 11
1315.849527809848
 21
852.466077733759
 31
0.0
  0
LINE
  5
50D6
330
1A
100
AcDbEntity
  8
寸法線
 48
10.0
100
AcDbLine
 10
1284.694968714746
 20
837.066077733759
 30
0.0
 11
1494.926830381336
 21
837.066077733759
 31
0.0
  0
LINE
  5
50D7
330
1A
100
AcDbEntity
  8
寸法線
 48
10.0
100
AcDbLine
 10
1464.926830381336
 20
1082.470914381656
 30
0.0
 11
1464.926830381336
 21
929.56798302378
 31
0.0
  0
LINE
  5
50D8
330
1A
100
AcDbEntity
  8
寸法線
 48
10.0
100
AcDbLine
 10
1494.926830381336
 20
1082.470914381656
 30
0.0
 11
1494.926830381336
 21
929.56798302378
 31
0.0
  0
LINE
  5
50D9
330
1A
100
AcDbEntity
  8
寸法線
 48
10.0
100
AcDbLine
 10
1464.926830381336
 20
929.56798302378
 30
0.0
 11
1464.926830381336
 21
806.266077733759
 31
0.0
  0
LINE
  5
50DA
330
1A
100
AcDbEntity
  8
寸法線
 48
10.0
100
AcDbLine
 10
1494.926830381336
 20
929.56798302378
 30
0.0
 11
1494.926830381336
 21
806.266077733759
 31
0.0
  0
MTEXT
  5
50DF
102
{ACAD_XDICTIONARY
360
50E0
102
}
330
1A
100
AcDbEntity
  8
寸法線
 48
10.0
100
AcDbMText
 10
1432.00461904026
 20
1079.402536117247
 30
0.0
 40
8.0
 41
19.77375149039
 71
     1
 72
     5
  1
記事
1001
ACADANNOTATIVE
1000
AnnotativeData
1002
{
1070
     1
1070
     0
1002
}
  0
LINE
  5
50E7
330
1A
100
AcDbEntity
  8
寸法線
 48
10.0
100
AcDbLine
 10
1284.694968714746
 20
821.666077733759
 30
0.0
 11
1315.849527809848
 21
821.666077733759
 31
0.0
  0
LINE
  5
50E8
330
1A
100
AcDbEntity
  8
寸法線
 48
10.0
100
AcDbLine
 10
1284.694968714746
 20
806.266077733759
 30
0.0
 11
1494.926830381336
 21
806.266077733759
 31
0.0
  0
LINE
  5
50E9
330
1A
100
AcDbEntity
  8
寸法線
 48
10.0
100
AcDbLine
 10
1284.694968714746
 20
944.96798302378
 30
0.0
 11
1315.849527809848
 21
944.96798302378
 31
0.0
  0
LINE
  5
50EA
330
1A
100
AcDbEntity
  8
寸法線
 48
10.0
100
AcDbLine
 10
1284.694968714746
 20
929.56798302378
 30
0.0
 11
1494.926830381336
 21
929.56798302378
 31
0.0
  0
LINE
  5
50EF
330
1A
100
AcDbEntity
  8
寸法線
 48
10.0
100
AcDbLine
 10
1284.694968714746
 20
929.56798302378
 30
0.0
 11
1284.694968714746
 21
806.266077733759
 31
0.0
  0
LINE
  5
50F0
330
1A
100
AcDbEntity
  8
寸法線
 48
10.0
100
AcDbLine
 10
1284.694968714746
 20
929.56798302378
 30
0.0
 11
1284.694968714746
 21
806.266077733759
 31
0.0
  0
LINE
  5
5204
330
1A
100
AcDbEntity
  8
寸法線
 48
10.0
100
AcDbLine
 10
1382.055499284166
 20
1006.56798302378
 30
0.0
 11
1494.926830381336
 21
1006.56798302378
 31
0.0
  0
LINE
  5
5205
330
1A
100
AcDbEntity
  8
寸法線
 48
10.0
100
AcDbLine
 10
1382.055499284166
 20
975.76798302378
 30
0.0
 11
1494.926830381336
 21
975.76798302378
 31
0.0
  0
LINE
  5
5207
330
1A
100
AcDbEntity
  8
寸法線
 48
10.0
100
AcDbLine
 10
1382.055499284166
 20
944.96798302378
 30
0.0
 11
1494.926830381336
 21
944.96798302378
 31
0.0
  0
LINE
  5
5209
330
1A
100
AcDbEntity
  8
寸法線
 48
10.0
100
AcDbLine
 10
1382.055499284166
 20
852.466077733759
 30
0.0
 11
1494.926830381336
 21
852.466077733759
 31
0.0
  0
LINE
  5
520A
330
1A
100
AcDbEntity
  8
寸法線
 48
10.0
100
AcDbLine
 10
1382.055499284166
 20
821.666077733759
 30
0.0
 11
1494.926830381336
 21
821.666077733759
 31
0.0
  0
MTEXT
  5
523C
102
{ACAD_XDICTIONARY
360
523D
102
}
330
1A
100
AcDbEntity
  8
寸法線
 48
10.0
100
AcDbMText
 10
1349.009167689741
 20
1037.401951453787
 30
0.0
 40
8.0
 41
66.205971474318
 71
     5
 72
     5
  1
RFM-403-0
1001
ACADANNOTATIVE
1000
AnnotativeData
1002
{
1070
     1
1070
     0
1002
}
1001
ACAD
1000
MTEXTBEGIN
1070
    44
1040
1.1475
1000
MTEXTEND
  0
MTEXT
  5
5271
102
{ACAD_XDICTIONARY
360
5272
102
}
330
1A
100
AcDbEntity
  8
寸法線
 48
10.0
100
AcDbMText
 10
1349.009167689741
 20
1006.534014593773
 30
0.0
 40
8.0
 41
66.205971474318
 71
     5
 72
     5
  1
RFM-404-0
1001
ACADANNOTATIVE
1000
AnnotativeData
1002
{
1070
     1
1070
     0
1002
}
1001
ACAD
1000
MTEXTBEGIN
1070
    44
1040
1.1475
1000
MTEXTEND
  0
MTEXT
  5
52A6
102
{ACAD_XDICTIONARY
360
52A7
102
}
330
1A
100
AcDbEntity
  8
寸法線
 48
10.0
100
AcDbMText
 10
1349.009167689741
 20
975.734014593773
 30
0.0
 40
8.0
 41
66.205971474318
 71
     5
 72
     5
  1
RFM-405-0
1001
ACADANNOTATIVE
1000
AnnotativeData
1002
{
1070
     1
1070
     0
1002
}
1001
ACAD
1000
MTEXTBEGIN
1070
    44
1040
1.1475
1000
MTEXTEND
  0
MTEXT
  5
52DB
102
{ACAD_XDICTIONARY
360
52DC
102
}
330
1A
100
AcDbEntity
  8
寸法線
 48
10.0
100
AcDbMText
 10
1349.009167689741
 20
944.934014593773
 30
0.0
 40
8.0
 41
66.205971474318
 71
     5
 72
     5
  1
RFM-406-0
1001
ACADANNOTATIVE
1000
AnnotativeData
1002
{
1070
     1
1070
     0
1002
}
1001
ACAD
1000
MTEXTBEGIN
1070
    44
1040
1.1475
1000
MTEXTEND
  0
MTEXT
  5
5310
102
{ACAD_XDICTIONARY
360
5311
102
}
330
1A
100
AcDbEntity
  8
寸法線
 48
10.0
100
AcDbMText
 10
1349.009167689741
 20
914.134014593773
 30
0.0
 40
8.0
 41
66.205971474318
 71
     5
 72
     5
  1
RFM-407-0
1001
ACADANNOTATIVE
1000
AnnotativeData
1002
{
1070
     1
1070
     0
1002
}
1001
ACAD
1000
MTEXTBEGIN
1070
    44
1040
1.1475
1000
MTEXTEND
  0
MTEXT
  5
5345
102
{ACAD_XDICTIONARY
360
5346
102
}
330
1A
100
AcDbEntity
  8
寸法線
 48
10.0
100
AcDbMText
 10
1349.009167689741
 20
883.266077733759
 30
0.0
 40
8.0
 41
66.205971474318
 71
     5
 72
     5
  1
RFM-408-0
1001
ACADANNOTATIVE
1000
AnnotativeData
1002
{
1070
     1
1070
     0
1002
}
1001
ACAD
1000
MTEXTBEGIN
1070
    44
1040
1.1475
1000
MTEXTEND
  0
MTEXT
  5
537A
102
{ACAD_XDICTIONARY
360
537B
102
}
330
1A
100
AcDbEntity
  8
寸法線
 48
10.0
100
AcDbMText
 10
1349.009167689741
 20
852.483061948763
 30
0.0
 40
8.0
 41
66.205971474318
 71
     5
 72
     5
  1
RFM-409-0
1001
ACADANNOTATIVE
1000
AnnotativeData
1002
{
1070
     1
1070
     0
1002
}
1001
ACAD
1000
MTEXTBEGIN
1070
    44
1040
1.1475
1000
MTEXTEND
  0
MTEXT
  5
53AF
102
{ACAD_XDICTIONARY
360
53B0
102
}
330
1A
100
AcDbEntity
  8
寸法線
 48
10.0
100
AcDbMText
 10
1349.009167689741
 20
821.632109303752
 30
0.0
 40
8.0
 41
66.205971474318
 71
     5
 72
     5
  1
RFM-410-0
1001
ACADANNOTATIVE
1000
AnnotativeData
1002
{
1070
     1
1070
     0
1002
}
1001
ACAD
1000
MTEXTBEGIN
1070
    44
1040
1.1475
1000
MTEXTEND
  0
LINE
  5
58E2
330
1A
100
AcDbEntity
  8
外形線
100
AcDbLine
 10
1036.876420590054
 20
1099.160567201735
 30
0.0
 11
1036.876420590054
 21
1084.410567201735
 31
0.0
  0
LINE
  5
58E5
330
1A
100
AcDbEntity
  8
外形線
100
AcDbLine
 10
1036.876420590054
 20
1069.660567201735
 30
0.0
 11
1036.876420590054
 21
1084.410567201735
 31
0.0
  0
LINE
  5
5D07
330
1A
100
AcDbEntity
  8
外形線
100
AcDbLine
 10
1036.876420590054
 20
1099.160567201735
 30
0.0
 11
1036.876420590054
 21
1084.410567201735
 31
0.0
  0
LINE
  5
5D0A
330
1A
100
AcDbEntity
  8
外形線
100
AcDbLine
 10
1036.876420590054
 20
1069.660567201735
 30
0.0
 11
1036.876420590054
 21
1084.410567201735
 31
0.0
  0
LINE
  5
5D0C
330
1A
100
AcDbEntity
  8
外形線
100
AcDbLine
 10
1051.876420590054
 20
1069.660567201735
 30
0.0
 11
1050.876420590054
 21
1069.660567201735
 31
0.0
  0
LINE
  5
5D12
330
1A
100
AcDbEntity
  8
外形線
100
AcDbLine
 10
1051.876420590054
 20
1099.160567201735
 30
0.0
 11
1050.876420590054
 21
1099.160567201735
 31
0.0
  0
LINE
  5
5EAB
330
1A
100
AcDbEntity
  8
寸法線
 48
10.0
100
AcDbLine
 10
1112.018908603934
 20
866.573180218348
 30
0.0
 11
1192.553422401098
 21
866.573180218348
 31
0.0
  0
LINE
  5
5EAC
330
1A
100
AcDbEntity
  8
寸法線
 48
10.0
100
AcDbLine
 10
1112.018908603934
 20
853.346698080661
 30
0.0
 11
1257.194835917108
 21
853.346698080661
 31
0.0
  0
VIEWPORT
  5
2902
330
28FB
100
AcDbEntity
 67
     1
  8
0
 48
10.0
100
AcDbViewport
 10
0.0
 20
0.0
 30
0.0
 40
552.319156214367
 41
300.3
 68
     1
 69
     1
1001
ACAD
1000
MVIEW
1002
{
1070
    16
1010
0.0
1020
0.0
1030
0.0
1010
0.0
1020
0.0
1030
1.0
1040
0.0
1040
300.3
1040
205.756503333333
1040
143.551503333333
1040
50.0
1040
0.0
1040
0.0
1070
    16
1070
   100
1070
     0
1070
     1
1070
     0
1070
     0
1070
     0
1070
     0
1040
0.0
1040
0.0
1040
0.0
1040
10.0
1040
10.0
1040
10.0
1040
10.0
1070
     0
1002
{
1002
}
1002
}
  0
VIEWPORT
  5
2904
330
28FB
100
AcDbEntity
 67
     1
  8
図枠太線
 48
10.0
100
AcDbViewport
 10
204.746305129083
 20
161.396645458131
 30
0.0
 40
400.0
 41
240.0
 68
     2
 69
     2
1001
ACAD
1000
MVIEW
1002
{
1070
    16
1010
0.0
1020
0.0
1030
0.0
1010
0.0
1020
0.0
1030
1.0
1040
0.0
1040
480.0
1040
1109.894885911752
1040
982.715792671045
1040
50.0
1040
0.0
1040
0.0
1070
    16
1070
   100
1070
     0
1070
     0
1070
     0
1070
     0
1070
     0
1070
     0
1040
0.0
1040
0.0
1040
0.0
1040
1.0
1040
1.0
1040
0.0
1040
0.0
1070
     0
1002
{
1002
}
1002
}
  0
INSERT
  5
2A59
330
28FB
100
AcDbEntity
 67
     1
  8
図枠太線
100
AcDbBlockReference
  2
A3横用_タイトル
 10
-0.352109406709
 20
-2.129314295396
 30
0.0
  0
MTEXT
  5
2FE3
330
28FB
100
AcDbEntity
 67
     1
  8
寸法線
 48
10.0
100
AcDbMText
 10
149.281561913196
 20
13.738838105692
 30
0.0
 40
7.0
 41
10.579051054442
 71
     1
 72
     5
  1
1:2
  0
MTEXT
  5
2FE7
330
28FB
100
AcDbEntity
 67
     1
  8
寸法線
 48
10.0
100
AcDbMText
 10
312.502621362913
 20
33.107736922225
 30
0.0
 40
6.0
 41
53.647044270833
 71
     1
 72
     5
  1
RFM-4□□-0
  0
MTEXT
  5
2FE8
330
28FB
100
AcDbEntity
 67
     1
  8
寸法線
 48
10.0
100
AcDbMText
 10
363.257693177112
 20
37.807266065601
 30
0.0
 40
6.0
 41
50.761524795071
 71
     1
 72
     5
  1
{\H0.8333x;振動式\Pレベルスイッチ}
  0
MTEXT
  5
3100
330
28FB
100
AcDbEntity
 67
     1
  8
寸法線
 48
10.0
100
AcDbMText
 10
272.300488718679
 20
48.787921847374
 30
0.0
 40
5.0
 41
58.550841599714
 71
     1
 72
     5
  1
A3縮小図
  0
LINE
  5
3101
330
28FB
100
AcDbEntity
 67
     1
  8
寸法線
 48
10.0
100
AcDbLine
 10
272.300488718679
 20
42.916202519738
 30
0.0
 11
296.843718665885
 21
42.916202519738
 31
0.0
  0
MTEXT
  5
342E
330
28FB
100
AcDbEntity
 67
     1
  8
寸法線
 48
10.0
100
AcDbMText
 10
376.730127672352
 20
48.224963581677
 30
0.0
 40
5.0
 41
54.683098362957
 71
     1
 72
     5
  1
{\C1;台数   台}
  0
MTEXT
  5
4F81
102
{ACAD_XDICTIONARY
360
54E2
102
}
330
28FB
100
AcDbEntity
 67
     1
  8
寸法線
 48
10.0
100
AcDbMText
 10
341.859468930148
 20
14.772311070463
 30
0.0
 40
7.0
 41
68.56
 71
     1
 72
     5
  1
HVR-2020
1001
ACADANNOTATIVE
1000
AnnotativeData
1002
{
1070
     1
1070
     0
1002
}
  0
MTEXT
  5
5126
102
{ACAD_XDICTIONARY
360
5127
102
}
330
28FB
100
AcDbEntity
 67
     1
  8
寸法線
 48
10.0
100
AcDbMText
 10
175.506541278264
 20
12.819600893732
 30
0.0
 40
5.0
 41
60.244444444444
 71
     1
 72
     5
  1
2015.8.25
1001
ACADANNOTATIVE
1000
AnnotativeData
1002
{
1070
     1
1070
     0
1002
}
  0
MTEXT
  5
512A
102
{ACAD_XDICTIONARY
360
512B
102
}
330
28FB
100
AcDbEntity
 67
     1
  8
寸法線
 48
10.0
100
AcDbMText
 10
173.953401409015
 20
32.625226751426
 30
0.0
 40
5.0
 41
24.595673902063
 71
     1
 72
     5
  1
takahashi
1001
ACADANNOTATIVE
1000
AnnotativeData
1002
{
1070
     1
1070
     0
1002
}
  0
MTEXT
  5
57D4
102
{ACAD_XDICTIONARY
360
57D5
102
}
330
28FB
100
AcDbEntity
 67
     1
  8
下書線
 48
10.0
100
AcDbMText
 10
349.833326716621
 20
250.761917711574
 30
0.0
 40
10.0
 41
174.128675272846
 71
     5
 72
     5
  1
HP掲載図面\P変更・追記不可
1001
ACADANNOTATIVE
1000
AnnotativeData
1002
{
1070
     1
1070
     0
1002
}
  0
LWPOLYLINE
  5
57D8
330
28FB
100
AcDbEntity
 67
     1
  8
下書線
 48
10.0
100
AcDbPolyline
 90
        4
 70
     1
 43
0.0
 10
307.603181463049
 20
269.188522542974
 10
391.437345226805
 20
269.188522542974
 10
391.437345226805
 20
232.066383606994
 10
307.603181463049
 20
232.066383606994
  0
MTEXT
  5
5FAD
102
{ACAD_XDICTIONARY
360
5FAE
102
}
330
28FB
100
AcDbEntity
 67
     1
  8
寸法線
 48
10.0
100
AcDbMText
 10
154.696305129083
 20
29.396646458131
 30
0.0
 40
4.5
 41
29.906507692735
 71
     5
 72
     5
  1
tahara
1001
ACADANNOTATIVE
1000
AnnotativeData
1002
{
1070
     1
1070
     0
1002
}
  0
MTEXT
  5
5FB1
102
{ACAD_XDICTIONARY
360
5FB2
102
}
330
28FB
100
AcDbEntity
 67
     1
  8
寸法線
 48
10.0
100
AcDbMText
 10
121.396304528483
 20
29.396646458131
 30
0.0
 40
4.5
 41
16.097226867587
 71
     5
 72
     5
  1
konishi
1001
ACADANNOTATIVE
1000
AnnotativeData
1002
{
1070
     1
1070
     0
1002
}
  0
ENDSEC
  0
SECTION
  2
OBJECTS
  0
DICTIONARY
  5
C
330
0
100
AcDbDictionary
  3
ACAD_COLOR
350
2948
  3
ACAD_GROUP
350
D
  3
ACAD_LAYOUT
350
2816
  3
ACAD_MATERIAL
350
2947
  3
ACAD_MLEADERSTYLE
350
4FC2
  3
ACAD_MLINESTYLE
350
E
  3
ACAD_PLOTSETTINGS
350
2817
  3
ACAD_SCALELIST
350
4F9B
  3
ACAD_VISUALSTYLE
350
4F82
  3
ACADDIM
350
30EB
  3
ACDBHEADERROUNDTRIPXREC
350
6019
  3
ACDBVARIABLEDICTIONARY
350
5154
  3
DWGPROPS
350
603E
  0
DICTIONARY
  5
603F
330
8
100
AcDbDictionary
280
     1
  3
ACAD_XREC_ROUNDTRIP
360
6040
  0
DICTIONARY
  5
29EA
330
2
100
AcDbDictionary
280
     1
  3
ACAD_LAYERFILTERS
360
2B0C
  3
ACAD_LAYERSTATES
360
29EB
  0
DICTIONARY
  5
5417
330
4198
100
AcDbDictionary
280
     1
  3
ACDBCONTEXTDATAMANAGER
360
5418
  0
DICTIONARY
  5
5EA8
330
4F16
100
AcDbDictionary
280
     1
  3
ACDBCONTEXTDATAMANAGER
360
5EA9
  0
DICTIONARY
  5
5000
330
4FFF
100
AcDbDictionary
280
     1
  3
ACDBCONTEXTDATAMANAGER
360
5001
  0
DICTIONARY
  5
5094
330
5093
100
AcDbDictionary
280
     1
  3
ACDBCONTEXTDATAMANAGER
360
5095
  0
DICTIONARY
  5
50A2
330
50A1
100
AcDbDictionary
280
     1
  3
ACDBCONTEXTDATAMANAGER
360
50A3
  0
DICTIONARY
  5
50AC
330
50AB
100
AcDbDictionary
280
     1
  3
ACDBCONTEXTDATAMANAGER
360
50AD
  0
DICTIONARY
  5
50B4
330
50B3
100
AcDbDictionary
280
     1
  3
ACDBCONTEXTDATAMANAGER
360
50B5
  0
DICTIONARY
  5
50C7
330
50C6
100
AcDbDictionary
280
     1
  3
ACDBCONTEXTDATAMANAGER
360
50C8
  0
DICTIONARY
  5
50E0
330
50DF
100
AcDbDictionary
280
     1
  3
ACDBCONTEXTDATAMANAGER
360
50E1
  0
DICTIONARY
  5
523D
330
523C
100
AcDbDictionary
280
     1
  3
ACDBCONTEXTDATAMANAGER
360
523E
  0
DICTIONARY
  5
5272
330
5271
100
AcDbDictionary
280
     1
  3
ACDBCONTEXTDATAMANAGER
360
5273
  0
DICTIONARY
  5
52A7
330
52A6
100
AcDbDictionary
280
     1
  3
ACDBCONTEXTDATAMANAGER
360
52A8
  0
DICTIONARY
  5
52DC
330
52DB
100
AcDbDictionary
280
     1
  3
ACDBCONTEXTDATAMANAGER
360
52DD
  0
DICTIONARY
  5
5311
330
5310
100
AcDbDictionary
280
     1
  3
ACDBCONTEXTDATAMANAGER
360
5312
  0
DICTIONARY
  5
5346
330
5345
100
AcDbDictionary
280
     1
  3
ACDBCONTEXTDATAMANAGER
360
5347
  0
DICTIONARY
  5
537B
330
537A
100
AcDbDictionary
280
     1
  3
ACDBCONTEXTDATAMANAGER
360
537C
  0
DICTIONARY
  5
53B0
330
53AF
100
AcDbDictionary
280
     1
  3
ACDBCONTEXTDATAMANAGER
360
53B1
  0
DICTIONARY
  5
54E2
330
4F81
100
AcDbDictionary
280
     1
  3
ACDBCONTEXTDATAMANAGER
360
54E3
  0
DICTIONARY
  5
5127
330
5126
100
AcDbDictionary
280
     1
  3
ACDBCONTEXTDATAMANAGER
360
5128
  0
DICTIONARY
  5
512B
330
512A
100
AcDbDictionary
280
     1
  3
ACDBCONTEXTDATAMANAGER
360
512C
  0
DICTIONARY
  5
57D5
330
57D4
100
AcDbDictionary
280
     1
  3
ACDBCONTEXTDATAMANAGER
360
57D6
  0
DICTIONARY
  5
5FAE
330
5FAD
100
AcDbDictionary
280
     1
  3
ACDBCONTEXTDATAMANAGER
360
5FAF
  0
DICTIONARY
  5
5FB2
330
5FB1
100
AcDbDictionary
280
     1
  3
ACDBCONTEXTDATAMANAGER
360
5FB3
  0
DICTIONARY
  5
2948
102
{ACAD_REACTORS
330
C
102
}
330
C
100
AcDbDictionary
  0
DICTIONARY
  5
D
102
{ACAD_REACTORS
330
C
102
}
330
C
100
AcDbDictionary
  0
DICTIONARY
  5
2816
102
{ACAD_REACTORS
330
C
102
}
330
C
100
AcDbDictionary
  0
DICTIONARY
  5
2947
102
{ACAD_REACTORS
330
C
102
}
330
C
100
AcDbDictionary
  3
BYBLOCK
350
4FBE
  3
BYLAYER
350
4FBD
  3
GLOBAL
350
4FBF
  0
DICTIONARY
  5
4FC2
102
{ACAD_REACTORS
330
C
102
}
330
C
100
AcDbDictionary
  3
STANDARD
350
4FC3
  0
DICTIONARY
  5
E
102
{ACAD_REACTORS
330
C
102
}
330
C
100
AcDbDictionary
  3
STANDARD
350
13
  0
DICTIONARY
  5
2817
102
{ACAD_REACTORS
330
C
102
}
330
C
100
AcDbDictionary
  0
DICTIONARY
  5
4F9B
102
{ACAD_REACTORS
330
C
102
}
330
C
100
AcDbDictionary
  3
A0
350
4F9C
  3
A1
350
4F9D
  3
A2
350
4F9E
  3
A3
350
4F9F
  3
A4
350
4FA0
  3
A5
350
4FA1
  3
A6
350
4FA2
  3
A7
350
4FA3
  3
A8
350
4FA4
  3
A9
350
4FA5
  3
B0
350
4FA6
  3
B1
350
4FA7
  3
B2
350
4FA8
  3
B3
350
4FA9
  3
B4
350
4FAA
  3
B5
350
4FAB
  3
B6
350
4FAC
  3
B7
350
4FAD
  3
B8
350
4FAE
  3
B9
350
4FAF
  3
C0
350
4FB0
  3
C1
350
4FB1
  3
C2
350
4FB2
  3
C3
350
4FB3
  3
C4
350
4FB4
  3
C5
350
4FB5
  3
C6
350
4FB6
  3
C7
350
4FB7
  3
C8
350
4FB8
  3
C9
350
4FB9
  3
D0
350
4FBA
  3
D1
350
4FBB
  3
D2
350
4FBC
  0
DICTIONARY
  5
4F82
102
{ACAD_REACTORS
330
C
102
}
330
C
100
AcDbDictionary
  3
2DWIREFRAME
350
4F87
  3
BASIC
350
4F8A
  3
BRIGHTEN
350
4F8E
  3
COLORCHANGE
350
4F92
  3
CONCEPTUAL
350
4F8C
  3
DIM
350
4F8D
  3
EDGECOLOROFF
350
4F95
  3
FACEPATTERN
350
4F91
  3
FLAT
350
4F83
  3
FLATWITHEDGES
350
4F84
  3
GOURAUD
350
4F85
  3
GOURAUDWITHEDGES
350
4F86
  3
HIDDEN
350
4F89
  3
JITTEROFF
350
4F93
  3
LINEPATTERN
350
4F90
  3
MODELING
350
4FC4
  3
OVERHANGOFF
350
4F94
  3
REALISTIC
350
4F8B
  3
SHADED
350
4F9A
  3
SHADED_WITH_EDGES
350
4F99
  3
SHADES_OF_GRAY
350
4F96
  3
SKETCHY
350
4F97
  3
THICKEN
350
4F8F
  3
WIREFRAME
350
4F88
  3
X-RAY
350
4F98
  0
XRECORD
  5
30EB
102
{ACAD_REACTORS
330
C
102
}
330
C
100
AcDbXrecord
 90
   990106
  3

 60
     0
 61
     0
 62
     1
 63
     3
 64
     0
 65
     0
 66
     0
 67
     3
 68
     1
 69
     0
 70
     0
 71
     0
 72
     0
 40
0.0
170
     0
  0
DICTIONARY
  5
6019
102
{ACAD_REACTORS
330
C
102
}
330
C
100
AcDbDictionary
  3
CEPSNID
350
6023
  3
CEPSNTYPE
350
6022
  3
COLORDICT
350
603C
  3
DIMSTYLEDATA
350
6039
  3
FINGERPRINTGUID
350
6024
  3
HYPERLINKBASE
350
601C
  3
INSUNITS
350
6021
  3
LAYOUTDICT
350
601E
  3
LWETCUNION
350
6020
  3
MATERIALDICT
350
603D
  3
PLOTSETDICT
350
601F
  3
PSVPSCALE
350
6026
  3
PUCSBASE
350
6029
  3
PUCSORGBACK
350
602F
  3
PUCSORGBOTTOM
350
602B
  3
PUCSORGFRONT
350
602E
  3
PUCSORGLEFT
350
602C
  3
PUCSORGRIGHT
350
602D
  3
PUCSORGTOP
350
602A
  3
PUCSORTHOREF
350
6027
  3
PUCSORTHOVIEW
350
6028
  3
STYLESHEET
350
601D
  3
TSTACKALIGN
350
601A
  3
TSTACKSIZE
350
601B
  3
UCSBASE
350
6032
  3
UCSORGBACK
350
6038
  3
UCSORGBOTTOM
350
6034
  3
UCSORGFRONT
350
6037
  3
UCSORGLEFT
350
6035
  3
UCSORGRIGHT
350
6036
  3
UCSORGTOP
350
6033
  3
UCSORTHOREF
350
6030
  3
UCSORTHOVIEW
350
6031
  3
VERSIONGUID
350
6025
  0
DICTIONARY
  5
5154
102
{ACAD_REACTORS
330
C
102
}
330
C
100
AcDbDictionary
  3
CANNOSCALE
350
5155
  3
CMLEADERSTYLE
350
5196
  3
CTABLESTYLE
350
5195
  3
DIMASSOC
350
603A
  3
HIDETEXT
350
603B
  3
MSLTSCALE
350
5197
  3
XCLIPFRAME
350
5198
  0
XRECORD
  5
603E
102
{ACAD_REACTORS
330
C
102
}
330
C
100
AcDbXrecord
  1
DWGPROPS COOKIE
  2

  3

  4

  6

  7

  8
takahashi
  9

300
=
301
=
302
=
303
=
304
=
305
=
306
=
307
=
308
=
309
=
 40
0.0
 41
2450576.222302431
 42
2457269.003805671
  1

 90
        0
  0
XRECORD
  5
6040
102
{ACAD_REACTORS
330
603F
102
}
330
603F
100
AcDbXrecord
102
VTR_0.000_0.000_1.000_1.000_VISUALSTYLE
340
4F87
102
VTR_0.000_0.000_1.000_1.000_GRIDDISPLAY
 70
     3
102
VTR_0.000_0.000_1.000_1.000_GRIDMAJOR
 70
     5
102
VTR_0.000_0.000_1.000_1.000_DEFAULTLIGHTING
280
     1
102
VTR_0.000_0.000_1.000_1.000_DEFAULTLIGHTINGTYPE
 70
     1
102
VTR_0.000_0.000_1.000_1.000_BRIGHTNESS
141
0.0
102
VTR_0.000_0.000_1.000_1.000_CONTRAST
142
0.0
  0
DICTIONARY
  5
2B0C
102
{ACAD_REACTORS
330
29EA
102
}
330
29EA
100
AcDbDictionary
  0
DICTIONARY
  5
29EB
102
{ACAD_REACTORS
330
29EA
102
}
330
29EA
100
AcDbDictionary
  0
DICTIONARY
  5
5418
102
{ACAD_REACTORS
330
5417
102
}
330
5417
100
AcDbDictionary
  3
ACDB_ANNOTATIONSCALES
350
5419
  0
DICTIONARY
  5
5EA9
102
{ACAD_REACTORS
330
5EA8
102
}
330
5EA8
100
AcDbDictionary
  3
ACDB_ANNOTATIONSCALES
350
5EAA
  0
DICTIONARY
  5
5001
102
{ACAD_REACTORS
330
5000
102
}
330
5000
100
AcDbDictionary
  3
ACDB_ANNOTATIONSCALES
350
5002
  0
DICTIONARY
  5
5095
102
{ACAD_REACTORS
330
5094
102
}
330
5094
100
AcDbDictionary
  3
ACDB_ANNOTATIONSCALES
350
5096
  0
DICTIONARY
  5
50A3
102
{ACAD_REACTORS
330
50A2
102
}
330
50A2
100
AcDbDictionary
  3
ACDB_ANNOTATIONSCALES
350
50A4
  0
DICTIONARY
  5
50AD
102
{ACAD_REACTORS
330
50AC
102
}
330
50AC
100
AcDbDictionary
  3
ACDB_ANNOTATIONSCALES
350
50AE
  0
DICTIONARY
  5
50B5
102
{ACAD_REACTORS
330
50B4
102
}
330
50B4
100
AcDbDictionary
  3
ACDB_ANNOTATIONSCALES
350
50B6
  0
DICTIONARY
  5
50C8
102
{ACAD_REACTORS
330
50C7
102
}
330
50C7
100
AcDbDictionary
  3
ACDB_ANNOTATIONSCALES
350
50C9
  0
DICTIONARY
  5
50E1
102
{ACAD_REACTORS
330
50E0
102
}
330
50E0
100
AcDbDictionary
  3
ACDB_ANNOTATIONSCALES
350
50E2
  0
DICTIONARY
  5
523E
102
{ACAD_REACTORS
330
523D
102
}
330
523D
100
AcDbDictionary
  3
ACDB_ANNOTATIONSCALES
350
523F
  0
DICTIONARY
  5
5273
102
{ACAD_REACTORS
330
5272
102
}
330
5272
100
AcDbDictionary
  3
ACDB_ANNOTATIONSCALES
350
5274
  0
DICTIONARY
  5
52A8
102
{ACAD_REACTORS
330
52A7
102
}
330
52A7
100
AcDbDictionary
  3
ACDB_ANNOTATIONSCALES
350
52A9
  0
DICTIONARY
  5
52DD
102
{ACAD_REACTORS
330
52DC
102
}
330
52DC
100
AcDbDictionary
  3
ACDB_ANNOTATIONSCALES
350
52DE
  0
DICTIONARY
  5
5312
102
{ACAD_REACTORS
330
5311
102
}
330
5311
100
AcDbDictionary
  3
ACDB_ANNOTATIONSCALES
350
5313
  0
DICTIONARY
  5
5347
102
{ACAD_REACTORS
330
5346
102
}
330
5346
100
AcDbDictionary
  3
ACDB_ANNOTATIONSCALES
350
5348
  0
DICTIONARY
  5
537C
102
{ACAD_REACTORS
330
537B
102
}
330
537B
100
AcDbDictionary
  3
ACDB_ANNOTATIONSCALES
350
537D
  0
DICTIONARY
  5
53B1
102
{ACAD_REACTORS
330
53B0
102
}
330
53B0
100
AcDbDictionary
  3
ACDB_ANNOTATIONSCALES
350
53B2
  0
DICTIONARY
  5
54E3
102
{ACAD_REACTORS
330
54E2
102
}
330
54E2
100
AcDbDictionary
  3
ACDB_ANNOTATIONSCALES
350
54E4
  0
DICTIONARY
  5
5128
102
{ACAD_REACTORS
330
5127
102
}
330
5127
100
AcDbDictionary
  3
ACDB_ANNOTATIONSCALES
350
5129
  0
DICTIONARY
  5
512C
102
{ACAD_REACTORS
330
512B
102
}
330
512B
100
AcDbDictionary
  3
ACDB_ANNOTATIONSCALES
350
512D
  0
DICTIONARY
  5
57D6
102
{ACAD_REACTORS
330
57D5
102
}
330
57D5
100
AcDbDictionary
  3
ACDB_ANNOTATIONSCALES
350
57D7
  0
DICTIONARY
  5
5FAF
102
{ACAD_REACTORS
330
5FAE
102
}
330
5FAE
100
AcDbDictionary
  3
ACDB_ANNOTATIONSCALES
350
5FB0
  0
DICTIONARY
  5
5FB3
102
{ACAD_REACTORS
330
5FB2
102
}
330
5FB2
100
AcDbDictionary
  3
ACDB_ANNOTATIONSCALES
350
5FB4
  0
MATERIAL
  5
4FBE
102
{ACAD_REACTORS
330
2947
102
}
102
{ACAD_XDICTIONARY
360
6043
102
}
330
2947
100
AcDbMaterial
  1
BYBLOCK
  0
MATERIAL
  5
4FBD
102
{ACAD_REACTORS
330
2947
102
}
102
{ACAD_XDICTIONARY
360
6041
102
}
330
2947
100
AcDbMaterial
  1
BYLAYER
  0
MATERIAL
  5
4FBF
102
{ACAD_REACTORS
330
2947
102
}
102
{ACAD_XDICTIONARY
360
6045
102
}
330
2947
100
AcDbMaterial
  1
GLOBAL
  0
ACAD_PROXY_OBJECT
  5
4FC3
102
{ACAD_REACTORS
330
4FC2
102
}
330
4FC2
100
AcDbProxyObject
 90
      499
 91
      508
 93
      610
310
40901902A4063FBFFFFFE0000000000000020400000000000020404214DD185B99185C990000000000000104090141901A00000000000004100000000000000041025764000000000000039000
340
14
340
0
340
10
340
0
 94
        0
1001
ACAD_MLEADERVER
1070
     2
  0
MLINESTYLE
  5
13
102
{ACAD_REACTORS
330
E
102
}
330
E
100
AcDbMlineStyle
  2
STANDARD
 70
     0
  3

 62
     0
 51
90.0
 52
90.0
 71
     2
 49
0.5
 62
   256
  6
BYLAYER
 49
-0.5
 62
   256
  6
BYLAYER
  0
ACAD_PROXY_OBJECT
  5
4F9C
102
{ACAD_REACTORS
330
4F9B
102
}
330
4F9B
100
AcDbProxyObject
 90
      499
 91
      505
 93
       41
310
903313A31580
  0
ACAD_PROXY_OBJECT
  5
4F9D
102
{ACAD_REACTORS
330
4F9B
102
}
330
4F9B
100
AcDbProxyObject
 90
      499
 91
      505
 93
      105
310
903313A324000000000000004000
  0
ACAD_PROXY_OBJECT
  5
4F9E
102
{ACAD_REACTORS
330
4F9B
102
}
330
4F9B
100
AcDbProxyObject
 90
      499
 91
      505
 93
      105
310
903313A344000000000000104000
  0
ACAD_PROXY_OBJECT
  5
4F9F
102
{ACAD_REACTORS
330
4F9B
102
}
330
4F9B
100
AcDbProxyObject
 90
      499
 91
      505
 93
      105
310
903313A354000000000000144000
  0
ACAD_PROXY_OBJECT
  5
4FA0
102
{ACAD_REACTORS
330
4F9B
102
}
330
4F9B
100
AcDbProxyObject
 90
      499
 91
      505
 93
      105
310
903313A384000000000000204000
  0
ACAD_PROXY_OBJECT
  5
4FA1
102
{ACAD_REACTORS
330
4F9B
102
}
330
4F9B
100
AcDbProxyObject
 90
      499
 91
      505
 93
      113
310
904313A31304000000000000244000
  0
ACAD_PROXY_OBJECT
  5
4FA2
102
{ACAD_REACTORS
330
4F9B
102
}
330
4F9B
100
AcDbProxyObject
 90
      499
 91
      505
 93
      113
310
904313A31364000000000000304000
  0
ACAD_PROXY_OBJECT
  5
4FA3
102
{ACAD_REACTORS
330
4F9B
102
}
330
4F9B
100
AcDbProxyObject
 90
      499
 91
      505
 93
      113
310
904313A32304000000000000344000
  0
ACAD_PROXY_OBJECT
  5
4FA4
102
{ACAD_REACTORS
330
4F9B
102
}
330
4F9B
100
AcDbProxyObject
 90
      499
 91
      505
 93
      113
310
904313A333040000000000003E4000
  0
ACAD_PROXY_OBJECT
  5
4FA5
102
{ACAD_REACTORS
330
4F9B
102
}
330
4F9B
100
AcDbProxyObject
 90
      499
 91
      505
 93
      113
310
904313A34304000000000000444000
  0
ACAD_PROXY_OBJECT
  5
4FA6
102
{ACAD_REACTORS
330
4F9B
102
}
330
4F9B
100
AcDbProxyObject
 90
      499
 91
      505
 93
      113
310
904313A35304000000000000494000
  0
ACAD_PROXY_OBJECT
  5
4FA7
102
{ACAD_REACTORS
330
4F9B
102
}
330
4F9B
100
AcDbProxyObject
 90
      499
 91
      505
 93
      121
310
905313A3130304000000000000594000
  0
ACAD_PROXY_OBJECT
  5
4FA8
102
{ACAD_REACTORS
330
4F9B
102
}
330
4F9B
100
AcDbProxyObject
 90
      499
 91
      505
 93
      105
310
903323A310000000000000010100
  0
ACAD_PROXY_OBJECT
  5
4FA9
102
{ACAD_REACTORS
330
4F9B
102
}
330
4F9B
100
AcDbProxyObject
 90
      499
 91
      505
 93
      105
310
903343A310000000000000410100
  0
ACAD_PROXY_OBJECT
  5
4FAA
102
{ACAD_REACTORS
330
4F9B
102
}
330
4F9B
100
AcDbProxyObject
 90
      499
 91
      505
 93
      105
310
903383A310000000000000810100
  0
ACAD_PROXY_OBJECT
  5
4FAB
102
{ACAD_REACTORS
330
4F9B
102
}
330
4F9B
100
AcDbProxyObject
 90
      499
 91
      505
 93
      113
310
90431303A310000000000000910100
  0
ACAD_PROXY_OBJECT
  5
4FAC
102
{ACAD_REACTORS
330
4F9B
102
}
330
4F9B
100
AcDbProxyObject
 90
      499
 91
      505
 93
      121
310
9053130303A310000000000001650100
  0
ACAD_PROXY_OBJECT
  5
4FAD
102
{ACAD_REACTORS
330
4F9B
102
}
330
4F9B
100
AcDbProxyObject
 90
      499
 91
      505
 93
      257
310
90E312F31323822203D2031272D3022000000000000200FC000000000000284000
  0
ACAD_PROXY_OBJECT
  5
4FAE
102
{ACAD_REACTORS
330
4F9B
102
}
330
4F9B
100
AcDbProxyObject
 90
      499
 91
      505
 93
      249
310
90D312F363422203D2031272D3022000000000000240FC000000000000284000
  0
ACAD_PROXY_OBJECT
  5
4FAF
102
{ACAD_REACTORS
330
4F9B
102
}
330
4F9B
100
AcDbProxyObject
 90
      499
 91
      505
 93
      249
310
90D312F333222203D2031272D3022000000000000280FC000000000000284000
  0
ACAD_PROXY_OBJECT
  5
4FB0
102
{ACAD_REACTORS
330
4F9B
102
}
330
4F9B
100
AcDbProxyObject
 90
      499
 91
      505
 93
      249
310
90D312F313622203D2031272D30220000000000002C0FC000000000000284000
  0
ACAD_PROXY_OBJECT
  5
4FB1
102
{ACAD_REACTORS
330
4F9B
102
}
330
4F9B
100
AcDbProxyObject
 90
      499
 91
      505
 93
      249
310
90D332F333222203D2031272D30220000000000002E0FC000000000000284000
  0
ACAD_PROXY_OBJECT
  5
4FB2
102
{ACAD_REACTORS
330
4F9B
102
}
330
4F9B
100
AcDbProxyObject
 90
      499
 91
      505
 93
      241
310
90C312F3822203D2031272D3022000000000000300FC000000000000284000
  0
ACAD_PROXY_OBJECT
  5
4FB3
102
{ACAD_REACTORS
330
4F9B
102
}
330
4F9B
100
AcDbProxyObject
 90
      499
 91
      505
 93
      249
310
90D332F313622203D2031272D3022000000000000320FC000000000000284000
  0
ACAD_PROXY_OBJECT
  5
4FB4
102
{ACAD_REACTORS
330
4F9B
102
}
330
4F9B
100
AcDbProxyObject
 90
      499
 91
      505
 93
      241
310
90C312F3422203D2031272D3022000000000000340FC000000000000284000
  0
ACAD_PROXY_OBJECT
  5
4FB5
102
{ACAD_REACTORS
330
4F9B
102
}
330
4F9B
100
AcDbProxyObject
 90
      499
 91
      505
 93
      241
310
90C332F3822203D2031272D3022000000000000360FC000000000000284000
  0
ACAD_PROXY_OBJECT
  5
4FB6
102
{ACAD_REACTORS
330
4F9B
102
}
330
4F9B
100
AcDbProxyObject
 90
      499
 91
      505
 93
      241
310
90C312F3222203D2031272D3022000000000000380FC000000000000284000
  0
ACAD_PROXY_OBJECT
  5
4FB7
102
{ACAD_REACTORS
330
4F9B
102
}
330
4F9B
100
AcDbProxyObject
 90
      499
 91
      505
 93
      241
310
90C332F3422203D2031272D30220000000000003A0FC000000000000284000
  0
ACAD_PROXY_OBJECT
  5
4FB8
102
{ACAD_REACTORS
330
4F9B
102
}
330
4F9B
100
AcDbProxyObject
 90
      499
 91
      505
 93
      161
310
90A3122203D2031272D30224000000000000284000
  0
ACAD_PROXY_OBJECT
  5
4FB9
102
{ACAD_REACTORS
330
4F9B
102
}
330
4F9B
100
AcDbProxyObject
 90
      499
 91
      505
 93
      257
310
90E312D312F3222203D2031272D30220000000000003E0FC000000000000284000
  0
ACAD_PROXY_OBJECT
  5
4FBA
102
{ACAD_REACTORS
330
4F9B
102
}
330
4F9B
100
AcDbProxyObject
 90
      499
 91
      505
 93
      225
310
90A3322203D2031272D302200000000000002100000000000000284000
  0
ACAD_PROXY_OBJECT
  5
4FBB
102
{ACAD_REACTORS
330
4F9B
102
}
330
4F9B
100
AcDbProxyObject
 90
      499
 91
      505
 93
      225
310
90A3622203D2031272D302200000000000006100000000000000284000
  0
ACAD_PROXY_OBJECT
  5
4FBC
102
{ACAD_REACTORS
330
4F9B
102
}
330
4F9B
100
AcDbProxyObject
 90
      499
 91
      505
 93
      249
310
90D31272D3022203D2031272D30220000000000000A100000000000000284000
  0
ACAD_PROXY_OBJECT
  5
4F87
102
{ACAD_REACTORS
330
4F82
102
}
330
4F82
100
AcDbProxyObject
 90
      499
 91
      504
 93
      436
310
42CC9915DA5C99599C985B595049028333333333333E33F0000000000000F90107901411070040501600405405064090741402480A0340
1001
ACAD
1000
AcDbSavedByObjectVersion
1070
     0
  0
ACAD_PROXY_OBJECT
  5
4F8A
102
{ACAD_REACTORS
330
4F82
102
}
330
4F82
100
AcDbProxyObject
 90
      499
 91
      504
 93
      388
310
4150985CDA58D07406404333333333333E33F0000000000000F90107A41107004050150841D405064090741402480A0350
1001
ACAD
1000
AcDbSavedByObjectVersion
1070
     0
  0
ACAD_PROXY_OBJECT
  5
4F8E
102
{ACAD_REACTORS
330
4F82
102
}
330
4F82
100
AcDbProxyObject
 90
      499
 91
      504
 93
      428
310
42109C9A59DA1D195B90C409028333333333333E33F0000000000000F9010790141107004050150841D405064090741402480A029950
1001
ACAD
1000
AcDbSavedByObjectVersion
1070
     0
  0
ACAD_PROXY_OBJECT
  5
4F92
102
{ACAD_REACTORS
330
4F82
102
}
330
4F82
100
AcDbProxyObject
 90
      499
 91
      504
 93
      452
310
42D0DBDB1BDC90DA185B99D95104090240C333333333333E33F0000000000000F90108901411070040501508421405064090741402480A0350
1001
ACAD
1000
AcDbSavedByObjectVersion
1070
     0
  0
ACAD_PROXY_OBJECT
  5
4F8C
102
{ACAD_REACTORS
330
4F82
102
}
330
4F82
100
AcDbProxyObject
 90
      499
 91
      504
 93
      500
310
4290DBDB98D95C1D1D585B10940D028333333333333E33F0000000000000F90107902409070040501000000000018199010841D405064090740C02480A0340
1001
ACAD
1000
AcDbSavedByObjectVersion
1070
     0
  0
ACAD_PROXY_OBJECT
  5
4F8D
102
{ACAD_REACTORS
330
4F82
102
}
330
4F82
100
AcDbProxyObject
 90
      499
 91
      504
 93
      412
310
40D11A5B50B409028333333333333E33F0000000000000F9010790141107004050150841D405064090741402480A02677FFFFFD0
1001
ACAD
1000
AcDbSavedByObjectVersion
1070
     0
  0
ACAD_PROXY_OBJECT
  5
4F95
102
{ACAD_REACTORS
330
4F82
102
}
330
4F82
100
AcDbProxyObject
 90
      499
 91
      504
 93
      452
310
43115919D950DBDB1BDC93D999916409028333333333333E33F0000000000000F9010790141107004050150841D405064090741402480A0350
1001
ACAD
1000
AcDbSavedByObjectVersion
1070
     0
  0
ACAD_PROXY_OBJECT
  5
4F91
102
{ACAD_REACTORS
330
4F82
102
}
330
4F82
100
AcDbProxyObject
 90
      499
 91
      504
 93
      444
310
42D19858D95C185D1D195C9B90F409028333333333333E33F0000000000000F9010790141107004050150841D405064090741402480A0350
1001
ACAD
1000
AcDbSavedByObjectVersion
1070
     0
  0
ACAD_PROXY_OBJECT
  5
4F83
102
{ACAD_REACTORS
330
4F82
102
}
330
4F82
100
AcDbProxyObject
 90
      499
 91
      504
 93
      380
310
41119B185D240901404333333333333E33F0000000000000F9010740A907004050150841D405064090741402480A1B50
1001
ACAD
1000
AcDbSavedByObjectVersion
1070
     0
  0
ACAD_PROXY_OBJECT
  5
4F84
102
{ACAD_REACTORS
330
4F82
102
}
330
4F82
100
AcDbProxyObject
 90
      499
 91
      504
 93
      468
310
43519B185D15DA5D1A115919D95CD0140901404333333333333E33F0000000000000F90107409019070040501600405405064090741402480A1B50
1001
ACAD
1000
AcDbSavedByObjectVersion
1070
     0
  0
ACAD_PROXY_OBJECT
  5
4F85
102
{ACAD_REACTORS
330
4F82
102
}
330
4F82
100
AcDbProxyObject
 90
      499
 91
      504
 93
      404
310
41D1DBDD5C985D5910240902404333333333333E33F0000000000000F9010740A9070040501641D405064090741402480A1B50
1001
ACAD
1000
AcDbSavedByObjectVersion
1070
     0
  0
ACAD_PROXY_OBJECT
  5
4F86
102
{ACAD_REACTORS
330
4F82
102
}
330
4F82
100
AcDbProxyObject
 90
      499
 91
      504
 93
      492
310
4411DBDD5C985D5915DA5D1A115919D95CD0340902404333333333333E33F0000000000000F90107409019070040501600405405064090741402480A1B50
1001
ACAD
1000
AcDbSavedByObjectVersion
1070
     0
  0
ACAD_PROXY_OBJECT
  5
4F89
102
{ACAD_REACTORS
330
4F82
102
}
330
4F82
100
AcDbProxyObject
 90
      499
 91
      504
 93
      476
310
41921A5919195B90640502408333333333333E33F0000000000000F901079024090700405020000000000001110200405405064090740C02480A0340
1001
ACAD
1000
AcDbSavedByObjectVersion
1070
     0
  0
ACAD_PROXY_OBJECT
  5
4F93
102
{ACAD_REACTORS
330
4F82
102
}
330
4F82
100
AcDbProxyObject
 90
      499
 91
      504
 93
      428
310
42529A5D1D195C93D999914409028333333333333E33F0000000000000F9010790141107004050150A41D405064090741402480A0350
1001
ACAD
1000
AcDbSavedByObjectVersion
1070
     0
  0
ACAD_PROXY_OBJECT
  5
4F90
102
{ACAD_REACTORS
330
4F82
102
}
330
4F82
100
AcDbProxyObject
 90
      499
 91
      504
 93
      444
310
42D31A5B995C185D1D195C9B90E409028333333333333E33F0000000000000F9010790141107004050750841D405064090741402483A0350
1001
ACAD
1000
AcDbSavedByObjectVersion
1070
     0
  0
ACAD_PROXY_OBJECT
  5
4FC4
102
{ACAD_REACTORS
330
4F82
102
}
330
4F82
100
AcDbProxyObject
 90
      499
 91
      504
 93
      412
310
90A409038333333333333E33F0000000000000F901074090290700405010000000000201990108421405064090741402480A1B40
1001
ACAD
1000
AcDbSavedByObjectVersion
1070
     0
  0
ACAD_PROXY_OBJECT
  5
4F94
102
{ACAD_REACTORS
330
4F82
102
}
330
4F82
100
AcDbProxyObject
 90
      499
 91
      504
 93
      444
310
42D3DD995C9A185B99D3D999915409028333333333333E33F0000000000000F9010790141107004050150941D405064090741402480A0350
1001
ACAD
1000
AcDbSavedByObjectVersion
1070
     0
  0
ACAD_PROXY_OBJECT
  5
4F8B
102
{ACAD_REACTORS
330
4F82
102
}
330
4F82
100
AcDbProxyObject
 90
      499
 91
      504
 93
      428
310
425499585B1A5CDD1A58D08409038333333333333E33F0000000000000F9010740A907004050150800405405064090740C02480A1B40
1001
ACAD
1000
AcDbSavedByObjectVersion
1070
     0
  0
ACAD_PROXY_OBJECT
  5
4F9A
102
{ACAD_REACTORS
330
4F82
102
}
330
4F82
100
AcDbProxyObject
 90
      499
 91
      504
 93
      420
310
4194DA1859195911B40902404333333333333E33F0000000000000F9010740A41107004050150800405405064090840C02480A0B40
1001
ACAD
1000
AcDbSavedByObjectVersion
1070
     0
  0
ACAD_PROXY_OBJECT
  5
4F99
102
{ACAD_REACTORS
330
4F82
102
}
330
4F82
100
AcDbProxyObject
 90
      499
 91
      504
 93
      516
310
4454DA18591959081DDA5D1A08195919D95CD1A40902404333333333333E33F0000000000000F901074090142907004050250800405405064090740C02480A0B40
1001
ACAD
1000
AcDbSavedByObjectVersion
1070
     0
  0
ACAD_PROXY_OBJECT
  5
4F96
102
{ACAD_REACTORS
330
4F82
102
}
330
4F82
100
AcDbProxyObject
 90
      499
 91
      504
 93
      532
310
4394DA1859195CC81BD98811DC985E5174090240C333333333333E33F0000000000000F901079024090741D01000000000000111010841D405064090740C02480A0340
1001
ACAD
1000
AcDbSavedByObjectVersion
1070
     0
  0
ACAD_PROXY_OBJECT
  5
4F97
102
{ACAD_REACTORS
330
4F82
102
}
330
4F82
100
AcDbProxyObject
 90
      499
 91
      504
 93
      476
310
41D4DAD95D18DA1E51840502408333333333333E33F0000000000000F901079024090741D01000000000000111010B41D405064090741802480A0340
1001
ACAD
1000
AcDbSavedByObjectVersion
1070
     0
  0
ACAD_PROXY_OBJECT
  5
4F8F
102
{ACAD_REACTORS
330
4F82
102
}
330
4F82
100
AcDbProxyObject
 90
      499
 91
      504
 93
      412
310
41D51A1A58DAD95B90D409028333333333333E33F0000000000000F9010790141107004050150C41D405064090741402480A0350
1001
ACAD
1000
AcDbSavedByObjectVersion
1070
     0
  0
ACAD_PROXY_OBJECT
  5
4F88
102
{ACAD_REACTORS
330
4F82
102
}
330
4F82
100
AcDbProxyObject
 90
      499
 91
      504
 93
      420
310
4255DA5C99599C985B595059028333333333333E33F0000000000000F90107901411070040501600405405064090740C02480A0340
1001
ACAD
1000
AcDbSavedByObjectVersion
1070
     0
  0
ACAD_PROXY_OBJECT
  5
4F98
102
{ACAD_REACTORS
330
4F82
102
}
330
4F82
100
AcDbProxyObject
 90
      499
 91
      504
 93
      404
310
41560B54985E51940902404000000000000E03F0000000000000F9010740501907004050150841D405064090740C02480A1B40
1001
ACAD
1000
AcDbSavedByObjectVersion
1070
     0
  0
XRECORD
  5
6023
102
{ACAD_REACTORS
330
6019
102
}
330
6019
100
AcDbXrecord
340
0
  0
XRECORD
  5
6022
102
{ACAD_REACTORS
330
6019
102
}
330
6019
100
AcDbXrecord
 90
        0
  0
XRECORD
  5
603C
102
{ACAD_REACTORS
330
6019
102
}
330
6019
100
AcDbXrecord
340
2948
  0
XRECORD
  5
6039
102
{ACAD_REACTORS
330
6019
102
}
330
6019
100
AcDbXrecord
1000
DSTYLE
1002
{
1070
   171
 70
     2
1070
   143
 40
0.0394
1070
   274
 70
     2
1070
    41
 40
6.0
1070
   342
340
2AF4
1070
   271
 70
     1
1070
   278
 70
    46
1070
   341
340
2AF4
1070
   272
 70
     1
1070
    48
 40
0.1
1070
   283
 70
     1
1070
    47
 40
0.1
1070
   145
 40
1.0
1070
   340
340
10
1070
   140
 40
5.0
1070
   284
 70
     0
1002
}
  0
XRECORD
  5
6024
102
{ACAD_REACTORS
330
6019
102
}
330
6019
100
AcDbXrecord
  1
{23698909-1D67-4744-B0E2-8DE11E3ED422}
  0
XRECORD
  5
601C
102
{ACAD_REACTORS
330
6019
102
}
330
6019
100
AcDbXrecord
  1

  0
XRECORD
  5
6021
102
{ACAD_REACTORS
330
6019
102
}
330
6019
100
AcDbXrecord
 90
        0
  0
XRECORD
  5
601E
102
{ACAD_REACTORS
330
6019
102
}
330
6019
100
AcDbXrecord
340
2816
  0
XRECORD
  5
6020
102
{ACAD_REACTORS
330
6019
102
}
330
6019
100
AcDbXrecord
 90
    10781
  0
XRECORD
  5
603D
102
{ACAD_REACTORS
330
6019
102
}
330
6019
100
AcDbXrecord
340
2947
  0
XRECORD
  5
601F
102
{ACAD_REACTORS
330
6019
102
}
330
6019
100
AcDbXrecord
340
2817
  0
XRECORD
  5
6026
102
{ACAD_REACTORS
330
6019
102
}
330
6019
100
AcDbXrecord
 40
0.25
  0
XRECORD
  5
6029
102
{ACAD_REACTORS
330
6019
102
}
330
6019
100
AcDbXrecord
340
0
  0
XRECORD
  5
602F
102
{ACAD_REACTORS
330
6019
102
}
330
6019
100
AcDbXrecord
 10
0.0
 20
0.0
 30
0.0
  0
XRECORD
  5
602B
102
{ACAD_REACTORS
330
6019
102
}
330
6019
100
AcDbXrecord
 10
0.0
 20
0.0
 30
0.0
  0
XRECORD
  5
602E
102
{ACAD_REACTORS
330
6019
102
}
330
6019
100
AcDbXrecord
 10
0.0
 20
0.0
 30
0.0
  0
XRECORD
  5
602C
102
{ACAD_REACTORS
330
6019
102
}
330
6019
100
AcDbXrecord
 10
0.0
 20
0.0
 30
0.0
  0
XRECORD
  5
602D
102
{ACAD_REACTORS
330
6019
102
}
330
6019
100
AcDbXrecord
 10
0.0
 20
0.0
 30
0.0
  0
XRECORD
  5
602A
102
{ACAD_REACTORS
330
6019
102
}
330
6019
100
AcDbXrecord
 10
0.0
 20
0.0
 30
0.0
  0
XRECORD
  5
6027
102
{ACAD_REACTORS
330
6019
102
}
330
6019
100
AcDbXrecord
340
0
  0
XRECORD
  5
6028
102
{ACAD_REACTORS
330
6019
102
}
330
6019
100
AcDbXrecord
 70
     0
  0
XRECORD
  5
601D
102
{ACAD_REACTORS
330
6019
102
}
330
6019
100
AcDbXrecord
  1

  0
XRECORD
  5
601A
102
{ACAD_REACTORS
330
6019
102
}
330
6019
100
AcDbXrecord
 90
        1
  0
XRECORD
  5
601B
102
{ACAD_REACTORS
330
6019
102
}
330
6019
100
AcDbXrecord
 90
       70
  0
XRECORD
  5
6032
102
{ACAD_REACTORS
330
6019
102
}
330
6019
100
AcDbXrecord
340
0
  0
XRECORD
  5
6038
102
{ACAD_REACTORS
330
6019
102
}
330
6019
100
AcDbXrecord
 10
0.0
 20
0.0
 30
0.0
  0
XRECORD
  5
6034
102
{ACAD_REACTORS
330
6019
102
}
330
6019
100
AcDbXrecord
 10
0.0
 20
0.0
 30
0.0
  0
XRECORD
  5
6037
102
{ACAD_REACTORS
330
6019
102
}
330
6019
100
AcDbXrecord
 10
0.0
 20
0.0
 30
0.0
  0
XRECORD
  5
6035
102
{ACAD_REACTORS
330
6019
102
}
330
6019
100
AcDbXrecord
 10
0.0
 20
0.0
 30
0.0
  0
XRECORD
  5
6036
102
{ACAD_REACTORS
330
6019
102
}
330
6019
100
AcDbXrecord
 10
0.0
 20
0.0
 30
0.0
  0
XRECORD
  5
6033
102
{ACAD_REACTORS
330
6019
102
}
330
6019
100
AcDbXrecord
 10
0.0
 20
0.0
 30
0.0
  0
XRECORD
  5
6030
102
{ACAD_REACTORS
330
6019
102
}
330
6019
100
AcDbXrecord
340
0
  0
XRECORD
  5
6031
102
{ACAD_REACTORS
330
6019
102
}
330
6019
100
AcDbXrecord
 70
     0
  0
XRECORD
  5
6025
102
{ACAD_REACTORS
330
6019
102
}
330
6019
100
AcDbXrecord
  1
{B0699EBD-DDB8-4BAB-B1A7-1AA13621C3A7}
  0
DICTIONARYVAR
  5
5155
102
{ACAD_REACTORS
330
5154
102
}
330
5154
100
DictionaryVariables
280
     0
  1
1:1
  0
DICTIONARYVAR
  5
5196
102
{ACAD_REACTORS
330
5154
102
}
330
5154
100
DictionaryVariables
280
     0
  1
Standard
  0
DICTIONARYVAR
  5
5195
102
{ACAD_REACTORS
330
5154
102
}
330
5154
100
DictionaryVariables
280
     0
  1
Standard
  0
DICTIONARYVAR
  5
603A
102
{ACAD_REACTORS
330
5154
102
}
330
5154
100
DictionaryVariables
280
     0
  1
1
  0
DICTIONARYVAR
  5
603B
102
{ACAD_REACTORS
330
5154
102
}
330
5154
100
DictionaryVariables
280
     0
  1
0
  0
DICTIONARYVAR
  5
5197
102
{ACAD_REACTORS
330
5154
102
}
330
5154
100
DictionaryVariables
280
     0
  1
0
  0
DICTIONARYVAR
  5
5198
102
{ACAD_REACTORS
330
5154
102
}
330
5154
100
DictionaryVariables
280
     0
  1
0
  0
DICTIONARY
  5
5419
102
{ACAD_REACTORS
330
5418
102
}
330
5418
100
AcDbDictionary
  0
DICTIONARY
  5
5EAA
102
{ACAD_REACTORS
330
5EA9
102
}
330
5EA9
100
AcDbDictionary
  0
DICTIONARY
  5
5002
102
{ACAD_REACTORS
330
5001
102
}
330
5001
100
AcDbDictionary
  0
DICTIONARY
  5
5096
102
{ACAD_REACTORS
330
5095
102
}
330
5095
100
AcDbDictionary
  0
DICTIONARY
  5
50A4
102
{ACAD_REACTORS
330
50A3
102
}
330
50A3
100
AcDbDictionary
  0
DICTIONARY
  5
50AE
102
{ACAD_REACTORS
330
50AD
102
}
330
50AD
100
AcDbDictionary
  0
DICTIONARY
  5
50B6
102
{ACAD_REACTORS
330
50B5
102
}
330
50B5
100
AcDbDictionary
  0
DICTIONARY
  5
50C9
102
{ACAD_REACTORS
330
50C8
102
}
330
50C8
100
AcDbDictionary
  0
DICTIONARY
  5
50E2
102
{ACAD_REACTORS
330
50E1
102
}
330
50E1
100
AcDbDictionary
  0
DICTIONARY
  5
523F
102
{ACAD_REACTORS
330
523E
102
}
330
523E
100
AcDbDictionary
  0
DICTIONARY
  5
5274
102
{ACAD_REACTORS
330
5273
102
}
330
5273
100
AcDbDictionary
  0
DICTIONARY
  5
52A9
102
{ACAD_REACTORS
330
52A8
102
}
330
52A8
100
AcDbDictionary
  0
DICTIONARY
  5
52DE
102
{ACAD_REACTORS
330
52DD
102
}
330
52DD
100
AcDbDictionary
  0
DICTIONARY
  5
5313
102
{ACAD_REACTORS
330
5312
102
}
330
5312
100
AcDbDictionary
  0
DICTIONARY
  5
5348
102
{ACAD_REACTORS
330
5347
102
}
330
5347
100
AcDbDictionary
  0
DICTIONARY
  5
537D
102
{ACAD_REACTORS
330
537C
102
}
330
537C
100
AcDbDictionary
  0
DICTIONARY
  5
53B2
102
{ACAD_REACTORS
330
53B1
102
}
330
53B1
100
AcDbDictionary
  0
DICTIONARY
  5
54E4
102
{ACAD_REACTORS
330
54E3
102
}
330
54E3
100
AcDbDictionary
  0
DICTIONARY
  5
5129
102
{ACAD_REACTORS
330
5128
102
}
330
5128
100
AcDbDictionary
  0
DICTIONARY
  5
512D
102
{ACAD_REACTORS
330
512C
102
}
330
512C
100
AcDbDictionary
  0
DICTIONARY
  5
57D7
102
{ACAD_REACTORS
330
57D6
102
}
330
57D6
100
AcDbDictionary
  0
DICTIONARY
  5
5FB0
102
{ACAD_REACTORS
330
5FAF
102
}
330
5FAF
100
AcDbDictionary
  0
DICTIONARY
  5
5FB4
102
{ACAD_REACTORS
330
5FB3
102
}
330
5FB3
100
AcDbDictionary
  0
DICTIONARY
  5
6043
330
4FBE
100
AcDbDictionary
280
     1
  3
ACAD_XREC_ROUNDTRIP
360
6044
  0
DICTIONARY
  5
6041
330
4FBD
100
AcDbDictionary
280
     1
  3
ACAD_XREC_ROUNDTRIP
360
6042
  0
DICTIONARY
  5
6045
330
4FBF
100
AcDbDictionary
280
     1
  3
ACAD_XREC_ROUNDTRIP
360
6046
  0
XRECORD
  5
6044
102
{ACAD_REACTORS
330
6043
102
}
330
6043
100
AcDbXrecord
102
MATERIAL
148
0.0
149
0.0
149
0.0
 93
        0
 94
      127
282
     0
 72
     1
 77
     1
171
     1
175
     1
179
     1
273
     0
  0
XRECORD
  5
6042
102
{ACAD_REACTORS
330
6041
102
}
330
6041
100
AcDbXrecord
102
MATERIAL
148
0.0
149
0.0
149
0.0
 93
        0
 94
      127
282
     0
 72
     1
 77
     1
171
     1
175
     1
179
     1
273
     0
  0
XRECORD
  5
6046
102
{ACAD_REACTORS
330
6045
102
}
330
6045
100
AcDbXrecord
102
MATERIAL
148
0.0
149
0.0
149
0.0
 93
        0
 94
      127
282
     0
 72
     1
 77
     1
171
     1
175
     1
179
     1
273
     0
  0
ENDSEC
  0
EOF
