  0
SECTION
  2
HEADER
  9
$ACADVER
  1
AC1014
  9
$ACADMAINTVER
 70
     9
  9
$DWGCODEPAGE
  3
ANSI_932
  9
$INSBASE
 10
0.0
 20
0.0
 30
0.0
  9
$EXTMIN
 10
-35.735058059327
 20
-112.027091825
 30
0.0
  9
$EXTMAX
 10
470.972098006783
 20
245.912628945157
 30
0.0
  9
$LIMMIN
 10
-360.747566795242
 20
4.457354754526
  9
$LIMMAX
 10
-162.153696144267
 20
287.675440264018
  9
$ORTHOMODE
 70
     0
  9
$REGENMODE
 70
     1
  9
$FILLMODE
 70
     1
  9
$QTEXTMODE
 70
     0
  9
$MIRRTEXT
 70
     1
  9
$DRAGMODE
 70
     2
  9
$LTSCALE
 40
1.0
  9
$OSMODE
 70
   935
  9
$ATTMODE
 70
     1
  9
$TEXTSIZE
 40
2.333873885063
  9
$TRACEWID
 40
1.0
  9
$TEXTSTYLE
  7
STANDARD
  9
$CLAYER
  8
寸法線
  9
$CELTYPE
  6
BYLAYER
  9
$CECOLOR
 62
   256
  9
$CELTSCALE
 40
10.0
  9
$DELOBJ
 70
     1
  9
$DISPSILH
 70
     0
  9
$DIMSCALE
 40
1.0
  9
$DIMASZ
 40
6.0
  9
$DIMEXO
 40
0.625
  9
$DIMDLI
 40
3.75
  9
$DIMRND
 40
0.0
  9
$DIMDLE
 40
0.0
  9
$DIMEXE
 40
1.25
  9
$DIMTP
 40
0.1
  9
$DIMTM
 40
0.1
  9
$DIMTXT
 40
5.0
  9
$DIMCEN
 40
2.5
  9
$DIMTSZ
 40
0.0
  9
$DIMTOL
 70
     0
  9
$DIMLIM
 70
     0
  9
$DIMTIH
 70
     0
  9
$DIMTOH
 70
     0
  9
$DIMSE1
 70
     0
  9
$DIMSE2
 70
     0
  9
$DIMTAD
 70
     1
  9
$DIMZIN
 70
     8
  9
$DIMBLK
  1
OPEN30
  9
$DIMASO
 70
     1
  9
$DIMSHO
 70
     1
  9
$DIMPOST
  1

  9
$DIMAPOST
  1

  9
$DIMALT
 70
     0
  9
$DIMALTD
 70
     2
  9
$DIMALTF
 40
0.0394
  9
$DIMLFAC
 40
1.0
  9
$DIMTOFL
 70
     1
  9
$DIMTVP
 40
1.0
  9
$DIMTIX
 70
     0
  9
$DIMSOXD
 70
     0
  9
$DIMSAH
 70
     0
  9
$DIMBLK1
  1

  9
$DIMBLK2
  1

  9
$DIMSTYLE
  2
ISO-25
  9
$DIMCLRD
 70
     0
  9
$DIMCLRE
 70
     0
  9
$DIMCLRT
 70
     0
  9
$DIMTFAC
 40
1.0
  9
$DIMGAP
 40
0.625
  9
$DIMJUST
 70
     0
  9
$DIMSD1
 70
     0
  9
$DIMSD2
 70
     0
  9
$DIMTOLJ
 70
     1
  9
$DIMTZIN
 70
     0
  9
$DIMALTZ
 70
     0
  9
$DIMALTTZ
 70
     0
  9
$DIMFIT
 70
     3
  9
$DIMUPT
 70
     0
  9
$DIMUNIT
 70
     2
  9
$DIMDEC
 70
     1
  9
$DIMTDEC
 70
     1
  9
$DIMALTU
 70
     2
  9
$DIMALTTD
 70
     2
  9
$DIMTXSTY
  7
STANDARD
  9
$DIMAUNIT
 70
     0
  9
$LUNITS
 70
     2
  9
$LUPREC
 70
     4
  9
$SKETCHINC
 40
1.0
  9
$FILLETRAD
 40
6.5
  9
$AUNITS
 70
     0
  9
$AUPREC
 70
     0
  9
$MENU
  1
.
  9
$ELEVATION
 40
0.0
  9
$PELEVATION
 40
0.0
  9
$THICKNESS
 40
0.0
  9
$LIMCHECK
 70
     0
  9
$CHAMFERA
 40
10.0
  9
$CHAMFERB
 40
10.0
  9
$CHAMFERC
 40
20.0
  9
$CHAMFERD
 40
0.0
  9
$SKPOLY
 70
     0
  9
$TDCREATE
 40
2450576.597302431
  9
$TDUPDATE
 40
2457269.373173264
  9
$TDINDWG
 40
1.2733781829
  9
$TDUSRTIMER
 40
1.2733781829
  9
$USRTIMER
 70
     1
  9
$ANGBASE
 50
0.0
  9
$ANGDIR
 70
     0
  9
$PDMODE
 70
     0
  9
$PDSIZE
 40
0.0
  9
$PLINEWID
 40
0.0
  9
$COORDS
 70
     0
  9
$SPLFRAME
 70
     0
  9
$SPLINETYPE
 70
     6
  9
$SPLINESEGS
 70
     8
  9
$ATTDIA
 70
     0
  9
$ATTREQ
 70
     1
  9
$HANDLING
 70
     1
  9
$HANDSEED
  5
4D9C
  9
$SURFTAB1
 70
     6
  9
$SURFTAB2
 70
     6
  9
$SURFTYPE
 70
     6
  9
$SURFU
 70
     6
  9
$SURFV
 70
     6
  9
$UCSNAME
  2

  9
$UCSORG
 10
0.0
 20
0.0
 30
0.0
  9
$UCSXDIR
 10
1.0
 20
0.0
 30
0.0
  9
$UCSYDIR
 10
0.0
 20
1.0
 30
0.0
  9
$PUCSNAME
  2

  9
$PUCSORG
 10
0.0
 20
0.0
 30
0.0
  9
$PUCSXDIR
 10
1.0
 20
0.0
 30
0.0
  9
$PUCSYDIR
 10
0.0
 20
1.0
 30
0.0
  9
$USERI1
 70
     0
  9
$USERI2
 70
     0
  9
$USERI3
 70
     0
  9
$USERI4
 70
     0
  9
$USERI5
 70
     0
  9
$USERR1
 40
0.0
  9
$USERR2
 40
0.0
  9
$USERR3
 40
0.0
  9
$USERR4
 40
0.0
  9
$USERR5
 40
0.0
  9
$WORLDVIEW
 70
     1
  9
$SHADEDGE
 70
     3
  9
$SHADEDIF
 70
    70
  9
$TILEMODE
 70
     0
  9
$MAXACTVP
 70
    16
  9
$PINSBASE
 10
0.0
 20
0.0
 30
0.0
  9
$PLIMCHECK
 70
     0
  9
$PEXTMIN
 10
4.746305129083
 20
1.396645458131
 30
0.0
  9
$PEXTMAX
 10
404.746305129083
 20
281.396645458131
 30
0.0
  9
$PLIMMIN
 10
-7.007122192383
 20
-7.007118782997
  9
$PLIMMAX
 10
417.718108215332
 20
293.315290427208
  9
$UNITMODE
 70
     0
  9
$VISRETAIN
 70
     0
  9
$PLINEGEN
 70
     0
  9
$PSLTSCALE
 70
     1
  9
$TREEDEPTH
 70
  3020
  9
$PICKSTYLE
 70
     1
  9
$CMLSTYLE
  2
STANDARD
  9
$CMLJUST
 70
     0
  9
$CMLSCALE
 40
1.0
  9
$PROXYGRAPHICS
 70
     1
  9
$MEASUREMENT
 70
     1
  0
ENDSEC
  0
SECTION
  2
CLASSES
  0
CLASS
  1
ACDBDICTIONARYWDFLT
  2
AcDbDictionaryWithDefault
  3
ObjectDBX Classes
 90
        0
280
     0
281
     0
  0
CLASS
  1
ACDBPLACEHOLDER
  2
AcDbPlaceHolder
  3
ObjectDBX Classes
 90
        0
280
     0
281
     0
  0
CLASS
  1
LAYOUT
  2
AcDbLayout
  3
ObjectDBX Classes
 90
        0
280
     0
281
     0
  0
CLASS
  1
VISUALSTYLE
  2
AcDbVisualStyle
  3
ObjectDBX Classes
 90
     4095
280
     0
281
     0
  0
CLASS
  1
SCALE
  2
AcDbScale
  3
ObjectDBX Classes
 90
     1153
280
     0
281
     0
  0
CLASS
  1
MATERIAL
  2
AcDbMaterial
  3
ObjectDBX Classes
 90
     1153
280
     0
281
     0
  0
CLASS
  1
TABLESTYLE
  2
AcDbTableStyle
  3
ObjectDBX Classes
 90
     4095
280
     0
281
     0
  0
CLASS
  1
MLEADERSTYLE
  2
AcDbMLeaderStyle
  3
ACDB_MLEADERSTYLE_CLASS
 90
     4095
280
     0
281
     0
  0
CLASS
  1
SUN
  2
AcDbSun
  3
SCENEOE
 90
     1153
280
     0
281
     0
  0
CLASS
  1
DICTIONARYVAR
  2
AcDbDictionaryVar
  3
ObjectDBX Classes
 90
        0
280
     0
281
     0
  0
CLASS
  1
CELLSTYLEMAP
  2
AcDbCellStyleMap
  3
ObjectDBX Classes
 90
     1152
280
     0
281
     0
  0
CLASS
  1
XRECORD
  2
AcDbXrecord
  3
ObjectDBX Classes
 90
        0
280
     0
281
     0
  0
CLASS
  1
LWPOLYLINE
  2
AcDbPolyline
  3
ObjectDBX Classes
 90
        0
280
     0
281
     1
  0
CLASS
  1
HATCH
  2
AcDbHatch
  3
ObjectDBX Classes
 90
        0
280
     0
281
     1
  0
ENDSEC
  0
SECTION
  2
TABLES
  0
TABLE
  2
VPORT
  5
8
102
{ACAD_XDICTIONARY
360
4D94
102
}
330
0
100
AcDbSymbolTable
 70
     1
  0
VPORT
  5
4688
330
8
100
AcDbSymbolTableRecord
100
AcDbViewportTableRecord
  2
*ACTIVE
 70
     0
 10
0.0
 20
0.0
 11
1.0
 21
1.0
 12
217.618519973728
 22
66.942768560079
 13
0.0
 23
0.0
 14
1.0
 24
1.0
 15
0.0
 25
0.0
 16
0.0
 26
0.0
 36
1.0
 17
0.0
 27
0.0
 37
0.0
 40
365.09851518556
 41
1.839224629418
 42
50.0
 43
0.0
 44
0.0
 50
0.0
 51
0.0
 71
    16
 72
   100
 73
     1
 74
     0
 75
     0
 76
     0
 77
     0
 78
     0
  0
ENDTAB
  0
TABLE
  2
LTYPE
  5
5
330
0
100
AcDbSymbolTable
 70
     4
  0
LTYPE
  5
14
330
5
100
AcDbSymbolTableRecord
100
AcDbLinetypeTableRecord
  2
BYBLOCK
 70
     0
  3

 72
    65
 73
     0
 40
0.0
  0
LTYPE
  5
15
330
5
100
AcDbSymbolTableRecord
100
AcDbLinetypeTableRecord
  2
BYLAYER
 70
     0
  3

 72
    65
 73
     0
 40
0.0
  0
LTYPE
  5
16
330
5
100
AcDbSymbolTableRecord
100
AcDbLinetypeTableRecord
  2
CONTINUOUS
 70
     0
  3
Solid line
 72
    65
 73
     0
 40
0.0
  0
LTYPE
  5
1EC
330
5
100
AcDbSymbolTableRecord
100
AcDbLinetypeTableRecord
  2
CENTER
 70
     0
  3
____ _ ____ _ ____ _ ____ _ ____ _ ____ _ ____ 
 72
    65
 73
     4
 40
2.0
 49
1.25
 74
     0
 49
-0.25
 74
     0
 49
0.25
 74
     0
 49
-0.25
 74
     0
  0
LTYPE
  5
1ED
330
5
100
AcDbSymbolTableRecord
100
AcDbLinetypeTableRecord
  2
DASHED
 70
     0
  3
__ __ __ __ __ __ __ __ __ __ __ __ __ __ __ __
 72
    65
 73
     2
 40
0.75
 49
0.5
 74
     0
 49
-0.25
 74
     0
  0
LTYPE
  5
2B1F
330
5
100
AcDbSymbolTableRecord
100
AcDbLinetypeTableRecord
  2
DASHDOT
 70
     0
  3
一点鎖線
 72
    65
 73
     4
 40
25.6
 49
20.0
 74
     0
 49
-2.0
 74
     0
 49
1.6
 74
     0
 49
-2.0
 74
     0
  0
ENDTAB
  0
TABLE
  2
LAYER
  5
2
102
{ACAD_XDICTIONARY
360
29EA
102
}
330
0
100
AcDbSymbolTable
 70
    16
  0
LAYER
  5
F
330
2
100
AcDbSymbolTableRecord
100
AcDbLayerTableRecord
  2
0
 70
     0
 62
     7
  6
CONTINUOUS
  0
LAYER
  5
61
330
2
100
AcDbSymbolTableRecord
100
AcDbLayerTableRecord
  2
図枠太線
 70
     0
 62
   251
  6
CONTINUOUS
  0
LAYER
  5
62
330
2
100
AcDbSymbolTableRecord
100
AcDbLayerTableRecord
  2
図枠細線
 70
     0
 62
   252
  6
CONTINUOUS
  0
LAYER
  5
63
330
2
100
AcDbSymbolTableRecord
100
AcDbLayerTableRecord
  2
図枠ロゴマーク
 70
     0
 62
   253
  6
CONTINUOUS
  0
LAYER
  5
1EF
330
2
100
AcDbSymbolTableRecord
100
AcDbLayerTableRecord
  2
外形線
 70
     0
 62
     7
  6
CONTINUOUS
  0
LAYER
  5
1F0
330
2
100
AcDbSymbolTableRecord
100
AcDbLayerTableRecord
  2
寸法線
 70
     0
 62
     1
  6
CONTINUOUS
  0
LAYER
  5
1F1
330
2
100
AcDbSymbolTableRecord
100
AcDbLayerTableRecord
  2
中心線
 70
     0
 62
     4
  6
CENTER
  0
LAYER
  5
1F4
330
2
100
AcDbSymbolTableRecord
100
AcDbLayerTableRecord
  2
DEFPOINTS
 70
     0
 62
     7
  6
CONTINUOUS
  0
LAYER
  5
2AA2
330
2
100
AcDbSymbolTableRecord
100
AcDbLayerTableRecord
  2
下書線
 70
     0
 62
     2
  6
CONTINUOUS
  0
LAYER
  5
2AA3
330
2
100
AcDbSymbolTableRecord
100
AcDbLayerTableRecord
  2
隠れ線
 70
     0
 62
     3
  6
DASHED
  0
LAYER
  5
2AA4
330
2
100
AcDbSymbolTableRecord
100
AcDbLayerTableRecord
  2
細線
 70
     0
 62
     6
  6
CONTINUOUS
  0
LAYER
  5
2AA5
330
2
100
AcDbSymbolTableRecord
100
AcDbLayerTableRecord
  2
太線
 70
     0
 62
   190
  6
CONTINUOUS
  0
LAYER
  5
2B20
330
2
100
AcDbSymbolTableRecord
100
AcDbLayerTableRecord
  2
LAY-1
 70
     0
 62
     7
  6
CONTINUOUS
  0
LAYER
  5
2B21
330
2
100
AcDbSymbolTableRecord
100
AcDbLayerTableRecord
  2
LAY-2
 70
     0
 62
     7
  6
CONTINUOUS
  0
LAYER
  5
2B22
330
2
100
AcDbSymbolTableRecord
100
AcDbLayerTableRecord
  2
LAY-5
 70
     0
 62
     7
  6
CONTINUOUS
  0
LAYER
  5
2B23
330
2
100
AcDbSymbolTableRecord
100
AcDbLayerTableRecord
  2
LAY-6
 70
     0
 62
     7
  6
CONTINUOUS
  0
ENDTAB
  0
TABLE
  2
STYLE
  5
3
330
0
100
AcDbSymbolTable
 70
     2
  0
STYLE
  5
10
330
3
100
AcDbSymbolTableRecord
100
AcDbTextStyleTableRecord
  2
STANDARD
 70
     0
 40
0.0
 41
1.0
 50
0.0
 71
     0
 42
2.333873885063
  3
ISOCP
  4
bigfont.shx
  0
STYLE
  5
64
330
3
100
AcDbSymbolTableRecord
100
AcDbTextStyleTableRecord
  2
EXCADSTD
 70
     0
 40
0.0
 41
1.0
 50
0.0
 71
     0
 42
0.2
  3
monotxt
  4
bigfont
  0
ENDTAB
  0
TABLE
  2
VIEW
  5
6
330
0
100
AcDbSymbolTable
 70
     0
  0
ENDTAB
  0
TABLE
  2
UCS
  5
7
330
0
100
AcDbSymbolTable
 70
     0
  0
ENDTAB
  0
TABLE
  2
APPID
  5
9
330
0
100
AcDbSymbolTable
 70
     3
  0
APPID
  5
11
330
9
100
AcDbSymbolTableRecord
100
AcDbRegAppTableRecord
  2
ACAD
 70
     0
  0
APPID
  5
46E0
330
9
100
AcDbSymbolTableRecord
100
AcDbRegAppTableRecord
  2
ACADANNOTATIVE
 70
     0
  0
APPID
  5
483C
330
9
100
AcDbSymbolTableRecord
100
AcDbRegAppTableRecord
  2
ACAD_MLEADERVER
 70
     0
  0
ENDTAB
  0
TABLE
  2
DIMSTYLE
  5
A
330
0
100
AcDbSymbolTable
 70
     2
  0
DIMSTYLE
105
1D
330
A
100
AcDbSymbolTableRecord
100
AcDbDimStyleTableRecord
  2
STANDARD
 70
     0
  3

  4

  5

  6

  7

 40
1.0
 41
0.18
 42
0.0625
 43
0.38
 44
0.18
 45
0.0
 46
0.0
 47
0.0
 48
0.0
140
0.18
141
0.09
142
0.0
143
25.4
144
1.0
145
0.0
146
1.0
147
0.09
 71
     0
 72
     0
 73
     1
 74
     1
 75
     0
 76
     0
 77
     0
 78
     0
170
     0
171
     2
172
     0
173
     0
174
     0
175
     0
176
     0
177
     0
178
     0
270
     2
271
     4
272
     4
273
     2
274
     2
340
10
275
     0
280
     0
281
     0
282
     0
283
     1
284
     0
285
     0
286
     0
287
     3
288
     0
  0
DIMSTYLE
105
24
102
{ACAD_REACTORS
330
43E6
330
43EA
330
43EC
330
4419
330
441A
330
441B
330
44B1
330
44B2
330
460D
102
}
330
A
100
AcDbSymbolTableRecord
100
AcDbDimStyleTableRecord
  2
ISO-25
 70
     0
  3

  4

  5

  6

  7

 40
1.0
 41
2.5
 42
0.625
 43
3.75
 44
1.25
 45
0.0
 46
0.0
 47
0.0
 48
0.0
140
2.5
141
2.5
142
0.0
143
0.0394
144
1.0
145
1.0
146
1.0
147
0.625
 71
     0
 72
     0
 73
     1
 74
     0
 75
     0
 76
     0
 77
     1
 78
     8
170
     0
171
     2
172
     1
173
     0
174
     0
175
     0
176
     0
177
     0
178
     0
270
     2
271
     4
272
     4
273
     2
274
     2
340
10
275
     0
280
     0
281
     0
282
     0
283
     1
284
     0
285
     0
286
     0
287
     3
288
     0
  0
ENDTAB
  0
TABLE
  2
BLOCK_RECORD
  5
1
330
0
100
AcDbSymbolTable
 70
    15
  0
BLOCK_RECORD
  5
1A
330
1
100
AcDbSymbolTableRecord
100
AcDbBlockTableRecord
  2
*MODEL_SPACE
  0
BLOCK_RECORD
  5
28FB
330
1
100
AcDbSymbolTableRecord
100
AcDbBlockTableRecord
  2
*PAPER_SPACE
  0
BLOCK_RECORD
  5
65
330
1
100
AcDbSymbolTableRecord
100
AcDbBlockTableRecord
  2
A$C3392
  0
BLOCK_RECORD
  5
29BF
330
1
100
AcDbSymbolTableRecord
100
AcDbBlockTableRecord
  2
A4横用_タイトル
1001
ACAD
1000
DesignCenter Data
1002
{
1070
     1
1070
     4
1002
}
  0
BLOCK_RECORD
  5
29F4
330
1
100
AcDbSymbolTableRecord
100
AcDbBlockTableRecord
  2
A4縦用_タイトル
1001
ACAD
1000
DesignCenter Data
1002
{
1070
     1
1070
     4
1002
}
  0
BLOCK_RECORD
  5
2A32
330
1
100
AcDbSymbolTableRecord
100
AcDbBlockTableRecord
  2
A3横用_タイトル
1001
ACAD
1000
DesignCenter Data
1002
{
1070
     1
1070
     4
1002
}
  0
BLOCK_RECORD
  5
2A6C
330
1
100
AcDbSymbolTableRecord
100
AcDbBlockTableRecord
  2
A3縦用_タイトル
1001
ACAD
1000
DesignCenter Data
1002
{
1070
     1
1070
     4
1002
}
  0
BLOCK_RECORD
  5
2AF4
330
1
100
AcDbSymbolTableRecord
100
AcDbBlockTableRecord
  2
_OPEN30
  0
BLOCK_RECORD
  5
4529
330
1
100
AcDbSymbolTableRecord
100
AcDbBlockTableRecord
  2
*D6
  0
BLOCK_RECORD
  5
4535
330
1
100
AcDbSymbolTableRecord
100
AcDbBlockTableRecord
  2
*D7
  0
BLOCK_RECORD
  5
454C
330
1
100
AcDbSymbolTableRecord
100
AcDbBlockTableRecord
  2
*D8
  0
BLOCK_RECORD
  5
4558
330
1
100
AcDbSymbolTableRecord
100
AcDbBlockTableRecord
  2
*D9
  0
BLOCK_RECORD
  5
4564
330
1
100
AcDbSymbolTableRecord
100
AcDbBlockTableRecord
  2
*D10
  0
BLOCK_RECORD
  5
4570
330
1
100
AcDbSymbolTableRecord
100
AcDbBlockTableRecord
  2
*D11
  0
BLOCK_RECORD
  5
457D
330
1
100
AcDbSymbolTableRecord
100
AcDbBlockTableRecord
  2
*D12
  0
BLOCK_RECORD
  5
4589
330
1
100
AcDbSymbolTableRecord
100
AcDbBlockTableRecord
  2
*D13
  0
BLOCK_RECORD
  5
460E
330
1
100
AcDbSymbolTableRecord
100
AcDbBlockTableRecord
  2
*D14
  0
ENDTAB
  0
ENDSEC
  0
SECTION
  2
BLOCKS
  0
BLOCK
  5
1B
330
1A
100
AcDbEntity
  8
0
100
AcDbBlockBegin
  2
*MODEL_SPACE
 70
     0
 10
0.0
 20
0.0
 30
0.0
  3
*MODEL_SPACE
  1

  0
ENDBLK
  5
1C
330
1A
100
AcDbEntity
  8
0
100
AcDbBlockEnd
  0
BLOCK
  5
28FD
330
28FB
100
AcDbEntity
 67
     1
  8
0
 48
10.0
100
AcDbBlockBegin
  2
*PAPER_SPACE
 70
     0
 10
0.0
 20
0.0
 30
0.0
  3
*PAPER_SPACE
  1

  0
ENDBLK
  5
28FE
330
28FB
100
AcDbEntity
 67
     1
  8
0
 48
10.0
100
AcDbBlockEnd
  0
BLOCK
  5
93
330
65
100
AcDbEntity
  8
0
100
AcDbBlockBegin
  2
A$C3392
 70
     0
 10
0.0
 20
0.0
 30
0.0
  3
A$C3392
  1

  0
LINE
  5
66
330
65
100
AcDbEntity
  8
図枠太線
  6
CONTINUOUS
100
AcDbLine
 10
211.858584505185
 20
30.927375675439
 30
0.0
 11
211.858584505185
 21
0.927375675439
 31
0.0
  0
LINE
  5
67
330
65
100
AcDbEntity
  8
図枠細線
  6
CONTINUOUS
100
AcDbLine
 10
231.858592505185
 20
15.927377675439
 30
0.0
 11
287.858592505185
 21
15.927375675439
 31
0.0
  0
LINE
  5
68
330
65
100
AcDbEntity
  8
図枠細線
  6
CONTINUOUS
100
AcDbLine
 10
211.858592505185
 20
15.927377675439
 30
0.0
 11
231.858592505185
 21
15.927377675439
 31
0.0
  0
LINE
  5
69
330
65
100
AcDbEntity
  8
図枠太線
  6
CONTINUOUS
 62
   251
100
AcDbLine
 10
1.858584505185
 20
0.927375675439
 30
0.0
 11
1.858584505185
 21
275.927375675439
 31
0.0
  0
TEXT
  5
6A
330
65
100
AcDbEntity
  8
図枠細線
  6
CONTINUOUS
 62
   252
100
AcDbText
 10
351.358592505185
 20
28.427377675439
 30
0.0
 40
2.0
  1
ＴＩＴＬＥ
 41
0.903614457831
  7
EXCADSTD
 72
     5
 11
361.358592505185
 21
28.427377675439
 31
0.0
100
AcDbText
  0
TEXT
  5
6B
330
65
100
AcDbEntity
  8
図枠細線
  6
CONTINUOUS
 62
   252
100
AcDbText
 10
345.358592505185
 20
28.427377675439
 30
0.0
 40
2.0
  1
名称
 41
1.171875
  7
EXCADSTD
 72
     5
 11
350.358592505185
 21
28.427377675439
 31
0.0
100
AcDbText
  0
TEXT
  5
6C
330
65
100
AcDbEntity
  8
図枠細線
  6
CONTINUOUS
 62
   252
100
AcDbText
 10
274.358592505185
 20
25.927377675439
 30
0.0
 40
2.0
  1
ＤＲＡＷＮ
 41
0.882352941176
  7
EXCADSTD
 72
     5
 11
284.358592505185
 21
25.927377675439
 31
0.0
100
AcDbText
  0
TEXT
  5
6D
330
65
100
AcDbEntity
  8
図枠細線
  6
CONTINUOUS
 62
   252
100
AcDbText
 10
260.358592505185
 20
25.927377675439
 30
0.0
 40
2.0
  1
ＤＥＳＩＧＮＥＤ
 41
0.713043472041
  7
EXCADSTD
 72
     5
 11
273.478592390744
 21
25.927377675439
 31
0.0
100
AcDbText
  0
TEXT
  5
6E
330
65
100
AcDbEntity
  8
図枠細線
  6
CONTINUOUS
 62
   252
100
AcDbText
 10
246.358592505185
 20
25.927377675439
 30
0.0
 40
2.0
  1
ＣＨＥＣＫＥＤ
 41
0.831249989569
  7
EXCADSTD
 72
     5
 11
259.658592338292
 21
25.927377675439
 31
0.0
100
AcDbText
  0
TEXT
  5
6F
330
65
100
AcDbEntity
  8
図枠細線
  6
CONTINUOUS
 62
   252
100
AcDbText
 10
274.358592505185
 20
28.427377675439
 30
0.0
 40
2.0
  1
製図
 41
1.209677419355
  7
EXCADSTD
 72
     5
 11
279.358592505185
 21
28.427377675439
 31
0.0
100
AcDbText
  0
TEXT
  5
70
330
65
100
AcDbEntity
  8
図枠細線
  6
CONTINUOUS
 62
   252
100
AcDbText
 10
260.358592505185
 20
28.427377675439
 30
0.0
 40
2.0
  1
設計
 41
1.171875
  7
EXCADSTD
 72
     5
 11
265.358592505185
 21
28.427377675439
 31
0.0
100
AcDbText
  0
TEXT
  5
71
330
65
100
AcDbEntity
  8
図枠細線
  6
CONTINUOUS
 62
   252
100
AcDbText
 10
246.358592505185
 20
28.427377675439
 30
0.0
 40
2.0
  1
検図
 41
1.209677419355
  7
EXCADSTD
 72
     5
 11
251.358592505185
 21
28.427377675439
 31
0.0
100
AcDbText
  0
TEXT
  5
72
330
65
100
AcDbEntity
  8
図枠細線
  6
CONTINUOUS
 62
   252
100
AcDbText
 10
232.358592505185
 20
25.927377675439
 30
0.0
 40
2.0
  1
ＡＰＰＲＯＶＥＤ
 41
0.695652184279
  7
EXCADSTD
 72
     5
 11
245.15859269592
 21
25.927377675439
 31
0.0
100
AcDbText
  0
TEXT
  5
73
330
65
100
AcDbEntity
  8
図枠細線
  6
CONTINUOUS
 62
   252
100
AcDbText
 10
232.358592505185
 20
28.427377675439
 30
0.0
 40
2.0
  1
承認
 41
1.171875
  7
EXCADSTD
 72
     5
 11
237.358592505185
 21
28.427377675439
 31
0.0
100
AcDbText
  0
TEXT
  5
74
330
65
100
AcDbEntity
  8
図枠細線
  6
CONTINUOUS
 62
   252
100
AcDbText
 10
290.069888505185
 20
2.574868675439
 30
0.0
 40
3.5
  1
ＴＯＷＡ　ＳＥＩＤＥＮ　ＩＮＤＵＳＴＲＩＡＬ　ＣＯ．，ＬＴＤ．
 41
0.414568012377
  7
EXCADSTD
 72
     5
 11
342.692388209546
 21
2.574868675439
 31
0.0
100
AcDbText
  0
TEXT
  5
75
330
65
100
AcDbEntity
  8
図枠ロゴマーク
  6
CONTINUOUS
 62
   253
100
AcDbText
 10
290.107348505185
 20
7.519769675439
 30
0.0
 40
7.0
  1
東和制電工業株式会社
 41
0.639204545455
  7
EXCADSTD
 72
     5
 11
342.607348505185
 21
7.519769675439
 31
0.0
100
AcDbText
  0
TEXT
  5
76
330
65
100
AcDbEntity
  8
図枠細線
  6
CONTINUOUS
 62
   252
100
AcDbText
 10
232.499705505185
 20
5.759088675439
 30
0.0
 40
2.0
  1
ＰＲＯＪＥＣＴＩＯＮ
 41
0.754285710199
  7
EXCADSTD
 72
     5
 11
250.099705409817
 21
5.759088675439
 31
0.0
100
AcDbText
  0
TEXT
  5
77
330
65
100
AcDbEntity
  8
図枠細線
  6
CONTINUOUS
 62
   252
100
AcDbText
 10
232.574629505185
 20
8.681077675439
 30
0.0
 40
2.0
  1
ＴＨＩＲＤ　ＡＮＧＬＥ
 41
0.691099486738
  7
EXCADSTD
 72
     5
 11
250.174629767445
 21
8.681077675439
 31
0.0
100
AcDbText
  0
TEXT
  5
78
330
65
100
AcDbEntity
  8
図枠細線
  6
CONTINUOUS
 62
   252
100
AcDbText
 10
256.823999505185
 20
13.427377675439
 30
0.0
 40
2.0
  1
ＳＣＡＬＥ
 41
0.903614457831
  7
EXCADSTD
 72
     5
 11
266.823999505185
 21
13.427377675439
 31
0.0
100
AcDbText
  0
TEXT
  5
79
330
65
100
AcDbEntity
  8
図枠細線
  6
CONTINUOUS
 62
   252
100
AcDbText
 10
274.858592505185
 20
13.427377675439
 30
0.0
 40
2.0
  1
ＤＡＴＥ
 41
0.923076923077
  7
EXCADSTD
 72
     5
 11
282.858592505185
 21
13.427377675439
 31
0.0
100
AcDbText
  0
TEXT
  5
7A
330
65
100
AcDbEntity
  8
図枠細線
  6
CONTINUOUS
 62
   252
100
AcDbText
 10
356.358592505185
 20
13.427377675439
 30
0.0
 40
2.0
  1
ＤＲＧ．ＮＯ．
 41
0.9375
  7
EXCADSTD
 72
     5
 11
370.358592505185
 21
13.427377675439
 31
0.0
100
AcDbText
  0
TEXT
  5
7B
330
65
100
AcDbEntity
  8
図枠細線
  6
CONTINUOUS
 62
   252
100
AcDbText
 10
345.358592505185
 20
13.427377675439
 30
0.0
 40
2.0
  1
図面番号
 41
1.102941176471
  7
EXCADSTD
 72
     5
 11
355.358592505185
 21
13.427377675439
 31
0.0
100
AcDbText
  0
TEXT
  5
7C
330
65
100
AcDbEntity
  8
図枠細線
  6
CONTINUOUS
 62
   252
100
AcDbText
 10
269.358592505185
 20
13.427377675439
 30
0.0
 40
2.0
  1
日付
 41
1.171875
  7
EXCADSTD
 72
     5
 11
274.358592505185
 21
13.427377675439
 31
0.0
100
AcDbText
  0
TEXT
  5
7D
330
65
100
AcDbEntity
  8
図枠細線
  6
CONTINUOUS
 62
   252
100
AcDbText
 10
251.451512505185
 20
13.427377675439
 30
0.0
 40
2.0
  1
尺度
 41
1.171875
  7
EXCADSTD
 72
     5
 11
256.451512505185
 21
13.427377675439
 31
0.0
100
AcDbText
  0
TEXT
  5
7E
330
65
100
AcDbEntity
  8
図枠細線
  6
CONTINUOUS
 62
   252
100
AcDbText
 10
232.358592505185
 20
13.427377675439
 30
0.0
 40
2.0
  1
第三角法
 41
1.102941176471
  7
EXCADSTD
 72
     5
 11
242.358592505185
 21
13.427377675439
 31
0.0
100
AcDbText
  0
TEXT
  5
7F
330
65
100
AcDbEntity
  8
図枠細線
  6
CONTINUOUS
 62
   252
100
AcDbText
 10
212.358592505185
 20
28.427377675439
 30
0.0
 40
2.0
  1
ＮＯＴＥ
 41
0.923076923077
  7
EXCADSTD
 72
     5
 11
220.358592505185
 21
28.427377675439
 31
0.0
100
AcDbText
  0
LINE
  5
80
330
65
100
AcDbEntity
  8
図枠細線
  6
CONTINUOUS
 62
   252
100
AcDbLine
 10
287.858592505185
 20
23.427375675439
 30
0.0
 11
344.858592505185
 21
23.427375675439
 31
0.0
  0
LINE
  5
81
330
65
100
AcDbEntity
  8
図枠太線
  6
CONTINUOUS
 62
   251
100
AcDbLine
 10
287.858584505185
 20
15.927375675439
 30
0.0
 11
344.858592505185
 21
15.927375675439
 31
0.0
  0
LINE
  5
82
330
65
100
AcDbEntity
  8
図枠細線
  6
CONTINUOUS
 62
   252
100
AcDbLine
 10
344.858592505185
 20
15.927375675439
 30
0.0
 11
401.858584505185
 21
15.927375675439
 31
0.0
  0
LINE
  5
83
330
65
100
AcDbEntity
  8
図枠太線
  6
CONTINUOUS
 62
   251
100
AcDbLine
 10
344.858592505185
 20
0.927377675439
 30
0.0
 11
344.858592505185
 21
30.927375675439
 31
0.0
  0
LINE
  5
84
330
65
100
AcDbEntity
  8
図枠太線
  6
CONTINUOUS
 62
   251
100
AcDbLine
 10
287.858592505185
 20
0.927377675439
 30
0.0
 11
287.858592505185
 21
30.927375675439
 31
0.0
  0
LINE
  5
85
330
65
100
AcDbEntity
  8
図枠細線
  6
CONTINUOUS
 62
   252
100
AcDbLine
 10
268.858592505185
 20
0.927377675439
 30
0.0
 11
268.858592505185
 21
15.927375675439
 31
0.0
  0
LINE
  5
86
330
65
100
AcDbEntity
  8
図枠細線
  6
CONTINUOUS
 62
   252
100
AcDbLine
 10
250.858592505185
 20
0.927377675439
 30
0.0
 11
250.858592505185
 21
15.927375675439
 31
0.0
  0
LINE
  5
87
330
65
100
AcDbEntity
  8
図枠細線
  6
CONTINUOUS
 62
   252
100
AcDbLine
 10
273.858592505185
 20
30.927375675439
 30
0.0
 11
273.858592505185
 21
15.927375675439
 31
0.0
  0
LINE
  5
88
330
65
100
AcDbEntity
  8
図枠細線
  6
CONTINUOUS
 62
   252
100
AcDbLine
 10
259.858592505185
 20
30.927375675439
 30
0.0
 11
259.858592505185
 21
15.927375675439
 31
0.0
  0
LINE
  5
89
330
65
100
AcDbEntity
  8
図枠細線
  6
CONTINUOUS
 62
   252
100
AcDbLine
 10
245.858592505185
 20
30.927375675439
 30
0.0
 11
245.858592505185
 21
15.927375675439
 31
0.0
  0
LINE
  5
8A
330
65
100
AcDbEntity
  8
図枠太線
  6
CONTINUOUS
 62
   251
100
AcDbLine
 10
231.858592505185
 20
0.927377675439
 30
0.0
 11
231.858592505185
 21
30.927375675439
 31
0.0
  0
LINE
  5
8B
330
65
100
AcDbEntity
  8
図枠細線
  6
CONTINUOUS
 62
   252
100
AcDbLine
 10
211.858592505185
 20
25.927375675439
 30
0.0
 11
231.858592505185
 21
25.927375675439
 31
0.0
  0
LINE
  5
8C
330
65
100
AcDbEntity
  8
図枠細線
  6
CONTINUOUS
 62
   252
100
AcDbLine
 10
211.858592505185
 20
20.927375675439
 30
0.0
 11
231.858592505185
 21
20.927375675439
 31
0.0
  0
LINE
  5
8D
330
65
100
AcDbEntity
  8
図枠細線
  6
CONTINUOUS
 62
   252
100
AcDbLine
 10
211.858592505185
 20
10.927375675439
 30
0.0
 11
231.858592505185
 21
10.927375675439
 31
0.0
  0
LINE
  5
8E
330
65
100
AcDbEntity
  8
図枠細線
  6
CONTINUOUS
 62
   252
100
AcDbLine
 10
211.858592505185
 20
5.927377675439
 30
0.0
 11
231.858592505185
 21
5.927377675439
 31
0.0
  0
LINE
  5
8F
330
65
100
AcDbEntity
  8
図枠太線
  6
CONTINUOUS
 62
   251
100
AcDbLine
 10
211.858592505185
 20
30.927375675439
 30
0.0
 11
401.858584505185
 21
30.927375675439
 31
0.0
  0
LINE
  5
90
330
65
100
AcDbEntity
  8
図枠太線
  6
CONTINUOUS
 62
   251
100
AcDbLine
 10
1.858584505185
 20
275.927375675439
 30
0.0
 11
401.858584505185
 21
275.927375675439
 31
0.0
  0
LINE
  5
91
330
65
100
AcDbEntity
  8
図枠太線
  6
CONTINUOUS
 62
   251
100
AcDbLine
 10
401.858584505185
 20
0.927375675439
 30
0.0
 11
401.858584505185
 21
275.927375675439
 31
0.0
  0
LINE
  5
92
330
65
100
AcDbEntity
  8
図枠太線
  6
CONTINUOUS
 62
   251
100
AcDbLine
 10
1.858584505185
 20
0.927375675439
 30
0.0
 11
401.858584505185
 21
0.927375675439
 31
0.0
  0
ENDBLK
  5
94
330
65
100
AcDbEntity
  8
0
100
AcDbBlockEnd
  0
BLOCK
  5
29C0
330
29BF
100
AcDbEntity
  8
0
100
AcDbBlockBegin
  2
A4横用_タイトル
 70
     0
 10
0.0
 20
0.0
 30
0.0
  3
A4横用_タイトル
  1

  0
LINE
  5
29C1
330
29BF
100
AcDbEntity
  8
図枠細線
  6
CONTINUOUS
100
AcDbLine
 10
75.061011071051
 20
16.806607253358
 30
0.0
 11
144.061011071051
 21
16.806604789072
 31
0.0
  0
LINE
  5
29C2
330
29BF
100
AcDbEntity
  8
図枠細線
  6
CONTINUOUS
 62
   252
100
AcDbLine
 10
4.061011071051
 20
11.806606253358
 30
0.0
 11
75.061011071051
 21
11.806606253358
 31
0.0
  0
LINE
  5
29C3
330
29BF
100
AcDbEntity
  8
図枠細線
  6
CONTINUOUS
 62
   252
100
AcDbLine
 10
4.061011071051
 20
21.806606253358
 30
0.0
 11
75.061011071051
 21
21.806606253358
 31
0.0
  0
LINE
  5
29C4
330
29BF
100
AcDbEntity
  8
図枠細線
  6
CONTINUOUS
 62
   252
100
AcDbLine
 10
4.061011071051
 20
26.806606253358
 30
0.0
 11
75.061011071051
 21
26.806606253358
 31
0.0
  0
LINE
  5
29C5
330
29BF
100
AcDbEntity
  8
図枠細線
  6
CONTINUOUS
100
AcDbLine
 10
4.061011071051
 20
16.806608253358
 30
0.0
 11
75.061011071051
 21
16.806608253358
 31
0.0
  0
TEXT
  5
29C6
330
29BF
100
AcDbEntity
  8
図枠細線
  6
CONTINUOUS
 62
   252
100
AcDbText
 10
76.405475827713
 20
9.560308253358
 30
0.0
 40
2.0
  1
ＴＨＩＲＤ　ＡＮＧＬＥ
 41
0.691099486738
  7
EXCADSTD
 72
     5
 11
94.005476089973
 21
9.560308253358
 31
0.0
100
AcDbText
  0
TEXT
  5
29C7
330
29BF
100
AcDbEntity
  8
図枠細線
  6
CONTINUOUS
 62
   252
100
AcDbText
 10
76.705775880921
 20
14.306608253358
 30
0.0
 40
2.0
  1
第三角法
 41
1.102941176471
  7
EXCADSTD
 72
     5
 11
86.705775880921
 21
14.306608253358
 31
0.0
100
AcDbText
  0
TEXT
  5
29C8
330
29BF
100
AcDbEntity
  8
図枠細線
  6
CONTINUOUS
 62
   252
100
AcDbText
 10
76.705775880921
 20
26.806608253358
 30
0.0
 40
2.0
  1
ＡＰＰＲＯＶＥＤ
 41
0.695652184279
  7
EXCADSTD
 72
     5
 11
89.505776071656
 21
26.806608253358
 31
0.0
100
AcDbText
  0
TEXT
  5
29C9
330
29BF
100
AcDbEntity
  8
図枠細線
  6
CONTINUOUS
 62
   252
100
AcDbText
 10
76.705775880921
 20
29.306608253358
 30
0.0
 40
2.0
  1
承認
 41
1.171875
  7
EXCADSTD
 72
     5
 11
81.705775880921
 21
29.306608253358
 31
0.0
100
AcDbText
  0
LINE
  5
29CA
330
29BF
100
AcDbEntity
  8
図枠細線
  6
CONTINUOUS
 62
   252
100
AcDbLine
 10
98.061011071051
 20
31.806606253358
 30
0.0
 11
98.061011071051
 21
16.806606253358
 31
0.0
  0
TEXT
  5
29CB
330
29BF
100
AcDbEntity
  8
図枠細線
  6
CONTINUOUS
 62
   252
100
AcDbText
 10
104.216531119804
 20
14.306608253358
 30
0.0
 40
2.0
  1
ＳＣＡＬＥ
 41
0.903614457831
  7
EXCADSTD
 72
     5
 11
114.216531119804
 21
14.306608253358
 31
0.0
100
AcDbText
  0
TEXT
  5
29CC
330
29BF
100
AcDbEntity
  8
図枠細線
  6
CONTINUOUS
 62
   252
100
AcDbText
 10
98.844044119804
 20
14.306608253358
 30
0.0
 40
2.0
  1
尺度
 41
1.171875
  7
EXCADSTD
 72
     5
 11
103.844044119804
 21
14.306608253358
 31
0.0
100
AcDbText
  0
TEXT
  5
29CD
330
29BF
100
AcDbEntity
  8
図枠細線
  6
CONTINUOUS
 62
   252
100
AcDbText
 10
98.968727707497
 20
26.806608253358
 30
0.0
 40
2.0
  1
ＣＨＥＣＫＥＤ
 41
0.831249989569
  7
EXCADSTD
 72
     5
 11
112.268727540604
 21
26.806608253358
 31
0.0
100
AcDbText
  0
TEXT
  5
29CE
330
29BF
100
AcDbEntity
  8
図枠細線
  6
CONTINUOUS
 62
   252
100
AcDbText
 10
98.968727707497
 20
29.306608253358
 30
0.0
 40
2.0
  1
検図
 41
1.209677419355
  7
EXCADSTD
 72
     5
 11
103.968727707497
 21
29.306608253358
 31
0.0
100
AcDbText
  0
LINE
  5
29CF
330
29BF
100
AcDbEntity
  8
図枠細線
  6
CONTINUOUS
 62
   252
100
AcDbLine
 10
121.061011071051
 20
31.806606253358
 30
0.0
 11
121.061011071051
 21
16.806606253358
 31
0.0
  0
TEXT
  5
29D0
330
29BF
100
AcDbEntity
  8
図枠細線
  6
CONTINUOUS
 62
   252
100
AcDbText
 10
128.001465247253
 20
14.306608253358
 30
0.0
 40
2.0
  1
ＤＡＴＥ
 41
0.923076923077
  7
EXCADSTD
 72
     5
 11
136.001465247253
 21
14.306608253358
 31
0.0
100
AcDbText
  0
TEXT
  5
29D1
330
29BF
100
AcDbEntity
  8
図枠細線
  6
CONTINUOUS
 62
   252
100
AcDbText
 10
122.066415498841
 20
14.306608253358
 30
0.0
 40
2.0
  1
日付
 41
1.171875
  7
EXCADSTD
 72
     5
 11
127.066415498841
 21
14.306608253358
 31
0.0
100
AcDbText
  0
TEXT
  5
29D2
330
29BF
100
AcDbEntity
  8
図枠細線
  6
CONTINUOUS
 62
   252
100
AcDbText
 10
121.59429406571
 20
29.306608253358
 30
0.0
 40
2.0
  1
製図
 41
1.209677419355
  7
EXCADSTD
 72
     5
 11
126.59429406571
 21
29.306608253358
 31
0.0
100
AcDbText
  0
TEXT
  5
29D3
330
29BF
100
AcDbEntity
  8
図枠細線
  6
CONTINUOUS
 62
   252
100
AcDbText
 10
121.59429406571
 20
26.806608253358
 30
0.0
 40
2.0
  1
ＤＲＡＷＮ
 41
0.882352941176
  7
EXCADSTD
 72
     5
 11
131.59429406571
 21
26.806608253358
 31
0.0
100
AcDbText
  0
TEXT
  5
29D4
330
29BF
100
AcDbEntity
  8
図枠細線
  6
CONTINUOUS
 62
   252
100
AcDbText
 10
226.591229661348
 20
14.306608253358
 30
0.0
 40
2.0
  1
ＤＲＧ．ＮＯ．
 41
0.9375
  7
EXCADSTD
 72
     5
 11
240.591229661348
 21
14.306608253358
 31
0.0
100
AcDbText
  0
LINE
  5
29D5
330
29BF
100
AcDbEntity
  8
図枠太線
  6
CONTINUOUS
 62
   251
100
AcDbLine
 10
144.061003071051
 20
16.806606253358
 30
0.0
 11
214.061011071051
 21
16.806606253358
 31
0.0
  0
LINE
  5
29D6
330
29BF
100
AcDbEntity
  8
図枠細線
  6
CONTINUOUS
 62
   252
100
AcDbLine
 10
144.061011071051
 20
24.306606253358
 30
0.0
 11
214.061011071051
 21
24.306606253358
 31
0.0
  0
TEXT
  5
29D7
330
29BF
100
AcDbEntity
  8
図枠ロゴマーク
  6
CONTINUOUS
 62
   253
100
AcDbText
 10
146.433776781596
 20
8.399000253358
 30
0.0
 40
7.0
  1
東和制電工業株式会社
 41
0.80361088462
  7
EXCADSTD
 72
     5
 11
212.437017438349
 21
8.399000253358
 31
0.0
100
AcDbText
  0
TEXT
  5
29D8
330
29BF
100
AcDbEntity
  8
図枠細線
  6
CONTINUOUS
 62
   252
100
AcDbText
 10
215.156179912936
 20
14.306608253358
 30
0.0
 40
2.0
  1
図面番号
 41
1.102941176471
  7
EXCADSTD
 72
     5
 11
225.156179912936
 21
14.306608253358
 31
0.0
100
AcDbText
  0
TEXT
  5
29D9
330
29BF
100
AcDbEntity
  8
図枠細線
  6
CONTINUOUS
 62
   252
100
AcDbText
 10
221.591229661348
 20
29.306608253358
 30
0.0
 40
2.0
  1
ＴＩＴＬＥ
 41
0.903614457831
  7
EXCADSTD
 72
     5
 11
231.591229661348
 21
29.306608253358
 31
0.0
100
AcDbText
  0
TEXT
  5
29DA
330
29BF
100
AcDbEntity
  8
図枠細線
  6
CONTINUOUS
 62
   252
100
AcDbText
 10
215.156179912936
 20
29.306608253358
 30
0.0
 40
2.0
  1
名称
 41
1.171875
  7
EXCADSTD
 72
     5
 11
220.156179912936
 21
29.306608253358
 31
0.0
100
AcDbText
  0
LINE
  5
29DB
330
29BF
100
AcDbEntity
  8
図枠太線
  6
CONTINUOUS
 62
   251
100
AcDbLine
 10
4.061011071051
 20
1.806608253358
 30
0.0
 11
284.061011071051
 21
1.806608253358
 31
0.0
  0
LINE
  5
29DC
330
29BF
100
AcDbEntity
  8
図枠細線
  6
CONTINUOUS
 62
   252
100
AcDbLine
 10
4.061011071051
 20
6.806608253358
 30
0.0
 11
75.061011071051
 21
6.806608253358
 31
0.0
  0
LINE
  5
29DD
330
29BF
100
AcDbEntity
  8
図枠太線
  6
CONTINUOUS
 62
   251
100
AcDbLine
 10
75.061011071051
 20
1.806608253358
 30
0.0
 11
75.061011071051
 21
31.806606253358
 31
0.0
  0
TEXT
  5
29DE
330
29BF
100
AcDbEntity
  8
図枠細線
  6
CONTINUOUS
 62
   252
100
AcDbText
 10
76.330551827713
 20
6.638319253358
 30
0.0
 40
2.0
  1
ＰＲＯＪＥＣＴＩＯＮ
 41
0.754285710199
  7
EXCADSTD
 72
     5
 11
93.930551732346
 21
6.638319253358
 31
0.0
100
AcDbText
  0
LINE
  5
29DF
330
29BF
100
AcDbEntity
  8
図枠細線
  6
CONTINUOUS
 62
   252
100
AcDbLine
 10
98.061011071051
 20
1.806606931929
 30
0.0
 11
98.061011071051
 21
16.806604931929
 31
0.0
  0
LINE
  5
29E0
330
29BF
100
AcDbEntity
  8
図枠細線
  6
CONTINUOUS
 62
   252
100
AcDbLine
 10
121.061011071051
 20
1.806607574787
 30
0.0
 11
121.061011071051
 21
16.806605574787
 31
0.0
  0
LINE
  5
29E1
330
29BF
100
AcDbEntity
  8
図枠太線
  6
CONTINUOUS
 62
   251
100
AcDbLine
 10
284.061011071051
 20
1.806608253358
 30
0.0
 11
284.061011071051
 21
31.806606253358
 31
0.0
  0
LINE
  5
29E2
330
29BF
100
AcDbEntity
  8
図枠細線
  6
CONTINUOUS
 62
   252
100
AcDbLine
 10
214.061011071051
 20
16.806606253358
 30
0.0
 11
284.061011071051
 21
16.806606253358
 31
0.0
  0
TEXT
  5
29E3
330
29BF
100
AcDbEntity
  8
図枠細線
  6
CONTINUOUS
 62
   252
100
AcDbText
 10
146.199593676182
 20
3.454099253358
 30
0.0
 40
3.5
  1
ＴＯＷＡ　ＳＥＩＤＥＮ　ＩＮＤＵＳＴＲＩＡＬ　ＣＯ．，ＬＴＤ．
 41
0.528937826907
  7
EXCADSTD
 72
     5
 11
213.339435171588
 21
3.454099253358
 31
0.0
100
AcDbText
  0
LINE
  5
29E4
330
29BF
100
AcDbEntity
  8
図枠太線
  6
CONTINUOUS
 62
   251
100
AcDbLine
 10
144.061011071051
 20
1.806608253358
 30
0.0
 11
144.061011071051
 21
31.806606253358
 31
0.0
  0
LINE
  5
29E5
330
29BF
100
AcDbEntity
  8
図枠太線
  6
CONTINUOUS
 62
   251
100
AcDbLine
 10
214.061011071051
 20
1.806608253358
 30
0.0
 11
214.061011071051
 21
31.806606253358
 31
0.0
  0
MTEXT
  5
29E6
330
29BF
100
AcDbEntity
  8
図枠太線
100
AcDbMText
 10
5.064337346478
 20
31.010982137407
 30
0.0
 40
2.5
 41
8.67856098472
 71
     1
 72
     5
  1
{\Fmonotxt.shx,bigfont.shx|c128;図暦}
  0
LINE
  5
29E7
330
29BF
100
AcDbEntity
  8
図枠太線
  6
CONTINUOUS
 62
   251
100
AcDbLine
 10
4.061011071051
 20
1.806608253358
 30
0.0
 11
4.061011071051
 21
31.806606253358
 31
0.0
  0
TEXT
  5
29E8
330
29BF
100
AcDbEntity
  8
図枠細線
 48
10.0
100
AcDbText
 10
12.260817420402
 20
28.625419626495
 30
0.0
 40
2.0
  1
CHANGE NOTICE
100
AcDbText
  0
ENDBLK
  5
29E9
330
29BF
100
AcDbEntity
  8
0
100
AcDbBlockEnd
  0
BLOCK
  5
29F5
330
29F4
100
AcDbEntity
  8
0
100
AcDbBlockBegin
  2
A4縦用_タイトル
 70
     0
 10
0.0
 20
0.0
 30
0.0
  3
A4縦用_タイトル
  1

  0
LINE
  5
29F6
330
29F4
100
AcDbEntity
  8
図枠太線
  6
CONTINUOUS
 62
   251
100
AcDbLine
 10
2.368253864267
 20
4.525433224584
 30
0.0
 11
192.368245864267
 21
4.525433224584
 31
0.0
  0
LINE
  5
29F7
330
29F4
100
AcDbEntity
  8
図枠太線
  6
CONTINUOUS
 62
   251
100
AcDbLine
 10
78.368245864267
 20
19.525431224584
 30
0.0
 11
135.368253864267
 21
19.525431224584
 31
0.0
  0
LINE
  5
29F8
330
29F4
100
AcDbEntity
  8
図枠細線
  6
CONTINUOUS
 62
   252
100
AcDbLine
 10
78.368253864267
 20
27.025431224584
 30
0.0
 11
135.368253864267
 21
27.025431224584
 31
0.0
  0
TEXT
  5
29F9
330
29F4
100
AcDbEntity
  8
図枠ロゴマーク
  6
CONTINUOUS
 62
   253
100
AcDbText
 10
80.617009864267
 20
11.117825224584
 30
0.0
 40
7.0
  1
東和制電工業株式会社
 41
0.639204545455
  7
EXCADSTD
 72
     5
 11
133.117009864267
 21
11.117825224584
 31
0.0
100
AcDbText
  0
TEXT
  5
29FA
330
29F4
100
AcDbEntity
  8
図枠細線
  6
CONTINUOUS
 62
   252
100
AcDbText
 10
80.579549864267
 20
6.172924224584
 30
0.0
 40
3.5
  1
ＴＯＷＡ　ＳＥＩＤＥＮ　ＩＮＤＵＳＴＲＩＡＬ　ＣＯ．，ＬＴＤ．
 41
0.414568012377
  7
EXCADSTD
 72
     5
 11
133.202049568628
 21
6.172924224584
 31
0.0
100
AcDbText
  0
LINE
  5
29FB
330
29F4
100
AcDbEntity
  8
図枠太線
  6
CONTINUOUS
 62
   251
100
AcDbLine
 10
2.368253864267
 20
4.525433224584
 30
0.0
 11
2.368253864267
 21
34.525431224584
 31
0.0
  0
TEXT
  5
29FC
330
29F4
100
AcDbEntity
  8
図枠細線
  6
CONTINUOUS
 62
   252
100
AcDbText
 10
22.504308136501
 20
12.279133224584
 30
0.0
 40
2.0
  1
ＴＨＩＲＤ　ＡＮＧＬＥ
 41
0.691099486738
  7
EXCADSTD
 72
     5
 11
40.104308398762
 21
12.279133224584
 31
0.0
100
AcDbText
  0
TEXT
  5
29FD
330
29F4
100
AcDbEntity
  8
図枠細線
  6
CONTINUOUS
 62
   252
100
AcDbText
 10
22.429384136501
 20
9.357144224584
 30
0.0
 40
2.0
  1
ＰＲＯＪＥＣＴＩＯＮ
 41
0.754285710199
  7
EXCADSTD
 72
     5
 11
40.029384041134
 21
9.357144224584
 31
0.0
100
AcDbText
  0
LINE
  5
29FE
330
29F4
100
AcDbEntity
  8
図枠細線
  6
CONTINUOUS
100
AcDbLine
 10
22.368253864267
 20
19.525433224584
 30
0.0
 11
78.368253864267
 21
19.525431224584
 31
0.0
  0
TEXT
  5
29FF
330
29F4
100
AcDbEntity
  8
図枠細線
  6
CONTINUOUS
 62
   252
100
AcDbText
 10
22.868253864267
 20
17.025433224584
 30
0.0
 40
2.0
  1
第三角法
 41
1.102941176471
  7
EXCADSTD
 72
     5
 11
32.868253864267
 21
17.025433224584
 31
0.0
100
AcDbText
  0
TEXT
  5
2A00
330
29F4
100
AcDbEntity
  8
図枠細線
  6
CONTINUOUS
 62
   252
100
AcDbText
 10
22.868253864267
 20
29.525433224584
 30
0.0
 40
2.0
  1
ＡＰＰＲＯＶＥＤ
 41
0.695652184279
  7
EXCADSTD
 72
     5
 11
35.668254055002
 21
29.525433224584
 31
0.0
100
AcDbText
  0
LINE
  5
2A01
330
29F4
100
AcDbEntity
  8
図枠細線
  6
CONTINUOUS
 62
   252
100
AcDbLine
 10
2.368253864267
 20
9.525433224584
 30
0.0
 11
22.368253864267
 21
9.525433224584
 31
0.0
  0
LINE
  5
2A02
330
29F4
100
AcDbEntity
  8
図枠細線
  6
CONTINUOUS
 62
   252
100
AcDbLine
 10
2.368253864267
 20
14.525431224584
 30
0.0
 11
22.368253864267
 21
14.525431224584
 31
0.0
  0
LINE
  5
2A03
330
29F4
100
AcDbEntity
  8
図枠細線
  6
CONTINUOUS
 62
   252
100
AcDbLine
 10
2.368253864267
 20
24.525431224584
 30
0.0
 11
22.368253864267
 21
24.525431224584
 31
0.0
  0
LINE
  5
2A04
330
29F4
100
AcDbEntity
  8
図枠細線
  6
CONTINUOUS
 62
   252
100
AcDbLine
 10
2.368253864267
 20
29.525431224584
 30
0.0
 11
22.368253864267
 21
29.525431224584
 31
0.0
  0
LINE
  5
2A05
330
29F4
100
AcDbEntity
  8
図枠細線
  6
CONTINUOUS
100
AcDbLine
 10
2.368253864267
 20
19.525433224584
 30
0.0
 11
22.368253864267
 21
19.525433224584
 31
0.0
  0
TEXT
  5
2A06
330
29F4
100
AcDbEntity
  8
図枠細線
  6
CONTINUOUS
 62
   252
100
AcDbText
 10
2.868253864267
 20
32.025433224584
 30
0.0
 40
2.0
  1
ＮＯＴＥ
 41
0.923076923077
  7
EXCADSTD
 72
     5
 11
10.868253864267
 21
32.025433224584
 31
0.0
100
AcDbText
  0
LINE
  5
2A07
330
29F4
100
AcDbEntity
  8
図枠太線
  6
CONTINUOUS
 62
   251
100
AcDbLine
 10
22.368253864267
 20
4.525433224584
 30
0.0
 11
22.368253864267
 21
34.525431224584
 31
0.0
  0
TEXT
  5
2A08
330
29F4
100
AcDbEntity
  8
図枠細線
  6
CONTINUOUS
 62
   252
100
AcDbText
 10
22.868253864267
 20
32.025433224584
 30
0.0
 40
2.0
  1
承認
 41
1.171875
  7
EXCADSTD
 72
     5
 11
27.868253864267
 21
32.025433224584
 31
0.0
100
AcDbText
  0
TEXT
  5
2A09
330
29F4
100
AcDbEntity
  8
図枠細線
  6
CONTINUOUS
 62
   252
100
AcDbText
 10
60.711709035982
 20
32.025433224584
 30
0.0
 40
2.0
  1
製図
 41
1.209677419355
  7
EXCADSTD
 72
     5
 11
65.711709035982
 21
32.025433224584
 31
0.0
100
AcDbText
  0
TEXT
  5
2A0A
330
29F4
100
AcDbEntity
  8
図枠細線
  6
CONTINUOUS
 62
   252
100
AcDbText
 10
60.711709035982
 20
29.525433224584
 30
0.0
 40
2.0
  1
ＤＲＡＷＮ
 41
0.882352941176
  7
EXCADSTD
 72
     5
 11
70.711709035982
 21
29.525433224584
 31
0.0
100
AcDbText
  0
TEXT
  5
2A0B
330
29F4
100
AcDbEntity
  8
図枠細線
  6
CONTINUOUS
 62
   252
100
AcDbText
 10
60.834891743877
 20
17.025433224584
 30
0.0
 40
2.0
  1
日付
 41
1.171875
  7
EXCADSTD
 72
     5
 11
65.834891743877
 21
17.025433224584
 31
0.0
100
AcDbText
  0
TEXT
  5
2A0C
330
29F4
100
AcDbEntity
  8
図枠細線
  6
CONTINUOUS
 62
   252
100
AcDbText
 10
47.333660864267
 20
17.025433224584
 30
0.0
 40
2.0
  1
ＳＣＡＬＥ
 41
0.903614457831
  7
EXCADSTD
 72
     5
 11
57.333660864267
 21
17.025433224584
 31
0.0
100
AcDbText
  0
TEXT
  5
2A0D
330
29F4
100
AcDbEntity
  8
図枠細線
  6
CONTINUOUS
 62
   252
100
AcDbText
 10
42.281425990082
 20
29.525433224584
 30
0.0
 40
2.0
  1
ＣＨＥＣＫＥＤ
 41
0.831249989569
  7
EXCADSTD
 72
     5
 11
55.581425823189
 21
29.525433224584
 31
0.0
100
AcDbText
  0
LINE
  5
2A0E
330
29F4
100
AcDbEntity
  8
図枠細線
  6
CONTINUOUS
 62
   252
100
AcDbLine
 10
40.968253864267
 20
34.525431224584
 30
0.0
 11
40.968253864267
 21
19.525431224584
 31
0.0
  0
LINE
  5
2A0F
330
29F4
100
AcDbEntity
  8
図枠細線
  6
CONTINUOUS
 62
   252
100
AcDbLine
 10
40.968253864267
 20
4.525433224584
 30
0.0
 11
40.968253864267
 21
19.525431224584
 31
0.0
  0
TEXT
  5
2A10
330
29F4
100
AcDbEntity
  8
図枠細線
  6
CONTINUOUS
 62
   252
100
AcDbText
 10
41.961173864267
 20
17.025433224584
 30
0.0
 40
2.0
  1
尺度
 41
1.171875
  7
EXCADSTD
 72
     5
 11
46.961173864267
 21
17.025433224584
 31
0.0
100
AcDbText
  0
TEXT
  5
2A11
330
29F4
100
AcDbEntity
  8
図枠細線
  6
CONTINUOUS
 62
   252
100
AcDbText
 10
42.281425990082
 20
32.025433224584
 30
0.0
 40
2.0
  1
検図
 41
1.209677419355
  7
EXCADSTD
 72
     5
 11
47.281425990082
 21
32.025433224584
 31
0.0
100
AcDbText
  0
LINE
  5
2A12
330
29F4
100
AcDbEntity
  8
図枠細線
  6
CONTINUOUS
 62
   252
100
AcDbLine
 10
59.768253864267
 20
34.525431224584
 30
0.0
 11
59.768253864267
 21
19.525431224584
 31
0.0
  0
LINE
  5
2A13
330
29F4
100
AcDbEntity
  8
図枠細線
  6
CONTINUOUS
 62
   252
100
AcDbLine
 10
59.768253864267
 20
4.525433224584
 30
0.0
 11
59.768253864267
 21
19.525431224584
 31
0.0
  0
LINE
  5
2A14
330
29F4
100
AcDbEntity
  8
図枠太線
  6
CONTINUOUS
 62
   251
100
AcDbLine
 10
78.368253864267
 20
4.525433224584
 30
0.0
 11
78.368253864267
 21
34.525431224584
 31
0.0
  0
TEXT
  5
2A15
330
29F4
100
AcDbEntity
  8
図枠細線
  6
CONTINUOUS
 62
   252
100
AcDbText
 10
66.334891743877
 20
17.025433224584
 30
0.0
 40
2.0
  1
ＤＡＴＥ
 41
0.923076923077
  7
EXCADSTD
 72
     5
 11
74.334891743877
 21
17.025433224584
 31
0.0
100
AcDbText
  0
LINE
  5
2A16
330
29F4
100
AcDbEntity
  8
図枠細線
  6
CONTINUOUS
 62
   252
100
AcDbLine
 10
135.368253864267
 20
19.525431224584
 30
0.0
 11
192.368245864267
 21
19.525431224584
 31
0.0
  0
TEXT
  5
2A17
330
29F4
100
AcDbEntity
  8
図枠細線
  6
CONTINUOUS
 62
   252
100
AcDbText
 10
141.868253864267
 20
32.025433224584
 30
0.0
 40
2.0
  1
ＴＩＴＬＥ
 41
0.903614457831
  7
EXCADSTD
 72
     5
 11
151.868253864267
 21
32.025433224584
 31
0.0
100
AcDbText
  0
LINE
  5
2A18
330
29F4
100
AcDbEntity
  8
図枠太線
  6
CONTINUOUS
 62
   251
100
AcDbLine
 10
135.368253864267
 20
4.525433224584
 30
0.0
 11
135.368253864267
 21
34.525431224584
 31
0.0
  0
TEXT
  5
2A19
330
29F4
100
AcDbEntity
  8
図枠細線
  6
CONTINUOUS
 62
   252
100
AcDbText
 10
135.868253864267
 20
17.025433224584
 30
0.0
 40
2.0
  1
図面番号
 41
1.102941176471
  7
EXCADSTD
 72
     5
 11
145.868253864267
 21
17.025433224584
 31
0.0
100
AcDbText
  0
TEXT
  5
2A1A
330
29F4
100
AcDbEntity
  8
図枠細線
  6
CONTINUOUS
 62
   252
100
AcDbText
 10
135.868253864267
 20
32.025433224584
 30
0.0
 40
2.0
  1
名称
 41
1.171875
  7
EXCADSTD
 72
     5
 11
140.868253864267
 21
32.025433224584
 31
0.0
100
AcDbText
  0
TEXT
  5
2A1B
330
29F4
100
AcDbEntity
  8
図枠細線
  6
CONTINUOUS
 62
   252
100
AcDbText
 10
146.868253864267
 20
17.025433224584
 30
0.0
 40
2.0
  1
ＤＲＧ．ＮＯ．
 41
0.9375
  7
EXCADSTD
 72
     5
 11
160.868253864267
 21
17.025433224584
 31
0.0
100
AcDbText
  0
LINE
  5
2A1C
330
29F4
100
AcDbEntity
  8
図枠太線
  6
CONTINUOUS
 62
   251
100
AcDbLine
 10
192.368245864267
 20
4.525433224584
 30
0.0
 11
192.368245864267
 21
34.525431224584
 31
0.0
  0
ENDBLK
  5
2A1D
330
29F4
100
AcDbEntity
  8
0
100
AcDbBlockEnd
  0
BLOCK
  5
2A33
330
2A32
100
AcDbEntity
  8
0
100
AcDbBlockBegin
  2
A3横用_タイトル
 70
     0
 10
0.0
 20
0.0
 30
0.0
  3
A3横用_タイトル
  1

  0
LINE
  5
2A34
330
2A32
100
AcDbEntity
  8
図枠細線
  6
CONTINUOUS
 62
   252
100
AcDbLine
 10
205.098414535793
 20
33.525959753527
 30
0.0
 11
305.098414535793
 21
33.525959753527
 31
0.0
  0
LINE
  5
2A35
330
2A32
100
AcDbEntity
  8
図枠太線
  6
CONTINUOUS
 62
   251
100
AcDbLine
 10
205.098414535793
 20
23.525959753527
 30
0.0
 11
305.098414535793
 21
23.525959753527
 31
0.0
  0
LINE
  5
2A36
330
2A32
100
AcDbEntity
  8
図枠細線
  6
CONTINUOUS
100
AcDbLine
 10
5.098414535793
 20
23.525959753527
 30
0.0
 11
105.098414535793
 21
23.525959753527
 31
0.0
  0
LINE
  5
2A37
330
2A32
100
AcDbEntity
  8
図枠細線
  6
CONTINUOUS
 62
   252
100
AcDbLine
 10
5.098414535793
 20
36.725957753527
 30
0.0
 11
105.098414535793
 21
36.725957753527
 31
0.0
  0
LINE
  5
2A38
330
2A32
100
AcDbEntity
  8
図枠細線
  6
CONTINUOUS
 62
   252
100
AcDbLine
 10
5.098414535793
 20
30.125957753527
 30
0.0
 11
105.098414535793
 21
30.125957753527
 31
0.0
  0
LINE
  5
2A39
330
2A32
100
AcDbEntity
  8
図枠細線
  6
CONTINUOUS
 62
   252
100
AcDbLine
 10
5.098414535793
 20
16.725959753527
 30
0.0
 11
105.098414535793
 21
16.725959753527
 31
0.0
  0
LINE
  5
2A3A
330
2A32
100
AcDbEntity
  8
図枠細線
  6
CONTINUOUS
 62
   252
100
AcDbLine
 10
5.098414535793
 20
10.125959753527
 30
0.0
 11
105.098414535793
 21
10.125959753527
 31
0.0
  0
LINE
  5
2A3B
330
2A32
100
AcDbEntity
  8
図枠細線
  6
CONTINUOUS
100
AcDbLine
 10
105.098414535793
 20
23.525961753527
 30
0.0
 11
205.098414535793
 21
23.525959753527
 31
0.0
  0
LINE
  5
2A3C
330
2A32
100
AcDbEntity
  8
図枠細線
  6
CONTINUOUS
 62
   252
100
AcDbLine
 10
138.398414535793
 20
43.525959753527
 30
0.0
 11
138.398414535793
 21
18.525957753527
 31
0.0
  0
LINE
  5
2A3D
330
2A32
100
AcDbEntity
  8
図枠細線
  6
CONTINUOUS
 62
   252
100
AcDbLine
 10
171.698414535793
 20
43.525959753527
 30
0.0
 11
171.698414535793
 21
18.525957753527
 31
0.0
  0
LINE
  5
2A3E
330
2A32
100
AcDbEntity
  8
図枠細線
  6
CONTINUOUS
 62
   252
100
AcDbLine
 10
305.098414535793
 20
23.525959753527
 30
0.0
 11
405.098414535793
 21
23.525959753527
 31
0.0
  0
TEXT
  5
2A3F
330
2A32
100
AcDbEntity
  8
図枠ロゴマーク
  6
CONTINUOUS
 62
   253
100
AcDbText
 10
206.102509212755
 20
13.294257570546
 30
0.0
 40
7.0
  1
東和制電工業株式会社
 50
0.016555220185
 41
1.186384129432
  7
EXCADSTD
 72
     5
 11
303.544188309143
 21
13.322412672217
 31
0.0
100
AcDbText
  0
MTEXT
  5
2A40
330
2A32
100
AcDbEntity
  8
図枠細線
100
AcDbMText
 10
6.356764112375
 20
41.976594175478
 30
0.0
 40
2.5
 41
49.938282706292
 71
     1
 72
     5
  1
{\Fmonotxt.shx,bigfont.shx|c128;図暦　CHANGE　NOTICE}
  0
MTEXT
  5
2A41
330
2A32
100
AcDbEntity
  8
図枠細線
 48
10.0
100
AcDbMText
 10
306.544114926828
 20
41.701835800934
 30
0.0
 40
2.5
 41
28.002809618823
 71
     1
 72
     5
  1
{\Fmonotxt.shx,bigfont.shx|c128;名称　TITLE}
  0
MTEXT
  5
2A42
330
2A32
100
AcDbEntity
  8
図枠細線
 48
10.0
100
AcDbMText
 10
307.329617114284
 20
21.606206797226
 30
0.0
 40
2.5
 41
24.385612216707
 71
     1
 72
     5
  1
{\Fmonotxt.shx,bigfont.shx|c128;図面番号\PDRG.　No.}
  0
MTEXT
  5
2A43
330
2A32
100
AcDbEntity
  8
図枠細線
 48
10.0
100
AcDbMText
 10
173.726349404609
 20
21.73680662198
 30
0.0
 40
2.5
 41
25.735090160813
 71
     1
 72
     5
  1
{\Fmonotxt.shx,bigfont.shx|c128;日付 DATE}
  0
MTEXT
  5
2A44
330
2A32
100
AcDbEntity
  8
図枠細線
 48
10.0
100
AcDbMText
 10
173.48708833982
 20
41.621592044998
 30
0.0
 40
2.5
 41
24.983741184205
 71
     1
 72
     5
  1
{\Fmonotxt.shx,bigfont.shx|c128;製図　DRAWN}
  0
MTEXT
  5
2A45
330
2A32
100
AcDbEntity
  8
図枠細線
 48
10.0
100
AcDbMText
 10
139.28009927741
 20
21.866713069868
 30
0.0
 40
2.5
 41
22.629632913243
 71
     1
 72
     5
  1
{\Fmonotxt.shx,bigfont.shx|c128;尺度　SCALE}
  0
MTEXT
  5
2A46
330
2A32
100
AcDbEntity
  8
図枠細線
 48
10.0
100
AcDbMText
 10
139.910091179835
 20
41.311840415554
 30
0.0
 40
2.5
 41
28.998753428368
 71
     1
 72
     5
  1
{\Fmonotxt.shx,bigfont.shx|c128;検図  CHECKED}
  0
MTEXT
  5
2A47
330
2A32
100
AcDbEntity
  8
図枠細線
 48
10.0
100
AcDbMText
 10
114.253294667728
 20
21.916124850174
 30
0.0
 40
3.0
 41
19.692400475383
 71
     1
 72
     5
  1
{\Fmonotxt.shx,bigfont.shx|c128;第三角法}
  0
MTEXT
  5
2A48
330
2A32
100
AcDbEntity
  8
図枠細線
 48
10.0
100
AcDbMText
 10
108.986959929915
 20
15.282880185837
 30
0.0
 40
2.5
 41
27.954882823547
 71
     1
 72
     5
  1
{\Fmonotxt.shx,bigfont.shx|c128;THIRD ANGLE\PPROJECTION}
  0
MTEXT
  5
2A49
330
2A32
100
AcDbEntity
  8
図枠細線
 48
10.0
100
AcDbMText
 10
106.319432640184
 20
41.511437145487
 30
0.0
 40
2.5
 41
28.233595265074
 71
     1
 72
     5
  1
{\Fmonotxt.shx,bigfont.shx|c128;承認 APPROVED}
  0
LINE
  5
2A4A
330
2A32
100
AcDbEntity
  8
図枠太線
  6
CONTINUOUS
 62
   251
100
AcDbLine
 10
5.098414535793
 20
3.525959753527
 30
0.0
 11
405.098414535793
 21
3.525959753527
 31
0.0
  0
LINE
  5
2A4B
330
2A32
100
AcDbEntity
  8
図枠太線
 48
10.0
100
AcDbLine
 10
5.098414535793
 20
3.525959753527
 30
0.0
 11
5.098414535793
 21
43.525959753527
 31
0.0
  0
LINE
  5
2A4C
330
2A32
100
AcDbEntity
  8
図枠太線
  6
CONTINUOUS
 62
   251
100
AcDbLine
 10
105.098414535793
 20
3.525959753527
 30
0.0
 11
105.098414535793
 21
43.525959753527
 31
0.0
  0
LINE
  5
2A4D
330
2A32
100
AcDbEntity
  8
図枠細線
  6
CONTINUOUS
 62
   252
100
AcDbLine
 10
138.398414535793
 20
3.525959753527
 30
0.0
 11
138.398414535793
 21
18.525957753527
 31
0.0
  0
LINE
  5
2A4E
330
2A32
100
AcDbEntity
  8
図枠細線
  6
CONTINUOUS
 62
   252
100
AcDbLine
 10
171.698414535793
 20
3.525959753527
 30
0.0
 11
171.698414535793
 21
18.525957753527
 31
0.0
  0
LINE
  5
2A4F
330
2A32
100
AcDbEntity
  8
図枠太線
  6
CONTINUOUS
 62
   251
100
AcDbLine
 10
205.098414535793
 20
3.525959753527
 30
0.0
 11
205.098414535793
 21
43.525959753527
 31
0.0
  0
LINE
  5
2A50
330
2A32
100
AcDbEntity
  8
図枠太線
 48
10.0
100
AcDbLine
 10
405.098414535793
 20
43.525959753527
 30
0.0
 11
405.098414535793
 21
3.525959753527
 31
0.0
  0
TEXT
  5
2A51
330
2A32
100
AcDbEntity
  8
図枠細線
  6
CONTINUOUS
 62
   252
100
AcDbText
 10
208.519754474572
 20
6.482358407285
 30
0.0
 40
3.5
  1
ＴＯＷＡ　ＳＥＩＤＥＮ　ＩＮＤＵＳＴＲＩＡＬ　ＣＯ．，ＬＴＤ．
 41
0.746656297509
  7
EXCADSTD
 72
     5
 11
303.295327171727
 21
6.482358407285
 31
0.0
100
AcDbText
  0
LINE
  5
2A52
330
2A32
100
AcDbEntity
  8
図枠太線
  6
CONTINUOUS
 62
   251
100
AcDbLine
 10
305.098414535793
 20
3.525959753527
 30
0.0
 11
305.098414535793
 21
43.525959753527
 31
0.0
  0
ENDBLK
  5
2A53
330
2A32
100
AcDbEntity
  8
0
100
AcDbBlockEnd
  0
BLOCK
  5
2A6D
330
2A6C
100
AcDbEntity
  8
0
100
AcDbBlockBegin
  2
A3縦用_タイトル
 70
     0
 10
0.0
 20
0.0
 30
0.0
  3
A3縦用_タイトル
  1

  0
MTEXT
  5
2A6E
330
2A6C
100
AcDbEntity
  8
図枠細線
100
AcDbMText
 10
5.040804501593
 20
31.626098649005
 30
0.0
 40
2.5
 41
49.938282706292
 71
     1
 72
     5
  1
{\Fmonotxt.shx,bigfont.shx|c128;図暦　CHANGE　NOTICE}
  0
LINE
  5
2A6F
330
2A6C
100
AcDbEntity
  8
図枠太線
  6
CONTINUOUS
 62
   251
100
AcDbLine
 10
283.577871882961
 20
2.820844689254
 30
0.0
 11
283.577871882961
 21
32.820842689254
 31
0.0
  0
MTEXT
  5
2A70
330
2A6C
100
AcDbEntity
  8
図枠細線
 48
10.0
100
AcDbMText
 10
214.912458947454
 20
31.621488632308
 30
0.0
 40
2.5
 41
28.002809618823
 71
     1
 72
     5
  1
{\Fmonotxt.shx,bigfont.shx|c128;名称　TITLE}
  0
MTEXT
  5
2A71
330
2A6C
100
AcDbEntity
  8
図枠細線
 48
10.0
100
AcDbMText
 10
214.740030458938
 20
16.310225796722
 30
0.0
 40
2.5
 41
24.385612216707
 71
     1
 72
     5
  1
{\Fmonotxt.shx,bigfont.shx|c128;図面番号\PDRG.　No.}
  0
LINE
  5
2A72
330
2A6C
100
AcDbEntity
  8
図枠太線
  6
CONTINUOUS
 62
   251
100
AcDbLine
 10
213.577871882961
 20
2.820844689254
 30
0.0
 11
213.577871882961
 21
32.820842689254
 31
0.0
  0
LINE
  5
2A73
330
2A6C
100
AcDbEntity
  8
図枠太線
  6
CONTINUOUS
 62
   251
100
AcDbLine
 10
143.577871882961
 20
2.820844689254
 30
0.0
 11
143.577871882961
 21
32.820842689254
 31
0.0
  0
TEXT
  5
2A74
330
2A6C
100
AcDbEntity
  8
図枠細線
  6
CONTINUOUS
 62
   252
100
AcDbText
 10
145.716454488093
 20
4.468335689254
 30
0.0
 40
3.5
  1
ＴＯＷＡ　ＳＥＩＤＥＮ　ＩＮＤＵＳＴＲＩＡＬ　ＣＯ．，ＬＴＤ．
 41
0.528937826907
  7
EXCADSTD
 72
     5
 11
212.856295983498
 21
4.468335689254
 31
0.0
100
AcDbText
  0
TEXT
  5
2A75
330
2A6C
100
AcDbEntity
  8
図枠ロゴマーク
  6
CONTINUOUS
 62
   253
100
AcDbText
 10
145.950637593507
 20
9.413236689254
 30
0.0
 40
7.0
  1
東和制電工業株式会社
 41
0.80361088462
  7
EXCADSTD
 72
     5
 11
211.953878250259
 21
9.413236689254
 31
0.0
100
AcDbText
  0
LINE
  5
2A76
330
2A6C
100
AcDbEntity
  8
図枠細線
  6
CONTINUOUS
 62
   252
100
AcDbLine
 10
143.577871882961
 20
25.320842689254
 30
0.0
 11
213.577871882961
 21
25.320842689254
 31
0.0
  0
LINE
  5
2A77
330
2A6C
100
AcDbEntity
  8
図枠太線
  6
CONTINUOUS
 62
   251
100
AcDbLine
 10
143.577863882961
 20
17.820842689254
 30
0.0
 11
213.577871882961
 21
17.820842689254
 31
0.0
  0
LINE
  5
2A78
330
2A6C
100
AcDbEntity
  8
図枠細線
  6
CONTINUOUS
 62
   252
100
AcDbLine
 10
213.577871882961
 20
17.820842689254
 30
0.0
 11
283.577871882961
 21
17.820842689254
 31
0.0
  0
LINE
  5
2A79
330
2A6C
100
AcDbEntity
  8
図枠細線
  6
CONTINUOUS
 62
   252
100
AcDbLine
 10
120.577871882961
 20
32.820842689254
 30
0.0
 11
120.577871882961
 21
17.820842689254
 31
0.0
  0
MTEXT
  5
2A7A
330
2A6C
100
AcDbEntity
  8
図枠細線
 48
10.0
100
AcDbMText
 10
121.100885670352
 20
16.33785922638
 30
0.0
 40
2.0
 41
17.705978285068
 71
     1
 72
     5
  1
{\Fmonotxt.shx,bigfont.shx|c128;日付 DATE}
  0
MTEXT
  5
2A7B
330
2A6C
100
AcDbEntity
  8
図枠細線
 48
10.0
100
AcDbMText
 10
121.254842273491
 20
31.208993514037
 30
0.0
 40
2.0
 41
18.363799568758
 71
     1
 72
     5
  1
{\Fmonotxt.shx,bigfont.shx|c128;製図　DRAWN}
  0
LINE
  5
2A7C
330
2A6C
100
AcDbEntity
  8
図枠細線
  6
CONTINUOUS
 62
   252
100
AcDbLine
 10
97.577871882961
 20
32.820842689254
 30
0.0
 11
97.577871882961
 21
17.820842689254
 31
0.0
  0
MTEXT
  5
2A7D
330
2A6C
100
AcDbEntity
  8
図枠細線
 48
10.0
100
AcDbMText
 10
98.239734796872
 20
16.467764839281
 30
0.0
 40
2.0
 41
17.757791689903
 71
     1
 72
     5
  1
{\Fmonotxt.shx,bigfont.shx|c128;尺度　SCALE}
  0
MTEXT
  5
2A7E
330
2A6C
100
AcDbEntity
  8
図枠細線
 48
10.0
100
AcDbMText
 10
97.864744625154
 20
31.298433377664
 30
0.0
 40
2.0
 41
23.162655920976
 71
     1
 72
     5
  1
{\Fmonotxt.shx,bigfont.shx|c128;検図  CHECKED}
  0
LINE
  5
2A7F
330
2A6C
100
AcDbEntity
  8
図枠細線
  6
CONTINUOUS
 62
   252
100
AcDbLine
 10
97.577871882961
 20
2.820843367826
 30
0.0
 11
97.577871882961
 21
17.820841367826
 31
0.0
  0
LINE
  5
2A80
330
2A6C
100
AcDbEntity
  8
図枠細線
  6
CONTINUOUS
 62
   252
100
AcDbLine
 10
120.577871882961
 20
2.820844010683
 30
0.0
 11
120.577871882961
 21
17.820842010683
 31
0.0
  0
MTEXT
  5
2A81
330
2A6C
100
AcDbEntity
  8
図枠細線
 48
10.0
100
AcDbMText
 10
81.402399084102
 20
16.316484117426
 30
0.0
 40
2.0
 41
12.920322819369
 71
     1
 72
     5
  1
{\Fmonotxt.shx,bigfont.shx|c128;第三角法}
  0
MTEXT
  5
2A82
330
2A6C
100
AcDbEntity
  8
図枠細線
 48
10.0
100
AcDbMText
 10
75.736576535096
 20
11.080410931319
 30
0.0
 40
2.0
 41
21.072870671471
 71
     1
 72
     5
  1
{\Fmonotxt.shx,bigfont.shx|c128;THIRD ANGLE\PPROJECTION}
  0
LINE
  5
2A83
330
2A6C
100
AcDbEntity
  8
図枠太線
  6
CONTINUOUS
 62
   251
100
AcDbLine
 10
74.577871882961
 20
2.820844689254
 30
0.0
 11
74.577871882961
 21
32.820842689254
 31
0.0
  0
MTEXT
  5
2A84
330
2A6C
100
AcDbEntity
  8
図枠細線
 48
10.0
100
AcDbMText
 10
75.060214781573
 20
31.298434778555
 30
0.0
 40
2.0
 41
22.240928805967
 71
     1
 72
     5
  1
{\Fmonotxt.shx,bigfont.shx|c128;承認 APPROVED}
  0
LINE
  5
2A85
330
2A6C
100
AcDbEntity
  8
図枠細線
  6
CONTINUOUS
100
AcDbLine
 10
3.577871882961
 20
17.820844689254
 30
0.0
 11
74.577871882961
 21
17.820844689254
 31
0.0
  0
LINE
  5
2A86
330
2A6C
100
AcDbEntity
  8
図枠細線
  6
CONTINUOUS
 62
   252
100
AcDbLine
 10
3.577871882961
 20
27.820842689254
 30
0.0
 11
74.577871882961
 21
27.820842689254
 31
0.0
  0
LINE
  5
2A87
330
2A6C
100
AcDbEntity
  8
図枠細線
  6
CONTINUOUS
 62
   252
100
AcDbLine
 10
3.577871882961
 20
22.820842689254
 30
0.0
 11
74.577871882961
 21
22.820842689254
 31
0.0
  0
LINE
  5
2A88
330
2A6C
100
AcDbEntity
  8
図枠細線
  6
CONTINUOUS
 62
   252
100
AcDbLine
 10
3.577871882961
 20
12.820842689254
 30
0.0
 11
74.577871882961
 21
12.820842689254
 31
0.0
  0
LINE
  5
2A89
330
2A6C
100
AcDbEntity
  8
図枠細線
  6
CONTINUOUS
 62
   252
100
AcDbLine
 10
3.577871882961
 20
7.820844689254
 30
0.0
 11
74.577871882961
 21
7.820844689254
 31
0.0
  0
LINE
  5
2A8A
330
2A6C
100
AcDbEntity
  8
図枠細線
  6
CONTINUOUS
100
AcDbLine
 10
74.577871882961
 20
17.820843689254
 30
0.0
 11
143.577871882961
 21
17.820841224969
 31
0.0
  0
LINE
  5
2A8B
330
2A6C
100
AcDbEntity
  8
図枠太線
  6
CONTINUOUS
 62
   251
100
AcDbLine
 10
3.577871882961
 20
2.820844689254
 30
0.0
 11
283.577871882961
 21
2.820844689254
 31
0.0
  0
LINE
  5
2A8C
330
2A6C
100
AcDbEntity
  8
図枠太線
  6
CONTINUOUS
 62
   251
100
AcDbLine
 10
3.577871882961
 20
2.820844689254
 30
0.0
 11
3.577871882961
 21
32.820842689254
 31
0.0
  0
ENDBLK
  5
2A8D
330
2A6C
100
AcDbEntity
  8
0
100
AcDbBlockEnd
  0
BLOCK
  5
2AF8
330
2AF4
100
AcDbEntity
  8
0
 48
10.0
100
AcDbBlockBegin
  2
_OPEN30
 70
     0
 10
0.0
 20
0.0
 30
0.0
  3
_OPEN30
  1

  0
LINE
  5
2AF5
330
2AF4
100
AcDbEntity
  8
0
  6
BYBLOCK
 62
     0
100
AcDbLine
 10
-1.0
 20
0.26794919
 30
0.0
 11
0.0
 21
0.0
 31
0.0
  0
LINE
  5
2AF6
330
2AF4
100
AcDbEntity
  8
0
  6
BYBLOCK
 62
     0
100
AcDbLine
 10
0.0
 20
0.0
 30
0.0
 11
-1.0
 21
-0.26794919
 31
0.0
  0
LINE
  5
2AF7
330
2AF4
100
AcDbEntity
  8
0
  6
BYBLOCK
 62
     0
100
AcDbLine
 10
0.0
 20
0.0
 30
0.0
 11
-1.0
 21
0.0
 31
0.0
  0
ENDBLK
  5
2AF9
330
2AF4
100
AcDbEntity
  8
0
 48
10.0
100
AcDbBlockEnd
  0
BLOCK
  5
4533
330
4529
100
AcDbEntity
  8
0
 48
10.0
100
AcDbBlockBegin
  2
*D6
 70
     1
 10
0.0
 20
0.0
 30
0.0
  3
*D6
  1

  0
LINE
  5
4595
330
4529
100
AcDbEntity
  8
寸法線
 62
     0
 48
10.0
100
AcDbLine
 10
268.89537763811
 20
128.885397171363
 30
0.0
 11
268.89537763811
 21
97.682569299213
 31
0.0
  0
LINE
  5
4596
330
4529
100
AcDbEntity
  8
寸法線
 62
     0
 48
10.0
100
AcDbLine
 10
283.89537763811
 20
123.635397171363
 30
0.0
 11
283.89537763811
 21
97.682569299213
 31
0.0
  0
LINE
  5
4597
330
4529
100
AcDbEntity
  8
寸法線
 62
     0
 48
10.0
100
AcDbLine
 10
274.89537763811
 20
98.932569299213
 30
0.0
 11
277.89537763811
 21
98.932569299213
 31
0.0
  0
INSERT
  5
4598
330
4529
100
AcDbEntity
  8
寸法線
 62
     0
100
AcDbBlockReference
  2
_OPEN30
 10
268.89537763811
 20
98.932569299213
 30
0.0
 41
6.0
 42
6.0
 43
6.0
 50
180.0
  0
INSERT
  5
4599
330
4529
100
AcDbEntity
  8
寸法線
 62
     0
100
AcDbBlockReference
  2
_OPEN30
 10
283.89537763811
 20
98.932569299213
 30
0.0
 41
6.0
 42
6.0
 43
6.0
  0
MTEXT
  5
459A
330
4529
100
AcDbEntity
  8
寸法線
 62
     0
 48
10.0
100
AcDbMText
 10
276.39537763811
 20
103.557569299213
 30
0.0
 40
8.0
 41
0.0
 71
     5
 72
     1
  1
\A1;15
  0
POINT
  5
459B
330
4529
100
AcDbEntity
  8
DEFPOINTS
 62
     0
100
AcDbPoint
 10
268.89537763811
 20
129.510397171363
 30
0.0
  0
POINT
  5
459C
330
4529
100
AcDbEntity
  8
DEFPOINTS
 62
     0
100
AcDbPoint
 10
283.89537763811
 20
124.260397171363
 30
0.0
  0
POINT
  5
459D
330
4529
100
AcDbEntity
  8
DEFPOINTS
 62
     0
100
AcDbPoint
 10
283.89537763811
 20
98.932569299213
 30
0.0
  0
ENDBLK
  5
4534
330
4529
100
AcDbEntity
  8
0
 48
10.0
100
AcDbBlockEnd
  0
BLOCK
  5
453F
330
4535
100
AcDbEntity
  8
0
 48
10.0
100
AcDbBlockBegin
  2
*D7
 70
     1
 10
0.0
 20
0.0
 30
0.0
  3
*D7
  1

  0
LINE
  5
4653
330
4535
100
AcDbEntity
  8
寸法線
 62
     0
 48
10.0
100
AcDbLine
 10
198.89537763811
 20
129.635397171365
 30
0.0
 11
198.89537763811
 21
97.682569299213
 31
0.0
  0
LINE
  5
4654
330
4535
100
AcDbEntity
  8
寸法線
 62
     0
 48
10.0
100
AcDbLine
 10
158.89537763811
 20
134.635397171364
 30
0.0
 11
158.89537763811
 21
97.682569299213
 31
0.0
  0
LINE
  5
4655
330
4535
100
AcDbEntity
  8
寸法線
 62
     0
 48
10.0
100
AcDbLine
 10
192.89537763811
 20
98.932569299213
 30
0.0
 11
164.89537763811
 21
98.932569299213
 31
0.0
  0
INSERT
  5
4656
330
4535
100
AcDbEntity
  8
寸法線
 62
     0
100
AcDbBlockReference
  2
_OPEN30
 10
198.89537763811
 20
98.932569299213
 30
0.0
 41
6.0
 42
6.0
 43
6.0
  0
INSERT
  5
4657
330
4535
100
AcDbEntity
  8
寸法線
 62
     0
100
AcDbBlockReference
  2
_OPEN30
 10
158.89537763811
 20
98.932569299213
 30
0.0
 41
6.0
 42
6.0
 43
6.0
 50
180.0
  0
MTEXT
  5
4658
330
4535
100
AcDbEntity
  8
寸法線
 62
     0
 48
10.0
100
AcDbMText
 10
178.89537763811
 20
103.557569299213
 30
0.0
 40
8.0
 41
0.0
 71
     5
 72
     1
  1
\A1;40
  0
POINT
  5
4659
330
4535
100
AcDbEntity
  8
DEFPOINTS
 62
     0
100
AcDbPoint
 10
198.89537763811
 20
130.260397171365
 30
0.0
  0
POINT
  5
465A
330
4535
100
AcDbEntity
  8
DEFPOINTS
 62
     0
100
AcDbPoint
 10
158.89537763811
 20
135.260397171364
 30
0.0
  0
POINT
  5
465B
330
4535
100
AcDbEntity
  8
DEFPOINTS
 62
     0
100
AcDbPoint
 10
158.89537763811
 20
98.932569299213
 30
0.0
  0
ENDBLK
  5
4540
330
4535
100
AcDbEntity
  8
0
 48
10.0
100
AcDbBlockEnd
  0
BLOCK
  5
4556
330
454C
100
AcDbEntity
  8
0
 48
10.0
100
AcDbBlockBegin
  2
*D8
 70
     1
 10
0.0
 20
0.0
 30
0.0
  3
*D8
  1

  0
LINE
  5
45AF
330
454C
100
AcDbEntity
  8
寸法線
 62
     0
 48
10.0
100
AcDbLine
 10
283.89537763811
 20
123.635397171363
 30
0.0
 11
283.89537763811
 21
25.510397171365
 31
0.0
  0
LINE
  5
45B0
330
454C
100
AcDbEntity
  8
寸法線
 62
     0
 48
10.0
100
AcDbLine
 10
398.011854345092
 20
99.102726447712
 30
0.0
 11
398.011854345092
 21
25.510397171365
 31
0.0
  0
LINE
  5
45B1
330
454C
100
AcDbEntity
  8
寸法線
 62
     0
 48
10.0
100
AcDbLine
 10
289.89537763811
 20
26.760397171365
 30
0.0
 11
392.011854345092
 21
26.760397171365
 31
0.0
  0
INSERT
  5
45B2
330
454C
100
AcDbEntity
  8
寸法線
 62
     0
100
AcDbBlockReference
  2
_OPEN30
 10
283.89537763811
 20
26.760397171365
 30
0.0
 41
6.0
 42
6.0
 43
6.0
 50
180.0
  0
INSERT
  5
45B3
330
454C
100
AcDbEntity
  8
寸法線
 62
     0
100
AcDbBlockReference
  2
_OPEN30
 10
398.011854345092
 20
26.760397171365
 30
0.0
 41
6.0
 42
6.0
 43
6.0
  0
MTEXT
  5
45B4
330
454C
100
AcDbEntity
  8
寸法線
 62
     0
 48
10.0
100
AcDbMText
 10
340.953615991601
 20
31.385397171365
 30
0.0
 40
8.0
 41
0.0
 71
     5
 72
     1
  1
\A1;111
  0
POINT
  5
45B5
330
454C
100
AcDbEntity
  8
DEFPOINTS
 62
     0
100
AcDbPoint
 10
283.89537763811
 20
124.260397171363
 30
0.0
  0
POINT
  5
45B6
330
454C
100
AcDbEntity
  8
DEFPOINTS
 62
     0
100
AcDbPoint
 10
398.011854345092
 20
99.727726447712
 30
0.0
  0
POINT
  5
45B7
330
454C
100
AcDbEntity
  8
DEFPOINTS
 62
     0
100
AcDbPoint
 10
398.011854345092
 20
26.760397171365
 30
0.0
  0
ENDBLK
  5
4557
330
454C
100
AcDbEntity
  8
0
 48
10.0
100
AcDbBlockEnd
  0
BLOCK
  5
4562
330
4558
100
AcDbEntity
  8
0
 48
10.0
100
AcDbBlockBegin
  2
*D9
 70
     1
 10
0.0
 20
0.0
 30
0.0
  3
*D9
  1

  0
LINE
  5
464A
330
4558
100
AcDbEntity
  8
寸法線
 62
     0
 48
10.0
100
AcDbLine
 10
171.27037763811
 20
131.260397171363
 30
0.0
 11
119.460222039706
 21
131.260397171363
 31
0.0
  0
LINE
  5
464B
330
4558
100
AcDbEntity
  8
寸法線
 62
     0
 48
10.0
100
AcDbLine
 10
171.27037763811
 20
157.260397171363
 30
0.0
 11
119.460222039706
 21
157.260397171363
 31
0.0
  0
LINE
  5
464C
330
4558
100
AcDbEntity
  8
寸法線
 62
     0
 48
10.0
100
AcDbLine
 10
120.710222039706
 20
135.560397171363
 30
0.0
 11
120.710222039706
 21
152.960397171363
 31
0.0
  0
INSERT
  5
464D
330
4558
100
AcDbEntity
  8
寸法線
 62
     0
100
AcDbBlockReference
  2
_OPEN30
 10
120.710222039706
 20
131.260397171363
 30
0.0
 41
4.3
 42
4.3
 43
4.3
 50
270.0
  0
INSERT
  5
464E
330
4558
100
AcDbEntity
  8
寸法線
 62
     0
100
AcDbBlockReference
  2
_OPEN30
 10
120.710222039706
 20
157.260397171363
 30
0.0
 41
4.3
 42
4.3
 43
4.3
 50
90.0
  0
MTEXT
  5
464F
330
4558
100
AcDbEntity
  8
寸法線
 62
     0
 48
10.0
100
AcDbMText
 10
116.08105537304
 20
144.260397171363
 30
0.0
 40
8.0
 41
0.0
 71
     5
 72
     1
  1
\A1;26
 11
0.0
 21
1.0
 31
0.0
  0
POINT
  5
4650
330
4558
100
AcDbEntity
  8
DEFPOINTS
 62
     0
100
AcDbPoint
 10
171.89537763811
 20
131.260397171363
 30
0.0
  0
POINT
  5
4651
330
4558
100
AcDbEntity
  8
DEFPOINTS
 62
     0
100
AcDbPoint
 10
171.89537763811
 20
157.260397171363
 30
0.0
  0
POINT
  5
4652
330
4558
100
AcDbEntity
  8
DEFPOINTS
 62
     0
100
AcDbPoint
 10
120.710222039706
 20
157.260397171363
 30
0.0
  0
ENDBLK
  5
4563
330
4558
100
AcDbEntity
  8
0
 48
10.0
100
AcDbBlockEnd
  0
BLOCK
  5
456E
330
4564
100
AcDbEntity
  8
0
 48
10.0
100
AcDbBlockBegin
  2
*D10
 70
     1
 10
0.0
 20
0.0
 30
0.0
  3
*D10
  1

  0
LINE
  5
4641
330
4564
100
AcDbEntity
  8
寸法線
 62
     0
 48
10.0
100
AcDbLine
 10
158.27037763811
 20
136.260397171363
 30
0.0
 11
140.960970913155
 21
136.260397171363
 31
0.0
  0
LINE
  5
4642
330
4564
100
AcDbEntity
  8
寸法線
 62
     0
 48
10.0
100
AcDbLine
 10
158.27037763811
 20
152.260397171363
 30
0.0
 11
140.960970913155
 21
152.260397171363
 31
0.0
  0
LINE
  5
4643
330
4564
100
AcDbEntity
  8
寸法線
 62
     0
 48
10.0
100
AcDbLine
 10
142.210970913155
 20
140.560397171363
 30
0.0
 11
142.210970913155
 21
147.960397171363
 31
0.0
  0
INSERT
  5
4644
330
4564
100
AcDbEntity
  8
寸法線
 62
     0
100
AcDbBlockReference
  2
_OPEN30
 10
142.210970913155
 20
136.260397171363
 30
0.0
 41
4.3
 42
4.3
 43
4.3
 50
270.0
  0
INSERT
  5
4645
330
4564
100
AcDbEntity
  8
寸法線
 62
     0
100
AcDbBlockReference
  2
_OPEN30
 10
142.210970913155
 20
152.260397171363
 30
0.0
 41
4.3
 42
4.3
 43
4.3
 50
90.0
  0
MTEXT
  5
4646
330
4564
100
AcDbEntity
  8
寸法線
 62
     0
 48
10.0
100
AcDbMText
 10
137.585970913155
 20
144.260397171363
 30
0.0
 40
8.0
 41
0.0
 71
     5
 72
     1
  1
\A1;15.6
 11
0.0
 21
1.0
 31
0.0
  0
POINT
  5
4647
330
4564
100
AcDbEntity
  8
DEFPOINTS
 62
     0
100
AcDbPoint
 10
158.89537763811
 20
136.260397171363
 30
0.0
  0
POINT
  5
4648
330
4564
100
AcDbEntity
  8
DEFPOINTS
 62
     0
100
AcDbPoint
 10
158.89537763811
 20
152.260397171363
 30
0.0
  0
POINT
  5
4649
330
4564
100
AcDbEntity
  8
DEFPOINTS
 62
     0
100
AcDbPoint
 10
142.210970913155
 20
152.260397171363
 30
0.0
  0
ENDBLK
  5
456F
330
4564
100
AcDbEntity
  8
0
 48
10.0
100
AcDbBlockEnd
  0
BLOCK
  5
457B
330
4570
100
AcDbEntity
  8
0
 48
10.0
100
AcDbBlockBegin
  2
*D11
 70
     1
 10
0.0
 20
0.0
 30
0.0
  3
*D11
  1

  0
LINE
  5
4665
330
4570
100
AcDbEntity
  8
寸法線
 62
     0
 48
10.0
100
AcDbLine
 10
249.930592485099
 20
130.260397171363
 30
0.0
 11
249.305592485099
 21
130.260397171363
 31
0.0
  0
LINE
  5
4666
330
4570
100
AcDbEntity
  8
寸法線
 62
     0
 48
10.0
100
AcDbLine
 10
249.930592485099
 20
158.260397171363
 30
0.0
 11
249.305592485099
 21
158.260397171363
 31
0.0
  0
LINE
  5
4667
330
4570
100
AcDbEntity
  8
寸法線
 62
     0
 48
10.0
100
AcDbLine
 10
250.555592485099
 20
158.260397171363
 30
0.0
 11
250.555592485099
 21
181.543730504697
 31
0.0
  0
LINE
  5
4668
330
4570
100
AcDbEntity
  8
寸法線
 62
     0
 48
10.0
100
AcDbLine
 10
250.555592485099
 20
134.560397171363
 30
0.0
 11
250.555592485099
 21
153.960397171363
 31
0.0
  0
INSERT
  5
4669
330
4570
100
AcDbEntity
  8
寸法線
 62
     0
100
AcDbBlockReference
  2
_OPEN30
 10
250.555592485099
 20
130.260397171363
 30
0.0
 41
4.3
 42
4.3
 43
4.3
 50
270.0
  0
INSERT
  5
466A
330
4570
100
AcDbEntity
  8
寸法線
 62
     0
100
AcDbBlockReference
  2
_OPEN30
 10
250.555592485099
 20
158.260397171363
 30
0.0
 41
4.3
 42
4.3
 43
4.3
 50
90.0
  0
MTEXT
  5
466B
330
4570
100
AcDbEntity
  8
寸法線
 62
     0
 48
10.0
100
AcDbMText
 10
245.918092485099
 20
172.185397171363
 30
0.0
 40
8.0
 41
0.0
 71
     5
 72
     1
  1
\A1;φ28
 11
0.0
 21
1.0
 31
0.0
  0
POINT
  5
466C
330
4570
100
AcDbEntity
  8
DEFPOINTS
 62
     0
100
AcDbPoint
 10
250.555592485099
 20
130.260397171363
 30
0.0
  0
POINT
  5
466D
330
4570
100
AcDbEntity
  8
DEFPOINTS
 62
     0
100
AcDbPoint
 10
250.555592485099
 20
158.260397171363
 30
0.0
  0
POINT
  5
466E
330
4570
100
AcDbEntity
  8
DEFPOINTS
 62
     0
100
AcDbPoint
 10
250.555592485099
 20
158.260397171363
 30
0.0
  0
ENDBLK
  5
457C
330
4570
100
AcDbEntity
  8
0
 48
10.0
100
AcDbBlockEnd
  0
BLOCK
  5
4587
330
457D
100
AcDbEntity
  8
0
 48
10.0
100
AcDbBlockBegin
  2
*D12
 70
     1
 10
0.0
 20
0.0
 30
0.0
  3
*D12
  1

  0
LINE
  5
45D4
330
457D
100
AcDbEntity
  8
寸法線
 62
     0
 48
10.0
100
AcDbLine
 10
398.636100840588
 20
144.260397171362
 30
0.0
 11
420.433434937406
 21
144.260397171362
 31
0.0
  0
LINE
  5
45D5
330
457D
100
AcDbEntity
  8
寸法線
 62
     0
 48
10.0
100
AcDbLine
 10
356.066945807743
 20
57.983557171363
 30
0.0
 11
420.433434937406
 21
57.983557171363
 31
0.0
  0
LINE
  5
45D6
330
457D
100
AcDbEntity
  8
寸法線
 62
     0
 48
10.0
100
AcDbLine
 10
419.183434937406
 20
138.260397171362
 30
0.0
 11
419.183434937406
 21
63.983557171363
 31
0.0
  0
INSERT
  5
45D7
330
457D
100
AcDbEntity
  8
寸法線
 62
     0
100
AcDbBlockReference
  2
_OPEN30
 10
419.183434937406
 20
144.260397171362
 30
0.0
 41
6.0
 42
6.0
 43
6.0
 50
90.0
  0
INSERT
  5
45D8
330
457D
100
AcDbEntity
  8
寸法線
 62
     0
100
AcDbBlockReference
  2
_OPEN30
 10
419.183434937406
 20
57.983557171363
 30
0.0
 41
6.0
 42
6.0
 43
6.0
 50
270.0
  0
MTEXT
  5
45D9
330
457D
100
AcDbEntity
  8
寸法線
 62
     0
 48
10.0
100
AcDbMText
 10
414.550101604073
 20
104.99380071461
 30
0.0
 40
8.0
 41
0.0
 71
     5
 72
     1
  1
\A1;\A1;89
 11
0.0
 21
1.0
 31
0.0
  0
POINT
  5
45DA
330
457D
100
AcDbEntity
  8
DEFPOINTS
 62
     0
100
AcDbPoint
 10
398.011100840588
 20
144.260397171362
 30
0.0
  0
POINT
  5
45DB
330
457D
100
AcDbEntity
  8
DEFPOINTS
 62
     0
100
AcDbPoint
 10
355.441945807743
 20
57.983557171363
 30
0.0
  0
POINT
  5
45DC
330
457D
100
AcDbEntity
  8
DEFPOINTS
 62
     0
100
AcDbPoint
 10
419.183434937406
 20
57.983557171363
 30
0.0
  0
ENDBLK
  5
4588
330
457D
100
AcDbEntity
  8
0
 48
10.0
100
AcDbBlockEnd
  0
BLOCK
  5
4593
330
4589
100
AcDbEntity
  8
0
 48
10.0
100
AcDbBlockBegin
  2
*D13
 70
     1
 10
0.0
 20
0.0
 30
0.0
  3
*D13
  1

  0
LINE
  5
45DD
330
4589
100
AcDbEntity
  8
寸法線
 62
     0
 48
10.0
100
AcDbLine
 10
370.919647157018
 20
93.861156841246
 30
0.0
 11
440.339041644402
 21
93.861156841246
 31
0.0
  0
LINE
  5
45DE
330
4589
100
AcDbEntity
  8
寸法線
 62
     0
 48
10.0
100
AcDbLine
 10
370.919647157019
 20
194.428660845071
 30
0.0
 11
440.339041644402
 21
194.428660845071
 31
0.0
  0
LINE
  5
45DF
330
4589
100
AcDbEntity
  8
寸法線
 62
     0
 48
10.0
100
AcDbLine
 10
439.089041644402
 20
99.861156841246
 30
0.0
 11
439.089041644402
 21
188.428660845071
 31
0.0
  0
INSERT
  5
45E0
330
4589
100
AcDbEntity
  8
寸法線
 62
     0
100
AcDbBlockReference
  2
_OPEN30
 10
439.089041644402
 20
93.861156841246
 30
0.0
 41
6.0
 42
6.0
 43
6.0
 50
270.0
  0
INSERT
  5
45E1
330
4589
100
AcDbEntity
  8
寸法線
 62
     0
100
AcDbBlockReference
  2
_OPEN30
 10
439.089041644402
 20
194.428660845071
 30
0.0
 41
6.0
 42
6.0
 43
6.0
 50
90.0
  0
MTEXT
  5
45E2
330
4589
100
AcDbEntity
  8
寸法線
 62
     0
 48
10.0
100
AcDbMText
 10
434.464041644402
 20
144.144908843158
 30
0.0
 40
8.0
 41
0.0
 71
     5
 72
     1
  1
\A1;φ100
 11
0.0
 21
1.0
 31
0.0
  0
POINT
  5
45E3
330
4589
100
AcDbEntity
  8
DEFPOINTS
 62
     0
100
AcDbPoint
 10
370.294647157018
 20
93.861156841246
 30
0.0
  0
POINT
  5
45E4
330
4589
100
AcDbEntity
  8
DEFPOINTS
 62
     0
100
AcDbPoint
 10
370.294647157019
 20
194.428660845071
 30
0.0
  0
POINT
  5
45E5
330
4589
100
AcDbEntity
  8
DEFPOINTS
 62
     0
100
AcDbPoint
 10
439.089041644402
 20
194.428660845071
 30
0.0
  0
ENDBLK
  5
4594
330
4589
100
AcDbEntity
  8
0
 48
10.0
100
AcDbBlockEnd
  0
BLOCK
  5
4618
330
460E
100
AcDbEntity
  8
0
 48
10.0
100
AcDbBlockBegin
  2
*D14
 70
     1
 10
0.0
 20
0.0
 30
0.0
  3
*D14
  1

  0
LINE
  5
465C
330
460E
100
AcDbEntity
  8
寸法線
 62
     0
 48
10.0
100
AcDbLine
 10
158.89537763811
 20
134.635397171364
 30
0.0
 11
158.89537763811
 21
25.510397171365
 31
0.0
  0
LINE
  5
465D
330
460E
100
AcDbEntity
  8
寸法線
 62
     0
 48
10.0
100
AcDbLine
 10
283.89537763811
 20
123.635397171363
 30
0.0
 11
283.89537763811
 21
25.510397171365
 31
0.0
  0
LINE
  5
465E
330
460E
100
AcDbEntity
  8
寸法線
 62
     0
 48
10.0
100
AcDbLine
 10
164.89537763811
 20
26.760397171365
 30
0.0
 11
277.89537763811
 21
26.760397171365
 31
0.0
  0
INSERT
  5
465F
330
460E
100
AcDbEntity
  8
寸法線
 62
     0
100
AcDbBlockReference
  2
_OPEN30
 10
158.89537763811
 20
26.760397171365
 30
0.0
 41
6.0
 42
6.0
 43
6.0
 50
180.0
  0
INSERT
  5
4660
330
460E
100
AcDbEntity
  8
寸法線
 62
     0
100
AcDbBlockReference
  2
_OPEN30
 10
283.89537763811
 20
26.760397171365
 30
0.0
 41
6.0
 42
6.0
 43
6.0
  0
MTEXT
  5
4661
330
460E
100
AcDbEntity
  8
寸法線
 62
     0
 48
10.0
100
AcDbMText
 10
221.39537763811
 20
31.389563838031
 30
0.0
 40
8.0
 41
0.0
 71
     5
 72
     1
  1
\A1;125
  0
POINT
  5
4662
330
460E
100
AcDbEntity
  8
DEFPOINTS
 62
     0
100
AcDbPoint
 10
158.89537763811
 20
135.260397171364
 30
0.0
  0
POINT
  5
4663
330
460E
100
AcDbEntity
  8
DEFPOINTS
 62
     0
100
AcDbPoint
 10
283.89537763811
 20
124.260397171363
 30
0.0
  0
POINT
  5
4664
330
460E
100
AcDbEntity
  8
DEFPOINTS
 62
     0
100
AcDbPoint
 10
283.89537763811
 20
26.760397171365
 30
0.0
  0
ENDBLK
  5
4619
330
460E
100
AcDbEntity
  8
0
 48
10.0
100
AcDbBlockEnd
  0
ENDSEC
  0
SECTION
  2
ENTITIES
  0
LEADER
  5
43E2
330
1A
100
AcDbEntity
  8
寸法線
 48
10.0
100
AcDbLeader
  3
ISO-25
 76
     3
 10
360.311695807743
 20
68.506613250781
 30
0.0
 10
414.01470461562
 20
26.760397171365
 30
0.0
 10
426.796703017962
 20
26.760397171365
 30
0.0
1001
ACAD
1000
DSTYLE
1002
{
1070
     5
1000
OPEN30
1070
   147
1040
0.625
1070
    77
1070
     0
1070
    41
1040
6.0
1070
    47
1040
0.1
1070
    48
1040
0.1
1070
    73
1070
     0
1070
   140
1040
5.0
1070
   271
1070
     1
1070
   272
1070
     1
1070
   341
1005
2AF4
1070
   342
1005
2AF4
1002
}
  0
LEADER
  5
43E3
330
1A
100
AcDbEntity
  8
寸法線
 48
10.0
100
AcDbLeader
  3
ISO-25
 76
     3
 10
338.487370804309
 20
96.879367780298
 30
0.0
 10
317.34149565031
 20
50.217377321534
 30
0.0
 10
303.790679563183
 20
50.217377321534
 30
0.0
213
13.55081608712635
223
0.0
233
0.0
1001
ACAD
1000
DSTYLE
1002
{
1070
     5
1000
OPEN30
1070
   147
1040
0.625
1070
    77
1070
     0
1070
    41
1040
6.0
1070
    47
1040
0.1
1070
    48
1040
0.1
1070
    73
1070
     0
1070
   140
1040
5.0
1070
   271
1070
     1
1070
   272
1070
     1
1070
   341
1005
2AF4
1070
   342
1005
2AF4
1002
}
  0
LEADER
  5
43E4
330
1A
100
AcDbEntity
  8
寸法線
 48
10.0
100
AcDbLeader
  3
ISO-25
 76
     3
 10
183.64537763811
 20
157.260397171364
 30
0.0
 10
164.21883579895
 20
221.618325669695
 30
0.0
 10
148.437760048542
 20
221.618325669695
 30
0.0
1001
ACAD
1000
DSTYLE
1002
{
1070
     5
1000
OPEN30
1070
   147
1040
0.625
1070
    77
1070
     0
1070
    41
1040
6.0
1070
    47
1040
0.1
1070
    48
1040
0.1
1070
    73
1070
     0
1070
   140
1040
5.0
1070
   271
1070
     1
1070
   272
1070
     1
1070
   341
1005
2AF4
1070
   342
1005
2AF4
1002
}
  0
LEADER
  5
43E5
330
1A
100
AcDbEntity
  8
寸法線
 48
10.0
100
AcDbLeader
  3
ISO-25
 76
     3
 10
272.809785692086
 20
160.760397171363
 30
0.0
 10
237.923896830985
 20
221.618325669695
 30
0.0
 10
226.89968684765
 20
221.618325669695
 30
0.0
1001
ACAD
1000
DSTYLE
1002
{
1070
     5
1000
OPEN30
1070
   147
1040
0.625
1070
    77
1070
     0
1070
    41
1040
6.0
1070
    47
1040
0.1
1070
    48
1040
0.1
1070
    73
1070
     0
1070
   140
1040
5.0
1070
   271
1070
     1
1070
   272
1070
     1
1070
   341
1005
2AF4
1070
   342
1005
2AF4
1002
}
  0
DIMENSION
  5
43E6
330
1A
100
AcDbEntity
  8
寸法線
 48
10.0
100
AcDbDimension
  2
*D6
 10
283.89537763811
 20
98.932569299213
 30
0.0
 11
276.39537763811
 21
103.557569299213
 31
0.0
 70
    32
  3
ISO-25
100
AcDbAlignedDimension
 13
268.89537763811
 23
129.510397171363
 33
0.0
 14
283.89537763811
 24
124.260397171363
 34
0.0
100
AcDbRotatedDimension
1001
ACAD
1000
DSTYLE
1002
{
1070
     5
1000
OPEN30
1070
    41
1040
6.0
1070
    47
1040
0.1
1070
    48
1040
0.1
1070
    73
1070
     0
1070
   140
1040
8.0
1070
   271
1070
     1
1070
   272
1070
     1
1070
   341
1005
2AF4
1002
}
  0
LEADER
  5
43E7
330
1A
100
AcDbEntity
  8
寸法線
 48
10.0
100
AcDbLeader
  3
ISO-25
 76
     3
 10
282.89537763811
 20
163.249166179417
 30
0.0
 10
251.755700064094
 20
221.618325669695
 30
0.0
 10
264.895620289873
 20
221.618325669695
 30
0.0
213
-17.36063962333395
223
-2.842170943040401E-14
233
0.0
1001
ACAD
1000
DSTYLE
1002
{
1070
     5
1000
OPEN30
1070
   147
1040
0.625
1070
    77
1070
     0
1070
    41
1040
6.0
1070
    47
1040
0.1
1070
    48
1040
0.1
1070
    73
1070
     0
1070
   140
1040
5.0
1070
   271
1070
     1
1070
   272
1070
     1
1070
   341
1005
2AF4
1070
   342
1005
2AF4
1002
}
  0
LEADER
  5
43E8
330
1A
100
AcDbEntity
  8
寸法線
 48
10.0
100
AcDbLeader
  3
ISO-25
 76
     3
 10
290.251040070812
 20
167.931758208137
 30
0.0
 10
322.802498622754
 20
221.618325669695
 30
0.0
 10
333.761941937749
 20
221.618325669695
 30
0.0
1001
ACAD
1000
DSTYLE
1002
{
1070
     5
1000
OPEN30
1070
   147
1040
0.625
1070
    77
1070
     0
1070
    41
1040
6.0
1070
    47
1040
0.1
1070
    48
1040
0.1
1070
    73
1070
     0
1070
   140
1040
5.0
1070
   271
1070
     1
1070
   272
1070
     1
1070
   341
1005
2AF4
1070
   342
1005
2AF4
1002
}
  0
LEADER
  5
43E9
330
1A
100
AcDbEntity
  8
寸法線
 48
10.0
100
AcDbLeader
  3
ISO-25
 76
     3
 10
339.618098429815
 20
191.318325669695
 30
0.0
 10
386.005189812126
 20
221.618325669695
 30
0.0
 10
397.301661585238
 20
221.618325669695
 30
0.0
1001
ACAD
1000
DSTYLE
1002
{
1070
     5
1000
OPEN30
1070
   147
1040
0.625
1070
    77
1070
     0
1070
    41
1040
6.0
1070
    47
1040
0.1
1070
    48
1040
0.1
1070
    73
1070
     0
1070
   140
1040
5.0
1070
   271
1070
     1
1070
   272
1070
     1
1070
   341
1005
2AF4
1070
   342
1005
2AF4
1002
}
  0
DIMENSION
  5
43EA
330
1A
100
AcDbEntity
  8
寸法線
 48
10.0
100
AcDbDimension
  2
*D7
 10
158.89537763811
 20
98.932569299213
 30
0.0
 11
178.89537763811
 21
103.557569299213
 31
0.0
 70
    32
  3
ISO-25
100
AcDbAlignedDimension
 13
198.89537763811
 23
130.260397171365
 33
0.0
 14
158.89537763811
 24
135.260397171364
 34
0.0
100
AcDbRotatedDimension
1001
ACAD
1000
DSTYLE
1002
{
1070
     5
1000
OPEN30
1070
    41
1040
6.0
1070
    47
1040
0.1
1070
    48
1040
0.1
1070
    73
1070
     0
1070
   140
1040
8.0
1070
   271
1070
     1
1070
   272
1070
     1
1070
   341
1005
2AF4
1002
}
  0
DIMENSION
  5
43EC
330
1A
100
AcDbEntity
  8
寸法線
 48
10.0
100
AcDbDimension
  2
*D8
 10
398.011854345092
 20
26.760397171365
 30
0.0
 11
340.953615991601
 21
31.385397171365
 31
0.0
 70
    32
  1
111
  3
ISO-25
100
AcDbAlignedDimension
 13
283.89537763811
 23
124.260397171363
 33
0.0
 14
398.011854345092
 24
99.727726447712
 34
0.0
100
AcDbRotatedDimension
1001
ACAD
1000
DSTYLE
1002
{
1070
     5
1000
OPEN30
1070
    41
1040
6.0
1070
    47
1040
0.1
1070
    48
1040
0.1
1070
    73
1070
     0
1070
   140
1040
8.0
1070
   271
1070
     1
1070
   272
1070
     1
1070
   341
1005
2AF4
1002
}
  0
LINE
  5
43ED
330
1A
100
AcDbEntity
  8
外形線
100
AcDbLine
 10
277.371228449356
 20
127.760397171363
 30
0.0
 11
277.371228449356
 21
160.760397171363
 31
0.0
  0
LINE
  5
43EE
330
1A
100
AcDbEntity
  8
外形線
100
AcDbLine
 10
269.953685672254
 20
160.760397171363
 30
0.0
 11
269.953685672254
 21
127.760397171363
 31
0.0
  0
LINE
  5
43EF
330
1A
100
AcDbEntity
  8
外形線
100
AcDbLine
 10
280.09537763811
 20
129.510397171363
 30
0.0
 11
280.09537763811
 21
159.010397171363
 31
0.0
  0
LINE
  5
43F0
330
1A
100
AcDbEntity
  8
外形線
100
AcDbLine
 10
270.203685672254
 20
127.760397171363
 30
0.0
 11
273.69057389002
 21
127.760397171363
 31
0.0
  0
LINE
  5
43F1
330
1A
100
AcDbEntity
  8
外形線
100
AcDbLine
 10
270.203685672254
 20
160.760397171363
 30
0.0
 11
273.69057389002
 21
160.760397171363
 31
0.0
  0
LINE
  5
43F2
330
1A
100
AcDbEntity
  8
外形線
100
AcDbLine
 10
281.89537763811
 20
159.010397171363
 30
0.0
 11
280.09537763811
 21
159.010397171363
 31
0.0
  0
LINE
  5
43F3
330
1A
100
AcDbEntity
  8
外形線
100
AcDbLine
 10
280.09537763811
 20
159.010397171363
 30
0.0
 11
277.371228449356
 21
160.760397171363
 31
0.0
  0
LINE
  5
43F4
330
1A
100
AcDbEntity
  8
外形線
100
AcDbLine
 10
268.89537763811
 20
159.010397171363
 30
0.0
 11
269.953685672254
 21
160.760397171363
 31
0.0
  0
LINE
  5
43F5
330
1A
100
AcDbEntity
  8
細線
100
AcDbLine
 10
280.09537763811
 20
159.010397171363
 30
0.0
 11
268.89537763811
 21
159.010397171363
 31
0.0
  0
LINE
  5
43F6
330
1A
100
AcDbEntity
  8
外形線
100
AcDbLine
 10
277.371228449356
 20
160.760397171363
 30
0.0
 11
269.953685672254
 21
160.760397171363
 31
0.0
  0
LINE
  5
43F7
330
1A
100
AcDbEntity
  8
外形線
100
AcDbLine
 10
280.09537763811
 20
129.510397171363
 30
0.0
 11
277.371228449356
 21
127.760397171363
 31
0.0
  0
LINE
  5
43F8
330
1A
100
AcDbEntity
  8
外形線
100
AcDbLine
 10
281.89537763811
 20
129.510397171363
 30
0.0
 11
280.09537763811
 21
129.510397171363
 31
0.0
  0
LINE
  5
43F9
330
1A
100
AcDbEntity
  8
外形線
100
AcDbLine
 10
268.89537763811
 20
129.510397171363
 30
0.0
 11
269.953685672254
 21
127.760397171363
 31
0.0
  0
LINE
  5
43FA
330
1A
100
AcDbEntity
  8
外形線
100
AcDbLine
 10
268.89537763811
 20
129.510397171363
 30
0.0
 11
268.89537763811
 21
144.260397171363
 31
0.0
  0
LINE
  5
43FB
330
1A
100
AcDbEntity
  8
細線
100
AcDbLine
 10
280.09537763811
 20
129.510397171363
 30
0.0
 11
268.89537763811
 21
129.510397171363
 31
0.0
  0
LINE
  5
43FC
330
1A
100
AcDbEntity
  8
外形線
100
AcDbLine
 10
277.371228449356
 20
127.760397171363
 30
0.0
 11
269.953685672254
 21
127.760397171363
 31
0.0
  0
LINE
  5
43FD
330
1A
100
AcDbEntity
  8
外形線
100
AcDbLine
 10
268.89537763811
 20
159.010397171363
 30
0.0
 11
268.89537763811
 21
144.260397171363
 31
0.0
  0
LINE
  5
43FE
330
1A
100
AcDbEntity
  8
外形線
100
AcDbLine
 10
281.89537763811
 20
159.010397171363
 30
0.0
 11
281.89537763811
 21
129.510397171363
 31
0.0
  0
LINE
  5
4407
330
1A
100
AcDbEntity
  8
外形線
100
AcDbLine
 10
158.89537763811
 20
136.260397171364
 30
0.0
 11
158.89537763811
 21
135.260397171364
 31
0.0
  0
LINE
  5
4408
330
1A
100
AcDbEntity
  8
外形線
100
AcDbLine
 10
158.89537763811
 20
135.260397171364
 30
0.0
 11
171.89537763811
 21
131.260397171364
 31
0.0
  0
LINE
  5
4409
330
1A
100
AcDbEntity
  8
外形線
100
AcDbLine
 10
158.89537763811
 20
152.260397171364
 30
0.0
 11
158.89537763811
 21
153.260397171364
 31
0.0
  0
LINE
  5
440A
330
1A
100
AcDbEntity
  8
外形線
100
AcDbLine
 10
158.89537763811
 20
153.260397171364
 30
0.0
 11
171.89537763811
 21
157.260397171364
 31
0.0
  0
LINE
  5
440B
330
1A
100
AcDbEntity
  8
外形線
100
AcDbLine
 10
158.89537763811
 20
152.260397171364
 30
0.0
 11
193.89537763811
 21
152.260397171364
 31
0.0
  0
LINE
  5
440C
330
1A
100
AcDbEntity
  8
外形線
100
AcDbLine
 10
171.89537763811
 20
157.260397171364
 30
0.0
 11
195.39537763811
 21
157.260397171364
 31
0.0
  0
LINE
  5
440D
330
1A
100
AcDbEntity
  8
外形線
 48
10.0
100
AcDbLine
 10
198.89537763811
 20
155.760397171364
 30
0.0
 11
195.39537763811
 21
157.260397171364
 31
0.0
  0
LINE
  5
440E
330
1A
100
AcDbEntity
  8
外形線
100
AcDbLine
 10
195.39537763811
 20
153.260397171364
 30
0.0
 11
158.89537763811
 21
153.260397171364
 31
0.0
  0
ARC
  5
440F
330
1A
100
AcDbEntity
  8
外形線
100
AcDbCircle
 10
193.89537763811
 20
147.260397171364
 30
0.0
 40
5.0
100
AcDbArc
 50
0.0
 51
90.0
  0
LINE
  5
4410
330
1A
100
AcDbEntity
  8
細線
 48
10.0
100
AcDbLine
 10
195.39537763811
 20
153.260397171364
 30
0.0
 11
195.39537763811
 21
157.260397171364
 31
0.0
  0
LINE
  5
4411
330
1A
100
AcDbEntity
  8
外形線
 48
10.0
100
AcDbLine
 10
198.89537763811
 20
151.760397171364
 30
0.0
 11
195.39537763811
 21
153.260397171364
 31
0.0
  0
LINE
  5
4412
330
1A
100
AcDbEntity
  8
外形線
100
AcDbLine
 10
195.39537763811
 20
135.260397171364
 30
0.0
 11
158.89537763811
 21
135.260397171364
 31
0.0
  0
ARC
  5
4413
330
1A
100
AcDbEntity
  8
外形線
100
AcDbCircle
 10
193.89537763811
 20
141.260397171364
 30
0.0
 40
5.0
100
AcDbArc
 50
270.0
 51
0.0
  0
LINE
  5
4414
330
1A
100
AcDbEntity
  8
外形線
100
AcDbLine
 10
158.89537763811
 20
136.260397171364
 30
0.0
 11
193.89537763811
 21
136.260397171364
 31
0.0
  0
LINE
  5
4415
330
1A
100
AcDbEntity
  8
外形線
 48
10.0
100
AcDbLine
 10
195.39537763811
 20
135.260397171364
 30
0.0
 11
198.89537763811
 21
136.760397171364
 31
0.0
  0
LINE
  5
4416
330
1A
100
AcDbEntity
  8
外形線
100
AcDbLine
 10
171.89537763811
 20
131.260397171364
 30
0.0
 11
195.39537763811
 21
131.260397171364
 31
0.0
  0
LINE
  5
4417
330
1A
100
AcDbEntity
  8
外形線
 48
10.0
100
AcDbLine
 10
195.39537763811
 20
131.260397171364
 30
0.0
 11
198.89537763811
 21
132.760397171364
 31
0.0
  0
LINE
  5
4418
330
1A
100
AcDbEntity
  8
細線
 48
10.0
100
AcDbLine
 10
195.39537763811
 20
131.260397171364
 30
0.0
 11
195.39537763811
 21
135.260397171364
 31
0.0
  0
DIMENSION
  5
4419
330
1A
100
AcDbEntity
  8
寸法線
 48
10.0
100
AcDbDimension
  2
*D9
 10
120.710222039706
 20
157.260397171363
 30
0.0
 11
116.08105537304
 21
144.260397171363
 31
0.0
 70
    32
  3
ISO-25
100
AcDbAlignedDimension
 13
171.89537763811
 23
131.260397171363
 33
0.0
 14
171.89537763811
 24
157.260397171363
 34
0.0
 50
90.0
100
AcDbRotatedDimension
1001
ACAD
1000
DSTYLE
1002
{
1070
     5
1000
OPEN30
1070
    41
1040
4.3
1070
    47
1040
0.1
1070
    48
1040
0.1
1070
    73
1070
     0
1070
   140
1040
8.0
1070
   271
1070
     1
1070
   272
1070
     1
1070
   341
1005
2AF4
1002
}
  0
DIMENSION
  5
441A
330
1A
100
AcDbEntity
  8
寸法線
 48
10.0
100
AcDbDimension
  2
*D10
 10
142.210970913155
 20
152.260397171363
 30
0.0
 11
142.210970913155
 21
144.260397171363
 31
0.0
 70
   160
  1
15.6
  3
ISO-25
100
AcDbAlignedDimension
 13
158.89537763811
 23
136.260397171363
 33
0.0
 14
158.89537763811
 24
152.260397171363
 34
0.0
 50
90.0
100
AcDbRotatedDimension
1001
ACAD
1000
DSTYLE
1002
{
1070
     5
1000
OPEN30
1070
    41
1040
4.3
1070
    47
1040
0.1
1070
    48
1040
0.1
1070
    73
1070
     0
1070
   140
1040
8.0
1070
   271
1070
     1
1070
   272
1070
     1
1070
   341
1005
2AF4
1002
}
  0
DIMENSION
  5
441B
330
1A
100
AcDbEntity
  8
寸法線
 48
10.0
100
AcDbDimension
  2
*D11
 10
250.555592485099
 20
158.260397171363
 30
0.0
 11
250.555592485099
 21
172.185397171363
 31
0.0
 70
   160
  1
φ<>
  3
ISO-25
100
AcDbAlignedDimension
 13
250.555592485099
 23
130.260397171363
 33
0.0
 14
250.555592485099
 24
158.260397171363
 34
0.0
 50
90.0
100
AcDbRotatedDimension
1001
ACAD
1000
DSTYLE
1002
{
1070
     5
1000
OPEN30
1070
    41
1040
4.3
1070
    47
1040
0.1
1070
    48
1040
0.1
1070
    73
1070
     0
1070
   140
1040
8.0
1070
   271
1070
     1
1070
   272
1070
     1
1070
   341
1005
2AF4
1002
}
  0
ARC
  5
441C
330
1A
100
AcDbEntity
  8
外形線
100
AcDbCircle
 10
360.533186136767
 20
191.397791098061
 30
0.0
 40
2.073556783584
100
AcDbArc
 50
90.0
 51
136.091731908427
  0
LINE
  5
441D
330
1A
100
AcDbEntity
  8
外形線
100
AcDbLine
 10
359.039289990276
 20
192.835814755115
 30
0.0
 11
358.190319640936
 21
191.953858796225
 31
0.0
  0
ARC
  5
441E
330
1A
100
AcDbEntity
  8
外形線
100
AcDbCircle
 10
356.696423494447
 20
193.391882453281
 30
0.0
 40
2.073556783584
100
AcDbArc
 50
270.0
 51
316.091731908441
  0
LINE
  5
441F
330
1A
100
AcDbEntity
  8
外形線
100
AcDbLine
 10
364.834945807748
 20
193.471347881645
 30
0.0
 11
360.533186136766
 21
193.471347881645
 31
0.0
  0
ARC
  5
4420
330
1A
100
AcDbEntity
  8
外形線
100
AcDbCircle
 10
360.268228346894
 20
113.248912767759
 30
0.0
 40
1.2441340701504
100
AcDbArc
 50
217.230967965676
 51
270.0
  0
ARC
  5
4421
330
1A
100
AcDbEntity
  8
外形線
100
AcDbCircle
 10
356.27643507951
 20
116.189368998729
 30
0.0
 40
1.2441340701504
100
AcDbArc
 50
37.230967965668
 51
90.0
  0
LINE
  5
4422
330
1A
100
AcDbEntity
  8
外形線
100
AcDbLine
 10
364.834945807747
 20
112.004778697607
 30
0.0
 11
360.268228346893
 21
112.004778697607
 31
0.0
  0
LINE
  5
4423
330
1A
100
AcDbEntity
  8
細線
100
AcDbLine
 10
356.696423494446
 20
191.318325669695
 30
0.0
 11
356.696423494445
 21
118.102969171363
 31
0.0
  0
LINE
  5
4448
330
1A
100
AcDbEntity
  8
外形線
100
AcDbLine
 10
296.895377638109
 20
118.304094650355
 30
0.0
 11
296.89537763811
 21
170.216699692371
 31
0.0
  0
ARC
  5
4449
330
1A
100
AcDbEntity
  8
外形線
100
AcDbCircle
 10
297.49537763811
 20
111.510397171363
 30
0.0
 40
0.6
100
AcDbArc
 50
180.0
 51
270.0
  0
ARC
  5
444A
330
1A
100
AcDbEntity
  8
外形線
100
AcDbCircle
 10
297.495377638111
 20
177.010397171363
 30
0.0
 40
0.6
100
AcDbArc
 50
90.0
 51
180.0
  0
LINE
  5
444B
330
1A
100
AcDbEntity
  8
外形線
100
AcDbLine
 10
296.89537763811
 20
177.126422575147
 30
0.0
 11
296.895377638109
 21
111.394371767579
 31
0.0
  0
LINE
  5
444C
330
1A
100
AcDbEntity
  8
外形線
100
AcDbLine
 10
327.920614419599
 20
83.921393252469
 30
0.0
 11
314.842107614239
 21
97.953435070697
 31
0.0
  0
LINE
  5
444D
330
1A
100
AcDbEntity
  8
外形線
100
AcDbLine
 10
317.392839071198
 20
100.021816200899
 30
0.0
 11
302.395377638099
 21
110.910397171363
 31
0.0
  0
LINE
  5
444E
330
1A
100
AcDbEntity
  8
外形線
100
AcDbLine
 10
317.392839071198
 20
188.268001485421
 30
0.0
 11
302.3953776381
 21
177.610397171363
 31
0.0
  0
CIRCLE
  5
444F
330
1A
100
AcDbEntity
  8
細線
100
AcDbCircle
 10
346.834945807744
 20
103.281669352869
 30
0.0
 40
13.76127218150634
  0
LINE
  5
4450
330
1A
100
AcDbEntity
  8
外形線
100
AcDbLine
 10
350.714504864784
 20
108.319037452991
 30
0.0
 11
352.032521146214
 21
106.943208710181
 31
0.0
  0
LINE
  5
4451
330
1A
100
AcDbEntity
  8
外形線
100
AcDbLine
 10
342.952051443665
 20
98.244301252747
 30
0.0
 11
352.032521146214
 21
106.943208710181
 31
0.0
  0
CIRCLE
  5
4452
330
1A
100
AcDbEntity
  8
外形線
100
AcDbCircle
 10
346.833278154226
 20
103.281669352869
 30
0.0
 40
10.51872781849356
  0
CIRCLE
  5
4453
330
1A
100
AcDbEntity
  8
細線
100
AcDbCircle
 10
346.833278154226
 20
103.281669352869
 30
0.0
 40
9.90742839250458
  0
LINE
  5
4454
330
1A
100
AcDbEntity
  8
外形線
100
AcDbLine
 10
341.634035162238
 20
99.620129995557
 30
0.0
 11
350.714504864784
 21
108.319037452991
 31
0.0
  0
LINE
  5
4455
330
1A
100
AcDbEntity
  8
外形線
100
AcDbLine
 10
341.634035162238
 20
99.620129995557
 30
0.0
 11
342.952051443665
 21
98.244301252747
 31
0.0
  0
LINE
  5
4456
330
1A
100
AcDbEntity
  8
外形線
100
AcDbLine
 10
297.49537763811
 20
177.610397171363
 30
0.0
 11
302.3953776381
 21
177.610397171363
 31
0.0
  0
LINE
  5
4457
330
1A
100
AcDbEntity
  8
外形線
100
AcDbLine
 10
297.495377638109
 20
110.910397171363
 30
0.0
 11
302.395377638099
 21
110.910397171363
 31
0.0
  0
LINE
  5
4458
330
1A
100
AcDbEntity
  8
外形線
100
AcDbLine
 10
302.3953776381
 20
177.610397171363
 30
0.0
 11
302.395377638099
 21
110.910397171363
 31
0.0
  0
LINE
  5
4459
330
1A
100
AcDbEntity
  8
外形線
100
AcDbLine
 10
296.89537763811
 20
165.102969171363
 30
0.0
 11
296.89537763811
 21
176.610397171363
 31
0.0
  0
LINE
  5
445A
330
1A
100
AcDbEntity
  8
外形線
100
AcDbLine
 10
357.267018383605
 20
116.942106869541
 30
0.0
 11
359.277645042797
 21
112.496174896945
 31
0.0
  0
ARC
  5
445B
330
1A
100
AcDbEntity
  8
外形線
100
AcDbCircle
 10
316.256321176614
 20
99.367648633071
 30
0.0
 40
2.0
100
AcDbArc
 50
180.0
 51
225.000000000005
  0
LWPOLYLINE
  5
445C
330
1A
100
AcDbEntity
  8
外形線
100
AcDbPolyline
 90
       18
 70
     0
 43
0.0
 10
375.617441082384
 20
173.120979567746
 10
374.664061164642
 20
173.044539305791
 10
373.743147456548
 20
172.817821601362
 10
372.886060569912
 20
172.448547053968
 10
372.1219875707
 20
171.949290865427
 10
371.476948048494
 20
171.337054606445
 10
370.972908050582
 20
170.632687248525
 10
370.627032054566
 20
169.860175177245
 10
370.451098452654
 20
169.045825364668
 10
370.451098452654
 20
168.217369516957
 10
370.627032054566
 20
167.403019704381
 10
370.972908050582
 20
166.630507633101
 10
371.476948048494
 20
165.926140275181
 10
372.1219875707
 20
165.313904016198
 10
372.886060569912
 20
164.814647827655
 10
373.743147456548
 20
164.445373280262
 10
374.664061164642
 20
164.218655575834
 10
375.617441082384
 20
164.142215313879
  0
LWPOLYLINE
  5
445D
330
1A
100
AcDbEntity
  8
外形線
100
AcDbPolyline
 90
        8
 70
     0
 43
0.0
 10
375.617441082384
 20
172.555240695395
 10
374.626982409136
 20
172.478771832992
 10
373.670265237886
 20
172.251970275498
 10
372.779881614334
 20
171.882562367701
 10
371.986163829592
 20
171.383132559605
 10
371.316151103914
 20
170.770694697744
 10
370.792668453962
 20
170.066112422273
 10
370.433549123424
 20
169.293388414867
  0
LWPOLYLINE
  5
445E
330
1A
100
AcDbEntity
  8
外形線
100
AcDbPolyline
 90
        8
 70
     0
 43
0.0
 10
375.617441082384
 20
188.331864819809
 10
374.608585336042
 20
188.273783115268
 10
373.638235972852
 20
188.101754885848
 10
372.743429649942
 20
187.8223461693
 10
371.958319669446
 20
187.446221541939
 10
371.312872402506
 20
186.987737069101
 10
370.831723521624
 20
186.464392357489
 10
370.533237697096
 20
185.896162623639
  0
LWPOLYLINE
  5
445F
330
1A
100
AcDbEntity
  8
外形線
100
AcDbPolyline
 90
       18
 70
     0
 43
0.0
 10
375.617441082384
 20
189.149043582893
 10
374.66401848598
 20
189.097223120181
 10
373.743063552593
 20
188.943526415754
 10
372.885938297914
 20
188.693187426543
 10
372.121831094482
 20
188.354731146575
 10
371.476762696668
 20
187.939683298531
 10
370.972700135084
 20
187.46217783908
 10
370.626808655706
 20
186.938475643942
 10
370.450867178014
 20
186.386410763261
 10
370.450867178014
 20
185.824783104415
 10
370.626808655706
 20
185.272718223733
 10
370.972700135084
 20
184.749016028595
 10
371.476762696668
 20
184.271510569145
 10
372.121831094482
 20
183.856462721102
 10
372.885938297914
 20
183.518006441132
 10
373.743063552592
 20
183.267667451921
 10
374.66401848598
 20
183.113970747494
 10
375.617441082384
 20
183.062150284785
  0
ARC
  5
4460
330
1A
100
AcDbEntity
  8
外形線
100
AcDbCircle
 10
394.901519169717
 20
186.038708407516
 30
0.0
 40
3.110335175376
100
AcDbArc
 50
0.0
 51
90.0
  0
ARC
  5
4461
330
1A
100
AcDbEntity
  8
外形線
100
AcDbCircle
 10
392.827962386133
 20
186.258308036224
 30
0.0
 40
2.073556783584
100
AcDbArc
 50
0.0
 51
90.0
  0
ARC
  5
4462
330
1A
100
AcDbEntity
  8
外形線
100
AcDbCircle
 10
393.864740777925
 20
188.562091238606
 30
0.0
 40
4.147113567168
100
AcDbArc
 50
0.0
 51
86.999999999994
  0
ARC
  5
4463
330
1A
100
AcDbEntity
  8
外形線
100
AcDbCircle
 10
369.396770731633
 20
193.910271649175
 30
0.0
 40
1.036778391792
100
AcDbArc
 50
0.0
 51
30.000000000005
  0
LINE
  5
4464
330
1A
100
AcDbEntity
  8
外形線
100
AcDbLine
 10
364.834945807748
 20
193.910271649175
 30
0.0
 11
365.353335003645
 21
194.428660845071
 31
0.0
  0
LINE
  5
4465
330
1A
100
AcDbEntity
  8
外形線
100
AcDbLine
 10
365.353335003645
 20
194.428660845071
 30
0.0
 11
370.294647157019
 21
194.428660845071
 31
0.0
  0
LINE
  5
4466
330
1A
100
AcDbEntity
  8
外形線
100
AcDbLine
 10
375.617441082384
 20
189.149043582893
 30
0.0
 11
394.901519169716
 21
189.149043582892
 31
0.0
  0
LINE
  5
4467
330
1A
100
AcDbEntity
  8
外形線
100
AcDbLine
 10
375.617441082384
 20
188.331864819809
 30
0.0
 11
392.827962386132
 21
188.331864819808
 31
0.0
  0
LINE
  5
4468
330
1A
100
AcDbEntity
  8
外形線
100
AcDbLine
 10
370.433549123424
 20
193.910271649175
 30
0.0
 11
394.081783932108
 21
192.703521330762
 31
0.0
  0
ARC
  5
4469
330
1A
100
AcDbEntity
  8
外形線
100
AcDbCircle
 10
394.901519169717
 20
179.951815109408
 30
0.0
 40
3.110335175376
100
AcDbArc
 50
0.0
 51
90.0
  0
ARC
  5
446A
330
1A
100
AcDbEntity
  8
外形線
100
AcDbCircle
 10
393.346351582029
 20
171.000073107706
 30
0.0
 40
1.555167587688
100
AcDbArc
 50
0.0
 51
90.0
  0
LINE
  5
446B
330
1A
100
AcDbEntity
  8
外形線
100
AcDbLine
 10
397.600980275762
 20
168.112109826256
 30
0.0
 11
394.901519169716
 21
166.06789766449
 31
0.0
  0
ARC
  5
446C
330
1A
100
AcDbEntity
  8
外形線
100
AcDbCircle
 10
396.9750759533
 20
163.105436922086
 30
0.0
 40
1.036778391792
100
AcDbArc
 50
0.0
 51
90.0
  0
ARC
  5
446D
330
1A
100
AcDbEntity
  8
外形線
100
AcDbCircle
 10
396.9750759533
 20
168.938640656176
 30
0.0
 40
1.036778391792
100
AcDbArc
 50
307.135436470281
 51
0.0
  0
LINE
  5
446E
330
1A
100
AcDbEntity
  8
外形線
100
AcDbLine
 10
394.901519169716
 20
171.000073107706
 30
0.0
 11
394.901519169716
 21
164.142215313878
 31
0.0
  0
ARC
  5
446F
330
1A
100
AcDbEntity
  8
外形線
100
AcDbCircle
 10
394.901519169717
 20
170.01064439237
 30
0.0
 40
3.110335175376
100
AcDbArc
 50
0.0
 51
90.0
  0
ARC
  5
4470
330
1A
100
AcDbEntity
  8
外形線
100
AcDbCircle
 10
396.9750759533
 20
150.36557919391
 30
0.0
 40
1.036778391792
100
AcDbArc
 50
270.0
 51
0.0
  0
LINE
  5
4471
330
1A
100
AcDbEntity
  8
外形線
100
AcDbLine
 10
394.901519169716
 20
149.328800802118
 30
0.0
 11
394.901519169716
 21
144.14490884316
 31
0.0
  0
ARC
  5
4472
330
1A
100
AcDbEntity
  8
外形線
100
AcDbCircle
 10
396.9750759533
 20
137.924238492408
 30
0.0
 40
1.036778391792
100
AcDbArc
 50
0.0
 51
90.0
  0
LINE
  5
4473
330
1A
100
AcDbEntity
  8
外形線
100
AcDbLine
 10
394.901519169715
 20
138.961016884198
 30
0.0
 11
394.901519169716
 21
144.14490884316
 31
0.0
  0
LINE
  5
4474
330
1A
100
AcDbEntity
  8
外形線
100
AcDbLine
 10
398.011854345092
 20
163.105436922086
 30
0.0
 11
398.011854345092
 21
150.36557919391
 31
0.0
  0
ARC
  5
4475
330
1A
100
AcDbEntity
  8
外形線
100
AcDbCircle
 10
375.617441082384
 20
144.144908843161
 30
0.0
 40
5.183891958959999
100
AcDbArc
 50
90.0
 51
180.0
  0
ARC
  5
4476
330
1A
100
AcDbEntity
  8
外形線
100
AcDbCircle
 10
375.617441082384
 20
144.144908843161
 30
0.0
 40
5.183891958959999
100
AcDbArc
 50
180.0
 51
270.0
  0
LINE
  5
4477
330
1A
100
AcDbEntity
  8
外形線
100
AcDbLine
 10
375.617441082383
 20
138.961016884199
 30
0.0
 11
396.975075953299
 21
138.961016884198
 31
0.0
  0
LINE
  5
4478
330
1A
100
AcDbEntity
  8
外形線
100
AcDbLine
 10
375.617441082384
 20
149.328800802118
 30
0.0
 11
396.9750759533
 21
149.328800802118
 31
0.0
  0
LINE
  5
4479
330
1A
100
AcDbEntity
  8
外形線
100
AcDbLine
 10
375.617441082386
 20
183.062150284785
 30
0.0
 11
394.901519169716
 21
183.062150284784
 31
0.0
  0
LINE
  5
447A
330
1A
100
AcDbEntity
  8
外形線
100
AcDbLine
 10
375.617441082384
 20
173.120979567746
 30
0.0
 11
394.901519169716
 21
173.120979567746
 31
0.0
  0
LINE
  5
447B
330
1A
100
AcDbEntity
  8
外形線
100
AcDbLine
 10
375.617441082384
 20
172.555240695395
 30
0.0
 11
393.346351582028
 21
172.555240695394
 31
0.0
  0
LINE
  5
447C
330
1A
100
AcDbEntity
  8
外形線
100
AcDbLine
 10
375.617441082386
 20
164.142215313879
 30
0.0
 11
396.9750759533
 21
164.142215313878
 31
0.0
  0
LINE
  5
447D
330
1A
100
AcDbEntity
  8
外形線
100
AcDbLine
 10
370.433549123424
 20
193.910271649175
 30
0.0
 11
370.433549123424
 21
144.144908843161
 31
0.0
  0
LINE
  5
447E
330
1A
100
AcDbEntity
  8
外形線
100
AcDbLine
 10
398.011854345092
 20
168.938640656176
 30
0.0
 11
398.011854345092
 21
188.562091238606
 31
0.0
  0
LINE
  5
447F
330
1A
100
AcDbEntity
  8
外形線
100
AcDbLine
 10
394.901519169716
 20
186.258308036224
 30
0.0
 11
394.901519169716
 21
183.062150284784
 31
0.0
  0
LINE
  5
4480
330
1A
100
AcDbEntity
  8
外形線
100
AcDbLine
 10
317.83494580774
 20
189.117280624531
 30
0.0
 11
317.83494580774
 21
190.281547277903
 31
0.0
  0
LINE
  5
4481
330
1A
100
AcDbEntity
  8
外形線
100
AcDbLine
 10
318.871724199532
 20
191.318325669695
 30
0.0
 11
356.696423494446
 21
191.318325669695
 31
0.0
  0
LINE
  5
4482
330
1A
100
AcDbEntity
  8
外形線
100
AcDbLine
 10
397.600980275762
 20
120.177707860062
 30
0.0
 11
394.901519169715
 21
122.221920021828
 31
0.0
  0
ARC
  5
4483
330
1A
100
AcDbEntity
  8
外形線
100
AcDbCircle
 10
396.9750759533
 20
119.351177030142
 30
0.0
 40
1.036778391792
100
AcDbArc
 50
0.0
 51
52.864563529749
  0
ARC
  5
4484
330
1A
100
AcDbEntity
  8
外形線
100
AcDbCircle
 10
396.9750759533
 20
125.184380764232
 30
0.0
 40
1.036778391792
100
AcDbArc
 50
270.0
 51
0.0
  0
ARC
  5
4485
330
1A
100
AcDbEntity
  8
外形線
100
AcDbCircle
 10
394.901519169716
 20
118.279173293948
 30
0.0
 40
3.110335175376
100
AcDbArc
 50
270.0
 51
0.0
  0
LINE
  5
4486
330
1A
100
AcDbEntity
  8
外形線
100
AcDbLine
 10
394.901519169715
 20
117.289744578612
 30
0.0
 11
394.901519169715
 21
124.14760237244
 31
0.0
  0
ARC
  5
4487
330
1A
100
AcDbEntity
  8
外形線
100
AcDbCircle
 10
393.346351582028
 20
117.289744578612
 30
0.0
 40
1.555167587688
100
AcDbArc
 50
270.0
 51
0.0
  0
ARC
  5
4488
330
1A
100
AcDbEntity
  8
外形線
100
AcDbCircle
 10
394.901519169716
 20
108.33800257691
 30
0.0
 40
3.110335175376
100
AcDbArc
 50
270.0
 51
0.0
  0
ARC
  5
4489
330
1A
100
AcDbEntity
  8
外形線
100
AcDbCircle
 10
394.901519169716
 20
102.251109278802
 30
0.0
 40
3.110335175376
100
AcDbArc
 50
270.0
 51
0.0
  0
LINE
  5
448A
330
1A
100
AcDbEntity
  8
外形線
100
AcDbLine
 10
394.901519169715
 20
102.031509650094
 30
0.0
 11
394.901519169715
 21
105.227667401534
 31
0.0
  0
ARC
  5
448B
330
1A
100
AcDbEntity
  8
外形線
100
AcDbCircle
 10
392.827962386132
 20
102.031509650094
 30
0.0
 40
2.073556783584
100
AcDbArc
 50
270.0
 51
0.0
  0
LINE
  5
448C
330
1A
100
AcDbEntity
  8
外形線
100
AcDbLine
 10
398.011854345091
 20
119.351177030142
 30
0.0
 11
398.011854345091
 21
99.727726447712
 31
0.0
  0
ARC
  5
448D
330
1A
100
AcDbEntity
  8
外形線
100
AcDbCircle
 10
393.864740777924
 20
99.727726447712
 30
0.0
 40
4.147113567168
100
AcDbArc
 50
273.000000000006
 51
0.0
  0
LWPOLYLINE
  5
448E
330
1A
100
AcDbEntity
  8
外形線
100
AcDbPolyline
 90
       18
 70
     0
 43
0.0
 10
375.617441082383
 20
115.168838118573
 10
374.664061164642
 20
115.245278380529
 10
373.743147456547
 20
115.471996084956
 10
372.886060569911
 20
115.84127063235
 10
372.121987570699
 20
116.340526820893
 10
371.476948048493
 20
116.952763079875
 10
370.972908050581
 20
117.657130437795
 10
370.627032054565
 20
118.429642509075
 10
370.451098452653
 20
119.243992321651
 10
370.451098452653
 20
120.072448169363
 10
370.627032054565
 20
120.886797981939
 10
370.972908050581
 20
121.659310053218
 10
371.476948048493
 20
122.363677411139
 10
372.121987570699
 20
122.975913670121
 10
372.886060569911
 20
123.475169858665
 10
373.743147456547
 20
123.844444406056
 10
374.664061164642
 20
124.071162110485
 10
375.617441082383
 20
124.147602372441
  0
LWPOLYLINE
  5
448F
330
1A
100
AcDbEntity
  8
外形線
100
AcDbPolyline
 90
        8
 70
     0
 43
0.0
 10
375.617441082383
 20
115.734576990925
 10
374.626982409136
 20
115.811045853326
 10
373.670265237885
 20
116.03784741082
 10
372.779881614334
 20
116.407255318619
 10
371.986163829592
 20
116.906685126715
 10
371.316151103913
 20
117.519122988575
 10
370.792668453962
 20
118.223705264046
 10
370.433549123423
 20
118.996429271453
  0
LWPOLYLINE
  5
4490
330
1A
100
AcDbEntity
  8
外形線
100
AcDbPolyline
 90
        8
 70
     0
 43
0.0
 10
375.617441082383
 20
99.957952866511
 10
374.608585336041
 20
100.01603457105
 10
373.638235972851
 20
100.18806280047
 10
372.743429649941
 20
100.467471517018
 10
371.958319669445
 20
100.84359614438
 10
371.312872402505
 20
101.302080617221
 10
370.831723521624
 20
101.825425328831
 10
370.533237697096
 20
102.393655062681
  0
LWPOLYLINE
  5
4491
330
1A
100
AcDbEntity
  8
外形線
100
AcDbPolyline
 90
       18
 70
     0
 43
0.0
 10
375.617441082383
 20
99.140774103427
 10
374.664018485979
 20
99.192594566139
 10
373.743063552592
 20
99.346291270564
 10
372.885938297914
 20
99.596630259777
 10
372.121831094481
 20
99.935086539745
 10
371.476762696667
 20
100.350134387789
 10
370.972700135083
 20
100.827639847239
 10
370.626808655706
 20
101.351342042377
 10
370.450867178014
 20
101.903406923059
 10
370.450867178014
 20
102.465034581905
 10
370.626808655706
 20
103.017099462586
 10
370.972700135083
 20
103.540801657725
 10
371.476762696667
 20
104.018307117175
 10
372.121831094481
 20
104.433354965219
 10
372.885938297914
 20
104.771811245186
 10
373.743063552592
 20
105.022150234399
 10
374.664018485979
 20
105.175846938824
 10
375.617441082383
 20
105.227667401535
  0
ARC
  5
4492
330
1A
100
AcDbEntity
  8
外形線
100
AcDbCircle
 10
369.396770731632
 20
94.379546037143
 30
0.0
 40
1.036778391792
100
AcDbArc
 50
330.0
 51
0.0
  0
LINE
  5
4493
330
1A
100
AcDbEntity
  8
外形線
100
AcDbLine
 10
364.834945807747
 20
94.379546037143
 30
0.0
 11
365.353335003641
 21
93.861156841246
 31
0.0
  0
LINE
  5
4494
330
1A
100
AcDbEntity
  8
外形線
100
AcDbLine
 10
365.353335003641
 20
93.861156841246
 30
0.0
 11
370.294647157018
 21
93.861156841246
 31
0.0
  0
LINE
  5
4495
330
1A
100
AcDbEntity
  8
外形線
100
AcDbLine
 10
375.617441082383
 20
115.168838118573
 30
0.0
 11
394.901519169715
 21
115.168838118572
 31
0.0
  0
LINE
  5
4496
330
1A
100
AcDbEntity
  8
外形線
100
AcDbLine
 10
375.617441082383
 20
115.734576990925
 30
0.0
 11
393.346351582028
 21
115.734576990924
 31
0.0
  0
LINE
  5
4497
330
1A
100
AcDbEntity
  8
外形線
100
AcDbLine
 10
375.617441082386
 20
105.227667401535
 30
0.0
 11
394.901519169715
 21
105.227667401534
 31
0.0
  0
LINE
  5
4498
330
1A
100
AcDbEntity
  8
外形線
100
AcDbLine
 10
375.617441082383
 20
99.140774103427
 30
0.0
 11
394.901519169715
 21
99.140774103426
 31
0.0
  0
LINE
  5
4499
330
1A
100
AcDbEntity
  8
外形線
100
AcDbLine
 10
375.617441082383
 20
99.957952866511
 30
0.0
 11
392.827962386132
 21
99.95795286651
 31
0.0
  0
LINE
  5
449A
330
1A
100
AcDbEntity
  8
外形線
100
AcDbLine
 10
370.433549123423
 20
94.379546037143
 30
0.0
 11
394.081783932108
 21
95.586296355556
 31
0.0
  0
LINE
  5
449B
330
1A
100
AcDbEntity
  8
外形線
100
AcDbLine
 10
375.617441082386
 20
124.147602372441
 30
0.0
 11
396.975075953299
 21
124.14760237244
 31
0.0
  0
LINE
  5
449C
330
1A
100
AcDbEntity
  8
外形線
100
AcDbLine
 10
317.83494580774
 20
99.172537061789
 30
0.0
 11
317.83494580774
 21
98.008270408415
 31
0.0
  0
LINE
  5
449D
330
1A
100
AcDbEntity
  8
外形線
100
AcDbLine
 10
318.871724199531
 20
96.971492016623
 30
0.0
 11
326.761389024156
 21
96.971492016623
 31
0.0
  0
ARC
  5
449E
330
1A
100
AcDbEntity
  8
外形線
100
AcDbCircle
 10
330.119953513872
 20
86.120732346739
 30
0.0
 40
3.110335175376
100
AcDbArc
 50
224.999999999991
 51
259.247872764006
  0
ARC
  5
449F
330
1A
100
AcDbEntity
  8
外形線
100
AcDbCircle
 10
329.871724199531
 20
84.047175563155
 30
0.0
 40
1.036778391792
100
AcDbArc
 50
180.0
 51
270.0
  0
LINE
  5
44A0
330
1A
100
AcDbEntity
  8
外形線
100
AcDbLine
 10
328.834945807739
 20
84.047175563155
 30
0.0
 11
328.83494580774
 21
117.433503068879
 31
0.0
  0
ARC
  5
44A1
330
1A
100
AcDbEntity
  8
外形線
100
AcDbCircle
 10
326.761389024156
 20
94.897935233039
 30
0.0
 40
2.073556783584
100
AcDbArc
 50
0.0
 51
90.0
  0
LINE
  5
44A2
330
1A
100
AcDbEntity
  8
外形線
100
AcDbLine
 10
328.83494580774
 20
117.433503068879
 30
0.0
 11
356.27643507951
 21
117.433503068879
 31
0.0
  0
LINE
  5
44A3
330
1A
100
AcDbEntity
  8
外形線
100
AcDbLine
 10
329.539687792357
 20
83.010397171363
 30
0.0
 11
363.798167415955
 21
83.010397171363
 31
0.0
  0
ARC
  5
44A4
330
1A
100
AcDbEntity
  8
外形線
100
AcDbCircle
 10
363.798167415956
 20
84.047175563155
 30
0.0
 40
1.036778391792
100
AcDbArc
 50
270.0
 51
0.0
  0
LINE
  5
44A5
330
1A
100
AcDbEntity
  8
外形線
100
AcDbLine
 10
364.834945807747
 20
84.047175563155
 30
0.0
 11
364.834945807748
 21
193.471347881645
 31
0.0
  0
LINE
  5
44A6
330
1A
100
AcDbEntity
  8
外形線
100
AcDbLine
 10
359.651053848787
 20
113.270390983749
 30
0.0
 11
359.651053848788
 21
191.838881490257
 31
0.0
  0
LINE
  5
44A7
330
1A
100
AcDbEntity
  8
外形線
100
AcDbLine
 10
317.83494580774
 20
189.117280624531
 30
0.0
 11
317.83494580774
 21
99.172537061789
 31
0.0
  0
LINE
  5
44A8
330
1A
100
AcDbEntity
  8
外形線
100
AcDbLine
 10
370.433549123423
 20
94.379546037143
 30
0.0
 11
370.433549123424
 21
144.144908843161
 31
0.0
  0
LINE
  5
44A9
330
1A
100
AcDbEntity
  8
外形線
100
AcDbLine
 10
398.011854345091
 20
125.184380764232
 30
0.0
 11
398.011854345091
 21
137.924238492408
 31
0.0
  0
LINE
  5
44AA
330
1A
100
AcDbEntity
  8
外形線
100
AcDbLine
 10
314.256321176613
 20
100.598891665945
 30
0.0
 11
314.256321176613
 21
99.367648633071
 31
0.0
  0
ARC
  5
44AB
330
1A
100
AcDbEntity
  8
外形線
100
AcDbCircle
 10
311.145986001238
 20
100.598891665945
 30
0.0
 40
3.110335175376
100
AcDbArc
 50
0.0
 51
55.000000000003
  0
LINE
  5
44AC
330
1A
100
AcDbEntity
  8
外形線
100
AcDbLine
 10
296.89537763811
 20
177.010397171363
 30
0.0
 11
296.895377638109
 21
111.510397171363
 31
0.0
  0
ARC
  5
44AD
330
1A
100
AcDbEntity
  8
外形線
100
AcDbCircle
 10
316.798167415948
 20
99.172537061789
 30
0.0
 40
1.036778391792
100
AcDbArc
 50
0.0
 51
55.000000000003
  0
ARC
  5
44AE
330
1A
100
AcDbEntity
  8
外形線
100
AcDbCircle
 10
318.871724199532
 20
98.008270408415
 30
0.0
 40
1.036778391792
100
AcDbArc
 50
180.0
 51
270.0
  0
ARC
  5
44AF
330
1A
100
AcDbEntity
  8
外形線
100
AcDbCircle
 10
316.798167415949
 20
189.117280624531
 30
0.0
 40
1.036778391792
100
AcDbArc
 50
304.999999999997
 51
0.0
  0
ARC
  5
44B0
330
1A
100
AcDbEntity
  8
外形線
100
AcDbCircle
 10
318.871724199533
 20
190.281547277903
 30
0.0
 40
1.036778391792
100
AcDbArc
 50
90.0
 51
180.0
  0
DIMENSION
  5
44B1
330
1A
100
AcDbEntity
  8
寸法線
 48
10.0
100
AcDbDimension
  2
*D12
 10
419.183434937406
 20
57.983557171363
 30
0.0
 11
419.183434937406
 21
104.99380071461
 31
0.0
 70
   160
  1
\A1;89
  3
ISO-25
100
AcDbAlignedDimension
 13
398.011100840588
 23
144.260397171362
 33
0.0
 14
355.441945807743
 24
57.983557171363
 34
0.0
 50
90.0
100
AcDbRotatedDimension
1001
ACAD
1000
DSTYLE
1002
{
1070
     5
1000
OPEN30
1070
    41
1040
6.0
1070
    47
1040
0.1
1070
    48
1040
0.1
1070
    73
1070
     0
1070
   140
1040
8.0
1070
   271
1070
     1
1070
   272
1070
     1
1070
   341
1005
2AF4
1002
}
  0
DIMENSION
  5
44B2
330
1A
100
AcDbEntity
  8
寸法線
 48
10.0
100
AcDbDimension
  2
*D13
 10
439.089041644402
 20
194.428660845071
 30
0.0
 11
434.464041644402
 21
144.144908843158
 31
0.0
 70
    32
  1
φ100
  3
ISO-25
100
AcDbAlignedDimension
 13
370.294647157018
 23
93.861156841246
 33
0.0
 14
370.294647157019
 24
194.428660845071
 34
0.0
 50
90.0
100
AcDbRotatedDimension
1001
ACAD
1000
DSTYLE
1002
{
1070
     5
1000
OPEN30
1070
    41
1040
6.0
1070
    47
1040
0.1
1070
    48
1040
0.1
1070
    73
1070
     0
1070
   140
1040
8.0
1070
   271
1070
     1
1070
   272
1070
     1
1070
   341
1005
2AF4
1002
}
  0
LINE
  5
44B3
330
1A
100
AcDbEntity
  8
中心線
 48
10.0
100
AcDbLine
 10
346.668927604156
 20
83.010397171363
 30
0.0
 11
346.834945807743
 21
51.702969171363
 31
0.0
  0
LINE
  5
44B4
330
1A
100
AcDbEntity
  8
中心線
 48
10.0
100
AcDbLine
 10
208.84203877104
 20
144.260397171363
 30
0.0
 11
398.011100840588
 21
144.260397171362
 31
0.0
  0
LINE
  5
44B5
330
1A
100
AcDbEntity
  8
外形線
100
AcDbLine
 10
281.89537763811
 20
163.249166179417
 30
0.0
 11
281.89537763811
 21
125.271628163309
 31
0.0
  0
ARC
  5
44B6
330
1A
100
AcDbEntity
  8
細線
100
AcDbCircle
 10
318.031370174844
 20
144.776637739259
 30
0.0
 40
33.677772310861
100
AcDbArc
 50
160.473379823368
 51
180.878311188663
  0
ARC
  5
44B7
330
1A
100
AcDbEntity
  8
細線
100
AcDbCircle
 10
262.759385101376
 20
144.776637739259
 30
0.0
 40
33.677772310861
100
AcDbArc
 50
359.121688811337
 51
19.526620176632
  0
LINE
  5
44B8
330
1A
100
AcDbEntity
  8
外形線
100
AcDbLine
 10
296.89537763811
 20
163.760397171363
 30
0.0
 11
296.89537763811
 21
124.760397171363
 31
0.0
  0
LINE
  5
44B9
330
1A
100
AcDbEntity
  8
外形線
100
AcDbLine
 10
268.89537763811
 20
130.260397171363
 30
0.0
 11
198.89537763811
 21
130.260397171365
 31
0.0
  0
ARC
  5
44BA
330
1A
100
AcDbEntity
  8
細線
100
AcDbCircle
 10
262.759385101376
 20
143.744156603467
 30
0.0
 40
33.677772310861
100
AcDbArc
 50
340.473379823368
 51
0.878311188663
  0
ARC
  5
44BB
330
1A
100
AcDbEntity
  8
細線
100
AcDbCircle
 10
318.031370174844
 20
143.744156603467
 30
0.0
 40
33.677772310861
100
AcDbArc
 50
179.121688811337
 51
199.526620176632
  0
LINE
  5
44BC
330
1A
100
AcDbEntity
  8
外形線
100
AcDbLine
 10
283.89537763811
 20
124.260397171363
 30
0.0
 11
283.89537763811
 21
164.260397171363
 31
0.0
  0
ARC
  5
44BD
330
1A
100
AcDbEntity
  8
細線
100
AcDbCircle
 10
285.697115610254
 20
126.545985216625
 30
0.0
 40
10.62058168446546
100
AcDbArc
 50
325.706282430469
 51
34.016906058748
  0
ARC
  5
44BE
330
1A
100
AcDbEntity
  8
細線
100
AcDbCircle
 10
294.178503298352
 20
126.352462827985
 30
0.0
 40
9.99295941604506
100
AcDbArc
 50
142.125085915834
 51
215.222189321405
  0
LINE
  5
44BF
330
1A
100
AcDbEntity
  8
外形線
100
AcDbLine
 10
294.48704122064
 20
120.589036134589
 30
0.0
 11
286.015038920984
 21
120.589036134589
 31
0.0
  0
LINE
  5
44C0
330
1A
100
AcDbEntity
  8
外形線
100
AcDbLine
 10
283.89537763811
 20
124.260397171363
 30
0.0
 11
286.015038920984
 21
120.589036134589
 31
0.0
  0
LINE
  5
44C1
330
1A
100
AcDbEntity
  8
外形線
100
AcDbLine
 10
296.89537763811
 20
124.760397171363
 30
0.0
 11
294.48704122064
 21
120.589036134589
 31
0.0
  0
LINE
  5
44C2
330
1A
100
AcDbEntity
  8
細線
100
AcDbLine
 10
294.551799553882
 20
132.410397171363
 30
0.0
 11
286.238955722338
 21
132.410397171363
 31
0.0
  0
LINE
  5
44C3
330
1A
100
AcDbEntity
  8
外形線
100
AcDbLine
 10
268.89537763811
 20
158.260397171363
 30
0.0
 11
198.89537763811
 21
158.260397171365
 31
0.0
  0
ARC
  5
44C4
330
1A
100
AcDbEntity
  8
細線
100
AcDbCircle
 10
294.178503298352
 20
162.168331514741
 30
0.0
 40
9.99295941604506
100
AcDbArc
 50
144.777810678595
 51
217.87491408417
  0
ARC
  5
44C5
330
1A
100
AcDbEntity
  8
細線
100
AcDbCircle
 10
285.697115610254
 20
161.974809126101
 30
0.0
 40
10.62058168446546
100
AcDbArc
 50
325.983093941251
 51
34.293717569531
  0
LINE
  5
44C6
330
1A
100
AcDbEntity
  8
細線
100
AcDbLine
 10
294.551799553882
 20
156.110397171363
 30
0.0
 11
286.238955722338
 21
156.110397171363
 31
0.0
  0
LINE
  5
44C7
330
1A
100
AcDbEntity
  8
外形線
100
AcDbLine
 10
294.48704122064
 20
167.931758208137
 30
0.0
 11
286.015038920984
 21
167.931758208137
 31
0.0
  0
LINE
  5
44C8
330
1A
100
AcDbEntity
  8
外形線
100
AcDbLine
 10
283.89537763811
 20
164.260397171363
 30
0.0
 11
286.015038920984
 21
167.931758208137
 31
0.0
  0
LINE
  5
44C9
330
1A
100
AcDbEntity
  8
外形線
100
AcDbLine
 10
296.89537763811
 20
163.760397171363
 30
0.0
 11
294.48704122064
 21
167.931758208137
 31
0.0
  0
LINE
  5
44CA
330
1A
100
AcDbEntity
  8
外形線
100
AcDbLine
 10
198.89537763811
 20
130.260397171365
 30
0.0
 11
198.89537763811
 21
158.260397171365
 31
0.0
  0
LINE
  5
44CB
330
1A
100
AcDbEntity
  8
外形線
100
AcDbLine
 10
283.89537763811
 20
125.271628163309
 30
0.0
 11
281.89537763811
 21
125.271628163309
 31
0.0
  0
CIRCLE
  5
44CC
330
1A
100
AcDbEntity
  8
外形線
100
AcDbCircle
 10
290.39537763811
 20
144.260397171363
 30
0.0
 40
2.39999999999998
  0
LINE
  5
44CD
330
1A
100
AcDbEntity
  8
外形線
100
AcDbLine
 10
283.89537763811
 20
163.249166179417
 30
0.0
 11
281.89537763811
 21
163.249166179417
 31
0.0
  0
MTEXT
  5
44CE
330
1A
100
AcDbEntity
  8
寸法線
 48
10.0
100
AcDbMText
 10
417.372098006783
 20
48.205543029633
 30
0.0
 40
8.0
 41
60.129060420842
 71
     1
 72
     5
  1
コードロック\P2×M20
  0
MTEXT
  5
44CF
102
{ACAD_XDICTIONARY
360
4972
102
}
330
1A
100
AcDbEntity
  8
寸法線
 48
10.0
100
AcDbMText
 10
318.677103376615
 20
72.497857279401
 30
0.0
 40
8.0
 41
42.299427293917
 71
     3
 72
     5
  1
2×NPT 1/2"
1001
ACADANNOTATIVE
1000
AnnotativeData
1002
{
1070
     1
1070
     0
1002
}
  0
MTEXT
  5
44D0
330
1A
100
AcDbEntity
  8
寸法線
 48
10.0
100
AcDbMText
 10
385.938527639341
 20
230.836498922012
 30
0.0
 40
8.0
 41
49.592740337165
 71
     1
 72
     5
  1
アルミ鋳物
  0
MTEXT
  5
44D1
330
1A
100
AcDbEntity
  8
寸法線
 48
10.0
100
AcDbMText
 10
237.455335291167
 20
244.16383037782
 30
0.0
 40
8.0
 41
91.054545454545
 71
     3
 72
     5
  1
取付ねじ\PG1"
  0
MTEXT
  5
44D2
330
1A
100
AcDbEntity
  8
寸法線
 48
10.0
100
AcDbMText
 10
166.87054171673
 20
224.57096227849
 30
0.0
 40
8.0
 41
0.0
 71
     9
 72
     1
  1
振動部（検知部）\PDIN1.4571（SUS316相当）
  0
MTEXT
  5
44D3
330
1A
100
AcDbEntity
  8
寸法線
 48
10.0
100
AcDbMText
 10
323.924666207808
 20
230.836498922012
 30
0.0
 40
8.0
 41
49.592740337165
 71
     1
 72
     5
  1
平径41
  0
MTEXT
  5
44D4
330
1A
100
AcDbEntity
  8
寸法線
 48
10.0
100
AcDbMText
 10
252.316023080251
 20
230.836498922012
 30
0.0
 40
8.0
 41
49.592740337165
 71
     1
 72
     5
  1
ガスケット
  0
MTEXT
  5
44E7
330
1A
100
AcDbEntity
  8
寸法線
 48
10.0
100
AcDbMText
 10
98.511678894466
 20
-92.382277330289
 30
0.0
 40
8.0
 41
95.557777777778
 71
     1
 72
     5
  1
{\C1;NC}
  0
MTEXT
  5
44E8
330
1A
100
AcDbEntity
  8
寸法線
 48
10.0
100
AcDbMText
 10
75.893977698061
 20
-92.382277330289
 30
0.0
 40
8.0
 41
95.557777777778
 71
     1
 72
     5
  1
{\C1;C}
  0
MTEXT
  5
44E9
330
1A
100
AcDbEntity
  8
寸法線
 48
10.0
100
AcDbMText
 10
47.395003321069
 20
-92.382277330289
 30
0.0
 40
8.0
 41
95.557777777778
 71
     1
 72
     5
  1
{\C1;NO}
  0
MTEXT
  5
44EA
330
1A
100
AcDbEntity
  8
寸法線
 48
10.0
100
AcDbMText
 10
23.132224743573
 20
-92.382277330289
 30
0.0
 40
8.0
 41
95.557777777778
 71
     1
 72
     5
  1
{\C1;L1}
  0
MTEXT
  5
44EB
330
1A
100
AcDbEntity
  8
寸法線
 48
10.0
100
AcDbMText
 10
-2.761451959773
 20
-92.382277330289
 30
0.0
 40
8.0
 41
95.557777777778
 71
     1
 72
     5
  1
{\C1;N}
  0
MTEXT
  5
44EC
330
1A
100
AcDbEntity
  8
寸法線
 48
10.0
100
AcDbMText
 10
-30.522293210209
 20
-92.382277330289
 30
0.0
 40
8.0
 41
95.557777777778
 71
     1
 72
     5
  1
{\C1;PE}
  0
MTEXT
  5
44ED
330
1A
100
AcDbEntity
  8
寸法線
 48
10.0
100
AcDbMText
 10
102.676066961318
 20
-37.52997971008
 30
0.0
 40
7.0
 41
95.557777777778
 71
     1
 72
     5
  1
{\C1;9}
  0
MTEXT
  5
44EE
330
1A
100
AcDbEntity
  8
寸法線
 48
10.0
100
AcDbMText
 10
77.075264701267
 20
-37.52997971008
 30
0.0
 40
7.0
 41
95.557777777778
 71
     1
 72
     5
  1
{\C1;8}
  0
MTEXT
  5
44EF
330
1A
100
AcDbEntity
  8
寸法線
 48
10.0
100
AcDbMText
 10
50.492929102446
 20
-37.52997971008
 30
0.0
 40
7.0
 41
95.557777777778
 71
     1
 72
     5
  1
{\C1;7}
  0
MTEXT
  5
44F0
330
1A
100
AcDbEntity
  8
寸法線
 48
10.0
100
AcDbMText
 10
24.508118031479
 20
-37.52997971008
 30
0.0
 40
7.0
 41
95.557777777778
 71
     1
 72
     5
  1
{\C1;3}
  0
MTEXT
  5
44F1
330
1A
100
AcDbEntity
  8
寸法線
 48
10.0
100
AcDbMText
 10
-1.914970154395
 20
-37.52997971008
 30
0.0
 40
7.0
 41
95.557777777778
 71
     1
 72
     5
  1
{\C1;2}
  0
MTEXT
  5
44F2
330
1A
100
AcDbEntity
  8
寸法線
 48
10.0
100
AcDbMText
 10
-27.934690946418
 20
-37.52997971008
 30
0.0
 40
7.0
 41
95.557777777778
 71
     1
 72
     5
  1
{\C1;1}
  0
MTEXT
  5
44F3
330
1A
100
AcDbEntity
  8
寸法線
 48
10.0
100
AcDbMText
 10
-31.151837108615
 20
-2.865106953719
 30
0.0
 40
8.0
 41
95.557777777778
 71
     1
 72
     5
  1
{\C1;RFM-401}
  0
LINE
  5
44F4
330
1A
100
AcDbEntity
  8
寸法線
100
AcDbLine
 10
38.864941940673
 20
-49.736541398742
 30
0.0
 11
38.864941940673
 21
-58.156541398742
 31
0.0
  0
LINE
  5
44F5
330
1A
100
AcDbEntity
  8
寸法線
100
AcDbLine
 10
38.864941940673
 20
-47.336541398742
 30
0.0
 11
38.864941940673
 21
-43.336541398742
 31
0.0
  0
LINE
  5
44F6
330
1A
100
AcDbEntity
  8
寸法線
100
AcDbLine
 10
40.864941940673
 20
-45.336541398742
 30
0.0
 11
36.864941940673
 21
-45.336541398742
 31
0.0
  0
LINE
  5
44F7
330
1A
100
AcDbEntity
  8
寸法線
100
AcDbLine
 10
43.264941940673
 20
-49.736541398742
 30
0.0
 11
43.264941940673
 21
-40.936541398742
 31
0.0
  0
LINE
  5
44F8
330
1A
100
AcDbEntity
  8
寸法線
100
AcDbLine
 10
34.464941940673
 20
-49.736541398742
 30
0.0
 11
34.464941940673
 21
-40.936541398742
 31
0.0
  0
CIRCLE
  5
44F9
330
1A
100
AcDbEntity
  8
寸法線
100
AcDbCircle
 10
38.864941940673
 20
-45.336541398742
 30
0.0
 40
4.40000000000004
  0
POINT
  5
44FA
330
1A
100
AcDbEntity
  8
寸法線
100
AcDbPoint
 10
38.864941940673
 20
-45.336541398742
 30
0.0
  0
LINE
  5
44FB
330
1A
100
AcDbEntity
  8
寸法線
100
AcDbLine
 10
34.464941940673
 20
-40.936541398742
 30
0.0
 11
43.264941940673
 21
-40.936541398742
 31
0.0
  0
LINE
  5
44FC
330
1A
100
AcDbEntity
  8
寸法線
100
AcDbLine
 10
37.964941940673
 20
-65.236541398742
 30
0.0
 11
40.044941940673
 21
-65.236541398742
 31
0.0
  0
LINE
  5
44FD
330
1A
100
AcDbEntity
  8
寸法線
100
AcDbLine
 10
36.744941940673
 20
-63.496541398742
 30
0.0
 11
41.164941940673
 21
-63.496541398742
 31
0.0
  0
LINE
  5
44FE
330
1A
100
AcDbEntity
  8
寸法線
100
AcDbLine
 10
35.204941940673
 20
-61.696541398742
 30
0.0
 11
42.724941940673
 21
-61.696541398742
 31
0.0
  0
CIRCLE
  5
44FF
330
1A
100
AcDbEntity
  8
寸法線
100
AcDbCircle
 10
38.864941940673
 20
-63.156541398742
 30
0.0
 40
5.0
  0
LINE
  5
4500
330
1A
100
AcDbEntity
  8
寸法線
100
AcDbLine
 10
38.864941940673
 20
-58.156541398742
 30
0.0
 11
38.864941940673
 21
-61.696541398742
 31
0.0
  0
POINT
  5
4501
330
1A
100
AcDbEntity
  8
寸法線
100
AcDbPoint
 10
38.864941940673
 20
-49.736541398742
 30
0.0
  0
LINE
  5
4502
330
1A
100
AcDbEntity
  8
寸法線
100
AcDbLine
 10
91.144941940673
 20
-6.536541398742
 30
0.0
 11
104.264941940673
 21
-6.536541398742
 31
0.0
  0
LINE
  5
4503
330
1A
100
AcDbEntity
  8
寸法線
100
AcDbLine
 10
77.945451496107
 20
-21.34291084167
 30
0.0
 11
92.305007816755
 21
-5.136541398742
 31
0.0
  0
LINE
  5
4504
330
1A
100
AcDbEntity
  8
寸法線
100
AcDbLine
 10
69.174289526815
 20
-6.536541398742
 30
0.0
 11
51.944941940673
 21
-6.536541398742
 31
0.0
  0
CIRCLE
  5
4505
330
1A
100
AcDbEntity
  8
寸法線
100
AcDbCircle
 10
78.104941940673
 20
-23.336541398742
 30
0.0
 40
2.0
  0
LINE
  5
4506
330
1A
100
AcDbEntity
  8
寸法線
100
AcDbLine
 10
51.944941940673
 20
-34.736541398742
 30
0.0
 11
51.944941940673
 21
-6.536541398742
 31
0.0
  0
LINE
  5
4507
330
1A
100
AcDbEntity
  8
寸法線
100
AcDbLine
 10
78.104941940673
 20
-34.736541398742
 30
0.0
 11
78.104941940673
 21
-25.336541398742
 31
0.0
  0
LINE
  5
4508
330
1A
100
AcDbEntity
  8
寸法線
100
AcDbLine
 10
104.264941940673
 20
-34.936541398742
 30
0.0
 11
104.264941940673
 21
-6.536541398742
 31
0.0
  0
LINE
  5
4509
330
1A
100
AcDbEntity
  8
寸法線
100
AcDbLine
 10
-35.735058059327
 20
-51.736541398742
 30
0.0
 11
113.464941940673
 21
-51.736541398742
 31
0.0
  0
LINE
  5
450A
330
1A
100
AcDbEntity
  8
寸法線
100
AcDbLine
 10
113.464941940673
 20
-51.736541398742
 30
0.0
 11
113.464941940673
 21
2.263458601258
 31
0.0
  0
LINE
  5
450B
330
1A
100
AcDbEntity
  8
寸法線
100
AcDbLine
 10
-35.735058059327
 20
2.263458601258
 30
0.0
 11
113.464941940673
 21
2.263458601258
 31
0.0
  0
LINE
  5
450C
330
1A
100
AcDbEntity
  8
寸法線
100
AcDbLine
 10
-35.735058059327
 20
-51.736541398742
 30
0.0
 11
-35.735058059327
 21
2.263458601258
 31
0.0
  0
CIRCLE
  5
450D
330
1A
100
AcDbEntity
  8
寸法線
100
AcDbCircle
 10
104.464941940673
 20
-40.736541398742
 30
0.0
 40
5.0
  0
CIRCLE
  5
450E
330
1A
100
AcDbEntity
  8
寸法線
100
AcDbCircle
 10
78.264941940673
 20
-40.736541398742
 30
0.0
 40
5.0
  0
CIRCLE
  5
450F
330
1A
100
AcDbEntity
  8
寸法線
100
AcDbCircle
 10
52.064941940673
 20
-40.736541398742
 30
0.0
 40
5.0
  0
CIRCLE
  5
4510
330
1A
100
AcDbEntity
  8
寸法線
100
AcDbCircle
 10
25.864941940673
 20
-40.736541398742
 30
0.0
 40
5.0
  0
CIRCLE
  5
4511
330
1A
100
AcDbEntity
  8
寸法線
100
AcDbCircle
 10
-0.335058059327
 20
-40.736541398742
 30
0.0
 40
5.0
  0
CIRCLE
  5
4512
330
1A
100
AcDbEntity
  8
寸法線
100
AcDbCircle
 10
-26.735058059327
 20
-40.736541398742
 30
0.0
 40
5.0
  0
LINE
  5
4513
330
1A
100
AcDbEntity
  8
寸法線
100
AcDbLine
 10
111.464941940673
 20
-49.736541398742
 30
0.0
 11
106.264941940673
 21
-49.736541398742
 31
0.0
  0
LINE
  5
4514
330
1A
100
AcDbEntity
  8
寸法線
100
AcDbLine
 10
80.104941940673
 20
-49.736541398742
 30
0.0
 11
102.264941940673
 21
-49.736541398742
 31
0.0
  0
LINE
  5
4515
330
1A
100
AcDbEntity
  8
寸法線
100
AcDbLine
 10
53.944941940673
 20
-49.736541398742
 30
0.0
 11
76.104941940673
 21
-49.736541398742
 31
0.0
  0
LINE
  5
4516
330
1A
100
AcDbEntity
  8
寸法線
100
AcDbLine
 10
27.784941940673
 20
-49.736541398742
 30
0.0
 11
49.944941940673
 21
-49.736541398742
 31
0.0
  0
LINE
  5
4517
330
1A
100
AcDbEntity
  8
寸法線
100
AcDbLine
 10
1.624941940673
 20
-49.736541398742
 30
0.0
 11
23.784941940673
 21
-49.736541398742
 31
0.0
  0
LINE
  5
4518
330
1A
100
AcDbEntity
  8
寸法線
100
AcDbLine
 10
-24.535058059327
 20
-49.736541398742
 30
0.0
 11
-2.375058059327
 21
-49.736541398742
 31
0.0
  0
LINE
  5
4519
330
1A
100
AcDbEntity
  8
寸法線
100
AcDbLine
 10
-28.535058059327
 20
-49.736541398742
 30
0.0
 11
-33.735058059327
 21
-49.736541398742
 31
0.0
  0
LINE
  5
451A
330
1A
100
AcDbEntity
  8
寸法線
100
AcDbLine
 10
78.104941940673
 20
-51.736541398742
 30
0.0
 11
78.104941940673
 21
-89.736541398742
 31
0.0
  0
LINE
  5
451B
330
1A
100
AcDbEntity
  8
寸法線
100
AcDbLine
 10
51.944941940673
 20
-51.736541398742
 30
0.0
 11
51.944941940673
 21
-89.736541398742
 31
0.0
  0
LINE
  5
451C
330
1A
100
AcDbEntity
  8
寸法線
100
AcDbLine
 10
25.784941940673
 20
-51.736541398742
 30
0.0
 11
25.784941940673
 21
-89.736541398742
 31
0.0
  0
LINE
  5
451D
330
1A
100
AcDbEntity
  8
寸法線
100
AcDbLine
 10
-0.375058059327
 20
-51.736541398742
 30
0.0
 11
-0.375058059327
 21
-89.736541398742
 31
0.0
  0
CIRCLE
  5
451E
330
1A
100
AcDbEntity
  8
寸法線
100
AcDbCircle
 10
104.264941940673
 20
-49.736541398742
 30
0.0
 40
2.0
  0
CIRCLE
  5
451F
330
1A
100
AcDbEntity
  8
寸法線
100
AcDbCircle
 10
78.104941940673
 20
-49.736541398742
 30
0.0
 40
2.0
  0
CIRCLE
  5
4520
330
1A
100
AcDbEntity
  8
寸法線
100
AcDbCircle
 10
51.944941940673
 20
-49.736541398742
 30
0.0
 40
2.0
  0
CIRCLE
  5
4521
330
1A
100
AcDbEntity
  8
寸法線
100
AcDbCircle
 10
25.784941940673
 20
-49.736541398742
 30
0.0
 40
2.0
  0
CIRCLE
  5
4522
330
1A
100
AcDbEntity
  8
寸法線
100
AcDbCircle
 10
-0.375058059327
 20
-49.736541398742
 30
0.0
 40
2.0
  0
CIRCLE
  5
4523
330
1A
100
AcDbEntity
  8
寸法線
100
AcDbCircle
 10
-26.535058059327
 20
-49.736541398742
 30
0.0
 40
2.0
  0
LINE
  5
4524
330
1A
100
AcDbEntity
  8
寸法線
100
AcDbLine
 10
104.264941940673
 20
-51.736541398742
 30
0.0
 11
104.264941940673
 21
-89.736541398742
 31
0.0
  0
LINE
  5
4525
330
1A
100
AcDbEntity
  8
寸法線
100
AcDbLine
 10
-26.535058059327
 20
-51.736541398742
 30
0.0
 11
-26.535058059327
 21
-89.736541398742
 31
0.0
  0
LINE
  5
4526
330
1A
100
AcDbEntity
  8
寸法線
100
AcDbLine
 10
-33.735058059327
 20
0.263458601258
 30
0.0
 11
-33.735058059327
 21
-49.736541398742
 31
0.0
  0
LINE
  5
4527
330
1A
100
AcDbEntity
  8
寸法線
100
AcDbLine
 10
111.464941940673
 20
0.263458601258
 30
0.0
 11
-33.735058059327
 21
0.263458601258
 31
0.0
  0
LINE
  5
4528
330
1A
100
AcDbEntity
  8
寸法線
100
AcDbLine
 10
111.464941940673
 20
0.263458601258
 30
0.0
 11
111.464941940673
 21
-49.736541398742
 31
0.0
  0
DIMENSION
  5
460D
330
1A
100
AcDbEntity
  8
寸法線
 48
10.0
100
AcDbDimension
  2
*D14
 10
283.89537763811
 20
26.760397171365
 30
0.0
 11
221.39537763811
 21
31.389563838031
 31
0.0
 70
    32
  3
ISO-25
100
AcDbAlignedDimension
 13
158.89537763811
 23
135.260397171364
 33
0.0
 14
283.89537763811
 24
124.260397171363
 34
0.0
100
AcDbRotatedDimension
1001
ACAD
1000
DSTYLE
1002
{
1070
     5
1000
OPEN30
1070
    41
1040
6.0
1070
    47
1040
0.1
1070
    48
1040
0.1
1070
    73
1070
     0
1070
   140
1040
8.0
1070
   271
1070
     1
1070
   272
1070
     1
1070
   341
1005
2AF4
1002
}
  0
MTEXT
  5
471A
330
1A
100
AcDbEntity
  8
寸法線
 48
10.0
100
AcDbMText
 10
94.34531733109
 20
-104.293758491666
 30
0.0
 40
8.0
 41
95.557777777778
 71
     1
 72
     5
  1
{\C1;（NO）}
  0
MTEXT
  5
471B
330
1A
100
AcDbEntity
  8
寸法線
 48
10.0
100
AcDbMText
 10
43.295738106255
 20
-104.293758491666
 30
0.0
 40
8.0
 41
95.557777777778
 71
     1
 72
     5
  1
{\C1;（NC）}
  0
MTEXT
  5
471C
330
1A
100
AcDbEntity
  8
寸法線
 48
10.0
100
AcDbMText
 10
145.129197322542
 20
-44.679930471323
 30
0.0
 40
7.0
 41
125.633939393939
 71
     1
 72
     5
  1
{\C1;：グランド\P：電源\P：電源\P：コモン\P：オープン（クローズ）\P：クローズ（オープン）}
  0
MTEXT
  5
471D
330
1A
100
AcDbEntity
  8
寸法線
 48
10.0
100
AcDbMText
 10
133.239004522806
 20
-44.679930471323
 30
0.0
 40
7.0
 41
125.633939393939
 71
     1
 72
     5
  1
{\C1;PE\PN\PL1\PC\PNO\PNC}
  0
MTEXT
  5
471E
102
{ACAD_XDICTIONARY
360
471F
102
}
330
1A
100
AcDbEntity
  8
寸法線
 48
10.0
100
AcDbMText
 10
130.92321447404
 20
-12.176066818581
 30
0.0
 40
8.0
 41
124.815667100994
 71
     1
 72
     5
  1
電源電圧：AC20～255V　　　　　　：DC20～60V
1001
ACADANNOTATIVE
1000
AnnotativeData
1002
{
1070
     1
1070
     0
1002
}
  0
LINE
  5
4722
330
1A
100
AcDbEntity
  8
下書線
100
AcDbLine
 10
52.646335338935
 20
221.618325669695
 30
0.0
 11
457.272988884088
 21
221.618325669695
 31
0.0
  0
LINE
  5
4775
330
1A
100
AcDbEntity
  8
細線
100
AcDbLine
 10
354.334945807743
 20
76.230397171363
 30
0.0
 11
354.334945807743
 21
81.330397171363
 31
0.0
  0
LINE
  5
4776
330
1A
100
AcDbEntity
  8
細線
100
AcDbLine
 10
352.334945807743
 20
76.230397171363
 30
0.0
 11
352.334945807743
 21
81.330397171363
 31
0.0
  0
LINE
  5
4777
330
1A
100
AcDbEntity
  8
細線
100
AcDbLine
 10
341.334945807743
 20
76.230397171363
 30
0.0
 11
341.334945807743
 21
81.330397171363
 31
0.0
  0
LINE
  5
4778
330
1A
100
AcDbEntity
  8
細線
100
AcDbLine
 10
339.334945807743
 20
76.230397171363
 30
0.0
 11
339.334945807743
 21
81.330397171363
 31
0.0
  0
LINE
  5
4779
330
1A
100
AcDbEntity
  8
外形線
100
AcDbLine
 10
360.311695807743
 20
73.693597171363
 30
0.0
 11
360.311695807743
 21
63.319629330199
 31
0.0
  0
LINE
  5
477A
330
1A
100
AcDbEntity
  8
外形線
100
AcDbLine
 10
359.065945807743
 20
62.323297171363
 30
0.0
 11
360.311695807743
 21
63.392377171363
 31
0.0
  0
ARC
  5
477B
330
1A
100
AcDbEntity
  8
細線
100
AcDbCircle
 10
357.323320807743
 20
66.918743485326
 30
0.0
 40
4.622298618747672
100
AcDbArc
 50
229.720808613669
 51
310.279191386337
  0
ARC
  5
477C
330
1A
100
AcDbEntity
  8
外形線
100
AcDbCircle
 10
355.441945807743
 20
61.607557171363
 30
0.0
 40
3.624
100
AcDbArc
 50
270.0
 51
0.0
  0
LINE
  5
477D
330
1A
100
AcDbEntity
  8
外形線
100
AcDbLine
 10
359.065945807743
 20
61.607557171363
 30
0.0
 11
359.065945807743
 21
62.323297171363
 31
0.0
  0
LINE
  5
477E
330
1A
100
AcDbEntity
  8
外形線
100
AcDbLine
 10
360.334945807743
 20
81.330397171363
 30
0.0
 11
360.334945807743
 21
76.230397171363
 31
0.0
  0
LINE
  5
477F
330
1A
100
AcDbEntity
  8
細線
100
AcDbLine
 10
352.334945807744
 20
63.392377171363
 30
0.0
 11
352.334945807743
 21
73.693597171363
 31
0.0
  0
LINE
  5
4780
330
1A
100
AcDbEntity
  8
細線
100
AcDbLine
 10
354.334945807743
 20
63.392377171363
 30
0.0
 11
354.334945807743
 21
73.693597171363
 31
0.0
  0
LINE
  5
4781
330
1A
100
AcDbEntity
  8
細線
100
AcDbLine
 10
354.988945807743
 20
73.693597171363
 30
0.0
 11
354.988945807743
 21
76.230397171363
 31
0.0
  0
LINE
  5
4782
330
1A
100
AcDbEntity
  8
外形線
100
AcDbLine
 10
355.894945807743
 20
73.693597171363
 30
0.0
 11
355.894945807743
 21
76.230397171363
 31
0.0
  0
LINE
  5
4783
330
1A
100
AcDbEntity
  8
細線
100
AcDbLine
 10
355.834945807743
 20
83.010397171363
 30
0.0
 11
355.834945807743
 21
81.330397171363
 31
0.0
  0
LINE
  5
4784
330
1A
100
AcDbEntity
  8
外形線
100
AcDbLine
 10
356.834945807743
 20
81.330397171363
 30
0.0
 11
356.834945807743
 21
83.010397171363
 31
0.0
  0
LINE
  5
4785
330
1A
100
AcDbEntity
  8
細線
100
AcDbLine
 10
337.834945807743
 20
83.010397171363
 30
0.0
 11
337.834945807743
 21
81.330397171363
 31
0.0
  0
LINE
  5
4786
330
1A
100
AcDbEntity
  8
細線
100
AcDbLine
 10
338.680945807743
 20
73.693597171363
 30
0.0
 11
338.680945807743
 21
76.230397171363
 31
0.0
  0
LINE
  5
4787
330
1A
100
AcDbEntity
  8
外形線
100
AcDbLine
 10
336.834945807743
 20
81.330397171363
 30
0.0
 11
336.834945807743
 21
83.010397171363
 31
0.0
  0
ARC
  5
4788
330
1A
100
AcDbEntity
  8
外形線
100
AcDbCircle
 10
338.227945807743
 20
61.607557171363
 30
0.0
 40
3.624
100
AcDbArc
 50
180.0
 51
270.0
  0
ARC
  5
4789
330
1A
100
AcDbEntity
  8
細線
100
AcDbCircle
 10
336.346570807743
 20
66.918743485325
 30
0.0
 40
4.622298618747632
100
AcDbArc
 50
229.72080861366
 51
310.279191386331
  0
LINE
  5
478A
330
1A
100
AcDbEntity
  8
外形線
100
AcDbLine
 10
334.603945807743
 20
62.323297171363
 30
0.0
 11
333.358195807743
 21
63.392377171363
 31
0.0
  0
LINE
  5
478B
330
1A
100
AcDbEntity
  8
外形線
100
AcDbLine
 10
334.603945807743
 20
61.607557171363
 30
0.0
 11
334.603945807743
 21
62.323297171363
 31
0.0
  0
LINE
  5
478C
330
1A
100
AcDbEntity
  8
外形線
100
AcDbLine
 10
337.774945807743
 20
73.693597171363
 30
0.0
 11
337.774945807743
 21
76.230397171363
 31
0.0
  0
LINE
  5
478D
330
1A
100
AcDbEntity
  8
外形線
100
AcDbLine
 10
333.358195807743
 20
73.693597171363
 30
0.0
 11
333.358195807743
 21
63.392377171363
 31
0.0
  0
LINE
  5
478E
330
1A
100
AcDbEntity
  8
外形線
100
AcDbLine
 10
333.358195807743
 20
73.693597171363
 30
0.0
 11
360.311695807743
 21
73.693597171363
 31
0.0
  0
LINE
  5
478F
330
1A
100
AcDbEntity
  8
外形線
100
AcDbLine
 10
333.334945807743
 20
81.330397171363
 30
0.0
 11
333.334945807743
 21
76.230397171363
 31
0.0
  0
LINE
  5
4790
330
1A
100
AcDbEntity
  8
細線
100
AcDbLine
 10
341.334945807743
 20
63.392377171363
 30
0.0
 11
341.334945807743
 21
73.693597171363
 31
0.0
  0
LINE
  5
4791
330
1A
100
AcDbEntity
  8
細線
100
AcDbLine
 10
339.334945807743
 20
63.392377171363
 30
0.0
 11
339.334945807743
 21
73.693597171363
 31
0.0
  0
LINE
  5
4792
330
1A
100
AcDbEntity
  8
外形線
100
AcDbLine
 10
333.334945807743
 20
76.230397171363
 30
0.0
 11
360.334945807743
 21
76.230397171363
 31
0.0
  0
LINE
  5
4793
330
1A
100
AcDbEntity
  8
外形線
100
AcDbLine
 10
360.334945807743
 20
81.330397171363
 30
0.0
 11
333.334945807743
 21
81.330397171363
 31
0.0
  0
ARC
  5
4794
330
1A
100
AcDbEntity
  8
細線
100
AcDbCircle
 10
346.834945807743
 20
76.990526929228
 30
0.0
 40
14.668322222986
100
AcDbArc
 50
247.978303068449
 51
292.021696931551
  0
LINE
  5
4795
330
1A
100
AcDbEntity
  8
細線
100
AcDbLine
 10
352.334945807743
 20
63.392377171363
 30
0.0
 11
354.334945807743
 21
63.392377171363
 31
0.0
  0
LINE
  5
4796
330
1A
100
AcDbEntity
  8
細線
100
AcDbLine
 10
339.334945807743
 20
63.392377171363
 30
0.0
 11
341.334945807742
 21
63.392377171363
 31
0.0
  0
LINE
  5
4797
330
1A
100
AcDbEntity
  8
外形線
100
AcDbLine
 10
338.227945807743
 20
57.983557171363
 30
0.0
 11
355.441945807743
 21
57.983557171363
 31
0.0
  0
LINE
  5
4798
330
1A
100
AcDbEntity
  8
細線
100
AcDbLine
 10
334.603945807743
 20
62.323297171363
 30
0.0
 11
358.994563469749
 21
62.323297171363
 31
0.0
  0
VIEWPORT
  5
2902
330
28FB
100
AcDbEntity
 67
     1
  8
0
 48
10.0
100
AcDbViewport
 10
0.0
 20
0.0
 30
0.0
 40
552.319156214367
 41
300.3
 68
     1
 69
     1
1001
ACAD
1000
MVIEW
1002
{
1070
    16
1010
0.0
1020
0.0
1030
0.0
1010
0.0
1020
0.0
1030
1.0
1040
0.0
1040
300.3
1040
205.756503333333
1040
143.551503333333
1040
50.0
1040
0.0
1040
0.0
1070
    16
1070
   100
1070
     0
1070
     1
1070
     0
1070
     0
1070
     0
1070
     0
1040
0.0
1040
0.0
1040
0.0
1040
10.0
1040
10.0
1040
10.0
1040
10.0
1070
     0
1002
{
1002
}
1002
}
  0
VIEWPORT
  5
2904
330
28FB
100
AcDbEntity
 67
     1
  8
図枠太線
 48
10.0
100
AcDbViewport
 10
204.746305129083
 20
161.396645458131
 30
0.0
 40
400.0
 41
240.0
 68
     2
 69
     2
1001
ACAD
1000
MVIEW
1002
{
1070
    16
1010
0.0
1020
0.0
1030
0.0
1010
0.0
1020
0.0
1030
1.0
1040
0.0
1040
480.0
1040
221.523123225518
1040
70.503674097475
1040
50.0
1040
0.0
1040
0.0
1070
    16
1070
   100
1070
     0
1070
     0
1070
     0
1070
     0
1070
     0
1070
     0
1040
0.0
1040
0.0
1040
0.0
1040
1.0
1040
1.0
1040
0.0
1040
0.0
1070
     0
1002
{
1002
}
1002
}
  0
INSERT
  5
2A59
330
28FB
100
AcDbEntity
 67
     1
  8
図枠太線
100
AcDbBlockReference
  2
A3横用_タイトル
 10
-0.352109406709
 20
-2.129314295396
 30
0.0
  0
MTEXT
  5
2FE3
330
28FB
100
AcDbEntity
 67
     1
  8
寸法線
 48
10.0
100
AcDbMText
 10
149.281561913196
 20
13.738838105692
 30
0.0
 40
7.0
 41
10.579051054442
 71
     1
 72
     5
  1
1:2
  0
MTEXT
  5
2FE7
330
28FB
100
AcDbEntity
 67
     1
  8
寸法線
 48
10.0
100
AcDbMText
 10
312.604602487298
 20
32.24042583589
 30
0.0
 40
6.0
 41
53.647044270833
 71
     1
 72
     5
  1
RFM-401-0
  0
MTEXT
  5
2FE8
330
28FB
100
AcDbEntity
 67
     1
  8
寸法線
 48
10.0
100
AcDbMText
 10
363.257693177112
 20
37.807266065601
 30
0.0
 40
6.0
 41
50.761524795071
 71
     1
 72
     5
  1
{\H0.8333x;振動式\Pレベルスイッチ}
  0
MTEXT
  5
3100
330
28FB
100
AcDbEntity
 67
     1
  8
寸法線
 48
10.0
100
AcDbMText
 10
281.543327050756
 20
49.372488144687
 30
0.0
 40
5.0
 41
58.550841599714
 71
     1
 72
     5
  1
A3縮小図
  0
LINE
  5
3101
330
28FB
100
AcDbEntity
 67
     1
  8
寸法線
 48
10.0
100
AcDbLine
 10
281.543327050756
 20
43.500768817051
 30
0.0
 11
306.086556997961
 21
43.500768817051
 31
0.0
  0
MTEXT
  5
342E
102
{ACAD_XDICTIONARY
360
47D6
102
}
330
28FB
100
AcDbEntity
 67
     1
  8
寸法線
 48
10.0
100
AcDbMText
 10
374.15528129684
 20
48.224963581677
 30
0.0
 40
5.0
 41
54.683098362957
 71
     1
 72
     5
  1
\C1;台数 　 台
1001
ACADANNOTATIVE
1000
AnnotativeData
1002
{
1070
     1
1070
     0
1002
}
  0
MTEXT
  5
467E
102
{ACAD_XDICTIONARY
360
46E1
102
}
330
28FB
100
AcDbEntity
 67
     1
  8
寸法線
 48
10.0
100
AcDbMText
 10
345.324458502001
 20
14.095432513096
 30
0.0
 40
7.0
 41
68.56
 71
     1
 72
     5
  1
HVR-2005
1001
ACADANNOTATIVE
1000
AnnotativeData
1002
{
1070
     1
1070
     0
1002
}
  0
MTEXT
  5
47CE
102
{ACAD_XDICTIONARY
360
47CF
102
}
330
28FB
100
AcDbEntity
 67
     1
  8
寸法線
 48
10.0
100
AcDbMText
 10
175.506541278264
 20
12.819600893732
 30
0.0
 40
5.0
 41
60.244444444444
 71
     1
 72
     5
  1
2015.8.25
1001
ACADANNOTATIVE
1000
AnnotativeData
1002
{
1070
     1
1070
     0
1002
}
  0
MTEXT
  5
47D2
102
{ACAD_XDICTIONARY
360
47D3
102
}
330
28FB
100
AcDbEntity
 67
     1
  8
寸法線
 48
10.0
100
AcDbMText
 10
173.953401409015
 20
32.625226751426
 30
0.0
 40
5.0
 41
24.595673902063
 71
     1
 72
     5
  1
takahashi
1001
ACADANNOTATIVE
1000
AnnotativeData
1002
{
1070
     1
1070
     0
1002
}
  0
MTEXT
  5
4A6F
102
{ACAD_XDICTIONARY
360
4A70
102
}
330
28FB
100
AcDbEntity
 67
     1
  8
下書線
 48
10.0
100
AcDbMText
 10
91.810642765506
 20
168.239340744641
 30
0.0
 40
10.0
 41
174.128675272846
 71
     5
 72
     5
  1
HP掲載図面\P変更・追記不可
1001
ACADANNOTATIVE
1000
AnnotativeData
1002
{
1070
     1
1070
     0
1002
}
  0
LWPOLYLINE
  5
4A73
330
28FB
100
AcDbEntity
 67
     1
  8
下書線
 48
10.0
100
AcDbPolyline
 90
        4
 70
     1
 43
0.0
 10
49.580497511935
 20
186.665945576041
 10
133.41466127569
 20
186.665945576041
 10
133.41466127569
 20
149.543806640061
 10
49.580497511935
 20
149.543806640061
  0
MTEXT
  5
4C9E
102
{ACAD_XDICTIONARY
360
4C9F
102
}
330
28FB
100
AcDbEntity
 67
     1
  8
寸法線
 48
10.0
100
AcDbMText
 10
154.696305129083
 20
29.396646458131
 30
0.0
 40
4.5
 41
29.906507692735
 71
     5
 72
     5
  1
tahara
1001
ACADANNOTATIVE
1000
AnnotativeData
1002
{
1070
     1
1070
     0
1002
}
  0
MTEXT
  5
4CA2
102
{ACAD_XDICTIONARY
360
4CA3
102
}
330
28FB
100
AcDbEntity
 67
     1
  8
寸法線
 48
10.0
100
AcDbMText
 10
121.396304528483
 20
29.396646458131
 30
0.0
 40
4.5
 41
16.097226867587
 71
     5
 72
     5
  1
konishi
1001
ACADANNOTATIVE
1000
AnnotativeData
1002
{
1070
     1
1070
     0
1002
}
  0
ENDSEC
  0
SECTION
  2
OBJECTS
  0
DICTIONARY
  5
C
330
0
100
AcDbDictionary
  3
ACAD_COLOR
350
2948
  3
ACAD_GROUP
350
D
  3
ACAD_LAYOUT
350
2816
  3
ACAD_MATERIAL
350
2947
  3
ACAD_MLEADERSTYLE
350
46DB
  3
ACAD_MLINESTYLE
350
E
  3
ACAD_PLOTSETTINGS
350
2817
  3
ACAD_SCALELIST
350
46B4
  3
ACAD_VISUALSTYLE
350
469B
  3
ACADDIM
350
30EB
  3
ACDBHEADERROUNDTRIPXREC
350
4D6E
  3
ACDBVARIABLEDICTIONARY
350
47FF
  3
DWGPROPS
350
4D93
  0
DICTIONARY
  5
4D94
330
8
100
AcDbDictionary
280
     1
  3
ACAD_XREC_ROUNDTRIP
360
4D95
  0
DICTIONARY
  5
29EA
330
2
100
AcDbDictionary
280
     1
  3
ACAD_LAYERFILTERS
360
2B0C
  3
ACAD_LAYERSTATES
360
29EB
  0
DICTIONARY
  5
4972
330
44CF
100
AcDbDictionary
280
     1
  3
ACDBCONTEXTDATAMANAGER
360
4973
  0
DICTIONARY
  5
471F
330
471E
100
AcDbDictionary
280
     1
  3
ACDBCONTEXTDATAMANAGER
360
4720
  0
DICTIONARY
  5
47D6
330
342E
100
AcDbDictionary
280
     1
  3
ACDBCONTEXTDATAMANAGER
360
47D7
  0
DICTIONARY
  5
46E1
330
467E
100
AcDbDictionary
280
     1
  3
ACDBCONTEXTDATAMANAGER
360
46E2
  0
DICTIONARY
  5
47CF
330
47CE
100
AcDbDictionary
280
     1
  3
ACDBCONTEXTDATAMANAGER
360
47D0
  0
DICTIONARY
  5
47D3
330
47D2
100
AcDbDictionary
280
     1
  3
ACDBCONTEXTDATAMANAGER
360
47D4
  0
DICTIONARY
  5
4A70
330
4A6F
100
AcDbDictionary
280
     1
  3
ACDBCONTEXTDATAMANAGER
360
4A71
  0
DICTIONARY
  5
4C9F
330
4C9E
100
AcDbDictionary
280
     1
  3
ACDBCONTEXTDATAMANAGER
360
4CA0
  0
DICTIONARY
  5
4CA3
330
4CA2
100
AcDbDictionary
280
     1
  3
ACDBCONTEXTDATAMANAGER
360
4CA4
  0
DICTIONARY
  5
2948
102
{ACAD_REACTORS
330
C
102
}
330
C
100
AcDbDictionary
  0
DICTIONARY
  5
D
102
{ACAD_REACTORS
330
C
102
}
330
C
100
AcDbDictionary
  0
DICTIONARY
  5
2816
102
{ACAD_REACTORS
330
C
102
}
330
C
100
AcDbDictionary
  0
DICTIONARY
  5
2947
102
{ACAD_REACTORS
330
C
102
}
330
C
100
AcDbDictionary
  3
BYBLOCK
350
46D7
  3
BYLAYER
350
46D6
  3
GLOBAL
350
46D8
  0
DICTIONARY
  5
46DB
102
{ACAD_REACTORS
330
C
102
}
330
C
100
AcDbDictionary
  3
STANDARD
350
46DC
  0
DICTIONARY
  5
E
102
{ACAD_REACTORS
330
C
102
}
330
C
100
AcDbDictionary
  3
STANDARD
350
13
  0
DICTIONARY
  5
2817
102
{ACAD_REACTORS
330
C
102
}
330
C
100
AcDbDictionary
  0
DICTIONARY
  5
46B4
102
{ACAD_REACTORS
330
C
102
}
330
C
100
AcDbDictionary
  3
A0
350
46B5
  3
A1
350
46B6
  3
A2
350
46B7
  3
A3
350
46B8
  3
A4
350
46B9
  3
A5
350
46BA
  3
A6
350
46BB
  3
A7
350
46BC
  3
A8
350
46BD
  3
A9
350
46BE
  3
B0
350
46BF
  3
B1
350
46C0
  3
B2
350
46C1
  3
B3
350
46C2
  3
B4
350
46C3
  3
B5
350
46C4
  3
B6
350
46C5
  3
B7
350
46C6
  3
B8
350
46C7
  3
B9
350
46C8
  3
C0
350
46C9
  3
C1
350
46CA
  3
C2
350
46CB
  3
C3
350
46CC
  3
C4
350
46CD
  3
C5
350
46CE
  3
C6
350
46CF
  3
C7
350
46D0
  3
C8
350
46D1
  3
C9
350
46D2
  3
D0
350
46D3
  3
D1
350
46D4
  3
D2
350
46D5
  0
DICTIONARY
  5
469B
102
{ACAD_REACTORS
330
C
102
}
330
C
100
AcDbDictionary
  3
2DWIREFRAME
350
46A0
  3
BASIC
350
46A3
  3
BRIGHTEN
350
46A7
  3
COLORCHANGE
350
46AB
  3
CONCEPTUAL
350
46A5
  3
DIM
350
46A6
  3
EDGECOLOROFF
350
46AE
  3
FACEPATTERN
350
46AA
  3
FLAT
350
469C
  3
FLATWITHEDGES
350
469D
  3
GOURAUD
350
469E
  3
GOURAUDWITHEDGES
350
469F
  3
HIDDEN
350
46A2
  3
JITTEROFF
350
46AC
  3
LINEPATTERN
350
46A9
  3
MODELING
350
46DD
  3
OVERHANGOFF
350
46AD
  3
REALISTIC
350
46A4
  3
SHADED
350
46B3
  3
SHADED_WITH_EDGES
350
46B2
  3
SHADES_OF_GRAY
350
46AF
  3
SKETCHY
350
46B0
  3
THICKEN
350
46A8
  3
WIREFRAME
350
46A1
  3
X-RAY
350
46B1
  0
XRECORD
  5
30EB
102
{ACAD_REACTORS
330
C
102
}
330
C
100
AcDbXrecord
 90
   990106
  3

 60
     0
 61
     0
 62
     1
 63
     3
 64
     0
 65
     0
 66
     0
 67
     3
 68
     1
 69
     0
 70
     0
 71
     0
 72
     0
 40
0.0
170
     0
  0
DICTIONARY
  5
4D6E
102
{ACAD_REACTORS
330
C
102
}
330
C
100
AcDbDictionary
  3
CEPSNID
350
4D78
  3
CEPSNTYPE
350
4D77
  3
COLORDICT
350
4D91
  3
DIMSTYLEDATA
350
4D8E
  3
FINGERPRINTGUID
350
4D79
  3
HYPERLINKBASE
350
4D71
  3
INSUNITS
350
4D76
  3
LAYOUTDICT
350
4D73
  3
LWETCUNION
350
4D75
  3
MATERIALDICT
350
4D92
  3
PLOTSETDICT
350
4D74
  3
PSVPSCALE
350
4D7B
  3
PUCSBASE
350
4D7E
  3
PUCSORGBACK
350
4D84
  3
PUCSORGBOTTOM
350
4D80
  3
PUCSORGFRONT
350
4D83
  3
PUCSORGLEFT
350
4D81
  3
PUCSORGRIGHT
350
4D82
  3
PUCSORGTOP
350
4D7F
  3
PUCSORTHOREF
350
4D7C
  3
PUCSORTHOVIEW
350
4D7D
  3
STYLESHEET
350
4D72
  3
TSTACKALIGN
350
4D6F
  3
TSTACKSIZE
350
4D70
  3
UCSBASE
350
4D87
  3
UCSORGBACK
350
4D8D
  3
UCSORGBOTTOM
350
4D89
  3
UCSORGFRONT
350
4D8C
  3
UCSORGLEFT
350
4D8A
  3
UCSORGRIGHT
350
4D8B
  3
UCSORGTOP
350
4D88
  3
UCSORTHOREF
350
4D85
  3
UCSORTHOVIEW
350
4D86
  3
VERSIONGUID
350
4D7A
  0
DICTIONARY
  5
47FF
102
{ACAD_REACTORS
330
C
102
}
330
C
100
AcDbDictionary
  3
CANNOSCALE
350
4800
  3
CMLEADERSTYLE
350
4841
  3
CTABLESTYLE
350
4840
  3
DIMASSOC
350
4D8F
  3
HIDETEXT
350
4D90
  3
MSLTSCALE
350
4842
  3
XCLIPFRAME
350
4843
  0
XRECORD
  5
4D93
102
{ACAD_REACTORS
330
C
102
}
330
C
100
AcDbXrecord
  1
DWGPROPS COOKIE
  2

  3

  4

  6

  7

  8
takahashi
  9

300
=
301
=
302
=
303
=
304
=
305
=
306
=
307
=
308
=
309
=
 40
0.0
 41
2450576.222302431
 42
2457268.998173264
  1

 90
        0
  0
XRECORD
  5
4D95
102
{ACAD_REACTORS
330
4D94
102
}
330
4D94
100
AcDbXrecord
102
VTR_0.000_0.000_1.000_1.000_VISUALSTYLE
340
46A0
102
VTR_0.000_0.000_1.000_1.000_GRIDDISPLAY
 70
     3
102
VTR_0.000_0.000_1.000_1.000_GRIDMAJOR
 70
     5
102
VTR_0.000_0.000_1.000_1.000_DEFAULTLIGHTING
280
     1
102
VTR_0.000_0.000_1.000_1.000_DEFAULTLIGHTINGTYPE
 70
     1
102
VTR_0.000_0.000_1.000_1.000_BRIGHTNESS
141
0.0
102
VTR_0.000_0.000_1.000_1.000_CONTRAST
142
0.0
  0
DICTIONARY
  5
2B0C
102
{ACAD_REACTORS
330
29EA
102
}
330
29EA
100
AcDbDictionary
  0
DICTIONARY
  5
29EB
102
{ACAD_REACTORS
330
29EA
102
}
330
29EA
100
AcDbDictionary
  0
DICTIONARY
  5
4973
102
{ACAD_REACTORS
330
4972
102
}
330
4972
100
AcDbDictionary
  3
ACDB_ANNOTATIONSCALES
350
4974
  0
DICTIONARY
  5
4720
102
{ACAD_REACTORS
330
471F
102
}
330
471F
100
AcDbDictionary
  3
ACDB_ANNOTATIONSCALES
350
4721
  0
DICTIONARY
  5
47D7
102
{ACAD_REACTORS
330
47D6
102
}
330
47D6
100
AcDbDictionary
  3
ACDB_ANNOTATIONSCALES
350
47D8
  0
DICTIONARY
  5
46E2
102
{ACAD_REACTORS
330
46E1
102
}
330
46E1
100
AcDbDictionary
  3
ACDB_ANNOTATIONSCALES
350
46E3
  0
DICTIONARY
  5
47D0
102
{ACAD_REACTORS
330
47CF
102
}
330
47CF
100
AcDbDictionary
  3
ACDB_ANNOTATIONSCALES
350
47D1
  0
DICTIONARY
  5
47D4
102
{ACAD_REACTORS
330
47D3
102
}
330
47D3
100
AcDbDictionary
  3
ACDB_ANNOTATIONSCALES
350
47D5
  0
DICTIONARY
  5
4A71
102
{ACAD_REACTORS
330
4A70
102
}
330
4A70
100
AcDbDictionary
  3
ACDB_ANNOTATIONSCALES
350
4A72
  0
DICTIONARY
  5
4CA0
102
{ACAD_REACTORS
330
4C9F
102
}
330
4C9F
100
AcDbDictionary
  3
ACDB_ANNOTATIONSCALES
350
4CA1
  0
DICTIONARY
  5
4CA4
102
{ACAD_REACTORS
330
4CA3
102
}
330
4CA3
100
AcDbDictionary
  3
ACDB_ANNOTATIONSCALES
350
4CA5
  0
MATERIAL
  5
46D7
102
{ACAD_REACTORS
330
2947
102
}
102
{ACAD_XDICTIONARY
360
4D98
102
}
330
2947
100
AcDbMaterial
  1
BYBLOCK
  0
MATERIAL
  5
46D6
102
{ACAD_REACTORS
330
2947
102
}
102
{ACAD_XDICTIONARY
360
4D96
102
}
330
2947
100
AcDbMaterial
  1
BYLAYER
  0
MATERIAL
  5
46D8
102
{ACAD_REACTORS
330
2947
102
}
102
{ACAD_XDICTIONARY
360
4D9A
102
}
330
2947
100
AcDbMaterial
  1
GLOBAL
  0
ACAD_PROXY_OBJECT
  5
46DC
102
{ACAD_REACTORS
330
46DB
102
}
330
46DB
100
AcDbProxyObject
 90
      499
 91
      507
 93
      610
310
40901902A4063FBFFFFFE0000000000000020400000000000020404214DD185B99185C990000000000000104090141901A00000000000004100000000000000041025764000000000000039000
340
14
340
0
340
10
340
0
 94
        0
1001
ACAD_MLEADERVER
1070
     2
  0
MLINESTYLE
  5
13
102
{ACAD_REACTORS
330
E
102
}
330
E
100
AcDbMlineStyle
  2
STANDARD
 70
     0
  3

 62
     0
 51
90.0
 52
90.0
 71
     2
 49
0.5
 62
   256
  6
BYLAYER
 49
-0.5
 62
   256
  6
BYLAYER
  0
ACAD_PROXY_OBJECT
  5
46B5
102
{ACAD_REACTORS
330
46B4
102
}
330
46B4
100
AcDbProxyObject
 90
      499
 91
      504
 93
       41
310
903313A31580
  0
ACAD_PROXY_OBJECT
  5
46B6
102
{ACAD_REACTORS
330
46B4
102
}
330
46B4
100
AcDbProxyObject
 90
      499
 91
      504
 93
      105
310
903313A324000000000000004000
  0
ACAD_PROXY_OBJECT
  5
46B7
102
{ACAD_REACTORS
330
46B4
102
}
330
46B4
100
AcDbProxyObject
 90
      499
 91
      504
 93
      105
310
903313A344000000000000104000
  0
ACAD_PROXY_OBJECT
  5
46B8
102
{ACAD_REACTORS
330
46B4
102
}
330
46B4
100
AcDbProxyObject
 90
      499
 91
      504
 93
      105
310
903313A354000000000000144000
  0
ACAD_PROXY_OBJECT
  5
46B9
102
{ACAD_REACTORS
330
46B4
102
}
330
46B4
100
AcDbProxyObject
 90
      499
 91
      504
 93
      105
310
903313A384000000000000204000
  0
ACAD_PROXY_OBJECT
  5
46BA
102
{ACAD_REACTORS
330
46B4
102
}
330
46B4
100
AcDbProxyObject
 90
      499
 91
      504
 93
      113
310
904313A31304000000000000244000
  0
ACAD_PROXY_OBJECT
  5
46BB
102
{ACAD_REACTORS
330
46B4
102
}
330
46B4
100
AcDbProxyObject
 90
      499
 91
      504
 93
      113
310
904313A31364000000000000304000
  0
ACAD_PROXY_OBJECT
  5
46BC
102
{ACAD_REACTORS
330
46B4
102
}
330
46B4
100
AcDbProxyObject
 90
      499
 91
      504
 93
      113
310
904313A32304000000000000344000
  0
ACAD_PROXY_OBJECT
  5
46BD
102
{ACAD_REACTORS
330
46B4
102
}
330
46B4
100
AcDbProxyObject
 90
      499
 91
      504
 93
      113
310
904313A333040000000000003E4000
  0
ACAD_PROXY_OBJECT
  5
46BE
102
{ACAD_REACTORS
330
46B4
102
}
330
46B4
100
AcDbProxyObject
 90
      499
 91
      504
 93
      113
310
904313A34304000000000000444000
  0
ACAD_PROXY_OBJECT
  5
46BF
102
{ACAD_REACTORS
330
46B4
102
}
330
46B4
100
AcDbProxyObject
 90
      499
 91
      504
 93
      113
310
904313A35304000000000000494000
  0
ACAD_PROXY_OBJECT
  5
46C0
102
{ACAD_REACTORS
330
46B4
102
}
330
46B4
100
AcDbProxyObject
 90
      499
 91
      504
 93
      121
310
905313A3130304000000000000594000
  0
ACAD_PROXY_OBJECT
  5
46C1
102
{ACAD_REACTORS
330
46B4
102
}
330
46B4
100
AcDbProxyObject
 90
      499
 91
      504
 93
      105
310
903323A310000000000000010100
  0
ACAD_PROXY_OBJECT
  5
46C2
102
{ACAD_REACTORS
330
46B4
102
}
330
46B4
100
AcDbProxyObject
 90
      499
 91
      504
 93
      105
310
903343A310000000000000410100
  0
ACAD_PROXY_OBJECT
  5
46C3
102
{ACAD_REACTORS
330
46B4
102
}
330
46B4
100
AcDbProxyObject
 90
      499
 91
      504
 93
      105
310
903383A310000000000000810100
  0
ACAD_PROXY_OBJECT
  5
46C4
102
{ACAD_REACTORS
330
46B4
102
}
330
46B4
100
AcDbProxyObject
 90
      499
 91
      504
 93
      113
310
90431303A310000000000000910100
  0
ACAD_PROXY_OBJECT
  5
46C5
102
{ACAD_REACTORS
330
46B4
102
}
330
46B4
100
AcDbProxyObject
 90
      499
 91
      504
 93
      121
310
9053130303A310000000000001650100
  0
ACAD_PROXY_OBJECT
  5
46C6
102
{ACAD_REACTORS
330
46B4
102
}
330
46B4
100
AcDbProxyObject
 90
      499
 91
      504
 93
      257
310
90E312F31323822203D2031272D3022000000000000200FC000000000000284000
  0
ACAD_PROXY_OBJECT
  5
46C7
102
{ACAD_REACTORS
330
46B4
102
}
330
46B4
100
AcDbProxyObject
 90
      499
 91
      504
 93
      249
310
90D312F363422203D2031272D3022000000000000240FC000000000000284000
  0
ACAD_PROXY_OBJECT
  5
46C8
102
{ACAD_REACTORS
330
46B4
102
}
330
46B4
100
AcDbProxyObject
 90
      499
 91
      504
 93
      249
310
90D312F333222203D2031272D3022000000000000280FC000000000000284000
  0
ACAD_PROXY_OBJECT
  5
46C9
102
{ACAD_REACTORS
330
46B4
102
}
330
46B4
100
AcDbProxyObject
 90
      499
 91
      504
 93
      249
310
90D312F313622203D2031272D30220000000000002C0FC000000000000284000
  0
ACAD_PROXY_OBJECT
  5
46CA
102
{ACAD_REACTORS
330
46B4
102
}
330
46B4
100
AcDbProxyObject
 90
      499
 91
      504
 93
      249
310
90D332F333222203D2031272D30220000000000002E0FC000000000000284000
  0
ACAD_PROXY_OBJECT
  5
46CB
102
{ACAD_REACTORS
330
46B4
102
}
330
46B4
100
AcDbProxyObject
 90
      499
 91
      504
 93
      241
310
90C312F3822203D2031272D3022000000000000300FC000000000000284000
  0
ACAD_PROXY_OBJECT
  5
46CC
102
{ACAD_REACTORS
330
46B4
102
}
330
46B4
100
AcDbProxyObject
 90
      499
 91
      504
 93
      249
310
90D332F313622203D2031272D3022000000000000320FC000000000000284000
  0
ACAD_PROXY_OBJECT
  5
46CD
102
{ACAD_REACTORS
330
46B4
102
}
330
46B4
100
AcDbProxyObject
 90
      499
 91
      504
 93
      241
310
90C312F3422203D2031272D3022000000000000340FC000000000000284000
  0
ACAD_PROXY_OBJECT
  5
46CE
102
{ACAD_REACTORS
330
46B4
102
}
330
46B4
100
AcDbProxyObject
 90
      499
 91
      504
 93
      241
310
90C332F3822203D2031272D3022000000000000360FC000000000000284000
  0
ACAD_PROXY_OBJECT
  5
46CF
102
{ACAD_REACTORS
330
46B4
102
}
330
46B4
100
AcDbProxyObject
 90
      499
 91
      504
 93
      241
310
90C312F3222203D2031272D3022000000000000380FC000000000000284000
  0
ACAD_PROXY_OBJECT
  5
46D0
102
{ACAD_REACTORS
330
46B4
102
}
330
46B4
100
AcDbProxyObject
 90
      499
 91
      504
 93
      241
310
90C332F3422203D2031272D30220000000000003A0FC000000000000284000
  0
ACAD_PROXY_OBJECT
  5
46D1
102
{ACAD_REACTORS
330
46B4
102
}
330
46B4
100
AcDbProxyObject
 90
      499
 91
      504
 93
      161
310
90A3122203D2031272D30224000000000000284000
  0
ACAD_PROXY_OBJECT
  5
46D2
102
{ACAD_REACTORS
330
46B4
102
}
330
46B4
100
AcDbProxyObject
 90
      499
 91
      504
 93
      257
310
90E312D312F3222203D2031272D30220000000000003E0FC000000000000284000
  0
ACAD_PROXY_OBJECT
  5
46D3
102
{ACAD_REACTORS
330
46B4
102
}
330
46B4
100
AcDbProxyObject
 90
      499
 91
      504
 93
      225
310
90A3322203D2031272D302200000000000002100000000000000284000
  0
ACAD_PROXY_OBJECT
  5
46D4
102
{ACAD_REACTORS
330
46B4
102
}
330
46B4
100
AcDbProxyObject
 90
      499
 91
      504
 93
      225
310
90A3622203D2031272D302200000000000006100000000000000284000
  0
ACAD_PROXY_OBJECT
  5
46D5
102
{ACAD_REACTORS
330
46B4
102
}
330
46B4
100
AcDbProxyObject
 90
      499
 91
      504
 93
      249
310
90D31272D3022203D2031272D30220000000000000A100000000000000284000
  0
ACAD_PROXY_OBJECT
  5
46A0
102
{ACAD_REACTORS
330
469B
102
}
330
469B
100
AcDbProxyObject
 90
      499
 91
      503
 93
      436
310
42CC9915DA5C99599C985B595049028333333333333E33F0000000000000F90107901411070040501600405405064090741402480A0340
1001
ACAD
1000
AcDbSavedByObjectVersion
1070
     0
  0
ACAD_PROXY_OBJECT
  5
46A3
102
{ACAD_REACTORS
330
469B
102
}
330
469B
100
AcDbProxyObject
 90
      499
 91
      503
 93
      388
310
4150985CDA58D07406404333333333333E33F0000000000000F90107A41107004050150841D405064090741402480A0350
1001
ACAD
1000
AcDbSavedByObjectVersion
1070
     0
  0
ACAD_PROXY_OBJECT
  5
46A7
102
{ACAD_REACTORS
330
469B
102
}
330
469B
100
AcDbProxyObject
 90
      499
 91
      503
 93
      428
310
42109C9A59DA1D195B90C409028333333333333E33F0000000000000F9010790141107004050150841D405064090741402480A029950
1001
ACAD
1000
AcDbSavedByObjectVersion
1070
     0
  0
ACAD_PROXY_OBJECT
  5
46AB
102
{ACAD_REACTORS
330
469B
102
}
330
469B
100
AcDbProxyObject
 90
      499
 91
      503
 93
      452
310
42D0DBDB1BDC90DA185B99D95104090240C333333333333E33F0000000000000F90108901411070040501508421405064090741402480A0350
1001
ACAD
1000
AcDbSavedByObjectVersion
1070
     0
  0
ACAD_PROXY_OBJECT
  5
46A5
102
{ACAD_REACTORS
330
469B
102
}
330
469B
100
AcDbProxyObject
 90
      499
 91
      503
 93
      500
310
4290DBDB98D95C1D1D585B10940D028333333333333E33F0000000000000F90107902409070040501000000000018199010841D405064090740C02480A0340
1001
ACAD
1000
AcDbSavedByObjectVersion
1070
     0
  0
ACAD_PROXY_OBJECT
  5
46A6
102
{ACAD_REACTORS
330
469B
102
}
330
469B
100
AcDbProxyObject
 90
      499
 91
      503
 93
      412
310
40D11A5B50B409028333333333333E33F0000000000000F9010790141107004050150841D405064090741402480A02677FFFFFD0
1001
ACAD
1000
AcDbSavedByObjectVersion
1070
     0
  0
ACAD_PROXY_OBJECT
  5
46AE
102
{ACAD_REACTORS
330
469B
102
}
330
469B
100
AcDbProxyObject
 90
      499
 91
      503
 93
      452
310
43115919D950DBDB1BDC93D999916409028333333333333E33F0000000000000F9010790141107004050150841D405064090741402480A0350
1001
ACAD
1000
AcDbSavedByObjectVersion
1070
     0
  0
ACAD_PROXY_OBJECT
  5
46AA
102
{ACAD_REACTORS
330
469B
102
}
330
469B
100
AcDbProxyObject
 90
      499
 91
      503
 93
      444
310
42D19858D95C185D1D195C9B90F409028333333333333E33F0000000000000F9010790141107004050150841D405064090741402480A0350
1001
ACAD
1000
AcDbSavedByObjectVersion
1070
     0
  0
ACAD_PROXY_OBJECT
  5
469C
102
{ACAD_REACTORS
330
469B
102
}
330
469B
100
AcDbProxyObject
 90
      499
 91
      503
 93
      380
310
41119B185D240901404333333333333E33F0000000000000F9010740A907004050150841D405064090741402480A1B50
1001
ACAD
1000
AcDbSavedByObjectVersion
1070
     0
  0
ACAD_PROXY_OBJECT
  5
469D
102
{ACAD_REACTORS
330
469B
102
}
330
469B
100
AcDbProxyObject
 90
      499
 91
      503
 93
      468
310
43519B185D15DA5D1A115919D95CD0140901404333333333333E33F0000000000000F90107409019070040501600405405064090741402480A1B50
1001
ACAD
1000
AcDbSavedByObjectVersion
1070
     0
  0
ACAD_PROXY_OBJECT
  5
469E
102
{ACAD_REACTORS
330
469B
102
}
330
469B
100
AcDbProxyObject
 90
      499
 91
      503
 93
      404
310
41D1DBDD5C985D5910240902404333333333333E33F0000000000000F9010740A9070040501641D405064090741402480A1B50
1001
ACAD
1000
AcDbSavedByObjectVersion
1070
     0
  0
ACAD_PROXY_OBJECT
  5
469F
102
{ACAD_REACTORS
330
469B
102
}
330
469B
100
AcDbProxyObject
 90
      499
 91
      503
 93
      492
310
4411DBDD5C985D5915DA5D1A115919D95CD0340902404333333333333E33F0000000000000F90107409019070040501600405405064090741402480A1B50
1001
ACAD
1000
AcDbSavedByObjectVersion
1070
     0
  0
ACAD_PROXY_OBJECT
  5
46A2
102
{ACAD_REACTORS
330
469B
102
}
330
469B
100
AcDbProxyObject
 90
      499
 91
      503
 93
      476
310
41921A5919195B90640502408333333333333E33F0000000000000F901079024090700405020000000000001110200405405064090740C02480A0340
1001
ACAD
1000
AcDbSavedByObjectVersion
1070
     0
  0
ACAD_PROXY_OBJECT
  5
46AC
102
{ACAD_REACTORS
330
469B
102
}
330
469B
100
AcDbProxyObject
 90
      499
 91
      503
 93
      428
310
42529A5D1D195C93D999914409028333333333333E33F0000000000000F9010790141107004050150A41D405064090741402480A0350
1001
ACAD
1000
AcDbSavedByObjectVersion
1070
     0
  0
ACAD_PROXY_OBJECT
  5
46A9
102
{ACAD_REACTORS
330
469B
102
}
330
469B
100
AcDbProxyObject
 90
      499
 91
      503
 93
      444
310
42D31A5B995C185D1D195C9B90E409028333333333333E33F0000000000000F9010790141107004050750841D405064090741402483A0350
1001
ACAD
1000
AcDbSavedByObjectVersion
1070
     0
  0
ACAD_PROXY_OBJECT
  5
46DD
102
{ACAD_REACTORS
330
469B
102
}
330
469B
100
AcDbProxyObject
 90
      499
 91
      503
 93
      412
310
90A409038333333333333E33F0000000000000F901074090290700405010000000000201990108421405064090741402480A1B40
1001
ACAD
1000
AcDbSavedByObjectVersion
1070
     0
  0
ACAD_PROXY_OBJECT
  5
46AD
102
{ACAD_REACTORS
330
469B
102
}
330
469B
100
AcDbProxyObject
 90
      499
 91
      503
 93
      444
310
42D3DD995C9A185B99D3D999915409028333333333333E33F0000000000000F9010790141107004050150941D405064090741402480A0350
1001
ACAD
1000
AcDbSavedByObjectVersion
1070
     0
  0
ACAD_PROXY_OBJECT
  5
46A4
102
{ACAD_REACTORS
330
469B
102
}
330
469B
100
AcDbProxyObject
 90
      499
 91
      503
 93
      428
310
425499585B1A5CDD1A58D08409038333333333333E33F0000000000000F9010740A907004050150800405405064090740C02480A1B40
1001
ACAD
1000
AcDbSavedByObjectVersion
1070
     0
  0
ACAD_PROXY_OBJECT
  5
46B3
102
{ACAD_REACTORS
330
469B
102
}
330
469B
100
AcDbProxyObject
 90
      499
 91
      503
 93
      420
310
4194DA1859195911B40902404333333333333E33F0000000000000F9010740A41107004050150800405405064090840C02480A0B40
1001
ACAD
1000
AcDbSavedByObjectVersion
1070
     0
  0
ACAD_PROXY_OBJECT
  5
46B2
102
{ACAD_REACTORS
330
469B
102
}
330
469B
100
AcDbProxyObject
 90
      499
 91
      503
 93
      516
310
4454DA18591959081DDA5D1A08195919D95CD1A40902404333333333333E33F0000000000000F901074090142907004050250800405405064090740C02480A0B40
1001
ACAD
1000
AcDbSavedByObjectVersion
1070
     0
  0
ACAD_PROXY_OBJECT
  5
46AF
102
{ACAD_REACTORS
330
469B
102
}
330
469B
100
AcDbProxyObject
 90
      499
 91
      503
 93
      532
310
4394DA1859195CC81BD98811DC985E5174090240C333333333333E33F0000000000000F901079024090741D01000000000000111010841D405064090740C02480A0340
1001
ACAD
1000
AcDbSavedByObjectVersion
1070
     0
  0
ACAD_PROXY_OBJECT
  5
46B0
102
{ACAD_REACTORS
330
469B
102
}
330
469B
100
AcDbProxyObject
 90
      499
 91
      503
 93
      476
310
41D4DAD95D18DA1E51840502408333333333333E33F0000000000000F901079024090741D01000000000000111010B41D405064090741802480A0340
1001
ACAD
1000
AcDbSavedByObjectVersion
1070
     0
  0
ACAD_PROXY_OBJECT
  5
46A8
102
{ACAD_REACTORS
330
469B
102
}
330
469B
100
AcDbProxyObject
 90
      499
 91
      503
 93
      412
310
41D51A1A58DAD95B90D409028333333333333E33F0000000000000F9010790141107004050150C41D405064090741402480A0350
1001
ACAD
1000
AcDbSavedByObjectVersion
1070
     0
  0
ACAD_PROXY_OBJECT
  5
46A1
102
{ACAD_REACTORS
330
469B
102
}
330
469B
100
AcDbProxyObject
 90
      499
 91
      503
 93
      420
310
4255DA5C99599C985B595059028333333333333E33F0000000000000F90107901411070040501600405405064090740C02480A0340
1001
ACAD
1000
AcDbSavedByObjectVersion
1070
     0
  0
ACAD_PROXY_OBJECT
  5
46B1
102
{ACAD_REACTORS
330
469B
102
}
330
469B
100
AcDbProxyObject
 90
      499
 91
      503
 93
      404
310
41560B54985E51940902404000000000000E03F0000000000000F9010740501907004050150841D405064090740C02480A1B40
1001
ACAD
1000
AcDbSavedByObjectVersion
1070
     0
  0
XRECORD
  5
4D78
102
{ACAD_REACTORS
330
4D6E
102
}
330
4D6E
100
AcDbXrecord
340
0
  0
XRECORD
  5
4D77
102
{ACAD_REACTORS
330
4D6E
102
}
330
4D6E
100
AcDbXrecord
 90
        0
  0
XRECORD
  5
4D91
102
{ACAD_REACTORS
330
4D6E
102
}
330
4D6E
100
AcDbXrecord
340
2948
  0
XRECORD
  5
4D8E
102
{ACAD_REACTORS
330
4D6E
102
}
330
4D6E
100
AcDbXrecord
1000
DSTYLE
1002
{
1070
   171
 70
     2
1070
   143
 40
0.0394
1070
   274
 70
     2
1070
    41
 40
6.0
1070
   342
340
2AF4
1070
   271
 70
     1
1070
   278
 70
    46
1070
   341
340
2AF4
1070
   272
 70
     1
1070
    48
 40
0.1
1070
   283
 70
     1
1070
    47
 40
0.1
1070
   145
 40
1.0
1070
   340
340
10
1070
   140
 40
5.0
1070
   284
 70
     0
1002
}
  0
XRECORD
  5
4D79
102
{ACAD_REACTORS
330
4D6E
102
}
330
4D6E
100
AcDbXrecord
  1
{23698909-1D67-4744-B0E2-8DE11E3ED422}
  0
XRECORD
  5
4D71
102
{ACAD_REACTORS
330
4D6E
102
}
330
4D6E
100
AcDbXrecord
  1

  0
XRECORD
  5
4D76
102
{ACAD_REACTORS
330
4D6E
102
}
330
4D6E
100
AcDbXrecord
 90
        0
  0
XRECORD
  5
4D73
102
{ACAD_REACTORS
330
4D6E
102
}
330
4D6E
100
AcDbXrecord
340
2816
  0
XRECORD
  5
4D75
102
{ACAD_REACTORS
330
4D6E
102
}
330
4D6E
100
AcDbXrecord
 90
    10781
  0
XRECORD
  5
4D92
102
{ACAD_REACTORS
330
4D6E
102
}
330
4D6E
100
AcDbXrecord
340
2947
  0
XRECORD
  5
4D74
102
{ACAD_REACTORS
330
4D6E
102
}
330
4D6E
100
AcDbXrecord
340
2817
  0
XRECORD
  5
4D7B
102
{ACAD_REACTORS
330
4D6E
102
}
330
4D6E
100
AcDbXrecord
 40
0.0
  0
XRECORD
  5
4D7E
102
{ACAD_REACTORS
330
4D6E
102
}
330
4D6E
100
AcDbXrecord
340
0
  0
XRECORD
  5
4D84
102
{ACAD_REACTORS
330
4D6E
102
}
330
4D6E
100
AcDbXrecord
 10
0.0
 20
0.0
 30
0.0
  0
XRECORD
  5
4D80
102
{ACAD_REACTORS
330
4D6E
102
}
330
4D6E
100
AcDbXrecord
 10
0.0
 20
0.0
 30
0.0
  0
XRECORD
  5
4D83
102
{ACAD_REACTORS
330
4D6E
102
}
330
4D6E
100
AcDbXrecord
 10
0.0
 20
0.0
 30
0.0
  0
XRECORD
  5
4D81
102
{ACAD_REACTORS
330
4D6E
102
}
330
4D6E
100
AcDbXrecord
 10
0.0
 20
0.0
 30
0.0
  0
XRECORD
  5
4D82
102
{ACAD_REACTORS
330
4D6E
102
}
330
4D6E
100
AcDbXrecord
 10
0.0
 20
0.0
 30
0.0
  0
XRECORD
  5
4D7F
102
{ACAD_REACTORS
330
4D6E
102
}
330
4D6E
100
AcDbXrecord
 10
0.0
 20
0.0
 30
0.0
  0
XRECORD
  5
4D7C
102
{ACAD_REACTORS
330
4D6E
102
}
330
4D6E
100
AcDbXrecord
340
0
  0
XRECORD
  5
4D7D
102
{ACAD_REACTORS
330
4D6E
102
}
330
4D6E
100
AcDbXrecord
 70
     0
  0
XRECORD
  5
4D72
102
{ACAD_REACTORS
330
4D6E
102
}
330
4D6E
100
AcDbXrecord
  1

  0
XRECORD
  5
4D6F
102
{ACAD_REACTORS
330
4D6E
102
}
330
4D6E
100
AcDbXrecord
 90
        1
  0
XRECORD
  5
4D70
102
{ACAD_REACTORS
330
4D6E
102
}
330
4D6E
100
AcDbXrecord
 90
       70
  0
XRECORD
  5
4D87
102
{ACAD_REACTORS
330
4D6E
102
}
330
4D6E
100
AcDbXrecord
340
0
  0
XRECORD
  5
4D8D
102
{ACAD_REACTORS
330
4D6E
102
}
330
4D6E
100
AcDbXrecord
 10
0.0
 20
0.0
 30
0.0
  0
XRECORD
  5
4D89
102
{ACAD_REACTORS
330
4D6E
102
}
330
4D6E
100
AcDbXrecord
 10
0.0
 20
0.0
 30
0.0
  0
XRECORD
  5
4D8C
102
{ACAD_REACTORS
330
4D6E
102
}
330
4D6E
100
AcDbXrecord
 10
0.0
 20
0.0
 30
0.0
  0
XRECORD
  5
4D8A
102
{ACAD_REACTORS
330
4D6E
102
}
330
4D6E
100
AcDbXrecord
 10
0.0
 20
0.0
 30
0.0
  0
XRECORD
  5
4D8B
102
{ACAD_REACTORS
330
4D6E
102
}
330
4D6E
100
AcDbXrecord
 10
0.0
 20
0.0
 30
0.0
  0
XRECORD
  5
4D88
102
{ACAD_REACTORS
330
4D6E
102
}
330
4D6E
100
AcDbXrecord
 10
0.0
 20
0.0
 30
0.0
  0
XRECORD
  5
4D85
102
{ACAD_REACTORS
330
4D6E
102
}
330
4D6E
100
AcDbXrecord
340
0
  0
XRECORD
  5
4D86
102
{ACAD_REACTORS
330
4D6E
102
}
330
4D6E
100
AcDbXrecord
 70
     0
  0
XRECORD
  5
4D7A
102
{ACAD_REACTORS
330
4D6E
102
}
330
4D6E
100
AcDbXrecord
  1
{1E33CEA2-6BDC-4A7D-A7DC-66CB02497BFD}
  0
DICTIONARYVAR
  5
4800
102
{ACAD_REACTORS
330
47FF
102
}
330
47FF
100
DictionaryVariables
280
     0
  1
1:1
  0
DICTIONARYVAR
  5
4841
102
{ACAD_REACTORS
330
47FF
102
}
330
47FF
100
DictionaryVariables
280
     0
  1
Standard
  0
DICTIONARYVAR
  5
4840
102
{ACAD_REACTORS
330
47FF
102
}
330
47FF
100
DictionaryVariables
280
     0
  1
Standard
  0
DICTIONARYVAR
  5
4D8F
102
{ACAD_REACTORS
330
47FF
102
}
330
47FF
100
DictionaryVariables
280
     0
  1
1
  0
DICTIONARYVAR
  5
4D90
102
{ACAD_REACTORS
330
47FF
102
}
330
47FF
100
DictionaryVariables
280
     0
  1
0
  0
DICTIONARYVAR
  5
4842
102
{ACAD_REACTORS
330
47FF
102
}
330
47FF
100
DictionaryVariables
280
     0
  1
0
  0
DICTIONARYVAR
  5
4843
102
{ACAD_REACTORS
330
47FF
102
}
330
47FF
100
DictionaryVariables
280
     0
  1
0
  0
DICTIONARY
  5
4974
102
{ACAD_REACTORS
330
4973
102
}
330
4973
100
AcDbDictionary
  0
DICTIONARY
  5
4721
102
{ACAD_REACTORS
330
4720
102
}
330
4720
100
AcDbDictionary
  0
DICTIONARY
  5
47D8
102
{ACAD_REACTORS
330
47D7
102
}
330
47D7
100
AcDbDictionary
  0
DICTIONARY
  5
46E3
102
{ACAD_REACTORS
330
46E2
102
}
330
46E2
100
AcDbDictionary
  0
DICTIONARY
  5
47D1
102
{ACAD_REACTORS
330
47D0
102
}
330
47D0
100
AcDbDictionary
  0
DICTIONARY
  5
47D5
102
{ACAD_REACTORS
330
47D4
102
}
330
47D4
100
AcDbDictionary
  0
DICTIONARY
  5
4A72
102
{ACAD_REACTORS
330
4A71
102
}
330
4A71
100
AcDbDictionary
  0
DICTIONARY
  5
4CA1
102
{ACAD_REACTORS
330
4CA0
102
}
330
4CA0
100
AcDbDictionary
  0
DICTIONARY
  5
4CA5
102
{ACAD_REACTORS
330
4CA4
102
}
330
4CA4
100
AcDbDictionary
  0
DICTIONARY
  5
4D98
330
46D7
100
AcDbDictionary
280
     1
  3
ACAD_XREC_ROUNDTRIP
360
4D99
  0
DICTIONARY
  5
4D96
330
46D6
100
AcDbDictionary
280
     1
  3
ACAD_XREC_ROUNDTRIP
360
4D97
  0
DICTIONARY
  5
4D9A
330
46D8
100
AcDbDictionary
280
     1
  3
ACAD_XREC_ROUNDTRIP
360
4D9B
  0
XRECORD
  5
4D99
102
{ACAD_REACTORS
330
4D98
102
}
330
4D98
100
AcDbXrecord
102
MATERIAL
148
0.0
149
0.0
149
0.0
 93
        0
 94
      127
282
     0
 72
     1
 77
     1
171
     1
175
     1
179
     1
273
     0
  0
XRECORD
  5
4D97
102
{ACAD_REACTORS
330
4D96
102
}
330
4D96
100
AcDbXrecord
102
MATERIAL
148
0.0
149
0.0
149
0.0
 93
        0
 94
      127
282
     0
 72
     1
 77
     1
171
     1
175
     1
179
     1
273
     0
  0
XRECORD
  5
4D9B
102
{ACAD_REACTORS
330
4D9A
102
}
330
4D9A
100
AcDbXrecord
102
MATERIAL
148
0.0
149
0.0
149
0.0
 93
        0
 94
      127
282
     0
 72
     1
 77
     1
171
     1
175
     1
179
     1
273
     0
  0
ENDSEC
  0
EOF
