  0
SECTION
  2
HEADER
  9
$ACADVER
  1
AC1014
  9
$ACADMAINTVER
 70
     9
  9
$DWGCODEPAGE
  3
ANSI_932
  9
$INSBASE
 10
0.0
 20
0.0
 30
0.0
  9
$EXTMIN
 10
-0.892990750979
 20
-71.343488271909
 30
0.0
  9
$EXTMAX
 10
531.937161610343
 20
296.117544483748
 30
0.0
  9
$LIMMIN
 10
-360.747566795242
 20
4.457354754526
  9
$LIMMAX
 10
-162.153696144267
 20
287.675440264018
  9
$ORTHOMODE
 70
     0
  9
$REGENMODE
 70
     1
  9
$FILLMODE
 70
     1
  9
$QTEXTMODE
 70
     0
  9
$MIRRTEXT
 70
     1
  9
$DRAGMODE
 70
     2
  9
$LTSCALE
 40
1.0
  9
$OSMODE
 70
   935
  9
$ATTMODE
 70
     1
  9
$TEXTSIZE
 40
2.333873885063
  9
$TRACEWID
 40
1.0
  9
$TEXTSTYLE
  7
STANDARD
  9
$CLAYER
  8
寸法線
  9
$CELTYPE
  6
BYLAYER
  9
$CECOLOR
 62
   256
  9
$CELTSCALE
 40
10.0
  9
$DELOBJ
 70
     1
  9
$DISPSILH
 70
     0
  9
$DIMSCALE
 40
1.0
  9
$DIMASZ
 40
6.0
  9
$DIMEXO
 40
0.625
  9
$DIMDLI
 40
3.75
  9
$DIMRND
 40
0.0
  9
$DIMDLE
 40
0.0
  9
$DIMEXE
 40
1.25
  9
$DIMTP
 40
0.1
  9
$DIMTM
 40
0.1
  9
$DIMTXT
 40
5.0
  9
$DIMCEN
 40
2.5
  9
$DIMTSZ
 40
0.0
  9
$DIMTOL
 70
     0
  9
$DIMLIM
 70
     0
  9
$DIMTIH
 70
     0
  9
$DIMTOH
 70
     0
  9
$DIMSE1
 70
     0
  9
$DIMSE2
 70
     0
  9
$DIMTAD
 70
     1
  9
$DIMZIN
 70
     8
  9
$DIMBLK
  1
OPEN30
  9
$DIMASO
 70
     1
  9
$DIMSHO
 70
     1
  9
$DIMPOST
  1

  9
$DIMAPOST
  1

  9
$DIMALT
 70
     0
  9
$DIMALTD
 70
     2
  9
$DIMALTF
 40
0.0394
  9
$DIMLFAC
 40
1.0
  9
$DIMTOFL
 70
     1
  9
$DIMTVP
 40
1.0
  9
$DIMTIX
 70
     0
  9
$DIMSOXD
 70
     0
  9
$DIMSAH
 70
     0
  9
$DIMBLK1
  1

  9
$DIMBLK2
  1

  9
$DIMSTYLE
  2
ISO-25
  9
$DIMCLRD
 70
     0
  9
$DIMCLRE
 70
     0
  9
$DIMCLRT
 70
     0
  9
$DIMTFAC
 40
1.0
  9
$DIMGAP
 40
0.625
  9
$DIMJUST
 70
     0
  9
$DIMSD1
 70
     0
  9
$DIMSD2
 70
     0
  9
$DIMTOLJ
 70
     1
  9
$DIMTZIN
 70
     0
  9
$DIMALTZ
 70
     0
  9
$DIMALTTZ
 70
     0
  9
$DIMFIT
 70
     3
  9
$DIMUPT
 70
     0
  9
$DIMUNIT
 70
     2
  9
$DIMDEC
 70
     1
  9
$DIMTDEC
 70
     1
  9
$DIMALTU
 70
     2
  9
$DIMALTTD
 70
     2
  9
$DIMTXSTY
  7
STANDARD
  9
$DIMAUNIT
 70
     0
  9
$LUNITS
 70
     2
  9
$LUPREC
 70
     4
  9
$SKETCHINC
 40
1.0
  9
$FILLETRAD
 40
6.5
  9
$AUNITS
 70
     0
  9
$AUPREC
 70
     0
  9
$MENU
  1
.
  9
$ELEVATION
 40
0.0
  9
$PELEVATION
 40
0.0
  9
$THICKNESS
 40
0.0
  9
$LIMCHECK
 70
     0
  9
$CHAMFERA
 40
10.0
  9
$CHAMFERB
 40
10.0
  9
$CHAMFERC
 40
20.0
  9
$CHAMFERD
 40
0.0
  9
$SKPOLY
 70
     0
  9
$TDCREATE
 40
2450576.597302431
  9
$TDUPDATE
 40
2457269.379098345
  9
$TDINDWG
 40
1.3635325926
  9
$TDUSRTIMER
 40
1.3635325926
  9
$USRTIMER
 70
     1
  9
$ANGBASE
 50
0.0
  9
$ANGDIR
 70
     0
  9
$PDMODE
 70
     0
  9
$PDSIZE
 40
0.0
  9
$PLINEWID
 40
0.0
  9
$COORDS
 70
     0
  9
$SPLFRAME
 70
     0
  9
$SPLINETYPE
 70
     6
  9
$SPLINESEGS
 70
     8
  9
$ATTDIA
 70
     0
  9
$ATTREQ
 70
     1
  9
$HANDLING
 70
     1
  9
$HANDSEED
  5
54E1
  9
$SURFTAB1
 70
     6
  9
$SURFTAB2
 70
     6
  9
$SURFTYPE
 70
     6
  9
$SURFU
 70
     6
  9
$SURFV
 70
     6
  9
$UCSNAME
  2

  9
$UCSORG
 10
0.0
 20
0.0
 30
0.0
  9
$UCSXDIR
 10
1.0
 20
0.0
 30
0.0
  9
$UCSYDIR
 10
0.0
 20
1.0
 30
0.0
  9
$PUCSNAME
  2

  9
$PUCSORG
 10
0.0
 20
0.0
 30
0.0
  9
$PUCSXDIR
 10
1.0
 20
0.0
 30
0.0
  9
$PUCSYDIR
 10
0.0
 20
1.0
 30
0.0
  9
$USERI1
 70
     0
  9
$USERI2
 70
     0
  9
$USERI3
 70
     0
  9
$USERI4
 70
     0
  9
$USERI5
 70
     0
  9
$USERR1
 40
0.0
  9
$USERR2
 40
0.0
  9
$USERR3
 40
0.0
  9
$USERR4
 40
0.0
  9
$USERR5
 40
0.0
  9
$WORLDVIEW
 70
     1
  9
$SHADEDGE
 70
     3
  9
$SHADEDIF
 70
    70
  9
$TILEMODE
 70
     0
  9
$MAXACTVP
 70
    16
  9
$PINSBASE
 10
0.0
 20
0.0
 30
0.0
  9
$PLIMCHECK
 70
     0
  9
$PEXTMIN
 10
4.746305129083
 20
1.396645458131
 30
0.0
  9
$PEXTMAX
 10
404.746305129083
 20
281.396645458131
 30
0.0
  9
$PLIMMIN
 10
-6.946593322754
 20
-6.94658241272
  9
$PLIMMAX
 10
417.718108215332
 20
293.315276107788
  9
$UNITMODE
 70
     0
  9
$VISRETAIN
 70
     0
  9
$PLINEGEN
 70
     0
  9
$PSLTSCALE
 70
     1
  9
$TREEDEPTH
 70
  3020
  9
$PICKSTYLE
 70
     1
  9
$CMLSTYLE
  2
STANDARD
  9
$CMLJUST
 70
     0
  9
$CMLSCALE
 40
1.0
  9
$PROXYGRAPHICS
 70
     1
  9
$MEASUREMENT
 70
     1
  0
ENDSEC
  0
SECTION
  2
CLASSES
  0
CLASS
  1
ACDBDICTIONARYWDFLT
  2
AcDbDictionaryWithDefault
  3
ObjectDBX Classes
 90
        0
280
     0
281
     0
  0
CLASS
  1
ACDBPLACEHOLDER
  2
AcDbPlaceHolder
  3
ObjectDBX Classes
 90
        0
280
     0
281
     0
  0
CLASS
  1
LAYOUT
  2
AcDbLayout
  3
ObjectDBX Classes
 90
        0
280
     0
281
     0
  0
CLASS
  1
VISUALSTYLE
  2
AcDbVisualStyle
  3
ObjectDBX Classes
 90
     4095
280
     0
281
     0
  0
CLASS
  1
SCALE
  2
AcDbScale
  3
ObjectDBX Classes
 90
     1153
280
     0
281
     0
  0
CLASS
  1
MATERIAL
  2
AcDbMaterial
  3
ObjectDBX Classes
 90
     1153
280
     0
281
     0
  0
CLASS
  1
TABLESTYLE
  2
AcDbTableStyle
  3
ObjectDBX Classes
 90
     4095
280
     0
281
     0
  0
CLASS
  1
MLEADERSTYLE
  2
AcDbMLeaderStyle
  3
ACDB_MLEADERSTYLE_CLASS
 90
     4095
280
     0
281
     0
  0
CLASS
  1
SUN
  2
AcDbSun
  3
SCENEOE
 90
     1153
280
     0
281
     0
  0
CLASS
  1
DICTIONARYVAR
  2
AcDbDictionaryVar
  3
ObjectDBX Classes
 90
        0
280
     0
281
     0
  0
CLASS
  1
CELLSTYLEMAP
  2
AcDbCellStyleMap
  3
ObjectDBX Classes
 90
     1152
280
     0
281
     0
  0
CLASS
  1
XRECORD
  2
AcDbXrecord
  3
ObjectDBX Classes
 90
        0
280
     0
281
     0
  0
CLASS
  1
LWPOLYLINE
  2
AcDbPolyline
  3
ObjectDBX Classes
 90
        0
280
     0
281
     1
  0
CLASS
  1
HATCH
  2
AcDbHatch
  3
ObjectDBX Classes
 90
        0
280
     0
281
     1
  0
ENDSEC
  0
SECTION
  2
TABLES
  0
TABLE
  2
VPORT
  5
8
102
{ACAD_XDICTIONARY
360
54D9
102
}
330
0
100
AcDbSymbolTable
 70
     1
  0
VPORT
  5
49F3
330
8
100
AcDbSymbolTableRecord
100
AcDbViewportTableRecord
  2
*ACTIVE
 70
     0
 10
0.0
 20
0.0
 11
1.0
 21
1.0
 12
265.522085429682
 22
112.387028105919
 13
0.0
 23
0.0
 14
1.0
 24
1.0
 15
0.0
 25
0.0
 16
0.0
 26
0.0
 36
1.0
 17
0.0
 27
0.0
 37
0.0
 40
374.81025341077
 41
1.839224629418
 42
50.0
 43
0.0
 44
0.0
 50
0.0
 51
0.0
 71
    16
 72
   100
 73
     1
 74
     0
 75
     0
 76
     0
 77
     0
 78
     0
  0
ENDTAB
  0
TABLE
  2
LTYPE
  5
5
330
0
100
AcDbSymbolTable
 70
     4
  0
LTYPE
  5
14
330
5
100
AcDbSymbolTableRecord
100
AcDbLinetypeTableRecord
  2
BYBLOCK
 70
     0
  3

 72
    65
 73
     0
 40
0.0
  0
LTYPE
  5
15
330
5
100
AcDbSymbolTableRecord
100
AcDbLinetypeTableRecord
  2
BYLAYER
 70
     0
  3

 72
    65
 73
     0
 40
0.0
  0
LTYPE
  5
16
330
5
100
AcDbSymbolTableRecord
100
AcDbLinetypeTableRecord
  2
CONTINUOUS
 70
     0
  3
Solid line
 72
    65
 73
     0
 40
0.0
  0
LTYPE
  5
1EC
330
5
100
AcDbSymbolTableRecord
100
AcDbLinetypeTableRecord
  2
CENTER
 70
     0
  3
____ _ ____ _ ____ _ ____ _ ____ _ ____ _ ____ 
 72
    65
 73
     4
 40
2.0
 49
1.25
 74
     0
 49
-0.25
 74
     0
 49
0.25
 74
     0
 49
-0.25
 74
     0
  0
LTYPE
  5
1ED
330
5
100
AcDbSymbolTableRecord
100
AcDbLinetypeTableRecord
  2
DASHED
 70
     0
  3
__ __ __ __ __ __ __ __ __ __ __ __ __ __ __ __
 72
    65
 73
     2
 40
0.75
 49
0.5
 74
     0
 49
-0.25
 74
     0
  0
LTYPE
  5
2B1F
330
5
100
AcDbSymbolTableRecord
100
AcDbLinetypeTableRecord
  2
DASHDOT
 70
     0
  3
一点鎖線
 72
    65
 73
     4
 40
25.6
 49
20.0
 74
     0
 49
-2.0
 74
     0
 49
1.6
 74
     0
 49
-2.0
 74
     0
  0
ENDTAB
  0
TABLE
  2
LAYER
  5
2
102
{ACAD_XDICTIONARY
360
29EA
102
}
330
0
100
AcDbSymbolTable
 70
    16
  0
LAYER
  5
F
330
2
100
AcDbSymbolTableRecord
100
AcDbLayerTableRecord
  2
0
 70
     0
 62
     7
  6
CONTINUOUS
  0
LAYER
  5
61
330
2
100
AcDbSymbolTableRecord
100
AcDbLayerTableRecord
  2
図枠太線
 70
     0
 62
   251
  6
CONTINUOUS
  0
LAYER
  5
62
330
2
100
AcDbSymbolTableRecord
100
AcDbLayerTableRecord
  2
図枠細線
 70
     0
 62
   252
  6
CONTINUOUS
  0
LAYER
  5
63
330
2
100
AcDbSymbolTableRecord
100
AcDbLayerTableRecord
  2
図枠ロゴマーク
 70
     0
 62
   253
  6
CONTINUOUS
  0
LAYER
  5
1EF
330
2
100
AcDbSymbolTableRecord
100
AcDbLayerTableRecord
  2
外形線
 70
     0
 62
     7
  6
CONTINUOUS
  0
LAYER
  5
1F0
330
2
100
AcDbSymbolTableRecord
100
AcDbLayerTableRecord
  2
寸法線
 70
     0
 62
     1
  6
CONTINUOUS
  0
LAYER
  5
1F1
330
2
100
AcDbSymbolTableRecord
100
AcDbLayerTableRecord
  2
中心線
 70
     0
 62
     4
  6
CENTER
  0
LAYER
  5
1F4
330
2
100
AcDbSymbolTableRecord
100
AcDbLayerTableRecord
  2
DEFPOINTS
 70
     0
 62
     7
  6
CONTINUOUS
  0
LAYER
  5
2AA2
330
2
100
AcDbSymbolTableRecord
100
AcDbLayerTableRecord
  2
下書線
 70
     0
 62
     2
  6
CONTINUOUS
  0
LAYER
  5
2AA3
330
2
100
AcDbSymbolTableRecord
100
AcDbLayerTableRecord
  2
隠れ線
 70
     0
 62
     3
  6
DASHED
  0
LAYER
  5
2AA4
330
2
100
AcDbSymbolTableRecord
100
AcDbLayerTableRecord
  2
細線
 70
     0
 62
     6
  6
CONTINUOUS
  0
LAYER
  5
2AA5
330
2
100
AcDbSymbolTableRecord
100
AcDbLayerTableRecord
  2
太線
 70
     0
 62
   190
  6
CONTINUOUS
  0
LAYER
  5
2B20
330
2
100
AcDbSymbolTableRecord
100
AcDbLayerTableRecord
  2
LAY-1
 70
     0
 62
     7
  6
CONTINUOUS
  0
LAYER
  5
2B21
330
2
100
AcDbSymbolTableRecord
100
AcDbLayerTableRecord
  2
LAY-2
 70
     0
 62
     7
  6
CONTINUOUS
  0
LAYER
  5
2B22
330
2
100
AcDbSymbolTableRecord
100
AcDbLayerTableRecord
  2
LAY-5
 70
     0
 62
     7
  6
CONTINUOUS
  0
LAYER
  5
2B23
330
2
100
AcDbSymbolTableRecord
100
AcDbLayerTableRecord
  2
LAY-6
 70
     0
 62
     7
  6
CONTINUOUS
  0
ENDTAB
  0
TABLE
  2
STYLE
  5
3
330
0
100
AcDbSymbolTable
 70
     2
  0
STYLE
  5
10
330
3
100
AcDbSymbolTableRecord
100
AcDbTextStyleTableRecord
  2
STANDARD
 70
     0
 40
0.0
 41
1.0
 50
0.0
 71
     0
 42
2.333873885063
  3
ISOCP
  4
bigfont.shx
  0
STYLE
  5
64
330
3
100
AcDbSymbolTableRecord
100
AcDbTextStyleTableRecord
  2
EXCADSTD
 70
     0
 40
0.0
 41
1.0
 50
0.0
 71
     0
 42
0.2
  3
monotxt
  4
bigfont
  0
ENDTAB
  0
TABLE
  2
VIEW
  5
6
330
0
100
AcDbSymbolTable
 70
     0
  0
ENDTAB
  0
TABLE
  2
UCS
  5
7
330
0
100
AcDbSymbolTable
 70
     0
  0
ENDTAB
  0
TABLE
  2
APPID
  5
9
330
0
100
AcDbSymbolTable
 70
     3
  0
APPID
  5
11
330
9
100
AcDbSymbolTableRecord
100
AcDbRegAppTableRecord
  2
ACAD
 70
     0
  0
APPID
  5
4A4E
330
9
100
AcDbSymbolTableRecord
100
AcDbRegAppTableRecord
  2
ACADANNOTATIVE
 70
     0
  0
APPID
  5
4B2C
330
9
100
AcDbSymbolTableRecord
100
AcDbRegAppTableRecord
  2
ACAD_MLEADERVER
 70
     0
  0
ENDTAB
  0
TABLE
  2
DIMSTYLE
  5
A
330
0
100
AcDbSymbolTable
 70
     2
  0
DIMSTYLE
105
1D
330
A
100
AcDbSymbolTableRecord
100
AcDbDimStyleTableRecord
  2
STANDARD
 70
     0
  3

  4

  5

  6

  7

 40
1.0
 41
0.18
 42
0.0625
 43
0.38
 44
0.18
 45
0.0
 46
0.0
 47
0.0
 48
0.0
140
0.18
141
0.09
142
0.0
143
25.4
144
1.0
145
0.0
146
1.0
147
0.09
 71
     0
 72
     0
 73
     1
 74
     1
 75
     0
 76
     0
 77
     0
 78
     0
170
     0
171
     2
172
     0
173
     0
174
     0
175
     0
176
     0
177
     0
178
     0
270
     2
271
     4
272
     4
273
     2
274
     2
340
10
275
     0
280
     0
281
     0
282
     0
283
     1
284
     0
285
     0
286
     0
287
     3
288
     0
  0
DIMSTYLE
105
24
102
{ACAD_REACTORS
330
43EA
330
43EC
330
4419
330
441A
330
441B
330
44B1
330
44B2
330
460D
102
}
330
A
100
AcDbSymbolTableRecord
100
AcDbDimStyleTableRecord
  2
ISO-25
 70
     0
  3

  4

  5

  6

  7

 40
1.0
 41
2.5
 42
0.625
 43
3.75
 44
1.25
 45
0.0
 46
0.0
 47
0.0
 48
0.0
140
2.5
141
2.5
142
0.0
143
0.0394
144
1.0
145
1.0
146
1.0
147
0.625
 71
     0
 72
     0
 73
     1
 74
     0
 75
     0
 76
     0
 77
     1
 78
     8
170
     0
171
     2
172
     1
173
     0
174
     0
175
     0
176
     0
177
     0
178
     0
270
     2
271
     4
272
     4
273
     2
274
     2
340
10
275
     0
280
     0
281
     0
282
     0
283
     1
284
     0
285
     0
286
     0
287
     3
288
     0
  0
ENDTAB
  0
TABLE
  2
BLOCK_RECORD
  5
1
330
0
100
AcDbSymbolTable
 70
    15
  0
BLOCK_RECORD
  5
1A
330
1
100
AcDbSymbolTableRecord
100
AcDbBlockTableRecord
  2
*MODEL_SPACE
  0
BLOCK_RECORD
  5
28FB
330
1
100
AcDbSymbolTableRecord
100
AcDbBlockTableRecord
  2
*PAPER_SPACE
  0
BLOCK_RECORD
  5
65
330
1
100
AcDbSymbolTableRecord
100
AcDbBlockTableRecord
  2
A$C3392
  0
BLOCK_RECORD
  5
29BF
330
1
100
AcDbSymbolTableRecord
100
AcDbBlockTableRecord
  2
A4横用_タイトル
1001
ACAD
1000
DesignCenter Data
1002
{
1070
     1
1070
     4
1002
}
  0
BLOCK_RECORD
  5
29F4
330
1
100
AcDbSymbolTableRecord
100
AcDbBlockTableRecord
  2
A4縦用_タイトル
1001
ACAD
1000
DesignCenter Data
1002
{
1070
     1
1070
     4
1002
}
  0
BLOCK_RECORD
  5
2A32
330
1
100
AcDbSymbolTableRecord
100
AcDbBlockTableRecord
  2
A3横用_タイトル
1001
ACAD
1000
DesignCenter Data
1002
{
1070
     1
1070
     4
1002
}
  0
BLOCK_RECORD
  5
2A6C
330
1
100
AcDbSymbolTableRecord
100
AcDbBlockTableRecord
  2
A3縦用_タイトル
1001
ACAD
1000
DesignCenter Data
1002
{
1070
     1
1070
     4
1002
}
  0
BLOCK_RECORD
  5
2AF4
330
1
100
AcDbSymbolTableRecord
100
AcDbBlockTableRecord
  2
_OPEN30
  0
BLOCK_RECORD
  5
4535
330
1
100
AcDbSymbolTableRecord
100
AcDbBlockTableRecord
  2
*D6
  0
BLOCK_RECORD
  5
454C
330
1
100
AcDbSymbolTableRecord
100
AcDbBlockTableRecord
  2
*D7
  0
BLOCK_RECORD
  5
4558
330
1
100
AcDbSymbolTableRecord
100
AcDbBlockTableRecord
  2
*D8
  0
BLOCK_RECORD
  5
4564
330
1
100
AcDbSymbolTableRecord
100
AcDbBlockTableRecord
  2
*D9
  0
BLOCK_RECORD
  5
4570
330
1
100
AcDbSymbolTableRecord
100
AcDbBlockTableRecord
  2
*D10
  0
BLOCK_RECORD
  5
457D
330
1
100
AcDbSymbolTableRecord
100
AcDbBlockTableRecord
  2
*D11
  0
BLOCK_RECORD
  5
4589
330
1
100
AcDbSymbolTableRecord
100
AcDbBlockTableRecord
  2
*D12
  0
BLOCK_RECORD
  5
460E
330
1
100
AcDbSymbolTableRecord
100
AcDbBlockTableRecord
  2
*D13
  0
ENDTAB
  0
ENDSEC
  0
SECTION
  2
BLOCKS
  0
BLOCK
  5
1B
330
1A
100
AcDbEntity
  8
0
100
AcDbBlockBegin
  2
*MODEL_SPACE
 70
     0
 10
0.0
 20
0.0
 30
0.0
  3
*MODEL_SPACE
  1

  0
ENDBLK
  5
1C
330
1A
100
AcDbEntity
  8
0
100
AcDbBlockEnd
  0
BLOCK
  5
28FD
330
28FB
100
AcDbEntity
 67
     1
  8
0
 48
10.0
100
AcDbBlockBegin
  2
*PAPER_SPACE
 70
     0
 10
0.0
 20
0.0
 30
0.0
  3
*PAPER_SPACE
  1

  0
ENDBLK
  5
28FE
330
28FB
100
AcDbEntity
 67
     1
  8
0
 48
10.0
100
AcDbBlockEnd
  0
BLOCK
  5
93
330
65
100
AcDbEntity
  8
0
100
AcDbBlockBegin
  2
A$C3392
 70
     0
 10
0.0
 20
0.0
 30
0.0
  3
A$C3392
  1

  0
LINE
  5
66
330
65
100
AcDbEntity
  8
図枠太線
  6
CONTINUOUS
100
AcDbLine
 10
211.858584505185
 20
30.927375675439
 30
0.0
 11
211.858584505185
 21
0.927375675439
 31
0.0
  0
LINE
  5
67
330
65
100
AcDbEntity
  8
図枠細線
  6
CONTINUOUS
100
AcDbLine
 10
231.858592505185
 20
15.927377675439
 30
0.0
 11
287.858592505185
 21
15.927375675439
 31
0.0
  0
LINE
  5
68
330
65
100
AcDbEntity
  8
図枠細線
  6
CONTINUOUS
100
AcDbLine
 10
211.858592505185
 20
15.927377675439
 30
0.0
 11
231.858592505185
 21
15.927377675439
 31
0.0
  0
LINE
  5
69
330
65
100
AcDbEntity
  8
図枠太線
  6
CONTINUOUS
 62
   251
100
AcDbLine
 10
1.858584505185
 20
0.927375675439
 30
0.0
 11
1.858584505185
 21
275.927375675439
 31
0.0
  0
TEXT
  5
6A
330
65
100
AcDbEntity
  8
図枠細線
  6
CONTINUOUS
 62
   252
100
AcDbText
 10
351.358592505185
 20
28.427377675439
 30
0.0
 40
2.0
  1
ＴＩＴＬＥ
 41
0.903614457831
  7
EXCADSTD
 72
     5
 11
361.358592505185
 21
28.427377675439
 31
0.0
100
AcDbText
  0
TEXT
  5
6B
330
65
100
AcDbEntity
  8
図枠細線
  6
CONTINUOUS
 62
   252
100
AcDbText
 10
345.358592505185
 20
28.427377675439
 30
0.0
 40
2.0
  1
名称
 41
1.171875
  7
EXCADSTD
 72
     5
 11
350.358592505185
 21
28.427377675439
 31
0.0
100
AcDbText
  0
TEXT
  5
6C
330
65
100
AcDbEntity
  8
図枠細線
  6
CONTINUOUS
 62
   252
100
AcDbText
 10
274.358592505185
 20
25.927377675439
 30
0.0
 40
2.0
  1
ＤＲＡＷＮ
 41
0.882352941176
  7
EXCADSTD
 72
     5
 11
284.358592505185
 21
25.927377675439
 31
0.0
100
AcDbText
  0
TEXT
  5
6D
330
65
100
AcDbEntity
  8
図枠細線
  6
CONTINUOUS
 62
   252
100
AcDbText
 10
260.358592505185
 20
25.927377675439
 30
0.0
 40
2.0
  1
ＤＥＳＩＧＮＥＤ
 41
0.713043472041
  7
EXCADSTD
 72
     5
 11
273.478592390744
 21
25.927377675439
 31
0.0
100
AcDbText
  0
TEXT
  5
6E
330
65
100
AcDbEntity
  8
図枠細線
  6
CONTINUOUS
 62
   252
100
AcDbText
 10
246.358592505185
 20
25.927377675439
 30
0.0
 40
2.0
  1
ＣＨＥＣＫＥＤ
 41
0.831249989569
  7
EXCADSTD
 72
     5
 11
259.658592338292
 21
25.927377675439
 31
0.0
100
AcDbText
  0
TEXT
  5
6F
330
65
100
AcDbEntity
  8
図枠細線
  6
CONTINUOUS
 62
   252
100
AcDbText
 10
274.358592505185
 20
28.427377675439
 30
0.0
 40
2.0
  1
製図
 41
1.209677419355
  7
EXCADSTD
 72
     5
 11
279.358592505185
 21
28.427377675439
 31
0.0
100
AcDbText
  0
TEXT
  5
70
330
65
100
AcDbEntity
  8
図枠細線
  6
CONTINUOUS
 62
   252
100
AcDbText
 10
260.358592505185
 20
28.427377675439
 30
0.0
 40
2.0
  1
設計
 41
1.171875
  7
EXCADSTD
 72
     5
 11
265.358592505185
 21
28.427377675439
 31
0.0
100
AcDbText
  0
TEXT
  5
71
330
65
100
AcDbEntity
  8
図枠細線
  6
CONTINUOUS
 62
   252
100
AcDbText
 10
246.358592505185
 20
28.427377675439
 30
0.0
 40
2.0
  1
検図
 41
1.209677419355
  7
EXCADSTD
 72
     5
 11
251.358592505185
 21
28.427377675439
 31
0.0
100
AcDbText
  0
TEXT
  5
72
330
65
100
AcDbEntity
  8
図枠細線
  6
CONTINUOUS
 62
   252
100
AcDbText
 10
232.358592505185
 20
25.927377675439
 30
0.0
 40
2.0
  1
ＡＰＰＲＯＶＥＤ
 41
0.695652184279
  7
EXCADSTD
 72
     5
 11
245.15859269592
 21
25.927377675439
 31
0.0
100
AcDbText
  0
TEXT
  5
73
330
65
100
AcDbEntity
  8
図枠細線
  6
CONTINUOUS
 62
   252
100
AcDbText
 10
232.358592505185
 20
28.427377675439
 30
0.0
 40
2.0
  1
承認
 41
1.171875
  7
EXCADSTD
 72
     5
 11
237.358592505185
 21
28.427377675439
 31
0.0
100
AcDbText
  0
TEXT
  5
74
330
65
100
AcDbEntity
  8
図枠細線
  6
CONTINUOUS
 62
   252
100
AcDbText
 10
290.069888505185
 20
2.574868675439
 30
0.0
 40
3.5
  1
ＴＯＷＡ　ＳＥＩＤＥＮ　ＩＮＤＵＳＴＲＩＡＬ　ＣＯ．，ＬＴＤ．
 41
0.414568012377
  7
EXCADSTD
 72
     5
 11
342.692388209546
 21
2.574868675439
 31
0.0
100
AcDbText
  0
TEXT
  5
75
330
65
100
AcDbEntity
  8
図枠ロゴマーク
  6
CONTINUOUS
 62
   253
100
AcDbText
 10
290.107348505185
 20
7.519769675439
 30
0.0
 40
7.0
  1
東和制電工業株式会社
 41
0.639204545455
  7
EXCADSTD
 72
     5
 11
342.607348505185
 21
7.519769675439
 31
0.0
100
AcDbText
  0
TEXT
  5
76
330
65
100
AcDbEntity
  8
図枠細線
  6
CONTINUOUS
 62
   252
100
AcDbText
 10
232.499705505185
 20
5.759088675439
 30
0.0
 40
2.0
  1
ＰＲＯＪＥＣＴＩＯＮ
 41
0.754285710199
  7
EXCADSTD
 72
     5
 11
250.099705409817
 21
5.759088675439
 31
0.0
100
AcDbText
  0
TEXT
  5
77
330
65
100
AcDbEntity
  8
図枠細線
  6
CONTINUOUS
 62
   252
100
AcDbText
 10
232.574629505185
 20
8.681077675439
 30
0.0
 40
2.0
  1
ＴＨＩＲＤ　ＡＮＧＬＥ
 41
0.691099486738
  7
EXCADSTD
 72
     5
 11
250.174629767445
 21
8.681077675439
 31
0.0
100
AcDbText
  0
TEXT
  5
78
330
65
100
AcDbEntity
  8
図枠細線
  6
CONTINUOUS
 62
   252
100
AcDbText
 10
256.823999505185
 20
13.427377675439
 30
0.0
 40
2.0
  1
ＳＣＡＬＥ
 41
0.903614457831
  7
EXCADSTD
 72
     5
 11
266.823999505185
 21
13.427377675439
 31
0.0
100
AcDbText
  0
TEXT
  5
79
330
65
100
AcDbEntity
  8
図枠細線
  6
CONTINUOUS
 62
   252
100
AcDbText
 10
274.858592505185
 20
13.427377675439
 30
0.0
 40
2.0
  1
ＤＡＴＥ
 41
0.923076923077
  7
EXCADSTD
 72
     5
 11
282.858592505185
 21
13.427377675439
 31
0.0
100
AcDbText
  0
TEXT
  5
7A
330
65
100
AcDbEntity
  8
図枠細線
  6
CONTINUOUS
 62
   252
100
AcDbText
 10
356.358592505185
 20
13.427377675439
 30
0.0
 40
2.0
  1
ＤＲＧ．ＮＯ．
 41
0.9375
  7
EXCADSTD
 72
     5
 11
370.358592505185
 21
13.427377675439
 31
0.0
100
AcDbText
  0
TEXT
  5
7B
330
65
100
AcDbEntity
  8
図枠細線
  6
CONTINUOUS
 62
   252
100
AcDbText
 10
345.358592505185
 20
13.427377675439
 30
0.0
 40
2.0
  1
図面番号
 41
1.102941176471
  7
EXCADSTD
 72
     5
 11
355.358592505185
 21
13.427377675439
 31
0.0
100
AcDbText
  0
TEXT
  5
7C
330
65
100
AcDbEntity
  8
図枠細線
  6
CONTINUOUS
 62
   252
100
AcDbText
 10
269.358592505185
 20
13.427377675439
 30
0.0
 40
2.0
  1
日付
 41
1.171875
  7
EXCADSTD
 72
     5
 11
274.358592505185
 21
13.427377675439
 31
0.0
100
AcDbText
  0
TEXT
  5
7D
330
65
100
AcDbEntity
  8
図枠細線
  6
CONTINUOUS
 62
   252
100
AcDbText
 10
251.451512505185
 20
13.427377675439
 30
0.0
 40
2.0
  1
尺度
 41
1.171875
  7
EXCADSTD
 72
     5
 11
256.451512505185
 21
13.427377675439
 31
0.0
100
AcDbText
  0
TEXT
  5
7E
330
65
100
AcDbEntity
  8
図枠細線
  6
CONTINUOUS
 62
   252
100
AcDbText
 10
232.358592505185
 20
13.427377675439
 30
0.0
 40
2.0
  1
第三角法
 41
1.102941176471
  7
EXCADSTD
 72
     5
 11
242.358592505185
 21
13.427377675439
 31
0.0
100
AcDbText
  0
TEXT
  5
7F
330
65
100
AcDbEntity
  8
図枠細線
  6
CONTINUOUS
 62
   252
100
AcDbText
 10
212.358592505185
 20
28.427377675439
 30
0.0
 40
2.0
  1
ＮＯＴＥ
 41
0.923076923077
  7
EXCADSTD
 72
     5
 11
220.358592505185
 21
28.427377675439
 31
0.0
100
AcDbText
  0
LINE
  5
80
330
65
100
AcDbEntity
  8
図枠細線
  6
CONTINUOUS
 62
   252
100
AcDbLine
 10
287.858592505185
 20
23.427375675439
 30
0.0
 11
344.858592505185
 21
23.427375675439
 31
0.0
  0
LINE
  5
81
330
65
100
AcDbEntity
  8
図枠太線
  6
CONTINUOUS
 62
   251
100
AcDbLine
 10
287.858584505185
 20
15.927375675439
 30
0.0
 11
344.858592505185
 21
15.927375675439
 31
0.0
  0
LINE
  5
82
330
65
100
AcDbEntity
  8
図枠細線
  6
CONTINUOUS
 62
   252
100
AcDbLine
 10
344.858592505185
 20
15.927375675439
 30
0.0
 11
401.858584505185
 21
15.927375675439
 31
0.0
  0
LINE
  5
83
330
65
100
AcDbEntity
  8
図枠太線
  6
CONTINUOUS
 62
   251
100
AcDbLine
 10
344.858592505185
 20
0.927377675439
 30
0.0
 11
344.858592505185
 21
30.927375675439
 31
0.0
  0
LINE
  5
84
330
65
100
AcDbEntity
  8
図枠太線
  6
CONTINUOUS
 62
   251
100
AcDbLine
 10
287.858592505185
 20
0.927377675439
 30
0.0
 11
287.858592505185
 21
30.927375675439
 31
0.0
  0
LINE
  5
85
330
65
100
AcDbEntity
  8
図枠細線
  6
CONTINUOUS
 62
   252
100
AcDbLine
 10
268.858592505185
 20
0.927377675439
 30
0.0
 11
268.858592505185
 21
15.927375675439
 31
0.0
  0
LINE
  5
86
330
65
100
AcDbEntity
  8
図枠細線
  6
CONTINUOUS
 62
   252
100
AcDbLine
 10
250.858592505185
 20
0.927377675439
 30
0.0
 11
250.858592505185
 21
15.927375675439
 31
0.0
  0
LINE
  5
87
330
65
100
AcDbEntity
  8
図枠細線
  6
CONTINUOUS
 62
   252
100
AcDbLine
 10
273.858592505185
 20
30.927375675439
 30
0.0
 11
273.858592505185
 21
15.927375675439
 31
0.0
  0
LINE
  5
88
330
65
100
AcDbEntity
  8
図枠細線
  6
CONTINUOUS
 62
   252
100
AcDbLine
 10
259.858592505185
 20
30.927375675439
 30
0.0
 11
259.858592505185
 21
15.927375675439
 31
0.0
  0
LINE
  5
89
330
65
100
AcDbEntity
  8
図枠細線
  6
CONTINUOUS
 62
   252
100
AcDbLine
 10
245.858592505185
 20
30.927375675439
 30
0.0
 11
245.858592505185
 21
15.927375675439
 31
0.0
  0
LINE
  5
8A
330
65
100
AcDbEntity
  8
図枠太線
  6
CONTINUOUS
 62
   251
100
AcDbLine
 10
231.858592505185
 20
0.927377675439
 30
0.0
 11
231.858592505185
 21
30.927375675439
 31
0.0
  0
LINE
  5
8B
330
65
100
AcDbEntity
  8
図枠細線
  6
CONTINUOUS
 62
   252
100
AcDbLine
 10
211.858592505185
 20
25.927375675439
 30
0.0
 11
231.858592505185
 21
25.927375675439
 31
0.0
  0
LINE
  5
8C
330
65
100
AcDbEntity
  8
図枠細線
  6
CONTINUOUS
 62
   252
100
AcDbLine
 10
211.858592505185
 20
20.927375675439
 30
0.0
 11
231.858592505185
 21
20.927375675439
 31
0.0
  0
LINE
  5
8D
330
65
100
AcDbEntity
  8
図枠細線
  6
CONTINUOUS
 62
   252
100
AcDbLine
 10
211.858592505185
 20
10.927375675439
 30
0.0
 11
231.858592505185
 21
10.927375675439
 31
0.0
  0
LINE
  5
8E
330
65
100
AcDbEntity
  8
図枠細線
  6
CONTINUOUS
 62
   252
100
AcDbLine
 10
211.858592505185
 20
5.927377675439
 30
0.0
 11
231.858592505185
 21
5.927377675439
 31
0.0
  0
LINE
  5
8F
330
65
100
AcDbEntity
  8
図枠太線
  6
CONTINUOUS
 62
   251
100
AcDbLine
 10
211.858592505185
 20
30.927375675439
 30
0.0
 11
401.858584505185
 21
30.927375675439
 31
0.0
  0
LINE
  5
90
330
65
100
AcDbEntity
  8
図枠太線
  6
CONTINUOUS
 62
   251
100
AcDbLine
 10
1.858584505185
 20
275.927375675439
 30
0.0
 11
401.858584505185
 21
275.927375675439
 31
0.0
  0
LINE
  5
91
330
65
100
AcDbEntity
  8
図枠太線
  6
CONTINUOUS
 62
   251
100
AcDbLine
 10
401.858584505185
 20
0.927375675439
 30
0.0
 11
401.858584505185
 21
275.927375675439
 31
0.0
  0
LINE
  5
92
330
65
100
AcDbEntity
  8
図枠太線
  6
CONTINUOUS
 62
   251
100
AcDbLine
 10
1.858584505185
 20
0.927375675439
 30
0.0
 11
401.858584505185
 21
0.927375675439
 31
0.0
  0
ENDBLK
  5
94
330
65
100
AcDbEntity
  8
0
100
AcDbBlockEnd
  0
BLOCK
  5
29C0
330
29BF
100
AcDbEntity
  8
0
100
AcDbBlockBegin
  2
A4横用_タイトル
 70
     0
 10
0.0
 20
0.0
 30
0.0
  3
A4横用_タイトル
  1

  0
LINE
  5
29C1
330
29BF
100
AcDbEntity
  8
図枠細線
  6
CONTINUOUS
100
AcDbLine
 10
75.061011071051
 20
16.806607253358
 30
0.0
 11
144.061011071051
 21
16.806604789072
 31
0.0
  0
LINE
  5
29C2
330
29BF
100
AcDbEntity
  8
図枠細線
  6
CONTINUOUS
 62
   252
100
AcDbLine
 10
4.061011071051
 20
11.806606253358
 30
0.0
 11
75.061011071051
 21
11.806606253358
 31
0.0
  0
LINE
  5
29C3
330
29BF
100
AcDbEntity
  8
図枠細線
  6
CONTINUOUS
 62
   252
100
AcDbLine
 10
4.061011071051
 20
21.806606253358
 30
0.0
 11
75.061011071051
 21
21.806606253358
 31
0.0
  0
LINE
  5
29C4
330
29BF
100
AcDbEntity
  8
図枠細線
  6
CONTINUOUS
 62
   252
100
AcDbLine
 10
4.061011071051
 20
26.806606253358
 30
0.0
 11
75.061011071051
 21
26.806606253358
 31
0.0
  0
LINE
  5
29C5
330
29BF
100
AcDbEntity
  8
図枠細線
  6
CONTINUOUS
100
AcDbLine
 10
4.061011071051
 20
16.806608253358
 30
0.0
 11
75.061011071051
 21
16.806608253358
 31
0.0
  0
TEXT
  5
29C6
330
29BF
100
AcDbEntity
  8
図枠細線
  6
CONTINUOUS
 62
   252
100
AcDbText
 10
76.405475827713
 20
9.560308253358
 30
0.0
 40
2.0
  1
ＴＨＩＲＤ　ＡＮＧＬＥ
 41
0.691099486738
  7
EXCADSTD
 72
     5
 11
94.005476089973
 21
9.560308253358
 31
0.0
100
AcDbText
  0
TEXT
  5
29C7
330
29BF
100
AcDbEntity
  8
図枠細線
  6
CONTINUOUS
 62
   252
100
AcDbText
 10
76.705775880921
 20
14.306608253358
 30
0.0
 40
2.0
  1
第三角法
 41
1.102941176471
  7
EXCADSTD
 72
     5
 11
86.705775880921
 21
14.306608253358
 31
0.0
100
AcDbText
  0
TEXT
  5
29C8
330
29BF
100
AcDbEntity
  8
図枠細線
  6
CONTINUOUS
 62
   252
100
AcDbText
 10
76.705775880921
 20
26.806608253358
 30
0.0
 40
2.0
  1
ＡＰＰＲＯＶＥＤ
 41
0.695652184279
  7
EXCADSTD
 72
     5
 11
89.505776071656
 21
26.806608253358
 31
0.0
100
AcDbText
  0
TEXT
  5
29C9
330
29BF
100
AcDbEntity
  8
図枠細線
  6
CONTINUOUS
 62
   252
100
AcDbText
 10
76.705775880921
 20
29.306608253358
 30
0.0
 40
2.0
  1
承認
 41
1.171875
  7
EXCADSTD
 72
     5
 11
81.705775880921
 21
29.306608253358
 31
0.0
100
AcDbText
  0
LINE
  5
29CA
330
29BF
100
AcDbEntity
  8
図枠細線
  6
CONTINUOUS
 62
   252
100
AcDbLine
 10
98.061011071051
 20
31.806606253358
 30
0.0
 11
98.061011071051
 21
16.806606253358
 31
0.0
  0
TEXT
  5
29CB
330
29BF
100
AcDbEntity
  8
図枠細線
  6
CONTINUOUS
 62
   252
100
AcDbText
 10
104.216531119804
 20
14.306608253358
 30
0.0
 40
2.0
  1
ＳＣＡＬＥ
 41
0.903614457831
  7
EXCADSTD
 72
     5
 11
114.216531119804
 21
14.306608253358
 31
0.0
100
AcDbText
  0
TEXT
  5
29CC
330
29BF
100
AcDbEntity
  8
図枠細線
  6
CONTINUOUS
 62
   252
100
AcDbText
 10
98.844044119804
 20
14.306608253358
 30
0.0
 40
2.0
  1
尺度
 41
1.171875
  7
EXCADSTD
 72
     5
 11
103.844044119804
 21
14.306608253358
 31
0.0
100
AcDbText
  0
TEXT
  5
29CD
330
29BF
100
AcDbEntity
  8
図枠細線
  6
CONTINUOUS
 62
   252
100
AcDbText
 10
98.968727707497
 20
26.806608253358
 30
0.0
 40
2.0
  1
ＣＨＥＣＫＥＤ
 41
0.831249989569
  7
EXCADSTD
 72
     5
 11
112.268727540604
 21
26.806608253358
 31
0.0
100
AcDbText
  0
TEXT
  5
29CE
330
29BF
100
AcDbEntity
  8
図枠細線
  6
CONTINUOUS
 62
   252
100
AcDbText
 10
98.968727707497
 20
29.306608253358
 30
0.0
 40
2.0
  1
検図
 41
1.209677419355
  7
EXCADSTD
 72
     5
 11
103.968727707497
 21
29.306608253358
 31
0.0
100
AcDbText
  0
LINE
  5
29CF
330
29BF
100
AcDbEntity
  8
図枠細線
  6
CONTINUOUS
 62
   252
100
AcDbLine
 10
121.061011071051
 20
31.806606253358
 30
0.0
 11
121.061011071051
 21
16.806606253358
 31
0.0
  0
TEXT
  5
29D0
330
29BF
100
AcDbEntity
  8
図枠細線
  6
CONTINUOUS
 62
   252
100
AcDbText
 10
128.001465247253
 20
14.306608253358
 30
0.0
 40
2.0
  1
ＤＡＴＥ
 41
0.923076923077
  7
EXCADSTD
 72
     5
 11
136.001465247253
 21
14.306608253358
 31
0.0
100
AcDbText
  0
TEXT
  5
29D1
330
29BF
100
AcDbEntity
  8
図枠細線
  6
CONTINUOUS
 62
   252
100
AcDbText
 10
122.066415498841
 20
14.306608253358
 30
0.0
 40
2.0
  1
日付
 41
1.171875
  7
EXCADSTD
 72
     5
 11
127.066415498841
 21
14.306608253358
 31
0.0
100
AcDbText
  0
TEXT
  5
29D2
330
29BF
100
AcDbEntity
  8
図枠細線
  6
CONTINUOUS
 62
   252
100
AcDbText
 10
121.59429406571
 20
29.306608253358
 30
0.0
 40
2.0
  1
製図
 41
1.209677419355
  7
EXCADSTD
 72
     5
 11
126.59429406571
 21
29.306608253358
 31
0.0
100
AcDbText
  0
TEXT
  5
29D3
330
29BF
100
AcDbEntity
  8
図枠細線
  6
CONTINUOUS
 62
   252
100
AcDbText
 10
121.59429406571
 20
26.806608253358
 30
0.0
 40
2.0
  1
ＤＲＡＷＮ
 41
0.882352941176
  7
EXCADSTD
 72
     5
 11
131.59429406571
 21
26.806608253358
 31
0.0
100
AcDbText
  0
TEXT
  5
29D4
330
29BF
100
AcDbEntity
  8
図枠細線
  6
CONTINUOUS
 62
   252
100
AcDbText
 10
226.591229661348
 20
14.306608253358
 30
0.0
 40
2.0
  1
ＤＲＧ．ＮＯ．
 41
0.9375
  7
EXCADSTD
 72
     5
 11
240.591229661348
 21
14.306608253358
 31
0.0
100
AcDbText
  0
LINE
  5
29D5
330
29BF
100
AcDbEntity
  8
図枠太線
  6
CONTINUOUS
 62
   251
100
AcDbLine
 10
144.061003071051
 20
16.806606253358
 30
0.0
 11
214.061011071051
 21
16.806606253358
 31
0.0
  0
LINE
  5
29D6
330
29BF
100
AcDbEntity
  8
図枠細線
  6
CONTINUOUS
 62
   252
100
AcDbLine
 10
144.061011071051
 20
24.306606253358
 30
0.0
 11
214.061011071051
 21
24.306606253358
 31
0.0
  0
TEXT
  5
29D7
330
29BF
100
AcDbEntity
  8
図枠ロゴマーク
  6
CONTINUOUS
 62
   253
100
AcDbText
 10
146.433776781596
 20
8.399000253358
 30
0.0
 40
7.0
  1
東和制電工業株式会社
 41
0.80361088462
  7
EXCADSTD
 72
     5
 11
212.437017438349
 21
8.399000253358
 31
0.0
100
AcDbText
  0
TEXT
  5
29D8
330
29BF
100
AcDbEntity
  8
図枠細線
  6
CONTINUOUS
 62
   252
100
AcDbText
 10
215.156179912936
 20
14.306608253358
 30
0.0
 40
2.0
  1
図面番号
 41
1.102941176471
  7
EXCADSTD
 72
     5
 11
225.156179912936
 21
14.306608253358
 31
0.0
100
AcDbText
  0
TEXT
  5
29D9
330
29BF
100
AcDbEntity
  8
図枠細線
  6
CONTINUOUS
 62
   252
100
AcDbText
 10
221.591229661348
 20
29.306608253358
 30
0.0
 40
2.0
  1
ＴＩＴＬＥ
 41
0.903614457831
  7
EXCADSTD
 72
     5
 11
231.591229661348
 21
29.306608253358
 31
0.0
100
AcDbText
  0
TEXT
  5
29DA
330
29BF
100
AcDbEntity
  8
図枠細線
  6
CONTINUOUS
 62
   252
100
AcDbText
 10
215.156179912936
 20
29.306608253358
 30
0.0
 40
2.0
  1
名称
 41
1.171875
  7
EXCADSTD
 72
     5
 11
220.156179912936
 21
29.306608253358
 31
0.0
100
AcDbText
  0
LINE
  5
29DB
330
29BF
100
AcDbEntity
  8
図枠太線
  6
CONTINUOUS
 62
   251
100
AcDbLine
 10
4.061011071051
 20
1.806608253358
 30
0.0
 11
284.061011071051
 21
1.806608253358
 31
0.0
  0
LINE
  5
29DC
330
29BF
100
AcDbEntity
  8
図枠細線
  6
CONTINUOUS
 62
   252
100
AcDbLine
 10
4.061011071051
 20
6.806608253358
 30
0.0
 11
75.061011071051
 21
6.806608253358
 31
0.0
  0
LINE
  5
29DD
330
29BF
100
AcDbEntity
  8
図枠太線
  6
CONTINUOUS
 62
   251
100
AcDbLine
 10
75.061011071051
 20
1.806608253358
 30
0.0
 11
75.061011071051
 21
31.806606253358
 31
0.0
  0
TEXT
  5
29DE
330
29BF
100
AcDbEntity
  8
図枠細線
  6
CONTINUOUS
 62
   252
100
AcDbText
 10
76.330551827713
 20
6.638319253358
 30
0.0
 40
2.0
  1
ＰＲＯＪＥＣＴＩＯＮ
 41
0.754285710199
  7
EXCADSTD
 72
     5
 11
93.930551732346
 21
6.638319253358
 31
0.0
100
AcDbText
  0
LINE
  5
29DF
330
29BF
100
AcDbEntity
  8
図枠細線
  6
CONTINUOUS
 62
   252
100
AcDbLine
 10
98.061011071051
 20
1.806606931929
 30
0.0
 11
98.061011071051
 21
16.806604931929
 31
0.0
  0
LINE
  5
29E0
330
29BF
100
AcDbEntity
  8
図枠細線
  6
CONTINUOUS
 62
   252
100
AcDbLine
 10
121.061011071051
 20
1.806607574787
 30
0.0
 11
121.061011071051
 21
16.806605574787
 31
0.0
  0
LINE
  5
29E1
330
29BF
100
AcDbEntity
  8
図枠太線
  6
CONTINUOUS
 62
   251
100
AcDbLine
 10
284.061011071051
 20
1.806608253358
 30
0.0
 11
284.061011071051
 21
31.806606253358
 31
0.0
  0
LINE
  5
29E2
330
29BF
100
AcDbEntity
  8
図枠細線
  6
CONTINUOUS
 62
   252
100
AcDbLine
 10
214.061011071051
 20
16.806606253358
 30
0.0
 11
284.061011071051
 21
16.806606253358
 31
0.0
  0
TEXT
  5
29E3
330
29BF
100
AcDbEntity
  8
図枠細線
  6
CONTINUOUS
 62
   252
100
AcDbText
 10
146.199593676182
 20
3.454099253358
 30
0.0
 40
3.5
  1
ＴＯＷＡ　ＳＥＩＤＥＮ　ＩＮＤＵＳＴＲＩＡＬ　ＣＯ．，ＬＴＤ．
 41
0.528937826907
  7
EXCADSTD
 72
     5
 11
213.339435171588
 21
3.454099253358
 31
0.0
100
AcDbText
  0
LINE
  5
29E4
330
29BF
100
AcDbEntity
  8
図枠太線
  6
CONTINUOUS
 62
   251
100
AcDbLine
 10
144.061011071051
 20
1.806608253358
 30
0.0
 11
144.061011071051
 21
31.806606253358
 31
0.0
  0
LINE
  5
29E5
330
29BF
100
AcDbEntity
  8
図枠太線
  6
CONTINUOUS
 62
   251
100
AcDbLine
 10
214.061011071051
 20
1.806608253358
 30
0.0
 11
214.061011071051
 21
31.806606253358
 31
0.0
  0
MTEXT
  5
29E6
330
29BF
100
AcDbEntity
  8
図枠太線
100
AcDbMText
 10
5.064337346478
 20
31.010982137407
 30
0.0
 40
2.5
 41
8.67856098472
 71
     1
 72
     5
  1
{\Fmonotxt.shx,bigfont.shx|c128;図暦}
  0
LINE
  5
29E7
330
29BF
100
AcDbEntity
  8
図枠太線
  6
CONTINUOUS
 62
   251
100
AcDbLine
 10
4.061011071051
 20
1.806608253358
 30
0.0
 11
4.061011071051
 21
31.806606253358
 31
0.0
  0
TEXT
  5
29E8
330
29BF
100
AcDbEntity
  8
図枠細線
 48
10.0
100
AcDbText
 10
12.260817420402
 20
28.625419626495
 30
0.0
 40
2.0
  1
CHANGE NOTICE
100
AcDbText
  0
ENDBLK
  5
29E9
330
29BF
100
AcDbEntity
  8
0
100
AcDbBlockEnd
  0
BLOCK
  5
29F5
330
29F4
100
AcDbEntity
  8
0
100
AcDbBlockBegin
  2
A4縦用_タイトル
 70
     0
 10
0.0
 20
0.0
 30
0.0
  3
A4縦用_タイトル
  1

  0
LINE
  5
29F6
330
29F4
100
AcDbEntity
  8
図枠太線
  6
CONTINUOUS
 62
   251
100
AcDbLine
 10
2.368253864267
 20
4.525433224584
 30
0.0
 11
192.368245864267
 21
4.525433224584
 31
0.0
  0
LINE
  5
29F7
330
29F4
100
AcDbEntity
  8
図枠太線
  6
CONTINUOUS
 62
   251
100
AcDbLine
 10
78.368245864267
 20
19.525431224584
 30
0.0
 11
135.368253864267
 21
19.525431224584
 31
0.0
  0
LINE
  5
29F8
330
29F4
100
AcDbEntity
  8
図枠細線
  6
CONTINUOUS
 62
   252
100
AcDbLine
 10
78.368253864267
 20
27.025431224584
 30
0.0
 11
135.368253864267
 21
27.025431224584
 31
0.0
  0
TEXT
  5
29F9
330
29F4
100
AcDbEntity
  8
図枠ロゴマーク
  6
CONTINUOUS
 62
   253
100
AcDbText
 10
80.617009864267
 20
11.117825224584
 30
0.0
 40
7.0
  1
東和制電工業株式会社
 41
0.639204545455
  7
EXCADSTD
 72
     5
 11
133.117009864267
 21
11.117825224584
 31
0.0
100
AcDbText
  0
TEXT
  5
29FA
330
29F4
100
AcDbEntity
  8
図枠細線
  6
CONTINUOUS
 62
   252
100
AcDbText
 10
80.579549864267
 20
6.172924224584
 30
0.0
 40
3.5
  1
ＴＯＷＡ　ＳＥＩＤＥＮ　ＩＮＤＵＳＴＲＩＡＬ　ＣＯ．，ＬＴＤ．
 41
0.414568012377
  7
EXCADSTD
 72
     5
 11
133.202049568628
 21
6.172924224584
 31
0.0
100
AcDbText
  0
LINE
  5
29FB
330
29F4
100
AcDbEntity
  8
図枠太線
  6
CONTINUOUS
 62
   251
100
AcDbLine
 10
2.368253864267
 20
4.525433224584
 30
0.0
 11
2.368253864267
 21
34.525431224584
 31
0.0
  0
TEXT
  5
29FC
330
29F4
100
AcDbEntity
  8
図枠細線
  6
CONTINUOUS
 62
   252
100
AcDbText
 10
22.504308136501
 20
12.279133224584
 30
0.0
 40
2.0
  1
ＴＨＩＲＤ　ＡＮＧＬＥ
 41
0.691099486738
  7
EXCADSTD
 72
     5
 11
40.104308398762
 21
12.279133224584
 31
0.0
100
AcDbText
  0
TEXT
  5
29FD
330
29F4
100
AcDbEntity
  8
図枠細線
  6
CONTINUOUS
 62
   252
100
AcDbText
 10
22.429384136501
 20
9.357144224584
 30
0.0
 40
2.0
  1
ＰＲＯＪＥＣＴＩＯＮ
 41
0.754285710199
  7
EXCADSTD
 72
     5
 11
40.029384041134
 21
9.357144224584
 31
0.0
100
AcDbText
  0
LINE
  5
29FE
330
29F4
100
AcDbEntity
  8
図枠細線
  6
CONTINUOUS
100
AcDbLine
 10
22.368253864267
 20
19.525433224584
 30
0.0
 11
78.368253864267
 21
19.525431224584
 31
0.0
  0
TEXT
  5
29FF
330
29F4
100
AcDbEntity
  8
図枠細線
  6
CONTINUOUS
 62
   252
100
AcDbText
 10
22.868253864267
 20
17.025433224584
 30
0.0
 40
2.0
  1
第三角法
 41
1.102941176471
  7
EXCADSTD
 72
     5
 11
32.868253864267
 21
17.025433224584
 31
0.0
100
AcDbText
  0
TEXT
  5
2A00
330
29F4
100
AcDbEntity
  8
図枠細線
  6
CONTINUOUS
 62
   252
100
AcDbText
 10
22.868253864267
 20
29.525433224584
 30
0.0
 40
2.0
  1
ＡＰＰＲＯＶＥＤ
 41
0.695652184279
  7
EXCADSTD
 72
     5
 11
35.668254055002
 21
29.525433224584
 31
0.0
100
AcDbText
  0
LINE
  5
2A01
330
29F4
100
AcDbEntity
  8
図枠細線
  6
CONTINUOUS
 62
   252
100
AcDbLine
 10
2.368253864267
 20
9.525433224584
 30
0.0
 11
22.368253864267
 21
9.525433224584
 31
0.0
  0
LINE
  5
2A02
330
29F4
100
AcDbEntity
  8
図枠細線
  6
CONTINUOUS
 62
   252
100
AcDbLine
 10
2.368253864267
 20
14.525431224584
 30
0.0
 11
22.368253864267
 21
14.525431224584
 31
0.0
  0
LINE
  5
2A03
330
29F4
100
AcDbEntity
  8
図枠細線
  6
CONTINUOUS
 62
   252
100
AcDbLine
 10
2.368253864267
 20
24.525431224584
 30
0.0
 11
22.368253864267
 21
24.525431224584
 31
0.0
  0
LINE
  5
2A04
330
29F4
100
AcDbEntity
  8
図枠細線
  6
CONTINUOUS
 62
   252
100
AcDbLine
 10
2.368253864267
 20
29.525431224584
 30
0.0
 11
22.368253864267
 21
29.525431224584
 31
0.0
  0
LINE
  5
2A05
330
29F4
100
AcDbEntity
  8
図枠細線
  6
CONTINUOUS
100
AcDbLine
 10
2.368253864267
 20
19.525433224584
 30
0.0
 11
22.368253864267
 21
19.525433224584
 31
0.0
  0
TEXT
  5
2A06
330
29F4
100
AcDbEntity
  8
図枠細線
  6
CONTINUOUS
 62
   252
100
AcDbText
 10
2.868253864267
 20
32.025433224584
 30
0.0
 40
2.0
  1
ＮＯＴＥ
 41
0.923076923077
  7
EXCADSTD
 72
     5
 11
10.868253864267
 21
32.025433224584
 31
0.0
100
AcDbText
  0
LINE
  5
2A07
330
29F4
100
AcDbEntity
  8
図枠太線
  6
CONTINUOUS
 62
   251
100
AcDbLine
 10
22.368253864267
 20
4.525433224584
 30
0.0
 11
22.368253864267
 21
34.525431224584
 31
0.0
  0
TEXT
  5
2A08
330
29F4
100
AcDbEntity
  8
図枠細線
  6
CONTINUOUS
 62
   252
100
AcDbText
 10
22.868253864267
 20
32.025433224584
 30
0.0
 40
2.0
  1
承認
 41
1.171875
  7
EXCADSTD
 72
     5
 11
27.868253864267
 21
32.025433224584
 31
0.0
100
AcDbText
  0
TEXT
  5
2A09
330
29F4
100
AcDbEntity
  8
図枠細線
  6
CONTINUOUS
 62
   252
100
AcDbText
 10
60.711709035982
 20
32.025433224584
 30
0.0
 40
2.0
  1
製図
 41
1.209677419355
  7
EXCADSTD
 72
     5
 11
65.711709035982
 21
32.025433224584
 31
0.0
100
AcDbText
  0
TEXT
  5
2A0A
330
29F4
100
AcDbEntity
  8
図枠細線
  6
CONTINUOUS
 62
   252
100
AcDbText
 10
60.711709035982
 20
29.525433224584
 30
0.0
 40
2.0
  1
ＤＲＡＷＮ
 41
0.882352941176
  7
EXCADSTD
 72
     5
 11
70.711709035982
 21
29.525433224584
 31
0.0
100
AcDbText
  0
TEXT
  5
2A0B
330
29F4
100
AcDbEntity
  8
図枠細線
  6
CONTINUOUS
 62
   252
100
AcDbText
 10
60.834891743877
 20
17.025433224584
 30
0.0
 40
2.0
  1
日付
 41
1.171875
  7
EXCADSTD
 72
     5
 11
65.834891743877
 21
17.025433224584
 31
0.0
100
AcDbText
  0
TEXT
  5
2A0C
330
29F4
100
AcDbEntity
  8
図枠細線
  6
CONTINUOUS
 62
   252
100
AcDbText
 10
47.333660864267
 20
17.025433224584
 30
0.0
 40
2.0
  1
ＳＣＡＬＥ
 41
0.903614457831
  7
EXCADSTD
 72
     5
 11
57.333660864267
 21
17.025433224584
 31
0.0
100
AcDbText
  0
TEXT
  5
2A0D
330
29F4
100
AcDbEntity
  8
図枠細線
  6
CONTINUOUS
 62
   252
100
AcDbText
 10
42.281425990082
 20
29.525433224584
 30
0.0
 40
2.0
  1
ＣＨＥＣＫＥＤ
 41
0.831249989569
  7
EXCADSTD
 72
     5
 11
55.581425823189
 21
29.525433224584
 31
0.0
100
AcDbText
  0
LINE
  5
2A0E
330
29F4
100
AcDbEntity
  8
図枠細線
  6
CONTINUOUS
 62
   252
100
AcDbLine
 10
40.968253864267
 20
34.525431224584
 30
0.0
 11
40.968253864267
 21
19.525431224584
 31
0.0
  0
LINE
  5
2A0F
330
29F4
100
AcDbEntity
  8
図枠細線
  6
CONTINUOUS
 62
   252
100
AcDbLine
 10
40.968253864267
 20
4.525433224584
 30
0.0
 11
40.968253864267
 21
19.525431224584
 31
0.0
  0
TEXT
  5
2A10
330
29F4
100
AcDbEntity
  8
図枠細線
  6
CONTINUOUS
 62
   252
100
AcDbText
 10
41.961173864267
 20
17.025433224584
 30
0.0
 40
2.0
  1
尺度
 41
1.171875
  7
EXCADSTD
 72
     5
 11
46.961173864267
 21
17.025433224584
 31
0.0
100
AcDbText
  0
TEXT
  5
2A11
330
29F4
100
AcDbEntity
  8
図枠細線
  6
CONTINUOUS
 62
   252
100
AcDbText
 10
42.281425990082
 20
32.025433224584
 30
0.0
 40
2.0
  1
検図
 41
1.209677419355
  7
EXCADSTD
 72
     5
 11
47.281425990082
 21
32.025433224584
 31
0.0
100
AcDbText
  0
LINE
  5
2A12
330
29F4
100
AcDbEntity
  8
図枠細線
  6
CONTINUOUS
 62
   252
100
AcDbLine
 10
59.768253864267
 20
34.525431224584
 30
0.0
 11
59.768253864267
 21
19.525431224584
 31
0.0
  0
LINE
  5
2A13
330
29F4
100
AcDbEntity
  8
図枠細線
  6
CONTINUOUS
 62
   252
100
AcDbLine
 10
59.768253864267
 20
4.525433224584
 30
0.0
 11
59.768253864267
 21
19.525431224584
 31
0.0
  0
LINE
  5
2A14
330
29F4
100
AcDbEntity
  8
図枠太線
  6
CONTINUOUS
 62
   251
100
AcDbLine
 10
78.368253864267
 20
4.525433224584
 30
0.0
 11
78.368253864267
 21
34.525431224584
 31
0.0
  0
TEXT
  5
2A15
330
29F4
100
AcDbEntity
  8
図枠細線
  6
CONTINUOUS
 62
   252
100
AcDbText
 10
66.334891743877
 20
17.025433224584
 30
0.0
 40
2.0
  1
ＤＡＴＥ
 41
0.923076923077
  7
EXCADSTD
 72
     5
 11
74.334891743877
 21
17.025433224584
 31
0.0
100
AcDbText
  0
LINE
  5
2A16
330
29F4
100
AcDbEntity
  8
図枠細線
  6
CONTINUOUS
 62
   252
100
AcDbLine
 10
135.368253864267
 20
19.525431224584
 30
0.0
 11
192.368245864267
 21
19.525431224584
 31
0.0
  0
TEXT
  5
2A17
330
29F4
100
AcDbEntity
  8
図枠細線
  6
CONTINUOUS
 62
   252
100
AcDbText
 10
141.868253864267
 20
32.025433224584
 30
0.0
 40
2.0
  1
ＴＩＴＬＥ
 41
0.903614457831
  7
EXCADSTD
 72
     5
 11
151.868253864267
 21
32.025433224584
 31
0.0
100
AcDbText
  0
LINE
  5
2A18
330
29F4
100
AcDbEntity
  8
図枠太線
  6
CONTINUOUS
 62
   251
100
AcDbLine
 10
135.368253864267
 20
4.525433224584
 30
0.0
 11
135.368253864267
 21
34.525431224584
 31
0.0
  0
TEXT
  5
2A19
330
29F4
100
AcDbEntity
  8
図枠細線
  6
CONTINUOUS
 62
   252
100
AcDbText
 10
135.868253864267
 20
17.025433224584
 30
0.0
 40
2.0
  1
図面番号
 41
1.102941176471
  7
EXCADSTD
 72
     5
 11
145.868253864267
 21
17.025433224584
 31
0.0
100
AcDbText
  0
TEXT
  5
2A1A
330
29F4
100
AcDbEntity
  8
図枠細線
  6
CONTINUOUS
 62
   252
100
AcDbText
 10
135.868253864267
 20
32.025433224584
 30
0.0
 40
2.0
  1
名称
 41
1.171875
  7
EXCADSTD
 72
     5
 11
140.868253864267
 21
32.025433224584
 31
0.0
100
AcDbText
  0
TEXT
  5
2A1B
330
29F4
100
AcDbEntity
  8
図枠細線
  6
CONTINUOUS
 62
   252
100
AcDbText
 10
146.868253864267
 20
17.025433224584
 30
0.0
 40
2.0
  1
ＤＲＧ．ＮＯ．
 41
0.9375
  7
EXCADSTD
 72
     5
 11
160.868253864267
 21
17.025433224584
 31
0.0
100
AcDbText
  0
LINE
  5
2A1C
330
29F4
100
AcDbEntity
  8
図枠太線
  6
CONTINUOUS
 62
   251
100
AcDbLine
 10
192.368245864267
 20
4.525433224584
 30
0.0
 11
192.368245864267
 21
34.525431224584
 31
0.0
  0
ENDBLK
  5
2A1D
330
29F4
100
AcDbEntity
  8
0
100
AcDbBlockEnd
  0
BLOCK
  5
2A33
330
2A32
100
AcDbEntity
  8
0
100
AcDbBlockBegin
  2
A3横用_タイトル
 70
     0
 10
0.0
 20
0.0
 30
0.0
  3
A3横用_タイトル
  1

  0
LINE
  5
2A34
330
2A32
100
AcDbEntity
  8
図枠細線
  6
CONTINUOUS
 62
   252
100
AcDbLine
 10
205.098414535793
 20
33.525959753527
 30
0.0
 11
305.098414535793
 21
33.525959753527
 31
0.0
  0
LINE
  5
2A35
330
2A32
100
AcDbEntity
  8
図枠太線
  6
CONTINUOUS
 62
   251
100
AcDbLine
 10
205.098414535793
 20
23.525959753527
 30
0.0
 11
305.098414535793
 21
23.525959753527
 31
0.0
  0
LINE
  5
2A36
330
2A32
100
AcDbEntity
  8
図枠細線
  6
CONTINUOUS
100
AcDbLine
 10
5.098414535793
 20
23.525959753527
 30
0.0
 11
105.098414535793
 21
23.525959753527
 31
0.0
  0
LINE
  5
2A37
330
2A32
100
AcDbEntity
  8
図枠細線
  6
CONTINUOUS
 62
   252
100
AcDbLine
 10
5.098414535793
 20
36.725957753527
 30
0.0
 11
105.098414535793
 21
36.725957753527
 31
0.0
  0
LINE
  5
2A38
330
2A32
100
AcDbEntity
  8
図枠細線
  6
CONTINUOUS
 62
   252
100
AcDbLine
 10
5.098414535793
 20
30.125957753527
 30
0.0
 11
105.098414535793
 21
30.125957753527
 31
0.0
  0
LINE
  5
2A39
330
2A32
100
AcDbEntity
  8
図枠細線
  6
CONTINUOUS
 62
   252
100
AcDbLine
 10
5.098414535793
 20
16.725959753527
 30
0.0
 11
105.098414535793
 21
16.725959753527
 31
0.0
  0
LINE
  5
2A3A
330
2A32
100
AcDbEntity
  8
図枠細線
  6
CONTINUOUS
 62
   252
100
AcDbLine
 10
5.098414535793
 20
10.125959753527
 30
0.0
 11
105.098414535793
 21
10.125959753527
 31
0.0
  0
LINE
  5
2A3B
330
2A32
100
AcDbEntity
  8
図枠細線
  6
CONTINUOUS
100
AcDbLine
 10
105.098414535793
 20
23.525961753527
 30
0.0
 11
205.098414535793
 21
23.525959753527
 31
0.0
  0
LINE
  5
2A3C
330
2A32
100
AcDbEntity
  8
図枠細線
  6
CONTINUOUS
 62
   252
100
AcDbLine
 10
138.398414535793
 20
43.525959753527
 30
0.0
 11
138.398414535793
 21
18.525957753527
 31
0.0
  0
LINE
  5
2A3D
330
2A32
100
AcDbEntity
  8
図枠細線
  6
CONTINUOUS
 62
   252
100
AcDbLine
 10
171.698414535793
 20
43.525959753527
 30
0.0
 11
171.698414535793
 21
18.525957753527
 31
0.0
  0
LINE
  5
2A3E
330
2A32
100
AcDbEntity
  8
図枠細線
  6
CONTINUOUS
 62
   252
100
AcDbLine
 10
305.098414535793
 20
23.525959753527
 30
0.0
 11
405.098414535793
 21
23.525959753527
 31
0.0
  0
TEXT
  5
2A3F
330
2A32
100
AcDbEntity
  8
図枠ロゴマーク
  6
CONTINUOUS
 62
   253
100
AcDbText
 10
206.102509212755
 20
13.294257570546
 30
0.0
 40
7.0
  1
東和制電工業株式会社
 50
0.016555220185
 41
1.186384129432
  7
EXCADSTD
 72
     5
 11
303.544188309143
 21
13.322412672217
 31
0.0
100
AcDbText
  0
MTEXT
  5
2A40
330
2A32
100
AcDbEntity
  8
図枠細線
100
AcDbMText
 10
6.356764112375
 20
41.976594175478
 30
0.0
 40
2.5
 41
49.938282706292
 71
     1
 72
     5
  1
{\Fmonotxt.shx,bigfont.shx|c128;図暦　CHANGE　NOTICE}
  0
MTEXT
  5
2A41
330
2A32
100
AcDbEntity
  8
図枠細線
 48
10.0
100
AcDbMText
 10
306.544114926828
 20
41.701835800934
 30
0.0
 40
2.5
 41
28.002809618823
 71
     1
 72
     5
  1
{\Fmonotxt.shx,bigfont.shx|c128;名称　TITLE}
  0
MTEXT
  5
2A42
330
2A32
100
AcDbEntity
  8
図枠細線
 48
10.0
100
AcDbMText
 10
307.329617114284
 20
21.606206797226
 30
0.0
 40
2.5
 41
24.385612216707
 71
     1
 72
     5
  1
{\Fmonotxt.shx,bigfont.shx|c128;図面番号\PDRG.　No.}
  0
MTEXT
  5
2A43
330
2A32
100
AcDbEntity
  8
図枠細線
 48
10.0
100
AcDbMText
 10
173.726349404609
 20
21.73680662198
 30
0.0
 40
2.5
 41
25.735090160813
 71
     1
 72
     5
  1
{\Fmonotxt.shx,bigfont.shx|c128;日付 DATE}
  0
MTEXT
  5
2A44
330
2A32
100
AcDbEntity
  8
図枠細線
 48
10.0
100
AcDbMText
 10
173.48708833982
 20
41.621592044998
 30
0.0
 40
2.5
 41
24.983741184205
 71
     1
 72
     5
  1
{\Fmonotxt.shx,bigfont.shx|c128;製図　DRAWN}
  0
MTEXT
  5
2A45
330
2A32
100
AcDbEntity
  8
図枠細線
 48
10.0
100
AcDbMText
 10
139.28009927741
 20
21.866713069868
 30
0.0
 40
2.5
 41
22.629632913243
 71
     1
 72
     5
  1
{\Fmonotxt.shx,bigfont.shx|c128;尺度　SCALE}
  0
MTEXT
  5
2A46
330
2A32
100
AcDbEntity
  8
図枠細線
 48
10.0
100
AcDbMText
 10
139.910091179835
 20
41.311840415554
 30
0.0
 40
2.5
 41
28.998753428368
 71
     1
 72
     5
  1
{\Fmonotxt.shx,bigfont.shx|c128;検図  CHECKED}
  0
MTEXT
  5
2A47
330
2A32
100
AcDbEntity
  8
図枠細線
 48
10.0
100
AcDbMText
 10
114.253294667728
 20
21.916124850174
 30
0.0
 40
3.0
 41
19.692400475383
 71
     1
 72
     5
  1
{\Fmonotxt.shx,bigfont.shx|c128;第三角法}
  0
MTEXT
  5
2A48
330
2A32
100
AcDbEntity
  8
図枠細線
 48
10.0
100
AcDbMText
 10
108.986959929915
 20
15.282880185837
 30
0.0
 40
2.5
 41
27.954882823547
 71
     1
 72
     5
  1
{\Fmonotxt.shx,bigfont.shx|c128;THIRD ANGLE\PPROJECTION}
  0
MTEXT
  5
2A49
330
2A32
100
AcDbEntity
  8
図枠細線
 48
10.0
100
AcDbMText
 10
106.319432640184
 20
41.511437145487
 30
0.0
 40
2.5
 41
28.233595265074
 71
     1
 72
     5
  1
{\Fmonotxt.shx,bigfont.shx|c128;承認 APPROVED}
  0
LINE
  5
2A4A
330
2A32
100
AcDbEntity
  8
図枠太線
  6
CONTINUOUS
 62
   251
100
AcDbLine
 10
5.098414535793
 20
3.525959753527
 30
0.0
 11
405.098414535793
 21
3.525959753527
 31
0.0
  0
LINE
  5
2A4B
330
2A32
100
AcDbEntity
  8
図枠太線
 48
10.0
100
AcDbLine
 10
5.098414535793
 20
3.525959753527
 30
0.0
 11
5.098414535793
 21
43.525959753527
 31
0.0
  0
LINE
  5
2A4C
330
2A32
100
AcDbEntity
  8
図枠太線
  6
CONTINUOUS
 62
   251
100
AcDbLine
 10
105.098414535793
 20
3.525959753527
 30
0.0
 11
105.098414535793
 21
43.525959753527
 31
0.0
  0
LINE
  5
2A4D
330
2A32
100
AcDbEntity
  8
図枠細線
  6
CONTINUOUS
 62
   252
100
AcDbLine
 10
138.398414535793
 20
3.525959753527
 30
0.0
 11
138.398414535793
 21
18.525957753527
 31
0.0
  0
LINE
  5
2A4E
330
2A32
100
AcDbEntity
  8
図枠細線
  6
CONTINUOUS
 62
   252
100
AcDbLine
 10
171.698414535793
 20
3.525959753527
 30
0.0
 11
171.698414535793
 21
18.525957753527
 31
0.0
  0
LINE
  5
2A4F
330
2A32
100
AcDbEntity
  8
図枠太線
  6
CONTINUOUS
 62
   251
100
AcDbLine
 10
205.098414535793
 20
3.525959753527
 30
0.0
 11
205.098414535793
 21
43.525959753527
 31
0.0
  0
LINE
  5
2A50
330
2A32
100
AcDbEntity
  8
図枠太線
 48
10.0
100
AcDbLine
 10
405.098414535793
 20
43.525959753527
 30
0.0
 11
405.098414535793
 21
3.525959753527
 31
0.0
  0
TEXT
  5
2A51
330
2A32
100
AcDbEntity
  8
図枠細線
  6
CONTINUOUS
 62
   252
100
AcDbText
 10
208.519754474572
 20
6.482358407285
 30
0.0
 40
3.5
  1
ＴＯＷＡ　ＳＥＩＤＥＮ　ＩＮＤＵＳＴＲＩＡＬ　ＣＯ．，ＬＴＤ．
 41
0.746656297509
  7
EXCADSTD
 72
     5
 11
303.295327171727
 21
6.482358407285
 31
0.0
100
AcDbText
  0
LINE
  5
2A52
330
2A32
100
AcDbEntity
  8
図枠太線
  6
CONTINUOUS
 62
   251
100
AcDbLine
 10
305.098414535793
 20
3.525959753527
 30
0.0
 11
305.098414535793
 21
43.525959753527
 31
0.0
  0
ENDBLK
  5
2A53
330
2A32
100
AcDbEntity
  8
0
100
AcDbBlockEnd
  0
BLOCK
  5
2A6D
330
2A6C
100
AcDbEntity
  8
0
100
AcDbBlockBegin
  2
A3縦用_タイトル
 70
     0
 10
0.0
 20
0.0
 30
0.0
  3
A3縦用_タイトル
  1

  0
MTEXT
  5
2A6E
330
2A6C
100
AcDbEntity
  8
図枠細線
100
AcDbMText
 10
5.040804501593
 20
31.626098649005
 30
0.0
 40
2.5
 41
49.938282706292
 71
     1
 72
     5
  1
{\Fmonotxt.shx,bigfont.shx|c128;図暦　CHANGE　NOTICE}
  0
LINE
  5
2A6F
330
2A6C
100
AcDbEntity
  8
図枠太線
  6
CONTINUOUS
 62
   251
100
AcDbLine
 10
283.577871882961
 20
2.820844689254
 30
0.0
 11
283.577871882961
 21
32.820842689254
 31
0.0
  0
MTEXT
  5
2A70
330
2A6C
100
AcDbEntity
  8
図枠細線
 48
10.0
100
AcDbMText
 10
214.912458947454
 20
31.621488632308
 30
0.0
 40
2.5
 41
28.002809618823
 71
     1
 72
     5
  1
{\Fmonotxt.shx,bigfont.shx|c128;名称　TITLE}
  0
MTEXT
  5
2A71
330
2A6C
100
AcDbEntity
  8
図枠細線
 48
10.0
100
AcDbMText
 10
214.740030458938
 20
16.310225796722
 30
0.0
 40
2.5
 41
24.385612216707
 71
     1
 72
     5
  1
{\Fmonotxt.shx,bigfont.shx|c128;図面番号\PDRG.　No.}
  0
LINE
  5
2A72
330
2A6C
100
AcDbEntity
  8
図枠太線
  6
CONTINUOUS
 62
   251
100
AcDbLine
 10
213.577871882961
 20
2.820844689254
 30
0.0
 11
213.577871882961
 21
32.820842689254
 31
0.0
  0
LINE
  5
2A73
330
2A6C
100
AcDbEntity
  8
図枠太線
  6
CONTINUOUS
 62
   251
100
AcDbLine
 10
143.577871882961
 20
2.820844689254
 30
0.0
 11
143.577871882961
 21
32.820842689254
 31
0.0
  0
TEXT
  5
2A74
330
2A6C
100
AcDbEntity
  8
図枠細線
  6
CONTINUOUS
 62
   252
100
AcDbText
 10
145.716454488093
 20
4.468335689254
 30
0.0
 40
3.5
  1
ＴＯＷＡ　ＳＥＩＤＥＮ　ＩＮＤＵＳＴＲＩＡＬ　ＣＯ．，ＬＴＤ．
 41
0.528937826907
  7
EXCADSTD
 72
     5
 11
212.856295983498
 21
4.468335689254
 31
0.0
100
AcDbText
  0
TEXT
  5
2A75
330
2A6C
100
AcDbEntity
  8
図枠ロゴマーク
  6
CONTINUOUS
 62
   253
100
AcDbText
 10
145.950637593507
 20
9.413236689254
 30
0.0
 40
7.0
  1
東和制電工業株式会社
 41
0.80361088462
  7
EXCADSTD
 72
     5
 11
211.953878250259
 21
9.413236689254
 31
0.0
100
AcDbText
  0
LINE
  5
2A76
330
2A6C
100
AcDbEntity
  8
図枠細線
  6
CONTINUOUS
 62
   252
100
AcDbLine
 10
143.577871882961
 20
25.320842689254
 30
0.0
 11
213.577871882961
 21
25.320842689254
 31
0.0
  0
LINE
  5
2A77
330
2A6C
100
AcDbEntity
  8
図枠太線
  6
CONTINUOUS
 62
   251
100
AcDbLine
 10
143.577863882961
 20
17.820842689254
 30
0.0
 11
213.577871882961
 21
17.820842689254
 31
0.0
  0
LINE
  5
2A78
330
2A6C
100
AcDbEntity
  8
図枠細線
  6
CONTINUOUS
 62
   252
100
AcDbLine
 10
213.577871882961
 20
17.820842689254
 30
0.0
 11
283.577871882961
 21
17.820842689254
 31
0.0
  0
LINE
  5
2A79
330
2A6C
100
AcDbEntity
  8
図枠細線
  6
CONTINUOUS
 62
   252
100
AcDbLine
 10
120.577871882961
 20
32.820842689254
 30
0.0
 11
120.577871882961
 21
17.820842689254
 31
0.0
  0
MTEXT
  5
2A7A
330
2A6C
100
AcDbEntity
  8
図枠細線
 48
10.0
100
AcDbMText
 10
121.100885670352
 20
16.33785922638
 30
0.0
 40
2.0
 41
17.705978285068
 71
     1
 72
     5
  1
{\Fmonotxt.shx,bigfont.shx|c128;日付 DATE}
  0
MTEXT
  5
2A7B
330
2A6C
100
AcDbEntity
  8
図枠細線
 48
10.0
100
AcDbMText
 10
121.254842273491
 20
31.208993514037
 30
0.0
 40
2.0
 41
18.363799568758
 71
     1
 72
     5
  1
{\Fmonotxt.shx,bigfont.shx|c128;製図　DRAWN}
  0
LINE
  5
2A7C
330
2A6C
100
AcDbEntity
  8
図枠細線
  6
CONTINUOUS
 62
   252
100
AcDbLine
 10
97.577871882961
 20
32.820842689254
 30
0.0
 11
97.577871882961
 21
17.820842689254
 31
0.0
  0
MTEXT
  5
2A7D
330
2A6C
100
AcDbEntity
  8
図枠細線
 48
10.0
100
AcDbMText
 10
98.239734796872
 20
16.467764839281
 30
0.0
 40
2.0
 41
17.757791689903
 71
     1
 72
     5
  1
{\Fmonotxt.shx,bigfont.shx|c128;尺度　SCALE}
  0
MTEXT
  5
2A7E
330
2A6C
100
AcDbEntity
  8
図枠細線
 48
10.0
100
AcDbMText
 10
97.864744625154
 20
31.298433377664
 30
0.0
 40
2.0
 41
23.162655920976
 71
     1
 72
     5
  1
{\Fmonotxt.shx,bigfont.shx|c128;検図  CHECKED}
  0
LINE
  5
2A7F
330
2A6C
100
AcDbEntity
  8
図枠細線
  6
CONTINUOUS
 62
   252
100
AcDbLine
 10
97.577871882961
 20
2.820843367826
 30
0.0
 11
97.577871882961
 21
17.820841367826
 31
0.0
  0
LINE
  5
2A80
330
2A6C
100
AcDbEntity
  8
図枠細線
  6
CONTINUOUS
 62
   252
100
AcDbLine
 10
120.577871882961
 20
2.820844010683
 30
0.0
 11
120.577871882961
 21
17.820842010683
 31
0.0
  0
MTEXT
  5
2A81
330
2A6C
100
AcDbEntity
  8
図枠細線
 48
10.0
100
AcDbMText
 10
81.402399084102
 20
16.316484117426
 30
0.0
 40
2.0
 41
12.920322819369
 71
     1
 72
     5
  1
{\Fmonotxt.shx,bigfont.shx|c128;第三角法}
  0
MTEXT
  5
2A82
330
2A6C
100
AcDbEntity
  8
図枠細線
 48
10.0
100
AcDbMText
 10
75.736576535096
 20
11.080410931319
 30
0.0
 40
2.0
 41
21.072870671471
 71
     1
 72
     5
  1
{\Fmonotxt.shx,bigfont.shx|c128;THIRD ANGLE\PPROJECTION}
  0
LINE
  5
2A83
330
2A6C
100
AcDbEntity
  8
図枠太線
  6
CONTINUOUS
 62
   251
100
AcDbLine
 10
74.577871882961
 20
2.820844689254
 30
0.0
 11
74.577871882961
 21
32.820842689254
 31
0.0
  0
MTEXT
  5
2A84
330
2A6C
100
AcDbEntity
  8
図枠細線
 48
10.0
100
AcDbMText
 10
75.060214781573
 20
31.298434778555
 30
0.0
 40
2.0
 41
22.240928805967
 71
     1
 72
     5
  1
{\Fmonotxt.shx,bigfont.shx|c128;承認 APPROVED}
  0
LINE
  5
2A85
330
2A6C
100
AcDbEntity
  8
図枠細線
  6
CONTINUOUS
100
AcDbLine
 10
3.577871882961
 20
17.820844689254
 30
0.0
 11
74.577871882961
 21
17.820844689254
 31
0.0
  0
LINE
  5
2A86
330
2A6C
100
AcDbEntity
  8
図枠細線
  6
CONTINUOUS
 62
   252
100
AcDbLine
 10
3.577871882961
 20
27.820842689254
 30
0.0
 11
74.577871882961
 21
27.820842689254
 31
0.0
  0
LINE
  5
2A87
330
2A6C
100
AcDbEntity
  8
図枠細線
  6
CONTINUOUS
 62
   252
100
AcDbLine
 10
3.577871882961
 20
22.820842689254
 30
0.0
 11
74.577871882961
 21
22.820842689254
 31
0.0
  0
LINE
  5
2A88
330
2A6C
100
AcDbEntity
  8
図枠細線
  6
CONTINUOUS
 62
   252
100
AcDbLine
 10
3.577871882961
 20
12.820842689254
 30
0.0
 11
74.577871882961
 21
12.820842689254
 31
0.0
  0
LINE
  5
2A89
330
2A6C
100
AcDbEntity
  8
図枠細線
  6
CONTINUOUS
 62
   252
100
AcDbLine
 10
3.577871882961
 20
7.820844689254
 30
0.0
 11
74.577871882961
 21
7.820844689254
 31
0.0
  0
LINE
  5
2A8A
330
2A6C
100
AcDbEntity
  8
図枠細線
  6
CONTINUOUS
100
AcDbLine
 10
74.577871882961
 20
17.820843689254
 30
0.0
 11
143.577871882961
 21
17.820841224969
 31
0.0
  0
LINE
  5
2A8B
330
2A6C
100
AcDbEntity
  8
図枠太線
  6
CONTINUOUS
 62
   251
100
AcDbLine
 10
3.577871882961
 20
2.820844689254
 30
0.0
 11
283.577871882961
 21
2.820844689254
 31
0.0
  0
LINE
  5
2A8C
330
2A6C
100
AcDbEntity
  8
図枠太線
  6
CONTINUOUS
 62
   251
100
AcDbLine
 10
3.577871882961
 20
2.820844689254
 30
0.0
 11
3.577871882961
 21
32.820842689254
 31
0.0
  0
ENDBLK
  5
2A8D
330
2A6C
100
AcDbEntity
  8
0
100
AcDbBlockEnd
  0
BLOCK
  5
2AF8
330
2AF4
100
AcDbEntity
  8
0
 48
10.0
100
AcDbBlockBegin
  2
_OPEN30
 70
     0
 10
0.0
 20
0.0
 30
0.0
  3
_OPEN30
  1

  0
LINE
  5
2AF5
330
2AF4
100
AcDbEntity
  8
0
  6
BYBLOCK
 62
     0
100
AcDbLine
 10
-1.0
 20
0.26794919
 30
0.0
 11
0.0
 21
0.0
 31
0.0
  0
LINE
  5
2AF6
330
2AF4
100
AcDbEntity
  8
0
  6
BYBLOCK
 62
     0
100
AcDbLine
 10
0.0
 20
0.0
 30
0.0
 11
-1.0
 21
-0.26794919
 31
0.0
  0
LINE
  5
2AF7
330
2AF4
100
AcDbEntity
  8
0
  6
BYBLOCK
 62
     0
100
AcDbLine
 10
0.0
 20
0.0
 30
0.0
 11
-1.0
 21
0.0
 31
0.0
  0
ENDBLK
  5
2AF9
330
2AF4
100
AcDbEntity
  8
0
 48
10.0
100
AcDbBlockEnd
  0
BLOCK
  5
453F
330
4535
100
AcDbEntity
  8
0
 48
10.0
100
AcDbBlockBegin
  2
*D6
 70
     1
 10
0.0
 20
0.0
 30
0.0
  3
*D6
  1

  0
LINE
  5
49CE
330
4535
100
AcDbEntity
  8
寸法線
 62
     0
 48
10.0
100
AcDbLine
 10
196.89537763811
 20
164.154895460988
 30
0.0
 11
196.89537763811
 21
132.202067588836
 31
0.0
  0
LINE
  5
49CF
330
4535
100
AcDbEntity
  8
寸法線
 62
     0
 48
10.0
100
AcDbLine
 10
156.89537763811
 20
169.154895460988
 30
0.0
 11
156.89537763811
 21
132.202067588836
 31
0.0
  0
LINE
  5
49D0
330
4535
100
AcDbEntity
  8
寸法線
 62
     0
 48
10.0
100
AcDbLine
 10
190.89537763811
 20
133.452067588836
 30
0.0
 11
162.89537763811
 21
133.452067588836
 31
0.0
  0
INSERT
  5
49D1
330
4535
100
AcDbEntity
  8
寸法線
 62
     0
 48
10.0
100
AcDbBlockReference
  2
_OPEN30
 10
196.89537763811
 20
133.452067588836
 30
0.0
 41
6.0
 42
6.0
 43
6.0
  0
INSERT
  5
49D2
330
4535
100
AcDbEntity
  8
寸法線
 62
     0
 48
10.0
100
AcDbBlockReference
  2
_OPEN30
 10
156.89537763811
 20
133.452067588836
 30
0.0
 41
6.0
 42
6.0
 43
6.0
 50
180.0
  0
MTEXT
  5
49D3
330
4535
100
AcDbEntity
  8
寸法線
 62
     0
 48
10.0
100
AcDbMText
 10
176.89537763811
 20
138.077067588836
 30
0.0
 40
8.0
 41
0.0
 71
     5
 72
     1
  1
\A1;40
  0
POINT
  5
49D4
330
4535
100
AcDbEntity
  8
DEFPOINTS
 62
     0
 48
10.0
100
AcDbPoint
 10
196.89537763811
 20
164.779895460988
 30
0.0
  0
POINT
  5
49D5
330
4535
100
AcDbEntity
  8
DEFPOINTS
 62
     0
 48
10.0
100
AcDbPoint
 10
156.89537763811
 20
169.779895460988
 30
0.0
  0
POINT
  5
49D6
330
4535
100
AcDbEntity
  8
DEFPOINTS
 62
     0
 48
10.0
100
AcDbPoint
 10
156.89537763811
 20
133.452067588836
 30
0.0
  0
ENDBLK
  5
4540
330
4535
100
AcDbEntity
  8
0
 48
10.0
100
AcDbBlockEnd
  0
BLOCK
  5
4556
330
454C
100
AcDbEntity
  8
0
 48
10.0
100
AcDbBlockBegin
  2
*D7
 70
     1
 10
0.0
 20
0.0
 30
0.0
  3
*D7
  1

  0
LINE
  5
45AF
330
454C
100
AcDbEntity
  8
寸法線
 62
     0
 48
10.0
100
AcDbLine
 10
283.89537763811
 20
158.154895460987
 30
0.0
 11
283.89537763811
 21
60.029895460988
 31
0.0
  0
LINE
  5
45B0
330
454C
100
AcDbEntity
  8
寸法線
 62
     0
 48
10.0
100
AcDbLine
 10
398.011854345092
 20
133.622224737336
 30
0.0
 11
398.011854345092
 21
60.029895460988
 31
0.0
  0
LINE
  5
45B1
330
454C
100
AcDbEntity
  8
寸法線
 62
     0
 48
10.0
100
AcDbLine
 10
289.89537763811
 20
61.279895460988
 30
0.0
 11
392.011854345092
 21
61.279895460988
 31
0.0
  0
INSERT
  5
45B2
330
454C
100
AcDbEntity
  8
寸法線
 62
     0
100
AcDbBlockReference
  2
_OPEN30
 10
283.89537763811
 20
61.279895460988
 30
0.0
 41
6.0
 42
6.0
 43
6.0
 50
180.0
  0
INSERT
  5
45B3
330
454C
100
AcDbEntity
  8
寸法線
 62
     0
100
AcDbBlockReference
  2
_OPEN30
 10
398.011854345092
 20
61.279895460988
 30
0.0
 41
6.0
 42
6.0
 43
6.0
  0
MTEXT
  5
45B4
330
454C
100
AcDbEntity
  8
寸法線
 62
     0
 48
10.0
100
AcDbMText
 10
340.953615991601
 20
65.904895460988
 30
0.0
 40
8.0
 41
0.0
 71
     5
 72
     1
  1
\A1;111
  0
POINT
  5
45B5
330
454C
100
AcDbEntity
  8
DEFPOINTS
 62
     0
100
AcDbPoint
 10
283.89537763811
 20
158.779895460987
 30
0.0
  0
POINT
  5
45B6
330
454C
100
AcDbEntity
  8
DEFPOINTS
 62
     0
100
AcDbPoint
 10
398.011854345092
 20
134.247224737336
 30
0.0
  0
POINT
  5
45B7
330
454C
100
AcDbEntity
  8
DEFPOINTS
 62
     0
100
AcDbPoint
 10
398.011854345092
 20
61.279895460988
 30
0.0
  0
ENDBLK
  5
4557
330
454C
100
AcDbEntity
  8
0
 48
10.0
100
AcDbBlockEnd
  0
BLOCK
  5
4562
330
4558
100
AcDbEntity
  8
0
 48
10.0
100
AcDbBlockBegin
  2
*D8
 70
     1
 10
0.0
 20
0.0
 30
0.0
  3
*D8
  1

  0
LINE
  5
49C5
330
4558
100
AcDbEntity
  8
寸法線
 62
     0
 48
10.0
100
AcDbLine
 10
169.27037763811
 20
165.779895460987
 30
0.0
 11
117.460222039706
 21
165.779895460987
 31
0.0
  0
LINE
  5
49C6
330
4558
100
AcDbEntity
  8
寸法線
 62
     0
 48
10.0
100
AcDbLine
 10
169.27037763811
 20
191.779895460987
 30
0.0
 11
117.460222039706
 21
191.779895460987
 31
0.0
  0
LINE
  5
49C7
330
4558
100
AcDbEntity
  8
寸法線
 62
     0
 48
10.0
100
AcDbLine
 10
118.710222039706
 20
170.079895460987
 30
0.0
 11
118.710222039706
 21
187.479895460987
 31
0.0
  0
INSERT
  5
49C8
330
4558
100
AcDbEntity
  8
寸法線
 62
     0
 48
10.0
100
AcDbBlockReference
  2
_OPEN30
 10
118.710222039706
 20
165.779895460987
 30
0.0
 41
4.3
 42
4.3
 43
4.3
 50
270.0
  0
INSERT
  5
49C9
330
4558
100
AcDbEntity
  8
寸法線
 62
     0
 48
10.0
100
AcDbBlockReference
  2
_OPEN30
 10
118.710222039706
 20
191.779895460987
 30
0.0
 41
4.3
 42
4.3
 43
4.3
 50
90.0
  0
MTEXT
  5
49CA
330
4558
100
AcDbEntity
  8
寸法線
 62
     0
 48
10.0
100
AcDbMText
 10
114.084434638132
 20
178.779895460987
 30
0.0
 40
8.0
 41
0.0
 71
     5
 72
     1
  1
\A1;26
 11
6.123031769111886E-17
 21
1.0
 31
0.0
  0
POINT
  5
49CB
330
4558
100
AcDbEntity
  8
DEFPOINTS
 62
     0
 48
10.0
100
AcDbPoint
 10
169.89537763811
 20
165.779895460987
 30
0.0
  0
POINT
  5
49CC
330
4558
100
AcDbEntity
  8
DEFPOINTS
 62
     0
 48
10.0
100
AcDbPoint
 10
169.89537763811
 20
191.779895460987
 30
0.0
  0
POINT
  5
49CD
330
4558
100
AcDbEntity
  8
DEFPOINTS
 62
     0
 48
10.0
100
AcDbPoint
 10
118.710222039706
 20
191.779895460987
 30
0.0
  0
ENDBLK
  5
4563
330
4558
100
AcDbEntity
  8
0
 48
10.0
100
AcDbBlockEnd
  0
BLOCK
  5
456E
330
4564
100
AcDbEntity
  8
0
 48
10.0
100
AcDbBlockBegin
  2
*D9
 70
     1
 10
0.0
 20
0.0
 30
0.0
  3
*D9
  1

  0
LINE
  5
49BC
330
4564
100
AcDbEntity
  8
寸法線
 62
     0
 48
10.0
100
AcDbLine
 10
156.27037763811
 20
170.779895460987
 30
0.0
 11
138.960970913155
 21
170.779895460987
 31
0.0
  0
LINE
  5
49BD
330
4564
100
AcDbEntity
  8
寸法線
 62
     0
 48
10.0
100
AcDbLine
 10
156.27037763811
 20
186.779895460987
 30
0.0
 11
138.960970913155
 21
186.779895460987
 31
0.0
  0
LINE
  5
49BE
330
4564
100
AcDbEntity
  8
寸法線
 62
     0
 48
10.0
100
AcDbLine
 10
140.210970913155
 20
175.079895460987
 30
0.0
 11
140.210970913155
 21
182.479895460987
 31
0.0
  0
INSERT
  5
49BF
330
4564
100
AcDbEntity
  8
寸法線
 62
     0
 48
10.0
100
AcDbBlockReference
  2
_OPEN30
 10
140.210970913155
 20
170.779895460987
 30
0.0
 41
4.3
 42
4.3
 43
4.3
 50
270.0
  0
INSERT
  5
49C0
330
4564
100
AcDbEntity
  8
寸法線
 62
     0
 48
10.0
100
AcDbBlockReference
  2
_OPEN30
 10
140.210970913155
 20
186.779895460987
 30
0.0
 41
4.3
 42
4.3
 43
4.3
 50
90.0
  0
MTEXT
  5
49C1
330
4564
100
AcDbEntity
  8
寸法線
 62
     0
 48
10.0
100
AcDbMText
 10
135.585970913155
 20
178.779895460987
 30
0.0
 40
8.0
 41
0.0
 71
     5
 72
     1
  1
\A1;15.6
 11
6.123031769111886E-17
 21
1.0
 31
0.0
  0
POINT
  5
49C2
330
4564
100
AcDbEntity
  8
DEFPOINTS
 62
     0
 48
10.0
100
AcDbPoint
 10
156.89537763811
 20
170.779895460987
 30
0.0
  0
POINT
  5
49C3
330
4564
100
AcDbEntity
  8
DEFPOINTS
 62
     0
 48
10.0
100
AcDbPoint
 10
156.89537763811
 20
186.779895460987
 30
0.0
  0
POINT
  5
49C4
330
4564
100
AcDbEntity
  8
DEFPOINTS
 62
     0
 48
10.0
100
AcDbPoint
 10
140.210970913155
 20
186.779895460987
 30
0.0
  0
ENDBLK
  5
456F
330
4564
100
AcDbEntity
  8
0
 48
10.0
100
AcDbBlockEnd
  0
BLOCK
  5
457B
330
4570
100
AcDbEntity
  8
0
 48
10.0
100
AcDbBlockBegin
  2
*D10
 70
     1
 10
0.0
 20
0.0
 30
0.0
  3
*D10
  1

  0
LINE
  5
49D7
330
4570
100
AcDbEntity
  8
寸法線
 62
     0
 48
10.0
100
AcDbLine
 10
245.30985565793
 20
164.779895460987
 30
0.0
 11
230.042656200024
 21
164.779895460987
 31
0.0
  0
LINE
  5
49D8
330
4570
100
AcDbEntity
  8
寸法線
 62
     0
 48
10.0
100
AcDbLine
 10
245.30985565793
 20
192.779895460987
 30
0.0
 11
230.042656200024
 21
192.779895460987
 31
0.0
  0
LINE
  5
49D9
330
4570
100
AcDbEntity
  8
寸法線
 62
     0
 48
10.0
100
AcDbLine
 10
231.292656200024
 20
192.779895460987
 30
0.0
 11
231.292656200024
 21
216.06322879432
 31
0.0
  0
LINE
  5
49DA
330
4570
100
AcDbEntity
  8
寸法線
 62
     0
 48
10.0
100
AcDbLine
 10
231.292656200024
 20
169.079895460987
 30
0.0
 11
231.292656200024
 21
188.479895460987
 31
0.0
  0
INSERT
  5
49DB
330
4570
100
AcDbEntity
  8
寸法線
 62
     0
100
AcDbBlockReference
  2
_OPEN30
 10
231.292656200024
 20
164.779895460987
 30
0.0
 41
4.3
 42
4.3
 43
4.3
 50
270.0
  0
INSERT
  5
49DC
330
4570
100
AcDbEntity
  8
寸法線
 62
     0
100
AcDbBlockReference
  2
_OPEN30
 10
231.292656200024
 20
192.779895460987
 30
0.0
 41
4.3
 42
4.3
 43
4.3
 50
90.0
  0
MTEXT
  5
49DD
330
4570
100
AcDbEntity
  8
寸法線
 62
     0
 48
10.0
100
AcDbMText
 10
226.655156200024
 20
206.704895460987
 30
0.0
 40
8.0
 41
0.0
 71
     5
 72
     1
  1
\A1;φ28
 11
0.0
 21
1.0
 31
0.0
  0
POINT
  5
49DE
330
4570
100
AcDbEntity
  8
DEFPOINTS
 62
     0
100
AcDbPoint
 10
245.93485565793
 20
164.779895460987
 30
0.0
  0
POINT
  5
49DF
330
4570
100
AcDbEntity
  8
DEFPOINTS
 62
     0
100
AcDbPoint
 10
245.93485565793
 20
192.779895460987
 30
0.0
  0
POINT
  5
49E0
330
4570
100
AcDbEntity
  8
DEFPOINTS
 62
     0
100
AcDbPoint
 10
231.292656200024
 20
192.779895460987
 30
0.0
  0
ENDBLK
  5
457C
330
4570
100
AcDbEntity
  8
0
 48
10.0
100
AcDbBlockEnd
  0
BLOCK
  5
4587
330
457D
100
AcDbEntity
  8
0
 48
10.0
100
AcDbBlockBegin
  2
*D11
 70
     1
 10
0.0
 20
0.0
 30
0.0
  3
*D11
  1

  0
LINE
  5
45D4
330
457D
100
AcDbEntity
  8
寸法線
 62
     0
 48
10.0
100
AcDbLine
 10
398.636100840588
 20
178.779895460986
 30
0.0
 11
420.433434937406
 21
178.779895460986
 31
0.0
  0
LINE
  5
45D5
330
457D
100
AcDbEntity
  8
寸法線
 62
     0
 48
10.0
100
AcDbLine
 10
356.063538806099
 20
89.779895460986
 30
0.0
 11
420.433434937406
 21
89.779895460986
 31
0.0
  0
LINE
  5
45D6
330
457D
100
AcDbEntity
  8
寸法線
 62
     0
 48
10.0
100
AcDbLine
 10
419.183434937406
 20
172.779895460986
 30
0.0
 11
419.183434937406
 21
95.779895460986
 31
0.0
  0
INSERT
  5
45D7
330
457D
100
AcDbEntity
  8
寸法線
 62
     0
 48
10.0
100
AcDbBlockReference
  2
_OPEN30
 10
419.183434937406
 20
178.779895460986
 30
0.0
 41
6.0
 42
6.0
 43
6.0
 50
90.0
  0
INSERT
  5
45D8
330
457D
100
AcDbEntity
  8
寸法線
 62
     0
 48
10.0
100
AcDbBlockReference
  2
_OPEN30
 10
419.183434937406
 20
89.779895460986
 30
0.0
 41
6.0
 42
6.0
 43
6.0
 50
270.0
  0
MTEXT
  5
45D9
330
457D
100
AcDbEntity
  8
寸法線
 62
     0
 48
10.0
100
AcDbMText
 10
414.558434937406
 20
149.295158485289
 30
0.0
 40
8.0
 41
0.0
 71
     5
 72
     1
  1
\A1;89
 11
6.123031769111886E-17
 21
1.0
 31
0.0
  0
POINT
  5
45DA
330
457D
100
AcDbEntity
  8
DEFPOINTS
 62
     0
 48
10.0
100
AcDbPoint
 10
398.011100840588
 20
178.779895460986
 30
0.0
  0
POINT
  5
45DB
330
457D
100
AcDbEntity
  8
DEFPOINTS
 62
     0
 48
10.0
100
AcDbPoint
 10
355.438538806099
 20
89.779895460986
 30
0.0
  0
POINT
  5
45DC
330
457D
100
AcDbEntity
  8
DEFPOINTS
 62
     0
 48
10.0
100
AcDbPoint
 10
419.183434937406
 20
89.779895460986
 30
0.0
  0
ENDBLK
  5
4588
330
457D
100
AcDbEntity
  8
0
 48
10.0
100
AcDbBlockEnd
  0
BLOCK
  5
4593
330
4589
100
AcDbEntity
  8
0
 48
10.0
100
AcDbBlockBegin
  2
*D12
 70
     1
 10
0.0
 20
0.0
 30
0.0
  3
*D12
  1

  0
LINE
  5
45DD
330
4589
100
AcDbEntity
  8
寸法線
 62
     0
 48
10.0
100
AcDbLine
 10
370.919647157018
 20
128.38065513087
 30
0.0
 11
440.339041644402
 21
128.38065513087
 31
0.0
  0
LINE
  5
45DE
330
4589
100
AcDbEntity
  8
寸法線
 62
     0
 48
10.0
100
AcDbLine
 10
370.919647157019
 20
228.948159134694
 30
0.0
 11
440.339041644402
 21
228.948159134694
 31
0.0
  0
LINE
  5
45DF
330
4589
100
AcDbEntity
  8
寸法線
 62
     0
 48
10.0
100
AcDbLine
 10
439.089041644402
 20
134.38065513087
 30
0.0
 11
439.089041644402
 21
222.948159134694
 31
0.0
  0
INSERT
  5
45E0
330
4589
100
AcDbEntity
  8
寸法線
 62
     0
 48
10.0
100
AcDbBlockReference
  2
_OPEN30
 10
439.089041644402
 20
128.38065513087
 30
0.0
 41
6.0
 42
6.0
 43
6.0
 50
270.0
  0
INSERT
  5
45E1
330
4589
100
AcDbEntity
  8
寸法線
 62
     0
 48
10.0
100
AcDbBlockReference
  2
_OPEN30
 10
439.089041644402
 20
228.948159134694
 30
0.0
 41
6.0
 42
6.0
 43
6.0
 50
90.0
  0
MTEXT
  5
45E2
330
4589
100
AcDbEntity
  8
寸法線
 62
     0
 48
10.0
100
AcDbMText
 10
434.464041644402
 20
178.664407132782
 30
0.0
 40
8.0
 41
0.0
 71
     5
 72
     1
  1
\A1;φ100
 11
6.123031769111886E-17
 21
1.0
 31
0.0
  0
POINT
  5
45E3
330
4589
100
AcDbEntity
  8
DEFPOINTS
 62
     0
 48
10.0
100
AcDbPoint
 10
370.294647157018
 20
128.38065513087
 30
0.0
  0
POINT
  5
45E4
330
4589
100
AcDbEntity
  8
DEFPOINTS
 62
     0
 48
10.0
100
AcDbPoint
 10
370.294647157019
 20
228.948159134694
 30
0.0
  0
POINT
  5
45E5
330
4589
100
AcDbEntity
  8
DEFPOINTS
 62
     0
 48
10.0
100
AcDbPoint
 10
439.089041644402
 20
228.948159134694
 30
0.0
  0
ENDBLK
  5
4594
330
4589
100
AcDbEntity
  8
0
 48
10.0
100
AcDbBlockEnd
  0
BLOCK
  5
4618
330
460E
100
AcDbEntity
  8
0
 48
10.0
100
AcDbBlockBegin
  2
*D13
 70
     1
 10
0.0
 20
0.0
 30
0.0
  3
*D13
  1

  0
LINE
  5
49EA
330
460E
100
AcDbEntity
  8
寸法線
 62
     0
 48
10.0
100
AcDbLine
 10
156.89537763811
 20
169.154895460988
 30
0.0
 11
156.89537763811
 21
60.029895460988
 31
0.0
  0
LINE
  5
49EB
330
460E
100
AcDbEntity
  8
寸法線
 62
     0
 48
10.0
100
AcDbLine
 10
283.89537763811
 20
158.154895460987
 30
0.0
 11
283.89537763811
 21
60.029895460988
 31
0.0
  0
LINE
  5
49EC
330
460E
100
AcDbEntity
  8
寸法線
 62
     0
 48
10.0
100
AcDbLine
 10
162.89537763811
 20
61.279895460988
 30
0.0
 11
277.89537763811
 21
61.279895460988
 31
0.0
  0
INSERT
  5
49ED
330
460E
100
AcDbEntity
  8
寸法線
 62
     0
100
AcDbBlockReference
  2
_OPEN30
 10
156.89537763811
 20
61.279895460988
 30
0.0
 41
6.0
 42
6.0
 43
6.0
 50
180.0
  0
INSERT
  5
49EE
330
460E
100
AcDbEntity
  8
寸法線
 62
     0
100
AcDbBlockReference
  2
_OPEN30
 10
283.89537763811
 20
61.279895460988
 30
0.0
 41
6.0
 42
6.0
 43
6.0
  0
MTEXT
  5
49EF
330
460E
100
AcDbEntity
  8
寸法線
 62
     0
 48
10.0
100
AcDbMText
 10
220.39537763811
 20
65.909062127655
 30
0.0
 40
8.0
 41
0.0
 71
     5
 72
     1
  1
\A1;125
  0
POINT
  5
49F0
330
460E
100
AcDbEntity
  8
DEFPOINTS
 62
     0
100
AcDbPoint
 10
156.89537763811
 20
169.779895460988
 30
0.0
  0
POINT
  5
49F1
330
460E
100
AcDbEntity
  8
DEFPOINTS
 62
     0
100
AcDbPoint
 10
283.89537763811
 20
158.779895460987
 30
0.0
  0
POINT
  5
49F2
330
460E
100
AcDbEntity
  8
DEFPOINTS
 62
     0
100
AcDbPoint
 10
283.89537763811
 20
61.279895460988
 30
0.0
  0
ENDBLK
  5
4619
330
460E
100
AcDbEntity
  8
0
 48
10.0
100
AcDbBlockEnd
  0
ENDSEC
  0
SECTION
  2
ENTITIES
  0
LEADER
  5
43E2
330
1A
100
AcDbEntity
  8
寸法線
 48
10.0
100
AcDbLeader
  3
ISO-25
 76
     3
 10
346.834945807743
 20
89.779895460986
 30
0.0
 10
414.01470461562
 20
61.279895460988
 30
0.0
 10
430.477495563837
 20
61.279895460988
 30
0.0
213
-45.87222145144966
223
0.0
233
0.0
1001
ACAD
1000
DSTYLE
1002
{
1070
     5
1000
OPEN30
1070
   147
1040
0.625
1070
    77
1070
     0
1070
    41
1040
6.0
1070
    47
1040
0.1
1070
    48
1040
0.1
1070
    73
1070
     0
1070
   140
1040
5.0
1070
   271
1070
     1
1070
   272
1070
     1
1070
   341
1005
2AF4
1070
   342
1005
2AF4
1002
}
  0
LEADER
  5
43E4
330
1A
100
AcDbEntity
  8
寸法線
 48
10.0
100
AcDbLeader
  3
ISO-25
 76
     3
 10
181.64537763811
 20
191.779895460988
 30
0.0
 10
149.951057577619
 20
274.221089962273
 30
0.0
 10
135.683279356289
 20
274.221089962273
 30
0.0
213
98.75297438921785
223
0.0
233
0.0
1001
ACAD
1000
DSTYLE
1002
{
1070
     5
1000
OPEN30
1070
   147
1040
0.625
1070
    77
1070
     0
1070
    41
1040
6.0
1070
    47
1040
0.1
1070
    48
1040
0.1
1070
    73
1070
     0
1070
   140
1040
5.0
1070
   271
1070
     1
1070
   272
1070
     1
1070
   341
1005
2AF4
1070
   342
1005
2AF4
1002
}
  0
LEADER
  5
43E8
330
1A
100
AcDbEntity
  8
寸法線
 48
10.0
100
AcDbLeader
  3
ISO-25
 76
     3
 10
290.251040070812
 20
202.451256497761
 30
0.0
 10
311.501533937044
 20
274.221089962273
 30
0.0
 10
327.429861132545
 20
274.221089962273
 30
0.0
213
-18.40614740524779
223
0.0
233
0.0
1001
ACAD
1000
DSTYLE
1002
{
1070
     5
1000
OPEN30
1070
   147
1040
0.625
1070
    77
1070
     0
1070
    41
1040
6.0
1070
    47
1040
0.1
1070
    48
1040
0.1
1070
    73
1070
     0
1070
   140
1040
5.0
1070
   271
1070
     1
1070
   272
1070
     1
1070
   341
1005
2AF4
1070
   342
1005
2AF4
1002
}
  0
LEADER
  5
43E9
330
1A
100
AcDbEntity
  8
寸法線
 48
10.0
100
AcDbLeader
  3
ISO-25
 76
     3
 10
337.784073846989
 20
225.837823959319
 30
0.0
 10
364.473742877501
 20
274.221089962273
 30
0.0
 10
377.055349599709
 20
274.221089962273
 30
0.0
213
-36.66440920593334
223
0.0
233
0.0
1001
ACAD
1000
DSTYLE
1002
{
1070
     5
1000
OPEN30
1070
   147
1040
0.625
1070
    77
1070
     0
1070
    41
1040
6.0
1070
    47
1040
0.1
1070
    48
1040
0.1
1070
    73
1070
     0
1070
   140
1040
5.0
1070
   271
1070
     1
1070
   272
1070
     1
1070
   341
1005
2AF4
1070
   342
1005
2AF4
1002
}
  0
DIMENSION
  5
43EA
330
1A
100
AcDbEntity
  8
寸法線
 48
10.0
100
AcDbDimension
  2
*D6
 10
156.89537763811
 20
133.452067588836
 30
0.0
 11
176.89537763811
 21
138.077067588836
 31
0.0
 70
    32
  3
ISO-25
100
AcDbAlignedDimension
 13
196.89537763811
 23
164.779895460988
 33
0.0
 14
156.89537763811
 24
169.779895460988
 34
0.0
100
AcDbRotatedDimension
1001
ACAD
1000
DSTYLE
1002
{
1070
     5
1000
OPEN30
1070
    41
1040
6.0
1070
    47
1040
0.1
1070
    48
1040
0.1
1070
    73
1070
     0
1070
   140
1040
8.0
1070
   271
1070
     1
1070
   272
1070
     1
1070
   341
1005
2AF4
1002
}
  0
DIMENSION
  5
43EC
330
1A
100
AcDbEntity
  8
寸法線
 48
10.0
100
AcDbDimension
  2
*D7
 10
398.011854345092
 20
61.279895460988
 30
0.0
 11
340.953615991601
 21
65.904895460988
 31
0.0
 70
    32
  1
111
  3
ISO-25
100
AcDbAlignedDimension
 13
283.89537763811
 23
158.779895460987
 33
0.0
 14
398.011854345092
 24
134.247224737336
 34
0.0
100
AcDbRotatedDimension
1001
ACAD
1000
DSTYLE
1002
{
1070
     5
1000
OPEN30
1070
    41
1040
6.0
1070
    47
1040
0.1
1070
    48
1040
0.1
1070
    73
1070
     0
1070
   140
1040
8.0
1070
   271
1070
     1
1070
   272
1070
     1
1070
   341
1005
2AF4
1002
}
  0
LINE
  5
4407
330
1A
100
AcDbEntity
  8
外形線
100
AcDbLine
 10
156.89537763811
 20
170.779895460988
 30
0.0
 11
156.89537763811
 21
169.779895460988
 31
0.0
  0
LINE
  5
4408
330
1A
100
AcDbEntity
  8
外形線
100
AcDbLine
 10
156.89537763811
 20
169.779895460988
 30
0.0
 11
169.89537763811
 21
165.779895460988
 31
0.0
  0
LINE
  5
4409
330
1A
100
AcDbEntity
  8
外形線
100
AcDbLine
 10
156.89537763811
 20
186.779895460988
 30
0.0
 11
156.89537763811
 21
187.779895460988
 31
0.0
  0
LINE
  5
440A
330
1A
100
AcDbEntity
  8
外形線
100
AcDbLine
 10
156.89537763811
 20
187.779895460988
 30
0.0
 11
169.89537763811
 21
191.779895460988
 31
0.0
  0
LINE
  5
440B
330
1A
100
AcDbEntity
  8
外形線
100
AcDbLine
 10
156.89537763811
 20
186.779895460988
 30
0.0
 11
191.89537763811
 21
186.779895460988
 31
0.0
  0
LINE
  5
440C
330
1A
100
AcDbEntity
  8
外形線
100
AcDbLine
 10
169.89537763811
 20
191.779895460988
 30
0.0
 11
193.39537763811
 21
191.779895460988
 31
0.0
  0
LINE
  5
440D
330
1A
100
AcDbEntity
  8
外形線
 48
10.0
100
AcDbLine
 10
196.89537763811
 20
190.279895460988
 30
0.0
 11
193.39537763811
 21
191.779895460988
 31
0.0
  0
LINE
  5
440E
330
1A
100
AcDbEntity
  8
外形線
100
AcDbLine
 10
193.39537763811
 20
187.779895460988
 30
0.0
 11
156.89537763811
 21
187.779895460988
 31
0.0
  0
ARC
  5
440F
330
1A
100
AcDbEntity
  8
外形線
100
AcDbCircle
 10
191.89537763811
 20
181.779895460988
 30
0.0
 40
5.0
100
AcDbArc
 50
0.0
 51
90.0
  0
LINE
  5
4410
330
1A
100
AcDbEntity
  8
細線
 48
10.0
100
AcDbLine
 10
193.39537763811
 20
187.779895460988
 30
0.0
 11
193.39537763811
 21
191.779895460988
 31
0.0
  0
LINE
  5
4411
330
1A
100
AcDbEntity
  8
外形線
 48
10.0
100
AcDbLine
 10
196.89537763811
 20
186.279895460988
 30
0.0
 11
193.39537763811
 21
187.779895460988
 31
0.0
  0
LINE
  5
4412
330
1A
100
AcDbEntity
  8
外形線
100
AcDbLine
 10
193.39537763811
 20
169.779895460988
 30
0.0
 11
156.89537763811
 21
169.779895460988
 31
0.0
  0
ARC
  5
4413
330
1A
100
AcDbEntity
  8
外形線
100
AcDbCircle
 10
191.89537763811
 20
175.779895460988
 30
0.0
 40
5.0
100
AcDbArc
 50
270.0
 51
0.0
  0
LINE
  5
4414
330
1A
100
AcDbEntity
  8
外形線
100
AcDbLine
 10
156.89537763811
 20
170.779895460988
 30
0.0
 11
191.89537763811
 21
170.779895460988
 31
0.0
  0
LINE
  5
4415
330
1A
100
AcDbEntity
  8
外形線
 48
10.0
100
AcDbLine
 10
193.39537763811
 20
169.779895460988
 30
0.0
 11
196.89537763811
 21
171.279895460988
 31
0.0
  0
LINE
  5
4416
330
1A
100
AcDbEntity
  8
外形線
100
AcDbLine
 10
169.89537763811
 20
165.779895460988
 30
0.0
 11
193.39537763811
 21
165.779895460988
 31
0.0
  0
LINE
  5
4417
330
1A
100
AcDbEntity
  8
外形線
 48
10.0
100
AcDbLine
 10
193.39537763811
 20
165.779895460988
 30
0.0
 11
196.89537763811
 21
167.279895460988
 31
0.0
  0
LINE
  5
4418
330
1A
100
AcDbEntity
  8
細線
 48
10.0
100
AcDbLine
 10
193.39537763811
 20
165.779895460988
 30
0.0
 11
193.39537763811
 21
169.779895460988
 31
0.0
  0
DIMENSION
  5
4419
330
1A
100
AcDbEntity
  8
寸法線
 48
10.0
100
AcDbDimension
  2
*D8
 10
118.710222039706
 20
191.779895460987
 30
0.0
 11
114.084434638132
 21
178.779895460987
 31
0.0
 70
    32
  3
ISO-25
100
AcDbAlignedDimension
 13
169.89537763811
 23
165.779895460987
 33
0.0
 14
169.89537763811
 24
191.779895460987
 34
0.0
 50
90.0
100
AcDbRotatedDimension
1001
ACAD
1000
DSTYLE
1002
{
1070
     5
1000
OPEN30
1070
    41
1040
4.3
1070
    47
1040
0.1
1070
    48
1040
0.1
1070
    73
1070
     0
1070
   140
1040
8.0
1070
   271
1070
     1
1070
   272
1070
     1
1070
   341
1005
2AF4
1002
}
  0
DIMENSION
  5
441A
330
1A
100
AcDbEntity
  8
寸法線
 48
10.0
100
AcDbDimension
  2
*D9
 10
140.210970913155
 20
186.779895460987
 30
0.0
 11
140.210970913155
 21
178.779895460987
 31
0.0
 70
   160
  1
15.6
  3
ISO-25
100
AcDbAlignedDimension
 13
156.89537763811
 23
170.779895460987
 33
0.0
 14
156.89537763811
 24
186.779895460987
 34
0.0
 50
90.0
100
AcDbRotatedDimension
1001
ACAD
1000
DSTYLE
1002
{
1070
     5
1000
OPEN30
1070
    41
1040
4.3
1070
    47
1040
0.1
1070
    48
1040
0.1
1070
    73
1070
     0
1070
   140
1040
8.0
1070
   271
1070
     1
1070
   272
1070
     1
1070
   341
1005
2AF4
1002
}
  0
DIMENSION
  5
441B
330
1A
100
AcDbEntity
  8
寸法線
 48
10.0
100
AcDbDimension
  2
*D10
 10
231.292656200024
 20
192.779895460987
 30
0.0
 11
231.292656200024
 21
206.704895460987
 31
0.0
 70
   160
  1
φ<>
  3
ISO-25
100
AcDbAlignedDimension
 13
245.93485565793
 23
164.779895460987
 33
0.0
 14
245.93485565793
 24
192.779895460987
 34
0.0
 50
90.0
100
AcDbRotatedDimension
1001
ACAD
1000
DSTYLE
1002
{
1070
     5
1000
OPEN30
1070
    41
1040
4.3
1070
    47
1040
0.1
1070
    48
1040
0.1
1070
    73
1070
     0
1070
   140
1040
8.0
1070
   271
1070
     1
1070
   272
1070
     1
1070
   341
1005
2AF4
1002
}
  0
ARC
  5
441C
330
1A
100
AcDbEntity
  8
外形線
100
AcDbCircle
 10
360.533186136767
 20
225.917289387684
 30
0.0
 40
2.073556783584
100
AcDbArc
 50
90.0
 51
136.091731908427
  0
LINE
  5
441D
330
1A
100
AcDbEntity
  8
外形線
100
AcDbLine
 10
359.039289990276
 20
227.355313044738
 30
0.0
 11
358.190319640936
 21
226.473357085848
 31
0.0
  0
ARC
  5
441E
330
1A
100
AcDbEntity
  8
外形線
100
AcDbCircle
 10
356.696423494447
 20
227.911380742904
 30
0.0
 40
2.073556783584
100
AcDbArc
 50
270.0
 51
316.091731908441
  0
LINE
  5
441F
330
1A
100
AcDbEntity
  8
外形線
100
AcDbLine
 10
364.834945807748
 20
227.990846171268
 30
0.0
 11
360.533186136766
 21
227.990846171268
 31
0.0
  0
ARC
  5
4420
330
1A
100
AcDbEntity
  8
外形線
100
AcDbCircle
 10
360.268228346894
 20
147.768411057382
 30
0.0
 40
1.2441340701504
100
AcDbArc
 50
217.230967965675
 51
270.0
  0
ARC
  5
4421
330
1A
100
AcDbEntity
  8
外形線
100
AcDbCircle
 10
356.27643507951
 20
150.708867288352
 30
0.0
 40
1.2441340701504
100
AcDbArc
 50
37.230967965669
 51
90.0
  0
LINE
  5
4422
330
1A
100
AcDbEntity
  8
外形線
100
AcDbLine
 10
364.834945807747
 20
146.52427698723
 30
0.0
 11
360.268228346893
 21
146.524276987231
 31
0.0
  0
LINE
  5
4423
330
1A
100
AcDbEntity
  8
細線
100
AcDbLine
 10
356.696423494446
 20
225.837823959318
 30
0.0
 11
356.696423494445
 21
152.622467460986
 31
0.0
  0
LINE
  5
4424
330
1A
100
AcDbEntity
  8
外形線
100
AcDbLine
 10
362.384954031105
 20
109.919895460986
 30
0.0
 11
362.384954031105
 21
115.849895460986
 31
0.0
  0
LINE
  5
4425
330
1A
100
AcDbEntity
  8
外形線
100
AcDbLine
 10
360.311397247521
 20
115.849895460986
 30
0.0
 11
360.311397247521
 21
117.529895460986
 31
0.0
  0
LINE
  5
4426
330
1A
100
AcDbEntity
  8
外形線
100
AcDbLine
 10
353.572337700873
 20
109.919895460986
 30
0.0
 11
353.572337700873
 21
115.849895460986
 31
0.0
  0
LINE
  5
4427
330
1A
100
AcDbEntity
  8
外形線
100
AcDbLine
 10
356.164283680353
 20
109.919895460986
 30
0.0
 11
356.164283680353
 21
115.849895460986
 31
0.0
  0
LINE
  5
4428
330
1A
100
AcDbEntity
  8
外形線
100
AcDbLine
 10
357.719451268041
 20
107.952032654029
 30
0.0
 11
358.583110532473
 21
107.119895460986
 31
0.0
  0
LINE
  5
4429
330
1A
100
AcDbEntity
  8
外形線
100
AcDbLine
 10
357.719451268041
 20
107.952032654029
 30
0.0
 11
357.719451268041
 21
107.119895460986
 31
0.0
  0
LINE
  5
442A
330
1A
100
AcDbEntity
  8
外形線
100
AcDbLine
 10
357.719451268041
 20
107.119895460986
 30
0.0
 11
357.719451268041
 21
109.919895460986
 31
0.0
  0
LINE
  5
442B
330
1A
100
AcDbEntity
  8
外形線
100
AcDbLine
 10
340.094218607577
 20
109.919895460987
 30
0.0
 11
340.094218607577
 21
115.849895460986
 31
0.0
  0
LINE
  5
442C
330
1A
100
AcDbEntity
  8
外形線
100
AcDbLine
 10
337.502272628097
 20
109.919895460987
 30
0.0
 11
337.502272628097
 21
115.849895460986
 31
0.0
  0
LINE
  5
442D
330
1A
100
AcDbEntity
  8
外形線
100
AcDbLine
 10
335.947105040409
 20
107.952032654029
 30
0.0
 11
335.947105040409
 21
107.119895460987
 31
0.0
  0
LINE
  5
442E
330
1A
100
AcDbEntity
  8
外形線
100
AcDbLine
 10
335.947105040409
 20
107.952032654029
 30
0.0
 11
335.083445775977
 21
107.119895460987
 31
0.0
  0
LINE
  5
442F
330
1A
100
AcDbEntity
  8
外形線
100
AcDbLine
 10
335.947105040409
 20
107.119895460987
 30
0.0
 11
335.947105040409
 21
109.919895460987
 31
0.0
  0
LINE
  5
4430
330
1A
100
AcDbEntity
  8
外形線
100
AcDbLine
 10
331.281602277345
 20
109.919895460987
 30
0.0
 11
331.281602277345
 21
115.849895460987
 31
0.0
  0
LINE
  5
4431
330
1A
100
AcDbEntity
  8
外形線
100
AcDbLine
 10
333.355159060929
 20
115.849895460987
 30
0.0
 11
333.355159060929
 21
116.368284656883
 31
0.0
  0
LINE
  5
4432
330
1A
100
AcDbEntity
  8
外形線
100
AcDbLine
 10
333.355159060929
 20
115.849895460987
 30
0.0
 11
333.355159060929
 21
117.529895460986
 31
0.0
  0
LINE
  5
4433
330
1A
100
AcDbEntity
  8
細線
100
AcDbLine
 10
335.947105040409
 20
107.952032654029
 30
0.0
 11
357.719451268041
 21
107.952032654029
 31
0.0
  0
LINE
  5
4434
330
1A
100
AcDbEntity
  8
外形線
100
AcDbLine
 10
362.384954031105
 20
109.919895460986
 30
0.0
 11
331.281602277345
 21
109.919895460987
 31
0.0
  0
LINE
  5
4435
330
1A
100
AcDbEntity
  8
外形線
100
AcDbLine
 10
362.384954031105
 20
115.849895460986
 30
0.0
 11
331.281602277345
 21
115.849895460987
 31
0.0
  0
LINE
  5
4436
330
1A
100
AcDbEntity
  8
外形線
100
AcDbLine
 10
362.384954031105
 20
107.119895460986
 30
0.0
 11
331.281602277345
 21
107.119895460987
 31
0.0
  0
LINE
  5
4437
330
1A
100
AcDbEntity
  8
外形線
100
AcDbLine
 10
360.622430765059
 20
94.569895460986
 30
0.0
 11
362.384954031105
 21
96.228740887854
 31
0.0
  0
LINE
  5
4438
330
1A
100
AcDbEntity
  8
外形線
100
AcDbLine
 10
353.572337700873
 20
96.228740887855
 30
0.0
 11
356.164283680353
 21
96.228740887855
 31
0.0
  0
ARC
  5
4439
330
1A
100
AcDbEntity
  8
外形線
100
AcDbCircle
 10
359.274618855729
 20
99.155315918106
 30
0.0
 40
4.2707173063642
100
AcDbArc
 50
223.256487111676
 51
316.743512888324
  0
ARC
  5
443A
330
1A
100
AcDbEntity
  8
外形線
100
AcDbCircle
 10
355.4385388061
 20
94.963787419947
 30
0.0
 40
5.183891958959999
100
AcDbArc
 50
270.0
 51
355.642247142048
  0
LINE
  5
443B
330
1A
100
AcDbEntity
  8
外形線
100
AcDbLine
 10
340.094218607577
 20
96.228740887855
 30
0.0
 11
337.502272628097
 21
96.228740887855
 31
0.0
  0
LINE
  5
443C
330
1A
100
AcDbEntity
  8
外形線
100
AcDbLine
 10
333.044125543391
 20
94.569895460986
 30
0.0
 11
331.281602277345
 21
96.228740887855
 31
0.0
  0
ARC
  5
443D
330
1A
100
AcDbEntity
  8
外形線
100
AcDbCircle
 10
334.391937452721
 20
99.155315918107
 30
0.0
 40
4.2707173063642
100
AcDbArc
 50
223.256487111676
 51
316.743512888333
  0
ARC
  5
443E
330
1A
100
AcDbEntity
  8
外形線
100
AcDbCircle
 10
338.228017502352
 20
94.963787419947
 30
0.0
 40
5.183891958959999
100
AcDbArc
 50
184.357752857952
 51
270.0
  0
LINE
  5
443F
330
1A
100
AcDbEntity
  8
外形線
100
AcDbLine
 10
355.438538806099
 20
89.779895460986
 30
0.0
 11
338.228017502351
 21
89.779895460986
 31
0.0
  0
LINE
  5
4440
330
1A
100
AcDbEntity
  8
外形線
100
AcDbLine
 10
360.622430765059
 20
94.569895460986
 30
0.0
 11
333.044125543391
 21
94.569895460986
 31
0.0
  0
ARC
  5
4441
330
1A
100
AcDbEntity
  8
外形線
100
AcDbCircle
 10
346.833278154226
 20
112.512830591093
 30
0.0
 40
17.62346450152246
100
AcDbArc
 50
247.518115682491
 51
292.481884317509
  0
LINE
  5
4442
330
1A
100
AcDbEntity
  8
外形線
100
AcDbLine
 10
331.281602277345
 20
107.119895460987
 30
0.0
 11
331.281602277345
 21
96.228740887851
 31
0.0
  0
LINE
  5
4443
330
1A
100
AcDbEntity
  8
外形線
100
AcDbLine
 10
340.094218607577
 20
96.228740887855
 30
0.0
 11
340.094218607577
 21
107.119895460986
 31
0.0
  0
LINE
  5
4444
330
1A
100
AcDbEntity
  8
外形線
100
AcDbLine
 10
337.502272628097
 20
96.228740887855
 30
0.0
 11
337.502272628097
 21
107.119895460986
 31
0.0
  0
LINE
  5
4445
330
1A
100
AcDbEntity
  8
外形線
100
AcDbLine
 10
353.572337700873
 20
96.228740887855
 30
0.0
 11
353.572337700873
 21
107.119895460986
 31
0.0
  0
LINE
  5
4446
330
1A
100
AcDbEntity
  8
外形線
100
AcDbLine
 10
362.384954031105
 20
107.119895460986
 30
0.0
 11
362.384954031105
 21
96.228740887852
 31
0.0
  0
LINE
  5
4447
330
1A
100
AcDbEntity
  8
外形線
100
AcDbLine
 10
356.164283680353
 20
96.228740887855
 30
0.0
 11
356.164283680353
 21
107.119895460986
 31
0.0
  0
LINE
  5
4448
330
1A
100
AcDbEntity
  8
外形線
100
AcDbLine
 10
296.895377638109
 20
152.823592939979
 30
0.0
 11
296.89537763811
 21
204.736197981995
 31
0.0
  0
ARC
  5
4449
330
1A
100
AcDbEntity
  8
外形線
100
AcDbCircle
 10
297.49537763811
 20
146.029895460987
 30
0.0
 40
0.6
100
AcDbArc
 50
180.0
 51
270.0
  0
ARC
  5
444A
330
1A
100
AcDbEntity
  8
外形線
100
AcDbCircle
 10
297.495377638111
 20
211.529895460987
 30
0.0
 40
0.6
100
AcDbArc
 50
90.0
 51
180.0
  0
LINE
  5
444B
330
1A
100
AcDbEntity
  8
外形線
100
AcDbLine
 10
296.89537763811
 20
211.645920864771
 30
0.0
 11
296.895377638109
 21
145.913870057203
 31
0.0
  0
LINE
  5
444C
330
1A
100
AcDbEntity
  8
外形線
100
AcDbLine
 10
327.920614419599
 20
118.440891542093
 30
0.0
 11
314.842107614239
 21
132.472933360321
 31
0.0
  0
LINE
  5
444D
330
1A
100
AcDbEntity
  8
外形線
100
AcDbLine
 10
317.392839071198
 20
134.541314490523
 30
0.0
 11
302.395377638099
 21
145.429895460987
 31
0.0
  0
LINE
  5
444E
330
1A
100
AcDbEntity
  8
外形線
100
AcDbLine
 10
317.392839071198
 20
222.787499775045
 30
0.0
 11
302.3953776381
 21
212.129895460987
 31
0.0
  0
CIRCLE
  5
444F
330
1A
100
AcDbEntity
  8
細線
100
AcDbCircle
 10
346.834945807744
 20
137.801167642492
 30
0.0
 40
13.76127218150634
  0
LINE
  5
4450
330
1A
100
AcDbEntity
  8
外形線
100
AcDbLine
 10
350.714504864784
 20
142.838535742614
 30
0.0
 11
352.032521146214
 21
141.462706999804
 31
0.0
  0
LINE
  5
4451
330
1A
100
AcDbEntity
  8
外形線
100
AcDbLine
 10
342.952051443665
 20
132.76379954237
 30
0.0
 11
352.032521146214
 21
141.462706999804
 31
0.0
  0
CIRCLE
  5
4452
330
1A
100
AcDbEntity
  8
外形線
100
AcDbCircle
 10
346.833278154226
 20
137.801167642492
 30
0.0
 40
10.51872781849356
  0
CIRCLE
  5
4453
330
1A
100
AcDbEntity
  8
細線
100
AcDbCircle
 10
346.833278154226
 20
137.801167642492
 30
0.0
 40
9.90742839250458
  0
LINE
  5
4454
330
1A
100
AcDbEntity
  8
外形線
100
AcDbLine
 10
341.634035162238
 20
134.13962828518
 30
0.0
 11
350.714504864784
 21
142.838535742614
 31
0.0
  0
LINE
  5
4455
330
1A
100
AcDbEntity
  8
外形線
100
AcDbLine
 10
341.634035162238
 20
134.13962828518
 30
0.0
 11
342.952051443665
 21
132.76379954237
 31
0.0
  0
LINE
  5
4456
330
1A
100
AcDbEntity
  8
外形線
100
AcDbLine
 10
297.49537763811
 20
212.129895460987
 30
0.0
 11
302.3953776381
 21
212.129895460987
 31
0.0
  0
LINE
  5
4457
330
1A
100
AcDbEntity
  8
外形線
100
AcDbLine
 10
297.495377638109
 20
145.429895460987
 30
0.0
 11
302.395377638099
 21
145.429895460987
 31
0.0
  0
LINE
  5
4458
330
1A
100
AcDbEntity
  8
外形線
100
AcDbLine
 10
302.3953776381
 20
212.129895460987
 30
0.0
 11
302.395377638099
 21
145.429895460987
 31
0.0
  0
LINE
  5
4459
330
1A
100
AcDbEntity
  8
外形線
100
AcDbLine
 10
296.89537763811
 20
199.622467460987
 30
0.0
 11
296.89537763811
 21
211.129895460987
 31
0.0
  0
LINE
  5
445A
330
1A
100
AcDbEntity
  8
外形線
100
AcDbLine
 10
357.267018383605
 20
151.461605159165
 30
0.0
 11
359.277645042797
 21
147.015673186568
 31
0.0
  0
ARC
  5
445B
330
1A
100
AcDbEntity
  8
外形線
100
AcDbCircle
 10
316.256321176614
 20
133.887146922695
 30
0.0
 40
2.0
100
AcDbArc
 50
180.0
 51
225.000000000005
  0
LWPOLYLINE
  5
445C
330
1A
100
AcDbEntity
  8
外形線
100
AcDbPolyline
 90
       18
 70
     0
 43
0.0
 10
375.617441082384
 20
207.64047785737
 10
374.664061164642
 20
207.564037595414
 10
373.743147456548
 20
207.337319890986
 10
372.886060569912
 20
206.968045343592
 10
372.1219875707
 20
206.46878915505
 10
371.476948048494
 20
205.856552896068
 10
370.972908050582
 20
205.152185538148
 10
370.627032054566
 20
204.379673466868
 10
370.451098452654
 20
203.565323654292
 10
370.451098452654
 20
202.73686780658
 10
370.627032054566
 20
201.922517994004
 10
370.972908050582
 20
201.150005922724
 10
371.476948048494
 20
200.445638564804
 10
372.1219875707
 20
199.833402305822
 10
372.886060569912
 20
199.334146117278
 10
373.743147456548
 20
198.964871569886
 10
374.664061164642
 20
198.738153865458
 10
375.617441082384
 20
198.661713603502
  0
LWPOLYLINE
  5
445D
330
1A
100
AcDbEntity
  8
外形線
100
AcDbPolyline
 90
        8
 70
     0
 43
0.0
 10
375.617441082384
 20
207.074738985018
 10
374.626982409136
 20
206.998270122616
 10
373.670265237886
 20
206.771468565122
 10
372.779881614334
 20
206.402060657324
 10
371.986163829592
 20
205.902630849228
 10
371.316151103914
 20
205.290192987368
 10
370.792668453962
 20
204.585610711896
 10
370.433549123424
 20
203.81288670449
  0
LWPOLYLINE
  5
445E
330
1A
100
AcDbEntity
  8
外形線
100
AcDbPolyline
 90
        8
 70
     0
 43
0.0
 10
375.617441082384
 20
222.851363109432
 10
374.608585336042
 20
222.793281404892
 10
373.638235972852
 20
222.621253175472
 10
372.743429649942
 20
222.341844458924
 10
371.958319669446
 20
221.965719831562
 10
371.312872402506
 20
221.507235358724
 10
370.831723521624
 20
220.983890647112
 10
370.533237697096
 20
220.415660913262
  0
LWPOLYLINE
  5
445F
330
1A
100
AcDbEntity
  8
外形線
100
AcDbPolyline
 90
       18
 70
     0
 43
0.0
 10
375.617441082384
 20
223.668541872516
 10
374.66401848598
 20
223.616721409804
 10
373.743063552593
 20
223.463024705378
 10
372.885938297914
 20
223.212685716166
 10
372.121831094482
 20
222.874229436198
 10
371.476762696668
 20
222.459181588154
 10
370.972700135084
 20
221.981676128704
 10
370.626808655706
 20
221.457973933566
 10
370.450867178014
 20
220.905909052884
 10
370.450867178014
 20
220.344281394038
 10
370.626808655706
 20
219.792216513356
 10
370.972700135084
 20
219.268514318218
 10
371.476762696668
 20
218.791008858768
 10
372.121831094482
 20
218.375961010726
 10
372.885938297914
 20
218.037504730756
 10
373.743063552592
 20
217.787165741544
 10
374.66401848598
 20
217.633469037118
 10
375.617441082384
 20
217.581648574408
  0
ARC
  5
4460
330
1A
100
AcDbEntity
  8
外形線
100
AcDbCircle
 10
394.901519169717
 20
220.55820669714
 30
0.0
 40
3.110335175376
100
AcDbArc
 50
0.0
 51
90.0
  0
ARC
  5
4461
330
1A
100
AcDbEntity
  8
外形線
100
AcDbCircle
 10
392.827962386133
 20
220.777806325848
 30
0.0
 40
2.073556783584
100
AcDbArc
 50
0.0
 51
90.0
  0
ARC
  5
4462
330
1A
100
AcDbEntity
  8
外形線
100
AcDbCircle
 10
393.864740777925
 20
223.08158952823
 30
0.0
 40
4.147113567168
100
AcDbArc
 50
0.0
 51
86.999999999994
  0
ARC
  5
4463
330
1A
100
AcDbEntity
  8
外形線
100
AcDbCircle
 10
369.396770731633
 20
228.429769938798
 30
0.0
 40
1.036778391792
100
AcDbArc
 50
0.0
 51
30.000000000006
  0
LINE
  5
4464
330
1A
100
AcDbEntity
  8
外形線
100
AcDbLine
 10
364.834945807748
 20
228.429769938798
 30
0.0
 11
365.353335003645
 21
228.948159134694
 31
0.0
  0
LINE
  5
4465
330
1A
100
AcDbEntity
  8
外形線
100
AcDbLine
 10
365.353335003645
 20
228.948159134694
 30
0.0
 11
370.294647157019
 21
228.948159134694
 31
0.0
  0
LINE
  5
4466
330
1A
100
AcDbEntity
  8
外形線
100
AcDbLine
 10
375.617441082384
 20
223.668541872516
 30
0.0
 11
394.901519169716
 21
223.668541872516
 31
0.0
  0
LINE
  5
4467
330
1A
100
AcDbEntity
  8
外形線
100
AcDbLine
 10
375.617441082384
 20
222.851363109432
 30
0.0
 11
392.827962386132
 21
222.851363109432
 31
0.0
  0
LINE
  5
4468
330
1A
100
AcDbEntity
  8
外形線
100
AcDbLine
 10
370.433549123424
 20
228.429769938798
 30
0.0
 11
394.081783932108
 21
227.223019620386
 31
0.0
  0
ARC
  5
4469
330
1A
100
AcDbEntity
  8
外形線
100
AcDbCircle
 10
394.901519169717
 20
214.471313399032
 30
0.0
 40
3.110335175376
100
AcDbArc
 50
0.0
 51
90.0
  0
ARC
  5
446A
330
1A
100
AcDbEntity
  8
外形線
100
AcDbCircle
 10
393.346351582029
 20
205.51957139733
 30
0.0
 40
1.555167587688
100
AcDbArc
 50
0.0
 51
90.0
  0
LINE
  5
446B
330
1A
100
AcDbEntity
  8
外形線
100
AcDbLine
 10
397.600980275762
 20
202.63160811588
 30
0.0
 11
394.901519169716
 21
200.587395954114
 31
0.0
  0
ARC
  5
446C
330
1A
100
AcDbEntity
  8
外形線
100
AcDbCircle
 10
396.9750759533
 20
197.62493521171
 30
0.0
 40
1.036778391792
100
AcDbArc
 50
0.0
 51
90.0
  0
ARC
  5
446D
330
1A
100
AcDbEntity
  8
外形線
100
AcDbCircle
 10
396.9750759533
 20
203.4581389458
 30
0.0
 40
1.036778391792
100
AcDbArc
 50
307.13543647028
 51
0.0
  0
LINE
  5
446E
330
1A
100
AcDbEntity
  8
外形線
100
AcDbLine
 10
394.901519169716
 20
205.51957139733
 30
0.0
 11
394.901519169716
 21
198.661713603502
 31
0.0
  0
ARC
  5
446F
330
1A
100
AcDbEntity
  8
外形線
100
AcDbCircle
 10
394.901519169717
 20
204.530142681994
 30
0.0
 40
3.110335175376
100
AcDbArc
 50
0.0
 51
90.0
  0
ARC
  5
4470
330
1A
100
AcDbEntity
  8
外形線
100
AcDbCircle
 10
396.9750759533
 20
184.885077483534
 30
0.0
 40
1.036778391792
100
AcDbArc
 50
270.0
 51
0.0
  0
LINE
  5
4471
330
1A
100
AcDbEntity
  8
外形線
100
AcDbLine
 10
394.901519169716
 20
183.848299091742
 30
0.0
 11
394.901519169716
 21
178.664407132784
 31
0.0
  0
ARC
  5
4472
330
1A
100
AcDbEntity
  8
外形線
100
AcDbCircle
 10
396.9750759533
 20
172.443736782032
 30
0.0
 40
1.036778391792
100
AcDbArc
 50
0.0
 51
90.0
  0
LINE
  5
4473
330
1A
100
AcDbEntity
  8
外形線
100
AcDbLine
 10
394.901519169715
 20
173.480515173822
 30
0.0
 11
394.901519169716
 21
178.664407132784
 31
0.0
  0
LINE
  5
4474
330
1A
100
AcDbEntity
  8
外形線
100
AcDbLine
 10
398.011854345092
 20
197.62493521171
 30
0.0
 11
398.011854345092
 21
184.885077483534
 31
0.0
  0
ARC
  5
4475
330
1A
100
AcDbEntity
  8
外形線
100
AcDbCircle
 10
375.617441082384
 20
178.664407132784
 30
0.0
 40
5.183891958959999
100
AcDbArc
 50
90.0
 51
180.0
  0
ARC
  5
4476
330
1A
100
AcDbEntity
  8
外形線
100
AcDbCircle
 10
375.617441082384
 20
178.664407132784
 30
0.0
 40
5.183891958959999
100
AcDbArc
 50
180.0
 51
270.0
  0
LINE
  5
4477
330
1A
100
AcDbEntity
  8
外形線
100
AcDbLine
 10
375.617441082383
 20
173.480515173822
 30
0.0
 11
396.975075953299
 21
173.480515173822
 31
0.0
  0
LINE
  5
4478
330
1A
100
AcDbEntity
  8
外形線
100
AcDbLine
 10
375.617441082384
 20
183.848299091742
 30
0.0
 11
396.9750759533
 21
183.848299091742
 31
0.0
  0
LINE
  5
4479
330
1A
100
AcDbEntity
  8
外形線
100
AcDbLine
 10
375.617441082386
 20
217.581648574408
 30
0.0
 11
394.901519169716
 21
217.581648574408
 31
0.0
  0
LINE
  5
447A
330
1A
100
AcDbEntity
  8
外形線
100
AcDbLine
 10
375.617441082384
 20
207.64047785737
 30
0.0
 11
394.901519169716
 21
207.64047785737
 31
0.0
  0
LINE
  5
447B
330
1A
100
AcDbEntity
  8
外形線
100
AcDbLine
 10
375.617441082384
 20
207.074738985018
 30
0.0
 11
393.346351582028
 21
207.074738985018
 31
0.0
  0
LINE
  5
447C
330
1A
100
AcDbEntity
  8
外形線
100
AcDbLine
 10
375.617441082386
 20
198.661713603502
 30
0.0
 11
396.9750759533
 21
198.661713603502
 31
0.0
  0
LINE
  5
447D
330
1A
100
AcDbEntity
  8
外形線
100
AcDbLine
 10
370.433549123424
 20
228.429769938798
 30
0.0
 11
370.433549123424
 21
178.664407132784
 31
0.0
  0
LINE
  5
447E
330
1A
100
AcDbEntity
  8
外形線
100
AcDbLine
 10
398.011854345092
 20
203.4581389458
 30
0.0
 11
398.011854345092
 21
223.08158952823
 31
0.0
  0
LINE
  5
447F
330
1A
100
AcDbEntity
  8
外形線
100
AcDbLine
 10
394.901519169716
 20
220.777806325848
 30
0.0
 11
394.901519169716
 21
217.581648574408
 31
0.0
  0
LINE
  5
4480
330
1A
100
AcDbEntity
  8
外形線
100
AcDbLine
 10
317.83494580774
 20
223.636778914155
 30
0.0
 11
317.83494580774
 21
224.801045567527
 31
0.0
  0
LINE
  5
4481
330
1A
100
AcDbEntity
  8
外形線
100
AcDbLine
 10
318.871724199532
 20
225.837823959319
 30
0.0
 11
356.696423494446
 21
225.837823959318
 31
0.0
  0
LINE
  5
4482
330
1A
100
AcDbEntity
  8
外形線
100
AcDbLine
 10
397.600980275762
 20
154.697206149686
 30
0.0
 11
394.901519169715
 21
156.741418311452
 31
0.0
  0
ARC
  5
4483
330
1A
100
AcDbEntity
  8
外形線
100
AcDbCircle
 10
396.9750759533
 20
153.870675319766
 30
0.0
 40
1.036778391792
100
AcDbArc
 50
0.0
 51
52.864563529749
  0
ARC
  5
4484
330
1A
100
AcDbEntity
  8
外形線
100
AcDbCircle
 10
396.9750759533
 20
159.703879053856
 30
0.0
 40
1.036778391792
100
AcDbArc
 50
270.0
 51
0.0
  0
ARC
  5
4485
330
1A
100
AcDbEntity
  8
外形線
100
AcDbCircle
 10
394.901519169716
 20
152.798671583572
 30
0.0
 40
3.110335175376
100
AcDbArc
 50
270.0
 51
0.0
  0
LINE
  5
4486
330
1A
100
AcDbEntity
  8
外形線
100
AcDbLine
 10
394.901519169715
 20
151.809242868236
 30
0.0
 11
394.901519169715
 21
158.667100662064
 31
0.0
  0
ARC
  5
4487
330
1A
100
AcDbEntity
  8
外形線
100
AcDbCircle
 10
393.346351582028
 20
151.809242868236
 30
0.0
 40
1.555167587688
100
AcDbArc
 50
270.0
 51
0.0
  0
ARC
  5
4488
330
1A
100
AcDbEntity
  8
外形線
100
AcDbCircle
 10
394.901519169716
 20
142.857500866534
 30
0.0
 40
3.110335175376
100
AcDbArc
 50
270.0
 51
0.0
  0
ARC
  5
4489
330
1A
100
AcDbEntity
  8
外形線
100
AcDbCircle
 10
394.901519169716
 20
136.770607568426
 30
0.0
 40
3.110335175376
100
AcDbArc
 50
270.0
 51
0.0
  0
LINE
  5
448A
330
1A
100
AcDbEntity
  8
外形線
100
AcDbLine
 10
394.901519169715
 20
136.551007939718
 30
0.0
 11
394.901519169715
 21
139.747165691158
 31
0.0
  0
ARC
  5
448B
330
1A
100
AcDbEntity
  8
外形線
100
AcDbCircle
 10
392.827962386132
 20
136.551007939718
 30
0.0
 40
2.073556783584
100
AcDbArc
 50
270.0
 51
0.0
  0
LINE
  5
448C
330
1A
100
AcDbEntity
  8
外形線
100
AcDbLine
 10
398.011854345091
 20
153.870675319766
 30
0.0
 11
398.011854345091
 21
134.247224737336
 31
0.0
  0
ARC
  5
448D
330
1A
100
AcDbEntity
  8
外形線
100
AcDbCircle
 10
393.864740777924
 20
134.247224737336
 30
0.0
 40
4.147113567168
100
AcDbArc
 50
273.000000000006
 51
0.0
  0
LWPOLYLINE
  5
448E
330
1A
100
AcDbEntity
  8
外形線
100
AcDbPolyline
 90
       18
 70
     0
 43
0.0
 10
375.617441082383
 20
149.688336408196
 10
374.664061164642
 20
149.764776670152
 10
373.743147456547
 20
149.99149437458
 10
372.886060569911
 20
150.360768921974
 10
372.121987570699
 20
150.860025110516
 10
371.476948048493
 20
151.472261369498
 10
370.972908050581
 20
152.176628727418
 10
370.627032054565
 20
152.949140798698
 10
370.451098452653
 20
153.763490611274
 10
370.451098452653
 20
154.591946458986
 10
370.627032054565
 20
155.406296271562
 10
370.972908050581
 20
156.178808342842
 10
371.476948048493
 20
156.883175700762
 10
372.121987570699
 20
157.495411959744
 10
372.886060569911
 20
157.994668148288
 10
373.743147456547
 20
158.36394269568
 10
374.664061164642
 20
158.590660400108
 10
375.617441082383
 20
158.667100662064
  0
LWPOLYLINE
  5
448F
330
1A
100
AcDbEntity
  8
外形線
100
AcDbPolyline
 90
        8
 70
     0
 43
0.0
 10
375.617441082383
 20
150.254075280548
 10
374.626982409136
 20
150.33054414295
 10
373.670265237885
 20
150.557345700444
 10
372.779881614334
 20
150.926753608242
 10
371.986163829592
 20
151.426183416338
 10
371.316151103913
 20
152.038621278198
 10
370.792668453962
 20
152.74320355367
 10
370.433549123423
 20
153.515927561076
  0
LWPOLYLINE
  5
4490
330
1A
100
AcDbEntity
  8
外形線
100
AcDbPolyline
 90
        8
 70
     0
 43
0.0
 10
375.617441082383
 20
134.477451156134
 10
374.608585336041
 20
134.535532860674
 10
373.638235972851
 20
134.707561090094
 10
372.743429649941
 20
134.986969806642
 10
371.958319669445
 20
135.363094434004
 10
371.312872402505
 20
135.821578906844
 10
370.831723521624
 20
136.344923618454
 10
370.533237697096
 20
136.913153352304
  0
LWPOLYLINE
  5
4491
330
1A
100
AcDbEntity
  8
外形線
100
AcDbPolyline
 90
       18
 70
     0
 43
0.0
 10
375.617441082383
 20
133.66027239305
 10
374.664018485979
 20
133.712092855762
 10
373.743063552592
 20
133.865789560188
 10
372.885938297914
 20
134.1161285494
 10
372.121831094481
 20
134.454584829368
 10
371.476762696667
 20
134.869632677412
 10
370.972700135083
 20
135.347138136862
 10
370.626808655706
 20
135.870840332
 10
370.450867178014
 20
136.422905212682
 10
370.450867178014
 20
136.984532871528
 10
370.626808655706
 20
137.53659775221
 10
370.972700135083
 20
138.060299947348
 10
371.476762696667
 20
138.537805406798
 10
372.121831094481
 20
138.952853254842
 10
372.885938297914
 20
139.29130953481
 10
373.743063552592
 20
139.541648524022
 10
374.664018485979
 20
139.695345228448
 10
375.617441082383
 20
139.747165691158
  0
ARC
  5
4492
330
1A
100
AcDbEntity
  8
外形線
100
AcDbCircle
 10
369.396770731632
 20
128.899044326766
 30
0.0
 40
1.036778391792
100
AcDbArc
 50
330.0
 51
0.0
  0
LINE
  5
4493
330
1A
100
AcDbEntity
  8
外形線
100
AcDbLine
 10
364.834945807747
 20
128.899044326766
 30
0.0
 11
365.353335003641
 21
128.38065513087
 31
0.0
  0
LINE
  5
4494
330
1A
100
AcDbEntity
  8
外形線
100
AcDbLine
 10
365.353335003641
 20
128.38065513087
 30
0.0
 11
370.294647157018
 21
128.38065513087
 31
0.0
  0
LINE
  5
4495
330
1A
100
AcDbEntity
  8
外形線
100
AcDbLine
 10
375.617441082383
 20
149.688336408196
 30
0.0
 11
394.901519169715
 21
149.688336408196
 31
0.0
  0
LINE
  5
4496
330
1A
100
AcDbEntity
  8
外形線
100
AcDbLine
 10
375.617441082383
 20
150.254075280548
 30
0.0
 11
393.346351582028
 21
150.254075280548
 31
0.0
  0
LINE
  5
4497
330
1A
100
AcDbEntity
  8
外形線
100
AcDbLine
 10
375.617441082386
 20
139.747165691158
 30
0.0
 11
394.901519169715
 21
139.747165691158
 31
0.0
  0
LINE
  5
4498
330
1A
100
AcDbEntity
  8
外形線
100
AcDbLine
 10
375.617441082383
 20
133.66027239305
 30
0.0
 11
394.901519169715
 21
133.66027239305
 31
0.0
  0
LINE
  5
4499
330
1A
100
AcDbEntity
  8
外形線
100
AcDbLine
 10
375.617441082383
 20
134.477451156134
 30
0.0
 11
392.827962386132
 21
134.477451156134
 31
0.0
  0
LINE
  5
449A
330
1A
100
AcDbEntity
  8
外形線
100
AcDbLine
 10
370.433549123423
 20
128.899044326766
 30
0.0
 11
394.081783932108
 21
130.10579464518
 31
0.0
  0
LINE
  5
449B
330
1A
100
AcDbEntity
  8
外形線
100
AcDbLine
 10
375.617441082386
 20
158.667100662064
 30
0.0
 11
396.975075953299
 21
158.667100662064
 31
0.0
  0
LINE
  5
449C
330
1A
100
AcDbEntity
  8
外形線
100
AcDbLine
 10
317.83494580774
 20
133.692035351413
 30
0.0
 11
317.83494580774
 21
132.527768698039
 31
0.0
  0
LINE
  5
449D
330
1A
100
AcDbEntity
  8
外形線
100
AcDbLine
 10
318.871724199531
 20
131.490990306247
 30
0.0
 11
326.761389024156
 21
131.490990306247
 31
0.0
  0
ARC
  5
449E
330
1A
100
AcDbEntity
  8
外形線
100
AcDbCircle
 10
330.119953513872
 20
120.640230636363
 30
0.0
 40
3.110335175376
100
AcDbArc
 50
224.999999999991
 51
259.247872764006
  0
ARC
  5
449F
330
1A
100
AcDbEntity
  8
外形線
100
AcDbCircle
 10
329.871724199531
 20
118.566673852779
 30
0.0
 40
1.036778391792
100
AcDbArc
 50
180.0
 51
270.0
  0
LINE
  5
44A0
330
1A
100
AcDbEntity
  8
外形線
100
AcDbLine
 10
328.834945807739
 20
118.566673852779
 30
0.0
 11
328.83494580774
 21
151.953001358503
 31
0.0
  0
ARC
  5
44A1
330
1A
100
AcDbEntity
  8
外形線
100
AcDbCircle
 10
326.761389024156
 20
129.417433522663
 30
0.0
 40
2.073556783584
100
AcDbArc
 50
0.0
 51
90.0
  0
LINE
  5
44A2
330
1A
100
AcDbEntity
  8
外形線
100
AcDbLine
 10
328.83494580774
 20
151.953001358503
 30
0.0
 11
356.27643507951
 21
151.953001358503
 31
0.0
  0
LINE
  5
44A3
330
1A
100
AcDbEntity
  8
外形線
100
AcDbLine
 10
329.539687792357
 20
117.529895460986
 30
0.0
 11
363.798167415955
 21
117.529895460986
 31
0.0
  0
ARC
  5
44A4
330
1A
100
AcDbEntity
  8
外形線
100
AcDbCircle
 10
363.798167415956
 20
118.566673852778
 30
0.0
 40
1.036778391792
100
AcDbArc
 50
270.0
 51
0.0
  0
LINE
  5
44A5
330
1A
100
AcDbEntity
  8
外形線
100
AcDbLine
 10
364.834945807747
 20
118.566673852778
 30
0.0
 11
364.834945807748
 21
227.990846171268
 31
0.0
  0
LINE
  5
44A6
330
1A
100
AcDbEntity
  8
外形線
100
AcDbLine
 10
359.651053848787
 20
147.789889273372
 30
0.0
 11
359.651053848788
 21
226.35837977988
 31
0.0
  0
LINE
  5
44A7
330
1A
100
AcDbEntity
  8
外形線
100
AcDbLine
 10
317.83494580774
 20
223.636778914155
 30
0.0
 11
317.83494580774
 21
133.692035351413
 31
0.0
  0
LINE
  5
44A8
330
1A
100
AcDbEntity
  8
外形線
100
AcDbLine
 10
370.433549123423
 20
128.899044326766
 30
0.0
 11
370.433549123424
 21
178.664407132784
 31
0.0
  0
LINE
  5
44A9
330
1A
100
AcDbEntity
  8
外形線
100
AcDbLine
 10
398.011854345091
 20
159.703879053856
 30
0.0
 11
398.011854345091
 21
172.443736782032
 31
0.0
  0
LINE
  5
44AA
330
1A
100
AcDbEntity
  8
外形線
100
AcDbLine
 10
314.256321176613
 20
135.118389955569
 30
0.0
 11
314.256321176613
 21
133.887146922695
 31
0.0
  0
ARC
  5
44AB
330
1A
100
AcDbEntity
  8
外形線
100
AcDbCircle
 10
311.145986001238
 20
135.118389955569
 30
0.0
 40
3.110335175376
100
AcDbArc
 50
0.0
 51
55.000000000002
  0
LINE
  5
44AC
330
1A
100
AcDbEntity
  8
外形線
100
AcDbLine
 10
296.89537763811
 20
211.529895460987
 30
0.0
 11
296.895377638109
 21
146.029895460987
 31
0.0
  0
ARC
  5
44AD
330
1A
100
AcDbEntity
  8
外形線
100
AcDbCircle
 10
316.798167415948
 20
133.692035351413
 30
0.0
 40
1.036778391792
100
AcDbArc
 50
0.0
 51
55.000000000002
  0
ARC
  5
44AE
330
1A
100
AcDbEntity
  8
外形線
100
AcDbCircle
 10
318.871724199532
 20
132.527768698039
 30
0.0
 40
1.036778391792
100
AcDbArc
 50
180.0
 51
270.0
  0
ARC
  5
44AF
330
1A
100
AcDbEntity
  8
外形線
100
AcDbCircle
 10
316.798167415949
 20
223.636778914155
 30
0.0
 40
1.036778391792
100
AcDbArc
 50
304.999999999997
 51
0.0
  0
ARC
  5
44B0
330
1A
100
AcDbEntity
  8
外形線
100
AcDbCircle
 10
318.871724199533
 20
224.801045567527
 30
0.0
 40
1.036778391792
100
AcDbArc
 50
90.0
 51
180.0
  0
DIMENSION
  5
44B1
330
1A
100
AcDbEntity
  8
寸法線
 48
10.0
100
AcDbDimension
  2
*D11
 10
419.183434937406
 20
89.779895460986
 30
0.0
 11
419.183434937406
 21
149.295158485289
 31
0.0
 70
   160
  3
ISO-25
100
AcDbAlignedDimension
 13
398.011100840588
 23
178.779895460986
 33
0.0
 14
355.438538806099
 24
89.779895460986
 34
0.0
 50
90.0
100
AcDbRotatedDimension
1001
ACAD
1000
DSTYLE
1002
{
1070
     5
1000
OPEN30
1070
    41
1040
6.0
1070
    47
1040
0.1
1070
    48
1040
0.1
1070
    73
1070
     0
1070
   140
1040
8.0
1070
   271
1070
     1
1070
   272
1070
     1
1070
   341
1005
2AF4
1002
}
  0
DIMENSION
  5
44B2
330
1A
100
AcDbEntity
  8
寸法線
 48
10.0
100
AcDbDimension
  2
*D12
 10
439.089041644402
 20
228.948159134694
 30
0.0
 11
434.464041644402
 21
178.664407132782
 31
0.0
 70
    32
  1
φ100
  3
ISO-25
100
AcDbAlignedDimension
 13
370.294647157018
 23
128.38065513087
 33
0.0
 14
370.294647157019
 24
228.948159134694
 34
0.0
 50
90.0
100
AcDbRotatedDimension
1001
ACAD
1000
DSTYLE
1002
{
1070
     5
1000
OPEN30
1070
    41
1040
6.0
1070
    47
1040
0.1
1070
    48
1040
0.1
1070
    73
1070
     0
1070
   140
1040
8.0
1070
   271
1070
     1
1070
   272
1070
     1
1070
   341
1005
2AF4
1002
}
  0
LINE
  5
44B3
330
1A
100
AcDbEntity
  8
中心線
 48
10.0
100
AcDbLine
 10
346.834945807743
 20
123.622467460986
 30
0.0
 11
346.834945807743
 21
86.222467460987
 31
0.0
  0
LINE
  5
44B4
330
1A
100
AcDbEntity
  8
中心線
 48
10.0
100
AcDbLine
 10
152.893161908482
 20
178.779895460987
 30
0.0
 11
398.011100840588
 21
178.779895460986
 31
0.0
  0
ARC
  5
44B6
330
1A
100
AcDbEntity
  8
細線
100
AcDbCircle
 10
318.031370174844
 20
179.296136028883
 30
0.0
 40
33.677772310861
100
AcDbArc
 50
160.473379823368
 51
180.878311188663
  0
ARC
  5
44B7
330
1A
100
AcDbEntity
  8
細線
100
AcDbCircle
 10
262.759385101376
 20
179.296136028883
 30
0.0
 40
33.677772310861
100
AcDbArc
 50
359.121688811337
 51
19.526620176632
  0
LINE
  5
44B8
330
1A
100
AcDbEntity
  8
外形線
100
AcDbLine
 10
296.89537763811
 20
198.279895460987
 30
0.0
 11
296.89537763811
 21
159.279895460987
 31
0.0
  0
LINE
  5
44B9
330
1A
100
AcDbEntity
  8
外形線
100
AcDbLine
 10
268.89537763811
 20
164.779895460987
 30
0.0
 11
196.89537763811
 21
164.779895460988
 31
0.0
  0
ARC
  5
44BA
330
1A
100
AcDbEntity
  8
細線
100
AcDbCircle
 10
262.759385101376
 20
178.263654893091
 30
0.0
 40
33.677772310861
100
AcDbArc
 50
340.473379823368
 51
0.878311188663
  0
ARC
  5
44BB
330
1A
100
AcDbEntity
  8
細線
100
AcDbCircle
 10
318.031370174844
 20
178.263654893091
 30
0.0
 40
33.677772310861
100
AcDbArc
 50
179.121688811337
 51
199.526620176632
  0
LINE
  5
44BC
330
1A
100
AcDbEntity
  8
外形線
100
AcDbLine
 10
283.89537763811
 20
158.779895460987
 30
0.0
 11
283.89537763811
 21
198.779895460987
 31
0.0
  0
ARC
  5
44BD
330
1A
100
AcDbEntity
  8
細線
100
AcDbCircle
 10
285.697115610254
 20
161.065483506249
 30
0.0
 40
10.62058168446546
100
AcDbArc
 50
325.706282430469
 51
34.016906058748
  0
ARC
  5
44BE
330
1A
100
AcDbEntity
  8
細線
100
AcDbCircle
 10
294.178503298352
 20
160.871961117609
 30
0.0
 40
9.99295941604506
100
AcDbArc
 50
142.125085915834
 51
215.222189321405
  0
LINE
  5
44BF
330
1A
100
AcDbEntity
  8
外形線
100
AcDbLine
 10
294.48704122064
 20
155.108534424213
 30
0.0
 11
286.015038920984
 21
155.108534424213
 31
0.0
  0
LINE
  5
44C0
330
1A
100
AcDbEntity
  8
外形線
100
AcDbLine
 10
283.89537763811
 20
158.779895460987
 30
0.0
 11
286.015038920984
 21
155.108534424213
 31
0.0
  0
LINE
  5
44C1
330
1A
100
AcDbEntity
  8
外形線
100
AcDbLine
 10
296.89537763811
 20
159.279895460987
 30
0.0
 11
294.48704122064
 21
155.108534424213
 31
0.0
  0
LINE
  5
44C2
330
1A
100
AcDbEntity
  8
細線
100
AcDbLine
 10
294.551799553882
 20
166.929895460987
 30
0.0
 11
286.238955722338
 21
166.929895460987
 31
0.0
  0
LINE
  5
44C3
330
1A
100
AcDbEntity
  8
外形線
100
AcDbLine
 10
268.89537763811
 20
192.779895460987
 30
0.0
 11
196.89537763811
 21
192.779895460987
 31
0.0
  0
ARC
  5
44C4
330
1A
100
AcDbEntity
  8
細線
100
AcDbCircle
 10
294.178503298352
 20
196.687829804365
 30
0.0
 40
9.99295941604506
100
AcDbArc
 50
144.777810678595
 51
217.87491408417
  0
ARC
  5
44C5
330
1A
100
AcDbEntity
  8
細線
100
AcDbCircle
 10
285.697115610254
 20
196.494307415725
 30
0.0
 40
10.62058168446546
100
AcDbArc
 50
325.983093941252
 51
34.293717569531
  0
LINE
  5
44C6
330
1A
100
AcDbEntity
  8
細線
100
AcDbLine
 10
294.551799553882
 20
190.629895460987
 30
0.0
 11
286.238955722338
 21
190.629895460987
 31
0.0
  0
LINE
  5
44C7
330
1A
100
AcDbEntity
  8
外形線
100
AcDbLine
 10
294.48704122064
 20
202.451256497761
 30
0.0
 11
286.015038920984
 21
202.451256497761
 31
0.0
  0
LINE
  5
44C8
330
1A
100
AcDbEntity
  8
外形線
100
AcDbLine
 10
283.89537763811
 20
198.779895460987
 30
0.0
 11
286.015038920984
 21
202.451256497761
 31
0.0
  0
LINE
  5
44C9
330
1A
100
AcDbEntity
  8
外形線
100
AcDbLine
 10
296.89537763811
 20
198.279895460987
 30
0.0
 11
294.48704122064
 21
202.451256497761
 31
0.0
  0
LINE
  5
44CA
330
1A
100
AcDbEntity
  8
外形線
100
AcDbLine
 10
196.89537763811
 20
164.779895460988
 30
0.0
 11
196.89537763811
 21
192.779895460988
 31
0.0
  0
CIRCLE
  5
44CC
330
1A
100
AcDbEntity
  8
外形線
100
AcDbCircle
 10
290.39537763811
 20
178.779895460987
 30
0.0
 40
2.39999999999998
  0
MTEXT
  5
44CE
330
1A
100
AcDbEntity
  8
寸法線
 48
10.0
100
AcDbMText
 10
417.372098006783
 20
82.725041319257
 30
0.0
 40
8.0
 41
60.129060420842
 71
     1
 72
     5
  1
コードロック\P2×M20
  0
MTEXT
  5
44D0
330
1A
100
AcDbEntity
  8
寸法線
 48
10.0
100
AcDbMText
 10
364.407080704716
 20
283.43926321459
 30
0.0
 40
8.0
 41
49.592740337165
 71
     1
 72
     5
  1
アルミ鋳物
  0
MTEXT
  5
44D2
102
{ACAD_XDICTIONARY
360
4B9B
102
}
330
1A
100
AcDbEntity
  8
寸法線
 48
10.0
100
AcDbMText
 10
149.696858922944
 20
274.775877817081
 30
0.0
 40
8.0
 41
0.0
 71
     9
 72
     1
  1
振動部（検知部）\PDIN1.4571（SUS316相当）
1001
ACADANNOTATIVE
1000
AnnotativeData
1002
{
1070
     1
1070
     0
1002
}
  0
MTEXT
  5
44D3
330
1A
100
AcDbEntity
  8
寸法線
 48
10.0
100
AcDbMText
 10
314.514330885884
 20
283.43926321459
 30
0.0
 40
8.0
 41
49.592740337165
 71
     1
 72
     5
  1
平径41
  0
MTEXT
  5
44E7
330
1A
100
AcDbEntity
  8
寸法線
 48
10.0
100
AcDbMText
 10
133.353746202814
 20
-51.698673777198
 30
0.0
 40
8.0
 41
95.557777777778
 71
     1
 72
     5
  1
{\C1;NC}
  0
MTEXT
  5
44E8
330
1A
100
AcDbEntity
  8
寸法線
 48
10.0
100
AcDbMText
 10
110.736045006408
 20
-51.698673777198
 30
0.0
 40
8.0
 41
95.557777777778
 71
     1
 72
     5
  1
{\C1;C}
  0
MTEXT
  5
44E9
330
1A
100
AcDbEntity
  8
寸法線
 48
10.0
100
AcDbMText
 10
82.237070629417
 20
-51.698673777198
 30
0.0
 40
8.0
 41
95.557777777778
 71
     1
 72
     5
  1
{\C1;NO}
  0
MTEXT
  5
44EA
330
1A
100
AcDbEntity
  8
寸法線
 48
10.0
100
AcDbMText
 10
57.97429205192
 20
-51.698673777198
 30
0.0
 40
8.0
 41
95.557777777778
 71
     1
 72
     5
  1
{\C1;L1}
  0
MTEXT
  5
44EB
330
1A
100
AcDbEntity
  8
寸法線
 48
10.0
100
AcDbMText
 10
32.080615348575
 20
-51.698673777198
 30
0.0
 40
8.0
 41
95.557777777778
 71
     1
 72
     5
  1
{\C1;N}
  0
MTEXT
  5
44EC
330
1A
100
AcDbEntity
  8
寸法線
 48
10.0
100
AcDbMText
 10
4.319774098139
 20
-51.698673777198
 30
0.0
 40
8.0
 41
95.557777777778
 71
     1
 72
     5
  1
{\C1;PE}
  0
MTEXT
  5
44ED
330
1A
100
AcDbEntity
  8
寸法線
 48
10.0
100
AcDbMText
 10
137.518134269665
 20
3.153623843011
 30
0.0
 40
7.0
 41
95.557777777778
 71
     1
 72
     5
  1
{\C1;9}
  0
MTEXT
  5
44EE
330
1A
100
AcDbEntity
  8
寸法線
 48
10.0
100
AcDbMText
 10
111.917332009615
 20
3.153623843011
 30
0.0
 40
7.0
 41
95.557777777778
 71
     1
 72
     5
  1
{\C1;8}
  0
MTEXT
  5
44EF
330
1A
100
AcDbEntity
  8
寸法線
 48
10.0
100
AcDbMText
 10
85.334996410793
 20
3.153623843011
 30
0.0
 40
7.0
 41
95.557777777778
 71
     1
 72
     5
  1
{\C1;7}
  0
MTEXT
  5
44F0
330
1A
100
AcDbEntity
  8
寸法線
 48
10.0
100
AcDbMText
 10
59.350185339827
 20
3.153623843011
 30
0.0
 40
7.0
 41
95.557777777778
 71
     1
 72
     5
  1
{\C1;3}
  0
MTEXT
  5
44F1
330
1A
100
AcDbEntity
  8
寸法線
 48
10.0
100
AcDbMText
 10
32.927097153953
 20
3.153623843011
 30
0.0
 40
7.0
 41
95.557777777778
 71
     1
 72
     5
  1
{\C1;2}
  0
MTEXT
  5
44F2
330
1A
100
AcDbEntity
  8
寸法線
 48
10.0
100
AcDbMText
 10
6.907376361929
 20
3.153623843011
 30
0.0
 40
7.0
 41
95.557777777778
 71
     1
 72
     5
  1
{\C1;1}
  0
MTEXT
  5
44F3
330
1A
100
AcDbEntity
  8
寸法線
 48
10.0
100
AcDbMText
 10
3.690230199733
 20
37.818496599371
 30
0.0
 40
8.0
 41
95.557777777778
 71
     1
 72
     5
  1
{\C1;RFM-401}
  0
LINE
  5
44F4
330
1A
100
AcDbEntity
  8
寸法線
100
AcDbLine
 10
73.707009249021
 20
-9.052937845652
 30
0.0
 11
73.707009249021
 21
-17.472937845652
 31
0.0
  0
LINE
  5
44F5
330
1A
100
AcDbEntity
  8
寸法線
100
AcDbLine
 10
73.707009249021
 20
-6.652937845652
 30
0.0
 11
73.707009249021
 21
-2.652937845652
 31
0.0
  0
LINE
  5
44F6
330
1A
100
AcDbEntity
  8
寸法線
100
AcDbLine
 10
75.707009249021
 20
-4.652937845652
 30
0.0
 11
71.707009249021
 21
-4.652937845652
 31
0.0
  0
LINE
  5
44F7
330
1A
100
AcDbEntity
  8
寸法線
100
AcDbLine
 10
78.107009249021
 20
-9.052937845652
 30
0.0
 11
78.107009249021
 21
-0.252937845652
 31
0.0
  0
LINE
  5
44F8
330
1A
100
AcDbEntity
  8
寸法線
100
AcDbLine
 10
69.307009249021
 20
-9.052937845652
 30
0.0
 11
69.307009249021
 21
-0.252937845652
 31
0.0
  0
CIRCLE
  5
44F9
330
1A
100
AcDbEntity
  8
寸法線
100
AcDbCircle
 10
73.707009249021
 20
-4.652937845652
 30
0.0
 40
4.40000000000004
  0
POINT
  5
44FA
330
1A
100
AcDbEntity
  8
寸法線
100
AcDbPoint
 10
73.707009249021
 20
-4.652937845652
 30
0.0
  0
LINE
  5
44FB
330
1A
100
AcDbEntity
  8
寸法線
100
AcDbLine
 10
69.307009249021
 20
-0.252937845652
 30
0.0
 11
78.107009249021
 21
-0.252937845652
 31
0.0
  0
LINE
  5
44FC
330
1A
100
AcDbEntity
  8
寸法線
100
AcDbLine
 10
72.807009249021
 20
-24.552937845652
 30
0.0
 11
74.887009249021
 21
-24.552937845652
 31
0.0
  0
LINE
  5
44FD
330
1A
100
AcDbEntity
  8
寸法線
100
AcDbLine
 10
71.587009249021
 20
-22.812937845652
 30
0.0
 11
76.007009249021
 21
-22.812937845652
 31
0.0
  0
LINE
  5
44FE
330
1A
100
AcDbEntity
  8
寸法線
100
AcDbLine
 10
70.047009249021
 20
-21.012937845652
 30
0.0
 11
77.567009249021
 21
-21.012937845652
 31
0.0
  0
CIRCLE
  5
44FF
330
1A
100
AcDbEntity
  8
寸法線
100
AcDbCircle
 10
73.707009249021
 20
-22.472937845652
 30
0.0
 40
5.0
  0
LINE
  5
4500
330
1A
100
AcDbEntity
  8
寸法線
100
AcDbLine
 10
73.707009249021
 20
-17.472937845652
 30
0.0
 11
73.707009249021
 21
-21.012937845652
 31
0.0
  0
POINT
  5
4501
330
1A
100
AcDbEntity
  8
寸法線
100
AcDbPoint
 10
73.707009249021
 20
-9.052937845652
 30
0.0
  0
LINE
  5
4502
330
1A
100
AcDbEntity
  8
寸法線
100
AcDbLine
 10
125.987009249021
 20
34.147062154348
 30
0.0
 11
139.107009249021
 21
34.147062154348
 31
0.0
  0
LINE
  5
4503
330
1A
100
AcDbEntity
  8
寸法線
100
AcDbLine
 10
112.787518804455
 20
19.34069271142
 30
0.0
 11
127.147075125103
 21
35.547062154348
 31
0.0
  0
LINE
  5
4504
330
1A
100
AcDbEntity
  8
寸法線
100
AcDbLine
 10
104.016356835162
 20
34.147062154348
 30
0.0
 11
86.787009249021
 21
34.147062154348
 31
0.0
  0
CIRCLE
  5
4505
330
1A
100
AcDbEntity
  8
寸法線
100
AcDbCircle
 10
112.947009249021
 20
17.347062154348
 30
0.0
 40
2.0
  0
LINE
  5
4506
330
1A
100
AcDbEntity
  8
寸法線
100
AcDbLine
 10
86.787009249021
 20
5.947062154348
 30
0.0
 11
86.787009249021
 21
34.147062154348
 31
0.0
  0
LINE
  5
4507
330
1A
100
AcDbEntity
  8
寸法線
100
AcDbLine
 10
112.947009249021
 20
5.947062154348
 30
0.0
 11
112.947009249021
 21
15.347062154348
 31
0.0
  0
LINE
  5
4508
330
1A
100
AcDbEntity
  8
寸法線
100
AcDbLine
 10
139.107009249021
 20
5.747062154348
 30
0.0
 11
139.107009249021
 21
34.147062154348
 31
0.0
  0
LINE
  5
4509
330
1A
100
AcDbEntity
  8
寸法線
100
AcDbLine
 10
-0.892990750979
 20
-11.052937845652
 30
0.0
 11
148.307009249021
 21
-11.052937845652
 31
0.0
  0
LINE
  5
450A
330
1A
100
AcDbEntity
  8
寸法線
100
AcDbLine
 10
148.307009249021
 20
-11.052937845652
 30
0.0
 11
148.307009249021
 21
42.947062154348
 31
0.0
  0
LINE
  5
450B
330
1A
100
AcDbEntity
  8
寸法線
100
AcDbLine
 10
-0.892990750979
 20
42.947062154348
 30
0.0
 11
148.307009249021
 21
42.947062154348
 31
0.0
  0
LINE
  5
450C
330
1A
100
AcDbEntity
  8
寸法線
100
AcDbLine
 10
-0.892990750979
 20
-11.052937845652
 30
0.0
 11
-0.892990750979
 21
42.947062154348
 31
0.0
  0
CIRCLE
  5
450D
330
1A
100
AcDbEntity
  8
寸法線
100
AcDbCircle
 10
139.307009249021
 20
-0.052937845652
 30
0.0
 40
5.0
  0
CIRCLE
  5
450E
330
1A
100
AcDbEntity
  8
寸法線
100
AcDbCircle
 10
113.107009249021
 20
-0.052937845652
 30
0.0
 40
5.0
  0
CIRCLE
  5
450F
330
1A
100
AcDbEntity
  8
寸法線
100
AcDbCircle
 10
86.907009249021
 20
-0.052937845652
 30
0.0
 40
5.0
  0
CIRCLE
  5
4510
330
1A
100
AcDbEntity
  8
寸法線
100
AcDbCircle
 10
60.707009249021
 20
-0.052937845652
 30
0.0
 40
5.0
  0
CIRCLE
  5
4511
330
1A
100
AcDbEntity
  8
寸法線
100
AcDbCircle
 10
34.507009249021
 20
-0.052937845652
 30
0.0
 40
5.0
  0
CIRCLE
  5
4512
330
1A
100
AcDbEntity
  8
寸法線
100
AcDbCircle
 10
8.107009249021
 20
-0.052937845652
 30
0.0
 40
5.0
  0
LINE
  5
4513
330
1A
100
AcDbEntity
  8
寸法線
100
AcDbLine
 10
146.307009249021
 20
-9.052937845652
 30
0.0
 11
141.107009249021
 21
-9.052937845652
 31
0.0
  0
LINE
  5
4514
330
1A
100
AcDbEntity
  8
寸法線
100
AcDbLine
 10
114.947009249021
 20
-9.052937845652
 30
0.0
 11
137.107009249021
 21
-9.052937845652
 31
0.0
  0
LINE
  5
4515
330
1A
100
AcDbEntity
  8
寸法線
100
AcDbLine
 10
88.787009249021
 20
-9.052937845652
 30
0.0
 11
110.947009249021
 21
-9.052937845652
 31
0.0
  0
LINE
  5
4516
330
1A
100
AcDbEntity
  8
寸法線
100
AcDbLine
 10
62.627009249021
 20
-9.052937845652
 30
0.0
 11
84.787009249021
 21
-9.052937845652
 31
0.0
  0
LINE
  5
4517
330
1A
100
AcDbEntity
  8
寸法線
100
AcDbLine
 10
36.467009249021
 20
-9.052937845652
 30
0.0
 11
58.627009249021
 21
-9.052937845652
 31
0.0
  0
LINE
  5
4518
330
1A
100
AcDbEntity
  8
寸法線
100
AcDbLine
 10
10.307009249021
 20
-9.052937845652
 30
0.0
 11
32.467009249021
 21
-9.052937845652
 31
0.0
  0
LINE
  5
4519
330
1A
100
AcDbEntity
  8
寸法線
100
AcDbLine
 10
6.307009249021
 20
-9.052937845652
 30
0.0
 11
1.107009249021
 21
-9.052937845652
 31
0.0
  0
LINE
  5
451A
330
1A
100
AcDbEntity
  8
寸法線
100
AcDbLine
 10
112.947009249021
 20
-11.052937845652
 30
0.0
 11
112.947009249021
 21
-49.052937845652
 31
0.0
  0
LINE
  5
451B
330
1A
100
AcDbEntity
  8
寸法線
100
AcDbLine
 10
86.787009249021
 20
-11.052937845652
 30
0.0
 11
86.787009249021
 21
-49.052937845652
 31
0.0
  0
LINE
  5
451C
330
1A
100
AcDbEntity
  8
寸法線
100
AcDbLine
 10
60.627009249021
 20
-11.052937845652
 30
0.0
 11
60.627009249021
 21
-49.052937845652
 31
0.0
  0
LINE
  5
451D
330
1A
100
AcDbEntity
  8
寸法線
100
AcDbLine
 10
34.467009249021
 20
-11.052937845652
 30
0.0
 11
34.467009249021
 21
-49.052937845652
 31
0.0
  0
CIRCLE
  5
451E
330
1A
100
AcDbEntity
  8
寸法線
100
AcDbCircle
 10
139.107009249021
 20
-9.052937845652
 30
0.0
 40
2.0
  0
CIRCLE
  5
451F
330
1A
100
AcDbEntity
  8
寸法線
100
AcDbCircle
 10
112.947009249021
 20
-9.052937845652
 30
0.0
 40
2.0
  0
CIRCLE
  5
4520
330
1A
100
AcDbEntity
  8
寸法線
100
AcDbCircle
 10
86.787009249021
 20
-9.052937845652
 30
0.0
 40
2.0
  0
CIRCLE
  5
4521
330
1A
100
AcDbEntity
  8
寸法線
100
AcDbCircle
 10
60.627009249021
 20
-9.052937845652
 30
0.0
 40
2.0
  0
CIRCLE
  5
4522
330
1A
100
AcDbEntity
  8
寸法線
100
AcDbCircle
 10
34.467009249021
 20
-9.052937845652
 30
0.0
 40
2.0
  0
CIRCLE
  5
4523
330
1A
100
AcDbEntity
  8
寸法線
100
AcDbCircle
 10
8.307009249021
 20
-9.052937845652
 30
0.0
 40
2.0
  0
LINE
  5
4524
330
1A
100
AcDbEntity
  8
寸法線
100
AcDbLine
 10
139.107009249021
 20
-11.052937845652
 30
0.0
 11
139.107009249021
 21
-49.052937845652
 31
0.0
  0
LINE
  5
4525
330
1A
100
AcDbEntity
  8
寸法線
100
AcDbLine
 10
8.307009249021
 20
-11.052937845652
 30
0.0
 11
8.307009249021
 21
-49.052937845652
 31
0.0
  0
LINE
  5
4526
330
1A
100
AcDbEntity
  8
寸法線
100
AcDbLine
 10
1.107009249021
 20
40.947062154348
 30
0.0
 11
1.107009249021
 21
-9.052937845652
 31
0.0
  0
LINE
  5
4527
330
1A
100
AcDbEntity
  8
寸法線
100
AcDbLine
 10
146.307009249021
 20
40.947062154348
 30
0.0
 11
1.107009249021
 21
40.947062154348
 31
0.0
  0
LINE
  5
4528
330
1A
100
AcDbEntity
  8
寸法線
100
AcDbLine
 10
146.307009249021
 20
40.947062154348
 30
0.0
 11
146.307009249021
 21
-9.052937845652
 31
0.0
  0
DIMENSION
  5
460D
330
1A
100
AcDbEntity
  8
寸法線
 48
10.0
100
AcDbDimension
  2
*D13
 10
283.89537763811
 20
61.279895460988
 30
0.0
 11
220.39537763811
 21
65.909062127655
 31
0.0
 70
    32
  1
125
  3
ISO-25
100
AcDbAlignedDimension
 13
156.89537763811
 23
169.779895460988
 33
0.0
 14
283.89537763811
 24
158.779895460987
 34
0.0
100
AcDbRotatedDimension
1001
ACAD
1000
DSTYLE
1002
{
1070
     5
1000
OPEN30
1070
    41
1040
6.0
1070
    47
1040
0.1
1070
    48
1040
0.1
1070
    73
1070
     0
1070
   140
1040
8.0
1070
   271
1070
     1
1070
   272
1070
     1
1070
   341
1005
2AF4
1002
}
  0
LINE
  5
47CB
330
1A
100
AcDbEntity
  8
中心線
 48
10.0
100
AcDbLine
 10
258.489251804925
 20
113.779895460987
 30
0.0
 11
293.301503471295
 21
113.779895460987
 31
0.0
  0
LINE
  5
47CC
330
1A
100
AcDbEntity
  8
中心線
 48
10.0
100
AcDbLine
 10
258.489251804925
 20
243.779895460987
 30
0.0
 11
293.301503471295
 21
243.779895460987
 31
0.0
  0
LINE
  5
47CD
330
1A
100
AcDbEntity
  8
外形線
 48
10.0
100
AcDbLine
 10
282.89537763811
 20
256.279895460987
 30
0.0
 11
282.89537763811
 21
101.279895460987
 31
0.0
  0
LINE
  5
47CE
330
1A
100
AcDbEntity
  8
外形線
 48
10.0
100
AcDbLine
 10
268.89537763811
 20
101.279895460987
 30
0.0
 11
282.89537763811
 21
101.279895460987
 31
0.0
  0
LINE
  5
47CF
330
1A
100
AcDbEntity
  8
外形線
 48
10.0
100
AcDbLine
 10
268.89537763811
 20
256.279895460987
 30
0.0
 11
268.89537763811
 21
101.279895460987
 31
0.0
  0
LINE
  5
47D0
330
1A
100
AcDbEntity
  8
外形線
 48
10.0
100
AcDbLine
 10
268.89537763811
 20
256.279895460987
 30
0.0
 11
282.89537763811
 21
256.279895460987
 31
0.0
  0
LINE
  5
47D1
330
1A
100
AcDbEntity
  8
寸法線
 48
10.0
100
AcDbLine
 10
531.937161610343
 20
42.964727037688
 30
0.0
 11
531.937161610343
 21
-52.266308776747
 31
0.0
  0
MTEXT
  5
47D2
330
1A
100
AcDbEntity
  8
寸法線
 48
10.0
100
AcDbMText
 10
490.650933288005
 20
-28.385824894804
 30
0.0
 40
8.0
 41
165.013333333333
 71
     1
 72
     5
  1
SUS316
  0
MTEXT
  5
47D3
330
1A
100
AcDbEntity
  8
寸法線
 48
10.0
100
AcDbMText
 10
490.650933288005
 20
11.192678452094
 30
0.0
 40
8.0
 41
165.013333333333
 71
     1
 72
     5
  1
SUS304
  0
LINE
  5
47D4
330
1A
100
AcDbEntity
  8
寸法線
 48
10.0
100
AcDbLine
 10
484.537432816562
 20
27.834952658761
 30
0.0
 11
484.537432816562
 21
-52.266308776747
 31
0.0
  0
MTEXT
  5
47D5
330
1A
100
AcDbEntity
  8
寸法線
 48
10.0
100
AcDbMText
 10
489.965938234923
 20
40.082902010194
 30
0.0
 40
8.0
 41
165.013333333333
 71
     1
 72
     5
  1
材質
  0
LINE
  5
47D6
330
1A
100
AcDbEntity
  8
寸法線
 48
10.0
100
AcDbLine
 10
467.295748094334
 20
42.964727037688
 30
0.0
 11
467.295748094334
 21
-52.266308776747
 31
0.0
  0
LINE
  5
47D7
330
1A
100
AcDbEntity
  8
寸法線
 48
10.0
100
AcDbLine
 10
404.046601462618
 20
27.834952658761
 30
0.0
 11
404.046601462618
 21
-52.266308776747
 31
0.0
  0
LINE
  5
47D8
330
1A
100
AcDbEntity
  8
寸法線
 48
10.0
100
AcDbLine
 10
386.761234297169
 20
27.834952658761
 30
0.0
 11
386.761234297169
 21
-52.266308776747
 31
0.0
  0
LINE
  5
47D9
330
1A
100
AcDbEntity
  8
寸法線
 48
10.0
100
AcDbLine
 10
326.008252827465
 20
27.834952658761
 30
0.0
 11
326.008252827465
 21
-25.663043880144
 31
0.0
  0
LINE
  5
47DA
330
1A
100
AcDbEntity
  8
寸法線
 48
10.0
100
AcDbLine
 10
309.431994841232
 20
42.964727037688
 30
0.0
 11
309.431994841232
 21
-25.663043880144
 31
0.0
  0
LINE
  5
47DB
330
1A
100
AcDbEntity
  8
寸法線
 48
10.0
100
AcDbLine
 10
309.431994841232
 20
-25.663043880144
 30
0.0
 11
467.295748094333
 21
-25.663043880144
 31
0.0
  0
LINE
  5
47DC
330
1A
100
AcDbEntity
  8
寸法線
 48
10.0
100
AcDbLine
 10
309.431994841232
 20
-13.486017223399
 30
0.0
 11
531.937161610343
 21
-13.486017223399
 31
0.0
  0
LINE
  5
47DD
330
1A
100
AcDbEntity
  8
寸法線
 48
10.0
100
AcDbLine
 10
309.431994841232
 20
0.300005067929
 30
0.0
 11
467.295748094333
 21
0.300005067929
 31
0.0
  0
LINE
  5
47DE
330
1A
100
AcDbEntity
  8
寸法線
 48
10.0
100
AcDbLine
 10
309.431994841232
 20
27.834952658761
 30
0.0
 11
531.937161610342
 21
27.834952658761
 31
0.0
  0
LINE
  5
47DF
330
1A
100
AcDbEntity
  8
寸法線
 48
10.0
100
AcDbLine
 10
309.431994841232
 20
13.504647599006
 30
0.0
 11
467.295748094333
 21
13.504647599006
 31
0.0
  0
LINE
  5
47E0
330
1A
100
AcDbEntity
  8
寸法線
 48
10.0
100
AcDbLine
 10
309.431994841232
 20
42.964727037688
 30
0.0
 11
531.937161610342
 21
42.964727037688
 31
0.0
  0
MTEXT
  5
47E1
330
1A
100
AcDbEntity
  8
寸法線
 48
10.0
100
AcDbMText
 10
409.475126223082
 20
24.504137740417
 30
0.0
 40
8.0
 41
165.013333333333
 71
     1
 72
     5
  1
JIS10K32A\PJIS10K40A\PJIS10K50A\PJIS10K65A\PJIS10K80A\PJIS10K100A
  0
MTEXT
  5
47E2
102
{ACAD_XDICTIONARY
360
5342
102
}
330
1A
100
AcDbEntity
  8
寸法線
 48
10.0
100
AcDbMText
 10
332.695821784684
 20
24.808573319024
 30
0.0
 40
8.0
 41
165.013333333333
 71
     1
 72
     5
  1
JIS5K50A\PJIS5K65A\PJIS5K80A\PJIS5K100A
1001
ACADANNOTATIVE
1000
AnnotativeData
1002
{
1070
     1
1070
     0
1002
}
  0
MTEXT
  5
47E3
330
1A
100
AcDbEntity
  8
寸法線
 48
10.0
100
AcDbMText
 10
358.928595658613
 20
40.082902010194
 30
0.0
 40
8.0
 41
165.013333333333
 71
     1
 72
     5
  1
フランジサイズ
  0
MTEXT
  5
47E4
330
1A
100
AcDbEntity
  8
寸法線
 48
10.0
100
AcDbMText
 10
395.182423248895
 20
-57.507175260858
 30
0.0
 40
8.0
 41
165.013333333333
 71
     1
 72
     5
  1
○印が今回の貴社の御仕様です。
  0
MTEXT
  5
47E5
330
1A
100
AcDbEntity
  8
寸法線
 48
10.0
100
AcDbMText
 10
220.375400036973
 20
282.637817204967
 30
0.0
 40
8.0
 41
49.592740337165
 71
     1
 72
     5
  1
フランジ
  0
LEADER
  5
47E6
330
1A
100
AcDbEntity
  8
寸法線
 48
10.0
100
AcDbLeader
  3
ISO-25
 76
     3
 10
274.586872071213
 20
256.279895460987
 30
0.0
 10
257.048623248735
 20
274.221089962273
 30
0.0
 10
244.256259011005
 20
274.221089962273
 30
0.0
213
29.20079668542596
223
0.0
233
0.0
1001
ACAD
1000
DSTYLE
1002
{
1070
     5
1000
OPEN30
1070
   147
1040
0.625
1070
    77
1070
     0
1070
    41
1040
6.0
1070
    47
1040
0.1
1070
    48
1040
0.1
1070
    73
1070
     0
1070
   140
1040
5.0
1070
   271
1070
     1
1070
   272
1070
     1
1070
   341
1005
2AF4
1070
   342
1005
2AF4
1002
}
  0
MTEXT
  5
4ABD
330
1A
100
AcDbEntity
  8
寸法線
 48
10.0
100
AcDbMText
 10
129.187384639437
 20
-63.610154938576
 30
0.0
 40
8.0
 41
95.557777777778
 71
     1
 72
     5
  1
{\C1;（NO）}
  0
MTEXT
  5
4ABE
330
1A
100
AcDbEntity
  8
寸法線
 48
10.0
100
AcDbMText
 10
78.137805414603
 20
-63.610154938576
 30
0.0
 40
8.0
 41
95.557777777778
 71
     1
 72
     5
  1
{\C1;（NC）}
  0
MTEXT
  5
4ABF
330
1A
100
AcDbEntity
  8
寸法線
 48
10.0
100
AcDbMText
 10
179.971264630889
 20
-3.996326918233
 30
0.0
 40
7.0
 41
125.633939393939
 71
     1
 72
     5
  1
{\C1;：グランド\P：電源\P：電源\P：コモン\P：オープン（クローズ）\P：クローズ（オープン）}
  0
MTEXT
  5
4AC0
330
1A
100
AcDbEntity
  8
寸法線
 48
10.0
100
AcDbMText
 10
168.081071831154
 20
-3.996326918233
 30
0.0
 40
7.0
 41
125.633939393939
 71
     1
 72
     5
  1
{\C1;PE\PN\PL1\PC\PNO\PNC}
  0
MTEXT
  5
4AC1
102
{ACAD_XDICTIONARY
360
4AC2
102
}
330
1A
100
AcDbEntity
  8
寸法線
 48
10.0
100
AcDbMText
 10
165.765281782387
 20
28.50753673451
 30
0.0
 40
8.0
 41
124.815667100994
 71
     1
 72
     5
  1
電源電圧：AC20～255V　　　　　　：DC20～60V
1001
ACADANNOTATIVE
1000
AnnotativeData
1002
{
1070
     1
1070
     0
1002
}
  0
LINE
  5
4B9A
330
1A
100
AcDbEntity
  8
下書線
 48
10.0
100
AcDbLine
 10
30.311679985052
 20
274.221089962273
 30
0.0
 11
509.467094790027
 21
274.221089962273
 31
0.0
  0
MTEXT
  5
4BCD
330
1A
100
AcDbEntity
  8
寸法線
 48
10.0
100
AcDbMText
 10
319.398169137381
 20
100.204173486266
 30
0.0
 40
8.0
 41
43.585115063315
 71
     3
 72
     5
  1
2×NPT 1/2"
  0
LEADER
  5
4BCE
330
1A
100
AcDbEntity
  8
寸法線
 48
10.0
100
AcDbLeader
  3
ISO-25
 76
     2
 10
336.845092705477
 20
134.502715526581
 30
0.0
 10
320.069483934978
 20
78.556735460986
 30
0.0
1001
ACAD
1000
DSTYLE
1002
{
1070
     5
1000
OPEN30
1070
   147
1040
0.625
1070
    77
1070
     0
1070
    41
1040
6.0
1070
    47
1040
0.1
1070
    48
1040
0.1
1070
    73
1070
     0
1070
   140
1040
5.0
1070
   271
1070
     1
1070
   272
1070
     1
1070
   341
1005
2AF4
1070
   342
1005
2AF4
1002
}
  0
LINE
  5
4BCF
330
1A
100
AcDbEntity
  8
寸法線
 48
10.0
100
AcDbLine
 10
309.60522545181
 20
78.556735460986
 30
0.0
 11
320.069483934978
 21
78.556735460986
 31
0.0
  0
LINE
  5
4E86
330
1A
100
AcDbEntity
  8
外形線
100
AcDbLine
 10
268.89537763811
 20
164.029895460987
 30
0.0
 11
268.89537763811
 21
178.779895460987
 31
0.0
  0
LINE
  5
4E89
330
1A
100
AcDbEntity
  8
外形線
100
AcDbLine
 10
268.89537763811
 20
193.529895460987
 30
0.0
 11
268.89537763811
 21
178.779895460987
 31
0.0
  0
LINE
  5
513F
330
1A
100
AcDbEntity
  8
外形線
100
AcDbLine
 10
283.89537763811
 20
193.529895460987
 30
0.0
 11
282.89537763811
 21
193.529895460987
 31
0.0
  0
LINE
  5
5145
330
1A
100
AcDbEntity
  8
外形線
100
AcDbLine
 10
283.89537763811
 20
164.029895460987
 30
0.0
 11
282.89537763811
 21
164.029895460987
 31
0.0
  0
LINE
  5
5147
330
1A
100
AcDbEntity
  8
外形線
100
AcDbLine
 10
268.89537763811
 20
164.029895460987
 30
0.0
 11
268.89537763811
 21
178.779895460987
 31
0.0
  0
LINE
  5
514A
330
1A
100
AcDbEntity
  8
外形線
100
AcDbLine
 10
268.89537763811
 20
193.529895460987
 30
0.0
 11
268.89537763811
 21
178.779895460987
 31
0.0
  0
LINE
  5
514D
330
1A
100
AcDbEntity
  8
外形線
 48
10.0
100
AcDbLine
 10
268.89537763811
 20
256.279895460987
 30
0.0
 11
268.89537763811
 21
101.279895460987
 31
0.0
  0
LINE
  5
5347
330
1A
100
AcDbEntity
  8
寸法線
 48
10.0
100
AcDbLine
 10
386.761234297169
 20
-39.03982663906
 30
0.0
 11
467.295748094333
 21
-39.03982663906
 31
0.0
  0
LINE
  5
5348
330
1A
100
AcDbEntity
  8
寸法線
 48
10.0
100
AcDbLine
 10
386.761234297169
 20
-52.266308776747
 30
0.0
 11
531.937161610343
 21
-52.266308776747
 31
0.0
  0
VIEWPORT
  5
2902
330
28FB
100
AcDbEntity
 67
     1
  8
0
 48
10.0
100
AcDbViewport
 10
0.0
 20
0.0
 30
0.0
 40
552.319156214367
 41
300.3
 68
     1
 69
     1
1001
ACAD
1000
MVIEW
1002
{
1070
    16
1010
0.0
1020
0.0
1030
0.0
1010
0.0
1020
0.0
1030
1.0
1040
0.0
1040
300.3
1040
205.756503333333
1040
143.551503333333
1040
50.0
1040
0.0
1040
0.0
1070
    16
1070
   100
1070
     0
1070
     1
1070
     0
1070
     0
1070
     0
1070
     0
1040
0.0
1040
0.0
1040
0.0
1040
10.0
1040
10.0
1040
10.0
1040
10.0
1070
     0
1002
{
1002
}
1002
}
  0
VIEWPORT
  5
2904
330
28FB
100
AcDbEntity
 67
     1
  8
図枠太線
 48
10.0
100
AcDbViewport
 10
204.746305129083
 20
161.396645458131
 30
0.0
 40
400.0
 41
240.0
 68
     2
 69
     2
1001
ACAD
1000
MVIEW
1002
{
1070
    16
1010
0.0
1020
0.0
1030
0.0
1010
0.0
1020
0.0
1030
1.0
1040
0.0
1040
480.0
1040
254.087573700416
1040
97.206523486892
1040
50.0
1040
0.0
1040
0.0
1070
    16
1070
   100
1070
     0
1070
     0
1070
     0
1070
     0
1070
     0
1070
     0
1040
0.0
1040
0.0
1040
0.0
1040
1.0
1040
1.0
1040
0.0
1040
0.0
1070
     0
1002
{
1002
}
1002
}
  0
INSERT
  5
2A59
330
28FB
100
AcDbEntity
 67
     1
  8
図枠太線
100
AcDbBlockReference
  2
A3横用_タイトル
 10
-0.352109406709
 20
-2.129314295396
 30
0.0
  0
MTEXT
  5
2FE3
330
28FB
100
AcDbEntity
 67
     1
  8
寸法線
 48
10.0
100
AcDbMText
 10
149.281561913196
 20
13.738838105692
 30
0.0
 40
7.0
 41
10.579051054442
 71
     1
 72
     5
  1
1:2
  0
MTEXT
  5
2FE7
330
28FB
100
AcDbEntity
 67
     1
  8
寸法線
 48
10.0
100
AcDbMText
 10
312.604602487298
 20
32.24042583589
 30
0.0
 40
6.0
 41
53.647044270833
 71
     1
 72
     5
  1
RFM-401-0
  0
MTEXT
  5
2FE8
330
28FB
100
AcDbEntity
 67
     1
  8
寸法線
 48
10.0
100
AcDbMText
 10
363.257693177112
 20
37.807266065601
 30
0.0
 40
6.0
 41
50.761524795071
 71
     1
 72
     5
  1
{\H0.8333x;振動式\Pレベルスイッチ}
  0
MTEXT
  5
3100
330
28FB
100
AcDbEntity
 67
     1
  8
寸法線
 48
10.0
100
AcDbMText
 10
272.300488718679
 20
48.787921847374
 30
0.0
 40
5.0
 41
58.550841599714
 71
     1
 72
     5
  1
A3縮小図
  0
LINE
  5
3101
330
28FB
100
AcDbEntity
 67
     1
  8
寸法線
 48
10.0
100
AcDbLine
 10
272.300488718679
 20
42.916202519738
 30
0.0
 11
296.843718665885
 21
42.916202519738
 31
0.0
  0
MTEXT
  5
342E
330
28FB
100
AcDbEntity
 67
     1
  8
寸法線
 48
10.0
100
AcDbMText
 10
376.730127672352
 20
48.224963581677
 30
0.0
 40
5.0
 41
54.683098362957
 71
     1
 72
     5
  1
{\C1;台数   台}
  0
MTEXT
  5
4A02
102
{ACAD_XDICTIONARY
360
4AC6
102
}
330
28FB
100
AcDbEntity
 67
     1
  8
寸法線
 48
10.0
100
AcDbMText
 10
343.138061749422
 20
13.129878289932
 30
0.0
 40
7.0
 41
68.56
 71
     1
 72
     5
  1
HVR-2015
1001
ACADANNOTATIVE
1000
AnnotativeData
1002
{
1070
     1
1070
     0
1002
}
  0
MTEXT
  5
4C69
102
{ACAD_XDICTIONARY
360
4C6A
102
}
330
28FB
100
AcDbEntity
 67
     1
  8
寸法線
 48
10.0
100
AcDbMText
 10
175.506541278264
 20
12.819600893732
 30
0.0
 40
5.0
 41
60.244444444444
 71
     1
 72
     5
  1
2015.8.25
1001
ACADANNOTATIVE
1000
AnnotativeData
1002
{
1070
     1
1070
     0
1002
}
  0
MTEXT
  5
4C6D
102
{ACAD_XDICTIONARY
360
4C6E
102
}
330
28FB
100
AcDbEntity
 67
     1
  8
寸法線
 48
10.0
100
AcDbMText
 10
173.953401409015
 20
32.625226751426
 30
0.0
 40
5.0
 41
24.595673902063
 71
     1
 72
     5
  1
takahashi
1001
ACADANNOTATIVE
1000
AnnotativeData
1002
{
1070
     1
1070
     0
1002
}
  0
MTEXT
  5
4D6C
102
{ACAD_XDICTIONARY
360
4D6D
102
}
330
28FB
100
AcDbEntity
 67
     1
  8
下書線
 48
10.0
100
AcDbMText
 10
354.979268521139
 20
183.990538008039
 30
0.0
 40
10.0
 41
174.128675272846
 71
     5
 72
     5
  1
HP掲載図面\P変更・追記不可
1001
ACADANNOTATIVE
1000
AnnotativeData
1002
{
1070
     1
1070
     0
1002
}
  0
LWPOLYLINE
  5
4D70
330
28FB
100
AcDbEntity
 67
     1
  8
下書線
 48
10.0
100
AcDbPolyline
 90
        4
 70
     1
 43
0.0
 10
312.749123267568
 20
202.417142839439
 10
396.583287031323
 20
202.417142839439
 10
396.583287031323
 20
165.295003903459
 10
312.749123267568
 20
165.295003903459
  0
MTEXT
  5
5447
102
{ACAD_XDICTIONARY
360
5448
102
}
330
28FB
100
AcDbEntity
 67
     1
  8
寸法線
 48
10.0
100
AcDbMText
 10
154.696305129083
 20
29.396646458131
 30
0.0
 40
4.5
 41
29.906507692735
 71
     5
 72
     5
  1
tahara
1001
ACADANNOTATIVE
1000
AnnotativeData
1002
{
1070
     1
1070
     0
1002
}
  0
MTEXT
  5
544B
102
{ACAD_XDICTIONARY
360
544C
102
}
330
28FB
100
AcDbEntity
 67
     1
  8
寸法線
 48
10.0
100
AcDbMText
 10
121.396304528483
 20
29.396646458131
 30
0.0
 40
4.5
 41
16.097226867587
 71
     5
 72
     5
  1
konishi
1001
ACADANNOTATIVE
1000
AnnotativeData
1002
{
1070
     1
1070
     0
1002
}
  0
ENDSEC
  0
SECTION
  2
OBJECTS
  0
DICTIONARY
  5
C
330
0
100
AcDbDictionary
  3
ACAD_COLOR
350
2948
  3
ACAD_GROUP
350
D
  3
ACAD_LAYOUT
350
2816
  3
ACAD_MATERIAL
350
2947
  3
ACAD_MLEADERSTYLE
350
4A43
  3
ACAD_MLINESTYLE
350
E
  3
ACAD_PLOTSETTINGS
350
2817
  3
ACAD_SCALELIST
350
4A1C
  3
ACAD_VISUALSTYLE
350
4A03
  3
ACADDIM
350
30EB
  3
ACDBHEADERROUNDTRIPXREC
350
54B3
  3
ACDBVARIABLEDICTIONARY
350
4AEF
  3
DWGPROPS
350
54D8
  0
DICTIONARY
  5
54D9
330
8
100
AcDbDictionary
280
     1
  3
ACAD_XREC_ROUNDTRIP
360
54DA
  0
DICTIONARY
  5
29EA
330
2
100
AcDbDictionary
280
     1
  3
ACAD_LAYERFILTERS
360
2B0C
  3
ACAD_LAYERSTATES
360
29EB
  0
DICTIONARY
  5
4B9B
330
44D2
100
AcDbDictionary
280
     1
  3
ACDBCONTEXTDATAMANAGER
360
4B9C
  0
DICTIONARY
  5
5342
330
47E2
100
AcDbDictionary
280
     1
  3
ACDBCONTEXTDATAMANAGER
360
5343
  0
DICTIONARY
  5
4AC2
330
4AC1
100
AcDbDictionary
280
     1
  3
ACDBCONTEXTDATAMANAGER
360
4AC3
  0
DICTIONARY
  5
4AC6
330
4A02
100
AcDbDictionary
280
     1
  3
ACDBCONTEXTDATAMANAGER
360
4AC7
  0
DICTIONARY
  5
4C6A
330
4C69
100
AcDbDictionary
280
     1
  3
ACDBCONTEXTDATAMANAGER
360
4C6B
  0
DICTIONARY
  5
4C6E
330
4C6D
100
AcDbDictionary
280
     1
  3
ACDBCONTEXTDATAMANAGER
360
4C6F
  0
DICTIONARY
  5
4D6D
330
4D6C
100
AcDbDictionary
280
     1
  3
ACDBCONTEXTDATAMANAGER
360
4D6E
  0
DICTIONARY
  5
5448
330
5447
100
AcDbDictionary
280
     1
  3
ACDBCONTEXTDATAMANAGER
360
5449
  0
DICTIONARY
  5
544C
330
544B
100
AcDbDictionary
280
     1
  3
ACDBCONTEXTDATAMANAGER
360
544D
  0
DICTIONARY
  5
2948
102
{ACAD_REACTORS
330
C
102
}
330
C
100
AcDbDictionary
  0
DICTIONARY
  5
D
102
{ACAD_REACTORS
330
C
102
}
330
C
100
AcDbDictionary
  0
DICTIONARY
  5
2816
102
{ACAD_REACTORS
330
C
102
}
330
C
100
AcDbDictionary
  0
DICTIONARY
  5
2947
102
{ACAD_REACTORS
330
C
102
}
330
C
100
AcDbDictionary
  3
BYBLOCK
350
4A3F
  3
BYLAYER
350
4A3E
  3
GLOBAL
350
4A40
  0
DICTIONARY
  5
4A43
102
{ACAD_REACTORS
330
C
102
}
330
C
100
AcDbDictionary
  3
STANDARD
350
4A44
  0
DICTIONARY
  5
E
102
{ACAD_REACTORS
330
C
102
}
330
C
100
AcDbDictionary
  3
STANDARD
350
13
  0
DICTIONARY
  5
2817
102
{ACAD_REACTORS
330
C
102
}
330
C
100
AcDbDictionary
  0
DICTIONARY
  5
4A1C
102
{ACAD_REACTORS
330
C
102
}
330
C
100
AcDbDictionary
  3
A0
350
4A1D
  3
A1
350
4A1E
  3
A2
350
4A1F
  3
A3
350
4A20
  3
A4
350
4A21
  3
A5
350
4A22
  3
A6
350
4A23
  3
A7
350
4A24
  3
A8
350
4A25
  3
A9
350
4A26
  3
B0
350
4A27
  3
B1
350
4A28
  3
B2
350
4A29
  3
B3
350
4A2A
  3
B4
350
4A2B
  3
B5
350
4A2C
  3
B6
350
4A2D
  3
B7
350
4A2E
  3
B8
350
4A2F
  3
B9
350
4A30
  3
C0
350
4A31
  3
C1
350
4A32
  3
C2
350
4A33
  3
C3
350
4A34
  3
C4
350
4A35
  3
C5
350
4A36
  3
C6
350
4A37
  3
C7
350
4A38
  3
C8
350
4A39
  3
C9
350
4A3A
  3
D0
350
4A3B
  3
D1
350
4A3C
  3
D2
350
4A3D
  0
DICTIONARY
  5
4A03
102
{ACAD_REACTORS
330
C
102
}
330
C
100
AcDbDictionary
  3
2DWIREFRAME
350
4A08
  3
BASIC
350
4A0B
  3
BRIGHTEN
350
4A0F
  3
COLORCHANGE
350
4A13
  3
CONCEPTUAL
350
4A0D
  3
DIM
350
4A0E
  3
EDGECOLOROFF
350
4A16
  3
FACEPATTERN
350
4A12
  3
FLAT
350
4A04
  3
FLATWITHEDGES
350
4A05
  3
GOURAUD
350
4A06
  3
GOURAUDWITHEDGES
350
4A07
  3
HIDDEN
350
4A0A
  3
JITTEROFF
350
4A14
  3
LINEPATTERN
350
4A11
  3
MODELING
350
4A45
  3
OVERHANGOFF
350
4A15
  3
REALISTIC
350
4A0C
  3
SHADED
350
4A1B
  3
SHADED_WITH_EDGES
350
4A1A
  3
SHADES_OF_GRAY
350
4A17
  3
SKETCHY
350
4A18
  3
THICKEN
350
4A10
  3
WIREFRAME
350
4A09
  3
X-RAY
350
4A19
  0
XRECORD
  5
30EB
102
{ACAD_REACTORS
330
C
102
}
330
C
100
AcDbXrecord
 90
   990106
  3

 60
     0
 61
     0
 62
     1
 63
     3
 64
     0
 65
     0
 66
     0
 67
     3
 68
     1
 69
     0
 70
     0
 71
     0
 72
     0
 40
0.0
170
     0
  0
DICTIONARY
  5
54B3
102
{ACAD_REACTORS
330
C
102
}
330
C
100
AcDbDictionary
  3
CEPSNID
350
54BD
  3
CEPSNTYPE
350
54BC
  3
COLORDICT
350
54D6
  3
DIMSTYLEDATA
350
54D3
  3
FINGERPRINTGUID
350
54BE
  3
HYPERLINKBASE
350
54B6
  3
INSUNITS
350
54BB
  3
LAYOUTDICT
350
54B8
  3
LWETCUNION
350
54BA
  3
MATERIALDICT
350
54D7
  3
PLOTSETDICT
350
54B9
  3
PSVPSCALE
350
54C0
  3
PUCSBASE
350
54C3
  3
PUCSORGBACK
350
54C9
  3
PUCSORGBOTTOM
350
54C5
  3
PUCSORGFRONT
350
54C8
  3
PUCSORGLEFT
350
54C6
  3
PUCSORGRIGHT
350
54C7
  3
PUCSORGTOP
350
54C4
  3
PUCSORTHOREF
350
54C1
  3
PUCSORTHOVIEW
350
54C2
  3
STYLESHEET
350
54B7
  3
TSTACKALIGN
350
54B4
  3
TSTACKSIZE
350
54B5
  3
UCSBASE
350
54CC
  3
UCSORGBACK
350
54D2
  3
UCSORGBOTTOM
350
54CE
  3
UCSORGFRONT
350
54D1
  3
UCSORGLEFT
350
54CF
  3
UCSORGRIGHT
350
54D0
  3
UCSORGTOP
350
54CD
  3
UCSORTHOREF
350
54CA
  3
UCSORTHOVIEW
350
54CB
  3
VERSIONGUID
350
54BF
  0
DICTIONARY
  5
4AEF
102
{ACAD_REACTORS
330
C
102
}
330
C
100
AcDbDictionary
  3
CANNOSCALE
350
4AF0
  3
CMLEADERSTYLE
350
4B31
  3
CTABLESTYLE
350
4B30
  3
DIMASSOC
350
54D4
  3
HIDETEXT
350
54D5
  3
MSLTSCALE
350
4B32
  3
XCLIPFRAME
350
4B33
  0
XRECORD
  5
54D8
102
{ACAD_REACTORS
330
C
102
}
330
C
100
AcDbXrecord
  1
DWGPROPS COOKIE
  2

  3

  4

  6

  7

  8
takahashi
  9

300
=
301
=
302
=
303
=
304
=
305
=
306
=
307
=
308
=
309
=
 40
0.0
 41
2450576.222302431
 42
2457269.004098345
  1

 90
        0
  0
XRECORD
  5
54DA
102
{ACAD_REACTORS
330
54D9
102
}
330
54D9
100
AcDbXrecord
102
VTR_0.000_0.000_1.000_1.000_VISUALSTYLE
340
4A08
102
VTR_0.000_0.000_1.000_1.000_GRIDDISPLAY
 70
     3
102
VTR_0.000_0.000_1.000_1.000_GRIDMAJOR
 70
     5
102
VTR_0.000_0.000_1.000_1.000_DEFAULTLIGHTING
280
     1
102
VTR_0.000_0.000_1.000_1.000_DEFAULTLIGHTINGTYPE
 70
     1
102
VTR_0.000_0.000_1.000_1.000_BRIGHTNESS
141
0.0
102
VTR_0.000_0.000_1.000_1.000_CONTRAST
142
0.0
  0
DICTIONARY
  5
2B0C
102
{ACAD_REACTORS
330
29EA
102
}
330
29EA
100
AcDbDictionary
  0
DICTIONARY
  5
29EB
102
{ACAD_REACTORS
330
29EA
102
}
330
29EA
100
AcDbDictionary
  0
DICTIONARY
  5
4B9C
102
{ACAD_REACTORS
330
4B9B
102
}
330
4B9B
100
AcDbDictionary
  3
ACDB_ANNOTATIONSCALES
350
4B9D
  0
DICTIONARY
  5
5343
102
{ACAD_REACTORS
330
5342
102
}
330
5342
100
AcDbDictionary
  3
ACDB_ANNOTATIONSCALES
350
5344
  0
DICTIONARY
  5
4AC3
102
{ACAD_REACTORS
330
4AC2
102
}
330
4AC2
100
AcDbDictionary
  3
ACDB_ANNOTATIONSCALES
350
4AC4
  0
DICTIONARY
  5
4AC7
102
{ACAD_REACTORS
330
4AC6
102
}
330
4AC6
100
AcDbDictionary
  3
ACDB_ANNOTATIONSCALES
350
4AC8
  0
DICTIONARY
  5
4C6B
102
{ACAD_REACTORS
330
4C6A
102
}
330
4C6A
100
AcDbDictionary
  3
ACDB_ANNOTATIONSCALES
350
4C6C
  0
DICTIONARY
  5
4C6F
102
{ACAD_REACTORS
330
4C6E
102
}
330
4C6E
100
AcDbDictionary
  3
ACDB_ANNOTATIONSCALES
350
4C70
  0
DICTIONARY
  5
4D6E
102
{ACAD_REACTORS
330
4D6D
102
}
330
4D6D
100
AcDbDictionary
  3
ACDB_ANNOTATIONSCALES
350
4D6F
  0
DICTIONARY
  5
5449
102
{ACAD_REACTORS
330
5448
102
}
330
5448
100
AcDbDictionary
  3
ACDB_ANNOTATIONSCALES
350
544A
  0
DICTIONARY
  5
544D
102
{ACAD_REACTORS
330
544C
102
}
330
544C
100
AcDbDictionary
  3
ACDB_ANNOTATIONSCALES
350
544E
  0
MATERIAL
  5
4A3F
102
{ACAD_REACTORS
330
2947
102
}
102
{ACAD_XDICTIONARY
360
54DD
102
}
330
2947
100
AcDbMaterial
  1
BYBLOCK
  0
MATERIAL
  5
4A3E
102
{ACAD_REACTORS
330
2947
102
}
102
{ACAD_XDICTIONARY
360
54DB
102
}
330
2947
100
AcDbMaterial
  1
BYLAYER
  0
MATERIAL
  5
4A40
102
{ACAD_REACTORS
330
2947
102
}
102
{ACAD_XDICTIONARY
360
54DF
102
}
330
2947
100
AcDbMaterial
  1
GLOBAL
  0
ACAD_PROXY_OBJECT
  5
4A44
102
{ACAD_REACTORS
330
4A43
102
}
330
4A43
100
AcDbProxyObject
 90
      499
 91
      507
 93
      610
310
40901902A4063FBFFFFFE0000000000000020400000000000020404214DD185B99185C990000000000000104090141901A00000000000004100000000000000041025764000000000000039000
340
14
340
0
340
10
340
0
 94
        0
1001
ACAD_MLEADERVER
1070
     2
  0
MLINESTYLE
  5
13
102
{ACAD_REACTORS
330
E
102
}
330
E
100
AcDbMlineStyle
  2
STANDARD
 70
     0
  3

 62
     0
 51
90.0
 52
90.0
 71
     2
 49
0.5
 62
   256
  6
BYLAYER
 49
-0.5
 62
   256
  6
BYLAYER
  0
ACAD_PROXY_OBJECT
  5
4A1D
102
{ACAD_REACTORS
330
4A1C
102
}
330
4A1C
100
AcDbProxyObject
 90
      499
 91
      504
 93
       41
310
903313A31580
  0
ACAD_PROXY_OBJECT
  5
4A1E
102
{ACAD_REACTORS
330
4A1C
102
}
330
4A1C
100
AcDbProxyObject
 90
      499
 91
      504
 93
      105
310
903313A324000000000000004000
  0
ACAD_PROXY_OBJECT
  5
4A1F
102
{ACAD_REACTORS
330
4A1C
102
}
330
4A1C
100
AcDbProxyObject
 90
      499
 91
      504
 93
      105
310
903313A344000000000000104000
  0
ACAD_PROXY_OBJECT
  5
4A20
102
{ACAD_REACTORS
330
4A1C
102
}
330
4A1C
100
AcDbProxyObject
 90
      499
 91
      504
 93
      105
310
903313A354000000000000144000
  0
ACAD_PROXY_OBJECT
  5
4A21
102
{ACAD_REACTORS
330
4A1C
102
}
330
4A1C
100
AcDbProxyObject
 90
      499
 91
      504
 93
      105
310
903313A384000000000000204000
  0
ACAD_PROXY_OBJECT
  5
4A22
102
{ACAD_REACTORS
330
4A1C
102
}
330
4A1C
100
AcDbProxyObject
 90
      499
 91
      504
 93
      113
310
904313A31304000000000000244000
  0
ACAD_PROXY_OBJECT
  5
4A23
102
{ACAD_REACTORS
330
4A1C
102
}
330
4A1C
100
AcDbProxyObject
 90
      499
 91
      504
 93
      113
310
904313A31364000000000000304000
  0
ACAD_PROXY_OBJECT
  5
4A24
102
{ACAD_REACTORS
330
4A1C
102
}
330
4A1C
100
AcDbProxyObject
 90
      499
 91
      504
 93
      113
310
904313A32304000000000000344000
  0
ACAD_PROXY_OBJECT
  5
4A25
102
{ACAD_REACTORS
330
4A1C
102
}
330
4A1C
100
AcDbProxyObject
 90
      499
 91
      504
 93
      113
310
904313A333040000000000003E4000
  0
ACAD_PROXY_OBJECT
  5
4A26
102
{ACAD_REACTORS
330
4A1C
102
}
330
4A1C
100
AcDbProxyObject
 90
      499
 91
      504
 93
      113
310
904313A34304000000000000444000
  0
ACAD_PROXY_OBJECT
  5
4A27
102
{ACAD_REACTORS
330
4A1C
102
}
330
4A1C
100
AcDbProxyObject
 90
      499
 91
      504
 93
      113
310
904313A35304000000000000494000
  0
ACAD_PROXY_OBJECT
  5
4A28
102
{ACAD_REACTORS
330
4A1C
102
}
330
4A1C
100
AcDbProxyObject
 90
      499
 91
      504
 93
      121
310
905313A3130304000000000000594000
  0
ACAD_PROXY_OBJECT
  5
4A29
102
{ACAD_REACTORS
330
4A1C
102
}
330
4A1C
100
AcDbProxyObject
 90
      499
 91
      504
 93
      105
310
903323A310000000000000010100
  0
ACAD_PROXY_OBJECT
  5
4A2A
102
{ACAD_REACTORS
330
4A1C
102
}
330
4A1C
100
AcDbProxyObject
 90
      499
 91
      504
 93
      105
310
903343A310000000000000410100
  0
ACAD_PROXY_OBJECT
  5
4A2B
102
{ACAD_REACTORS
330
4A1C
102
}
330
4A1C
100
AcDbProxyObject
 90
      499
 91
      504
 93
      105
310
903383A310000000000000810100
  0
ACAD_PROXY_OBJECT
  5
4A2C
102
{ACAD_REACTORS
330
4A1C
102
}
330
4A1C
100
AcDbProxyObject
 90
      499
 91
      504
 93
      113
310
90431303A310000000000000910100
  0
ACAD_PROXY_OBJECT
  5
4A2D
102
{ACAD_REACTORS
330
4A1C
102
}
330
4A1C
100
AcDbProxyObject
 90
      499
 91
      504
 93
      121
310
9053130303A310000000000001650100
  0
ACAD_PROXY_OBJECT
  5
4A2E
102
{ACAD_REACTORS
330
4A1C
102
}
330
4A1C
100
AcDbProxyObject
 90
      499
 91
      504
 93
      257
310
90E312F31323822203D2031272D3022000000000000200FC000000000000284000
  0
ACAD_PROXY_OBJECT
  5
4A2F
102
{ACAD_REACTORS
330
4A1C
102
}
330
4A1C
100
AcDbProxyObject
 90
      499
 91
      504
 93
      249
310
90D312F363422203D2031272D3022000000000000240FC000000000000284000
  0
ACAD_PROXY_OBJECT
  5
4A30
102
{ACAD_REACTORS
330
4A1C
102
}
330
4A1C
100
AcDbProxyObject
 90
      499
 91
      504
 93
      249
310
90D312F333222203D2031272D3022000000000000280FC000000000000284000
  0
ACAD_PROXY_OBJECT
  5
4A31
102
{ACAD_REACTORS
330
4A1C
102
}
330
4A1C
100
AcDbProxyObject
 90
      499
 91
      504
 93
      249
310
90D312F313622203D2031272D30220000000000002C0FC000000000000284000
  0
ACAD_PROXY_OBJECT
  5
4A32
102
{ACAD_REACTORS
330
4A1C
102
}
330
4A1C
100
AcDbProxyObject
 90
      499
 91
      504
 93
      249
310
90D332F333222203D2031272D30220000000000002E0FC000000000000284000
  0
ACAD_PROXY_OBJECT
  5
4A33
102
{ACAD_REACTORS
330
4A1C
102
}
330
4A1C
100
AcDbProxyObject
 90
      499
 91
      504
 93
      241
310
90C312F3822203D2031272D3022000000000000300FC000000000000284000
  0
ACAD_PROXY_OBJECT
  5
4A34
102
{ACAD_REACTORS
330
4A1C
102
}
330
4A1C
100
AcDbProxyObject
 90
      499
 91
      504
 93
      249
310
90D332F313622203D2031272D3022000000000000320FC000000000000284000
  0
ACAD_PROXY_OBJECT
  5
4A35
102
{ACAD_REACTORS
330
4A1C
102
}
330
4A1C
100
AcDbProxyObject
 90
      499
 91
      504
 93
      241
310
90C312F3422203D2031272D3022000000000000340FC000000000000284000
  0
ACAD_PROXY_OBJECT
  5
4A36
102
{ACAD_REACTORS
330
4A1C
102
}
330
4A1C
100
AcDbProxyObject
 90
      499
 91
      504
 93
      241
310
90C332F3822203D2031272D3022000000000000360FC000000000000284000
  0
ACAD_PROXY_OBJECT
  5
4A37
102
{ACAD_REACTORS
330
4A1C
102
}
330
4A1C
100
AcDbProxyObject
 90
      499
 91
      504
 93
      241
310
90C312F3222203D2031272D3022000000000000380FC000000000000284000
  0
ACAD_PROXY_OBJECT
  5
4A38
102
{ACAD_REACTORS
330
4A1C
102
}
330
4A1C
100
AcDbProxyObject
 90
      499
 91
      504
 93
      241
310
90C332F3422203D2031272D30220000000000003A0FC000000000000284000
  0
ACAD_PROXY_OBJECT
  5
4A39
102
{ACAD_REACTORS
330
4A1C
102
}
330
4A1C
100
AcDbProxyObject
 90
      499
 91
      504
 93
      161
310
90A3122203D2031272D30224000000000000284000
  0
ACAD_PROXY_OBJECT
  5
4A3A
102
{ACAD_REACTORS
330
4A1C
102
}
330
4A1C
100
AcDbProxyObject
 90
      499
 91
      504
 93
      257
310
90E312D312F3222203D2031272D30220000000000003E0FC000000000000284000
  0
ACAD_PROXY_OBJECT
  5
4A3B
102
{ACAD_REACTORS
330
4A1C
102
}
330
4A1C
100
AcDbProxyObject
 90
      499
 91
      504
 93
      225
310
90A3322203D2031272D302200000000000002100000000000000284000
  0
ACAD_PROXY_OBJECT
  5
4A3C
102
{ACAD_REACTORS
330
4A1C
102
}
330
4A1C
100
AcDbProxyObject
 90
      499
 91
      504
 93
      225
310
90A3622203D2031272D302200000000000006100000000000000284000
  0
ACAD_PROXY_OBJECT
  5
4A3D
102
{ACAD_REACTORS
330
4A1C
102
}
330
4A1C
100
AcDbProxyObject
 90
      499
 91
      504
 93
      249
310
90D31272D3022203D2031272D30220000000000000A100000000000000284000
  0
ACAD_PROXY_OBJECT
  5
4A08
102
{ACAD_REACTORS
330
4A03
102
}
330
4A03
100
AcDbProxyObject
 90
      499
 91
      503
 93
      436
310
42CC9915DA5C99599C985B595049028333333333333E33F0000000000000F90107901411070040501600405405064090741402480A0340
1001
ACAD
1000
AcDbSavedByObjectVersion
1070
     0
  0
ACAD_PROXY_OBJECT
  5
4A0B
102
{ACAD_REACTORS
330
4A03
102
}
330
4A03
100
AcDbProxyObject
 90
      499
 91
      503
 93
      388
310
4150985CDA58D07406404333333333333E33F0000000000000F90107A41107004050150841D405064090741402480A0350
1001
ACAD
1000
AcDbSavedByObjectVersion
1070
     0
  0
ACAD_PROXY_OBJECT
  5
4A0F
102
{ACAD_REACTORS
330
4A03
102
}
330
4A03
100
AcDbProxyObject
 90
      499
 91
      503
 93
      428
310
42109C9A59DA1D195B90C409028333333333333E33F0000000000000F9010790141107004050150841D405064090741402480A029950
1001
ACAD
1000
AcDbSavedByObjectVersion
1070
     0
  0
ACAD_PROXY_OBJECT
  5
4A13
102
{ACAD_REACTORS
330
4A03
102
}
330
4A03
100
AcDbProxyObject
 90
      499
 91
      503
 93
      452
310
42D0DBDB1BDC90DA185B99D95104090240C333333333333E33F0000000000000F90108901411070040501508421405064090741402480A0350
1001
ACAD
1000
AcDbSavedByObjectVersion
1070
     0
  0
ACAD_PROXY_OBJECT
  5
4A0D
102
{ACAD_REACTORS
330
4A03
102
}
330
4A03
100
AcDbProxyObject
 90
      499
 91
      503
 93
      500
310
4290DBDB98D95C1D1D585B10940D028333333333333E33F0000000000000F90107902409070040501000000000018199010841D405064090740C02480A0340
1001
ACAD
1000
AcDbSavedByObjectVersion
1070
     0
  0
ACAD_PROXY_OBJECT
  5
4A0E
102
{ACAD_REACTORS
330
4A03
102
}
330
4A03
100
AcDbProxyObject
 90
      499
 91
      503
 93
      412
310
40D11A5B50B409028333333333333E33F0000000000000F9010790141107004050150841D405064090741402480A02677FFFFFD0
1001
ACAD
1000
AcDbSavedByObjectVersion
1070
     0
  0
ACAD_PROXY_OBJECT
  5
4A16
102
{ACAD_REACTORS
330
4A03
102
}
330
4A03
100
AcDbProxyObject
 90
      499
 91
      503
 93
      452
310
43115919D950DBDB1BDC93D999916409028333333333333E33F0000000000000F9010790141107004050150841D405064090741402480A0350
1001
ACAD
1000
AcDbSavedByObjectVersion
1070
     0
  0
ACAD_PROXY_OBJECT
  5
4A12
102
{ACAD_REACTORS
330
4A03
102
}
330
4A03
100
AcDbProxyObject
 90
      499
 91
      503
 93
      444
310
42D19858D95C185D1D195C9B90F409028333333333333E33F0000000000000F9010790141107004050150841D405064090741402480A0350
1001
ACAD
1000
AcDbSavedByObjectVersion
1070
     0
  0
ACAD_PROXY_OBJECT
  5
4A04
102
{ACAD_REACTORS
330
4A03
102
}
330
4A03
100
AcDbProxyObject
 90
      499
 91
      503
 93
      380
310
41119B185D240901404333333333333E33F0000000000000F9010740A907004050150841D405064090741402480A1B50
1001
ACAD
1000
AcDbSavedByObjectVersion
1070
     0
  0
ACAD_PROXY_OBJECT
  5
4A05
102
{ACAD_REACTORS
330
4A03
102
}
330
4A03
100
AcDbProxyObject
 90
      499
 91
      503
 93
      468
310
43519B185D15DA5D1A115919D95CD0140901404333333333333E33F0000000000000F90107409019070040501600405405064090741402480A1B50
1001
ACAD
1000
AcDbSavedByObjectVersion
1070
     0
  0
ACAD_PROXY_OBJECT
  5
4A06
102
{ACAD_REACTORS
330
4A03
102
}
330
4A03
100
AcDbProxyObject
 90
      499
 91
      503
 93
      404
310
41D1DBDD5C985D5910240902404333333333333E33F0000000000000F9010740A9070040501641D405064090741402480A1B50
1001
ACAD
1000
AcDbSavedByObjectVersion
1070
     0
  0
ACAD_PROXY_OBJECT
  5
4A07
102
{ACAD_REACTORS
330
4A03
102
}
330
4A03
100
AcDbProxyObject
 90
      499
 91
      503
 93
      492
310
4411DBDD5C985D5915DA5D1A115919D95CD0340902404333333333333E33F0000000000000F90107409019070040501600405405064090741402480A1B50
1001
ACAD
1000
AcDbSavedByObjectVersion
1070
     0
  0
ACAD_PROXY_OBJECT
  5
4A0A
102
{ACAD_REACTORS
330
4A03
102
}
330
4A03
100
AcDbProxyObject
 90
      499
 91
      503
 93
      476
310
41921A5919195B90640502408333333333333E33F0000000000000F901079024090700405020000000000001110200405405064090740C02480A0340
1001
ACAD
1000
AcDbSavedByObjectVersion
1070
     0
  0
ACAD_PROXY_OBJECT
  5
4A14
102
{ACAD_REACTORS
330
4A03
102
}
330
4A03
100
AcDbProxyObject
 90
      499
 91
      503
 93
      428
310
42529A5D1D195C93D999914409028333333333333E33F0000000000000F9010790141107004050150A41D405064090741402480A0350
1001
ACAD
1000
AcDbSavedByObjectVersion
1070
     0
  0
ACAD_PROXY_OBJECT
  5
4A11
102
{ACAD_REACTORS
330
4A03
102
}
330
4A03
100
AcDbProxyObject
 90
      499
 91
      503
 93
      444
310
42D31A5B995C185D1D195C9B90E409028333333333333E33F0000000000000F9010790141107004050750841D405064090741402483A0350
1001
ACAD
1000
AcDbSavedByObjectVersion
1070
     0
  0
ACAD_PROXY_OBJECT
  5
4A45
102
{ACAD_REACTORS
330
4A03
102
}
330
4A03
100
AcDbProxyObject
 90
      499
 91
      503
 93
      412
310
90A409038333333333333E33F0000000000000F901074090290700405010000000000201990108421405064090741402480A1B40
1001
ACAD
1000
AcDbSavedByObjectVersion
1070
     0
  0
ACAD_PROXY_OBJECT
  5
4A15
102
{ACAD_REACTORS
330
4A03
102
}
330
4A03
100
AcDbProxyObject
 90
      499
 91
      503
 93
      444
310
42D3DD995C9A185B99D3D999915409028333333333333E33F0000000000000F9010790141107004050150941D405064090741402480A0350
1001
ACAD
1000
AcDbSavedByObjectVersion
1070
     0
  0
ACAD_PROXY_OBJECT
  5
4A0C
102
{ACAD_REACTORS
330
4A03
102
}
330
4A03
100
AcDbProxyObject
 90
      499
 91
      503
 93
      428
310
425499585B1A5CDD1A58D08409038333333333333E33F0000000000000F9010740A907004050150800405405064090740C02480A1B40
1001
ACAD
1000
AcDbSavedByObjectVersion
1070
     0
  0
ACAD_PROXY_OBJECT
  5
4A1B
102
{ACAD_REACTORS
330
4A03
102
}
330
4A03
100
AcDbProxyObject
 90
      499
 91
      503
 93
      420
310
4194DA1859195911B40902404333333333333E33F0000000000000F9010740A41107004050150800405405064090840C02480A0B40
1001
ACAD
1000
AcDbSavedByObjectVersion
1070
     0
  0
ACAD_PROXY_OBJECT
  5
4A1A
102
{ACAD_REACTORS
330
4A03
102
}
330
4A03
100
AcDbProxyObject
 90
      499
 91
      503
 93
      516
310
4454DA18591959081DDA5D1A08195919D95CD1A40902404333333333333E33F0000000000000F901074090142907004050250800405405064090740C02480A0B40
1001
ACAD
1000
AcDbSavedByObjectVersion
1070
     0
  0
ACAD_PROXY_OBJECT
  5
4A17
102
{ACAD_REACTORS
330
4A03
102
}
330
4A03
100
AcDbProxyObject
 90
      499
 91
      503
 93
      532
310
4394DA1859195CC81BD98811DC985E5174090240C333333333333E33F0000000000000F901079024090741D01000000000000111010841D405064090740C02480A0340
1001
ACAD
1000
AcDbSavedByObjectVersion
1070
     0
  0
ACAD_PROXY_OBJECT
  5
4A18
102
{ACAD_REACTORS
330
4A03
102
}
330
4A03
100
AcDbProxyObject
 90
      499
 91
      503
 93
      476
310
41D4DAD95D18DA1E51840502408333333333333E33F0000000000000F901079024090741D01000000000000111010B41D405064090741802480A0340
1001
ACAD
1000
AcDbSavedByObjectVersion
1070
     0
  0
ACAD_PROXY_OBJECT
  5
4A10
102
{ACAD_REACTORS
330
4A03
102
}
330
4A03
100
AcDbProxyObject
 90
      499
 91
      503
 93
      412
310
41D51A1A58DAD95B90D409028333333333333E33F0000000000000F9010790141107004050150C41D405064090741402480A0350
1001
ACAD
1000
AcDbSavedByObjectVersion
1070
     0
  0
ACAD_PROXY_OBJECT
  5
4A09
102
{ACAD_REACTORS
330
4A03
102
}
330
4A03
100
AcDbProxyObject
 90
      499
 91
      503
 93
      420
310
4255DA5C99599C985B595059028333333333333E33F0000000000000F90107901411070040501600405405064090740C02480A0340
1001
ACAD
1000
AcDbSavedByObjectVersion
1070
     0
  0
ACAD_PROXY_OBJECT
  5
4A19
102
{ACAD_REACTORS
330
4A03
102
}
330
4A03
100
AcDbProxyObject
 90
      499
 91
      503
 93
      404
310
41560B54985E51940902404000000000000E03F0000000000000F9010740501907004050150841D405064090740C02480A1B40
1001
ACAD
1000
AcDbSavedByObjectVersion
1070
     0
  0
XRECORD
  5
54BD
102
{ACAD_REACTORS
330
54B3
102
}
330
54B3
100
AcDbXrecord
340
0
  0
XRECORD
  5
54BC
102
{ACAD_REACTORS
330
54B3
102
}
330
54B3
100
AcDbXrecord
 90
        0
  0
XRECORD
  5
54D6
102
{ACAD_REACTORS
330
54B3
102
}
330
54B3
100
AcDbXrecord
340
2948
  0
XRECORD
  5
54D3
102
{ACAD_REACTORS
330
54B3
102
}
330
54B3
100
AcDbXrecord
1000
DSTYLE
1002
{
1070
   171
 70
     2
1070
   143
 40
0.0394
1070
   274
 70
     2
1070
    41
 40
6.0
1070
   342
340
2AF4
1070
   271
 70
     1
1070
   278
 70
    46
1070
   341
340
2AF4
1070
   272
 70
     1
1070
    48
 40
0.1
1070
   283
 70
     1
1070
    47
 40
0.1
1070
   145
 40
1.0
1070
   340
340
10
1070
   140
 40
5.0
1070
   284
 70
     0
1002
}
  0
XRECORD
  5
54BE
102
{ACAD_REACTORS
330
54B3
102
}
330
54B3
100
AcDbXrecord
  1
{23698909-1D67-4744-B0E2-8DE11E3ED422}
  0
XRECORD
  5
54B6
102
{ACAD_REACTORS
330
54B3
102
}
330
54B3
100
AcDbXrecord
  1

  0
XRECORD
  5
54BB
102
{ACAD_REACTORS
330
54B3
102
}
330
54B3
100
AcDbXrecord
 90
        0
  0
XRECORD
  5
54B8
102
{ACAD_REACTORS
330
54B3
102
}
330
54B3
100
AcDbXrecord
340
2816
  0
XRECORD
  5
54BA
102
{ACAD_REACTORS
330
54B3
102
}
330
54B3
100
AcDbXrecord
 90
    10781
  0
XRECORD
  5
54D7
102
{ACAD_REACTORS
330
54B3
102
}
330
54B3
100
AcDbXrecord
340
2947
  0
XRECORD
  5
54B9
102
{ACAD_REACTORS
330
54B3
102
}
330
54B3
100
AcDbXrecord
340
2817
  0
XRECORD
  5
54C0
102
{ACAD_REACTORS
330
54B3
102
}
330
54B3
100
AcDbXrecord
 40
0.0
  0
XRECORD
  5
54C3
102
{ACAD_REACTORS
330
54B3
102
}
330
54B3
100
AcDbXrecord
340
0
  0
XRECORD
  5
54C9
102
{ACAD_REACTORS
330
54B3
102
}
330
54B3
100
AcDbXrecord
 10
0.0
 20
0.0
 30
0.0
  0
XRECORD
  5
54C5
102
{ACAD_REACTORS
330
54B3
102
}
330
54B3
100
AcDbXrecord
 10
0.0
 20
0.0
 30
0.0
  0
XRECORD
  5
54C8
102
{ACAD_REACTORS
330
54B3
102
}
330
54B3
100
AcDbXrecord
 10
0.0
 20
0.0
 30
0.0
  0
XRECORD
  5
54C6
102
{ACAD_REACTORS
330
54B3
102
}
330
54B3
100
AcDbXrecord
 10
0.0
 20
0.0
 30
0.0
  0
XRECORD
  5
54C7
102
{ACAD_REACTORS
330
54B3
102
}
330
54B3
100
AcDbXrecord
 10
0.0
 20
0.0
 30
0.0
  0
XRECORD
  5
54C4
102
{ACAD_REACTORS
330
54B3
102
}
330
54B3
100
AcDbXrecord
 10
0.0
 20
0.0
 30
0.0
  0
XRECORD
  5
54C1
102
{ACAD_REACTORS
330
54B3
102
}
330
54B3
100
AcDbXrecord
340
0
  0
XRECORD
  5
54C2
102
{ACAD_REACTORS
330
54B3
102
}
330
54B3
100
AcDbXrecord
 70
     0
  0
XRECORD
  5
54B7
102
{ACAD_REACTORS
330
54B3
102
}
330
54B3
100
AcDbXrecord
  1

  0
XRECORD
  5
54B4
102
{ACAD_REACTORS
330
54B3
102
}
330
54B3
100
AcDbXrecord
 90
        1
  0
XRECORD
  5
54B5
102
{ACAD_REACTORS
330
54B3
102
}
330
54B3
100
AcDbXrecord
 90
       70
  0
XRECORD
  5
54CC
102
{ACAD_REACTORS
330
54B3
102
}
330
54B3
100
AcDbXrecord
340
0
  0
XRECORD
  5
54D2
102
{ACAD_REACTORS
330
54B3
102
}
330
54B3
100
AcDbXrecord
 10
0.0
 20
0.0
 30
0.0
  0
XRECORD
  5
54CE
102
{ACAD_REACTORS
330
54B3
102
}
330
54B3
100
AcDbXrecord
 10
0.0
 20
0.0
 30
0.0
  0
XRECORD
  5
54D1
102
{ACAD_REACTORS
330
54B3
102
}
330
54B3
100
AcDbXrecord
 10
0.0
 20
0.0
 30
0.0
  0
XRECORD
  5
54CF
102
{ACAD_REACTORS
330
54B3
102
}
330
54B3
100
AcDbXrecord
 10
0.0
 20
0.0
 30
0.0
  0
XRECORD
  5
54D0
102
{ACAD_REACTORS
330
54B3
102
}
330
54B3
100
AcDbXrecord
 10
0.0
 20
0.0
 30
0.0
  0
XRECORD
  5
54CD
102
{ACAD_REACTORS
330
54B3
102
}
330
54B3
100
AcDbXrecord
 10
0.0
 20
0.0
 30
0.0
  0
XRECORD
  5
54CA
102
{ACAD_REACTORS
330
54B3
102
}
330
54B3
100
AcDbXrecord
340
0
  0
XRECORD
  5
54CB
102
{ACAD_REACTORS
330
54B3
102
}
330
54B3
100
AcDbXrecord
 70
     0
  0
XRECORD
  5
54BF
102
{ACAD_REACTORS
330
54B3
102
}
330
54B3
100
AcDbXrecord
  1
{504598FB-7C36-478D-8B41-5570665E6C18}
  0
DICTIONARYVAR
  5
4AF0
102
{ACAD_REACTORS
330
4AEF
102
}
330
4AEF
100
DictionaryVariables
280
     0
  1
1:1
  0
DICTIONARYVAR
  5
4B31
102
{ACAD_REACTORS
330
4AEF
102
}
330
4AEF
100
DictionaryVariables
280
     0
  1
Standard
  0
DICTIONARYVAR
  5
4B30
102
{ACAD_REACTORS
330
4AEF
102
}
330
4AEF
100
DictionaryVariables
280
     0
  1
Standard
  0
DICTIONARYVAR
  5
54D4
102
{ACAD_REACTORS
330
4AEF
102
}
330
4AEF
100
DictionaryVariables
280
     0
  1
1
  0
DICTIONARYVAR
  5
54D5
102
{ACAD_REACTORS
330
4AEF
102
}
330
4AEF
100
DictionaryVariables
280
     0
  1
0
  0
DICTIONARYVAR
  5
4B32
102
{ACAD_REACTORS
330
4AEF
102
}
330
4AEF
100
DictionaryVariables
280
     0
  1
0
  0
DICTIONARYVAR
  5
4B33
102
{ACAD_REACTORS
330
4AEF
102
}
330
4AEF
100
DictionaryVariables
280
     0
  1
0
  0
DICTIONARY
  5
4B9D
102
{ACAD_REACTORS
330
4B9C
102
}
330
4B9C
100
AcDbDictionary
  0
DICTIONARY
  5
5344
102
{ACAD_REACTORS
330
5343
102
}
330
5343
100
AcDbDictionary
  0
DICTIONARY
  5
4AC4
102
{ACAD_REACTORS
330
4AC3
102
}
330
4AC3
100
AcDbDictionary
  0
DICTIONARY
  5
4AC8
102
{ACAD_REACTORS
330
4AC7
102
}
330
4AC7
100
AcDbDictionary
  0
DICTIONARY
  5
4C6C
102
{ACAD_REACTORS
330
4C6B
102
}
330
4C6B
100
AcDbDictionary
  0
DICTIONARY
  5
4C70
102
{ACAD_REACTORS
330
4C6F
102
}
330
4C6F
100
AcDbDictionary
  0
DICTIONARY
  5
4D6F
102
{ACAD_REACTORS
330
4D6E
102
}
330
4D6E
100
AcDbDictionary
  0
DICTIONARY
  5
544A
102
{ACAD_REACTORS
330
5449
102
}
330
5449
100
AcDbDictionary
  0
DICTIONARY
  5
544E
102
{ACAD_REACTORS
330
544D
102
}
330
544D
100
AcDbDictionary
  0
DICTIONARY
  5
54DD
330
4A3F
100
AcDbDictionary
280
     1
  3
ACAD_XREC_ROUNDTRIP
360
54DE
  0
DICTIONARY
  5
54DB
330
4A3E
100
AcDbDictionary
280
     1
  3
ACAD_XREC_ROUNDTRIP
360
54DC
  0
DICTIONARY
  5
54DF
330
4A40
100
AcDbDictionary
280
     1
  3
ACAD_XREC_ROUNDTRIP
360
54E0
  0
XRECORD
  5
54DE
102
{ACAD_REACTORS
330
54DD
102
}
330
54DD
100
AcDbXrecord
102
MATERIAL
148
0.0
149
0.0
149
0.0
 93
        0
 94
      127
282
     0
 72
     1
 77
     1
171
     1
175
     1
179
     1
273
     0
  0
XRECORD
  5
54DC
102
{ACAD_REACTORS
330
54DB
102
}
330
54DB
100
AcDbXrecord
102
MATERIAL
148
0.0
149
0.0
149
0.0
 93
        0
 94
      127
282
     0
 72
     1
 77
     1
171
     1
175
     1
179
     1
273
     0
  0
XRECORD
  5
54E0
102
{ACAD_REACTORS
330
54DF
102
}
330
54DF
100
AcDbXrecord
102
MATERIAL
148
0.0
149
0.0
149
0.0
 93
        0
 94
      127
282
     0
 72
     1
 77
     1
171
     1
175
     1
179
     1
273
     0
  0
ENDSEC
  0
EOF
