  0
SECTION
  2
HEADER
  9
$ACADVER
  1
AC1014
  9
$ACADMAINTVER
 70
     9
  9
$DWGCODEPAGE
  3
ANSI_932
  9
$INSBASE
 10
0.0
 20
0.0
 30
0.0
  9
$EXTMIN
 10
-24.977623244654
 20
230.424391670373
 30
0.0
  9
$EXTMAX
 10
736.620865047273
 20
609.854226908591
 30
0.0
  9
$LIMMIN
 10
-360.747566795242
 20
4.457354754526
  9
$LIMMAX
 10
-162.153696144267
 20
287.675440264018
  9
$ORTHOMODE
 70
     0
  9
$REGENMODE
 70
     1
  9
$FILLMODE
 70
     1
  9
$QTEXTMODE
 70
     0
  9
$MIRRTEXT
 70
     1
  9
$DRAGMODE
 70
     2
  9
$LTSCALE
 40
1.0
  9
$OSMODE
 70
   935
  9
$ATTMODE
 70
     1
  9
$TEXTSIZE
 40
2.333873885063
  9
$TRACEWID
 40
1.0
  9
$TEXTSTYLE
  7
STANDARD
  9
$CLAYER
  8
寸法線
  9
$CELTYPE
  6
BYLAYER
  9
$CECOLOR
 62
   256
  9
$CELTSCALE
 40
10.0
  9
$DELOBJ
 70
     1
  9
$DISPSILH
 70
     0
  9
$DIMSCALE
 40
1.0
  9
$DIMASZ
 40
6.0
  9
$DIMEXO
 40
0.625
  9
$DIMDLI
 40
3.75
  9
$DIMRND
 40
0.0
  9
$DIMDLE
 40
0.0
  9
$DIMEXE
 40
1.25
  9
$DIMTP
 40
0.1
  9
$DIMTM
 40
0.1
  9
$DIMTXT
 40
5.0
  9
$DIMCEN
 40
2.5
  9
$DIMTSZ
 40
0.0
  9
$DIMTOL
 70
     0
  9
$DIMLIM
 70
     0
  9
$DIMTIH
 70
     0
  9
$DIMTOH
 70
     0
  9
$DIMSE1
 70
     0
  9
$DIMSE2
 70
     0
  9
$DIMTAD
 70
     1
  9
$DIMZIN
 70
     8
  9
$DIMBLK
  1
OPEN30
  9
$DIMASO
 70
     1
  9
$DIMSHO
 70
     1
  9
$DIMPOST
  1

  9
$DIMAPOST
  1

  9
$DIMALT
 70
     0
  9
$DIMALTD
 70
     2
  9
$DIMALTF
 40
0.0394
  9
$DIMLFAC
 40
1.0
  9
$DIMTOFL
 70
     1
  9
$DIMTVP
 40
1.0
  9
$DIMTIX
 70
     0
  9
$DIMSOXD
 70
     0
  9
$DIMSAH
 70
     0
  9
$DIMBLK1
  1

  9
$DIMBLK2
  1

  9
$DIMSTYLE
  2
ISO-25
  9
$DIMCLRD
 70
     0
  9
$DIMCLRE
 70
     0
  9
$DIMCLRT
 70
     0
  9
$DIMTFAC
 40
1.0
  9
$DIMGAP
 40
0.625
  9
$DIMJUST
 70
     0
  9
$DIMSD1
 70
     0
  9
$DIMSD2
 70
     0
  9
$DIMTOLJ
 70
     1
  9
$DIMTZIN
 70
     0
  9
$DIMALTZ
 70
     0
  9
$DIMALTTZ
 70
     0
  9
$DIMFIT
 70
     3
  9
$DIMUPT
 70
     0
  9
$DIMUNIT
 70
     2
  9
$DIMDEC
 70
     1
  9
$DIMTDEC
 70
     1
  9
$DIMALTU
 70
     2
  9
$DIMALTTD
 70
     2
  9
$DIMTXSTY
  7
STANDARD
  9
$DIMAUNIT
 70
     0
  9
$LUNITS
 70
     2
  9
$LUPREC
 70
     4
  9
$SKETCHINC
 40
1.0
  9
$FILLETRAD
 40
6.5
  9
$AUNITS
 70
     0
  9
$AUPREC
 70
     0
  9
$MENU
  1
.
  9
$ELEVATION
 40
0.0
  9
$PELEVATION
 40
0.0
  9
$THICKNESS
 40
0.0
  9
$LIMCHECK
 70
     0
  9
$CHAMFERA
 40
10.0
  9
$CHAMFERB
 40
10.0
  9
$CHAMFERC
 40
20.0
  9
$CHAMFERD
 40
0.0
  9
$SKPOLY
 70
     0
  9
$TDCREATE
 40
2450576.597302431
  9
$TDUPDATE
 40
2457269.379456366
  9
$TDINDWG
 40
1.3656373495
  9
$TDUSRTIMER
 40
1.3656373495
  9
$USRTIMER
 70
     1
  9
$ANGBASE
 50
0.0
  9
$ANGDIR
 70
     0
  9
$PDMODE
 70
     0
  9
$PDSIZE
 40
0.0
  9
$PLINEWID
 40
0.0
  9
$COORDS
 70
     0
  9
$SPLFRAME
 70
     0
  9
$SPLINETYPE
 70
     6
  9
$SPLINESEGS
 70
     8
  9
$ATTDIA
 70
     0
  9
$ATTREQ
 70
     1
  9
$HANDLING
 70
     1
  9
$HANDSEED
  5
4FA2
  9
$SURFTAB1
 70
     6
  9
$SURFTAB2
 70
     6
  9
$SURFTYPE
 70
     6
  9
$SURFU
 70
     6
  9
$SURFV
 70
     6
  9
$UCSNAME
  2

  9
$UCSORG
 10
0.0
 20
0.0
 30
0.0
  9
$UCSXDIR
 10
1.0
 20
0.0
 30
0.0
  9
$UCSYDIR
 10
0.0
 20
1.0
 30
0.0
  9
$PUCSNAME
  2

  9
$PUCSORG
 10
0.0
 20
0.0
 30
0.0
  9
$PUCSXDIR
 10
1.0
 20
0.0
 30
0.0
  9
$PUCSYDIR
 10
0.0
 20
1.0
 30
0.0
  9
$USERI1
 70
     0
  9
$USERI2
 70
     0
  9
$USERI3
 70
     0
  9
$USERI4
 70
     0
  9
$USERI5
 70
     0
  9
$USERR1
 40
0.0
  9
$USERR2
 40
0.0
  9
$USERR3
 40
0.0
  9
$USERR4
 40
0.0
  9
$USERR5
 40
0.0
  9
$WORLDVIEW
 70
     1
  9
$SHADEDGE
 70
     3
  9
$SHADEDIF
 70
    70
  9
$TILEMODE
 70
     0
  9
$MAXACTVP
 70
    16
  9
$PINSBASE
 10
0.0
 20
0.0
 30
0.0
  9
$PLIMCHECK
 70
     0
  9
$PEXTMIN
 10
4.746305129083
 20
1.396645458131
 30
0.0
  9
$PEXTMAX
 10
404.746305129083
 20
281.396645458131
 30
0.0
  9
$PLIMMIN
 10
-6.946593322754
 20
-6.94658241272
  9
$PLIMMAX
 10
417.718108215332
 20
293.315276107788
  9
$UNITMODE
 70
     0
  9
$VISRETAIN
 70
     0
  9
$PLINEGEN
 70
     0
  9
$PSLTSCALE
 70
     1
  9
$TREEDEPTH
 70
  3020
  9
$PICKSTYLE
 70
     1
  9
$CMLSTYLE
  2
STANDARD
  9
$CMLJUST
 70
     0
  9
$CMLSCALE
 40
1.0
  9
$PROXYGRAPHICS
 70
     1
  9
$MEASUREMENT
 70
     1
  0
ENDSEC
  0
SECTION
  2
CLASSES
  0
CLASS
  1
ACDBDICTIONARYWDFLT
  2
AcDbDictionaryWithDefault
  3
ObjectDBX Classes
 90
        0
280
     0
281
     0
  0
CLASS
  1
ACDBPLACEHOLDER
  2
AcDbPlaceHolder
  3
ObjectDBX Classes
 90
        0
280
     0
281
     0
  0
CLASS
  1
LAYOUT
  2
AcDbLayout
  3
ObjectDBX Classes
 90
        0
280
     0
281
     0
  0
CLASS
  1
SORTENTSTABLE
  2
AcDbSortentsTable
  3
ObjectDBX Classes
 90
        0
280
     0
281
     0
  0
CLASS
  1
VISUALSTYLE
  2
AcDbVisualStyle
  3
ObjectDBX Classes
 90
     4095
280
     0
281
     0
  0
CLASS
  1
SCALE
  2
AcDbScale
  3
ObjectDBX Classes
 90
     1153
280
     0
281
     0
  0
CLASS
  1
MATERIAL
  2
AcDbMaterial
  3
ObjectDBX Classes
 90
     1153
280
     0
281
     0
  0
CLASS
  1
TABLESTYLE
  2
AcDbTableStyle
  3
ObjectDBX Classes
 90
     4095
280
     0
281
     0
  0
CLASS
  1
MLEADERSTYLE
  2
AcDbMLeaderStyle
  3
ACDB_MLEADERSTYLE_CLASS
 90
     4095
280
     0
281
     0
  0
CLASS
  1
SUN
  2
AcDbSun
  3
SCENEOE
 90
     1153
280
     0
281
     0
  0
CLASS
  1
DICTIONARYVAR
  2
AcDbDictionaryVar
  3
ObjectDBX Classes
 90
        0
280
     0
281
     0
  0
CLASS
  1
CELLSTYLEMAP
  2
AcDbCellStyleMap
  3
ObjectDBX Classes
 90
     1152
280
     0
281
     0
  0
CLASS
  1
XRECORD
  2
AcDbXrecord
  3
ObjectDBX Classes
 90
        0
280
     0
281
     0
  0
CLASS
  1
LWPOLYLINE
  2
AcDbPolyline
  3
ObjectDBX Classes
 90
        0
280
     0
281
     1
  0
CLASS
  1
HATCH
  2
AcDbHatch
  3
ObjectDBX Classes
 90
        0
280
     0
281
     1
  0
ENDSEC
  0
SECTION
  2
TABLES
  0
TABLE
  2
VPORT
  5
8
102
{ACAD_XDICTIONARY
360
4F9A
102
}
330
0
100
AcDbSymbolTable
 70
     2
  0
VPORT
  5
418A
330
8
100
AcDbSymbolTableRecord
100
AcDbViewportTableRecord
  2
*ACTIVE
 70
     0
 10
0.0
 20
0.0
 11
1.0
 21
1.0
 12
355.82162090131
 22
420.139309289482
 13
0.0
 23
0.0
 14
1.0
 24
1.0
 15
0.0
 25
0.0
 16
0.0
 26
0.0
 36
1.0
 17
0.0
 27
0.0
 37
0.0
 40
422.36845115726
 41
1.839224629418
 42
50.0
 43
0.0
 44
0.0
 50
0.0
 51
0.0
 71
    16
 72
   100
 73
     1
 74
     0
 75
     0
 76
     0
 77
     0
 78
     0
  0
ENDTAB
  0
TABLE
  2
LTYPE
  5
5
330
0
100
AcDbSymbolTable
 70
     4
  0
LTYPE
  5
14
330
5
100
AcDbSymbolTableRecord
100
AcDbLinetypeTableRecord
  2
BYBLOCK
 70
     0
  3

 72
    65
 73
     0
 40
0.0
  0
LTYPE
  5
15
330
5
100
AcDbSymbolTableRecord
100
AcDbLinetypeTableRecord
  2
BYLAYER
 70
     0
  3

 72
    65
 73
     0
 40
0.0
  0
LTYPE
  5
16
330
5
100
AcDbSymbolTableRecord
100
AcDbLinetypeTableRecord
  2
CONTINUOUS
 70
     0
  3
Solid line
 72
    65
 73
     0
 40
0.0
  0
LTYPE
  5
1EC
330
5
100
AcDbSymbolTableRecord
100
AcDbLinetypeTableRecord
  2
CENTER
 70
     0
  3
____ _ ____ _ ____ _ ____ _ ____ _ ____ _ ____ 
 72
    65
 73
     4
 40
2.0
 49
1.25
 74
     0
 49
-0.25
 74
     0
 49
0.25
 74
     0
 49
-0.25
 74
     0
  0
LTYPE
  5
1ED
330
5
100
AcDbSymbolTableRecord
100
AcDbLinetypeTableRecord
  2
DASHED
 70
     0
  3
__ __ __ __ __ __ __ __ __ __ __ __ __ __ __ __
 72
    65
 73
     2
 40
0.75
 49
0.5
 74
     0
 49
-0.25
 74
     0
  0
LTYPE
  5
2B1F
330
5
100
AcDbSymbolTableRecord
100
AcDbLinetypeTableRecord
  2
DASHDOT
 70
     0
  3
一点鎖線
 72
    65
 73
     4
 40
25.6
 49
20.0
 74
     0
 49
-2.0
 74
     0
 49
1.6
 74
     0
 49
-2.0
 74
     0
  0
ENDTAB
  0
TABLE
  2
LAYER
  5
2
102
{ACAD_XDICTIONARY
360
29EA
102
}
330
0
100
AcDbSymbolTable
 70
    16
  0
LAYER
  5
F
330
2
100
AcDbSymbolTableRecord
100
AcDbLayerTableRecord
  2
0
 70
     0
 62
     7
  6
CONTINUOUS
  0
LAYER
  5
61
330
2
100
AcDbSymbolTableRecord
100
AcDbLayerTableRecord
  2
図枠太線
 70
     0
 62
   251
  6
CONTINUOUS
  0
LAYER
  5
62
330
2
100
AcDbSymbolTableRecord
100
AcDbLayerTableRecord
  2
図枠細線
 70
     0
 62
   252
  6
CONTINUOUS
  0
LAYER
  5
63
330
2
100
AcDbSymbolTableRecord
100
AcDbLayerTableRecord
  2
図枠ロゴマーク
 70
     0
 62
   253
  6
CONTINUOUS
  0
LAYER
  5
1EF
330
2
100
AcDbSymbolTableRecord
100
AcDbLayerTableRecord
  2
外形線
 70
     0
 62
     7
  6
CONTINUOUS
  0
LAYER
  5
1F0
330
2
100
AcDbSymbolTableRecord
100
AcDbLayerTableRecord
  2
寸法線
 70
     0
 62
     1
  6
CONTINUOUS
  0
LAYER
  5
1F1
330
2
100
AcDbSymbolTableRecord
100
AcDbLayerTableRecord
  2
中心線
 70
     0
 62
     4
  6
CENTER
  0
LAYER
  5
1F4
330
2
100
AcDbSymbolTableRecord
100
AcDbLayerTableRecord
  2
DEFPOINTS
 70
     0
 62
     7
  6
CONTINUOUS
  0
LAYER
  5
2AA2
330
2
100
AcDbSymbolTableRecord
100
AcDbLayerTableRecord
  2
下書線
 70
     0
 62
     2
  6
CONTINUOUS
  0
LAYER
  5
2AA3
330
2
100
AcDbSymbolTableRecord
100
AcDbLayerTableRecord
  2
隠れ線
 70
     0
 62
     3
  6
DASHED
  0
LAYER
  5
2AA4
330
2
100
AcDbSymbolTableRecord
100
AcDbLayerTableRecord
  2
細線
 70
     0
 62
     6
  6
CONTINUOUS
  0
LAYER
  5
2AA5
330
2
100
AcDbSymbolTableRecord
100
AcDbLayerTableRecord
  2
太線
 70
     0
 62
   190
  6
CONTINUOUS
  0
LAYER
  5
2B20
330
2
100
AcDbSymbolTableRecord
100
AcDbLayerTableRecord
  2
LAY-1
 70
     0
 62
     7
  6
CONTINUOUS
  0
LAYER
  5
2B21
330
2
100
AcDbSymbolTableRecord
100
AcDbLayerTableRecord
  2
LAY-2
 70
     0
 62
     7
  6
CONTINUOUS
  0
LAYER
  5
2B22
330
2
100
AcDbSymbolTableRecord
100
AcDbLayerTableRecord
  2
LAY-5
 70
     0
 62
     7
  6
CONTINUOUS
  0
LAYER
  5
2B23
330
2
100
AcDbSymbolTableRecord
100
AcDbLayerTableRecord
  2
LAY-6
 70
     0
 62
     7
  6
CONTINUOUS
  0
ENDTAB
  0
TABLE
  2
STYLE
  5
3
330
0
100
AcDbSymbolTable
 70
     2
  0
STYLE
  5
10
330
3
100
AcDbSymbolTableRecord
100
AcDbTextStyleTableRecord
  2
STANDARD
 70
     0
 40
0.0
 41
1.0
 50
0.0
 71
     0
 42
2.333873885063
  3
ISOCP
  4
bigfont.shx
  0
STYLE
  5
64
330
3
100
AcDbSymbolTableRecord
100
AcDbTextStyleTableRecord
  2
EXCADSTD
 70
     0
 40
0.0
 41
1.0
 50
0.0
 71
     0
 42
0.2
  3
monotxt
  4
bigfont
  0
ENDTAB
  0
TABLE
  2
VIEW
  5
6
330
0
100
AcDbSymbolTable
 70
     0
  0
ENDTAB
  0
TABLE
  2
UCS
  5
7
330
0
100
AcDbSymbolTable
 70
     0
  0
ENDTAB
  0
TABLE
  2
APPID
  5
9
330
0
100
AcDbSymbolTable
 70
     3
  0
APPID
  5
11
330
9
100
AcDbSymbolTableRecord
100
AcDbRegAppTableRecord
  2
ACAD
 70
     0
  0
APPID
  5
41D6
330
9
100
AcDbSymbolTableRecord
100
AcDbRegAppTableRecord
  2
ACADANNOTATIVE
 70
     0
  0
APPID
  5
4363
330
9
100
AcDbSymbolTableRecord
100
AcDbRegAppTableRecord
  2
ACAD_MLEADERVER
 70
     0
  0
ENDTAB
  0
TABLE
  2
DIMSTYLE
  5
A
330
0
100
AcDbSymbolTable
 70
     2
  0
DIMSTYLE
105
1D
330
A
100
AcDbSymbolTableRecord
100
AcDbDimStyleTableRecord
  2
STANDARD
 70
     0
  3

  4

  5

  6

  7

 40
1.0
 41
0.18
 42
0.0625
 43
0.38
 44
0.18
 45
0.0
 46
0.0
 47
0.0
 48
0.0
140
0.18
141
0.09
142
0.0
143
25.4
144
1.0
145
0.0
146
1.0
147
0.09
 71
     0
 72
     0
 73
     1
 74
     1
 75
     0
 76
     0
 77
     0
 78
     0
170
     0
171
     2
172
     0
173
     0
174
     0
175
     0
176
     0
177
     0
178
     0
270
     2
271
     4
272
     4
273
     2
274
     2
340
10
275
     0
280
     0
281
     0
282
     0
283
     1
284
     0
285
     0
286
     0
287
     3
288
     0
  0
DIMSTYLE
105
24
102
{ACAD_REACTORS
330
3BC4
330
3BC5
330
3C6B
330
3DD4
330
3DE1
330
3DF6
102
}
330
A
100
AcDbSymbolTableRecord
100
AcDbDimStyleTableRecord
  2
ISO-25
 70
     0
  3

  4

  5

  6

  7

 40
1.0
 41
2.5
 42
0.625
 43
3.75
 44
1.25
 45
0.0
 46
0.0
 47
0.0
 48
0.0
140
2.5
141
2.5
142
0.0
143
0.0394
144
1.0
145
1.0
146
1.0
147
0.625
 71
     0
 72
     0
 73
     1
 74
     0
 75
     0
 76
     0
 77
     1
 78
     8
170
     0
171
     2
172
     1
173
     0
174
     0
175
     0
176
     0
177
     0
178
     0
270
     2
271
     4
272
     4
273
     2
274
     2
340
10
275
     0
280
     0
281
     0
282
     0
283
     1
284
     0
285
     0
286
     0
287
     3
288
     0
  0
ENDTAB
  0
TABLE
  2
BLOCK_RECORD
  5
1
330
0
100
AcDbSymbolTable
 70
    16
  0
BLOCK_RECORD
  5
1A
330
1
100
AcDbSymbolTableRecord
100
AcDbBlockTableRecord
  2
*MODEL_SPACE
  0
BLOCK_RECORD
  5
28FB
330
1
100
AcDbSymbolTableRecord
100
AcDbBlockTableRecord
  2
*PAPER_SPACE
  0
BLOCK_RECORD
  5
65
330
1
100
AcDbSymbolTableRecord
100
AcDbBlockTableRecord
  2
A$C3392
  0
BLOCK_RECORD
  5
29BF
330
1
100
AcDbSymbolTableRecord
100
AcDbBlockTableRecord
  2
A4横用_タイトル
1001
ACAD
1000
DesignCenter Data
1002
{
1070
     1
1070
     4
1002
}
  0
BLOCK_RECORD
  5
29F4
330
1
100
AcDbSymbolTableRecord
100
AcDbBlockTableRecord
  2
A4縦用_タイトル
1001
ACAD
1000
DesignCenter Data
1002
{
1070
     1
1070
     4
1002
}
  0
BLOCK_RECORD
  5
2A32
330
1
100
AcDbSymbolTableRecord
100
AcDbBlockTableRecord
  2
A3横用_タイトル
1001
ACAD
1000
DesignCenter Data
1002
{
1070
     1
1070
     4
1002
}
  0
BLOCK_RECORD
  5
2A6C
330
1
100
AcDbSymbolTableRecord
100
AcDbBlockTableRecord
  2
A3縦用_タイトル
1001
ACAD
1000
DesignCenter Data
1002
{
1070
     1
1070
     4
1002
}
  0
BLOCK_RECORD
  5
2AF4
330
1
100
AcDbSymbolTableRecord
100
AcDbBlockTableRecord
  2
_OPEN30
  0
BLOCK_RECORD
  5
3CA7
330
1
100
AcDbSymbolTableRecord
100
AcDbBlockTableRecord
  2
*D6
  0
BLOCK_RECORD
  5
3CCB
330
1
100
AcDbSymbolTableRecord
100
AcDbBlockTableRecord
  2
*D7
  0
BLOCK_RECORD
  5
3CD7
330
1
100
AcDbSymbolTableRecord
100
AcDbBlockTableRecord
  2
*D8
  0
BLOCK_RECORD
  5
3DD5
330
1
100
AcDbSymbolTableRecord
100
AcDbBlockTableRecord
  2
*D9
  0
BLOCK_RECORD
  5
3DE2
330
1
100
AcDbSymbolTableRecord
100
AcDbBlockTableRecord
  2
*D10
  0
BLOCK_RECORD
  5
3DF7
330
1
100
AcDbSymbolTableRecord
100
AcDbBlockTableRecord
  2
*D11
  0
BLOCK_RECORD
  5
4415
330
1
100
AcDbSymbolTableRecord
100
AcDbBlockTableRecord
  2
44D00A4
  0
ENDTAB
  0
ENDSEC
  0
SECTION
  2
BLOCKS
  0
BLOCK
  5
1B
330
1A
100
AcDbEntity
  8
0
100
AcDbBlockBegin
  2
*MODEL_SPACE
 70
     0
 10
0.0
 20
0.0
 30
0.0
  3
*MODEL_SPACE
  1

  0
ENDBLK
  5
1C
330
1A
100
AcDbEntity
  8
0
100
AcDbBlockEnd
  0
BLOCK
  5
28FD
330
28FB
100
AcDbEntity
 67
     1
  8
0
 48
10.0
100
AcDbBlockBegin
  2
*PAPER_SPACE
 70
     0
 10
0.0
 20
0.0
 30
0.0
  3
*PAPER_SPACE
  1

  0
ENDBLK
  5
28FE
330
28FB
100
AcDbEntity
 67
     1
  8
0
 48
10.0
100
AcDbBlockEnd
  0
BLOCK
  5
93
330
65
100
AcDbEntity
  8
0
100
AcDbBlockBegin
  2
A$C3392
 70
     0
 10
0.0
 20
0.0
 30
0.0
  3
A$C3392
  1

  0
LINE
  5
66
330
65
100
AcDbEntity
  8
図枠太線
  6
CONTINUOUS
100
AcDbLine
 10
211.858584505185
 20
30.927375675439
 30
0.0
 11
211.858584505185
 21
0.927375675439
 31
0.0
  0
LINE
  5
67
330
65
100
AcDbEntity
  8
図枠細線
  6
CONTINUOUS
100
AcDbLine
 10
231.858592505185
 20
15.927377675439
 30
0.0
 11
287.858592505185
 21
15.927375675439
 31
0.0
  0
LINE
  5
68
330
65
100
AcDbEntity
  8
図枠細線
  6
CONTINUOUS
100
AcDbLine
 10
211.858592505185
 20
15.927377675439
 30
0.0
 11
231.858592505185
 21
15.927377675439
 31
0.0
  0
LINE
  5
69
330
65
100
AcDbEntity
  8
図枠太線
  6
CONTINUOUS
 62
   251
100
AcDbLine
 10
1.858584505185
 20
0.927375675439
 30
0.0
 11
1.858584505185
 21
275.927375675439
 31
0.0
  0
TEXT
  5
6A
330
65
100
AcDbEntity
  8
図枠細線
  6
CONTINUOUS
 62
   252
100
AcDbText
 10
351.358592505185
 20
28.427377675439
 30
0.0
 40
2.0
  1
ＴＩＴＬＥ
 41
0.903614457831
  7
EXCADSTD
 72
     5
 11
361.358592505185
 21
28.427377675439
 31
0.0
100
AcDbText
  0
TEXT
  5
6B
330
65
100
AcDbEntity
  8
図枠細線
  6
CONTINUOUS
 62
   252
100
AcDbText
 10
345.358592505185
 20
28.427377675439
 30
0.0
 40
2.0
  1
名称
 41
1.171875
  7
EXCADSTD
 72
     5
 11
350.358592505185
 21
28.427377675439
 31
0.0
100
AcDbText
  0
TEXT
  5
6C
330
65
100
AcDbEntity
  8
図枠細線
  6
CONTINUOUS
 62
   252
100
AcDbText
 10
274.358592505185
 20
25.927377675439
 30
0.0
 40
2.0
  1
ＤＲＡＷＮ
 41
0.882352941176
  7
EXCADSTD
 72
     5
 11
284.358592505185
 21
25.927377675439
 31
0.0
100
AcDbText
  0
TEXT
  5
6D
330
65
100
AcDbEntity
  8
図枠細線
  6
CONTINUOUS
 62
   252
100
AcDbText
 10
260.358592505185
 20
25.927377675439
 30
0.0
 40
2.0
  1
ＤＥＳＩＧＮＥＤ
 41
0.713043472041
  7
EXCADSTD
 72
     5
 11
273.478592390744
 21
25.927377675439
 31
0.0
100
AcDbText
  0
TEXT
  5
6E
330
65
100
AcDbEntity
  8
図枠細線
  6
CONTINUOUS
 62
   252
100
AcDbText
 10
246.358592505185
 20
25.927377675439
 30
0.0
 40
2.0
  1
ＣＨＥＣＫＥＤ
 41
0.831249989569
  7
EXCADSTD
 72
     5
 11
259.658592338292
 21
25.927377675439
 31
0.0
100
AcDbText
  0
TEXT
  5
6F
330
65
100
AcDbEntity
  8
図枠細線
  6
CONTINUOUS
 62
   252
100
AcDbText
 10
274.358592505185
 20
28.427377675439
 30
0.0
 40
2.0
  1
製図
 41
1.209677419355
  7
EXCADSTD
 72
     5
 11
279.358592505185
 21
28.427377675439
 31
0.0
100
AcDbText
  0
TEXT
  5
70
330
65
100
AcDbEntity
  8
図枠細線
  6
CONTINUOUS
 62
   252
100
AcDbText
 10
260.358592505185
 20
28.427377675439
 30
0.0
 40
2.0
  1
設計
 41
1.171875
  7
EXCADSTD
 72
     5
 11
265.358592505185
 21
28.427377675439
 31
0.0
100
AcDbText
  0
TEXT
  5
71
330
65
100
AcDbEntity
  8
図枠細線
  6
CONTINUOUS
 62
   252
100
AcDbText
 10
246.358592505185
 20
28.427377675439
 30
0.0
 40
2.0
  1
検図
 41
1.209677419355
  7
EXCADSTD
 72
     5
 11
251.358592505185
 21
28.427377675439
 31
0.0
100
AcDbText
  0
TEXT
  5
72
330
65
100
AcDbEntity
  8
図枠細線
  6
CONTINUOUS
 62
   252
100
AcDbText
 10
232.358592505185
 20
25.927377675439
 30
0.0
 40
2.0
  1
ＡＰＰＲＯＶＥＤ
 41
0.695652184279
  7
EXCADSTD
 72
     5
 11
245.15859269592
 21
25.927377675439
 31
0.0
100
AcDbText
  0
TEXT
  5
73
330
65
100
AcDbEntity
  8
図枠細線
  6
CONTINUOUS
 62
   252
100
AcDbText
 10
232.358592505185
 20
28.427377675439
 30
0.0
 40
2.0
  1
承認
 41
1.171875
  7
EXCADSTD
 72
     5
 11
237.358592505185
 21
28.427377675439
 31
0.0
100
AcDbText
  0
TEXT
  5
74
330
65
100
AcDbEntity
  8
図枠細線
  6
CONTINUOUS
 62
   252
100
AcDbText
 10
290.069888505185
 20
2.574868675439
 30
0.0
 40
3.5
  1
ＴＯＷＡ　ＳＥＩＤＥＮ　ＩＮＤＵＳＴＲＩＡＬ　ＣＯ．，ＬＴＤ．
 41
0.414568012377
  7
EXCADSTD
 72
     5
 11
342.692388209546
 21
2.574868675439
 31
0.0
100
AcDbText
  0
TEXT
  5
75
330
65
100
AcDbEntity
  8
図枠ロゴマーク
  6
CONTINUOUS
 62
   253
100
AcDbText
 10
290.107348505185
 20
7.519769675439
 30
0.0
 40
7.0
  1
東和制電工業株式会社
 41
0.639204545455
  7
EXCADSTD
 72
     5
 11
342.607348505185
 21
7.519769675439
 31
0.0
100
AcDbText
  0
TEXT
  5
76
330
65
100
AcDbEntity
  8
図枠細線
  6
CONTINUOUS
 62
   252
100
AcDbText
 10
232.499705505185
 20
5.759088675439
 30
0.0
 40
2.0
  1
ＰＲＯＪＥＣＴＩＯＮ
 41
0.754285710199
  7
EXCADSTD
 72
     5
 11
250.099705409817
 21
5.759088675439
 31
0.0
100
AcDbText
  0
TEXT
  5
77
330
65
100
AcDbEntity
  8
図枠細線
  6
CONTINUOUS
 62
   252
100
AcDbText
 10
232.574629505185
 20
8.681077675439
 30
0.0
 40
2.0
  1
ＴＨＩＲＤ　ＡＮＧＬＥ
 41
0.691099486738
  7
EXCADSTD
 72
     5
 11
250.174629767445
 21
8.681077675439
 31
0.0
100
AcDbText
  0
TEXT
  5
78
330
65
100
AcDbEntity
  8
図枠細線
  6
CONTINUOUS
 62
   252
100
AcDbText
 10
256.823999505185
 20
13.427377675439
 30
0.0
 40
2.0
  1
ＳＣＡＬＥ
 41
0.903614457831
  7
EXCADSTD
 72
     5
 11
266.823999505185
 21
13.427377675439
 31
0.0
100
AcDbText
  0
TEXT
  5
79
330
65
100
AcDbEntity
  8
図枠細線
  6
CONTINUOUS
 62
   252
100
AcDbText
 10
274.858592505185
 20
13.427377675439
 30
0.0
 40
2.0
  1
ＤＡＴＥ
 41
0.923076923077
  7
EXCADSTD
 72
     5
 11
282.858592505185
 21
13.427377675439
 31
0.0
100
AcDbText
  0
TEXT
  5
7A
330
65
100
AcDbEntity
  8
図枠細線
  6
CONTINUOUS
 62
   252
100
AcDbText
 10
356.358592505185
 20
13.427377675439
 30
0.0
 40
2.0
  1
ＤＲＧ．ＮＯ．
 41
0.9375
  7
EXCADSTD
 72
     5
 11
370.358592505185
 21
13.427377675439
 31
0.0
100
AcDbText
  0
TEXT
  5
7B
330
65
100
AcDbEntity
  8
図枠細線
  6
CONTINUOUS
 62
   252
100
AcDbText
 10
345.358592505185
 20
13.427377675439
 30
0.0
 40
2.0
  1
図面番号
 41
1.102941176471
  7
EXCADSTD
 72
     5
 11
355.358592505185
 21
13.427377675439
 31
0.0
100
AcDbText
  0
TEXT
  5
7C
330
65
100
AcDbEntity
  8
図枠細線
  6
CONTINUOUS
 62
   252
100
AcDbText
 10
269.358592505185
 20
13.427377675439
 30
0.0
 40
2.0
  1
日付
 41
1.171875
  7
EXCADSTD
 72
     5
 11
274.358592505185
 21
13.427377675439
 31
0.0
100
AcDbText
  0
TEXT
  5
7D
330
65
100
AcDbEntity
  8
図枠細線
  6
CONTINUOUS
 62
   252
100
AcDbText
 10
251.451512505185
 20
13.427377675439
 30
0.0
 40
2.0
  1
尺度
 41
1.171875
  7
EXCADSTD
 72
     5
 11
256.451512505185
 21
13.427377675439
 31
0.0
100
AcDbText
  0
TEXT
  5
7E
330
65
100
AcDbEntity
  8
図枠細線
  6
CONTINUOUS
 62
   252
100
AcDbText
 10
232.358592505185
 20
13.427377675439
 30
0.0
 40
2.0
  1
第三角法
 41
1.102941176471
  7
EXCADSTD
 72
     5
 11
242.358592505185
 21
13.427377675439
 31
0.0
100
AcDbText
  0
TEXT
  5
7F
330
65
100
AcDbEntity
  8
図枠細線
  6
CONTINUOUS
 62
   252
100
AcDbText
 10
212.358592505185
 20
28.427377675439
 30
0.0
 40
2.0
  1
ＮＯＴＥ
 41
0.923076923077
  7
EXCADSTD
 72
     5
 11
220.358592505185
 21
28.427377675439
 31
0.0
100
AcDbText
  0
LINE
  5
80
330
65
100
AcDbEntity
  8
図枠細線
  6
CONTINUOUS
 62
   252
100
AcDbLine
 10
287.858592505185
 20
23.427375675439
 30
0.0
 11
344.858592505185
 21
23.427375675439
 31
0.0
  0
LINE
  5
81
330
65
100
AcDbEntity
  8
図枠太線
  6
CONTINUOUS
 62
   251
100
AcDbLine
 10
287.858584505185
 20
15.927375675439
 30
0.0
 11
344.858592505185
 21
15.927375675439
 31
0.0
  0
LINE
  5
82
330
65
100
AcDbEntity
  8
図枠細線
  6
CONTINUOUS
 62
   252
100
AcDbLine
 10
344.858592505185
 20
15.927375675439
 30
0.0
 11
401.858584505185
 21
15.927375675439
 31
0.0
  0
LINE
  5
83
330
65
100
AcDbEntity
  8
図枠太線
  6
CONTINUOUS
 62
   251
100
AcDbLine
 10
344.858592505185
 20
0.927377675439
 30
0.0
 11
344.858592505185
 21
30.927375675439
 31
0.0
  0
LINE
  5
84
330
65
100
AcDbEntity
  8
図枠太線
  6
CONTINUOUS
 62
   251
100
AcDbLine
 10
287.858592505185
 20
0.927377675439
 30
0.0
 11
287.858592505185
 21
30.927375675439
 31
0.0
  0
LINE
  5
85
330
65
100
AcDbEntity
  8
図枠細線
  6
CONTINUOUS
 62
   252
100
AcDbLine
 10
268.858592505185
 20
0.927377675439
 30
0.0
 11
268.858592505185
 21
15.927375675439
 31
0.0
  0
LINE
  5
86
330
65
100
AcDbEntity
  8
図枠細線
  6
CONTINUOUS
 62
   252
100
AcDbLine
 10
250.858592505185
 20
0.927377675439
 30
0.0
 11
250.858592505185
 21
15.927375675439
 31
0.0
  0
LINE
  5
87
330
65
100
AcDbEntity
  8
図枠細線
  6
CONTINUOUS
 62
   252
100
AcDbLine
 10
273.858592505185
 20
30.927375675439
 30
0.0
 11
273.858592505185
 21
15.927375675439
 31
0.0
  0
LINE
  5
88
330
65
100
AcDbEntity
  8
図枠細線
  6
CONTINUOUS
 62
   252
100
AcDbLine
 10
259.858592505185
 20
30.927375675439
 30
0.0
 11
259.858592505185
 21
15.927375675439
 31
0.0
  0
LINE
  5
89
330
65
100
AcDbEntity
  8
図枠細線
  6
CONTINUOUS
 62
   252
100
AcDbLine
 10
245.858592505185
 20
30.927375675439
 30
0.0
 11
245.858592505185
 21
15.927375675439
 31
0.0
  0
LINE
  5
8A
330
65
100
AcDbEntity
  8
図枠太線
  6
CONTINUOUS
 62
   251
100
AcDbLine
 10
231.858592505185
 20
0.927377675439
 30
0.0
 11
231.858592505185
 21
30.927375675439
 31
0.0
  0
LINE
  5
8B
330
65
100
AcDbEntity
  8
図枠細線
  6
CONTINUOUS
 62
   252
100
AcDbLine
 10
211.858592505185
 20
25.927375675439
 30
0.0
 11
231.858592505185
 21
25.927375675439
 31
0.0
  0
LINE
  5
8C
330
65
100
AcDbEntity
  8
図枠細線
  6
CONTINUOUS
 62
   252
100
AcDbLine
 10
211.858592505185
 20
20.927375675439
 30
0.0
 11
231.858592505185
 21
20.927375675439
 31
0.0
  0
LINE
  5
8D
330
65
100
AcDbEntity
  8
図枠細線
  6
CONTINUOUS
 62
   252
100
AcDbLine
 10
211.858592505185
 20
10.927375675439
 30
0.0
 11
231.858592505185
 21
10.927375675439
 31
0.0
  0
LINE
  5
8E
330
65
100
AcDbEntity
  8
図枠細線
  6
CONTINUOUS
 62
   252
100
AcDbLine
 10
211.858592505185
 20
5.927377675439
 30
0.0
 11
231.858592505185
 21
5.927377675439
 31
0.0
  0
LINE
  5
8F
330
65
100
AcDbEntity
  8
図枠太線
  6
CONTINUOUS
 62
   251
100
AcDbLine
 10
211.858592505185
 20
30.927375675439
 30
0.0
 11
401.858584505185
 21
30.927375675439
 31
0.0
  0
LINE
  5
90
330
65
100
AcDbEntity
  8
図枠太線
  6
CONTINUOUS
 62
   251
100
AcDbLine
 10
1.858584505185
 20
275.927375675439
 30
0.0
 11
401.858584505185
 21
275.927375675439
 31
0.0
  0
LINE
  5
91
330
65
100
AcDbEntity
  8
図枠太線
  6
CONTINUOUS
 62
   251
100
AcDbLine
 10
401.858584505185
 20
0.927375675439
 30
0.0
 11
401.858584505185
 21
275.927375675439
 31
0.0
  0
LINE
  5
92
330
65
100
AcDbEntity
  8
図枠太線
  6
CONTINUOUS
 62
   251
100
AcDbLine
 10
1.858584505185
 20
0.927375675439
 30
0.0
 11
401.858584505185
 21
0.927375675439
 31
0.0
  0
ENDBLK
  5
94
330
65
100
AcDbEntity
  8
0
100
AcDbBlockEnd
  0
BLOCK
  5
29C0
330
29BF
100
AcDbEntity
  8
0
100
AcDbBlockBegin
  2
A4横用_タイトル
 70
     0
 10
0.0
 20
0.0
 30
0.0
  3
A4横用_タイトル
  1

  0
LINE
  5
29C1
330
29BF
100
AcDbEntity
  8
図枠細線
  6
CONTINUOUS
100
AcDbLine
 10
75.061011071051
 20
16.806607253358
 30
0.0
 11
144.061011071051
 21
16.806604789072
 31
0.0
  0
LINE
  5
29C2
330
29BF
100
AcDbEntity
  8
図枠細線
  6
CONTINUOUS
 62
   252
100
AcDbLine
 10
4.061011071051
 20
11.806606253358
 30
0.0
 11
75.061011071051
 21
11.806606253358
 31
0.0
  0
LINE
  5
29C3
330
29BF
100
AcDbEntity
  8
図枠細線
  6
CONTINUOUS
 62
   252
100
AcDbLine
 10
4.061011071051
 20
21.806606253358
 30
0.0
 11
75.061011071051
 21
21.806606253358
 31
0.0
  0
LINE
  5
29C4
330
29BF
100
AcDbEntity
  8
図枠細線
  6
CONTINUOUS
 62
   252
100
AcDbLine
 10
4.061011071051
 20
26.806606253358
 30
0.0
 11
75.061011071051
 21
26.806606253358
 31
0.0
  0
LINE
  5
29C5
330
29BF
100
AcDbEntity
  8
図枠細線
  6
CONTINUOUS
100
AcDbLine
 10
4.061011071051
 20
16.806608253358
 30
0.0
 11
75.061011071051
 21
16.806608253358
 31
0.0
  0
TEXT
  5
29C6
330
29BF
100
AcDbEntity
  8
図枠細線
  6
CONTINUOUS
 62
   252
100
AcDbText
 10
76.405475827713
 20
9.560308253358
 30
0.0
 40
2.0
  1
ＴＨＩＲＤ　ＡＮＧＬＥ
 41
0.691099486738
  7
EXCADSTD
 72
     5
 11
94.005476089973
 21
9.560308253358
 31
0.0
100
AcDbText
  0
TEXT
  5
29C7
330
29BF
100
AcDbEntity
  8
図枠細線
  6
CONTINUOUS
 62
   252
100
AcDbText
 10
76.705775880921
 20
14.306608253358
 30
0.0
 40
2.0
  1
第三角法
 41
1.102941176471
  7
EXCADSTD
 72
     5
 11
86.705775880921
 21
14.306608253358
 31
0.0
100
AcDbText
  0
TEXT
  5
29C8
330
29BF
100
AcDbEntity
  8
図枠細線
  6
CONTINUOUS
 62
   252
100
AcDbText
 10
76.705775880921
 20
26.806608253358
 30
0.0
 40
2.0
  1
ＡＰＰＲＯＶＥＤ
 41
0.695652184279
  7
EXCADSTD
 72
     5
 11
89.505776071656
 21
26.806608253358
 31
0.0
100
AcDbText
  0
TEXT
  5
29C9
330
29BF
100
AcDbEntity
  8
図枠細線
  6
CONTINUOUS
 62
   252
100
AcDbText
 10
76.705775880921
 20
29.306608253358
 30
0.0
 40
2.0
  1
承認
 41
1.171875
  7
EXCADSTD
 72
     5
 11
81.705775880921
 21
29.306608253358
 31
0.0
100
AcDbText
  0
LINE
  5
29CA
330
29BF
100
AcDbEntity
  8
図枠細線
  6
CONTINUOUS
 62
   252
100
AcDbLine
 10
98.061011071051
 20
31.806606253358
 30
0.0
 11
98.061011071051
 21
16.806606253358
 31
0.0
  0
TEXT
  5
29CB
330
29BF
100
AcDbEntity
  8
図枠細線
  6
CONTINUOUS
 62
   252
100
AcDbText
 10
104.216531119804
 20
14.306608253358
 30
0.0
 40
2.0
  1
ＳＣＡＬＥ
 41
0.903614457831
  7
EXCADSTD
 72
     5
 11
114.216531119804
 21
14.306608253358
 31
0.0
100
AcDbText
  0
TEXT
  5
29CC
330
29BF
100
AcDbEntity
  8
図枠細線
  6
CONTINUOUS
 62
   252
100
AcDbText
 10
98.844044119804
 20
14.306608253358
 30
0.0
 40
2.0
  1
尺度
 41
1.171875
  7
EXCADSTD
 72
     5
 11
103.844044119804
 21
14.306608253358
 31
0.0
100
AcDbText
  0
TEXT
  5
29CD
330
29BF
100
AcDbEntity
  8
図枠細線
  6
CONTINUOUS
 62
   252
100
AcDbText
 10
98.968727707497
 20
26.806608253358
 30
0.0
 40
2.0
  1
ＣＨＥＣＫＥＤ
 41
0.831249989569
  7
EXCADSTD
 72
     5
 11
112.268727540604
 21
26.806608253358
 31
0.0
100
AcDbText
  0
TEXT
  5
29CE
330
29BF
100
AcDbEntity
  8
図枠細線
  6
CONTINUOUS
 62
   252
100
AcDbText
 10
98.968727707497
 20
29.306608253358
 30
0.0
 40
2.0
  1
検図
 41
1.209677419355
  7
EXCADSTD
 72
     5
 11
103.968727707497
 21
29.306608253358
 31
0.0
100
AcDbText
  0
LINE
  5
29CF
330
29BF
100
AcDbEntity
  8
図枠細線
  6
CONTINUOUS
 62
   252
100
AcDbLine
 10
121.061011071051
 20
31.806606253358
 30
0.0
 11
121.061011071051
 21
16.806606253358
 31
0.0
  0
TEXT
  5
29D0
330
29BF
100
AcDbEntity
  8
図枠細線
  6
CONTINUOUS
 62
   252
100
AcDbText
 10
128.001465247253
 20
14.306608253358
 30
0.0
 40
2.0
  1
ＤＡＴＥ
 41
0.923076923077
  7
EXCADSTD
 72
     5
 11
136.001465247253
 21
14.306608253358
 31
0.0
100
AcDbText
  0
TEXT
  5
29D1
330
29BF
100
AcDbEntity
  8
図枠細線
  6
CONTINUOUS
 62
   252
100
AcDbText
 10
122.066415498841
 20
14.306608253358
 30
0.0
 40
2.0
  1
日付
 41
1.171875
  7
EXCADSTD
 72
     5
 11
127.066415498841
 21
14.306608253358
 31
0.0
100
AcDbText
  0
TEXT
  5
29D2
330
29BF
100
AcDbEntity
  8
図枠細線
  6
CONTINUOUS
 62
   252
100
AcDbText
 10
121.59429406571
 20
29.306608253358
 30
0.0
 40
2.0
  1
製図
 41
1.209677419355
  7
EXCADSTD
 72
     5
 11
126.59429406571
 21
29.306608253358
 31
0.0
100
AcDbText
  0
TEXT
  5
29D3
330
29BF
100
AcDbEntity
  8
図枠細線
  6
CONTINUOUS
 62
   252
100
AcDbText
 10
121.59429406571
 20
26.806608253358
 30
0.0
 40
2.0
  1
ＤＲＡＷＮ
 41
0.882352941176
  7
EXCADSTD
 72
     5
 11
131.59429406571
 21
26.806608253358
 31
0.0
100
AcDbText
  0
TEXT
  5
29D4
330
29BF
100
AcDbEntity
  8
図枠細線
  6
CONTINUOUS
 62
   252
100
AcDbText
 10
226.591229661348
 20
14.306608253358
 30
0.0
 40
2.0
  1
ＤＲＧ．ＮＯ．
 41
0.9375
  7
EXCADSTD
 72
     5
 11
240.591229661348
 21
14.306608253358
 31
0.0
100
AcDbText
  0
LINE
  5
29D5
330
29BF
100
AcDbEntity
  8
図枠太線
  6
CONTINUOUS
 62
   251
100
AcDbLine
 10
144.061003071051
 20
16.806606253358
 30
0.0
 11
214.061011071051
 21
16.806606253358
 31
0.0
  0
LINE
  5
29D6
330
29BF
100
AcDbEntity
  8
図枠細線
  6
CONTINUOUS
 62
   252
100
AcDbLine
 10
144.061011071051
 20
24.306606253358
 30
0.0
 11
214.061011071051
 21
24.306606253358
 31
0.0
  0
TEXT
  5
29D7
330
29BF
100
AcDbEntity
  8
図枠ロゴマーク
  6
CONTINUOUS
 62
   253
100
AcDbText
 10
146.433776781596
 20
8.399000253358
 30
0.0
 40
7.0
  1
東和制電工業株式会社
 41
0.80361088462
  7
EXCADSTD
 72
     5
 11
212.437017438349
 21
8.399000253358
 31
0.0
100
AcDbText
  0
TEXT
  5
29D8
330
29BF
100
AcDbEntity
  8
図枠細線
  6
CONTINUOUS
 62
   252
100
AcDbText
 10
215.156179912936
 20
14.306608253358
 30
0.0
 40
2.0
  1
図面番号
 41
1.102941176471
  7
EXCADSTD
 72
     5
 11
225.156179912936
 21
14.306608253358
 31
0.0
100
AcDbText
  0
TEXT
  5
29D9
330
29BF
100
AcDbEntity
  8
図枠細線
  6
CONTINUOUS
 62
   252
100
AcDbText
 10
221.591229661348
 20
29.306608253358
 30
0.0
 40
2.0
  1
ＴＩＴＬＥ
 41
0.903614457831
  7
EXCADSTD
 72
     5
 11
231.591229661348
 21
29.306608253358
 31
0.0
100
AcDbText
  0
TEXT
  5
29DA
330
29BF
100
AcDbEntity
  8
図枠細線
  6
CONTINUOUS
 62
   252
100
AcDbText
 10
215.156179912936
 20
29.306608253358
 30
0.0
 40
2.0
  1
名称
 41
1.171875
  7
EXCADSTD
 72
     5
 11
220.156179912936
 21
29.306608253358
 31
0.0
100
AcDbText
  0
LINE
  5
29DB
330
29BF
100
AcDbEntity
  8
図枠太線
  6
CONTINUOUS
 62
   251
100
AcDbLine
 10
4.061011071051
 20
1.806608253358
 30
0.0
 11
284.061011071051
 21
1.806608253358
 31
0.0
  0
LINE
  5
29DC
330
29BF
100
AcDbEntity
  8
図枠細線
  6
CONTINUOUS
 62
   252
100
AcDbLine
 10
4.061011071051
 20
6.806608253358
 30
0.0
 11
75.061011071051
 21
6.806608253358
 31
0.0
  0
LINE
  5
29DD
330
29BF
100
AcDbEntity
  8
図枠太線
  6
CONTINUOUS
 62
   251
100
AcDbLine
 10
75.061011071051
 20
1.806608253358
 30
0.0
 11
75.061011071051
 21
31.806606253358
 31
0.0
  0
TEXT
  5
29DE
330
29BF
100
AcDbEntity
  8
図枠細線
  6
CONTINUOUS
 62
   252
100
AcDbText
 10
76.330551827713
 20
6.638319253358
 30
0.0
 40
2.0
  1
ＰＲＯＪＥＣＴＩＯＮ
 41
0.754285710199
  7
EXCADSTD
 72
     5
 11
93.930551732346
 21
6.638319253358
 31
0.0
100
AcDbText
  0
LINE
  5
29DF
330
29BF
100
AcDbEntity
  8
図枠細線
  6
CONTINUOUS
 62
   252
100
AcDbLine
 10
98.061011071051
 20
1.806606931929
 30
0.0
 11
98.061011071051
 21
16.806604931929
 31
0.0
  0
LINE
  5
29E0
330
29BF
100
AcDbEntity
  8
図枠細線
  6
CONTINUOUS
 62
   252
100
AcDbLine
 10
121.061011071051
 20
1.806607574787
 30
0.0
 11
121.061011071051
 21
16.806605574787
 31
0.0
  0
LINE
  5
29E1
330
29BF
100
AcDbEntity
  8
図枠太線
  6
CONTINUOUS
 62
   251
100
AcDbLine
 10
284.061011071051
 20
1.806608253358
 30
0.0
 11
284.061011071051
 21
31.806606253358
 31
0.0
  0
LINE
  5
29E2
330
29BF
100
AcDbEntity
  8
図枠細線
  6
CONTINUOUS
 62
   252
100
AcDbLine
 10
214.061011071051
 20
16.806606253358
 30
0.0
 11
284.061011071051
 21
16.806606253358
 31
0.0
  0
TEXT
  5
29E3
330
29BF
100
AcDbEntity
  8
図枠細線
  6
CONTINUOUS
 62
   252
100
AcDbText
 10
146.199593676182
 20
3.454099253358
 30
0.0
 40
3.5
  1
ＴＯＷＡ　ＳＥＩＤＥＮ　ＩＮＤＵＳＴＲＩＡＬ　ＣＯ．，ＬＴＤ．
 41
0.528937826907
  7
EXCADSTD
 72
     5
 11
213.339435171588
 21
3.454099253358
 31
0.0
100
AcDbText
  0
LINE
  5
29E4
330
29BF
100
AcDbEntity
  8
図枠太線
  6
CONTINUOUS
 62
   251
100
AcDbLine
 10
144.061011071051
 20
1.806608253358
 30
0.0
 11
144.061011071051
 21
31.806606253358
 31
0.0
  0
LINE
  5
29E5
330
29BF
100
AcDbEntity
  8
図枠太線
  6
CONTINUOUS
 62
   251
100
AcDbLine
 10
214.061011071051
 20
1.806608253358
 30
0.0
 11
214.061011071051
 21
31.806606253358
 31
0.0
  0
MTEXT
  5
29E6
330
29BF
100
AcDbEntity
  8
図枠太線
100
AcDbMText
 10
5.064337346478
 20
31.010982137407
 30
0.0
 40
2.5
 41
8.67856098472
 71
     1
 72
     5
  1
{\Fmonotxt.shx,bigfont.shx|c128;図暦}
  0
LINE
  5
29E7
330
29BF
100
AcDbEntity
  8
図枠太線
  6
CONTINUOUS
 62
   251
100
AcDbLine
 10
4.061011071051
 20
1.806608253358
 30
0.0
 11
4.061011071051
 21
31.806606253358
 31
0.0
  0
TEXT
  5
29E8
330
29BF
100
AcDbEntity
  8
図枠細線
 48
10.0
100
AcDbText
 10
12.260817420402
 20
28.625419626495
 30
0.0
 40
2.0
  1
CHANGE NOTICE
100
AcDbText
  0
ENDBLK
  5
29E9
330
29BF
100
AcDbEntity
  8
0
100
AcDbBlockEnd
  0
BLOCK
  5
29F5
330
29F4
100
AcDbEntity
  8
0
100
AcDbBlockBegin
  2
A4縦用_タイトル
 70
     0
 10
0.0
 20
0.0
 30
0.0
  3
A4縦用_タイトル
  1

  0
LINE
  5
29F6
330
29F4
100
AcDbEntity
  8
図枠太線
  6
CONTINUOUS
 62
   251
100
AcDbLine
 10
2.368253864267
 20
4.525433224584
 30
0.0
 11
192.368245864267
 21
4.525433224584
 31
0.0
  0
LINE
  5
29F7
330
29F4
100
AcDbEntity
  8
図枠太線
  6
CONTINUOUS
 62
   251
100
AcDbLine
 10
78.368245864267
 20
19.525431224584
 30
0.0
 11
135.368253864267
 21
19.525431224584
 31
0.0
  0
LINE
  5
29F8
330
29F4
100
AcDbEntity
  8
図枠細線
  6
CONTINUOUS
 62
   252
100
AcDbLine
 10
78.368253864267
 20
27.025431224584
 30
0.0
 11
135.368253864267
 21
27.025431224584
 31
0.0
  0
TEXT
  5
29F9
330
29F4
100
AcDbEntity
  8
図枠ロゴマーク
  6
CONTINUOUS
 62
   253
100
AcDbText
 10
80.617009864267
 20
11.117825224584
 30
0.0
 40
7.0
  1
東和制電工業株式会社
 41
0.639204545455
  7
EXCADSTD
 72
     5
 11
133.117009864267
 21
11.117825224584
 31
0.0
100
AcDbText
  0
TEXT
  5
29FA
330
29F4
100
AcDbEntity
  8
図枠細線
  6
CONTINUOUS
 62
   252
100
AcDbText
 10
80.579549864267
 20
6.172924224584
 30
0.0
 40
3.5
  1
ＴＯＷＡ　ＳＥＩＤＥＮ　ＩＮＤＵＳＴＲＩＡＬ　ＣＯ．，ＬＴＤ．
 41
0.414568012377
  7
EXCADSTD
 72
     5
 11
133.202049568628
 21
6.172924224584
 31
0.0
100
AcDbText
  0
LINE
  5
29FB
330
29F4
100
AcDbEntity
  8
図枠太線
  6
CONTINUOUS
 62
   251
100
AcDbLine
 10
2.368253864267
 20
4.525433224584
 30
0.0
 11
2.368253864267
 21
34.525431224584
 31
0.0
  0
TEXT
  5
29FC
330
29F4
100
AcDbEntity
  8
図枠細線
  6
CONTINUOUS
 62
   252
100
AcDbText
 10
22.504308136501
 20
12.279133224584
 30
0.0
 40
2.0
  1
ＴＨＩＲＤ　ＡＮＧＬＥ
 41
0.691099486738
  7
EXCADSTD
 72
     5
 11
40.104308398762
 21
12.279133224584
 31
0.0
100
AcDbText
  0
TEXT
  5
29FD
330
29F4
100
AcDbEntity
  8
図枠細線
  6
CONTINUOUS
 62
   252
100
AcDbText
 10
22.429384136501
 20
9.357144224584
 30
0.0
 40
2.0
  1
ＰＲＯＪＥＣＴＩＯＮ
 41
0.754285710199
  7
EXCADSTD
 72
     5
 11
40.029384041134
 21
9.357144224584
 31
0.0
100
AcDbText
  0
LINE
  5
29FE
330
29F4
100
AcDbEntity
  8
図枠細線
  6
CONTINUOUS
100
AcDbLine
 10
22.368253864267
 20
19.525433224584
 30
0.0
 11
78.368253864267
 21
19.525431224584
 31
0.0
  0
TEXT
  5
29FF
330
29F4
100
AcDbEntity
  8
図枠細線
  6
CONTINUOUS
 62
   252
100
AcDbText
 10
22.868253864267
 20
17.025433224584
 30
0.0
 40
2.0
  1
第三角法
 41
1.102941176471
  7
EXCADSTD
 72
     5
 11
32.868253864267
 21
17.025433224584
 31
0.0
100
AcDbText
  0
TEXT
  5
2A00
330
29F4
100
AcDbEntity
  8
図枠細線
  6
CONTINUOUS
 62
   252
100
AcDbText
 10
22.868253864267
 20
29.525433224584
 30
0.0
 40
2.0
  1
ＡＰＰＲＯＶＥＤ
 41
0.695652184279
  7
EXCADSTD
 72
     5
 11
35.668254055002
 21
29.525433224584
 31
0.0
100
AcDbText
  0
LINE
  5
2A01
330
29F4
100
AcDbEntity
  8
図枠細線
  6
CONTINUOUS
 62
   252
100
AcDbLine
 10
2.368253864267
 20
9.525433224584
 30
0.0
 11
22.368253864267
 21
9.525433224584
 31
0.0
  0
LINE
  5
2A02
330
29F4
100
AcDbEntity
  8
図枠細線
  6
CONTINUOUS
 62
   252
100
AcDbLine
 10
2.368253864267
 20
14.525431224584
 30
0.0
 11
22.368253864267
 21
14.525431224584
 31
0.0
  0
LINE
  5
2A03
330
29F4
100
AcDbEntity
  8
図枠細線
  6
CONTINUOUS
 62
   252
100
AcDbLine
 10
2.368253864267
 20
24.525431224584
 30
0.0
 11
22.368253864267
 21
24.525431224584
 31
0.0
  0
LINE
  5
2A04
330
29F4
100
AcDbEntity
  8
図枠細線
  6
CONTINUOUS
 62
   252
100
AcDbLine
 10
2.368253864267
 20
29.525431224584
 30
0.0
 11
22.368253864267
 21
29.525431224584
 31
0.0
  0
LINE
  5
2A05
330
29F4
100
AcDbEntity
  8
図枠細線
  6
CONTINUOUS
100
AcDbLine
 10
2.368253864267
 20
19.525433224584
 30
0.0
 11
22.368253864267
 21
19.525433224584
 31
0.0
  0
TEXT
  5
2A06
330
29F4
100
AcDbEntity
  8
図枠細線
  6
CONTINUOUS
 62
   252
100
AcDbText
 10
2.868253864267
 20
32.025433224584
 30
0.0
 40
2.0
  1
ＮＯＴＥ
 41
0.923076923077
  7
EXCADSTD
 72
     5
 11
10.868253864267
 21
32.025433224584
 31
0.0
100
AcDbText
  0
LINE
  5
2A07
330
29F4
100
AcDbEntity
  8
図枠太線
  6
CONTINUOUS
 62
   251
100
AcDbLine
 10
22.368253864267
 20
4.525433224584
 30
0.0
 11
22.368253864267
 21
34.525431224584
 31
0.0
  0
TEXT
  5
2A08
330
29F4
100
AcDbEntity
  8
図枠細線
  6
CONTINUOUS
 62
   252
100
AcDbText
 10
22.868253864267
 20
32.025433224584
 30
0.0
 40
2.0
  1
承認
 41
1.171875
  7
EXCADSTD
 72
     5
 11
27.868253864267
 21
32.025433224584
 31
0.0
100
AcDbText
  0
TEXT
  5
2A09
330
29F4
100
AcDbEntity
  8
図枠細線
  6
CONTINUOUS
 62
   252
100
AcDbText
 10
60.711709035982
 20
32.025433224584
 30
0.0
 40
2.0
  1
製図
 41
1.209677419355
  7
EXCADSTD
 72
     5
 11
65.711709035982
 21
32.025433224584
 31
0.0
100
AcDbText
  0
TEXT
  5
2A0A
330
29F4
100
AcDbEntity
  8
図枠細線
  6
CONTINUOUS
 62
   252
100
AcDbText
 10
60.711709035982
 20
29.525433224584
 30
0.0
 40
2.0
  1
ＤＲＡＷＮ
 41
0.882352941176
  7
EXCADSTD
 72
     5
 11
70.711709035982
 21
29.525433224584
 31
0.0
100
AcDbText
  0
TEXT
  5
2A0B
330
29F4
100
AcDbEntity
  8
図枠細線
  6
CONTINUOUS
 62
   252
100
AcDbText
 10
60.834891743877
 20
17.025433224584
 30
0.0
 40
2.0
  1
日付
 41
1.171875
  7
EXCADSTD
 72
     5
 11
65.834891743877
 21
17.025433224584
 31
0.0
100
AcDbText
  0
TEXT
  5
2A0C
330
29F4
100
AcDbEntity
  8
図枠細線
  6
CONTINUOUS
 62
   252
100
AcDbText
 10
47.333660864267
 20
17.025433224584
 30
0.0
 40
2.0
  1
ＳＣＡＬＥ
 41
0.903614457831
  7
EXCADSTD
 72
     5
 11
57.333660864267
 21
17.025433224584
 31
0.0
100
AcDbText
  0
TEXT
  5
2A0D
330
29F4
100
AcDbEntity
  8
図枠細線
  6
CONTINUOUS
 62
   252
100
AcDbText
 10
42.281425990082
 20
29.525433224584
 30
0.0
 40
2.0
  1
ＣＨＥＣＫＥＤ
 41
0.831249989569
  7
EXCADSTD
 72
     5
 11
55.581425823189
 21
29.525433224584
 31
0.0
100
AcDbText
  0
LINE
  5
2A0E
330
29F4
100
AcDbEntity
  8
図枠細線
  6
CONTINUOUS
 62
   252
100
AcDbLine
 10
40.968253864267
 20
34.525431224584
 30
0.0
 11
40.968253864267
 21
19.525431224584
 31
0.0
  0
LINE
  5
2A0F
330
29F4
100
AcDbEntity
  8
図枠細線
  6
CONTINUOUS
 62
   252
100
AcDbLine
 10
40.968253864267
 20
4.525433224584
 30
0.0
 11
40.968253864267
 21
19.525431224584
 31
0.0
  0
TEXT
  5
2A10
330
29F4
100
AcDbEntity
  8
図枠細線
  6
CONTINUOUS
 62
   252
100
AcDbText
 10
41.961173864267
 20
17.025433224584
 30
0.0
 40
2.0
  1
尺度
 41
1.171875
  7
EXCADSTD
 72
     5
 11
46.961173864267
 21
17.025433224584
 31
0.0
100
AcDbText
  0
TEXT
  5
2A11
330
29F4
100
AcDbEntity
  8
図枠細線
  6
CONTINUOUS
 62
   252
100
AcDbText
 10
42.281425990082
 20
32.025433224584
 30
0.0
 40
2.0
  1
検図
 41
1.209677419355
  7
EXCADSTD
 72
     5
 11
47.281425990082
 21
32.025433224584
 31
0.0
100
AcDbText
  0
LINE
  5
2A12
330
29F4
100
AcDbEntity
  8
図枠細線
  6
CONTINUOUS
 62
   252
100
AcDbLine
 10
59.768253864267
 20
34.525431224584
 30
0.0
 11
59.768253864267
 21
19.525431224584
 31
0.0
  0
LINE
  5
2A13
330
29F4
100
AcDbEntity
  8
図枠細線
  6
CONTINUOUS
 62
   252
100
AcDbLine
 10
59.768253864267
 20
4.525433224584
 30
0.0
 11
59.768253864267
 21
19.525431224584
 31
0.0
  0
LINE
  5
2A14
330
29F4
100
AcDbEntity
  8
図枠太線
  6
CONTINUOUS
 62
   251
100
AcDbLine
 10
78.368253864267
 20
4.525433224584
 30
0.0
 11
78.368253864267
 21
34.525431224584
 31
0.0
  0
TEXT
  5
2A15
330
29F4
100
AcDbEntity
  8
図枠細線
  6
CONTINUOUS
 62
   252
100
AcDbText
 10
66.334891743877
 20
17.025433224584
 30
0.0
 40
2.0
  1
ＤＡＴＥ
 41
0.923076923077
  7
EXCADSTD
 72
     5
 11
74.334891743877
 21
17.025433224584
 31
0.0
100
AcDbText
  0
LINE
  5
2A16
330
29F4
100
AcDbEntity
  8
図枠細線
  6
CONTINUOUS
 62
   252
100
AcDbLine
 10
135.368253864267
 20
19.525431224584
 30
0.0
 11
192.368245864267
 21
19.525431224584
 31
0.0
  0
TEXT
  5
2A17
330
29F4
100
AcDbEntity
  8
図枠細線
  6
CONTINUOUS
 62
   252
100
AcDbText
 10
141.868253864267
 20
32.025433224584
 30
0.0
 40
2.0
  1
ＴＩＴＬＥ
 41
0.903614457831
  7
EXCADSTD
 72
     5
 11
151.868253864267
 21
32.025433224584
 31
0.0
100
AcDbText
  0
LINE
  5
2A18
330
29F4
100
AcDbEntity
  8
図枠太線
  6
CONTINUOUS
 62
   251
100
AcDbLine
 10
135.368253864267
 20
4.525433224584
 30
0.0
 11
135.368253864267
 21
34.525431224584
 31
0.0
  0
TEXT
  5
2A19
330
29F4
100
AcDbEntity
  8
図枠細線
  6
CONTINUOUS
 62
   252
100
AcDbText
 10
135.868253864267
 20
17.025433224584
 30
0.0
 40
2.0
  1
図面番号
 41
1.102941176471
  7
EXCADSTD
 72
     5
 11
145.868253864267
 21
17.025433224584
 31
0.0
100
AcDbText
  0
TEXT
  5
2A1A
330
29F4
100
AcDbEntity
  8
図枠細線
  6
CONTINUOUS
 62
   252
100
AcDbText
 10
135.868253864267
 20
32.025433224584
 30
0.0
 40
2.0
  1
名称
 41
1.171875
  7
EXCADSTD
 72
     5
 11
140.868253864267
 21
32.025433224584
 31
0.0
100
AcDbText
  0
TEXT
  5
2A1B
330
29F4
100
AcDbEntity
  8
図枠細線
  6
CONTINUOUS
 62
   252
100
AcDbText
 10
146.868253864267
 20
17.025433224584
 30
0.0
 40
2.0
  1
ＤＲＧ．ＮＯ．
 41
0.9375
  7
EXCADSTD
 72
     5
 11
160.868253864267
 21
17.025433224584
 31
0.0
100
AcDbText
  0
LINE
  5
2A1C
330
29F4
100
AcDbEntity
  8
図枠太線
  6
CONTINUOUS
 62
   251
100
AcDbLine
 10
192.368245864267
 20
4.525433224584
 30
0.0
 11
192.368245864267
 21
34.525431224584
 31
0.0
  0
ENDBLK
  5
2A1D
330
29F4
100
AcDbEntity
  8
0
100
AcDbBlockEnd
  0
BLOCK
  5
2A33
330
2A32
100
AcDbEntity
  8
0
100
AcDbBlockBegin
  2
A3横用_タイトル
 70
     0
 10
0.0
 20
0.0
 30
0.0
  3
A3横用_タイトル
  1

  0
LINE
  5
2A34
330
2A32
100
AcDbEntity
  8
図枠細線
  6
CONTINUOUS
 62
   252
100
AcDbLine
 10
205.098414535793
 20
33.525959753527
 30
0.0
 11
305.098414535793
 21
33.525959753527
 31
0.0
  0
LINE
  5
2A35
330
2A32
100
AcDbEntity
  8
図枠太線
  6
CONTINUOUS
 62
   251
100
AcDbLine
 10
205.098414535793
 20
23.525959753527
 30
0.0
 11
305.098414535793
 21
23.525959753527
 31
0.0
  0
LINE
  5
2A36
330
2A32
100
AcDbEntity
  8
図枠細線
  6
CONTINUOUS
100
AcDbLine
 10
5.098414535793
 20
23.525959753527
 30
0.0
 11
105.098414535793
 21
23.525959753527
 31
0.0
  0
LINE
  5
2A37
330
2A32
100
AcDbEntity
  8
図枠細線
  6
CONTINUOUS
 62
   252
100
AcDbLine
 10
5.098414535793
 20
36.725957753527
 30
0.0
 11
105.098414535793
 21
36.725957753527
 31
0.0
  0
LINE
  5
2A38
330
2A32
100
AcDbEntity
  8
図枠細線
  6
CONTINUOUS
 62
   252
100
AcDbLine
 10
5.098414535793
 20
30.125957753527
 30
0.0
 11
105.098414535793
 21
30.125957753527
 31
0.0
  0
LINE
  5
2A39
330
2A32
100
AcDbEntity
  8
図枠細線
  6
CONTINUOUS
 62
   252
100
AcDbLine
 10
5.098414535793
 20
16.725959753527
 30
0.0
 11
105.098414535793
 21
16.725959753527
 31
0.0
  0
LINE
  5
2A3A
330
2A32
100
AcDbEntity
  8
図枠細線
  6
CONTINUOUS
 62
   252
100
AcDbLine
 10
5.098414535793
 20
10.125959753527
 30
0.0
 11
105.098414535793
 21
10.125959753527
 31
0.0
  0
LINE
  5
2A3B
330
2A32
100
AcDbEntity
  8
図枠細線
  6
CONTINUOUS
100
AcDbLine
 10
105.098414535793
 20
23.525961753527
 30
0.0
 11
205.098414535793
 21
23.525959753527
 31
0.0
  0
LINE
  5
2A3C
330
2A32
100
AcDbEntity
  8
図枠細線
  6
CONTINUOUS
 62
   252
100
AcDbLine
 10
138.398414535793
 20
43.525959753527
 30
0.0
 11
138.398414535793
 21
18.525957753527
 31
0.0
  0
LINE
  5
2A3D
330
2A32
100
AcDbEntity
  8
図枠細線
  6
CONTINUOUS
 62
   252
100
AcDbLine
 10
171.698414535793
 20
43.525959753527
 30
0.0
 11
171.698414535793
 21
18.525957753527
 31
0.0
  0
LINE
  5
2A3E
330
2A32
100
AcDbEntity
  8
図枠細線
  6
CONTINUOUS
 62
   252
100
AcDbLine
 10
305.098414535793
 20
23.525959753527
 30
0.0
 11
405.098414535793
 21
23.525959753527
 31
0.0
  0
TEXT
  5
2A3F
330
2A32
100
AcDbEntity
  8
図枠ロゴマーク
  6
CONTINUOUS
 62
   253
100
AcDbText
 10
206.102509212755
 20
13.294257570546
 30
0.0
 40
7.0
  1
東和制電工業株式会社
 50
0.016555220185
 41
1.186384129432
  7
EXCADSTD
 72
     5
 11
303.544188309143
 21
13.322412672217
 31
0.0
100
AcDbText
  0
MTEXT
  5
2A40
330
2A32
100
AcDbEntity
  8
図枠細線
100
AcDbMText
 10
6.356764112375
 20
41.976594175478
 30
0.0
 40
2.5
 41
49.938282706292
 71
     1
 72
     5
  1
{\Fmonotxt.shx,bigfont.shx|c128;図暦　CHANGE　NOTICE}
  0
MTEXT
  5
2A41
330
2A32
100
AcDbEntity
  8
図枠細線
 48
10.0
100
AcDbMText
 10
306.544114926828
 20
41.701835800934
 30
0.0
 40
2.5
 41
28.002809618823
 71
     1
 72
     5
  1
{\Fmonotxt.shx,bigfont.shx|c128;名称　TITLE}
  0
MTEXT
  5
2A42
330
2A32
100
AcDbEntity
  8
図枠細線
 48
10.0
100
AcDbMText
 10
307.329617114284
 20
21.606206797226
 30
0.0
 40
2.5
 41
24.385612216707
 71
     1
 72
     5
  1
{\Fmonotxt.shx,bigfont.shx|c128;図面番号\PDRG.　No.}
  0
MTEXT
  5
2A43
330
2A32
100
AcDbEntity
  8
図枠細線
 48
10.0
100
AcDbMText
 10
173.726349404609
 20
21.73680662198
 30
0.0
 40
2.5
 41
25.735090160813
 71
     1
 72
     5
  1
{\Fmonotxt.shx,bigfont.shx|c128;日付 DATE}
  0
MTEXT
  5
2A44
330
2A32
100
AcDbEntity
  8
図枠細線
 48
10.0
100
AcDbMText
 10
173.48708833982
 20
41.621592044998
 30
0.0
 40
2.5
 41
24.983741184205
 71
     1
 72
     5
  1
{\Fmonotxt.shx,bigfont.shx|c128;製図　DRAWN}
  0
MTEXT
  5
2A45
330
2A32
100
AcDbEntity
  8
図枠細線
 48
10.0
100
AcDbMText
 10
139.28009927741
 20
21.866713069868
 30
0.0
 40
2.5
 41
22.629632913243
 71
     1
 72
     5
  1
{\Fmonotxt.shx,bigfont.shx|c128;尺度　SCALE}
  0
MTEXT
  5
2A46
330
2A32
100
AcDbEntity
  8
図枠細線
 48
10.0
100
AcDbMText
 10
139.910091179835
 20
41.311840415554
 30
0.0
 40
2.5
 41
28.998753428368
 71
     1
 72
     5
  1
{\Fmonotxt.shx,bigfont.shx|c128;検図  CHECKED}
  0
MTEXT
  5
2A47
330
2A32
100
AcDbEntity
  8
図枠細線
 48
10.0
100
AcDbMText
 10
114.253294667728
 20
21.916124850174
 30
0.0
 40
3.0
 41
19.692400475383
 71
     1
 72
     5
  1
{\Fmonotxt.shx,bigfont.shx|c128;第三角法}
  0
MTEXT
  5
2A48
330
2A32
100
AcDbEntity
  8
図枠細線
 48
10.0
100
AcDbMText
 10
108.986959929915
 20
15.282880185837
 30
0.0
 40
2.5
 41
27.954882823547
 71
     1
 72
     5
  1
{\Fmonotxt.shx,bigfont.shx|c128;THIRD ANGLE\PPROJECTION}
  0
MTEXT
  5
2A49
330
2A32
100
AcDbEntity
  8
図枠細線
 48
10.0
100
AcDbMText
 10
106.319432640184
 20
41.511437145487
 30
0.0
 40
2.5
 41
28.233595265074
 71
     1
 72
     5
  1
{\Fmonotxt.shx,bigfont.shx|c128;承認 APPROVED}
  0
LINE
  5
2A4A
330
2A32
100
AcDbEntity
  8
図枠太線
  6
CONTINUOUS
 62
   251
100
AcDbLine
 10
5.098414535793
 20
3.525959753527
 30
0.0
 11
405.098414535793
 21
3.525959753527
 31
0.0
  0
LINE
  5
2A4B
330
2A32
100
AcDbEntity
  8
図枠太線
 48
10.0
100
AcDbLine
 10
5.098414535793
 20
3.525959753527
 30
0.0
 11
5.098414535793
 21
43.525959753527
 31
0.0
  0
LINE
  5
2A4C
330
2A32
100
AcDbEntity
  8
図枠太線
  6
CONTINUOUS
 62
   251
100
AcDbLine
 10
105.098414535793
 20
3.525959753527
 30
0.0
 11
105.098414535793
 21
43.525959753527
 31
0.0
  0
LINE
  5
2A4D
330
2A32
100
AcDbEntity
  8
図枠細線
  6
CONTINUOUS
 62
   252
100
AcDbLine
 10
138.398414535793
 20
3.525959753527
 30
0.0
 11
138.398414535793
 21
18.525957753527
 31
0.0
  0
LINE
  5
2A4E
330
2A32
100
AcDbEntity
  8
図枠細線
  6
CONTINUOUS
 62
   252
100
AcDbLine
 10
171.698414535793
 20
3.525959753527
 30
0.0
 11
171.698414535793
 21
18.525957753527
 31
0.0
  0
LINE
  5
2A4F
330
2A32
100
AcDbEntity
  8
図枠太線
  6
CONTINUOUS
 62
   251
100
AcDbLine
 10
205.098414535793
 20
3.525959753527
 30
0.0
 11
205.098414535793
 21
43.525959753527
 31
0.0
  0
LINE
  5
2A50
330
2A32
100
AcDbEntity
  8
図枠太線
 48
10.0
100
AcDbLine
 10
405.098414535793
 20
43.525959753527
 30
0.0
 11
405.098414535793
 21
3.525959753527
 31
0.0
  0
TEXT
  5
2A51
330
2A32
100
AcDbEntity
  8
図枠細線
  6
CONTINUOUS
 62
   252
100
AcDbText
 10
208.519754474572
 20
6.482358407285
 30
0.0
 40
3.5
  1
ＴＯＷＡ　ＳＥＩＤＥＮ　ＩＮＤＵＳＴＲＩＡＬ　ＣＯ．，ＬＴＤ．
 41
0.746656297509
  7
EXCADSTD
 72
     5
 11
303.295327171727
 21
6.482358407285
 31
0.0
100
AcDbText
  0
LINE
  5
2A52
330
2A32
100
AcDbEntity
  8
図枠太線
  6
CONTINUOUS
 62
   251
100
AcDbLine
 10
305.098414535793
 20
3.525959753527
 30
0.0
 11
305.098414535793
 21
43.525959753527
 31
0.0
  0
ENDBLK
  5
2A53
330
2A32
100
AcDbEntity
  8
0
100
AcDbBlockEnd
  0
BLOCK
  5
2A6D
330
2A6C
100
AcDbEntity
  8
0
100
AcDbBlockBegin
  2
A3縦用_タイトル
 70
     0
 10
0.0
 20
0.0
 30
0.0
  3
A3縦用_タイトル
  1

  0
MTEXT
  5
2A6E
330
2A6C
100
AcDbEntity
  8
図枠細線
100
AcDbMText
 10
5.040804501593
 20
31.626098649005
 30
0.0
 40
2.5
 41
49.938282706292
 71
     1
 72
     5
  1
{\Fmonotxt.shx,bigfont.shx|c128;図暦　CHANGE　NOTICE}
  0
LINE
  5
2A6F
330
2A6C
100
AcDbEntity
  8
図枠太線
  6
CONTINUOUS
 62
   251
100
AcDbLine
 10
283.577871882961
 20
2.820844689254
 30
0.0
 11
283.577871882961
 21
32.820842689254
 31
0.0
  0
MTEXT
  5
2A70
330
2A6C
100
AcDbEntity
  8
図枠細線
 48
10.0
100
AcDbMText
 10
214.912458947454
 20
31.621488632308
 30
0.0
 40
2.5
 41
28.002809618823
 71
     1
 72
     5
  1
{\Fmonotxt.shx,bigfont.shx|c128;名称　TITLE}
  0
MTEXT
  5
2A71
330
2A6C
100
AcDbEntity
  8
図枠細線
 48
10.0
100
AcDbMText
 10
214.740030458938
 20
16.310225796722
 30
0.0
 40
2.5
 41
24.385612216707
 71
     1
 72
     5
  1
{\Fmonotxt.shx,bigfont.shx|c128;図面番号\PDRG.　No.}
  0
LINE
  5
2A72
330
2A6C
100
AcDbEntity
  8
図枠太線
  6
CONTINUOUS
 62
   251
100
AcDbLine
 10
213.577871882961
 20
2.820844689254
 30
0.0
 11
213.577871882961
 21
32.820842689254
 31
0.0
  0
LINE
  5
2A73
330
2A6C
100
AcDbEntity
  8
図枠太線
  6
CONTINUOUS
 62
   251
100
AcDbLine
 10
143.577871882961
 20
2.820844689254
 30
0.0
 11
143.577871882961
 21
32.820842689254
 31
0.0
  0
TEXT
  5
2A74
330
2A6C
100
AcDbEntity
  8
図枠細線
  6
CONTINUOUS
 62
   252
100
AcDbText
 10
145.716454488093
 20
4.468335689254
 30
0.0
 40
3.5
  1
ＴＯＷＡ　ＳＥＩＤＥＮ　ＩＮＤＵＳＴＲＩＡＬ　ＣＯ．，ＬＴＤ．
 41
0.528937826907
  7
EXCADSTD
 72
     5
 11
212.856295983498
 21
4.468335689254
 31
0.0
100
AcDbText
  0
TEXT
  5
2A75
330
2A6C
100
AcDbEntity
  8
図枠ロゴマーク
  6
CONTINUOUS
 62
   253
100
AcDbText
 10
145.950637593507
 20
9.413236689254
 30
0.0
 40
7.0
  1
東和制電工業株式会社
 41
0.80361088462
  7
EXCADSTD
 72
     5
 11
211.953878250259
 21
9.413236689254
 31
0.0
100
AcDbText
  0
LINE
  5
2A76
330
2A6C
100
AcDbEntity
  8
図枠細線
  6
CONTINUOUS
 62
   252
100
AcDbLine
 10
143.577871882961
 20
25.320842689254
 30
0.0
 11
213.577871882961
 21
25.320842689254
 31
0.0
  0
LINE
  5
2A77
330
2A6C
100
AcDbEntity
  8
図枠太線
  6
CONTINUOUS
 62
   251
100
AcDbLine
 10
143.577863882961
 20
17.820842689254
 30
0.0
 11
213.577871882961
 21
17.820842689254
 31
0.0
  0
LINE
  5
2A78
330
2A6C
100
AcDbEntity
  8
図枠細線
  6
CONTINUOUS
 62
   252
100
AcDbLine
 10
213.577871882961
 20
17.820842689254
 30
0.0
 11
283.577871882961
 21
17.820842689254
 31
0.0
  0
LINE
  5
2A79
330
2A6C
100
AcDbEntity
  8
図枠細線
  6
CONTINUOUS
 62
   252
100
AcDbLine
 10
120.577871882961
 20
32.820842689254
 30
0.0
 11
120.577871882961
 21
17.820842689254
 31
0.0
  0
MTEXT
  5
2A7A
330
2A6C
100
AcDbEntity
  8
図枠細線
 48
10.0
100
AcDbMText
 10
121.100885670352
 20
16.33785922638
 30
0.0
 40
2.0
 41
17.705978285068
 71
     1
 72
     5
  1
{\Fmonotxt.shx,bigfont.shx|c128;日付 DATE}
  0
MTEXT
  5
2A7B
330
2A6C
100
AcDbEntity
  8
図枠細線
 48
10.0
100
AcDbMText
 10
121.254842273491
 20
31.208993514037
 30
0.0
 40
2.0
 41
18.363799568758
 71
     1
 72
     5
  1
{\Fmonotxt.shx,bigfont.shx|c128;製図　DRAWN}
  0
LINE
  5
2A7C
330
2A6C
100
AcDbEntity
  8
図枠細線
  6
CONTINUOUS
 62
   252
100
AcDbLine
 10
97.577871882961
 20
32.820842689254
 30
0.0
 11
97.577871882961
 21
17.820842689254
 31
0.0
  0
MTEXT
  5
2A7D
330
2A6C
100
AcDbEntity
  8
図枠細線
 48
10.0
100
AcDbMText
 10
98.239734796872
 20
16.467764839281
 30
0.0
 40
2.0
 41
17.757791689903
 71
     1
 72
     5
  1
{\Fmonotxt.shx,bigfont.shx|c128;尺度　SCALE}
  0
MTEXT
  5
2A7E
330
2A6C
100
AcDbEntity
  8
図枠細線
 48
10.0
100
AcDbMText
 10
97.864744625154
 20
31.298433377664
 30
0.0
 40
2.0
 41
23.162655920976
 71
     1
 72
     5
  1
{\Fmonotxt.shx,bigfont.shx|c128;検図  CHECKED}
  0
LINE
  5
2A7F
330
2A6C
100
AcDbEntity
  8
図枠細線
  6
CONTINUOUS
 62
   252
100
AcDbLine
 10
97.577871882961
 20
2.820843367826
 30
0.0
 11
97.577871882961
 21
17.820841367826
 31
0.0
  0
LINE
  5
2A80
330
2A6C
100
AcDbEntity
  8
図枠細線
  6
CONTINUOUS
 62
   252
100
AcDbLine
 10
120.577871882961
 20
2.820844010683
 30
0.0
 11
120.577871882961
 21
17.820842010683
 31
0.0
  0
MTEXT
  5
2A81
330
2A6C
100
AcDbEntity
  8
図枠細線
 48
10.0
100
AcDbMText
 10
81.402399084102
 20
16.316484117426
 30
0.0
 40
2.0
 41
12.920322819369
 71
     1
 72
     5
  1
{\Fmonotxt.shx,bigfont.shx|c128;第三角法}
  0
MTEXT
  5
2A82
330
2A6C
100
AcDbEntity
  8
図枠細線
 48
10.0
100
AcDbMText
 10
75.736576535096
 20
11.080410931319
 30
0.0
 40
2.0
 41
21.072870671471
 71
     1
 72
     5
  1
{\Fmonotxt.shx,bigfont.shx|c128;THIRD ANGLE\PPROJECTION}
  0
LINE
  5
2A83
330
2A6C
100
AcDbEntity
  8
図枠太線
  6
CONTINUOUS
 62
   251
100
AcDbLine
 10
74.577871882961
 20
2.820844689254
 30
0.0
 11
74.577871882961
 21
32.820842689254
 31
0.0
  0
MTEXT
  5
2A84
330
2A6C
100
AcDbEntity
  8
図枠細線
 48
10.0
100
AcDbMText
 10
75.060214781573
 20
31.298434778555
 30
0.0
 40
2.0
 41
22.240928805967
 71
     1
 72
     5
  1
{\Fmonotxt.shx,bigfont.shx|c128;承認 APPROVED}
  0
LINE
  5
2A85
330
2A6C
100
AcDbEntity
  8
図枠細線
  6
CONTINUOUS
100
AcDbLine
 10
3.577871882961
 20
17.820844689254
 30
0.0
 11
74.577871882961
 21
17.820844689254
 31
0.0
  0
LINE
  5
2A86
330
2A6C
100
AcDbEntity
  8
図枠細線
  6
CONTINUOUS
 62
   252
100
AcDbLine
 10
3.577871882961
 20
27.820842689254
 30
0.0
 11
74.577871882961
 21
27.820842689254
 31
0.0
  0
LINE
  5
2A87
330
2A6C
100
AcDbEntity
  8
図枠細線
  6
CONTINUOUS
 62
   252
100
AcDbLine
 10
3.577871882961
 20
22.820842689254
 30
0.0
 11
74.577871882961
 21
22.820842689254
 31
0.0
  0
LINE
  5
2A88
330
2A6C
100
AcDbEntity
  8
図枠細線
  6
CONTINUOUS
 62
   252
100
AcDbLine
 10
3.577871882961
 20
12.820842689254
 30
0.0
 11
74.577871882961
 21
12.820842689254
 31
0.0
  0
LINE
  5
2A89
330
2A6C
100
AcDbEntity
  8
図枠細線
  6
CONTINUOUS
 62
   252
100
AcDbLine
 10
3.577871882961
 20
7.820844689254
 30
0.0
 11
74.577871882961
 21
7.820844689254
 31
0.0
  0
LINE
  5
2A8A
330
2A6C
100
AcDbEntity
  8
図枠細線
  6
CONTINUOUS
100
AcDbLine
 10
74.577871882961
 20
17.820843689254
 30
0.0
 11
143.577871882961
 21
17.820841224969
 31
0.0
  0
LINE
  5
2A8B
330
2A6C
100
AcDbEntity
  8
図枠太線
  6
CONTINUOUS
 62
   251
100
AcDbLine
 10
3.577871882961
 20
2.820844689254
 30
0.0
 11
283.577871882961
 21
2.820844689254
 31
0.0
  0
LINE
  5
2A8C
330
2A6C
100
AcDbEntity
  8
図枠太線
  6
CONTINUOUS
 62
   251
100
AcDbLine
 10
3.577871882961
 20
2.820844689254
 30
0.0
 11
3.577871882961
 21
32.820842689254
 31
0.0
  0
ENDBLK
  5
2A8D
330
2A6C
100
AcDbEntity
  8
0
100
AcDbBlockEnd
  0
BLOCK
  5
2AF8
330
2AF4
100
AcDbEntity
  8
0
 48
10.0
100
AcDbBlockBegin
  2
_OPEN30
 70
     0
 10
0.0
 20
0.0
 30
0.0
  3
_OPEN30
  1

  0
LINE
  5
2AF5
330
2AF4
100
AcDbEntity
  8
0
  6
BYBLOCK
 62
     0
100
AcDbLine
 10
-1.0
 20
0.26794919
 30
0.0
 11
0.0
 21
0.0
 31
0.0
  0
LINE
  5
2AF6
330
2AF4
100
AcDbEntity
  8
0
  6
BYBLOCK
 62
     0
100
AcDbLine
 10
0.0
 20
0.0
 30
0.0
 11
-1.0
 21
-0.26794919
 31
0.0
  0
LINE
  5
2AF7
330
2AF4
100
AcDbEntity
  8
0
  6
BYBLOCK
 62
     0
100
AcDbLine
 10
0.0
 20
0.0
 30
0.0
 11
-1.0
 21
0.0
 31
0.0
  0
ENDBLK
  5
2AF9
330
2AF4
100
AcDbEntity
  8
0
 48
10.0
100
AcDbBlockEnd
  0
BLOCK
  5
3CB1
330
3CA7
100
AcDbEntity
  8
0
 48
10.0
100
AcDbBlockBegin
  2
*D6
 70
     1
 10
0.0
 20
0.0
 30
0.0
  3
*D6
  1

  0
LINE
  5
3EB0
330
3CA7
100
AcDbEntity
  8
寸法線
 62
     0
 48
10.0
100
AcDbLine
 10
112.865014940495
 20
484.830857140348
 30
0.0
 11
98.046751366301
 21
484.830857140348
 31
0.0
  0
LINE
  5
3EB1
330
3CA7
100
AcDbEntity
  8
寸法線
 62
     0
 48
10.0
100
AcDbLine
 10
112.865014940495
 20
499.830831140348
 30
0.0
 11
98.046751366301
 21
499.830831140348
 31
0.0
  0
LINE
  5
3EB2
330
3CA7
100
AcDbEntity
  8
寸法線
 62
     0
 48
10.0
100
AcDbLine
 10
99.296751366301
 20
490.830857140348
 30
0.0
 11
99.296751366301
 21
493.830831140348
 31
0.0
  0
INSERT
  5
3EB3
330
3CA7
100
AcDbEntity
  8
寸法線
 62
     0
 48
10.0
100
AcDbBlockReference
  2
_OPEN30
 10
99.296751366301
 20
484.830857140348
 30
0.0
 41
6.0
 42
6.0
 43
6.0
 50
270.0
  0
INSERT
  5
3EB4
330
3CA7
100
AcDbEntity
  8
寸法線
 62
     0
 48
10.0
100
AcDbBlockReference
  2
_OPEN30
 10
99.296751366301
 20
499.830831140348
 30
0.0
 41
6.0
 42
6.0
 43
6.0
 50
90.0
  0
MTEXT
  5
3EB5
330
3CA7
100
AcDbEntity
  8
寸法線
 62
     0
 48
10.0
100
AcDbMText
 10
94.671751366301
 20
492.330844140348
 30
0.0
 40
8.0
 41
0.0
 71
     5
 72
     1
  1
\A1;15
 11
6.123031769111886E-17
 21
1.0
 31
0.0
  0
POINT
  5
3EB6
330
3CA7
100
AcDbEntity
  8
DEFPOINTS
 62
     0
 48
10.0
100
AcDbPoint
 10
113.490014940495
 20
484.830857140348
 30
0.0
  0
POINT
  5
3EB7
330
3CA7
100
AcDbEntity
  8
DEFPOINTS
 62
     0
 48
10.0
100
AcDbPoint
 10
113.490014940495
 20
499.830831140348
 30
0.0
  0
POINT
  5
3EB8
330
3CA7
100
AcDbEntity
  8
DEFPOINTS
 62
     0
 48
10.0
100
AcDbPoint
 10
99.296751366301
 20
499.830831140348
 30
0.0
  0
ENDBLK
  5
3CB2
330
3CA7
100
AcDbEntity
  8
0
 48
10.0
100
AcDbBlockEnd
  0
BLOCK
  5
3CD5
330
3CCB
100
AcDbEntity
  8
0
 48
10.0
100
AcDbBlockBegin
  2
*D7
 70
     1
 10
0.0
 20
0.0
 30
0.0
  3
*D7
  1

  0
LINE
  5
3EB9
330
3CCB
100
AcDbEntity
  8
寸法線
 62
     0
 48
10.0
100
AcDbLine
 10
428.030756142973
 20
492.330844094271
 30
0.0
 11
449.828090239791
 21
492.330844094271
 31
0.0
  0
LINE
  5
3EBA
330
3CCB
100
AcDbEntity
  8
寸法線
 62
     0
 48
10.0
100
AcDbLine
 10
385.458194108484
 20
403.330844094272
 30
0.0
 11
449.828090239791
 21
403.330844094272
 31
0.0
  0
LINE
  5
3EBB
330
3CCB
100
AcDbEntity
  8
寸法線
 62
     0
 48
10.0
100
AcDbLine
 10
448.578090239791
 20
486.330844094271
 30
0.0
 11
448.578090239791
 21
409.330844094272
 31
0.0
  0
INSERT
  5
3EBC
330
3CCB
100
AcDbEntity
  8
寸法線
 62
     0
100
AcDbBlockReference
  2
_OPEN30
 10
448.578090239791
 20
492.330844094271
 30
0.0
 41
6.0
 42
6.0
 43
6.0
 50
90.0
  0
INSERT
  5
3EBD
330
3CCB
100
AcDbEntity
  8
寸法線
 62
     0
100
AcDbBlockReference
  2
_OPEN30
 10
448.578090239791
 20
403.330844094272
 30
0.0
 41
6.0
 42
6.0
 43
6.0
 50
270.0
  0
MTEXT
  5
3EBE
330
3CCB
100
AcDbEntity
  8
寸法線
 62
     0
 48
10.0
100
AcDbMText
 10
443.944756906458
 20
457.147719401928
 30
0.0
 40
8.0
 41
0.0
 71
     5
 72
     1
  1
\A1;89
 11
0.0
 21
1.0
 31
0.0
  0
POINT
  5
3EBF
330
3CCB
100
AcDbEntity
  8
DEFPOINTS
 62
     0
100
AcDbPoint
 10
427.405756142973
 20
492.330844094271
 30
0.0
  0
POINT
  5
3EC0
330
3CCB
100
AcDbEntity
  8
DEFPOINTS
 62
     0
100
AcDbPoint
 10
384.833194108484
 20
403.330844094272
 30
0.0
  0
POINT
  5
3EC1
330
3CCB
100
AcDbEntity
  8
DEFPOINTS
 62
     0
100
AcDbPoint
 10
448.578090239791
 20
403.330844094272
 30
0.0
  0
ENDBLK
  5
3CD6
330
3CCB
100
AcDbEntity
  8
0
 48
10.0
100
AcDbBlockEnd
  0
BLOCK
  5
3CE1
330
3CD7
100
AcDbEntity
  8
0
 48
10.0
100
AcDbBlockBegin
  2
*D8
 70
     1
 10
0.0
 20
0.0
 30
0.0
  3
*D8
  1

  0
LINE
  5
3EC2
330
3CD7
100
AcDbEntity
  8
寸法線
 62
     0
 48
10.0
100
AcDbLine
 10
400.314302459403
 20
441.931603764155
 30
0.0
 11
469.733696946787
 21
441.931603764155
 31
0.0
  0
LINE
  5
3EC3
330
3CD7
100
AcDbEntity
  8
寸法線
 62
     0
 48
10.0
100
AcDbLine
 10
400.314302459403
 20
542.499107767979
 30
0.0
 11
469.733696946787
 21
542.499107767979
 31
0.0
  0
LINE
  5
3EC4
330
3CD7
100
AcDbEntity
  8
寸法線
 62
     0
 48
10.0
100
AcDbLine
 10
468.483696946787
 20
447.931603764155
 30
0.0
 11
468.483696946787
 21
536.499107767979
 31
0.0
  0
INSERT
  5
3EC5
330
3CD7
100
AcDbEntity
  8
寸法線
 62
     0
 48
10.0
100
AcDbBlockReference
  2
_OPEN30
 10
468.483696946787
 20
441.931603764155
 30
0.0
 41
6.0
 42
6.0
 43
6.0
 50
270.0
  0
INSERT
  5
3EC6
330
3CD7
100
AcDbEntity
  8
寸法線
 62
     0
 48
10.0
100
AcDbBlockReference
  2
_OPEN30
 10
468.483696946787
 20
542.499107767979
 30
0.0
 41
6.0
 42
6.0
 43
6.0
 50
90.0
  0
MTEXT
  5
3EC7
330
3CD7
100
AcDbEntity
  8
寸法線
 62
     0
 48
10.0
100
AcDbMText
 10
463.858696946787
 20
492.215355766068
 30
0.0
 40
8.0
 41
0.0
 71
     5
 72
     1
  1
\A1;φ100
 11
6.123031769111886E-17
 21
1.0
 31
0.0
  0
POINT
  5
3EC8
330
3CD7
100
AcDbEntity
  8
DEFPOINTS
 62
     0
 48
10.0
100
AcDbPoint
 10
399.689302459403
 20
441.931603764155
 30
0.0
  0
POINT
  5
3EC9
330
3CD7
100
AcDbEntity
  8
DEFPOINTS
 62
     0
 48
10.0
100
AcDbPoint
 10
399.689302459403
 20
542.499107767979
 30
0.0
  0
POINT
  5
3ECA
330
3CD7
100
AcDbEntity
  8
DEFPOINTS
 62
     0
 48
10.0
100
AcDbPoint
 10
468.483696946787
 20
542.499107767979
 30
0.0
  0
ENDBLK
  5
3CE2
330
3CD7
100
AcDbEntity
  8
0
 48
10.0
100
AcDbBlockEnd
  0
BLOCK
  5
3DDF
330
3DD5
100
AcDbEntity
  8
0
 48
10.0
100
AcDbBlockBegin
  2
*D9
 70
     1
 10
0.0
 20
0.0
 30
0.0
  3
*D9
  1

  0
LINE
  5
3EA7
330
3DD5
100
AcDbEntity
  8
寸法線
 62
     0
 48
10.0
100
AcDbLine
 10
313.290032940495
 20
471.705844094272
 30
0.0
 11
313.290032940495
 21
373.580844094271
 31
0.0
  0
LINE
  5
3EA8
330
3DD5
100
AcDbEntity
  8
寸法線
 62
     0
 48
10.0
100
AcDbLine
 10
427.406509647476
 20
447.173173370621
 30
0.0
 11
427.406509647476
 21
373.580844094271
 31
0.0
  0
LINE
  5
3EA9
330
3DD5
100
AcDbEntity
  8
寸法線
 62
     0
 48
10.0
100
AcDbLine
 10
319.290032940495
 20
374.830844094271
 30
0.0
 11
421.406509647476
 21
374.830844094271
 31
0.0
  0
INSERT
  5
3EAA
330
3DD5
100
AcDbEntity
  8
寸法線
 62
     0
100
AcDbBlockReference
  2
_OPEN30
 10
313.290032940495
 20
374.830844094271
 30
0.0
 41
6.0
 42
6.0
 43
6.0
 50
180.0
  0
INSERT
  5
3EAB
330
3DD5
100
AcDbEntity
  8
寸法線
 62
     0
100
AcDbBlockReference
  2
_OPEN30
 10
427.406509647476
 20
374.830844094271
 30
0.0
 41
6.0
 42
6.0
 43
6.0
  0
MTEXT
  5
3EAC
330
3DD5
100
AcDbEntity
  8
寸法線
 62
     0
 48
10.0
100
AcDbMText
 10
370.348271293985
 20
379.455844094271
 30
0.0
 40
8.0
 41
0.0
 71
     5
 72
     1
  1
\A1;111
  0
POINT
  5
3EAD
330
3DD5
100
AcDbEntity
  8
DEFPOINTS
 62
     0
100
AcDbPoint
 10
313.290032940495
 20
472.330844094272
 30
0.0
  0
POINT
  5
3EAE
330
3DD5
100
AcDbEntity
  8
DEFPOINTS
 62
     0
100
AcDbPoint
 10
427.406509647476
 20
447.798173370621
 30
0.0
  0
POINT
  5
3EAF
330
3DD5
100
AcDbEntity
  8
DEFPOINTS
 62
     0
100
AcDbPoint
 10
427.406509647476
 20
374.830844094271
 30
0.0
  0
ENDBLK
  5
3DE0
330
3DD5
100
AcDbEntity
  8
0
 48
10.0
100
AcDbBlockEnd
  0
BLOCK
  5
3DEC
330
3DE2
100
AcDbEntity
  8
0
 48
10.0
100
AcDbBlockBegin
  2
*D10
 70
     1
 10
0.0
 20
0.0
 30
0.0
  3
*D10
  1

  0
LINE
  5
3E9F
330
3DE2
100
AcDbEntity
  8
寸法線
 62
     0
 48
10.0
100
AcDbLine
 10
111.290032940495
 20
483.205844140347
 30
0.0
 11
111.290032940495
 21
373.580844094271
 31
0.0
  0
LINE
  5
3EA0
330
3DE2
100
AcDbEntity
  8
寸法線
 62
     0
 48
10.0
100
AcDbLine
 10
313.290032940495
 20
471.705844094272
 30
0.0
 11
313.290032940495
 21
373.580844094271
 31
0.0
  0
LINE
  5
3EA1
330
3DE2
100
AcDbEntity
  8
寸法線
 62
     0
 48
10.0
100
AcDbLine
 10
117.290032940495
 20
374.830844094271
 30
0.0
 11
307.290032940495
 21
374.830844094271
 31
0.0
  0
INSERT
  5
3EA2
330
3DE2
100
AcDbEntity
  8
寸法線
 62
     0
100
AcDbBlockReference
  2
_OPEN30
 10
111.290032940495
 20
374.830844094271
 30
0.0
 41
6.0
 42
6.0
 43
6.0
 50
180.0
  0
INSERT
  5
3EA3
330
3DE2
100
AcDbEntity
  8
寸法線
 62
     0
100
AcDbBlockReference
  2
_OPEN30
 10
313.290032940495
 20
374.830844094271
 30
0.0
 41
6.0
 42
6.0
 43
6.0
  0
POINT
  5
3EA4
330
3DE2
100
AcDbEntity
  8
DEFPOINTS
 62
     0
100
AcDbPoint
 10
111.290032940495
 20
483.830844140347
 30
0.0
  0
POINT
  5
3EA5
330
3DE2
100
AcDbEntity
  8
DEFPOINTS
 62
     0
100
AcDbPoint
 10
313.290032940495
 20
472.330844094272
 30
0.0
  0
POINT
  5
3EA6
330
3DE2
100
AcDbEntity
  8
DEFPOINTS
 62
     0
100
AcDbPoint
 10
313.290032940495
 20
374.830844094271
 30
0.0
  0
ENDBLK
  5
3DED
330
3DE2
100
AcDbEntity
  8
0
 48
10.0
100
AcDbBlockEnd
  0
BLOCK
  5
3E01
330
3DF7
100
AcDbEntity
  8
0
 48
10.0
100
AcDbBlockBegin
  2
*D11
 70
     1
 10
0.0
 20
0.0
 30
0.0
  3
*D11
  1

  0
LINE
  5
3E95
330
3DF7
100
AcDbEntity
  8
寸法線
 62
     0
 48
10.0
100
AcDbLine
 10
237.46774816681
 20
506.330844094273
 30
0.0
 11
236.84274816681
 21
506.330844094273
 31
0.0
  0
LINE
  5
3E96
330
3DF7
100
AcDbEntity
  8
寸法線
 62
     0
 48
10.0
100
AcDbLine
 10
237.46774816681
 20
478.330844110272
 30
0.0
 11
236.84274816681
 21
478.330844110272
 31
0.0
  0
LINE
  5
3E97
330
3DF7
100
AcDbEntity
  8
寸法線
 62
     0
 48
10.0
100
AcDbLine
 10
238.09274816681
 20
500.330844094273
 30
0.0
 11
238.09274816681
 21
484.330844110272
 31
0.0
  0
LINE
  5
3E98
330
3DF7
100
AcDbEntity
  8
寸法線
 62
     0
 48
10.0
100
AcDbLine
 10
238.09274816681
 20
533.503718637812
 30
0.0
 11
238.09274816681
 21
506.330844094273
 31
0.0
  0
MTEXT
  5
3E99
330
3DF7
100
AcDbEntity
  8
寸法線
 62
     0
 48
10.0
100
AcDbMText
 10
233.466960765236
 20
524.878718637812
 30
0.0
 40
8.0
 41
0.0
 71
     5
 72
     1
  1
\A1;%%C28
 11
6.123031769111886E-17
 21
1.0
 31
0.0
  0
INSERT
  5
3E9A
330
3DF7
100
AcDbEntity
  8
寸法線
 62
     0
 48
10.0
100
AcDbBlockReference
  2
_OPEN30
 10
238.09274816681
 20
506.330844094273
 30
0.0
 41
6.0
 42
6.0
 43
6.0
 50
90.0
  0
INSERT
  5
3E9B
330
3DF7
100
AcDbEntity
  8
寸法線
 62
     0
 48
10.0
100
AcDbBlockReference
  2
_OPEN30
 10
238.09274816681
 20
478.330844110272
 30
0.0
 41
6.0
 42
6.0
 43
6.0
 50
270.0
  0
POINT
  5
3E9C
330
3DF7
100
AcDbEntity
  8
DEFPOINTS
 62
     0
 48
10.0
100
AcDbPoint
 10
238.09274816681
 20
506.330844094273
 30
0.0
  0
POINT
  5
3E9D
330
3DF7
100
AcDbEntity
  8
DEFPOINTS
 62
     0
 48
10.0
100
AcDbPoint
 10
238.09274816681
 20
478.330844110272
 30
0.0
  0
POINT
  5
3E9E
330
3DF7
100
AcDbEntity
  8
DEFPOINTS
 62
     0
 48
10.0
100
AcDbPoint
 10
238.09274816681
 20
478.330844110272
 30
0.0
  0
ENDBLK
  5
3E02
330
3DF7
100
AcDbEntity
  8
0
 48
10.0
100
AcDbBlockEnd
  0
BLOCK
  5
4448
330
4415
100
AcDbEntity
  8
0
100
AcDbBlockBegin
  2
44D00A4
 70
     0
 10
0.0
 20
0.0
 30
0.0
  3
44D00A4
  1

  0
MTEXT
  5
443A
102
{ACAD_XDICTIONARY
360
443B
102
}
330
4415
100
AcDbEntity
  8
寸法線
 48
10.0
100
AcDbMText
 10
4.16023614918
 20
-28.577044564399
 30
0.0
 40
5.0
 41
60.244444444444
 71
     1
 72
     5
  1
2015.8.25
1001
ACADANNOTATIVE
1000
AnnotativeData
1002
{
1070
     1
1070
     0
1002
}
  0
MTEXT
  5
443E
102
{ACAD_XDICTIONARY
360
443F
102
}
330
4415
100
AcDbEntity
  8
寸法線
 48
10.0
100
AcDbMText
 10
2.607096279932
 20
-8.771418706705
 30
0.0
 40
5.0
 41
24.595673902063
 71
     1
 72
     5
  1
takahashi
1001
ACADANNOTATIVE
1000
AnnotativeData
1002
{
1070
     1
1070
     0
1002
}
  0
ENDBLK
  5
4449
330
4415
100
AcDbEntity
  8
0
100
AcDbBlockEnd
  0
ENDSEC
  0
SECTION
  2
ENTITIES
  0
MTEXT
  5
30E8
330
1A
100
AcDbEntity
  8
寸法線
 48
10.0
100
AcDbMText
 10
437.551759871144
 20
396.322868692533
 30
0.0
 40
8.0
 41
54.634281616298
 71
     1
 72
     5
  1
コードロック\P2×M20
  0
MTEXT
  5
30ED
102
{ACAD_XDICTIONARY
360
471E
102
}
330
1A
100
AcDbEntity
  8
寸法線
 48
10.0
100
AcDbMText
 10
348.966260671046
 20
416.61756550489
 30
0.0
 40
8.0
 41
43.585115063315
 71
     3
 72
     5
  1
2×NPT 1/2"
1001
ACADANNOTATIVE
1000
AnnotativeData
1002
{
1070
     1
1070
     0
1002
}
  0
MTEXT
  5
30F0
330
1A
100
AcDbEntity
  8
寸法線
 48
10.0
100
AcDbMText
 10
403.445790322216
 20
595.531379735817
 30
0.0
 40
8.0
 41
52.299095688858
 71
     1
 72
     5
  1
アルミ鋳物
  0
MTEXT
  5
30F2
330
1A
100
AcDbEntity
  8
寸法線
 48
10.0
100
AcDbMText
 10
347.486500665906
 20
595.249425934404
 30
0.0
 40
8.0
 41
32.682938326441
 71
     1
 72
     5
  1
平径41
  0
MTEXT
  5
30F9
102
{ACAD_XDICTIONARY
360
471B
102
}
330
1A
100
AcDbEntity
  8
寸法線
 48
10.0
100
AcDbMText
 10
146.112313659816
 20
609.854226908591
 30
0.0
 40
8.0
 41
204.622222222222
 71
     3
 72
     5
  1
振動部（検知部）\PEN1.4404(SUS316相当)
1001
ACADANNOTATIVE
1000
AnnotativeData
1002
{
1070
     1
1070
     0
1002
}
  0
LINE
  5
33A8
330
1A
100
AcDbEntity
  8
寸法線
100
AcDbLine
 10
122.222376755346
 20
352.020504140527
 30
0.0
 11
122.222376755346
 21
302.020504140527
 31
0.0
  0
LINE
  5
33A9
330
1A
100
AcDbEntity
  8
寸法線
100
AcDbLine
 10
122.222376755346
 20
352.020504140527
 30
0.0
 11
-22.977623244654
 21
352.020504140527
 31
0.0
  0
LINE
  5
33AA
330
1A
100
AcDbEntity
  8
寸法線
100
AcDbLine
 10
-22.977623244654
 20
352.020504140527
 30
0.0
 11
-22.977623244654
 21
302.020504140527
 31
0.0
  0
LINE
  5
33AB
330
1A
100
AcDbEntity
  8
寸法線
100
AcDbLine
 10
-15.777623244654
 20
300.020504140527
 30
0.0
 11
-15.777623244654
 21
262.020504140527
 31
0.0
  0
LINE
  5
33AC
330
1A
100
AcDbEntity
  8
寸法線
100
AcDbLine
 10
115.022376755346
 20
300.020504140527
 30
0.0
 11
115.022376755346
 21
262.020504140527
 31
0.0
  0
CIRCLE
  5
33AD
330
1A
100
AcDbEntity
  8
寸法線
100
AcDbCircle
 10
-15.777623244654
 20
302.020504140527
 30
0.0
 40
2.0
  0
CIRCLE
  5
33AE
330
1A
100
AcDbEntity
  8
寸法線
100
AcDbCircle
 10
10.382376755346
 20
302.020504140527
 30
0.0
 40
2.0
  0
CIRCLE
  5
33AF
330
1A
100
AcDbEntity
  8
寸法線
100
AcDbCircle
 10
36.542376755346
 20
302.020504140527
 30
0.0
 40
2.0
  0
CIRCLE
  5
33B0
330
1A
100
AcDbEntity
  8
寸法線
100
AcDbCircle
 10
62.702376755346
 20
302.020504140527
 30
0.0
 40
2.0
  0
CIRCLE
  5
33B1
330
1A
100
AcDbEntity
  8
寸法線
100
AcDbCircle
 10
88.862376755346
 20
302.020504140527
 30
0.0
 40
2.0
  0
CIRCLE
  5
33B2
330
1A
100
AcDbEntity
  8
寸法線
100
AcDbCircle
 10
115.022376755346
 20
302.020504140527
 30
0.0
 40
2.0
  0
LINE
  5
33B3
330
1A
100
AcDbEntity
  8
寸法線
100
AcDbLine
 10
10.382376755346
 20
300.020504140527
 30
0.0
 11
10.382376755346
 21
262.020504140527
 31
0.0
  0
LINE
  5
33B4
330
1A
100
AcDbEntity
  8
寸法線
100
AcDbLine
 10
36.542376755346
 20
300.020504140527
 30
0.0
 11
36.542376755346
 21
262.020504140527
 31
0.0
  0
LINE
  5
33B5
330
1A
100
AcDbEntity
  8
寸法線
100
AcDbLine
 10
62.702376755346
 20
300.020504140527
 30
0.0
 11
62.702376755346
 21
262.020504140527
 31
0.0
  0
LINE
  5
33B6
330
1A
100
AcDbEntity
  8
寸法線
100
AcDbLine
 10
88.862376755346
 20
300.020504140527
 30
0.0
 11
88.862376755346
 21
262.020504140527
 31
0.0
  0
LINE
  5
33B7
330
1A
100
AcDbEntity
  8
寸法線
100
AcDbLine
 10
-17.777623244654
 20
302.020504140527
 30
0.0
 11
-22.977623244654
 21
302.020504140527
 31
0.0
  0
LINE
  5
33B8
330
1A
100
AcDbEntity
  8
寸法線
100
AcDbLine
 10
-13.777623244654
 20
302.020504140527
 30
0.0
 11
8.382376755346
 21
302.020504140527
 31
0.0
  0
LINE
  5
33B9
330
1A
100
AcDbEntity
  8
寸法線
100
AcDbLine
 10
12.382376755346
 20
302.020504140527
 30
0.0
 11
34.542376755346
 21
302.020504140527
 31
0.0
  0
LINE
  5
33BA
330
1A
100
AcDbEntity
  8
寸法線
100
AcDbLine
 10
38.542376755346
 20
302.020504140527
 30
0.0
 11
60.702376755346
 21
302.020504140527
 31
0.0
  0
LINE
  5
33BB
330
1A
100
AcDbEntity
  8
寸法線
100
AcDbLine
 10
64.702376755346
 20
302.020504140527
 30
0.0
 11
86.862376755346
 21
302.020504140527
 31
0.0
  0
LINE
  5
33BC
330
1A
100
AcDbEntity
  8
寸法線
100
AcDbLine
 10
90.862376755346
 20
302.020504140527
 30
0.0
 11
113.022376755346
 21
302.020504140527
 31
0.0
  0
LINE
  5
33BD
330
1A
100
AcDbEntity
  8
寸法線
100
AcDbLine
 10
122.222376755346
 20
302.020504140527
 30
0.0
 11
117.022376755346
 21
302.020504140527
 31
0.0
  0
CIRCLE
  5
33BE
330
1A
100
AcDbEntity
  8
寸法線
100
AcDbCircle
 10
-15.977623244654
 20
311.020504140527
 30
0.0
 40
5.0
  0
CIRCLE
  5
33C0
330
1A
100
AcDbEntity
  8
寸法線
100
AcDbCircle
 10
10.422376755346
 20
311.020504140527
 30
0.0
 40
5.0
  0
CIRCLE
  5
33C2
330
1A
100
AcDbEntity
  8
寸法線
100
AcDbCircle
 10
36.622376755346
 20
311.020504140527
 30
0.0
 40
5.0
  0
CIRCLE
  5
33C4
330
1A
100
AcDbEntity
  8
寸法線
100
AcDbCircle
 10
62.822376755346
 20
311.020504140527
 30
0.0
 40
5.0
  0
CIRCLE
  5
33C6
330
1A
100
AcDbEntity
  8
寸法線
100
AcDbCircle
 10
89.022376755346
 20
311.020504140527
 30
0.0
 40
5.0
  0
CIRCLE
  5
33C8
330
1A
100
AcDbEntity
  8
寸法線
100
AcDbCircle
 10
115.222376755346
 20
311.020504140527
 30
0.0
 40
5.0
  0
LINE
  5
33D0
330
1A
100
AcDbEntity
  8
寸法線
100
AcDbLine
 10
-24.977623244654
 20
300.020504140527
 30
0.0
 11
-24.977623244654
 21
354.020504140527
 31
0.0
  0
LINE
  5
33D1
330
1A
100
AcDbEntity
  8
寸法線
100
AcDbLine
 10
-24.977623244654
 20
354.020504140527
 30
0.0
 11
124.222376755346
 21
354.020504140527
 31
0.0
  0
LINE
  5
33D2
330
1A
100
AcDbEntity
  8
寸法線
100
AcDbLine
 10
124.222376755346
 20
300.020504140527
 30
0.0
 11
124.222376755346
 21
354.020504140527
 31
0.0
  0
LINE
  5
33D3
330
1A
100
AcDbEntity
  8
寸法線
100
AcDbLine
 10
-24.977623244654
 20
300.020504140527
 30
0.0
 11
124.222376755346
 21
300.020504140527
 31
0.0
  0
LINE
  5
33D4
330
1A
100
AcDbEntity
  8
寸法線
100
AcDbLine
 10
115.022376755346
 20
316.820504140527
 30
0.0
 11
115.022376755346
 21
345.220504140527
 31
0.0
  0
LINE
  5
33D5
330
1A
100
AcDbEntity
  8
寸法線
100
AcDbLine
 10
88.862376755346
 20
317.020504140527
 30
0.0
 11
88.862376755346
 21
326.420504140527
 31
0.0
  0
LINE
  5
33D6
330
1A
100
AcDbEntity
  8
寸法線
100
AcDbLine
 10
62.702376755346
 20
317.020504140527
 30
0.0
 11
62.702376755346
 21
345.220504140527
 31
0.0
  0
CIRCLE
  5
33D7
330
1A
100
AcDbEntity
  8
寸法線
100
AcDbCircle
 10
88.862376755346
 20
328.420504140527
 30
0.0
 40
2.0
  0
LINE
  5
33D8
330
1A
100
AcDbEntity
  8
寸法線
100
AcDbLine
 10
79.931724341487
 20
345.220504140527
 30
0.0
 11
62.702376755346
 21
345.220504140527
 31
0.0
  0
LINE
  5
33D9
330
1A
100
AcDbEntity
  8
寸法線
100
AcDbLine
 10
88.70288631078
 20
330.414134697599
 30
0.0
 11
103.062442631428
 21
346.620504140527
 31
0.0
  0
LINE
  5
33DB
330
1A
100
AcDbEntity
  8
寸法線
100
AcDbLine
 10
101.902376755346
 20
345.220504140527
 30
0.0
 11
115.022376755346
 21
345.220504140527
 31
0.0
  0
POINT
  5
33DC
330
1A
100
AcDbEntity
  8
寸法線
100
AcDbPoint
 10
49.622376755346
 20
302.020504140527
 30
0.0
  0
LINE
  5
33DD
330
1A
100
AcDbEntity
  8
寸法線
100
AcDbLine
 10
49.622376755346
 20
293.600504140527
 30
0.0
 11
49.622376755346
 21
290.060504140527
 31
0.0
  0
CIRCLE
  5
33DE
330
1A
100
AcDbEntity
  8
寸法線
100
AcDbCircle
 10
49.622376755346
 20
288.600504140527
 30
0.0
 40
5.0
  0
LINE
  5
33DF
330
1A
100
AcDbEntity
  8
寸法線
100
AcDbLine
 10
45.962376755346
 20
290.060504140527
 30
0.0
 11
53.482376755346
 21
290.060504140527
 31
0.0
  0
LINE
  5
33E0
330
1A
100
AcDbEntity
  8
寸法線
100
AcDbLine
 10
47.502376755346
 20
288.260504140527
 30
0.0
 11
51.922376755346
 21
288.260504140527
 31
0.0
  0
LINE
  5
33E1
330
1A
100
AcDbEntity
  8
寸法線
100
AcDbLine
 10
48.722376755346
 20
286.520504140527
 30
0.0
 11
50.802376755346
 21
286.520504140527
 31
0.0
  0
LINE
  5
33E2
330
1A
100
AcDbEntity
  8
寸法線
100
AcDbLine
 10
45.222376755346
 20
310.820504140527
 30
0.0
 11
54.022376755346
 21
310.820504140527
 31
0.0
  0
POINT
  5
33E3
330
1A
100
AcDbEntity
  8
寸法線
100
AcDbPoint
 10
49.622376755346
 20
306.420504140527
 30
0.0
  0
CIRCLE
  5
33E4
330
1A
100
AcDbEntity
  8
寸法線
100
AcDbCircle
 10
49.622376755346
 20
306.420504140527
 30
0.0
 40
4.40000000000004
  0
LINE
  5
33E5
330
1A
100
AcDbEntity
  8
寸法線
100
AcDbLine
 10
45.222376755346
 20
302.020504140527
 30
0.0
 11
45.222376755346
 21
310.820504140527
 31
0.0
  0
LINE
  5
33E6
330
1A
100
AcDbEntity
  8
寸法線
100
AcDbLine
 10
54.022376755346
 20
302.020504140527
 30
0.0
 11
54.022376755346
 21
310.820504140527
 31
0.0
  0
LINE
  5
33E7
330
1A
100
AcDbEntity
  8
寸法線
100
AcDbLine
 10
51.622376755346
 20
306.420504140527
 30
0.0
 11
47.622376755346
 21
306.420504140527
 31
0.0
  0
LINE
  5
33E8
330
1A
100
AcDbEntity
  8
寸法線
100
AcDbLine
 10
49.622376755346
 20
304.420504140527
 30
0.0
 11
49.622376755346
 21
308.420504140527
 31
0.0
  0
LINE
  5
33E9
330
1A
100
AcDbEntity
  8
寸法線
100
AcDbLine
 10
49.622376755346
 20
302.020504140527
 30
0.0
 11
49.622376755346
 21
293.600504140527
 31
0.0
  0
MTEXT
  5
3454
330
1A
100
AcDbEntity
  8
寸法線
 48
10.0
100
AcDbMText
 10
-20.394402293942
 20
348.89193858555
 30
0.0
 40
8.0
 41
95.557777777778
 71
     1
 72
     5
  1
{\C1;RFM-3□□}
  0
MTEXT
  5
3455
330
1A
100
AcDbEntity
  8
寸法線
 48
10.0
100
AcDbMText
 10
-17.177256131746
 20
314.22706582919
 30
0.0
 40
7.0
 41
95.557777777778
 71
     1
 72
     5
  1
{\C1;1}
  0
MTEXT
  5
3456
330
1A
100
AcDbEntity
  8
寸法線
 48
10.0
100
AcDbMText
 10
8.842464660278
 20
314.22706582919
 30
0.0
 40
7.0
 41
95.557777777778
 71
     1
 72
     5
  1
{\C1;2}
  0
MTEXT
  5
3457
330
1A
100
AcDbEntity
  8
寸法線
 48
10.0
100
AcDbMText
 10
35.265552846152
 20
314.22706582919
 30
0.0
 40
7.0
 41
95.557777777778
 71
     1
 72
     5
  1
{\C1;3}
  0
MTEXT
  5
3458
330
1A
100
AcDbEntity
  8
寸法線
 48
10.0
100
AcDbMText
 10
61.250363917119
 20
314.22706582919
 30
0.0
 40
7.0
 41
95.557777777778
 71
     1
 72
     5
  1
{\C1;7}
  0
MTEXT
  5
3459
330
1A
100
AcDbEntity
  8
寸法線
 48
10.0
100
AcDbMText
 10
87.83269951594
 20
314.22706582919
 30
0.0
 40
7.0
 41
95.557777777778
 71
     1
 72
     5
  1
{\C1;8}
  0
MTEXT
  5
345A
330
1A
100
AcDbEntity
  8
寸法線
 48
10.0
100
AcDbMText
 10
113.43350177599
 20
314.22706582919
 30
0.0
 40
7.0
 41
95.557777777778
 71
     1
 72
     5
  1
{\C1;9}
  0
MTEXT
  5
345B
330
1A
100
AcDbEntity
  8
寸法線
 48
10.0
100
AcDbMText
 10
-19.764858395536
 20
259.374768208981
 30
0.0
 40
8.0
 41
95.557777777778
 71
     1
 72
     5
  1
{\C1;PE}
  0
MTEXT
  5
345C
330
1A
100
AcDbEntity
  8
寸法線
 48
10.0
100
AcDbMText
 10
7.9959828549
 20
259.374768208981
 30
0.0
 40
8.0
 41
95.557777777778
 71
     1
 72
     5
  1
{\C1;N}
  0
MTEXT
  5
345D
330
1A
100
AcDbEntity
  8
寸法線
 48
10.0
100
AcDbMText
 10
33.889659558246
 20
259.374768208981
 30
0.0
 40
8.0
 41
95.557777777778
 71
     1
 72
     5
  1
{\C1;L1}
  0
MTEXT
  5
345E
330
1A
100
AcDbEntity
  8
寸法線
 48
10.0
100
AcDbMText
 10
58.152438135742
 20
259.374768208981
 30
0.0
 40
8.0
 41
95.557777777778
 71
     1
 72
     5
  1
{\C1;NO}
  0
MTEXT
  5
345F
330
1A
100
AcDbEntity
  8
寸法線
 48
10.0
100
AcDbMText
 10
86.651412512734
 20
259.374768208981
 30
0.0
 40
8.0
 41
95.557777777778
 71
     1
 72
     5
  1
{\C1;C}
  0
MTEXT
  5
3460
330
1A
100
AcDbEntity
  8
寸法線
 48
10.0
100
AcDbMText
 10
109.269113709139
 20
259.374768208981
 30
0.0
 40
8.0
 41
95.557777777778
 71
     1
 72
     5
  1
{\C1;NC}
  0
LWPOLYLINE
  5
351C
330
1A
100
AcDbEntity
  8
細線
100
AcDbPolyline
 90
       67
 70
     0
 43
0.0
 10
257.610314646289
 20
478.330844110272
 10
257.525958048459
 20
478.557278343321
 10
257.423883393332
 20
478.839054982778
 10
257.269802950571
 20
479.279884938719
 10
257.076843614912
 20
479.856206394015
 10
256.858132281088
 20
480.544457531536
 10
256.62679584383
 20
481.321076534156
 10
256.395961197872
 20
482.162501584743
 10
256.178755237948
 20
483.045170866176
 10
255.988304858793
 20
483.945522561321
 10
255.837736955137
 20
484.839994853051
 10
255.740178421715
 20
485.70502592424
 10
255.705857195259
 20
486.484594439915
 10
255.72675442021
 20
487.220326826067
 10
255.798013735845
 20
487.916532211026
 10
255.914778781442
 20
488.577519723126
 10
256.072193196278
 20
489.207598490699
 10
256.265400619628
 20
489.811077642072
 10
256.489544690774
 20
490.39226630558
 10
256.739769048989
 20
490.955473609555
 10
257.011217333553
 20
491.505008682328
 10
257.299033183742
 20
492.045180652226
 10
257.598360238835
 20
492.580298647584
 10
257.903737717562
 20
493.113879278768
 10
258.209804030209
 20
493.650630376416
 10
258.510611287267
 20
494.194465225034
 10
258.800211599223
 20
494.749297109123
 10
259.072657076565
 20
495.319039313187
 10
259.321999829784
 20
495.907605121731
 10
259.542291969365
 20
496.518907819254
 10
259.727585605798
 20
497.156860690262
 10
259.871932849572
 20
497.825377019255
 10
259.969385811172
 20
498.528370090739
 10
260.013996601091
 20
499.269753189216
 10
259.999533091359
 20
500.090356635747
 10
259.925954034113
 20
500.937066738335
 10
259.799073715051
 20
501.78926887219
 10
259.624706419875
 20
502.626348412527
 10
259.408666434282
 20
503.42769073456
 10
259.156768043976
 20
504.172681213502
 10
258.874825534653
 20
504.840705224562
 10
258.568653192018
 20
505.411148142957
 10
258.244065301766
 20
505.863395343899
 10
257.9068761496
 20
506.1768322026
 10
257.562900021219
 20
506.330844094272
 10
257.172689657909
 20
506.295463663793
 10
256.791079683117
 20
506.051481832288
 10
256.427918185718
 20
505.62123958034
 10
256.093053254597
 20
505.027077888535
 10
255.796332978629
 20
504.291337737458
 10
255.547605446694
 20
503.43636010769
 10
255.356718747671
 20
502.484485979815
 10
255.233520970441
 20
501.45805633442
 10
255.187860203882
 20
500.379412152087
 10
255.229584536871
 20
499.2708944134
 10
255.368542058291
 20
498.154844098944
 10
255.52677975591
 20
497.380216460256
 10
255.725904649037
 20
496.624444995351
 10
255.954126371444
 20
495.899101031599
 10
256.199654556898
 20
495.215755896372
 10
256.45069883917
 20
494.585980917039
 10
256.695468852031
 20
494.021347420972
 10
256.922174229252
 20
493.533426735541
 10
257.1190246046
 20
493.133790188117
 10
257.274229611848
 20
492.834009106068
 10
257.375998884766
 20
492.645654816767
 10
257.412542057123
 20
492.580298647584
  0
LWPOLYLINE
  5
351D
330
1A
100
AcDbEntity
  8
細線
100
AcDbPolyline
 90
       67
 70
     0
 43
0.0
 10
251.40423467533
 20
506.330844094272
 10
251.488591273165
 20
506.104409861225
 10
251.590665928292
 20
505.822633221767
 10
251.744746371051
 20
505.381803265826
 10
251.937705706712
 20
504.805481810531
 10
252.156417040536
 20
504.117230673011
 10
252.387753477794
 20
503.340611670391
 10
252.618588123752
 20
502.499186619801
 10
252.835794083674
 20
501.616517338369
 10
253.026244462831
 20
500.716165643224
 10
253.176812366488
 20
499.821693351494
 10
253.274370899909
 20
498.956662280304
 10
253.308692126365
 20
498.17709376463
 10
253.287794901414
 20
497.44136137848
 10
253.216535585777
 20
496.745155993519
 10
253.099770540181
 20
496.084168481419
 10
252.942356125346
 20
495.454089713848
 10
252.749148701994
 20
494.850610562473
 10
252.52500463085
 20
494.269421898964
 10
252.274780272633
 20
493.70621459499
 10
252.003331988069
 20
493.156679522219
 10
251.71551613788
 20
492.616507552319
 10
251.416189082789
 20
492.08138955696
 10
251.110811604063
 20
491.547808925777
 10
250.804745291415
 20
491.011057828129
 10
250.503938034357
 20
490.467222979513
 10
250.214337722401
 20
489.912391095422
 10
249.941892245057
 20
489.342648891358
 10
249.69254949184
 20
488.754083082816
 10
249.472257352259
 20
488.142780385293
 10
249.286963715826
 20
487.504827514284
 10
249.142616472052
 20
486.83631118529
 10
249.04516351045
 20
486.133318113806
 10
249.000552720533
 20
485.391935015328
 10
249.015016230263
 20
484.571331568798
 10
249.088595287509
 20
483.724621466212
 10
249.215475606572
 20
482.872419332355
 10
249.389842901749
 20
482.035339792018
 10
249.60588288734
 20
481.233997469985
 10
249.857781277648
 20
480.489006991043
 10
250.139723786969
 20
479.820982979983
 10
250.445896129606
 20
479.250540061588
 10
250.770484019858
 20
478.798292860646
 10
251.107673172024
 20
478.484856001946
 10
251.451649300403
 20
478.330844110272
 10
251.841859663714
 20
478.366224540752
 10
252.223469638507
 20
478.610206372257
 10
252.586631135904
 20
479.040448624205
 10
252.921496067027
 20
479.63461031601
 10
253.218216342995
 20
480.370350467089
 10
253.46694387493
 20
481.225328096855
 10
253.657830573953
 20
482.17720222473
 10
253.781028351183
 20
483.203631870125
 10
253.826689117742
 20
484.282276052458
 10
253.784964784753
 20
485.390793791145
 10
253.646007263333
 20
486.5068441056
 10
253.487769565714
 20
487.281471744289
 10
253.288644672585
 20
488.037243209194
 10
253.06042295018
 20
488.762587172946
 10
252.814894764726
 20
489.445932308173
 10
252.563850482454
 20
490.075707287506
 10
252.319080469593
 20
490.640340783573
 10
252.092375092372
 20
491.128261469004
 10
251.895524717023
 20
491.52789801643
 10
251.740319709775
 20
491.827679098477
 10
251.638550436858
 20
492.016033387778
 10
251.602007264501
 20
492.08138955696
  0
SPLINE
  5
3557
330
1A
100
AcDbEntity
  8
寸法線
 48
10.0
100
AcDbSpline
210
0.0
220
0.0
230
1.0
 70
  1064
 71
     3
 72
    13
 73
     9
 74
     7
 42
0.000000001
 43
0.0000000001
 44
0.0000000001
 40
0.0
 40
0.0
 40
0.0
 40
0.0
 40
3.86842211421227
 40
10.12254119268954
 40
15.16331027423529
 40
18.64952359630841
 40
20.50331406220848
 40
21.8476876304271
 40
21.8476876304271
 40
21.8476876304271
 40
21.8476876304271
 10
216.8983586260997
 20
376.3864692179091
 30
0.0
 10
218.0487531014579
 20
376.9178823824954
 30
0.0
 10
221.0590025315479
 20
378.3084368489016
 30
0.0
 10
221.7843882475772
 20
388.0158443465219
 30
0.0
 10
217.4935122266896
 20
381.0339314476761
 30
0.0
 10
217.6814062589096
 20
377.4895486565103
 30
0.0
 10
219.9420772017996
 20
376.1010187545362
 30
0.0
 10
220.9420089235117
 20
376.6012192096665
 30
0.0
 10
221.3623381381335
 20
376.8114824305376
 30
0.0
 11
216.8983586260997
 21
376.3864692179091
 31
0.0
 11
219.9806300074983
 21
378.7240518977596
 31
0.0
 11
220.6714840728157
 21
384.9398966599949
 31
0.0
 11
217.9612116366065
 21
380.6897465150009
 31
0.0
 11
218.4394956218384
 21
377.236497645245
 31
0.0
 11
220.0869150475412
 21
376.3864692179091
 31
0.0
 11
221.3623381381335
 21
376.8114824305376
 31
0.0
  0
CIRCLE
  5
3BAE
330
1A
100
AcDbEntity
  8
外形線
100
AcDbCircle
 10
319.790032940495
 20
492.330844094272
 30
0.0
 40
2.39999999999998
  0
LINE
  5
3BB1
330
1A
100
AcDbEntity
  8
外形線
100
AcDbLine
 10
326.290032940495
 20
511.830844094272
 30
0.0
 11
323.881696523025
 21
516.002205131046
 31
0.0
  0
LINE
  5
3BB2
330
1A
100
AcDbEntity
  8
外形線
100
AcDbLine
 10
313.290032940495
 20
512.330844094272
 30
0.0
 11
315.409694223369
 21
516.002205131046
 31
0.0
  0
LINE
  5
3BB3
330
1A
100
AcDbEntity
  8
外形線
100
AcDbLine
 10
323.881696523025
 20
516.002205131046
 30
0.0
 11
315.409694223369
 21
516.002205131046
 31
0.0
  0
LINE
  5
3BB4
330
1A
100
AcDbEntity
  8
細線
100
AcDbLine
 10
323.946454856267
 20
504.180844094272
 30
0.0
 11
315.633611024722
 21
504.180844094272
 31
0.0
  0
ARC
  5
3BB5
330
1A
100
AcDbEntity
  8
細線
100
AcDbCircle
 10
315.091770912638
 20
510.04525604901
 30
0.0
 40
10.62058168446546
100
AcDbArc
 50
325.983093941252
 51
34.293717569536
  0
ARC
  5
3BB6
330
1A
100
AcDbEntity
  8
細線
100
AcDbCircle
 10
323.573158600737
 20
510.23877843765
 30
0.0
 40
9.99295941604506
100
AcDbArc
 50
144.777810678594
 51
217.874914084162
  0
LINE
  5
3BB7
330
1A
100
AcDbEntity
  8
細線
100
AcDbLine
 10
323.946454856267
 20
480.480844094272
 30
0.0
 11
315.633611024722
 21
480.480844094272
 31
0.0
  0
LINE
  5
3BB8
330
1A
100
AcDbEntity
  8
外形線
100
AcDbLine
 10
326.290032940495
 20
472.830844094272
 30
0.0
 11
323.881696523025
 21
468.659483057498
 31
0.0
  0
LINE
  5
3BB9
330
1A
100
AcDbEntity
  8
外形線
100
AcDbLine
 10
313.290032940495
 20
472.330844094272
 30
0.0
 11
315.409694223369
 21
468.659483057498
 31
0.0
  0
LINE
  5
3BBA
330
1A
100
AcDbEntity
  8
外形線
100
AcDbLine
 10
323.881696523025
 20
468.659483057498
 30
0.0
 11
315.409694223369
 21
468.659483057498
 31
0.0
  0
ARC
  5
3BBB
330
1A
100
AcDbEntity
  8
細線
100
AcDbCircle
 10
323.573158600737
 20
474.422909750894
 30
0.0
 40
9.99295941604506
100
AcDbArc
 50
142.125085915838
 51
215.222189321406
  0
ARC
  5
3BBC
330
1A
100
AcDbEntity
  8
細線
100
AcDbCircle
 10
315.091770912638
 20
474.616432139534
 30
0.0
 40
10.62058168446546
100
AcDbArc
 50
325.706282430464
 51
34.016906058748
  0
ARC
  5
3BBD
330
1A
100
AcDbEntity
  8
細線
100
AcDbCircle
 10
347.426025477229
 20
491.814603526376
 30
0.0
 40
33.677772310861
100
AcDbArc
 50
179.121688811341
 51
199.526620176635
  0
ARC
  5
3BBE
330
1A
100
AcDbEntity
  8
細線
100
AcDbCircle
 10
292.15404040376
 20
491.814603526376
 30
0.0
 40
33.677772310861
100
AcDbArc
 50
340.473379823365
 51
0.878311188659
  0
LINE
  5
3BBF
330
1A
100
AcDbEntity
  8
外形線
100
AcDbLine
 10
326.290032940495
 20
511.830844094272
 30
0.0
 11
326.290032940495
 21
472.830844094272
 31
0.0
  0
ARC
  5
3BC0
330
1A
100
AcDbEntity
  8
細線
100
AcDbCircle
 10
292.15404040376
 20
492.847084662168
 30
0.0
 40
33.677772310861
100
AcDbArc
 50
359.121688811341
 51
19.526620176635
  0
ARC
  5
3BC1
330
1A
100
AcDbEntity
  8
細線
100
AcDbCircle
 10
347.426025477229
 20
492.847084662168
 30
0.0
 40
33.677772310861
100
AcDbArc
 50
160.473379823365
 51
180.878311188659
  0
LINE
  5
3BC2
330
1A
100
AcDbEntity
  8
中心線
 48
10.0
100
AcDbLine
 10
105.702517471332
 20
492.330844094274
 30
0.0
 11
427.405756142973
 21
492.330844094271
 31
0.0
  0
LINE
  5
3BC3
330
1A
100
AcDbEntity
  8
中心線
 48
10.0
100
AcDbLine
 10
376.229601110128
 20
437.173416094272
 30
0.0
 11
376.229601110128
 21
399.773416094272
 31
0.0
  0
DIMENSION
  5
3BC4
330
1A
100
AcDbEntity
  8
寸法線
 48
10.0
100
AcDbDimension
  2
*D8
 10
468.483696946787
 20
542.499107767979
 30
0.0
 11
463.858696946787
 21
492.215355766068
 31
0.0
 70
    32
  1
φ100
  3
ISO-25
100
AcDbAlignedDimension
 13
399.689302459403
 23
441.931603764155
 33
0.0
 14
399.689302459403
 24
542.499107767979
 34
0.0
 50
90.0
100
AcDbRotatedDimension
1001
ACAD
1000
DSTYLE
1002
{
1070
     5
1000
OPEN30
1070
    41
1040
6.0
1070
    47
1040
0.1
1070
    48
1040
0.1
1070
    73
1070
     0
1070
   140
1040
8.0
1070
   271
1070
     1
1070
   272
1070
     1
1070
   341
1005
2AF4
1002
}
  0
DIMENSION
  5
3BC5
330
1A
100
AcDbEntity
  8
寸法線
 48
10.0
100
AcDbDimension
  2
*D7
 10
448.578090239791
 20
403.330844094272
 30
0.0
 11
448.578090239791
 21
457.147719401928
 31
0.0
 70
   160
  3
ISO-25
100
AcDbAlignedDimension
 13
427.405756142973
 23
492.330844094271
 33
0.0
 14
384.833194108484
 24
403.330844094272
 34
0.0
 50
90.0
100
AcDbRotatedDimension
1001
ACAD
1000
DSTYLE
1002
{
1070
     5
1000
OPEN30
1070
    41
1040
6.0
1070
    47
1040
0.1
1070
    48
1040
0.1
1070
    73
1070
     0
1070
   140
1040
8.0
1070
   271
1070
     1
1070
   272
1070
     1
1070
   341
1005
2AF4
1002
}
  0
ARC
  5
3BC6
330
1A
100
AcDbEntity
  8
外形線
100
AcDbCircle
 10
348.266379501917
 20
538.351994200812
 30
0.0
 40
1.036778391792
100
AcDbArc
 50
90.0
 51
180.0
  0
ARC
  5
3BC7
330
1A
100
AcDbEntity
  8
外形線
100
AcDbCircle
 10
346.192822718333
 20
537.18772754744
 30
0.0
 40
1.036778391792
100
AcDbArc
 50
305.000000000004
 51
0.0
  0
ARC
  5
3BC8
330
1A
100
AcDbEntity
  8
外形線
100
AcDbCircle
 10
348.266379501916
 20
446.078717331324
 30
0.0
 40
1.036778391792
100
AcDbArc
 50
180.0
 51
270.0
  0
ARC
  5
3BC9
330
1A
100
AcDbEntity
  8
外形線
100
AcDbCircle
 10
346.192822718332
 20
447.242983984698
 30
0.0
 40
1.036778391792
100
AcDbArc
 50
0.0
 51
54.999999999995
  0
LINE
  5
3BCA
330
1A
100
AcDbEntity
  8
外形線
100
AcDbLine
 10
326.290032940495
 20
525.080844094272
 30
0.0
 11
326.290032940494
 21
459.580844094272
 31
0.0
  0
ARC
  5
3BCB
330
1A
100
AcDbEntity
  8
外形線
100
AcDbCircle
 10
340.540641303622
 20
448.669338588854
 30
0.0
 40
3.110335175376
100
AcDbArc
 50
0.0
 51
54.999999999995
  0
LINE
  5
3BCC
330
1A
100
AcDbEntity
  8
外形線
100
AcDbLine
 10
343.650976478998
 20
448.669338588854
 30
0.0
 11
343.650976478998
 21
447.43809555598
 31
0.0
  0
LINE
  5
3BCD
330
1A
100
AcDbEntity
  8
外形線
100
AcDbLine
 10
427.406509647476
 20
473.254827687141
 30
0.0
 11
427.406509647476
 21
485.994685415317
 31
0.0
  0
LINE
  5
3BCE
330
1A
100
AcDbEntity
  8
外形線
100
AcDbLine
 10
399.828204425808
 20
442.449992960052
 30
0.0
 11
399.828204425809
 21
492.215355766069
 31
0.0
  0
LINE
  5
3BCF
330
1A
100
AcDbEntity
  8
外形線
100
AcDbLine
 10
347.229601110125
 20
537.18772754744
 30
0.0
 11
347.229601110124
 21
447.242983984698
 31
0.0
  0
LINE
  5
3BD0
330
1A
100
AcDbEntity
  8
外形線
100
AcDbLine
 10
389.045709151172
 20
461.340837906658
 30
0.0
 11
389.045709151173
 21
539.909328413166
 31
0.0
  0
LINE
  5
3BD1
330
1A
100
AcDbEntity
  8
外形線
100
AcDbLine
 10
394.229601110132
 20
432.117622486064
 30
0.0
 11
394.229601110133
 21
541.541794804554
 31
0.0
  0
ARC
  5
3BD2
330
1A
100
AcDbEntity
  8
外形線
100
AcDbCircle
 10
393.19282271834
 20
432.117622486064
 30
0.0
 40
1.036778391792
100
AcDbArc
 50
270.0
 51
0.0
  0
LINE
  5
3BD3
330
1A
100
AcDbEntity
  8
外形線
100
AcDbLine
 10
358.934343094742
 20
431.080844094272
 30
0.0
 11
393.19282271834
 21
431.080844094271
 31
0.0
  0
LINE
  5
3BD4
330
1A
100
AcDbEntity
  8
外形線
100
AcDbLine
 10
358.229601110124
 20
465.503949991788
 30
0.0
 11
385.671090381894
 21
465.503949991788
 31
0.0
  0
ARC
  5
3BD5
330
1A
100
AcDbEntity
  8
外形線
100
AcDbCircle
 10
356.15604432654
 20
442.968382155948
 30
0.0
 40
2.073556783584
100
AcDbArc
 50
0.0
 51
90.0
  0
LINE
  5
3BD6
330
1A
100
AcDbEntity
  8
外形線
100
AcDbLine
 10
358.229601110124
 20
432.117622486064
 30
0.0
 11
358.229601110124
 21
465.503949991788
 31
0.0
  0
ARC
  5
3BD7
330
1A
100
AcDbEntity
  8
外形線
100
AcDbCircle
 10
359.266379501916
 20
432.117622486064
 30
0.0
 40
1.036778391792
100
AcDbArc
 50
180.0
 51
270.0
  0
ARC
  5
3BD8
330
1A
100
AcDbEntity
  8
外形線
100
AcDbCircle
 10
359.514608816256
 20
434.191179269648
 30
0.0
 40
3.110335175376
100
AcDbArc
 50
224.999999999998
 51
259.247872764007
  0
LINE
  5
3BD9
330
1A
100
AcDbEntity
  8
外形線
100
AcDbLine
 10
348.266379501916
 20
445.041938939532
 30
0.0
 11
356.15604432654
 21
445.041938939532
 31
0.0
  0
LINE
  5
3BDA
330
1A
100
AcDbEntity
  8
外形線
100
AcDbLine
 10
347.229601110124
 20
447.242983984698
 30
0.0
 11
347.229601110124
 21
446.078717331324
 31
0.0
  0
LINE
  5
3BDB
330
1A
100
AcDbEntity
  8
外形線
100
AcDbLine
 10
405.01209638477
 20
472.218049295349
 30
0.0
 11
426.369731255684
 21
472.218049295349
 31
0.0
  0
LINE
  5
3BDC
330
1A
100
AcDbEntity
  8
外形線
100
AcDbLine
 10
399.828204425808
 20
442.449992960052
 30
0.0
 11
423.476439234492
 21
443.656743278465
 31
0.0
  0
LINE
  5
3BDD
330
1A
100
AcDbEntity
  8
外形線
100
AcDbLine
 10
405.012096384768
 20
448.028399789419
 30
0.0
 11
422.222617688516
 21
448.028399789419
 31
0.0
  0
LINE
  5
3BDE
330
1A
100
AcDbEntity
  8
外形線
100
AcDbLine
 10
405.012096384768
 20
447.211221026335
 30
0.0
 11
424.2961744721
 21
447.211221026335
 31
0.0
  0
LINE
  5
3BDF
330
1A
100
AcDbEntity
  8
外形線
100
AcDbLine
 10
405.01209638477
 20
453.298114324443
 30
0.0
 11
424.2961744721
 21
453.298114324443
 31
0.0
  0
LINE
  5
3BE0
330
1A
100
AcDbEntity
  8
外形線
100
AcDbLine
 10
405.012096384768
 20
463.805023913833
 30
0.0
 11
422.741006884412
 21
463.805023913833
 31
0.0
  0
LINE
  5
3BE1
330
1A
100
AcDbEntity
  8
外形線
100
AcDbLine
 10
405.012096384768
 20
463.239285041481
 30
0.0
 11
424.2961744721
 21
463.239285041481
 31
0.0
  0
LINE
  5
3BE2
330
1A
100
AcDbEntity
  8
外形線
100
AcDbLine
 10
394.747990306026
 20
441.931603764155
 30
0.0
 11
399.689302459402
 21
441.931603764155
 31
0.0
  0
LINE
  5
3BE3
330
1A
100
AcDbEntity
  8
外形線
100
AcDbLine
 10
394.229601110132
 20
442.449992960052
 30
0.0
 11
394.747990306026
 21
441.931603764155
 31
0.0
  0
ARC
  5
3BE4
330
1A
100
AcDbEntity
  8
外形線
100
AcDbCircle
 10
398.791426034016
 20
442.449992960052
 30
0.0
 40
1.036778391792
100
AcDbArc
 50
329.999999999998
 51
0.0
  0
LWPOLYLINE
  5
3BE5
330
1A
100
AcDbEntity
  8
外形線
100
AcDbPolyline
 90
       18
 70
     0
 43
0.0
 10
405.012096384768
 20
447.211221026335
 10
404.058673788364
 20
447.263041489047
 10
403.137718854976
 20
447.416738193473
 10
402.280593600298
 20
447.667077182685
 10
401.516486396866
 20
448.005533462654
 10
400.871417999052
 20
448.420581310698
 10
400.367355437468
 20
448.898086770148
 10
400.02146395809
 20
449.421788965285
 10
399.845522480398
 20
449.973853845968
 10
399.845522480398
 20
450.535481504814
 10
400.02146395809
 20
451.087546385495
 10
400.367355437468
 20
451.611248580634
 10
400.871417999052
 20
452.088754040084
 10
401.516486396866
 20
452.503801888128
 10
402.280593600298
 20
452.842258168095
 10
403.137718854976
 20
453.092597157308
 10
404.058673788364
 20
453.246293861733
 10
405.012096384768
 20
453.298114324443
  0
LWPOLYLINE
  5
3BE6
330
1A
100
AcDbEntity
  8
外形線
100
AcDbPolyline
 90
        8
 70
     0
 43
0.0
 10
405.012096384768
 20
448.028399789419
 10
404.003240638426
 20
448.086481493959
 10
403.032891275236
 20
448.258509723379
 10
402.138084952326
 20
448.537918439927
 10
401.35297497183
 20
448.914043067289
 10
400.70752770489
 20
449.37252754013
 10
400.226378824008
 20
449.89587225174
 10
399.92789299948
 20
450.46410198559
  0
LWPOLYLINE
  5
3BE7
330
1A
100
AcDbEntity
  8
外形線
100
AcDbPolyline
 90
        8
 70
     0
 43
0.0
 10
405.012096384768
 20
463.805023913833
 10
404.02163771152
 20
463.881492776235
 10
403.06492054027
 20
464.108294333729
 10
402.174536916718
 20
464.477702241527
 10
401.380819131976
 20
464.977132049624
 10
400.710806406298
 20
465.589569911484
 10
400.187323756346
 20
466.294152186955
 10
399.828204425808
 20
467.066876194362
  0
LWPOLYLINE
  5
3BE8
330
1A
100
AcDbEntity
  8
外形線
100
AcDbPolyline
 90
       18
 70
     0
 43
0.0
 10
405.012096384768
 20
463.239285041481
 10
404.058716467026
 20
463.315725303437
 10
403.137802758932
 20
463.542443007865
 10
402.280715872296
 20
463.911717555259
 10
401.516642873084
 20
464.410973743802
 10
400.871603350878
 20
465.023210002784
 10
400.367563352966
 20
465.727577360704
 10
400.02168735695
 20
466.500089431983
 10
399.845753755038
 20
467.314439244559
 10
399.845753755038
 20
468.142895092272
 10
400.02168735695
 20
468.957244904848
 10
400.367563352966
 20
469.729756976127
 10
400.871603350878
 20
470.434124334048
 10
401.516642873084
 20
471.046360593029
 10
402.280715872296
 20
471.545616781573
 10
403.137802758932
 20
471.914891328965
 10
404.058716467026
 20
472.141609033393
 10
405.012096384768
 20
472.218049295349
  0
ARC
  5
3BE9
330
1A
100
AcDbEntity
  8
外形線
100
AcDbCircle
 10
423.259396080308
 20
447.798173370621
 30
0.0
 40
4.147113567168
100
AcDbArc
 50
272.999999999999
 51
0.0
  0
LINE
  5
3BEA
330
1A
100
AcDbEntity
  8
外形線
100
AcDbLine
 10
427.406509647476
 20
467.421623953051
 30
0.0
 11
427.406509647476
 21
447.798173370621
 31
0.0
  0
ARC
  5
3BEB
330
1A
100
AcDbEntity
  8
外形線
100
AcDbCircle
 10
422.222617688516
 20
450.101956573003
 30
0.0
 40
2.073556783584
100
AcDbArc
 50
270.0
 51
0.0
  0
LINE
  5
3BEC
330
1A
100
AcDbEntity
  8
外形線
100
AcDbLine
 10
424.2961744721
 20
450.101956573003
 30
0.0
 11
424.2961744721
 21
453.298114324443
 31
0.0
  0
ARC
  5
3BED
330
1A
100
AcDbEntity
  8
外形線
100
AcDbCircle
 10
424.2961744721
 20
450.321556201711
 30
0.0
 40
3.110335175376
100
AcDbArc
 50
270.0
 51
0.0
  0
ARC
  5
3BEE
330
1A
100
AcDbEntity
  8
外形線
100
AcDbCircle
 10
424.2961744721
 20
456.408449499819
 30
0.0
 40
3.110335175376
100
AcDbArc
 50
270.0
 51
0.0
  0
ARC
  5
3BEF
330
1A
100
AcDbEntity
  8
外形線
100
AcDbCircle
 10
422.741006884413
 20
465.360191501521
 30
0.0
 40
1.555167587688
100
AcDbArc
 50
270.0
 51
0.0
  0
LINE
  5
3BF0
330
1A
100
AcDbEntity
  8
外形線
100
AcDbLine
 10
424.2961744721
 20
465.360191501521
 30
0.0
 11
424.2961744721
 21
472.218049295349
 31
0.0
  0
ARC
  5
3BF1
330
1A
100
AcDbEntity
  8
外形線
100
AcDbCircle
 10
424.2961744721
 20
466.349620216857
 30
0.0
 40
3.110335175376
100
AcDbArc
 50
270.0
 51
0.0
  0
ARC
  5
3BF2
330
1A
100
AcDbEntity
  8
外形線
100
AcDbCircle
 10
426.369731255684
 20
473.254827687141
 30
0.0
 40
1.036778391792
100
AcDbArc
 50
270.0
 51
0.0
  0
ARC
  5
3BF3
330
1A
100
AcDbEntity
  8
外形線
100
AcDbCircle
 10
426.369731255684
 20
467.421623953051
 30
0.0
 40
1.036778391792
100
AcDbArc
 50
0.0
 51
52.864563529744
  0
LINE
  5
3BF4
330
1A
100
AcDbEntity
  8
外形線
100
AcDbLine
 10
426.995635578146
 20
468.248154782971
 30
0.0
 11
424.2961744721
 21
470.292366944737
 31
0.0
  0
LINE
  5
3BF5
330
1A
100
AcDbEntity
  8
外形線
100
AcDbLine
 10
348.266379501917
 20
539.388772592604
 30
0.0
 11
386.091078796831
 21
539.388772592604
 31
0.0
  0
LINE
  5
3BF6
330
1A
100
AcDbEntity
  8
外形線
100
AcDbLine
 10
347.229601110125
 20
537.18772754744
 30
0.0
 11
347.229601110125
 21
538.351994200812
 31
0.0
  0
LINE
  5
3BF7
330
1A
100
AcDbEntity
  8
外形線
100
AcDbLine
 10
424.296174472101
 20
534.328754959133
 30
0.0
 11
424.296174472101
 21
531.132597207693
 31
0.0
  0
LINE
  5
3BF8
330
1A
100
AcDbEntity
  8
外形線
100
AcDbLine
 10
427.406509647477
 20
517.009087579085
 30
0.0
 11
427.406509647477
 21
536.632538161515
 31
0.0
  0
LINE
  5
3BF9
330
1A
100
AcDbEntity
  8
外形線
100
AcDbLine
 10
399.828204425809
 20
541.980718572084
 30
0.0
 11
399.828204425809
 21
492.215355766069
 31
0.0
  0
LINE
  5
3BFA
330
1A
100
AcDbEntity
  8
外形線
100
AcDbLine
 10
405.012096384771
 20
512.212662236787
 30
0.0
 11
426.369731255685
 21
512.212662236787
 31
0.0
  0
LINE
  5
3BFB
330
1A
100
AcDbEntity
  8
外形線
100
AcDbLine
 10
405.012096384769
 20
520.625687618303
 30
0.0
 11
422.741006884413
 21
520.625687618303
 31
0.0
  0
LINE
  5
3BFC
330
1A
100
AcDbEntity
  8
外形線
100
AcDbLine
 10
405.012096384769
 20
521.191426490655
 30
0.0
 11
424.296174472101
 21
521.191426490655
 31
0.0
  0
LINE
  5
3BFD
330
1A
100
AcDbEntity
  8
外形線
100
AcDbLine
 10
405.012096384771
 20
531.132597207693
 30
0.0
 11
424.296174472101
 21
531.132597207693
 31
0.0
  0
LINE
  5
3BFE
330
1A
100
AcDbEntity
  8
外形線
100
AcDbLine
 10
405.012096384768
 20
497.399247725027
 30
0.0
 11
426.369731255685
 21
497.399247725027
 31
0.0
  0
LINE
  5
3BFF
330
1A
100
AcDbEntity
  8
外形線
100
AcDbLine
 10
405.012096384768
 20
487.031463807107
 30
0.0
 11
426.369731255684
 21
487.031463807107
 31
0.0
  0
ARC
  5
3C00
330
1A
100
AcDbEntity
  8
外形線
100
AcDbCircle
 10
405.012096384769
 20
492.215355766069
 30
0.0
 40
5.183891958959999
100
AcDbArc
 50
180.0
 51
270.0
  0
ARC
  5
3C01
330
1A
100
AcDbEntity
  8
外形線
100
AcDbCircle
 10
405.012096384769
 20
492.215355766069
 30
0.0
 40
5.183891958959999
100
AcDbArc
 50
90.0
 51
180.0
  0
LINE
  5
3C02
330
1A
100
AcDbEntity
  8
外形線
100
AcDbLine
 10
427.406509647476
 20
511.175883844995
 30
0.0
 11
427.406509647476
 21
498.436026116819
 31
0.0
  0
LINE
  5
3C03
330
1A
100
AcDbEntity
  8
外形線
100
AcDbLine
 10
424.2961744721
 20
487.031463807107
 30
0.0
 11
424.296174472101
 21
492.215355766069
 31
0.0
  0
ARC
  5
3C04
330
1A
100
AcDbEntity
  8
外形線
100
AcDbCircle
 10
426.369731255684
 20
485.994685415317
 30
0.0
 40
1.036778391792
100
AcDbArc
 50
0.0
 51
90.0
  0
LINE
  5
3C05
330
1A
100
AcDbEntity
  8
外形線
100
AcDbLine
 10
424.296174472101
 20
497.399247725027
 30
0.0
 11
424.296174472101
 21
492.215355766069
 31
0.0
  0
ARC
  5
3C06
330
1A
100
AcDbEntity
  8
外形線
100
AcDbCircle
 10
426.369731255685
 20
498.436026116819
 30
0.0
 40
1.036778391792
100
AcDbArc
 50
270.0
 51
0.0
  0
ARC
  5
3C07
330
1A
100
AcDbEntity
  8
外形線
100
AcDbCircle
 10
424.296174472101
 20
518.081091315279
 30
0.0
 40
3.110335175376
100
AcDbArc
 50
0.0
 51
90.0
  0
LINE
  5
3C08
330
1A
100
AcDbEntity
  8
外形線
100
AcDbLine
 10
424.296174472101
 20
519.070520030615
 30
0.0
 11
424.296174472101
 21
512.212662236787
 31
0.0
  0
ARC
  5
3C09
330
1A
100
AcDbEntity
  8
外形線
100
AcDbCircle
 10
426.369731255685
 20
517.009087579085
 30
0.0
 40
1.036778391792
100
AcDbArc
 50
307.135436470274
 51
0.0
  0
ARC
  5
3C0A
330
1A
100
AcDbEntity
  8
外形線
100
AcDbCircle
 10
426.369731255685
 20
511.175883844995
 30
0.0
 40
1.036778391792
100
AcDbArc
 50
0.0
 51
90.0
  0
LINE
  5
3C0B
330
1A
100
AcDbEntity
  8
外形線
100
AcDbLine
 10
426.995635578147
 20
516.182556749165
 30
0.0
 11
424.296174472101
 21
514.138344587399
 31
0.0
  0
ARC
  5
3C0C
330
1A
100
AcDbEntity
  8
外形線
100
AcDbCircle
 10
422.741006884413
 20
519.070520030615
 30
0.0
 40
1.555167587688
100
AcDbArc
 50
0.0
 51
90.0
  0
ARC
  5
3C0D
330
1A
100
AcDbEntity
  8
外形線
100
AcDbCircle
 10
424.296174472101
 20
528.022262032317
 30
0.0
 40
3.110335175376
100
AcDbArc
 50
0.0
 51
90.0
  0
LINE
  5
3C0E
330
1A
100
AcDbEntity
  8
外形線
100
AcDbLine
 10
399.828204425809
 20
541.980718572084
 30
0.0
 11
423.476439234493
 21
540.773968253671
 31
0.0
  0
LINE
  5
3C0F
330
1A
100
AcDbEntity
  8
外形線
100
AcDbLine
 10
405.012096384769
 20
536.402311742717
 30
0.0
 11
422.222617688517
 21
536.402311742717
 31
0.0
  0
LINE
  5
3C10
330
1A
100
AcDbEntity
  8
外形線
100
AcDbLine
 10
405.012096384769
 20
537.219490505801
 30
0.0
 11
424.296174472101
 21
537.219490505801
 31
0.0
  0
LINE
  5
3C11
330
1A
100
AcDbEntity
  8
外形線
100
AcDbLine
 10
394.747990306029
 20
542.499107767979
 30
0.0
 11
399.689302459403
 21
542.499107767979
 31
0.0
  0
LINE
  5
3C12
330
1A
100
AcDbEntity
  8
外形線
100
AcDbLine
 10
394.229601110133
 20
541.980718572084
 30
0.0
 11
394.747990306029
 21
542.499107767979
 31
0.0
  0
ARC
  5
3C13
330
1A
100
AcDbEntity
  8
外形線
100
AcDbCircle
 10
398.791426034017
 20
541.980718572084
 30
0.0
 40
1.036778391792
100
AcDbArc
 50
0.0
 51
30.000000000005
  0
ARC
  5
3C14
330
1A
100
AcDbEntity
  8
外形線
100
AcDbCircle
 10
423.259396080309
 20
536.632538161515
 30
0.0
 40
4.147113567168
100
AcDbArc
 50
0.0
 51
87.000000000001
  0
ARC
  5
3C15
330
1A
100
AcDbEntity
  8
外形線
100
AcDbCircle
 10
422.222617688517
 20
534.328754959133
 30
0.0
 40
2.073556783584
100
AcDbArc
 50
0.0
 51
90.0
  0
ARC
  5
3C16
330
1A
100
AcDbEntity
  8
外形線
100
AcDbCircle
 10
424.296174472101
 20
534.109155330425
 30
0.0
 40
3.110335175376
100
AcDbArc
 50
0.0
 51
90.0
  0
LWPOLYLINE
  5
3C17
330
1A
100
AcDbEntity
  8
外形線
100
AcDbPolyline
 90
       18
 70
     0
 43
0.0
 10
405.012096384769
 20
537.219490505801
 10
404.058673788365
 20
537.16767004309
 10
403.137718854977
 20
537.013973338664
 10
402.280593600299
 20
536.763634349452
 10
401.516486396867
 20
536.425178069484
 10
400.871417999053
 20
536.01013022144
 10
400.367355437469
 20
535.532624761989
 10
400.021463958091
 20
535.008922566851
 10
399.845522480399
 20
534.45685768617
 10
399.845522480399
 20
533.895230027324
 10
400.021463958091
 20
533.343165146641
 10
400.367355437469
 20
532.819462951504
 10
400.871417999053
 20
532.341957492054
 10
401.516486396867
 20
531.926909644011
 10
402.280593600299
 20
531.588453364041
 10
403.137718854977
 20
531.338114374829
 10
404.058673788365
 20
531.184417670403
 10
405.012096384769
 20
531.132597207693
  0
LWPOLYLINE
  5
3C18
330
1A
100
AcDbEntity
  8
外形線
100
AcDbPolyline
 90
        8
 70
     0
 43
0.0
 10
405.012096384769
 20
536.402311742717
 10
404.003240638427
 20
536.344230038177
 10
403.032891275237
 20
536.172201808757
 10
402.138084952327
 20
535.892793092209
 10
401.352974971831
 20
535.516668464847
 10
400.707527704891
 20
535.05818399201
 10
400.226378824009
 20
534.534839280398
 10
399.927892999481
 20
533.966609546547
  0
LWPOLYLINE
  5
3C19
330
1A
100
AcDbEntity
  8
外形線
100
AcDbPolyline
 90
        8
 70
     0
 43
0.0
 10
405.012096384769
 20
520.625687618303
 10
404.021637711521
 20
520.549218755902
 10
403.064920540271
 20
520.322417198407
 10
402.174536916719
 20
519.953009290609
 10
401.380819131977
 20
519.453579482514
 10
400.710806406299
 20
518.841141620653
 10
400.187323756347
 20
518.136559345182
 10
399.828204425809
 20
517.363835337776
  0
LWPOLYLINE
  5
3C1A
330
1A
100
AcDbEntity
  8
外形線
100
AcDbPolyline
 90
       18
 70
     0
 43
0.0
 10
405.012096384769
 20
521.191426490655
 10
404.058716467027
 20
521.114986228699
 10
403.137802758933
 20
520.888268524271
 10
402.280715872297
 20
520.518993976877
 10
401.516642873085
 20
520.019737788336
 10
400.871603350879
 20
519.407501529354
 10
400.367563352967
 20
518.703134171433
 10
400.021687356951
 20
517.930622100154
 10
399.845753755039
 20
517.116272287577
 10
399.845753755039
 20
516.287816439866
 10
400.021687356951
 20
515.47346662729
 10
400.367563352967
 20
514.700954556009
 10
400.871603350879
 20
513.99658719809
 10
401.516642873085
 20
513.384350939107
 10
402.280715872297
 20
512.885094750564
 10
403.137802758933
 20
512.515820203171
 10
404.058716467027
 20
512.289102498743
 10
405.012096384769
 20
512.212662236787
  0
ARC
  5
3C1B
330
1A
100
AcDbEntity
  8
外形線
100
AcDbCircle
 10
345.650976478998
 20
447.43809555598
 30
0.0
 40
2.0
100
AcDbArc
 50
180.0
 51
225.0
  0
LINE
  5
3C1C
330
1A
100
AcDbEntity
  8
外形線
100
AcDbLine
 10
386.66167368599
 20
465.01255379245
 30
0.0
 11
388.672300345182
 21
460.566621819854
 31
0.0
  0
LINE
  5
3C1D
330
1A
100
AcDbEntity
  8
外形線
100
AcDbLine
 10
326.290032940495
 20
513.173416094272
 30
0.0
 11
326.290032940495
 21
524.680844094272
 31
0.0
  0
LINE
  5
3C1E
330
1A
100
AcDbEntity
  8
外形線
100
AcDbLine
 10
331.790032940485
 20
525.680844094272
 30
0.0
 11
331.790032940484
 21
458.980844094272
 31
0.0
  0
LINE
  5
3C1F
330
1A
100
AcDbEntity
  8
外形線
100
AcDbLine
 10
326.890032940494
 20
458.980844094272
 30
0.0
 11
331.790032940484
 21
458.980844094272
 31
0.0
  0
LINE
  5
3C20
330
1A
100
AcDbEntity
  8
外形線
100
AcDbLine
 10
326.890032940495
 20
525.680844094272
 30
0.0
 11
331.790032940485
 21
525.680844094272
 31
0.0
  0
LINE
  5
3C21
330
1A
100
AcDbEntity
  8
外形線
100
AcDbLine
 10
371.028690464622
 20
447.690576918466
 30
0.0
 11
372.34670674605
 21
446.314748175656
 31
0.0
  0
LINE
  5
3C22
330
1A
100
AcDbEntity
  8
外形線
100
AcDbLine
 10
371.028690464622
 20
447.690576918466
 30
0.0
 11
380.109160167168
 21
456.3894843759
 31
0.0
  0
CIRCLE
  5
3C23
330
1A
100
AcDbEntity
  8
細線
100
AcDbCircle
 10
376.22793345661
 20
451.352116275778
 30
0.0
 40
9.90742839250458
  0
CIRCLE
  5
3C24
330
1A
100
AcDbEntity
  8
外形線
100
AcDbCircle
 10
376.22793345661
 20
451.352116275778
 30
0.0
 40
10.51872781849356
  0
LINE
  5
3C25
330
1A
100
AcDbEntity
  8
外形線
100
AcDbLine
 10
372.34670674605
 20
446.314748175656
 30
0.0
 11
381.427176448598
 21
455.01365563309
 31
0.0
  0
LINE
  5
3C26
330
1A
100
AcDbEntity
  8
外形線
100
AcDbLine
 10
380.109160167168
 20
456.3894843759
 30
0.0
 11
381.427176448598
 21
455.01365563309
 31
0.0
  0
CIRCLE
  5
3C27
330
1A
100
AcDbEntity
  8
細線
100
AcDbCircle
 10
376.229601110128
 20
451.352116275778
 30
0.0
 40
13.76127218150634
  0
LINE
  5
3C28
330
1A
100
AcDbEntity
  8
外形線
100
AcDbLine
 10
346.787494373583
 20
536.33844840833
 30
0.0
 11
331.790032940485
 21
525.680844094272
 31
0.0
  0
LINE
  5
3C29
330
1A
100
AcDbEntity
  8
外形線
100
AcDbLine
 10
346.787494373582
 20
448.092263123808
 30
0.0
 11
331.790032940484
 21
458.980844094272
 31
0.0
  0
LINE
  5
3C2A
330
1A
100
AcDbEntity
  8
外形線
100
AcDbLine
 10
357.315269721984
 20
431.991840175378
 30
0.0
 11
344.236762916624
 21
446.023881993606
 31
0.0
  0
LINE
  5
3C2B
330
1A
100
AcDbEntity
  8
外形線
100
AcDbLine
 10
326.290032940495
 20
525.196869498056
 30
0.0
 11
326.290032940494
 21
459.464818690488
 31
0.0
  0
ARC
  5
3C2C
330
1A
100
AcDbEntity
  8
外形線
100
AcDbCircle
 10
326.890032940495
 20
525.080844094272
 30
0.0
 40
0.6
100
AcDbArc
 50
90.0
 51
180.0
  0
ARC
  5
3C2D
330
1A
100
AcDbEntity
  8
外形線
100
AcDbCircle
 10
326.890032940494
 20
459.580844094272
 30
0.0
 40
0.6
100
AcDbArc
 50
180.0
 51
270.0
  0
LINE
  5
3C2E
330
1A
100
AcDbEntity
  8
外形線
100
AcDbLine
 10
326.290032940494
 20
466.374541573264
 30
0.0
 11
326.290032940495
 21
518.28714661528
 31
0.0
  0
LINE
  5
3C2F
330
1A
100
AcDbEntity
  8
外形線
100
AcDbLine
 10
385.558938982738
 20
409.77968952114
 30
0.0
 11
385.558938982738
 21
420.670844094272
 31
0.0
  0
LINE
  5
3C30
330
1A
100
AcDbEntity
  8
外形線
100
AcDbLine
 10
391.77960933349
 20
420.670844094271
 30
0.0
 11
391.779609333489
 21
409.779689521137
 31
0.0
  0
LINE
  5
3C31
330
1A
100
AcDbEntity
  8
外形線
100
AcDbLine
 10
382.966993003258
 20
409.77968952114
 30
0.0
 11
382.966993003258
 21
420.670844094272
 31
0.0
  0
LINE
  5
3C32
330
1A
100
AcDbEntity
  8
外形線
100
AcDbLine
 10
366.896927930482
 20
409.77968952114
 30
0.0
 11
366.896927930482
 21
420.670844094272
 31
0.0
  0
LINE
  5
3C33
330
1A
100
AcDbEntity
  8
外形線
100
AcDbLine
 10
369.488873909962
 20
409.77968952114
 30
0.0
 11
369.488873909962
 21
420.670844094272
 31
0.0
  0
LINE
  5
3C34
330
1A
100
AcDbEntity
  8
外形線
100
AcDbLine
 10
360.67625757973
 20
420.670844094272
 30
0.0
 11
360.67625757973
 21
409.779689521136
 31
0.0
  0
ARC
  5
3C35
330
1A
100
AcDbEntity
  8
外形線
100
AcDbCircle
 10
376.22793345661
 20
426.063779224378
 30
0.0
 40
17.62346450152246
100
AcDbArc
 50
247.518115682492
 51
292.481884317508
  0
LINE
  5
3C36
330
1A
100
AcDbEntity
  8
外形線
100
AcDbLine
 10
390.017086067444
 20
408.120844094271
 30
0.0
 11
362.438780845776
 21
408.120844094272
 31
0.0
  0
LINE
  5
3C37
330
1A
100
AcDbEntity
  8
外形線
100
AcDbLine
 10
384.833194108484
 20
403.330844094272
 30
0.0
 11
367.622672804736
 21
403.330844094272
 31
0.0
  0
ARC
  5
3C38
330
1A
100
AcDbEntity
  8
外形線
100
AcDbCircle
 10
367.622672804736
 20
408.514736053232
 30
0.0
 40
5.183891958959999
100
AcDbArc
 50
184.357752857952
 51
270.0
  0
ARC
  5
3C39
330
1A
100
AcDbEntity
  8
外形線
100
AcDbCircle
 10
363.786592755106
 20
412.706264551392
 30
0.0
 40
4.2707173063642
100
AcDbArc
 50
223.256487111669
 51
316.743512888332
  0
LINE
  5
3C3A
330
1A
100
AcDbEntity
  8
外形線
100
AcDbLine
 10
362.438780845776
 20
408.120844094272
 30
0.0
 11
360.67625757973
 21
409.77968952114
 31
0.0
  0
LINE
  5
3C3B
330
1A
100
AcDbEntity
  8
外形線
100
AcDbLine
 10
369.488873909962
 20
409.77968952114
 30
0.0
 11
366.896927930482
 21
409.77968952114
 31
0.0
  0
ARC
  5
3C3C
330
1A
100
AcDbEntity
  8
外形線
100
AcDbCircle
 10
384.833194108484
 20
408.514736053232
 30
0.0
 40
5.183891958959999
100
AcDbArc
 50
270.0
 51
355.642247142048
  0
ARC
  5
3C3D
330
1A
100
AcDbEntity
  8
外形線
100
AcDbCircle
 10
388.669274158114
 20
412.706264551392
 30
0.0
 40
4.2707173063642
100
AcDbArc
 50
223.256487111676
 51
316.743512888323
  0
LINE
  5
3C3E
330
1A
100
AcDbEntity
  8
外形線
100
AcDbLine
 10
382.966993003258
 20
409.77968952114
 30
0.0
 11
385.558938982738
 21
409.77968952114
 31
0.0
  0
LINE
  5
3C3F
330
1A
100
AcDbEntity
  8
外形線
100
AcDbLine
 10
390.017086067444
 20
408.120844094271
 30
0.0
 11
391.779609333489
 21
409.77968952114
 31
0.0
  0
LINE
  5
3C40
330
1A
100
AcDbEntity
  8
外形線
100
AcDbLine
 10
391.77960933349
 20
420.670844094271
 30
0.0
 11
360.67625757973
 21
420.670844094272
 31
0.0
  0
LINE
  5
3C41
330
1A
100
AcDbEntity
  8
外形線
100
AcDbLine
 10
391.77960933349
 20
429.400844094271
 30
0.0
 11
360.67625757973
 21
429.400844094272
 31
0.0
  0
LINE
  5
3C42
330
1A
100
AcDbEntity
  8
外形線
100
AcDbLine
 10
391.77960933349
 20
423.470844094272
 30
0.0
 11
360.67625757973
 21
423.470844094272
 31
0.0
  0
LINE
  5
3C43
330
1A
100
AcDbEntity
  8
細線
100
AcDbLine
 10
365.341760342794
 20
421.502981287314
 30
0.0
 11
387.114106570426
 21
421.502981287314
 31
0.0
  0
LINE
  5
3C44
330
1A
100
AcDbEntity
  8
外形線
100
AcDbLine
 10
362.749814363314
 20
429.400844094272
 30
0.0
 11
362.749814363314
 21
431.080844094272
 31
0.0
  0
LINE
  5
3C45
330
1A
100
AcDbEntity
  8
外形線
100
AcDbLine
 10
362.749814363314
 20
429.400844094272
 30
0.0
 11
362.749814363314
 21
429.919233290168
 31
0.0
  0
LINE
  5
3C46
330
1A
100
AcDbEntity
  8
外形線
100
AcDbLine
 10
360.67625757973
 20
423.470844094272
 30
0.0
 11
360.67625757973
 21
429.400844094272
 31
0.0
  0
LINE
  5
3C47
330
1A
100
AcDbEntity
  8
外形線
100
AcDbLine
 10
365.341760342794
 20
420.670844094272
 30
0.0
 11
365.341760342794
 21
423.470844094272
 31
0.0
  0
LINE
  5
3C48
330
1A
100
AcDbEntity
  8
外形線
100
AcDbLine
 10
365.341760342794
 20
421.502981287314
 30
0.0
 11
364.478101078362
 21
420.670844094272
 31
0.0
  0
LINE
  5
3C49
330
1A
100
AcDbEntity
  8
外形線
100
AcDbLine
 10
365.341760342794
 20
421.502981287314
 30
0.0
 11
365.341760342794
 21
420.670844094272
 31
0.0
  0
LINE
  5
3C4A
330
1A
100
AcDbEntity
  8
外形線
100
AcDbLine
 10
366.896927930482
 20
423.470844094272
 30
0.0
 11
366.896927930482
 21
429.400844094272
 31
0.0
  0
LINE
  5
3C4B
330
1A
100
AcDbEntity
  8
外形線
100
AcDbLine
 10
369.488873909962
 20
423.470844094272
 30
0.0
 11
369.488873909962
 21
429.400844094272
 31
0.0
  0
LINE
  5
3C4C
330
1A
100
AcDbEntity
  8
外形線
100
AcDbLine
 10
387.114106570426
 20
420.670844094272
 30
0.0
 11
387.114106570426
 21
423.470844094272
 31
0.0
  0
LINE
  5
3C4D
330
1A
100
AcDbEntity
  8
外形線
100
AcDbLine
 10
387.114106570426
 20
421.502981287314
 30
0.0
 11
387.114106570426
 21
420.670844094272
 31
0.0
  0
LINE
  5
3C4E
330
1A
100
AcDbEntity
  8
外形線
100
AcDbLine
 10
387.114106570426
 20
421.502981287314
 30
0.0
 11
387.977765834858
 21
420.670844094272
 31
0.0
  0
LINE
  5
3C4F
330
1A
100
AcDbEntity
  8
外形線
100
AcDbLine
 10
385.558938982738
 20
423.470844094272
 30
0.0
 11
385.558938982738
 21
429.400844094272
 31
0.0
  0
LINE
  5
3C50
330
1A
100
AcDbEntity
  8
外形線
100
AcDbLine
 10
382.966993003258
 20
423.470844094272
 30
0.0
 11
382.966993003258
 21
429.400844094272
 31
0.0
  0
LINE
  5
3C51
330
1A
100
AcDbEntity
  8
外形線
100
AcDbLine
 10
389.706052549906
 20
429.400844094272
 30
0.0
 11
389.706052549906
 21
431.080844094272
 31
0.0
  0
LINE
  5
3C52
330
1A
100
AcDbEntity
  8
外形線
100
AcDbLine
 10
391.77960933349
 20
423.470844094272
 30
0.0
 11
391.77960933349
 21
429.400844094271
 31
0.0
  0
LINE
  5
3C53
330
1A
100
AcDbEntity
  8
細線
100
AcDbLine
 10
386.091078796831
 20
539.388772592604
 30
0.0
 11
386.09107879683
 21
466.173416094272
 31
0.0
  0
LINE
  5
3C54
330
1A
100
AcDbEntity
  8
外形線
100
AcDbLine
 10
394.229601110132
 20
460.075225620516
 30
0.0
 11
389.662883649278
 21
460.075225620516
 31
0.0
  0
ARC
  5
3C55
330
1A
100
AcDbEntity
  8
外形線
100
AcDbCircle
 10
385.671090381894
 20
464.259815921638
 30
0.0
 40
1.2441340701504
100
AcDbArc
 50
37.23096796567
 51
90.0
  0
ARC
  5
3C56
330
1A
100
AcDbEntity
  8
外形線
100
AcDbCircle
 10
389.662883649278
 20
461.319359690668
 30
0.0
 40
1.2441340701504
100
AcDbArc
 50
217.230967965679
 51
270.0
  0
LINE
  5
3C57
330
1A
100
AcDbEntity
  8
外形線
100
AcDbLine
 10
394.229601110133
 20
541.541794804554
 30
0.0
 11
389.927841439151
 21
541.541794804554
 31
0.0
  0
ARC
  5
3C58
330
1A
100
AcDbEntity
  8
外形線
100
AcDbCircle
 10
386.091078796831
 20
541.46232937619
 30
0.0
 40
2.073556783584
100
AcDbArc
 50
270.0
 51
316.091731908441
  0
LINE
  5
3C59
330
1A
100
AcDbEntity
  8
外形線
100
AcDbLine
 10
388.433945292661
 20
540.906261678024
 30
0.0
 11
387.584974943321
 21
540.024305719134
 31
0.0
  0
ARC
  5
3C5A
330
1A
100
AcDbEntity
  8
外形線
100
AcDbCircle
 10
389.927841439151
 20
539.468238020969
 30
0.0
 40
2.073556783584
100
AcDbArc
 50
90.0
 51
136.091731908432
  0
DIMENSION
  5
3C6B
330
1A
100
AcDbEntity
  8
寸法線
 48
10.0
100
AcDbDimension
  2
*D6
 10
99.296751366301
 20
499.830831140348
 30
0.0
 11
94.671751366301
 21
492.330844140348
 31
0.0
 70
    32
  3
ISO-25
100
AcDbAlignedDimension
 13
113.490014940495
 23
484.830857140348
 33
0.0
 14
113.490014940495
 24
499.830831140348
 34
0.0
 50
90.0
100
AcDbRotatedDimension
1001
ACAD
1000
DSTYLE
1002
{
1070
     5
1000
OPEN30
1070
    41
1040
6.0
1070
    47
1040
0.1
1070
    48
1040
0.1
1070
    73
1070
     0
1070
   140
1040
8.0
1070
   271
1070
     1
1070
   272
1070
     1
1070
   341
1005
2AF4
1002
}
  0
LINE
  5
3C6D
330
1A
100
AcDbEntity
  8
外形線
100
AcDbLine
 10
211.290032940495
 20
478.330844094272
 30
0.0
 11
211.290032940495
 21
506.330844094272
 31
0.0
  0
LINE
  5
3C6E
330
1A
100
AcDbEntity
  8
外形線
100
AcDbLine
 10
257.610314646289
 20
478.330844110272
 30
0.0
 11
298.290032940495
 21
478.330844093869
 31
0.0
  0
ARC
  5
3C80
330
1A
100
AcDbEntity
  8
外形線
  6
CONTINUOUS
 62
     7
100
AcDbCircle
 10
112.090020940495
 20
501.030857140347
 30
0.0
 40
0.8
100
AcDbArc
 50
90.0
 51
179.99998015216
  0
ARC
  5
3C81
330
1A
100
AcDbEntity
  8
外形線
  6
CONTINUOUS
 62
     7
100
AcDbCircle
 10
112.090020940495
 20
500.630831140347
 30
0.0
 40
0.8
100
AcDbArc
 50
179.99998015216
 51
270.000018723966
  0
LINE
  5
3C82
330
1A
100
AcDbEntity
  8
外形線
  6
CONTINUOUS
 62
     7
100
AcDbLine
 10
111.290032940495
 20
500.630831140347
 30
0.0
 11
111.290032940495
 21
501.030857140347
 31
0.0
  0
LINE
  5
3C83
330
1A
100
AcDbEntity
  8
外形線
  6
CONTINUOUS
 62
     7
100
AcDbLine
 10
191.146936940495
 20
480.040621140347
 30
0.0
 11
121.290032940495
 21
480.040621140347
 31
0.0
  0
LINE
  5
3C84
330
1A
100
AcDbEntity
  8
外形線
  6
CONTINUOUS
 62
     7
100
AcDbLine
 10
143.495416940495
 20
482.830843140347
 30
0.0
 11
112.090020940495
 21
482.830843140347
 31
0.0
  0
LINE
  5
3C85
330
1A
100
AcDbEntity
  8
外形線
  6
CONTINUOUS
 62
     7
100
AcDbLine
 10
143.495416940495
 20
484.830843140347
 30
0.0
 11
112.090020940495
 21
484.830843140347
 31
0.0
  0
LINE
  5
3C86
330
1A
100
AcDbEntity
  8
外形線
  6
CONTINUOUS
 62
     7
100
AcDbLine
 10
111.290032940495
 20
483.630831140347
 30
0.0
 11
111.290032940495
 21
484.030857140347
 31
0.0
  0
LINE
  5
3C87
330
1A
100
AcDbEntity
  8
外形線
  6
CONTINUOUS
 62
     7
100
AcDbLine
 10
148.890038940495
 20
485.773349140347
 30
0.0
 11
148.890038940495
 21
482.602267140347
 31
0.0
  0
LINE
  5
3C88
330
1A
100
AcDbEntity
  8
外形線
  6
CONTINUOUS
 62
     7
100
AcDbLine
 10
195.765862940495
 20
487.830843140347
 30
0.0
 11
209.890038940495
 21
487.830843140347
 31
0.0
  0
LINE
  5
3C89
330
1A
100
AcDbEntity
  8
外形線
  6
CONTINUOUS
 62
     7
100
AcDbLine
 10
191.146936940495
 20
485.773349140347
 30
0.0
 11
148.890038940495
 21
485.773349140347
 31
0.0
  0
LINE
  5
3C8A
330
1A
100
AcDbEntity
  8
外形線
  6
CONTINUOUS
 62
     7
100
AcDbLine
 10
143.495416940495
 20
484.830843140347
 30
0.0
 11
148.890038940495
 21
485.773349140347
 31
0.0
  0
LINE
  5
3C8B
330
1A
100
AcDbEntity
  8
外形線
  6
CONTINUOUS
 62
     7
100
AcDbLine
 10
119.290032940495
 20
482.830843140347
 30
0.0
 11
119.290032940495
 21
482.040621140347
 31
0.0
  0
ARC
  5
3C8C
330
1A
100
AcDbEntity
  8
外形線
  6
CONTINUOUS
 62
     7
100
AcDbCircle
 10
121.290032940495
 20
482.040621140347
 30
0.0
 40
2.0
100
AcDbArc
 50
179.999980152157
 51
270.000018723973
  0
LINE
  5
3C8D
330
1A
100
AcDbEntity
  8
外形線
  6
CONTINUOUS
 62
     7
100
AcDbLine
 10
199.147088940495
 20
482.347507140347
 30
0.0
 11
209.890038940495
 21
482.347507140347
 31
0.0
  0
ARC
  5
3C8E
330
1A
100
AcDbEntity
  8
外形線
  6
CONTINUOUS
 62
     7
100
AcDbCircle
 10
209.890038940494
 20
480.947513140347
 30
0.0
 40
1.4
100
AcDbArc
 50
0.0
 51
90.0
  0
ARC
  5
3C8F
330
1A
100
AcDbEntity
  8
外形線
  6
CONTINUOUS
 62
     7
100
AcDbCircle
 10
209.890038940494
 20
489.230837140347
 30
0.0
 40
1.4
100
AcDbArc
 50
270.000018723973
 51
0.0
  0
LINE
  5
3C90
330
1A
100
AcDbEntity
  8
外形線
  6
CONTINUOUS
 62
     7
100
AcDbLine
 10
191.146936940495
 20
480.040621140347
 30
0.0
 11
199.147088940495
 21
482.347507140347
 31
0.0
  0
LINE
  5
3C91
330
1A
100
AcDbEntity
  8
外形線
  6
CONTINUOUS
 62
     7
100
AcDbLine
 10
191.146936940495
 20
485.773349140347
 30
0.0
 11
195.765862940495
 21
487.830843140347
 31
0.0
  0
LINE
  5
3C92
330
1A
100
AcDbEntity
  8
外形線
  6
CONTINUOUS
 62
     7
100
AcDbLine
 10
143.495416940495
 20
482.830843140347
 30
0.0
 11
148.186762940495
 21
482.011203140347
 31
0.0
  0
ARC
  5
3C93
330
1A
100
AcDbEntity
  8
外形線
  6
CONTINUOUS
 62
     7
100
AcDbCircle
 10
112.090020940495
 20
483.630831140347
 30
0.0
 40
0.8
100
AcDbArc
 50
179.99998015216
 51
270.000018723966
  0
ARC
  5
3C94
330
1A
100
AcDbEntity
  8
外形線
  6
CONTINUOUS
 62
     7
100
AcDbCircle
 10
112.090020940495
 20
484.030857140347
 30
0.0
 40
0.8
100
AcDbArc
 50
90.0
 51
179.99998015216
  0
ARC
  5
3C95
330
1A
100
AcDbEntity
  8
外形線
  6
CONTINUOUS
 62
     7
100
AcDbCircle
 10
148.290032940495
 20
482.602267140347
 30
0.0
 40
0.6
100
AcDbArc
 50
260.089739628928
 51
0.0
  0
LINE
  5
3C96
330
1A
100
AcDbEntity
  8
外形線
  6
CONTINUOUS
 62
     7
100
AcDbLine
 10
191.146936940495
 20
504.621067140347
 30
0.0
 11
121.290032940495
 21
504.621067140347
 31
0.0
  0
LINE
  5
3C97
330
1A
100
AcDbEntity
  8
外形線
  6
CONTINUOUS
 62
     7
100
AcDbLine
 10
143.495416940495
 20
501.830843140347
 30
0.0
 11
112.090020940495
 21
501.830843140347
 31
0.0
  0
LINE
  5
3C98
330
1A
100
AcDbEntity
  8
外形線
  6
CONTINUOUS
 62
     7
100
AcDbLine
 10
143.495416940495
 20
499.830843140347
 30
0.0
 11
112.090020940495
 21
499.830843140347
 31
0.0
  0
LINE
  5
3C99
330
1A
100
AcDbEntity
  8
外形線
  6
CONTINUOUS
 62
     7
100
AcDbLine
 10
148.890038940495
 20
498.888339140347
 30
0.0
 11
148.890038940495
 21
502.059421140347
 31
0.0
  0
LINE
  5
3C9A
330
1A
100
AcDbEntity
  8
外形線
  6
CONTINUOUS
 62
     7
100
AcDbLine
 10
191.146936940495
 20
498.888339140347
 30
0.0
 11
148.890038940495
 21
498.888339140347
 31
0.0
  0
LINE
  5
3C9B
330
1A
100
AcDbEntity
  8
外形線
  6
CONTINUOUS
 62
     7
100
AcDbLine
 10
143.495416940495
 20
499.830843140347
 30
0.0
 11
148.890038940495
 21
498.888339140347
 31
0.0
  0
LINE
  5
3C9C
330
1A
100
AcDbEntity
  8
外形線
  6
CONTINUOUS
 62
     7
100
AcDbLine
 10
119.290032940495
 20
501.830843140347
 30
0.0
 11
119.290032940495
 21
502.621067140347
 31
0.0
  0
ARC
  5
3C9D
330
1A
100
AcDbEntity
  8
外形線
  6
CONTINUOUS
 62
     7
100
AcDbCircle
 10
121.290032940495
 20
502.621067140347
 30
0.0
 40
2.0
100
AcDbArc
 50
90.0
 51
179.999980152157
  0
LINE
  5
3C9E
330
1A
100
AcDbEntity
  8
外形線
  6
CONTINUOUS
 62
     7
100
AcDbLine
 10
143.495416940495
 20
501.830843140347
 30
0.0
 11
148.186762940495
 21
502.650485140347
 31
0.0
  0
ARC
  5
3C9F
330
1A
100
AcDbEntity
  8
外形線
  6
CONTINUOUS
 62
     7
100
AcDbCircle
 10
148.290032940495
 20
502.059421140347
 30
0.0
 40
0.6
100
AcDbArc
 50
0.0
 51
99.910220675386
  0
LINE
  5
3CA0
330
1A
100
AcDbEntity
  8
外形線
  6
CONTINUOUS
 62
     7
100
AcDbLine
 10
195.765862940495
 20
496.830843140347
 30
0.0
 11
209.890038940495
 21
496.830843140347
 31
0.0
  0
LINE
  5
3CA1
330
1A
100
AcDbEntity
  8
外形線
  6
CONTINUOUS
 62
     7
100
AcDbLine
 10
199.147088940495
 20
502.314181140347
 30
0.0
 11
209.890038940495
 21
502.314181140347
 31
0.0
  0
ARC
  5
3CA2
330
1A
100
AcDbEntity
  8
外形線
  6
CONTINUOUS
 62
     7
100
AcDbCircle
 10
209.890038940494
 20
503.714175140347
 30
0.0
 40
1.4
100
AcDbArc
 50
269.999961428187
 51
0.0
  0
ARC
  5
3CA3
330
1A
100
AcDbEntity
  8
外形線
  6
CONTINUOUS
 62
     7
100
AcDbCircle
 10
209.890038940494
 20
495.430851140347
 30
0.0
 40
1.4
100
AcDbArc
 50
0.000017600096
 51
90.0
  0
LINE
  5
3CA4
330
1A
100
AcDbEntity
  8
外形線
  6
CONTINUOUS
 62
     7
100
AcDbLine
 10
191.146936940495
 20
504.621067140347
 30
0.0
 11
199.147088940495
 21
502.314181140347
 31
0.0
  0
LINE
  5
3CA5
330
1A
100
AcDbEntity
  8
外形線
  6
CONTINUOUS
 62
     7
100
AcDbLine
 10
191.146936940495
 20
498.888339140347
 30
0.0
 11
195.765862940495
 21
496.830843140347
 31
0.0
  0
LINE
  5
3CA6
330
1A
100
AcDbEntity
  8
外形線
 48
10.0
100
AcDbLine
 10
313.290032940495
 20
472.330844094272
 30
0.0
 11
313.290032940495
 21
512.330844094272
 31
0.0
  0
LINE
  5
3DD0
330
1A
100
AcDbEntity
  8
外形線
 48
10.0
100
AcDbLine
 10
211.290032940495
 20
506.330844094272
 30
0.0
 11
251.40423467533
 21
506.330844094272
 31
0.0
  0
LINE
  5
3DD1
330
1A
100
AcDbEntity
  8
外形線
 48
10.0
100
AcDbLine
 10
257.562900021219
 20
506.330844094272
 30
0.0
 11
298.290032940495
 21
506.330844094273
 31
0.0
  0
LINE
  5
3DD2
330
1A
100
AcDbEntity
  8
外形線
 48
10.0
100
AcDbLine
 10
251.451649300403
 20
478.330844110272
 30
0.0
 11
211.290032940495
 21
478.330844110272
 31
0.0
  0
DIMENSION
  5
3DD4
330
1A
100
AcDbEntity
  8
寸法線
 48
10.0
100
AcDbDimension
  2
*D9
 10
427.406509647476
 20
374.830844094271
 30
0.0
 11
370.348271293985
 21
379.455844094271
 31
0.0
 70
    32
  1
111
  3
ISO-25
100
AcDbAlignedDimension
 13
313.290032940495
 23
472.330844094272
 33
0.0
 14
427.406509647476
 24
447.798173370621
 34
0.0
100
AcDbRotatedDimension
1001
ACAD
1000
DSTYLE
1002
{
1070
     5
1000
OPEN30
1070
    41
1040
6.0
1070
    47
1040
0.1
1070
    48
1040
0.1
1070
    73
1070
     0
1070
   140
1040
8.0
1070
   271
1070
     1
1070
   272
1070
     1
1070
   341
1005
2AF4
1002
}
  0
DIMENSION
  5
3DE1
330
1A
100
AcDbEntity
  8
寸法線
 48
10.0
100
AcDbDimension
  2
*D10
 10
313.290032940495
 20
374.830844094271
 30
0.0
 11
212.218314676463
 21
374.830844094271
 31
0.0
 70
    32
  1
 
  3
ISO-25
100
AcDbAlignedDimension
 13
111.290032940495
 23
483.830844140347
 33
0.0
 14
313.290032940495
 24
472.330844094272
 34
0.0
100
AcDbRotatedDimension
1001
ACAD
1000
DSTYLE
1002
{
1070
     5
1000
OPEN30
1070
    41
1040
6.0
1070
    47
1040
0.1
1070
    48
1040
0.1
1070
    73
1070
     0
1070
   140
1040
5.0
1070
   271
1070
     1
1070
   272
1070
     1
1070
   341
1005
2AF4
1002
}
  0
DIMENSION
  5
3DF6
330
1A
100
AcDbEntity
  8
寸法線
 48
10.0
100
AcDbDimension
  2
*D11
 10
238.09274816681
 20
478.330844110272
 30
0.0
 11
236.341776937615
 21
524.878718637812
 31
0.0
 70
   160
  1
%%C28
  3
ISO-25
100
AcDbAlignedDimension
 13
238.09274816681
 23
506.330844094273
 33
0.0
 14
238.09274816681
 24
478.330844110272
 34
0.0
 50
90.0
100
AcDbRotatedDimension
1001
ACAD
1000
DSTYLE
1002
{
1070
   287
1070
     4
1070
     5
1000
OPEN30
1070
    41
1040
6.0
1070
    47
1040
0.1
1070
    48
1040
0.1
1070
    73
1070
     0
1070
   140
1040
8.0
1070
   271
1070
     1
1070
   272
1070
     1
1070
   279
1070
     1
1070
   341
1005
2AF4
1002
}
  0
LEADER
  5
3E1F
330
1A
100
AcDbEntity
  8
寸法線
 48
10.0
100
AcDbLeader
  3
ISO-25
 76
     3
 10
367.178729149374
 20
539.388772592604
 30
0.0
 10
403.395262367533
 20
586.834329875174
 30
0.0
 10
415.878486886837
 20
586.834329875174
 30
0.0
213
-35.42154774973733
223
0.0
233
0.0
1001
ACAD
1000
DSTYLE
1002
{
1070
     5
1000
OPEN30
1070
   147
1040
0.625
1070
    77
1070
     0
1070
    41
1040
6.0
1070
    47
1040
0.1
1070
    48
1040
0.1
1070
    73
1070
     0
1070
   140
1040
5.0
1070
   271
1070
     1
1070
   272
1070
     1
1070
   341
1005
2AF4
1070
   342
1005
2AF4
1002
}
  0
LEADER
  5
3E20
330
1A
100
AcDbEntity
  8
寸法線
 48
10.0
100
AcDbLeader
  3
ISO-25
 76
     3
 10
319.645695373197
 20
516.002205131046
 30
0.0
 10
347.7020449535
 20
586.834329875174
 30
0.0
 10
361.405653507127
 20
586.834329875174
 30
0.0
213
-18.08845135185726
223
0.0
233
0.0
1001
ACAD
1000
DSTYLE
1002
{
1070
     5
1000
OPEN30
1070
   147
1040
0.625
1070
    77
1070
     0
1070
    41
1040
6.0
1070
    47
1040
0.1
1070
    48
1040
0.1
1070
    73
1070
     0
1070
   140
1040
5.0
1070
   271
1070
     1
1070
   272
1070
     1
1070
   341
1005
2AF4
1070
   342
1005
2AF4
1002
}
  0
LEADER
  5
3E22
330
1A
100
AcDbEntity
  8
寸法線
 48
10.0
100
AcDbLeader
  3
ISO-25
 76
     3
 10
163.901634828142
 20
504.621067140347
 30
0.0
 10
149.453455199045
 20
586.834329875174
 30
0.0
 10
134.630440163513
 20
586.834329875174
 30
0.0
213
91.46917905926603
223
0.0
233
0.0
1001
ACAD
1000
DSTYLE
1002
{
1070
     5
1000
OPEN30
1070
   147
1040
0.625
1070
    77
1070
     0
1070
    41
1040
6.0
1070
    47
1040
0.1
1070
    48
1040
0.1
1070
    73
1070
     0
1070
   140
1040
5.0
1070
   271
1070
     1
1070
   272
1070
     1
1070
   341
1005
2AF4
1070
   342
1005
2AF4
1002
}
  0
LEADER
  5
3E2C
330
1A
100
AcDbEntity
  8
寸法線
 48
10.0
100
AcDbLeader
  3
ISO-25
 76
     3
 10
376.229601110128
 20
403.330844094272
 30
0.0
 10
436.555035509269
 20
374.830844094271
 30
0.0
 10
451.166789978436
 20
374.830844094271
 30
0.0
213
-22.96447985622126
223
0.0
233
0.0
1001
ACAD
1000
DSTYLE
1002
{
1070
     5
1000
OPEN30
1070
   147
1040
0.625
1070
    77
1070
     0
1070
    41
1040
6.0
1070
    47
1040
0.1
1070
    48
1040
0.1
1070
    73
1070
     0
1070
   140
1040
5.0
1070
   271
1070
     1
1070
   272
1070
     1
1070
   341
1005
2AF4
1070
   342
1005
2AF4
1002
}
  0
LEADER
  5
3E2D
330
1A
100
AcDbEntity
  8
寸法線
 48
10.0
100
AcDbLeader
  3
ISO-25
 76
     3
 10
366.70554094919
 20
446.883595731552
 30
0.0
 10
347.407177834858
 20
392.846392691158
 30
0.0
 10
335.421092268767
 20
392.846392691158
 30
0.0
213
16.22168948954402
223
0.0
233
0.0
1001
ACAD
1000
DSTYLE
1002
{
1070
     5
1000
OPEN30
1070
   147
1040
0.625
1070
    77
1070
     0
1070
    41
1040
6.0
1070
    47
1040
0.1
1070
    48
1040
0.1
1070
    73
1070
     0
1070
   140
1040
5.0
1070
   271
1070
     1
1070
   272
1070
     1
1070
   341
1005
2AF4
1070
   342
1005
2AF4
1002
}
  0
MTEXT
  5
3FFD
330
1A
100
AcDbEntity
  8
寸法線
 48
10.0
100
AcDbMText
 10
365.450382812627
 20
238.691058337039
 30
0.0
 40
8.0
 41
165.013333333333
 71
     1
 72
     5
  1
○印が今回の貴社の御仕様です。
  0
MTEXT
  5
3FFE
330
1A
100
AcDbEntity
  8
寸法線
 48
10.0
100
AcDbMText
 10
331.867690080388
 20
338.136500308848
 30
0.0
 40
8.0
 41
165.013333333333
 71
     1
 72
     5
  1
フランジサイズ
  0
MTEXT
  5
3FFF
102
{ACAD_XDICTIONARY
360
4E25
102
}
330
1A
100
AcDbEntity
  8
寸法線
 48
10.0
100
AcDbMText
 10
300.531711389278
 20
322.690432125353
 30
0.0
 40
8.0
 41
165.013333333333
 71
     1
 72
     5
  1
JIS5K50A\PJIS5K65A\PJIS5K80A\PJIS5K100A
1001
ACADANNOTATIVE
1000
AnnotativeData
1002
{
1070
     1
1070
     0
1002
}
  0
MTEXT
  5
4000
330
1A
100
AcDbEntity
  8
寸法線
 48
10.0
100
AcDbMText
 10
365.537464063911
 20
322.249909424695
 30
0.0
 40
8.0
 41
165.013333333333
 71
     1
 72
     5
  1
JIS10K32A\PJIS10K40A\PJIS10K50A\PJIS10K65A\PJIS10K80A\PJIS10K100A
  0
LINE
  5
4001
330
1A
100
AcDbEntity
  8
寸法線
 48
10.0
100
AcDbLine
 10
282.371089263007
 20
341.018325336343
 30
0.0
 11
497.012502779016
 21
341.018325336343
 31
0.0
  0
LINE
  5
4002
330
1A
100
AcDbEntity
  8
寸法線
 48
10.0
100
AcDbLine
 10
282.371089263007
 20
311.558245897661
 30
0.0
 11
432.371089263007
 21
311.558245897661
 31
0.0
  0
LINE
  5
4003
330
1A
100
AcDbEntity
  8
寸法線
 48
10.0
100
AcDbLine
 10
282.371089263007
 20
325.888550957416
 30
0.0
 11
497.012502779016
 21
325.888550957416
 31
0.0
  0
LINE
  5
4004
330
1A
100
AcDbEntity
  8
寸法線
 48
10.0
100
AcDbLine
 10
282.371089263007
 20
298.353603366584
 30
0.0
 11
432.371089263007
 21
298.353603366584
 31
0.0
  0
LINE
  5
4005
330
1A
100
AcDbEntity
  8
寸法線
 48
10.0
100
AcDbLine
 10
282.371089263007
 20
284.567581075256
 30
0.0
 11
497.012502779016
 21
284.567581075256
 31
0.0
  0
LINE
  5
4006
330
1A
100
AcDbEntity
  8
寸法線
 48
10.0
100
AcDbLine
 10
282.371089263007
 20
272.390554418511
 30
0.0
 11
432.371089263007
 21
272.390554418511
 31
0.0
  0
LINE
  5
4007
330
1A
100
AcDbEntity
  8
寸法線
 48
10.0
100
AcDbLine
 10
282.371089263007
 20
341.018325336343
 30
0.0
 11
282.371089263007
 21
272.390554418511
 31
0.0
  0
LINE
  5
400B
330
1A
100
AcDbEntity
  8
寸法線
 48
10.0
100
AcDbLine
 10
432.371089263007
 20
341.018325336343
 30
0.0
 11
432.371089263007
 21
244.945723857495
 31
0.0
  0
MTEXT
  5
400C
330
1A
100
AcDbEntity
  8
寸法線
 48
10.0
100
AcDbMText
 10
455.041279403596
 20
338.136500308848
 30
0.0
 40
8.0
 41
165.013333333333
 71
     1
 72
     5
  1
材質
  0
LINE
  5
400D
330
1A
100
AcDbEntity
  8
寸法線
 48
10.0
100
AcDbLine
 10
449.612773985235
 20
325.888550957416
 30
0.0
 11
449.612773985235
 21
244.945723857495
 31
0.0
  0
MTEXT
  5
400E
330
1A
100
AcDbEntity
  8
寸法線
 48
10.0
100
AcDbMText
 10
455.726274456678
 20
309.288912311598
 30
0.0
 40
8.0
 41
165.013333333333
 71
     1
 72
     5
  1
SUS304
  0
MTEXT
  5
400F
330
1A
100
AcDbEntity
  8
寸法線
 48
10.0
100
AcDbMText
 10
455.726274456678
 20
270.019207786133
 30
0.0
 40
8.0
 41
165.013333333333
 71
     1
 72
     5
  1
SUS316
  0
LINE
  5
4010
330
1A
100
AcDbEntity
  8
寸法線
 48
10.0
100
AcDbLine
 10
497.012502779016
 20
341.018325336343
 30
0.0
 11
497.012502779016
 21
244.945723857495
 31
0.0
  0
LINE
  5
4011
330
1A
100
AcDbEntity
  8
外形線
 48
10.0
100
AcDbLine
 10
298.290032940495
 20
569.830844094272
 30
0.0
 11
312.290032940495
 21
569.830844094272
 31
0.0
  0
LINE
  5
4012
330
1A
100
AcDbEntity
  8
外形線
 48
10.0
100
AcDbLine
 10
298.290032940495
 20
569.830844094272
 30
0.0
 11
298.290032940495
 21
414.830844094272
 31
0.0
  0
LINE
  5
4013
330
1A
100
AcDbEntity
  8
外形線
 48
10.0
100
AcDbLine
 10
298.290032940495
 20
414.830844094272
 30
0.0
 11
312.290032940495
 21
414.830844094272
 31
0.0
  0
LINE
  5
4014
330
1A
100
AcDbEntity
  8
外形線
 48
10.0
100
AcDbLine
 10
312.290032940495
 20
569.830844094272
 30
0.0
 11
312.290032940495
 21
414.830844094272
 31
0.0
  0
MTEXT
  5
4015
330
1A
100
AcDbEntity
  8
寸法線
 48
10.0
100
AcDbMText
 10
242.950833950295
 20
595.44422908468
 30
0.0
 40
8.0
 41
133.333333333333
 71
     1
 72
     5
  1
フランジ
  0
LEADER
  5
4016
330
1A
100
AcDbEntity
  8
寸法線
 48
10.0
100
AcDbLeader
  3
ISO-25
 76
     3
 10
298.290032940495
 20
560.013973802756
 30
0.0
 10
279.584307236042
 20
586.834329875175
 30
0.0
 10
266.218477206707
 20
586.834329875175
 30
0.0
213
23.65594758210466
223
0.0
233
0.0
1001
ACAD
1000
DSTYLE
1002
{
1070
     5
1000
OPEN30
1070
   147
1040
0.625
1070
    77
1070
     0
1070
    41
1040
6.0
1070
    47
1040
0.1
1070
    48
1040
0.1
1070
    73
1070
     0
1070
   140
1040
5.0
1070
   271
1070
     1
1070
   272
1070
     1
1070
   341
1005
2AF4
1070
   342
1005
2AF4
1002
}
  0
LINE
  5
4017
330
1A
100
AcDbEntity
  8
中心線
 48
10.0
100
AcDbLine
 10
287.88390710731
 20
557.330844094272
 30
0.0
 11
322.69615877368
 21
557.330844094272
 31
0.0
  0
LINE
  5
4018
330
1A
100
AcDbEntity
  8
中心線
 48
10.0
100
AcDbLine
 10
287.88390710731
 20
427.330844094272
 30
0.0
 11
322.69615877368
 21
427.330844094272
 31
0.0
  0
MTEXT
  5
4206
330
1A
100
AcDbEntity
  8
寸法線
 48
10.0
100
AcDbMText
 10
155.886632137215
 20
307.077115067946
 30
0.0
 40
7.0
 41
125.633939393939
 71
     1
 72
     5
  1
{\C1;：グランド\P：電源\P：電源\P：コモン\P：オープン（クローズ）\P：クローズ（オープン）}
  0
MTEXT
  5
4207
330
1A
100
AcDbEntity
  8
寸法線
 48
10.0
100
AcDbMText
 10
143.996439337479
 20
307.077115067946
 30
0.0
 40
7.0
 41
125.633939393939
 71
     1
 72
     5
  1
{\C1;PE\PN\PL1\PC\PNO\PNC}
  0
MTEXT
  5
4208
102
{ACAD_XDICTIONARY
360
4209
102
}
330
1A
100
AcDbEntity
  8
寸法線
 48
10.0
100
AcDbMText
 10
141.680649288713
 20
339.580978720689
 30
0.0
 40
8.0
 41
124.815667100994
 71
     1
 72
     5
  1
電源電圧：AC20～255V　　　　　　：DC20～60V
1001
ACADANNOTATIVE
1000
AnnotativeData
1002
{
1070
     1
1070
     0
1002
}
  0
MTEXT
  5
420C
330
1A
100
AcDbEntity
  8
寸法線
 48
10.0
100
AcDbMText
 10
105.102752145762
 20
247.463287047603
 30
0.0
 40
8.0
 41
95.557777777778
 71
     1
 72
     5
  1
{\C1;（NO）}
  0
MTEXT
  5
420D
330
1A
100
AcDbEntity
  8
寸法線
 48
10.0
100
AcDbMText
 10
54.053172920928
 20
247.463287047603
 30
0.0
 40
8.0
 41
95.557777777778
 71
     1
 72
     5
  1
{\C1;（NC）}
  0
LINE
  5
4297
330
1A
100
AcDbEntity
  8
寸法線
 48
10.0
100
AcDbLine
 10
653.458252441133
 20
490.209760342243
 30
0.0
 11
653.458252441133
 21
368.106828984366
 31
0.0
  0
LINE
  5
4298
330
1A
100
AcDbEntity
  8
寸法線
 48
10.0
100
AcDbLine
 10
523.226390774543
 20
460.57476584438
 30
0.0
 11
620.586921343963
 21
460.57476584438
 31
0.0
  0
MTEXT
  5
4299
102
{ACAD_XDICTIONARY
360
429A
102
}
330
1A
100
AcDbEntity
  8
寸法線
 48
10.0
100
AcDbMText
 10
587.483935606804
 20
471.395070618811
 30
0.0
 40
8.0
 41
66.205971474318
 71
     2
 72
     5
  1
RFM-303-0
1001
ACADANNOTATIVE
1000
AnnotativeData
1002
{
1070
     1
1070
     0
1002
}
1001
ACAD
1000
MTEXTBEGIN
1070
    44
1040
1.1475
1000
MTEXTEND
  0
MTEXT
  5
429D
330
1A
100
AcDbEntity
  8
寸法線
 48
10.0
100
AcDbMText
 10
579.421838182977
 20
487.327935314749
 30
0.0
 40
8.0
 41
19.77375149039
 71
     1
 72
     5
  1
型式
  0
LINE
  5
429E
330
1A
100
AcDbEntity
  8
寸法線
 48
10.0
100
AcDbLine
 10
523.226390774543
 20
476.008734274387
 30
0.0
 11
620.586921343963
 21
476.008734274387
 31
0.0
  0
LINE
  5
429F
330
1A
100
AcDbEntity
  8
寸法線
 48
10.0
100
AcDbLine
 10
523.226390774543
 20
490.209760342243
 30
0.0
 11
620.586921343963
 21
490.209760342243
 31
0.0
  0
LINE
  5
42A0
330
1A
100
AcDbEntity
  8
寸法線
 48
10.0
100
AcDbLine
 10
554.380949869645
 20
490.209760342243
 30
0.0
 11
554.380949869645
 21
368.106828984366
 31
0.0
  0
LINE
  5
42A1
330
1A
100
AcDbEntity
  8
寸法線
 48
10.0
100
AcDbLine
 10
620.586921343963
 20
490.209760342243
 30
0.0
 11
620.586921343963
 21
368.106828984366
 31
0.0
  0
LINE
  5
42A2
330
1A
100
AcDbEntity
  8
寸法線
 48
10.0
100
AcDbLine
 10
620.586921343963
 20
490.209760342243
 30
0.0
 11
620.586921343963
 21
383.506828984366
 31
0.0
  0
LINE
  5
42A3
330
1A
100
AcDbEntity
  8
寸法線
 48
10.0
100
AcDbLine
 10
523.226390774543
 20
490.209760342243
 30
0.0
 11
523.226390774543
 21
368.106828984367
 31
0.0
  0
MTEXT
  5
42A4
330
1A
100
AcDbEntity
  8
寸法線
 48
10.0
100
AcDbMText
 10
600.620865047273
 20
240.905944800395
 30
0.0
 40
8.0
 41
165.013333333333
 71
     1
 72
     5
  1
○印が今回の貴社の御仕様です。
  0
SPLINE
  5
42A5
330
1A
100
AcDbEntity
  8
寸法線
 48
10.0
100
AcDbSpline
210
0.0
220
0.0
230
1.0
 70
  1064
 71
     3
 72
    13
 73
     9
 74
     7
 42
0.000000001
 43
0.0000000001
 44
0.0000000001
 40
0.0
 40
0.0
 40
0.0
 40
0.0
 40
3.86842211421227
 40
10.12254119268954
 40
15.16331027423529
 40
18.64952359630841
 40
20.50331406220848
 40
21.8476876304271
 40
21.8476876304271
 40
21.8476876304271
 40
21.8476876304271
 10
634.7927071977633
 20
478.6635562359754
 30
0.0
 10
635.9431016731214
 20
479.1949694005618
 30
0.0
 10
638.9533511032114
 20
480.5855238669679
 30
0.0
 10
639.6787368192408
 20
490.2929313645883
 30
0.0
 10
635.3878607983531
 20
483.3110184657423
 30
0.0
 10
635.5757548305731
 20
479.7666356745768
 30
0.0
 10
637.8364257734634
 20
478.3781057726025
 30
0.0
 10
638.8363574951753
 20
478.8783062277328
 30
0.0
 10
639.2566867097971
 20
479.0885694486039
 30
0.0
 11
634.7927071977633
 21
478.6635562359754
 31
0.0
 11
637.874978579162
 21
481.001138915826
 31
0.0
 11
638.5658326444793
 21
487.2169836780613
 31
0.0
 11
635.8555602082702
 21
482.9668335330673
 31
0.0
 11
636.333844193502
 21
479.5135846633113
 31
0.0
 11
637.9812636192048
 21
478.6635562359754
 31
0.0
 11
639.2566867097971
 21
479.0885694486039
 31
0.0
  0
LINE
  5
42A6
330
1A
100
AcDbEntity
  8
寸法線
 48
10.0
100
AcDbLine
 10
523.226390774543
 20
445.140797414373
 30
0.0
 11
554.380949869645
 21
445.140797414373
 31
0.0
  0
MTEXT
  5
42A7
102
{ACAD_XDICTIONARY
360
42A8
102
}
330
1A
100
AcDbEntity
  8
寸法線
 48
10.0
100
AcDbMText
 10
637.022586892548
 20
471.925403028949
 30
0.0
 40
8.0
 41
32.87133109717
 71
     2
 72
     5
  1
300\P350\P400\P450\P500\P550\P600
1001
ACADANNOTATIVE
1000
AnnotativeData
1002
{
1070
     1
1070
     0
1002
}
1001
ACAD
1000
MTEXTBEGIN
1070
    44
1040
1.1475
1000
MTEXTEND
  0
LINE
  5
42AB
330
1A
100
AcDbEntity
  8
寸法線
 48
10.0
100
AcDbLine
 10
523.226390774543
 20
429.706828984366
 30
0.0
 11
620.586921343963
 21
429.706828984366
 31
0.0
  0
LINE
  5
42AC
330
1A
100
AcDbEntity
  8
寸法線
 48
10.0
100
AcDbLine
 10
620.586921343963
 20
460.57476584438
 30
0.0
 11
733.458252441133
 21
460.57476584438
 31
0.0
  0
LINE
  5
42AD
330
1A
100
AcDbEntity
  8
寸法線
 48
10.0
100
AcDbLine
 10
620.586921343963
 20
445.140797414373
 30
0.0
 11
733.458252441133
 21
445.140797414373
 31
0.0
  0
LINE
  5
42AE
330
1A
100
AcDbEntity
  8
寸法線
 48
10.0
100
AcDbLine
 10
620.586921343963
 20
476.008734274387
 30
0.0
 11
733.458252441133
 21
476.008734274387
 31
0.0
  0
LINE
  5
42AF
330
1A
100
AcDbEntity
  8
寸法線
 48
10.0
100
AcDbLine
 10
620.586921343963
 20
490.209760342243
 30
0.0
 11
733.458252441133
 21
490.209760342243
 31
0.0
  0
LINE
  5
42B0
330
1A
100
AcDbEntity
  8
寸法線
 48
10.0
100
AcDbLine
 10
620.586921343963
 20
429.706828984366
 30
0.0
 11
733.458252441133
 21
429.706828984366
 31
0.0
  0
MTEXT
  5
42B1
102
{ACAD_XDICTIONARY
360
42B2
102
}
330
1A
100
AcDbEntity
  8
寸法線
 48
10.0
100
AcDbMText
 10
524.693315640202
 20
486.736030623939
 30
0.0
 40
8.0
 41
32.516763780405
 71
     1
 72
     5
  1
御仕様
1001
ACADANNOTATIVE
1000
AnnotativeData
1002
{
1070
     1
1070
     0
1002
}
  0
LINE
  5
42B5
330
1A
100
AcDbEntity
  8
寸法線
 48
10.0
100
AcDbLine
 10
523.226390774543
 20
414.306828984366
 30
0.0
 11
554.380949869645
 21
414.306828984366
 31
0.0
  0
LINE
  5
42B6
330
1A
100
AcDbEntity
  8
寸法線
 48
10.0
100
AcDbLine
 10
523.226390774543
 20
398.906828984366
 30
0.0
 11
733.458252441133
 21
398.906828984366
 31
0.0
  0
LINE
  5
42B7
330
1A
100
AcDbEntity
  8
寸法線
 48
10.0
100
AcDbLine
 10
523.226390774543
 20
383.506828984367
 30
0.0
 11
554.380949869645
 21
383.506828984367
 31
0.0
  0
LINE
  5
42B8
330
1A
100
AcDbEntity
  8
寸法線
 48
10.0
100
AcDbLine
 10
523.226390774543
 20
368.106828984366
 30
0.0
 11
733.458252441133
 21
368.106828984366
 31
0.0
  0
MTEXT
  5
42B9
102
{ACAD_XDICTIONARY
360
42BA
102
}
330
1A
100
AcDbEntity
  8
寸法線
 48
10.0
100
AcDbMText
 10
709.673587996712
 20
486.983219257001
 30
0.0
 40
8.0
 41
19.77375149039
 71
     1
 72
     5
  1
台数
1001
ACADANNOTATIVE
1000
AnnotativeData
1002
{
1070
     1
1070
     0
1002
}
  0
LINE
  5
42BD
330
1A
100
AcDbEntity
  8
寸法線
 48
10.0
100
AcDbLine
 10
523.226390774543
 20
368.106828984366
 30
0.0
 11
523.226390774543
 21
244.804923694345
 31
0.0
  0
LINE
  5
42BE
330
1A
100
AcDbEntity
  8
寸法線
 48
10.0
100
AcDbLine
 10
653.458252441133
 20
368.106828984366
 30
0.0
 11
653.458252441133
 21
244.804923694345
 31
0.0
  0
LINE
  5
42BF
330
1A
100
AcDbEntity
  8
寸法線
 48
10.0
100
AcDbLine
 10
523.226390774543
 20
352.672860554359
 30
0.0
 11
554.380949869645
 21
352.672860554359
 31
0.0
  0
LINE
  5
42C4
330
1A
100
AcDbEntity
  8
寸法線
 48
10.0
100
AcDbLine
 10
523.226390774543
 20
368.106828984366
 30
0.0
 11
620.586921343963
 21
368.106828984366
 31
0.0
  0
LINE
  5
42C5
330
1A
100
AcDbEntity
  8
寸法線
 48
10.0
100
AcDbLine
 10
523.226390774543
 20
368.106828984366
 30
0.0
 11
620.586921343963
 21
368.106828984366
 31
0.0
  0
LINE
  5
42C6
330
1A
100
AcDbEntity
  8
寸法線
 48
10.0
100
AcDbLine
 10
554.380949869645
 20
368.106828984366
 30
0.0
 11
554.380949869645
 21
244.804923694345
 31
0.0
  0
LINE
  5
42C7
330
1A
100
AcDbEntity
  8
寸法線
 48
10.0
100
AcDbLine
 10
620.586921343963
 20
368.106828984366
 30
0.0
 11
620.586921343963
 21
244.804923694345
 31
0.0
  0
LINE
  5
42C8
330
1A
100
AcDbEntity
  8
寸法線
 48
10.0
100
AcDbLine
 10
620.586921343963
 20
368.106828984366
 30
0.0
 11
620.586921343963
 21
321.804923694345
 31
0.0
  0
LINE
  5
42C9
330
1A
100
AcDbEntity
  8
寸法線
 48
10.0
100
AcDbLine
 10
523.226390774543
 20
368.106828984366
 30
0.0
 11
523.226390774543
 21
244.804923694345
 31
0.0
  0
LINE
  5
42CB
330
1A
100
AcDbEntity
  8
寸法線
 48
10.0
100
AcDbLine
 10
523.226390774543
 20
337.238892124352
 30
0.0
 11
620.586921343963
 21
337.238892124353
 31
0.0
  0
MTEXT
  5
42CC
102
{ACAD_XDICTIONARY
360
42CD
102
}
330
1A
100
AcDbEntity
  8
寸法線
 48
10.0
100
AcDbMText
 10
637.022586892548
 20
364.023497738928
 30
0.0
 40
8.0
 41
32.87133109717
 71
     2
 72
     5
  1
650\P700\P750\P800\P850\P900\P950\P1000\P
1001
ACADANNOTATIVE
1000
AnnotativeData
1002
{
1070
     1
1070
     0
1002
}
1001
ACAD
1000
MTEXTBEGIN
1070
    44
1040
1.1475
1000
MTEXTEND
  0
LINE
  5
42D0
330
1A
100
AcDbEntity
  8
寸法線
 48
10.0
100
AcDbLine
 10
523.226390774543
 20
321.804923694345
 30
0.0
 11
554.380949869645
 21
321.804923694345
 31
0.0
  0
LINE
  5
42D1
330
1A
100
AcDbEntity
  8
寸法線
 48
10.0
100
AcDbLine
 10
620.586921343963
 20
352.672860554359
 30
0.0
 11
733.458252441133
 21
352.672860554359
 31
0.0
  0
LINE
  5
42D2
330
1A
100
AcDbEntity
  8
寸法線
 48
10.0
100
AcDbLine
 10
620.586921343963
 20
337.238892124352
 30
0.0
 11
733.458252441133
 21
337.238892124352
 31
0.0
  0
LINE
  5
42D3
330
1A
100
AcDbEntity
  8
寸法線
 48
10.0
100
AcDbLine
 10
620.586921343963
 20
368.106828984366
 30
0.0
 11
733.458252441133
 21
368.106828984366
 31
0.0
  0
LINE
  5
42D4
330
1A
100
AcDbEntity
  8
寸法線
 48
10.0
100
AcDbLine
 10
620.586921343963
 20
368.106828984366
 30
0.0
 11
733.458252441133
 21
368.106828984366
 31
0.0
  0
LINE
  5
42D5
330
1A
100
AcDbEntity
  8
寸法線
 48
10.0
100
AcDbLine
 10
620.586921343963
 20
321.804923694345
 30
0.0
 11
733.458252441133
 21
321.804923694345
 31
0.0
  0
LINE
  5
42DA
330
1A
100
AcDbEntity
  8
寸法線
 48
10.0
100
AcDbLine
 10
523.226390774543
 20
306.404923694345
 30
0.0
 11
733.458252441133
 21
306.404923694345
 31
0.0
  0
LINE
  5
42DB
330
1A
100
AcDbEntity
  8
寸法線
 48
10.0
100
AcDbLine
 10
523.226390774543
 20
291.004923694346
 30
0.0
 11
554.380949869645
 21
291.004923694346
 31
0.0
  0
LINE
  5
42DC
330
1A
100
AcDbEntity
  8
寸法線
 48
10.0
100
AcDbLine
 10
523.226390774543
 20
275.604923694346
 30
0.0
 11
733.458252441133
 21
275.604923694345
 31
0.0
  0
LINE
  5
42DD
330
1A
100
AcDbEntity
  8
寸法線
 48
10.0
100
AcDbLine
 10
703.458252441133
 20
490.209760342243
 30
0.0
 11
703.458252441133
 21
368.106828984366
 31
0.0
  0
LINE
  5
42DE
330
1A
100
AcDbEntity
  8
寸法線
 48
10.0
100
AcDbLine
 10
733.458252441133
 20
490.209760342243
 30
0.0
 11
733.458252441133
 21
368.106828984366
 31
0.0
  0
LINE
  5
42DF
330
1A
100
AcDbEntity
  8
寸法線
 48
10.0
100
AcDbLine
 10
703.458252441133
 20
368.106828984366
 30
0.0
 11
703.458252441133
 21
244.804923694345
 31
0.0
  0
LINE
  5
42E0
330
1A
100
AcDbEntity
  8
寸法線
 48
10.0
100
AcDbLine
 10
733.458252441133
 20
368.106828984366
 30
0.0
 11
733.458252441133
 21
244.804923694345
 31
0.0
  0
MTEXT
  5
42E5
102
{ACAD_XDICTIONARY
360
42E6
102
}
330
1A
100
AcDbEntity
  8
寸法線
 48
10.0
100
AcDbMText
 10
670.536041100057
 20
487.141382077834
 30
0.0
 40
8.0
 41
19.77375149039
 71
     1
 72
     5
  1
記事
1001
ACADANNOTATIVE
1000
AnnotativeData
1002
{
1070
     1
1070
     0
1002
}
  0
LINE
  5
42F1
330
1A
100
AcDbEntity
  8
寸法線
 48
10.0
100
AcDbLine
 10
523.226390774543
 20
260.204923694345
 30
0.0
 11
554.380949869645
 21
260.204923694345
 31
0.0
  0
LINE
  5
42F2
330
1A
100
AcDbEntity
  8
寸法線
 48
10.0
100
AcDbLine
 10
523.226390774543
 20
244.804923694345
 30
0.0
 11
733.458252441133
 21
244.804923694345
 31
0.0
  0
LINE
  5
42F4
330
1A
100
AcDbEntity
  8
寸法線
 48
10.0
100
AcDbLine
 10
297.371089263007
 20
341.018325336343
 30
0.0
 11
297.371089263007
 21
272.390554418511
 31
0.0
  0
LINE
  5
42F7
330
1A
100
AcDbEntity
  8
寸法線
 48
10.0
100
AcDbLine
 10
347.371089263007
 20
325.888550957416
 30
0.0
 11
347.371089263007
 21
244.945723857495
 31
0.0
  0
LINE
  5
42F8
330
1A
100
AcDbEntity
  8
寸法線
 48
10.0
100
AcDbLine
 10
362.371089263007
 20
325.888550957416
 30
0.0
 11
362.371089263007
 21
244.945723857495
 31
0.0
  0
LINE
  5
42FA
330
1A
100
AcDbEntity
  8
寸法線
 48
10.0
100
AcDbLine
 10
417.371089263007
 20
325.888550957416
 30
0.0
 11
417.371089263007
 21
244.945723857495
 31
0.0
  0
LINE
  5
42FB
330
1A
100
AcDbEntity
  8
寸法線
 48
10.0
100
AcDbLine
 10
432.371089263007
 20
325.888550957416
 30
0.0
 11
432.371089263007
 21
244.945723857495
 31
0.0
  0
LINE
  5
440E
330
1A
100
AcDbEntity
  8
寸法線
 48
10.0
100
AcDbLine
 10
620.586921343963
 20
414.306828984366
 30
0.0
 11
733.458252441133
 21
414.306828984366
 31
0.0
  0
LINE
  5
4410
330
1A
100
AcDbEntity
  8
寸法線
 48
10.0
100
AcDbLine
 10
620.586921343963
 20
383.506828984367
 30
0.0
 11
733.458252441133
 21
383.506828984366
 31
0.0
  0
LINE
  5
4412
330
1A
100
AcDbEntity
  8
寸法線
 48
10.0
100
AcDbLine
 10
620.586921343963
 20
306.404923694345
 30
0.0
 11
620.586921343963
 21
244.804923694345
 31
0.0
  0
LINE
  5
4413
330
1A
100
AcDbEntity
  8
寸法線
 48
10.0
100
AcDbLine
 10
620.586921343963
 20
291.004923694345
 30
0.0
 11
733.458252441133
 21
291.004923694345
 31
0.0
  0
LINE
  5
4414
330
1A
100
AcDbEntity
  8
寸法線
 48
10.0
100
AcDbLine
 10
620.586921343963
 20
260.204923694345
 30
0.0
 11
733.458252441133
 21
260.204923694345
 31
0.0
  0
MTEXT
  5
447B
102
{ACAD_XDICTIONARY
360
447C
102
}
330
1A
100
AcDbEntity
  8
寸法線
 48
10.0
100
AcDbMText
 10
587.938842669962
 20
445.140797414373
 30
0.0
 40
8.0
 41
66.205971474318
 71
     5
 72
     5
  1
RFM-304-0
1001
ACADANNOTATIVE
1000
AnnotativeData
1002
{
1070
     1
1070
     0
1002
}
1001
ACAD
1000
MTEXTBEGIN
1070
    44
1040
1.1475
1000
MTEXTEND
  0
MTEXT
  5
44E1
102
{ACAD_XDICTIONARY
360
44E2
102
}
330
1A
100
AcDbEntity
  8
寸法線
 48
10.0
100
AcDbMText
 10
587.938842669963
 20
414.272860554359
 30
0.0
 40
8.0
 41
66.205971474318
 71
     5
 72
     5
  1
RFM-305-0
1001
ACADANNOTATIVE
1000
AnnotativeData
1002
{
1070
     1
1070
     0
1002
}
1001
ACAD
1000
MTEXTBEGIN
1070
    44
1040
1.1475
1000
MTEXTEND
  0
MTEXT
  5
4516
102
{ACAD_XDICTIONARY
360
4517
102
}
330
1A
100
AcDbEntity
  8
寸法線
 48
10.0
100
AcDbMText
 10
587.938842669962
 20
383.472860554359
 30
0.0
 40
8.0
 41
66.205971474318
 71
     5
 72
     5
  1
RFM-306-0
1001
ACADANNOTATIVE
1000
AnnotativeData
1002
{
1070
     1
1070
     0
1002
}
1001
ACAD
1000
MTEXTBEGIN
1070
    44
1040
1.1475
1000
MTEXTEND
  0
MTEXT
  5
454B
102
{ACAD_XDICTIONARY
360
454C
102
}
330
1A
100
AcDbEntity
  8
寸法線
 48
10.0
100
AcDbMText
 10
587.938842669962
 20
352.672860554359
 30
0.0
 40
8.0
 41
66.205971474318
 71
     5
 72
     5
  1
RFM-307-0
1001
ACADANNOTATIVE
1000
AnnotativeData
1002
{
1070
     1
1070
     0
1002
}
1001
ACAD
1000
MTEXTBEGIN
1070
    44
1040
1.1475
1000
MTEXTEND
  0
MTEXT
  5
4580
102
{ACAD_XDICTIONARY
360
4581
102
}
330
1A
100
AcDbEntity
  8
寸法線
 48
10.0
100
AcDbMText
 10
587.938842669962
 20
321.804923694345
 30
0.0
 40
8.0
 41
66.205971474318
 71
     5
 72
     5
  1
RFM-308-0
1001
ACADANNOTATIVE
1000
AnnotativeData
1002
{
1070
     1
1070
     0
1002
}
1001
ACAD
1000
MTEXTBEGIN
1070
    44
1040
1.1475
1000
MTEXTEND
  0
MTEXT
  5
45B5
102
{ACAD_XDICTIONARY
360
45B6
102
}
330
1A
100
AcDbEntity
  8
寸法線
 48
10.0
100
AcDbMText
 10
587.938842669962
 20
291.021907909349
 30
0.0
 40
8.0
 41
66.205971474318
 71
     5
 72
     5
  1
RFM-309-0
1001
ACADANNOTATIVE
1000
AnnotativeData
1002
{
1070
     1
1070
     0
1002
}
1001
ACAD
1000
MTEXTBEGIN
1070
    44
1040
1.1475
1000
MTEXTEND
  0
MTEXT
  5
45EA
102
{ACAD_XDICTIONARY
360
45EB
102
}
330
1A
100
AcDbEntity
  8
寸法線
 48
10.0
100
AcDbMText
 10
587.938842669963
 20
260.170955264338
 30
0.0
 40
8.0
 41
66.205971474318
 71
     5
 72
     5
  1
RFM-310-0
1001
ACADANNOTATIVE
1000
AnnotativeData
1002
{
1070
     1
1070
     0
1002
}
1001
ACAD
1000
MTEXTBEGIN
1070
    44
1040
1.1475
1000
MTEXTEND
  0
LINE
  5
4A52
330
1A
100
AcDbEntity
  8
細線
100
AcDbLine
 10
313.290032940495
 20
476.830844094272
 30
0.0
 11
312.290032940495
 21
476.830844094272
 31
0.0
  0
LINE
  5
4A53
330
1A
100
AcDbEntity
  8
外形線
100
AcDbLine
 10
313.290032940495
 20
475.830844094272
 30
0.0
 11
312.290032940495
 21
475.830844094272
 31
0.0
  0
LINE
  5
4A57
330
1A
100
AcDbEntity
  8
細線
100
AcDbLine
 10
313.290032940495
 20
507.830844094272
 30
0.0
 11
312.290032940495
 21
507.830844094272
 31
0.0
  0
LINE
  5
4A58
330
1A
100
AcDbEntity
  8
外形線
100
AcDbLine
 10
313.290032940495
 20
508.830844094272
 30
0.0
 11
312.290032940495
 21
508.830844094272
 31
0.0
  0
LINE
  5
4A59
330
1A
100
AcDbEntity
  8
外形線
100
AcDbLine
 10
298.290032940495
 20
475.830844094272
 30
0.0
 11
298.290032940495
 21
508.830844094272
 31
0.0
  0
LINE
  5
4B22
330
1A
100
AcDbEntity
  8
下書線
 48
10.0
100
AcDbLine
 10
467.52948472559
 20
586.834329875174
 30
0.0
 11
47.81355226044
 21
586.834329875174
 31
0.0
  0
LINE
  5
4E2A
330
1A
100
AcDbEntity
  8
寸法線
 48
10.0
100
AcDbLine
 10
347.371089263007
 20
258.798770140636
 30
0.0
 11
432.371089263007
 21
258.798770140636
 31
0.0
  0
LINE
  5
4E2B
330
1A
100
AcDbEntity
  8
寸法線
 48
10.0
100
AcDbLine
 10
347.371089263007
 20
244.945723857495
 30
0.0
 11
497.012502779016
 21
244.945723857495
 31
0.0
  0
VIEWPORT
  5
2902
330
28FB
100
AcDbEntity
 67
     1
  8
0
 48
10.0
100
AcDbViewport
 10
0.0
 20
0.0
 30
0.0
 40
552.319156214367
 41
300.3
 68
     1
 69
     1
1001
ACAD
1000
MVIEW
1002
{
1070
    16
1010
0.0
1020
0.0
1030
0.0
1010
0.0
1020
0.0
1030
1.0
1040
0.0
1040
300.3
1040
205.756503333333
1040
143.551503333333
1040
50.0
1040
0.0
1040
0.0
1070
    16
1070
   100
1070
     0
1070
     1
1070
     0
1070
     0
1070
     0
1070
     0
1040
0.0
1040
0.0
1040
0.0
1040
10.0
1040
10.0
1040
10.0
1040
10.0
1070
     0
1002
{
1002
}
1002
}
  0
VIEWPORT
  5
2904
330
28FB
100
AcDbEntity
 67
     1
  8
図枠太線
 48
10.0
100
AcDbViewport
 10
204.746305129083
 20
161.396645458131
 30
0.0
 40
400.0
 41
240.0
 68
     2
 69
     2
1001
ACAD
1000
MVIEW
1002
{
1070
    16
1010
0.0
1020
0.0
1030
0.0
1010
0.0
1020
0.0
1030
1.0
1040
0.0
1040
480.0
1040
355.82162090131
1040
420.139309289482
1040
50.0
1040
0.0
1040
0.0
1070
    16
1070
   100
1070
     0
1070
     0
1070
     0
1070
     0
1070
     0
1070
     0
1040
0.0
1040
0.0
1040
0.0
1040
1.0
1040
1.0
1040
0.0
1040
0.0
1070
     0
1002
{
1002
}
1002
}
  0
INSERT
  5
2A59
330
28FB
100
AcDbEntity
 67
     1
  8
図枠太線
100
AcDbBlockReference
  2
A3横用_タイトル
 10
-0.352109406709
 20
-2.129314295396
 30
0.0
  0
MTEXT
  5
2FE3
330
28FB
100
AcDbEntity
 67
     1
  8
寸法線
 48
10.0
100
AcDbMText
 10
149.281561913196
 20
13.738838105692
 30
0.0
 40
7.0
 41
10.579051054442
 71
     1
 72
     5
  1
1:2
  0
MTEXT
  5
2FE7
330
28FB
100
AcDbEntity
 67
     1
  8
寸法線
 48
10.0
100
AcDbMText
 10
312.502621362913
 20
33.107736922225
 30
0.0
 40
6.0
 41
53.647044270833
 71
     1
 72
     5
  1
RFM-3□□-0
  0
MTEXT
  5
2FE8
330
28FB
100
AcDbEntity
 67
     1
  8
寸法線
 48
10.0
100
AcDbMText
 10
363.257693177112
 20
37.807266065601
 30
0.0
 40
6.0
 41
50.761524795071
 71
     1
 72
     5
  1
{\H0.8333x;振動式\Pレベルスイッチ}
  0
MTEXT
  5
3100
330
28FB
100
AcDbEntity
 67
     1
  8
寸法線
 48
10.0
100
AcDbMText
 10
272.300488718679
 20
48.787921847374
 30
0.0
 40
5.0
 41
58.550841599714
 71
     1
 72
     5
  1
A3縮小図
  0
LINE
  5
3101
330
28FB
100
AcDbEntity
 67
     1
  8
寸法線
 48
10.0
100
AcDbLine
 10
272.300488718679
 20
42.916202519738
 30
0.0
 11
296.843718665885
 21
42.916202519738
 31
0.0
  0
MTEXT
  5
342E
330
28FB
100
AcDbEntity
 67
     1
  8
寸法線
 48
10.0
100
AcDbMText
 10
376.730127672352
 20
48.224963581677
 30
0.0
 40
5.0
 41
54.683098362957
 71
     1
 72
     5
  1
{\C1;台数   台}
  0
MTEXT
  5
417A
102
{ACAD_XDICTIONARY
360
42FD
102
}
330
28FB
100
AcDbEntity
 67
     1
  8
寸法線
 48
10.0
100
AcDbMText
 10
342.310364674422
 20
14.31383610533
 30
0.0
 40
7.0
 41
68.56
 71
     1
 72
     5
  1
HVR-2018
1001
ACADANNOTATIVE
1000
AnnotativeData
1002
{
1070
     1
1070
     0
1002
}
  0
MTEXT
  5
4406
102
{ACAD_XDICTIONARY
360
4407
102
}
330
28FB
100
AcDbEntity
 67
     1
  8
寸法線
 48
10.0
100
AcDbMText
 10
175.506541278264
 20
12.819600893732
 30
0.0
 40
5.0
 41
60.244444444444
 71
     1
 72
     5
  1
2015.8.25
1001
ACADANNOTATIVE
1000
AnnotativeData
1002
{
1070
     1
1070
     0
1002
}
  0
MTEXT
  5
440A
102
{ACAD_XDICTIONARY
360
440B
102
}
330
28FB
100
AcDbEntity
 67
     1
  8
寸法線
 48
10.0
100
AcDbMText
 10
173.953401409015
 20
32.625226751426
 30
0.0
 40
5.0
 41
24.595673902063
 71
     1
 72
     5
  1
takahashi
1001
ACADANNOTATIVE
1000
AnnotativeData
1002
{
1070
     1
1070
     0
1002
}
  0
MTEXT
  5
4948
102
{ACAD_XDICTIONARY
360
4949
102
}
330
28FB
100
AcDbEntity
 67
     1
  8
下書線
 48
10.0
100
AcDbMText
 10
334.634359983294
 20
227.340070098629
 30
0.0
 40
10.0
 41
174.128675272846
 71
     5
 72
     5
  1
HP掲載図面\P変更・追記不可
1001
ACADANNOTATIVE
1000
AnnotativeData
1002
{
1070
     1
1070
     0
1002
}
  0
LWPOLYLINE
  5
494C
330
28FB
100
AcDbEntity
 67
     1
  8
下書線
 48
10.0
100
AcDbPolyline
 90
        4
 70
     1
 43
0.0
 10
292.404214729723
 20
245.766674930029
 10
376.238378493478
 20
245.766674930029
 10
376.238378493478
 20
208.644535994049
 10
292.404214729723
 20
208.644535994049
  0
MTEXT
  5
4F08
102
{ACAD_XDICTIONARY
360
4F09
102
}
330
28FB
100
AcDbEntity
 67
     1
  8
寸法線
 48
10.0
100
AcDbMText
 10
154.696305129083
 20
29.396646458131
 30
0.0
 40
4.5
 41
29.906507692735
 71
     5
 72
     5
  1
tahara
1001
ACADANNOTATIVE
1000
AnnotativeData
1002
{
1070
     1
1070
     0
1002
}
  0
MTEXT
  5
4F0C
102
{ACAD_XDICTIONARY
360
4F0D
102
}
330
28FB
100
AcDbEntity
 67
     1
  8
寸法線
 48
10.0
100
AcDbMText
 10
121.396304528483
 20
29.396646458131
 30
0.0
 40
4.5
 41
16.097226867587
 71
     5
 72
     5
  1
konishi
1001
ACADANNOTATIVE
1000
AnnotativeData
1002
{
1070
     1
1070
     0
1002
}
  0
ENDSEC
  0
SECTION
  2
OBJECTS
  0
DICTIONARY
  5
C
330
0
100
AcDbDictionary
  3
ACAD_COLOR
350
2948
  3
ACAD_GROUP
350
D
  3
ACAD_LAYOUT
350
2816
  3
ACAD_MATERIAL
350
2947
  3
ACAD_MLEADERSTYLE
350
41CB
  3
ACAD_MLINESTYLE
350
E
  3
ACAD_PLOTSETTINGS
350
2817
  3
ACAD_SCALELIST
350
41A4
  3
ACAD_VISUALSTYLE
350
418B
  3
ACADDIM
350
30EB
  3
ACDBHEADERROUNDTRIPXREC
350
4F74
  3
ACDBVARIABLEDICTIONARY
350
4326
  3
DWGPROPS
350
4F99
  0
DICTIONARY
  5
4F9A
330
8
100
AcDbDictionary
280
     1
  3
ACAD_XREC_ROUNDTRIP
360
4F9B
  0
DICTIONARY
  5
29EA
330
2
100
AcDbDictionary
280
     1
  3
ACAD_LAYERFILTERS
360
2B0C
  3
ACAD_LAYERSTATES
360
29EB
  0
DICTIONARY
  5
443B
330
443A
100
AcDbDictionary
280
     1
  3
ACDBCONTEXTDATAMANAGER
360
443C
  0
DICTIONARY
  5
443F
330
443E
100
AcDbDictionary
280
     1
  3
ACDBCONTEXTDATAMANAGER
360
4440
  0
DICTIONARY
  5
471E
330
30ED
100
AcDbDictionary
280
     1
  3
ACDBCONTEXTDATAMANAGER
360
471F
  0
DICTIONARY
  5
471B
330
30F9
100
AcDbDictionary
280
     1
  3
ACDBCONTEXTDATAMANAGER
360
471C
  0
DICTIONARY
  5
4E25
330
3FFF
100
AcDbDictionary
280
     1
  3
ACDBCONTEXTDATAMANAGER
360
4E26
  0
DICTIONARY
  5
4209
330
4208
100
AcDbDictionary
280
     1
  3
ACDBCONTEXTDATAMANAGER
360
420A
  0
DICTIONARY
  5
429A
330
4299
100
AcDbDictionary
280
     1
  3
ACDBCONTEXTDATAMANAGER
360
429B
  0
DICTIONARY
  5
42A8
330
42A7
100
AcDbDictionary
280
     1
  3
ACDBCONTEXTDATAMANAGER
360
42A9
  0
DICTIONARY
  5
42B2
330
42B1
100
AcDbDictionary
280
     1
  3
ACDBCONTEXTDATAMANAGER
360
42B3
  0
DICTIONARY
  5
42BA
330
42B9
100
AcDbDictionary
280
     1
  3
ACDBCONTEXTDATAMANAGER
360
42BB
  0
DICTIONARY
  5
42CD
330
42CC
100
AcDbDictionary
280
     1
  3
ACDBCONTEXTDATAMANAGER
360
42CE
  0
DICTIONARY
  5
42E6
330
42E5
100
AcDbDictionary
280
     1
  3
ACDBCONTEXTDATAMANAGER
360
42E7
  0
DICTIONARY
  5
447C
330
447B
100
AcDbDictionary
280
     1
  3
ACDBCONTEXTDATAMANAGER
360
447D
  0
DICTIONARY
  5
44E2
330
44E1
100
AcDbDictionary
280
     1
  3
ACDBCONTEXTDATAMANAGER
360
44E3
  0
DICTIONARY
  5
4517
330
4516
100
AcDbDictionary
280
     1
  3
ACDBCONTEXTDATAMANAGER
360
4518
  0
DICTIONARY
  5
454C
330
454B
100
AcDbDictionary
280
     1
  3
ACDBCONTEXTDATAMANAGER
360
454D
  0
DICTIONARY
  5
4581
330
4580
100
AcDbDictionary
280
     1
  3
ACDBCONTEXTDATAMANAGER
360
4582
  0
DICTIONARY
  5
45B6
330
45B5
100
AcDbDictionary
280
     1
  3
ACDBCONTEXTDATAMANAGER
360
45B7
  0
DICTIONARY
  5
45EB
330
45EA
100
AcDbDictionary
280
     1
  3
ACDBCONTEXTDATAMANAGER
360
45EC
  0
DICTIONARY
  5
42FD
330
417A
100
AcDbDictionary
280
     1
  3
ACDBCONTEXTDATAMANAGER
360
42FE
  0
DICTIONARY
  5
4407
330
4406
100
AcDbDictionary
280
     1
  3
ACDBCONTEXTDATAMANAGER
360
4408
  0
DICTIONARY
  5
440B
330
440A
100
AcDbDictionary
280
     1
  3
ACDBCONTEXTDATAMANAGER
360
440C
  0
DICTIONARY
  5
4949
330
4948
100
AcDbDictionary
280
     1
  3
ACDBCONTEXTDATAMANAGER
360
494A
  0
DICTIONARY
  5
4F09
330
4F08
100
AcDbDictionary
280
     1
  3
ACDBCONTEXTDATAMANAGER
360
4F0A
  0
DICTIONARY
  5
4F0D
330
4F0C
100
AcDbDictionary
280
     1
  3
ACDBCONTEXTDATAMANAGER
360
4F0E
  0
DICTIONARY
  5
2948
102
{ACAD_REACTORS
330
C
102
}
330
C
100
AcDbDictionary
  0
DICTIONARY
  5
D
102
{ACAD_REACTORS
330
C
102
}
330
C
100
AcDbDictionary
  0
DICTIONARY
  5
2816
102
{ACAD_REACTORS
330
C
102
}
330
C
100
AcDbDictionary
  0
DICTIONARY
  5
2947
102
{ACAD_REACTORS
330
C
102
}
330
C
100
AcDbDictionary
  3
BYBLOCK
350
41C7
  3
BYLAYER
350
41C6
  3
GLOBAL
350
41C8
  0
DICTIONARY
  5
41CB
102
{ACAD_REACTORS
330
C
102
}
330
C
100
AcDbDictionary
  3
STANDARD
350
41CC
  0
DICTIONARY
  5
E
102
{ACAD_REACTORS
330
C
102
}
330
C
100
AcDbDictionary
  3
STANDARD
350
13
  0
DICTIONARY
  5
2817
102
{ACAD_REACTORS
330
C
102
}
330
C
100
AcDbDictionary
  0
DICTIONARY
  5
41A4
102
{ACAD_REACTORS
330
C
102
}
330
C
100
AcDbDictionary
  3
A0
350
41A5
  3
A1
350
41A6
  3
A2
350
41A7
  3
A3
350
41A8
  3
A4
350
41A9
  3
A5
350
41AA
  3
A6
350
41AB
  3
A7
350
41AC
  3
A8
350
41AD
  3
A9
350
41AE
  3
B0
350
41AF
  3
B1
350
41B0
  3
B2
350
41B1
  3
B3
350
41B2
  3
B4
350
41B3
  3
B5
350
41B4
  3
B6
350
41B5
  3
B7
350
41B6
  3
B8
350
41B7
  3
B9
350
41B8
  3
C0
350
41B9
  3
C1
350
41BA
  3
C2
350
41BB
  3
C3
350
41BC
  3
C4
350
41BD
  3
C5
350
41BE
  3
C6
350
41BF
  3
C7
350
41C0
  3
C8
350
41C1
  3
C9
350
41C2
  3
D0
350
41C3
  3
D1
350
41C4
  3
D2
350
41C5
  0
DICTIONARY
  5
418B
102
{ACAD_REACTORS
330
C
102
}
330
C
100
AcDbDictionary
  3
2DWIREFRAME
350
4190
  3
BASIC
350
4193
  3
BRIGHTEN
350
4197
  3
COLORCHANGE
350
419B
  3
CONCEPTUAL
350
4195
  3
DIM
350
4196
  3
EDGECOLOROFF
350
419E
  3
FACEPATTERN
350
419A
  3
FLAT
350
418C
  3
FLATWITHEDGES
350
418D
  3
GOURAUD
350
418E
  3
GOURAUDWITHEDGES
350
418F
  3
HIDDEN
350
4192
  3
JITTEROFF
350
419C
  3
LINEPATTERN
350
4199
  3
MODELING
350
41CD
  3
OVERHANGOFF
350
419D
  3
REALISTIC
350
4194
  3
SHADED
350
41A3
  3
SHADED_WITH_EDGES
350
41A2
  3
SHADES_OF_GRAY
350
419F
  3
SKETCHY
350
41A0
  3
THICKEN
350
4198
  3
WIREFRAME
350
4191
  3
X-RAY
350
41A1
  0
XRECORD
  5
30EB
102
{ACAD_REACTORS
330
C
102
}
330
C
100
AcDbXrecord
 90
   990106
  3

 60
     0
 61
     0
 62
     1
 63
     3
 64
     0
 65
     0
 66
     0
 67
     3
 68
     1
 69
     0
 70
     0
 71
     0
 72
     0
 40
0.0
170
     0
  0
DICTIONARY
  5
4F74
102
{ACAD_REACTORS
330
C
102
}
330
C
100
AcDbDictionary
  3
CEPSNID
350
4F7E
  3
CEPSNTYPE
350
4F7D
  3
COLORDICT
350
4F97
  3
DIMSTYLEDATA
350
4F94
  3
FINGERPRINTGUID
350
4F7F
  3
HYPERLINKBASE
350
4F77
  3
INSUNITS
350
4F7C
  3
LAYOUTDICT
350
4F79
  3
LWETCUNION
350
4F7B
  3
MATERIALDICT
350
4F98
  3
PLOTSETDICT
350
4F7A
  3
PSVPSCALE
350
4F81
  3
PUCSBASE
350
4F84
  3
PUCSORGBACK
350
4F8A
  3
PUCSORGBOTTOM
350
4F86
  3
PUCSORGFRONT
350
4F89
  3
PUCSORGLEFT
350
4F87
  3
PUCSORGRIGHT
350
4F88
  3
PUCSORGTOP
350
4F85
  3
PUCSORTHOREF
350
4F82
  3
PUCSORTHOVIEW
350
4F83
  3
STYLESHEET
350
4F78
  3
TSTACKALIGN
350
4F75
  3
TSTACKSIZE
350
4F76
  3
UCSBASE
350
4F8D
  3
UCSORGBACK
350
4F93
  3
UCSORGBOTTOM
350
4F8F
  3
UCSORGFRONT
350
4F92
  3
UCSORGLEFT
350
4F90
  3
UCSORGRIGHT
350
4F91
  3
UCSORGTOP
350
4F8E
  3
UCSORTHOREF
350
4F8B
  3
UCSORTHOVIEW
350
4F8C
  3
VERSIONGUID
350
4F80
  0
DICTIONARY
  5
4326
102
{ACAD_REACTORS
330
C
102
}
330
C
100
AcDbDictionary
  3
CANNOSCALE
350
4327
  3
CMLEADERSTYLE
350
4368
  3
CTABLESTYLE
350
4367
  3
DIMASSOC
350
4F95
  3
HIDETEXT
350
4F96
  3
MSLTSCALE
350
4369
  3
XCLIPFRAME
350
436A
  0
XRECORD
  5
4F99
102
{ACAD_REACTORS
330
C
102
}
330
C
100
AcDbXrecord
  1
DWGPROPS COOKIE
  2

  3

  4

  6

  7

  8
takahashi
  9

300
=
301
=
302
=
303
=
304
=
305
=
306
=
307
=
308
=
309
=
 40
0.0
 41
2450576.222302431
 42
2457269.004456366
  1

 90
        0
  0
XRECORD
  5
4F9B
102
{ACAD_REACTORS
330
4F9A
102
}
330
4F9A
100
AcDbXrecord
102
VTR_0.000_0.000_1.000_1.000_VISUALSTYLE
340
4190
102
VTR_0.000_0.000_1.000_1.000_GRIDDISPLAY
 70
     3
102
VTR_0.000_0.000_1.000_1.000_GRIDMAJOR
 70
     5
102
VTR_0.000_0.000_1.000_1.000_DEFAULTLIGHTING
280
     1
102
VTR_0.000_0.000_1.000_1.000_DEFAULTLIGHTINGTYPE
 70
     1
102
VTR_0.000_0.000_1.000_1.000_BRIGHTNESS
141
0.0
102
VTR_0.000_0.000_1.000_1.000_CONTRAST
142
0.0
  0
DICTIONARY
  5
2B0C
102
{ACAD_REACTORS
330
29EA
102
}
330
29EA
100
AcDbDictionary
  0
DICTIONARY
  5
29EB
102
{ACAD_REACTORS
330
29EA
102
}
330
29EA
100
AcDbDictionary
  0
DICTIONARY
  5
443C
102
{ACAD_REACTORS
330
443B
102
}
330
443B
100
AcDbDictionary
  3
ACDB_ANNOTATIONSCALES
350
443D
  0
DICTIONARY
  5
4440
102
{ACAD_REACTORS
330
443F
102
}
330
443F
100
AcDbDictionary
  3
ACDB_ANNOTATIONSCALES
350
4441
  0
DICTIONARY
  5
471F
102
{ACAD_REACTORS
330
471E
102
}
330
471E
100
AcDbDictionary
  3
ACDB_ANNOTATIONSCALES
350
4720
  0
DICTIONARY
  5
471C
102
{ACAD_REACTORS
330
471B
102
}
330
471B
100
AcDbDictionary
  3
ACDB_ANNOTATIONSCALES
350
471D
  0
DICTIONARY
  5
4E26
102
{ACAD_REACTORS
330
4E25
102
}
330
4E25
100
AcDbDictionary
  3
ACDB_ANNOTATIONSCALES
350
4E27
  0
DICTIONARY
  5
420A
102
{ACAD_REACTORS
330
4209
102
}
330
4209
100
AcDbDictionary
  3
ACDB_ANNOTATIONSCALES
350
420B
  0
DICTIONARY
  5
429B
102
{ACAD_REACTORS
330
429A
102
}
330
429A
100
AcDbDictionary
  3
ACDB_ANNOTATIONSCALES
350
429C
  0
DICTIONARY
  5
42A9
102
{ACAD_REACTORS
330
42A8
102
}
330
42A8
100
AcDbDictionary
  3
ACDB_ANNOTATIONSCALES
350
42AA
  0
DICTIONARY
  5
42B3
102
{ACAD_REACTORS
330
42B2
102
}
330
42B2
100
AcDbDictionary
  3
ACDB_ANNOTATIONSCALES
350
42B4
  0
DICTIONARY
  5
42BB
102
{ACAD_REACTORS
330
42BA
102
}
330
42BA
100
AcDbDictionary
  3
ACDB_ANNOTATIONSCALES
350
42BC
  0
DICTIONARY
  5
42CE
102
{ACAD_REACTORS
330
42CD
102
}
330
42CD
100
AcDbDictionary
  3
ACDB_ANNOTATIONSCALES
350
42CF
  0
DICTIONARY
  5
42E7
102
{ACAD_REACTORS
330
42E6
102
}
330
42E6
100
AcDbDictionary
  3
ACDB_ANNOTATIONSCALES
350
42E8
  0
DICTIONARY
  5
447D
102
{ACAD_REACTORS
330
447C
102
}
330
447C
100
AcDbDictionary
  3
ACDB_ANNOTATIONSCALES
350
447E
  0
DICTIONARY
  5
44E3
102
{ACAD_REACTORS
330
44E2
102
}
330
44E2
100
AcDbDictionary
  3
ACDB_ANNOTATIONSCALES
350
44E4
  0
DICTIONARY
  5
4518
102
{ACAD_REACTORS
330
4517
102
}
330
4517
100
AcDbDictionary
  3
ACDB_ANNOTATIONSCALES
350
4519
  0
DICTIONARY
  5
454D
102
{ACAD_REACTORS
330
454C
102
}
330
454C
100
AcDbDictionary
  3
ACDB_ANNOTATIONSCALES
350
454E
  0
DICTIONARY
  5
4582
102
{ACAD_REACTORS
330
4581
102
}
330
4581
100
AcDbDictionary
  3
ACDB_ANNOTATIONSCALES
350
4583
  0
DICTIONARY
  5
45B7
102
{ACAD_REACTORS
330
45B6
102
}
330
45B6
100
AcDbDictionary
  3
ACDB_ANNOTATIONSCALES
350
45B8
  0
DICTIONARY
  5
45EC
102
{ACAD_REACTORS
330
45EB
102
}
330
45EB
100
AcDbDictionary
  3
ACDB_ANNOTATIONSCALES
350
45ED
  0
DICTIONARY
  5
42FE
102
{ACAD_REACTORS
330
42FD
102
}
330
42FD
100
AcDbDictionary
  3
ACDB_ANNOTATIONSCALES
350
42FF
  0
DICTIONARY
  5
4408
102
{ACAD_REACTORS
330
4407
102
}
330
4407
100
AcDbDictionary
  3
ACDB_ANNOTATIONSCALES
350
4409
  0
DICTIONARY
  5
440C
102
{ACAD_REACTORS
330
440B
102
}
330
440B
100
AcDbDictionary
  3
ACDB_ANNOTATIONSCALES
350
440D
  0
DICTIONARY
  5
494A
102
{ACAD_REACTORS
330
4949
102
}
330
4949
100
AcDbDictionary
  3
ACDB_ANNOTATIONSCALES
350
494B
  0
DICTIONARY
  5
4F0A
102
{ACAD_REACTORS
330
4F09
102
}
330
4F09
100
AcDbDictionary
  3
ACDB_ANNOTATIONSCALES
350
4F0B
  0
DICTIONARY
  5
4F0E
102
{ACAD_REACTORS
330
4F0D
102
}
330
4F0D
100
AcDbDictionary
  3
ACDB_ANNOTATIONSCALES
350
4F0F
  0
MATERIAL
  5
41C7
102
{ACAD_REACTORS
330
2947
102
}
102
{ACAD_XDICTIONARY
360
4F9E
102
}
330
2947
100
AcDbMaterial
  1
BYBLOCK
  0
MATERIAL
  5
41C6
102
{ACAD_REACTORS
330
2947
102
}
102
{ACAD_XDICTIONARY
360
4F9C
102
}
330
2947
100
AcDbMaterial
  1
BYLAYER
  0
MATERIAL
  5
41C8
102
{ACAD_REACTORS
330
2947
102
}
102
{ACAD_XDICTIONARY
360
4FA0
102
}
330
2947
100
AcDbMaterial
  1
GLOBAL
  0
ACAD_PROXY_OBJECT
  5
41CC
102
{ACAD_REACTORS
330
41CB
102
}
330
41CB
100
AcDbProxyObject
 90
      499
 91
      508
 93
      610
310
40901902A4063FBFFFFFE0000000000000020400000000000020404214DD185B99185C990000000000000104090141901A00000000000004100000000000000041025764000000000000039000
340
14
340
0
340
10
340
0
 94
        0
1001
ACAD_MLEADERVER
1070
     2
  0
MLINESTYLE
  5
13
102
{ACAD_REACTORS
330
E
102
}
330
E
100
AcDbMlineStyle
  2
STANDARD
 70
     0
  3

 62
     0
 51
90.0
 52
90.0
 71
     2
 49
0.5
 62
   256
  6
BYLAYER
 49
-0.5
 62
   256
  6
BYLAYER
  0
ACAD_PROXY_OBJECT
  5
41A5
102
{ACAD_REACTORS
330
41A4
102
}
330
41A4
100
AcDbProxyObject
 90
      499
 91
      505
 93
       41
310
903313A31580
  0
ACAD_PROXY_OBJECT
  5
41A6
102
{ACAD_REACTORS
330
41A4
102
}
330
41A4
100
AcDbProxyObject
 90
      499
 91
      505
 93
      105
310
903313A324000000000000004000
  0
ACAD_PROXY_OBJECT
  5
41A7
102
{ACAD_REACTORS
330
41A4
102
}
330
41A4
100
AcDbProxyObject
 90
      499
 91
      505
 93
      105
310
903313A344000000000000104000
  0
ACAD_PROXY_OBJECT
  5
41A8
102
{ACAD_REACTORS
330
41A4
102
}
330
41A4
100
AcDbProxyObject
 90
      499
 91
      505
 93
      105
310
903313A354000000000000144000
  0
ACAD_PROXY_OBJECT
  5
41A9
102
{ACAD_REACTORS
330
41A4
102
}
330
41A4
100
AcDbProxyObject
 90
      499
 91
      505
 93
      105
310
903313A384000000000000204000
  0
ACAD_PROXY_OBJECT
  5
41AA
102
{ACAD_REACTORS
330
41A4
102
}
330
41A4
100
AcDbProxyObject
 90
      499
 91
      505
 93
      113
310
904313A31304000000000000244000
  0
ACAD_PROXY_OBJECT
  5
41AB
102
{ACAD_REACTORS
330
41A4
102
}
330
41A4
100
AcDbProxyObject
 90
      499
 91
      505
 93
      113
310
904313A31364000000000000304000
  0
ACAD_PROXY_OBJECT
  5
41AC
102
{ACAD_REACTORS
330
41A4
102
}
330
41A4
100
AcDbProxyObject
 90
      499
 91
      505
 93
      113
310
904313A32304000000000000344000
  0
ACAD_PROXY_OBJECT
  5
41AD
102
{ACAD_REACTORS
330
41A4
102
}
330
41A4
100
AcDbProxyObject
 90
      499
 91
      505
 93
      113
310
904313A333040000000000003E4000
  0
ACAD_PROXY_OBJECT
  5
41AE
102
{ACAD_REACTORS
330
41A4
102
}
330
41A4
100
AcDbProxyObject
 90
      499
 91
      505
 93
      113
310
904313A34304000000000000444000
  0
ACAD_PROXY_OBJECT
  5
41AF
102
{ACAD_REACTORS
330
41A4
102
}
330
41A4
100
AcDbProxyObject
 90
      499
 91
      505
 93
      113
310
904313A35304000000000000494000
  0
ACAD_PROXY_OBJECT
  5
41B0
102
{ACAD_REACTORS
330
41A4
102
}
330
41A4
100
AcDbProxyObject
 90
      499
 91
      505
 93
      121
310
905313A3130304000000000000594000
  0
ACAD_PROXY_OBJECT
  5
41B1
102
{ACAD_REACTORS
330
41A4
102
}
330
41A4
100
AcDbProxyObject
 90
      499
 91
      505
 93
      105
310
903323A310000000000000010100
  0
ACAD_PROXY_OBJECT
  5
41B2
102
{ACAD_REACTORS
330
41A4
102
}
330
41A4
100
AcDbProxyObject
 90
      499
 91
      505
 93
      105
310
903343A310000000000000410100
  0
ACAD_PROXY_OBJECT
  5
41B3
102
{ACAD_REACTORS
330
41A4
102
}
330
41A4
100
AcDbProxyObject
 90
      499
 91
      505
 93
      105
310
903383A310000000000000810100
  0
ACAD_PROXY_OBJECT
  5
41B4
102
{ACAD_REACTORS
330
41A4
102
}
330
41A4
100
AcDbProxyObject
 90
      499
 91
      505
 93
      113
310
90431303A310000000000000910100
  0
ACAD_PROXY_OBJECT
  5
41B5
102
{ACAD_REACTORS
330
41A4
102
}
330
41A4
100
AcDbProxyObject
 90
      499
 91
      505
 93
      121
310
9053130303A310000000000001650100
  0
ACAD_PROXY_OBJECT
  5
41B6
102
{ACAD_REACTORS
330
41A4
102
}
330
41A4
100
AcDbProxyObject
 90
      499
 91
      505
 93
      257
310
90E312F31323822203D2031272D3022000000000000200FC000000000000284000
  0
ACAD_PROXY_OBJECT
  5
41B7
102
{ACAD_REACTORS
330
41A4
102
}
330
41A4
100
AcDbProxyObject
 90
      499
 91
      505
 93
      249
310
90D312F363422203D2031272D3022000000000000240FC000000000000284000
  0
ACAD_PROXY_OBJECT
  5
41B8
102
{ACAD_REACTORS
330
41A4
102
}
330
41A4
100
AcDbProxyObject
 90
      499
 91
      505
 93
      249
310
90D312F333222203D2031272D3022000000000000280FC000000000000284000
  0
ACAD_PROXY_OBJECT
  5
41B9
102
{ACAD_REACTORS
330
41A4
102
}
330
41A4
100
AcDbProxyObject
 90
      499
 91
      505
 93
      249
310
90D312F313622203D2031272D30220000000000002C0FC000000000000284000
  0
ACAD_PROXY_OBJECT
  5
41BA
102
{ACAD_REACTORS
330
41A4
102
}
330
41A4
100
AcDbProxyObject
 90
      499
 91
      505
 93
      249
310
90D332F333222203D2031272D30220000000000002E0FC000000000000284000
  0
ACAD_PROXY_OBJECT
  5
41BB
102
{ACAD_REACTORS
330
41A4
102
}
330
41A4
100
AcDbProxyObject
 90
      499
 91
      505
 93
      241
310
90C312F3822203D2031272D3022000000000000300FC000000000000284000
  0
ACAD_PROXY_OBJECT
  5
41BC
102
{ACAD_REACTORS
330
41A4
102
}
330
41A4
100
AcDbProxyObject
 90
      499
 91
      505
 93
      249
310
90D332F313622203D2031272D3022000000000000320FC000000000000284000
  0
ACAD_PROXY_OBJECT
  5
41BD
102
{ACAD_REACTORS
330
41A4
102
}
330
41A4
100
AcDbProxyObject
 90
      499
 91
      505
 93
      241
310
90C312F3422203D2031272D3022000000000000340FC000000000000284000
  0
ACAD_PROXY_OBJECT
  5
41BE
102
{ACAD_REACTORS
330
41A4
102
}
330
41A4
100
AcDbProxyObject
 90
      499
 91
      505
 93
      241
310
90C332F3822203D2031272D3022000000000000360FC000000000000284000
  0
ACAD_PROXY_OBJECT
  5
41BF
102
{ACAD_REACTORS
330
41A4
102
}
330
41A4
100
AcDbProxyObject
 90
      499
 91
      505
 93
      241
310
90C312F3222203D2031272D3022000000000000380FC000000000000284000
  0
ACAD_PROXY_OBJECT
  5
41C0
102
{ACAD_REACTORS
330
41A4
102
}
330
41A4
100
AcDbProxyObject
 90
      499
 91
      505
 93
      241
310
90C332F3422203D2031272D30220000000000003A0FC000000000000284000
  0
ACAD_PROXY_OBJECT
  5
41C1
102
{ACAD_REACTORS
330
41A4
102
}
330
41A4
100
AcDbProxyObject
 90
      499
 91
      505
 93
      161
310
90A3122203D2031272D30224000000000000284000
  0
ACAD_PROXY_OBJECT
  5
41C2
102
{ACAD_REACTORS
330
41A4
102
}
330
41A4
100
AcDbProxyObject
 90
      499
 91
      505
 93
      257
310
90E312D312F3222203D2031272D30220000000000003E0FC000000000000284000
  0
ACAD_PROXY_OBJECT
  5
41C3
102
{ACAD_REACTORS
330
41A4
102
}
330
41A4
100
AcDbProxyObject
 90
      499
 91
      505
 93
      225
310
90A3322203D2031272D302200000000000002100000000000000284000
  0
ACAD_PROXY_OBJECT
  5
41C4
102
{ACAD_REACTORS
330
41A4
102
}
330
41A4
100
AcDbProxyObject
 90
      499
 91
      505
 93
      225
310
90A3622203D2031272D302200000000000006100000000000000284000
  0
ACAD_PROXY_OBJECT
  5
41C5
102
{ACAD_REACTORS
330
41A4
102
}
330
41A4
100
AcDbProxyObject
 90
      499
 91
      505
 93
      249
310
90D31272D3022203D2031272D30220000000000000A100000000000000284000
  0
ACAD_PROXY_OBJECT
  5
4190
102
{ACAD_REACTORS
330
418B
102
}
330
418B
100
AcDbProxyObject
 90
      499
 91
      504
 93
      436
310
42CC9915DA5C99599C985B595049028333333333333E33F0000000000000F90107901411070040501600405405064090741402480A0340
1001
ACAD
1000
AcDbSavedByObjectVersion
1070
     0
  0
ACAD_PROXY_OBJECT
  5
4193
102
{ACAD_REACTORS
330
418B
102
}
330
418B
100
AcDbProxyObject
 90
      499
 91
      504
 93
      388
310
4150985CDA58D07406404333333333333E33F0000000000000F90107A41107004050150841D405064090741402480A0350
1001
ACAD
1000
AcDbSavedByObjectVersion
1070
     0
  0
ACAD_PROXY_OBJECT
  5
4197
102
{ACAD_REACTORS
330
418B
102
}
330
418B
100
AcDbProxyObject
 90
      499
 91
      504
 93
      428
310
42109C9A59DA1D195B90C409028333333333333E33F0000000000000F9010790141107004050150841D405064090741402480A029950
1001
ACAD
1000
AcDbSavedByObjectVersion
1070
     0
  0
ACAD_PROXY_OBJECT
  5
419B
102
{ACAD_REACTORS
330
418B
102
}
330
418B
100
AcDbProxyObject
 90
      499
 91
      504
 93
      452
310
42D0DBDB1BDC90DA185B99D95104090240C333333333333E33F0000000000000F90108901411070040501508421405064090741402480A0350
1001
ACAD
1000
AcDbSavedByObjectVersion
1070
     0
  0
ACAD_PROXY_OBJECT
  5
4195
102
{ACAD_REACTORS
330
418B
102
}
330
418B
100
AcDbProxyObject
 90
      499
 91
      504
 93
      500
310
4290DBDB98D95C1D1D585B10940D028333333333333E33F0000000000000F90107902409070040501000000000018199010841D405064090740C02480A0340
1001
ACAD
1000
AcDbSavedByObjectVersion
1070
     0
  0
ACAD_PROXY_OBJECT
  5
4196
102
{ACAD_REACTORS
330
418B
102
}
330
418B
100
AcDbProxyObject
 90
      499
 91
      504
 93
      412
310
40D11A5B50B409028333333333333E33F0000000000000F9010790141107004050150841D405064090741402480A02677FFFFFD0
1001
ACAD
1000
AcDbSavedByObjectVersion
1070
     0
  0
ACAD_PROXY_OBJECT
  5
419E
102
{ACAD_REACTORS
330
418B
102
}
330
418B
100
AcDbProxyObject
 90
      499
 91
      504
 93
      452
310
43115919D950DBDB1BDC93D999916409028333333333333E33F0000000000000F9010790141107004050150841D405064090741402480A0350
1001
ACAD
1000
AcDbSavedByObjectVersion
1070
     0
  0
ACAD_PROXY_OBJECT
  5
419A
102
{ACAD_REACTORS
330
418B
102
}
330
418B
100
AcDbProxyObject
 90
      499
 91
      504
 93
      444
310
42D19858D95C185D1D195C9B90F409028333333333333E33F0000000000000F9010790141107004050150841D405064090741402480A0350
1001
ACAD
1000
AcDbSavedByObjectVersion
1070
     0
  0
ACAD_PROXY_OBJECT
  5
418C
102
{ACAD_REACTORS
330
418B
102
}
330
418B
100
AcDbProxyObject
 90
      499
 91
      504
 93
      380
310
41119B185D240901404333333333333E33F0000000000000F9010740A907004050150841D405064090741402480A1B50
1001
ACAD
1000
AcDbSavedByObjectVersion
1070
     0
  0
ACAD_PROXY_OBJECT
  5
418D
102
{ACAD_REACTORS
330
418B
102
}
330
418B
100
AcDbProxyObject
 90
      499
 91
      504
 93
      468
310
43519B185D15DA5D1A115919D95CD0140901404333333333333E33F0000000000000F90107409019070040501600405405064090741402480A1B50
1001
ACAD
1000
AcDbSavedByObjectVersion
1070
     0
  0
ACAD_PROXY_OBJECT
  5
418E
102
{ACAD_REACTORS
330
418B
102
}
330
418B
100
AcDbProxyObject
 90
      499
 91
      504
 93
      404
310
41D1DBDD5C985D5910240902404333333333333E33F0000000000000F9010740A9070040501641D405064090741402480A1B50
1001
ACAD
1000
AcDbSavedByObjectVersion
1070
     0
  0
ACAD_PROXY_OBJECT
  5
418F
102
{ACAD_REACTORS
330
418B
102
}
330
418B
100
AcDbProxyObject
 90
      499
 91
      504
 93
      492
310
4411DBDD5C985D5915DA5D1A115919D95CD0340902404333333333333E33F0000000000000F90107409019070040501600405405064090741402480A1B50
1001
ACAD
1000
AcDbSavedByObjectVersion
1070
     0
  0
ACAD_PROXY_OBJECT
  5
4192
102
{ACAD_REACTORS
330
418B
102
}
330
418B
100
AcDbProxyObject
 90
      499
 91
      504
 93
      476
310
41921A5919195B90640502408333333333333E33F0000000000000F901079024090700405020000000000001110200405405064090740C02480A0340
1001
ACAD
1000
AcDbSavedByObjectVersion
1070
     0
  0
ACAD_PROXY_OBJECT
  5
419C
102
{ACAD_REACTORS
330
418B
102
}
330
418B
100
AcDbProxyObject
 90
      499
 91
      504
 93
      428
310
42529A5D1D195C93D999914409028333333333333E33F0000000000000F9010790141107004050150A41D405064090741402480A0350
1001
ACAD
1000
AcDbSavedByObjectVersion
1070
     0
  0
ACAD_PROXY_OBJECT
  5
4199
102
{ACAD_REACTORS
330
418B
102
}
330
418B
100
AcDbProxyObject
 90
      499
 91
      504
 93
      444
310
42D31A5B995C185D1D195C9B90E409028333333333333E33F0000000000000F9010790141107004050750841D405064090741402483A0350
1001
ACAD
1000
AcDbSavedByObjectVersion
1070
     0
  0
ACAD_PROXY_OBJECT
  5
41CD
102
{ACAD_REACTORS
330
418B
102
}
330
418B
100
AcDbProxyObject
 90
      499
 91
      504
 93
      412
310
90A409038333333333333E33F0000000000000F901074090290700405010000000000201990108421405064090741402480A1B40
1001
ACAD
1000
AcDbSavedByObjectVersion
1070
     0
  0
ACAD_PROXY_OBJECT
  5
419D
102
{ACAD_REACTORS
330
418B
102
}
330
418B
100
AcDbProxyObject
 90
      499
 91
      504
 93
      444
310
42D3DD995C9A185B99D3D999915409028333333333333E33F0000000000000F9010790141107004050150941D405064090741402480A0350
1001
ACAD
1000
AcDbSavedByObjectVersion
1070
     0
  0
ACAD_PROXY_OBJECT
  5
4194
102
{ACAD_REACTORS
330
418B
102
}
330
418B
100
AcDbProxyObject
 90
      499
 91
      504
 93
      428
310
425499585B1A5CDD1A58D08409038333333333333E33F0000000000000F9010740A907004050150800405405064090740C02480A1B40
1001
ACAD
1000
AcDbSavedByObjectVersion
1070
     0
  0
ACAD_PROXY_OBJECT
  5
41A3
102
{ACAD_REACTORS
330
418B
102
}
330
418B
100
AcDbProxyObject
 90
      499
 91
      504
 93
      420
310
4194DA1859195911B40902404333333333333E33F0000000000000F9010740A41107004050150800405405064090840C02480A0B40
1001
ACAD
1000
AcDbSavedByObjectVersion
1070
     0
  0
ACAD_PROXY_OBJECT
  5
41A2
102
{ACAD_REACTORS
330
418B
102
}
330
418B
100
AcDbProxyObject
 90
      499
 91
      504
 93
      516
310
4454DA18591959081DDA5D1A08195919D95CD1A40902404333333333333E33F0000000000000F901074090142907004050250800405405064090740C02480A0B40
1001
ACAD
1000
AcDbSavedByObjectVersion
1070
     0
  0
ACAD_PROXY_OBJECT
  5
419F
102
{ACAD_REACTORS
330
418B
102
}
330
418B
100
AcDbProxyObject
 90
      499
 91
      504
 93
      532
310
4394DA1859195CC81BD98811DC985E5174090240C333333333333E33F0000000000000F901079024090741D01000000000000111010841D405064090740C02480A0340
1001
ACAD
1000
AcDbSavedByObjectVersion
1070
     0
  0
ACAD_PROXY_OBJECT
  5
41A0
102
{ACAD_REACTORS
330
418B
102
}
330
418B
100
AcDbProxyObject
 90
      499
 91
      504
 93
      476
310
41D4DAD95D18DA1E51840502408333333333333E33F0000000000000F901079024090741D01000000000000111010B41D405064090741802480A0340
1001
ACAD
1000
AcDbSavedByObjectVersion
1070
     0
  0
ACAD_PROXY_OBJECT
  5
4198
102
{ACAD_REACTORS
330
418B
102
}
330
418B
100
AcDbProxyObject
 90
      499
 91
      504
 93
      412
310
41D51A1A58DAD95B90D409028333333333333E33F0000000000000F9010790141107004050150C41D405064090741402480A0350
1001
ACAD
1000
AcDbSavedByObjectVersion
1070
     0
  0
ACAD_PROXY_OBJECT
  5
4191
102
{ACAD_REACTORS
330
418B
102
}
330
418B
100
AcDbProxyObject
 90
      499
 91
      504
 93
      420
310
4255DA5C99599C985B595059028333333333333E33F0000000000000F90107901411070040501600405405064090740C02480A0340
1001
ACAD
1000
AcDbSavedByObjectVersion
1070
     0
  0
ACAD_PROXY_OBJECT
  5
41A1
102
{ACAD_REACTORS
330
418B
102
}
330
418B
100
AcDbProxyObject
 90
      499
 91
      504
 93
      404
310
41560B54985E51940902404000000000000E03F0000000000000F9010740501907004050150841D405064090740C02480A1B40
1001
ACAD
1000
AcDbSavedByObjectVersion
1070
     0
  0
XRECORD
  5
4F7E
102
{ACAD_REACTORS
330
4F74
102
}
330
4F74
100
AcDbXrecord
340
0
  0
XRECORD
  5
4F7D
102
{ACAD_REACTORS
330
4F74
102
}
330
4F74
100
AcDbXrecord
 90
        0
  0
XRECORD
  5
4F97
102
{ACAD_REACTORS
330
4F74
102
}
330
4F74
100
AcDbXrecord
340
2948
  0
XRECORD
  5
4F94
102
{ACAD_REACTORS
330
4F74
102
}
330
4F74
100
AcDbXrecord
1000
DSTYLE
1002
{
1070
   171
 70
     2
1070
   143
 40
0.0394
1070
   274
 70
     2
1070
    41
 40
6.0
1070
   342
340
2AF4
1070
   271
 70
     1
1070
   278
 70
    46
1070
   341
340
2AF4
1070
   272
 70
     1
1070
    48
 40
0.1
1070
   283
 70
     1
1070
    47
 40
0.1
1070
   145
 40
1.0
1070
   340
340
10
1070
   140
 40
5.0
1070
   284
 70
     0
1002
}
  0
XRECORD
  5
4F7F
102
{ACAD_REACTORS
330
4F74
102
}
330
4F74
100
AcDbXrecord
  1
{23698909-1D67-4744-B0E2-8DE11E3ED422}
  0
XRECORD
  5
4F77
102
{ACAD_REACTORS
330
4F74
102
}
330
4F74
100
AcDbXrecord
  1

  0
XRECORD
  5
4F7C
102
{ACAD_REACTORS
330
4F74
102
}
330
4F74
100
AcDbXrecord
 90
        0
  0
XRECORD
  5
4F79
102
{ACAD_REACTORS
330
4F74
102
}
330
4F74
100
AcDbXrecord
340
2816
  0
XRECORD
  5
4F7B
102
{ACAD_REACTORS
330
4F74
102
}
330
4F74
100
AcDbXrecord
 90
    10781
  0
XRECORD
  5
4F98
102
{ACAD_REACTORS
330
4F74
102
}
330
4F74
100
AcDbXrecord
340
2947
  0
XRECORD
  5
4F7A
102
{ACAD_REACTORS
330
4F74
102
}
330
4F74
100
AcDbXrecord
340
2817
  0
XRECORD
  5
4F81
102
{ACAD_REACTORS
330
4F74
102
}
330
4F74
100
AcDbXrecord
 40
0.25
  0
XRECORD
  5
4F84
102
{ACAD_REACTORS
330
4F74
102
}
330
4F74
100
AcDbXrecord
340
0
  0
XRECORD
  5
4F8A
102
{ACAD_REACTORS
330
4F74
102
}
330
4F74
100
AcDbXrecord
 10
0.0
 20
0.0
 30
0.0
  0
XRECORD
  5
4F86
102
{ACAD_REACTORS
330
4F74
102
}
330
4F74
100
AcDbXrecord
 10
0.0
 20
0.0
 30
0.0
  0
XRECORD
  5
4F89
102
{ACAD_REACTORS
330
4F74
102
}
330
4F74
100
AcDbXrecord
 10
0.0
 20
0.0
 30
0.0
  0
XRECORD
  5
4F87
102
{ACAD_REACTORS
330
4F74
102
}
330
4F74
100
AcDbXrecord
 10
0.0
 20
0.0
 30
0.0
  0
XRECORD
  5
4F88
102
{ACAD_REACTORS
330
4F74
102
}
330
4F74
100
AcDbXrecord
 10
0.0
 20
0.0
 30
0.0
  0
XRECORD
  5
4F85
102
{ACAD_REACTORS
330
4F74
102
}
330
4F74
100
AcDbXrecord
 10
0.0
 20
0.0
 30
0.0
  0
XRECORD
  5
4F82
102
{ACAD_REACTORS
330
4F74
102
}
330
4F74
100
AcDbXrecord
340
0
  0
XRECORD
  5
4F83
102
{ACAD_REACTORS
330
4F74
102
}
330
4F74
100
AcDbXrecord
 70
     0
  0
XRECORD
  5
4F78
102
{ACAD_REACTORS
330
4F74
102
}
330
4F74
100
AcDbXrecord
  1

  0
XRECORD
  5
4F75
102
{ACAD_REACTORS
330
4F74
102
}
330
4F74
100
AcDbXrecord
 90
        1
  0
XRECORD
  5
4F76
102
{ACAD_REACTORS
330
4F74
102
}
330
4F74
100
AcDbXrecord
 90
       70
  0
XRECORD
  5
4F8D
102
{ACAD_REACTORS
330
4F74
102
}
330
4F74
100
AcDbXrecord
340
0
  0
XRECORD
  5
4F93
102
{ACAD_REACTORS
330
4F74
102
}
330
4F74
100
AcDbXrecord
 10
0.0
 20
0.0
 30
0.0
  0
XRECORD
  5
4F8F
102
{ACAD_REACTORS
330
4F74
102
}
330
4F74
100
AcDbXrecord
 10
0.0
 20
0.0
 30
0.0
  0
XRECORD
  5
4F92
102
{ACAD_REACTORS
330
4F74
102
}
330
4F74
100
AcDbXrecord
 10
0.0
 20
0.0
 30
0.0
  0
XRECORD
  5
4F90
102
{ACAD_REACTORS
330
4F74
102
}
330
4F74
100
AcDbXrecord
 10
0.0
 20
0.0
 30
0.0
  0
XRECORD
  5
4F91
102
{ACAD_REACTORS
330
4F74
102
}
330
4F74
100
AcDbXrecord
 10
0.0
 20
0.0
 30
0.0
  0
XRECORD
  5
4F8E
102
{ACAD_REACTORS
330
4F74
102
}
330
4F74
100
AcDbXrecord
 10
0.0
 20
0.0
 30
0.0
  0
XRECORD
  5
4F8B
102
{ACAD_REACTORS
330
4F74
102
}
330
4F74
100
AcDbXrecord
340
0
  0
XRECORD
  5
4F8C
102
{ACAD_REACTORS
330
4F74
102
}
330
4F74
100
AcDbXrecord
 70
     0
  0
XRECORD
  5
4F80
102
{ACAD_REACTORS
330
4F74
102
}
330
4F74
100
AcDbXrecord
  1
{6231EBFB-30F2-4ECF-9190-14C7ABAAEC71}
  0
DICTIONARYVAR
  5
4327
102
{ACAD_REACTORS
330
4326
102
}
330
4326
100
DictionaryVariables
280
     0
  1
1:1
  0
DICTIONARYVAR
  5
4368
102
{ACAD_REACTORS
330
4326
102
}
330
4326
100
DictionaryVariables
280
     0
  1
Standard
  0
DICTIONARYVAR
  5
4367
102
{ACAD_REACTORS
330
4326
102
}
330
4326
100
DictionaryVariables
280
     0
  1
Standard
  0
DICTIONARYVAR
  5
4F95
102
{ACAD_REACTORS
330
4326
102
}
330
4326
100
DictionaryVariables
280
     0
  1
1
  0
DICTIONARYVAR
  5
4F96
102
{ACAD_REACTORS
330
4326
102
}
330
4326
100
DictionaryVariables
280
     0
  1
0
  0
DICTIONARYVAR
  5
4369
102
{ACAD_REACTORS
330
4326
102
}
330
4326
100
DictionaryVariables
280
     0
  1
0
  0
DICTIONARYVAR
  5
436A
102
{ACAD_REACTORS
330
4326
102
}
330
4326
100
DictionaryVariables
280
     0
  1
0
  0
DICTIONARY
  5
443D
102
{ACAD_REACTORS
330
443C
102
}
330
443C
100
AcDbDictionary
  0
DICTIONARY
  5
4441
102
{ACAD_REACTORS
330
4440
102
}
330
4440
100
AcDbDictionary
  0
DICTIONARY
  5
4720
102
{ACAD_REACTORS
330
471F
102
}
330
471F
100
AcDbDictionary
  0
DICTIONARY
  5
471D
102
{ACAD_REACTORS
330
471C
102
}
330
471C
100
AcDbDictionary
  0
DICTIONARY
  5
4E27
102
{ACAD_REACTORS
330
4E26
102
}
330
4E26
100
AcDbDictionary
  0
DICTIONARY
  5
420B
102
{ACAD_REACTORS
330
420A
102
}
330
420A
100
AcDbDictionary
  0
DICTIONARY
  5
429C
102
{ACAD_REACTORS
330
429B
102
}
330
429B
100
AcDbDictionary
  0
DICTIONARY
  5
42AA
102
{ACAD_REACTORS
330
42A9
102
}
330
42A9
100
AcDbDictionary
  0
DICTIONARY
  5
42B4
102
{ACAD_REACTORS
330
42B3
102
}
330
42B3
100
AcDbDictionary
  0
DICTIONARY
  5
42BC
102
{ACAD_REACTORS
330
42BB
102
}
330
42BB
100
AcDbDictionary
  0
DICTIONARY
  5
42CF
102
{ACAD_REACTORS
330
42CE
102
}
330
42CE
100
AcDbDictionary
  0
DICTIONARY
  5
42E8
102
{ACAD_REACTORS
330
42E7
102
}
330
42E7
100
AcDbDictionary
  0
DICTIONARY
  5
447E
102
{ACAD_REACTORS
330
447D
102
}
330
447D
100
AcDbDictionary
  0
DICTIONARY
  5
44E4
102
{ACAD_REACTORS
330
44E3
102
}
330
44E3
100
AcDbDictionary
  0
DICTIONARY
  5
4519
102
{ACAD_REACTORS
330
4518
102
}
330
4518
100
AcDbDictionary
  0
DICTIONARY
  5
454E
102
{ACAD_REACTORS
330
454D
102
}
330
454D
100
AcDbDictionary
  0
DICTIONARY
  5
4583
102
{ACAD_REACTORS
330
4582
102
}
330
4582
100
AcDbDictionary
  0
DICTIONARY
  5
45B8
102
{ACAD_REACTORS
330
45B7
102
}
330
45B7
100
AcDbDictionary
  0
DICTIONARY
  5
45ED
102
{ACAD_REACTORS
330
45EC
102
}
330
45EC
100
AcDbDictionary
  0
DICTIONARY
  5
42FF
102
{ACAD_REACTORS
330
42FE
102
}
330
42FE
100
AcDbDictionary
  0
DICTIONARY
  5
4409
102
{ACAD_REACTORS
330
4408
102
}
330
4408
100
AcDbDictionary
  0
DICTIONARY
  5
440D
102
{ACAD_REACTORS
330
440C
102
}
330
440C
100
AcDbDictionary
  0
DICTIONARY
  5
494B
102
{ACAD_REACTORS
330
494A
102
}
330
494A
100
AcDbDictionary
  0
DICTIONARY
  5
4F0B
102
{ACAD_REACTORS
330
4F0A
102
}
330
4F0A
100
AcDbDictionary
  0
DICTIONARY
  5
4F0F
102
{ACAD_REACTORS
330
4F0E
102
}
330
4F0E
100
AcDbDictionary
  0
DICTIONARY
  5
4F9E
330
41C7
100
AcDbDictionary
280
     1
  3
ACAD_XREC_ROUNDTRIP
360
4F9F
  0
DICTIONARY
  5
4F9C
330
41C6
100
AcDbDictionary
280
     1
  3
ACAD_XREC_ROUNDTRIP
360
4F9D
  0
DICTIONARY
  5
4FA0
330
41C8
100
AcDbDictionary
280
     1
  3
ACAD_XREC_ROUNDTRIP
360
4FA1
  0
XRECORD
  5
4F9F
102
{ACAD_REACTORS
330
4F9E
102
}
330
4F9E
100
AcDbXrecord
102
MATERIAL
148
0.0
149
0.0
149
0.0
 93
        0
 94
      127
282
     0
 72
     1
 77
     1
171
     1
175
     1
179
     1
273
     0
  0
XRECORD
  5
4F9D
102
{ACAD_REACTORS
330
4F9C
102
}
330
4F9C
100
AcDbXrecord
102
MATERIAL
148
0.0
149
0.0
149
0.0
 93
        0
 94
      127
282
     0
 72
     1
 77
     1
171
     1
175
     1
179
     1
273
     0
  0
XRECORD
  5
4FA1
102
{ACAD_REACTORS
330
4FA0
102
}
330
4FA0
100
AcDbXrecord
102
MATERIAL
148
0.0
149
0.0
149
0.0
 93
        0
 94
      127
282
     0
 72
     1
 77
     1
171
     1
175
     1
179
     1
273
     0
  0
ENDSEC
  0
EOF
