  0
SECTION
  2
HEADER
  9
$ACADVER
  1
AC1014
  9
$ACADMAINTVER
 70
     9
  9
$DWGCODEPAGE
  3
ANSI_932
  9
$INSBASE
 10
0.0
 20
0.0
 30
0.0
  9
$EXTMIN
 10
37.00935482586
 20
210.465644689535
 30
0.0
  9
$EXTMAX
 10
542.087163678091
 20
569.287323797437
 30
0.0
  9
$LIMMIN
 10
-360.747566795242
 20
4.457354754526
  9
$LIMMAX
 10
-162.153696144267
 20
287.675440264018
  9
$ORTHOMODE
 70
     0
  9
$REGENMODE
 70
     1
  9
$FILLMODE
 70
     1
  9
$QTEXTMODE
 70
     0
  9
$MIRRTEXT
 70
     1
  9
$DRAGMODE
 70
     2
  9
$LTSCALE
 40
1.0
  9
$OSMODE
 70
   935
  9
$ATTMODE
 70
     1
  9
$TEXTSIZE
 40
2.333873885063
  9
$TRACEWID
 40
1.0
  9
$TEXTSTYLE
  7
STANDARD
  9
$CLAYER
  8
寸法線
  9
$CELTYPE
  6
BYLAYER
  9
$CECOLOR
 62
   256
  9
$CELTSCALE
 40
10.0
  9
$DELOBJ
 70
     1
  9
$DISPSILH
 70
     0
  9
$DIMSCALE
 40
1.0
  9
$DIMASZ
 40
6.0
  9
$DIMEXO
 40
0.625
  9
$DIMDLI
 40
3.75
  9
$DIMRND
 40
0.0
  9
$DIMDLE
 40
0.0
  9
$DIMEXE
 40
1.25
  9
$DIMTP
 40
0.1
  9
$DIMTM
 40
0.1
  9
$DIMTXT
 40
5.0
  9
$DIMCEN
 40
2.5
  9
$DIMTSZ
 40
0.0
  9
$DIMTOL
 70
     0
  9
$DIMLIM
 70
     0
  9
$DIMTIH
 70
     0
  9
$DIMTOH
 70
     0
  9
$DIMSE1
 70
     0
  9
$DIMSE2
 70
     0
  9
$DIMTAD
 70
     1
  9
$DIMZIN
 70
     8
  9
$DIMBLK
  1
OPEN30
  9
$DIMASO
 70
     1
  9
$DIMSHO
 70
     1
  9
$DIMPOST
  1

  9
$DIMAPOST
  1

  9
$DIMALT
 70
     0
  9
$DIMALTD
 70
     2
  9
$DIMALTF
 40
0.0394
  9
$DIMLFAC
 40
1.0
  9
$DIMTOFL
 70
     1
  9
$DIMTVP
 40
1.0
  9
$DIMTIX
 70
     0
  9
$DIMSOXD
 70
     0
  9
$DIMSAH
 70
     0
  9
$DIMBLK1
  1

  9
$DIMBLK2
  1

  9
$DIMSTYLE
  2
ISO-25
  9
$DIMCLRD
 70
     0
  9
$DIMCLRE
 70
     0
  9
$DIMCLRT
 70
     0
  9
$DIMTFAC
 40
1.0
  9
$DIMGAP
 40
0.625
  9
$DIMJUST
 70
     0
  9
$DIMSD1
 70
     0
  9
$DIMSD2
 70
     0
  9
$DIMTOLJ
 70
     1
  9
$DIMTZIN
 70
     0
  9
$DIMALTZ
 70
     0
  9
$DIMALTTZ
 70
     0
  9
$DIMFIT
 70
     3
  9
$DIMUPT
 70
     0
  9
$DIMUNIT
 70
     2
  9
$DIMDEC
 70
     1
  9
$DIMTDEC
 70
     1
  9
$DIMALTU
 70
     2
  9
$DIMALTTD
 70
     2
  9
$DIMTXSTY
  7
STANDARD
  9
$DIMAUNIT
 70
     0
  9
$LUNITS
 70
     2
  9
$LUPREC
 70
     4
  9
$SKETCHINC
 40
1.0
  9
$FILLETRAD
 40
6.5
  9
$AUNITS
 70
     0
  9
$AUPREC
 70
     0
  9
$MENU
  1
.
  9
$ELEVATION
 40
0.0
  9
$PELEVATION
 40
0.0
  9
$THICKNESS
 40
0.0
  9
$LIMCHECK
 70
     0
  9
$CHAMFERA
 40
10.0
  9
$CHAMFERB
 40
10.0
  9
$CHAMFERC
 40
20.0
  9
$CHAMFERD
 40
0.0
  9
$SKPOLY
 70
     0
  9
$TDCREATE
 40
2450576.597302431
  9
$TDUPDATE
 40
2457269.373065128
  9
$TDINDWG
 40
1.2565823958
  9
$TDUSRTIMER
 40
1.2565823958
  9
$USRTIMER
 70
     1
  9
$ANGBASE
 50
0.0
  9
$ANGDIR
 70
     0
  9
$PDMODE
 70
     0
  9
$PDSIZE
 40
0.0
  9
$PLINEWID
 40
0.0
  9
$COORDS
 70
     0
  9
$SPLFRAME
 70
     0
  9
$SPLINETYPE
 70
     6
  9
$SPLINESEGS
 70
     8
  9
$ATTDIA
 70
     0
  9
$ATTREQ
 70
     1
  9
$HANDLING
 70
     1
  9
$HANDSEED
  5
4AC4
  9
$SURFTAB1
 70
     6
  9
$SURFTAB2
 70
     6
  9
$SURFTYPE
 70
     6
  9
$SURFU
 70
     6
  9
$SURFV
 70
     6
  9
$UCSNAME
  2

  9
$UCSORG
 10
0.0
 20
0.0
 30
0.0
  9
$UCSXDIR
 10
1.0
 20
0.0
 30
0.0
  9
$UCSYDIR
 10
0.0
 20
1.0
 30
0.0
  9
$PUCSNAME
  2

  9
$PUCSORG
 10
0.0
 20
0.0
 30
0.0
  9
$PUCSXDIR
 10
1.0
 20
0.0
 30
0.0
  9
$PUCSYDIR
 10
0.0
 20
1.0
 30
0.0
  9
$USERI1
 70
     0
  9
$USERI2
 70
     0
  9
$USERI3
 70
     0
  9
$USERI4
 70
     0
  9
$USERI5
 70
     0
  9
$USERR1
 40
0.0
  9
$USERR2
 40
0.0
  9
$USERR3
 40
0.0
  9
$USERR4
 40
0.0
  9
$USERR5
 40
0.0
  9
$WORLDVIEW
 70
     1
  9
$SHADEDGE
 70
     3
  9
$SHADEDIF
 70
    70
  9
$TILEMODE
 70
     0
  9
$MAXACTVP
 70
    16
  9
$PINSBASE
 10
0.0
 20
0.0
 30
0.0
  9
$PLIMCHECK
 70
     0
  9
$PEXTMIN
 10
4.746305129083
 20
1.396645458131
 30
0.0
  9
$PEXTMAX
 10
404.746305129083
 20
281.396645458131
 30
0.0
  9
$PLIMMIN
 10
-7.007122192383
 20
-7.007118782997
  9
$PLIMMAX
 10
417.718108215332
 20
293.315290427208
  9
$UNITMODE
 70
     0
  9
$VISRETAIN
 70
     0
  9
$PLINEGEN
 70
     0
  9
$PSLTSCALE
 70
     1
  9
$TREEDEPTH
 70
  3020
  9
$PICKSTYLE
 70
     1
  9
$CMLSTYLE
  2
STANDARD
  9
$CMLJUST
 70
     0
  9
$CMLSCALE
 40
1.0
  9
$PROXYGRAPHICS
 70
     1
  9
$MEASUREMENT
 70
     1
  0
ENDSEC
  0
SECTION
  2
CLASSES
  0
CLASS
  1
ACDBDICTIONARYWDFLT
  2
AcDbDictionaryWithDefault
  3
ObjectDBX Classes
 90
        0
280
     0
281
     0
  0
CLASS
  1
ACDBPLACEHOLDER
  2
AcDbPlaceHolder
  3
ObjectDBX Classes
 90
        0
280
     0
281
     0
  0
CLASS
  1
LAYOUT
  2
AcDbLayout
  3
ObjectDBX Classes
 90
        0
280
     0
281
     0
  0
CLASS
  1
SORTENTSTABLE
  2
AcDbSortentsTable
  3
ObjectDBX Classes
 90
        0
280
     0
281
     0
  0
CLASS
  1
VISUALSTYLE
  2
AcDbVisualStyle
  3
ObjectDBX Classes
 90
     4095
280
     0
281
     0
  0
CLASS
  1
SCALE
  2
AcDbScale
  3
ObjectDBX Classes
 90
     1153
280
     0
281
     0
  0
CLASS
  1
MATERIAL
  2
AcDbMaterial
  3
ObjectDBX Classes
 90
     1153
280
     0
281
     0
  0
CLASS
  1
TABLESTYLE
  2
AcDbTableStyle
  3
ObjectDBX Classes
 90
     4095
280
     0
281
     0
  0
CLASS
  1
MLEADERSTYLE
  2
AcDbMLeaderStyle
  3
ACDB_MLEADERSTYLE_CLASS
 90
     4095
280
     0
281
     0
  0
CLASS
  1
SUN
  2
AcDbSun
  3
SCENEOE
 90
     1153
280
     0
281
     0
  0
CLASS
  1
DICTIONARYVAR
  2
AcDbDictionaryVar
  3
ObjectDBX Classes
 90
        0
280
     0
281
     0
  0
CLASS
  1
CELLSTYLEMAP
  2
AcDbCellStyleMap
  3
ObjectDBX Classes
 90
     1152
280
     0
281
     0
  0
CLASS
  1
XRECORD
  2
AcDbXrecord
  3
ObjectDBX Classes
 90
        0
280
     0
281
     0
  0
CLASS
  1
LWPOLYLINE
  2
AcDbPolyline
  3
ObjectDBX Classes
 90
        0
280
     0
281
     1
  0
CLASS
  1
HATCH
  2
AcDbHatch
  3
ObjectDBX Classes
 90
        0
280
     0
281
     1
  0
ENDSEC
  0
SECTION
  2
TABLES
  0
TABLE
  2
VPORT
  5
8
102
{ACAD_XDICTIONARY
360
4ABC
102
}
330
0
100
AcDbSymbolTable
 70
     3
  0
VPORT
  5
4183
330
8
100
AcDbSymbolTableRecord
100
AcDbViewportTableRecord
  2
*ACTIVE
 70
     0
 10
0.0
 20
0.0
 11
1.0
 21
1.0
 12
289.548259251975
 22
389.876484243486
 13
0.0
 23
0.0
 14
1.0
 24
1.0
 15
0.0
 25
0.0
 16
0.0
 26
0.0
 36
1.0
 17
0.0
 27
0.0
 37
0.0
 40
365.99811269006
 41
1.839224629418
 42
50.0
 43
0.0
 44
0.0
 50
0.0
 51
0.0
 71
    16
 72
   100
 73
     1
 74
     0
 75
     0
 76
     0
 77
     0
 78
     0
  0
ENDTAB
  0
TABLE
  2
LTYPE
  5
5
330
0
100
AcDbSymbolTable
 70
     4
  0
LTYPE
  5
14
330
5
100
AcDbSymbolTableRecord
100
AcDbLinetypeTableRecord
  2
BYBLOCK
 70
     0
  3

 72
    65
 73
     0
 40
0.0
  0
LTYPE
  5
15
330
5
100
AcDbSymbolTableRecord
100
AcDbLinetypeTableRecord
  2
BYLAYER
 70
     0
  3

 72
    65
 73
     0
 40
0.0
  0
LTYPE
  5
16
330
5
100
AcDbSymbolTableRecord
100
AcDbLinetypeTableRecord
  2
CONTINUOUS
 70
     0
  3
Solid line
 72
    65
 73
     0
 40
0.0
  0
LTYPE
  5
1EC
330
5
100
AcDbSymbolTableRecord
100
AcDbLinetypeTableRecord
  2
CENTER
 70
     0
  3
____ _ ____ _ ____ _ ____ _ ____ _ ____ _ ____ 
 72
    65
 73
     4
 40
2.0
 49
1.25
 74
     0
 49
-0.25
 74
     0
 49
0.25
 74
     0
 49
-0.25
 74
     0
  0
LTYPE
  5
1ED
330
5
100
AcDbSymbolTableRecord
100
AcDbLinetypeTableRecord
  2
DASHED
 70
     0
  3
__ __ __ __ __ __ __ __ __ __ __ __ __ __ __ __
 72
    65
 73
     2
 40
0.75
 49
0.5
 74
     0
 49
-0.25
 74
     0
  0
LTYPE
  5
2B1F
330
5
100
AcDbSymbolTableRecord
100
AcDbLinetypeTableRecord
  2
DASHDOT
 70
     0
  3
一点鎖線
 72
    65
 73
     4
 40
25.6
 49
20.0
 74
     0
 49
-2.0
 74
     0
 49
1.6
 74
     0
 49
-2.0
 74
     0
  0
ENDTAB
  0
TABLE
  2
LAYER
  5
2
102
{ACAD_XDICTIONARY
360
29EA
102
}
330
0
100
AcDbSymbolTable
 70
    16
  0
LAYER
  5
F
330
2
100
AcDbSymbolTableRecord
100
AcDbLayerTableRecord
  2
0
 70
     0
 62
     7
  6
CONTINUOUS
  0
LAYER
  5
61
330
2
100
AcDbSymbolTableRecord
100
AcDbLayerTableRecord
  2
図枠太線
 70
     0
 62
   251
  6
CONTINUOUS
  0
LAYER
  5
62
330
2
100
AcDbSymbolTableRecord
100
AcDbLayerTableRecord
  2
図枠細線
 70
     0
 62
   252
  6
CONTINUOUS
  0
LAYER
  5
63
330
2
100
AcDbSymbolTableRecord
100
AcDbLayerTableRecord
  2
図枠ロゴマーク
 70
     0
 62
   253
  6
CONTINUOUS
  0
LAYER
  5
1EF
330
2
100
AcDbSymbolTableRecord
100
AcDbLayerTableRecord
  2
外形線
 70
     0
 62
     7
  6
CONTINUOUS
  0
LAYER
  5
1F0
330
2
100
AcDbSymbolTableRecord
100
AcDbLayerTableRecord
  2
寸法線
 70
     0
 62
     1
  6
CONTINUOUS
  0
LAYER
  5
1F1
330
2
100
AcDbSymbolTableRecord
100
AcDbLayerTableRecord
  2
中心線
 70
     0
 62
     4
  6
CENTER
  0
LAYER
  5
1F4
330
2
100
AcDbSymbolTableRecord
100
AcDbLayerTableRecord
  2
DEFPOINTS
 70
     0
 62
     7
  6
CONTINUOUS
  0
LAYER
  5
2AA2
330
2
100
AcDbSymbolTableRecord
100
AcDbLayerTableRecord
  2
下書線
 70
     0
 62
     2
  6
CONTINUOUS
  0
LAYER
  5
2AA3
330
2
100
AcDbSymbolTableRecord
100
AcDbLayerTableRecord
  2
隠れ線
 70
     0
 62
     3
  6
DASHED
  0
LAYER
  5
2AA4
330
2
100
AcDbSymbolTableRecord
100
AcDbLayerTableRecord
  2
細線
 70
     0
 62
     6
  6
CONTINUOUS
  0
LAYER
  5
2AA5
330
2
100
AcDbSymbolTableRecord
100
AcDbLayerTableRecord
  2
太線
 70
     0
 62
   190
  6
CONTINUOUS
  0
LAYER
  5
2B20
330
2
100
AcDbSymbolTableRecord
100
AcDbLayerTableRecord
  2
LAY-1
 70
     0
 62
     7
  6
CONTINUOUS
  0
LAYER
  5
2B21
330
2
100
AcDbSymbolTableRecord
100
AcDbLayerTableRecord
  2
LAY-2
 70
     0
 62
     7
  6
CONTINUOUS
  0
LAYER
  5
2B22
330
2
100
AcDbSymbolTableRecord
100
AcDbLayerTableRecord
  2
LAY-5
 70
     0
 62
     7
  6
CONTINUOUS
  0
LAYER
  5
2B23
330
2
100
AcDbSymbolTableRecord
100
AcDbLayerTableRecord
  2
LAY-6
 70
     0
 62
     7
  6
CONTINUOUS
  0
ENDTAB
  0
TABLE
  2
STYLE
  5
3
330
0
100
AcDbSymbolTable
 70
     2
  0
STYLE
  5
10
330
3
100
AcDbSymbolTableRecord
100
AcDbTextStyleTableRecord
  2
STANDARD
 70
     0
 40
0.0
 41
1.0
 50
0.0
 71
     0
 42
2.333873885063
  3
ISOCP
  4
bigfont.shx
  0
STYLE
  5
64
330
3
100
AcDbSymbolTableRecord
100
AcDbTextStyleTableRecord
  2
EXCADSTD
 70
     0
 40
0.0
 41
1.0
 50
0.0
 71
     0
 42
0.2
  3
monotxt
  4
bigfont
  0
ENDTAB
  0
TABLE
  2
VIEW
  5
6
330
0
100
AcDbSymbolTable
 70
     0
  0
ENDTAB
  0
TABLE
  2
UCS
  5
7
330
0
100
AcDbSymbolTable
 70
     0
  0
ENDTAB
  0
TABLE
  2
APPID
  5
9
330
0
100
AcDbSymbolTable
 70
     3
  0
APPID
  5
11
330
9
100
AcDbSymbolTableRecord
100
AcDbRegAppTableRecord
  2
ACAD
 70
     0
  0
APPID
  5
41C8
330
9
100
AcDbSymbolTableRecord
100
AcDbRegAppTableRecord
  2
ACADANNOTATIVE
 70
     0
  0
APPID
  5
4551
330
9
100
AcDbSymbolTableRecord
100
AcDbRegAppTableRecord
  2
ACAD_MLEADERVER
 70
     0
  0
ENDTAB
  0
TABLE
  2
DIMSTYLE
  5
A
330
0
100
AcDbSymbolTable
 70
     2
  0
DIMSTYLE
105
1D
330
A
100
AcDbSymbolTableRecord
100
AcDbDimStyleTableRecord
  2
STANDARD
 70
     0
  3

  4

  5

  6

  7

 40
1.0
 41
0.18
 42
0.0625
 43
0.38
 44
0.18
 45
0.0
 46
0.0
 47
0.0
 48
0.0
140
0.18
141
0.09
142
0.0
143
25.4
144
1.0
145
0.0
146
1.0
147
0.09
 71
     0
 72
     0
 73
     1
 74
     1
 75
     0
 76
     0
 77
     0
 78
     0
170
     0
171
     2
172
     0
173
     0
174
     0
175
     0
176
     0
177
     0
178
     0
270
     2
271
     4
272
     4
273
     2
274
     2
340
10
275
     0
280
     0
281
     0
282
     0
283
     1
284
     0
285
     0
286
     0
287
     3
288
     0
  0
DIMSTYLE
105
24
102
{ACAD_REACTORS
330
3002
330
300F
330
3AB7
330
3FCF
330
4036
330
4043
330
4086
102
}
330
A
100
AcDbSymbolTableRecord
100
AcDbDimStyleTableRecord
  2
ISO-25
 70
     0
  3

  4

  5

  6

  7

 40
1.0
 41
2.5
 42
0.625
 43
3.75
 44
1.25
 45
0.0
 46
0.0
 47
0.0
 48
0.0
140
2.5
141
2.5
142
0.0
143
0.0394
144
1.0
145
1.0
146
1.0
147
0.625
 71
     0
 72
     0
 73
     1
 74
     0
 75
     0
 76
     0
 77
     1
 78
     8
170
     0
171
     2
172
     1
173
     0
174
     0
175
     0
176
     0
177
     0
178
     0
270
     2
271
     4
272
     4
273
     2
274
     2
340
10
275
     0
280
     0
281
     0
282
     0
283
     1
284
     0
285
     0
286
     0
287
     3
288
     0
  0
ENDTAB
  0
TABLE
  2
BLOCK_RECORD
  5
1
330
0
100
AcDbSymbolTable
 70
    13
  0
BLOCK_RECORD
  5
1A
330
1
100
AcDbSymbolTableRecord
100
AcDbBlockTableRecord
  2
*MODEL_SPACE
  0
BLOCK_RECORD
  5
28FB
330
1
100
AcDbSymbolTableRecord
100
AcDbBlockTableRecord
  2
*PAPER_SPACE
  0
BLOCK_RECORD
  5
65
330
1
100
AcDbSymbolTableRecord
100
AcDbBlockTableRecord
  2
A$C3392
  0
BLOCK_RECORD
  5
29BF
330
1
100
AcDbSymbolTableRecord
100
AcDbBlockTableRecord
  2
A4横用_タイトル
1001
ACAD
1000
DesignCenter Data
1002
{
1070
     1
1070
     4
1002
}
  0
BLOCK_RECORD
  5
29F4
330
1
100
AcDbSymbolTableRecord
100
AcDbBlockTableRecord
  2
A4縦用_タイトル
1001
ACAD
1000
DesignCenter Data
1002
{
1070
     1
1070
     4
1002
}
  0
BLOCK_RECORD
  5
2A32
330
1
100
AcDbSymbolTableRecord
100
AcDbBlockTableRecord
  2
A3横用_タイトル
1001
ACAD
1000
DesignCenter Data
1002
{
1070
     1
1070
     4
1002
}
  0
BLOCK_RECORD
  5
2A6C
330
1
100
AcDbSymbolTableRecord
100
AcDbBlockTableRecord
  2
A3縦用_タイトル
1001
ACAD
1000
DesignCenter Data
1002
{
1070
     1
1070
     4
1002
}
  0
BLOCK_RECORD
  5
2AF4
330
1
100
AcDbSymbolTableRecord
100
AcDbBlockTableRecord
  2
_OPEN30
  0
BLOCK_RECORD
  5
3003
330
1
100
AcDbSymbolTableRecord
100
AcDbBlockTableRecord
  2
*D6
  0
BLOCK_RECORD
  5
3010
330
1
100
AcDbSymbolTableRecord
100
AcDbBlockTableRecord
  2
*D7
  0
BLOCK_RECORD
  5
3ABB
330
1
100
AcDbSymbolTableRecord
100
AcDbBlockTableRecord
  2
*D8
  0
BLOCK_RECORD
  5
3FD0
330
1
100
AcDbSymbolTableRecord
100
AcDbBlockTableRecord
  2
*D9
  0
BLOCK_RECORD
  5
4037
330
1
100
AcDbSymbolTableRecord
100
AcDbBlockTableRecord
  2
*D10
  0
BLOCK_RECORD
  5
4044
330
1
100
AcDbSymbolTableRecord
100
AcDbBlockTableRecord
  2
*D11
  0
BLOCK_RECORD
  5
4087
330
1
100
AcDbSymbolTableRecord
100
AcDbBlockTableRecord
  2
*D12
  0
ENDTAB
  0
ENDSEC
  0
SECTION
  2
BLOCKS
  0
BLOCK
  5
1B
330
1A
100
AcDbEntity
  8
0
100
AcDbBlockBegin
  2
*MODEL_SPACE
 70
     0
 10
0.0
 20
0.0
 30
0.0
  3
*MODEL_SPACE
  1

  0
ENDBLK
  5
1C
330
1A
100
AcDbEntity
  8
0
100
AcDbBlockEnd
  0
BLOCK
  5
28FD
330
28FB
100
AcDbEntity
 67
     1
  8
0
 48
10.0
100
AcDbBlockBegin
  2
*PAPER_SPACE
 70
     0
 10
0.0
 20
0.0
 30
0.0
  3
*PAPER_SPACE
  1

  0
ENDBLK
  5
28FE
330
28FB
100
AcDbEntity
 67
     1
  8
0
 48
10.0
100
AcDbBlockEnd
  0
BLOCK
  5
93
330
65
100
AcDbEntity
  8
0
100
AcDbBlockBegin
  2
A$C3392
 70
     0
 10
0.0
 20
0.0
 30
0.0
  3
A$C3392
  1

  0
LINE
  5
66
330
65
100
AcDbEntity
  8
図枠太線
  6
CONTINUOUS
100
AcDbLine
 10
211.858584505185
 20
30.927375675439
 30
0.0
 11
211.858584505185
 21
0.927375675439
 31
0.0
  0
LINE
  5
67
330
65
100
AcDbEntity
  8
図枠細線
  6
CONTINUOUS
100
AcDbLine
 10
231.858592505185
 20
15.927377675439
 30
0.0
 11
287.858592505185
 21
15.927375675439
 31
0.0
  0
LINE
  5
68
330
65
100
AcDbEntity
  8
図枠細線
  6
CONTINUOUS
100
AcDbLine
 10
211.858592505185
 20
15.927377675439
 30
0.0
 11
231.858592505185
 21
15.927377675439
 31
0.0
  0
LINE
  5
69
330
65
100
AcDbEntity
  8
図枠太線
  6
CONTINUOUS
 62
   251
100
AcDbLine
 10
1.858584505185
 20
0.927375675439
 30
0.0
 11
1.858584505185
 21
275.927375675439
 31
0.0
  0
TEXT
  5
6A
330
65
100
AcDbEntity
  8
図枠細線
  6
CONTINUOUS
 62
   252
100
AcDbText
 10
351.358592505185
 20
28.427377675439
 30
0.0
 40
2.0
  1
ＴＩＴＬＥ
 41
0.903614457831
  7
EXCADSTD
 72
     5
 11
361.358592505185
 21
28.427377675439
 31
0.0
100
AcDbText
  0
TEXT
  5
6B
330
65
100
AcDbEntity
  8
図枠細線
  6
CONTINUOUS
 62
   252
100
AcDbText
 10
345.358592505185
 20
28.427377675439
 30
0.0
 40
2.0
  1
名称
 41
1.171875
  7
EXCADSTD
 72
     5
 11
350.358592505185
 21
28.427377675439
 31
0.0
100
AcDbText
  0
TEXT
  5
6C
330
65
100
AcDbEntity
  8
図枠細線
  6
CONTINUOUS
 62
   252
100
AcDbText
 10
274.358592505185
 20
25.927377675439
 30
0.0
 40
2.0
  1
ＤＲＡＷＮ
 41
0.882352941176
  7
EXCADSTD
 72
     5
 11
284.358592505185
 21
25.927377675439
 31
0.0
100
AcDbText
  0
TEXT
  5
6D
330
65
100
AcDbEntity
  8
図枠細線
  6
CONTINUOUS
 62
   252
100
AcDbText
 10
260.358592505185
 20
25.927377675439
 30
0.0
 40
2.0
  1
ＤＥＳＩＧＮＥＤ
 41
0.713043472041
  7
EXCADSTD
 72
     5
 11
273.478592390744
 21
25.927377675439
 31
0.0
100
AcDbText
  0
TEXT
  5
6E
330
65
100
AcDbEntity
  8
図枠細線
  6
CONTINUOUS
 62
   252
100
AcDbText
 10
246.358592505185
 20
25.927377675439
 30
0.0
 40
2.0
  1
ＣＨＥＣＫＥＤ
 41
0.831249989569
  7
EXCADSTD
 72
     5
 11
259.658592338292
 21
25.927377675439
 31
0.0
100
AcDbText
  0
TEXT
  5
6F
330
65
100
AcDbEntity
  8
図枠細線
  6
CONTINUOUS
 62
   252
100
AcDbText
 10
274.358592505185
 20
28.427377675439
 30
0.0
 40
2.0
  1
製図
 41
1.209677419355
  7
EXCADSTD
 72
     5
 11
279.358592505185
 21
28.427377675439
 31
0.0
100
AcDbText
  0
TEXT
  5
70
330
65
100
AcDbEntity
  8
図枠細線
  6
CONTINUOUS
 62
   252
100
AcDbText
 10
260.358592505185
 20
28.427377675439
 30
0.0
 40
2.0
  1
設計
 41
1.171875
  7
EXCADSTD
 72
     5
 11
265.358592505185
 21
28.427377675439
 31
0.0
100
AcDbText
  0
TEXT
  5
71
330
65
100
AcDbEntity
  8
図枠細線
  6
CONTINUOUS
 62
   252
100
AcDbText
 10
246.358592505185
 20
28.427377675439
 30
0.0
 40
2.0
  1
検図
 41
1.209677419355
  7
EXCADSTD
 72
     5
 11
251.358592505185
 21
28.427377675439
 31
0.0
100
AcDbText
  0
TEXT
  5
72
330
65
100
AcDbEntity
  8
図枠細線
  6
CONTINUOUS
 62
   252
100
AcDbText
 10
232.358592505185
 20
25.927377675439
 30
0.0
 40
2.0
  1
ＡＰＰＲＯＶＥＤ
 41
0.695652184279
  7
EXCADSTD
 72
     5
 11
245.15859269592
 21
25.927377675439
 31
0.0
100
AcDbText
  0
TEXT
  5
73
330
65
100
AcDbEntity
  8
図枠細線
  6
CONTINUOUS
 62
   252
100
AcDbText
 10
232.358592505185
 20
28.427377675439
 30
0.0
 40
2.0
  1
承認
 41
1.171875
  7
EXCADSTD
 72
     5
 11
237.358592505185
 21
28.427377675439
 31
0.0
100
AcDbText
  0
TEXT
  5
74
330
65
100
AcDbEntity
  8
図枠細線
  6
CONTINUOUS
 62
   252
100
AcDbText
 10
290.069888505185
 20
2.574868675439
 30
0.0
 40
3.5
  1
ＴＯＷＡ　ＳＥＩＤＥＮ　ＩＮＤＵＳＴＲＩＡＬ　ＣＯ．，ＬＴＤ．
 41
0.414568012377
  7
EXCADSTD
 72
     5
 11
342.692388209546
 21
2.574868675439
 31
0.0
100
AcDbText
  0
TEXT
  5
75
330
65
100
AcDbEntity
  8
図枠ロゴマーク
  6
CONTINUOUS
 62
   253
100
AcDbText
 10
290.107348505185
 20
7.519769675439
 30
0.0
 40
7.0
  1
東和制電工業株式会社
 41
0.639204545455
  7
EXCADSTD
 72
     5
 11
342.607348505185
 21
7.519769675439
 31
0.0
100
AcDbText
  0
TEXT
  5
76
330
65
100
AcDbEntity
  8
図枠細線
  6
CONTINUOUS
 62
   252
100
AcDbText
 10
232.499705505185
 20
5.759088675439
 30
0.0
 40
2.0
  1
ＰＲＯＪＥＣＴＩＯＮ
 41
0.754285710199
  7
EXCADSTD
 72
     5
 11
250.099705409817
 21
5.759088675439
 31
0.0
100
AcDbText
  0
TEXT
  5
77
330
65
100
AcDbEntity
  8
図枠細線
  6
CONTINUOUS
 62
   252
100
AcDbText
 10
232.574629505185
 20
8.681077675439
 30
0.0
 40
2.0
  1
ＴＨＩＲＤ　ＡＮＧＬＥ
 41
0.691099486738
  7
EXCADSTD
 72
     5
 11
250.174629767445
 21
8.681077675439
 31
0.0
100
AcDbText
  0
TEXT
  5
78
330
65
100
AcDbEntity
  8
図枠細線
  6
CONTINUOUS
 62
   252
100
AcDbText
 10
256.823999505185
 20
13.427377675439
 30
0.0
 40
2.0
  1
ＳＣＡＬＥ
 41
0.903614457831
  7
EXCADSTD
 72
     5
 11
266.823999505185
 21
13.427377675439
 31
0.0
100
AcDbText
  0
TEXT
  5
79
330
65
100
AcDbEntity
  8
図枠細線
  6
CONTINUOUS
 62
   252
100
AcDbText
 10
274.858592505185
 20
13.427377675439
 30
0.0
 40
2.0
  1
ＤＡＴＥ
 41
0.923076923077
  7
EXCADSTD
 72
     5
 11
282.858592505185
 21
13.427377675439
 31
0.0
100
AcDbText
  0
TEXT
  5
7A
330
65
100
AcDbEntity
  8
図枠細線
  6
CONTINUOUS
 62
   252
100
AcDbText
 10
356.358592505185
 20
13.427377675439
 30
0.0
 40
2.0
  1
ＤＲＧ．ＮＯ．
 41
0.9375
  7
EXCADSTD
 72
     5
 11
370.358592505185
 21
13.427377675439
 31
0.0
100
AcDbText
  0
TEXT
  5
7B
330
65
100
AcDbEntity
  8
図枠細線
  6
CONTINUOUS
 62
   252
100
AcDbText
 10
345.358592505185
 20
13.427377675439
 30
0.0
 40
2.0
  1
図面番号
 41
1.102941176471
  7
EXCADSTD
 72
     5
 11
355.358592505185
 21
13.427377675439
 31
0.0
100
AcDbText
  0
TEXT
  5
7C
330
65
100
AcDbEntity
  8
図枠細線
  6
CONTINUOUS
 62
   252
100
AcDbText
 10
269.358592505185
 20
13.427377675439
 30
0.0
 40
2.0
  1
日付
 41
1.171875
  7
EXCADSTD
 72
     5
 11
274.358592505185
 21
13.427377675439
 31
0.0
100
AcDbText
  0
TEXT
  5
7D
330
65
100
AcDbEntity
  8
図枠細線
  6
CONTINUOUS
 62
   252
100
AcDbText
 10
251.451512505185
 20
13.427377675439
 30
0.0
 40
2.0
  1
尺度
 41
1.171875
  7
EXCADSTD
 72
     5
 11
256.451512505185
 21
13.427377675439
 31
0.0
100
AcDbText
  0
TEXT
  5
7E
330
65
100
AcDbEntity
  8
図枠細線
  6
CONTINUOUS
 62
   252
100
AcDbText
 10
232.358592505185
 20
13.427377675439
 30
0.0
 40
2.0
  1
第三角法
 41
1.102941176471
  7
EXCADSTD
 72
     5
 11
242.358592505185
 21
13.427377675439
 31
0.0
100
AcDbText
  0
TEXT
  5
7F
330
65
100
AcDbEntity
  8
図枠細線
  6
CONTINUOUS
 62
   252
100
AcDbText
 10
212.358592505185
 20
28.427377675439
 30
0.0
 40
2.0
  1
ＮＯＴＥ
 41
0.923076923077
  7
EXCADSTD
 72
     5
 11
220.358592505185
 21
28.427377675439
 31
0.0
100
AcDbText
  0
LINE
  5
80
330
65
100
AcDbEntity
  8
図枠細線
  6
CONTINUOUS
 62
   252
100
AcDbLine
 10
287.858592505185
 20
23.427375675439
 30
0.0
 11
344.858592505185
 21
23.427375675439
 31
0.0
  0
LINE
  5
81
330
65
100
AcDbEntity
  8
図枠太線
  6
CONTINUOUS
 62
   251
100
AcDbLine
 10
287.858584505185
 20
15.927375675439
 30
0.0
 11
344.858592505185
 21
15.927375675439
 31
0.0
  0
LINE
  5
82
330
65
100
AcDbEntity
  8
図枠細線
  6
CONTINUOUS
 62
   252
100
AcDbLine
 10
344.858592505185
 20
15.927375675439
 30
0.0
 11
401.858584505185
 21
15.927375675439
 31
0.0
  0
LINE
  5
83
330
65
100
AcDbEntity
  8
図枠太線
  6
CONTINUOUS
 62
   251
100
AcDbLine
 10
344.858592505185
 20
0.927377675439
 30
0.0
 11
344.858592505185
 21
30.927375675439
 31
0.0
  0
LINE
  5
84
330
65
100
AcDbEntity
  8
図枠太線
  6
CONTINUOUS
 62
   251
100
AcDbLine
 10
287.858592505185
 20
0.927377675439
 30
0.0
 11
287.858592505185
 21
30.927375675439
 31
0.0
  0
LINE
  5
85
330
65
100
AcDbEntity
  8
図枠細線
  6
CONTINUOUS
 62
   252
100
AcDbLine
 10
268.858592505185
 20
0.927377675439
 30
0.0
 11
268.858592505185
 21
15.927375675439
 31
0.0
  0
LINE
  5
86
330
65
100
AcDbEntity
  8
図枠細線
  6
CONTINUOUS
 62
   252
100
AcDbLine
 10
250.858592505185
 20
0.927377675439
 30
0.0
 11
250.858592505185
 21
15.927375675439
 31
0.0
  0
LINE
  5
87
330
65
100
AcDbEntity
  8
図枠細線
  6
CONTINUOUS
 62
   252
100
AcDbLine
 10
273.858592505185
 20
30.927375675439
 30
0.0
 11
273.858592505185
 21
15.927375675439
 31
0.0
  0
LINE
  5
88
330
65
100
AcDbEntity
  8
図枠細線
  6
CONTINUOUS
 62
   252
100
AcDbLine
 10
259.858592505185
 20
30.927375675439
 30
0.0
 11
259.858592505185
 21
15.927375675439
 31
0.0
  0
LINE
  5
89
330
65
100
AcDbEntity
  8
図枠細線
  6
CONTINUOUS
 62
   252
100
AcDbLine
 10
245.858592505185
 20
30.927375675439
 30
0.0
 11
245.858592505185
 21
15.927375675439
 31
0.0
  0
LINE
  5
8A
330
65
100
AcDbEntity
  8
図枠太線
  6
CONTINUOUS
 62
   251
100
AcDbLine
 10
231.858592505185
 20
0.927377675439
 30
0.0
 11
231.858592505185
 21
30.927375675439
 31
0.0
  0
LINE
  5
8B
330
65
100
AcDbEntity
  8
図枠細線
  6
CONTINUOUS
 62
   252
100
AcDbLine
 10
211.858592505185
 20
25.927375675439
 30
0.0
 11
231.858592505185
 21
25.927375675439
 31
0.0
  0
LINE
  5
8C
330
65
100
AcDbEntity
  8
図枠細線
  6
CONTINUOUS
 62
   252
100
AcDbLine
 10
211.858592505185
 20
20.927375675439
 30
0.0
 11
231.858592505185
 21
20.927375675439
 31
0.0
  0
LINE
  5
8D
330
65
100
AcDbEntity
  8
図枠細線
  6
CONTINUOUS
 62
   252
100
AcDbLine
 10
211.858592505185
 20
10.927375675439
 30
0.0
 11
231.858592505185
 21
10.927375675439
 31
0.0
  0
LINE
  5
8E
330
65
100
AcDbEntity
  8
図枠細線
  6
CONTINUOUS
 62
   252
100
AcDbLine
 10
211.858592505185
 20
5.927377675439
 30
0.0
 11
231.858592505185
 21
5.927377675439
 31
0.0
  0
LINE
  5
8F
330
65
100
AcDbEntity
  8
図枠太線
  6
CONTINUOUS
 62
   251
100
AcDbLine
 10
211.858592505185
 20
30.927375675439
 30
0.0
 11
401.858584505185
 21
30.927375675439
 31
0.0
  0
LINE
  5
90
330
65
100
AcDbEntity
  8
図枠太線
  6
CONTINUOUS
 62
   251
100
AcDbLine
 10
1.858584505185
 20
275.927375675439
 30
0.0
 11
401.858584505185
 21
275.927375675439
 31
0.0
  0
LINE
  5
91
330
65
100
AcDbEntity
  8
図枠太線
  6
CONTINUOUS
 62
   251
100
AcDbLine
 10
401.858584505185
 20
0.927375675439
 30
0.0
 11
401.858584505185
 21
275.927375675439
 31
0.0
  0
LINE
  5
92
330
65
100
AcDbEntity
  8
図枠太線
  6
CONTINUOUS
 62
   251
100
AcDbLine
 10
1.858584505185
 20
0.927375675439
 30
0.0
 11
401.858584505185
 21
0.927375675439
 31
0.0
  0
ENDBLK
  5
94
330
65
100
AcDbEntity
  8
0
100
AcDbBlockEnd
  0
BLOCK
  5
29C0
330
29BF
100
AcDbEntity
  8
0
100
AcDbBlockBegin
  2
A4横用_タイトル
 70
     0
 10
0.0
 20
0.0
 30
0.0
  3
A4横用_タイトル
  1

  0
LINE
  5
29C1
330
29BF
100
AcDbEntity
  8
図枠細線
  6
CONTINUOUS
100
AcDbLine
 10
75.061011071051
 20
16.806607253358
 30
0.0
 11
144.061011071051
 21
16.806604789072
 31
0.0
  0
LINE
  5
29C2
330
29BF
100
AcDbEntity
  8
図枠細線
  6
CONTINUOUS
 62
   252
100
AcDbLine
 10
4.061011071051
 20
11.806606253358
 30
0.0
 11
75.061011071051
 21
11.806606253358
 31
0.0
  0
LINE
  5
29C3
330
29BF
100
AcDbEntity
  8
図枠細線
  6
CONTINUOUS
 62
   252
100
AcDbLine
 10
4.061011071051
 20
21.806606253358
 30
0.0
 11
75.061011071051
 21
21.806606253358
 31
0.0
  0
LINE
  5
29C4
330
29BF
100
AcDbEntity
  8
図枠細線
  6
CONTINUOUS
 62
   252
100
AcDbLine
 10
4.061011071051
 20
26.806606253358
 30
0.0
 11
75.061011071051
 21
26.806606253358
 31
0.0
  0
LINE
  5
29C5
330
29BF
100
AcDbEntity
  8
図枠細線
  6
CONTINUOUS
100
AcDbLine
 10
4.061011071051
 20
16.806608253358
 30
0.0
 11
75.061011071051
 21
16.806608253358
 31
0.0
  0
TEXT
  5
29C6
330
29BF
100
AcDbEntity
  8
図枠細線
  6
CONTINUOUS
 62
   252
100
AcDbText
 10
76.405475827713
 20
9.560308253358
 30
0.0
 40
2.0
  1
ＴＨＩＲＤ　ＡＮＧＬＥ
 41
0.691099486738
  7
EXCADSTD
 72
     5
 11
94.005476089973
 21
9.560308253358
 31
0.0
100
AcDbText
  0
TEXT
  5
29C7
330
29BF
100
AcDbEntity
  8
図枠細線
  6
CONTINUOUS
 62
   252
100
AcDbText
 10
76.705775880921
 20
14.306608253358
 30
0.0
 40
2.0
  1
第三角法
 41
1.102941176471
  7
EXCADSTD
 72
     5
 11
86.705775880921
 21
14.306608253358
 31
0.0
100
AcDbText
  0
TEXT
  5
29C8
330
29BF
100
AcDbEntity
  8
図枠細線
  6
CONTINUOUS
 62
   252
100
AcDbText
 10
76.705775880921
 20
26.806608253358
 30
0.0
 40
2.0
  1
ＡＰＰＲＯＶＥＤ
 41
0.695652184279
  7
EXCADSTD
 72
     5
 11
89.505776071656
 21
26.806608253358
 31
0.0
100
AcDbText
  0
TEXT
  5
29C9
330
29BF
100
AcDbEntity
  8
図枠細線
  6
CONTINUOUS
 62
   252
100
AcDbText
 10
76.705775880921
 20
29.306608253358
 30
0.0
 40
2.0
  1
承認
 41
1.171875
  7
EXCADSTD
 72
     5
 11
81.705775880921
 21
29.306608253358
 31
0.0
100
AcDbText
  0
LINE
  5
29CA
330
29BF
100
AcDbEntity
  8
図枠細線
  6
CONTINUOUS
 62
   252
100
AcDbLine
 10
98.061011071051
 20
31.806606253358
 30
0.0
 11
98.061011071051
 21
16.806606253358
 31
0.0
  0
TEXT
  5
29CB
330
29BF
100
AcDbEntity
  8
図枠細線
  6
CONTINUOUS
 62
   252
100
AcDbText
 10
104.216531119804
 20
14.306608253358
 30
0.0
 40
2.0
  1
ＳＣＡＬＥ
 41
0.903614457831
  7
EXCADSTD
 72
     5
 11
114.216531119804
 21
14.306608253358
 31
0.0
100
AcDbText
  0
TEXT
  5
29CC
330
29BF
100
AcDbEntity
  8
図枠細線
  6
CONTINUOUS
 62
   252
100
AcDbText
 10
98.844044119804
 20
14.306608253358
 30
0.0
 40
2.0
  1
尺度
 41
1.171875
  7
EXCADSTD
 72
     5
 11
103.844044119804
 21
14.306608253358
 31
0.0
100
AcDbText
  0
TEXT
  5
29CD
330
29BF
100
AcDbEntity
  8
図枠細線
  6
CONTINUOUS
 62
   252
100
AcDbText
 10
98.968727707497
 20
26.806608253358
 30
0.0
 40
2.0
  1
ＣＨＥＣＫＥＤ
 41
0.831249989569
  7
EXCADSTD
 72
     5
 11
112.268727540604
 21
26.806608253358
 31
0.0
100
AcDbText
  0
TEXT
  5
29CE
330
29BF
100
AcDbEntity
  8
図枠細線
  6
CONTINUOUS
 62
   252
100
AcDbText
 10
98.968727707497
 20
29.306608253358
 30
0.0
 40
2.0
  1
検図
 41
1.209677419355
  7
EXCADSTD
 72
     5
 11
103.968727707497
 21
29.306608253358
 31
0.0
100
AcDbText
  0
LINE
  5
29CF
330
29BF
100
AcDbEntity
  8
図枠細線
  6
CONTINUOUS
 62
   252
100
AcDbLine
 10
121.061011071051
 20
31.806606253358
 30
0.0
 11
121.061011071051
 21
16.806606253358
 31
0.0
  0
TEXT
  5
29D0
330
29BF
100
AcDbEntity
  8
図枠細線
  6
CONTINUOUS
 62
   252
100
AcDbText
 10
128.001465247253
 20
14.306608253358
 30
0.0
 40
2.0
  1
ＤＡＴＥ
 41
0.923076923077
  7
EXCADSTD
 72
     5
 11
136.001465247253
 21
14.306608253358
 31
0.0
100
AcDbText
  0
TEXT
  5
29D1
330
29BF
100
AcDbEntity
  8
図枠細線
  6
CONTINUOUS
 62
   252
100
AcDbText
 10
122.066415498841
 20
14.306608253358
 30
0.0
 40
2.0
  1
日付
 41
1.171875
  7
EXCADSTD
 72
     5
 11
127.066415498841
 21
14.306608253358
 31
0.0
100
AcDbText
  0
TEXT
  5
29D2
330
29BF
100
AcDbEntity
  8
図枠細線
  6
CONTINUOUS
 62
   252
100
AcDbText
 10
121.59429406571
 20
29.306608253358
 30
0.0
 40
2.0
  1
製図
 41
1.209677419355
  7
EXCADSTD
 72
     5
 11
126.59429406571
 21
29.306608253358
 31
0.0
100
AcDbText
  0
TEXT
  5
29D3
330
29BF
100
AcDbEntity
  8
図枠細線
  6
CONTINUOUS
 62
   252
100
AcDbText
 10
121.59429406571
 20
26.806608253358
 30
0.0
 40
2.0
  1
ＤＲＡＷＮ
 41
0.882352941176
  7
EXCADSTD
 72
     5
 11
131.59429406571
 21
26.806608253358
 31
0.0
100
AcDbText
  0
TEXT
  5
29D4
330
29BF
100
AcDbEntity
  8
図枠細線
  6
CONTINUOUS
 62
   252
100
AcDbText
 10
226.591229661348
 20
14.306608253358
 30
0.0
 40
2.0
  1
ＤＲＧ．ＮＯ．
 41
0.9375
  7
EXCADSTD
 72
     5
 11
240.591229661348
 21
14.306608253358
 31
0.0
100
AcDbText
  0
LINE
  5
29D5
330
29BF
100
AcDbEntity
  8
図枠太線
  6
CONTINUOUS
 62
   251
100
AcDbLine
 10
144.061003071051
 20
16.806606253358
 30
0.0
 11
214.061011071051
 21
16.806606253358
 31
0.0
  0
LINE
  5
29D6
330
29BF
100
AcDbEntity
  8
図枠細線
  6
CONTINUOUS
 62
   252
100
AcDbLine
 10
144.061011071051
 20
24.306606253358
 30
0.0
 11
214.061011071051
 21
24.306606253358
 31
0.0
  0
TEXT
  5
29D7
330
29BF
100
AcDbEntity
  8
図枠ロゴマーク
  6
CONTINUOUS
 62
   253
100
AcDbText
 10
146.433776781596
 20
8.399000253358
 30
0.0
 40
7.0
  1
東和制電工業株式会社
 41
0.80361088462
  7
EXCADSTD
 72
     5
 11
212.437017438349
 21
8.399000253358
 31
0.0
100
AcDbText
  0
TEXT
  5
29D8
330
29BF
100
AcDbEntity
  8
図枠細線
  6
CONTINUOUS
 62
   252
100
AcDbText
 10
215.156179912936
 20
14.306608253358
 30
0.0
 40
2.0
  1
図面番号
 41
1.102941176471
  7
EXCADSTD
 72
     5
 11
225.156179912936
 21
14.306608253358
 31
0.0
100
AcDbText
  0
TEXT
  5
29D9
330
29BF
100
AcDbEntity
  8
図枠細線
  6
CONTINUOUS
 62
   252
100
AcDbText
 10
221.591229661348
 20
29.306608253358
 30
0.0
 40
2.0
  1
ＴＩＴＬＥ
 41
0.903614457831
  7
EXCADSTD
 72
     5
 11
231.591229661348
 21
29.306608253358
 31
0.0
100
AcDbText
  0
TEXT
  5
29DA
330
29BF
100
AcDbEntity
  8
図枠細線
  6
CONTINUOUS
 62
   252
100
AcDbText
 10
215.156179912936
 20
29.306608253358
 30
0.0
 40
2.0
  1
名称
 41
1.171875
  7
EXCADSTD
 72
     5
 11
220.156179912936
 21
29.306608253358
 31
0.0
100
AcDbText
  0
LINE
  5
29DB
330
29BF
100
AcDbEntity
  8
図枠太線
  6
CONTINUOUS
 62
   251
100
AcDbLine
 10
4.061011071051
 20
1.806608253358
 30
0.0
 11
284.061011071051
 21
1.806608253358
 31
0.0
  0
LINE
  5
29DC
330
29BF
100
AcDbEntity
  8
図枠細線
  6
CONTINUOUS
 62
   252
100
AcDbLine
 10
4.061011071051
 20
6.806608253358
 30
0.0
 11
75.061011071051
 21
6.806608253358
 31
0.0
  0
LINE
  5
29DD
330
29BF
100
AcDbEntity
  8
図枠太線
  6
CONTINUOUS
 62
   251
100
AcDbLine
 10
75.061011071051
 20
1.806608253358
 30
0.0
 11
75.061011071051
 21
31.806606253358
 31
0.0
  0
TEXT
  5
29DE
330
29BF
100
AcDbEntity
  8
図枠細線
  6
CONTINUOUS
 62
   252
100
AcDbText
 10
76.330551827713
 20
6.638319253358
 30
0.0
 40
2.0
  1
ＰＲＯＪＥＣＴＩＯＮ
 41
0.754285710199
  7
EXCADSTD
 72
     5
 11
93.930551732346
 21
6.638319253358
 31
0.0
100
AcDbText
  0
LINE
  5
29DF
330
29BF
100
AcDbEntity
  8
図枠細線
  6
CONTINUOUS
 62
   252
100
AcDbLine
 10
98.061011071051
 20
1.806606931929
 30
0.0
 11
98.061011071051
 21
16.806604931929
 31
0.0
  0
LINE
  5
29E0
330
29BF
100
AcDbEntity
  8
図枠細線
  6
CONTINUOUS
 62
   252
100
AcDbLine
 10
121.061011071051
 20
1.806607574787
 30
0.0
 11
121.061011071051
 21
16.806605574787
 31
0.0
  0
LINE
  5
29E1
330
29BF
100
AcDbEntity
  8
図枠太線
  6
CONTINUOUS
 62
   251
100
AcDbLine
 10
284.061011071051
 20
1.806608253358
 30
0.0
 11
284.061011071051
 21
31.806606253358
 31
0.0
  0
LINE
  5
29E2
330
29BF
100
AcDbEntity
  8
図枠細線
  6
CONTINUOUS
 62
   252
100
AcDbLine
 10
214.061011071051
 20
16.806606253358
 30
0.0
 11
284.061011071051
 21
16.806606253358
 31
0.0
  0
TEXT
  5
29E3
330
29BF
100
AcDbEntity
  8
図枠細線
  6
CONTINUOUS
 62
   252
100
AcDbText
 10
146.199593676182
 20
3.454099253358
 30
0.0
 40
3.5
  1
ＴＯＷＡ　ＳＥＩＤＥＮ　ＩＮＤＵＳＴＲＩＡＬ　ＣＯ．，ＬＴＤ．
 41
0.528937826907
  7
EXCADSTD
 72
     5
 11
213.339435171588
 21
3.454099253358
 31
0.0
100
AcDbText
  0
LINE
  5
29E4
330
29BF
100
AcDbEntity
  8
図枠太線
  6
CONTINUOUS
 62
   251
100
AcDbLine
 10
144.061011071051
 20
1.806608253358
 30
0.0
 11
144.061011071051
 21
31.806606253358
 31
0.0
  0
LINE
  5
29E5
330
29BF
100
AcDbEntity
  8
図枠太線
  6
CONTINUOUS
 62
   251
100
AcDbLine
 10
214.061011071051
 20
1.806608253358
 30
0.0
 11
214.061011071051
 21
31.806606253358
 31
0.0
  0
MTEXT
  5
29E6
330
29BF
100
AcDbEntity
  8
図枠太線
100
AcDbMText
 10
5.064337346478
 20
31.010982137407
 30
0.0
 40
2.5
 41
8.67856098472
 71
     1
 72
     5
  1
{\Fmonotxt.shx,bigfont.shx|c128;図暦}
  0
LINE
  5
29E7
330
29BF
100
AcDbEntity
  8
図枠太線
  6
CONTINUOUS
 62
   251
100
AcDbLine
 10
4.061011071051
 20
1.806608253358
 30
0.0
 11
4.061011071051
 21
31.806606253358
 31
0.0
  0
TEXT
  5
29E8
330
29BF
100
AcDbEntity
  8
図枠細線
 48
10.0
100
AcDbText
 10
12.260817420402
 20
28.625419626495
 30
0.0
 40
2.0
  1
CHANGE NOTICE
100
AcDbText
  0
ENDBLK
  5
29E9
330
29BF
100
AcDbEntity
  8
0
100
AcDbBlockEnd
  0
BLOCK
  5
29F5
330
29F4
100
AcDbEntity
  8
0
100
AcDbBlockBegin
  2
A4縦用_タイトル
 70
     0
 10
0.0
 20
0.0
 30
0.0
  3
A4縦用_タイトル
  1

  0
LINE
  5
29F6
330
29F4
100
AcDbEntity
  8
図枠太線
  6
CONTINUOUS
 62
   251
100
AcDbLine
 10
2.368253864267
 20
4.525433224584
 30
0.0
 11
192.368245864267
 21
4.525433224584
 31
0.0
  0
LINE
  5
29F7
330
29F4
100
AcDbEntity
  8
図枠太線
  6
CONTINUOUS
 62
   251
100
AcDbLine
 10
78.368245864267
 20
19.525431224584
 30
0.0
 11
135.368253864267
 21
19.525431224584
 31
0.0
  0
LINE
  5
29F8
330
29F4
100
AcDbEntity
  8
図枠細線
  6
CONTINUOUS
 62
   252
100
AcDbLine
 10
78.368253864267
 20
27.025431224584
 30
0.0
 11
135.368253864267
 21
27.025431224584
 31
0.0
  0
TEXT
  5
29F9
330
29F4
100
AcDbEntity
  8
図枠ロゴマーク
  6
CONTINUOUS
 62
   253
100
AcDbText
 10
80.617009864267
 20
11.117825224584
 30
0.0
 40
7.0
  1
東和制電工業株式会社
 41
0.639204545455
  7
EXCADSTD
 72
     5
 11
133.117009864267
 21
11.117825224584
 31
0.0
100
AcDbText
  0
TEXT
  5
29FA
330
29F4
100
AcDbEntity
  8
図枠細線
  6
CONTINUOUS
 62
   252
100
AcDbText
 10
80.579549864267
 20
6.172924224584
 30
0.0
 40
3.5
  1
ＴＯＷＡ　ＳＥＩＤＥＮ　ＩＮＤＵＳＴＲＩＡＬ　ＣＯ．，ＬＴＤ．
 41
0.414568012377
  7
EXCADSTD
 72
     5
 11
133.202049568628
 21
6.172924224584
 31
0.0
100
AcDbText
  0
LINE
  5
29FB
330
29F4
100
AcDbEntity
  8
図枠太線
  6
CONTINUOUS
 62
   251
100
AcDbLine
 10
2.368253864267
 20
4.525433224584
 30
0.0
 11
2.368253864267
 21
34.525431224584
 31
0.0
  0
TEXT
  5
29FC
330
29F4
100
AcDbEntity
  8
図枠細線
  6
CONTINUOUS
 62
   252
100
AcDbText
 10
22.504308136501
 20
12.279133224584
 30
0.0
 40
2.0
  1
ＴＨＩＲＤ　ＡＮＧＬＥ
 41
0.691099486738
  7
EXCADSTD
 72
     5
 11
40.104308398762
 21
12.279133224584
 31
0.0
100
AcDbText
  0
TEXT
  5
29FD
330
29F4
100
AcDbEntity
  8
図枠細線
  6
CONTINUOUS
 62
   252
100
AcDbText
 10
22.429384136501
 20
9.357144224584
 30
0.0
 40
2.0
  1
ＰＲＯＪＥＣＴＩＯＮ
 41
0.754285710199
  7
EXCADSTD
 72
     5
 11
40.029384041134
 21
9.357144224584
 31
0.0
100
AcDbText
  0
LINE
  5
29FE
330
29F4
100
AcDbEntity
  8
図枠細線
  6
CONTINUOUS
100
AcDbLine
 10
22.368253864267
 20
19.525433224584
 30
0.0
 11
78.368253864267
 21
19.525431224584
 31
0.0
  0
TEXT
  5
29FF
330
29F4
100
AcDbEntity
  8
図枠細線
  6
CONTINUOUS
 62
   252
100
AcDbText
 10
22.868253864267
 20
17.025433224584
 30
0.0
 40
2.0
  1
第三角法
 41
1.102941176471
  7
EXCADSTD
 72
     5
 11
32.868253864267
 21
17.025433224584
 31
0.0
100
AcDbText
  0
TEXT
  5
2A00
330
29F4
100
AcDbEntity
  8
図枠細線
  6
CONTINUOUS
 62
   252
100
AcDbText
 10
22.868253864267
 20
29.525433224584
 30
0.0
 40
2.0
  1
ＡＰＰＲＯＶＥＤ
 41
0.695652184279
  7
EXCADSTD
 72
     5
 11
35.668254055002
 21
29.525433224584
 31
0.0
100
AcDbText
  0
LINE
  5
2A01
330
29F4
100
AcDbEntity
  8
図枠細線
  6
CONTINUOUS
 62
   252
100
AcDbLine
 10
2.368253864267
 20
9.525433224584
 30
0.0
 11
22.368253864267
 21
9.525433224584
 31
0.0
  0
LINE
  5
2A02
330
29F4
100
AcDbEntity
  8
図枠細線
  6
CONTINUOUS
 62
   252
100
AcDbLine
 10
2.368253864267
 20
14.525431224584
 30
0.0
 11
22.368253864267
 21
14.525431224584
 31
0.0
  0
LINE
  5
2A03
330
29F4
100
AcDbEntity
  8
図枠細線
  6
CONTINUOUS
 62
   252
100
AcDbLine
 10
2.368253864267
 20
24.525431224584
 30
0.0
 11
22.368253864267
 21
24.525431224584
 31
0.0
  0
LINE
  5
2A04
330
29F4
100
AcDbEntity
  8
図枠細線
  6
CONTINUOUS
 62
   252
100
AcDbLine
 10
2.368253864267
 20
29.525431224584
 30
0.0
 11
22.368253864267
 21
29.525431224584
 31
0.0
  0
LINE
  5
2A05
330
29F4
100
AcDbEntity
  8
図枠細線
  6
CONTINUOUS
100
AcDbLine
 10
2.368253864267
 20
19.525433224584
 30
0.0
 11
22.368253864267
 21
19.525433224584
 31
0.0
  0
TEXT
  5
2A06
330
29F4
100
AcDbEntity
  8
図枠細線
  6
CONTINUOUS
 62
   252
100
AcDbText
 10
2.868253864267
 20
32.025433224584
 30
0.0
 40
2.0
  1
ＮＯＴＥ
 41
0.923076923077
  7
EXCADSTD
 72
     5
 11
10.868253864267
 21
32.025433224584
 31
0.0
100
AcDbText
  0
LINE
  5
2A07
330
29F4
100
AcDbEntity
  8
図枠太線
  6
CONTINUOUS
 62
   251
100
AcDbLine
 10
22.368253864267
 20
4.525433224584
 30
0.0
 11
22.368253864267
 21
34.525431224584
 31
0.0
  0
TEXT
  5
2A08
330
29F4
100
AcDbEntity
  8
図枠細線
  6
CONTINUOUS
 62
   252
100
AcDbText
 10
22.868253864267
 20
32.025433224584
 30
0.0
 40
2.0
  1
承認
 41
1.171875
  7
EXCADSTD
 72
     5
 11
27.868253864267
 21
32.025433224584
 31
0.0
100
AcDbText
  0
TEXT
  5
2A09
330
29F4
100
AcDbEntity
  8
図枠細線
  6
CONTINUOUS
 62
   252
100
AcDbText
 10
60.711709035982
 20
32.025433224584
 30
0.0
 40
2.0
  1
製図
 41
1.209677419355
  7
EXCADSTD
 72
     5
 11
65.711709035982
 21
32.025433224584
 31
0.0
100
AcDbText
  0
TEXT
  5
2A0A
330
29F4
100
AcDbEntity
  8
図枠細線
  6
CONTINUOUS
 62
   252
100
AcDbText
 10
60.711709035982
 20
29.525433224584
 30
0.0
 40
2.0
  1
ＤＲＡＷＮ
 41
0.882352941176
  7
EXCADSTD
 72
     5
 11
70.711709035982
 21
29.525433224584
 31
0.0
100
AcDbText
  0
TEXT
  5
2A0B
330
29F4
100
AcDbEntity
  8
図枠細線
  6
CONTINUOUS
 62
   252
100
AcDbText
 10
60.834891743877
 20
17.025433224584
 30
0.0
 40
2.0
  1
日付
 41
1.171875
  7
EXCADSTD
 72
     5
 11
65.834891743877
 21
17.025433224584
 31
0.0
100
AcDbText
  0
TEXT
  5
2A0C
330
29F4
100
AcDbEntity
  8
図枠細線
  6
CONTINUOUS
 62
   252
100
AcDbText
 10
47.333660864267
 20
17.025433224584
 30
0.0
 40
2.0
  1
ＳＣＡＬＥ
 41
0.903614457831
  7
EXCADSTD
 72
     5
 11
57.333660864267
 21
17.025433224584
 31
0.0
100
AcDbText
  0
TEXT
  5
2A0D
330
29F4
100
AcDbEntity
  8
図枠細線
  6
CONTINUOUS
 62
   252
100
AcDbText
 10
42.281425990082
 20
29.525433224584
 30
0.0
 40
2.0
  1
ＣＨＥＣＫＥＤ
 41
0.831249989569
  7
EXCADSTD
 72
     5
 11
55.581425823189
 21
29.525433224584
 31
0.0
100
AcDbText
  0
LINE
  5
2A0E
330
29F4
100
AcDbEntity
  8
図枠細線
  6
CONTINUOUS
 62
   252
100
AcDbLine
 10
40.968253864267
 20
34.525431224584
 30
0.0
 11
40.968253864267
 21
19.525431224584
 31
0.0
  0
LINE
  5
2A0F
330
29F4
100
AcDbEntity
  8
図枠細線
  6
CONTINUOUS
 62
   252
100
AcDbLine
 10
40.968253864267
 20
4.525433224584
 30
0.0
 11
40.968253864267
 21
19.525431224584
 31
0.0
  0
TEXT
  5
2A10
330
29F4
100
AcDbEntity
  8
図枠細線
  6
CONTINUOUS
 62
   252
100
AcDbText
 10
41.961173864267
 20
17.025433224584
 30
0.0
 40
2.0
  1
尺度
 41
1.171875
  7
EXCADSTD
 72
     5
 11
46.961173864267
 21
17.025433224584
 31
0.0
100
AcDbText
  0
TEXT
  5
2A11
330
29F4
100
AcDbEntity
  8
図枠細線
  6
CONTINUOUS
 62
   252
100
AcDbText
 10
42.281425990082
 20
32.025433224584
 30
0.0
 40
2.0
  1
検図
 41
1.209677419355
  7
EXCADSTD
 72
     5
 11
47.281425990082
 21
32.025433224584
 31
0.0
100
AcDbText
  0
LINE
  5
2A12
330
29F4
100
AcDbEntity
  8
図枠細線
  6
CONTINUOUS
 62
   252
100
AcDbLine
 10
59.768253864267
 20
34.525431224584
 30
0.0
 11
59.768253864267
 21
19.525431224584
 31
0.0
  0
LINE
  5
2A13
330
29F4
100
AcDbEntity
  8
図枠細線
  6
CONTINUOUS
 62
   252
100
AcDbLine
 10
59.768253864267
 20
4.525433224584
 30
0.0
 11
59.768253864267
 21
19.525431224584
 31
0.0
  0
LINE
  5
2A14
330
29F4
100
AcDbEntity
  8
図枠太線
  6
CONTINUOUS
 62
   251
100
AcDbLine
 10
78.368253864267
 20
4.525433224584
 30
0.0
 11
78.368253864267
 21
34.525431224584
 31
0.0
  0
TEXT
  5
2A15
330
29F4
100
AcDbEntity
  8
図枠細線
  6
CONTINUOUS
 62
   252
100
AcDbText
 10
66.334891743877
 20
17.025433224584
 30
0.0
 40
2.0
  1
ＤＡＴＥ
 41
0.923076923077
  7
EXCADSTD
 72
     5
 11
74.334891743877
 21
17.025433224584
 31
0.0
100
AcDbText
  0
LINE
  5
2A16
330
29F4
100
AcDbEntity
  8
図枠細線
  6
CONTINUOUS
 62
   252
100
AcDbLine
 10
135.368253864267
 20
19.525431224584
 30
0.0
 11
192.368245864267
 21
19.525431224584
 31
0.0
  0
TEXT
  5
2A17
330
29F4
100
AcDbEntity
  8
図枠細線
  6
CONTINUOUS
 62
   252
100
AcDbText
 10
141.868253864267
 20
32.025433224584
 30
0.0
 40
2.0
  1
ＴＩＴＬＥ
 41
0.903614457831
  7
EXCADSTD
 72
     5
 11
151.868253864267
 21
32.025433224584
 31
0.0
100
AcDbText
  0
LINE
  5
2A18
330
29F4
100
AcDbEntity
  8
図枠太線
  6
CONTINUOUS
 62
   251
100
AcDbLine
 10
135.368253864267
 20
4.525433224584
 30
0.0
 11
135.368253864267
 21
34.525431224584
 31
0.0
  0
TEXT
  5
2A19
330
29F4
100
AcDbEntity
  8
図枠細線
  6
CONTINUOUS
 62
   252
100
AcDbText
 10
135.868253864267
 20
17.025433224584
 30
0.0
 40
2.0
  1
図面番号
 41
1.102941176471
  7
EXCADSTD
 72
     5
 11
145.868253864267
 21
17.025433224584
 31
0.0
100
AcDbText
  0
TEXT
  5
2A1A
330
29F4
100
AcDbEntity
  8
図枠細線
  6
CONTINUOUS
 62
   252
100
AcDbText
 10
135.868253864267
 20
32.025433224584
 30
0.0
 40
2.0
  1
名称
 41
1.171875
  7
EXCADSTD
 72
     5
 11
140.868253864267
 21
32.025433224584
 31
0.0
100
AcDbText
  0
TEXT
  5
2A1B
330
29F4
100
AcDbEntity
  8
図枠細線
  6
CONTINUOUS
 62
   252
100
AcDbText
 10
146.868253864267
 20
17.025433224584
 30
0.0
 40
2.0
  1
ＤＲＧ．ＮＯ．
 41
0.9375
  7
EXCADSTD
 72
     5
 11
160.868253864267
 21
17.025433224584
 31
0.0
100
AcDbText
  0
LINE
  5
2A1C
330
29F4
100
AcDbEntity
  8
図枠太線
  6
CONTINUOUS
 62
   251
100
AcDbLine
 10
192.368245864267
 20
4.525433224584
 30
0.0
 11
192.368245864267
 21
34.525431224584
 31
0.0
  0
ENDBLK
  5
2A1D
330
29F4
100
AcDbEntity
  8
0
100
AcDbBlockEnd
  0
BLOCK
  5
2A33
330
2A32
100
AcDbEntity
  8
0
100
AcDbBlockBegin
  2
A3横用_タイトル
 70
     0
 10
0.0
 20
0.0
 30
0.0
  3
A3横用_タイトル
  1

  0
LINE
  5
2A34
330
2A32
100
AcDbEntity
  8
図枠細線
  6
CONTINUOUS
 62
   252
100
AcDbLine
 10
205.098414535793
 20
33.525959753527
 30
0.0
 11
305.098414535793
 21
33.525959753527
 31
0.0
  0
LINE
  5
2A35
330
2A32
100
AcDbEntity
  8
図枠太線
  6
CONTINUOUS
 62
   251
100
AcDbLine
 10
205.098414535793
 20
23.525959753527
 30
0.0
 11
305.098414535793
 21
23.525959753527
 31
0.0
  0
LINE
  5
2A36
330
2A32
100
AcDbEntity
  8
図枠細線
  6
CONTINUOUS
100
AcDbLine
 10
5.098414535793
 20
23.525959753527
 30
0.0
 11
105.098414535793
 21
23.525959753527
 31
0.0
  0
LINE
  5
2A37
330
2A32
100
AcDbEntity
  8
図枠細線
  6
CONTINUOUS
 62
   252
100
AcDbLine
 10
5.098414535793
 20
36.725957753527
 30
0.0
 11
105.098414535793
 21
36.725957753527
 31
0.0
  0
LINE
  5
2A38
330
2A32
100
AcDbEntity
  8
図枠細線
  6
CONTINUOUS
 62
   252
100
AcDbLine
 10
5.098414535793
 20
30.125957753527
 30
0.0
 11
105.098414535793
 21
30.125957753527
 31
0.0
  0
LINE
  5
2A39
330
2A32
100
AcDbEntity
  8
図枠細線
  6
CONTINUOUS
 62
   252
100
AcDbLine
 10
5.098414535793
 20
16.725959753527
 30
0.0
 11
105.098414535793
 21
16.725959753527
 31
0.0
  0
LINE
  5
2A3A
330
2A32
100
AcDbEntity
  8
図枠細線
  6
CONTINUOUS
 62
   252
100
AcDbLine
 10
5.098414535793
 20
10.125959753527
 30
0.0
 11
105.098414535793
 21
10.125959753527
 31
0.0
  0
LINE
  5
2A3B
330
2A32
100
AcDbEntity
  8
図枠細線
  6
CONTINUOUS
100
AcDbLine
 10
105.098414535793
 20
23.525961753527
 30
0.0
 11
205.098414535793
 21
23.525959753527
 31
0.0
  0
LINE
  5
2A3C
330
2A32
100
AcDbEntity
  8
図枠細線
  6
CONTINUOUS
 62
   252
100
AcDbLine
 10
138.398414535793
 20
43.525959753527
 30
0.0
 11
138.398414535793
 21
18.525957753527
 31
0.0
  0
LINE
  5
2A3D
330
2A32
100
AcDbEntity
  8
図枠細線
  6
CONTINUOUS
 62
   252
100
AcDbLine
 10
171.698414535793
 20
43.525959753527
 30
0.0
 11
171.698414535793
 21
18.525957753527
 31
0.0
  0
LINE
  5
2A3E
330
2A32
100
AcDbEntity
  8
図枠細線
  6
CONTINUOUS
 62
   252
100
AcDbLine
 10
305.098414535793
 20
23.525959753527
 30
0.0
 11
405.098414535793
 21
23.525959753527
 31
0.0
  0
TEXT
  5
2A3F
330
2A32
100
AcDbEntity
  8
図枠ロゴマーク
  6
CONTINUOUS
 62
   253
100
AcDbText
 10
206.102509212755
 20
13.294257570546
 30
0.0
 40
7.0
  1
東和制電工業株式会社
 50
0.016555220185
 41
1.186384129432
  7
EXCADSTD
 72
     5
 11
303.544188309143
 21
13.322412672217
 31
0.0
100
AcDbText
  0
MTEXT
  5
2A40
330
2A32
100
AcDbEntity
  8
図枠細線
100
AcDbMText
 10
6.356764112375
 20
41.976594175478
 30
0.0
 40
2.5
 41
49.938282706292
 71
     1
 72
     5
  1
{\Fmonotxt.shx,bigfont.shx|c128;図暦　CHANGE　NOTICE}
  0
MTEXT
  5
2A41
330
2A32
100
AcDbEntity
  8
図枠細線
 48
10.0
100
AcDbMText
 10
306.544114926828
 20
41.701835800934
 30
0.0
 40
2.5
 41
28.002809618823
 71
     1
 72
     5
  1
{\Fmonotxt.shx,bigfont.shx|c128;名称　TITLE}
  0
MTEXT
  5
2A42
330
2A32
100
AcDbEntity
  8
図枠細線
 48
10.0
100
AcDbMText
 10
307.329617114284
 20
21.606206797226
 30
0.0
 40
2.5
 41
24.385612216707
 71
     1
 72
     5
  1
{\Fmonotxt.shx,bigfont.shx|c128;図面番号\PDRG.　No.}
  0
MTEXT
  5
2A43
330
2A32
100
AcDbEntity
  8
図枠細線
 48
10.0
100
AcDbMText
 10
173.726349404609
 20
21.73680662198
 30
0.0
 40
2.5
 41
25.735090160813
 71
     1
 72
     5
  1
{\Fmonotxt.shx,bigfont.shx|c128;日付 DATE}
  0
MTEXT
  5
2A44
330
2A32
100
AcDbEntity
  8
図枠細線
 48
10.0
100
AcDbMText
 10
173.48708833982
 20
41.621592044998
 30
0.0
 40
2.5
 41
24.983741184205
 71
     1
 72
     5
  1
{\Fmonotxt.shx,bigfont.shx|c128;製図　DRAWN}
  0
MTEXT
  5
2A45
330
2A32
100
AcDbEntity
  8
図枠細線
 48
10.0
100
AcDbMText
 10
139.28009927741
 20
21.866713069868
 30
0.0
 40
2.5
 41
22.629632913243
 71
     1
 72
     5
  1
{\Fmonotxt.shx,bigfont.shx|c128;尺度　SCALE}
  0
MTEXT
  5
2A46
330
2A32
100
AcDbEntity
  8
図枠細線
 48
10.0
100
AcDbMText
 10
139.910091179835
 20
41.311840415554
 30
0.0
 40
2.5
 41
28.998753428368
 71
     1
 72
     5
  1
{\Fmonotxt.shx,bigfont.shx|c128;検図  CHECKED}
  0
MTEXT
  5
2A47
330
2A32
100
AcDbEntity
  8
図枠細線
 48
10.0
100
AcDbMText
 10
114.253294667728
 20
21.916124850174
 30
0.0
 40
3.0
 41
19.692400475383
 71
     1
 72
     5
  1
{\Fmonotxt.shx,bigfont.shx|c128;第三角法}
  0
MTEXT
  5
2A48
330
2A32
100
AcDbEntity
  8
図枠細線
 48
10.0
100
AcDbMText
 10
108.986959929915
 20
15.282880185837
 30
0.0
 40
2.5
 41
27.954882823547
 71
     1
 72
     5
  1
{\Fmonotxt.shx,bigfont.shx|c128;THIRD ANGLE\PPROJECTION}
  0
MTEXT
  5
2A49
330
2A32
100
AcDbEntity
  8
図枠細線
 48
10.0
100
AcDbMText
 10
106.319432640184
 20
41.511437145487
 30
0.0
 40
2.5
 41
28.233595265074
 71
     1
 72
     5
  1
{\Fmonotxt.shx,bigfont.shx|c128;承認 APPROVED}
  0
LINE
  5
2A4A
330
2A32
100
AcDbEntity
  8
図枠太線
  6
CONTINUOUS
 62
   251
100
AcDbLine
 10
5.098414535793
 20
3.525959753527
 30
0.0
 11
405.098414535793
 21
3.525959753527
 31
0.0
  0
LINE
  5
2A4B
330
2A32
100
AcDbEntity
  8
図枠太線
 48
10.0
100
AcDbLine
 10
5.098414535793
 20
3.525959753527
 30
0.0
 11
5.098414535793
 21
43.525959753527
 31
0.0
  0
LINE
  5
2A4C
330
2A32
100
AcDbEntity
  8
図枠太線
  6
CONTINUOUS
 62
   251
100
AcDbLine
 10
105.098414535793
 20
3.525959753527
 30
0.0
 11
105.098414535793
 21
43.525959753527
 31
0.0
  0
LINE
  5
2A4D
330
2A32
100
AcDbEntity
  8
図枠細線
  6
CONTINUOUS
 62
   252
100
AcDbLine
 10
138.398414535793
 20
3.525959753527
 30
0.0
 11
138.398414535793
 21
18.525957753527
 31
0.0
  0
LINE
  5
2A4E
330
2A32
100
AcDbEntity
  8
図枠細線
  6
CONTINUOUS
 62
   252
100
AcDbLine
 10
171.698414535793
 20
3.525959753527
 30
0.0
 11
171.698414535793
 21
18.525957753527
 31
0.0
  0
LINE
  5
2A4F
330
2A32
100
AcDbEntity
  8
図枠太線
  6
CONTINUOUS
 62
   251
100
AcDbLine
 10
205.098414535793
 20
3.525959753527
 30
0.0
 11
205.098414535793
 21
43.525959753527
 31
0.0
  0
LINE
  5
2A50
330
2A32
100
AcDbEntity
  8
図枠太線
 48
10.0
100
AcDbLine
 10
405.098414535793
 20
43.525959753527
 30
0.0
 11
405.098414535793
 21
3.525959753527
 31
0.0
  0
TEXT
  5
2A51
330
2A32
100
AcDbEntity
  8
図枠細線
  6
CONTINUOUS
 62
   252
100
AcDbText
 10
208.519754474572
 20
6.482358407285
 30
0.0
 40
3.5
  1
ＴＯＷＡ　ＳＥＩＤＥＮ　ＩＮＤＵＳＴＲＩＡＬ　ＣＯ．，ＬＴＤ．
 41
0.746656297509
  7
EXCADSTD
 72
     5
 11
303.295327171727
 21
6.482358407285
 31
0.0
100
AcDbText
  0
LINE
  5
2A52
330
2A32
100
AcDbEntity
  8
図枠太線
  6
CONTINUOUS
 62
   251
100
AcDbLine
 10
305.098414535793
 20
3.525959753527
 30
0.0
 11
305.098414535793
 21
43.525959753527
 31
0.0
  0
ENDBLK
  5
2A53
330
2A32
100
AcDbEntity
  8
0
100
AcDbBlockEnd
  0
BLOCK
  5
2A6D
330
2A6C
100
AcDbEntity
  8
0
100
AcDbBlockBegin
  2
A3縦用_タイトル
 70
     0
 10
0.0
 20
0.0
 30
0.0
  3
A3縦用_タイトル
  1

  0
MTEXT
  5
2A6E
330
2A6C
100
AcDbEntity
  8
図枠細線
100
AcDbMText
 10
5.040804501593
 20
31.626098649005
 30
0.0
 40
2.5
 41
49.938282706292
 71
     1
 72
     5
  1
{\Fmonotxt.shx,bigfont.shx|c128;図暦　CHANGE　NOTICE}
  0
LINE
  5
2A6F
330
2A6C
100
AcDbEntity
  8
図枠太線
  6
CONTINUOUS
 62
   251
100
AcDbLine
 10
283.577871882961
 20
2.820844689254
 30
0.0
 11
283.577871882961
 21
32.820842689254
 31
0.0
  0
MTEXT
  5
2A70
330
2A6C
100
AcDbEntity
  8
図枠細線
 48
10.0
100
AcDbMText
 10
214.912458947454
 20
31.621488632308
 30
0.0
 40
2.5
 41
28.002809618823
 71
     1
 72
     5
  1
{\Fmonotxt.shx,bigfont.shx|c128;名称　TITLE}
  0
MTEXT
  5
2A71
330
2A6C
100
AcDbEntity
  8
図枠細線
 48
10.0
100
AcDbMText
 10
214.740030458938
 20
16.310225796722
 30
0.0
 40
2.5
 41
24.385612216707
 71
     1
 72
     5
  1
{\Fmonotxt.shx,bigfont.shx|c128;図面番号\PDRG.　No.}
  0
LINE
  5
2A72
330
2A6C
100
AcDbEntity
  8
図枠太線
  6
CONTINUOUS
 62
   251
100
AcDbLine
 10
213.577871882961
 20
2.820844689254
 30
0.0
 11
213.577871882961
 21
32.820842689254
 31
0.0
  0
LINE
  5
2A73
330
2A6C
100
AcDbEntity
  8
図枠太線
  6
CONTINUOUS
 62
   251
100
AcDbLine
 10
143.577871882961
 20
2.820844689254
 30
0.0
 11
143.577871882961
 21
32.820842689254
 31
0.0
  0
TEXT
  5
2A74
330
2A6C
100
AcDbEntity
  8
図枠細線
  6
CONTINUOUS
 62
   252
100
AcDbText
 10
145.716454488093
 20
4.468335689254
 30
0.0
 40
3.5
  1
ＴＯＷＡ　ＳＥＩＤＥＮ　ＩＮＤＵＳＴＲＩＡＬ　ＣＯ．，ＬＴＤ．
 41
0.528937826907
  7
EXCADSTD
 72
     5
 11
212.856295983498
 21
4.468335689254
 31
0.0
100
AcDbText
  0
TEXT
  5
2A75
330
2A6C
100
AcDbEntity
  8
図枠ロゴマーク
  6
CONTINUOUS
 62
   253
100
AcDbText
 10
145.950637593507
 20
9.413236689254
 30
0.0
 40
7.0
  1
東和制電工業株式会社
 41
0.80361088462
  7
EXCADSTD
 72
     5
 11
211.953878250259
 21
9.413236689254
 31
0.0
100
AcDbText
  0
LINE
  5
2A76
330
2A6C
100
AcDbEntity
  8
図枠細線
  6
CONTINUOUS
 62
   252
100
AcDbLine
 10
143.577871882961
 20
25.320842689254
 30
0.0
 11
213.577871882961
 21
25.320842689254
 31
0.0
  0
LINE
  5
2A77
330
2A6C
100
AcDbEntity
  8
図枠太線
  6
CONTINUOUS
 62
   251
100
AcDbLine
 10
143.577863882961
 20
17.820842689254
 30
0.0
 11
213.577871882961
 21
17.820842689254
 31
0.0
  0
LINE
  5
2A78
330
2A6C
100
AcDbEntity
  8
図枠細線
  6
CONTINUOUS
 62
   252
100
AcDbLine
 10
213.577871882961
 20
17.820842689254
 30
0.0
 11
283.577871882961
 21
17.820842689254
 31
0.0
  0
LINE
  5
2A79
330
2A6C
100
AcDbEntity
  8
図枠細線
  6
CONTINUOUS
 62
   252
100
AcDbLine
 10
120.577871882961
 20
32.820842689254
 30
0.0
 11
120.577871882961
 21
17.820842689254
 31
0.0
  0
MTEXT
  5
2A7A
330
2A6C
100
AcDbEntity
  8
図枠細線
 48
10.0
100
AcDbMText
 10
121.100885670352
 20
16.33785922638
 30
0.0
 40
2.0
 41
17.705978285068
 71
     1
 72
     5
  1
{\Fmonotxt.shx,bigfont.shx|c128;日付 DATE}
  0
MTEXT
  5
2A7B
330
2A6C
100
AcDbEntity
  8
図枠細線
 48
10.0
100
AcDbMText
 10
121.254842273491
 20
31.208993514037
 30
0.0
 40
2.0
 41
18.363799568758
 71
     1
 72
     5
  1
{\Fmonotxt.shx,bigfont.shx|c128;製図　DRAWN}
  0
LINE
  5
2A7C
330
2A6C
100
AcDbEntity
  8
図枠細線
  6
CONTINUOUS
 62
   252
100
AcDbLine
 10
97.577871882961
 20
32.820842689254
 30
0.0
 11
97.577871882961
 21
17.820842689254
 31
0.0
  0
MTEXT
  5
2A7D
330
2A6C
100
AcDbEntity
  8
図枠細線
 48
10.0
100
AcDbMText
 10
98.239734796872
 20
16.467764839281
 30
0.0
 40
2.0
 41
17.757791689903
 71
     1
 72
     5
  1
{\Fmonotxt.shx,bigfont.shx|c128;尺度　SCALE}
  0
MTEXT
  5
2A7E
330
2A6C
100
AcDbEntity
  8
図枠細線
 48
10.0
100
AcDbMText
 10
97.864744625154
 20
31.298433377664
 30
0.0
 40
2.0
 41
23.162655920976
 71
     1
 72
     5
  1
{\Fmonotxt.shx,bigfont.shx|c128;検図  CHECKED}
  0
LINE
  5
2A7F
330
2A6C
100
AcDbEntity
  8
図枠細線
  6
CONTINUOUS
 62
   252
100
AcDbLine
 10
97.577871882961
 20
2.820843367826
 30
0.0
 11
97.577871882961
 21
17.820841367826
 31
0.0
  0
LINE
  5
2A80
330
2A6C
100
AcDbEntity
  8
図枠細線
  6
CONTINUOUS
 62
   252
100
AcDbLine
 10
120.577871882961
 20
2.820844010683
 30
0.0
 11
120.577871882961
 21
17.820842010683
 31
0.0
  0
MTEXT
  5
2A81
330
2A6C
100
AcDbEntity
  8
図枠細線
 48
10.0
100
AcDbMText
 10
81.402399084102
 20
16.316484117426
 30
0.0
 40
2.0
 41
12.920322819369
 71
     1
 72
     5
  1
{\Fmonotxt.shx,bigfont.shx|c128;第三角法}
  0
MTEXT
  5
2A82
330
2A6C
100
AcDbEntity
  8
図枠細線
 48
10.0
100
AcDbMText
 10
75.736576535096
 20
11.080410931319
 30
0.0
 40
2.0
 41
21.072870671471
 71
     1
 72
     5
  1
{\Fmonotxt.shx,bigfont.shx|c128;THIRD ANGLE\PPROJECTION}
  0
LINE
  5
2A83
330
2A6C
100
AcDbEntity
  8
図枠太線
  6
CONTINUOUS
 62
   251
100
AcDbLine
 10
74.577871882961
 20
2.820844689254
 30
0.0
 11
74.577871882961
 21
32.820842689254
 31
0.0
  0
MTEXT
  5
2A84
330
2A6C
100
AcDbEntity
  8
図枠細線
 48
10.0
100
AcDbMText
 10
75.060214781573
 20
31.298434778555
 30
0.0
 40
2.0
 41
22.240928805967
 71
     1
 72
     5
  1
{\Fmonotxt.shx,bigfont.shx|c128;承認 APPROVED}
  0
LINE
  5
2A85
330
2A6C
100
AcDbEntity
  8
図枠細線
  6
CONTINUOUS
100
AcDbLine
 10
3.577871882961
 20
17.820844689254
 30
0.0
 11
74.577871882961
 21
17.820844689254
 31
0.0
  0
LINE
  5
2A86
330
2A6C
100
AcDbEntity
  8
図枠細線
  6
CONTINUOUS
 62
   252
100
AcDbLine
 10
3.577871882961
 20
27.820842689254
 30
0.0
 11
74.577871882961
 21
27.820842689254
 31
0.0
  0
LINE
  5
2A87
330
2A6C
100
AcDbEntity
  8
図枠細線
  6
CONTINUOUS
 62
   252
100
AcDbLine
 10
3.577871882961
 20
22.820842689254
 30
0.0
 11
74.577871882961
 21
22.820842689254
 31
0.0
  0
LINE
  5
2A88
330
2A6C
100
AcDbEntity
  8
図枠細線
  6
CONTINUOUS
 62
   252
100
AcDbLine
 10
3.577871882961
 20
12.820842689254
 30
0.0
 11
74.577871882961
 21
12.820842689254
 31
0.0
  0
LINE
  5
2A89
330
2A6C
100
AcDbEntity
  8
図枠細線
  6
CONTINUOUS
 62
   252
100
AcDbLine
 10
3.577871882961
 20
7.820844689254
 30
0.0
 11
74.577871882961
 21
7.820844689254
 31
0.0
  0
LINE
  5
2A8A
330
2A6C
100
AcDbEntity
  8
図枠細線
  6
CONTINUOUS
100
AcDbLine
 10
74.577871882961
 20
17.820843689254
 30
0.0
 11
143.577871882961
 21
17.820841224969
 31
0.0
  0
LINE
  5
2A8B
330
2A6C
100
AcDbEntity
  8
図枠太線
  6
CONTINUOUS
 62
   251
100
AcDbLine
 10
3.577871882961
 20
2.820844689254
 30
0.0
 11
283.577871882961
 21
2.820844689254
 31
0.0
  0
LINE
  5
2A8C
330
2A6C
100
AcDbEntity
  8
図枠太線
  6
CONTINUOUS
 62
   251
100
AcDbLine
 10
3.577871882961
 20
2.820844689254
 30
0.0
 11
3.577871882961
 21
32.820842689254
 31
0.0
  0
ENDBLK
  5
2A8D
330
2A6C
100
AcDbEntity
  8
0
100
AcDbBlockEnd
  0
BLOCK
  5
2AF8
330
2AF4
100
AcDbEntity
  8
0
 48
10.0
100
AcDbBlockBegin
  2
_OPEN30
 70
     0
 10
0.0
 20
0.0
 30
0.0
  3
_OPEN30
  1

  0
LINE
  5
2AF5
330
2AF4
100
AcDbEntity
  8
0
  6
BYBLOCK
 62
     0
100
AcDbLine
 10
-1.0
 20
0.26794919
 30
0.0
 11
0.0
 21
0.0
 31
0.0
  0
LINE
  5
2AF6
330
2AF4
100
AcDbEntity
  8
0
  6
BYBLOCK
 62
     0
100
AcDbLine
 10
0.0
 20
0.0
 30
0.0
 11
-1.0
 21
-0.26794919
 31
0.0
  0
LINE
  5
2AF7
330
2AF4
100
AcDbEntity
  8
0
  6
BYBLOCK
 62
     0
100
AcDbLine
 10
0.0
 20
0.0
 30
0.0
 11
-1.0
 21
0.0
 31
0.0
  0
ENDBLK
  5
2AF9
330
2AF4
100
AcDbEntity
  8
0
 48
10.0
100
AcDbBlockEnd
  0
BLOCK
  5
300D
330
3003
100
AcDbEntity
  8
0
 48
10.0
100
AcDbBlockBegin
  2
*D6
 70
     1
 10
0.0
 20
0.0
 30
0.0
  3
*D6
  1

  0
LINE
  5
417A
330
3003
100
AcDbEntity
  8
寸法線
 62
     0
 48
10.0
100
AcDbLine
 10
469.289081678798
 20
469.186640811177
 30
0.0
 11
489.308988652513
 21
469.186640811177
 31
0.0
  0
LINE
  5
417B
330
3003
100
AcDbEntity
  8
寸法線
 62
     0
 48
10.0
100
AcDbLine
 10
426.553908442367
 20
382.909800811177
 30
0.0
 11
489.308988652513
 21
382.909800811177
 31
0.0
  0
LINE
  5
417C
330
3003
100
AcDbEntity
  8
寸法線
 62
     0
 48
10.0
100
AcDbLine
 10
488.058988652513
 20
463.186640811177
 30
0.0
 11
488.058988652513
 21
388.909800811177
 31
0.0
  0
INSERT
  5
417D
330
3003
100
AcDbEntity
  8
寸法線
 62
     0
100
AcDbBlockReference
  2
_OPEN30
 10
488.058988652513
 20
469.186640811177
 30
0.0
 41
6.0
 42
6.0
 43
6.0
 50
90.0
  0
INSERT
  5
417E
330
3003
100
AcDbEntity
  8
寸法線
 62
     0
100
AcDbBlockReference
  2
_OPEN30
 10
488.058988652513
 20
382.909800811177
 30
0.0
 41
6.0
 42
6.0
 43
6.0
 50
270.0
  0
MTEXT
  5
417F
330
3003
100
AcDbEntity
  8
寸法線
 62
     0
 48
10.0
100
AcDbMText
 10
483.42565531918
 20
428.805398366828
 30
0.0
 40
8.0
 41
0.0
 71
     5
 72
     1
  1
\A1;89
 11
0.0
 21
1.0
 31
0.0
  0
POINT
  5
4180
330
3003
100
AcDbEntity
  8
DEFPOINTS
 62
     0
100
AcDbPoint
 10
468.664081678798
 20
469.186640811177
 30
0.0
  0
POINT
  5
4181
330
3003
100
AcDbEntity
  8
DEFPOINTS
 62
     0
100
AcDbPoint
 10
425.928908442367
 20
382.909800811177
 30
0.0
  0
POINT
  5
4182
330
3003
100
AcDbEntity
  8
DEFPOINTS
 62
     0
100
AcDbPoint
 10
488.058988652513
 20
382.909800811177
 30
0.0
  0
ENDBLK
  5
300E
330
3003
100
AcDbEntity
  8
0
 48
10.0
100
AcDbBlockEnd
  0
BLOCK
  5
301A
330
3010
100
AcDbEntity
  8
0
 48
10.0
100
AcDbBlockBegin
  2
*D7
 70
     1
 10
0.0
 20
0.0
 30
0.0
  3
*D7
  1

  0
LINE
  5
4171
330
3010
100
AcDbEntity
  8
寸法線
 62
     0
 48
10.0
100
AcDbLine
 10
441.572627995228
 20
418.787400481061
 30
0.0
 11
510.992022482611
 21
418.787400481061
 31
0.0
  0
LINE
  5
4172
330
3010
100
AcDbEntity
  8
寸法線
 62
     0
 48
10.0
100
AcDbLine
 10
441.572627995228
 20
519.354904484885
 30
0.0
 11
510.992022482611
 21
519.354904484885
 31
0.0
  0
LINE
  5
4173
330
3010
100
AcDbEntity
  8
寸法線
 62
     0
 48
10.0
100
AcDbLine
 10
509.742022482611
 20
424.787400481061
 30
0.0
 11
509.742022482611
 21
513.354904484885
 31
0.0
  0
INSERT
  5
4174
330
3010
100
AcDbEntity
  8
寸法線
 62
     0
 48
10.0
100
AcDbBlockReference
  2
_OPEN30
 10
509.742022482611
 20
418.787400481061
 30
0.0
 41
6.0
 42
6.0
 43
6.0
 50
270.0
  0
INSERT
  5
4175
330
3010
100
AcDbEntity
  8
寸法線
 62
     0
 48
10.0
100
AcDbBlockReference
  2
_OPEN30
 10
509.742022482611
 20
519.354904484885
 30
0.0
 41
6.0
 42
6.0
 43
6.0
 50
90.0
  0
MTEXT
  5
4176
330
3010
100
AcDbEntity
  8
寸法線
 62
     0
 48
10.0
100
AcDbMText
 10
505.117022482611
 20
469.071152482973
 30
0.0
 40
8.0
 41
0.0
 71
     5
 72
     1
  1
\A1;φ100
 11
6.123031769111886E-17
 21
1.0
 31
0.0
  0
POINT
  5
4177
330
3010
100
AcDbEntity
  8
DEFPOINTS
 62
     0
 48
10.0
100
AcDbPoint
 10
440.947627995228
 20
418.787400481061
 30
0.0
  0
POINT
  5
4178
330
3010
100
AcDbEntity
  8
DEFPOINTS
 62
     0
 48
10.0
100
AcDbPoint
 10
440.947627995228
 20
519.354904484885
 30
0.0
  0
POINT
  5
4179
330
3010
100
AcDbEntity
  8
DEFPOINTS
 62
     0
 48
10.0
100
AcDbPoint
 10
509.742022482611
 20
519.354904484885
 30
0.0
  0
ENDBLK
  5
301B
330
3010
100
AcDbEntity
  8
0
 48
10.0
100
AcDbBlockEnd
  0
BLOCK
  5
3AC5
330
3ABB
100
AcDbEntity
  8
0
 48
10.0
100
AcDbBlockBegin
  2
*D8
 70
     1
 10
0.0
 20
0.0
 30
0.0
  3
*D8
  1

  0
LINE
  5
4168
330
3ABB
100
AcDbEntity
  8
寸法線
 62
     0
 48
10.0
100
AcDbLine
 10
226.152027267304
 20
476.686627765102
 30
0.0
 11
211.333763693111
 21
476.686627765102
 31
0.0
  0
LINE
  5
4169
330
3ABB
100
AcDbEntity
  8
寸法線
 62
     0
 48
10.0
100
AcDbLine
 10
226.152027267304
 20
461.686653765102
 30
0.0
 11
211.333763693111
 21
461.686653765102
 31
0.0
  0
LINE
  5
416A
330
3ABB
100
AcDbEntity
  8
寸法線
 62
     0
 48
10.0
100
AcDbLine
 10
212.583763693111
 20
472.386627765102
 30
0.0
 11
212.583763693111
 21
465.986653765102
 31
0.0
  0
INSERT
  5
416B
330
3ABB
100
AcDbEntity
  8
寸法線
 62
     0
 48
10.0
100
AcDbBlockReference
  2
_OPEN30
 10
212.583763693111
 20
476.686627765102
 30
0.0
 41
4.3
 42
4.3
 43
4.3
 50
90.0
  0
INSERT
  5
416C
330
3ABB
100
AcDbEntity
  8
寸法線
 62
     0
 48
10.0
100
AcDbBlockReference
  2
_OPEN30
 10
212.583763693111
 20
461.686653765102
 30
0.0
 41
4.3
 42
4.3
 43
4.3
 50
270.0
  0
MTEXT
  5
416D
330
3ABB
100
AcDbEntity
  8
寸法線
 62
     0
 48
10.0
100
AcDbMText
 10
207.958763693111
 20
469.186640765102
 30
0.0
 40
8.0
 41
0.0
 71
     5
 72
     1
  1
\A1;15
 11
6.123031769111886E-17
 21
1.0
 31
0.0
  0
POINT
  5
416E
330
3ABB
100
AcDbEntity
  8
DEFPOINTS
 62
     0
 48
10.0
100
AcDbPoint
 10
226.777027267304
 20
476.686627765102
 30
0.0
  0
POINT
  5
416F
330
3ABB
100
AcDbEntity
  8
DEFPOINTS
 62
     0
 48
10.0
100
AcDbPoint
 10
226.777027267304
 20
461.686653765102
 30
0.0
  0
POINT
  5
4170
330
3ABB
100
AcDbEntity
  8
DEFPOINTS
 62
     0
 48
10.0
100
AcDbPoint
 10
212.583763693111
 20
461.686653765102
 30
0.0
  0
ENDBLK
  5
3AC6
330
3ABB
100
AcDbEntity
  8
0
 48
10.0
100
AcDbBlockEnd
  0
BLOCK
  5
3FDA
330
3FD0
100
AcDbEntity
  8
0
 48
10.0
100
AcDbBlockBegin
  2
*D9
 70
     1
 10
0.0
 20
0.0
 30
0.0
  3
*D9
  1

  0
LINE
  5
415E
330
3FD0
100
AcDbEntity
  8
寸法線
 62
     0
 48
10.0
100
AcDbLine
 10
332.92335847632
 20
483.186640811177
 30
0.0
 11
332.29835847632
 21
483.186640811177
 31
0.0
  0
LINE
  5
415F
330
3FD0
100
AcDbEntity
  8
寸法線
 62
     0
 48
10.0
100
AcDbLine
 10
332.92335847632
 20
455.186640811177
 30
0.0
 11
332.29835847632
 21
455.186640811177
 31
0.0
  0
LINE
  5
4160
330
3FD0
100
AcDbEntity
  8
寸法線
 62
     0
 48
10.0
100
AcDbLine
 10
333.54835847632
 20
477.186640811177
 30
0.0
 11
333.54835847632
 21
461.186640811177
 31
0.0
  0
LINE
  5
4161
330
3FD0
100
AcDbEntity
  8
寸法線
 62
     0
 48
10.0
100
AcDbLine
 10
333.54835847632
 20
427.229897347539
 30
0.0
 11
333.54835847632
 21
455.186640811177
 31
0.0
  0
MTEXT
  5
4162
330
3FD0
100
AcDbEntity
  8
寸法線
 62
     0
 48
10.0
100
AcDbMText
 10
328.922571074745
 20
435.854897347539
 30
0.0
 40
8.0
 41
0.0
 71
     5
 72
     1
  1
\A1;%%C28
 11
6.123031769111886E-17
 21
1.0
 31
0.0
  0
INSERT
  5
4163
330
3FD0
100
AcDbEntity
  8
寸法線
 62
     0
 48
10.0
100
AcDbBlockReference
  2
_OPEN30
 10
333.54835847632
 20
483.186640811177
 30
0.0
 41
6.0
 42
6.0
 43
6.0
 50
90.0
  0
INSERT
  5
4164
330
3FD0
100
AcDbEntity
  8
寸法線
 62
     0
 48
10.0
100
AcDbBlockReference
  2
_OPEN30
 10
333.54835847632
 20
455.186640811177
 30
0.0
 41
6.0
 42
6.0
 43
6.0
 50
270.0
  0
POINT
  5
4165
330
3FD0
100
AcDbEntity
  8
DEFPOINTS
 62
     0
 48
10.0
100
AcDbPoint
 10
333.54835847632
 20
483.186640811177
 30
0.0
  0
POINT
  5
4166
330
3FD0
100
AcDbEntity
  8
DEFPOINTS
 62
     0
 48
10.0
100
AcDbPoint
 10
333.54835847632
 20
455.186640811177
 30
0.0
  0
POINT
  5
4167
330
3FD0
100
AcDbEntity
  8
DEFPOINTS
 62
     0
 48
10.0
100
AcDbPoint
 10
333.54835847632
 20
455.186640811177
 30
0.0
  0
ENDBLK
  5
3FDB
330
3FD0
100
AcDbEntity
  8
0
 48
10.0
100
AcDbBlockEnd
  0
BLOCK
  5
4041
330
4037
100
AcDbEntity
  8
0
 48
10.0
100
AcDbBlockBegin
  2
*D10
 70
     1
 10
0.0
 20
0.0
 30
0.0
  3
*D10
  1

  0
LINE
  5
4155
330
4037
100
AcDbEntity
  8
寸法線
 62
     0
 48
10.0
100
AcDbLine
 10
354.54835847632
 20
446.261640811177
 30
0.0
 11
354.54835847632
 21
355.61006243878
 31
0.0
  0
LINE
  5
4156
330
4037
100
AcDbEntity
  8
寸法線
 62
     0
 48
10.0
100
AcDbLine
 10
468.664835183302
 20
424.028970087527
 30
0.0
 11
468.664835183302
 21
355.61006243878
 31
0.0
  0
LINE
  5
4157
330
4037
100
AcDbEntity
  8
寸法線
 62
     0
 48
10.0
100
AcDbLine
 10
360.54835847632
 20
356.86006243878
 30
0.0
 11
462.664835183302
 21
356.86006243878
 31
0.0
  0
INSERT
  5
4158
330
4037
100
AcDbEntity
  8
寸法線
 62
     0
 48
10.0
100
AcDbBlockReference
  2
_OPEN30
 10
354.54835847632
 20
356.86006243878
 30
0.0
 41
6.0
 42
6.0
 43
6.0
 50
180.0
  0
INSERT
  5
4159
330
4037
100
AcDbEntity
  8
寸法線
 62
     0
 48
10.0
100
AcDbBlockReference
  2
_OPEN30
 10
468.664835183302
 20
356.86006243878
 30
0.0
 41
6.0
 42
6.0
 43
6.0
  0
MTEXT
  5
415A
330
4037
100
AcDbEntity
  8
寸法線
 62
     0
 48
10.0
100
AcDbMText
 10
411.606596829811
 20
361.48506243878
 30
0.0
 40
8.0
 41
0.0
 71
     5
 72
     1
  1
\A1;111
  0
POINT
  5
415B
330
4037
100
AcDbEntity
  8
DEFPOINTS
 62
     0
 48
10.0
100
AcDbPoint
 10
354.54835847632
 20
446.886640811177
 30
0.0
  0
POINT
  5
415C
330
4037
100
AcDbEntity
  8
DEFPOINTS
 62
     0
 48
10.0
100
AcDbPoint
 10
468.664835183302
 20
424.653970087527
 30
0.0
  0
POINT
  5
415D
330
4037
100
AcDbEntity
  8
DEFPOINTS
 62
     0
 48
10.0
100
AcDbPoint
 10
468.664835183302
 20
356.86006243878
 30
0.0
  0
ENDBLK
  5
4042
330
4037
100
AcDbEntity
  8
0
 48
10.0
100
AcDbBlockEnd
  0
BLOCK
  5
404E
330
4044
100
AcDbEntity
  8
0
 48
10.0
100
AcDbBlockBegin
  2
*D11
 70
     1
 10
0.0
 20
0.0
 30
0.0
  3
*D11
  1

  0
LINE
  5
414C
330
4044
100
AcDbEntity
  8
寸法線
 62
     0
 48
10.0
100
AcDbLine
 10
227.54835847632
 20
459.861627765103
 30
0.0
 11
227.54835847632
 21
355.61006243878
 31
0.0
  0
LINE
  5
414D
330
4044
100
AcDbEntity
  8
寸法線
 62
     0
 48
10.0
100
AcDbLine
 10
354.54835847632
 20
446.261640811177
 30
0.0
 11
354.54835847632
 21
355.61006243878
 31
0.0
  0
LINE
  5
414E
330
4044
100
AcDbEntity
  8
寸法線
 62
     0
 48
10.0
100
AcDbLine
 10
233.54835847632
 20
356.86006243878
 30
0.0
 11
348.54835847632
 21
356.86006243878
 31
0.0
  0
INSERT
  5
414F
330
4044
100
AcDbEntity
  8
寸法線
 62
     0
 48
10.0
100
AcDbBlockReference
  2
_OPEN30
 10
227.54835847632
 20
356.86006243878
 30
0.0
 41
6.0
 42
6.0
 43
6.0
 50
180.0
  0
INSERT
  5
4150
330
4044
100
AcDbEntity
  8
寸法線
 62
     0
 48
10.0
100
AcDbBlockReference
  2
_OPEN30
 10
354.54835847632
 20
356.86006243878
 30
0.0
 41
6.0
 42
6.0
 43
6.0
  0
MTEXT
  5
4151
330
4044
100
AcDbEntity
  8
寸法線
 62
     0
 48
10.0
100
AcDbMText
 10
291.04835847632
 20
361.485849840355
 30
0.0
 40
8.0
 41
0.0
 71
     5
 72
     1
  1
\A1;125
  0
POINT
  5
4152
330
4044
100
AcDbEntity
  8
DEFPOINTS
 62
     0
 48
10.0
100
AcDbPoint
 10
227.54835847632
 20
460.486627765103
 30
0.0
  0
POINT
  5
4153
330
4044
100
AcDbEntity
  8
DEFPOINTS
 62
     0
 48
10.0
100
AcDbPoint
 10
354.54835847632
 20
446.886640811177
 30
0.0
  0
POINT
  5
4154
330
4044
100
AcDbEntity
  8
DEFPOINTS
 62
     0
 48
10.0
100
AcDbPoint
 10
354.54835847632
 20
356.86006243878
 30
0.0
  0
ENDBLK
  5
404F
330
4044
100
AcDbEntity
  8
0
 48
10.0
100
AcDbBlockEnd
  0
BLOCK
  5
4091
330
4087
100
AcDbEntity
  8
0
 48
10.0
100
AcDbBlockBegin
  2
*D12
 70
     1
 10
0.0
 20
0.0
 30
0.0
  3
*D12
  1

  0
LINE
  5
4143
330
4087
100
AcDbEntity
  8
寸法線
 62
     0
 48
10.0
100
AcDbLine
 10
339.54835847632
 20
452.061640811177
 30
0.0
 11
339.54835847632
 21
409.942462968738
 31
0.0
  0
LINE
  5
4144
330
4087
100
AcDbEntity
  8
寸法線
 62
     0
 48
10.0
100
AcDbLine
 10
354.54835847632
 20
446.261640811177
 30
0.0
 11
354.54835847632
 21
409.942462968738
 31
0.0
  0
LINE
  5
4145
330
4087
100
AcDbEntity
  8
寸法線
 62
     0
 48
10.0
100
AcDbLine
 10
345.54835847632
 20
411.192462968738
 30
0.0
 11
348.54835847632
 21
411.192462968738
 31
0.0
  0
INSERT
  5
4146
330
4087
100
AcDbEntity
  8
寸法線
 62
     0
 48
10.0
100
AcDbBlockReference
  2
_OPEN30
 10
339.54835847632
 20
411.192462968738
 30
0.0
 41
6.0
 42
6.0
 43
6.0
 50
180.0
  0
INSERT
  5
4147
330
4087
100
AcDbEntity
  8
寸法線
 62
     0
 48
10.0
100
AcDbBlockReference
  2
_OPEN30
 10
354.54835847632
 20
411.192462968738
 30
0.0
 41
6.0
 42
6.0
 43
6.0
  0
MTEXT
  5
4148
330
4087
100
AcDbEntity
  8
寸法線
 62
     0
 48
10.0
100
AcDbMText
 10
347.04835847632
 20
415.817462968738
 30
0.0
 40
8.0
 41
0.0
 71
     5
 72
     1
  1
\A1;15
  0
POINT
  5
4149
330
4087
100
AcDbEntity
  8
DEFPOINTS
 62
     0
 48
10.0
100
AcDbPoint
 10
339.54835847632
 20
452.686640811177
 30
0.0
  0
POINT
  5
414A
330
4087
100
AcDbEntity
  8
DEFPOINTS
 62
     0
 48
10.0
100
AcDbPoint
 10
354.54835847632
 20
446.886640811177
 30
0.0
  0
POINT
  5
414B
330
4087
100
AcDbEntity
  8
DEFPOINTS
 62
     0
 48
10.0
100
AcDbPoint
 10
354.54835847632
 20
411.192462968738
 30
0.0
  0
ENDBLK
  5
4092
330
4087
100
AcDbEntity
  8
0
 48
10.0
100
AcDbBlockEnd
  0
ENDSEC
  0
SECTION
  2
ENTITIES
  0
ARC
  5
2D85
330
1A
100
AcDbEntity
  8
外形線
100
AcDbCircle
 10
431.186166974976
 20
516.324034737875
 30
0.0
 40
2.073556783584
100
AcDbArc
 50
90.0
 51
136.091731908436
  0
LINE
  5
2D86
330
1A
100
AcDbEntity
  8
外形線
100
AcDbLine
 10
429.692270828486
 20
517.762058394929
 30
0.0
 11
428.843300479146
 21
516.880102436039
 31
0.0
  0
ARC
  5
2D87
330
1A
100
AcDbEntity
  8
外形線
100
AcDbCircle
 10
427.349404332656
 20
518.318126093095
 30
0.0
 40
2.073556783584
100
AcDbArc
 50
270.0
 51
316.091731908441
  0
LINE
  5
2D88
330
1A
100
AcDbEntity
  8
外形線
100
AcDbLine
 10
435.487926645958
 20
518.397591521459
 30
0.0
 11
431.186166974976
 21
518.397591521459
 31
0.0
  0
ARC
  5
2D89
330
1A
100
AcDbEntity
  8
外形線
100
AcDbCircle
 10
430.921209185104
 20
438.175156407573
 30
0.0
 40
1.2441340701504
100
AcDbArc
 50
217.230967965681
 51
270.0
  0
ARC
  5
2D8A
330
1A
100
AcDbEntity
  8
外形線
100
AcDbCircle
 10
426.92941591772
 20
441.115612638543
 30
0.0
 40
1.2441340701504
100
AcDbArc
 50
37.230967965672
 51
90.0
  0
LINE
  5
2D8B
330
1A
100
AcDbEntity
  8
外形線
100
AcDbLine
 10
435.487926645958
 20
436.931022337421
 30
0.0
 11
430.921209185104
 21
436.931022337421
 31
0.0
  0
LINE
  5
2D8C
330
1A
100
AcDbEntity
  8
細線
100
AcDbLine
 10
427.349404332656
 20
516.244569309509
 30
0.0
 11
427.349404332656
 21
443.029212811177
 31
0.0
  0
LINE
  5
2DBE
330
1A
100
AcDbEntity
  8
外形線
100
AcDbLine
 10
367.54835847632
 20
443.230338290169
 30
0.0
 11
367.54835847632
 21
495.142943332185
 31
0.0
  0
ARC
  5
2DD1
330
1A
100
AcDbEntity
  8
外形線
100
AcDbCircle
 10
368.14835847632
 20
436.436640811177
 30
0.0
 40
0.6
100
AcDbArc
 50
180.0
 51
270.0
  0
ARC
  5
2DE3
330
1A
100
AcDbEntity
  8
外形線
100
AcDbCircle
 10
368.14835847632
 20
501.936640811177
 30
0.0
 40
0.6
100
AcDbArc
 50
90.0
 51
180.0
  0
LINE
  5
2DE4
330
1A
100
AcDbEntity
  8
外形線
100
AcDbLine
 10
367.54835847632
 20
502.052666214961
 30
0.0
 11
367.54835847632
 21
436.320615407393
 31
0.0
  0
LINE
  5
2DE5
330
1A
100
AcDbEntity
  8
外形線
100
AcDbLine
 10
398.57359525781
 20
408.847636892283
 30
0.0
 11
385.49508845245
 21
422.879678710511
 31
0.0
  0
LINE
  5
2DE6
330
1A
100
AcDbEntity
  8
外形線
100
AcDbLine
 10
388.045819909408
 20
424.948059840713
 30
0.0
 11
373.04835847631
 21
435.836640811177
 31
0.0
  0
LINE
  5
2DE7
330
1A
100
AcDbEntity
  8
外形線
100
AcDbLine
 10
388.045819909408
 20
513.194245125235
 30
0.0
 11
373.04835847631
 21
502.536640811177
 31
0.0
  0
CIRCLE
  5
2DE8
330
1A
100
AcDbEntity
  8
細線
100
AcDbCircle
 10
417.487926645954
 20
428.207912992683
 30
0.0
 40
13.76127218150634
  0
LINE
  5
2DE9
330
1A
100
AcDbEntity
  8
外形線
100
AcDbLine
 10
421.367485702994
 20
433.245281092805
 30
0.0
 11
422.685501984424
 21
431.869452349995
 31
0.0
  0
LINE
  5
2DEA
330
1A
100
AcDbEntity
  8
外形線
100
AcDbLine
 10
413.605032281876
 20
423.170544892561
 30
0.0
 11
422.685501984424
 21
431.869452349995
 31
0.0
  0
CIRCLE
  5
2DEB
330
1A
100
AcDbEntity
  8
外形線
100
AcDbCircle
 10
417.486258992436
 20
428.207912992683
 30
0.0
 40
10.51872781849356
  0
CIRCLE
  5
2DEC
330
1A
100
AcDbEntity
  8
細線
100
AcDbCircle
 10
417.486258992436
 20
428.207912992683
 30
0.0
 40
9.90742839250458
  0
LINE
  5
2DED
330
1A
100
AcDbEntity
  8
外形線
100
AcDbLine
 10
412.287016000448
 20
424.546373635371
 30
0.0
 11
421.367485702994
 21
433.245281092805
 31
0.0
  0
LINE
  5
2DEE
330
1A
100
AcDbEntity
  8
外形線
100
AcDbLine
 10
412.287016000448
 20
424.546373635371
 30
0.0
 11
413.605032281876
 21
423.170544892561
 31
0.0
  0
LINE
  5
2DEF
330
1A
100
AcDbEntity
  8
外形線
100
AcDbLine
 10
368.14835847632
 20
502.536640811177
 30
0.0
 11
373.04835847631
 21
502.536640811177
 31
0.0
  0
LINE
  5
2DF0
330
1A
100
AcDbEntity
  8
外形線
100
AcDbLine
 10
368.14835847632
 20
435.836640811177
 30
0.0
 11
373.04835847631
 21
435.836640811177
 31
0.0
  0
LINE
  5
2DF1
330
1A
100
AcDbEntity
  8
外形線
100
AcDbLine
 10
373.04835847631
 20
502.536640811177
 30
0.0
 11
373.04835847631
 21
435.836640811177
 31
0.0
  0
LINE
  5
2DF2
330
1A
100
AcDbEntity
  8
外形線
100
AcDbLine
 10
367.54835847632
 20
490.029212811177
 30
0.0
 11
367.54835847632
 21
501.536640811177
 31
0.0
  0
LINE
  5
2DF3
330
1A
100
AcDbEntity
  8
外形線
100
AcDbLine
 10
427.919999221816
 20
441.868350509355
 30
0.0
 11
429.930625881008
 21
437.422418536759
 31
0.0
  0
ARC
  5
2DF5
330
1A
100
AcDbEntity
  8
外形線
100
AcDbCircle
 10
386.909302014824
 20
424.293892272885
 30
0.0
 40
2.0
100
AcDbArc
 50
180.0
 51
225.0
  0
LWPOLYLINE
  5
2DF7
330
1A
100
AcDbEntity
  8
外形線
100
AcDbPolyline
 90
       18
 70
     0
 43
0.0
 10
446.270421920594
 20
498.047223207561
 10
445.317042002852
 20
497.970782945605
 10
444.396128294758
 20
497.744065241177
 10
443.539041408122
 20
497.374790693783
 10
442.77496840891
 20
496.875534505241
 10
442.129928886704
 20
496.263298246259
 10
441.625888888792
 20
495.558930888339
 10
441.280012892776
 20
494.786418817059
 10
441.104079290864
 20
493.972069004483
 10
441.104079290864
 20
493.143613156771
 10
441.280012892776
 20
492.329263344195
 10
441.625888888792
 20
491.556751272915
 10
442.129928886704
 20
490.852383914995
 10
442.77496840891
 20
490.240147656013
 10
443.539041408122
 20
489.740891467469
 10
444.396128294758
 20
489.371616920077
 10
445.317042002852
 20
489.144899215649
 10
446.270421920594
 20
489.068458953693
  0
LWPOLYLINE
  5
2DF8
330
1A
100
AcDbEntity
  8
外形線
100
AcDbPolyline
 90
        8
 70
     0
 43
0.0
 10
446.270421920594
 20
497.481484335209
 10
445.279963247346
 20
497.405015472807
 10
444.323246076096
 20
497.178213915313
 10
443.432862452544
 20
496.808806007515
 10
442.639144667802
 20
496.309376199419
 10
441.969131942124
 20
495.696938337559
 10
441.445649292172
 20
494.992356062087
 10
441.086529961634
 20
494.219632054681
  0
LWPOLYLINE
  5
2DF9
330
1A
100
AcDbEntity
  8
外形線
100
AcDbPolyline
 90
        8
 70
     0
 43
0.0
 10
446.270421920594
 20
513.258108459623
 10
445.261566174252
 20
513.200026755083
 10
444.291216811062
 20
513.027998525663
 10
443.396410488152
 20
512.748589809115
 10
442.611300507656
 20
512.372465181753
 10
441.965853240716
 20
511.913980708915
 10
441.484704359834
 20
511.390635997303
 10
441.186218535306
 20
510.822406263453
  0
LWPOLYLINE
  5
2DFA
330
1A
100
AcDbEntity
  8
外形線
100
AcDbPolyline
 90
       18
 70
     0
 43
0.0
 10
446.270421920594
 20
514.075287222707
 10
445.31699932419
 20
514.023466759995
 10
444.396044390802
 20
513.869770055569
 10
443.538919136124
 20
513.619431066357
 10
442.774811932692
 20
513.280974786389
 10
442.129743534878
 20
512.865926938345
 10
441.625680973294
 20
512.388421478895
 10
441.279789493916
 20
511.864719283757
 10
441.103848016224
 20
511.312654403075
 10
441.103848016224
 20
510.751026744229
 10
441.279789493916
 20
510.198961863547
 10
441.625680973294
 20
509.675259668409
 10
442.129743534878
 20
509.197754208959
 10
442.774811932692
 20
508.782706360917
 10
443.538919136124
 20
508.444250080947
 10
444.396044390802
 20
508.193911091735
 10
445.31699932419
 20
508.040214387309
 10
446.270421920594
 20
507.988393924599
  0
ARC
  5
2DFB
330
1A
100
AcDbEntity
  8
外形線
100
AcDbCircle
 10
465.554500007926
 20
510.964952047331
 30
0.0
 40
3.110335175376
100
AcDbArc
 50
0.0
 51
90.0
  0
ARC
  5
2DFC
330
1A
100
AcDbEntity
  8
外形線
100
AcDbCircle
 10
463.480943224342
 20
511.184551676039
 30
0.0
 40
2.073556783584
100
AcDbArc
 50
0.0
 51
90.0
  0
ARC
  5
2DFD
330
1A
100
AcDbEntity
  8
外形線
100
AcDbCircle
 10
464.517721616134
 20
513.488334878421
 30
0.0
 40
4.147113567168
100
AcDbArc
 50
0.0
 51
87.000000000002
  0
ARC
  5
2DFE
330
1A
100
AcDbEntity
  8
外形線
100
AcDbCircle
 10
440.049751569842
 20
518.836515288989
 30
0.0
 40
1.036778391792
100
AcDbArc
 50
0.0
 51
30.000000000005
  0
LINE
  5
2DFF
330
1A
100
AcDbEntity
  8
外形線
100
AcDbLine
 10
435.487926645958
 20
518.836515288989
 30
0.0
 11
436.006315841854
 21
519.354904484885
 31
0.0
  0
LINE
  5
2E00
330
1A
100
AcDbEntity
  8
外形線
100
AcDbLine
 10
436.006315841854
 20
519.354904484885
 30
0.0
 11
440.947627995228
 21
519.354904484885
 31
0.0
  0
LINE
  5
2E01
330
1A
100
AcDbEntity
  8
外形線
100
AcDbLine
 10
446.270421920594
 20
514.075287222707
 30
0.0
 11
465.554500007926
 21
514.075287222707
 31
0.0
  0
LINE
  5
2E02
330
1A
100
AcDbEntity
  8
外形線
100
AcDbLine
 10
446.270421920594
 20
513.258108459623
 30
0.0
 11
463.480943224342
 21
513.258108459623
 31
0.0
  0
LINE
  5
2E03
330
1A
100
AcDbEntity
  8
外形線
100
AcDbLine
 10
441.086529961634
 20
518.836515288989
 30
0.0
 11
464.734764770318
 21
517.629764970577
 31
0.0
  0
ARC
  5
2E04
330
1A
100
AcDbEntity
  8
外形線
100
AcDbCircle
 10
465.554500007926
 20
504.878058749223
 30
0.0
 40
3.110335175376
100
AcDbArc
 50
0.0
 51
90.0
  0
ARC
  5
2E05
330
1A
100
AcDbEntity
  8
外形線
100
AcDbCircle
 10
463.999332420238
 20
495.926316747521
 30
0.0
 40
1.555167587688
100
AcDbArc
 50
0.0
 51
90.0
  0
LINE
  5
2E06
330
1A
100
AcDbEntity
  8
外形線
100
AcDbLine
 10
468.253961113972
 20
493.038353466071
 30
0.0
 11
465.554500007926
 21
490.994141304305
 31
0.0
  0
ARC
  5
2E07
330
1A
100
AcDbEntity
  8
外形線
100
AcDbCircle
 10
467.62805679151
 20
488.031680561901
 30
0.0
 40
1.036778391792
100
AcDbArc
 50
0.0
 51
90.0
  0
ARC
  5
2E08
330
1A
100
AcDbEntity
  8
外形線
100
AcDbCircle
 10
467.62805679151
 20
493.864884295991
 30
0.0
 40
1.036778391792
100
AcDbArc
 50
307.135436470274
 51
0.0
  0
LINE
  5
2E09
330
1A
100
AcDbEntity
  8
外形線
100
AcDbLine
 10
465.554500007926
 20
495.926316747521
 30
0.0
 11
465.554500007926
 21
489.068458953693
 31
0.0
  0
ARC
  5
2E0A
330
1A
100
AcDbEntity
  8
外形線
100
AcDbCircle
 10
465.554500007926
 20
494.936888032185
 30
0.0
 40
3.110335175376
100
AcDbArc
 50
0.0
 51
90.0
  0
ARC
  5
2E0B
330
1A
100
AcDbEntity
  8
外形線
100
AcDbCircle
 10
467.62805679151
 20
475.291822833725
 30
0.0
 40
1.036778391792
100
AcDbArc
 50
270.0
 51
0.0
  0
LINE
  5
2E0C
330
1A
100
AcDbEntity
  8
外形線
100
AcDbLine
 10
465.554500007926
 20
474.255044441933
 30
0.0
 11
465.554500007926
 21
469.071152482975
 31
0.0
  0
ARC
  5
2E0D
330
1A
100
AcDbEntity
  8
外形線
100
AcDbCircle
 10
467.62805679151
 20
462.850482132223
 30
0.0
 40
1.036778391792
100
AcDbArc
 50
0.0
 51
90.0
  0
LINE
  5
2E0E
330
1A
100
AcDbEntity
  8
外形線
100
AcDbLine
 10
465.554500007926
 20
463.887260524013
 30
0.0
 11
465.554500007926
 21
469.071152482975
 31
0.0
  0
LINE
  5
2E0F
330
1A
100
AcDbEntity
  8
外形線
100
AcDbLine
 10
468.664835183302
 20
488.031680561901
 30
0.0
 11
468.664835183302
 21
475.291822833725
 31
0.0
  0
ARC
  5
2E10
330
1A
100
AcDbEntity
  8
外形線
100
AcDbCircle
 10
446.270421920594
 20
469.071152482975
 30
0.0
 40
5.183891958959999
100
AcDbArc
 50
90.0
 51
180.0
  0
ARC
  5
2E11
330
1A
100
AcDbEntity
  8
外形線
100
AcDbCircle
 10
446.270421920594
 20
469.071152482975
 30
0.0
 40
5.183891958959999
100
AcDbArc
 50
180.0
 51
270.0
  0
LINE
  5
2E12
330
1A
100
AcDbEntity
  8
外形線
100
AcDbLine
 10
446.270421920594
 20
463.887260524013
 30
0.0
 11
467.62805679151
 21
463.887260524013
 31
0.0
  0
LINE
  5
2E13
330
1A
100
AcDbEntity
  8
外形線
100
AcDbLine
 10
446.270421920594
 20
474.255044441933
 30
0.0
 11
467.62805679151
 21
474.255044441933
 31
0.0
  0
LINE
  5
2E14
330
1A
100
AcDbEntity
  8
外形線
100
AcDbLine
 10
446.270421920596
 20
507.988393924599
 30
0.0
 11
465.554500007926
 21
507.988393924599
 31
0.0
  0
LINE
  5
2E15
330
1A
100
AcDbEntity
  8
外形線
100
AcDbLine
 10
446.270421920594
 20
498.047223207561
 30
0.0
 11
465.554500007926
 21
498.047223207561
 31
0.0
  0
LINE
  5
2E16
330
1A
100
AcDbEntity
  8
外形線
100
AcDbLine
 10
446.270421920594
 20
497.481484335209
 30
0.0
 11
463.999332420238
 21
497.481484335209
 31
0.0
  0
LINE
  5
2E17
330
1A
100
AcDbEntity
  8
外形線
100
AcDbLine
 10
446.270421920596
 20
489.068458953693
 30
0.0
 11
467.62805679151
 21
489.068458953693
 31
0.0
  0
LINE
  5
2E19
330
1A
100
AcDbEntity
  8
外形線
100
AcDbLine
 10
441.086529961634
 20
518.836515288989
 30
0.0
 11
441.086529961634
 21
469.071152482975
 31
0.0
  0
LINE
  5
2E1A
330
1A
100
AcDbEntity
  8
外形線
100
AcDbLine
 10
468.664835183302
 20
493.864884295991
 30
0.0
 11
468.664835183302
 21
513.488334878421
 31
0.0
  0
LINE
  5
2E1B
330
1A
100
AcDbEntity
  8
外形線
100
AcDbLine
 10
465.554500007926
 20
511.184551676039
 30
0.0
 11
465.554500007926
 21
507.988393924599
 31
0.0
  0
LINE
  5
2E1C
330
1A
100
AcDbEntity
  8
外形線
100
AcDbLine
 10
388.48792664595
 20
514.043524264345
 30
0.0
 11
388.48792664595
 21
515.207790917717
 31
0.0
  0
LINE
  5
2E1D
330
1A
100
AcDbEntity
  8
外形線
100
AcDbLine
 10
389.524705037742
 20
516.244569309509
 30
0.0
 11
427.349404332656
 21
516.244569309509
 31
0.0
  0
LINE
  5
2E1E
330
1A
100
AcDbEntity
  8
外形線
100
AcDbLine
 10
468.253961113972
 20
445.103951499877
 30
0.0
 11
465.554500007926
 21
447.148163661643
 31
0.0
  0
ARC
  5
2E1F
330
1A
100
AcDbEntity
  8
外形線
100
AcDbCircle
 10
467.62805679151
 20
444.277420669957
 30
0.0
 40
1.036778391792
100
AcDbArc
 50
0.0
 51
52.864563529744
  0
ARC
  5
2E20
330
1A
100
AcDbEntity
  8
外形線
100
AcDbCircle
 10
467.62805679151
 20
450.110624404047
 30
0.0
 40
1.036778391792
100
AcDbArc
 50
270.0
 51
0.0
  0
ARC
  5
2E21
330
1A
100
AcDbEntity
  8
外形線
100
AcDbCircle
 10
465.554500007926
 20
443.205416933763
 30
0.0
 40
3.110335175376
100
AcDbArc
 50
270.0
 51
0.0
  0
LINE
  5
2E22
330
1A
100
AcDbEntity
  8
外形線
100
AcDbLine
 10
465.554500007926
 20
442.215988218427
 30
0.0
 11
465.554500007926
 21
449.073846012255
 31
0.0
  0
ARC
  5
2E23
330
1A
100
AcDbEntity
  8
外形線
100
AcDbCircle
 10
463.999332420238
 20
442.215988218427
 30
0.0
 40
1.555167587688
100
AcDbArc
 50
270.0
 51
0.0
  0
ARC
  5
2E24
330
1A
100
AcDbEntity
  8
外形線
100
AcDbCircle
 10
465.554500007926
 20
433.264246216725
 30
0.0
 40
3.110335175376
100
AcDbArc
 50
270.0
 51
0.0
  0
ARC
  5
2E25
330
1A
100
AcDbEntity
  8
外形線
100
AcDbCircle
 10
465.554500007926
 20
427.177352918617
 30
0.0
 40
3.110335175376
100
AcDbArc
 50
270.0
 51
0.0
  0
LINE
  5
2E26
330
1A
100
AcDbEntity
  8
外形線
100
AcDbLine
 10
465.554500007926
 20
426.957753289909
 30
0.0
 11
465.554500007926
 21
430.153911041349
 31
0.0
  0
ARC
  5
2E27
330
1A
100
AcDbEntity
  8
外形線
100
AcDbCircle
 10
463.480943224342
 20
426.957753289909
 30
0.0
 40
2.073556783584
100
AcDbArc
 50
270.0
 51
0.0
  0
LINE
  5
2E28
330
1A
100
AcDbEntity
  8
外形線
100
AcDbLine
 10
468.664835183302
 20
444.277420669957
 30
0.0
 11
468.664835183302
 21
424.653970087527
 31
0.0
  0
ARC
  5
2E29
330
1A
100
AcDbEntity
  8
外形線
100
AcDbCircle
 10
464.517721616134
 20
424.653970087527
 30
0.0
 40
4.147113567168
100
AcDbArc
 50
272.999999999999
 51
0.0
  0
LWPOLYLINE
  5
2E2A
330
1A
100
AcDbEntity
  8
外形線
100
AcDbPolyline
 90
       18
 70
     0
 43
0.0
 10
446.270421920594
 20
440.095081758387
 10
445.317042002852
 20
440.171522020343
 10
444.396128294758
 20
440.398239724771
 10
443.539041408122
 20
440.767514272165
 10
442.77496840891
 20
441.266770460707
 10
442.129928886704
 20
441.879006719689
 10
441.625888888792
 20
442.583374077609
 10
441.280012892776
 20
443.355886148889
 10
441.104079290864
 20
444.170235961465
 10
441.104079290864
 20
444.998691809177
 10
441.280012892776
 20
445.813041621753
 10
441.625888888792
 20
446.585553693033
 10
442.129928886704
 20
447.289921050953
 10
442.77496840891
 20
447.902157309935
 10
443.539041408122
 20
448.401413498479
 10
444.396128294758
 20
448.770688045871
 10
445.317042002852
 20
448.997405750299
 10
446.270421920594
 20
449.073846012255
  0
LWPOLYLINE
  5
2E2B
330
1A
100
AcDbEntity
  8
外形線
100
AcDbPolyline
 90
        8
 70
     0
 43
0.0
 10
446.270421920594
 20
440.660820630739
 10
445.279963247346
 20
440.737289493141
 10
444.323246076096
 20
440.964091050635
 10
443.432862452544
 20
441.333498958433
 10
442.639144667802
 20
441.832928766529
 10
441.969131942124
 20
442.445366628389
 10
441.445649292172
 20
443.149948903861
 10
441.086529961634
 20
443.922672911267
  0
LWPOLYLINE
  5
2E2C
330
1A
100
AcDbEntity
  8
外形線
100
AcDbPolyline
 90
        8
 70
     0
 43
0.0
 10
446.270421920594
 20
424.884196506325
 10
445.261566174252
 20
424.942278210865
 10
444.291216811062
 20
425.114306440285
 10
443.396410488152
 20
425.393715156833
 10
442.611300507656
 20
425.769839784195
 10
441.965853240716
 20
426.228324257035
 10
441.484704359834
 20
426.751668968645
 10
441.186218535306
 20
427.319898702495
  0
LWPOLYLINE
  5
2E2D
330
1A
100
AcDbEntity
  8
外形線
100
AcDbPolyline
 90
       18
 70
     0
 43
0.0
 10
446.270421920594
 20
424.067017743241
 10
445.31699932419
 20
424.118838205953
 10
444.396044390802
 20
424.272534910379
 10
443.538919136124
 20
424.522873899591
 10
442.774811932692
 20
424.861330179559
 10
442.129743534878
 20
425.276378027603
 10
441.625680973294
 20
425.753883487053
 10
441.279789493916
 20
426.277585682191
 10
441.103848016224
 20
426.829650562873
 10
441.103848016224
 20
427.391278221719
 10
441.279789493916
 20
427.943343102401
 10
441.625680973294
 20
428.467045297539
 10
442.129743534878
 20
428.944550756989
 10
442.774811932692
 20
429.359598605033
 10
443.538919136124
 20
429.698054885001
 10
444.396044390802
 20
429.948393874213
 10
445.31699932419
 20
430.102090578639
 10
446.270421920594
 20
430.153911041349
  0
ARC
  5
2E2E
330
1A
100
AcDbEntity
  8
外形線
100
AcDbCircle
 10
440.049751569842
 20
419.305789676957
 30
0.0
 40
1.036778391792
100
AcDbArc
 50
330.000000000004
 51
0.0
  0
LINE
  5
2E2F
330
1A
100
AcDbEntity
  8
外形線
100
AcDbLine
 10
435.487926645958
 20
419.305789676957
 30
0.0
 11
436.006315841852
 21
418.787400481061
 31
0.0
  0
LINE
  5
2E30
330
1A
100
AcDbEntity
  8
外形線
100
AcDbLine
 10
436.006315841852
 20
418.787400481061
 30
0.0
 11
440.947627995228
 21
418.787400481061
 31
0.0
  0
LINE
  5
2E31
330
1A
100
AcDbEntity
  8
外形線
100
AcDbLine
 10
446.270421920594
 20
440.095081758387
 30
0.0
 11
465.554500007926
 21
440.095081758387
 31
0.0
  0
LINE
  5
2E32
330
1A
100
AcDbEntity
  8
外形線
100
AcDbLine
 10
446.270421920594
 20
440.660820630739
 30
0.0
 11
463.999332420238
 21
440.660820630739
 31
0.0
  0
LINE
  5
2E33
330
1A
100
AcDbEntity
  8
外形線
100
AcDbLine
 10
446.270421920596
 20
430.153911041349
 30
0.0
 11
465.554500007926
 21
430.153911041349
 31
0.0
  0
LINE
  5
2E34
330
1A
100
AcDbEntity
  8
外形線
100
AcDbLine
 10
446.270421920594
 20
424.067017743241
 30
0.0
 11
465.554500007926
 21
424.067017743241
 31
0.0
  0
LINE
  5
2E35
330
1A
100
AcDbEntity
  8
外形線
100
AcDbLine
 10
446.270421920594
 20
424.884196506325
 30
0.0
 11
463.480943224342
 21
424.884196506325
 31
0.0
  0
LINE
  5
2E36
330
1A
100
AcDbEntity
  8
外形線
100
AcDbLine
 10
441.086529961634
 20
419.305789676957
 30
0.0
 11
464.734764770318
 21
420.512539995371
 31
0.0
  0
LINE
  5
2E37
330
1A
100
AcDbEntity
  8
外形線
100
AcDbLine
 10
446.270421920596
 20
449.073846012255
 30
0.0
 11
467.62805679151
 21
449.073846012255
 31
0.0
  0
LINE
  5
2E38
330
1A
100
AcDbEntity
  8
外形線
100
AcDbLine
 10
388.48792664595
 20
424.098780701603
 30
0.0
 11
388.48792664595
 21
422.934514048229
 31
0.0
  0
LINE
  5
2E39
330
1A
100
AcDbEntity
  8
外形線
100
AcDbLine
 10
389.524705037742
 20
421.897735656437
 30
0.0
 11
397.414369862366
 21
421.897735656437
 31
0.0
  0
ARC
  5
2E3A
330
1A
100
AcDbEntity
  8
外形線
100
AcDbCircle
 10
400.772934352082
 20
411.046975986553
 30
0.0
 40
3.110335175376
100
AcDbArc
 50
224.999999999995
 51
259.247872764004
  0
ARC
  5
2E3B
330
1A
100
AcDbEntity
  8
外形線
100
AcDbCircle
 10
400.524705037742
 20
408.973419202969
 30
0.0
 40
1.036778391792
100
AcDbArc
 50
180.0
 51
270.0
  0
LINE
  5
2E3C
330
1A
100
AcDbEntity
  8
外形線
100
AcDbLine
 10
399.48792664595
 20
408.973419202969
 30
0.0
 11
399.48792664595
 21
442.359746708693
 31
0.0
  0
ARC
  5
2E3D
330
1A
100
AcDbEntity
  8
外形線
100
AcDbCircle
 10
397.414369862366
 20
419.824178872853
 30
0.0
 40
2.073556783584
100
AcDbArc
 50
0.0
 51
90.0
  0
LINE
  5
2E3E
330
1A
100
AcDbEntity
  8
外形線
100
AcDbLine
 10
399.48792664595
 20
442.359746708693
 30
0.0
 11
426.92941591772
 21
442.359746708693
 31
0.0
  0
LINE
  5
2E3F
330
1A
100
AcDbEntity
  8
外形線
100
AcDbLine
 10
400.192668630568
 20
407.936640811177
 30
0.0
 11
434.451148254166
 21
407.936640811177
 31
0.0
  0
ARC
  5
2E40
330
1A
100
AcDbEntity
  8
外形線
100
AcDbCircle
 10
434.451148254166
 20
408.973419202969
 30
0.0
 40
1.036778391792
100
AcDbArc
 50
270.0
 51
0.0
  0
LINE
  5
2E42
330
1A
100
AcDbEntity
  8
外形線
100
AcDbLine
 10
435.487926645958
 20
408.973419202969
 30
0.0
 11
435.487926645958
 21
518.397591521459
 31
0.0
  0
LINE
  5
2E43
330
1A
100
AcDbEntity
  8
外形線
100
AcDbLine
 10
430.304034686998
 20
438.196634623563
 30
0.0
 11
430.304034686998
 21
516.765125130071
 31
0.0
  0
LINE
  5
2E44
330
1A
100
AcDbEntity
  8
外形線
100
AcDbLine
 10
388.48792664595
 20
514.043524264345
 30
0.0
 11
388.48792664595
 21
424.098780701603
 31
0.0
  0
LINE
  5
2E46
330
1A
100
AcDbEntity
  8
外形線
100
AcDbLine
 10
441.086529961634
 20
419.305789676957
 30
0.0
 11
441.086529961634
 21
469.071152482975
 31
0.0
  0
LINE
  5
2E47
330
1A
100
AcDbEntity
  8
外形線
100
AcDbLine
 10
468.664835183302
 20
450.110624404047
 30
0.0
 11
468.664835183302
 21
462.850482132223
 31
0.0
  0
LINE
  5
2E48
330
1A
100
AcDbEntity
  8
外形線
100
AcDbLine
 10
384.909302014824
 20
425.525135305759
 30
0.0
 11
384.909302014824
 21
424.293892272885
 31
0.0
  0
ARC
  5
2E49
330
1A
100
AcDbEntity
  8
外形線
100
AcDbCircle
 10
381.798966839448
 20
425.525135305759
 30
0.0
 40
3.110335175376
100
AcDbArc
 50
0.0
 51
54.999999999999
  0
LINE
  5
2E4A
330
1A
100
AcDbEntity
  8
外形線
100
AcDbLine
 10
367.54835847632
 20
501.936640811177
 30
0.0
 11
367.54835847632
 21
436.436640811177
 31
0.0
  0
ARC
  5
2E4B
330
1A
100
AcDbEntity
  8
外形線
100
AcDbCircle
 10
387.451148254158
 20
424.098780701603
 30
0.0
 40
1.036778391792
100
AcDbArc
 50
0.0
 51
54.999999999999
  0
ARC
  5
2E4C
330
1A
100
AcDbEntity
  8
外形線
100
AcDbCircle
 10
389.524705037742
 20
422.934514048229
 30
0.0
 40
1.036778391792
100
AcDbArc
 50
180.0
 51
270.0
  0
ARC
  5
2E4D
330
1A
100
AcDbEntity
  8
外形線
100
AcDbCircle
 10
387.451148254158
 20
514.043524264345
 30
0.0
 40
1.036778391792
100
AcDbArc
 50
305.000000000002
 51
0.0
  0
ARC
  5
2E4E
330
1A
100
AcDbEntity
  8
外形線
100
AcDbCircle
 10
389.524705037742
 20
515.207790917717
 30
0.0
 40
1.036778391792
100
AcDbArc
 50
90.0
 51
180.0
  0
LINE
  5
2FA3
330
1A
100
AcDbEntity
  8
下書線
100
AcDbLine
 10
102.42675518331
 20
546.553990464103
 30
0.0
 11
501.483151402889
 21
546.553990464103
 31
0.0
  0
DIMENSION
  5
3002
330
1A
100
AcDbEntity
  8
寸法線
 48
10.0
100
AcDbDimension
  2
*D6
 10
488.058988652513
 20
382.909800811177
 30
0.0
 11
488.058988652513
 21
428.805398366828
 31
0.0
 70
   160
  1
89
  3
ISO-25
100
AcDbAlignedDimension
 13
468.664081678798
 23
469.186640811177
 33
0.0
 14
425.928908442367
 24
382.909800811177
 34
0.0
 50
90.0
100
AcDbRotatedDimension
1001
ACAD
1000
DSTYLE
1002
{
1070
     5
1000
OPEN30
1070
    41
1040
6.0
1070
    47
1040
0.1
1070
    48
1040
0.1
1070
    73
1070
     0
1070
   140
1040
8.0
1070
   271
1070
     1
1070
   272
1070
     1
1070
   341
1005
2AF4
1002
}
  0
DIMENSION
  5
300F
330
1A
100
AcDbEntity
  8
寸法線
 48
10.0
100
AcDbDimension
  2
*D7
 10
509.742022482611
 20
519.354904484885
 30
0.0
 11
505.117022482611
 21
469.071152482973
 31
0.0
 70
    32
  1
φ100
  3
ISO-25
100
AcDbAlignedDimension
 13
440.947627995228
 23
418.787400481061
 33
0.0
 14
440.947627995228
 24
519.354904484885
 34
0.0
 50
90.0
100
AcDbRotatedDimension
1001
ACAD
1000
DSTYLE
1002
{
1070
     5
1000
OPEN30
1070
    41
1040
6.0
1070
    47
1040
0.1
1070
    48
1040
0.1
1070
    73
1070
     0
1070
   140
1040
8.0
1070
   271
1070
     1
1070
   272
1070
     1
1070
   341
1005
2AF4
1002
}
  0
LINE
  5
3081
330
1A
100
AcDbEntity
  8
中心線
 48
10.0
100
AcDbLine
 10
222.98763111377
 20
469.186640811177
 30
0.0
 11
468.664081678798
 21
469.186640811177
 31
0.0
  0
MTEXT
  5
30E8
330
1A
100
AcDbEntity
  8
寸法線
 48
10.0
100
AcDbMText
 10
488.487163678091
 20
378.449043786958
 30
0.0
 40
8.0
 41
54.634281616298
 71
     1
 72
     5
  1
コードロック\P2×M20
  0
LEADER
  5
30EA
330
1A
100
AcDbEntity
  8
寸法線
 48
10.0
100
AcDbLeader
  3
ISO-25
 76
     3
 10
430.904664178895
 20
393.209242094167
 30
0.0
 10
486.956485347852
 20
356.86006243878
 30
0.0
 10
500.518971084065
 20
356.86006243878
 30
0.0
213
-20.71363044456029
223
0.0
233
0.0
1001
ACAD
1000
DSTYLE
1002
{
1070
     5
1000
OPEN30
1070
   147
1040
0.625
1070
    77
1070
     0
1070
    41
1040
6.0
1070
    47
1040
0.1
1070
    48
1040
0.1
1070
    73
1070
     0
1070
   140
1040
5.0
1070
   271
1070
     1
1070
   272
1070
     1
1070
   341
1005
2AF4
1070
   342
1005
2AF4
1002
}
  0
MTEXT
  5
30ED
102
{ACAD_XDICTIONARY
360
4687
102
}
330
1A
100
AcDbEntity
  8
寸法線
 48
10.0
100
AcDbMText
 10
389.054235678294
 20
393.550207192795
 30
0.0
 40
8.0
 41
43.585115063315
 71
     3
 72
     5
  1
2×NPT 1/2"
1001
ACADANNOTATIVE
1000
AnnotativeData
1002
{
1070
     1
1070
     0
1002
}
  0
MTEXT
  5
30F0
102
{ACAD_XDICTIONARY
360
44EB
102
}
330
1A
100
AcDbEntity
  8
寸法線
 48
10.0
100
AcDbMText
 10
438.958483181555
 20
546.853990464103
 30
0.0
 40
8.0
 41
52.299095688858
 71
     7
 72
     5
  1
アルミ鋳物
1001
ACADANNOTATIVE
1000
AnnotativeData
1002
{
1070
     1
1070
     0
1002
}
  0
MTEXT
  5
30F2
102
{ACAD_XDICTIONARY
360
44E8
102
}
330
1A
100
AcDbEntity
  8
寸法線
 48
10.0
100
AcDbMText
 10
385.650526692104
 20
546.853990464103
 30
0.0
 40
8.0
 41
32.682938326441
 71
     7
 72
     5
  1
平径41
1001
ACADANNOTATIVE
1000
AnnotativeData
1002
{
1070
     1
1070
     0
1002
}
  0
MTEXT
  5
30F5
102
{ACAD_XDICTIONARY
360
44E5
102
}
330
1A
100
AcDbEntity
  8
寸法線
 48
10.0
100
AcDbMText
 10
324.828203542291
 20
546.853990464103
 30
0.0
 40
8.0
 41
133.333333333333
 71
     7
 72
     5
  1
ガスケット
1001
ACADANNOTATIVE
1000
AnnotativeData
1002
{
1070
     1
1070
     0
1002
}
  0
LEADER
  5
30FB
330
1A
100
AcDbEntity
  8
寸法線
 48
10.0
100
AcDbLeader
  3
ISO-25
 76
     3
 10
408.437054685199
 20
516.244569309509
 30
0.0
 10
438.990001880947
 20
546.553990464103
 30
0.0
 10
450.918296594292
 20
546.553990464103
 30
0.0
213
-34.1351723827305
223
0.0
233
0.0
1001
ACAD
1000
DSTYLE
1002
{
1070
     5
1000
OPEN30
1070
   147
1040
0.625
1070
    77
1070
     0
1070
    41
1040
6.0
1070
    47
1040
0.1
1070
    48
1040
0.1
1070
    73
1070
     0
1070
   140
1040
5.0
1070
   271
1070
     1
1070
   272
1070
     1
1070
   341
1005
2AF4
1070
   342
1005
2AF4
1002
}
  0
LEADER
  5
30FC
330
1A
100
AcDbEntity
  8
寸法線
 48
10.0
100
AcDbLeader
  3
ISO-25
 76
     3
 10
360.904020909022
 20
492.858001847951
 30
0.0
 10
385.703509557515
 20
546.553990464103
 30
0.0
 10
398.474234221462
 20
546.553990464103
 30
0.0
213
-18.23957144590628
223
0.0
233
0.0
1001
ACAD
1000
DSTYLE
1002
{
1070
     5
1000
OPEN30
1070
   147
1040
0.625
1070
    77
1070
     0
1070
    41
1040
6.0
1070
    47
1040
0.1
1070
    48
1040
0.1
1070
    73
1070
     0
1070
   140
1040
5.0
1070
   271
1070
     1
1070
   272
1070
     1
1070
   341
1005
2AF4
1070
   342
1005
2AF4
1002
}
  0
LEADER
  5
30FD
330
1A
100
AcDbEntity
  8
寸法線
 48
10.0
100
AcDbLeader
  3
ISO-25
 76
     3
 10
353.620076740352
 20
491.486640811176
 30
0.0
 10
324.756003322843
 20
546.553990464103
 30
0.0
 10
338.263931543288
 20
546.553990464103
 30
0.0
213
-32.68842738864976
223
0.0
233
0.0
1001
ACAD
1000
DSTYLE
1002
{
1070
     5
1000
OPEN30
1070
   147
1040
0.625
1070
    77
1070
     0
1070
    41
1040
6.0
1070
    47
1040
0.1
1070
    48
1040
0.1
1070
    73
1070
     0
1070
   140
1040
5.0
1070
   271
1070
     1
1070
   272
1070
     1
1070
   341
1005
2AF4
1070
   342
1005
2AF4
1002
}
  0
LEADER
  5
30FE
330
1A
100
AcDbEntity
  8
寸法線
 48
10.0
100
AcDbLeader
  3
ISO-25
 76
     3
 10
342.91669718331
 20
485.686640811177
 30
0.0
 10
296.968703280318
 20
546.553990464103
 30
0.0
 10
286.647279145986
 20
546.553990464103
 30
0.0
213
32.51685889565113
223
0.0
233
0.0
1001
ACAD
1000
DSTYLE
1002
{
1070
     5
1000
OPEN30
1070
   147
1040
0.625
1070
    77
1070
     0
1070
    41
1040
6.0
1070
    47
1040
0.1
1070
    48
1040
0.1
1070
    73
1070
     0
1070
   140
1040
5.0
1070
   271
1070
     1
1070
   272
1070
     1
1070
   341
1005
2AF4
1070
   342
1005
2AF4
1002
}
  0
LEADER
  5
3104
330
1A
100
AcDbEntity
  8
寸法線
 48
10.0
100
AcDbLeader
  3
ISO-25
 76
     3
 10
242.116699595768
 20
481.476863765103
 30
0.0
 10
218.453042360692
 20
546.853990464103
 30
0.0
 10
200.026688050249
 20
546.853990464103
 30
0.0
213
84.00926324558762
223
0.0
233
0.0
1001
ACAD
1000
DSTYLE
1002
{
1070
     5
1000
OPEN30
1070
   147
1040
0.625
1070
    77
1070
     0
1070
    41
1040
6.0
1070
    47
1040
0.1
1070
    48
1040
0.1
1070
    73
1070
     0
1070
   140
1040
5.0
1070
   271
1070
     1
1070
   272
1070
     1
1070
   341
1005
2AF4
1070
   342
1005
2AF4
1002
}
  0
LINE
  5
32A9
330
1A
100
AcDbEntity
  8
細線
100
AcDbLine
 10
424.821908442367
 20
401.156640811177
 30
0.0
 11
424.821908442367
 21
406.256640811177
 31
0.0
  0
LINE
  5
32AA
330
1A
100
AcDbEntity
  8
細線
100
AcDbLine
 10
422.821908442367
 20
401.156640811177
 30
0.0
 11
422.821908442367
 21
406.256640811177
 31
0.0
  0
LINE
  5
32AB
330
1A
100
AcDbEntity
  8
細線
100
AcDbLine
 10
411.821908442367
 20
401.156640811177
 30
0.0
 11
411.821908442367
 21
406.256640811177
 31
0.0
  0
LINE
  5
32AC
330
1A
100
AcDbEntity
  8
細線
100
AcDbLine
 10
409.821908442367
 20
401.156640811177
 30
0.0
 11
409.821908442367
 21
406.256640811177
 31
0.0
  0
LINE
  5
32AD
330
1A
100
AcDbEntity
  8
外形線
100
AcDbLine
 10
430.798658442367
 20
398.619840811177
 30
0.0
 11
430.798658442367
 21
388.245872970013
 31
0.0
  0
LINE
  5
32AE
330
1A
100
AcDbEntity
  8
外形線
100
AcDbLine
 10
429.552908442367
 20
387.249540811177
 30
0.0
 11
430.798658442367
 21
388.318620811177
 31
0.0
  0
ARC
  5
32AF
330
1A
100
AcDbEntity
  8
細線
100
AcDbCircle
 10
427.810283442366
 20
391.84498712514
 30
0.0
 40
4.622298618747672
100
AcDbArc
 50
229.720808613669
 51
310.279191386337
  0
ARC
  5
32B0
330
1A
100
AcDbEntity
  8
外形線
100
AcDbCircle
 10
425.928908442367
 20
386.533800811177
 30
0.0
 40
3.624
100
AcDbArc
 50
270.0
 51
0.0
  0
LINE
  5
32B1
330
1A
100
AcDbEntity
  8
外形線
100
AcDbLine
 10
429.552908442367
 20
386.533800811177
 30
0.0
 11
429.552908442367
 21
387.249540811177
 31
0.0
  0
LINE
  5
32B2
330
1A
100
AcDbEntity
  8
外形線
100
AcDbLine
 10
430.821908442367
 20
406.256640811177
 30
0.0
 11
430.821908442367
 21
401.156640811177
 31
0.0
  0
LINE
  5
32B3
330
1A
100
AcDbEntity
  8
細線
100
AcDbLine
 10
422.821908442367
 20
388.318620811177
 30
0.0
 11
422.821908442367
 21
398.619840811177
 31
0.0
  0
LINE
  5
32B4
330
1A
100
AcDbEntity
  8
細線
100
AcDbLine
 10
424.821908442367
 20
388.318620811177
 30
0.0
 11
424.821908442367
 21
398.619840811177
 31
0.0
  0
LINE
  5
32B5
330
1A
100
AcDbEntity
  8
細線
100
AcDbLine
 10
425.475908442367
 20
398.619840811177
 30
0.0
 11
425.475908442367
 21
401.156640811177
 31
0.0
  0
LINE
  5
32B6
330
1A
100
AcDbEntity
  8
外形線
100
AcDbLine
 10
426.381908442367
 20
398.619840811177
 30
0.0
 11
426.381908442367
 21
401.156640811177
 31
0.0
  0
LINE
  5
32B7
330
1A
100
AcDbEntity
  8
細線
100
AcDbLine
 10
426.321908442367
 20
407.936640811177
 30
0.0
 11
426.321908442367
 21
406.256640811177
 31
0.0
  0
LINE
  5
32B8
330
1A
100
AcDbEntity
  8
外形線
100
AcDbLine
 10
427.321908442367
 20
406.256640811177
 30
0.0
 11
427.321908442367
 21
407.936640811177
 31
0.0
  0
LINE
  5
32B9
330
1A
100
AcDbEntity
  8
細線
100
AcDbLine
 10
408.321908442367
 20
407.936640811177
 30
0.0
 11
408.321908442367
 21
406.256640811177
 31
0.0
  0
LINE
  5
32BA
330
1A
100
AcDbEntity
  8
細線
100
AcDbLine
 10
409.167908442367
 20
398.619840811177
 30
0.0
 11
409.167908442367
 21
401.156640811177
 31
0.0
  0
LINE
  5
32BB
330
1A
100
AcDbEntity
  8
外形線
100
AcDbLine
 10
407.321908442367
 20
406.256640811177
 30
0.0
 11
407.321908442367
 21
407.936640811177
 31
0.0
  0
ARC
  5
32BC
330
1A
100
AcDbEntity
  8
外形線
100
AcDbCircle
 10
408.714908442367
 20
386.533800811177
 30
0.0
 40
3.624
100
AcDbArc
 50
180.0
 51
270.0
  0
ARC
  5
32BD
330
1A
100
AcDbEntity
  8
細線
100
AcDbCircle
 10
406.833533442367
 20
391.84498712514
 30
0.0
 40
4.622298618747632
100
AcDbArc
 50
229.72080861366
 51
310.279191386331
  0
LINE
  5
32BE
330
1A
100
AcDbEntity
  8
外形線
100
AcDbLine
 10
405.090908442367
 20
387.249540811177
 30
0.0
 11
403.845158442367
 21
388.318620811177
 31
0.0
  0
LINE
  5
32BF
330
1A
100
AcDbEntity
  8
外形線
100
AcDbLine
 10
405.090908442367
 20
386.533800811177
 30
0.0
 11
405.090908442367
 21
387.249540811177
 31
0.0
  0
LINE
  5
32C0
330
1A
100
AcDbEntity
  8
外形線
100
AcDbLine
 10
408.261908442367
 20
398.619840811177
 30
0.0
 11
408.261908442367
 21
401.156640811177
 31
0.0
  0
LINE
  5
32C1
330
1A
100
AcDbEntity
  8
外形線
100
AcDbLine
 10
403.845158442367
 20
398.619840811177
 30
0.0
 11
403.845158442367
 21
388.318620811177
 31
0.0
  0
LINE
  5
32C2
330
1A
100
AcDbEntity
  8
外形線
100
AcDbLine
 10
403.845158442367
 20
398.619840811177
 30
0.0
 11
430.798658442367
 21
398.619840811177
 31
0.0
  0
LINE
  5
32C3
330
1A
100
AcDbEntity
  8
外形線
100
AcDbLine
 10
403.821908442367
 20
406.256640811177
 30
0.0
 11
403.821908442367
 21
401.156640811177
 31
0.0
  0
LINE
  5
32C4
330
1A
100
AcDbEntity
  8
細線
100
AcDbLine
 10
411.821908442367
 20
388.318620811177
 30
0.0
 11
411.821908442367
 21
398.619840811177
 31
0.0
  0
LINE
  5
32C5
330
1A
100
AcDbEntity
  8
細線
100
AcDbLine
 10
409.821908442367
 20
388.318620811177
 30
0.0
 11
409.821908442367
 21
398.619840811177
 31
0.0
  0
LINE
  5
32C6
330
1A
100
AcDbEntity
  8
外形線
100
AcDbLine
 10
403.821908442367
 20
401.156640811177
 30
0.0
 11
430.821908442367
 21
401.156640811177
 31
0.0
  0
LINE
  5
32C7
330
1A
100
AcDbEntity
  8
外形線
100
AcDbLine
 10
430.821908442367
 20
406.256640811177
 30
0.0
 11
403.821908442367
 21
406.256640811177
 31
0.0
  0
ARC
  5
32C8
330
1A
100
AcDbEntity
  8
細線
100
AcDbCircle
 10
417.321908442367
 20
401.916770569043
 30
0.0
 40
14.668322222986
100
AcDbArc
 50
247.978303068449
 51
292.021696931551
  0
LINE
  5
32C9
330
1A
100
AcDbEntity
  8
細線
100
AcDbLine
 10
422.821908442367
 20
388.318620811177
 30
0.0
 11
424.821908442367
 21
388.318620811177
 31
0.0
  0
LINE
  5
32CA
330
1A
100
AcDbEntity
  8
細線
100
AcDbLine
 10
409.821908442367
 20
388.318620811177
 30
0.0
 11
411.821908442366
 21
388.318620811177
 31
0.0
  0
LINE
  5
32CB
330
1A
100
AcDbEntity
  8
外形線
100
AcDbLine
 10
408.714908442367
 20
382.909800811177
 30
0.0
 11
425.928908442367
 21
382.909800811177
 31
0.0
  0
LINE
  5
32CC
330
1A
100
AcDbEntity
  8
細線
100
AcDbLine
 10
405.090908442367
 20
387.249540811177
 30
0.0
 11
429.481526104373
 21
387.249540811177
 31
0.0
  0
LINE
  5
32CD
330
1A
100
AcDbEntity
  8
中心線
 48
10.0
100
AcDbLine
 10
417.321908442367
 20
407.936640811177
 30
0.0
 11
417.321908442367
 21
374.829212811177
 31
0.0
  0
LEADER
  5
34F2
330
1A
100
AcDbEntity
  8
寸法線
 48
10.0
100
AcDbLeader
  3
ISO-25
 76
     2
 10
407.977630608164
 20
423.710177877163
 30
0.0
 10
390.558114223119
 20
371.686640811177
 30
0.0
1001
ACAD
1000
DSTYLE
1002
{
1070
     5
1000
OPEN30
1070
   147
1040
0.625
1070
    77
1070
     0
1070
    41
1040
6.0
1070
    47
1040
0.1
1070
    48
1040
0.1
1070
    73
1070
     0
1070
   140
1040
5.0
1070
   271
1070
     1
1070
   272
1070
     1
1070
   341
1005
2AF4
1070
   342
1005
2AF4
1002
}
  0
LINE
  5
34F3
330
1A
100
AcDbEntity
  8
寸法線
 48
10.0
100
AcDbLine
 10
377.543664059362
 20
371.686640811177
 30
0.0
 11
390.558114223119
 21
371.686640811177
 31
0.0
  0
MTEXT
  5
398E
102
{ACAD_XDICTIONARY
360
44DE
102
}
330
1A
100
AcDbEntity
  8
寸法線
 48
10.0
100
AcDbMText
 10
295.888015774597
 20
546.853990464103
 30
0.0
 40
8.0
 41
0.0
 71
     9
 72
     1
  1
取付ねじ\PG1"
1001
ACADANNOTATIVE
1000
AnnotativeData
1002
{
1070
     1
1070
     0
1002
}
  0
LINE
  5
3A86
330
1A
100
AcDbEntity
  8
外形線
  6
CONTINUOUS
 62
     7
100
AcDbLine
 10
307.40526247632
 20
462.629145765102
 30
0.0
 11
312.02418847632
 21
464.686641765102
 31
0.0
  0
LINE
  5
3A87
330
1A
100
AcDbEntity
  8
外形線
  6
CONTINUOUS
 62
     7
100
AcDbLine
 10
307.40526247632
 20
456.896417765103
 30
0.0
 11
315.40541447632
 21
459.203303765102
 31
0.0
  0
ARC
  5
3A88
330
1A
100
AcDbEntity
  8
外形線
  6
CONTINUOUS
 62
     7
100
AcDbCircle
 10
326.14836447632
 20
466.086633765102
 30
0.0
 40
1.4
100
AcDbArc
 50
270.0
 51
359.999982399901
  0
ARC
  5
3A89
330
1A
100
AcDbEntity
  8
外形線
  6
CONTINUOUS
 62
     7
100
AcDbCircle
 10
326.14836447632
 20
457.803309765102
 30
0.0
 40
1.4
100
AcDbArc
 50
0.0
 51
90.000038571813
  0
LINE
  5
3A8A
330
1A
100
AcDbEntity
  8
外形線
  6
CONTINUOUS
 62
     7
100
AcDbLine
 10
315.40541447632
 20
459.203303765102
 30
0.0
 11
326.14836447632
 21
459.203303765102
 31
0.0
  0
LINE
  5
3A8B
330
1A
100
AcDbEntity
  8
外形線
  6
CONTINUOUS
 62
     7
100
AcDbLine
 10
312.02418847632
 20
464.686641765102
 30
0.0
 11
326.14836447632
 21
464.686641765102
 31
0.0
  0
ARC
  5
3A8C
330
1A
100
AcDbEntity
  8
外形線
  6
CONTINUOUS
 62
     7
100
AcDbCircle
 10
264.54835847632
 20
459.458063765103
 30
0.0
 40
0.6
100
AcDbArc
 50
260.089779324614
 51
0.0
  0
LINE
  5
3A8D
330
1A
100
AcDbEntity
  8
外形線
  6
CONTINUOUS
 62
     7
100
AcDbLine
 10
259.75374247632
 20
459.686641765102
 30
0.0
 11
264.44508847632
 21
458.866999765103
 31
0.0
  0
ARC
  5
3A8E
330
1A
100
AcDbEntity
  8
外形線
  6
CONTINUOUS
 62
     7
100
AcDbCircle
 10
237.54835847632
 20
458.896417765103
 30
0.0
 40
2.0
100
AcDbArc
 50
180.00001984784
 51
270.0
  0
LINE
  5
3A8F
330
1A
100
AcDbEntity
  8
外形線
  6
CONTINUOUS
 62
     7
100
AcDbLine
 10
235.54835847632
 20
459.686641765102
 30
0.0
 11
235.54835847632
 21
458.896417765103
 31
0.0
  0
LINE
  5
3A90
330
1A
100
AcDbEntity
  8
外形線
  6
CONTINUOUS
 62
     7
100
AcDbLine
 10
259.75374247632
 20
461.686641765102
 30
0.0
 11
265.14836447632
 21
462.629145765103
 31
0.0
  0
LINE
  5
3A91
330
1A
100
AcDbEntity
  8
外形線
  6
CONTINUOUS
 62
     7
100
AcDbLine
 10
307.40526247632
 20
462.629145765102
 30
0.0
 11
265.14836447632
 21
462.629145765103
 31
0.0
  0
LINE
  5
3A92
330
1A
100
AcDbEntity
  8
外形線
  6
CONTINUOUS
 62
     7
100
AcDbLine
 10
265.14836447632
 20
462.629145765103
 30
0.0
 11
265.14836447632
 21
459.458063765103
 31
0.0
  0
LINE
  5
3A93
330
1A
100
AcDbEntity
  8
外形線
  6
CONTINUOUS
 62
     7
100
AcDbLine
 10
259.75374247632
 20
461.686641765102
 30
0.0
 11
228.34834647632
 21
461.686641765103
 31
0.0
  0
LINE
  5
3A94
330
1A
100
AcDbEntity
  8
外形線
  6
CONTINUOUS
 62
     7
100
AcDbLine
 10
259.75374247632
 20
459.686641765102
 30
0.0
 11
228.34834647632
 21
459.686641765103
 31
0.0
  0
LINE
  5
3A95
330
1A
100
AcDbEntity
  8
外形線
  6
CONTINUOUS
 62
     7
100
AcDbLine
 10
307.40526247632
 20
456.896417765103
 30
0.0
 11
237.54835847632
 21
456.896417765103
 31
0.0
  0
ARC
  5
3A96
330
1A
100
AcDbEntity
  8
外形線
  6
CONTINUOUS
 62
     7
100
AcDbCircle
 10
264.54835847632
 20
478.915217765103
 30
0.0
 40
0.6
100
AcDbArc
 50
0.0
 51
99.910260371072
  0
ARC
  5
3A97
330
1A
100
AcDbEntity
  8
外形線
  6
CONTINUOUS
 62
     7
100
AcDbCircle
 10
228.34834647632
 20
477.486627765103
 30
0.0
 40
0.8
100
AcDbArc
 50
180.00001984784
 51
270.0
  0
ARC
  5
3A98
330
1A
100
AcDbEntity
  8
外形線
  6
CONTINUOUS
 62
     7
100
AcDbCircle
 10
228.34834647632
 20
477.886653765103
 30
0.0
 40
0.8
100
AcDbArc
 50
89.999981276034
 51
180.00001984784
  0
LINE
  5
3A99
330
1A
100
AcDbEntity
  8
外形線
  6
CONTINUOUS
 62
     7
100
AcDbLine
 10
259.75374247632
 20
478.686641765102
 30
0.0
 11
264.44508847632
 21
479.506281765103
 31
0.0
  0
LINE
  5
3A9A
330
1A
100
AcDbEntity
  8
外形線
  6
CONTINUOUS
 62
     7
100
AcDbLine
 10
307.40526247632
 20
475.744135765102
 30
0.0
 11
312.02418847632
 21
473.686641765102
 31
0.0
  0
LINE
  5
3A9B
330
1A
100
AcDbEntity
  8
外形線
  6
CONTINUOUS
 62
     7
100
AcDbLine
 10
307.40526247632
 20
481.476863765102
 30
0.0
 11
315.40541447632
 21
479.169977765102
 31
0.0
  0
ARC
  5
3A9C
330
1A
100
AcDbEntity
  8
外形線
  6
CONTINUOUS
 62
     7
100
AcDbCircle
 10
326.14836447632
 20
472.286647765102
 30
0.0
 40
1.4
100
AcDbArc
 50
0.0
 51
89.999981276027
  0
ARC
  5
3A9D
330
1A
100
AcDbEntity
  8
外形線
  6
CONTINUOUS
 62
     7
100
AcDbCircle
 10
326.14836447632
 20
480.569971765102
 30
0.0
 40
1.4
100
AcDbArc
 50
270.0
 51
0.0
  0
LINE
  5
3A9E
330
1A
100
AcDbEntity
  8
外形線
  6
CONTINUOUS
 62
     7
100
AcDbLine
 10
315.40541447632
 20
479.169977765102
 30
0.0
 11
326.14836447632
 21
479.169977765102
 31
0.0
  0
ARC
  5
3A9F
330
1A
100
AcDbEntity
  8
外形線
  6
CONTINUOUS
 62
     7
100
AcDbCircle
 10
237.54835847632
 20
479.476863765103
 30
0.0
 40
2.0
100
AcDbArc
 50
89.999981276027
 51
180.00001984784
  0
LINE
  5
3AA0
330
1A
100
AcDbEntity
  8
外形線
  6
CONTINUOUS
 62
     7
100
AcDbLine
 10
235.54835847632
 20
478.686641765102
 30
0.0
 11
235.54835847632
 21
479.476863765103
 31
0.0
  0
LINE
  5
3AA1
330
1A
100
AcDbEntity
  8
外形線
  6
CONTINUOUS
 62
     7
100
AcDbLine
 10
259.75374247632
 20
476.686641765102
 30
0.0
 11
265.14836447632
 21
475.744135765103
 31
0.0
  0
LINE
  5
3AA2
330
1A
100
AcDbEntity
  8
外形線
  6
CONTINUOUS
 62
     7
100
AcDbLine
 10
307.40526247632
 20
475.744135765102
 30
0.0
 11
265.14836447632
 21
475.744135765103
 31
0.0
  0
LINE
  5
3AA3
330
1A
100
AcDbEntity
  8
外形線
  6
CONTINUOUS
 62
     7
100
AcDbLine
 10
312.02418847632
 20
473.686641765102
 30
0.0
 11
326.14836447632
 21
473.686641765102
 31
0.0
  0
LINE
  5
3AA4
330
1A
100
AcDbEntity
  8
外形線
  6
CONTINUOUS
 62
     7
100
AcDbLine
 10
265.14836447632
 20
475.744135765103
 30
0.0
 11
265.14836447632
 21
478.915217765103
 31
0.0
  0
LINE
  5
3AA5
330
1A
100
AcDbEntity
  8
外形線
  6
CONTINUOUS
 62
     7
100
AcDbLine
 10
227.54835847632
 20
477.886653765103
 30
0.0
 11
227.54835847632
 21
477.486627765103
 31
0.0
  0
LINE
  5
3AA6
330
1A
100
AcDbEntity
  8
外形線
  6
CONTINUOUS
 62
     7
100
AcDbLine
 10
259.75374247632
 20
476.686641765102
 30
0.0
 11
228.34834647632
 21
476.686641765103
 31
0.0
  0
LINE
  5
3AA7
330
1A
100
AcDbEntity
  8
外形線
  6
CONTINUOUS
 62
     7
100
AcDbLine
 10
259.75374247632
 20
478.686641765102
 30
0.0
 11
228.34834647632
 21
478.686641765103
 31
0.0
  0
LINE
  5
3AA8
330
1A
100
AcDbEntity
  8
外形線
  6
CONTINUOUS
 62
     7
100
AcDbLine
 10
307.40526247632
 20
481.476863765102
 30
0.0
 11
237.54835847632
 21
481.476863765103
 31
0.0
  0
LINE
  5
3AA9
330
1A
100
AcDbEntity
  8
外形線
  6
CONTINUOUS
 62
     7
100
AcDbLine
 10
227.54835847632
 20
460.886653765103
 30
0.0
 11
227.54835847632
 21
460.486627765103
 31
0.0
  0
ARC
  5
3AAA
330
1A
100
AcDbEntity
  8
外形線
  6
CONTINUOUS
 62
     7
100
AcDbCircle
 10
228.34834647632
 20
460.886653765103
 30
0.0
 40
0.8
100
AcDbArc
 50
89.999981276034
 51
180.00001984784
  0
ARC
  5
3AAB
330
1A
100
AcDbEntity
  8
外形線
  6
CONTINUOUS
 62
     7
100
AcDbCircle
 10
228.34834647632
 20
460.486627765103
 30
0.0
 40
0.8
100
AcDbArc
 50
180.00001984784
 51
270.0
  0
LINE
  5
3AAC
330
1A
100
AcDbEntity
  8
外形線
100
AcDbLine
 10
327.54835847632
 20
455.186640811177
 30
0.0
 11
339.54835847632
 21
455.186640811177
 31
0.0
  0
LINE
  5
3AAD
330
1A
100
AcDbEntity
  8
外形線
100
AcDbLine
 10
351.54835847632
 20
452.686640811177
 30
0.0
 11
339.54835847632
 21
452.686640811177
 31
0.0
  0
LINE
  5
3AAE
330
1A
100
AcDbEntity
  8
細線
100
AcDbLine
 10
351.54835847632
 20
453.686640811177
 30
0.0
 11
339.54835847632
 21
453.686640811177
 31
0.0
  0
LINE
  5
3AAF
330
1A
100
AcDbEntity
  8
外形線
 62
     0
100
AcDbLine
 10
351.54835847632
 20
453.686640811177
 30
0.0
 11
351.54835847632
 21
452.686640811177
 31
0.0
  0
ARC
  5
3AB0
330
1A
100
AcDbEntity
  8
外形線
 62
     0
100
AcDbCircle
 10
352.54835847632
 20
452.936640811177
 30
0.0
 40
1.25
100
AcDbArc
 50
90.0
 51
143.130102354153
  0
LINE
  5
3AB1
330
1A
100
AcDbEntity
  8
細線
100
AcDbLine
 10
351.54835847632
 20
484.686640811177
 30
0.0
 11
351.54835847632
 21
453.686640811177
 31
0.0
  0
LINE
  5
3AB2
330
1A
100
AcDbEntity
  8
細線
100
AcDbLine
 10
351.54835847632
 20
484.686640811177
 30
0.0
 11
339.54835847632
 21
484.686640811177
 31
0.0
  0
ARC
  5
3AB3
330
1A
100
AcDbEntity
  8
外形線
 62
     0
100
AcDbCircle
 10
352.54835847632
 20
485.436640811177
 30
0.0
 40
1.25
100
AcDbArc
 50
216.869897645847
 51
270.0
  0
LINE
  5
3AB4
330
1A
100
AcDbEntity
  8
外形線
100
AcDbLine
 10
327.54835847632
 20
483.186640811177
 30
0.0
 11
339.54835847632
 21
483.186640811177
 31
0.0
  0
LINE
  5
3AB5
330
1A
100
AcDbEntity
  8
外形線
100
AcDbLine
 10
327.54835847632
 20
483.186640811177
 30
0.0
 11
327.54835847632
 21
455.186640811177
 31
0.0
  0
DIMENSION
  5
3AB7
330
1A
100
AcDbEntity
  8
寸法線
 48
10.0
100
AcDbDimension
  2
*D8
 10
212.583763693111
 20
461.686653765102
 30
0.0
 11
207.958763693111
 21
469.186640765102
 31
0.0
 70
    32
  3
ISO-25
100
AcDbAlignedDimension
 13
226.777027267304
 23
476.686627765102
 33
0.0
 14
226.777027267304
 24
461.686653765102
 34
0.0
 50
270.0
100
AcDbRotatedDimension
1001
ACAD
1000
DSTYLE
1002
{
1070
     5
1000
OPEN30
1070
    41
1040
4.3
1070
    47
1040
0.1
1070
    48
1040
0.1
1070
    73
1070
     0
1070
   140
1040
8.0
1070
   271
1070
     1
1070
   272
1070
     1
1070
   341
1005
2AF4
1002
}
  0
LINE
  5
3AB8
330
1A
100
AcDbEntity
  8
外形線
100
AcDbLine
 10
339.54835847632
 20
485.686640811177
 30
0.0
 11
339.54835847632
 21
452.686640811177
 31
0.0
  0
LINE
  5
3AB9
330
1A
100
AcDbEntity
  8
外形線
100
AcDbLine
 10
351.54835847632
 20
485.686640811177
 30
0.0
 11
339.54835847632
 21
485.686640811177
 31
0.0
  0
LINE
  5
3ABA
330
1A
100
AcDbEntity
  8
外形線
 62
     0
100
AcDbLine
 10
351.54835847632
 20
484.686640811177
 30
0.0
 11
351.54835847632
 21
485.686640811177
 31
0.0
  0
LINE
  5
3DF0
330
1A
100
AcDbEntity
  8
外形線
 48
10.0
100
AcDbLine
 10
354.54835847632
 20
449.186640811177
 30
0.0
 11
354.54835847632
 21
489.186640811177
 31
0.0
  0
ARC
  5
3EC4
330
1A
100
AcDbEntity
  8
細線
100
AcDbCircle
 10
388.684351013054
 20
469.702881379073
 30
0.0
 40
33.677772310861
100
AcDbArc
 50
160.473379823367
 51
180.878311188663
  0
ARC
  5
3EC5
330
1A
100
AcDbEntity
  8
細線
100
AcDbCircle
 10
333.412365939586
 20
469.702881379073
 30
0.0
 40
33.677772310861
100
AcDbArc
 50
359.121688811344
 51
19.526620176633
  0
LINE
  5
3EC6
330
1A
100
AcDbEntity
  8
外形線
100
AcDbLine
 10
367.54835847632
 20
488.686640811177
 30
0.0
 11
367.54835847632
 21
449.686640811177
 31
0.0
  0
ARC
  5
3EC7
330
1A
100
AcDbEntity
  8
細線
100
AcDbCircle
 10
333.412365939586
 20
468.670400243281
 30
0.0
 40
33.677772310861
100
AcDbArc
 50
340.473379823367
 51
0.878311188663
  0
ARC
  5
3EC8
330
1A
100
AcDbEntity
  8
細線
100
AcDbCircle
 10
388.684351013054
 20
468.670400243281
 30
0.0
 40
33.677772310861
100
AcDbArc
 50
179.121688811337
 51
199.526620176633
  0
ARC
  5
3EC9
330
1A
100
AcDbEntity
  8
細線
100
AcDbCircle
 10
356.350096448464
 20
451.472228856439
 30
0.0
 40
10.62058168446546
100
AcDbArc
 50
325.706282430462
 51
34.016906058748
  0
ARC
  5
3ECA
330
1A
100
AcDbEntity
  8
細線
100
AcDbCircle
 10
364.831484136562
 20
451.278706467799
 30
0.0
 40
9.99295941604506
100
AcDbArc
 50
142.125085915839
 51
215.222189321404
  0
LINE
  5
3ECB
330
1A
100
AcDbEntity
  8
外形線
100
AcDbLine
 10
365.14002205885
 20
445.515279774403
 30
0.0
 11
356.668019759194
 21
445.515279774403
 31
0.0
  0
LINE
  5
3ECC
330
1A
100
AcDbEntity
  8
外形線
100
AcDbLine
 10
354.54835847632
 20
449.186640811177
 30
0.0
 11
356.668019759194
 21
445.515279774403
 31
0.0
  0
LINE
  5
3ECD
330
1A
100
AcDbEntity
  8
外形線
100
AcDbLine
 10
367.54835847632
 20
449.686640811177
 30
0.0
 11
365.14002205885
 21
445.515279774403
 31
0.0
  0
LINE
  5
3ECE
330
1A
100
AcDbEntity
  8
細線
100
AcDbLine
 10
365.204780392092
 20
457.336640811177
 30
0.0
 11
356.891936560548
 21
457.336640811177
 31
0.0
  0
ARC
  5
3ECF
330
1A
100
AcDbEntity
  8
細線
100
AcDbCircle
 10
364.831484136562
 20
487.094575154555
 30
0.0
 40
9.99295941604506
100
AcDbArc
 50
144.777810678596
 51
217.874914084161
  0
ARC
  5
3ED0
330
1A
100
AcDbEntity
  8
細線
100
AcDbCircle
 10
356.350096448464
 20
486.901052765915
 30
0.0
 40
10.62058168446546
100
AcDbArc
 50
325.983093941252
 51
34.293717569538
  0
LINE
  5
3ED1
330
1A
100
AcDbEntity
  8
細線
100
AcDbLine
 10
365.204780392092
 20
481.036640811177
 30
0.0
 11
356.891936560548
 21
481.036640811177
 31
0.0
  0
LINE
  5
3ED2
330
1A
100
AcDbEntity
  8
外形線
100
AcDbLine
 10
365.14002205885
 20
492.858001847951
 30
0.0
 11
356.668019759194
 21
492.858001847951
 31
0.0
  0
LINE
  5
3ED3
330
1A
100
AcDbEntity
  8
外形線
100
AcDbLine
 10
354.54835847632
 20
489.186640811177
 30
0.0
 11
356.668019759194
 21
492.858001847951
 31
0.0
  0
LINE
  5
3ED4
330
1A
100
AcDbEntity
  8
外形線
100
AcDbLine
 10
367.54835847632
 20
488.686640811177
 30
0.0
 11
365.14002205885
 21
492.858001847951
 31
0.0
  0
CIRCLE
  5
3ED5
330
1A
100
AcDbEntity
  8
外形線
100
AcDbCircle
 10
361.04835847632
 20
469.186640811177
 30
0.0
 40
2.39999999999998
  0
MTEXT
  5
3EE8
330
1A
100
AcDbEntity
  8
寸法線
 48
10.0
100
AcDbMText
 10
167.089730216276
 20
218.198978022868
 30
0.0
 40
8.0
 41
95.557777777778
 71
     1
 72
     5
  1
{\C1;（NO）}
  0
MTEXT
  5
3EE9
330
1A
100
AcDbEntity
  8
寸法線
 48
10.0
100
AcDbMText
 10
116.040150991441
 20
218.198978022868
 30
0.0
 40
8.0
 41
95.557777777778
 71
     1
 72
     5
  1
{\C1;（NC）}
  0
MTEXT
  5
3EEA
330
1A
100
AcDbEntity
  8
寸法線
 48
10.0
100
AcDbMText
 10
171.256091779652
 20
230.110459184246
 30
0.0
 40
8.0
 41
95.557777777778
 71
     1
 72
     5
  1
{\C1;NC}
  0
MTEXT
  5
3EEB
330
1A
100
AcDbEntity
  8
寸法線
 48
10.0
100
AcDbMText
 10
148.638390583247
 20
230.110459184246
 30
0.0
 40
8.0
 41
95.557777777778
 71
     1
 72
     5
  1
{\C1;C}
  0
MTEXT
  5
3EEC
330
1A
100
AcDbEntity
  8
寸法線
 48
10.0
100
AcDbMText
 10
120.139416206256
 20
230.110459184246
 30
0.0
 40
8.0
 41
95.557777777778
 71
     1
 72
     5
  1
{\C1;NO}
  0
MTEXT
  5
3EED
330
1A
100
AcDbEntity
  8
寸法線
 48
10.0
100
AcDbMText
 10
95.876637628759
 20
230.110459184246
 30
0.0
 40
8.0
 41
95.557777777778
 71
     1
 72
     5
  1
{\C1;L1}
  0
MTEXT
  5
3EEE
330
1A
100
AcDbEntity
  8
寸法線
 48
10.0
100
AcDbMText
 10
69.982960925413
 20
230.110459184246
 30
0.0
 40
8.0
 41
95.557777777778
 71
     1
 72
     5
  1
{\C1;N}
  0
MTEXT
  5
3EEF
330
1A
100
AcDbEntity
  8
寸法線
 48
10.0
100
AcDbMText
 10
42.222119674977
 20
230.110459184246
 30
0.0
 40
8.0
 41
95.557777777778
 71
     1
 72
     5
  1
{\C1;PE}
  0
MTEXT
  5
3EF0
330
1A
100
AcDbEntity
  8
寸法線
 48
10.0
100
AcDbMText
 10
175.420479846504
 20
284.962756804455
 30
0.0
 40
7.0
 41
95.557777777778
 71
     1
 72
     5
  1
{\C1;9}
  0
MTEXT
  5
3EF1
330
1A
100
AcDbEntity
  8
寸法線
 48
10.0
100
AcDbMText
 10
149.819677586453
 20
284.962756804455
 30
0.0
 40
7.0
 41
95.557777777778
 71
     1
 72
     5
  1
{\C1;8}
  0
MTEXT
  5
3EF2
330
1A
100
AcDbEntity
  8
寸法線
 48
10.0
100
AcDbMText
 10
123.237341987632
 20
284.962756804455
 30
0.0
 40
7.0
 41
95.557777777778
 71
     1
 72
     5
  1
{\C1;7}
  0
MTEXT
  5
3EF3
330
1A
100
AcDbEntity
  8
寸法線
 48
10.0
100
AcDbMText
 10
97.252530916665
 20
284.962756804455
 30
0.0
 40
7.0
 41
95.557777777778
 71
     1
 72
     5
  1
{\C1;3}
  0
MTEXT
  5
3EF4
330
1A
100
AcDbEntity
  8
寸法線
 48
10.0
100
AcDbMText
 10
70.829442730791
 20
284.962756804455
 30
0.0
 40
7.0
 41
95.557777777778
 71
     1
 72
     5
  1
{\C1;2}
  0
MTEXT
  5
3EF5
330
1A
100
AcDbEntity
  8
寸法線
 48
10.0
100
AcDbMText
 10
44.809721938768
 20
284.962756804455
 30
0.0
 40
7.0
 41
95.557777777778
 71
     1
 72
     5
  1
{\C1;1}
  0
MTEXT
  5
3EF6
330
1A
100
AcDbEntity
  8
寸法線
 48
10.0
100
AcDbMText
 10
41.592575776571
 20
319.627629560815
 30
0.0
 40
8.0
 41
95.557777777778
 71
     1
 72
     5
  1
{\C1;RFM-301}
  0
LINE
  5
3EF7
330
1A
100
AcDbEntity
  8
寸法線
100
AcDbLine
 10
111.609354825859
 20
272.756195115792
 30
0.0
 11
111.609354825859
 21
264.336195115793
 31
0.0
  0
LINE
  5
3EF8
330
1A
100
AcDbEntity
  8
寸法線
100
AcDbLine
 10
111.609354825859
 20
275.156195115792
 30
0.0
 11
111.609354825859
 21
279.156195115792
 31
0.0
  0
LINE
  5
3EF9
330
1A
100
AcDbEntity
  8
寸法線
100
AcDbLine
 10
113.609354825859
 20
277.156195115792
 30
0.0
 11
109.609354825859
 21
277.156195115792
 31
0.0
  0
LINE
  5
3EFA
330
1A
100
AcDbEntity
  8
寸法線
100
AcDbLine
 10
116.00935482586
 20
272.756195115792
 30
0.0
 11
116.00935482586
 21
281.556195115793
 31
0.0
  0
LINE
  5
3EFB
330
1A
100
AcDbEntity
  8
寸法線
100
AcDbLine
 10
107.209354825859
 20
272.756195115792
 30
0.0
 11
107.209354825859
 21
281.556195115793
 31
0.0
  0
CIRCLE
  5
3EFC
330
1A
100
AcDbEntity
  8
寸法線
100
AcDbCircle
 10
111.609354825859
 20
277.156195115792
 30
0.0
 40
4.40000000000004
  0
POINT
  5
3EFD
330
1A
100
AcDbEntity
  8
寸法線
100
AcDbPoint
 10
111.609354825859
 20
277.156195115792
 30
0.0
  0
LINE
  5
3EFE
330
1A
100
AcDbEntity
  8
寸法線
100
AcDbLine
 10
107.209354825859
 20
281.556195115793
 30
0.0
 11
116.00935482586
 21
281.556195115793
 31
0.0
  0
LINE
  5
3EFF
330
1A
100
AcDbEntity
  8
寸法線
100
AcDbLine
 10
110.709354825859
 20
257.256195115792
 30
0.0
 11
112.78935482586
 21
257.256195115792
 31
0.0
  0
LINE
  5
3F00
330
1A
100
AcDbEntity
  8
寸法線
100
AcDbLine
 10
109.48935482586
 20
258.996195115792
 30
0.0
 11
113.90935482586
 21
258.996195115792
 31
0.0
  0
LINE
  5
3F01
330
1A
100
AcDbEntity
  8
寸法線
100
AcDbLine
 10
107.949354825859
 20
260.796195115793
 30
0.0
 11
115.469354825859
 21
260.796195115793
 31
0.0
  0
CIRCLE
  5
3F02
330
1A
100
AcDbEntity
  8
寸法線
100
AcDbCircle
 10
111.609354825859
 20
259.336195115793
 30
0.0
 40
5.0
  0
LINE
  5
3F03
330
1A
100
AcDbEntity
  8
寸法線
100
AcDbLine
 10
111.609354825859
 20
264.336195115793
 30
0.0
 11
111.609354825859
 21
260.796195115793
 31
0.0
  0
POINT
  5
3F04
330
1A
100
AcDbEntity
  8
寸法線
100
AcDbPoint
 10
111.609354825859
 20
272.756195115792
 30
0.0
  0
LINE
  5
3F05
330
1A
100
AcDbEntity
  8
寸法線
100
AcDbLine
 10
163.889354825859
 20
315.956195115792
 30
0.0
 11
177.00935482586
 21
315.956195115792
 31
0.0
  0
LINE
  5
3F06
330
1A
100
AcDbEntity
  8
寸法線
100
AcDbLine
 10
150.689864381294
 20
301.149825672864
 30
0.0
 11
165.049420701941
 21
317.356195115793
 31
0.0
  0
LINE
  5
3F07
330
1A
100
AcDbEntity
  8
寸法線
100
AcDbLine
 10
141.918702412001
 20
315.956195115792
 30
0.0
 11
124.689354825859
 21
315.956195115792
 31
0.0
  0
CIRCLE
  5
3F08
330
1A
100
AcDbEntity
  8
寸法線
100
AcDbCircle
 10
150.849354825859
 20
299.156195115792
 30
0.0
 40
2.0
  0
LINE
  5
3F09
330
1A
100
AcDbEntity
  8
寸法線
100
AcDbLine
 10
124.689354825859
 20
287.756195115792
 30
0.0
 11
124.689354825859
 21
315.956195115792
 31
0.0
  0
LINE
  5
3F0A
330
1A
100
AcDbEntity
  8
寸法線
100
AcDbLine
 10
150.849354825859
 20
287.756195115792
 30
0.0
 11
150.849354825859
 21
297.156195115792
 31
0.0
  0
LINE
  5
3F0B
330
1A
100
AcDbEntity
  8
寸法線
100
AcDbLine
 10
177.00935482586
 20
287.556195115793
 30
0.0
 11
177.00935482586
 21
315.956195115792
 31
0.0
  0
LINE
  5
3F0C
330
1A
100
AcDbEntity
  8
寸法線
100
AcDbLine
 10
37.00935482586
 20
270.756195115792
 30
0.0
 11
186.209354825859
 21
270.756195115792
 31
0.0
  0
LINE
  5
3F0D
330
1A
100
AcDbEntity
  8
寸法線
100
AcDbLine
 10
186.209354825859
 20
270.756195115792
 30
0.0
 11
186.209354825859
 21
324.756195115792
 31
0.0
  0
LINE
  5
3F0E
330
1A
100
AcDbEntity
  8
寸法線
100
AcDbLine
 10
37.00935482586
 20
324.756195115792
 30
0.0
 11
186.209354825859
 21
324.756195115792
 31
0.0
  0
LINE
  5
3F0F
330
1A
100
AcDbEntity
  8
寸法線
100
AcDbLine
 10
37.00935482586
 20
270.756195115792
 30
0.0
 11
37.00935482586
 21
324.756195115792
 31
0.0
  0
CIRCLE
  5
3F10
330
1A
100
AcDbEntity
  8
寸法線
100
AcDbCircle
 10
177.209354825859
 20
281.756195115792
 30
0.0
 40
5.0
  0
CIRCLE
  5
3F11
330
1A
100
AcDbEntity
  8
寸法線
100
AcDbCircle
 10
151.00935482586
 20
281.756195115792
 30
0.0
 40
5.0
  0
CIRCLE
  5
3F12
330
1A
100
AcDbEntity
  8
寸法線
100
AcDbCircle
 10
124.809354825859
 20
281.756195115792
 30
0.0
 40
5.0
  0
CIRCLE
  5
3F13
330
1A
100
AcDbEntity
  8
寸法線
100
AcDbCircle
 10
98.609354825859
 20
281.756195115792
 30
0.0
 40
5.0
  0
CIRCLE
  5
3F14
330
1A
100
AcDbEntity
  8
寸法線
100
AcDbCircle
 10
72.40935482586
 20
281.756195115792
 30
0.0
 40
5.0
  0
CIRCLE
  5
3F15
330
1A
100
AcDbEntity
  8
寸法線
100
AcDbCircle
 10
46.00935482586
 20
281.756195115792
 30
0.0
 40
5.0
  0
LINE
  5
3F16
330
1A
100
AcDbEntity
  8
寸法線
100
AcDbLine
 10
184.209354825859
 20
272.756195115792
 30
0.0
 11
179.00935482586
 21
272.756195115792
 31
0.0
  0
LINE
  5
3F17
330
1A
100
AcDbEntity
  8
寸法線
100
AcDbLine
 10
152.849354825859
 20
272.756195115792
 30
0.0
 11
175.00935482586
 21
272.756195115792
 31
0.0
  0
LINE
  5
3F18
330
1A
100
AcDbEntity
  8
寸法線
100
AcDbLine
 10
126.689354825859
 20
272.756195115792
 30
0.0
 11
148.849354825859
 21
272.756195115792
 31
0.0
  0
LINE
  5
3F19
330
1A
100
AcDbEntity
  8
寸法線
100
AcDbLine
 10
100.52935482586
 20
272.756195115792
 30
0.0
 11
122.689354825859
 21
272.756195115792
 31
0.0
  0
LINE
  5
3F1A
330
1A
100
AcDbEntity
  8
寸法線
100
AcDbLine
 10
74.369354825859
 20
272.756195115792
 30
0.0
 11
96.52935482586
 21
272.756195115792
 31
0.0
  0
LINE
  5
3F1B
330
1A
100
AcDbEntity
  8
寸法線
100
AcDbLine
 10
48.209354825859
 20
272.756195115792
 30
0.0
 11
70.369354825859
 21
272.756195115792
 31
0.0
  0
LINE
  5
3F1C
330
1A
100
AcDbEntity
  8
寸法線
100
AcDbLine
 10
44.209354825859
 20
272.756195115792
 30
0.0
 11
39.00935482586
 21
272.756195115792
 31
0.0
  0
LINE
  5
3F1D
330
1A
100
AcDbEntity
  8
寸法線
100
AcDbLine
 10
150.849354825859
 20
270.756195115792
 30
0.0
 11
150.849354825859
 21
232.756195115792
 31
0.0
  0
LINE
  5
3F1E
330
1A
100
AcDbEntity
  8
寸法線
100
AcDbLine
 10
124.689354825859
 20
270.756195115792
 30
0.0
 11
124.689354825859
 21
232.756195115792
 31
0.0
  0
LINE
  5
3F1F
330
1A
100
AcDbEntity
  8
寸法線
100
AcDbLine
 10
98.52935482586
 20
270.756195115792
 30
0.0
 11
98.52935482586
 21
232.756195115792
 31
0.0
  0
LINE
  5
3F20
330
1A
100
AcDbEntity
  8
寸法線
100
AcDbLine
 10
72.369354825859
 20
270.756195115792
 30
0.0
 11
72.369354825859
 21
232.756195115792
 31
0.0
  0
CIRCLE
  5
3F21
330
1A
100
AcDbEntity
  8
寸法線
100
AcDbCircle
 10
177.00935482586
 20
272.756195115792
 30
0.0
 40
2.0
  0
CIRCLE
  5
3F22
330
1A
100
AcDbEntity
  8
寸法線
100
AcDbCircle
 10
150.849354825859
 20
272.756195115792
 30
0.0
 40
2.0
  0
CIRCLE
  5
3F23
330
1A
100
AcDbEntity
  8
寸法線
100
AcDbCircle
 10
124.689354825859
 20
272.756195115792
 30
0.0
 40
2.0
  0
CIRCLE
  5
3F24
330
1A
100
AcDbEntity
  8
寸法線
100
AcDbCircle
 10
98.52935482586
 20
272.756195115792
 30
0.0
 40
2.0
  0
CIRCLE
  5
3F25
330
1A
100
AcDbEntity
  8
寸法線
100
AcDbCircle
 10
72.369354825859
 20
272.756195115792
 30
0.0
 40
2.0
  0
CIRCLE
  5
3F26
330
1A
100
AcDbEntity
  8
寸法線
100
AcDbCircle
 10
46.209354825859
 20
272.756195115792
 30
0.0
 40
2.0
  0
LINE
  5
3F27
330
1A
100
AcDbEntity
  8
寸法線
100
AcDbLine
 10
177.00935482586
 20
270.756195115792
 30
0.0
 11
177.00935482586
 21
232.756195115792
 31
0.0
  0
LINE
  5
3F28
330
1A
100
AcDbEntity
  8
寸法線
100
AcDbLine
 10
46.209354825859
 20
270.756195115792
 30
0.0
 11
46.209354825859
 21
232.756195115792
 31
0.0
  0
LINE
  5
3F29
330
1A
100
AcDbEntity
  8
寸法線
100
AcDbLine
 10
39.00935482586
 20
322.756195115792
 30
0.0
 11
39.00935482586
 21
272.756195115792
 31
0.0
  0
LINE
  5
3F2A
330
1A
100
AcDbEntity
  8
寸法線
100
AcDbLine
 10
184.209354825859
 20
322.756195115792
 30
0.0
 11
39.00935482586
 21
322.756195115792
 31
0.0
  0
LINE
  5
3F2B
330
1A
100
AcDbEntity
  8
寸法線
100
AcDbLine
 10
184.209354825859
 20
322.756195115792
 30
0.0
 11
184.209354825859
 21
272.756195115792
 31
0.0
  0
MTEXT
  5
3F2C
102
{ACAD_XDICTIONARY
360
44E2
102
}
330
1A
100
AcDbEntity
  8
寸法線
 48
10.0
100
AcDbMText
 10
218.47347753977
 20
547.153990464103
 30
0.0
 40
8.0
 41
204.622222222222
 71
     9
 72
     5
  1
振動部（検知部）\PEN1.4404(SUS316相当)
1001
ACADANNOTATIVE
1000
AnnotativeData
1002
{
1070
     1
1070
     0
1002
}
  0
DIMENSION
  5
3FCF
330
1A
100
AcDbEntity
  8
寸法線
 48
10.0
100
AcDbDimension
  2
*D9
 10
333.54835847632
 20
455.186640811177
 30
0.0
 11
333.139099134723
 21
435.854897347539
 31
0.0
 70
   160
  1
%%C28
  3
ISO-25
100
AcDbAlignedDimension
 13
333.54835847632
 23
483.186640811177
 33
0.0
 14
333.54835847632
 24
455.186640811177
 34
0.0
 50
90.0
100
AcDbRotatedDimension
1001
ACAD
1000
DSTYLE
1002
{
1070
   287
1070
     4
1070
     5
1000
OPEN30
1070
    41
1040
6.0
1070
    47
1040
0.1
1070
    48
1040
0.1
1070
    73
1070
     0
1070
   140
1040
8.0
1070
   271
1070
     1
1070
   272
1070
     1
1070
   279
1070
     1
1070
   341
1005
2AF4
1002
}
  0
LINE
  5
400C
330
1A
100
AcDbEntity
  8
外形線
100
AcDbLine
 10
354.54835847632
 20
452.186640811177
 30
0.0
 11
354.54835847632
 21
486.186640811177
 31
0.0
  0
LINE
  5
400D
330
1A
100
AcDbEntity
  8
外形線
100
AcDbLine
 10
354.54835847632
 20
452.186640811177
 30
0.0
 11
354.54835847632
 21
446.886640811177
 31
0.0
  0
LINE
  5
400E
330
1A
100
AcDbEntity
  8
外形線
100
AcDbLine
 10
352.691795004383
 20
491.486640811176
 30
0.0
 11
352.691795004383
 21
446.886640811177
 31
0.0
  0
LINE
  5
400F
330
1A
100
AcDbEntity
  8
外形線
100
AcDbLine
 10
354.54835847632
 20
446.886640811177
 30
0.0
 11
352.691795004383
 21
446.886640811177
 31
0.0
  0
LINE
  5
4010
330
1A
100
AcDbEntity
  8
外形線
100
AcDbLine
 10
354.54835847632
 20
486.186640811177
 30
0.0
 11
354.54835847632
 21
491.486640811176
 31
0.0
  0
LINE
  5
4011
330
1A
100
AcDbEntity
  8
外形線
100
AcDbLine
 10
354.54835847632
 20
491.486640811176
 30
0.0
 11
352.691795004383
 21
491.486640811176
 31
0.0
  0
DIMENSION
  5
4036
330
1A
100
AcDbEntity
  8
寸法線
 48
10.0
100
AcDbDimension
  2
*D10
 10
468.664835183302
 20
356.86006243878
 30
0.0
 11
411.606596829811
 21
361.48506243878
 31
0.0
 70
    32
  1
111
  3
ISO-25
100
AcDbAlignedDimension
 13
354.54835847632
 23
446.886640811177
 33
0.0
 14
468.664835183302
 24
424.653970087527
 34
0.0
100
AcDbRotatedDimension
1001
ACAD
1000
DSTYLE
1002
{
1070
     5
1000
OPEN30
1070
    41
1040
6.0
1070
    47
1040
0.1
1070
    48
1040
0.1
1070
    73
1070
     0
1070
   140
1040
8.0
1070
   271
1070
     1
1070
   272
1070
     1
1070
   341
1005
2AF4
1002
}
  0
DIMENSION
  5
4043
330
1A
100
AcDbEntity
  8
寸法線
 48
10.0
100
AcDbDimension
  2
*D11
 10
354.54835847632
 20
356.86006243878
 30
0.0
 11
291.04835847632
 21
361.485849840355
 31
0.0
 70
    32
  1
125
  3
ISO-25
100
AcDbAlignedDimension
 13
227.54835847632
 23
460.486627765103
 33
0.0
 14
354.54835847632
 24
446.886640811177
 34
0.0
100
AcDbRotatedDimension
1001
ACAD
1000
DSTYLE
1002
{
1070
     5
1000
OPEN30
1070
    41
1040
6.0
1070
    47
1040
0.1
1070
    48
1040
0.1
1070
    73
1070
     0
1070
   140
1040
8.0
1070
   271
1070
     1
1070
   272
1070
     1
1070
   341
1005
2AF4
1002
}
  0
DIMENSION
  5
4086
330
1A
100
AcDbEntity
  8
寸法線
 48
10.0
100
AcDbDimension
  2
*D12
 10
354.54835847632
 20
411.192462968738
 30
0.0
 11
347.04835847632
 21
415.817462968738
 31
0.0
 70
    32
  3
ISO-25
100
AcDbAlignedDimension
 13
339.54835847632
 23
452.686640811177
 33
0.0
 14
354.54835847632
 24
446.886640811177
 34
0.0
100
AcDbRotatedDimension
1001
ACAD
1000
DSTYLE
1002
{
1070
     5
1000
OPEN30
1070
    41
1040
6.0
1070
    47
1040
0.1
1070
    48
1040
0.1
1070
    73
1070
     0
1070
   140
1040
8.0
1070
   271
1070
     1
1070
   272
1070
     1
1070
   341
1005
2AF4
1002
}
  0
VIEWPORT
  5
422B
330
1A
100
AcDbEntity
  8
図枠太線
 48
10.0
100
AcDbViewport
 10
827.562690966028
 20
-26.103658374877
 30
0.0
 40
400.0
 41
240.0
 68
     1
 69
     1
1001
ACAD
1000
MVIEW
1002
{
1070
    16
1010
0.0
1020
0.0
1030
0.0
1010
0.0
1020
0.0
1030
1.0
1040
0.0
1040
480.0
1040
301.031516704551
1040
378.693891563303
1040
50.0
1040
0.0
1040
0.0
1070
     0
1070
   100
1070
     0
1070
     0
1070
     0
1070
     0
1070
     0
1070
     0
1040
0.0
1040
0.0
1040
0.0
1040
1.0
1040
1.0
1040
0.0
1040
0.0
1070
     0
1002
{
1002
}
1002
}
  0
MTEXT
  5
428A
330
1A
100
AcDbEntity
  8
寸法線
 48
10.0
100
AcDbMText
 10
217.873610207728
 20
277.812806043212
 30
0.0
 40
7.0
 41
125.633939393939
 71
     1
 72
     5
  1
{\C1;：グランド\P：電源\P：電源\P：コモン\P：オープン（クローズ）\P：クローズ（オープン）}
  0
MTEXT
  5
428B
330
1A
100
AcDbEntity
  8
寸法線
 48
10.0
100
AcDbMText
 10
205.983417407992
 20
277.812806043212
 30
0.0
 40
7.0
 41
125.633939393939
 71
     1
 72
     5
  1
{\C1;PE\PN\PL1\PC\PNO\PNC}
  0
MTEXT
  5
42BD
102
{ACAD_XDICTIONARY
360
42BE
102
}
330
1A
100
AcDbEntity
  8
寸法線
 48
10.0
100
AcDbMText
 10
203.667627359226
 20
310.316669695954
 30
0.0
 40
8.0
 41
124.815667100994
 71
     1
 72
     5
  1
電源電圧：AC20～255V　　　　　　：DC20～60V
1001
ACADANNOTATIVE
1000
AnnotativeData
1002
{
1070
     1
1070
     0
1002
}
  0
LINE
  5
44E1
330
1A
100
AcDbEntity
  8
下書線
100
AcDbLine
 10
102.42675518331
 20
546.853990464103
 30
0.0
 11
501.483151402889
 21
546.853990464103
 31
0.0
  0
VIEWPORT
  5
2902
330
28FB
100
AcDbEntity
 67
     1
  8
0
 48
10.0
100
AcDbViewport
 10
0.0
 20
0.0
 30
0.0
 40
552.319156214367
 41
300.3
 68
     1
 69
     1
1001
ACAD
1000
MVIEW
1002
{
1070
    16
1010
0.0
1020
0.0
1030
0.0
1010
0.0
1020
0.0
1030
1.0
1040
0.0
1040
300.3
1040
205.756503333333
1040
143.551503333333
1040
50.0
1040
0.0
1040
0.0
1070
    16
1070
   100
1070
     0
1070
     1
1070
     0
1070
     0
1070
     0
1070
     0
1040
0.0
1040
0.0
1040
0.0
1040
10.0
1040
10.0
1040
10.0
1040
10.0
1070
     0
1002
{
1002
}
1002
}
  0
VIEWPORT
  5
2904
330
28FB
100
AcDbEntity
 67
     1
  8
図枠太線
 48
10.0
100
AcDbViewport
 10
204.746305129083
 20
161.396645458131
 30
0.0
 40
400.0
 41
240.0
 68
     2
 69
     2
1001
ACAD
1000
MVIEW
1002
{
1070
    16
1010
0.0
1020
0.0
1030
0.0
1010
0.0
1020
0.0
1030
1.0
1040
0.0
1040
480.000000000002
1040
293.589656239434
1040
400.93448327145
1040
50.0
1040
0.0
1040
0.0
1070
    16
1070
   100
1070
     0
1070
     0
1070
     0
1070
     0
1070
     0
1070
     0
1040
0.0
1040
0.0
1040
0.0
1040
1.0
1040
1.0
1040
0.0
1040
0.0
1070
     0
1002
{
1002
}
1002
}
  0
INSERT
  5
2A59
330
28FB
100
AcDbEntity
 67
     1
  8
図枠太線
100
AcDbBlockReference
  2
A3横用_タイトル
 10
-0.352109406709
 20
-2.129314295396
 30
0.0
  0
MTEXT
  5
2FE3
330
28FB
100
AcDbEntity
 67
     1
  8
寸法線
 48
10.0
100
AcDbMText
 10
149.281561913196
 20
13.738838105692
 30
0.0
 40
7.0
 41
10.579051054442
 71
     1
 72
     5
  1
1:2
  0
MTEXT
  5
2FE7
330
28FB
100
AcDbEntity
 67
     1
  8
寸法線
 48
10.0
100
AcDbMText
 10
312.604602487298
 20
32.24042583589
 30
0.0
 40
6.0
 41
53.647044270833
 71
     1
 72
     5
  1
RFM-301-0
  0
MTEXT
  5
2FE8
330
28FB
100
AcDbEntity
 67
     1
  8
寸法線
 48
10.0
100
AcDbMText
 10
363.257693177112
 20
37.807266065601
 30
0.0
 40
6.0
 41
50.761524795071
 71
     1
 72
     5
  1
{\H0.8333x;振動式\Pレベルスイッチ}
  0
MTEXT
  5
3100
330
28FB
100
AcDbEntity
 67
     1
  8
寸法線
 48
10.0
100
AcDbMText
 10
272.300488718679
 20
48.787921847374
 30
0.0
 40
5.0
 41
58.550841599714
 71
     1
 72
     5
  1
A3縮小図
  0
LINE
  5
3101
330
28FB
100
AcDbEntity
 67
     1
  8
寸法線
 48
10.0
100
AcDbLine
 10
272.300488718679
 20
42.916202519738
 30
0.0
 11
296.843718665885
 21
42.916202519738
 31
0.0
  0
MTEXT
  5
342E
102
{ACAD_XDICTIONARY
360
43D0
102
}
330
28FB
100
AcDbEntity
 67
     1
  8
寸法線
 48
10.0
100
AcDbMText
 10
373.043268393803
 20
48.421959027116
 30
0.0
 40
5.0
 41
54.683098362957
 71
     1
 72
     5
  1
\C1;台数 　 台
1001
ACADANNOTATIVE
1000
AnnotativeData
1002
{
1070
     1
1070
     0
1002
}
  0
MTEXT
  5
40B6
102
{ACAD_XDICTIONARY
360
41C9
102
}
330
28FB
100
AcDbEntity
 67
     1
  8
寸法線
 48
10.0
100
AcDbMText
 10
341.94155459007
 20
14.068431962007
 30
0.0
 40
7.0
 41
68.56
 71
     1
 72
     5
  1
HVR-2003
1001
ACADANNOTATIVE
1000
AnnotativeData
1002
{
1070
     1
1070
     0
1002
}
  0
MTEXT
  5
446F
102
{ACAD_XDICTIONARY
360
4470
102
}
330
28FB
100
AcDbEntity
 67
     1
  8
寸法線
 48
10.0
100
AcDbMText
 10
175.506541278264
 20
12.819600893732
 30
0.0
 40
5.0
 41
60.244444444444
 71
     1
 72
     5
  1
2015.8.25
1001
ACADANNOTATIVE
1000
AnnotativeData
1002
{
1070
     1
1070
     0
1002
}
  0
MTEXT
  5
4473
102
{ACAD_XDICTIONARY
360
4474
102
}
330
28FB
100
AcDbEntity
 67
     1
  8
寸法線
 48
10.0
100
AcDbMText
 10
173.953401409015
 20
32.625226751426
 30
0.0
 40
5.0
 41
24.595673902063
 71
     1
 72
     5
  1
takahashi
1001
ACADANNOTATIVE
1000
AnnotativeData
1002
{
1070
     1
1070
     0
1002
}
  0
MTEXT
  5
47EF
102
{ACAD_XDICTIONARY
360
47F0
102
}
330
28FB
100
AcDbEntity
 67
     1
  8
下書線
 48
10.0
100
AcDbMText
 10
72.817705279904
 20
164.130332762885
 30
0.0
 40
10.0
 41
174.128675272846
 71
     5
 72
     5
  1
HP掲載図面\P変更・追記不可
1001
ACADANNOTATIVE
1000
AnnotativeData
1002
{
1070
     1
1070
     0
1002
}
  0
LWPOLYLINE
  5
47F3
330
28FB
100
AcDbEntity
 67
     1
  8
下書線
 48
10.0
100
AcDbPolyline
 90
        4
 70
     1
 43
0.0
 10
30.587560026333
 20
182.556937594285
 10
114.421723790089
 20
182.556937594285
 10
114.421723790089
 20
145.434798658305
 10
30.587560026333
 20
145.434798658305
  0
MTEXT
  5
49C2
102
{ACAD_XDICTIONARY
360
49C3
102
}
330
28FB
100
AcDbEntity
 67
     1
  8
寸法線
 48
10.0
100
AcDbMText
 10
154.696305129083
 20
29.396646458131
 30
0.0
 40
4.5
 41
29.906507692735
 71
     5
 72
     5
  1
tahara
1001
ACADANNOTATIVE
1000
AnnotativeData
1002
{
1070
     1
1070
     0
1002
}
  0
MTEXT
  5
49C6
102
{ACAD_XDICTIONARY
360
49C7
102
}
330
28FB
100
AcDbEntity
 67
     1
  8
寸法線
 48
10.0
100
AcDbMText
 10
121.396304528483
 20
29.396646458131
 30
0.0
 40
4.5
 41
16.097226867587
 71
     5
 72
     5
  1
konishi
1001
ACADANNOTATIVE
1000
AnnotativeData
1002
{
1070
     1
1070
     0
1002
}
  0
ENDSEC
  0
SECTION
  2
OBJECTS
  0
DICTIONARY
  5
C
330
0
100
AcDbDictionary
  3
ACAD_COLOR
350
2948
  3
ACAD_GROUP
350
D
  3
ACAD_LAYOUT
350
2816
  3
ACAD_MATERIAL
350
2947
  3
ACAD_MLEADERSTYLE
350
41C4
  3
ACAD_MLINESTYLE
350
E
  3
ACAD_PLOTSETTINGS
350
2817
  3
ACAD_SCALELIST
350
419D
  3
ACAD_VISUALSTYLE
350
4184
  3
ACADDIM
350
30EB
  3
ACDBHEADERROUNDTRIPXREC
350
4A96
  3
ACDBVARIABLEDICTIONARY
350
4322
  3
DWGPROPS
350
4ABB
  0
DICTIONARY
  5
4ABC
330
8
100
AcDbDictionary
280
     1
  3
ACAD_XREC_ROUNDTRIP
360
4ABD
  0
DICTIONARY
  5
29EA
330
2
100
AcDbDictionary
280
     1
  3
ACAD_LAYERFILTERS
360
2B0C
  3
ACAD_LAYERSTATES
360
29EB
  0
DICTIONARY
  5
4687
330
30ED
100
AcDbDictionary
280
     1
  3
ACDBCONTEXTDATAMANAGER
360
4688
  0
DICTIONARY
  5
44EB
330
30F0
100
AcDbDictionary
280
     1
  3
ACDBCONTEXTDATAMANAGER
360
44EC
  0
DICTIONARY
  5
44E8
330
30F2
100
AcDbDictionary
280
     1
  3
ACDBCONTEXTDATAMANAGER
360
44E9
  0
DICTIONARY
  5
44E5
330
30F5
100
AcDbDictionary
280
     1
  3
ACDBCONTEXTDATAMANAGER
360
44E6
  0
DICTIONARY
  5
44DE
330
398E
100
AcDbDictionary
280
     1
  3
ACDBCONTEXTDATAMANAGER
360
44DF
  0
DICTIONARY
  5
44E2
330
3F2C
100
AcDbDictionary
280
     1
  3
ACDBCONTEXTDATAMANAGER
360
44E3
  0
DICTIONARY
  5
42BE
330
42BD
100
AcDbDictionary
280
     1
  3
ACDBCONTEXTDATAMANAGER
360
42F8
  0
DICTIONARY
  5
43D0
330
342E
100
AcDbDictionary
280
     1
  3
ACDBCONTEXTDATAMANAGER
360
43D1
  0
DICTIONARY
  5
41C9
330
40B6
100
AcDbDictionary
280
     1
  3
ACDBCONTEXTDATAMANAGER
360
41CA
  0
DICTIONARY
  5
4470
330
446F
100
AcDbDictionary
280
     1
  3
ACDBCONTEXTDATAMANAGER
360
4471
  0
DICTIONARY
  5
4474
330
4473
100
AcDbDictionary
280
     1
  3
ACDBCONTEXTDATAMANAGER
360
4475
  0
DICTIONARY
  5
47F0
330
47EF
100
AcDbDictionary
280
     1
  3
ACDBCONTEXTDATAMANAGER
360
47F1
  0
DICTIONARY
  5
49C3
330
49C2
100
AcDbDictionary
280
     1
  3
ACDBCONTEXTDATAMANAGER
360
49C4
  0
DICTIONARY
  5
49C7
330
49C6
100
AcDbDictionary
280
     1
  3
ACDBCONTEXTDATAMANAGER
360
49C8
  0
DICTIONARY
  5
2948
102
{ACAD_REACTORS
330
C
102
}
330
C
100
AcDbDictionary
  0
DICTIONARY
  5
D
102
{ACAD_REACTORS
330
C
102
}
330
C
100
AcDbDictionary
  0
DICTIONARY
  5
2816
102
{ACAD_REACTORS
330
C
102
}
330
C
100
AcDbDictionary
  0
DICTIONARY
  5
2947
102
{ACAD_REACTORS
330
C
102
}
330
C
100
AcDbDictionary
  3
BYBLOCK
350
41C0
  3
BYLAYER
350
41BF
  3
GLOBAL
350
41C1
  0
DICTIONARY
  5
41C4
102
{ACAD_REACTORS
330
C
102
}
330
C
100
AcDbDictionary
  3
STANDARD
350
41C5
  0
DICTIONARY
  5
E
102
{ACAD_REACTORS
330
C
102
}
330
C
100
AcDbDictionary
  3
STANDARD
350
13
  0
DICTIONARY
  5
2817
102
{ACAD_REACTORS
330
C
102
}
330
C
100
AcDbDictionary
  0
DICTIONARY
  5
419D
102
{ACAD_REACTORS
330
C
102
}
330
C
100
AcDbDictionary
  3
A0
350
419E
  3
A1
350
419F
  3
A2
350
41A0
  3
A3
350
41A1
  3
A4
350
41A2
  3
A5
350
41A3
  3
A6
350
41A4
  3
A7
350
41A5
  3
A8
350
41A6
  3
A9
350
41A7
  3
B0
350
41A8
  3
B1
350
41A9
  3
B2
350
41AA
  3
B3
350
41AB
  3
B4
350
41AC
  3
B5
350
41AD
  3
B6
350
41AE
  3
B7
350
41AF
  3
B8
350
41B0
  3
B9
350
41B1
  3
C0
350
41B2
  3
C1
350
41B3
  3
C2
350
41B4
  3
C3
350
41B5
  3
C4
350
41B6
  3
C5
350
41B7
  3
C6
350
41B8
  3
C7
350
41B9
  3
C8
350
41BA
  3
C9
350
41BB
  3
D0
350
41BC
  3
D1
350
41BD
  3
D2
350
41BE
  0
DICTIONARY
  5
4184
102
{ACAD_REACTORS
330
C
102
}
330
C
100
AcDbDictionary
  3
2DWIREFRAME
350
4189
  3
BASIC
350
418C
  3
BRIGHTEN
350
4190
  3
COLORCHANGE
350
4194
  3
CONCEPTUAL
350
418E
  3
DIM
350
418F
  3
EDGECOLOROFF
350
4197
  3
FACEPATTERN
350
4193
  3
FLAT
350
4185
  3
FLATWITHEDGES
350
4186
  3
GOURAUD
350
4187
  3
GOURAUDWITHEDGES
350
4188
  3
HIDDEN
350
418B
  3
JITTEROFF
350
4195
  3
LINEPATTERN
350
4192
  3
MODELING
350
41C6
  3
OVERHANGOFF
350
4196
  3
REALISTIC
350
418D
  3
SHADED
350
419C
  3
SHADED_WITH_EDGES
350
419B
  3
SHADES_OF_GRAY
350
4198
  3
SKETCHY
350
4199
  3
THICKEN
350
4191
  3
WIREFRAME
350
418A
  3
X-RAY
350
419A
  0
XRECORD
  5
30EB
102
{ACAD_REACTORS
330
C
102
}
330
C
100
AcDbXrecord
 90
   990106
  3

 60
     0
 61
     0
 62
     1
 63
     3
 64
     0
 65
     0
 66
     0
 67
     3
 68
     1
 69
     0
 70
     0
 71
     0
 72
     0
 40
0.0
170
     0
  0
DICTIONARY
  5
4A96
102
{ACAD_REACTORS
330
C
102
}
330
C
100
AcDbDictionary
  3
CEPSNID
350
4AA0
  3
CEPSNTYPE
350
4A9F
  3
COLORDICT
350
4AB9
  3
DIMSTYLEDATA
350
4AB6
  3
FINGERPRINTGUID
350
4AA1
  3
HYPERLINKBASE
350
4A99
  3
INSUNITS
350
4A9E
  3
LAYOUTDICT
350
4A9B
  3
LWETCUNION
350
4A9D
  3
MATERIALDICT
350
4ABA
  3
PLOTSETDICT
350
4A9C
  3
PSVPSCALE
350
4AA3
  3
PUCSBASE
350
4AA6
  3
PUCSORGBACK
350
4AAC
  3
PUCSORGBOTTOM
350
4AA8
  3
PUCSORGFRONT
350
4AAB
  3
PUCSORGLEFT
350
4AA9
  3
PUCSORGRIGHT
350
4AAA
  3
PUCSORGTOP
350
4AA7
  3
PUCSORTHOREF
350
4AA4
  3
PUCSORTHOVIEW
350
4AA5
  3
STYLESHEET
350
4A9A
  3
TSTACKALIGN
350
4A97
  3
TSTACKSIZE
350
4A98
  3
UCSBASE
350
4AAF
  3
UCSORGBACK
350
4AB5
  3
UCSORGBOTTOM
350
4AB1
  3
UCSORGFRONT
350
4AB4
  3
UCSORGLEFT
350
4AB2
  3
UCSORGRIGHT
350
4AB3
  3
UCSORGTOP
350
4AB0
  3
UCSORTHOREF
350
4AAD
  3
UCSORTHOVIEW
350
4AAE
  3
VERSIONGUID
350
4AA2
  0
DICTIONARY
  5
4322
102
{ACAD_REACTORS
330
C
102
}
330
C
100
AcDbDictionary
  3
CANNOSCALE
350
4323
  3
CMLEADERSTYLE
350
4364
  3
CTABLESTYLE
350
4363
  3
DIMASSOC
350
4AB7
  3
HIDETEXT
350
4AB8
  3
MSLTSCALE
350
4365
  3
XCLIPFRAME
350
4366
  0
XRECORD
  5
4ABB
102
{ACAD_REACTORS
330
C
102
}
330
C
100
AcDbXrecord
  1
DWGPROPS COOKIE
  2

  3

  4

  6

  7

  8
takahashi
  9

300
=
301
=
302
=
303
=
304
=
305
=
306
=
307
=
308
=
309
=
 40
0.0
 41
2450576.222302431
 42
2457268.998065128
  1

 90
        0
  0
XRECORD
  5
4ABD
102
{ACAD_REACTORS
330
4ABC
102
}
330
4ABC
100
AcDbXrecord
102
VTR_0.000_0.000_1.000_1.000_VISUALSTYLE
340
4189
102
VTR_0.000_0.000_1.000_1.000_GRIDDISPLAY
 70
     3
102
VTR_0.000_0.000_1.000_1.000_GRIDMAJOR
 70
     5
102
VTR_0.000_0.000_1.000_1.000_DEFAULTLIGHTING
280
     1
102
VTR_0.000_0.000_1.000_1.000_DEFAULTLIGHTINGTYPE
 70
     1
102
VTR_0.000_0.000_1.000_1.000_BRIGHTNESS
141
0.0
102
VTR_0.000_0.000_1.000_1.000_CONTRAST
142
0.0
  0
DICTIONARY
  5
2B0C
102
{ACAD_REACTORS
330
29EA
102
}
330
29EA
100
AcDbDictionary
  0
DICTIONARY
  5
29EB
102
{ACAD_REACTORS
330
29EA
102
}
330
29EA
100
AcDbDictionary
  0
DICTIONARY
  5
4688
102
{ACAD_REACTORS
330
4687
102
}
330
4687
100
AcDbDictionary
  3
ACDB_ANNOTATIONSCALES
350
4689
  0
DICTIONARY
  5
44EC
102
{ACAD_REACTORS
330
44EB
102
}
330
44EB
100
AcDbDictionary
  3
ACDB_ANNOTATIONSCALES
350
44ED
  0
DICTIONARY
  5
44E9
102
{ACAD_REACTORS
330
44E8
102
}
330
44E8
100
AcDbDictionary
  3
ACDB_ANNOTATIONSCALES
350
44EA
  0
DICTIONARY
  5
44E6
102
{ACAD_REACTORS
330
44E5
102
}
330
44E5
100
AcDbDictionary
  3
ACDB_ANNOTATIONSCALES
350
44E7
  0
DICTIONARY
  5
44DF
102
{ACAD_REACTORS
330
44DE
102
}
330
44DE
100
AcDbDictionary
  3
ACDB_ANNOTATIONSCALES
350
44E0
  0
DICTIONARY
  5
44E3
102
{ACAD_REACTORS
330
44E2
102
}
330
44E2
100
AcDbDictionary
  3
ACDB_ANNOTATIONSCALES
350
44E4
  0
DICTIONARY
  5
42F8
102
{ACAD_REACTORS
330
42BE
102
}
330
42BE
100
AcDbDictionary
  3
ACDB_ANNOTATIONSCALES
350
42F9
  0
DICTIONARY
  5
43D1
102
{ACAD_REACTORS
330
43D0
102
}
330
43D0
100
AcDbDictionary
  3
ACDB_ANNOTATIONSCALES
350
43D2
  0
DICTIONARY
  5
41CA
102
{ACAD_REACTORS
330
41C9
102
}
330
41C9
100
AcDbDictionary
  3
ACDB_ANNOTATIONSCALES
350
41CB
  0
DICTIONARY
  5
4471
102
{ACAD_REACTORS
330
4470
102
}
330
4470
100
AcDbDictionary
  3
ACDB_ANNOTATIONSCALES
350
4472
  0
DICTIONARY
  5
4475
102
{ACAD_REACTORS
330
4474
102
}
330
4474
100
AcDbDictionary
  3
ACDB_ANNOTATIONSCALES
350
4476
  0
DICTIONARY
  5
47F1
102
{ACAD_REACTORS
330
47F0
102
}
330
47F0
100
AcDbDictionary
  3
ACDB_ANNOTATIONSCALES
350
47F2
  0
DICTIONARY
  5
49C4
102
{ACAD_REACTORS
330
49C3
102
}
330
49C3
100
AcDbDictionary
  3
ACDB_ANNOTATIONSCALES
350
49C5
  0
DICTIONARY
  5
49C8
102
{ACAD_REACTORS
330
49C7
102
}
330
49C7
100
AcDbDictionary
  3
ACDB_ANNOTATIONSCALES
350
49C9
  0
MATERIAL
  5
41C0
102
{ACAD_REACTORS
330
2947
102
}
102
{ACAD_XDICTIONARY
360
4AC0
102
}
330
2947
100
AcDbMaterial
  1
BYBLOCK
  0
MATERIAL
  5
41BF
102
{ACAD_REACTORS
330
2947
102
}
102
{ACAD_XDICTIONARY
360
4ABE
102
}
330
2947
100
AcDbMaterial
  1
BYLAYER
  0
MATERIAL
  5
41C1
102
{ACAD_REACTORS
330
2947
102
}
102
{ACAD_XDICTIONARY
360
4AC2
102
}
330
2947
100
AcDbMaterial
  1
GLOBAL
  0
ACAD_PROXY_OBJECT
  5
41C5
102
{ACAD_REACTORS
330
41C4
102
}
330
41C4
100
AcDbProxyObject
 90
      499
 91
      508
 93
      610
310
40901902A4063FBFFFFFE0000000000000020400000000000020404214DD185B99185C990000000000000104090141901A00000000000004100000000000000041025764000000000000039000
340
14
340
0
340
10
340
0
 94
        0
1001
ACAD_MLEADERVER
1070
     2
  0
MLINESTYLE
  5
13
102
{ACAD_REACTORS
330
E
102
}
330
E
100
AcDbMlineStyle
  2
STANDARD
 70
     0
  3

 62
     0
 51
90.0
 52
90.0
 71
     2
 49
0.5
 62
   256
  6
BYLAYER
 49
-0.5
 62
   256
  6
BYLAYER
  0
ACAD_PROXY_OBJECT
  5
419E
102
{ACAD_REACTORS
330
419D
102
}
330
419D
100
AcDbProxyObject
 90
      499
 91
      505
 93
       41
310
903313A31580
  0
ACAD_PROXY_OBJECT
  5
419F
102
{ACAD_REACTORS
330
419D
102
}
330
419D
100
AcDbProxyObject
 90
      499
 91
      505
 93
      105
310
903313A324000000000000004000
  0
ACAD_PROXY_OBJECT
  5
41A0
102
{ACAD_REACTORS
330
419D
102
}
330
419D
100
AcDbProxyObject
 90
      499
 91
      505
 93
      105
310
903313A344000000000000104000
  0
ACAD_PROXY_OBJECT
  5
41A1
102
{ACAD_REACTORS
330
419D
102
}
330
419D
100
AcDbProxyObject
 90
      499
 91
      505
 93
      105
310
903313A354000000000000144000
  0
ACAD_PROXY_OBJECT
  5
41A2
102
{ACAD_REACTORS
330
419D
102
}
330
419D
100
AcDbProxyObject
 90
      499
 91
      505
 93
      105
310
903313A384000000000000204000
  0
ACAD_PROXY_OBJECT
  5
41A3
102
{ACAD_REACTORS
330
419D
102
}
330
419D
100
AcDbProxyObject
 90
      499
 91
      505
 93
      113
310
904313A31304000000000000244000
  0
ACAD_PROXY_OBJECT
  5
41A4
102
{ACAD_REACTORS
330
419D
102
}
330
419D
100
AcDbProxyObject
 90
      499
 91
      505
 93
      113
310
904313A31364000000000000304000
  0
ACAD_PROXY_OBJECT
  5
41A5
102
{ACAD_REACTORS
330
419D
102
}
330
419D
100
AcDbProxyObject
 90
      499
 91
      505
 93
      113
310
904313A32304000000000000344000
  0
ACAD_PROXY_OBJECT
  5
41A6
102
{ACAD_REACTORS
330
419D
102
}
330
419D
100
AcDbProxyObject
 90
      499
 91
      505
 93
      113
310
904313A333040000000000003E4000
  0
ACAD_PROXY_OBJECT
  5
41A7
102
{ACAD_REACTORS
330
419D
102
}
330
419D
100
AcDbProxyObject
 90
      499
 91
      505
 93
      113
310
904313A34304000000000000444000
  0
ACAD_PROXY_OBJECT
  5
41A8
102
{ACAD_REACTORS
330
419D
102
}
330
419D
100
AcDbProxyObject
 90
      499
 91
      505
 93
      113
310
904313A35304000000000000494000
  0
ACAD_PROXY_OBJECT
  5
41A9
102
{ACAD_REACTORS
330
419D
102
}
330
419D
100
AcDbProxyObject
 90
      499
 91
      505
 93
      121
310
905313A3130304000000000000594000
  0
ACAD_PROXY_OBJECT
  5
41AA
102
{ACAD_REACTORS
330
419D
102
}
330
419D
100
AcDbProxyObject
 90
      499
 91
      505
 93
      105
310
903323A310000000000000010100
  0
ACAD_PROXY_OBJECT
  5
41AB
102
{ACAD_REACTORS
330
419D
102
}
330
419D
100
AcDbProxyObject
 90
      499
 91
      505
 93
      105
310
903343A310000000000000410100
  0
ACAD_PROXY_OBJECT
  5
41AC
102
{ACAD_REACTORS
330
419D
102
}
330
419D
100
AcDbProxyObject
 90
      499
 91
      505
 93
      105
310
903383A310000000000000810100
  0
ACAD_PROXY_OBJECT
  5
41AD
102
{ACAD_REACTORS
330
419D
102
}
330
419D
100
AcDbProxyObject
 90
      499
 91
      505
 93
      113
310
90431303A310000000000000910100
  0
ACAD_PROXY_OBJECT
  5
41AE
102
{ACAD_REACTORS
330
419D
102
}
330
419D
100
AcDbProxyObject
 90
      499
 91
      505
 93
      121
310
9053130303A310000000000001650100
  0
ACAD_PROXY_OBJECT
  5
41AF
102
{ACAD_REACTORS
330
419D
102
}
330
419D
100
AcDbProxyObject
 90
      499
 91
      505
 93
      257
310
90E312F31323822203D2031272D3022000000000000200FC000000000000284000
  0
ACAD_PROXY_OBJECT
  5
41B0
102
{ACAD_REACTORS
330
419D
102
}
330
419D
100
AcDbProxyObject
 90
      499
 91
      505
 93
      249
310
90D312F363422203D2031272D3022000000000000240FC000000000000284000
  0
ACAD_PROXY_OBJECT
  5
41B1
102
{ACAD_REACTORS
330
419D
102
}
330
419D
100
AcDbProxyObject
 90
      499
 91
      505
 93
      249
310
90D312F333222203D2031272D3022000000000000280FC000000000000284000
  0
ACAD_PROXY_OBJECT
  5
41B2
102
{ACAD_REACTORS
330
419D
102
}
330
419D
100
AcDbProxyObject
 90
      499
 91
      505
 93
      249
310
90D312F313622203D2031272D30220000000000002C0FC000000000000284000
  0
ACAD_PROXY_OBJECT
  5
41B3
102
{ACAD_REACTORS
330
419D
102
}
330
419D
100
AcDbProxyObject
 90
      499
 91
      505
 93
      249
310
90D332F333222203D2031272D30220000000000002E0FC000000000000284000
  0
ACAD_PROXY_OBJECT
  5
41B4
102
{ACAD_REACTORS
330
419D
102
}
330
419D
100
AcDbProxyObject
 90
      499
 91
      505
 93
      241
310
90C312F3822203D2031272D3022000000000000300FC000000000000284000
  0
ACAD_PROXY_OBJECT
  5
41B5
102
{ACAD_REACTORS
330
419D
102
}
330
419D
100
AcDbProxyObject
 90
      499
 91
      505
 93
      249
310
90D332F313622203D2031272D3022000000000000320FC000000000000284000
  0
ACAD_PROXY_OBJECT
  5
41B6
102
{ACAD_REACTORS
330
419D
102
}
330
419D
100
AcDbProxyObject
 90
      499
 91
      505
 93
      241
310
90C312F3422203D2031272D3022000000000000340FC000000000000284000
  0
ACAD_PROXY_OBJECT
  5
41B7
102
{ACAD_REACTORS
330
419D
102
}
330
419D
100
AcDbProxyObject
 90
      499
 91
      505
 93
      241
310
90C332F3822203D2031272D3022000000000000360FC000000000000284000
  0
ACAD_PROXY_OBJECT
  5
41B8
102
{ACAD_REACTORS
330
419D
102
}
330
419D
100
AcDbProxyObject
 90
      499
 91
      505
 93
      241
310
90C312F3222203D2031272D3022000000000000380FC000000000000284000
  0
ACAD_PROXY_OBJECT
  5
41B9
102
{ACAD_REACTORS
330
419D
102
}
330
419D
100
AcDbProxyObject
 90
      499
 91
      505
 93
      241
310
90C332F3422203D2031272D30220000000000003A0FC000000000000284000
  0
ACAD_PROXY_OBJECT
  5
41BA
102
{ACAD_REACTORS
330
419D
102
}
330
419D
100
AcDbProxyObject
 90
      499
 91
      505
 93
      161
310
90A3122203D2031272D30224000000000000284000
  0
ACAD_PROXY_OBJECT
  5
41BB
102
{ACAD_REACTORS
330
419D
102
}
330
419D
100
AcDbProxyObject
 90
      499
 91
      505
 93
      257
310
90E312D312F3222203D2031272D30220000000000003E0FC000000000000284000
  0
ACAD_PROXY_OBJECT
  5
41BC
102
{ACAD_REACTORS
330
419D
102
}
330
419D
100
AcDbProxyObject
 90
      499
 91
      505
 93
      225
310
90A3322203D2031272D302200000000000002100000000000000284000
  0
ACAD_PROXY_OBJECT
  5
41BD
102
{ACAD_REACTORS
330
419D
102
}
330
419D
100
AcDbProxyObject
 90
      499
 91
      505
 93
      225
310
90A3622203D2031272D302200000000000006100000000000000284000
  0
ACAD_PROXY_OBJECT
  5
41BE
102
{ACAD_REACTORS
330
419D
102
}
330
419D
100
AcDbProxyObject
 90
      499
 91
      505
 93
      249
310
90D31272D3022203D2031272D30220000000000000A100000000000000284000
  0
ACAD_PROXY_OBJECT
  5
4189
102
{ACAD_REACTORS
330
4184
102
}
330
4184
100
AcDbProxyObject
 90
      499
 91
      504
 93
      436
310
42CC9915DA5C99599C985B595049028333333333333E33F0000000000000F90107901411070040501600405405064090741402480A0340
1001
ACAD
1000
AcDbSavedByObjectVersion
1070
     0
  0
ACAD_PROXY_OBJECT
  5
418C
102
{ACAD_REACTORS
330
4184
102
}
330
4184
100
AcDbProxyObject
 90
      499
 91
      504
 93
      388
310
4150985CDA58D07406404333333333333E33F0000000000000F90107A41107004050150841D405064090741402480A0350
1001
ACAD
1000
AcDbSavedByObjectVersion
1070
     0
  0
ACAD_PROXY_OBJECT
  5
4190
102
{ACAD_REACTORS
330
4184
102
}
330
4184
100
AcDbProxyObject
 90
      499
 91
      504
 93
      428
310
42109C9A59DA1D195B90C409028333333333333E33F0000000000000F9010790141107004050150841D405064090741402480A029950
1001
ACAD
1000
AcDbSavedByObjectVersion
1070
     0
  0
ACAD_PROXY_OBJECT
  5
4194
102
{ACAD_REACTORS
330
4184
102
}
330
4184
100
AcDbProxyObject
 90
      499
 91
      504
 93
      452
310
42D0DBDB1BDC90DA185B99D95104090240C333333333333E33F0000000000000F90108901411070040501508421405064090741402480A0350
1001
ACAD
1000
AcDbSavedByObjectVersion
1070
     0
  0
ACAD_PROXY_OBJECT
  5
418E
102
{ACAD_REACTORS
330
4184
102
}
330
4184
100
AcDbProxyObject
 90
      499
 91
      504
 93
      500
310
4290DBDB98D95C1D1D585B10940D028333333333333E33F0000000000000F90107902409070040501000000000018199010841D405064090740C02480A0340
1001
ACAD
1000
AcDbSavedByObjectVersion
1070
     0
  0
ACAD_PROXY_OBJECT
  5
418F
102
{ACAD_REACTORS
330
4184
102
}
330
4184
100
AcDbProxyObject
 90
      499
 91
      504
 93
      412
310
40D11A5B50B409028333333333333E33F0000000000000F9010790141107004050150841D405064090741402480A02677FFFFFD0
1001
ACAD
1000
AcDbSavedByObjectVersion
1070
     0
  0
ACAD_PROXY_OBJECT
  5
4197
102
{ACAD_REACTORS
330
4184
102
}
330
4184
100
AcDbProxyObject
 90
      499
 91
      504
 93
      452
310
43115919D950DBDB1BDC93D999916409028333333333333E33F0000000000000F9010790141107004050150841D405064090741402480A0350
1001
ACAD
1000
AcDbSavedByObjectVersion
1070
     0
  0
ACAD_PROXY_OBJECT
  5
4193
102
{ACAD_REACTORS
330
4184
102
}
330
4184
100
AcDbProxyObject
 90
      499
 91
      504
 93
      444
310
42D19858D95C185D1D195C9B90F409028333333333333E33F0000000000000F9010790141107004050150841D405064090741402480A0350
1001
ACAD
1000
AcDbSavedByObjectVersion
1070
     0
  0
ACAD_PROXY_OBJECT
  5
4185
102
{ACAD_REACTORS
330
4184
102
}
330
4184
100
AcDbProxyObject
 90
      499
 91
      504
 93
      380
310
41119B185D240901404333333333333E33F0000000000000F9010740A907004050150841D405064090741402480A1B50
1001
ACAD
1000
AcDbSavedByObjectVersion
1070
     0
  0
ACAD_PROXY_OBJECT
  5
4186
102
{ACAD_REACTORS
330
4184
102
}
330
4184
100
AcDbProxyObject
 90
      499
 91
      504
 93
      468
310
43519B185D15DA5D1A115919D95CD0140901404333333333333E33F0000000000000F90107409019070040501600405405064090741402480A1B50
1001
ACAD
1000
AcDbSavedByObjectVersion
1070
     0
  0
ACAD_PROXY_OBJECT
  5
4187
102
{ACAD_REACTORS
330
4184
102
}
330
4184
100
AcDbProxyObject
 90
      499
 91
      504
 93
      404
310
41D1DBDD5C985D5910240902404333333333333E33F0000000000000F9010740A9070040501641D405064090741402480A1B50
1001
ACAD
1000
AcDbSavedByObjectVersion
1070
     0
  0
ACAD_PROXY_OBJECT
  5
4188
102
{ACAD_REACTORS
330
4184
102
}
330
4184
100
AcDbProxyObject
 90
      499
 91
      504
 93
      492
310
4411DBDD5C985D5915DA5D1A115919D95CD0340902404333333333333E33F0000000000000F90107409019070040501600405405064090741402480A1B50
1001
ACAD
1000
AcDbSavedByObjectVersion
1070
     0
  0
ACAD_PROXY_OBJECT
  5
418B
102
{ACAD_REACTORS
330
4184
102
}
330
4184
100
AcDbProxyObject
 90
      499
 91
      504
 93
      476
310
41921A5919195B90640502408333333333333E33F0000000000000F901079024090700405020000000000001110200405405064090740C02480A0340
1001
ACAD
1000
AcDbSavedByObjectVersion
1070
     0
  0
ACAD_PROXY_OBJECT
  5
4195
102
{ACAD_REACTORS
330
4184
102
}
330
4184
100
AcDbProxyObject
 90
      499
 91
      504
 93
      428
310
42529A5D1D195C93D999914409028333333333333E33F0000000000000F9010790141107004050150A41D405064090741402480A0350
1001
ACAD
1000
AcDbSavedByObjectVersion
1070
     0
  0
ACAD_PROXY_OBJECT
  5
4192
102
{ACAD_REACTORS
330
4184
102
}
330
4184
100
AcDbProxyObject
 90
      499
 91
      504
 93
      444
310
42D31A5B995C185D1D195C9B90E409028333333333333E33F0000000000000F9010790141107004050750841D405064090741402483A0350
1001
ACAD
1000
AcDbSavedByObjectVersion
1070
     0
  0
ACAD_PROXY_OBJECT
  5
41C6
102
{ACAD_REACTORS
330
4184
102
}
330
4184
100
AcDbProxyObject
 90
      499
 91
      504
 93
      412
310
90A409038333333333333E33F0000000000000F901074090290700405010000000000201990108421405064090741402480A1B40
1001
ACAD
1000
AcDbSavedByObjectVersion
1070
     0
  0
ACAD_PROXY_OBJECT
  5
4196
102
{ACAD_REACTORS
330
4184
102
}
330
4184
100
AcDbProxyObject
 90
      499
 91
      504
 93
      444
310
42D3DD995C9A185B99D3D999915409028333333333333E33F0000000000000F9010790141107004050150941D405064090741402480A0350
1001
ACAD
1000
AcDbSavedByObjectVersion
1070
     0
  0
ACAD_PROXY_OBJECT
  5
418D
102
{ACAD_REACTORS
330
4184
102
}
330
4184
100
AcDbProxyObject
 90
      499
 91
      504
 93
      428
310
425499585B1A5CDD1A58D08409038333333333333E33F0000000000000F9010740A907004050150800405405064090740C02480A1B40
1001
ACAD
1000
AcDbSavedByObjectVersion
1070
     0
  0
ACAD_PROXY_OBJECT
  5
419C
102
{ACAD_REACTORS
330
4184
102
}
330
4184
100
AcDbProxyObject
 90
      499
 91
      504
 93
      420
310
4194DA1859195911B40902404333333333333E33F0000000000000F9010740A41107004050150800405405064090840C02480A0B40
1001
ACAD
1000
AcDbSavedByObjectVersion
1070
     0
  0
ACAD_PROXY_OBJECT
  5
419B
102
{ACAD_REACTORS
330
4184
102
}
330
4184
100
AcDbProxyObject
 90
      499
 91
      504
 93
      516
310
4454DA18591959081DDA5D1A08195919D95CD1A40902404333333333333E33F0000000000000F901074090142907004050250800405405064090740C02480A0B40
1001
ACAD
1000
AcDbSavedByObjectVersion
1070
     0
  0
ACAD_PROXY_OBJECT
  5
4198
102
{ACAD_REACTORS
330
4184
102
}
330
4184
100
AcDbProxyObject
 90
      499
 91
      504
 93
      532
310
4394DA1859195CC81BD98811DC985E5174090240C333333333333E33F0000000000000F901079024090741D01000000000000111010841D405064090740C02480A0340
1001
ACAD
1000
AcDbSavedByObjectVersion
1070
     0
  0
ACAD_PROXY_OBJECT
  5
4199
102
{ACAD_REACTORS
330
4184
102
}
330
4184
100
AcDbProxyObject
 90
      499
 91
      504
 93
      476
310
41D4DAD95D18DA1E51840502408333333333333E33F0000000000000F901079024090741D01000000000000111010B41D405064090741802480A0340
1001
ACAD
1000
AcDbSavedByObjectVersion
1070
     0
  0
ACAD_PROXY_OBJECT
  5
4191
102
{ACAD_REACTORS
330
4184
102
}
330
4184
100
AcDbProxyObject
 90
      499
 91
      504
 93
      412
310
41D51A1A58DAD95B90D409028333333333333E33F0000000000000F9010790141107004050150C41D405064090741402480A0350
1001
ACAD
1000
AcDbSavedByObjectVersion
1070
     0
  0
ACAD_PROXY_OBJECT
  5
418A
102
{ACAD_REACTORS
330
4184
102
}
330
4184
100
AcDbProxyObject
 90
      499
 91
      504
 93
      420
310
4255DA5C99599C985B595059028333333333333E33F0000000000000F90107901411070040501600405405064090740C02480A0340
1001
ACAD
1000
AcDbSavedByObjectVersion
1070
     0
  0
ACAD_PROXY_OBJECT
  5
419A
102
{ACAD_REACTORS
330
4184
102
}
330
4184
100
AcDbProxyObject
 90
      499
 91
      504
 93
      404
310
41560B54985E51940902404000000000000E03F0000000000000F9010740501907004050150841D405064090740C02480A1B40
1001
ACAD
1000
AcDbSavedByObjectVersion
1070
     0
  0
XRECORD
  5
4AA0
102
{ACAD_REACTORS
330
4A96
102
}
330
4A96
100
AcDbXrecord
340
0
  0
XRECORD
  5
4A9F
102
{ACAD_REACTORS
330
4A96
102
}
330
4A96
100
AcDbXrecord
 90
        0
  0
XRECORD
  5
4AB9
102
{ACAD_REACTORS
330
4A96
102
}
330
4A96
100
AcDbXrecord
340
2948
  0
XRECORD
  5
4AB6
102
{ACAD_REACTORS
330
4A96
102
}
330
4A96
100
AcDbXrecord
1000
DSTYLE
1002
{
1070
   171
 70
     2
1070
   143
 40
0.0394
1070
   274
 70
     2
1070
    41
 40
6.0
1070
   342
340
2AF4
1070
   271
 70
     1
1070
   278
 70
    46
1070
   341
340
2AF4
1070
   272
 70
     1
1070
    48
 40
0.1
1070
   283
 70
     1
1070
    47
 40
0.1
1070
   145
 40
1.0
1070
   340
340
10
1070
   140
 40
5.0
1070
   284
 70
     0
1002
}
  0
XRECORD
  5
4AA1
102
{ACAD_REACTORS
330
4A96
102
}
330
4A96
100
AcDbXrecord
  1
{23698909-1D67-4744-B0E2-8DE11E3ED422}
  0
XRECORD
  5
4A99
102
{ACAD_REACTORS
330
4A96
102
}
330
4A96
100
AcDbXrecord
  1

  0
XRECORD
  5
4A9E
102
{ACAD_REACTORS
330
4A96
102
}
330
4A96
100
AcDbXrecord
 90
        0
  0
XRECORD
  5
4A9B
102
{ACAD_REACTORS
330
4A96
102
}
330
4A96
100
AcDbXrecord
340
2816
  0
XRECORD
  5
4A9D
102
{ACAD_REACTORS
330
4A96
102
}
330
4A96
100
AcDbXrecord
 90
    10781
  0
XRECORD
  5
4ABA
102
{ACAD_REACTORS
330
4A96
102
}
330
4A96
100
AcDbXrecord
340
2947
  0
XRECORD
  5
4A9C
102
{ACAD_REACTORS
330
4A96
102
}
330
4A96
100
AcDbXrecord
340
2817
  0
XRECORD
  5
4AA3
102
{ACAD_REACTORS
330
4A96
102
}
330
4A96
100
AcDbXrecord
 40
0.0
  0
XRECORD
  5
4AA6
102
{ACAD_REACTORS
330
4A96
102
}
330
4A96
100
AcDbXrecord
340
0
  0
XRECORD
  5
4AAC
102
{ACAD_REACTORS
330
4A96
102
}
330
4A96
100
AcDbXrecord
 10
0.0
 20
0.0
 30
0.0
  0
XRECORD
  5
4AA8
102
{ACAD_REACTORS
330
4A96
102
}
330
4A96
100
AcDbXrecord
 10
0.0
 20
0.0
 30
0.0
  0
XRECORD
  5
4AAB
102
{ACAD_REACTORS
330
4A96
102
}
330
4A96
100
AcDbXrecord
 10
0.0
 20
0.0
 30
0.0
  0
XRECORD
  5
4AA9
102
{ACAD_REACTORS
330
4A96
102
}
330
4A96
100
AcDbXrecord
 10
0.0
 20
0.0
 30
0.0
  0
XRECORD
  5
4AAA
102
{ACAD_REACTORS
330
4A96
102
}
330
4A96
100
AcDbXrecord
 10
0.0
 20
0.0
 30
0.0
  0
XRECORD
  5
4AA7
102
{ACAD_REACTORS
330
4A96
102
}
330
4A96
100
AcDbXrecord
 10
0.0
 20
0.0
 30
0.0
  0
XRECORD
  5
4AA4
102
{ACAD_REACTORS
330
4A96
102
}
330
4A96
100
AcDbXrecord
340
0
  0
XRECORD
  5
4AA5
102
{ACAD_REACTORS
330
4A96
102
}
330
4A96
100
AcDbXrecord
 70
     0
  0
XRECORD
  5
4A9A
102
{ACAD_REACTORS
330
4A96
102
}
330
4A96
100
AcDbXrecord
  1

  0
XRECORD
  5
4A97
102
{ACAD_REACTORS
330
4A96
102
}
330
4A96
100
AcDbXrecord
 90
        1
  0
XRECORD
  5
4A98
102
{ACAD_REACTORS
330
4A96
102
}
330
4A96
100
AcDbXrecord
 90
       70
  0
XRECORD
  5
4AAF
102
{ACAD_REACTORS
330
4A96
102
}
330
4A96
100
AcDbXrecord
340
0
  0
XRECORD
  5
4AB5
102
{ACAD_REACTORS
330
4A96
102
}
330
4A96
100
AcDbXrecord
 10
0.0
 20
0.0
 30
0.0
  0
XRECORD
  5
4AB1
102
{ACAD_REACTORS
330
4A96
102
}
330
4A96
100
AcDbXrecord
 10
0.0
 20
0.0
 30
0.0
  0
XRECORD
  5
4AB4
102
{ACAD_REACTORS
330
4A96
102
}
330
4A96
100
AcDbXrecord
 10
0.0
 20
0.0
 30
0.0
  0
XRECORD
  5
4AB2
102
{ACAD_REACTORS
330
4A96
102
}
330
4A96
100
AcDbXrecord
 10
0.0
 20
0.0
 30
0.0
  0
XRECORD
  5
4AB3
102
{ACAD_REACTORS
330
4A96
102
}
330
4A96
100
AcDbXrecord
 10
0.0
 20
0.0
 30
0.0
  0
XRECORD
  5
4AB0
102
{ACAD_REACTORS
330
4A96
102
}
330
4A96
100
AcDbXrecord
 10
0.0
 20
0.0
 30
0.0
  0
XRECORD
  5
4AAD
102
{ACAD_REACTORS
330
4A96
102
}
330
4A96
100
AcDbXrecord
340
0
  0
XRECORD
  5
4AAE
102
{ACAD_REACTORS
330
4A96
102
}
330
4A96
100
AcDbXrecord
 70
     0
  0
XRECORD
  5
4AA2
102
{ACAD_REACTORS
330
4A96
102
}
330
4A96
100
AcDbXrecord
  1
{FE7A5EA8-F998-46F5-AE0B-666A76D6A897}
  0
DICTIONARYVAR
  5
4323
102
{ACAD_REACTORS
330
4322
102
}
330
4322
100
DictionaryVariables
280
     0
  1
1:1
  0
DICTIONARYVAR
  5
4364
102
{ACAD_REACTORS
330
4322
102
}
330
4322
100
DictionaryVariables
280
     0
  1
Standard
  0
DICTIONARYVAR
  5
4363
102
{ACAD_REACTORS
330
4322
102
}
330
4322
100
DictionaryVariables
280
     0
  1
Standard
  0
DICTIONARYVAR
  5
4AB7
102
{ACAD_REACTORS
330
4322
102
}
330
4322
100
DictionaryVariables
280
     0
  1
1
  0
DICTIONARYVAR
  5
4AB8
102
{ACAD_REACTORS
330
4322
102
}
330
4322
100
DictionaryVariables
280
     0
  1
0
  0
DICTIONARYVAR
  5
4365
102
{ACAD_REACTORS
330
4322
102
}
330
4322
100
DictionaryVariables
280
     0
  1
0
  0
DICTIONARYVAR
  5
4366
102
{ACAD_REACTORS
330
4322
102
}
330
4322
100
DictionaryVariables
280
     0
  1
0
  0
DICTIONARY
  5
4689
102
{ACAD_REACTORS
330
4688
102
}
330
4688
100
AcDbDictionary
  0
DICTIONARY
  5
44ED
102
{ACAD_REACTORS
330
44EC
102
}
330
44EC
100
AcDbDictionary
  0
DICTIONARY
  5
44EA
102
{ACAD_REACTORS
330
44E9
102
}
330
44E9
100
AcDbDictionary
  0
DICTIONARY
  5
44E7
102
{ACAD_REACTORS
330
44E6
102
}
330
44E6
100
AcDbDictionary
  0
DICTIONARY
  5
44E0
102
{ACAD_REACTORS
330
44DF
102
}
330
44DF
100
AcDbDictionary
  0
DICTIONARY
  5
44E4
102
{ACAD_REACTORS
330
44E3
102
}
330
44E3
100
AcDbDictionary
  0
DICTIONARY
  5
42F9
102
{ACAD_REACTORS
330
42F8
102
}
330
42F8
100
AcDbDictionary
  0
DICTIONARY
  5
43D2
102
{ACAD_REACTORS
330
43D1
102
}
330
43D1
100
AcDbDictionary
  0
DICTIONARY
  5
41CB
102
{ACAD_REACTORS
330
41CA
102
}
330
41CA
100
AcDbDictionary
  0
DICTIONARY
  5
4472
102
{ACAD_REACTORS
330
4471
102
}
330
4471
100
AcDbDictionary
  0
DICTIONARY
  5
4476
102
{ACAD_REACTORS
330
4475
102
}
330
4475
100
AcDbDictionary
  0
DICTIONARY
  5
47F2
102
{ACAD_REACTORS
330
47F1
102
}
330
47F1
100
AcDbDictionary
  0
DICTIONARY
  5
49C5
102
{ACAD_REACTORS
330
49C4
102
}
330
49C4
100
AcDbDictionary
  0
DICTIONARY
  5
49C9
102
{ACAD_REACTORS
330
49C8
102
}
330
49C8
100
AcDbDictionary
  0
DICTIONARY
  5
4AC0
330
41C0
100
AcDbDictionary
280
     1
  3
ACAD_XREC_ROUNDTRIP
360
4AC1
  0
DICTIONARY
  5
4ABE
330
41BF
100
AcDbDictionary
280
     1
  3
ACAD_XREC_ROUNDTRIP
360
4ABF
  0
DICTIONARY
  5
4AC2
330
41C1
100
AcDbDictionary
280
     1
  3
ACAD_XREC_ROUNDTRIP
360
4AC3
  0
XRECORD
  5
4AC1
102
{ACAD_REACTORS
330
4AC0
102
}
330
4AC0
100
AcDbXrecord
102
MATERIAL
148
0.0
149
0.0
149
0.0
 93
        0
 94
      127
282
     0
 72
     1
 77
     1
171
     1
175
     1
179
     1
273
     0
  0
XRECORD
  5
4ABF
102
{ACAD_REACTORS
330
4ABE
102
}
330
4ABE
100
AcDbXrecord
102
MATERIAL
148
0.0
149
0.0
149
0.0
 93
        0
 94
      127
282
     0
 72
     1
 77
     1
171
     1
175
     1
179
     1
273
     0
  0
XRECORD
  5
4AC3
102
{ACAD_REACTORS
330
4AC2
102
}
330
4AC2
100
AcDbXrecord
102
MATERIAL
148
0.0
149
0.0
149
0.0
 93
        0
 94
      127
282
     0
 72
     1
 77
     1
171
     1
175
     1
179
     1
273
     0
  0
ENDSEC
  0
EOF
