  0
SECTION
  2
HEADER
  9
$ACADVER
  1
AC1014
  9
$ACADMAINTVER
 70
     9
  9
$DWGCODEPAGE
  3
ANSI_932
  9
$INSBASE
 10
0.0
 20
0.0
 30
0.0
  9
$EXTMIN
 10
-49.226115375575
 20
182.582803168104
 30
0.0
  9
$EXTMAX
 10
914.440444401295
 20
744.766280812079
 30
0.0
  9
$LIMMIN
 10
-360.747566795242
 20
4.457354754526
  9
$LIMMAX
 10
-162.153696144267
 20
287.675440264018
  9
$ORTHOMODE
 70
     1
  9
$REGENMODE
 70
     1
  9
$FILLMODE
 70
     1
  9
$QTEXTMODE
 70
     0
  9
$MIRRTEXT
 70
     1
  9
$DRAGMODE
 70
     2
  9
$LTSCALE
 40
1.0
  9
$OSMODE
 70
    32
  9
$ATTMODE
 70
     1
  9
$TEXTSIZE
 40
2.333873885063
  9
$TRACEWID
 40
1.0
  9
$TEXTSTYLE
  7
STANDARD
  9
$CLAYER
  8
細線
  9
$CELTYPE
  6
BYLAYER
  9
$CECOLOR
 62
   256
  9
$CELTSCALE
 40
10.0
  9
$DELOBJ
 70
     1
  9
$DISPSILH
 70
     0
  9
$DIMSCALE
 40
1.0
  9
$DIMASZ
 40
6.0
  9
$DIMEXO
 40
0.625
  9
$DIMDLI
 40
3.75
  9
$DIMRND
 40
0.0
  9
$DIMDLE
 40
0.0
  9
$DIMEXE
 40
1.25
  9
$DIMTP
 40
0.1
  9
$DIMTM
 40
0.1
  9
$DIMTXT
 40
8.0
  9
$DIMCEN
 40
2.5
  9
$DIMTSZ
 40
0.0
  9
$DIMTOL
 70
     0
  9
$DIMLIM
 70
     0
  9
$DIMTIH
 70
     0
  9
$DIMTOH
 70
     0
  9
$DIMSE1
 70
     0
  9
$DIMSE2
 70
     0
  9
$DIMTAD
 70
     1
  9
$DIMZIN
 70
     8
  9
$DIMBLK
  1
OPEN30
  9
$DIMASO
 70
     1
  9
$DIMSHO
 70
     1
  9
$DIMPOST
  1

  9
$DIMAPOST
  1

  9
$DIMALT
 70
     0
  9
$DIMALTD
 70
     2
  9
$DIMALTF
 40
0.0394
  9
$DIMLFAC
 40
1.0
  9
$DIMTOFL
 70
     1
  9
$DIMTVP
 40
1.0
  9
$DIMTIX
 70
     0
  9
$DIMSOXD
 70
     0
  9
$DIMSAH
 70
     0
  9
$DIMBLK1
  1

  9
$DIMBLK2
  1

  9
$DIMSTYLE
  2
ISO-25
  9
$DIMCLRD
 70
     0
  9
$DIMCLRE
 70
     0
  9
$DIMCLRT
 70
     0
  9
$DIMTFAC
 40
1.0
  9
$DIMGAP
 40
0.625
  9
$DIMJUST
 70
     0
  9
$DIMSD1
 70
     0
  9
$DIMSD2
 70
     0
  9
$DIMTOLJ
 70
     1
  9
$DIMTZIN
 70
     0
  9
$DIMALTZ
 70
     0
  9
$DIMALTTZ
 70
     0
  9
$DIMFIT
 70
     3
  9
$DIMUPT
 70
     0
  9
$DIMUNIT
 70
     2
  9
$DIMDEC
 70
     1
  9
$DIMTDEC
 70
     1
  9
$DIMALTU
 70
     2
  9
$DIMALTTD
 70
     2
  9
$DIMTXSTY
  7
STANDARD
  9
$DIMAUNIT
 70
     0
  9
$LUNITS
 70
     2
  9
$LUPREC
 70
     4
  9
$SKETCHINC
 40
1.0
  9
$FILLETRAD
 40
5.0
  9
$AUNITS
 70
     0
  9
$AUPREC
 70
     0
  9
$MENU
  1
.
  9
$ELEVATION
 40
0.0
  9
$PELEVATION
 40
0.0
  9
$THICKNESS
 40
0.0
  9
$LIMCHECK
 70
     0
  9
$CHAMFERA
 40
0.0
  9
$CHAMFERB
 40
0.0
  9
$CHAMFERC
 40
20.0
  9
$CHAMFERD
 40
0.0
  9
$SKPOLY
 70
     0
  9
$TDCREATE
 40
2450576.597302431
  9
$TDUPDATE
 40
2457193.660322315
  9
$TDINDWG
 40
1.3368613194
  9
$TDUSRTIMER
 40
1.3368613194
  9
$USRTIMER
 70
     1
  9
$ANGBASE
 50
0.0
  9
$ANGDIR
 70
     0
  9
$PDMODE
 70
     0
  9
$PDSIZE
 40
0.0
  9
$PLINEWID
 40
0.0
  9
$COORDS
 70
     1
  9
$SPLFRAME
 70
     0
  9
$SPLINETYPE
 70
     6
  9
$SPLINESEGS
 70
     8
  9
$ATTDIA
 70
     0
  9
$ATTREQ
 70
     1
  9
$HANDLING
 70
     1
  9
$HANDSEED
  5
7272
  9
$SURFTAB1
 70
     6
  9
$SURFTAB2
 70
     6
  9
$SURFTYPE
 70
     6
  9
$SURFU
 70
     6
  9
$SURFV
 70
     6
  9
$UCSNAME
  2

  9
$UCSORG
 10
0.0
 20
0.0
 30
0.0
  9
$UCSXDIR
 10
1.0
 20
0.0
 30
0.0
  9
$UCSYDIR
 10
0.0
 20
1.0
 30
0.0
  9
$PUCSNAME
  2

  9
$PUCSORG
 10
0.0
 20
0.0
 30
0.0
  9
$PUCSXDIR
 10
1.0
 20
0.0
 30
0.0
  9
$PUCSYDIR
 10
0.0
 20
1.0
 30
0.0
  9
$USERI1
 70
     0
  9
$USERI2
 70
     0
  9
$USERI3
 70
     0
  9
$USERI4
 70
     0
  9
$USERI5
 70
     0
  9
$USERR1
 40
0.0
  9
$USERR2
 40
0.0
  9
$USERR3
 40
0.0
  9
$USERR4
 40
0.0
  9
$USERR5
 40
0.0
  9
$WORLDVIEW
 70
     1
  9
$SHADEDGE
 70
     3
  9
$SHADEDIF
 70
    70
  9
$TILEMODE
 70
     0
  9
$MAXACTVP
 70
    16
  9
$PINSBASE
 10
0.0
 20
0.0
 30
0.0
  9
$PLIMCHECK
 70
     0
  9
$PEXTMIN
 10
4.746305129083
 20
1.396645458131
 30
0.0
  9
$PEXTMAX
 10
404.746305129083
 20
281.396645458131
 30
0.0
  9
$PLIMMIN
 10
-6.946593322754
 20
-6.94658241272
  9
$PLIMMAX
 10
417.718108215332
 20
293.315276107788
  9
$UNITMODE
 70
     0
  9
$VISRETAIN
 70
     0
  9
$PLINEGEN
 70
     0
  9
$PSLTSCALE
 70
     1
  9
$TREEDEPTH
 70
  3020
  9
$PICKSTYLE
 70
     1
  9
$CMLSTYLE
  2
STANDARD
  9
$CMLJUST
 70
     0
  9
$CMLSCALE
 40
1.0
  9
$PROXYGRAPHICS
 70
     1
  9
$MEASUREMENT
 70
     1
  0
ENDSEC
  0
SECTION
  2
CLASSES
  0
CLASS
  1
ACDBDICTIONARYWDFLT
  2
AcDbDictionaryWithDefault
  3
ObjectDBX Classes
 90
        0
280
     0
281
     0
  0
CLASS
  1
ACDBPLACEHOLDER
  2
AcDbPlaceHolder
  3
ObjectDBX Classes
 90
        0
280
     0
281
     0
  0
CLASS
  1
LAYOUT
  2
AcDbLayout
  3
ObjectDBX Classes
 90
        0
280
     0
281
     0
  0
CLASS
  1
MATERIAL
  2
AcDbMaterial
  3
ObjectDBX Classes
 90
     1153
280
     0
281
     0
  0
CLASS
  1
SORTENTSTABLE
  2
AcDbSortentsTable
  3
ObjectDBX Classes
 90
        0
280
     0
281
     0
  0
CLASS
  1
VISUALSTYLE
  2
AcDbVisualStyle
  3
ObjectDBX Classes
 90
     4095
280
     0
281
     0
  0
CLASS
  1
SCALE
  2
AcDbScale
  3
ObjectDBX Classes
 90
     1153
280
     0
281
     0
  0
CLASS
  1
TABLESTYLE
  2
AcDbTableStyle
  3
ObjectDBX Classes
 90
     4095
280
     0
281
     0
  0
CLASS
  1
MLEADERSTYLE
  2
AcDbMLeaderStyle
  3
ACDB_MLEADERSTYLE_CLASS
 90
     4095
280
     0
281
     0
  0
CLASS
  1
SUN
  2
AcDbSun
  3
SCENEOE
 90
     1153
280
     0
281
     0
  0
CLASS
  1
DICTIONARYVAR
  2
AcDbDictionaryVar
  3
ObjectDBX Classes
 90
        0
280
     0
281
     0
  0
CLASS
  1
XRECORD
  2
AcDbXrecord
  3
ObjectDBX Classes
 90
        0
280
     0
281
     0
  0
CLASS
  1
LWPOLYLINE
  2
AcDbPolyline
  3
ObjectDBX Classes
 90
        0
280
     0
281
     1
  0
CLASS
  1
HATCH
  2
AcDbHatch
  3
ObjectDBX Classes
 90
        0
280
     0
281
     1
  0
ENDSEC
  0
SECTION
  2
TABLES
  0
TABLE
  2
VPORT
  5
8
102
{ACAD_XDICTIONARY
360
7269
102
}
330
0
100
AcDbSymbolTable
 70
     3
  0
VPORT
  5
7091
330
8
100
AcDbSymbolTableRecord
100
AcDbViewportTableRecord
  2
*ACTIVE
 70
     0
 10
0.0
 20
0.0
 11
1.0
 21
1.0
 12
792.086847742806
 22
423.248003765481
 13
0.0
 23
0.0
 14
1.0
 24
1.0
 15
0.0
 25
0.0
 16
0.0
 26
0.0
 36
1.0
 17
0.0
 27
0.0
 37
0.0
 40
196.150638921934
 41
1.56746031746
 42
50.0
 43
0.0
 44
0.0
 50
0.0
 51
0.0
 71
    16
 72
   100
 73
     1
 74
     0
 75
     0
 76
     0
 77
     0
 78
     0
  0
ENDTAB
  0
TABLE
  2
LTYPE
  5
5
330
0
100
AcDbSymbolTable
 70
     6
  0
LTYPE
  5
14
330
5
100
AcDbSymbolTableRecord
100
AcDbLinetypeTableRecord
  2
BYBLOCK
 70
     0
  3

 72
    65
 73
     0
 40
0.0
  0
LTYPE
  5
15
330
5
100
AcDbSymbolTableRecord
100
AcDbLinetypeTableRecord
  2
BYLAYER
 70
     0
  3

 72
    65
 73
     0
 40
0.0
  0
LTYPE
  5
16
330
5
100
AcDbSymbolTableRecord
100
AcDbLinetypeTableRecord
  2
CONTINUOUS
 70
     0
  3
Solid line
 72
    65
 73
     0
 40
0.0
  0
LTYPE
  5
1EC
330
5
100
AcDbSymbolTableRecord
100
AcDbLinetypeTableRecord
  2
CENTER
 70
     0
  3
____ _ ____ _ ____ _ ____ _ ____ _ ____ _ ____ 
 72
    65
 73
     4
 40
2.0
 49
1.25
 74
     0
 49
-0.25
 74
     0
 49
0.25
 74
     0
 49
-0.25
 74
     0
  0
LTYPE
  5
1ED
330
5
100
AcDbSymbolTableRecord
100
AcDbLinetypeTableRecord
  2
DASHED
 70
     0
  3
__ __ __ __ __ __ __ __ __ __ __ __ __ __ __ __
 72
    65
 73
     2
 40
0.75
 49
0.5
 74
     0
 49
-0.25
 74
     0
  0
LTYPE
  5
2B1F
330
5
100
AcDbSymbolTableRecord
100
AcDbLinetypeTableRecord
  2
DASHDOT
 70
     0
  3
一点鎖線
 72
    65
 73
     4
 40
25.6
 49
20.0
 74
     0
 49
-2.0
 74
     0
 49
1.6
 74
     0
 49
-2.0
 74
     0
  0
LTYPE
  5
34F8
330
5
100
AcDbSymbolTableRecord
100
AcDbLinetypeTableRecord
  2
DIVIDE
 70
     0
  3
二点鎖線
 72
    65
 73
     6
 40
31.2
 49
20.0
 74
     0
 49
-2.4
 74
     0
 49
2.0
 74
     0
 49
-2.4
 74
     0
 49
2.0
 74
     0
 49
-2.4
 74
     0
  0
LTYPE
  5
6A9A
330
5
100
AcDbSymbolTableRecord
100
AcDbLinetypeTableRecord
  2
CENTER2
 70
     0
  3
Center (.5x) ___ _ ___ _ ___ _ ___ _ ___ _ ___
 72
    65
 73
     4
 40
28.575
 49
19.05
 74
     0
 49
-3.175
 74
     0
 49
3.175
 74
     0
 49
-3.175
 74
     0
  0
ENDTAB
  0
TABLE
  2
LAYER
  5
2
102
{ACAD_XDICTIONARY
360
29EA
102
}
330
0
100
AcDbSymbolTable
 70
    14
  0
LAYER
  5
F
330
2
100
AcDbSymbolTableRecord
100
AcDbLayerTableRecord
  2
0
 70
     0
 62
     7
  6
CONTINUOUS
  0
LAYER
  5
61
330
2
100
AcDbSymbolTableRecord
100
AcDbLayerTableRecord
  2
図枠太線
 70
     0
 62
   251
  6
CONTINUOUS
  0
LAYER
  5
62
330
2
100
AcDbSymbolTableRecord
100
AcDbLayerTableRecord
  2
図枠細線
 70
     0
 62
   252
  6
CONTINUOUS
  0
LAYER
  5
63
330
2
100
AcDbSymbolTableRecord
100
AcDbLayerTableRecord
  2
図枠ロゴマーク
 70
     0
 62
   253
  6
CONTINUOUS
  0
LAYER
  5
1EF
330
2
100
AcDbSymbolTableRecord
100
AcDbLayerTableRecord
  2
外形線
 70
     0
 62
     7
  6
CONTINUOUS
  0
LAYER
  5
1F0
330
2
100
AcDbSymbolTableRecord
100
AcDbLayerTableRecord
  2
寸法線
 70
     0
 62
     1
  6
CONTINUOUS
  0
LAYER
  5
1F1
330
2
100
AcDbSymbolTableRecord
100
AcDbLayerTableRecord
  2
中心線
 70
     0
 62
     4
  6
CENTER
  0
LAYER
  5
1F4
330
2
100
AcDbSymbolTableRecord
100
AcDbLayerTableRecord
  2
DEFPOINTS
 70
     0
 62
     7
  6
CONTINUOUS
  0
LAYER
  5
2AA2
330
2
100
AcDbSymbolTableRecord
100
AcDbLayerTableRecord
  2
下書線
 70
     0
 62
     2
  6
CONTINUOUS
  0
LAYER
  5
2AA3
330
2
100
AcDbSymbolTableRecord
100
AcDbLayerTableRecord
  2
隠れ線
 70
     0
 62
     3
  6
DASHED
  0
LAYER
  5
2AA4
330
2
100
AcDbSymbolTableRecord
100
AcDbLayerTableRecord
  2
細線
 70
     0
 62
     6
  6
CONTINUOUS
  0
LAYER
  5
2AA5
330
2
100
AcDbSymbolTableRecord
100
AcDbLayerTableRecord
  2
太線
 70
     0
 62
   190
  6
CONTINUOUS
  0
LAYER
  5
2B20
330
2
100
AcDbSymbolTableRecord
100
AcDbLayerTableRecord
  2
LAY-1
 70
     0
 62
     7
  6
CONTINUOUS
  0
LAYER
  5
5483
330
2
100
AcDbSymbolTableRecord
100
AcDbLayerTableRecord
  2
寸法線_文字
 70
     0
 62
     1
  6
CONTINUOUS
  0
ENDTAB
  0
TABLE
  2
STYLE
  5
3
330
0
100
AcDbSymbolTable
 70
     3
  0
STYLE
  5
10
330
3
100
AcDbSymbolTableRecord
100
AcDbTextStyleTableRecord
  2
STANDARD
 70
     0
 40
0.0
 41
1.0
 50
0.0
 71
     0
 42
2.333873885063
  3
ISOCP
  4
bigfont.shx
  0
STYLE
  5
64
330
3
100
AcDbSymbolTableRecord
100
AcDbTextStyleTableRecord
  2
EXCADSTD
 70
     0
 40
0.0
 41
1.0
 50
0.0
 71
     0
 42
0.2
  3
monotxt
  4
bigfont
  0
STYLE
  5
2B21
330
3
100
AcDbSymbolTableRecord
100
AcDbTextStyleTableRecord
  2
EXCADVERT
 70
     4
 40
0.0
 41
1.0
 50
0.0
 71
     0
 42
0.286885
  3
monotxt
  4
bigfont
  0
ENDTAB
  0
TABLE
  2
VIEW
  5
6
330
0
100
AcDbSymbolTable
 70
     0
  0
ENDTAB
  0
TABLE
  2
UCS
  5
7
330
0
100
AcDbSymbolTable
 70
     0
  0
ENDTAB
  0
TABLE
  2
APPID
  5
9
330
0
100
AcDbSymbolTable
 70
     3
  0
APPID
  5
11
330
9
100
AcDbSymbolTableRecord
100
AcDbRegAppTableRecord
  2
ACAD
 70
     0
  0
APPID
  5
70D4
330
9
100
AcDbSymbolTableRecord
100
AcDbRegAppTableRecord
  2
ACADANNOTATIVE
 70
     0
  0
APPID
  5
7271
330
9
100
AcDbSymbolTableRecord
100
AcDbRegAppTableRecord
  2
ACAD_MLEADERVER
 70
     0
  0
ENDTAB
  0
TABLE
  2
DIMSTYLE
  5
A
330
0
100
AcDbSymbolTable
 70
     2
  0
DIMSTYLE
105
1D
330
A
100
AcDbSymbolTableRecord
100
AcDbDimStyleTableRecord
  2
STANDARD
 70
     0
  3

  4

  5

  6

  7

 40
1.0
 41
0.18
 42
0.0625
 43
0.38
 44
0.18
 45
0.0
 46
0.0
 47
0.0
 48
0.0
140
0.18
141
0.09
142
0.0
143
25.4
144
1.0
145
0.0
146
1.0
147
0.09
 71
     0
 72
     0
 73
     1
 74
     1
 75
     0
 76
     0
 77
     0
 78
     0
170
     0
171
     2
172
     0
173
     0
174
     0
175
     0
176
     0
177
     0
178
     0
270
     2
271
     4
272
     4
273
     2
274
     2
340
10
275
     0
280
     0
281
     0
282
     0
283
     1
284
     0
285
     0
286
     0
287
     3
288
     0
  0
DIMSTYLE
105
24
102
{ACAD_REACTORS
330
668D
330
6690
330
64CD
330
64CE
330
6544
330
65EE
330
65EF
330
65F0
330
65FD
330
6601
330
660D
330
662A
330
662B
330
662E
330
6FEE
102
}
330
A
100
AcDbSymbolTableRecord
100
AcDbDimStyleTableRecord
  2
ISO-25
 70
     0
  3

  4

  5

  6

  7

 40
1.0
 41
2.5
 42
0.625
 43
3.75
 44
1.25
 45
0.0
 46
0.0
 47
0.0
 48
0.0
140
2.5
141
2.5
142
0.0
143
0.0394
144
1.0
145
1.0
146
1.0
147
0.625
 71
     0
 72
     0
 73
     1
 74
     0
 75
     0
 76
     0
 77
     1
 78
     8
170
     0
171
     2
172
     1
173
     0
174
     0
175
     0
176
     0
177
     0
178
     0
270
     2
271
     4
272
     4
273
     2
274
     2
340
10
275
     0
280
     0
281
     0
282
     0
283
     1
284
     0
285
     0
286
     0
287
     3
288
     0
  0
ENDTAB
  0
TABLE
  2
BLOCK_RECORD
  5
1
330
0
100
AcDbSymbolTable
 70
    45
  0
BLOCK_RECORD
  5
1A
330
1
100
AcDbSymbolTableRecord
100
AcDbBlockTableRecord
  2
*MODEL_SPACE
  0
BLOCK_RECORD
  5
28FB
330
1
100
AcDbSymbolTableRecord
100
AcDbBlockTableRecord
  2
*PAPER_SPACE
  0
BLOCK_RECORD
  5
65
330
1
100
AcDbSymbolTableRecord
100
AcDbBlockTableRecord
  2
A$C3392
  0
BLOCK_RECORD
  5
29BF
330
1
100
AcDbSymbolTableRecord
100
AcDbBlockTableRecord
  2
A4横用_タイトル
1001
ACAD
1000
DesignCenter Data
1002
{
1070
     1
1070
     4
1002
}
  0
BLOCK_RECORD
  5
29F4
330
1
100
AcDbSymbolTableRecord
100
AcDbBlockTableRecord
  2
A4縦用_タイトル
1001
ACAD
1000
DesignCenter Data
1002
{
1070
     1
1070
     4
1002
}
  0
BLOCK_RECORD
  5
2A32
330
1
100
AcDbSymbolTableRecord
100
AcDbBlockTableRecord
  2
A3横用_タイトル
1001
ACAD
1000
DesignCenter Data
1002
{
1070
     1
1070
     4
1002
}
  0
BLOCK_RECORD
  5
2A6C
330
1
100
AcDbSymbolTableRecord
100
AcDbBlockTableRecord
  2
A3縦用_タイトル
1001
ACAD
1000
DesignCenter Data
1002
{
1070
     1
1070
     4
1002
}
  0
BLOCK_RECORD
  5
2AF4
330
1
100
AcDbSymbolTableRecord
100
AcDbBlockTableRecord
  2
_OPEN30
  0
BLOCK_RECORD
  5
3024
330
1
100
AcDbSymbolTableRecord
100
AcDbBlockTableRecord
  2
パドル_W1
  0
BLOCK_RECORD
  5
3054
330
1
100
AcDbSymbolTableRecord
100
AcDbBlockTableRecord
  2
パドル_W1立面図
  0
BLOCK_RECORD
  5
3136
330
1
100
AcDbSymbolTableRecord
100
AcDbBlockTableRecord
  2
*D8
  0
BLOCK_RECORD
  5
3142
330
1
100
AcDbSymbolTableRecord
100
AcDbBlockTableRecord
  2
*D9
  0
BLOCK_RECORD
  5
314E
330
1
100
AcDbSymbolTableRecord
100
AcDbBlockTableRecord
  2
*D10
  0
BLOCK_RECORD
  5
315C
330
1
100
AcDbSymbolTableRecord
100
AcDbBlockTableRecord
  2
A$C384A4FFB
  0
BLOCK_RECORD
  5
34BA
330
1
100
AcDbSymbolTableRecord
100
AcDbBlockTableRecord
  2
A$C77C530E9
  0
BLOCK_RECORD
  5
66A0
330
1
100
AcDbSymbolTableRecord
100
AcDbBlockTableRecord
  2
*D13
  0
BLOCK_RECORD
  5
66C8
330
1
100
AcDbSymbolTableRecord
100
AcDbBlockTableRecord
  2
*D15
  0
BLOCK_RECORD
  5
66D4
330
1
100
AcDbSymbolTableRecord
100
AcDbBlockTableRecord
  2
*D16
  0
BLOCK_RECORD
  5
66E0
330
1
100
AcDbSymbolTableRecord
100
AcDbBlockTableRecord
  2
*D17
  0
BLOCK_RECORD
  5
66EC
330
1
100
AcDbSymbolTableRecord
100
AcDbBlockTableRecord
  2
*D18
  0
BLOCK_RECORD
  5
66FA
330
1
100
AcDbSymbolTableRecord
100
AcDbBlockTableRecord
  2
*D19
  0
BLOCK_RECORD
  5
6706
330
1
100
AcDbSymbolTableRecord
100
AcDbBlockTableRecord
  2
*D20
  0
BLOCK_RECORD
  5
6712
330
1
100
AcDbSymbolTableRecord
100
AcDbBlockTableRecord
  2
*D21
  0
BLOCK_RECORD
  5
671E
330
1
100
AcDbSymbolTableRecord
100
AcDbBlockTableRecord
  2
*D22
  0
BLOCK_RECORD
  5
672A
330
1
100
AcDbSymbolTableRecord
100
AcDbBlockTableRecord
  2
*D23
  0
BLOCK_RECORD
  5
6736
330
1
100
AcDbSymbolTableRecord
100
AcDbBlockTableRecord
  2
*D24
  0
BLOCK_RECORD
  5
6751
330
1
100
AcDbSymbolTableRecord
100
AcDbBlockTableRecord
  2
*D25
  0
BLOCK_RECORD
  5
675D
330
1
100
AcDbSymbolTableRecord
100
AcDbBlockTableRecord
  2
*D26
  0
BLOCK_RECORD
  5
6769
330
1
100
AcDbSymbolTableRecord
100
AcDbBlockTableRecord
  2
*D27
  0
BLOCK_RECORD
  5
6F87
330
1
100
AcDbSymbolTableRecord
100
AcDbBlockTableRecord
  2
A$C02273BBC
  0
BLOCK_RECORD
  5
6FEF
330
1
100
AcDbSymbolTableRecord
100
AcDbBlockTableRecord
  2
*D44
  0
ENDTAB
  0
ENDSEC
  0
SECTION
  2
BLOCKS
  0
BLOCK
  5
1B
330
1A
100
AcDbEntity
  8
0
100
AcDbBlockBegin
  2
*MODEL_SPACE
 70
     0
 10
0.0
 20
0.0
 30
0.0
  3
*MODEL_SPACE
  1

  0
ENDBLK
  5
1C
330
1A
100
AcDbEntity
  8
0
100
AcDbBlockEnd
  0
BLOCK
  5
28FD
330
28FB
100
AcDbEntity
 67
     1
  8
0
 48
10.0
100
AcDbBlockBegin
  2
*PAPER_SPACE
 70
     0
 10
0.0
 20
0.0
 30
0.0
  3
*PAPER_SPACE
  1

  0
ENDBLK
  5
28FE
330
28FB
100
AcDbEntity
 67
     1
  8
0
 48
10.0
100
AcDbBlockEnd
  0
BLOCK
  5
93
330
65
100
AcDbEntity
  8
0
100
AcDbBlockBegin
  2
A$C3392
 70
     0
 10
0.0
 20
0.0
 30
0.0
  3
A$C3392
  1
A$C3392
  0
LINE
  5
66
330
65
100
AcDbEntity
  8
図枠太線
  6
CONTINUOUS
100
AcDbLine
 10
211.858584505185
 20
30.927375675439
 30
0.0
 11
211.858584505185
 21
0.927375675439
 31
0.0
  0
LINE
  5
67
330
65
100
AcDbEntity
  8
図枠細線
  6
CONTINUOUS
100
AcDbLine
 10
231.858592505185
 20
15.927377675439
 30
0.0
 11
287.858592505185
 21
15.927375675439
 31
0.0
  0
LINE
  5
68
330
65
100
AcDbEntity
  8
図枠細線
  6
CONTINUOUS
100
AcDbLine
 10
211.858592505185
 20
15.927377675439
 30
0.0
 11
231.858592505185
 21
15.927377675439
 31
0.0
  0
LINE
  5
69
330
65
100
AcDbEntity
  8
図枠太線
  6
CONTINUOUS
 62
   251
100
AcDbLine
 10
1.858584505185
 20
0.927375675439
 30
0.0
 11
1.858584505185
 21
275.927375675439
 31
0.0
  0
TEXT
  5
6A
330
65
100
AcDbEntity
  8
図枠細線
  6
CONTINUOUS
 62
   252
100
AcDbText
 10
351.358592505185
 20
28.427377675439
 30
0.0
 40
2.0
  1
ＴＩＴＬＥ
 41
0.903614457831
  7
EXCADSTD
 72
     5
 11
361.358592505185
 21
28.427377675439
 31
0.0
100
AcDbText
  0
TEXT
  5
6B
330
65
100
AcDbEntity
  8
図枠細線
  6
CONTINUOUS
 62
   252
100
AcDbText
 10
345.358592505185
 20
28.427377675439
 30
0.0
 40
2.0
  1
名称
 41
1.171875
  7
EXCADSTD
 72
     5
 11
350.358592505185
 21
28.427377675439
 31
0.0
100
AcDbText
  0
TEXT
  5
6C
330
65
100
AcDbEntity
  8
図枠細線
  6
CONTINUOUS
 62
   252
100
AcDbText
 10
274.358592505185
 20
25.927377675439
 30
0.0
 40
2.0
  1
ＤＲＡＷＮ
 41
0.882352941176
  7
EXCADSTD
 72
     5
 11
284.358592505185
 21
25.927377675439
 31
0.0
100
AcDbText
  0
TEXT
  5
6D
330
65
100
AcDbEntity
  8
図枠細線
  6
CONTINUOUS
 62
   252
100
AcDbText
 10
260.358592505185
 20
25.927377675439
 30
0.0
 40
2.0
  1
ＤＥＳＩＧＮＥＤ
 41
0.713043472041
  7
EXCADSTD
 72
     5
 11
273.478592390744
 21
25.927377675439
 31
0.0
100
AcDbText
  0
TEXT
  5
6E
330
65
100
AcDbEntity
  8
図枠細線
  6
CONTINUOUS
 62
   252
100
AcDbText
 10
246.358592505185
 20
25.927377675439
 30
0.0
 40
2.0
  1
ＣＨＥＣＫＥＤ
 41
0.831249989569
  7
EXCADSTD
 72
     5
 11
259.658592338292
 21
25.927377675439
 31
0.0
100
AcDbText
  0
TEXT
  5
6F
330
65
100
AcDbEntity
  8
図枠細線
  6
CONTINUOUS
 62
   252
100
AcDbText
 10
274.358592505185
 20
28.427377675439
 30
0.0
 40
2.0
  1
製図
 41
1.209677419355
  7
EXCADSTD
 72
     5
 11
279.358592505185
 21
28.427377675439
 31
0.0
100
AcDbText
  0
TEXT
  5
70
330
65
100
AcDbEntity
  8
図枠細線
  6
CONTINUOUS
 62
   252
100
AcDbText
 10
260.358592505185
 20
28.427377675439
 30
0.0
 40
2.0
  1
設計
 41
1.171875
  7
EXCADSTD
 72
     5
 11
265.358592505185
 21
28.427377675439
 31
0.0
100
AcDbText
  0
TEXT
  5
71
330
65
100
AcDbEntity
  8
図枠細線
  6
CONTINUOUS
 62
   252
100
AcDbText
 10
246.358592505185
 20
28.427377675439
 30
0.0
 40
2.0
  1
検図
 41
1.209677419355
  7
EXCADSTD
 72
     5
 11
251.358592505185
 21
28.427377675439
 31
0.0
100
AcDbText
  0
TEXT
  5
72
330
65
100
AcDbEntity
  8
図枠細線
  6
CONTINUOUS
 62
   252
100
AcDbText
 10
232.358592505185
 20
25.927377675439
 30
0.0
 40
2.0
  1
ＡＰＰＲＯＶＥＤ
 41
0.695652184279
  7
EXCADSTD
 72
     5
 11
245.15859269592
 21
25.927377675439
 31
0.0
100
AcDbText
  0
TEXT
  5
73
330
65
100
AcDbEntity
  8
図枠細線
  6
CONTINUOUS
 62
   252
100
AcDbText
 10
232.358592505185
 20
28.427377675439
 30
0.0
 40
2.0
  1
承認
 41
1.171875
  7
EXCADSTD
 72
     5
 11
237.358592505185
 21
28.427377675439
 31
0.0
100
AcDbText
  0
TEXT
  5
74
330
65
100
AcDbEntity
  8
図枠細線
  6
CONTINUOUS
 62
   252
100
AcDbText
 10
290.069888505185
 20
2.574868675439
 30
0.0
 40
3.5
  1
ＴＯＷＡ　ＳＥＩＤＥＮ　ＩＮＤＵＳＴＲＩＡＬ　ＣＯ．，ＬＴＤ．
 41
0.414568012377
  7
EXCADSTD
 72
     5
 11
342.692388209546
 21
2.574868675439
 31
0.0
100
AcDbText
  0
TEXT
  5
75
330
65
100
AcDbEntity
  8
図枠ロゴマーク
  6
CONTINUOUS
 62
   253
100
AcDbText
 10
290.107348505185
 20
7.519769675439
 30
0.0
 40
7.0
  1
東和制電工業株式会社
 41
0.639204545455
  7
EXCADSTD
 72
     5
 11
342.607348505185
 21
7.519769675439
 31
0.0
100
AcDbText
  0
TEXT
  5
76
330
65
100
AcDbEntity
  8
図枠細線
  6
CONTINUOUS
 62
   252
100
AcDbText
 10
232.499705505185
 20
5.759088675439
 30
0.0
 40
2.0
  1
ＰＲＯＪＥＣＴＩＯＮ
 41
0.754285710199
  7
EXCADSTD
 72
     5
 11
250.099705409817
 21
5.759088675439
 31
0.0
100
AcDbText
  0
TEXT
  5
77
330
65
100
AcDbEntity
  8
図枠細線
  6
CONTINUOUS
 62
   252
100
AcDbText
 10
232.574629505185
 20
8.681077675439
 30
0.0
 40
2.0
  1
ＴＨＩＲＤ　ＡＮＧＬＥ
 41
0.691099486738
  7
EXCADSTD
 72
     5
 11
250.174629767445
 21
8.681077675439
 31
0.0
100
AcDbText
  0
TEXT
  5
78
330
65
100
AcDbEntity
  8
図枠細線
  6
CONTINUOUS
 62
   252
100
AcDbText
 10
256.823999505185
 20
13.427377675439
 30
0.0
 40
2.0
  1
ＳＣＡＬＥ
 41
0.903614457831
  7
EXCADSTD
 72
     5
 11
266.823999505185
 21
13.427377675439
 31
0.0
100
AcDbText
  0
TEXT
  5
79
330
65
100
AcDbEntity
  8
図枠細線
  6
CONTINUOUS
 62
   252
100
AcDbText
 10
274.858592505185
 20
13.427377675439
 30
0.0
 40
2.0
  1
ＤＡＴＥ
 41
0.923076923077
  7
EXCADSTD
 72
     5
 11
282.858592505185
 21
13.427377675439
 31
0.0
100
AcDbText
  0
TEXT
  5
7A
330
65
100
AcDbEntity
  8
図枠細線
  6
CONTINUOUS
 62
   252
100
AcDbText
 10
356.358592505185
 20
13.427377675439
 30
0.0
 40
2.0
  1
ＤＲＧ．ＮＯ．
 41
0.9375
  7
EXCADSTD
 72
     5
 11
370.358592505185
 21
13.427377675439
 31
0.0
100
AcDbText
  0
TEXT
  5
7B
330
65
100
AcDbEntity
  8
図枠細線
  6
CONTINUOUS
 62
   252
100
AcDbText
 10
345.358592505185
 20
13.427377675439
 30
0.0
 40
2.0
  1
図面番号
 41
1.102941176471
  7
EXCADSTD
 72
     5
 11
355.358592505185
 21
13.427377675439
 31
0.0
100
AcDbText
  0
TEXT
  5
7C
330
65
100
AcDbEntity
  8
図枠細線
  6
CONTINUOUS
 62
   252
100
AcDbText
 10
269.358592505185
 20
13.427377675439
 30
0.0
 40
2.0
  1
日付
 41
1.171875
  7
EXCADSTD
 72
     5
 11
274.358592505185
 21
13.427377675439
 31
0.0
100
AcDbText
  0
TEXT
  5
7D
330
65
100
AcDbEntity
  8
図枠細線
  6
CONTINUOUS
 62
   252
100
AcDbText
 10
251.451512505185
 20
13.427377675439
 30
0.0
 40
2.0
  1
尺度
 41
1.171875
  7
EXCADSTD
 72
     5
 11
256.451512505185
 21
13.427377675439
 31
0.0
100
AcDbText
  0
TEXT
  5
7E
330
65
100
AcDbEntity
  8
図枠細線
  6
CONTINUOUS
 62
   252
100
AcDbText
 10
232.358592505185
 20
13.427377675439
 30
0.0
 40
2.0
  1
第三角法
 41
1.102941176471
  7
EXCADSTD
 72
     5
 11
242.358592505185
 21
13.427377675439
 31
0.0
100
AcDbText
  0
TEXT
  5
7F
330
65
100
AcDbEntity
  8
図枠細線
  6
CONTINUOUS
 62
   252
100
AcDbText
 10
212.358592505185
 20
28.427377675439
 30
0.0
 40
2.0
  1
ＮＯＴＥ
 41
0.923076923077
  7
EXCADSTD
 72
     5
 11
220.358592505185
 21
28.427377675439
 31
0.0
100
AcDbText
  0
LINE
  5
80
330
65
100
AcDbEntity
  8
図枠細線
  6
CONTINUOUS
 62
   252
100
AcDbLine
 10
287.858592505185
 20
23.427375675439
 30
0.0
 11
344.858592505185
 21
23.427375675439
 31
0.0
  0
LINE
  5
81
330
65
100
AcDbEntity
  8
図枠太線
  6
CONTINUOUS
 62
   251
100
AcDbLine
 10
287.858584505185
 20
15.927375675439
 30
0.0
 11
344.858592505185
 21
15.927375675439
 31
0.0
  0
LINE
  5
82
330
65
100
AcDbEntity
  8
図枠細線
  6
CONTINUOUS
 62
   252
100
AcDbLine
 10
344.858592505185
 20
15.927375675439
 30
0.0
 11
401.858584505185
 21
15.927375675439
 31
0.0
  0
LINE
  5
83
330
65
100
AcDbEntity
  8
図枠太線
  6
CONTINUOUS
 62
   251
100
AcDbLine
 10
344.858592505185
 20
0.927377675439
 30
0.0
 11
344.858592505185
 21
30.927375675439
 31
0.0
  0
LINE
  5
84
330
65
100
AcDbEntity
  8
図枠太線
  6
CONTINUOUS
 62
   251
100
AcDbLine
 10
287.858592505185
 20
0.927377675439
 30
0.0
 11
287.858592505185
 21
30.927375675439
 31
0.0
  0
LINE
  5
85
330
65
100
AcDbEntity
  8
図枠細線
  6
CONTINUOUS
 62
   252
100
AcDbLine
 10
268.858592505185
 20
0.927377675439
 30
0.0
 11
268.858592505185
 21
15.927375675439
 31
0.0
  0
LINE
  5
86
330
65
100
AcDbEntity
  8
図枠細線
  6
CONTINUOUS
 62
   252
100
AcDbLine
 10
250.858592505185
 20
0.927377675439
 30
0.0
 11
250.858592505185
 21
15.927375675439
 31
0.0
  0
LINE
  5
87
330
65
100
AcDbEntity
  8
図枠細線
  6
CONTINUOUS
 62
   252
100
AcDbLine
 10
273.858592505185
 20
30.927375675439
 30
0.0
 11
273.858592505185
 21
15.927375675439
 31
0.0
  0
LINE
  5
88
330
65
100
AcDbEntity
  8
図枠細線
  6
CONTINUOUS
 62
   252
100
AcDbLine
 10
259.858592505185
 20
30.927375675439
 30
0.0
 11
259.858592505185
 21
15.927375675439
 31
0.0
  0
LINE
  5
89
330
65
100
AcDbEntity
  8
図枠細線
  6
CONTINUOUS
 62
   252
100
AcDbLine
 10
245.858592505185
 20
30.927375675439
 30
0.0
 11
245.858592505185
 21
15.927375675439
 31
0.0
  0
LINE
  5
8A
330
65
100
AcDbEntity
  8
図枠太線
  6
CONTINUOUS
 62
   251
100
AcDbLine
 10
231.858592505185
 20
0.927377675439
 30
0.0
 11
231.858592505185
 21
30.927375675439
 31
0.0
  0
LINE
  5
8B
330
65
100
AcDbEntity
  8
図枠細線
  6
CONTINUOUS
 62
   252
100
AcDbLine
 10
211.858592505185
 20
25.927375675439
 30
0.0
 11
231.858592505185
 21
25.927375675439
 31
0.0
  0
LINE
  5
8C
330
65
100
AcDbEntity
  8
図枠細線
  6
CONTINUOUS
 62
   252
100
AcDbLine
 10
211.858592505185
 20
20.927375675439
 30
0.0
 11
231.858592505185
 21
20.927375675439
 31
0.0
  0
LINE
  5
8D
330
65
100
AcDbEntity
  8
図枠細線
  6
CONTINUOUS
 62
   252
100
AcDbLine
 10
211.858592505185
 20
10.927375675439
 30
0.0
 11
231.858592505185
 21
10.927375675439
 31
0.0
  0
LINE
  5
8E
330
65
100
AcDbEntity
  8
図枠細線
  6
CONTINUOUS
 62
   252
100
AcDbLine
 10
211.858592505185
 20
5.927377675439
 30
0.0
 11
231.858592505185
 21
5.927377675439
 31
0.0
  0
LINE
  5
8F
330
65
100
AcDbEntity
  8
図枠太線
  6
CONTINUOUS
 62
   251
100
AcDbLine
 10
211.858592505185
 20
30.927375675439
 30
0.0
 11
401.858584505185
 21
30.927375675439
 31
0.0
  0
LINE
  5
90
330
65
100
AcDbEntity
  8
図枠太線
  6
CONTINUOUS
 62
   251
100
AcDbLine
 10
1.858584505185
 20
275.927375675439
 30
0.0
 11
401.858584505185
 21
275.927375675439
 31
0.0
  0
LINE
  5
91
330
65
100
AcDbEntity
  8
図枠太線
  6
CONTINUOUS
 62
   251
100
AcDbLine
 10
401.858584505185
 20
0.927375675439
 30
0.0
 11
401.858584505185
 21
275.927375675439
 31
0.0
  0
LINE
  5
92
330
65
100
AcDbEntity
  8
図枠太線
  6
CONTINUOUS
 62
   251
100
AcDbLine
 10
1.858584505185
 20
0.927375675439
 30
0.0
 11
401.858584505185
 21
0.927375675439
 31
0.0
  0
ENDBLK
  5
94
330
65
100
AcDbEntity
  8
0
100
AcDbBlockEnd
  0
BLOCK
  5
29C0
330
29BF
100
AcDbEntity
  8
0
100
AcDbBlockBegin
  2
A4横用_タイトル
 70
     0
 10
0.0
 20
0.0
 30
0.0
  3
A4横用_タイトル
  1
A4横用_タイトル
  0
LINE
  5
29C1
330
29BF
100
AcDbEntity
  8
図枠細線
  6
CONTINUOUS
100
AcDbLine
 10
75.061011071051
 20
16.806607253358
 30
0.0
 11
144.061011071051
 21
16.806604789072
 31
0.0
  0
LINE
  5
29C2
330
29BF
100
AcDbEntity
  8
図枠細線
  6
CONTINUOUS
 62
   252
100
AcDbLine
 10
4.061011071051
 20
11.806606253358
 30
0.0
 11
75.061011071051
 21
11.806606253358
 31
0.0
  0
LINE
  5
29C3
330
29BF
100
AcDbEntity
  8
図枠細線
  6
CONTINUOUS
 62
   252
100
AcDbLine
 10
4.061011071051
 20
21.806606253358
 30
0.0
 11
75.061011071051
 21
21.806606253358
 31
0.0
  0
LINE
  5
29C4
330
29BF
100
AcDbEntity
  8
図枠細線
  6
CONTINUOUS
 62
   252
100
AcDbLine
 10
4.061011071051
 20
26.806606253358
 30
0.0
 11
75.061011071051
 21
26.806606253358
 31
0.0
  0
LINE
  5
29C5
330
29BF
100
AcDbEntity
  8
図枠細線
  6
CONTINUOUS
100
AcDbLine
 10
4.061011071051
 20
16.806608253358
 30
0.0
 11
75.061011071051
 21
16.806608253358
 31
0.0
  0
TEXT
  5
29C6
330
29BF
100
AcDbEntity
  8
図枠細線
  6
CONTINUOUS
 62
   252
100
AcDbText
 10
76.405475827713
 20
9.560308253358
 30
0.0
 40
2.0
  1
ＴＨＩＲＤ　ＡＮＧＬＥ
 41
0.691099486738
  7
EXCADSTD
 72
     5
 11
94.005476089973
 21
9.560308253358
 31
0.0
100
AcDbText
  0
TEXT
  5
29C7
330
29BF
100
AcDbEntity
  8
図枠細線
  6
CONTINUOUS
 62
   252
100
AcDbText
 10
76.705775880921
 20
14.306608253358
 30
0.0
 40
2.0
  1
第三角法
 41
1.102941176471
  7
EXCADSTD
 72
     5
 11
86.705775880921
 21
14.306608253358
 31
0.0
100
AcDbText
  0
TEXT
  5
29C8
330
29BF
100
AcDbEntity
  8
図枠細線
  6
CONTINUOUS
 62
   252
100
AcDbText
 10
76.705775880921
 20
26.806608253358
 30
0.0
 40
2.0
  1
ＡＰＰＲＯＶＥＤ
 41
0.695652184279
  7
EXCADSTD
 72
     5
 11
89.505776071656
 21
26.806608253358
 31
0.0
100
AcDbText
  0
TEXT
  5
29C9
330
29BF
100
AcDbEntity
  8
図枠細線
  6
CONTINUOUS
 62
   252
100
AcDbText
 10
76.705775880921
 20
29.306608253358
 30
0.0
 40
2.0
  1
承認
 41
1.171875
  7
EXCADSTD
 72
     5
 11
81.705775880921
 21
29.306608253358
 31
0.0
100
AcDbText
  0
LINE
  5
29CA
330
29BF
100
AcDbEntity
  8
図枠細線
  6
CONTINUOUS
 62
   252
100
AcDbLine
 10
98.061011071051
 20
31.806606253358
 30
0.0
 11
98.061011071051
 21
16.806606253358
 31
0.0
  0
TEXT
  5
29CB
330
29BF
100
AcDbEntity
  8
図枠細線
  6
CONTINUOUS
 62
   252
100
AcDbText
 10
104.216531119804
 20
14.306608253358
 30
0.0
 40
2.0
  1
ＳＣＡＬＥ
 41
0.903614457831
  7
EXCADSTD
 72
     5
 11
114.216531119804
 21
14.306608253358
 31
0.0
100
AcDbText
  0
TEXT
  5
29CC
330
29BF
100
AcDbEntity
  8
図枠細線
  6
CONTINUOUS
 62
   252
100
AcDbText
 10
98.844044119804
 20
14.306608253358
 30
0.0
 40
2.0
  1
尺度
 41
1.171875
  7
EXCADSTD
 72
     5
 11
103.844044119804
 21
14.306608253358
 31
0.0
100
AcDbText
  0
TEXT
  5
29CD
330
29BF
100
AcDbEntity
  8
図枠細線
  6
CONTINUOUS
 62
   252
100
AcDbText
 10
98.968727707497
 20
26.806608253358
 30
0.0
 40
2.0
  1
ＣＨＥＣＫＥＤ
 41
0.831249989569
  7
EXCADSTD
 72
     5
 11
112.268727540604
 21
26.806608253358
 31
0.0
100
AcDbText
  0
TEXT
  5
29CE
330
29BF
100
AcDbEntity
  8
図枠細線
  6
CONTINUOUS
 62
   252
100
AcDbText
 10
98.968727707497
 20
29.306608253358
 30
0.0
 40
2.0
  1
検図
 41
1.209677419355
  7
EXCADSTD
 72
     5
 11
103.968727707497
 21
29.306608253358
 31
0.0
100
AcDbText
  0
LINE
  5
29CF
330
29BF
100
AcDbEntity
  8
図枠細線
  6
CONTINUOUS
 62
   252
100
AcDbLine
 10
121.061011071051
 20
31.806606253358
 30
0.0
 11
121.061011071051
 21
16.806606253358
 31
0.0
  0
TEXT
  5
29D0
330
29BF
100
AcDbEntity
  8
図枠細線
  6
CONTINUOUS
 62
   252
100
AcDbText
 10
128.001465247253
 20
14.306608253358
 30
0.0
 40
2.0
  1
ＤＡＴＥ
 41
0.923076923077
  7
EXCADSTD
 72
     5
 11
136.001465247253
 21
14.306608253358
 31
0.0
100
AcDbText
  0
TEXT
  5
29D1
330
29BF
100
AcDbEntity
  8
図枠細線
  6
CONTINUOUS
 62
   252
100
AcDbText
 10
122.066415498841
 20
14.306608253358
 30
0.0
 40
2.0
  1
日付
 41
1.171875
  7
EXCADSTD
 72
     5
 11
127.066415498841
 21
14.306608253358
 31
0.0
100
AcDbText
  0
TEXT
  5
29D2
330
29BF
100
AcDbEntity
  8
図枠細線
  6
CONTINUOUS
 62
   252
100
AcDbText
 10
121.59429406571
 20
29.306608253358
 30
0.0
 40
2.0
  1
製図
 41
1.209677419355
  7
EXCADSTD
 72
     5
 11
126.59429406571
 21
29.306608253358
 31
0.0
100
AcDbText
  0
TEXT
  5
29D3
330
29BF
100
AcDbEntity
  8
図枠細線
  6
CONTINUOUS
 62
   252
100
AcDbText
 10
121.59429406571
 20
26.806608253358
 30
0.0
 40
2.0
  1
ＤＲＡＷＮ
 41
0.882352941176
  7
EXCADSTD
 72
     5
 11
131.59429406571
 21
26.806608253358
 31
0.0
100
AcDbText
  0
TEXT
  5
29D4
330
29BF
100
AcDbEntity
  8
図枠細線
  6
CONTINUOUS
 62
   252
100
AcDbText
 10
226.591229661348
 20
14.306608253358
 30
0.0
 40
2.0
  1
ＤＲＧ．ＮＯ．
 41
0.9375
  7
EXCADSTD
 72
     5
 11
240.591229661348
 21
14.306608253358
 31
0.0
100
AcDbText
  0
LINE
  5
29D5
330
29BF
100
AcDbEntity
  8
図枠太線
  6
CONTINUOUS
 62
   251
100
AcDbLine
 10
144.061003071051
 20
16.806606253358
 30
0.0
 11
214.061011071051
 21
16.806606253358
 31
0.0
  0
LINE
  5
29D6
330
29BF
100
AcDbEntity
  8
図枠細線
  6
CONTINUOUS
 62
   252
100
AcDbLine
 10
144.061011071051
 20
24.306606253358
 30
0.0
 11
214.061011071051
 21
24.306606253358
 31
0.0
  0
TEXT
  5
29D7
330
29BF
100
AcDbEntity
  8
図枠ロゴマーク
  6
CONTINUOUS
 62
   253
100
AcDbText
 10
146.433776781596
 20
8.399000253358
 30
0.0
 40
7.0
  1
東和制電工業株式会社
 41
0.80361088462
  7
EXCADSTD
 72
     5
 11
212.437017438349
 21
8.399000253358
 31
0.0
100
AcDbText
  0
TEXT
  5
29D8
330
29BF
100
AcDbEntity
  8
図枠細線
  6
CONTINUOUS
 62
   252
100
AcDbText
 10
215.156179912936
 20
14.306608253358
 30
0.0
 40
2.0
  1
図面番号
 41
1.102941176471
  7
EXCADSTD
 72
     5
 11
225.156179912936
 21
14.306608253358
 31
0.0
100
AcDbText
  0
TEXT
  5
29D9
330
29BF
100
AcDbEntity
  8
図枠細線
  6
CONTINUOUS
 62
   252
100
AcDbText
 10
221.591229661348
 20
29.306608253358
 30
0.0
 40
2.0
  1
ＴＩＴＬＥ
 41
0.903614457831
  7
EXCADSTD
 72
     5
 11
231.591229661348
 21
29.306608253358
 31
0.0
100
AcDbText
  0
TEXT
  5
29DA
330
29BF
100
AcDbEntity
  8
図枠細線
  6
CONTINUOUS
 62
   252
100
AcDbText
 10
215.156179912936
 20
29.306608253358
 30
0.0
 40
2.0
  1
名称
 41
1.171875
  7
EXCADSTD
 72
     5
 11
220.156179912936
 21
29.306608253358
 31
0.0
100
AcDbText
  0
LINE
  5
29DB
330
29BF
100
AcDbEntity
  8
図枠太線
  6
CONTINUOUS
 62
   251
100
AcDbLine
 10
4.061011071051
 20
1.806608253358
 30
0.0
 11
284.061011071051
 21
1.806608253358
 31
0.0
  0
LINE
  5
29DC
330
29BF
100
AcDbEntity
  8
図枠細線
  6
CONTINUOUS
 62
   252
100
AcDbLine
 10
4.061011071051
 20
6.806608253358
 30
0.0
 11
75.061011071051
 21
6.806608253358
 31
0.0
  0
LINE
  5
29DD
330
29BF
100
AcDbEntity
  8
図枠太線
  6
CONTINUOUS
 62
   251
100
AcDbLine
 10
75.061011071051
 20
1.806608253358
 30
0.0
 11
75.061011071051
 21
31.806606253358
 31
0.0
  0
TEXT
  5
29DE
330
29BF
100
AcDbEntity
  8
図枠細線
  6
CONTINUOUS
 62
   252
100
AcDbText
 10
76.330551827713
 20
6.638319253358
 30
0.0
 40
2.0
  1
ＰＲＯＪＥＣＴＩＯＮ
 41
0.754285710199
  7
EXCADSTD
 72
     5
 11
93.930551732346
 21
6.638319253358
 31
0.0
100
AcDbText
  0
LINE
  5
29DF
330
29BF
100
AcDbEntity
  8
図枠細線
  6
CONTINUOUS
 62
   252
100
AcDbLine
 10
98.061011071051
 20
1.806606931929
 30
0.0
 11
98.061011071051
 21
16.806604931929
 31
0.0
  0
LINE
  5
29E0
330
29BF
100
AcDbEntity
  8
図枠細線
  6
CONTINUOUS
 62
   252
100
AcDbLine
 10
121.061011071051
 20
1.806607574787
 30
0.0
 11
121.061011071051
 21
16.806605574787
 31
0.0
  0
LINE
  5
29E1
330
29BF
100
AcDbEntity
  8
図枠太線
  6
CONTINUOUS
 62
   251
100
AcDbLine
 10
284.061011071051
 20
1.806608253358
 30
0.0
 11
284.061011071051
 21
31.806606253358
 31
0.0
  0
LINE
  5
29E2
330
29BF
100
AcDbEntity
  8
図枠細線
  6
CONTINUOUS
 62
   252
100
AcDbLine
 10
214.061011071051
 20
16.806606253358
 30
0.0
 11
284.061011071051
 21
16.806606253358
 31
0.0
  0
TEXT
  5
29E3
330
29BF
100
AcDbEntity
  8
図枠細線
  6
CONTINUOUS
 62
   252
100
AcDbText
 10
146.199593676182
 20
3.454099253358
 30
0.0
 40
3.5
  1
ＴＯＷＡ　ＳＥＩＤＥＮ　ＩＮＤＵＳＴＲＩＡＬ　ＣＯ．，ＬＴＤ．
 41
0.528937826907
  7
EXCADSTD
 72
     5
 11
213.339435171588
 21
3.454099253358
 31
0.0
100
AcDbText
  0
LINE
  5
29E4
330
29BF
100
AcDbEntity
  8
図枠太線
  6
CONTINUOUS
 62
   251
100
AcDbLine
 10
144.061011071051
 20
1.806608253358
 30
0.0
 11
144.061011071051
 21
31.806606253358
 31
0.0
  0
LINE
  5
29E5
330
29BF
100
AcDbEntity
  8
図枠太線
  6
CONTINUOUS
 62
   251
100
AcDbLine
 10
214.061011071051
 20
1.806608253358
 30
0.0
 11
214.061011071051
 21
31.806606253358
 31
0.0
  0
MTEXT
  5
29E6
330
29BF
100
AcDbEntity
  8
図枠太線
100
AcDbMText
 10
5.064337346478
 20
31.010982137407
 30
0.0
 40
2.5
 41
8.67856098472
 71
     1
 72
     5
  1
{\Fmonotxt.shx,bigfont.shx|c128;図暦}
  0
LINE
  5
29E7
330
29BF
100
AcDbEntity
  8
図枠太線
  6
CONTINUOUS
 62
   251
100
AcDbLine
 10
4.061011071051
 20
1.806608253358
 30
0.0
 11
4.061011071051
 21
31.806606253358
 31
0.0
  0
TEXT
  5
29E8
330
29BF
100
AcDbEntity
  8
図枠細線
 48
10.0
100
AcDbText
 10
12.260817420402
 20
28.625419626495
 30
0.0
 40
2.0
  1
CHANGE NOTICE
100
AcDbText
  0
ENDBLK
  5
29E9
330
29BF
100
AcDbEntity
  8
0
100
AcDbBlockEnd
  0
BLOCK
  5
29F5
330
29F4
100
AcDbEntity
  8
0
100
AcDbBlockBegin
  2
A4縦用_タイトル
 70
     0
 10
0.0
 20
0.0
 30
0.0
  3
A4縦用_タイトル
  1
A4縦用_タイトル
  0
LINE
  5
29F6
330
29F4
100
AcDbEntity
  8
図枠太線
  6
CONTINUOUS
 62
   251
100
AcDbLine
 10
2.368253864267
 20
4.525433224584
 30
0.0
 11
192.368245864267
 21
4.525433224584
 31
0.0
  0
LINE
  5
29F7
330
29F4
100
AcDbEntity
  8
図枠太線
  6
CONTINUOUS
 62
   251
100
AcDbLine
 10
78.368245864267
 20
19.525431224584
 30
0.0
 11
135.368253864267
 21
19.525431224584
 31
0.0
  0
LINE
  5
29F8
330
29F4
100
AcDbEntity
  8
図枠細線
  6
CONTINUOUS
 62
   252
100
AcDbLine
 10
78.368253864267
 20
27.025431224584
 30
0.0
 11
135.368253864267
 21
27.025431224584
 31
0.0
  0
TEXT
  5
29F9
330
29F4
100
AcDbEntity
  8
図枠ロゴマーク
  6
CONTINUOUS
 62
   253
100
AcDbText
 10
80.617009864267
 20
11.117825224584
 30
0.0
 40
7.0
  1
東和制電工業株式会社
 41
0.639204545455
  7
EXCADSTD
 72
     5
 11
133.117009864267
 21
11.117825224584
 31
0.0
100
AcDbText
  0
TEXT
  5
29FA
330
29F4
100
AcDbEntity
  8
図枠細線
  6
CONTINUOUS
 62
   252
100
AcDbText
 10
80.579549864267
 20
6.172924224584
 30
0.0
 40
3.5
  1
ＴＯＷＡ　ＳＥＩＤＥＮ　ＩＮＤＵＳＴＲＩＡＬ　ＣＯ．，ＬＴＤ．
 41
0.414568012377
  7
EXCADSTD
 72
     5
 11
133.202049568628
 21
6.172924224584
 31
0.0
100
AcDbText
  0
LINE
  5
29FB
330
29F4
100
AcDbEntity
  8
図枠太線
  6
CONTINUOUS
 62
   251
100
AcDbLine
 10
2.368253864267
 20
4.525433224584
 30
0.0
 11
2.368253864267
 21
34.525431224584
 31
0.0
  0
TEXT
  5
29FC
330
29F4
100
AcDbEntity
  8
図枠細線
  6
CONTINUOUS
 62
   252
100
AcDbText
 10
22.504308136501
 20
12.279133224584
 30
0.0
 40
2.0
  1
ＴＨＩＲＤ　ＡＮＧＬＥ
 41
0.691099486738
  7
EXCADSTD
 72
     5
 11
40.104308398762
 21
12.279133224584
 31
0.0
100
AcDbText
  0
TEXT
  5
29FD
330
29F4
100
AcDbEntity
  8
図枠細線
  6
CONTINUOUS
 62
   252
100
AcDbText
 10
22.429384136501
 20
9.357144224584
 30
0.0
 40
2.0
  1
ＰＲＯＪＥＣＴＩＯＮ
 41
0.754285710199
  7
EXCADSTD
 72
     5
 11
40.029384041134
 21
9.357144224584
 31
0.0
100
AcDbText
  0
LINE
  5
29FE
330
29F4
100
AcDbEntity
  8
図枠細線
  6
CONTINUOUS
100
AcDbLine
 10
22.368253864267
 20
19.525433224584
 30
0.0
 11
78.368253864267
 21
19.525431224584
 31
0.0
  0
TEXT
  5
29FF
330
29F4
100
AcDbEntity
  8
図枠細線
  6
CONTINUOUS
 62
   252
100
AcDbText
 10
22.868253864267
 20
17.025433224584
 30
0.0
 40
2.0
  1
第三角法
 41
1.102941176471
  7
EXCADSTD
 72
     5
 11
32.868253864267
 21
17.025433224584
 31
0.0
100
AcDbText
  0
TEXT
  5
2A00
330
29F4
100
AcDbEntity
  8
図枠細線
  6
CONTINUOUS
 62
   252
100
AcDbText
 10
22.868253864267
 20
29.525433224584
 30
0.0
 40
2.0
  1
ＡＰＰＲＯＶＥＤ
 41
0.695652184279
  7
EXCADSTD
 72
     5
 11
35.668254055002
 21
29.525433224584
 31
0.0
100
AcDbText
  0
LINE
  5
2A01
330
29F4
100
AcDbEntity
  8
図枠細線
  6
CONTINUOUS
 62
   252
100
AcDbLine
 10
2.368253864267
 20
9.525433224584
 30
0.0
 11
22.368253864267
 21
9.525433224584
 31
0.0
  0
LINE
  5
2A02
330
29F4
100
AcDbEntity
  8
図枠細線
  6
CONTINUOUS
 62
   252
100
AcDbLine
 10
2.368253864267
 20
14.525431224584
 30
0.0
 11
22.368253864267
 21
14.525431224584
 31
0.0
  0
LINE
  5
2A03
330
29F4
100
AcDbEntity
  8
図枠細線
  6
CONTINUOUS
 62
   252
100
AcDbLine
 10
2.368253864267
 20
24.525431224584
 30
0.0
 11
22.368253864267
 21
24.525431224584
 31
0.0
  0
LINE
  5
2A04
330
29F4
100
AcDbEntity
  8
図枠細線
  6
CONTINUOUS
 62
   252
100
AcDbLine
 10
2.368253864267
 20
29.525431224584
 30
0.0
 11
22.368253864267
 21
29.525431224584
 31
0.0
  0
LINE
  5
2A05
330
29F4
100
AcDbEntity
  8
図枠細線
  6
CONTINUOUS
100
AcDbLine
 10
2.368253864267
 20
19.525433224584
 30
0.0
 11
22.368253864267
 21
19.525433224584
 31
0.0
  0
TEXT
  5
2A06
330
29F4
100
AcDbEntity
  8
図枠細線
  6
CONTINUOUS
 62
   252
100
AcDbText
 10
2.868253864267
 20
32.025433224584
 30
0.0
 40
2.0
  1
ＮＯＴＥ
 41
0.923076923077
  7
EXCADSTD
 72
     5
 11
10.868253864267
 21
32.025433224584
 31
0.0
100
AcDbText
  0
LINE
  5
2A07
330
29F4
100
AcDbEntity
  8
図枠太線
  6
CONTINUOUS
 62
   251
100
AcDbLine
 10
22.368253864267
 20
4.525433224584
 30
0.0
 11
22.368253864267
 21
34.525431224584
 31
0.0
  0
TEXT
  5
2A08
330
29F4
100
AcDbEntity
  8
図枠細線
  6
CONTINUOUS
 62
   252
100
AcDbText
 10
22.868253864267
 20
32.025433224584
 30
0.0
 40
2.0
  1
承認
 41
1.171875
  7
EXCADSTD
 72
     5
 11
27.868253864267
 21
32.025433224584
 31
0.0
100
AcDbText
  0
TEXT
  5
2A09
330
29F4
100
AcDbEntity
  8
図枠細線
  6
CONTINUOUS
 62
   252
100
AcDbText
 10
60.711709035982
 20
32.025433224584
 30
0.0
 40
2.0
  1
製図
 41
1.209677419355
  7
EXCADSTD
 72
     5
 11
65.711709035982
 21
32.025433224584
 31
0.0
100
AcDbText
  0
TEXT
  5
2A0A
330
29F4
100
AcDbEntity
  8
図枠細線
  6
CONTINUOUS
 62
   252
100
AcDbText
 10
60.711709035982
 20
29.525433224584
 30
0.0
 40
2.0
  1
ＤＲＡＷＮ
 41
0.882352941176
  7
EXCADSTD
 72
     5
 11
70.711709035982
 21
29.525433224584
 31
0.0
100
AcDbText
  0
TEXT
  5
2A0B
330
29F4
100
AcDbEntity
  8
図枠細線
  6
CONTINUOUS
 62
   252
100
AcDbText
 10
60.834891743877
 20
17.025433224584
 30
0.0
 40
2.0
  1
日付
 41
1.171875
  7
EXCADSTD
 72
     5
 11
65.834891743877
 21
17.025433224584
 31
0.0
100
AcDbText
  0
TEXT
  5
2A0C
330
29F4
100
AcDbEntity
  8
図枠細線
  6
CONTINUOUS
 62
   252
100
AcDbText
 10
47.333660864267
 20
17.025433224584
 30
0.0
 40
2.0
  1
ＳＣＡＬＥ
 41
0.903614457831
  7
EXCADSTD
 72
     5
 11
57.333660864267
 21
17.025433224584
 31
0.0
100
AcDbText
  0
TEXT
  5
2A0D
330
29F4
100
AcDbEntity
  8
図枠細線
  6
CONTINUOUS
 62
   252
100
AcDbText
 10
42.281425990082
 20
29.525433224584
 30
0.0
 40
2.0
  1
ＣＨＥＣＫＥＤ
 41
0.831249989569
  7
EXCADSTD
 72
     5
 11
55.581425823189
 21
29.525433224584
 31
0.0
100
AcDbText
  0
LINE
  5
2A0E
330
29F4
100
AcDbEntity
  8
図枠細線
  6
CONTINUOUS
 62
   252
100
AcDbLine
 10
40.968253864267
 20
34.525431224584
 30
0.0
 11
40.968253864267
 21
19.525431224584
 31
0.0
  0
LINE
  5
2A0F
330
29F4
100
AcDbEntity
  8
図枠細線
  6
CONTINUOUS
 62
   252
100
AcDbLine
 10
40.968253864267
 20
4.525433224584
 30
0.0
 11
40.968253864267
 21
19.525431224584
 31
0.0
  0
TEXT
  5
2A10
330
29F4
100
AcDbEntity
  8
図枠細線
  6
CONTINUOUS
 62
   252
100
AcDbText
 10
41.961173864267
 20
17.025433224584
 30
0.0
 40
2.0
  1
尺度
 41
1.171875
  7
EXCADSTD
 72
     5
 11
46.961173864267
 21
17.025433224584
 31
0.0
100
AcDbText
  0
TEXT
  5
2A11
330
29F4
100
AcDbEntity
  8
図枠細線
  6
CONTINUOUS
 62
   252
100
AcDbText
 10
42.281425990082
 20
32.025433224584
 30
0.0
 40
2.0
  1
検図
 41
1.209677419355
  7
EXCADSTD
 72
     5
 11
47.281425990082
 21
32.025433224584
 31
0.0
100
AcDbText
  0
LINE
  5
2A12
330
29F4
100
AcDbEntity
  8
図枠細線
  6
CONTINUOUS
 62
   252
100
AcDbLine
 10
59.768253864267
 20
34.525431224584
 30
0.0
 11
59.768253864267
 21
19.525431224584
 31
0.0
  0
LINE
  5
2A13
330
29F4
100
AcDbEntity
  8
図枠細線
  6
CONTINUOUS
 62
   252
100
AcDbLine
 10
59.768253864267
 20
4.525433224584
 30
0.0
 11
59.768253864267
 21
19.525431224584
 31
0.0
  0
LINE
  5
2A14
330
29F4
100
AcDbEntity
  8
図枠太線
  6
CONTINUOUS
 62
   251
100
AcDbLine
 10
78.368253864267
 20
4.525433224584
 30
0.0
 11
78.368253864267
 21
34.525431224584
 31
0.0
  0
TEXT
  5
2A15
330
29F4
100
AcDbEntity
  8
図枠細線
  6
CONTINUOUS
 62
   252
100
AcDbText
 10
66.334891743877
 20
17.025433224584
 30
0.0
 40
2.0
  1
ＤＡＴＥ
 41
0.923076923077
  7
EXCADSTD
 72
     5
 11
74.334891743877
 21
17.025433224584
 31
0.0
100
AcDbText
  0
LINE
  5
2A16
330
29F4
100
AcDbEntity
  8
図枠細線
  6
CONTINUOUS
 62
   252
100
AcDbLine
 10
135.368253864267
 20
19.525431224584
 30
0.0
 11
192.368245864267
 21
19.525431224584
 31
0.0
  0
TEXT
  5
2A17
330
29F4
100
AcDbEntity
  8
図枠細線
  6
CONTINUOUS
 62
   252
100
AcDbText
 10
141.868253864267
 20
32.025433224584
 30
0.0
 40
2.0
  1
ＴＩＴＬＥ
 41
0.903614457831
  7
EXCADSTD
 72
     5
 11
151.868253864267
 21
32.025433224584
 31
0.0
100
AcDbText
  0
LINE
  5
2A18
330
29F4
100
AcDbEntity
  8
図枠太線
  6
CONTINUOUS
 62
   251
100
AcDbLine
 10
135.368253864267
 20
4.525433224584
 30
0.0
 11
135.368253864267
 21
34.525431224584
 31
0.0
  0
TEXT
  5
2A19
330
29F4
100
AcDbEntity
  8
図枠細線
  6
CONTINUOUS
 62
   252
100
AcDbText
 10
135.868253864267
 20
17.025433224584
 30
0.0
 40
2.0
  1
図面番号
 41
1.102941176471
  7
EXCADSTD
 72
     5
 11
145.868253864267
 21
17.025433224584
 31
0.0
100
AcDbText
  0
TEXT
  5
2A1A
330
29F4
100
AcDbEntity
  8
図枠細線
  6
CONTINUOUS
 62
   252
100
AcDbText
 10
135.868253864267
 20
32.025433224584
 30
0.0
 40
2.0
  1
名称
 41
1.171875
  7
EXCADSTD
 72
     5
 11
140.868253864267
 21
32.025433224584
 31
0.0
100
AcDbText
  0
TEXT
  5
2A1B
330
29F4
100
AcDbEntity
  8
図枠細線
  6
CONTINUOUS
 62
   252
100
AcDbText
 10
146.868253864267
 20
17.025433224584
 30
0.0
 40
2.0
  1
ＤＲＧ．ＮＯ．
 41
0.9375
  7
EXCADSTD
 72
     5
 11
160.868253864267
 21
17.025433224584
 31
0.0
100
AcDbText
  0
LINE
  5
2A1C
330
29F4
100
AcDbEntity
  8
図枠太線
  6
CONTINUOUS
 62
   251
100
AcDbLine
 10
192.368245864267
 20
4.525433224584
 30
0.0
 11
192.368245864267
 21
34.525431224584
 31
0.0
  0
ENDBLK
  5
2A1D
330
29F4
100
AcDbEntity
  8
0
100
AcDbBlockEnd
  0
BLOCK
  5
2A33
330
2A32
100
AcDbEntity
  8
0
100
AcDbBlockBegin
  2
A3横用_タイトル
 70
     0
 10
0.0
 20
0.0
 30
0.0
  3
A3横用_タイトル
  1
A3横用_タイトル
  0
LINE
  5
2A34
330
2A32
100
AcDbEntity
  8
図枠細線
  6
CONTINUOUS
 62
   252
100
AcDbLine
 10
205.098414535793
 20
33.525959753527
 30
0.0
 11
305.098414535793
 21
33.525959753527
 31
0.0
  0
LINE
  5
2A35
330
2A32
100
AcDbEntity
  8
図枠太線
  6
CONTINUOUS
 62
   251
100
AcDbLine
 10
205.098414535793
 20
23.525959753527
 30
0.0
 11
305.098414535793
 21
23.525959753527
 31
0.0
  0
LINE
  5
2A36
330
2A32
100
AcDbEntity
  8
図枠細線
  6
CONTINUOUS
100
AcDbLine
 10
5.098414535793
 20
23.525959753527
 30
0.0
 11
105.098414535793
 21
23.525959753527
 31
0.0
  0
LINE
  5
2A37
330
2A32
100
AcDbEntity
  8
図枠細線
  6
CONTINUOUS
 62
   252
100
AcDbLine
 10
5.098414535793
 20
36.725957753527
 30
0.0
 11
105.098414535793
 21
36.725957753527
 31
0.0
  0
LINE
  5
2A38
330
2A32
100
AcDbEntity
  8
図枠細線
  6
CONTINUOUS
 62
   252
100
AcDbLine
 10
5.098414535793
 20
30.125957753527
 30
0.0
 11
105.098414535793
 21
30.125957753527
 31
0.0
  0
LINE
  5
2A39
330
2A32
100
AcDbEntity
  8
図枠細線
  6
CONTINUOUS
 62
   252
100
AcDbLine
 10
5.098414535793
 20
16.725959753527
 30
0.0
 11
105.098414535793
 21
16.725959753527
 31
0.0
  0
LINE
  5
2A3A
330
2A32
100
AcDbEntity
  8
図枠細線
  6
CONTINUOUS
 62
   252
100
AcDbLine
 10
5.098414535793
 20
10.125959753527
 30
0.0
 11
105.098414535793
 21
10.125959753527
 31
0.0
  0
LINE
  5
2A3B
330
2A32
100
AcDbEntity
  8
図枠細線
  6
CONTINUOUS
100
AcDbLine
 10
105.098414535793
 20
23.525961753527
 30
0.0
 11
205.098414535793
 21
23.525959753527
 31
0.0
  0
LINE
  5
2A3C
330
2A32
100
AcDbEntity
  8
図枠細線
  6
CONTINUOUS
 62
   252
100
AcDbLine
 10
138.398414535793
 20
43.525959753527
 30
0.0
 11
138.398414535793
 21
18.525957753527
 31
0.0
  0
LINE
  5
2A3D
330
2A32
100
AcDbEntity
  8
図枠細線
  6
CONTINUOUS
 62
   252
100
AcDbLine
 10
171.698414535793
 20
43.525959753527
 30
0.0
 11
171.698414535793
 21
18.525957753527
 31
0.0
  0
LINE
  5
2A3E
330
2A32
100
AcDbEntity
  8
図枠細線
  6
CONTINUOUS
 62
   252
100
AcDbLine
 10
305.098414535793
 20
23.525959753527
 30
0.0
 11
405.098414535793
 21
23.525959753527
 31
0.0
  0
TEXT
  5
2A3F
330
2A32
100
AcDbEntity
  8
図枠ロゴマーク
  6
CONTINUOUS
 62
   253
100
AcDbText
 10
206.102509212755
 20
13.294257570546
 30
0.0
 40
7.0
  1
東和制電工業株式会社
 50
0.016555220185
 41
1.186384129432
  7
EXCADSTD
 72
     5
 11
303.544188309143
 21
13.322412672217
 31
0.0
100
AcDbText
  0
MTEXT
  5
2A40
330
2A32
100
AcDbEntity
  8
図枠細線
100
AcDbMText
 10
6.356764112375
 20
41.976594175478
 30
0.0
 40
2.5
 41
49.938282706292
 71
     1
 72
     5
  1
{\Fmonotxt.shx,bigfont.shx|c128;図暦　CHANGE　NOTICE}
  0
MTEXT
  5
2A41
330
2A32
100
AcDbEntity
  8
図枠細線
 48
10.0
100
AcDbMText
 10
306.544114926828
 20
41.701835800934
 30
0.0
 40
2.5
 41
28.002809618823
 71
     1
 72
     5
  1
{\Fmonotxt.shx,bigfont.shx|c128;名称　TITLE}
  0
MTEXT
  5
2A42
330
2A32
100
AcDbEntity
  8
図枠細線
 48
10.0
100
AcDbMText
 10
307.329617114284
 20
21.606206797226
 30
0.0
 40
2.5
 41
24.385612216707
 71
     1
 72
     5
  1
{\Fmonotxt.shx,bigfont.shx|c128;図面番号\PDRG.　No.}
  0
MTEXT
  5
2A43
330
2A32
100
AcDbEntity
  8
図枠細線
 48
10.0
100
AcDbMText
 10
173.726349404609
 20
21.73680662198
 30
0.0
 40
2.5
 41
25.735090160813
 71
     1
 72
     5
  1
{\Fmonotxt.shx,bigfont.shx|c128;日付 DATE}
  0
MTEXT
  5
2A44
330
2A32
100
AcDbEntity
  8
図枠細線
 48
10.0
100
AcDbMText
 10
173.48708833982
 20
41.621592044998
 30
0.0
 40
2.5
 41
24.983741184205
 71
     1
 72
     5
  1
{\Fmonotxt.shx,bigfont.shx|c128;製図　DRAWN}
  0
MTEXT
  5
2A45
330
2A32
100
AcDbEntity
  8
図枠細線
 48
10.0
100
AcDbMText
 10
139.28009927741
 20
21.866713069868
 30
0.0
 40
2.5
 41
22.629632913243
 71
     1
 72
     5
  1
{\Fmonotxt.shx,bigfont.shx|c128;尺度　SCALE}
  0
MTEXT
  5
2A46
330
2A32
100
AcDbEntity
  8
図枠細線
 48
10.0
100
AcDbMText
 10
139.910091179835
 20
41.311840415554
 30
0.0
 40
2.5
 41
28.998753428368
 71
     1
 72
     5
  1
{\Fmonotxt.shx,bigfont.shx|c128;検図  CHECKED}
  0
MTEXT
  5
2A47
330
2A32
100
AcDbEntity
  8
図枠細線
 48
10.0
100
AcDbMText
 10
114.253294667728
 20
21.916124850174
 30
0.0
 40
3.0
 41
19.692400475383
 71
     1
 72
     5
  1
{\Fmonotxt.shx,bigfont.shx|c128;第三角法}
  0
MTEXT
  5
2A48
330
2A32
100
AcDbEntity
  8
図枠細線
 48
10.0
100
AcDbMText
 10
108.986959929915
 20
15.282880185837
 30
0.0
 40
2.5
 41
27.954882823547
 71
     1
 72
     5
  1
{\Fmonotxt.shx,bigfont.shx|c128;THIRD ANGLE\PPROJECTION}
  0
MTEXT
  5
2A49
330
2A32
100
AcDbEntity
  8
図枠細線
 48
10.0
100
AcDbMText
 10
106.319432640184
 20
41.511437145487
 30
0.0
 40
2.5
 41
28.233595265074
 71
     1
 72
     5
  1
{\Fmonotxt.shx,bigfont.shx|c128;承認 APPROVED}
  0
LINE
  5
2A4A
330
2A32
100
AcDbEntity
  8
図枠太線
  6
CONTINUOUS
 62
   251
100
AcDbLine
 10
5.098414535793
 20
3.525959753527
 30
0.0
 11
405.098414535793
 21
3.525959753527
 31
0.0
  0
LINE
  5
2A4B
330
2A32
100
AcDbEntity
  8
図枠太線
 48
10.0
100
AcDbLine
 10
5.098414535793
 20
3.525959753527
 30
0.0
 11
5.098414535793
 21
43.525959753527
 31
0.0
  0
LINE
  5
2A4C
330
2A32
100
AcDbEntity
  8
図枠太線
  6
CONTINUOUS
 62
   251
100
AcDbLine
 10
105.098414535793
 20
3.525959753527
 30
0.0
 11
105.098414535793
 21
43.525959753527
 31
0.0
  0
LINE
  5
2A4D
330
2A32
100
AcDbEntity
  8
図枠細線
  6
CONTINUOUS
 62
   252
100
AcDbLine
 10
138.398414535793
 20
3.525959753527
 30
0.0
 11
138.398414535793
 21
18.525957753527
 31
0.0
  0
LINE
  5
2A4E
330
2A32
100
AcDbEntity
  8
図枠細線
  6
CONTINUOUS
 62
   252
100
AcDbLine
 10
171.698414535793
 20
3.525959753527
 30
0.0
 11
171.698414535793
 21
18.525957753527
 31
0.0
  0
LINE
  5
2A4F
330
2A32
100
AcDbEntity
  8
図枠太線
  6
CONTINUOUS
 62
   251
100
AcDbLine
 10
205.098414535793
 20
3.525959753527
 30
0.0
 11
205.098414535793
 21
43.525959753527
 31
0.0
  0
LINE
  5
2A50
330
2A32
100
AcDbEntity
  8
図枠太線
 48
10.0
100
AcDbLine
 10
405.098414535793
 20
43.525959753527
 30
0.0
 11
405.098414535793
 21
3.525959753527
 31
0.0
  0
TEXT
  5
2A51
330
2A32
100
AcDbEntity
  8
図枠細線
  6
CONTINUOUS
 62
   252
100
AcDbText
 10
208.519754474572
 20
6.482358407285
 30
0.0
 40
3.5
  1
ＴＯＷＡ　ＳＥＩＤＥＮ　ＩＮＤＵＳＴＲＩＡＬ　ＣＯ．，ＬＴＤ．
 41
0.746656297509
  7
EXCADSTD
 72
     5
 11
303.295327171727
 21
6.482358407285
 31
0.0
100
AcDbText
  0
LINE
  5
2A52
330
2A32
100
AcDbEntity
  8
図枠太線
  6
CONTINUOUS
 62
   251
100
AcDbLine
 10
305.098414535793
 20
3.525959753527
 30
0.0
 11
305.098414535793
 21
43.525959753527
 31
0.0
  0
ENDBLK
  5
2A53
330
2A32
100
AcDbEntity
  8
0
100
AcDbBlockEnd
  0
BLOCK
  5
2A6D
330
2A6C
100
AcDbEntity
  8
0
100
AcDbBlockBegin
  2
A3縦用_タイトル
 70
     0
 10
0.0
 20
0.0
 30
0.0
  3
A3縦用_タイトル
  1
A3縦用_タイトル
  0
MTEXT
  5
2A6E
330
2A6C
100
AcDbEntity
  8
図枠細線
100
AcDbMText
 10
5.040804501593
 20
31.626098649005
 30
0.0
 40
2.5
 41
49.938282706292
 71
     1
 72
     5
  1
{\Fmonotxt.shx,bigfont.shx|c128;図暦　CHANGE　NOTICE}
  0
LINE
  5
2A6F
330
2A6C
100
AcDbEntity
  8
図枠太線
  6
CONTINUOUS
 62
   251
100
AcDbLine
 10
283.577871882961
 20
2.820844689254
 30
0.0
 11
283.577871882961
 21
32.820842689254
 31
0.0
  0
MTEXT
  5
2A70
330
2A6C
100
AcDbEntity
  8
図枠細線
 48
10.0
100
AcDbMText
 10
214.912458947454
 20
31.621488632308
 30
0.0
 40
2.5
 41
28.002809618823
 71
     1
 72
     5
  1
{\Fmonotxt.shx,bigfont.shx|c128;名称　TITLE}
  0
MTEXT
  5
2A71
330
2A6C
100
AcDbEntity
  8
図枠細線
 48
10.0
100
AcDbMText
 10
214.740030458938
 20
16.310225796722
 30
0.0
 40
2.5
 41
24.385612216707
 71
     1
 72
     5
  1
{\Fmonotxt.shx,bigfont.shx|c128;図面番号\PDRG.　No.}
  0
LINE
  5
2A72
330
2A6C
100
AcDbEntity
  8
図枠太線
  6
CONTINUOUS
 62
   251
100
AcDbLine
 10
213.577871882961
 20
2.820844689254
 30
0.0
 11
213.577871882961
 21
32.820842689254
 31
0.0
  0
LINE
  5
2A73
330
2A6C
100
AcDbEntity
  8
図枠太線
  6
CONTINUOUS
 62
   251
100
AcDbLine
 10
143.577871882961
 20
2.820844689254
 30
0.0
 11
143.577871882961
 21
32.820842689254
 31
0.0
  0
TEXT
  5
2A74
330
2A6C
100
AcDbEntity
  8
図枠細線
  6
CONTINUOUS
 62
   252
100
AcDbText
 10
145.716454488093
 20
4.468335689254
 30
0.0
 40
3.5
  1
ＴＯＷＡ　ＳＥＩＤＥＮ　ＩＮＤＵＳＴＲＩＡＬ　ＣＯ．，ＬＴＤ．
 41
0.528937826907
  7
EXCADSTD
 72
     5
 11
212.856295983498
 21
4.468335689254
 31
0.0
100
AcDbText
  0
TEXT
  5
2A75
330
2A6C
100
AcDbEntity
  8
図枠ロゴマーク
  6
CONTINUOUS
 62
   253
100
AcDbText
 10
145.950637593507
 20
9.413236689254
 30
0.0
 40
7.0
  1
東和制電工業株式会社
 41
0.80361088462
  7
EXCADSTD
 72
     5
 11
211.953878250259
 21
9.413236689254
 31
0.0
100
AcDbText
  0
LINE
  5
2A76
330
2A6C
100
AcDbEntity
  8
図枠細線
  6
CONTINUOUS
 62
   252
100
AcDbLine
 10
143.577871882961
 20
25.320842689254
 30
0.0
 11
213.577871882961
 21
25.320842689254
 31
0.0
  0
LINE
  5
2A77
330
2A6C
100
AcDbEntity
  8
図枠太線
  6
CONTINUOUS
 62
   251
100
AcDbLine
 10
143.577863882961
 20
17.820842689254
 30
0.0
 11
213.577871882961
 21
17.820842689254
 31
0.0
  0
LINE
  5
2A78
330
2A6C
100
AcDbEntity
  8
図枠細線
  6
CONTINUOUS
 62
   252
100
AcDbLine
 10
213.577871882961
 20
17.820842689254
 30
0.0
 11
283.577871882961
 21
17.820842689254
 31
0.0
  0
LINE
  5
2A79
330
2A6C
100
AcDbEntity
  8
図枠細線
  6
CONTINUOUS
 62
   252
100
AcDbLine
 10
120.577871882961
 20
32.820842689254
 30
0.0
 11
120.577871882961
 21
17.820842689254
 31
0.0
  0
MTEXT
  5
2A7A
330
2A6C
100
AcDbEntity
  8
図枠細線
 48
10.0
100
AcDbMText
 10
121.100885670352
 20
16.33785922638
 30
0.0
 40
2.0
 41
17.705978285068
 71
     1
 72
     5
  1
{\Fmonotxt.shx,bigfont.shx|c128;日付 DATE}
  0
MTEXT
  5
2A7B
330
2A6C
100
AcDbEntity
  8
図枠細線
 48
10.0
100
AcDbMText
 10
121.254842273491
 20
31.208993514037
 30
0.0
 40
2.0
 41
18.363799568758
 71
     1
 72
     5
  1
{\Fmonotxt.shx,bigfont.shx|c128;製図　DRAWN}
  0
LINE
  5
2A7C
330
2A6C
100
AcDbEntity
  8
図枠細線
  6
CONTINUOUS
 62
   252
100
AcDbLine
 10
97.577871882961
 20
32.820842689254
 30
0.0
 11
97.577871882961
 21
17.820842689254
 31
0.0
  0
MTEXT
  5
2A7D
330
2A6C
100
AcDbEntity
  8
図枠細線
 48
10.0
100
AcDbMText
 10
98.239734796872
 20
16.467764839281
 30
0.0
 40
2.0
 41
17.757791689903
 71
     1
 72
     5
  1
{\Fmonotxt.shx,bigfont.shx|c128;尺度　SCALE}
  0
MTEXT
  5
2A7E
330
2A6C
100
AcDbEntity
  8
図枠細線
 48
10.0
100
AcDbMText
 10
97.864744625154
 20
31.298433377664
 30
0.0
 40
2.0
 41
23.162655920976
 71
     1
 72
     5
  1
{\Fmonotxt.shx,bigfont.shx|c128;検図  CHECKED}
  0
LINE
  5
2A7F
330
2A6C
100
AcDbEntity
  8
図枠細線
  6
CONTINUOUS
 62
   252
100
AcDbLine
 10
97.577871882961
 20
2.820843367826
 30
0.0
 11
97.577871882961
 21
17.820841367826
 31
0.0
  0
LINE
  5
2A80
330
2A6C
100
AcDbEntity
  8
図枠細線
  6
CONTINUOUS
 62
   252
100
AcDbLine
 10
120.577871882961
 20
2.820844010683
 30
0.0
 11
120.577871882961
 21
17.820842010683
 31
0.0
  0
MTEXT
  5
2A81
330
2A6C
100
AcDbEntity
  8
図枠細線
 48
10.0
100
AcDbMText
 10
81.402399084102
 20
16.316484117426
 30
0.0
 40
2.0
 41
12.920322819369
 71
     1
 72
     5
  1
{\Fmonotxt.shx,bigfont.shx|c128;第三角法}
  0
MTEXT
  5
2A82
330
2A6C
100
AcDbEntity
  8
図枠細線
 48
10.0
100
AcDbMText
 10
75.736576535096
 20
11.080410931319
 30
0.0
 40
2.0
 41
21.072870671471
 71
     1
 72
     5
  1
{\Fmonotxt.shx,bigfont.shx|c128;THIRD ANGLE\PPROJECTION}
  0
LINE
  5
2A83
330
2A6C
100
AcDbEntity
  8
図枠太線
  6
CONTINUOUS
 62
   251
100
AcDbLine
 10
74.577871882961
 20
2.820844689254
 30
0.0
 11
74.577871882961
 21
32.820842689254
 31
0.0
  0
MTEXT
  5
2A84
330
2A6C
100
AcDbEntity
  8
図枠細線
 48
10.0
100
AcDbMText
 10
75.060214781573
 20
31.298434778555
 30
0.0
 40
2.0
 41
22.240928805967
 71
     1
 72
     5
  1
{\Fmonotxt.shx,bigfont.shx|c128;承認 APPROVED}
  0
LINE
  5
2A85
330
2A6C
100
AcDbEntity
  8
図枠細線
  6
CONTINUOUS
100
AcDbLine
 10
3.577871882961
 20
17.820844689254
 30
0.0
 11
74.577871882961
 21
17.820844689254
 31
0.0
  0
LINE
  5
2A86
330
2A6C
100
AcDbEntity
  8
図枠細線
  6
CONTINUOUS
 62
   252
100
AcDbLine
 10
3.577871882961
 20
27.820842689254
 30
0.0
 11
74.577871882961
 21
27.820842689254
 31
0.0
  0
LINE
  5
2A87
330
2A6C
100
AcDbEntity
  8
図枠細線
  6
CONTINUOUS
 62
   252
100
AcDbLine
 10
3.577871882961
 20
22.820842689254
 30
0.0
 11
74.577871882961
 21
22.820842689254
 31
0.0
  0
LINE
  5
2A88
330
2A6C
100
AcDbEntity
  8
図枠細線
  6
CONTINUOUS
 62
   252
100
AcDbLine
 10
3.577871882961
 20
12.820842689254
 30
0.0
 11
74.577871882961
 21
12.820842689254
 31
0.0
  0
LINE
  5
2A89
330
2A6C
100
AcDbEntity
  8
図枠細線
  6
CONTINUOUS
 62
   252
100
AcDbLine
 10
3.577871882961
 20
7.820844689254
 30
0.0
 11
74.577871882961
 21
7.820844689254
 31
0.0
  0
LINE
  5
2A8A
330
2A6C
100
AcDbEntity
  8
図枠細線
  6
CONTINUOUS
100
AcDbLine
 10
74.577871882961
 20
17.820843689254
 30
0.0
 11
143.577871882961
 21
17.820841224969
 31
0.0
  0
LINE
  5
2A8B
330
2A6C
100
AcDbEntity
  8
図枠太線
  6
CONTINUOUS
 62
   251
100
AcDbLine
 10
3.577871882961
 20
2.820844689254
 30
0.0
 11
283.577871882961
 21
2.820844689254
 31
0.0
  0
LINE
  5
2A8C
330
2A6C
100
AcDbEntity
  8
図枠太線
  6
CONTINUOUS
 62
   251
100
AcDbLine
 10
3.577871882961
 20
2.820844689254
 30
0.0
 11
3.577871882961
 21
32.820842689254
 31
0.0
  0
ENDBLK
  5
2A8D
330
2A6C
100
AcDbEntity
  8
0
100
AcDbBlockEnd
  0
BLOCK
  5
2AF8
330
2AF4
100
AcDbEntity
  8
0
 48
10.0
100
AcDbBlockBegin
  2
_OPEN30
 70
     0
 10
0.0
 20
0.0
 30
0.0
  3
_OPEN30
  1
_OPEN30
  0
LINE
  5
2AF5
330
2AF4
100
AcDbEntity
  8
0
  6
BYBLOCK
 62
     0
100
AcDbLine
 10
-1.0
 20
0.26794919
 30
0.0
 11
0.0
 21
0.0
 31
0.0
  0
LINE
  5
2AF6
330
2AF4
100
AcDbEntity
  8
0
  6
BYBLOCK
 62
     0
100
AcDbLine
 10
0.0
 20
0.0
 30
0.0
 11
-1.0
 21
-0.26794919
 31
0.0
  0
LINE
  5
2AF7
330
2AF4
100
AcDbEntity
  8
0
  6
BYBLOCK
 62
     0
100
AcDbLine
 10
0.0
 20
0.0
 30
0.0
 11
-1.0
 21
0.0
 31
0.0
  0
ENDBLK
  5
2AF9
330
2AF4
100
AcDbEntity
  8
0
 48
10.0
100
AcDbBlockEnd
  0
BLOCK
  5
3025
330
3024
100
AcDbEntity
  8
0
 48
10.0
100
AcDbBlockBegin
  2
パドル_W1
 70
     0
 10
0.0
 20
0.0
 30
0.0
  3
パドル_W1
  1
パドル_W1
  0
LINE
  5
3026
330
3024
100
AcDbEntity
  8
中心線
 48
10.0
100
AcDbLine
 10
124.6832879095
 20
220.674073777677
 30
0.0
 11
131.9189439095
 21
220.674073777677
 31
0.0
  0
LINE
  5
3027
330
3024
100
AcDbEntity
  8
外形線
 48
10.0
100
AcDbLine
 10
58.3011159095
 20
260.651761921811
 30
0.0
 11
58.3011159095
 21
180.651761921811
 31
0.0
  0
LINE
  5
3028
330
3024
100
AcDbEntity
  8
外形線
 48
10.0
100
AcDbLine
 10
58.3011159095
 20
180.651761921811
 30
0.0
 11
123.3011159095
 21
180.651761921811
 31
0.0
  0
LINE
  5
3029
330
3024
100
AcDbEntity
  8
外形線
 48
10.0
100
AcDbLine
 10
138.3011159095
 20
208.651761921811
 30
0.0
 11
138.3011159095
 21
212.376811207105
 31
0.0
  0
LINE
  5
302A
330
3024
100
AcDbEntity
  8
外形線
 48
10.0
100
AcDbLine
 10
123.3011159095
 20
260.651761921811
 30
0.0
 11
58.3011159095
 21
260.651761921811
 31
0.0
  0
LINE
  5
302B
330
3024
100
AcDbEntity
  8
外形線
 48
10.0
100
AcDbLine
 10
138.3011159095
 20
232.651761921811
 30
0.0
 11
123.3011159095
 21
260.651761921811
 31
0.0
  0
LINE
  5
302C
330
3024
100
AcDbEntity
  8
外形線
 48
10.0
100
AcDbLine
 10
138.3011159095
 20
208.651761921811
 30
0.0
 11
123.3011159095
 21
180.651761921811
 31
0.0
  0
LINE
  5
302D
330
3024
100
AcDbEntity
  8
外形線
 48
10.0
100
AcDbLine
 10
153.3011159095
 20
212.376811207105
 30
0.0
 11
153.3011159095
 21
228.941629207105
 31
0.0
  0
LINE
  5
302E
330
3024
100
AcDbEntity
  8
外形線
100
AcDbLine
 10
125.0147379095
 20
212.376811207105
 30
0.0
 11
153.3011159095
 21
212.376811207105
 31
0.0
  0
LINE
  5
302F
330
3024
100
AcDbEntity
  8
細線
100
AcDbLine
 10
153.2891519095
 20
216.518045207105
 30
0.0
 11
124.6692799095
 21
216.518045207105
 31
0.0
  0
LINE
  5
3030
330
3024
100
AcDbEntity
  8
外形線
100
AcDbLine
 10
125.0147379095
 20
228.941629207105
 30
0.0
 11
123.3011159095
 21
227.228007207105
 31
0.0
  0
ARC
  5
3031
330
3024
100
AcDbEntity
  8
細線
100
AcDbCircle
 10
126.4810479095
 20
227.420755207105
 30
0.0
 40
3.18575
100
AcDbArc
 50
183.469852255156
 51
235.339263082109
  0
LINE
  5
3032
330
3024
100
AcDbEntity
  8
細線
100
AcDbLine
 10
153.2891519095
 20
224.800395207105
 30
0.0
 11
124.6692799095
 21
224.800395207105
 31
0.0
  0
ARC
  5
3033
330
3024
100
AcDbEntity
  8
細線
100
AcDbCircle
 10
126.4810479095
 20
213.897685207105
 30
0.0
 40
3.18575
100
AcDbArc
 50
124.660776613574
 51
176.530130144749
  0
LINE
  5
3034
330
3024
100
AcDbEntity
  8
外形線
100
AcDbLine
 10
123.3011159095
 20
227.228007207105
 30
0.0
 11
123.3011159095
 21
214.090433207105
 31
0.0
  0
CIRCLE
  5
3035
330
3024
100
AcDbEntity
  8
外形線
100
AcDbCircle
 10
128.3011159095
 20
220.674073777677
 30
0.0
 40
2.28479
  0
ARC
  5
3036
330
3024
100
AcDbEntity
  8
細線
100
AcDbCircle
 10
130.2525019095
 20
220.659219207105
 30
0.0
 40
6.951389999999999
100
AcDbArc
 50
143.43540034864
 51
216.564582051267
  0
LINE
  5
3037
330
3024
100
AcDbEntity
  8
中心線
 48
10.0
100
AcDbLine
 10
128.3011159095
 20
224.291901777677
 30
0.0
 11
128.3011159095
 21
217.056245777676
 31
0.0
  0
LINE
  5
3038
330
3024
100
AcDbEntity
  8
外形線
100
AcDbLine
 10
125.0147379095
 20
212.376811207105
 30
0.0
 11
123.3011159095
 21
214.090433207105
 31
0.0
  0
LINE
  5
3039
330
3024
100
AcDbEntity
  8
外形線
100
AcDbLine
 10
125.0147379095
 20
228.941629207105
 30
0.0
 11
153.3011159095
 21
228.941629207105
 31
0.0
  0
LINE
  5
303A
330
3024
100
AcDbEntity
  8
外形線
 48
10.0
100
AcDbLine
 10
138.3011159095
 20
228.941629207105
 30
0.0
 11
138.3011159095
 21
232.651761921811
 31
0.0
  0
ENDBLK
  5
303B
330
3024
100
AcDbEntity
  8
0
 48
10.0
100
AcDbBlockEnd
  0
BLOCK
  5
3055
330
3054
100
AcDbEntity
  8
0
 48
10.0
100
AcDbBlockBegin
  2
パドル_W1立面図
 70
     0
 10
0.0
 20
0.0
 30
0.0
  3
パドル_W1立面図
  1
パドル_W1立面図
  0
LINE
  5
3056
330
3054
100
AcDbEntity
  8
外形線
 48
10.0
100
AcDbLine
 10
-4.385455455444
 20
189.61846140322
 30
0.0
 11
-7.241459969979
 21
189.61846140322
 31
0.0
  0
LINE
  5
3057
330
3054
100
AcDbEntity
  8
外形線
 48
10.0
100
AcDbLine
 10
-4.385455455444
 20
269.61846140322
 30
0.0
 11
-7.241459969979
 21
269.61846140322
 31
0.0
  0
LINE
  5
3058
330
3054
100
AcDbEntity
  8
外形線
 48
10.0
100
AcDbLine
 10
-4.385455455444
 20
189.61846140322
 30
0.0
 11
-4.385455455444
 21
269.61846140322
 31
0.0
  0
LINE
  5
3059
330
3054
100
AcDbEntity
  8
外形線
 48
10.0
100
AcDbLine
 10
-7.241459969979
 20
269.61846140322
 30
0.0
 11
-7.241459969979
 21
189.61846140322
 31
0.0
  0
LINE
  5
305A
330
3054
100
AcDbEntity
  8
外形線
100
AcDbLine
 10
-4.385468503734
 20
237.376935973808
 30
0.0
 11
1.606659496266
 21
233.917433973808
 31
0.0
  0
ARC
  5
305B
330
3054
100
AcDbEntity
  8
細線
100
AcDbCircle
 10
-5.813446503734
 20
229.633375973808
 30
0.0
 40
8.568
100
AcDbArc
 50
279.594007516002
 51
80.406014579591
  0
LINE
  5
305C
330
3054
100
AcDbEntity
  8
外形線
100
AcDbLine
 10
1.606659496266
 20
233.917433973808
 30
0.0
 11
1.606659496266
 21
225.349439973808
 31
0.0
  0
LINE
  5
305D
330
3054
100
AcDbEntity
  8
外形線
100
AcDbLine
 10
-4.385468503734
 20
221.889815973808
 30
0.0
 11
1.606659496266
 21
225.349439973808
 31
0.0
  0
ARC
  5
305E
330
3054
100
AcDbEntity
  8
細線
100
AcDbCircle
 10
-5.813446503734
 20
229.633375973808
 30
0.0
 40
7.458525999999999
100
AcDbArc
 50
281.037746568172
 51
78.962275527419
  0
LINE
  5
305F
330
3054
100
AcDbEntity
  8
外形線
100
AcDbLine
 10
-7.241454503734
 20
221.889845973808
 30
0.0
 11
-13.233550503734
 21
225.349439973808
 31
0.0
  0
LINE
  5
3060
330
3054
100
AcDbEntity
  8
外形線
100
AcDbLine
 10
-13.233550503734
 20
225.349439973808
 30
0.0
 11
-13.233550503734
 21
233.917433973808
 31
0.0
  0
LINE
  5
3061
330
3054
100
AcDbEntity
  8
外形線
100
AcDbLine
 10
-7.241454503734
 20
237.376905973808
 30
0.0
 11
-13.233550503734
 21
233.917433973808
 31
0.0
  0
ARC
  5
3062
330
3054
100
AcDbEntity
  8
細線
100
AcDbCircle
 10
-5.813446503734
 20
229.633375973808
 30
0.0
 40
7.458525999999999
100
AcDbArc
 50
101.038013199227
 51
258.962026496458
  0
ARC
  5
3063
330
3054
100
AcDbEntity
  8
細線
100
AcDbCircle
 10
-5.813446503734
 20
229.633375973808
 30
0.0
 40
8.568
100
AcDbArc
 50
99.594159555498
 51
260.405880140189
  0
ENDBLK
  5
3064
330
3054
100
AcDbEntity
  8
0
 48
10.0
100
AcDbBlockEnd
  0
BLOCK
  5
3137
330
3136
100
AcDbEntity
  8
0
 48
10.0
100
AcDbBlockBegin
  2
*D8
 70
     1
 10
0.0
 20
0.0
 30
0.0
  3
*D8
  1
*D8
  0
LINE
  5
3138
330
3136
100
AcDbEntity
  8
寸法線
 62
     0
 48
10.0
100
AcDbLine
 10
-49.24303505395
 20
269.61846140322
 30
0.0
 11
-71.827276343155
 21
269.61846140322
 31
0.0
  0
LINE
  5
3139
330
3136
100
AcDbEntity
  8
寸法線
 62
     0
 48
10.0
100
AcDbLine
 10
-49.24303505395
 20
189.61846140322
 30
0.0
 11
-71.827276343155
 21
189.61846140322
 31
0.0
  0
LINE
  5
313A
330
3136
100
AcDbEntity
  8
寸法線
 62
     0
 48
10.0
100
AcDbLine
 10
-70.577276343155
 20
263.61846140322
 30
0.0
 11
-70.577276343155
 21
195.61846140322
 31
0.0
  0
INSERT
  5
313B
330
3136
100
AcDbEntity
  8
寸法線
 62
     0
 48
10.0
100
AcDbBlockReference
  2
_OPEN30
 10
-70.577276343155
 20
269.61846140322
 30
0.0
 41
6.0
 42
6.0
 43
6.0
 50
90.0
  0
INSERT
  5
313C
330
3136
100
AcDbEntity
  8
寸法線
 62
     0
 48
10.0
100
AcDbBlockReference
  2
_OPEN30
 10
-70.577276343155
 20
189.61846140322
 30
0.0
 41
6.0
 42
6.0
 43
6.0
 50
270.0
  0
MTEXT
  5
313D
330
3136
100
AcDbEntity
  8
寸法線
 62
     0
 48
10.0
100
AcDbMText
 10
-73.702276343155
 20
229.61846140322
 30
0.0
 40
5.0
 41
0.0
 71
     5
 72
     1
  1
\A1;80
 11
6.123031769111886E-17
 21
1.0
 31
0.0
  0
POINT
  5
313E
330
3136
100
AcDbEntity
  8
DEFPOINTS
 62
     0
 48
10.0
100
AcDbPoint
 10
-48.61803505395
 20
269.61846140322
 30
0.0
  0
POINT
  5
313F
330
3136
100
AcDbEntity
  8
DEFPOINTS
 62
     0
 48
10.0
100
AcDbPoint
 10
-48.61803505395
 20
189.61846140322
 30
0.0
  0
POINT
  5
3140
330
3136
100
AcDbEntity
  8
DEFPOINTS
 62
     0
 48
10.0
100
AcDbPoint
 10
-70.577276343155
 20
189.61846140322
 30
0.0
  0
ENDBLK
  5
3141
330
3136
100
AcDbEntity
  8
0
 48
10.0
100
AcDbBlockEnd
  0
BLOCK
  5
3143
330
3142
100
AcDbEntity
  8
0
 48
10.0
100
AcDbBlockBegin
  2
*D9
 70
     1
 10
0.0
 20
0.0
 30
0.0
  3
*D9
  1
*D9
  0
LINE
  5
3144
330
3142
100
AcDbEntity
  8
寸法線
 62
     0
 48
10.0
100
AcDbLine
 10
-48.61803505395
 20
188.99346140322
 30
0.0
 11
-48.61803505395
 21
169.842404217648
 31
0.0
  0
LINE
  5
3145
330
3142
100
AcDbEntity
  8
寸法線
 62
     0
 48
10.0
100
AcDbLine
 10
31.38196494605
 20
216.99346140322
 30
0.0
 11
31.38196494605
 21
169.842404217648
 31
0.0
  0
LINE
  5
3146
330
3142
100
AcDbEntity
  8
寸法線
 62
     0
 48
10.0
100
AcDbLine
 10
-42.61803505395
 20
171.092404217648
 30
0.0
 11
25.38196494605
 21
171.092404217648
 31
0.0
  0
INSERT
  5
3147
330
3142
100
AcDbEntity
  8
寸法線
 62
     0
 48
10.0
100
AcDbBlockReference
  2
_OPEN30
 10
-48.61803505395
 20
171.092404217648
 30
0.0
 41
6.0
 42
6.0
 43
6.0
 50
180.0
  0
INSERT
  5
3148
330
3142
100
AcDbEntity
  8
寸法線
 62
     0
 48
10.0
100
AcDbBlockReference
  2
_OPEN30
 10
31.38196494605
 20
171.092404217648
 30
0.0
 41
6.0
 42
6.0
 43
6.0
  0
MTEXT
  5
3149
330
3142
100
AcDbEntity
  8
寸法線
 62
     0
 48
10.0
100
AcDbMText
 10
-8.61803505395
 20
174.217404217648
 30
0.0
 40
5.0
 41
0.0
 71
     5
 72
     1
  1
\A1;80
  0
POINT
  5
314A
330
3142
100
AcDbEntity
  8
DEFPOINTS
 62
     0
 48
10.0
100
AcDbPoint
 10
-48.61803505395
 20
189.61846140322
 30
0.0
  0
POINT
  5
314B
330
3142
100
AcDbEntity
  8
DEFPOINTS
 62
     0
 48
10.0
100
AcDbPoint
 10
31.38196494605
 20
217.61846140322
 30
0.0
  0
POINT
  5
314C
330
3142
100
AcDbEntity
  8
DEFPOINTS
 62
     0
 48
10.0
100
AcDbPoint
 10
31.38196494605
 20
171.092404217648
 30
0.0
  0
ENDBLK
  5
314D
330
3142
100
AcDbEntity
  8
0
 48
10.0
100
AcDbBlockEnd
  0
BLOCK
  5
314F
330
314E
100
AcDbEntity
  8
0
 48
10.0
100
AcDbBlockBegin
  2
*D10
 70
     1
 10
0.0
 20
0.0
 30
0.0
  3
*D10
  1
*D10
  0
LINE
  5
3150
330
314E
100
AcDbEntity
  8
寸法線
 62
     0
 48
10.0
100
AcDbLine
 10
-142.545856406188
 20
188.99346140322
 30
0.0
 11
-142.545856406188
 21
171.16763126853
 31
0.0
  0
LINE
  5
3151
330
314E
100
AcDbEntity
  8
寸法線
 62
     0
 48
10.0
100
AcDbLine
 10
-139.689851891653
 20
188.99346140322
 30
0.0
 11
-139.689851891653
 21
171.16763126853
 31
0.0
  0
LINE
  5
3152
330
314E
100
AcDbEntity
  8
寸法線
 62
     0
 48
10.0
100
AcDbLine
 10
-148.545856406188
 20
172.41763126853
 30
0.0
 11
-154.545856406188
 21
172.41763126853
 31
0.0
  0
LINE
  5
3153
330
314E
100
AcDbEntity
  8
寸法線
 62
     0
 48
10.0
100
AcDbLine
 10
-133.689851891653
 20
172.41763126853
 30
0.0
 11
-120.232745110466
 21
172.41763126853
 31
0.0
  0
LINE
  5
3154
330
314E
100
AcDbEntity
  8
寸法線
 62
     0
 48
10.0
100
AcDbLine
 10
-142.545856406188
 20
172.41763126853
 30
0.0
 11
-139.689851891653
 21
172.41763126853
 31
0.0
  0
INSERT
  5
3155
330
314E
100
AcDbEntity
  8
寸法線
 62
     0
 48
10.0
100
AcDbBlockReference
  2
_OPEN30
 10
-142.545856406188
 20
172.41763126853
 30
0.0
 41
6.0
 42
6.0
 43
6.0
  0
INSERT
  5
3156
330
314E
100
AcDbEntity
  8
寸法線
 62
     0
 48
10.0
100
AcDbBlockReference
  2
_OPEN30
 10
-139.689851891653
 20
172.41763126853
 30
0.0
 41
6.0
 42
6.0
 43
6.0
 50
180.0
  0
MTEXT
  5
3157
330
314E
100
AcDbEntity
  8
寸法線
 62
     0
 48
10.0
100
AcDbMText
 10
-123.961298501059
 20
175.54263126853
 30
0.0
 40
5.0
 41
0.0
 71
     5
 72
     1
  1
\A1;1.5
  0
POINT
  5
3158
330
314E
100
AcDbEntity
  8
DEFPOINTS
 62
     0
 48
10.0
100
AcDbPoint
 10
-142.545856406188
 20
189.61846140322
 30
0.0
  0
POINT
  5
3159
330
314E
100
AcDbEntity
  8
DEFPOINTS
 62
     0
 48
10.0
100
AcDbPoint
 10
-139.689851891653
 20
189.61846140322
 30
0.0
  0
POINT
  5
315A
330
314E
100
AcDbEntity
  8
DEFPOINTS
 62
     0
 48
10.0
100
AcDbPoint
 10
-139.689851891653
 20
172.41763126853
 30
0.0
  0
ENDBLK
  5
315B
330
314E
100
AcDbEntity
  8
0
 48
10.0
100
AcDbBlockEnd
  0
BLOCK
  5
3170
330
315C
100
AcDbEntity
  8
0
 48
10.0
100
AcDbBlockBegin
  2
A$C384A4FFB
 70
     0
 10
0.0
 20
0.0
 30
0.0
  3
A$C384A4FFB
  1
A$C384A4FFB
  0
LINE
  5
315D
330
315C
100
AcDbEntity
  8
外形線
100
AcDbLine
 10
312.227694679646
 20
154.159896392983
 30
0.0
 11
519.638224678776
 21
154.159896392983
 31
0.0
  0
LINE
  5
315E
330
315C
100
AcDbEntity
  8
外形線
100
AcDbLine
 10
312.227694679646
 20
144.159973892983
 30
0.0
 11
519.638224678776
 21
144.159973892983
 31
0.0
  0
LINE
  5
315F
330
315C
100
AcDbEntity
  8
外形線
100
AcDbLine
 10
303.727694679646
 20
157.303858892983
 30
0.0
 11
309.981067179646
 21
157.303858892983
 31
0.0
  0
LINE
  5
3160
330
315C
100
AcDbEntity
  8
外形線
100
AcDbLine
 10
309.981067179646
 20
157.303858892983
 30
0.0
 11
312.227619679646
 21
155.057153892983
 31
0.0
  0
LINE
  5
3161
330
315C
100
AcDbEntity
  8
細線
100
AcDbLine
 10
305.727694679646
 20
153.231858892983
 30
0.0
 11
310.983175606654
 21
153.231858892983
 31
0.0
  0
ARC
  5
3162
330
315C
100
AcDbEntity
  8
細線
100
AcDbCircle
 10
308.639057179646
 20
156.166926392983
 30
0.0
 40
3.7563025
100
AcDbArc
 50
308.612371782873
 51
342.81588950412
  0
LINE
  5
3163
330
315C
100
AcDbEntity
  8
外形線
100
AcDbLine
 10
303.727694679646
 20
141.015938892983
 30
0.0
 11
309.981067179646
 21
141.015938892983
 31
0.0
  0
LINE
  5
3164
330
315C
100
AcDbEntity
  8
外形線
100
AcDbLine
 10
309.981067179646
 20
141.015938892983
 30
0.0
 11
312.227619679646
 21
143.262568892983
 31
0.0
  0
LINE
  5
3165
330
315C
100
AcDbEntity
  8
外形線
100
AcDbLine
 10
303.727694679646
 20
157.303858892983
 30
0.0
 11
303.727694679646
 21
141.015938892983
 31
0.0
  0
LINE
  5
3166
330
315C
100
AcDbEntity
  8
外形線
100
AcDbLine
 10
305.727694679646
 20
157.303858892983
 30
0.0
 11
305.727694679646
 21
141.015938892983
 31
0.0
  0
LINE
  5
3167
330
315C
100
AcDbEntity
  8
細線
100
AcDbLine
 10
305.727694679646
 20
145.087976392983
 30
0.0
 11
310.983135652015
 21
145.087976392983
 31
0.0
  0
ARC
  5
3168
330
315C
100
AcDbEntity
  8
細線
100
AcDbCircle
 10
308.639057179646
 20
142.152718892983
 30
0.0
 40
3.7563025
100
AcDbArc
 50
17.184150191555
 51
51.38761061704
  0
LINE
  5
3169
330
315C
100
AcDbEntity
  8
外形線
100
AcDbLine
 10
312.227694679646
 20
143.262491392983
 30
0.0
 11
312.227694679646
 21
155.057153892983
 31
0.0
  0
ARC
  5
316A
330
315C
100
AcDbEntity
  8
細線
100
AcDbCircle
 10
304.943837179646
 20
149.159861392983
 30
0.0
 40
7.2838425
100
AcDbArc
 50
326.010120640452
 51
33.98932849733
  0
DIMENSION
  5
316B
330
315C
100
AcDbEntity
  8
寸法線
 48
10.0
100
AcDbDimension
  2
*D10
 10
14.856002832544
 20
2.932922293165
 30
0.0
 11
30.584556223137
 21
6.057922293165
 31
0.0
 12
154.545854724197
 22
-169.484708975365
 32
0.0
  1
1.5
  3
ISO-25
100
AcDbAlignedDimension
 13
11.999998318009
 23
20.133752427855
 33
0.0
 14
14.856002832544
 24
20.133752427855
 34
0.0
100
AcDbRotatedDimension
1001
ACAD
1000
DSTYLE
1002
{
1070
     5
1000
OPEN30
1070
    41
1040
6.0
1070
    47
1040
0.1
1070
    48
1040
0.1
1070
    73
1070
     0
1070
   140
1040
5.0
1070
   271
1070
     1
1070
   272
1070
     1
1070
   341
1005
2AF4
1002
}
  0
INSERT
  5
316C
330
315C
100
AcDbEntity
  8
外形線
100
AcDbBlockReference
  2
パドル_W1立面図
 10
19.241458287988
 20
-169.484708975365
 30
0.0
  0
DIMENSION
  5
316D
330
315C
100
AcDbEntity
  8
寸法線
 48
10.0
100
AcDbDimension
  2
*D9
 10
185.927819670247
 20
1.607695242283
 30
0.0
 11
145.927819670247
 21
4.732695242283
 31
0.0
 12
154.545854724197
 22
-169.484708975365
 32
0.0
  3
ISO-25
100
AcDbAlignedDimension
 13
105.927819670247
 23
20.133752427855
 33
0.0
 14
185.927819670247
 24
48.133752427855
 34
0.0
100
AcDbRotatedDimension
1001
ACAD
1000
DSTYLE
1002
{
1070
     5
1000
OPEN30
1070
    41
1040
6.0
1070
    47
1040
0.1
1070
    48
1040
0.1
1070
    73
1070
     0
1070
   140
1040
5.0
1070
   271
1070
     1
1070
   272
1070
     1
1070
   341
1005
2AF4
1002
}
  0
DIMENSION
  5
316E
330
315C
100
AcDbEntity
  8
寸法線
 48
10.0
100
AcDbDimension
  2
*D8
 10
83.968578381042
 20
20.133752427855
 30
0.0
 11
80.843578381042
 21
60.133752427855
 31
0.0
 12
154.545854724197
 22
-169.484708975365
 32
0.0
  3
ISO-25
100
AcDbAlignedDimension
 13
105.927819670247
 23
100.133752427855
 33
0.0
 14
105.927819670247
 24
20.133752427855
 34
0.0
 50
90.0
100
AcDbRotatedDimension
1001
ACAD
1000
DSTYLE
1002
{
1070
     5
1000
OPEN30
1070
    41
1040
6.0
1070
    47
1040
0.1
1070
    48
1040
0.1
1070
    73
1070
     0
1070
   140
1040
5.0
1070
   271
1070
     1
1070
   272
1070
     1
1070
   341
1005
2AF4
1002
}
  0
INSERT
  5
316F
330
315C
100
AcDbEntity
  8
外形線
 48
10.0
100
AcDbBlockReference
  2
パドル_W1
 10
47.626703760747
 20
-160.518009493956
 30
0.0
  0
ENDBLK
  5
3171
330
315C
100
AcDbEntity
  8
0
 48
10.0
100
AcDbBlockEnd
  0
BLOCK
  5
34BD
330
34BA
100
AcDbEntity
  8
0
 48
10.0
100
AcDbBlockBegin
  2
A$C77C530E9
 70
     0
 10
0.0
 20
0.0
 30
0.0
  3
A$C77C530E9
  1
A$C77C530E9
  0
LINE
  5
34BB
330
34BA
100
AcDbEntity
  8
中心線
 48
10.0
100
AcDbLine
 10
0.000000851412
 20
22.054596647591
 30
0.0
 11
22.054597830693
 21
-0.000000331691
 31
0.0
  0
LINE
  5
34BC
330
34BA
100
AcDbEntity
  8
中心線
 48
10.0
100
AcDbLine
 10
47.201721658668
 20
-0.000000331691
 30
0.0
 11
69.256318637949
 21
22.054596647591
 31
0.0
  0
ENDBLK
  5
34BE
330
34BA
100
AcDbEntity
  8
0
 48
10.0
100
AcDbBlockEnd
  0
BLOCK
  5
66AA
330
66A0
100
AcDbEntity
  8
0
 48
10.0
100
AcDbBlockBegin
  2
*D13
 70
     1
 10
0.0
 20
0.0
 30
0.0
  3
*D13
  1
*D13
  0
LINE
  5
68D9
330
66A0
100
AcDbEntity
  8
寸法線_文字
 62
     0
 48
10.0
100
AcDbLine
 10
670.999393285179
 20
538.549534245649
 30
0.0
 11
670.999393285179
 21
434.814177750876
 31
0.0
  0
LINE
  5
68DA
330
66A0
100
AcDbEntity
  8
寸法線_文字
 62
     0
 48
10.0
100
AcDbLine
 10
726.999393285179
 20
538.549534245649
 30
0.0
 11
726.999393285179
 21
434.814177750876
 31
0.0
  0
LINE
  5
68DB
330
66A0
100
AcDbEntity
  8
寸法線_文字
 62
     0
 48
10.0
100
AcDbLine
 10
676.999393285179
 20
436.064177750876
 30
0.0
 11
720.999393285179
 21
436.064177750876
 31
0.0
  0
INSERT
  5
68DC
330
66A0
100
AcDbEntity
  8
寸法線_文字
 62
     0
 48
10.0
100
AcDbBlockReference
  2
_OPEN30
 10
670.999393285179
 20
436.064177750876
 30
0.0
 41
6.0
 42
6.0
 43
6.0
 50
180.0
  0
INSERT
  5
68DD
330
66A0
100
AcDbEntity
  8
寸法線_文字
 62
     0
 48
10.0
100
AcDbBlockReference
  2
_OPEN30
 10
726.999393285179
 20
436.064177750876
 30
0.0
 41
6.0
 42
6.0
 43
6.0
  0
MTEXT
  5
68DE
330
66A0
100
AcDbEntity
  8
寸法線_文字
 62
     0
 48
10.0
100
AcDbMText
 10
698.999393285179
 20
441.689177750876
 30
0.0
 40
10.0
 41
0.0
 71
     5
 72
     1
  1
\A1;56
  0
POINT
  5
68DF
330
66A0
100
AcDbEntity
  8
DEFPOINTS
 62
     0
 48
10.0
100
AcDbPoint
 10
670.999393285179
 20
539.174534245649
 30
0.0
  0
POINT
  5
68E0
330
66A0
100
AcDbEntity
  8
DEFPOINTS
 62
     0
 48
10.0
100
AcDbPoint
 10
726.999393285179
 20
539.174534245649
 30
0.0
  0
POINT
  5
68E1
330
66A0
100
AcDbEntity
  8
DEFPOINTS
 62
     0
 48
10.0
100
AcDbPoint
 10
726.999393285179
 20
436.064177750876
 30
0.0
  0
ENDBLK
  5
66AB
330
66A0
100
AcDbEntity
  8
0
 48
10.0
100
AcDbBlockEnd
  0
BLOCK
  5
66D2
330
66C8
100
AcDbEntity
  8
0
 48
10.0
100
AcDbBlockBegin
  2
*D15
 70
     1
 10
0.0
 20
0.0
 30
0.0
  3
*D15
  1
*D15
  0
LINE
  5
7060
330
66C8
100
AcDbEntity
  8
寸法線
 62
     0
 48
10.0
100
AcDbLine
 10
544.999393285179
 20
533.549534245649
 30
0.0
 11
544.999393285179
 21
434.814177750876
 31
0.0
  0
LINE
  5
7061
330
66C8
100
AcDbEntity
  8
寸法線
 62
     0
 48
10.0
100
AcDbLine
 10
528.999393285179
 20
533.549534245649
 30
0.0
 11
528.999393285179
 21
434.814177750876
 31
0.0
  0
LINE
  5
7062
330
66C8
100
AcDbEntity
  8
寸法線
 62
     0
 48
10.0
100
AcDbLine
 10
538.999393285179
 20
436.064177750876
 30
0.0
 11
534.999393285179
 21
436.064177750876
 31
0.0
  0
INSERT
  5
7063
330
66C8
100
AcDbEntity
  8
寸法線
 62
     0
 48
10.0
100
AcDbBlockReference
  2
_OPEN30
 10
544.999393285179
 20
436.064177750876
 30
0.0
 41
6.0
 42
6.0
 43
6.0
  0
INSERT
  5
7064
330
66C8
100
AcDbEntity
  8
寸法線
 62
     0
 48
10.0
100
AcDbBlockReference
  2
_OPEN30
 10
528.999393285179
 20
436.064177750876
 30
0.0
 41
6.0
 42
6.0
 43
6.0
 50
180.0
  0
MTEXT
  5
7065
330
66C8
100
AcDbEntity
  8
寸法線
 62
     0
 48
10.0
100
AcDbMText
 10
536.999393285179
 20
441.689177750876
 30
0.0
 40
10.0
 41
0.0
 71
     5
 72
     1
  1
\A1;16
  0
POINT
  5
7066
330
66C8
100
AcDbEntity
  8
DEFPOINTS
 62
     0
 48
10.0
100
AcDbPoint
 10
544.999393285179
 20
534.174534245649
 30
0.0
  0
POINT
  5
7067
330
66C8
100
AcDbEntity
  8
DEFPOINTS
 62
     0
 48
10.0
100
AcDbPoint
 10
528.999393285179
 20
534.174534245649
 30
0.0
  0
POINT
  5
7068
330
66C8
100
AcDbEntity
  8
DEFPOINTS
 62
     0
 48
10.0
100
AcDbPoint
 10
528.999393285179
 20
436.064177750876
 30
0.0
  0
ENDBLK
  5
66D3
330
66C8
100
AcDbEntity
  8
0
 48
10.0
100
AcDbBlockEnd
  0
BLOCK
  5
66DE
330
66D4
100
AcDbEntity
  8
0
 48
10.0
100
AcDbBlockBegin
  2
*D16
 70
     1
 10
0.0
 20
0.0
 30
0.0
  3
*D16
  1
*D16
  0
LINE
  5
695E
330
66D4
100
AcDbEntity
  8
寸法線
 62
     0
 48
10.0
100
AcDbLine
 10
27.110098435234
 20
581.827512075328
 30
0.0
 11
26.817795963821
 21
582.379946926874
 31
0.0
  0
LINE
  5
695F
330
66D4
100
AcDbEntity
  8
寸法線
 62
     0
 48
10.0
100
AcDbLine
 10
142.016546564916
 20
642.626425604465
 30
0.0
 11
141.724244093502
 21
643.178860456013
 31
0.0
  0
LINE
  5
6960
330
66D4
100
AcDbEntity
  8
寸法線
 62
     0
 48
10.0
100
AcDbLine
 10
32.705775481512
 20
584.081180949356
 30
0.0
 11
137.005474461468
 21
639.267887027339
 31
0.0
  0
INSERT
  5
6961
330
66D4
100
AcDbEntity
  8
寸法線
 62
     0
100
AcDbBlockReference
  2
_OPEN30
 10
27.40240090665
 20
581.275077223778
 30
0.0
 41
6.0
 42
6.0
 43
6.0
 50
207.884061721124
  0
INSERT
  5
6962
330
66D4
100
AcDbEntity
  8
寸法線
 62
     0
100
AcDbBlockReference
  2
_OPEN30
 10
142.308849036331
 20
642.073990752917
 30
0.0
 41
6.0
 42
6.0
 43
6.0
 50
27.884061721124
  0
MTEXT
  5
6963
330
66D4
100
AcDbEntity
  8
寸法線
 62
     0
 48
10.0
100
AcDbMText
 10
122.651804552724
 20
638.04288650834
 30
0.0
 40
10.0
 41
0.0
 71
     5
 72
     1
  1
\A1;φ130
 11
0.8838957624770319
 21
0.4676839542630756
 31
0.0
  0
POINT
  5
6964
330
66D4
100
AcDbEntity
  8
DEFPOINTS
 62
     0
100
AcDbPoint
 10
27.402400906649
 20
581.27507722378
 30
0.0
  0
POINT
  5
6965
330
66D4
100
AcDbEntity
  8
DEFPOINTS
 62
     0
100
AcDbPoint
 10
142.308849036331
 20
642.073990752917
 30
0.0
  0
POINT
  5
6966
330
66D4
100
AcDbEntity
  8
DEFPOINTS
 62
     0
100
AcDbPoint
 10
142.308849036331
 20
642.073990752917
 30
0.0
  0
ENDBLK
  5
66DF
330
66D4
100
AcDbEntity
  8
0
 48
10.0
100
AcDbBlockEnd
  0
BLOCK
  5
66EA
330
66E0
100
AcDbEntity
  8
0
 48
10.0
100
AcDbBlockBegin
  2
*D17
 70
     1
 10
0.0
 20
0.0
 30
0.0
  3
*D17
  1
*D17
  0
LINE
  5
6955
330
66E0
100
AcDbEntity
  8
寸法線
 62
     0
 48
10.0
100
AcDbLine
 10
8.297181628915
 20
599.609807899841
 30
0.0
 11
8.194914818941
 21
600.226384334341
 31
0.0
  0
LINE
  5
6956
330
66E0
100
AcDbEntity
  8
寸法線
 62
     0
 48
10.0
100
AcDbLine
 10
161.208137358142
 20
624.971976768956
 30
0.0
 11
161.105870548169
 21
625.588553203453
 31
0.0
  0
LINE
  5
6957
330
66E0
100
AcDbEntity
  8
寸法線
 62
     0
 48
10.0
100
AcDbLine
 10
14.318582210066
 20
599.974992841093
 30
0.0
 11
155.391270396938
 21
623.373638958711
 31
0.0
  0
INSERT
  5
6958
330
66E0
100
AcDbEntity
  8
寸法線
 62
     0
100
AcDbBlockReference
  2
_OPEN30
 10
8.399448438889
 20
598.993231465346
 30
0.0
 41
6.0
 42
6.0
 43
6.0
 50
189.41747735052
  0
INSERT
  5
6959
330
66E0
100
AcDbEntity
  8
寸法線
 62
     0
100
AcDbBlockReference
  2
_OPEN30
 10
161.310404168116
 20
624.355400334458
 30
0.0
 41
6.0
 42
6.0
 43
6.0
 50
9.41747735052
  0
MTEXT
  5
695A
330
66E0
100
AcDbEntity
  8
寸法線
 62
     0
 48
10.0
100
AcDbMText
 10
129.750250837671
 20
624.822607286426
 30
0.0
 40
10.0
 41
0.0
 71
     5
 72
     1
  1
\A1;φ155
 11
0.986522295196223
 21
0.1636268959577744
 31
0.0
  0
POINT
  5
695B
330
66E0
100
AcDbEntity
  8
DEFPOINTS
 62
     0
100
AcDbPoint
 10
8.399448438889
 20
598.993231465344
 30
0.0
  0
POINT
  5
695C
330
66E0
100
AcDbEntity
  8
DEFPOINTS
 62
     0
100
AcDbPoint
 10
161.310404168116
 20
624.355400334458
 30
0.0
  0
POINT
  5
695D
330
66E0
100
AcDbEntity
  8
DEFPOINTS
 62
     0
100
AcDbPoint
 10
161.310404168116
 20
624.355400334457
 30
0.0
  0
ENDBLK
  5
66EB
330
66E0
100
AcDbEntity
  8
0
 48
10.0
100
AcDbBlockEnd
  0
BLOCK
  5
66F8
330
66EC
100
AcDbEntity
  8
0
 48
10.0
100
AcDbBlockBegin
  2
*D18
 70
     1
 10
0.0
 20
0.0
 30
0.0
  3
*D18
  1
*D18
  0
LINE
  5
6FCA
330
66EC
100
AcDbEntity
  8
寸法線
 62
     0
 48
10.0
100
AcDbLine
 10
83.437509114551
 20
576.990425864982
 30
0.0
 11
83.437509114551
 21
577.615425864982
 31
0.0
  0
LINE
  5
6FCB
330
66EC
100
AcDbEntity
  8
寸法線
 62
     0
 48
10.0
100
AcDbLine
 10
86.293513629086
 20
576.990425864982
 30
0.0
 11
86.293513629086
 21
577.615425864982
 31
0.0
  0
LINE
  5
6FCC
330
66EC
100
AcDbEntity
  8
寸法線
 62
     0
 48
10.0
100
AcDbLine
 10
92.293513629086
 20
576.365425864982
 30
0.0
 11
103.543513629086
 21
576.365425864982
 31
0.0
  0
LINE
  5
6FCD
330
66EC
100
AcDbEntity
  8
寸法線
 62
     0
 48
10.0
100
AcDbLine
 10
83.437509114551
 20
576.365425864982
 30
0.0
 11
86.293513629086
 21
576.365425864982
 31
0.0
  0
LINE
  5
6FCE
330
66EC
100
AcDbEntity
  8
寸法線
 62
     0
 48
10.0
100
AcDbLine
 10
77.437509114551
 20
576.365425864982
 30
0.0
 11
71.437509114551
 21
576.365425864982
 31
0.0
  0
INSERT
  5
6FCF
330
66EC
100
AcDbEntity
  8
寸法線
 62
     0
100
AcDbBlockReference
  2
_OPEN30
 10
83.437509114551
 20
576.365425864982
 30
0.0
 41
6.0
 42
6.0
 43
6.0
  0
INSERT
  5
6FD0
330
66EC
100
AcDbEntity
  8
寸法線
 62
     0
100
AcDbBlockReference
  2
_OPEN30
 10
86.293513629086
 20
576.365425864982
 30
0.0
 41
6.0
 42
6.0
 43
6.0
 50
180.0
  0
MTEXT
  5
6FD1
330
66EC
100
AcDbEntity
  8
寸法線
 62
     0
 48
10.0
100
AcDbMText
 10
100.918513629086
 20
581.995634198315
 30
0.0
 40
10.0
 41
0.0
 71
     5
 72
     1
  1
\A1;3
  0
POINT
  5
6FD2
330
66EC
100
AcDbEntity
  8
DEFPOINTS
 62
     0
100
AcDbPoint
 10
83.437509114551
 20
576.365425864982
 30
0.0
  0
POINT
  5
6FD3
330
66EC
100
AcDbEntity
  8
DEFPOINTS
 62
     0
100
AcDbPoint
 10
86.293513629086
 20
576.365425864982
 30
0.0
  0
POINT
  5
6FD4
330
66EC
100
AcDbEntity
  8
DEFPOINTS
 62
     0
100
AcDbPoint
 10
86.293513629086
 20
576.365425864982
 30
0.0
  0
ENDBLK
  5
66F9
330
66EC
100
AcDbEntity
  8
0
 48
10.0
100
AcDbBlockEnd
  0
BLOCK
  5
6704
330
66FA
100
AcDbEntity
  8
0
 48
10.0
100
AcDbBlockBegin
  2
*D19
 70
     1
 10
0.0
 20
0.0
 30
0.0
  3
*D19
  1
*D19
  0
LINE
  5
6941
330
66FA
100
AcDbEntity
  8
寸法線
 62
     0
 48
10.0
100
AcDbLine
 10
742.624393285179
 20
684.674534245649
 30
0.0
 11
769.249393285179
 21
684.674534245649
 31
0.0
  0
LINE
  5
6942
330
66FA
100
AcDbEntity
  8
寸法線
 62
     0
 48
10.0
100
AcDbLine
 10
742.624393285179
 20
538.674534245649
 30
0.0
 11
769.249393285179
 21
538.674534245649
 31
0.0
  0
LINE
  5
6943
330
66FA
100
AcDbEntity
  8
寸法線
 62
     0
 48
10.0
100
AcDbLine
 10
767.999393285179
 20
678.674534245649
 30
0.0
 11
767.999393285179
 21
544.674534245649
 31
0.0
  0
INSERT
  5
6944
330
66FA
100
AcDbEntity
  8
寸法線
 62
     0
 48
10.0
100
AcDbBlockReference
  2
_OPEN30
 10
767.999393285179
 20
684.674534245649
 30
0.0
 41
6.0
 42
6.0
 43
6.0
 50
90.0
  0
INSERT
  5
6945
330
66FA
100
AcDbEntity
  8
寸法線
 62
     0
 48
10.0
100
AcDbBlockReference
  2
_OPEN30
 10
767.999393285179
 20
538.674534245649
 30
0.0
 41
6.0
 42
6.0
 43
6.0
 50
270.0
  0
MTEXT
  5
6946
330
66FA
100
AcDbEntity
  8
寸法線
 62
     0
 48
10.0
100
AcDbMText
 10
762.374393285179
 20
609.583111918124
 30
0.0
 40
10.0
 41
0.0
 71
     5
 72
     1
  1
\A1;%%c146
 11
6.123031769111886E-17
 21
1.0
 31
0.0
  0
POINT
  5
6947
330
66FA
100
AcDbEntity
  8
DEFPOINTS
 62
     0
 48
10.0
100
AcDbPoint
 10
741.999393285179
 20
684.674534245649
 30
0.0
  0
POINT
  5
6948
330
66FA
100
AcDbEntity
  8
DEFPOINTS
 62
     0
 48
10.0
100
AcDbPoint
 10
741.999393285179
 20
538.674534245649
 30
0.0
  0
POINT
  5
6949
330
66FA
100
AcDbEntity
  8
DEFPOINTS
 62
     0
 48
10.0
100
AcDbPoint
 10
767.999393285179
 20
538.674534245649
 30
0.0
  0
ENDBLK
  5
6705
330
66FA
100
AcDbEntity
  8
0
 48
10.0
100
AcDbBlockEnd
  0
BLOCK
  5
6710
330
6706
100
AcDbEntity
  8
0
 48
10.0
100
AcDbBlockBegin
  2
*D20
 70
     1
 10
0.0
 20
0.0
 30
0.0
  3
*D20
  1
*D20
  0
LINE
  5
704E
330
6706
100
AcDbEntity
  8
寸法線
 62
     0
 48
10.0
100
AcDbLine
 10
670.999393285179
 20
538.549534245649
 30
0.0
 11
670.999393285179
 21
434.814177750876
 31
0.0
  0
LINE
  5
704F
330
6706
100
AcDbEntity
  8
寸法線
 62
     0
 48
10.0
100
AcDbLine
 10
544.999393285179
 20
533.549534245649
 30
0.0
 11
544.999393285179
 21
434.814177750876
 31
0.0
  0
LINE
  5
7050
330
6706
100
AcDbEntity
  8
寸法線
 62
     0
 48
10.0
100
AcDbLine
 10
664.999393285179
 20
436.064177750876
 30
0.0
 11
550.999393285179
 21
436.064177750876
 31
0.0
  0
INSERT
  5
7051
330
6706
100
AcDbEntity
  8
寸法線
 62
     0
 48
10.0
100
AcDbBlockReference
  2
_OPEN30
 10
670.999393285179
 20
436.064177750876
 30
0.0
 41
6.0
 42
6.0
 43
6.0
  0
INSERT
  5
7052
330
6706
100
AcDbEntity
  8
寸法線
 62
     0
 48
10.0
100
AcDbBlockReference
  2
_OPEN30
 10
544.999393285179
 20
436.064177750876
 30
0.0
 41
6.0
 42
6.0
 43
6.0
 50
180.0
  0
MTEXT
  5
7053
330
6706
100
AcDbEntity
  8
寸法線
 62
     0
 48
10.0
100
AcDbMText
 10
607.999393285179
 20
441.690162002845
 30
0.0
 40
10.0
 41
0.0
 71
     5
 72
     1
  1
\A1;126
  0
POINT
  5
7054
330
6706
100
AcDbEntity
  8
DEFPOINTS
 62
     0
 48
10.0
100
AcDbPoint
 10
670.999393285179
 20
539.174534245649
 30
0.0
  0
POINT
  5
7055
330
6706
100
AcDbEntity
  8
DEFPOINTS
 62
     0
 48
10.0
100
AcDbPoint
 10
544.999393285179
 20
534.174534245649
 30
0.0
  0
POINT
  5
7056
330
6706
100
AcDbEntity
  8
DEFPOINTS
 62
     0
 48
10.0
100
AcDbPoint
 10
544.999393285179
 20
436.064177750876
 30
0.0
  0
ENDBLK
  5
6711
330
6706
100
AcDbEntity
  8
0
 48
10.0
100
AcDbBlockEnd
  0
BLOCK
  5
671C
330
6712
100
AcDbEntity
  8
0
 48
10.0
100
AcDbBlockBegin
  2
*D21
 70
     1
 10
0.0
 20
0.0
 30
0.0
  3
*D21
  1
*D21
  0
LINE
  5
692F
330
6712
100
AcDbEntity
  8
寸法線_文字
 62
     0
 48
10.0
100
AcDbLine
 10
726.999393285179
 20
538.54953424565
 30
0.0
 11
726.999393285179
 21
434.814177750876
 31
0.0
  0
LINE
  5
6930
330
6712
100
AcDbEntity
  8
寸法線_文字
 62
     0
 48
10.0
100
AcDbLine
 10
742.999393285179
 20
539.049534245649
 30
0.0
 11
742.999393285179
 21
434.814177750876
 31
0.0
  0
LINE
  5
6931
330
6712
100
AcDbEntity
  8
寸法線_文字
 62
     0
 48
10.0
100
AcDbLine
 10
732.999393285179
 20
436.064177750876
 30
0.0
 11
736.999393285179
 21
436.064177750876
 31
0.0
  0
INSERT
  5
6932
330
6712
100
AcDbEntity
  8
寸法線_文字
 62
     0
 48
10.0
100
AcDbBlockReference
  2
_OPEN30
 10
726.999393285179
 20
436.064177750876
 30
0.0
 41
6.0
 42
6.0
 43
6.0
 50
180.0
  0
INSERT
  5
6933
330
6712
100
AcDbEntity
  8
寸法線_文字
 62
     0
 48
10.0
100
AcDbBlockReference
  2
_OPEN30
 10
742.999393285179
 20
436.064177750876
 30
0.0
 41
6.0
 42
6.0
 43
6.0
  0
MTEXT
  5
6934
330
6712
100
AcDbEntity
  8
寸法線_文字
 62
     0
 48
10.0
100
AcDbMText
 10
734.999393285179
 20
441.689177750876
 30
0.0
 40
10.0
 41
0.0
 71
     5
 72
     1
  1
\A1;16
  0
POINT
  5
6935
330
6712
100
AcDbEntity
  8
DEFPOINTS
 62
     0
 48
10.0
100
AcDbPoint
 10
726.999393285179
 20
539.17453424565
 30
0.0
  0
POINT
  5
6936
330
6712
100
AcDbEntity
  8
DEFPOINTS
 62
     0
 48
10.0
100
AcDbPoint
 10
742.999393285179
 20
539.674534245649
 30
0.0
  0
POINT
  5
6937
330
6712
100
AcDbEntity
  8
DEFPOINTS
 62
     0
 48
10.0
100
AcDbPoint
 10
742.999393285179
 20
436.064177750876
 30
0.0
  0
ENDBLK
  5
671D
330
6712
100
AcDbEntity
  8
0
 48
10.0
100
AcDbBlockEnd
  0
BLOCK
  5
6728
330
671E
100
AcDbEntity
  8
0
 48
10.0
100
AcDbBlockBegin
  2
*D22
 70
     1
 10
0.0
 20
0.0
 30
0.0
  3
*D22
  1
*D22
  0
LINE
  5
6926
330
671E
100
AcDbEntity
  8
寸法線_文字
 62
     0
 48
10.0
100
AcDbLine
 10
742.624393285179
 20
684.674534245649
 30
0.0
 11
791.24939328518
 21
684.674534245649
 31
0.0
  0
LINE
  5
6927
330
671E
100
AcDbEntity
  8
寸法線_文字
 62
     0
 48
10.0
100
AcDbLine
 10
712.224393285179
 20
461.064177750876
 30
0.0
 11
791.24939328518
 21
461.064177750876
 31
0.0
  0
LINE
  5
6928
330
671E
100
AcDbEntity
  8
寸法線_文字
 62
     0
 48
10.0
100
AcDbLine
 10
789.99939328518
 20
678.674534245649
 30
0.0
 11
789.99939328518
 21
467.064177750876
 31
0.0
  0
INSERT
  5
6929
330
671E
100
AcDbEntity
  8
寸法線_文字
 62
     0
 48
10.0
100
AcDbBlockReference
  2
_OPEN30
 10
789.99939328518
 20
684.674534245649
 30
0.0
 41
6.0
 42
6.0
 43
6.0
 50
90.0
  0
INSERT
  5
692A
330
671E
100
AcDbEntity
  8
寸法線_文字
 62
     0
 48
10.0
100
AcDbBlockReference
  2
_OPEN30
 10
789.99939328518
 20
461.064177750876
 30
0.0
 41
6.0
 42
6.0
 43
6.0
 50
270.0
  0
MTEXT
  5
692B
330
671E
100
AcDbEntity
  8
寸法線_文字
 62
     0
 48
10.0
100
AcDbMText
 10
784.373409033211
 20
572.869355998263
 30
0.0
 40
10.0
 41
0.0
 71
     5
 72
     1
  1
\A1;（224）
 11
6.123031769111886E-17
 21
1.0
 31
0.0
  0
POINT
  5
692C
330
671E
100
AcDbEntity
  8
DEFPOINTS
 62
     0
 48
10.0
100
AcDbPoint
 10
741.999393285179
 20
684.674534245649
 30
0.0
  0
POINT
  5
692D
330
671E
100
AcDbEntity
  8
DEFPOINTS
 62
     0
 48
10.0
100
AcDbPoint
 10
711.599393285179
 20
461.064177750876
 30
0.0
  0
POINT
  5
692E
330
671E
100
AcDbEntity
  8
DEFPOINTS
 62
     0
 48
10.0
100
AcDbPoint
 10
789.99939328518
 20
461.064177750876
 30
0.0
  0
ENDBLK
  5
6729
330
671E
100
AcDbEntity
  8
0
 48
10.0
100
AcDbBlockEnd
  0
BLOCK
  5
6734
330
672A
100
AcDbEntity
  8
0
 48
10.0
100
AcDbBlockBegin
  2
*D23
 70
     1
 10
0.0
 20
0.0
 30
0.0
  3
*D23
  1
*D23
  0
LINE
  5
706A
330
672A
100
AcDbEntity
  8
寸法線
 62
     0
 48
10.0
100
AcDbLine
 10
742.999393285179
 20
539.049534245649
 30
0.0
 11
742.999393285179
 21
412.814177750876
 31
0.0
  0
LINE
  5
706B
330
672A
100
AcDbEntity
  8
寸法線
 62
     0
 48
10.0
100
AcDbLine
 10
528.999393285179
 20
533.549534245649
 30
0.0
 11
528.999393285179
 21
412.814177750876
 31
0.0
  0
LINE
  5
706C
330
672A
100
AcDbEntity
  8
寸法線
 62
     0
 48
10.0
100
AcDbLine
 10
736.999393285179
 20
414.064177750876
 30
0.0
 11
534.999393285179
 21
414.064177750876
 31
0.0
  0
INSERT
  5
706D
330
672A
100
AcDbEntity
  8
寸法線
 62
     0
 48
10.0
100
AcDbBlockReference
  2
_OPEN30
 10
742.999393285179
 20
414.064177750876
 30
0.0
 41
6.0
 42
6.0
 43
6.0
  0
INSERT
  5
706E
330
672A
100
AcDbEntity
  8
寸法線
 62
     0
 48
10.0
100
AcDbBlockReference
  2
_OPEN30
 10
528.999393285179
 20
414.064177750876
 30
0.0
 41
6.0
 42
6.0
 43
6.0
 50
180.0
  0
MTEXT
  5
706F
330
672A
100
AcDbEntity
  8
寸法線
 62
     0
 48
10.0
100
AcDbMText
 10
635.999393285179
 20
419.690162002845
 30
0.0
 40
10.0
 41
0.0
 71
     5
 72
     1
  1
\A1;（214）
  0
POINT
  5
7070
330
672A
100
AcDbEntity
  8
DEFPOINTS
 62
     0
 48
10.0
100
AcDbPoint
 10
742.999393285179
 20
539.674534245649
 30
0.0
  0
POINT
  5
7071
330
672A
100
AcDbEntity
  8
DEFPOINTS
 62
     0
 48
10.0
100
AcDbPoint
 10
528.999393285179
 20
534.174534245649
 30
0.0
  0
POINT
  5
7072
330
672A
100
AcDbEntity
  8
DEFPOINTS
 62
     0
 48
10.0
100
AcDbPoint
 10
528.999393285179
 20
414.064177750876
 30
0.0
  0
ENDBLK
  5
6735
330
672A
100
AcDbEntity
  8
0
 48
10.0
100
AcDbBlockEnd
  0
BLOCK
  5
6741
330
6736
100
AcDbEntity
  8
0
 48
10.0
100
AcDbBlockBegin
  2
*D24
 70
     1
 10
0.0
 20
0.0
 30
0.0
  3
*D24
  1
*D24
  0
LINE
  5
7038
330
6736
100
AcDbEntity
  8
寸法線
 62
     0
 48
10.0
100
AcDbLine
 10
376.428506064271
 20
635.974530561648
 30
0.0
 11
375.803506064271
 21
635.974530561648
 31
0.0
  0
LINE
  5
7039
330
6736
100
AcDbEntity
  8
寸法線
 62
     0
 48
10.0
100
AcDbLine
 10
376.428506064271
 20
587.374526513955
 30
0.0
 11
375.803506064271
 21
587.374526513955
 31
0.0
  0
LINE
  5
703A
330
6736
100
AcDbEntity
  8
寸法線
 62
     0
 48
10.0
100
AcDbLine
 10
377.053506064271
 20
593.374526513955
 30
0.0
 11
377.053506064271
 21
629.974530561648
 31
0.0
  0
LINE
  5
703B
330
6736
100
AcDbEntity
  8
寸法線
 62
     0
 48
10.0
100
AcDbLine
 10
377.053506064271
 20
635.974530561648
 30
0.0
 11
377.053506064271
 21
678.624226256698
 31
0.0
  0
INSERT
  5
703C
330
6736
100
AcDbEntity
  8
寸法線
 62
     0
 48
10.0
100
AcDbBlockReference
  2
_OPEN30
 10
377.053506064271
 20
587.374526513955
 30
0.0
 41
6.0
 42
6.0
 43
6.0
 50
270.0
  0
INSERT
  5
703D
330
6736
100
AcDbEntity
  8
寸法線
 62
     0
 48
10.0
100
AcDbBlockReference
  2
_OPEN30
 10
377.053506064271
 20
635.974530561648
 30
0.0
 41
6.0
 42
6.0
 43
6.0
 50
90.0
  0
MTEXT
  5
703E
330
6736
100
AcDbEntity
  8
寸法線
 62
     0
 48
10.0
100
AcDbMText
 10
371.428506064271
 20
661.001194760635
 30
0.0
 40
10.0
 41
0.0
 71
     5
 72
     1
  1
\A1;φ48.6
 11
6.123031769111886E-17
 21
1.0
 31
0.0
  0
POINT
  5
703F
330
6736
100
AcDbEntity
  8
DEFPOINTS
 62
     0
 48
10.0
100
AcDbPoint
 10
377.053506064271
 20
635.974530561648
 30
0.0
  0
POINT
  5
7040
330
6736
100
AcDbEntity
  8
DEFPOINTS
 62
     0
 48
10.0
100
AcDbPoint
 10
377.053506064271
 20
587.374526513955
 30
0.0
  0
POINT
  5
7041
330
6736
100
AcDbEntity
  8
DEFPOINTS
 62
     0
 48
10.0
100
AcDbPoint
 10
377.053506064271
 20
587.374526513955
 30
0.0
  0
ENDBLK
  5
6742
330
6736
100
AcDbEntity
  8
0
 48
10.0
100
AcDbBlockEnd
  0
BLOCK
  5
675B
330
6751
100
AcDbEntity
  8
0
 48
10.0
100
AcDbBlockBegin
  2
*D25
 70
     1
 10
0.0
 20
0.0
 30
0.0
  3
*D25
  1
*D25
  0
LINE
  5
69DE
330
6751
100
AcDbEntity
  8
寸法線
 62
     0
 48
10.0
100
AcDbLine
 10
222.355288085162
 20
571.049534245649
 30
0.0
 11
222.355288085162
 21
551.898477060077
 31
0.0
  0
LINE
  5
69DF
330
6751
100
AcDbEntity
  8
寸法線
 62
     0
 48
10.0
100
AcDbLine
 10
302.355288085162
 20
599.049534245649
 30
0.0
 11
302.355288085162
 21
551.898477060077
 31
0.0
  0
LINE
  5
69E0
330
6751
100
AcDbEntity
  8
寸法線
 62
     0
 48
10.0
100
AcDbLine
 10
228.355288085162
 20
553.148477060077
 30
0.0
 11
296.355288085162
 21
553.148477060077
 31
0.0
  0
INSERT
  5
69E1
330
6751
100
AcDbEntity
  8
寸法線
 62
     0
 48
10.0
100
AcDbBlockReference
  2
_OPEN30
 10
222.355288085162
 20
553.148477060077
 30
0.0
 41
6.0
 42
6.0
 43
6.0
 50
180.0
  0
INSERT
  5
69E2
330
6751
100
AcDbEntity
  8
寸法線
 62
     0
 48
10.0
100
AcDbBlockReference
  2
_OPEN30
 10
302.355288085162
 20
553.148477060077
 30
0.0
 41
6.0
 42
6.0
 43
6.0
  0
MTEXT
  5
69E3
330
6751
100
AcDbEntity
  8
寸法線
 62
     0
 48
10.0
100
AcDbMText
 10
262.355288085162
 20
558.773477060077
 30
0.0
 40
10.0
 41
0.0
 71
     5
 72
     1
  1
\A1;80
  0
POINT
  5
69E4
330
6751
100
AcDbEntity
  8
DEFPOINTS
 62
     0
 48
10.0
100
AcDbPoint
 10
222.355288085162
 20
571.674534245649
 30
0.0
  0
POINT
  5
69E5
330
6751
100
AcDbEntity
  8
DEFPOINTS
 62
     0
 48
10.0
100
AcDbPoint
 10
302.355288085162
 20
599.674534245649
 30
0.0
  0
POINT
  5
69E6
330
6751
100
AcDbEntity
  8
DEFPOINTS
 62
     0
 48
10.0
100
AcDbPoint
 10
302.355288085162
 20
553.148477060077
 30
0.0
  0
ENDBLK
  5
675C
330
6751
100
AcDbEntity
  8
0
 48
10.0
100
AcDbBlockEnd
  0
BLOCK
  5
6767
330
675D
100
AcDbEntity
  8
0
 48
10.0
100
AcDbBlockBegin
  2
*D26
 70
     1
 10
0.0
 20
0.0
 30
0.0
  3
*D26
  1
*D26
  0
LINE
  5
69D5
330
675D
100
AcDbEntity
  8
寸法線
 62
     0
 48
10.0
100
AcDbLine
 10
221.730288085162
 20
651.674534245649
 30
0.0
 11
203.12267496046
 21
651.674534245649
 31
0.0
  0
LINE
  5
69D6
330
675D
100
AcDbEntity
  8
寸法線
 62
     0
 48
10.0
100
AcDbLine
 10
221.730288085162
 20
571.674534245649
 30
0.0
 11
203.12267496046
 21
571.674534245649
 31
0.0
  0
LINE
  5
69D7
330
675D
100
AcDbEntity
  8
寸法線
 62
     0
 48
10.0
100
AcDbLine
 10
204.37267496046
 20
645.674534245649
 30
0.0
 11
204.37267496046
 21
577.674534245649
 31
0.0
  0
INSERT
  5
69D8
330
675D
100
AcDbEntity
  8
寸法線
 62
     0
 48
10.0
100
AcDbBlockReference
  2
_OPEN30
 10
204.37267496046
 20
651.674534245649
 30
0.0
 41
6.0
 42
6.0
 43
6.0
 50
90.0
  0
INSERT
  5
69D9
330
675D
100
AcDbEntity
  8
寸法線
 62
     0
 48
10.0
100
AcDbBlockReference
  2
_OPEN30
 10
204.37267496046
 20
571.674534245649
 30
0.0
 41
6.0
 42
6.0
 43
6.0
 50
270.0
  0
MTEXT
  5
69DA
330
675D
100
AcDbEntity
  8
寸法線
 62
     0
 48
10.0
100
AcDbMText
 10
198.74767496046
 20
611.674534245649
 30
0.0
 40
10.0
 41
0.0
 71
     5
 72
     1
  1
\A1;80
 11
6.123031769111886E-17
 21
1.0
 31
0.0
  0
POINT
  5
69DB
330
675D
100
AcDbEntity
  8
DEFPOINTS
 62
     0
 48
10.0
100
AcDbPoint
 10
222.355288085162
 20
651.674534245649
 30
0.0
  0
POINT
  5
69DC
330
675D
100
AcDbEntity
  8
DEFPOINTS
 62
     0
 48
10.0
100
AcDbPoint
 10
222.355288085162
 20
571.674534245649
 30
0.0
  0
POINT
  5
69DD
330
675D
100
AcDbEntity
  8
DEFPOINTS
 62
     0
 48
10.0
100
AcDbPoint
 10
204.37267496046
 20
571.674534245649
 30
0.0
  0
ENDBLK
  5
6768
330
675D
100
AcDbEntity
  8
0
 48
10.0
100
AcDbBlockEnd
  0
BLOCK
  5
6773
330
6769
100
AcDbEntity
  8
0
 48
10.0
100
AcDbBlockBegin
  2
*D27
 70
     1
 10
0.0
 20
0.0
 30
0.0
  3
*D27
  1
*D27
  0
LINE
  5
707D
330
6769
100
AcDbEntity
  8
寸法線
 62
     0
 48
10.0
100
AcDbLine
 10
222.355288085162
 20
571.049534245649
 30
0.0
 11
222.355288085162
 21
412.814177750876
 31
0.0
  0
LINE
  5
707E
330
6769
100
AcDbEntity
  8
寸法線
 62
     0
 48
10.0
100
AcDbLine
 10
528.999393285179
 20
533.549534245649
 30
0.0
 11
528.999393285179
 21
412.814177750876
 31
0.0
  0
LINE
  5
707F
330
6769
100
AcDbEntity
  8
寸法線
 62
     0
 48
10.0
100
AcDbLine
 10
228.355288085162
 20
414.064177750876
 30
0.0
 11
522.999393285179
 21
414.064177750876
 31
0.0
  0
INSERT
  5
7080
330
6769
100
AcDbEntity
  8
寸法線
 62
     0
100
AcDbBlockReference
  2
_OPEN30
 10
222.355288085162
 20
414.064177750876
 30
0.0
 41
6.0
 42
6.0
 43
6.0
 50
180.0
  0
INSERT
  5
7081
330
6769
100
AcDbEntity
  8
寸法線
 62
     0
100
AcDbBlockReference
  2
_OPEN30
 10
528.999393285179
 20
414.064177750876
 30
0.0
 41
6.0
 42
6.0
 43
6.0
  0
POINT
  5
7082
330
6769
100
AcDbEntity
  8
DEFPOINTS
 62
     0
100
AcDbPoint
 10
222.355288085162
 20
571.674534245649
 30
0.0
  0
POINT
  5
7083
330
6769
100
AcDbEntity
  8
DEFPOINTS
 62
     0
100
AcDbPoint
 10
528.999393285179
 20
534.174534245649
 30
0.0
  0
POINT
  5
7084
330
6769
100
AcDbEntity
  8
DEFPOINTS
 62
     0
100
AcDbPoint
 10
528.999393285179
 20
414.064177750876
 30
0.0
  0
ENDBLK
  5
6774
330
6769
100
AcDbEntity
  8
0
 48
10.0
100
AcDbBlockEnd
  0
BLOCK
  5
6F88
330
6F87
100
AcDbEntity
  8
0
 48
10.0
100
AcDbBlockBegin
  2
A$C02273BBC
 70
     0
 10
0.0
 20
0.0
 30
0.0
  3
A$C02273BBC
  1
A$C02273BBC
  0
LINE
  5
6F89
330
6F87
100
AcDbEntity
  8
外形線
100
AcDbLine
 10
10.200012408517
 20
23.999999910734
 30
0.0
 11
0.000000408517
 21
23.999999910734
 31
0.0
  0
LINE
  5
6F8A
330
6F87
100
AcDbEntity
  8
細線
100
AcDbLine
 10
11.608886408517
 20
17.999999910734
 30
0.0
 11
3.000000408517
 21
17.999999910734
 31
0.0
  0
LINE
  5
6F8B
330
6F87
100
AcDbEntity
  8
外形線
100
AcDbLine
 10
10.200012408517
 20
23.999999910734
 30
0.0
 11
13.600006408517
 21
21.399993910734
 31
0.0
  0
ARC
  5
6F8C
330
6F87
100
AcDbEntity
  8
細線
100
AcDbCircle
 10
9.848106027781
 20
21.314177541316
 30
0.0
 40
3.75288168161888
100
AcDbArc
 50
297.981139691567
 51
1.310284949026
  0
LINE
  5
6F8D
330
6F87
100
AcDbEntity
  8
外形線
100
AcDbLine
 10
10.200012408517
 20
-0.000000089266
 30
0.0
 11
0.000000408517
 21
-0.000000089266
 31
0.0
  0
LINE
  5
6F8E
330
6F87
100
AcDbEntity
  8
外形線
100
AcDbLine
 10
3.000000408517
 20
23.999999910734
 30
0.0
 11
3.000000408517
 21
-0.000000089266
 31
0.0
  0
LINE
  5
6F8F
330
6F87
100
AcDbEntity
  8
細線
100
AcDbLine
 10
11.608886408517
 20
5.999999910734
 30
0.0
 11
3.000000408517
 21
5.999999910734
 31
0.0
  0
LINE
  5
6F90
330
6F87
100
AcDbEntity
  8
外形線
100
AcDbLine
 10
10.200012408517
 20
-0.000000089266
 30
0.0
 11
13.600006408517
 21
2.600005910734
 31
0.0
  0
LINE
  5
6F91
330
6F87
100
AcDbEntity
  8
外形線
100
AcDbLine
 10
0.000000408517
 20
23.999999910734
 30
0.0
 11
0.000000408517
 21
-0.000000089266
 31
0.0
  0
ARC
  5
6F92
330
6F87
100
AcDbEntity
  8
細線
100
AcDbCircle
 10
3.564308194849
 20
11.999999910734
 30
0.0
 40
10.03569821366904
100
AcDbArc
 50
323.282806020859
 51
36.717193979141
  0
ARC
  5
6F93
330
6F87
100
AcDbEntity
  8
細線
100
AcDbCircle
 10
9.848106027781
 20
2.685822280154
 30
0.0
 40
3.75288168161888
100
AcDbArc
 50
358.689715050974
 51
62.018860308433
  0
LINE
  5
6F94
330
6F87
100
AcDbEntity
  8
外形線
100
AcDbLine
 10
13.600006408517
 20
21.399993910734
 30
0.0
 11
13.600006408517
 21
2.600005910734
 31
0.0
  0
ENDBLK
  5
6F95
330
6F87
100
AcDbEntity
  8
0
 48
10.0
100
AcDbBlockEnd
  0
BLOCK
  5
6FFA
330
6FEF
100
AcDbEntity
  8
0
 48
10.0
100
AcDbBlockBegin
  2
*D44
 70
     1
 10
0.0
 20
0.0
 30
0.0
  3
*D44
  1
*D44
  0
LINE
  5
7013
330
6FEF
100
AcDbEntity
  8
寸法線
 62
     0
 48
10.0
100
AcDbLine
 10
344.780449967381
 20
604.425804013955
 30
0.0
 11
349.962911160681
 21
604.425804013955
 31
0.0
  0
LINE
  5
7014
330
6FEF
100
AcDbEntity
  8
寸法線
 62
     0
 48
10.0
100
AcDbLine
 10
348.087911160681
 20
619.174531513955
 30
0.0
 11
347.462911160681
 21
619.174531513955
 31
0.0
  0
LINE
  5
7015
330
6FEF
100
AcDbEntity
  8
寸法線
 62
     0
 48
10.0
100
AcDbLine
 10
348.712911160681
 20
610.425804013955
 30
0.0
 11
348.712911160681
 21
613.174531513955
 31
0.0
  0
LINE
  5
7016
330
6FEF
100
AcDbEntity
  8
寸法線
 62
     0
 48
10.0
100
AcDbLine
 10
348.712911160681
 20
619.174531513955
 30
0.0
 11
348.712911160681
 21
647.338745076328
 31
0.0
  0
INSERT
  5
7017
330
6FEF
100
AcDbEntity
  8
寸法線
 62
     0
 48
10.0
100
AcDbBlockReference
  2
_OPEN30
 10
348.712911160681
 20
604.425804013955
 30
0.0
 41
6.0
 42
6.0
 43
6.0
 50
270.0
  0
INSERT
  5
7018
330
6FEF
100
AcDbEntity
  8
寸法線
 62
     0
 48
10.0
100
AcDbBlockReference
  2
_OPEN30
 10
348.712911160681
 20
619.174531513955
 30
0.0
 41
6.0
 42
6.0
 43
6.0
 50
90.0
  0
MTEXT
  5
7019
330
6FEF
100
AcDbEntity
  8
寸法線
 62
     0
 48
10.0
100
AcDbMText
 10
343.087911160681
 20
636.256638295141
 30
0.0
 40
10.0
 41
0.0
 71
     5
 72
     1
  1
\A1;φ15
 11
6.123031769111886E-17
 21
1.0
 31
0.0
  0
POINT
  5
701A
330
6FEF
100
AcDbEntity
  8
DEFPOINTS
 62
     0
 48
10.0
100
AcDbPoint
 10
344.155449967381
 20
604.425804013955
 30
0.0
  0
POINT
  5
701B
330
6FEF
100
AcDbEntity
  8
DEFPOINTS
 62
     0
 48
10.0
100
AcDbPoint
 10
348.712911160681
 20
619.174531513955
 30
0.0
  0
POINT
  5
701C
330
6FEF
100
AcDbEntity
  8
DEFPOINTS
 62
     0
 48
10.0
100
AcDbPoint
 10
348.712911160681
 20
619.174531513955
 30
0.0
  0
ENDBLK
  5
6FFB
330
6FEF
100
AcDbEntity
  8
0
 48
10.0
100
AcDbBlockEnd
  0
ENDSEC
  0
SECTION
  2
ENTITIES
  0
MTEXT
  5
585A
330
1A
100
AcDbEntity
  8
細線
 48
10.0
100
AcDbMText
 10
2388.730547772073
 20
872.93633111709
 30
0.0
 40
6.0
 41
0.0
 71
     7
 72
     1
  1

  0
MTEXT
  5
5DFD
330
1A
100
AcDbEntity
  8
細線
 48
10.0
100
AcDbMText
 10
3365.875517977815
 20
358.633693314642
 30
0.0
 40
6.0
 41
0.0
 71
     7
 72
     1
  1

  0
DIMENSION
  5
64CD
330
1A
100
AcDbEntity
  8
寸法線
 48
10.0
100
AcDbDimension
  2
*D16
 10
142.308849036331
 20
642.073990752917
 30
0.0
 11
125.284962649383
 21
633.066369220644
 31
0.0
 70
   160
  3
ISO-25
100
AcDbAlignedDimension
 13
27.402400906649
 23
581.27507722378
 33
0.0
 14
142.308849036331
 24
642.073990752917
 34
0.0
 50
27.884061721124
100
AcDbRotatedDimension
1001
ACAD
1000
DSTYLE
1002
{
1070
     5
1000
OPEN30
1070
     3
1000
φ<>
1070
    41
1040
6.0
1070
    47
1040
0.1
1070
    48
1040
0.1
1070
    73
1070
     0
1070
   140
1040
10.0
1070
   271
1070
     1
1070
   272
1070
     1
1070
   341
1005
2AF4
1002
}
  0
DIMENSION
  5
64CE
330
1A
100
AcDbEntity
  8
寸法線
 48
10.0
100
AcDbDimension
  2
*D17
 10
161.310404168116
 20
624.355400334458
 30
0.0
 11
130.670652127433
 21
619.273419375948
 31
0.0
 70
   160
  3
ISO-25
100
AcDbAlignedDimension
 13
8.399448438889
 23
598.993231465344
 33
0.0
 14
161.310404168116
 24
624.355400334458
 34
0.0
 50
9.41747735052
100
AcDbRotatedDimension
1001
ACAD
1000
DSTYLE
1002
{
1070
     5
1000
OPEN30
1070
     3
1000
φ<>
1070
    41
1040
6.0
1070
    47
1040
0.1
1070
    48
1040
0.1
1070
    73
1070
     0
1070
   140
1040
10.0
1070
   271
1070
     1
1070
   272
1070
     1
1070
   341
1005
2AF4
1002
}
  0
LINE
  5
64FC
330
1A
100
AcDbEntity
  8
外形線
 62
     0
100
AcDbLine
 10
68.855258098435
 20
532.074534245648
 30
0.0
 11
65.355258098435
 21
533.012356419158
 31
0.0
  0
LINE
  5
64FD
330
1A
100
AcDbEntity
  8
外形線
 62
     0
100
AcDbLine
 10
68.855258098434
 20
523.074534245648
 30
0.0
 11
67.355258098434
 21
523.074534245648
 31
0.0
  0
LINE
  5
64FE
330
1A
100
AcDbEntity
  8
外形線
100
AcDbLine
 10
65.355258098434
 20
521.919833707269
 30
0.0
 11
65.355258098434
 21
496.229234784028
 31
0.0
  0
LINE
  5
64FF
330
1A
100
AcDbEntity
  8
外形線
100
AcDbLine
 10
67.355258098434
 20
495.074534245648
 30
0.0
 11
102.355258098435
 21
495.074534245648
 31
0.0
  0
LINE
  5
6500
330
1A
100
AcDbEntity
  8
外形線
100
AcDbLine
 10
67.355258098434
 20
495.074534245648
 30
0.0
 11
65.355258098434
 21
496.229234784028
 31
0.0
  0
LINE
  5
6501
330
1A
100
AcDbEntity
  8
外形線
 62
     0
100
AcDbLine
 10
67.355258098434
 20
523.074534245648
 30
0.0
 11
65.355258098434
 21
521.919833707269
 31
0.0
  0
ARC
  5
6502
330
1A
100
AcDbEntity
  8
外形線
100
AcDbCircle
 10
69.605258098434
 20
475.074534245648
 30
0.0
 40
2.0
100
AcDbArc
 50
180.0
 51
270.0
  0
LINE
  5
6503
330
1A
100
AcDbEntity
  8
外形線
100
AcDbLine
 10
67.605258098434
 20
475.074534245648
 30
0.0
 11
67.605258098434
 21
495.074534245648
 31
0.0
  0
LINE
  5
6504
330
1A
100
AcDbEntity
  8
外形線
100
AcDbLine
 10
72.255258098435
 20
461.074534245648
 30
0.0
 11
97.455258098435
 21
461.074534245648
 31
0.0
  0
LINE
  5
6505
330
1A
100
AcDbEntity
  8
外形線
100
AcDbLine
 10
72.255258098435
 20
461.074534245648
 30
0.0
 11
71.755258098435
 21
461.940559649433
 31
0.0
  0
LINE
  5
6506
330
1A
100
AcDbEntity
  8
外形線
100
AcDbLine
 10
71.755258098435
 20
473.074534245649
 30
0.0
 11
71.755258098435
 21
461.940559649433
 31
0.0
  0
LINE
  5
6507
330
1A
100
AcDbEntity
  8
外形線
 62
     0
100
AcDbLine
 10
68.855258098435
 20
532.074534245648
 30
0.0
 11
68.855258098435
 21
523.074534245648
 31
0.0
  0
LINE
  5
6508
330
1A
100
AcDbEntity
  8
外形線
 62
     0
100
AcDbLine
 10
65.355258098435
 20
536.669309983279
 30
0.0
 11
65.355258098435
 21
533.012356419158
 31
0.0
  0
LINE
  5
6509
330
1A
100
AcDbEntity
  8
外形線
 48
10.0
100
AcDbLine
 10
68.855258098435
 20
532.074534245648
 30
0.0
 11
100.855258098435
 21
532.074534245648
 31
0.0
  0
LINE
  5
650A
330
1A
100
AcDbEntity
  8
外形線
 48
10.0
100
AcDbLine
 10
69.605258098434
 20
473.074534245648
 30
0.0
 11
100.105258098435
 21
473.074534245648
 31
0.0
  0
LINE
  5
650B
330
1A
100
AcDbEntity
  8
外形線
 48
10.0
100
AcDbLine
 10
68.855258098434
 20
523.074534245648
 30
0.0
 11
100.855258098435
 21
523.074534245648
 31
0.0
  0
LINE
  5
650C
330
1A
100
AcDbEntity
  8
外形線
 48
10.0
100
AcDbLine
 10
83.512406835907
 20
496.229234784028
 30
0.0
 11
83.512406835907
 21
521.919833707269
 31
0.0
  0
LINE
  5
650D
330
1A
100
AcDbEntity
  8
外形線
 48
10.0
100
AcDbLine
 10
83.512406835907
 20
532.074534245649
 30
0.0
 11
83.512406835907
 21
534.187603815425
 31
0.0
  0
LINE
  5
650E
330
1A
100
AcDbEntity
  8
外形線
 48
10.0
100
AcDbLine
 10
76.895726448472
 20
532.074534245648
 30
0.0
 11
76.895726448472
 21
534.585791629281
 31
0.0
  0
LINE
  5
650F
330
1A
100
AcDbEntity
  8
外形線
 48
10.0
100
AcDbLine
 10
74.210023923416
 20
532.074534245648
 30
0.0
 11
74.210023923416
 21
534.91055739384
 31
0.0
  0
LINE
  5
6510
330
1A
100
AcDbEntity
  8
外形線
 48
10.0
100
AcDbLine
 10
83.512406835907
 20
496.229234784028
 30
0.0
 11
84.855258098434
 21
496.229234784028
 31
0.0
  0
ARC
  5
6511
330
1A
100
AcDbEntity
  8
外形線
 48
10.0
100
AcDbCircle
 10
75.552875185944
 20
523.085033621918
 30
0.0
 40
28.01049937626924
100
AcDbArc
 50
270.0
 51
286.508789686951
  0
ARC
  5
6512
330
1A
100
AcDbEntity
  8
外形線
 48
10.0
100
AcDbCircle
 10
75.552875185944
 20
495.06403486938
 30
0.0
 40
28.01049937626924
100
AcDbArc
 50
73.491210313049
 51
90.0
  0
LINE
  5
6513
330
1A
100
AcDbEntity
  8
外形線
 48
10.0
100
AcDbLine
 10
83.512406835907
 20
521.919833707269
 30
0.0
 11
84.855258098434
 21
521.919833707269
 31
0.0
  0
LINE
  5
6514
330
1A
100
AcDbEntity
  8
中心線
 48
10.0
100
AcDbLine
 10
84.855258098435
 20
451.074534245648
 30
0.0
 11
84.855258098435
 21
699.175968554357
 31
0.0
  0
LINE
  5
6515
330
1A
100
AcDbEntity
  8
中心線
 48
10.0
100
AcDbLine
 10
-2.644711888293
 20
611.674534245649
 30
0.0
 11
172.355288085162
 21
611.674534245649
 31
0.0
  0
LINE
  5
6516
330
1A
100
AcDbEntity
  8
外形線
 48
10.0
100
AcDbLine
 10
86.283279146725
 20
571.661053983775
 30
0.0
 11
83.42727463219
 21
571.661053983775
 31
0.0
  0
LINE
  5
6517
330
1A
100
AcDbEntity
  8
外形線
 48
10.0
100
AcDbLine
 10
86.283279146725
 20
651.661053983775
 30
0.0
 11
83.42727463219
 21
651.661053983775
 31
0.0
  0
LINE
  5
6518
330
1A
100
AcDbEntity
  8
外形線
 48
10.0
100
AcDbLine
 10
86.283279146725
 20
571.661053983775
 30
0.0
 11
86.283279146725
 21
651.661053983775
 31
0.0
  0
LINE
  5
6519
330
1A
100
AcDbEntity
  8
外形線
 48
10.0
100
AcDbLine
 10
83.42727463219
 20
651.661053983775
 30
0.0
 11
83.42727463219
 21
571.661053983775
 31
0.0
  0
ARC
  5
651A
330
1A
100
AcDbEntity
  8
外形線
 48
10.0
100
AcDbCircle
 10
84.855258098435
 20
611.674534245649
 30
0.0
 40
21.5
100
AcDbArc
 50
270.0
 51
270.000001804094
  0
CIRCLE
  5
6523
330
1A
100
AcDbEntity
  8
外形線
100
AcDbCircle
 10
130.817228270573
 20
565.713968000559
 30
0.0
 40
7.711199999999998
  0
CIRCLE
  5
6524
330
1A
100
AcDbEntity
  8
外形線
100
AcDbCircle
 10
38.893347926297
 20
565.713968000559
 30
0.0
 40
7.711199999999998
  0
CIRCLE
  5
6525
330
1A
100
AcDbEntity
  8
外形線
100
AcDbCircle
 10
130.817228270573
 20
657.637969108167
 30
0.0
 40
7.711199999999998
  0
CIRCLE
  5
6526
330
1A
100
AcDbEntity
  8
外形線
100
AcDbCircle
 10
84.855288098435
 20
611.675968554363
 30
0.0
 40
77.5
  0
CIRCLE
  5
6527
330
1A
100
AcDbEntity
  8
外形線
100
AcDbCircle
 10
38.893347926297
 20
657.637969108167
 30
0.0
 40
7.711199999999998
  0
LINE
  5
6528
330
1A
100
AcDbEntity
  8
中心線
 48
10.0
100
AcDbLine
 10
123.667292637912
 20
572.953350682747
 30
0.0
 11
137.967291806248
 21
558.65335151441
 31
0.0
  0
LINE
  5
6529
330
1A
100
AcDbEntity
  8
中心線
 48
10.0
100
AcDbLine
 10
31.743348342129
 20
558.56396841639
 30
0.0
 11
46.043347510465
 21
572.863967584727
 31
0.0
  0
LINE
  5
652A
330
1A
100
AcDbEntity
  8
中心線
 48
10.0
100
AcDbLine
 10
31.743348342129
 20
664.787968692335
 30
0.0
 11
46.043347510465
 21
650.487969523999
 31
0.0
  0
LINE
  5
652B
330
1A
100
AcDbEntity
  8
中心線
 48
10.0
100
AcDbLine
 10
123.667228686404
 20
650.487969523999
 30
0.0
 11
137.967227854741
 21
664.787968692335
 31
0.0
  0
CIRCLE
  5
652C
330
1A
100
AcDbEntity
  8
中心線
 48
10.0
100
AcDbCircle
 10
84.855258098435
 20
611.675955783985
 30
0.0
 40
65.0
  0
LEADER
  5
652D
330
1A
100
AcDbEntity
  8
寸法線
 48
10.0
100
AcDbLeader
  3
ISO-25
 76
     3
 10
36.519084879038
 20
558.37738293512
 30
0.0
 10
24.296210415449
 20
520.60812297473
 30
0.0
 10
12.296210415449
 20
520.60812297473
 30
0.0
213
-5.76379680120499
223
0.0
233
0.0
1001
ACAD
1000
DSTYLE
1002
{
1070
     5
1000
OPEN30
1070
   147
1040
0.625
1070
    77
1070
     0
1070
    41
1040
6.0
1070
    47
1040
0.1
1070
    48
1040
0.1
1070
    73
1070
     0
1070
   140
1040
5.0
1070
   271
1070
     1
1070
   272
1070
     1
1070
   341
1005
2AF4
1070
   342
1005
2AF4
1002
}
  0
MTEXT
  5
652E
330
1A
100
AcDbEntity
  8
寸法線
 48
10.0
100
AcDbMText
 10
-14.564648833521
 20
531.981876440484
 30
0.0
 40
10.0
 41
50.185274551883
 71
     1
 72
     5
  1
4-φ15
  0
LINE
  5
652F
330
1A
100
AcDbEntity
  8
外形線
 62
     0
100
AcDbLine
 10
100.855258098435
 20
532.074534245648
 30
0.0
 11
104.355258098435
 21
533.012356419158
 31
0.0
  0
LINE
  5
6530
330
1A
100
AcDbEntity
  8
外形線
 62
     0
100
AcDbLine
 10
100.855258098435
 20
523.074534245648
 30
0.0
 11
102.355258098435
 21
523.074534245648
 31
0.0
  0
LINE
  5
6531
330
1A
100
AcDbEntity
  8
外形線
100
AcDbLine
 10
104.355258098435
 20
521.919833707269
 30
0.0
 11
104.355258098435
 21
496.229234784028
 31
0.0
  0
LINE
  5
6532
330
1A
100
AcDbEntity
  8
外形線
100
AcDbLine
 10
102.355258098435
 20
495.074534245648
 30
0.0
 11
104.355258098435
 21
496.229234784028
 31
0.0
  0
LINE
  5
6533
330
1A
100
AcDbEntity
  8
外形線
 62
     0
100
AcDbLine
 10
102.355258098435
 20
523.074534245648
 30
0.0
 11
104.355258098435
 21
521.919833707269
 31
0.0
  0
ARC
  5
6534
330
1A
100
AcDbEntity
  8
外形線
100
AcDbCircle
 10
100.105258098435
 20
475.074534245648
 30
0.0
 40
1.999999999999999
100
AcDbArc
 50
270.0
 51
0.0
  0
LINE
  5
6535
330
1A
100
AcDbEntity
  8
外形線
100
AcDbLine
 10
102.105258098435
 20
475.074534245648
 30
0.0
 11
102.105258098435
 21
495.074534245648
 31
0.0
  0
LINE
  5
6536
330
1A
100
AcDbEntity
  8
外形線
100
AcDbLine
 10
97.455258098435
 20
461.074534245648
 30
0.0
 11
97.955258098435
 21
461.940559649433
 31
0.0
  0
LINE
  5
6537
330
1A
100
AcDbEntity
  8
外形線
100
AcDbLine
 10
97.955258098435
 20
473.074534245649
 30
0.0
 11
97.955258098435
 21
461.940559649433
 31
0.0
  0
LINE
  5
6538
330
1A
100
AcDbEntity
  8
外形線
 62
     0
100
AcDbLine
 10
100.855258098435
 20
532.074534245648
 30
0.0
 11
100.855258098435
 21
523.074534245648
 31
0.0
  0
LINE
  5
6539
330
1A
100
AcDbEntity
  8
外形線
 48
10.0
100
AcDbLine
 10
86.198109360962
 20
496.229234784028
 30
0.0
 11
86.198109360962
 21
521.919833707269
 31
0.0
  0
LINE
  5
653A
330
1A
100
AcDbEntity
  8
外形線
 48
10.0
100
AcDbLine
 10
86.198109360962
 20
496.229234784028
 30
0.0
 11
84.855258098435
 21
496.229234784028
 31
0.0
  0
ARC
  5
653B
330
1A
100
AcDbEntity
  8
外形線
 48
10.0
100
AcDbCircle
 10
94.157641010925
 20
523.085033621918
 30
0.0
 40
28.01049937626922
100
AcDbArc
 50
253.491210313049
 51
270.0
  0
ARC
  5
653C
330
1A
100
AcDbEntity
  8
外形線
 48
10.0
100
AcDbCircle
 10
94.157641010925
 20
495.06403486938
 30
0.0
 40
28.01049937626922
100
AcDbArc
 50
90.0
 51
106.508789686951
  0
LINE
  5
653D
330
1A
100
AcDbEntity
  8
外形線
 48
10.0
100
AcDbLine
 10
86.198109360962
 20
521.919833707269
 30
0.0
 11
84.855258098435
 21
521.919833707269
 31
0.0
  0
LINE
  5
653E
330
1A
100
AcDbEntity
  8
外形線
 62
     0
100
AcDbLine
 10
104.355258098435
 20
536.669309983279
 30
0.0
 11
104.355258098435
 21
533.012356419158
 31
0.0
  0
LINE
  5
653F
330
1A
100
AcDbEntity
  8
外形線
 48
10.0
100
AcDbLine
 10
95.500492273453
 20
532.074534245648
 30
0.0
 11
95.500492273453
 21
534.91055739384
 31
0.0
  0
LINE
  5
6540
330
1A
100
AcDbEntity
  8
外形線
 48
10.0
100
AcDbLine
 10
92.814789748398
 20
532.074534245648
 30
0.0
 11
92.814789748398
 21
534.585791629281
 31
0.0
  0
LINE
  5
6541
330
1A
100
AcDbEntity
  8
外形線
 48
10.0
100
AcDbLine
 10
86.198109360962
 20
532.074534245649
 30
0.0
 11
86.198109360962
 21
534.187603815425
 31
0.0
  0
DIMENSION
  5
6544
330
1A
100
AcDbEntity
  8
寸法線
 48
10.0
100
AcDbDimension
  2
*D18
 10
86.293513629086
 20
576.365425864982
 30
0.0
 11
100.918513629086
 21
581.995634198315
 31
0.0
 70
    32
  1
3
  3
ISO-25
100
AcDbAlignedDimension
 13
83.437509114551
 23
576.365425864982
 33
0.0
 14
86.293513629086
 24
576.365425864982
 34
0.0
100
AcDbRotatedDimension
1001
ACAD
1000
DSTYLE
1002
{
1070
     5
1000
OPEN30
1070
    41
1040
6.0
1070
    47
1040
0.1
1070
    48
1040
0.1
1070
    73
1070
     0
1070
   140
1040
10.0
1070
   271
1070
     1
1070
   272
1070
     1
1070
   341
1005
2AF4
1002
}
  0
HATCH
  5
6551
330
1A
100
AcDbEntity
  8
細線
 48
10.0
100
AcDbHatch
 10
0.0
 20
0.0
 30
0.0
210
0.0
220
0.0
230
1.0
  2
ANSI31
 70
     0
 71
     0
 91
       19
 92
        7
 72
     1
 73
     1
 93
        5
 10
65.35525809843489
 20
533.0123564191574
 42
0.0
 10
68.85525809843489
 20
532.0745342456485
 42
0.0
 10
74.21002392341666
 20
532.0745342456485
 42
0.0
 10
74.21002392341666
 20
534.9105573938401
 42
-0.0291464811783065
 10
65.35525809843489
 20
536.6693099832792
 42
0.0
 97
        0
 92
        7
 72
     1
 73
     1
 93
       10
 10
68.85525809843466
 20
523.0745342456485
 42
0.0
 10
67.35525809843466
 20
523.0745342456485
 42
0.0
 10
65.35525809843466
 20
521.9198337072692
 42
0.0
 10
65.35525809843466
 20
496.2292347840278
 42
0.0
 10
67.35525809843466
 20
495.0745342456485
 42
0.0
 10
67.60525809843466
 20
495.0745342456485
 42
0.0
 10
75.55287518594423
 20
495.0745342456485
 42
0.0721580311220404
 10
83.51240683590981
 20
496.2292347840284
 42
0.0
 10
83.51240683590731
 20
521.9198337072692
 42
0.0721580311220404
 10
75.55287518594423
 20
523.0745342456485
 42
0.0
 97
        0
 92
        7
 72
     1
 73
     1
 93
        7
 10
67.60525809843466
 20
475.0745342456485
 42
0.414213562373095
 10
69.60525809843466
 20
473.0745342456485
 42
0.0
 10
71.75525809843475
 20
473.0745342456485
 42
0.0
 10
84.85525809843489
 20
473.0745342456485
 42
0.0
 10
84.85525809843489
 20
495.0745342456485
 42
0.0
 10
75.55287518594423
 20
495.0745342456485
 42
0.0
 10
67.60525809843466
 20
495.0745342456485
 42
0.0
 97
        0
 92
        7
 72
     0
 73
     1
 93
        8
 10
68.85525809843489
 20
532.0745342456485
 10
68.85525809843489
 20
523.0745342456485
 10
75.55287518594423
 20
523.0745342456485
 10
84.85525809843489
 20
523.0745342456485
 10
84.85525809843489
 20
532.0745342456485
 10
83.51240683590754
 20
532.0745342456485
 10
76.8957264484718
 20
532.0745342456485
 10
74.21002392341666
 20
532.0745342456485
 97
        0
 92
        7
 72
     0
 73
     1
 93
        4
 10
83.51240683590731
 20
521.9198337072692
 10
83.51240683590731
 20
496.2292347840278
 10
84.85525809843466
 20
496.2292347840278
 10
84.85525809843489
 20
521.9198337072692
 97
        0
 92
        7
 72
     1
 73
     1
 93
        4
 10
83.51240683590754
 20
532.0745342456485
 42
0.0
 10
83.51240683590754
 20
534.1876038154242
 42
-0.0213925304775309
 10
76.8957264484718
 20
534.5857916292807
 42
0.0
 10
76.8957264484718
 20
532.0745342456485
 42
0.0
 97
        0
 92
        7
 72
     1
 73
     1
 93
        4
 10
83.51240683590754
 20
534.1876038154242
 42
0.0
 10
83.51240683590754
 20
532.0745342456485
 42
0.0
 10
84.85525809843489
 20
532.0745342456485
 42
0.0
 10
84.85525809843489
 20
534.1759685543684
 42
-0.0043320221627083
 97
        0
 92
        7
 72
     1
 73
     1
 93
        4
 10
76.8957264484718
 20
532.0745342456485
 42
0.0
 10
76.8957264484718
 20
534.5857916292807
 42
-0.008727333203576
 10
74.21002392341666
 20
534.9105573938401
 42
0.0
 10
74.21002392341666
 20
532.0745342456485
 42
0.0
 97
        0
 92
        7
 72
     1
 73
     1
 93
        4
 10
84.85525809843466
 20
496.2292347840278
 42
0.0
 10
83.51240683590731
 20
496.2292347840278
 42
-0.0721580311220404
 10
75.55287518594423
 20
495.0745342456485
 42
0.0
 10
84.85525809843489
 20
495.0745342456485
 42
0.0
 97
        0
 92
        7
 72
     1
 73
     1
 93
        4
 10
75.55287518594423
 20
523.0745342456485
 42
-0.0721580311220404
 10
83.51240683590981
 20
521.9198337072685
 42
0.0
 10
84.85525809843466
 20
521.9198337072692
 42
0.0
 10
84.85525809843489
 20
523.0745342456485
 42
0.0
 97
        0
 92
        7
 72
     1
 73
     1
 93
        7
 10
100.8552580984347
 20
532.0745342456485
 42
0.0
 10
104.3552580984347
 20
533.0123564191574
 42
0.0
 10
104.3552580984347
 20
536.6693099832792
 42
0.0
 10
104.3552580984347
 20
536.6692943846656
 42
-0.0291464765926826
 10
95.50049227345289
 20
534.9105490735042
 42
0.0
 10
95.50049227345289
 20
534.9105573938401
 42
0.0
 10
95.50049227345289
 20
532.0745342456485
 42
0.0
 97
        0
 92
        7
 72
     1
 73
     1
 93
       10
 10
102.3552580984349
 20
523.0745342456485
 42
0.0
 10
100.8552580984349
 20
523.0745342456485
 42
0.0
 10
94.15764101092532
 20
523.0745342456485
 42
0.0721580311220404
 10
86.19810936095973
 20
521.9198337072685
 42
0.0
 10
86.19810936096223
 20
496.2292347840278
 42
0.0721580311220404
 10
94.15764101092532
 20
495.0745342456485
 42
0.0
 10
102.1052580984349
 20
495.0745342456485
 42
0.0
 10
102.3552580984349
 20
495.0745342456485
 42
0.0
 10
104.3552580984349
 20
496.2292347840278
 42
0.0
 10
104.3552580984349
 20
521.9198337072692
 42
0.0
 97
        0
 92
        7
 72
     1
 73
     1
 93
        7
 10
100.1052580984349
 20
473.0745342456485
 42
0.414213562373095
 10
102.1052580984349
 20
475.0745342456485
 42
0.0
 10
102.1052580984349
 20
495.0745342456485
 42
0.0
 10
94.15764101092532
 20
495.0745342456485
 42
0.0
 10
84.85525809843489
 20
495.0745342456485
 42
0.0
 10
84.85525809843489
 20
473.0745342456485
 42
0.0
 10
97.9552580984348
 20
473.0745342456485
 42
0.0
 97
        0
 92
        7
 72
     0
 73
     1
 93
        8
 10
100.8552580984347
 20
523.0745342456485
 10
100.8552580984347
 20
532.0745342456485
 10
95.50049227345289
 20
532.0745342456485
 10
92.81478974839774
 20
532.0745342456485
 10
86.19810936096201
 20
532.0745342456485
 10
84.85525809843489
 20
532.0745342456485
 10
84.85525809843489
 20
523.0745342456485
 10
94.15764101092532
 20
523.0745342456485
 97
        0
 92
        7
 72
     0
 73
     1
 93
        4
 10
86.19810936096223
 20
496.2292347840278
 10
86.19810936096223
 20
521.9198337072692
 10
84.85525809843489
 20
521.9198337072692
 10
84.85525809843489
 20
496.2292347840278
 97
        0
 92
        7
 72
     1
 73
     1
 93
        4
 10
86.19810936096223
 20
496.2292347840278
 42
0.0
 10
84.85525809843489
 20
496.2292347840278
 42
0.0
 10
84.85525809843489
 20
495.0745342456485
 42
0.0
 10
94.15764101092532
 20
495.0745342456485
 42
-0.0721580311220404
 97
        0
 92
        7
 72
     1
 73
     1
 93
        4
 10
86.19810936095973
 20
521.9198337072685
 42
-0.0721580311220404
 10
94.15764101092532
 20
523.0745342456485
 42
0.0
 10
84.85525809843489
 20
523.0745342456485
 42
0.0
 10
84.85525809843489
 20
521.9198337072692
 42
0.0
 97
        0
 92
        7
 72
     1
 73
     1
 93
        6
 10
95.50049227345289
 20
532.0745342456485
 42
0.0
 10
95.50049227345289
 20
534.9105573938401
 42
0.0
 10
95.50049227345289
 20
534.9105490735042
 42
-0.0087273323803324
 10
92.81478974839774
 20
534.5857854343035
 42
0.0
 10
92.81478974839774
 20
534.5857916292807
 42
0.0
 10
92.81478974839774
 20
532.0745342456485
 42
0.0
 97
        0
 92
        7
 72
     1
 73
     1
 93
        6
 10
92.81478974839774
 20
532.0745342456485
 42
0.0
 10
92.81478974839774
 20
534.5857916292807
 42
0.0
 10
92.81478974839774
 20
534.5857854343035
 42
-0.0213925294772096
 10
86.19810936096201
 20
534.1876027756414
 42
0.0
 10
86.19810936096201
 20
534.1876038154242
 42
0.0
 10
86.19810936096201
 20
532.0745342456485
 42
0.0
 97
        0
 75
     0
 76
     1
 52
0.0
 41
1.25
 77
     0
 78
     1
 53
45.0
 43
0.0
 44
0.0
 45
-2.80633003783411
 46
2.806330037834111
 79
     0
 47
0.0
 98
       19
 10
70.73656386152243
 20
532.6510335977082
 10
71.74239402455464
 20
513.6659892704724
 10
81.72021338193986
 20
490.5976654568583
 10
78.28029008426506
 20
527.8733403233045
 10
84.33712625887279
 20
520.9670982566245
 10
78.90893393616034
 20
532.9024911384663
 10
84.31527106245926
 20
532.9024911384663
 10
75.89144344706324
 20
532.9024911384663
 10
83.91754331210586
 20
495.5416577997319
 10
83.75391174783704
 20
522.5632642868272
 10
98.1454358041542
 20
533.0282199088454
 10
88.69588734134936
 20
521.0898802589477
 10
87.66299205670725
 20
491.9959663215093
 10
93.7449288408875
 20
526.9932389306514
 10
85.96398778965636
 20
519.7699737339724
 10
86.41450914183997
 20
495.3419005333531
 10
86.36302929720705
 20
522.6553507885696
 10
94.24784392240372
 20
533.0282199088454
 10
87.08130401079825
 20
533.0282199088454
1001
ACAD
1010
0.0
1020
0.0
1030
0.0
  0
HATCH
  5
6552
330
1A
100
AcDbEntity
  8
細線
 48
10.0
100
AcDbHatch
 10
0.0
 20
0.0
 30
0.0
210
0.0
220
0.0
230
1.0
  2
ANSI31
 70
     0
 71
     0
 91
        2
 92
        7
 72
     0
 73
     1
 93
        5
 10
72.25525809843475
 20
461.0745342456485
 10
84.85525809843489
 20
461.0745342456485
 10
84.85525809843489
 20
473.0745342456485
 10
71.75525809843475
 20
473.0745342456485
 10
71.75525809843475
 20
461.940559649433
 97
        0
 92
        7
 72
     0
 73
     1
 93
        5
 10
97.4552580984348
 20
461.0745342456485
 10
97.9552580984348
 20
461.940559649433
 10
97.9552580984348
 20
473.0745342456485
 10
84.85525809843489
 20
473.0745342456485
 10
84.85525809843489
 20
461.0745342456485
 97
        0
 75
     0
 76
     1
 52
0.0
 41
1.25
 77
     0
 78
     1
 53
45.0
 43
0.0
 44
0.0
 45
-2.80633003783411
 46
2.806330037834111
 79
     0
 47
0.0
 98
        2
 10
79.39490485327019
 20
468.1494330626849
 10
90.75136751911646
 20
468.7318157634977
1001
ACAD
1010
0.0
1020
0.0
1030
0.0
  0
TEXT
  5
6554
330
1A
100
AcDbEntity
  8
寸法線
 48
10.0
100
AcDbText
 10
789.323993820923
 20
432.32975264352
 30
0.0
 40
8.4
  1
ケーブルグランド型式
 41
0.600158661747
 72
     5
 11
848.811720373279
 21
432.32975264352
 31
0.0
100
AcDbText
  0
TEXT
  5
6555
330
1A
100
AcDbEntity
  8
寸法線
 48
10.0
100
AcDbText
 10
854.891090648068
 20
432.32975264352
 30
0.0
 40
8.4
  1
適合ケーブル範囲
 41
0.711985775428
 72
     5
 11
910.710775441643
 21
432.32975264352
 31
0.0
100
AcDbText
  0
LINE
  5
6556
330
1A
100
AcDbEntity
  8
寸法線
 48
10.0
100
AcDbLine
 10
752.681851478688
 20
402.424439506973
 30
0.0
 11
913.495921971394
 21
402.424439506973
 31
0.0
  0
LINE
  5
6557
330
1A
100
AcDbEntity
  8
寸法線
 48
10.0
100
AcDbLine
 10
752.681851478688
 20
416.17202128736
 30
0.0
 11
913.495921971394
 21
416.17202128736
 31
0.0
  0
LINE
  5
6558
330
1A
100
AcDbEntity
  8
寸法線
 48
10.0
100
AcDbLine
 10
752.681851478688
 20
429.919603067748
 30
0.0
 11
913.495921971394
 21
429.919603067748
 31
0.0
  0
LINE
  5
6559
330
1A
100
AcDbEntity
  8
寸法線
 48
10.0
100
AcDbLine
 10
752.681851478688
 20
443.108262287136
 30
0.0
 11
913.495921971394
 21
443.108262287136
 31
0.0
  0
LINE
  5
655A
330
1A
100
AcDbEntity
  8
寸法線
 48
10.0
100
AcDbLine
 10
913.495921971394
 20
443.108262287136
 30
0.0
 11
913.495921971394
 21
402.424439506973
 31
0.0
  0
LINE
  5
655B
330
1A
100
AcDbEntity
  8
寸法線
 48
10.0
100
AcDbLine
 10
851.713276697179
 20
443.108262287136
 30
0.0
 11
851.713276697178
 21
402.424439506973
 31
0.0
  0
LINE
  5
655C
330
1A
100
AcDbEntity
  8
寸法線
 48
10.0
100
AcDbLine
 10
787.252116806796
 20
443.108262287136
 30
0.0
 11
787.252116806796
 21
402.424439506973
 31
0.0
  0
TEXT
  5
655D
330
1A
100
AcDbEntity
  8
寸法線
 48
10.0
100
AcDbText
 10
755.175231158782
 20
390.637712303281
 30
0.0
 40
8.4
  1
○印が今回の貴社の御仕様です。
100
AcDbText
  0
MTEXT
  5
655E
330
1A
100
AcDbEntity
  8
寸法線
 48
10.0
100
AcDbMText
 10
881.232242501568
 20
416.575503135924
 30
0.0
 40
8.4
 41
103.552
 71
     5
 72
     5
  1
φ10～φ12\Pφ8～φ10
  0
MTEXT
  5
655F
330
1A
100
AcDbEntity
  8
寸法線
 48
10.0
100
AcDbMText
 10
755.564093379121
 20
440.738921944467
 30
0.0
 40
8.4
 41
39.04500251385
 71
     1
 72
     5
  1
御仕様
  0
MTEXT
  5
6560
330
1A
100
AcDbEntity
  8
寸法線
 48
10.0
100
AcDbMText
 10
793.34211609028
 20
426.742210489199
 30
0.0
 40
8.4
 41
178.158537710773
 71
     1
 72
     5
  1
SXC-16B-1\PSXC-16B-2
  0
LINE
  5
6561
330
1A
100
AcDbEntity
  8
寸法線_文字
 48
10.0
100
AcDbLine
 10
752.681851478688
 20
443.108262287136
 30
0.0
 11
752.681851478688
 21
402.424439506973
 31
0.0
  0
LEADER
  5
6564
330
1A
100
AcDbEntity
  8
寸法線
 48
10.0
100
AcDbLeader
  3
ISO-25
 76
     2
 10
716.712680505754
 20
485.82130655767
 30
0.0
 10
752.681851478688
 20
443.108262287136
 30
0.0
1001
ACAD
1000
DSTYLE
1002
{
1070
     5
1000
OPEN30
1070
   147
1040
0.625
1070
    77
1070
     0
1070
    41
1040
6.0
1070
    47
1040
0.1
1070
    48
1040
0.1
1070
    73
1070
     0
1070
   140
1040
8.0
1070
   271
1070
     1
1070
   272
1070
     1
1070
   341
1005
2AF4
1070
   342
1005
2AF4
1002
}
  0
HATCH
  5
6565
330
1A
100
AcDbEntity
  8
細線
 48
10.0
100
AcDbHatch
 10
0.0
 20
0.0
 30
0.0
210
0.0
220
0.0
230
1.0
  2
ANSI31
 70
     0
 71
     0
 91
        6
 92
        7
 72
     0
 73
     1
 93
        8
 10
654.9993932851789
 20
668.6632560102364
 10
654.9993932851789
 20
611.6745342456493
 10
670.9993932851792
 20
611.6745342456493
 10
670.9993932851789
 20
657.174534245649
 10
670.9993932851794
 20
684.174534245649
 10
670.4993932851789
 20
684.674534245649
 10
655.9993932851789
 20
684.674534245649
 10
654.9993932851789
 20
683.674534245649
 97
        0
 92
        7
 72
     0
 73
     1
 93
        5
 10
540.9993932851794
 20
633.174534245649
 10
540.9993932851794
 20
628.6745342456495
 10
540.9993932851794
 20
611.6745342456493
 10
570.9993932851794
 20
611.6745342456493
 10
570.9993932851794
 20
633.174534245649
 97
        0
 92
        7
 72
     0
 73
     1
 93
        7
 10
670.9993932851789
 20
657.174534245649
 10
670.9993932851792
 20
611.6745342456493
 10
682.9993932851792
 20
611.6745342456493
 10
682.9993932851789
 20
683.674534245649
 10
681.9993932851789
 20
684.674534245649
 10
671.4993932851794
 20
684.674534245649
 10
670.9993932851794
 20
684.174534245649
 97
        0
 92
        7
 72
     0
 73
     1
 93
        8
 10
670.4993932851789
 20
538.674534245649
 10
670.9993932851789
 20
539.174534245649
 10
670.9993932851789
 20
566.174534245649
 10
670.9993932851792
 20
611.6745342456493
 10
654.9993932851789
 20
611.6745342456493
 10
654.9993932851789
 20
554.6858124810622
 10
654.9993932851789
 20
539.674534245649
 10
655.9993932851789
 20
538.674534245649
 97
        0
 92
        7
 72
     0
 73
     1
 93
        5
 10
540.9993932851794
 20
590.1745342456493
 10
570.9993932851794
 20
590.1745342456493
 10
570.9993932851794
 20
611.6745342456493
 10
540.9993932851794
 20
611.6745342456493
 10
540.9993932851794
 20
594.674534245649
 97
        0
 92
        7
 72
     1
 73
     1
 93
        8
 10
670.9993932851789
 20
539.174534245649
 42
0.0
 10
671.4993932851789
 20
538.674534245649
 42
0.0
 10
679.0356914321878
 20
538.674534245649
 42
-0.0140441217489112
 10
682.9993932851794
 20
539.6848907404221
 42
0.0
 10
682.9993932851794
 20
539.6745342456495
 42
0.0
 10
682.9993932851792
 20
611.6745342456493
 42
0.0
 10
670.9993932851792
 20
611.6745342456493
 42
0.0
 10
670.9993932851794
 20
566.174534245649
 42
0.0
 97
        0
 75
     0
 76
     1
 52
0.0
 41
1.25
 77
     0
 78
     1
 53
45.0
 43
0.0
 44
0.0
 45
-2.80633003783411
 46
2.806330037834111
 79
     0
 47
0.0
 98
       10
 10
643.3723762483178
 20
623.2006054552749
 10
635.5675195390927
 20
595.2332022472178
 10
547.1124768345405
 20
602.7128565935589
 10
547.7628815603091
 20
621.574593640853
 10
664.5105298358026
 20
599.4608329647149
 10
678.1690290769466
 20
601.0868447791368
 10
665.1609345615716
 20
630.0298550758469
 10
676.2178148996404
 20
631.981069253153
 10
562.0717855272221
 20
624.8266172696967
 10
561.7465831643376
 20
604.0136660450962
1001
ACAD
1010
0.0
1020
0.0
1030
0.0
  0
HATCH
  5
6566
330
1A
100
AcDbEntity
  8
細線
 48
10.0
100
AcDbHatch
 10
0.0
 20
0.0
 30
0.0
210
0.0
220
0.0
230
1.0
  2
ANSI31
 70
     0
 71
     0
 91
        2
 92
        7
 72
     1
 73
     1
 93
       13
 10
590.4459915409789
 20
560.674534245649
 42
0.0
 10
652.2592821342737
 20
557.674534245649
 42
-0.3890307372446858
 10
654.9993932851789
 20
554.6858124810622
 42
0.0
 10
654.9993932851789
 20
611.6745342456493
 42
0.0
 10
570.9994034381034
 20
611.6745342456493
 42
0.0
 10
570.9994034381034
 20
590.1745342456493
 42
0.0
 10
570.9994034381034
 20
589.7179289552935
 42
0.0
 10
570.9994034381034
 20
587.3745319773436
 42
0.0
 10
570.9993932851794
 20
587.3745319773436
 42
0.0
 10
570.9993932851794
 20
579.1745342456495
 42
0.414213562373095
 10
573.4993932851794
 20
576.6745342456495
 42
0.0
 10
573.5629219823622
 20
576.674534245649
 42
-0.3894638293893796
 10
576.0538464541933
 20
574.3873611133924
 42
0.3788767757664114
 97
        0
 92
        7
 72
     1
 73
     1
 93
       13
 10
654.9993932851789
 20
611.6745342456493
 42
0.0
 10
654.9993932851789
 20
668.6632560102364
 42
-0.389030737244686
 10
652.2592821342737
 20
665.6745342456495
 42
0.0
 10
590.4459915409789
 20
662.674534245649
 42
0.3788767757664114
 10
576.0538464541933
 20
648.9617073779061
 42
-0.3894638293893795
 10
573.5629219823622
 20
646.674534245649
 42
0.0
 10
573.4993932851794
 20
646.674534245649
 42
0.414213562373095
 10
570.9993932851794
 20
644.174534245649
 42
0.0
 10
570.9994034381034
 20
644.174534245649
 42
0.0
 10
570.9994034381034
 20
635.9745394773433
 42
0.0
 10
570.9994034381034
 20
633.6311449993934
 42
0.0
 10
570.9994034381034
 20
633.174534245649
 42
0.0
 10
570.9994034381034
 20
611.6745342456493
 42
0.0
 97
        0
 75
     0
 76
     1
 52
0.0
 41
1.25
 77
     0
 78
     1
 53
45.0
 43
0.0
 44
0.0
 45
-2.80633003783411
 46
2.806330037834111
 79
     0
 47
0.0
 98
        2
 10
612.3247847850384
 20
593.4211206217158
 10
603.3032395056898
 20
637.1756152265559
1001
ACAD
1010
0.0
1020
0.0
1030
0.0
  0
ARC
  5
6567
330
1A
100
AcDbEntity
  8
外形線
100
AcDbCircle
 10
651.999393285179
 20
668.663256010236
 30
0.0
 40
2.999999999999992
100
AcDbArc
 50
274.969740728115
 51
0.0
  0
HATCH
  5
6568
330
1A
100
AcDbEntity
  8
細線
 48
10.0
100
AcDbHatch
 10
0.0
 20
0.0
 30
0.0
210
0.0
220
0.0
230
1.0
  2
ANSI31
 70
     0
 71
     0
 91
        7
 92
        7
 72
     0
 73
     1
 93
        7
 10
726.9993932851794
 20
561.674534245649
 10
726.9993932851794
 20
539.174534245649
 10
727.4993932851794
 20
538.674534245649
 10
741.9993932851794
 20
538.674534245649
 10
742.9993932851794
 20
539.674534245649
 10
742.9993932851794
 20
611.6745342456493
 10
726.9993932851794
 20
611.6745342456493
 97
        0
 92
        7
 72
     1
 73
     1
 93
        9
 10
726.9993932851794
 20
539.174534245649
 42
0.0
 10
726.9993932851794
 20
561.674534245649
 42
0.0
 10
726.9993932851794
 20
611.6745342456493
 42
0.0
 10
714.9993932851794
 20
611.6745342456493
 42
0.0
 10
714.9993932851794
 20
549.674534245649
 42
0.0
 10
714.9993932851794
 20
539.674534245649
 42
0.0
 10
715.0016132578319
 20
539.6843907754771
 42
-0.0140363087987104
 10
718.9630951381699
 20
538.674534245649
 42
0.0
 10
726.4993932851794
 20
538.674534245649
 42
0.0
 97
        0
 92
        7
 72
     0
 73
     1
 93
        7
 10
742.9993932851794
 20
683.674534245649
 10
741.9993932851794
 20
684.674534245649
 10
727.4993932851794
 20
684.674534245649
 10
726.9993932851794
 20
684.174534245649
 10
726.9993932851794
 20
661.674534245649
 10
726.9993932851794
 20
611.6745342456493
 10
742.9993932851794
 20
611.6745342456493
 97
        0
 92
        7
 72
     0
 73
     1
 93
        8
 10
726.9993932851794
 20
661.674534245649
 10
726.9993932851794
 20
684.174534245649
 10
726.4993932851794
 20
684.674534245649
 10
715.9993932851794
 20
684.674534245649
 10
714.9993932851794
 20
683.674534245649
 10
714.9993932851794
 20
673.674534245649
 10
714.9993932851794
 20
611.6745342456493
 10
726.9993932851794
 20
611.6745342456493
 97
        0
 92
        7
 72
     1
 73
     1
 93
        6
 10
684.9993932851794
 20
551.674534245649
 42
0.0
 10
712.9993932851794
 20
551.674534245649
 42
-0.414213562373095
 10
714.9993932851794
 20
549.674534245649
 42
0.0
 10
714.9993932851794
 20
611.6745342456493
 42
0.0
 10
682.9993932851792
 20
611.6745342456493
 42
0.0
 10
682.9993932851794
 20
549.674534245649
 42
-0.414213562373095
 97
        0
 92
        7
 72
     1
 73
     1
 93
        8
 10
712.9993932851794
 20
551.674534245649
 42
0.0
 10
684.9993932851794
 20
551.674534245649
 42
0.414213562373095
 10
682.9993932851794
 20
549.674534245649
 42
0.0
 10
682.9993932851794
 20
539.6745342456495
 42
0.0
 10
682.9993932851794
 20
539.6848907404221
 42
-0.1112133461715754
 10
715.0016132578319
 20
539.6843907754771
 42
0.0
 10
714.9993932851794
 20
539.674534245649
 42
0.0
 10
714.9993932851794
 20
549.674534245649
 42
0.414213562373095
 97
        0
 92
        7
 72
     1
 73
     1
 93
        6
 10
714.9993932851794
 20
673.674534245649
 42
-0.414213562373095
 10
712.9993932851794
 20
671.674534245649
 42
0.0
 10
684.9993932851794
 20
671.674534245649
 42
-0.414213562373095
 10
682.9993932851794
 20
673.674534245649
 42
0.0
 10
682.9993932851792
 20
611.6745342456493
 42
0.0
 10
714.9993932851794
 20
611.6745342456493
 42
0.0
 97
        0
 75
     0
 76
     1
 52
0.0
 41
1.25
 77
     0
 78
     1
 53
45.0
 43
0.0
 44
0.0
 45
-2.80633003783411
 46
2.806330037834111
 79
     0
 47
0.0
 98
        7
 10
702.5592062932756
 20
594.582797521449
 10
705.8112299221193
 20
547.1032525403293
 10
708.0876464623097
 20
627.1030338098874
 10
722.3965504292228
 20
603.3632613193274
 10
718.1689197117257
 20
630.6802598016156
 10
739.3070732992105
 20
594.9079998843335
 10
738.656668573442
 20
627.1030338098874
1001
ACAD
1010
0.0
1020
0.0
1030
0.0
  0
HATCH
  5
6569
330
1A
100
AcDbEntity
  8
細線
 48
10.0
100
AcDbHatch
 10
0.0
 20
0.0
 30
0.0
210
0.0
220
0.0
230
1.0
  2
ANSI31
 70
     0
 71
     0
 91
        8
 92
        7
 72
     1
 73
     1
 93
        5
 10
516.7815286441521
 20
597.4137926705923
 42
0.0171452713841633
 10
515.9993932851788
 20
593.6745342456481
 42
0.0
 10
516.8654186889635
 20
592.174534245649
 42
0.0
 10
539.4993932851794
 20
592.174534245649
 42
0.0
 10
539.4993932851794
 20
597.4137926705928
 42
0.0
 97
        0
 92
        7
 72
     1
 73
     1
 93
        4
 10
515.9993932851788
 20
593.6745342456481
 42
-0.0171452713841633
 10
516.7815286441521
 20
597.4137926705923
 42
0.0
 10
516.7815286441523
 20
607.287052051953
 42
-0.088435504736872
 10
515.9993932851794
 20
611.674534245649
 42
0.0
 97
        0
 92
        7
 72
     0
 73
     1
 93
        4
 10
516.7815286441523
 20
597.4137926705928
 10
539.4993932851794
 20
597.4137926705928
 10
539.4993932851794
 20
607.287052051953
 10
516.7815286441523
 20
607.287052051953
 97
        0
 92
        7
 72
     1
 73
     1
 93
        4
 10
516.7815286441527
 20
616.0620164393458
 42
0.088435504736872
 10
515.9993932851794
 20
611.674534245649
 42
0.0
 10
539.4993932851794
 20
611.6745342456493
 42
0.0
 10
539.4993932851794
 20
616.0620164393451
 42
0.0
 97
        0
 92
        7
 72
     1
 73
     1
 93
        4
 10
515.9993932851794
 20
611.674534245649
 42
-0.088435504736872
 10
516.7815286441527
 20
616.0620164393458
 42
0.0
 10
516.7815286441523
 20
625.9352758207058
 42
-0.0171452713841626
 10
515.9993932851788
 20
629.6745342456504
 42
0.0
 97
        0
 92
        7
 72
     1
 73
     1
 93
        5
 10
539.4993932851794
 20
631.174534245649
 42
0.0
 10
516.8654186889635
 20
631.174534245649
 42
0.0
 10
515.9993932851794
 20
629.674534245649
 42
0.0171452713841626
 10
516.781528644152
 20
625.9352758207062
 42
0.0
 10
539.4993932851794
 20
625.9352758207058
 42
0.0
 97
        0
 92
        7
 72
     1
 73
     1
 93
        4
 10
516.7815286441523
 20
607.287052051953
 42
0.0
 10
539.4993932851794
 20
607.287052051953
 42
0.0
 10
539.4993932851794
 20
611.6745342456493
 42
0.0
 10
515.9993932851794
 20
611.6745342456493
 42
0.088435504736872
 97
        0
 92
        7
 72
     0
 73
     1
 93
        4
 10
539.4993932851794
 20
625.9352758207058
 10
516.7815286441523
 20
625.9352758207058
 10
516.7815286441523
 20
616.0620164393456
 10
539.4993932851794
 20
616.0620164393451
 97
        0
 75
     0
 76
     1
 52
0.0
 41
1.25
 77
     0
 78
     1
 53
45.0
 43
0.0
 44
0.0
 45
-2.80633003783411
 46
2.806330037834111
 79
     0
 47
0.0
 98
        8
 10
524.3744868827498
 20
594.4729799727647
 10
533.1157198276226
 20
628.7330991728036
 10
516.1169494106889
 20
624.5738255601498
 10
516.4455255675889
 20
603.6273262184504
 10
531.3977589876133
 20
614.2660605200942
 10
522.2654408380904
 20
623.5792166527758
 10
520.7704135576766
 20
603.6994076849519
 10
523.4374278182308
 20
610.1146582035822
1001
ACAD
1010
0.0
1020
0.0
1030
0.0
  0
HATCH
  5
656A
330
1A
100
AcDbEntity
  8
細線
 48
10.0
100
AcDbHatch
 10
0.0
 20
0.0
 30
0.0
210
0.0
220
0.0
230
1.0
  2
ANSI31
 70
     0
 71
     0
 91
        4
 92
        7
 72
     0
 73
     1
 93
        4
 10
539.4993932851794
 20
594.674534245649
 10
539.9993932851794
 20
594.674534245649
 10
539.9993932851794
 20
596.1745342456495
 10
539.4993932851794
 20
596.1745342456495
 97
        0
 92
        7
 72
     0
 73
     1
 93
        6
 10
539.4993932851794
 20
596.1745342456495
 10
539.9993932851794
 20
596.1745342456495
 10
539.9993932851794
 20
594.6745342456495
 10
540.9993932851794
 20
594.674534245649
 10
540.9993932851794
 20
611.6745342456493
 10
539.4993932851794
 20
611.6745342456493
 97
        0
 92
        7
 72
     0
 73
     1
 93
        4
 10
539.4993932851794
 20
627.174534245649
 10
539.9993932851794
 20
627.174534245649
 10
539.9993932851794
 20
628.674534245649
 10
539.4993932851794
 20
628.674534245649
 97
        0
 92
        7
 72
     0
 73
     1
 93
        6
 10
539.9993932851794
 20
627.174534245649
 10
539.4993932851794
 20
627.174534245649
 10
539.4993932851794
 20
611.6745342456493
 10
540.9993932851794
 20
611.6745342456493
 10
540.9993932851794
 20
628.674534245649
 10
539.9993932851794
 20
628.674534245649
 97
        0
 75
     0
 76
     1
 52
0.0
 41
1.0
 77
     0
 78
     1
 53
45.0
 43
-431.5978969937105
 44
117.4852868404897
 45
-2.245064030267288
 46
2.245064030267288
 79
     0
 47
0.0
 98
        4
 10
539.65575778106
 20
627.702536029939
 10
539.7278392475614
 20
595.4821205037852
 10
540.7369797785818
 20
627.0538028314259
 10
540.0882465800687
 20
610.1867396700836
1001
ACAD
1010
0.0
1020
0.0
1030
0.0
  0
LINE
  5
656B
102
{ACAD_REACTORS
330
6F80
102
}
330
1A
100
AcDbEntity
  8
中心線
 48
10.0
100
AcDbLine
 10
752.999393285179
 20
611.674534245649
 30
0.0
 11
212.355288085162
 21
611.674534245649
 31
0.0
  0
ARC
  5
656C
330
1A
100
AcDbEntity
  8
外形線
100
AcDbCircle
 10
651.999393285179
 20
554.685812481062
 30
0.0
 40
2.999999999999992
100
AcDbArc
 50
0.0
 51
85.030259271885
  0
LINE
  5
656D
330
1A
100
AcDbEntity
  8
外形線
100
AcDbLine
 10
590.445991540979
 20
662.674534245649
 30
0.0
 11
652.259282134274
 21
665.674534245649
 31
0.0
  0
LINE
  5
656E
330
1A
100
AcDbEntity
  8
外形線
100
AcDbLine
 10
590.445991540979
 20
560.674534245649
 30
0.0
 11
652.259282134274
 21
557.674534245649
 31
0.0
  0
ARC
  5
656F
330
1A
100
AcDbEntity
  8
外形線
100
AcDbCircle
 10
590.999393285179
 20
647.684746171446
 30
0.0
 40
15.0
100
AcDbArc
 50
92.114318782231
 51
175.116456621726
  0
ARC
  5
6570
330
1A
100
AcDbEntity
  8
外形線
100
AcDbCircle
 10
590.999393285179
 20
575.664322319852
 30
0.0
 40
15.0
100
AcDbArc
 50
184.883543378274
 51
267.885681217769
  0
LINE
  5
6571
330
1A
100
AcDbEntity
  8
外形線
100
AcDbLine
 10
573.499393285179
 20
646.674534245649
 30
0.0
 11
573.562921982362
 21
646.674534245649
 31
0.0
  0
LINE
  5
6572
330
1A
100
AcDbEntity
  8
外形線
100
AcDbLine
 10
573.562921982362
 20
576.674534245649
 30
0.0
 11
573.499393285179
 21
576.67453424565
 31
0.0
  0
ARC
  5
6573
330
1A
100
AcDbEntity
  8
外形線
100
AcDbCircle
 10
573.562921982362
 20
649.174534245649
 30
0.0
 40
2.5
100
AcDbArc
 50
270.0
 51
355.116456621726
  0
ARC
  5
6574
330
1A
100
AcDbEntity
  8
外形線
100
AcDbCircle
 10
573.562921982362
 20
574.174534245649
 30
0.0
 40
2.5
100
AcDbArc
 50
4.883543378274
 51
90.0
  0
ARC
  5
6575
330
1A
100
AcDbEntity
  8
外形線
100
AcDbCircle
 10
573.499393285179
 20
644.174534245649
 30
0.0
 40
2.5
100
AcDbArc
 50
90.0
 51
180.0
  0
ARC
  5
6576
330
1A
100
AcDbEntity
  8
外形線
100
AcDbCircle
 10
573.499393285179
 20
579.17453424565
 30
0.0
 40
2.5
100
AcDbArc
 50
180.0
 51
270.0
  0
LINE
  5
6577
330
1A
100
AcDbEntity
  8
外形線
100
AcDbLine
 10
540.999393285179
 20
590.174534245649
 30
0.0
 11
540.999393285179
 21
594.674534245649
 31
0.0
  0
LINE
  5
6578
330
1A
100
AcDbEntity
  8
外形線
100
AcDbLine
 10
539.499393285179
 20
628.674534245649
 30
0.0
 11
540.999393285179
 21
628.674534245649
 31
0.0
  0
LINE
  5
6579
330
1A
100
AcDbEntity
  8
外形線
100
AcDbLine
 10
539.499393285179
 20
594.674534245649
 30
0.0
 11
540.999393285179
 21
594.674534245649
 31
0.0
  0
LINE
  5
657A
330
1A
100
AcDbEntity
  8
外形線
100
AcDbLine
 10
540.999393285179
 20
628.67453424565
 30
0.0
 11
540.999393285179
 21
633.174534245649
 31
0.0
  0
LINE
  5
657B
330
1A
100
AcDbEntity
  8
細線
100
AcDbLine
 10
539.999393285179
 20
628.674534245649
 30
0.0
 11
539.999393285179
 21
627.174534245649
 31
0.0
  0
LINE
  5
657C
330
1A
100
AcDbEntity
  8
細線
100
AcDbLine
 10
539.499393285179
 20
627.174534245649
 30
0.0
 11
539.999393285179
 21
627.174534245649
 31
0.0
  0
LINE
  5
657D
330
1A
100
AcDbEntity
  8
細線
100
AcDbLine
 10
539.999393285179
 20
594.67453424565
 30
0.0
 11
539.999393285179
 21
596.17453424565
 31
0.0
  0
LINE
  5
657E
330
1A
100
AcDbEntity
  8
細線
100
AcDbLine
 10
539.499393285179
 20
596.17453424565
 30
0.0
 11
539.999393285179
 21
596.17453424565
 31
0.0
  0
LINE
  5
657F
330
1A
100
AcDbEntity
  8
外形線
100
AcDbLine
 10
654.999393285179
 20
554.685812481062
 30
0.0
 11
654.999393285179
 21
539.674534245649
 31
0.0
  0
LINE
  5
6580
330
1A
100
AcDbEntity
  8
外形線
100
AcDbLine
 10
654.999393285179
 20
539.674534245649
 30
0.0
 11
655.999393285179
 21
538.674534245649
 31
0.0
  0
LINE
  5
6581
330
1A
100
AcDbEntity
  8
外形線
100
AcDbLine
 10
655.999393285179
 20
538.674534245649
 30
0.0
 11
670.499393285179
 21
538.674534245649
 31
0.0
  0
LINE
  5
6582
330
1A
100
AcDbEntity
  8
外形線
100
AcDbLine
 10
670.499393285179
 20
538.674534245649
 30
0.0
 11
670.999393285179
 21
539.174534245649
 31
0.0
  0
LINE
  5
6583
330
1A
100
AcDbEntity
  8
外形線
100
AcDbLine
 10
670.999393285179
 20
539.174534245649
 30
0.0
 11
670.999393285179
 21
684.174534245649
 31
0.0
  0
LINE
  5
6584
330
1A
100
AcDbEntity
  8
外形線
100
AcDbLine
 10
670.999393285179
 20
684.174534245649
 30
0.0
 11
670.499393285179
 21
684.674534245649
 31
0.0
  0
LINE
  5
6585
330
1A
100
AcDbEntity
  8
外形線
100
AcDbLine
 10
670.499393285179
 20
684.674534245649
 30
0.0
 11
655.999393285179
 21
684.674534245649
 31
0.0
  0
LINE
  5
6586
330
1A
100
AcDbEntity
  8
外形線
100
AcDbLine
 10
655.999393285179
 20
684.674534245649
 30
0.0
 11
654.999393285179
 21
683.674534245649
 31
0.0
  0
LINE
  5
6587
330
1A
100
AcDbEntity
  8
外形線
100
AcDbLine
 10
654.999393285179
 20
683.674534245649
 30
0.0
 11
654.999393285179
 21
668.663256010236
 31
0.0
  0
LINE
  5
6588
330
1A
100
AcDbEntity
  8
外形線
100
AcDbLine
 10
539.499393285179
 20
592.174534245649
 30
0.0
 11
516.865418688963
 21
592.174534245649
 31
0.0
  0
LINE
  5
6589
330
1A
100
AcDbEntity
  8
外形線
100
AcDbLine
 10
516.865418688963
 20
631.174534245649
 30
0.0
 11
539.499393285179
 21
631.174534245649
 31
0.0
  0
LINE
  5
658A
330
1A
100
AcDbEntity
  8
外形線
100
AcDbLine
 10
539.499393285179
 20
631.174534245649
 30
0.0
 11
539.499393285179
 21
592.174534245649
 31
0.0
  0
ARC
  5
658B
330
1A
100
AcDbEntity
  8
細線
100
AcDbCircle
 10
570.89760680596
 20
639.206087095052
 30
0.0
 40
55.71951496104566
100
AcDbArc
 50
189.849635564497
 51
193.778657358166
  0
LINE
  5
658C
102
{ACAD_REACTORS
330
6F80
102
}
330
1A
100
AcDbEntity
  8
外形線
100
AcDbLine
 10
515.999393285179
 20
593.674534245649
 30
0.0
 11
515.999393285179
 21
629.674534245649
 31
0.0
  0
LINE
  5
658D
330
1A
100
AcDbEntity
  8
外形線
100
AcDbLine
 10
515.999393285179
 20
593.674534245649
 30
0.0
 11
516.865418688963
 21
592.174534245649
 31
0.0
  0
LINE
  5
658E
330
1A
100
AcDbEntity
  8
外形線
100
AcDbLine
 10
515.999393285179
 20
629.674534245649
 30
0.0
 11
516.865418688963
 21
631.174534245649
 31
0.0
  0
LINE
  5
658F
330
1A
100
AcDbEntity
  8
細線
100
AcDbLine
 10
539.499393285179
 20
616.062016439345
 30
0.0
 11
516.781528644152
 21
616.062016439345
 31
0.0
  0
LINE
  5
6590
330
1A
100
AcDbEntity
  8
細線
100
AcDbLine
 10
539.499393285179
 20
625.935275820706
 30
0.0
 11
516.781528644152
 21
625.935275820706
 31
0.0
  0
LINE
  5
6591
330
1A
100
AcDbEntity
  8
細線
100
AcDbLine
 10
516.781528644152
 20
625.935275820706
 30
0.0
 11
516.781528644152
 21
616.062016439346
 31
0.0
  0
ARC
  5
6592
330
1A
100
AcDbEntity
  8
細線
100
AcDbCircle
 10
528.696515012186
 20
611.674534245649
 30
0.0
 40
12.69712172700661
100
AcDbArc
 50
159.784666103607
 51
180.0
  0
ARC
  5
6593
330
1A
100
AcDbEntity
  8
細線
100
AcDbCircle
 10
570.89760680596
 20
584.142981396246
 30
0.0
 40
55.71951496104566
100
AcDbArc
 50
166.221342641834
 51
170.150364435503
  0
LINE
  5
6594
330
1A
100
AcDbEntity
  8
細線
100
AcDbLine
 10
539.499393285179
 20
607.287052051953
 30
0.0
 11
516.781528644152
 21
607.287052051953
 31
0.0
  0
LINE
  5
6595
330
1A
100
AcDbEntity
  8
細線
100
AcDbLine
 10
539.499393285179
 20
597.413792670593
 30
0.0
 11
516.781528644152
 21
597.413792670593
 31
0.0
  0
LINE
  5
6596
330
1A
100
AcDbEntity
  8
細線
100
AcDbLine
 10
516.781528644152
 20
597.413792670593
 30
0.0
 11
516.781528644152
 21
607.287052051953
 31
0.0
  0
ARC
  5
6597
330
1A
100
AcDbEntity
  8
細線
100
AcDbCircle
 10
528.696515012186
 20
611.674534245649
 30
0.0
 40
12.69712172700661
100
AcDbArc
 50
180.0
 51
200.215333896393
  0
ELLIPSE
  5
6598
330
1A
100
AcDbEntity
  8
外形線
 48
10.0
100
AcDbEllipse
 10
540.249393285179
 20
629.674534245649
 30
0.0
 11
5.684341886080801E-14
 21
1.000000000000028
 31
0.0
210
0.0
220
0.0
230
1.0
 40
0.75
 41
0.0
 42
6.283185307179586
  0
ELLIPSE
  5
6599
330
1A
100
AcDbEntity
  8
外形線
 48
10.0
100
AcDbEllipse
 10
540.249393285179
 20
593.674534245649
 30
0.0
 11
5.684341886080801E-14
 21
1.000000000000028
 31
0.0
210
0.0
220
0.0
230
1.0
 40
0.75
 41
0.0
 42
6.283185307179586
  0
LINE
  5
659A
330
1A
100
AcDbEntity
  8
外形線
 48
10.0
100
AcDbLine
 10
540.999393285179
 20
628.674534245649
 30
0.0
 11
540.999393285179
 21
594.674534245649
 31
0.0
  0
LINE
  5
659B
330
1A
100
AcDbEntity
  8
外形線
100
AcDbLine
 10
670.999393285179
 20
657.174534245649
 30
0.0
 11
670.999393285179
 21
684.174534245649
 31
0.0
  0
LINE
  5
659C
330
1A
100
AcDbEntity
  8
外形線
100
AcDbLine
 10
684.999393285179
 20
551.674534245649
 30
0.0
 11
712.999393285179
 21
551.674534245649
 31
0.0
  0
ARC
  5
659D
330
1A
100
AcDbEntity
  8
外形線
100
AcDbCircle
 10
684.999393285179
 20
549.674534245649
 30
0.0
 40
2.0
100
AcDbArc
 50
90.0
 51
180.0
  0
LINE
  5
659E
330
1A
100
AcDbEntity
  8
外形線
100
AcDbLine
 10
684.999393285179
 20
671.674534245649
 30
0.0
 11
712.999393285179
 21
671.674534245649
 31
0.0
  0
ARC
  5
659F
330
1A
100
AcDbEntity
  8
外形線
100
AcDbCircle
 10
684.999393285179
 20
673.674534245649
 30
0.0
 40
2.0
100
AcDbArc
 50
180.0
 51
270.0
  0
LINE
  5
65A0
330
1A
100
AcDbEntity
  8
外形線
100
AcDbLine
 10
682.999393285179
 20
683.674534245649
 30
0.0
 11
682.999393285179
 21
539.67453424565
 31
0.0
  0
LINE
  5
65A1
330
1A
100
AcDbEntity
  8
外形線
100
AcDbLine
 10
681.999393285179
 20
684.674534245649
 30
0.0
 11
682.999393285179
 21
683.674534245649
 31
0.0
  0
LINE
  5
65A2
330
1A
100
AcDbEntity
  8
外形線
100
AcDbLine
 10
671.499393285179
 20
684.674534245649
 30
0.0
 11
681.999393285179
 21
684.674534245649
 31
0.0
  0
LINE
  5
65A3
330
1A
100
AcDbEntity
  8
外形線
100
AcDbLine
 10
670.999393285179
 20
684.174534245649
 30
0.0
 11
671.499393285179
 21
684.674534245649
 31
0.0
  0
LINE
  5
65A4
330
1A
100
AcDbEntity
  8
外形線
100
AcDbLine
 10
670.999393285179
 20
539.174534245649
 30
0.0
 11
670.999393285179
 21
566.174534245649
 31
0.0
  0
LINE
  5
65A5
330
1A
100
AcDbEntity
  8
外形線
100
AcDbLine
 10
671.499393285179
 20
538.674534245649
 30
0.0
 11
670.999393285179
 21
539.174534245649
 31
0.0
  0
LINE
  5
65A6
330
1A
100
AcDbEntity
  8
外形線
100
AcDbLine
 10
679.035691432188
 20
538.674534245649
 30
0.0
 11
671.499393285179
 21
538.674534245649
 31
0.0
  0
LINE
  5
65A7
330
1A
100
AcDbEntity
  8
外形線
100
AcDbLine
 10
714.999393285179
 20
539.674534245649
 30
0.0
 11
714.999393285179
 21
549.674534245649
 31
0.0
  0
ARC
  5
65A8
330
1A
100
AcDbEntity
  8
外形線
100
AcDbCircle
 10
712.999393285179
 20
549.674534245649
 30
0.0
 40
2.0
100
AcDbArc
 50
0.0
 51
90.0
  0
ARC
  5
65A9
330
1A
100
AcDbEntity
  8
外形線
100
AcDbCircle
 10
712.999393285179
 20
673.674534245649
 30
0.0
 40
2.0
100
AcDbArc
 50
270.0
 51
0.0
  0
LINE
  5
65AA
330
1A
100
AcDbEntity
  8
外形線
100
AcDbLine
 10
714.999393285179
 20
683.674534245649
 30
0.0
 11
714.999393285179
 21
673.674534245649
 31
0.0
  0
LINE
  5
65AB
330
1A
100
AcDbEntity
  8
外形線
100
AcDbLine
 10
715.999393285179
 20
684.674534245649
 30
0.0
 11
714.999393285179
 21
683.674534245649
 31
0.0
  0
LINE
  5
65AC
330
1A
100
AcDbEntity
  8
外形線
100
AcDbLine
 10
726.499393285179
 20
684.674534245649
 30
0.0
 11
715.999393285179
 21
684.674534245649
 31
0.0
  0
LINE
  5
65AD
330
1A
100
AcDbEntity
  8
外形線
100
AcDbLine
 10
726.999393285179
 20
684.174534245649
 30
0.0
 11
726.499393285179
 21
684.674534245649
 31
0.0
  0
LINE
  5
65AE
330
1A
100
AcDbEntity
  8
外形線
100
AcDbLine
 10
726.999393285179
 20
539.174534245649
 30
0.0
 11
726.999393285179
 21
684.174534245649
 31
0.0
  0
LINE
  5
65AF
330
1A
100
AcDbEntity
  8
外形線
100
AcDbLine
 10
726.499393285179
 20
538.674534245649
 30
0.0
 11
726.999393285179
 21
539.174534245649
 31
0.0
  0
LINE
  5
65B0
330
1A
100
AcDbEntity
  8
外形線
 48
10.0
100
AcDbLine
 10
670.999393285179
 20
657.174534245649
 30
0.0
 11
670.999393285179
 21
566.174534245649
 31
0.0
  0
LWPOLYLINE
  5
65B1
330
1A
100
AcDbEntity
  8
外形線
100
AcDbPolyline
 90
       10
 70
     0
 43
0.0
 10
726.999393285179
 20
561.674534245649
 10
726.999393285179
 20
539.174534245649
 10
727.499393285179
 20
538.674534245649
 10
741.999393285179
 20
538.674534245649
 10
742.999393285179
 20
539.674534245649
 10
742.999393285179
 20
683.674534245649
 10
741.999393285179
 20
684.674534245649
 10
727.499393285179
 20
684.674534245649
 10
726.999393285179
 20
684.174534245649
 10
726.999393285179
 20
661.674534245649
  0
LINE
  5
65B2
330
1A
100
AcDbEntity
  8
外形線
 48
10.0
100
AcDbLine
 10
726.999393285179
 20
661.674534245649
 30
0.0
 11
726.999393285179
 21
561.674534245649
 31
0.0
  0
LINE
  5
65B3
330
1A
100
AcDbEntity
  8
外形線
 48
10.0
100
AcDbLine
 10
714.999393285179
 20
673.674534245649
 30
0.0
 11
714.999393285179
 21
549.674534245649
 31
0.0
  0
LINE
  5
65B4
330
1A
100
AcDbEntity
  8
外形線
 48
10.0
100
AcDbLine
 10
654.999393285179
 20
668.663256010236
 30
0.0
 11
654.999393285179
 21
554.685812481062
 31
0.0
  0
ARC
  5
65B5
330
1A
100
AcDbEntity
  8
外形線
 48
10.0
100
AcDbCircle
 10
698.999393285179
 20
468.635606322304
 30
0.0
 40
72.82857142857176
100
AcDbArc
 50
74.060779211365
 51
105.939220788635
  0
HATCH
  5
65B6
330
1A
100
AcDbEntity
  8
細線
 48
10.0
100
AcDbHatch
 10
0.0
 20
0.0
 30
0.0
210
0.0
220
0.0
230
1.0
  2
ANSI31
 70
     0
 71
     0
 91
       18
 92
        7
 72
     1
 73
     1
 93
        7
 10
709.6168215388097
 20
539.1391205731868
 42
-0.0890553773191663
 10
709.1993932851788
 20
539.0641777508765
 42
0.0
 10
708.1993932851788
 20
539.0641777508765
 42
0.0
 10
706.958924935142
 20
539.0641777508765
 42
0.0
 10
706.9589249351425
 20
532.0641777508765
 42
0.0
 10
709.6446274601972
 20
532.0641777508765
 42
0.0
 10
709.6446274601972
 20
539.0641777508765
 42
0.0
 97
        0
 92
        7
 72
     0
 73
     1
 93
        7
 10
679.4993932851789
 20
533.0019999243852
 10
682.9993932851789
 20
532.0641777508765
 10
688.3541591101603
 20
532.0641777508765
 10
688.3541591101607
 20
539.0641777508765
 10
688.3819650315481
 20
539.0641777508765
 10
681.4993932851789
 20
539.0641777508765
 10
679.4993932851789
 20
538.5282793660142
 97
        0
 92
        7
 72
     0
 73
     1
 93
        7
 10
714.9993932851789
 20
532.0641777508765
 10
718.4993932851789
 20
533.0019999243852
 10
718.4993932851789
 20
538.5282793660142
 10
716.4993932851789
 20
539.0641777508765
 10
709.6168215388097
 20
539.0641777508765
 10
709.6446274601972
 20
539.0641777508765
 10
709.6446274601972
 20
532.0641777508765
 97
        0
 92
        7
 72
     1
 73
     1
 93
       11
 10
712.2493932851789
 20
473.0641777508764
 42
0.0
 10
714.2493932851789
 20
473.0641777508764
 42
0.414213562373095
 10
716.2493932851789
 20
475.0641777508764
 42
0.0
 10
716.2493932851789
 20
495.0641777508764
 42
0.0
 10
698.9993932851789
 20
495.0641777508764
 42
0.0
 10
681.7493932851789
 20
495.0641777508764
 42
0.0
 10
681.7493932851789
 20
475.0641777508764
 42
0.414213562373095
 10
683.7493932851789
 20
473.0641777508764
 42
0.0
 10
685.8993932851786
 20
473.0641777508764
 42
0.0
 10
698.9993932851789
 20
473.0641777508764
 42
0.0
 10
712.0993932851788
 20
473.0641777508764
 42
0.0
 97
        0
 92
        7
 72
     1
 73
     1
 93
       10
 10
682.9993932851789
 20
523.0641777508765
 42
0.0
 10
681.4993932851789
 20
523.0641777508765
 42
0.0
 10
679.4993932851789
 20
521.909477212497
 42
0.0
 10
679.4993932851789
 20
496.2188782892555
 42
0.0
 10
681.4993932851789
 20
495.0641777508764
 42
0.0
 10
681.7493932851789
 20
495.0641777508764
 42
0.0
 10
681.7493674496127
 20
495.0660852486964
 42
0.0797961404903644
 10
688.3541591101612
 20
496.2188782892559
 42
0.0
 10
688.3541591101603
 20
521.909477212497
 42
0.064967344209285
 10
682.995354301554
 20
523.0086024930104
 42
0.0
 97
        0
 92
        7
 72
     1
 73
     1
 93
       10
 10
716.4993932851789
 20
523.0641777508765
 42
0.0
 10
714.9993932851789
 20
523.0641777508765
 42
0.0
 10
715.0034322688043
 20
523.0086024930104
 42
0.0649673442092901
 10
709.6446274601963
 20
521.909477212497
 42
0.0
 10
709.6446274601972
 20
496.2188782892555
 42
0.0797961404903702
 10
716.2494191207452
 20
495.0660852486964
 42
0.0
 10
716.2493932851789
 20
495.0641777508764
 42
0.0
 10
716.4993932851789
 20
495.0641777508764
 42
0.0
 10
718.4993932851789
 20
496.2188782892555
 42
0.0
 10
718.4993932851789
 20
521.909477212497
 42
0.0
 97
        0
 92
        7
 72
     0
 73
     1
 93
        5
 10
686.3993932851786
 20
461.0641777508764
 10
698.9993932851789
 20
461.0641777508764
 10
698.9993932851789
 20
473.0641777508764
 10
685.8993932851786
 20
473.0641777508764
 10
685.8993932851786
 20
461.9302031546609
 97
        0
 92
        7
 72
     0
 73
     1
 93
        5
 10
711.5993932851788
 20
461.0641777508764
 10
712.0993932851788
 20
461.9302031546609
 10
712.0993932851788
 20
473.0641777508764
 10
698.9993932851789
 20
473.0641777508764
 10
698.9993932851789
 20
461.0641777508764
 97
        0
 92
        7
 72
     0
 73
     1
 93
        9
 10
682.9993932851789
 20
532.0641777508765
 10
682.9993932851789
 20
523.0641777508765
 10
698.9993932851789
 20
523.0641777508765
 10
714.9993932851789
 20
523.0641777508765
 10
714.9993932851789
 20
532.0641777508765
 10
709.6446274601972
 20
532.0641777508765
 10
706.9589249351425
 20
532.0641777508765
 10
691.0398616352154
 20
532.0641777508765
 10
688.3541591101603
 20
532.0641777508765
 97
        0
 92
        7
 72
     1
 73
     1
 93
        5
 10
698.9993932851789
 20
523.0641777508765
 42
0.0
 10
682.9993932851789
 20
523.0641777508765
 42
0.0
 10
682.995354301554
 20
523.0086024930104
 42
-0.064967344209285
 10
688.3541591101612
 20
521.909477212497
 42
0.0
 10
691.0398616352154
 20
521.909477212497
 42
-0.0721580311220423
 97
        0
 92
        7
 72
     1
 73
     1
 93
        6
 10
706.958924935142
 20
496.2188782892555
 42
0.0
 10
706.958924935142
 20
521.909477212497
 42
0.0721580311220383
 10
698.9993932851789
 20
523.0641777508765
 42
0.0721580311220423
 10
691.0398616352131
 20
521.9094772124965
 42
0.0
 10
691.0398616352154
 20
496.2188782892555
 42
0.0721580311220422
 10
698.9993932851789
 20
495.0641777508764
 42
0.0721580311220384
 97
        0
 92
        7
 72
     0
 73
     1
 93
        4
 10
706.958924935142
 20
521.909477212497
 10
706.958924935142
 20
496.2188782892555
 10
709.6446274601972
 20
496.2188782892555
 10
709.6446274601972
 20
521.909477212497
 97
        0
 92
        7
 72
     0
 73
     1
 93
        4
 10
691.0398616352154
 20
496.2188782892555
 10
691.0398616352154
 20
521.909477212497
 10
688.3541591101603
 20
521.909477212497
 10
688.3541591101603
 20
496.2188782892555
 97
        0
 92
        7
 72
     0
 73
     1
 93
        4
 10
706.9589249351425
 20
532.0641777508765
 10
706.958924935142
 20
539.0641777508765
 10
691.0398616352154
 20
539.0641777508765
 10
691.0398616352154
 20
532.0641777508765
 97
        0
 92
        7
 72
     1
 73
     1
 93
        7
 10
691.0398616352154
 20
532.0641777508765
 42
0.0
 10
691.0398616352154
 20
539.0641777508765
 42
0.0
 10
689.7993932851787
 20
539.0641777508765
 42
0.0
 10
688.7993932851787
 20
539.0641777508765
 42
-0.0890553773190824
 10
688.3819650315481
 20
539.1391205731868
 42
0.0
 10
688.3541591101607
 20
539.0641777508765
 42
0.0
 10
688.3541591101603
 20
532.0641777508765
 42
0.0
 97
        0
 92
        7
 72
     1
 73
     1
 93
        5
 10
691.0398616352154
 20
496.2188782892555
 42
0.0
 10
688.3541591101603
 20
496.2188782892555
 42
-0.0797961404903644
 10
681.7493674496127
 20
495.0660852486964
 42
0.0
 10
681.7493932851789
 20
495.0641777508764
 42
0.0
 10
698.9993932851789
 20
495.0641777508764
 42
-0.0721580311220422
 97
        0
 92
        7
 72
     1
 73
     1
 93
        5
 10
716.2494191207452
 20
495.0660852486964
 42
-0.0797961404903702
 10
709.6446274601963
 20
496.2188782892559
 42
0.0
 10
706.958924935142
 20
496.2188782892555
 42
-0.0721580311220384
 10
698.9993932851789
 20
495.0641777508764
 42
0.0
 10
716.2493932851789
 20
495.0641777508764
 42
0.0
 97
        0
 92
        7
 72
     1
 73
     1
 93
        5
 10
698.9993932851789
 20
523.0641777508765
 42
-0.0721580311220383
 10
706.9589249351443
 20
521.9094772124965
 42
0.0
 10
709.6446274601972
 20
521.909477212497
 42
-0.0649673442092901
 10
715.0034322688043
 20
523.0086024930104
 42
0.0
 10
714.9993932851789
 20
523.0641777508765
 42
0.0
 97
        0
 75
     0
 76
     1
 52
0.0
 41
1.25
 77
     0
 78
     1
 53
45.0
 43
0.0
 44
0.0
 45
-2.80633003783411
 46
2.806330037834111
 79
     0
 47
0.0
 98
       18
 10
707.9780532660184
 20
536.1566158032781
 10
683.88446060464
 20
535.3758049299929
 10
711.5474744010371
 20
535.3758049299929
 10
692.2199139103809
 20
483.8254249880539
 10
685.1745095011056
 20
509.1888808614465
 10
714.0606675791355
 20
511.6547724046929
 10
695.3903458945551
 20
468.3255352876473
 10
704.1971014061496
 20
467.2687246262559
 10
693.0286482860961
 20
525.5987142635338
 10
690.4269864563089
 20
522.8057537697921
 10
697.503967217338
 20
502.4957466726344
 10
708.0720738312516
 20
510.5979617433015
 10
689.4017521466708
 20
509.5411510819101
 10
703.4047324367752
 20
535.2642605195235
 10
689.6847699490459
 20
535.3758049299929
 10
691.0703915063968
 20
495.3892797983855
 10
707.0885381278276
 20
495.2817754586446
 10
707.4143078155062
 20
522.5379356402552
1001
ACAD
1010
0.0
1020
0.0
1030
0.0
  0
ARC
  5
65B7
330
1A
100
AcDbEntity
  8
外形線
100
AcDbCircle
 10
688.799393285179
 20
540.264177750876
 30
0.0
 40
1.2
100
AcDbArc
 50
165.097005345964
 51
270.0
  0
ARC
  5
65B8
330
1A
100
AcDbEntity
  8
外形線
100
AcDbCircle
 10
709.199393285179
 20
540.264177750876
 30
0.0
 40
1.2
100
AcDbArc
 50
270.0
 51
14.902994654036
  0
LINE
  5
65B9
330
1A
100
AcDbEntity
  8
外形線
 62
     0
100
AcDbLine
 10
682.999393285179
 20
532.064177750877
 30
0.0
 11
679.499393285179
 21
533.001999924385
 31
0.0
  0
LINE
  5
65BA
330
1A
100
AcDbEntity
  8
外形線
100
AcDbLine
 10
714.999393285179
 20
532.064177750877
 30
0.0
 11
718.499393285179
 21
533.001999924385
 31
0.0
  0
LINE
  5
65BB
330
1A
100
AcDbEntity
  8
外形線
100
AcDbLine
 10
714.249393285179
 20
473.064177750876
 30
0.0
 11
712.099393285179
 21
473.064177750876
 31
0.0
  0
LINE
  5
65BC
330
1A
100
AcDbEntity
  8
外形線
 62
     0
100
AcDbLine
 10
682.999393285179
 20
523.064177750877
 30
0.0
 11
681.499393285179
 21
523.064177750877
 31
0.0
  0
LINE
  5
65BD
330
1A
100
AcDbEntity
  8
外形線
 62
     0
100
AcDbLine
 10
716.499393285179
 20
523.064177750877
 30
0.0
 11
714.999393285179
 21
523.064177750877
 31
0.0
  0
LINE
  5
65BE
330
1A
100
AcDbEntity
  8
外形線
100
AcDbLine
 10
679.499393285179
 20
521.909477212497
 30
0.0
 11
679.499393285179
 21
496.218878289255
 31
0.0
  0
LINE
  5
65BF
330
1A
100
AcDbEntity
  8
外形線
100
AcDbLine
 10
718.499393285179
 20
521.909477212497
 30
0.0
 11
718.499393285179
 21
496.218878289255
 31
0.0
  0
LINE
  5
65C0
330
1A
100
AcDbEntity
  8
外形線
100
AcDbLine
 10
681.499393285179
 20
495.064177750876
 30
0.0
 11
716.499393285179
 21
495.064177750876
 31
0.0
  0
LINE
  5
65C1
330
1A
100
AcDbEntity
  8
外形線
100
AcDbLine
 10
681.499393285179
 20
495.064177750876
 30
0.0
 11
679.499393285179
 21
496.218878289255
 31
0.0
  0
LINE
  5
65C2
330
1A
100
AcDbEntity
  8
外形線
 62
     0
100
AcDbLine
 10
681.499393285179
 20
523.064177750877
 30
0.0
 11
679.499393285179
 21
521.909477212497
 31
0.0
  0
LINE
  5
65C3
330
1A
100
AcDbEntity
  8
外形線
 62
     0
100
AcDbLine
 10
716.499393285179
 20
523.064177750877
 30
0.0
 11
718.499393285179
 21
521.909477212497
 31
0.0
  0
LINE
  5
65C4
330
1A
100
AcDbEntity
  8
外形線
100
AcDbLine
 10
716.499393285179
 20
495.064177750876
 30
0.0
 11
718.499393285179
 21
496.218878289255
 31
0.0
  0
ARC
  5
65C5
330
1A
100
AcDbEntity
  8
外形線
100
AcDbCircle
 10
683.749393285179
 20
475.064177750876
 30
0.0
 40
2.0
100
AcDbArc
 50
180.0
 51
270.0
  0
ARC
  5
65C6
330
1A
100
AcDbEntity
  8
外形線
100
AcDbCircle
 10
714.249393285179
 20
475.064177750876
 30
0.0
 40
2.0
100
AcDbArc
 50
270.0
 51
0.0
  0
LINE
  5
65C7
330
1A
100
AcDbEntity
  8
外形線
100
AcDbLine
 10
716.249393285179
 20
475.064177750876
 30
0.0
 11
716.249393285179
 21
495.064177750876
 31
0.0
  0
LINE
  5
65C8
330
1A
100
AcDbEntity
  8
外形線
100
AcDbLine
 10
681.749393285179
 20
475.064177750876
 30
0.0
 11
681.749393285179
 21
495.064177750876
 31
0.0
  0
LINE
  5
65C9
330
1A
100
AcDbEntity
  8
外形線
100
AcDbLine
 10
686.399393285179
 20
461.064177750876
 30
0.0
 11
711.599393285179
 21
461.064177750876
 31
0.0
  0
LINE
  5
65CA
330
1A
100
AcDbEntity
  8
外形線
100
AcDbLine
 10
686.399393285179
 20
461.064177750876
 30
0.0
 11
685.899393285179
 21
461.930203154661
 31
0.0
  0
LINE
  5
65CB
330
1A
100
AcDbEntity
  8
外形線
100
AcDbLine
 10
711.599393285179
 20
461.064177750876
 30
0.0
 11
712.099393285179
 21
461.930203154661
 31
0.0
  0
LINE
  5
65CC
330
1A
100
AcDbEntity
  8
外形線
100
AcDbLine
 10
685.899393285179
 20
473.064177750876
 30
0.0
 11
685.899393285179
 21
461.930203154661
 31
0.0
  0
LINE
  5
65CD
330
1A
100
AcDbEntity
  8
外形線
 62
     0
100
AcDbLine
 10
682.999393285179
 20
532.064177750877
 30
0.0
 11
682.999393285179
 21
523.064177750877
 31
0.0
  0
LINE
  5
65CE
330
1A
100
AcDbEntity
  8
外形線
 62
     0
100
AcDbLine
 10
679.499393285179
 20
538.528279366014
 30
0.0
 11
679.499393285179
 21
533.001999924385
 31
0.0
  0
LINE
  5
65CF
330
1A
100
AcDbEntity
  8
外形線
100
AcDbLine
 10
681.499393285179
 20
539.064177750877
 30
0.0
 11
679.499393285179
 21
538.528279366014
 31
0.0
  0
LINE
  5
65D0
330
1A
100
AcDbEntity
  8
外形線
100
AcDbLine
 10
681.499393285179
 20
539.064177750877
 30
0.0
 11
689.799393285179
 21
539.064177750877
 31
0.0
  0
LINE
  5
65D1
330
1A
100
AcDbEntity
  8
外形線
 62
     0
100
AcDbLine
 10
718.499393285179
 20
538.528279366014
 30
0.0
 11
718.499393285179
 21
533.001999924385
 31
0.0
  0
LINE
  5
65D2
330
1A
100
AcDbEntity
  8
外形線
100
AcDbLine
 10
716.499393285179
 20
539.064177750877
 30
0.0
 11
718.499393285179
 21
538.528279366014
 31
0.0
  0
LINE
  5
65D3
330
1A
100
AcDbEntity
  8
外形線
100
AcDbLine
 10
716.499393285179
 20
539.064177750877
 30
0.0
 11
708.199393285179
 21
539.064177750877
 31
0.0
  0
LINE
  5
65D4
330
1A
100
AcDbEntity
  8
外形線
 48
10.0
100
AcDbLine
 10
708.199393285179
 20
539.064177750877
 30
0.0
 11
689.799393285179
 21
539.064177750877
 31
0.0
  0
LINE
  5
65D5
330
1A
100
AcDbEntity
  8
外形線
 48
10.0
100
AcDbLine
 10
682.999393285179
 20
532.064177750877
 30
0.0
 11
714.999393285179
 21
532.064177750877
 31
0.0
  0
LINE
  5
65D6
330
1A
100
AcDbEntity
  8
外形線
 48
10.0
100
AcDbLine
 10
683.749393285179
 20
473.064177750876
 30
0.0
 11
712.249393285179
 21
473.064177750876
 31
0.0
  0
LINE
  5
65D7
330
1A
100
AcDbEntity
  8
外形線
 48
10.0
100
AcDbLine
 10
712.099393285179
 20
461.930203154661
 30
0.0
 11
712.099393285179
 21
473.064177750876
 31
0.0
  0
LINE
  5
65D8
330
1A
100
AcDbEntity
  8
外形線
 62
     0
100
AcDbLine
 10
714.999393285179
 20
532.064177750877
 30
0.0
 11
714.999393285179
 21
523.064177750877
 31
0.0
  0
LINE
  5
65D9
330
1A
100
AcDbEntity
  8
外形線
 48
10.0
100
AcDbLine
 10
682.999393285179
 20
523.064177750877
 30
0.0
 11
714.999393285179
 21
523.064177750877
 31
0.0
  0
LINE
  5
65DA
330
1A
100
AcDbEntity
  8
外形線
 48
10.0
100
AcDbLine
 10
706.958924935142
 20
496.218878289255
 30
0.0
 11
706.958924935142
 21
521.909477212497
 31
0.0
  0
LINE
  5
65DB
330
1A
100
AcDbEntity
  8
外形線
 48
10.0
100
AcDbLine
 10
709.644627460197
 20
496.218878289255
 30
0.0
 11
709.644627460197
 21
521.909477212497
 31
0.0
  0
LINE
  5
65DC
330
1A
100
AcDbEntity
  8
外形線
 48
10.0
100
AcDbLine
 10
691.039861635215
 20
496.218878289255
 30
0.0
 11
691.039861635215
 21
521.909477212497
 31
0.0
  0
LINE
  5
65DD
330
1A
100
AcDbEntity
  8
外形線
 48
10.0
100
AcDbLine
 10
688.35415911016
 20
496.218878289255
 30
0.0
 11
688.35415911016
 21
521.909477212497
 31
0.0
  0
LINE
  5
65DE
330
1A
100
AcDbEntity
  8
外形線
 48
10.0
100
AcDbLine
 10
706.958924935142
 20
532.064177750877
 30
0.0
 11
706.958924935142
 21
539.064177750877
 31
0.0
  0
LINE
  5
65DF
330
1A
100
AcDbEntity
  8
外形線
 48
10.0
100
AcDbLine
 10
709.644627460197
 20
532.064177750877
 30
0.0
 11
709.644627460197
 21
539.064177750877
 31
0.0
  0
LINE
  5
65E0
330
1A
100
AcDbEntity
  8
外形線
 48
10.0
100
AcDbLine
 10
691.039861635215
 20
532.064177750877
 30
0.0
 11
691.039861635215
 21
539.064177750877
 31
0.0
  0
LINE
  5
65E1
330
1A
100
AcDbEntity
  8
外形線
 48
10.0
100
AcDbLine
 10
688.35415911016
 20
532.064177750877
 30
0.0
 11
688.354159110161
 21
539.064177750877
 31
0.0
  0
LINE
  5
65E2
330
1A
100
AcDbEntity
  8
外形線
 48
10.0
100
AcDbLine
 10
688.35415911016
 20
496.218878289255
 30
0.0
 11
691.039861635215
 21
496.218878289255
 31
0.0
  0
ARC
  5
65E3
330
1A
100
AcDbEntity
  8
外形線
 48
10.0
100
AcDbCircle
 10
698.999393285179
 20
523.074677127146
 30
0.0
 40
28.01049937626924
100
AcDbArc
 50
253.491210313049
 51
286.508789686951
  0
ARC
  5
65E4
330
1A
100
AcDbEntity
  8
外形線
 48
10.0
100
AcDbCircle
 10
716.535707879111
 20
516.203426543496
 30
0.0
 40
21.13927998456884
100
AcDbArc
 50
250.974760675968
 51
269.901573090846
  0
ARC
  5
65E5
330
1A
100
AcDbEntity
  8
外形線
 48
10.0
100
AcDbCircle
 10
681.463078691247
 20
516.203426543496
 30
0.0
 40
21.13927998456884
100
AcDbArc
 50
270.098426909141
 51
289.025239324032
  0
LINE
  5
65E6
330
1A
100
AcDbEntity
  8
外形線
 48
10.0
100
AcDbLine
 10
706.958924935142
 20
496.218878289255
 30
0.0
 11
709.644627460197
 21
496.218878289255
 31
0.0
  0
LINE
  5
65E7
330
1A
100
AcDbEntity
  8
外形線
 48
10.0
100
AcDbLine
 10
688.35415911016
 20
521.909477212497
 30
0.0
 11
691.039861635215
 21
521.909477212497
 31
0.0
  0
ARC
  5
65E8
330
1A
100
AcDbEntity
  8
外形線
 48
10.0
100
AcDbCircle
 10
698.999393285179
 20
495.053678374607
 30
0.0
 40
28.01049937626924
100
AcDbArc
 50
73.491210313049
 51
106.508789686951
  0
ARC
  5
65E9
330
1A
100
AcDbEntity
  8
外形線
 48
10.0
100
AcDbCircle
 10
716.535707879111
 20
501.924928958257
 30
0.0
 40
21.13927998456884
100
AcDbArc
 50
90.098426909141
 51
109.025239324032
  0
ARC
  5
65EA
330
1A
100
AcDbEntity
  8
外形線
 48
10.0
100
AcDbCircle
 10
681.463078691247
 20
501.924928958257
 30
0.0
 40
21.13927998456884
100
AcDbArc
 50
70.974760675968
 51
89.901573090859
  0
LINE
  5
65EB
330
1A
100
AcDbEntity
  8
外形線
 48
10.0
100
AcDbLine
 10
706.958924935142
 20
521.909477212497
 30
0.0
 11
709.644627460197
 21
521.909477212497
 31
0.0
  0
LINE
  5
65EC
330
1A
100
AcDbEntity
  8
外形線
100
AcDbLine
 10
718.96309513817
 20
538.67453424565
 30
0.0
 11
726.499393285179
 21
538.674534245649
 31
0.0
  0
LINE
  5
65ED
102
{ACAD_REACTORS
330
6F80
102
}
330
1A
100
AcDbEntity
  8
外形線
100
AcDbLine
 10
515.999393285179
 20
616.674534245649
 30
0.0
 11
505.999404566206
 21
616.674534245649
 31
0.0
  0
DIMENSION
  5
65EE
330
1A
100
AcDbEntity
  8
寸法線
 48
10.0
100
AcDbDimension
  2
*D19
 10
767.999393285179
 20
538.674534245649
 30
0.0
 11
767.999393285179
 21
609.583111918124
 31
0.0
 70
   160
  3
ISO-25
100
AcDbAlignedDimension
 13
741.999393285179
 23
684.674534245649
 33
0.0
 14
741.999393285179
 24
538.674534245649
 34
0.0
 50
90.0
100
AcDbRotatedDimension
1001
ACAD
1000
DSTYLE
1002
{
1070
     5
1000
OPEN30
1070
     3
1000
%%c<>
1070
    41
1040
6.0
1070
    47
1040
0.1
1070
    48
1040
0.1
1070
    73
1070
     0
1070
   140
1040
10.0
1070
   271
1070
     1
1070
   272
1070
     1
1070
   341
1005
2AF4
1002
}
  0
DIMENSION
  5
65EF
330
1A
100
AcDbEntity
  8
寸法線
 48
10.0
100
AcDbDimension
  2
*D20
 10
544.999393285179
 20
436.064177750876
 30
0.0
 11
607.999393285179
 21
441.690162002845
 31
0.0
 70
    32
  3
ISO-25
100
AcDbAlignedDimension
 13
670.999393285179
 23
539.174534245649
 33
0.0
 14
544.999393285179
 24
534.174534245649
 34
0.0
100
AcDbRotatedDimension
1001
ACAD
1000
DSTYLE
1002
{
1070
     5
1000
OPEN30
1070
    41
1040
6.0
1070
    47
1040
0.1
1070
    48
1040
0.1
1070
    73
1070
     0
1070
   140
1040
10.0
1070
   271
1070
     1
1070
   272
1070
     1
1070
   341
1005
2AF4
1002
}
  0
DIMENSION
  5
65F0
330
1A
100
AcDbEntity
  8
寸法線_文字
 48
10.0
100
AcDbDimension
  2
*D21
 10
742.999393285179
 20
436.064177750876
 30
0.0
 11
734.999393285179
 21
441.689177750876
 31
0.0
 70
    32
  3
ISO-25
100
AcDbAlignedDimension
 13
726.999393285179
 23
539.17453424565
 33
0.0
 14
742.999393285179
 24
539.674534245649
 34
0.0
100
AcDbRotatedDimension
1001
ACAD
1000
DSTYLE
1002
{
1070
     5
1000
OPEN30
1070
    41
1040
6.0
1070
    47
1040
0.1
1070
    48
1040
0.1
1070
    73
1070
     0
1070
   140
1040
10.0
1070
   271
1070
     1
1070
   272
1070
     1
1070
   341
1005
2AF4
1002
}
  0
LINE
  5
65F1
330
1A
100
AcDbEntity
  8
外形線
 48
10.0
100
AcDbLine
 10
570.999393285179
 20
579.17453424565
 30
0.0
 11
570.999393285179
 21
644.174534245649
 31
0.0
  0
LINE
  5
65F2
330
1A
100
AcDbEntity
  8
下書線
100
AcDbLine
 10
82.645417915699
 20
717.414711228493
 30
0.0
 11
797.871983747431
 21
717.414711228493
 31
0.0
  0
MTEXT
  5
65F3
330
1A
100
AcDbEntity
  8
寸法線
 48
10.0
100
AcDbMText
 10
597.29941923878
 20
728.861766612168
 30
0.0
 40
10.0
 41
74.696477522242
 71
     1
 72
     5
  1
固着剤使用
  0
MTEXT
  5
65F4
330
1A
100
AcDbEntity
  8
寸法線
 48
10.0
100
AcDbMText
 10
665.497686495949
 20
728.150976392273
 30
0.0
 40
10.0
 41
26.553641107301
 71
     1
 72
     5
  1
AC7A
  0
MTEXT
  5
65F5
330
1A
100
AcDbEntity
  8
寸法線
 48
10.0
100
AcDbMText
 10
706.664659200919
 20
727.709918942569
 30
0.0
 40
10.0
 41
26.553641107301
 71
     1
 72
     5
  1
AC7A
  0
MTEXT
  5
65F6
330
1A
100
AcDbEntity
  8
寸法線
 48
10.0
100
AcDbMText
 10
753.112587076051
 20
727.792713420799
 30
0.0
 40
10.0
 41
26.553641107301
 71
     1
 72
     5
  1
AC7A
  0
LEADER
  5
65F7
330
1A
100
AcDbEntity
  8
寸法線
 48
10.0
100
AcDbLeader
  3
ISO-25
 76
     3
 10
735.188474926663
 20
684.674534245649
 30
0.0
 10
751.536595263661
 20
717.414711228492
 30
0.0
 10
763.536595263661
 20
717.414711228493
 30
0.0
1001
ACAD
1000
DSTYLE
1002
{
1070
     5
1000
OPEN30
1070
   147
1040
0.625
1070
    77
1070
     0
1070
    41
1040
6.0
1070
    47
1040
0.1
1070
    48
1040
0.1
1070
    73
1070
     0
1070
   140
1040
5.0
1070
   271
1070
     1
1070
   272
1070
     1
1070
   341
1005
2AF4
1070
   342
1005
2AF4
1002
}
  0
LEADER
  5
65F8
330
1A
100
AcDbEntity
  8
寸法線
 48
10.0
100
AcDbLeader
  3
ISO-25
 76
     3
 10
698.999393285179
 20
671.674534245649
 30
0.0
 10
705.334957822803
 20
717.414711228492
 30
0.0
 10
717.334957822803
 20
717.414711228493
 30
0.0
1001
ACAD
1000
DSTYLE
1002
{
1070
     5
1000
OPEN30
1070
   147
1040
0.625
1070
    77
1070
     0
1070
    41
1040
6.0
1070
    47
1040
0.1
1070
    48
1040
0.1
1070
    73
1070
     0
1070
   140
1040
5.0
1070
   271
1070
     1
1070
   272
1070
     1
1070
   341
1005
2AF4
1070
   342
1005
2AF4
1002
}
  0
LEADER
  5
65F9
330
1A
100
AcDbEntity
  8
寸法線
 48
10.0
100
AcDbLeader
  3
ISO-25
 76
     3
 10
663.249393285179
 20
684.674534245649
 30
0.0
 10
663.180628890252
 20
717.414711228493
 30
0.0
 10
675.180628890252
 20
717.414711228493
 30
0.0
1001
ACAD
1000
DSTYLE
1002
{
1070
     5
1000
OPEN30
1070
   147
1040
0.625
1070
    77
1070
     0
1070
    41
1040
6.0
1070
    47
1040
0.1
1070
    48
1040
0.1
1070
    73
1070
     0
1070
   140
1040
5.0
1070
   271
1070
     1
1070
   272
1070
     1
1070
   341
1005
2AF4
1070
   342
1005
2AF4
1002
}
  0
LEADER
  5
65FA
330
1A
100
AcDbEntity
  8
寸法線
 48
10.0
100
AcDbLeader
  3
ISO-25
 76
     3
 10
563.014551481862
 20
636.070768416477
 30
0.0
 10
596.582497372206
 20
717.414711228493
 30
0.0
 10
608.582497372206
 20
717.414711228493
 30
0.0
1001
ACAD
1000
DSTYLE
1002
{
1070
     5
1000
OPEN30
1070
   147
1040
0.625
1070
    77
1070
     0
1070
    41
1040
6.0
1070
    47
1040
0.1
1070
    48
1040
0.1
1070
    73
1070
     0
1070
   140
1040
5.0
1070
   271
1070
     1
1070
   272
1070
     1
1070
   341
1005
2AF4
1070
   342
1005
2AF4
1002
}
  0
LINE
  5
65FB
330
1A
100
AcDbEntity
  8
隠れ線
 48
5.0
100
AcDbLine
 10
570.999393285179
 20
633.174534245649
 30
0.0
 11
540.999393285179
 21
633.174534245649
 31
0.0
  0
LINE
  5
65FC
330
1A
100
AcDbEntity
  8
隠れ線
 48
5.0
100
AcDbLine
 10
570.999393285179
 20
590.174534245649
 30
0.0
 11
540.999393285179
 21
590.174534245649
 31
0.0
  0
DIMENSION
  5
65FD
330
1A
100
AcDbEntity
  8
寸法線_文字
 48
10.0
100
AcDbDimension
  2
*D22
 10
789.99939328518
 20
461.064177750876
 30
0.0
 11
789.99939328518
 21
572.869355998263
 31
0.0
 70
   160
  3
ISO-25
100
AcDbAlignedDimension
 13
741.999393285179
 23
684.674534245649
 33
0.0
 14
711.599393285179
 24
461.064177750876
 34
0.0
 50
90.0
100
AcDbRotatedDimension
1001
ACAD
1000
DSTYLE
1002
{
1070
     5
1000
OPEN30
1070
     3
1000
（<>）
1070
    41
1040
6.0
1070
   271
1070
     0
1070
   341
1005
2AF4
1070
   272
1070
     1
1070
    73
1070
     0
1070
    48
1040
0.1
1070
    47
1040
0.1
1070
   140
1040
10.0
1002
}
  0
LEADER
  5
65FE
330
1A
100
AcDbEntity
  8
寸法線
 48
10.0
100
AcDbLeader
  3
ISO-25
 76
     3
 10
690.785413578079
 20
461.064177750876
 30
0.0
 10
678.558952291965
 20
394.484675467194
 30
0.0
 10
666.558952291965
 20
394.484675467194
 30
0.0
213
-27.21281245643422
223
0.0
233
0.0
1001
ACAD
1000
DSTYLE
1002
{
1070
     5
1000
OPEN30
1070
   147
1040
0.625
1070
    77
1070
     0
1070
    41
1040
6.0
1070
    47
1040
0.1
1070
    48
1040
0.1
1070
    73
1070
     0
1070
   140
1040
5.0
1070
   271
1070
     1
1070
   272
1070
     1
1070
   341
1005
2AF4
1070
   342
1005
2AF4
1002
}
  0
MTEXT
  5
65FF
330
1A
100
AcDbEntity
  8
寸法線
 48
10.0
100
AcDbMText
 10
641.109356564513
 20
405.016733371615
 30
0.0
 40
10.0
 41
57.713255088558
 71
     1
 72
     5
  1
G 1/2"
  0
LINE
  5
6600
330
1A
100
AcDbEntity
  8
中心線
 48
10.0
100
AcDbLine
 10
698.999393285179
 20
553.704128263965
 30
0.0
 11
698.999393285179
 21
451.064177750876
 31
0.0
  0
DIMENSION
  5
6601
330
1A
100
AcDbEntity
  8
寸法線
 48
10.0
100
AcDbDimension
  2
*D23
 10
528.999393285179
 20
414.064177750876
 30
0.0
 11
635.999393285179
 21
419.690162002845
 31
0.0
 70
    32
  3
ISO-25
100
AcDbAlignedDimension
 13
742.999393285179
 23
539.674534245649
 33
0.0
 14
528.999393285179
 24
534.174534245649
 34
0.0
100
AcDbRotatedDimension
1001
ACAD
1000
DSTYLE
1002
{
1070
     5
1000
OPEN30
1070
     3
1000
（<>）
1070
    41
1040
6.0
1070
   271
1070
     1
1070
   341
1005
2AF4
1070
   272
1070
     1
1070
    73
1070
     0
1070
    48
1040
0.1
1070
    47
1040
0.1
1070
   140
1040
10.0
1002
}
  0
LINE
  5
6602
102
{ACAD_REACTORS
330
6F80
102
}
330
1A
100
AcDbEntity
  8
外形線
100
AcDbLine
 10
506.313910391313
 20
606.674534245649
 30
0.0
 11
515.999393285179
 21
606.674534245649
 31
0.0
  0
DIMENSION
  5
660D
330
1A
100
AcDbEntity
  8
寸法線
 48
10.0
100
AcDbDimension
  2
*D24
 10
377.053506064271
 20
587.374526513955
 30
0.0
 11
377.053506064271
 21
661.001194760635
 31
0.0
 70
   160
  3
ISO-25
100
AcDbAlignedDimension
 13
377.053506064271
 23
635.974530561648
 33
0.0
 14
377.053506064271
 24
587.374526513955
 34
0.0
 50
90.0
100
AcDbRotatedDimension
1001
ACAD
1000
DSTYLE
1002
{
1070
     5
1000
OPEN30
1070
     3
1000
φ<>
1070
    41
1040
6.0
1070
    47
1040
0.1
1070
    48
1040
0.1
1070
    73
1070
     0
1070
   140
1040
10.0
1070
   271
1070
     1
1070
   272
1070
     1
1070
   341
1005
2AF4
1002
}
  0
LEADER
  5
660F
330
1A
100
AcDbEntity
  8
寸法線
 48
10.0
100
AcDbLeader
  3
ISO-25
 76
     3
 10
408.053379024887
 20
635.974534013954
 30
0.0
 10
380.819327067285
 20
717.414711228493
 30
0.0
 10
368.819327067285
 20
717.414711228493
 30
0.0
1001
ACAD
1000
DSTYLE
1002
{
1070
     5
1000
OPEN30
1070
   147
1040
0.625
1070
    77
1070
     0
1070
    41
1040
6.0
1070
    47
1040
0.1
1070
    48
1040
0.1
1070
    73
1070
     0
1070
   140
1040
8.0
1070
   271
1070
     1
1070
   272
1070
     1
1070
   341
1005
2AF4
1070
   342
1005
2AF4
1002
}
  0
MTEXT
  5
6610
330
1A
100
AcDbEntity
  8
寸法線
 48
10.0
100
AcDbMText
 10
336.598298729676
 20
728.349362097058
 30
0.0
 40
2.333873885063
 41
47.634784273192
 71
     1
 72
     5
  1
{\H4.285x;SUS304}
  0
MTEXT
  5
6611
330
1A
100
AcDbEntity
  8
寸法線
 48
10.0
100
AcDbMText
 10
183.907295582479
 20
728.370482287341
 30
0.0
 40
2.333873885063
 41
47.634784273192
 71
     1
 72
     5
  1
{\H4.285x;SUS304}
  0
LEADER
  5
6612
330
1A
100
AcDbEntity
  8
寸法線
 48
10.0
100
AcDbLeader
  3
ISO-25
 76
     3
 10
341.288752395946
 20
619.174531513955
 30
0.0
 10
293.493217729034
 20
717.414711228493
 30
0.0
 10
281.493217729034
 20
717.414711228493
 30
0.0
1001
ACAD
1000
DSTYLE
1002
{
1070
     5
1000
OPEN30
1070
   147
1040
0.625
1070
    77
1070
     0
1070
    41
1040
6.0
1070
    47
1040
0.1
1070
    48
1040
0.1
1070
    73
1070
     0
1070
   140
1040
8.0
1070
   271
1070
     1
1070
   272
1070
     1
1070
   341
1005
2AF4
1070
   342
1005
2AF4
1002
}
  0
DIMENSION
  5
662A
330
1A
100
AcDbEntity
  8
寸法線
 48
10.0
100
AcDbDimension
  2
*D25
 10
302.355288085162
 20
553.148477060077
 30
0.0
 11
262.355288085162
 21
558.773477060077
 31
0.0
 70
    32
  3
ISO-25
100
AcDbAlignedDimension
 13
222.355288085162
 23
571.674534245649
 33
0.0
 14
302.355288085162
 24
599.674534245649
 34
0.0
100
AcDbRotatedDimension
1001
ACAD
1000
DSTYLE
1002
{
1070
     5
1000
OPEN30
1070
    41
1040
6.0
1070
    47
1040
0.1
1070
    48
1040
0.1
1070
    73
1070
     0
1070
   140
1040
10.0
1070
   271
1070
     1
1070
   272
1070
     1
1070
   341
1005
2AF4
1002
}
  0
DIMENSION
  5
662B
330
1A
100
AcDbEntity
  8
寸法線
 48
10.0
100
AcDbDimension
  2
*D26
 10
204.37267496046
 20
571.674534245649
 30
0.0
 11
204.37267496046
 21
611.674534245649
 31
0.0
 70
   160
  3
ISO-25
100
AcDbAlignedDimension
 13
222.355288085162
 23
651.674534245649
 33
0.0
 14
222.355288085162
 24
571.674534245649
 34
0.0
 50
90.0
100
AcDbRotatedDimension
1001
ACAD
1000
DSTYLE
1002
{
1070
     5
1000
OPEN30
1070
    41
1040
6.0
1070
    47
1040
0.1
1070
    48
1040
0.1
1070
    73
1070
     0
1070
   140
1040
10.0
1070
   271
1070
     1
1070
   272
1070
     1
1070
   341
1005
2AF4
1002
}
  0
MTEXT
  5
662C
330
1A
100
AcDbEntity
  8
寸法線
 48
10.0
100
AcDbMText
 10
249.39685115502
 20
728.150557540559
 30
0.0
 40
2.333873885063
 41
47.634784273192
 71
     1
 72
     5
  1
{\H4.285x;SUS304}
  0
LEADER
  5
662D
330
1A
100
AcDbEntity
  8
寸法線
 48
10.0
100
AcDbLeader
  3
ISO-25
 76
     3
 10
254.855288085162
 20
651.674534245649
 30
0.0
 10
228.312558654355
 20
717.414711228493
 30
0.0
 10
216.312558654355
 20
717.414711228493
 30
0.0
1001
ACAD
1000
DSTYLE
1002
{
1070
     5
1000
OPEN30
1070
   147
1040
0.625
1070
    77
1070
     0
1070
    41
1040
6.0
1070
    47
1040
0.1
1070
    48
1040
0.1
1070
    73
1070
     0
1070
   140
1040
8.0
1070
   271
1070
     1
1070
   272
1070
     1
1070
   341
1005
2AF4
1070
   342
1005
2AF4
1002
}
  0
DIMENSION
  5
662E
330
1A
100
AcDbEntity
  8
寸法線
 48
10.0
100
AcDbDimension
  2
*D27
 10
528.999393285179
 20
414.064177750876
 30
0.0
 11
375.677340685171
 21
419.690162002845
 31
0.0
 70
    32
  1
 
  3
ISO-25
100
AcDbAlignedDimension
 13
222.355288085162
 23
571.674534245649
 33
0.0
 14
528.999393285179
 24
534.174534245649
 34
0.0
100
AcDbRotatedDimension
1001
ACAD
1000
DSTYLE
1002
{
1070
     5
1000
OPEN30
1070
    41
1040
6.0
1070
    47
1040
0.1
1070
    48
1040
0.1
1070
    73
1070
     0
1070
   140
1040
10.0
1070
   271
1070
     1
1070
   272
1070
     1
1070
   341
1005
2AF4
1002
}
  0
DIMENSION
  5
668D
330
1A
100
AcDbEntity
  8
寸法線_文字
 48
10.0
100
AcDbDimension
  2
*D13
 10
726.999393285179
 20
436.064177750876
 30
0.0
 11
698.999393285179
 21
441.689177750876
 31
0.0
 70
    32
  3
ISO-25
100
AcDbAlignedDimension
 13
670.999393285179
 23
539.174534245649
 33
0.0
 14
726.999393285179
 24
539.174534245649
 34
0.0
100
AcDbRotatedDimension
1001
ACAD
1000
DSTYLE
1002
{
1070
     5
1000
OPEN30
1070
    41
1040
6.0
1070
    47
1040
0.1
1070
    48
1040
0.1
1070
    73
1070
     0
1070
   140
1040
10.0
1070
   271
1070
     1
1070
   272
1070
     1
1070
   341
1005
2AF4
1002
}
  0
DIMENSION
  5
6690
330
1A
100
AcDbEntity
  8
寸法線
 48
10.0
100
AcDbDimension
  2
*D15
 10
528.999393285179
 20
436.064177750876
 30
0.0
 11
536.999393285179
 21
441.689177750876
 31
0.0
 70
    32
  3
ISO-25
100
AcDbAlignedDimension
 13
544.999393285179
 23
534.174534245649
 33
0.0
 14
528.999393285179
 24
534.174534245649
 34
0.0
100
AcDbRotatedDimension
1001
ACAD
1000
DSTYLE
1002
{
1070
     5
1000
OPEN30
1070
    41
1040
6.0
1070
    47
1040
0.1
1070
    48
1040
0.1
1070
    73
1070
     0
1070
   140
1040
10.0
1070
   271
1070
     1
1070
   272
1070
     1
1070
   341
1005
2AF4
1002
}
  0
ARC
  5
6A65
330
1A
100
AcDbEntity
  8
寸法線
100
AcDbCircle
 10
379.143850188976
 20
417.896526118028
 30
0.0
 40
2.2007375
100
AcDbArc
 50
252.903398883403
 51
337.412611017142
  0
ARC
  5
6A66
330
1A
100
AcDbEntity
  8
寸法線
100
AcDbCircle
 10
373.471777688976
 20
422.049203618028
 30
0.0
 40
6.266422499999999
100
AcDbArc
 50
273.280470979895
 51
33.415912335969
  0
ARC
  5
6A67
330
1A
100
AcDbEntity
  8
寸法線
100
AcDbCircle
 10
381.410010188976
 20
420.793026118028
 30
0.0
 40
5.7867325
100
AcDbArc
 50
123.469024399703
 51
239.773899120639
  0
ARC
  5
6A68
330
1A
100
AcDbEntity
  8
寸法線
100
AcDbCircle
 10
378.406165188976
 20
425.341136118028
 30
0.0
 40
0.3361875
100
AcDbArc
 50
28.230948369005
 51
123.883845843381
  0
LWPOLYLINE
  5
6AA7
330
1A
100
AcDbEntity
  8
外形線
100
AcDbPolyline
 90
       10
 70
     0
 43
0.0
 10
544.999393285179
 20
569.674534245649
 10
544.999393285179
 20
569.674534245649
 42
-0.414213562373
 10
546.999393285179
 20
571.674534245649
 10
568.999393285179
 20
571.674534245649
 10
570.999393285179
 20
573.674534245649
 10
570.999393285179
 20
649.674534245649
 10
568.999393285179
 20
651.674534245649
 10
546.999393285179
 20
651.674534245649
 42
-0.414213562373
 10
544.999393285179
 20
653.674534245649
 10
544.999393285179
 20
653.674534245649
  0
LWPOLYLINE
  5
6AA8
330
1A
100
AcDbEntity
  8
外形線
100
AcDbPolyline
 90
        6
 70
     0
 43
0.0
 10
544.999393285179
 20
689.174534245649
 10
544.999393285179
 20
689.174534245649
 10
528.999393285179
 20
689.174534245649
 10
528.999393285179
 20
534.174534245649
 10
544.999393285179
 20
534.174534245649
 10
544.999393285179
 20
689.174534245649
  0
LINE
  5
6AAB
330
1A
100
AcDbEntity
  8
中心線
 48
10.0
100
AcDbLine
 10
522.999393285179
 20
676.674534245649
 30
0.0
 11
550.999393285179
 21
676.674534245649
 31
0.0
  0
LINE
  5
6AAD
330
1A
100
AcDbEntity
  8
中心線
 48
10.0
100
AcDbLine
 10
522.999393285179
 20
546.674534245649
 30
0.0
 11
550.999393285179
 21
546.674534245649
 31
0.0
  0
MTEXT
  5
6F6C
330
1A
100
AcDbEntity
  8
寸法線
 48
10.0
100
AcDbMText
 10
523.335263736219
 20
728.937736532596
 30
0.0
 40
10.0
 41
70.272138300043
 71
     1
 72
     5
  1
固着剤使用
  0
LEADER
  5
6F6D
330
1A
100
AcDbEntity
  8
寸法線
 48
10.0
100
AcDbLeader
  3
ISO-25
 76
     3
 10
552.729764545942
 20
633.174534245649
 30
0.0
 10
582.24212211768
 20
717.414711228493
 30
0.0
 10
570.24212211768
 20
717.414711228493
 30
0.0
1001
ACAD
1000
DSTYLE
1002
{
1070
     5
1000
OPEN30
1070
   147
1040
0.625
1070
    77
1070
     0
1070
    41
1040
6.0
1070
    47
1040
0.1
1070
    48
1040
0.1
1070
    73
1070
     0
1070
   140
1040
5.0
1070
   271
1070
     1
1070
   272
1070
     1
1070
   341
1005
2AF4
1070
   342
1005
2AF4
1002
}
  0
SPLINE
  5
6F6F
102
{ACAD_REACTORS
330
6F80
102
}
330
1A
100
AcDbEntity
  8
細線
 48
10.0
100
AcDbSpline
210
0.0
220
0.0
230
1.0
 70
     8
 71
     3
 72
    14
 73
    10
 74
     0
 42
0.0000000001
 43
0.0000000001
 40
0.0
 40
0.0
 40
0.0
 40
0.0
 40
8.906377707623761
 40
16.51439380156773
 40
24.19291039280099
 40
32.33410512098785
 40
39.13892158497633
 40
46.25911735790392
 40
49.63832666404494
 40
49.63832666404494
 40
49.63832666404494
 40
49.63832666404494
 10
505.9743246999724
 20
635.9745394773433
 30
0.0
 10
505.9743246999724
 20
633.0057469081355
 30
0.0
 10
503.2786165594241
 20
627.5223272260052
 30
0.0
 10
508.2467063125488
 20
619.7403816416197
 30
0.0
 10
503.1919335482801
 20
612.1187461517643
 30
0.0
 10
508.2667827676952
 20
604.717615464737
 30
0.0
 10
503.6185483240051
 20
597.6067023188282
 30
0.0
 10
507.4482358969636
 20
591.8222022200885
 30
0.0
 10
505.5909671455171
 20
588.4948127552309
 30
0.0
 10
505.5242905970841
 20
587.3745319773436
 30
0.0
  0
HATCH
  5
6F80
330
1A
100
AcDbEntity
  8
細線
 48
10.0
100
AcDbHatch
 10
0.0
 20
0.0
 30
0.0
210
0.0
220
0.0
230
1.0
  2
ANSI31
 70
     0
 71
     1
 91
        2
 92
        5
 93
        4
 72
     4
 94
        3
 73
     0
 74
     0
 95
        9
 96
        5
 40
19.67577950473581
 40
19.67577950473581
 40
19.67577950473581
 40
19.67577950473581
 40
24.19291039280099
 40
24.79366609534988
 40
24.79366609534988
 40
24.79366609534988
 40
24.79366609534988
 10
505.9994045662061
 20
616.6745342456489
 10
505.5190157600077
 20
615.2072030122471
 10
504.8648584957366
 20
613.5403801382006
 10
504.939323153726
 20
611.8705717045934
 10
504.9565877992592
 20
611.6745342456489
 72
     1
 10
504.9565877992591
 20
611.674534245649
 11
515.9993932851794
 21
611.6745342456489
 72
     1
 10
515.9993932851794
 20
611.6745342456489
 11
515.9993932851794
 21
616.674534245649
 72
     1
 10
515.9993932851794
 20
616.674534245649
 11
505.9994045662062
 21
616.6745342456492
 97
        4
330
65ED
330
6F6F
330
656B
330
658C
 92
        5
 93
        4
 72
     1
 10
515.9993932851794
 20
606.674534245649
 11
515.9993932851794
 21
611.6745342456489
 72
     1
 10
515.9993932851794
 20
611.6745342456489
 11
504.9565877992594
 21
611.674534245649
 72
     4
 94
        3
 73
     0
 74
     0
 95
        8
 96
        4
 40
24.79366609534988
 40
24.79366609534988
 40
24.79366609534988
 40
24.79366609534988
 40
29.90200124602872
 40
29.90200124602872
 40
29.90200124602872
 40
29.90200124602872
 10
504.9565877992592
 20
611.674534245649
 10
505.1033922245309
 20
610.0075920291589
 10
505.8664965729669
 20
608.3385229718103
 10
506.313910391313
 20
606.674534245649
 72
     1
 10
506.3139103913128
 20
606.674534245649
 11
515.9993932851794
 21
606.674534245649
 97
        4
330
656B
330
6F6F
330
6602
330
658C
 75
     0
 76
     1
 52
0.0
 41
1.25
 77
     0
 78
     1
 53
45.0
 43
0.0
 44
0.0
 45
-2.80633003783411
 46
2.806330037834111
 79
     0
 47
0.063875784029
 98
        2
 10
513.3762813181056
 20
614.9179287665204
 10
512.9928353784271
 20
608.5303499165955
  0
LWPOLYLINE
  5
6FB1
330
1A
100
AcDbEntity
  8
外形線
100
AcDbPolyline
 90
        7
 70
     0
 43
0.0
 10
302.355288085162
 20
626.674534245649
 10
287.355288085162
 20
651.674534245649
 10
222.355288085162
 20
651.674534245649
 10
222.355288085162
 20
571.674534245649
 10
287.355288085162
 20
571.674534245649
 10
302.355288085162
 20
596.674534245649
 10
302.355288085162
 20
599.674455495649
  0
LINE
  5
6FB2
330
1A
100
AcDbEntity
  8
外形線
100
AcDbLine
 10
321.355309467381
 20
623.674455495649
 30
0.0
 11
279.955315467381
 21
623.674455495649
 31
0.0
  0
LINE
  5
6FB3
330
1A
100
AcDbEntity
  8
外形線
 48
10.0
100
AcDbLine
 10
302.355288085162
 20
626.674534245649
 30
0.0
 11
302.355288085162
 21
623.674455495649
 31
0.0
  0
LINE
  5
6FB4
330
1A
100
AcDbEntity
  8
外形線
 48
10.0
100
AcDbLine
 10
321.355309467381
 20
623.674455495649
 30
0.0
 11
321.355309467381
 21
599.674455495649
 31
0.0
  0
LINE
  5
6FB5
330
1A
100
AcDbEntity
  8
外形線
 48
10.0
100
AcDbLine
 10
321.355309467381
 20
622.174455495649
 30
0.0
 11
321.355309467381
 21
601.174455495649
 31
0.0
  0
LINE
  5
6FB6
330
1A
100
AcDbEntity
  8
外形線
 48
10.0
100
AcDbLine
 10
321.355309467381
 20
619.174455495649
 30
0.0
 11
321.355309467381
 21
604.174455495649
 31
0.0
  0
INSERT
  5
6FB7
330
1A
100
AcDbEntity
  8
外形線
 48
10.0
100
AcDbBlockReference
  2
A$C02273BBC
 10
321.355309058864
 20
599.689309155486
 30
0.0
  0
LINE
  5
6FB8
330
1A
100
AcDbEntity
  8
外形線
 48
10.0
100
AcDbLine
 10
321.355309467381
 20
603.392046495649
 30
0.0
 11
321.355309467381
 21
619.956864495649
 31
0.0
  0
LINE
  5
6FB9
330
1A
100
AcDbEntity
  8
外形線
 48
10.0
100
AcDbLine
 10
321.355309467381
 20
623.68930906622
 30
0.0
 11
321.355309467381
 21
599.68930906622
 31
0.0
  0
LINE
  5
6FBA
330
1A
100
AcDbEntity
  8
中心線
 48
10.0
100
AcDbLine
 10
295.555321467381
 20
617.674455495649
 30
0.0
 11
295.555321467381
 21
605.674455495649
 31
0.0
  0
LINE
  5
6FBB
330
1A
100
AcDbEntity
  8
中心線
 48
10.0
100
AcDbLine
 10
283.555321467381
 20
617.674455495649
 30
0.0
 11
283.555321467381
 21
605.674455495649
 31
0.0
  0
CIRCLE
  5
6FBC
330
1A
100
AcDbEntity
  8
外形線
100
AcDbCircle
 10
295.555321467381
 20
611.674455495649
 30
0.0
 40
2.4
  0
CIRCLE
  5
6FBD
330
1A
100
AcDbEntity
  8
外形線
100
AcDbCircle
 10
283.555321467381
 20
611.674455495649
 30
0.0
 40
2.4
  0
LINE
  5
6FBE
330
1A
100
AcDbEntity
  8
外形線
100
AcDbLine
 10
276.555321467381
 20
621.074449495649
 30
0.0
 11
276.555321467381
 21
611.674455495649
 31
0.0
  0
LINE
  5
6FBF
330
1A
100
AcDbEntity
  8
細線
100
AcDbLine
 10
278.546441467381
 20
617.674455495649
 30
0.0
 11
321.355309467381
 21
617.674455495649
 31
0.0
  0
LINE
  5
6FC0
330
1A
100
AcDbEntity
  8
外形線
100
AcDbLine
 10
276.555321467381
 20
621.074449495649
 30
0.0
 11
279.955315467381
 21
623.674455495649
 31
0.0
  0
ARC
  5
6FC1
330
1A
100
AcDbEntity
  8
細線
100
AcDbCircle
 10
280.307221848117
 20
620.988633126231
 30
0.0
 40
3.75288168161888
100
AcDbArc
 50
178.689715050974
 51
242.018860308433
  0
LINE
  5
6FC2
330
1A
100
AcDbEntity
  8
外形線
100
AcDbLine
 10
321.355309467381
 20
599.674455495649
 30
0.0
 11
279.955315467381
 21
599.674455495649
 31
0.0
  0
LINE
  5
6FC3
330
1A
100
AcDbEntity
  8
外形線
100
AcDbLine
 10
276.555321467381
 20
602.274461495649
 30
0.0
 11
276.555321467381
 21
611.674455495649
 31
0.0
  0
LINE
  5
6FC4
330
1A
100
AcDbEntity
  8
細線
100
AcDbLine
 10
278.546441467381
 20
605.674455495649
 30
0.0
 11
321.355309467381
 21
605.674455495649
 31
0.0
  0
LINE
  5
6FC5
330
1A
100
AcDbEntity
  8
外形線
100
AcDbLine
 10
276.555321467381
 20
602.274461495649
 30
0.0
 11
279.955315467381
 21
599.674455495649
 31
0.0
  0
ARC
  5
6FC6
330
1A
100
AcDbEntity
  8
細線
100
AcDbCircle
 10
286.591019681051
 20
611.674455495649
 30
0.0
 40
10.03569821366904
100
AcDbArc
 50
143.282806020859
 51
216.717193979141
  0
ARC
  5
6FC7
330
1A
100
AcDbEntity
  8
細線
100
AcDbCircle
 10
280.307221848117
 20
602.360277865069
 30
0.0
 40
3.75288168161888
100
AcDbArc
 50
117.981139691567
 51
181.310284949026
  0
ARC
  5
6FD5
330
1A
100
AcDbEntity
  8
細線
100
AcDbCircle
 10
451.426436566167
 20
623.824531697675
 30
0.0
 40
24.2989225
100
AcDbArc
 50
149.998517300304
 51
210.001465099601
  0
ARC
  5
6FD6
330
1A
100
AcDbEntity
  8
細線
100
AcDbCircle
 10
409.334456566167
 20
599.524529197675
 30
0.0
 40
24.3038175
100
AcDbArc
 50
330.00518345857
 51
29.994838637021
  0
ARC
  5
6FD7
330
1A
100
AcDbEntity
  8
細線
100
AcDbCircle
 10
431.821561566167
 20
599.524529197675
 30
0.0
 40
24.3154425
100
AcDbArc
 50
330.020997093713
 51
29.978967706098
  0
ARC
  5
6FD8
330
1A
100
AcDbEntity
  8
細線
100
AcDbCircle
 10
473.081099066167
 20
623.824531697675
 30
0.0
 40
23.5701675
100
AcDbArc
 50
148.970287241164
 51
211.029695158745
  0
LINE
  5
6FD9
330
1A
100
AcDbEntity
  8
外形線
100
AcDbLine
 10
449.999809210739
 20
619.04887942937
 30
0.0
 11
443.889966587931
 21
619.04887942937
 31
0.0
  0
LINE
  5
6FDA
330
1A
100
AcDbEntity
  8
外形線
100
AcDbLine
 10
443.889966587931
 20
604.30015192937
 30
0.0
 11
455.663419117443
 21
604.30015192937
 31
0.0
  0
LINE
  5
6FDB
330
1A
100
AcDbEntity
  8
外形線
100
AcDbLine
 10
438.014876587931
 20
604.30015192937
 30
0.0
 11
433.164458089411
 21
604.30015192937
 31
0.0
  0
LINE
  5
6FDC
330
1A
100
AcDbEntity
  8
外形線
100
AcDbLine
 10
438.014876587931
 20
619.04887942937
 30
0.0
 11
427.601433311745
 21
619.04887942937
 31
0.0
  0
ARC
  5
6FDD
330
1A
100
AcDbEntity
  8
細線
100
AcDbCircle
 10
431.628475282988
 20
607.987340967055
 30
0.0
 40
7.374382499999999
100
AcDbArc
 50
330.000019847839
 51
30.000019847843
  0
ARC
  5
6FDE
330
1A
100
AcDbEntity
  8
細線
100
AcDbCircle
 10
431.628472728428
 20
615.361723467055
 30
0.0
 40
7.374382499999999
100
AcDbArc
 50
330.000019847847
 51
30.000019847843
  0
ARC
  5
6FDF
330
1A
100
AcDbEntity
  8
細線
100
AcDbCircle
 10
444.401277892873
 20
615.361727891685
 30
0.0
 40
7.374382499999999
100
AcDbArc
 50
150.000019847847
 51
210.000019847843
  0
ARC
  5
6FE0
330
1A
100
AcDbEntity
  8
細線
100
AcDbCircle
 10
450.276336694201
 20
615.36170692937
 30
0.0
 40
7.374345
100
AcDbArc
 50
150.0
 51
210.0
  0
ARC
  5
6FE1
330
1A
100
AcDbEntity
  8
細線
100
AcDbCircle
 10
450.276336694201
 20
607.98736192937
 30
0.0
 40
7.374345
100
AcDbArc
 50
150.0
 51
210.0
  0
ARC
  5
6FE2
330
1A
100
AcDbEntity
  8
細線
100
AcDbCircle
 10
437.50359648166
 20
607.98736192937
 30
0.0
 40
7.374345
100
AcDbArc
 50
330.0
 51
30.0
  0
LINE
  5
6FE5
330
1A
100
AcDbEntity
  8
外形線
100
AcDbLine
 10
452.883783993769
 20
587.374526513955
 30
0.0
 11
528.999393285179
 21
587.374526513955
 31
0.0
  0
LINE
  5
6FE6
330
1A
100
AcDbEntity
  8
外形線
100
AcDbLine
 10
430.383280282919
 20
587.374526513955
 30
0.0
 11
352.905449967381
 21
587.374526513955
 31
0.0
  0
LINE
  5
6FE7
330
1A
100
AcDbEntity
  8
外形線
100
AcDbLine
 10
430.383267591907
 20
635.974522937404
 30
0.0
 11
352.905449967381
 21
635.974534013954
 31
0.0
  0
LINE
  5
6FE8
330
1A
100
AcDbEntity
  8
外形線
100
AcDbLine
 10
528.999393285179
 20
635.974534013954
 30
0.0
 11
452.88381608819
 21
635.974534013954
 31
0.0
  0
LINE
  5
6FE9
330
1A
100
AcDbEntity
  8
隠れ線
 48
5.0
100
AcDbLine
 10
528.999393285179
 20
635.974534013954
 30
0.0
 11
570.999393285179
 21
635.974534013954
 31
0.0
  0
LINE
  5
6FEA
330
1A
100
AcDbEntity
  8
隠れ線
 48
5.0
100
AcDbLine
 10
528.999393285179
 20
587.374526513955
 30
0.0
 11
570.999393285179
 21
587.374526513955
 31
0.0
  0
LINE
  5
6FEB
330
1A
100
AcDbEntity
  8
外形線
100
AcDbLine
 10
352.905449967381
 20
635.974534013954
 30
0.0
 11
352.905449967381
 21
587.374526513955
 31
0.0
  0
LINE
  5
6FEC
330
1A
100
AcDbEntity
  8
外形線
100
AcDbLine
 10
352.905449967381
 20
604.425804013955
 30
0.0
 11
334.955315467381
 21
604.425804013955
 31
0.0
  0
LINE
  5
6FED
330
1A
100
AcDbEntity
  8
外形線
100
AcDbLine
 10
352.905449967381
 20
619.174531513955
 30
0.0
 11
334.955315467381
 21
619.174531513955
 31
0.0
  0
DIMENSION
  5
6FEE
330
1A
100
AcDbEntity
  8
寸法線
 48
10.0
100
AcDbDimension
  2
*D44
 10
348.712911160681
 20
619.174531513955
 30
0.0
 11
343.087911160681
 21
636.256638295141
 31
0.0
 70
    32
  1
φ15
  3
ISO-25
100
AcDbAlignedDimension
 13
344.155449967381
 23
604.425804013955
 33
0.0
 14
348.712911160681
 24
619.174531513955
 34
0.0
 50
90.0
100
AcDbRotatedDimension
1001
ACAD
1000
DSTYLE
1002
{
1070
     5
1000
OPEN30
1070
    41
1040
6.0
1070
    47
1040
0.1
1070
    48
1040
0.1
1070
    73
1070
     0
1070
   140
1040
10.0
1070
   271
1070
     1
1070
   272
1070
     1
1070
   341
1005
2AF4
1002
}
  0
MTEXT
  5
7007
330
1A
100
AcDbEntity
  8
寸法線
 48
10.0
100
AcDbMText
 10
451.464006738404
 20
745.099614145412
 30
0.0
 40
10.0
 41
70.272138300043
 71
     1
 72
     5
  1
フランジ\Pアルミ鋳物
  0
LEADER
  5
7008
330
1A
100
AcDbEntity
  8
寸法線
 48
10.0
100
AcDbLeader
  3
ISO-25
 76
     3
 10
536.999393285179
 20
689.174534245649
 30
0.0
 10
510.370865119866
 20
717.414711228493
 30
0.0
 10
498.370865119866
 20
717.414711228493
 30
0.0
1001
ACAD
1000
DSTYLE
1002
{
1070
     5
1000
OPEN30
1070
   147
1040
0.625
1070
    77
1070
     0
1070
    41
1040
6.0
1070
    47
1040
0.1
1070
    48
1040
0.1
1070
    73
1070
     0
1070
   140
1040
5.0
1070
   271
1070
     1
1070
   272
1070
     1
1070
   341
1005
2AF4
1070
   342
1005
2AF4
1002
}
  0
ARC
  5
7022
330
1A
100
AcDbEntity
  8
細線
100
AcDbCircle
 10
409.321015211425
 20
623.824532458738
 30
0.0
 40
24.3154425
100
AcDbArc
 50
348.673240081289
 51
29.978967706098
  0
ARC
  5
7023
330
1A
100
AcDbEntity
  8
細線
100
AcDbCircle
 10
475.205961566167
 20
599.744064197675
 30
0.0
 40
25.5202875
100
AcDbArc
 50
169.715964090112
 51
208.992486422379
  0
MTEXT
  5
719B
330
1A
100
AcDbEntity
  8
寸法線
 62
     1
 48
10.0
100
AcDbMText
 10
760.417452467245
 20
453.0100921308
 30
0.0
 40
8.0
 41
152.261044059946
 71
     1
 72
     1
  1
※ケーブルグランドをご指定下さい
  0
TEXT
  5
719C
330
1A
100
AcDbEntity
  8
寸法線
100
AcDbText
 10
64.308071591341
 20
209.202618040089
 30
0.0
 40
10.0
  1
１００   ０
 41
0.593716175771
  7
EXCADSTD
 72
     5
 11
100.920569097213
 21
209.202618040089
 31
0.0
100
AcDbText
  0
CIRCLE
  5
719D
330
1A
100
AcDbEntity
  8
寸法線
100
AcDbCircle
 10
99.102117051961
 20
224.730185540088
 30
0.0
 40
3.75
  0
CIRCLE
  5
719E
330
1A
100
AcDbEntity
  8
寸法線
100
AcDbCircle
 10
99.102117051961
 20
224.730185540088
 30
0.0
 40
1.9999975
  0
CIRCLE
  5
719F
330
1A
100
AcDbEntity
  8
寸法線
100
AcDbCircle
 10
74.112109551961
 20
224.730185540088
 30
0.0
 40
3.75
  0
CIRCLE
  5
71A0
330
1A
100
AcDbEntity
  8
寸法線
100
AcDbCircle
 10
74.112109551961
 20
224.730185540088
 30
0.0
 40
1.9999975
  0
CIRCLE
  5
71A1
330
1A
100
AcDbEntity
  8
寸法線
100
AcDbCircle
 10
49.479084551961
 20
224.730185540088
 30
0.0
 40
3.75
  0
CIRCLE
  5
71A2
330
1A
100
AcDbEntity
  8
寸法線
100
AcDbCircle
 10
49.479084551961
 20
224.730185540088
 30
0.0
 40
1.9999975
  0
CIRCLE
  5
71A3
330
1A
100
AcDbEntity
  8
寸法線
100
AcDbCircle
 10
23.596592051961
 20
224.730185540088
 30
0.0
 40
3.75
  0
CIRCLE
  5
71A4
330
1A
100
AcDbEntity
  8
寸法線
100
AcDbCircle
 10
23.596592051961
 20
224.730185540088
 30
0.0
 40
1.9999975
  0
CIRCLE
  5
71A5
330
1A
100
AcDbEntity
  8
寸法線
100
AcDbCircle
 10
-2.285900448039
 20
224.730185540088
 30
0.0
 40
3.75
  0
TEXT
  5
71A6
330
1A
100
AcDbEntity
  8
寸法線
100
AcDbText
 10
67.744389551961
 20
276.534498040088
 30
0.0
 40
11.206896551724
  1
シ　ロ
  7
EXCADVERT
 72
     3
 11
67.744389551961
 21
244.034498040088
 31
0.0
100
AcDbText
  0
TEXT
  5
71A7
330
1A
100
AcDbEntity
  8
寸法線
100
AcDbText
 10
-49.515970448039
 20
196.020640540089
 30
0.0
 40
10.0
  1
接地端子
 41
0.869565217391
  7
EXCADSTD
 72
     5
 11
-9.515970448039
 21
196.020640540089
 31
0.0
100
AcDbText
  0
TEXT
  5
71A8
330
1A
100
AcDbEntity
  8
寸法線
100
AcDbText
 10
-31.108549524326
 20
209.270915540089
 30
0.0
 40
10.0
  1
E
100
AcDbText
  0
CIRCLE
  5
71A9
330
1A
100
AcDbEntity
  8
寸法線
100
AcDbCircle
 10
-28.168390448039
 20
224.730185540088
 30
0.0
 40
1.9999975
  0
TEXT
  5
71AA
330
1A
100
AcDbEntity
  8
寸法線
100
AcDbText
 10
92.603017051961
 20
276.534498040088
 30
0.0
 40
10.955056179775
  1
ク　ロ
  7
EXCADVERT
 72
     3
 11
92.603017051961
 21
244.034498040088
 31
0.0
100
AcDbText
  0
TEXT
  5
71AB
330
1A
100
AcDbEntity
  8
寸法線
100
AcDbText
 10
-8.506525448039
 20
276.534498040088
 30
0.0
 40
9.393939398455
  1
ミドリ
  7
EXCADVERT
 72
     3
 11
-8.506525448039
 21
245.534498025187
 31
0.0
100
AcDbText
  0
TEXT
  5
71AC
330
1A
100
AcDbEntity
  8
寸法線
100
AcDbText
 10
43.431417051961
 20
276.534498040088
 30
0.0
 40
10.051546391753
  1
ア　カ
  7
EXCADVERT
 72
     3
 11
43.431417051961
 21
244.034498040088
 31
0.0
100
AcDbText
  0
CIRCLE
  5
71AD
330
1A
100
AcDbEntity
  8
寸法線
100
AcDbCircle
 10
99.111577051961
 20
311.881713040089
 30
0.0
 40
11.4722475
  0
LINE
  5
71AE
330
1A
100
AcDbEntity
  8
寸法線
100
AcDbLine
 10
74.112109551961
 20
304.986170540088
 30
0.0
 11
76.112079551961
 21
323.262138040088
 31
0.0
  0
LINE
  5
71AF
330
1A
100
AcDbEntity
  8
寸法線
100
AcDbLine
 10
23.596592051961
 20
304.986170540088
 30
0.0
 11
15.779134551961
 21
323.262138040088
 31
0.0
  0
CIRCLE
  5
71B0
330
1A
100
AcDbEntity
  8
寸法線
100
AcDbCircle
 10
74.112109551961
 20
323.262138040088
 30
0.0
 40
2.0000075
  0
LINE
  5
71B1
330
1A
100
AcDbEntity
  8
寸法線
100
AcDbLine
 10
74.112109551961
 20
349.895170540089
 30
0.0
 11
74.112109551961
 21
325.262145540089
 31
0.0
  0
CIRCLE
  5
71B2
330
1A
100
AcDbEntity
  8
寸法線
100
AcDbCircle
 10
33.414097051961
 20
323.262138040088
 30
0.0
 40
2.0000075
  0
LINE
  5
71B3
330
1A
100
AcDbEntity
  8
寸法線
100
AcDbLine
 10
33.414097051961
 20
349.895170540089
 30
0.0
 11
33.414097051961
 21
325.262145540089
 31
0.0
  0
CIRCLE
  5
71B4
330
1A
100
AcDbEntity
  8
寸法線
100
AcDbCircle
 10
13.779087051961
 20
323.262138040088
 30
0.0
 40
2.0000075
  0
TEXT
  5
71B5
330
1A
100
AcDbEntity
  8
寸法線
100
AcDbText
 10
19.861692446613
 20
209.516739288304
 30
0.0
 40
10.0
  1
C
100
AcDbText
  0
TEXT
  5
71B6
330
1A
100
AcDbEntity
  8
寸法線
100
AcDbText
 10
45.283683094769
 20
209.766754288304
 30
0.0
 40
10.0
  1
H
100
AcDbText
  0
TEXT
  5
71B7
330
1A
100
AcDbEntity
  8
寸法線
100
AcDbText
 10
-5.701355053388
 20
209.579244288304
 30
0.0
 40
10.0
  1
L
100
AcDbText
  0
CIRCLE
  5
71B8
330
1A
100
AcDbEntity
  8
寸法線
100
AcDbCircle
 10
74.112109551961
 20
302.986183040089
 30
0.0
 40
2.0000075
  0
LINE
  5
71B9
330
1A
100
AcDbEntity
  8
寸法線
100
AcDbLine
 10
74.112109551961
 20
300.986175540088
 30
0.0
 11
74.112109551961
 21
228.480185540088
 31
0.0
  0
CIRCLE
  5
71BA
330
1A
100
AcDbEntity
  8
寸法線
100
AcDbCircle
 10
-2.285900448039
 20
224.730185540088
 30
0.0
 40
1.9999975
  0
LINE
  5
71BB
330
1A
100
AcDbEntity
  8
寸法線
100
AcDbLine
 10
99.102117051961
 20
300.373343040089
 30
0.0
 11
99.102117051961
 21
228.480185540088
 31
0.0
  0
LINE
  5
71BC
330
1A
100
AcDbEntity
  8
寸法線
100
AcDbLine
 10
49.479084551961
 20
349.895170540089
 30
0.0
 11
49.479084551961
 21
228.480185540088
 31
0.0
  0
LINE
  5
71BD
330
1A
100
AcDbEntity
  8
寸法線
100
AcDbLine
 10
23.596592051961
 20
300.986175540088
 30
0.0
 11
23.596592051961
 21
228.480185540088
 31
0.0
  0
CIRCLE
  5
71BE
330
1A
100
AcDbEntity
  8
寸法線
100
AcDbCircle
 10
23.596592051961
 20
302.986183040089
 30
0.0
 40
2.0000075
  0
LINE
  5
71BF
330
1A
100
AcDbEntity
  8
寸法線
100
AcDbLine
 10
99.102117051961
 20
349.895170540089
 30
0.0
 11
99.102117051961
 21
323.353958040089
 31
0.0
  0
TEXT
  5
71C0
330
1A
100
AcDbEntity
  8
寸法線
100
AcDbText
 10
91.600514551961
 20
304.103240540089
 30
0.0
 40
15.0
  1
Ｍ
 41
1.25
  7
EXCADSTD
 72
     5
 11
106.600514551961
 21
304.103240540089
 31
0.0
100
AcDbText
  0
TEXT
  5
71C1
330
1A
100
AcDbEntity
  8
寸法線
100
AcDbText
 10
17.101459551961
 20
265.159223040089
 30
0.0
 40
10.714285714286
  1
キ
  7
EXCADVERT
 72
     3
 11
17.101459551961
 21
255.159223040089
 31
0.0
100
AcDbText
  0
TEXT
  5
71C2
330
1A
100
AcDbEntity
  8
寸法線
100
AcDbText
 10
73.431849172365
 20
182.207803168104
 30
0.0
 40
11.25
  1
電源
100
AcDbText
  0
LINE
  5
71C3
330
1A
100
AcDbEntity
  8
寸法線
100
AcDbLine
 10
74.112109551961
 20
349.895170540089
 30
0.0
 11
99.102117051961
 21
349.895170540089
 31
0.0
  0
LINE
  5
71C4
330
1A
100
AcDbEntity
  8
寸法線
100
AcDbLine
 10
33.414097051961
 20
349.895170540089
 30
0.0
 11
49.479084551961
 21
349.895170540089
 31
0.0
  0
LINE
  5
71C5
330
1A
100
AcDbEntity
  8
寸法線
100
AcDbLine
 10
13.779087051961
 20
349.895170540089
 30
0.0
 11
13.779087051961
 21
325.262145540089
 31
0.0
  0
LINE
  5
71C6
330
1A
100
AcDbEntity
  8
寸法線
100
AcDbLine
 10
-2.285900448039
 20
349.895170540089
 30
0.0
 11
13.779087051961
 21
349.895170540089
 31
0.0
  0
LINE
  5
71C7
330
1A
100
AcDbEntity
  8
寸法線
100
AcDbLine
 10
-2.285900448039
 20
228.480185540088
 30
0.0
 11
-2.285900448039
 21
349.895170540089
 31
0.0
  0
MTEXT
  5
71C8
330
1A
100
AcDbEntity
  8
寸法線
 48
10.0
100
AcDbMText
 10
138.427751125971
 20
312.096910173833
 30
0.0
 40
10.0
 41
414.880882725883
 71
     1
 72
     5
  1
内蔵マイクロスイッチ\PAC250V 6A  抵抗負荷\PDC125V 0.5A 抵抗負荷
  0
LINE
  5
71C9
330
1A
100
AcDbEntity
  8
外形線
100
AcDbLine
 10
914.440444401295
 20
341.56139474782
 30
0.0
 11
914.440444401295
 21
241.737066123349
 31
0.0
  0
LINE
  5
71CA
330
1A
100
AcDbEntity
  8
外形線
100
AcDbLine
 10
707.335514919926
 20
341.56139474782
 30
0.0
 11
914.440444401295
 21
341.56139474782
 31
0.0
  0
MTEXT
  5
71CB
102
{ACAD_XDICTIONARY
360
7240
102
}
330
1A
100
AcDbEntity
  8
寸法線
 48
10.0
100
AcDbMText
 10
785.708786988091
 20
308.679631707575
 30
0.0
 40
11.25
 41
147.712275705142
 71
     1
 72
     5
  1
労検第T66814号
1001
ACADANNOTATIVE
1000
AnnotativeData
1002
{
1070
     1
1070
     0
1002
}
  0
LINE
  5
71CC
102
{ACAD_REACTORS
330
71D1
102
}
330
1A
100
AcDbEntity
  8
外形線
100
AcDbLine
 10
768.205939760181
 20
327.762683580561
 30
0.0
 11
768.205939760181
 21
297.762683580561
 31
0.0
  0
LINE
  5
71CD
102
{ACAD_REACTORS
330
71D1
102
}
330
1A
100
AcDbEntity
  8
外形線
100
AcDbLine
 10
718.205939760181
 20
297.762683580561
 30
0.0
 11
768.205939760181
 21
297.762683580561
 31
0.0
  0
LINE
  5
71CE
102
{ACAD_REACTORS
330
71D1
102
}
330
1A
100
AcDbEntity
  8
外形線
100
AcDbLine
 10
718.205939760181
 20
327.762683580561
 30
0.0
 11
768.205939760181
 21
327.762683580561
 31
0.0
  0
LINE
  5
71CF
102
{ACAD_REACTORS
330
71D1
102
}
330
1A
100
AcDbEntity
  8
外形線
100
AcDbLine
 10
718.205939760181
 20
327.762683580561
 30
0.0
 11
718.205939760181
 21
297.762683580561
 31
0.0
  0
MTEXT
  5
71D0
330
1A
100
AcDbEntity
  8
寸法線
 48
10.0
100
AcDbMText
 10
788.961262996302
 20
335.611921519132
 30
0.0
 40
15.0
 41
88.948093776244
 71
     1
 72
     5
  1
{\H1.25x;d2G4}
  0
HATCH
  5
71D1
330
1A
100
AcDbEntity
  8
細線
 48
10.0
100
AcDbHatch
 10
0.0
 20
0.0
 30
0.0
210
0.0
220
0.0
230
1.0
  2
ANSI31
 70
     0
 71
     1
 91
        1
 92
        7
 72
     0
 73
     1
 93
        4
 10
718.2059397601809
 20
327.7626835805611
 10
718.2059397601809
 20
297.7626835805611
 10
768.2059397601809
 20
297.7626835805611
 10
768.2059397601809
 20
327.7626835805611
 97
        4
330
71CF
330
71CD
330
71CC
330
71CE
 75
     0
 76
     1
 52
0.0
 41
1.0
 77
     0
 78
     1
 53
45.0
 43
-145.8115876793578
 44
-148.3570562208135
 45
-2.245064030267288
 46
2.245064030267288
 79
     0
 47
0.627807578291
 98
        1
 10
732.5770935199523
 20
316.4850481202247
  0
LINE
  5
71D2
330
1A
100
AcDbEntity
  8
外形線
100
AcDbLine
 10
914.440444401295
 20
241.737066123349
 30
0.0
 11
707.335514919926
 21
241.737066123349
 31
0.0
  0
LINE
  5
71D3
330
1A
100
AcDbEntity
  8
外形線
100
AcDbLine
 10
707.335514919926
 20
241.737066123349
 30
0.0
 11
707.335514919926
 21
341.56139474782
 31
0.0
  0
MTEXT
  5
71D4
102
{ACAD_XDICTIONARY
360
71D5
102
}
330
1A
100
AcDbEntity
  8
寸法線
 48
10.0
100
AcDbMText
 10
718.005040939991
 20
286.511716404728
 30
0.0
 40
8.75
 41
266.161527505396
 71
     1
 72
     5
  1
防爆構造：耐圧防爆構造\P爆発等級及び発火度：2G4\P導線引込方式：耐圧パッキン式引込方式
1001
ACADANNOTATIVE
1000
AnnotativeData
1002
{
1070
     1
1070
     0
1002
}
  0
MTEXT
  5
71D8
102
{ACAD_XDICTIONARY
360
71D9
102
}
330
1A
100
AcDbEntity
  8
寸法線
 62
     1
 48
10.0
100
AcDbMText
 10
136.04185432696
 20
248.355652074075
 30
0.0
 40
10.0
 41
189.697553026647
 71
     1
 72
     5
  1
\C256;塗　装　色：10YR7.5/14\P静止トルク：約10.0N・cm\P回　転　数：1RPM\P使用周囲温度：-10～+40℃
1001
ACADANNOTATIVE
1000
AnnotativeData
1002
{
1070
     1
1070
     0
1002
}
  0
TEXT
  5
71DC
330
1A
100
AcDbEntity
  8
寸法線
100
AcDbText
 10
59.42338152826
 20
196.897306712282
 30
0.0
 40
10.0
  1
(２００   ０)
 41
0.566629621207
  7
EXCADSTD
 72
     5
 11
106.028667872571
 21
196.897306712282
 31
0.0
100
AcDbText
  0
MTEXT
  5
71DD
102
{ACAD_XDICTIONARY
360
71DE
102
}
330
1A
100
AcDbEntity
  8
寸法線
 48
10.0
100
AcDbMText
 10
130.797432298169
 20
390.753827974402
 30
0.0
 40
10.0
 41
210.629527060302
 71
     1
 72
     5
  1
御仕様  電源電圧  \P      　AC100V\P        AC200V
1001
ACADANNOTATIVE
1000
AnnotativeData
1002
{
1070
     1
1070
     0
1002
}
  0
MTEXT
  5
71E1
330
1A
100
AcDbEntity
  8
寸法線
 48
10.0
100
AcDbMText
 10
156.026059951287
 20
339.432935344697
 30
0.0
 40
10.0
 41
202.063492063492
 71
     1
 72
     5
  1
○印が今回の貴社の御仕様です。
  0
LINE
  5
71E2
330
1A
100
AcDbEntity
  8
寸法線
 62
     1
 48
10.0
100
AcDbLine
 10
127.758067843506
 20
377.19724518704
 30
0.0
 11
319.492573186957
 21
377.19724518704
 31
0.0
  0
LINE
  5
71E3
330
1A
100
AcDbEntity
  8
寸法線
 62
     1
 48
10.0
100
AcDbLine
 10
127.758067843506
 20
360.620309231731
 30
0.0
 11
319.492573186957
 21
360.620309231731
 31
0.0
  0
LINE
  5
71E4
330
1A
100
AcDbEntity
  8
寸法線
 62
     1
 48
10.0
100
AcDbLine
 10
127.758067843506
 20
344.043373276423
 30
0.0
 11
319.492573186957
 21
344.043373276423
 31
0.0
  0
LINE
  5
71E5
330
1A
100
AcDbEntity
  8
寸法線
 62
     1
 48
10.0
100
AcDbLine
 10
127.758067843506
 20
393.44914318244
 30
0.0
 11
319.492573186957
 21
393.44914318244
 31
0.0
  0
LINE
  5
71E6
330
1A
100
AcDbEntity
  8
寸法線
 62
     1
 48
10.0
100
AcDbLine
 10
168.712850791914
 20
393.44914318244
 30
0.0
 11
168.712850791914
 21
344.043373276423
 31
0.0
  0
LINE
  5
71E7
330
1A
100
AcDbEntity
  8
寸法線
 62
     1
 48
10.0
100
AcDbLine
 10
127.758067843506
 20
393.44914318244
 30
0.0
 11
127.758067843506
 21
344.043373276423
 31
0.0
  0
LINE
  5
71E8
330
1A
100
AcDbEntity
  8
寸法線
 62
     1
 48
10.0
100
AcDbLine
 10
235.512217069339
 20
393.44914318244
 30
0.0
 11
235.512217069339
 21
344.043373276423
 31
0.0
  0
LINE
  5
71E9
330
1A
100
AcDbEntity
  8
寸法線
 62
     1
 48
10.0
100
AcDbLine
 10
319.492573186957
 20
393.44914318244
 30
0.0
 11
319.492573186957
 21
344.043373276423
 31
0.0
  0
MTEXT
  5
71EA
102
{ACAD_XDICTIONARY
360
71EB
102
}
330
1A
100
AcDbEntity
  8
寸法線
 48
10.0
100
AcDbMText
 10
278.27108418194
 20
390.753827974402
 30
0.0
 40
10.0
 41
71.895805002061
 71
     2
 72
     5
  1
申請型式名称   \PPRL-5-WP\PPRL-5-VP
1001
ACADANNOTATIVE
1000
AnnotativeData
1002
{
1070
     1
1070
     0
1002
}
  0
MTEXT
  5
71EE
102
{ACAD_XDICTIONARY
360
71EF
102
}
330
1A
100
AcDbEntity
  8
寸法線
 48
10.0
100
AcDbMText
 10
392.28784694939
 20
362.153776244481
 30
0.0
 40
9.6
 41
178.158537710773
 71
     1
 72
     5
  1
\P250\P300\P350\P400\P450\P500\P550\P600
1001
ACADANNOTATIVE
1000
AnnotativeData
1002
{
1070
     1
1070
     0
1002
}
  0
MTEXT
  5
71F2
102
{ACAD_XDICTIONARY
360
71F3
102
}
330
1A
100
AcDbEntity
  8
寸法線
 48
10.0
100
AcDbMText
 10
344.860985304275
 20
362.17941474057
 30
0.0
 40
9.6
 41
72.860699651058
 71
     1
 72
     5
  1
御仕様\P　\P　\P\P\P\P\P　\P\P\P　
1001
ACADANNOTATIVE
1000
AnnotativeData
1002
{
1070
     1
1070
     0
1002
}
  0
MTEXT
  5
71F6
330
1A
100
AcDbEntity
  8
寸法線
 48
10.0
100
AcDbMText
 10
442.466553889072
 20
362.17941474057
 30
0.0
 40
9.6
 41
72.860699651058
 71
     1
 72
     5
  1
記事
  0
MTEXT
  5
71F7
102
{ACAD_XDICTIONARY
360
71F8
102
}
330
1A
100
AcDbEntity
  8
寸法線
 48
10.0
100
AcDbMText
 10
489.840580410164
 20
362.17941474057
 30
0.0
 40
9.6
 41
72.860699651058
 71
     1
 72
     5
  1
台数 \P \P\P\P\P\P\P \P 
1001
ACADANNOTATIVE
1000
AnnotativeData
1002
{
1070
     1
1070
     0
1002
}
  0
LINE
  5
71FB
330
1A
100
AcDbEntity
  8
寸法線
 48
10.0
100
AcDbLine
 10
341.331466307063
 20
365.852907725569
 30
0.0
 11
341.331466307063
 21
222.272870243099
 31
0.0
  0
LINE
  5
71FC
330
1A
100
AcDbEntity
  8
寸法線
 48
10.0
100
AcDbLine
 10
381.082811065629
 20
365.852907725569
 30
0.0
 11
381.082811065629
 21
222.272870243099
 31
0.0
  0
LINE
  5
71FD
330
1A
100
AcDbEntity
  8
寸法線
 48
10.0
100
AcDbLine
 10
422.722776735195
 20
365.852907725569
 30
0.0
 11
422.722776735195
 21
222.272870243099
 31
0.0
  0
LINE
  5
71FE
330
1A
100
AcDbEntity
  8
寸法線
 48
10.0
100
AcDbLine
 10
483.873804965542
 20
365.852907725569
 30
0.0
 11
483.873804965542
 21
222.272870243099
 31
0.0
  0
LINE
  5
71FF
330
1A
100
AcDbEntity
  8
寸法線
 48
10.0
100
AcDbLine
 10
516.654254912617
 20
365.852907725569
 30
0.0
 11
516.654254912618
 21
222.272870243099
 31
0.0
  0
LINE
  5
7200
330
1A
100
AcDbEntity
  8
寸法線
 48
10.0
100
AcDbLine
 10
341.331466307063
 20
365.852907725569
 30
0.0
 11
696.059448293023
 21
365.852907725569
 31
0.0
  0
LINE
  5
7201
330
1A
100
AcDbEntity
  8
寸法線
 48
10.0
100
AcDbLine
 10
341.331466307063
 20
349.68332948057
 30
0.0
 11
696.059448293023
 21
349.68332948057
 31
0.0
  0
LINE
  5
7202
330
1A
100
AcDbEntity
  8
寸法線
 48
10.0
100
AcDbLine
 10
341.331466307063
 20
333.513751235571
 30
0.0
 11
696.059448293023
 21
333.513751235571
 31
0.0
  0
LINE
  5
7203
330
1A
100
AcDbEntity
  8
寸法線
 48
10.0
100
AcDbLine
 10
341.331466307063
 20
317.344172990572
 30
0.0
 11
696.059448293023
 21
317.344172990572
 31
0.0
  0
LINE
  5
7204
330
1A
100
AcDbEntity
  8
寸法線
 48
10.0
100
AcDbLine
 10
341.331466307063
 20
301.174594745573
 30
0.0
 11
696.059448293023
 21
301.174594745573
 31
0.0
  0
LINE
  5
7205
330
1A
100
AcDbEntity
  8
寸法線
 48
10.0
100
AcDbLine
 10
341.331466307063
 20
285.005016500574
 30
0.0
 11
696.059448293023
 21
285.005016500574
 31
0.0
  0
LINE
  5
7206
330
1A
100
AcDbEntity
  8
寸法線
 48
10.0
100
AcDbLine
 10
341.331466307063
 20
268.835438255576
 30
0.0
 11
696.059448293023
 21
268.835438255576
 31
0.0
  0
LINE
  5
7207
330
1A
100
AcDbEntity
  8
寸法線
 48
10.0
100
AcDbLine
 10
341.331466307063
 20
285.005016500574
 30
0.0
 11
696.059448293023
 21
285.005016500574
 31
0.0
  0
LINE
  5
7208
330
1A
100
AcDbEntity
  8
寸法線
 48
10.0
100
AcDbLine
 10
341.331466307063
 20
252.665860010577
 30
0.0
 11
696.059448293023
 21
252.665860010577
 31
0.0
  0
LINE
  5
7209
330
1A
100
AcDbEntity
  8
寸法線
 48
10.0
100
AcDbLine
 10
341.331466307063
 20
236.496281765578
 30
0.0
 11
696.059448293023
 21
236.496281765578
 31
0.0
  0
MTEXT
  5
720A
102
{ACAD_XDICTIONARY
360
720B
102
}
330
1A
100
AcDbEntity
  8
寸法線
 48
10.0
100
AcDbMText
 10
581.244312582525
 20
362.153776244481
 30
0.0
 40
9.6
 41
178.158537710773
 71
     2
 72
     5
  1
\P650\P700\P750\P800\P850\P900\P950\P1000
1001
ACADANNOTATIVE
1000
AnnotativeData
1002
{
1070
     1
1070
     0
1002
}
  0
MTEXT
  5
720E
102
{ACAD_XDICTIONARY
360
720F
102
}
330
1A
100
AcDbEntity
  8
寸法線
 48
10.0
100
AcDbMText
 10
524.26617868468
 20
362.17941474057
 30
0.0
 40
9.6
 41
72.860699651058
 71
     1
 72
     5
  1
御仕様\P　\P\P　\P\P\P　\P\P\P　
1001
ACADANNOTATIVE
1000
AnnotativeData
1002
{
1070
     1
1070
     0
1002
}
  0
MTEXT
  5
7212
330
1A
100
AcDbEntity
  8
寸法線
 48
10.0
100
AcDbMText
 10
621.871747269477
 20
362.17941474057
 30
0.0
 40
9.6
 41
72.860699651058
 71
     1
 72
     5
  1
記事
  0
MTEXT
  5
7213
102
{ACAD_XDICTIONARY
360
7214
102
}
330
1A
100
AcDbEntity
  8
寸法線
 48
10.0
100
AcDbMText
 10
670.906932988536
 20
362.17941474057
 30
0.0
 40
9.6
 41
72.860699651058
 71
     1
 72
     5
  1
台数 \P \P\P\P\P\P \P 
1001
ACADANNOTATIVE
1000
AnnotativeData
1002
{
1070
     1
1070
     0
1002
}
  0
LINE
  5
7217
330
1A
100
AcDbEntity
  8
寸法線
 48
10.0
100
AcDbLine
 10
520.736659687469
 20
365.852907725569
 30
0.0
 11
520.736659687469
 21
222.272870243099
 31
0.0
  0
TEXT
  5
7218
330
1A
100
AcDbEntity
  8
寸法線
 48
10.0
100
AcDbText
 10
530.815268652041
 20
210.434547978205
 30
0.0
 40
9.6
  1
○印が今回の貴社の御仕様です。
100
AcDbText
  0
LINE
  5
7219
330
1A
100
AcDbEntity
  8
寸法線
 48
10.0
100
AcDbLine
 10
560.488004446035
 20
365.852907725569
 30
0.0
 11
560.488004446035
 21
222.272870243099
 31
0.0
  0
LINE
  5
721A
330
1A
100
AcDbEntity
  8
寸法線
 48
10.0
100
AcDbLine
 10
602.1279701156
 20
365.852907725569
 30
0.0
 11
602.1279701156
 21
222.272870243099
 31
0.0
  0
LINE
  5
721B
330
1A
100
AcDbEntity
  8
寸法線
 48
10.0
100
AcDbLine
 10
663.278998345947
 20
365.852907725569
 30
0.0
 11
663.278998345947
 21
222.272870243099
 31
0.0
  0
LINE
  5
721C
330
1A
100
AcDbEntity
  8
寸法線
 48
10.0
100
AcDbLine
 10
696.059448293023
 20
365.852907725569
 30
0.0
 11
696.059448293023
 21
222.272870243099
 31
0.0
  0
ARC
  5
721D
330
1A
100
AcDbEntity
  8
寸法線
100
AcDbCircle
 10
402.321366150259
 20
362.37729130726
 30
0.0
 40
0.36566442
100
AcDbArc
 50
28.230948369032
 51
123.883845843369
  0
ARC
  5
721E
330
1A
100
AcDbEntity
  8
寸法線
100
AcDbCircle
 10
405.588588279859
 20
357.43031872726
 30
0.0
 40
6.2941132056
100
AcDbArc
 50
123.469024399698
 51
239.77389912064
  0
ARC
  5
721F
330
1A
100
AcDbEntity
  8
寸法線
100
AcDbCircle
 10
405.588588279859
 20
357.43031872726
 30
0.0
 40
6.294105048000001
100
AcDbArc
 50
123.469024399695
 51
239.774013712202
  0
ARC
  5
7220
330
1A
100
AcDbEntity
  8
寸法線
100
AcDbCircle
 10
396.943046874259
 20
358.79539519606
 30
0.0
 40
6.825722244
100
AcDbArc
 50
274.62892715073
 51
33.374029121143
  0
ARC
  5
7221
330
1A
100
AcDbEntity
  8
寸法線
100
AcDbCircle
 10
403.123815666259
 20
354.27985360726
 30
0.0
 40
2.393698164
100
AcDbArc
 50
252.903398883401
 51
337.412611017149
  0
ARC
  5
7222
330
1A
100
AcDbEntity
  8
寸法線
100
AcDbCircle
 10
403.123815666259
 20
354.27993790246
 30
0.0
 40
2.3937307944
100
AcDbArc
 50
252.904086432755
 51
337.411923467791
  0
ARC
  5
7223
330
1A
100
AcDbEntity
  8
寸法線
100
AcDbCircle
 10
582.230241000033
 20
362.576968193885
 30
0.0
 40
0.36566442
100
AcDbArc
 50
28.230948369052
 51
123.883845843401
  0
ARC
  5
7224
330
1A
100
AcDbEntity
  8
寸法線
100
AcDbCircle
 10
585.497463129632
 20
357.629995613886
 30
0.0
 40
6.2941132056
100
AcDbArc
 50
123.469024399695
 51
239.77389912064
  0
ARC
  5
7225
330
1A
100
AcDbEntity
  8
寸法線
100
AcDbCircle
 10
585.497463129632
 20
357.629995613886
 30
0.0
 40
6.294105048000001
100
AcDbArc
 50
123.469024399696
 51
239.774013712203
  0
ARC
  5
7226
330
1A
100
AcDbEntity
  8
寸法線
100
AcDbCircle
 10
576.851921724033
 20
358.995072082686
 30
0.0
 40
6.825722244
100
AcDbArc
 50
274.628927150728
 51
33.374029121143
  0
ARC
  5
7227
330
1A
100
AcDbEntity
  8
寸法線
100
AcDbCircle
 10
583.032690516033
 20
354.479530493885
 30
0.0
 40
2.393698164
100
AcDbArc
 50
252.903398883398
 51
337.412611017141
  0
ARC
  5
7228
330
1A
100
AcDbEntity
  8
寸法線
100
AcDbCircle
 10
583.032690516033
 20
354.479614789085
 30
0.0
 40
2.3937307944
100
AcDbArc
 50
252.904086432756
 51
337.411923467794
  0
LINE
  5
7229
330
1A
100
AcDbEntity
  8
寸法線
 48
10.0
100
AcDbLine
 10
341.331466307063
 20
222.272870243099
 30
0.0
 11
696.059448293023
 21
222.272870243099
 31
0.0
  0
ARC
  5
7234
330
1A
100
AcDbEntity
  8
外形線
 48
10.0
100
AcDbCircle
 10
84.856242731015
 20
611.674534245649
 30
0.0
 40
24.29999978825386
100
AcDbArc
 50
93.371238800795
 51
266.628761199205
  0
ARC
  5
7235
330
1A
100
AcDbEntity
  8
外形線
 48
10.0
100
AcDbCircle
 10
84.856242731015
 20
611.674534245649
 30
0.0
 40
24.29999978825386
100
AcDbArc
 50
273.366676294911
 51
86.633323705089
  0
ARC
  5
7236
330
1A
100
AcDbEntity
  8
細線
 48
10.0
100
AcDbCircle
 10
84.856242731015
 20
611.674534245649
 30
0.0
 40
11.99992129039598
100
AcDbArc
 50
96.839093770973
 51
263.160906229027
  0
LINE
  5
7237
330
1A
100
AcDbEntity
  8
外形線
 48
10.0
100
AcDbLine
 10
83.42727463219
 20
622.850008857014
 30
0.0
 11
74.464498401393
 21
617.675347587477
 31
0.0
  0
LINE
  5
7238
330
1A
100
AcDbEntity
  8
外形線
 48
10.0
100
AcDbLine
 10
74.464498401393
 20
617.675347587477
 30
0.0
 11
74.464498401393
 21
605.673720903821
 31
0.0
  0
LINE
  5
7239
330
1A
100
AcDbEntity
  8
外形線
 48
10.0
100
AcDbLine
 10
83.42727463219
 20
600.499059634283
 30
0.0
 11
74.464498401393
 21
605.673720903821
 31
0.0
  0
LINE
  5
723A
330
1A
100
AcDbEntity
  8
外形線
 48
10.0
100
AcDbLine
 10
86.283279146725
 20
622.84998715901
 30
0.0
 11
95.246017795477
 21
617.675347587477
 31
0.0
  0
LINE
  5
723B
330
1A
100
AcDbEntity
  8
外形線
 48
10.0
100
AcDbLine
 10
86.283279146725
 20
600.499081332288
 30
0.0
 11
95.246017795477
 21
605.673720903821
 31
0.0
  0
LINE
  5
723C
330
1A
100
AcDbEntity
  8
外形線
 48
10.0
100
AcDbLine
 10
95.246017795477
 20
617.675347587477
 30
0.0
 11
95.246017795477
 21
605.673720903821
 31
0.0
  0
ARC
  5
723D
330
1A
100
AcDbEntity
  8
細線
 48
10.0
100
AcDbCircle
 10
84.856242731015
 20
611.674534245649
 30
0.0
 40
10.39174432962234
100
AcDbArc
 50
97.903782490149
 51
262.096217509851
  0
ARC
  5
723E
330
1A
100
AcDbEntity
  8
細線
 48
10.0
100
AcDbCircle
 10
84.856242731015
 20
611.674534245649
 30
0.0
 40
10.39174432962234
100
AcDbArc
 50
277.893029982551
 51
82.106970017449
  0
ARC
  5
723F
330
1A
100
AcDbEntity
  8
細線
 48
10.0
100
AcDbCircle
 10
84.856242731015
 20
611.674534245649
 30
0.0
 40
11.99992129039598
100
AcDbArc
 50
276.829804595383
 51
83.170195404617
  0
VIEWPORT
  5
2902
330
28FB
100
AcDbEntity
 67
     1
  8
0
 48
10.0
100
AcDbViewport
 10
205.385757446289
 20
143.184346847534
 30
0.0
 40
507.572417547164
 41
302.53399960839
 68
     1
 69
     1
1001
ACAD
1000
MVIEW
1002
{
1070
    16
1010
0.0
1020
0.0
1030
0.0
1010
0.0
1020
0.0
1030
1.0
1040
0.0
1040
302.53399960839
1040
205.385757446289
1040
143.184346847534
1040
50.0
1040
0.0
1040
0.0
1070
     0
1070
   100
1070
     0
1070
     1
1070
     0
1070
     0
1070
     0
1070
     0
1040
0.0
1040
0.0
1040
0.0
1040
10.0
1040
10.0
1040
10.0
1040
10.0
1070
     0
1002
{
1002
}
1002
}
  0
VIEWPORT
  5
2904
330
28FB
100
AcDbEntity
 67
     1
  8
図枠太線
 48
10.0
100
AcDbViewport
 10
204.746305129083
 20
161.396645458131
 30
0.0
 40
400.0
 41
240.0
 68
     2
 69
     2
1001
ACAD
1000
MVIEW
1002
{
1070
    16
1010
0.0
1020
0.0
1030
0.0
1010
0.0
1020
0.0
1030
1.0
1040
0.0
1040
599.999998534488
1040
428.507786938727
1040
467.660869078415
1040
50.0
1040
0.0
1040
0.0
1070
     0
1070
   100
1070
     0
1070
     0
1070
     0
1070
     0
1070
     0
1070
     0
1040
0.0
1040
0.0
1040
0.0
1040
1.0
1040
1.0
1040
0.0
1040
0.0
1070
     0
1002
{
1002
}
1002
}
  0
INSERT
  5
2A59
330
28FB
100
AcDbEntity
 67
     1
  8
図枠太線
100
AcDbBlockReference
  2
A3横用_タイトル
 10
-0.352109406709
 20
-2.129314295396
 30
0.0
  0
MTEXT
  5
2FE5
330
28FB
100
AcDbEntity
 67
     1
  8
寸法線
 48
10.0
100
AcDbMText
 10
363.177813562453
 20
37.101021772108
 30
0.0
 40
5.0
 41
45.27425591701
 71
     1
 72
     5
  1
パドル式\Pレベルスイッチ
  0
MTEXT
  5
2FE6
330
28FB
100
AcDbEntity
 67
     1
  8
寸法線
 48
10.0
100
AcDbMText
 10
312.858533615354
 20
33.854739812749
 30
0.0
 40
7.0
 41
35.987227926891
 71
     1
 72
     5
  1
PRL-G7-40
  0
MTEXT
  5
2FE7
330
28FB
100
AcDbEntity
 67
     1
  8
寸法線
 48
10.0
100
AcDbMText
 10
146.077332112683
 20
14.022357319784
 30
0.0
 40
7.0
 41
12.5019545219
 71
     1
 72
     5
  1
1:2.5
  0
MTEXT
  5
2FEB
102
{ACAD_XDICTIONARY
360
70D5
102
}
330
28FB
100
AcDbEntity
 67
     1
  8
寸法線
 48
10.0
100
AcDbMText
 10
341.544198781952
 20
14.917354273555
 30
0.0
 40
8.0
 41
36.402559001308
 71
     1
 72
     5
  1
HR-90006
1001
ACADANNOTATIVE
1000
AnnotativeData
1002
{
1070
     1
1070
     0
1002
}
  0
MTEXT
  5
2FEC
330
28FB
100
AcDbEntity
 67
     1
  8
寸法線
 48
10.0
100
AcDbMText
 10
373.949051752515
 20
48.742699288767
 30
0.0
 40
5.0
 41
33.206838365079
 71
     1
 72
     5
  1
台数   台
  0
MTEXT
  5
4936
102
{ACAD_XDICTIONARY
360
70D8
102
}
330
28FB
100
AcDbEntity
 67
     1
  8
寸法線
 48
10.0
100
AcDbMText
 10
174.423592077792
 20
12.151996916646
 30
0.0
 40
5.0
 41
63.606060606061
 71
     1
 72
     5
  1
2015.6.16
1001
ACADANNOTATIVE
1000
AnnotativeData
1002
{
1070
     1
1070
     0
1002
}
  0
MTEXT
  5
4937
330
28FB
100
AcDbEntity
 67
     1
  8
寸法線
 48
10.0
100
AcDbMText
 10
180.969782321733
 20
32.229377230579
 30
0.0
 40
5.0
 41
23.879746689072
 71
     1
 72
     5
  1
ohno
  0
ENDSEC
  0
SECTION
  2
OBJECTS
  0
DICTIONARY
  5
C
330
0
100
AcDbDictionary
  3
ACAD_COLOR
350
2948
  3
ACAD_GROUP
350
D
  3
ACAD_LAYOUT
350
2816
  3
ACAD_MATERIAL
350
2947
  3
ACAD_MLEADERSTYLE
350
70D1
  3
ACAD_MLINESTYLE
350
E
  3
ACAD_PLOTSETTINGS
350
2817
  3
ACAD_SCALELIST
350
70AB
  3
ACAD_VISUALSTYLE
350
7092
  3
ACADDIM
350
3450
  3
ACDBHEADERROUNDTRIPXREC
350
7243
  3
ACDBVARIABLEDICTIONARY
350
722A
  3
DWGPROPS
350
7268
  0
DICTIONARY
  5
7269
330
8
100
AcDbDictionary
280
     1
  3
ACAD_XREC_ROUNDTRIP
360
726A
  0
DICTIONARY
  5
29EA
330
2
100
AcDbDictionary
280
     1
  3
ACAD_LAYERFILTERS
360
2B0C
  3
ACAD_LAYERSTATES
360
29EB
  0
DICTIONARY
  5
7240
330
71CB
100
AcDbDictionary
280
     1
  3
ACDBCONTEXTDATAMANAGER
360
7241
  0
DICTIONARY
  5
71D5
330
71D4
100
AcDbDictionary
280
     1
  3
ACDBCONTEXTDATAMANAGER
360
71D6
  0
DICTIONARY
  5
71D9
330
71D8
100
AcDbDictionary
280
     1
  3
ACDBCONTEXTDATAMANAGER
360
71DA
  0
DICTIONARY
  5
71DE
330
71DD
100
AcDbDictionary
280
     1
  3
ACDBCONTEXTDATAMANAGER
360
71DF
  0
DICTIONARY
  5
71EB
330
71EA
100
AcDbDictionary
280
     1
  3
ACDBCONTEXTDATAMANAGER
360
71EC
  0
DICTIONARY
  5
71EF
330
71EE
100
AcDbDictionary
280
     1
  3
ACDBCONTEXTDATAMANAGER
360
71F0
  0
DICTIONARY
  5
71F3
330
71F2
100
AcDbDictionary
280
     1
  3
ACDBCONTEXTDATAMANAGER
360
71F4
  0
DICTIONARY
  5
71F8
330
71F7
100
AcDbDictionary
280
     1
  3
ACDBCONTEXTDATAMANAGER
360
71F9
  0
DICTIONARY
  5
720B
330
720A
100
AcDbDictionary
280
     1
  3
ACDBCONTEXTDATAMANAGER
360
720C
  0
DICTIONARY
  5
720F
330
720E
100
AcDbDictionary
280
     1
  3
ACDBCONTEXTDATAMANAGER
360
7210
  0
DICTIONARY
  5
7214
330
7213
100
AcDbDictionary
280
     1
  3
ACDBCONTEXTDATAMANAGER
360
7215
  0
DICTIONARY
  5
70D5
330
2FEB
100
AcDbDictionary
280
     1
  3
ACDBCONTEXTDATAMANAGER
360
70D6
  0
DICTIONARY
  5
70D8
330
4936
100
AcDbDictionary
280
     1
  3
ACDBCONTEXTDATAMANAGER
360
70D9
  0
DICTIONARY
  5
2948
102
{ACAD_REACTORS
330
C
102
}
330
C
100
AcDbDictionary
  0
DICTIONARY
  5
D
102
{ACAD_REACTORS
330
C
102
}
330
C
100
AcDbDictionary
  0
DICTIONARY
  5
2816
102
{ACAD_REACTORS
330
C
102
}
330
C
100
AcDbDictionary
  0
DICTIONARY
  5
2947
102
{ACAD_REACTORS
330
C
102
}
330
C
100
AcDbDictionary
  3
BYBLOCK
350
70CE
  3
BYLAYER
350
70CD
  3
GLOBAL
350
5486
  0
DICTIONARY
  5
70D1
102
{ACAD_REACTORS
330
C
102
}
330
C
100
AcDbDictionary
  3
STANDARD
350
70D2
  0
DICTIONARY
  5
E
102
{ACAD_REACTORS
330
C
102
}
330
C
100
AcDbDictionary
  3
STANDARD
350
13
  0
DICTIONARY
  5
2817
102
{ACAD_REACTORS
330
C
102
}
330
C
100
AcDbDictionary
  0
DICTIONARY
  5
70AB
102
{ACAD_REACTORS
330
C
102
}
330
C
100
AcDbDictionary
  3
A0
350
70AC
  3
A1
350
70AD
  3
A2
350
70AE
  3
A3
350
70AF
  3
A4
350
70B0
  3
A5
350
70B1
  3
A6
350
70B2
  3
A7
350
70B3
  3
A8
350
70B4
  3
A9
350
70B5
  3
B0
350
70B6
  3
B1
350
70B7
  3
B2
350
70B8
  3
B3
350
70B9
  3
B4
350
70BA
  3
B5
350
70BB
  3
B6
350
70BC
  3
B7
350
70BD
  3
B8
350
70BE
  3
B9
350
70BF
  3
C0
350
70C0
  3
C1
350
70C1
  3
C2
350
70C2
  3
C3
350
70C3
  3
C4
350
70C4
  3
C5
350
70C5
  3
C6
350
70C6
  3
C7
350
70C7
  3
C8
350
70C8
  3
C9
350
70C9
  3
D0
350
70CA
  3
D1
350
70CB
  3
D2
350
70CC
  0
DICTIONARY
  5
7092
102
{ACAD_REACTORS
330
C
102
}
330
C
100
AcDbDictionary
  3
2DWIREFRAME
350
7097
  3
BASIC
350
709A
  3
BRIGHTEN
350
709E
  3
COLORCHANGE
350
70A2
  3
CONCEPTUAL
350
709C
  3
DIM
350
709D
  3
EDGECOLOROFF
350
70A5
  3
FACEPATTERN
350
70A1
  3
FLAT
350
7093
  3
FLATWITHEDGES
350
7094
  3
GOURAUD
350
7095
  3
GOURAUDWITHEDGES
350
7096
  3
HIDDEN
350
7099
  3
JITTEROFF
350
70A3
  3
LINEPATTERN
350
70A0
  3
OVERHANGOFF
350
70A4
  3
REALISTIC
350
709B
  3
SHADED
350
70AA
  3
SHADED_WITH_EDGES
350
70A9
  3
SHADES_OF_GRAY
350
70A6
  3
SKETCHY
350
70A7
  3
THICKEN
350
709F
  3
WIREFRAME
350
7098
  3
X-RAY
350
70A8
  0
XRECORD
  5
3450
102
{ACAD_REACTORS
330
C
102
}
330
C
100
AcDbXrecord
 90
   990106
  3

 60
     0
 61
     0
 62
     1
 63
     3
 64
     0
 65
     0
 66
     0
 67
     3
 68
     1
 69
     0
 70
     0
 71
     0
 72
     0
 40
88.016021699386
170
     0
  0
DICTIONARY
  5
7243
102
{ACAD_REACTORS
330
C
102
}
330
C
100
AcDbDictionary
  3
CEPSNID
350
724D
  3
CEPSNTYPE
350
724C
  3
COLORDICT
350
7266
  3
DIMSTYLEDATA
350
7263
  3
FINGERPRINTGUID
350
724E
  3
HYPERLINKBASE
350
7246
  3
INSUNITS
350
724B
  3
LAYOUTDICT
350
7248
  3
LWETCUNION
350
724A
  3
MATERIALDICT
350
7267
  3
PLOTSETDICT
350
7249
  3
PSVPSCALE
350
7250
  3
PUCSBASE
350
7253
  3
PUCSORGBACK
350
7259
  3
PUCSORGBOTTOM
350
7255
  3
PUCSORGFRONT
350
7258
  3
PUCSORGLEFT
350
7256
  3
PUCSORGRIGHT
350
7257
  3
PUCSORGTOP
350
7254
  3
PUCSORTHOREF
350
7251
  3
PUCSORTHOVIEW
350
7252
  3
STYLESHEET
350
7247
  3
TSTACKALIGN
350
7244
  3
TSTACKSIZE
350
7245
  3
UCSBASE
350
725C
  3
UCSORGBACK
350
7262
  3
UCSORGBOTTOM
350
725E
  3
UCSORGFRONT
350
7261
  3
UCSORGLEFT
350
725F
  3
UCSORGRIGHT
350
7260
  3
UCSORGTOP
350
725D
  3
UCSORTHOREF
350
725A
  3
UCSORTHOVIEW
350
725B
  3
VERSIONGUID
350
724F
  0
DICTIONARY
  5
722A
102
{ACAD_REACTORS
330
C
102
}
330
C
100
AcDbDictionary
  3
CANNOSCALE
350
722B
  3
CMLEADERSTYLE
350
722D
  3
CTABLESTYLE
350
722C
  3
DIMASSOC
350
7264
  3
HIDETEXT
350
7265
  3
MSLTSCALE
350
722E
  3
XCLIPFRAME
350
722F
  0
XRECORD
  5
7268
102
{ACAD_REACTORS
330
C
102
}
330
C
100
AcDbXrecord
  1
DWGPROPS COOKIE
  2

  3

  4

  6

  7

  8
y-ohno
  9

300
=
301
=
302
=
303
=
304
=
305
=
306
=
307
=
308
=
309
=
 40
0.0
 41
2450576.222302431
 42
2457193.285322315
  1

 90
        0
  0
XRECORD
  5
726A
102
{ACAD_REACTORS
330
7269
102
}
330
7269
100
AcDbXrecord
102
VTR_0.000_0.000_1.000_1.000_VISUALSTYLE
340
7097
102
VTR_0.000_0.000_1.000_1.000_GRIDDISPLAY
 70
     3
102
VTR_0.000_0.000_1.000_1.000_GRIDMAJOR
 70
     5
102
VTR_0.000_0.000_1.000_1.000_DEFAULTLIGHTING
280
     1
102
VTR_0.000_0.000_1.000_1.000_DEFAULTLIGHTINGTYPE
 70
     1
102
VTR_0.000_0.000_1.000_1.000_BRIGHTNESS
141
0.0
102
VTR_0.000_0.000_1.000_1.000_CONTRAST
142
0.0
  0
DICTIONARY
  5
2B0C
102
{ACAD_REACTORS
330
29EA
102
}
330
29EA
100
AcDbDictionary
  0
DICTIONARY
  5
29EB
102
{ACAD_REACTORS
330
29EA
102
}
330
29EA
100
AcDbDictionary
  0
DICTIONARY
  5
7241
102
{ACAD_REACTORS
330
7240
102
}
330
7240
100
AcDbDictionary
  3
ACDB_ANNOTATIONSCALES
350
7242
  0
DICTIONARY
  5
71D6
102
{ACAD_REACTORS
330
71D5
102
}
330
71D5
100
AcDbDictionary
  3
ACDB_ANNOTATIONSCALES
350
71D7
  0
DICTIONARY
  5
71DA
102
{ACAD_REACTORS
330
71D9
102
}
330
71D9
100
AcDbDictionary
  3
ACDB_ANNOTATIONSCALES
350
71DB
  0
DICTIONARY
  5
71DF
102
{ACAD_REACTORS
330
71DE
102
}
330
71DE
100
AcDbDictionary
  3
ACDB_ANNOTATIONSCALES
350
71E0
  0
DICTIONARY
  5
71EC
102
{ACAD_REACTORS
330
71EB
102
}
330
71EB
100
AcDbDictionary
  3
ACDB_ANNOTATIONSCALES
350
71ED
  0
DICTIONARY
  5
71F0
102
{ACAD_REACTORS
330
71EF
102
}
330
71EF
100
AcDbDictionary
  3
ACDB_ANNOTATIONSCALES
350
71F1
  0
DICTIONARY
  5
71F4
102
{ACAD_REACTORS
330
71F3
102
}
330
71F3
100
AcDbDictionary
  3
ACDB_ANNOTATIONSCALES
350
71F5
  0
DICTIONARY
  5
71F9
102
{ACAD_REACTORS
330
71F8
102
}
330
71F8
100
AcDbDictionary
  3
ACDB_ANNOTATIONSCALES
350
71FA
  0
DICTIONARY
  5
720C
102
{ACAD_REACTORS
330
720B
102
}
330
720B
100
AcDbDictionary
  3
ACDB_ANNOTATIONSCALES
350
720D
  0
DICTIONARY
  5
7210
102
{ACAD_REACTORS
330
720F
102
}
330
720F
100
AcDbDictionary
  3
ACDB_ANNOTATIONSCALES
350
7211
  0
DICTIONARY
  5
7215
102
{ACAD_REACTORS
330
7214
102
}
330
7214
100
AcDbDictionary
  3
ACDB_ANNOTATIONSCALES
350
7216
  0
DICTIONARY
  5
70D6
102
{ACAD_REACTORS
330
70D5
102
}
330
70D5
100
AcDbDictionary
  3
ACDB_ANNOTATIONSCALES
350
70D7
  0
DICTIONARY
  5
70D9
102
{ACAD_REACTORS
330
70D8
102
}
330
70D8
100
AcDbDictionary
  3
ACDB_ANNOTATIONSCALES
350
70DA
  0
MATERIAL
  5
70CE
102
{ACAD_REACTORS
330
2947
102
}
102
{ACAD_XDICTIONARY
360
726F
102
}
330
2947
100
AcDbMaterial
  1
BYBLOCK
  0
MATERIAL
  5
70CD
102
{ACAD_REACTORS
330
2947
102
}
102
{ACAD_XDICTIONARY
360
726D
102
}
330
2947
100
AcDbMaterial
  1
BYLAYER
  0
MATERIAL
  5
5486
102
{ACAD_REACTORS
330
2947
102
}
102
{ACAD_XDICTIONARY
360
726B
102
}
330
2947
100
AcDbMaterial
  1
GLOBAL
  0
ACAD_PROXY_OBJECT
  5
70D2
102
{ACAD_REACTORS
330
70D1
102
}
330
70D1
100
AcDbProxyObject
 90
      499
 91
      508
 93
      610
310
40901902A4063FBFFFFFE0000000000000020400000000000020404214DD185B99185C990000000000000104090141901A00000000000004100000000000000041025764000000000000039000
340
14
340
0
340
10
340
0
 94
        0
1001
ACAD_MLEADERVER
1070
     2
  0
MLINESTYLE
  5
13
102
{ACAD_REACTORS
330
E
102
}
330
E
100
AcDbMlineStyle
  2
STANDARD
 70
     0
  3

 62
     0
 51
90.0
 52
90.0
 71
     2
 49
0.5
 62
   256
  6
BYLAYER
 49
-0.5
 62
   256
  6
BYLAYER
  0
ACAD_PROXY_OBJECT
  5
70AC
102
{ACAD_REACTORS
330
70AB
102
}
330
70AB
100
AcDbProxyObject
 90
      499
 91
      506
 93
       41
310
903313A31580
  0
ACAD_PROXY_OBJECT
  5
70AD
102
{ACAD_REACTORS
330
70AB
102
}
330
70AB
100
AcDbProxyObject
 90
      499
 91
      506
 93
      105
310
903313A324000000000000004000
  0
ACAD_PROXY_OBJECT
  5
70AE
102
{ACAD_REACTORS
330
70AB
102
}
330
70AB
100
AcDbProxyObject
 90
      499
 91
      506
 93
      105
310
903313A344000000000000104000
  0
ACAD_PROXY_OBJECT
  5
70AF
102
{ACAD_REACTORS
330
70AB
102
}
330
70AB
100
AcDbProxyObject
 90
      499
 91
      506
 93
      105
310
903313A354000000000000144000
  0
ACAD_PROXY_OBJECT
  5
70B0
102
{ACAD_REACTORS
330
70AB
102
}
330
70AB
100
AcDbProxyObject
 90
      499
 91
      506
 93
      105
310
903313A384000000000000204000
  0
ACAD_PROXY_OBJECT
  5
70B1
102
{ACAD_REACTORS
330
70AB
102
}
330
70AB
100
AcDbProxyObject
 90
      499
 91
      506
 93
      113
310
904313A31304000000000000244000
  0
ACAD_PROXY_OBJECT
  5
70B2
102
{ACAD_REACTORS
330
70AB
102
}
330
70AB
100
AcDbProxyObject
 90
      499
 91
      506
 93
      113
310
904313A31364000000000000304000
  0
ACAD_PROXY_OBJECT
  5
70B3
102
{ACAD_REACTORS
330
70AB
102
}
330
70AB
100
AcDbProxyObject
 90
      499
 91
      506
 93
      113
310
904313A32304000000000000344000
  0
ACAD_PROXY_OBJECT
  5
70B4
102
{ACAD_REACTORS
330
70AB
102
}
330
70AB
100
AcDbProxyObject
 90
      499
 91
      506
 93
      113
310
904313A333040000000000003E4000
  0
ACAD_PROXY_OBJECT
  5
70B5
102
{ACAD_REACTORS
330
70AB
102
}
330
70AB
100
AcDbProxyObject
 90
      499
 91
      506
 93
      113
310
904313A34304000000000000444000
  0
ACAD_PROXY_OBJECT
  5
70B6
102
{ACAD_REACTORS
330
70AB
102
}
330
70AB
100
AcDbProxyObject
 90
      499
 91
      506
 93
      113
310
904313A35304000000000000494000
  0
ACAD_PROXY_OBJECT
  5
70B7
102
{ACAD_REACTORS
330
70AB
102
}
330
70AB
100
AcDbProxyObject
 90
      499
 91
      506
 93
      121
310
905313A3130304000000000000594000
  0
ACAD_PROXY_OBJECT
  5
70B8
102
{ACAD_REACTORS
330
70AB
102
}
330
70AB
100
AcDbProxyObject
 90
      499
 91
      506
 93
      105
310
903323A310000000000000010100
  0
ACAD_PROXY_OBJECT
  5
70B9
102
{ACAD_REACTORS
330
70AB
102
}
330
70AB
100
AcDbProxyObject
 90
      499
 91
      506
 93
      105
310
903343A310000000000000410100
  0
ACAD_PROXY_OBJECT
  5
70BA
102
{ACAD_REACTORS
330
70AB
102
}
330
70AB
100
AcDbProxyObject
 90
      499
 91
      506
 93
      105
310
903383A310000000000000810100
  0
ACAD_PROXY_OBJECT
  5
70BB
102
{ACAD_REACTORS
330
70AB
102
}
330
70AB
100
AcDbProxyObject
 90
      499
 91
      506
 93
      113
310
90431303A310000000000000910100
  0
ACAD_PROXY_OBJECT
  5
70BC
102
{ACAD_REACTORS
330
70AB
102
}
330
70AB
100
AcDbProxyObject
 90
      499
 91
      506
 93
      121
310
9053130303A310000000000001650100
  0
ACAD_PROXY_OBJECT
  5
70BD
102
{ACAD_REACTORS
330
70AB
102
}
330
70AB
100
AcDbProxyObject
 90
      499
 91
      506
 93
      257
310
90E312F31323822203D2031272D3022000000000000200FC000000000000284000
  0
ACAD_PROXY_OBJECT
  5
70BE
102
{ACAD_REACTORS
330
70AB
102
}
330
70AB
100
AcDbProxyObject
 90
      499
 91
      506
 93
      249
310
90D312F363422203D2031272D3022000000000000240FC000000000000284000
  0
ACAD_PROXY_OBJECT
  5
70BF
102
{ACAD_REACTORS
330
70AB
102
}
330
70AB
100
AcDbProxyObject
 90
      499
 91
      506
 93
      249
310
90D312F333222203D2031272D3022000000000000280FC000000000000284000
  0
ACAD_PROXY_OBJECT
  5
70C0
102
{ACAD_REACTORS
330
70AB
102
}
330
70AB
100
AcDbProxyObject
 90
      499
 91
      506
 93
      249
310
90D312F313622203D2031272D30220000000000002C0FC000000000000284000
  0
ACAD_PROXY_OBJECT
  5
70C1
102
{ACAD_REACTORS
330
70AB
102
}
330
70AB
100
AcDbProxyObject
 90
      499
 91
      506
 93
      249
310
90D332F333222203D2031272D30220000000000002E0FC000000000000284000
  0
ACAD_PROXY_OBJECT
  5
70C2
102
{ACAD_REACTORS
330
70AB
102
}
330
70AB
100
AcDbProxyObject
 90
      499
 91
      506
 93
      241
310
90C312F3822203D2031272D3022000000000000300FC000000000000284000
  0
ACAD_PROXY_OBJECT
  5
70C3
102
{ACAD_REACTORS
330
70AB
102
}
330
70AB
100
AcDbProxyObject
 90
      499
 91
      506
 93
      249
310
90D332F313622203D2031272D3022000000000000320FC000000000000284000
  0
ACAD_PROXY_OBJECT
  5
70C4
102
{ACAD_REACTORS
330
70AB
102
}
330
70AB
100
AcDbProxyObject
 90
      499
 91
      506
 93
      241
310
90C312F3422203D2031272D3022000000000000340FC000000000000284000
  0
ACAD_PROXY_OBJECT
  5
70C5
102
{ACAD_REACTORS
330
70AB
102
}
330
70AB
100
AcDbProxyObject
 90
      499
 91
      506
 93
      241
310
90C332F3822203D2031272D3022000000000000360FC000000000000284000
  0
ACAD_PROXY_OBJECT
  5
70C6
102
{ACAD_REACTORS
330
70AB
102
}
330
70AB
100
AcDbProxyObject
 90
      499
 91
      506
 93
      241
310
90C312F3222203D2031272D3022000000000000380FC000000000000284000
  0
ACAD_PROXY_OBJECT
  5
70C7
102
{ACAD_REACTORS
330
70AB
102
}
330
70AB
100
AcDbProxyObject
 90
      499
 91
      506
 93
      241
310
90C332F3422203D2031272D30220000000000003A0FC000000000000284000
  0
ACAD_PROXY_OBJECT
  5
70C8
102
{ACAD_REACTORS
330
70AB
102
}
330
70AB
100
AcDbProxyObject
 90
      499
 91
      506
 93
      161
310
90A3122203D2031272D30224000000000000284000
  0
ACAD_PROXY_OBJECT
  5
70C9
102
{ACAD_REACTORS
330
70AB
102
}
330
70AB
100
AcDbProxyObject
 90
      499
 91
      506
 93
      257
310
90E312D312F3222203D2031272D30220000000000003E0FC000000000000284000
  0
ACAD_PROXY_OBJECT
  5
70CA
102
{ACAD_REACTORS
330
70AB
102
}
330
70AB
100
AcDbProxyObject
 90
      499
 91
      506
 93
      225
310
90A3322203D2031272D302200000000000002100000000000000284000
  0
ACAD_PROXY_OBJECT
  5
70CB
102
{ACAD_REACTORS
330
70AB
102
}
330
70AB
100
AcDbProxyObject
 90
      499
 91
      506
 93
      225
310
90A3622203D2031272D302200000000000006100000000000000284000
  0
ACAD_PROXY_OBJECT
  5
70CC
102
{ACAD_REACTORS
330
70AB
102
}
330
70AB
100
AcDbProxyObject
 90
      499
 91
      506
 93
      249
310
90D31272D3022203D2031272D30220000000000000A100000000000000284000
  0
ACAD_PROXY_OBJECT
  5
7097
102
{ACAD_REACTORS
330
7092
102
}
330
7092
100
AcDbProxyObject
 90
      499
 91
      505
 93
      436
310
42CC9915DA5C99599C985B595049028333333333333E33F0000000000000F90107901411070040501600405405064090741402480A0340
1001
ACAD
1000
AcDbSavedByObjectVersion
1070
     0
  0
ACAD_PROXY_OBJECT
  5
709A
102
{ACAD_REACTORS
330
7092
102
}
330
7092
100
AcDbProxyObject
 90
      499
 91
      505
 93
      388
310
4150985CDA58D07406404333333333333E33F0000000000000F90107A41107004050150841D405064090741402480A0350
1001
ACAD
1000
AcDbSavedByObjectVersion
1070
     0
  0
ACAD_PROXY_OBJECT
  5
709E
102
{ACAD_REACTORS
330
7092
102
}
330
7092
100
AcDbProxyObject
 90
      499
 91
      505
 93
      428
310
42109C9A59DA1D195B90C409028333333333333E33F0000000000000F9010790141107004050150841D405064090741402480A029950
1001
ACAD
1000
AcDbSavedByObjectVersion
1070
     0
  0
ACAD_PROXY_OBJECT
  5
70A2
102
{ACAD_REACTORS
330
7092
102
}
330
7092
100
AcDbProxyObject
 90
      499
 91
      505
 93
      452
310
42D0DBDB1BDC90DA185B99D95104090240C333333333333E33F0000000000000F90108901411070040501508421405064090741402480A0350
1001
ACAD
1000
AcDbSavedByObjectVersion
1070
     0
  0
ACAD_PROXY_OBJECT
  5
709C
102
{ACAD_REACTORS
330
7092
102
}
330
7092
100
AcDbProxyObject
 90
      499
 91
      505
 93
      500
310
4290DBDB98D95C1D1D585B10940D028333333333333E33F0000000000000F90107902409070040501000000000018199010841D405064090740C02480A0340
1001
ACAD
1000
AcDbSavedByObjectVersion
1070
     0
  0
ACAD_PROXY_OBJECT
  5
709D
102
{ACAD_REACTORS
330
7092
102
}
330
7092
100
AcDbProxyObject
 90
      499
 91
      505
 93
      412
310
40D11A5B50B409028333333333333E33F0000000000000F9010790141107004050150841D405064090741402480A02677FFFFFD0
1001
ACAD
1000
AcDbSavedByObjectVersion
1070
     0
  0
ACAD_PROXY_OBJECT
  5
70A5
102
{ACAD_REACTORS
330
7092
102
}
330
7092
100
AcDbProxyObject
 90
      499
 91
      505
 93
      452
310
43115919D950DBDB1BDC93D999916409028333333333333E33F0000000000000F9010790141107004050150841D405064090741402480A0350
1001
ACAD
1000
AcDbSavedByObjectVersion
1070
     0
  0
ACAD_PROXY_OBJECT
  5
70A1
102
{ACAD_REACTORS
330
7092
102
}
330
7092
100
AcDbProxyObject
 90
      499
 91
      505
 93
      444
310
42D19858D95C185D1D195C9B90F409028333333333333E33F0000000000000F9010790141107004050150841D405064090741402480A0350
1001
ACAD
1000
AcDbSavedByObjectVersion
1070
     0
  0
ACAD_PROXY_OBJECT
  5
7093
102
{ACAD_REACTORS
330
7092
102
}
330
7092
100
AcDbProxyObject
 90
      499
 91
      505
 93
      380
310
41119B185D240901404333333333333E33F0000000000000F9010740A907004050150841D405064090741402480A1B50
1001
ACAD
1000
AcDbSavedByObjectVersion
1070
     0
  0
ACAD_PROXY_OBJECT
  5
7094
102
{ACAD_REACTORS
330
7092
102
}
330
7092
100
AcDbProxyObject
 90
      499
 91
      505
 93
      468
310
43519B185D15DA5D1A115919D95CD0140901404333333333333E33F0000000000000F90107409019070040501600405405064090741402480A1B50
1001
ACAD
1000
AcDbSavedByObjectVersion
1070
     0
  0
ACAD_PROXY_OBJECT
  5
7095
102
{ACAD_REACTORS
330
7092
102
}
330
7092
100
AcDbProxyObject
 90
      499
 91
      505
 93
      404
310
41D1DBDD5C985D5910240902404333333333333E33F0000000000000F9010740A9070040501641D405064090741402480A1B50
1001
ACAD
1000
AcDbSavedByObjectVersion
1070
     0
  0
ACAD_PROXY_OBJECT
  5
7096
102
{ACAD_REACTORS
330
7092
102
}
330
7092
100
AcDbProxyObject
 90
      499
 91
      505
 93
      492
310
4411DBDD5C985D5915DA5D1A115919D95CD0340902404333333333333E33F0000000000000F90107409019070040501600405405064090741402480A1B50
1001
ACAD
1000
AcDbSavedByObjectVersion
1070
     0
  0
ACAD_PROXY_OBJECT
  5
7099
102
{ACAD_REACTORS
330
7092
102
}
330
7092
100
AcDbProxyObject
 90
      499
 91
      505
 93
      476
310
41921A5919195B90640502408333333333333E33F0000000000000F901079024090700405020000000000001110200405405064090740C02480A0340
1001
ACAD
1000
AcDbSavedByObjectVersion
1070
     0
  0
ACAD_PROXY_OBJECT
  5
70A3
102
{ACAD_REACTORS
330
7092
102
}
330
7092
100
AcDbProxyObject
 90
      499
 91
      505
 93
      428
310
42529A5D1D195C93D999914409028333333333333E33F0000000000000F9010790141107004050150A41D405064090741402480A0350
1001
ACAD
1000
AcDbSavedByObjectVersion
1070
     0
  0
ACAD_PROXY_OBJECT
  5
70A0
102
{ACAD_REACTORS
330
7092
102
}
330
7092
100
AcDbProxyObject
 90
      499
 91
      505
 93
      444
310
42D31A5B995C185D1D195C9B90E409028333333333333E33F0000000000000F9010790141107004050750841D405064090741402483A0350
1001
ACAD
1000
AcDbSavedByObjectVersion
1070
     0
  0
ACAD_PROXY_OBJECT
  5
70A4
102
{ACAD_REACTORS
330
7092
102
}
330
7092
100
AcDbProxyObject
 90
      499
 91
      505
 93
      444
310
42D3DD995C9A185B99D3D999915409028333333333333E33F0000000000000F9010790141107004050150941D405064090741402480A0350
1001
ACAD
1000
AcDbSavedByObjectVersion
1070
     0
  0
ACAD_PROXY_OBJECT
  5
709B
102
{ACAD_REACTORS
330
7092
102
}
330
7092
100
AcDbProxyObject
 90
      499
 91
      505
 93
      428
310
425499585B1A5CDD1A58D08409038333333333333E33F0000000000000F9010740A907004050150800405405064090740C02480A1B40
1001
ACAD
1000
AcDbSavedByObjectVersion
1070
     0
  0
ACAD_PROXY_OBJECT
  5
70AA
102
{ACAD_REACTORS
330
7092
102
}
330
7092
100
AcDbProxyObject
 90
      499
 91
      505
 93
      420
310
4194DA1859195911B40902404333333333333E33F0000000000000F9010740A41107004050150800405405064090840C02480A0B40
1001
ACAD
1000
AcDbSavedByObjectVersion
1070
     0
  0
ACAD_PROXY_OBJECT
  5
70A9
102
{ACAD_REACTORS
330
7092
102
}
330
7092
100
AcDbProxyObject
 90
      499
 91
      505
 93
      516
310
4454DA18591959081DDA5D1A08195919D95CD1A40902404333333333333E33F0000000000000F901074090142907004050250800405405064090740C02480A0B40
1001
ACAD
1000
AcDbSavedByObjectVersion
1070
     0
  0
ACAD_PROXY_OBJECT
  5
70A6
102
{ACAD_REACTORS
330
7092
102
}
330
7092
100
AcDbProxyObject
 90
      499
 91
      505
 93
      532
310
4394DA1859195CC81BD98811DC985E5174090240C333333333333E33F0000000000000F901079024090741D01000000000000111010841D405064090740C02480A0340
1001
ACAD
1000
AcDbSavedByObjectVersion
1070
     0
  0
ACAD_PROXY_OBJECT
  5
70A7
102
{ACAD_REACTORS
330
7092
102
}
330
7092
100
AcDbProxyObject
 90
      499
 91
      505
 93
      476
310
41D4DAD95D18DA1E51840502408333333333333E33F0000000000000F901079024090741D01000000000000111010B41D405064090741802480A0340
1001
ACAD
1000
AcDbSavedByObjectVersion
1070
     0
  0
ACAD_PROXY_OBJECT
  5
709F
102
{ACAD_REACTORS
330
7092
102
}
330
7092
100
AcDbProxyObject
 90
      499
 91
      505
 93
      412
310
41D51A1A58DAD95B90D409028333333333333E33F0000000000000F9010790141107004050150C41D405064090741402480A0350
1001
ACAD
1000
AcDbSavedByObjectVersion
1070
     0
  0
ACAD_PROXY_OBJECT
  5
7098
102
{ACAD_REACTORS
330
7092
102
}
330
7092
100
AcDbProxyObject
 90
      499
 91
      505
 93
      420
310
4255DA5C99599C985B595059028333333333333E33F0000000000000F90107901411070040501600405405064090740C02480A0340
1001
ACAD
1000
AcDbSavedByObjectVersion
1070
     0
  0
ACAD_PROXY_OBJECT
  5
70A8
102
{ACAD_REACTORS
330
7092
102
}
330
7092
100
AcDbProxyObject
 90
      499
 91
      505
 93
      404
310
41560B54985E51940902404000000000000E03F0000000000000F9010740501907004050150841D405064090740C02480A1B40
1001
ACAD
1000
AcDbSavedByObjectVersion
1070
     0
  0
XRECORD
  5
724D
102
{ACAD_REACTORS
330
7243
102
}
330
7243
100
AcDbXrecord
340
0
  0
XRECORD
  5
724C
102
{ACAD_REACTORS
330
7243
102
}
330
7243
100
AcDbXrecord
 90
        0
  0
XRECORD
  5
7266
102
{ACAD_REACTORS
330
7243
102
}
330
7243
100
AcDbXrecord
340
2948
  0
XRECORD
  5
7263
102
{ACAD_REACTORS
330
7243
102
}
330
7243
100
AcDbXrecord
1000
DSTYLE
1002
{
1070
   171
 70
     2
1070
   143
 40
0.0394
1070
   274
 70
     2
1070
    41
 40
6.0
1070
   342
340
2AF4
1070
   271
 70
     1
1070
   278
 70
    46
1070
   341
340
2AF4
1070
   272
 70
     1
1070
    48
 40
0.1
1070
   283
 70
     1
1070
    47
 40
0.1
1070
   145
 40
1.0
1070
   340
340
10
1070
   140
 40
8.0
1070
   284
 70
     0
1002
}
  0
XRECORD
  5
724E
102
{ACAD_REACTORS
330
7243
102
}
330
7243
100
AcDbXrecord
  1
{23698909-1D67-4744-B0E2-8DE11E3ED422}
  0
XRECORD
  5
7246
102
{ACAD_REACTORS
330
7243
102
}
330
7243
100
AcDbXrecord
  1

  0
XRECORD
  5
724B
102
{ACAD_REACTORS
330
7243
102
}
330
7243
100
AcDbXrecord
 90
        0
  0
XRECORD
  5
7248
102
{ACAD_REACTORS
330
7243
102
}
330
7243
100
AcDbXrecord
340
2816
  0
XRECORD
  5
724A
102
{ACAD_REACTORS
330
7243
102
}
330
7243
100
AcDbXrecord
 90
    10781
  0
XRECORD
  5
7267
102
{ACAD_REACTORS
330
7243
102
}
330
7243
100
AcDbXrecord
340
2947
  0
XRECORD
  5
7249
102
{ACAD_REACTORS
330
7243
102
}
330
7243
100
AcDbXrecord
340
2817
  0
XRECORD
  5
7250
102
{ACAD_REACTORS
330
7243
102
}
330
7243
100
AcDbXrecord
 40
0.25
  0
XRECORD
  5
7253
102
{ACAD_REACTORS
330
7243
102
}
330
7243
100
AcDbXrecord
340
0
  0
XRECORD
  5
7259
102
{ACAD_REACTORS
330
7243
102
}
330
7243
100
AcDbXrecord
 10
0.0
 20
0.0
 30
0.0
  0
XRECORD
  5
7255
102
{ACAD_REACTORS
330
7243
102
}
330
7243
100
AcDbXrecord
 10
0.0
 20
0.0
 30
0.0
  0
XRECORD
  5
7258
102
{ACAD_REACTORS
330
7243
102
}
330
7243
100
AcDbXrecord
 10
0.0
 20
0.0
 30
0.0
  0
XRECORD
  5
7256
102
{ACAD_REACTORS
330
7243
102
}
330
7243
100
AcDbXrecord
 10
0.0
 20
0.0
 30
0.0
  0
XRECORD
  5
7257
102
{ACAD_REACTORS
330
7243
102
}
330
7243
100
AcDbXrecord
 10
0.0
 20
0.0
 30
0.0
  0
XRECORD
  5
7254
102
{ACAD_REACTORS
330
7243
102
}
330
7243
100
AcDbXrecord
 10
0.0
 20
0.0
 30
0.0
  0
XRECORD
  5
7251
102
{ACAD_REACTORS
330
7243
102
}
330
7243
100
AcDbXrecord
340
0
  0
XRECORD
  5
7252
102
{ACAD_REACTORS
330
7243
102
}
330
7243
100
AcDbXrecord
 70
     0
  0
XRECORD
  5
7247
102
{ACAD_REACTORS
330
7243
102
}
330
7243
100
AcDbXrecord
  1

  0
XRECORD
  5
7244
102
{ACAD_REACTORS
330
7243
102
}
330
7243
100
AcDbXrecord
 90
        1
  0
XRECORD
  5
7245
102
{ACAD_REACTORS
330
7243
102
}
330
7243
100
AcDbXrecord
 90
       70
  0
XRECORD
  5
725C
102
{ACAD_REACTORS
330
7243
102
}
330
7243
100
AcDbXrecord
340
0
  0
XRECORD
  5
7262
102
{ACAD_REACTORS
330
7243
102
}
330
7243
100
AcDbXrecord
 10
0.0
 20
0.0
 30
0.0
  0
XRECORD
  5
725E
102
{ACAD_REACTORS
330
7243
102
}
330
7243
100
AcDbXrecord
 10
0.0
 20
0.0
 30
0.0
  0
XRECORD
  5
7261
102
{ACAD_REACTORS
330
7243
102
}
330
7243
100
AcDbXrecord
 10
0.0
 20
0.0
 30
0.0
  0
XRECORD
  5
725F
102
{ACAD_REACTORS
330
7243
102
}
330
7243
100
AcDbXrecord
 10
0.0
 20
0.0
 30
0.0
  0
XRECORD
  5
7260
102
{ACAD_REACTORS
330
7243
102
}
330
7243
100
AcDbXrecord
 10
0.0
 20
0.0
 30
0.0
  0
XRECORD
  5
725D
102
{ACAD_REACTORS
330
7243
102
}
330
7243
100
AcDbXrecord
 10
0.0
 20
0.0
 30
0.0
  0
XRECORD
  5
725A
102
{ACAD_REACTORS
330
7243
102
}
330
7243
100
AcDbXrecord
340
0
  0
XRECORD
  5
725B
102
{ACAD_REACTORS
330
7243
102
}
330
7243
100
AcDbXrecord
 70
     0
  0
XRECORD
  5
724F
102
{ACAD_REACTORS
330
7243
102
}
330
7243
100
AcDbXrecord
  1
{1A265FD4-6F3B-45CB-B167-7473EDF7AE90}
  0
DICTIONARYVAR
  5
722B
102
{ACAD_REACTORS
330
722A
102
}
330
722A
100
DictionaryVariables
280
     0
  1
1:1
  0
DICTIONARYVAR
  5
722D
102
{ACAD_REACTORS
330
722A
102
}
330
722A
100
DictionaryVariables
280
     0
  1
Standard
  0
DICTIONARYVAR
  5
722C
102
{ACAD_REACTORS
330
722A
102
}
330
722A
100
DictionaryVariables
280
     0
  1
Standard
  0
DICTIONARYVAR
  5
7264
102
{ACAD_REACTORS
330
722A
102
}
330
722A
100
DictionaryVariables
280
     0
  1
1
  0
DICTIONARYVAR
  5
7265
102
{ACAD_REACTORS
330
722A
102
}
330
722A
100
DictionaryVariables
280
     0
  1
0
  0
DICTIONARYVAR
  5
722E
102
{ACAD_REACTORS
330
722A
102
}
330
722A
100
DictionaryVariables
280
     0
  1
0
  0
DICTIONARYVAR
  5
722F
102
{ACAD_REACTORS
330
722A
102
}
330
722A
100
DictionaryVariables
280
     0
  1
0
  0
DICTIONARY
  5
7242
102
{ACAD_REACTORS
330
7241
102
}
330
7241
100
AcDbDictionary
  0
DICTIONARY
  5
71D7
102
{ACAD_REACTORS
330
71D6
102
}
330
71D6
100
AcDbDictionary
  0
DICTIONARY
  5
71DB
102
{ACAD_REACTORS
330
71DA
102
}
330
71DA
100
AcDbDictionary
  0
DICTIONARY
  5
71E0
102
{ACAD_REACTORS
330
71DF
102
}
330
71DF
100
AcDbDictionary
  0
DICTIONARY
  5
71ED
102
{ACAD_REACTORS
330
71EC
102
}
330
71EC
100
AcDbDictionary
  0
DICTIONARY
  5
71F1
102
{ACAD_REACTORS
330
71F0
102
}
330
71F0
100
AcDbDictionary
  0
DICTIONARY
  5
71F5
102
{ACAD_REACTORS
330
71F4
102
}
330
71F4
100
AcDbDictionary
  0
DICTIONARY
  5
71FA
102
{ACAD_REACTORS
330
71F9
102
}
330
71F9
100
AcDbDictionary
  0
DICTIONARY
  5
720D
102
{ACAD_REACTORS
330
720C
102
}
330
720C
100
AcDbDictionary
  0
DICTIONARY
  5
7211
102
{ACAD_REACTORS
330
7210
102
}
330
7210
100
AcDbDictionary
  0
DICTIONARY
  5
7216
102
{ACAD_REACTORS
330
7215
102
}
330
7215
100
AcDbDictionary
  0
DICTIONARY
  5
70D7
102
{ACAD_REACTORS
330
70D6
102
}
330
70D6
100
AcDbDictionary
  0
DICTIONARY
  5
70DA
102
{ACAD_REACTORS
330
70D9
102
}
330
70D9
100
AcDbDictionary
  0
DICTIONARY
  5
726F
330
70CE
100
AcDbDictionary
280
     1
  3
ACAD_XREC_ROUNDTRIP
360
7270
  0
DICTIONARY
  5
726D
330
70CD
100
AcDbDictionary
280
     1
  3
ACAD_XREC_ROUNDTRIP
360
726E
  0
DICTIONARY
  5
726B
330
5486
100
AcDbDictionary
280
     1
  3
ACAD_XREC_ROUNDTRIP
360
726C
  0
XRECORD
  5
7270
102
{ACAD_REACTORS
330
726F
102
}
330
726F
100
AcDbXrecord
102
MATERIAL
148
0.0
149
0.0
149
0.0
 93
        0
 94
      127
282
     0
 72
     1
 77
     1
171
     1
175
     1
179
     1
273
     0
  0
XRECORD
  5
726E
102
{ACAD_REACTORS
330
726D
102
}
330
726D
100
AcDbXrecord
102
MATERIAL
148
0.0
149
0.0
149
0.0
 93
        0
 94
      127
282
     0
 72
     1
 77
     1
171
     1
175
     1
179
     1
273
     0
  0
XRECORD
  5
726C
102
{ACAD_REACTORS
330
726B
102
}
330
726B
100
AcDbXrecord
102
MATERIAL
148
0.0
149
0.0
149
0.0
 93
        0
 94
      127
282
     0
 72
     1
 77
     1
171
     1
175
     1
179
     1
273
     0
  0
ENDSEC
  0
EOF
