  0
SECTION
  2
HEADER
  9
$ACADVER
  1
AC1014
  9
$ACADMAINTVER
 70
     9
  9
$DWGCODEPAGE
  3
ANSI_932
  9
$INSBASE
 10
0.0
 20
0.0
 30
0.0
  9
$EXTMIN
 10
-60.479997856102
 20
195.120019087294
 30
0.0
  9
$EXTMAX
 10
916.463128659848
 20
741.864381484179
 30
0.0
  9
$LIMMIN
 10
-360.747566795242
 20
4.457354754526
  9
$LIMMAX
 10
-162.153696144267
 20
287.675440264018
  9
$ORTHOMODE
 70
     0
  9
$REGENMODE
 70
     1
  9
$FILLMODE
 70
     1
  9
$QTEXTMODE
 70
     0
  9
$MIRRTEXT
 70
     1
  9
$DRAGMODE
 70
     2
  9
$LTSCALE
 40
1.0
  9
$OSMODE
 70
    32
  9
$ATTMODE
 70
     1
  9
$TEXTSIZE
 40
2.333873885063
  9
$TRACEWID
 40
1.0
  9
$TEXTSTYLE
  7
STANDARD
  9
$CLAYER
  8
細線
  9
$CELTYPE
  6
BYLAYER
  9
$CECOLOR
 62
   256
  9
$CELTSCALE
 40
10.0
  9
$DELOBJ
 70
     1
  9
$DISPSILH
 70
     0
  9
$DIMSCALE
 40
1.0
  9
$DIMASZ
 40
6.0
  9
$DIMEXO
 40
0.625
  9
$DIMDLI
 40
3.75
  9
$DIMRND
 40
0.0
  9
$DIMDLE
 40
0.0
  9
$DIMEXE
 40
1.25
  9
$DIMTP
 40
0.1
  9
$DIMTM
 40
0.1
  9
$DIMTXT
 40
8.0
  9
$DIMCEN
 40
2.5
  9
$DIMTSZ
 40
0.0
  9
$DIMTOL
 70
     0
  9
$DIMLIM
 70
     0
  9
$DIMTIH
 70
     0
  9
$DIMTOH
 70
     0
  9
$DIMSE1
 70
     0
  9
$DIMSE2
 70
     0
  9
$DIMTAD
 70
     1
  9
$DIMZIN
 70
     8
  9
$DIMBLK
  1
OPEN30
  9
$DIMASO
 70
     1
  9
$DIMSHO
 70
     1
  9
$DIMPOST
  1

  9
$DIMAPOST
  1

  9
$DIMALT
 70
     0
  9
$DIMALTD
 70
     2
  9
$DIMALTF
 40
0.0394
  9
$DIMLFAC
 40
1.0
  9
$DIMTOFL
 70
     1
  9
$DIMTVP
 40
1.0
  9
$DIMTIX
 70
     0
  9
$DIMSOXD
 70
     0
  9
$DIMSAH
 70
     0
  9
$DIMBLK1
  1

  9
$DIMBLK2
  1

  9
$DIMSTYLE
  2
ISO-25
  9
$DIMCLRD
 70
     0
  9
$DIMCLRE
 70
     0
  9
$DIMCLRT
 70
     0
  9
$DIMTFAC
 40
1.0
  9
$DIMGAP
 40
0.625
  9
$DIMJUST
 70
     0
  9
$DIMSD1
 70
     0
  9
$DIMSD2
 70
     0
  9
$DIMTOLJ
 70
     1
  9
$DIMTZIN
 70
     0
  9
$DIMALTZ
 70
     0
  9
$DIMALTTZ
 70
     0
  9
$DIMFIT
 70
     3
  9
$DIMUPT
 70
     0
  9
$DIMUNIT
 70
     2
  9
$DIMDEC
 70
     1
  9
$DIMTDEC
 70
     1
  9
$DIMALTU
 70
     2
  9
$DIMALTTD
 70
     2
  9
$DIMTXSTY
  7
STANDARD
  9
$DIMAUNIT
 70
     0
  9
$LUNITS
 70
     2
  9
$LUPREC
 70
     4
  9
$SKETCHINC
 40
1.0
  9
$FILLETRAD
 40
5.0
  9
$AUNITS
 70
     0
  9
$AUPREC
 70
     0
  9
$MENU
  1
.
  9
$ELEVATION
 40
0.0
  9
$PELEVATION
 40
0.0
  9
$THICKNESS
 40
0.0
  9
$LIMCHECK
 70
     0
  9
$CHAMFERA
 40
10.0
  9
$CHAMFERB
 40
10.0
  9
$CHAMFERC
 40
20.0
  9
$CHAMFERD
 40
0.0
  9
$SKPOLY
 70
     0
  9
$TDCREATE
 40
2450576.597302431
  9
$TDUPDATE
 40
2457193.659746609
  9
$TDINDWG
 40
1.4030185764
  9
$TDUSRTIMER
 40
1.4030185764
  9
$USRTIMER
 70
     1
  9
$ANGBASE
 50
0.0
  9
$ANGDIR
 70
     0
  9
$PDMODE
 70
     0
  9
$PDSIZE
 40
0.0
  9
$PLINEWID
 40
0.0
  9
$COORDS
 70
     1
  9
$SPLFRAME
 70
     0
  9
$SPLINETYPE
 70
     6
  9
$SPLINESEGS
 70
     8
  9
$ATTDIA
 70
     0
  9
$ATTREQ
 70
     1
  9
$HANDLING
 70
     1
  9
$HANDSEED
  5
8D55
  9
$SURFTAB1
 70
     6
  9
$SURFTAB2
 70
     6
  9
$SURFTYPE
 70
     6
  9
$SURFU
 70
     6
  9
$SURFV
 70
     6
  9
$UCSNAME
  2

  9
$UCSORG
 10
0.0
 20
0.0
 30
0.0
  9
$UCSXDIR
 10
1.0
 20
0.0
 30
0.0
  9
$UCSYDIR
 10
0.0
 20
1.0
 30
0.0
  9
$PUCSNAME
  2

  9
$PUCSORG
 10
0.0
 20
0.0
 30
0.0
  9
$PUCSXDIR
 10
1.0
 20
0.0
 30
0.0
  9
$PUCSYDIR
 10
0.0
 20
1.0
 30
0.0
  9
$USERI1
 70
     0
  9
$USERI2
 70
     0
  9
$USERI3
 70
     0
  9
$USERI4
 70
     0
  9
$USERI5
 70
     0
  9
$USERR1
 40
0.0
  9
$USERR2
 40
0.0
  9
$USERR3
 40
0.0
  9
$USERR4
 40
0.0
  9
$USERR5
 40
0.0
  9
$WORLDVIEW
 70
     1
  9
$SHADEDGE
 70
     3
  9
$SHADEDIF
 70
    70
  9
$TILEMODE
 70
     0
  9
$MAXACTVP
 70
    16
  9
$PINSBASE
 10
0.0
 20
0.0
 30
0.0
  9
$PLIMCHECK
 70
     0
  9
$PEXTMIN
 10
4.746305129083
 20
1.396645458131
 30
0.0
  9
$PEXTMAX
 10
404.746305129083
 20
281.396645458131
 30
0.0
  9
$PLIMMIN
 10
-6.946593322754
 20
-6.94658241272
  9
$PLIMMAX
 10
417.718108215332
 20
293.315276107788
  9
$UNITMODE
 70
     0
  9
$VISRETAIN
 70
     0
  9
$PLINEGEN
 70
     0
  9
$PSLTSCALE
 70
     1
  9
$TREEDEPTH
 70
  3020
  9
$PICKSTYLE
 70
     1
  9
$CMLSTYLE
  2
STANDARD
  9
$CMLJUST
 70
     0
  9
$CMLSCALE
 40
1.0
  9
$PROXYGRAPHICS
 70
     1
  9
$MEASUREMENT
 70
     1
  0
ENDSEC
  0
SECTION
  2
CLASSES
  0
CLASS
  1
ACDBDICTIONARYWDFLT
  2
AcDbDictionaryWithDefault
  3
ObjectDBX Classes
 90
        0
280
     0
281
     0
  0
CLASS
  1
ACDBPLACEHOLDER
  2
AcDbPlaceHolder
  3
ObjectDBX Classes
 90
        0
280
     0
281
     0
  0
CLASS
  1
LAYOUT
  2
AcDbLayout
  3
ObjectDBX Classes
 90
        0
280
     0
281
     0
  0
CLASS
  1
MATERIAL
  2
AcDbMaterial
  3
ObjectDBX Classes
 90
     1153
280
     0
281
     0
  0
CLASS
  1
SORTENTSTABLE
  2
AcDbSortentsTable
  3
ObjectDBX Classes
 90
        0
280
     0
281
     0
  0
CLASS
  1
VISUALSTYLE
  2
AcDbVisualStyle
  3
ObjectDBX Classes
 90
     4095
280
     0
281
     0
  0
CLASS
  1
SCALE
  2
AcDbScale
  3
ObjectDBX Classes
 90
     1153
280
     0
281
     0
  0
CLASS
  1
TABLESTYLE
  2
AcDbTableStyle
  3
ObjectDBX Classes
 90
     4095
280
     0
281
     0
  0
CLASS
  1
MLEADERSTYLE
  2
AcDbMLeaderStyle
  3
ACDB_MLEADERSTYLE_CLASS
 90
     4095
280
     0
281
     0
  0
CLASS
  1
SUN
  2
AcDbSun
  3
SCENEOE
 90
     1153
280
     0
281
     0
  0
CLASS
  1
DICTIONARYVAR
  2
AcDbDictionaryVar
  3
ObjectDBX Classes
 90
        0
280
     0
281
     0
  0
CLASS
  1
XRECORD
  2
AcDbXrecord
  3
ObjectDBX Classes
 90
        0
280
     0
281
     0
  0
CLASS
  1
LWPOLYLINE
  2
AcDbPolyline
  3
ObjectDBX Classes
 90
        0
280
     0
281
     1
  0
CLASS
  1
HATCH
  2
AcDbHatch
  3
ObjectDBX Classes
 90
        0
280
     0
281
     1
  0
ENDSEC
  0
SECTION
  2
TABLES
  0
TABLE
  2
VPORT
  5
8
102
{ACAD_XDICTIONARY
360
8D4C
102
}
330
0
100
AcDbSymbolTable
 70
     2
  0
VPORT
  5
7B44
330
8
100
AcDbSymbolTableRecord
100
AcDbViewportTableRecord
  2
*ACTIVE
 70
     0
 10
0.0
 20
0.0
 11
1.0
 21
1.0
 12
760.122825903561
 22
385.916964038056
 13
0.0
 23
0.0
 14
1.0
 24
1.0
 15
0.0
 25
0.0
 16
0.0
 26
0.0
 36
1.0
 17
0.0
 27
0.0
 37
0.0
 40
273.091632611157
 41
1.56746031746
 42
50.0
 43
0.0
 44
0.0
 50
0.0
 51
0.0
 71
    16
 72
   100
 73
     1
 74
     0
 75
     0
 76
     0
 77
     0
 78
     0
  0
ENDTAB
  0
TABLE
  2
LTYPE
  5
5
330
0
100
AcDbSymbolTable
 70
     5
  0
LTYPE
  5
14
330
5
100
AcDbSymbolTableRecord
100
AcDbLinetypeTableRecord
  2
BYBLOCK
 70
     0
  3

 72
    65
 73
     0
 40
0.0
  0
LTYPE
  5
15
330
5
100
AcDbSymbolTableRecord
100
AcDbLinetypeTableRecord
  2
BYLAYER
 70
     0
  3

 72
    65
 73
     0
 40
0.0
  0
LTYPE
  5
16
330
5
100
AcDbSymbolTableRecord
100
AcDbLinetypeTableRecord
  2
CONTINUOUS
 70
     0
  3
Solid line
 72
    65
 73
     0
 40
0.0
  0
LTYPE
  5
1EC
330
5
100
AcDbSymbolTableRecord
100
AcDbLinetypeTableRecord
  2
CENTER
 70
     0
  3
____ _ ____ _ ____ _ ____ _ ____ _ ____ _ ____ 
 72
    65
 73
     4
 40
2.0
 49
1.25
 74
     0
 49
-0.25
 74
     0
 49
0.25
 74
     0
 49
-0.25
 74
     0
  0
LTYPE
  5
1ED
330
5
100
AcDbSymbolTableRecord
100
AcDbLinetypeTableRecord
  2
DASHED
 70
     0
  3
__ __ __ __ __ __ __ __ __ __ __ __ __ __ __ __
 72
    65
 73
     2
 40
0.75
 49
0.5
 74
     0
 49
-0.25
 74
     0
  0
LTYPE
  5
2B1F
330
5
100
AcDbSymbolTableRecord
100
AcDbLinetypeTableRecord
  2
DASHDOT
 70
     0
  3
一点鎖線
 72
    65
 73
     4
 40
25.6
 49
20.0
 74
     0
 49
-2.0
 74
     0
 49
1.6
 74
     0
 49
-2.0
 74
     0
  0
LTYPE
  5
34F8
330
5
100
AcDbSymbolTableRecord
100
AcDbLinetypeTableRecord
  2
DIVIDE
 70
     0
  3
二点鎖線
 72
    65
 73
     6
 40
31.2
 49
20.0
 74
     0
 49
-2.4
 74
     0
 49
2.0
 74
     0
 49
-2.4
 74
     0
 49
2.0
 74
     0
 49
-2.4
 74
     0
  0
ENDTAB
  0
TABLE
  2
LAYER
  5
2
102
{ACAD_XDICTIONARY
360
29EA
102
}
330
0
100
AcDbSymbolTable
 70
    14
  0
LAYER
  5
F
330
2
100
AcDbSymbolTableRecord
100
AcDbLayerTableRecord
  2
0
 70
     0
 62
     7
  6
CONTINUOUS
  0
LAYER
  5
61
330
2
100
AcDbSymbolTableRecord
100
AcDbLayerTableRecord
  2
図枠太線
 70
     0
 62
   251
  6
CONTINUOUS
  0
LAYER
  5
62
330
2
100
AcDbSymbolTableRecord
100
AcDbLayerTableRecord
  2
図枠細線
 70
     0
 62
   252
  6
CONTINUOUS
  0
LAYER
  5
63
330
2
100
AcDbSymbolTableRecord
100
AcDbLayerTableRecord
  2
図枠ロゴマーク
 70
     0
 62
   253
  6
CONTINUOUS
  0
LAYER
  5
1EF
330
2
100
AcDbSymbolTableRecord
100
AcDbLayerTableRecord
  2
外形線
 70
     0
 62
     7
  6
CONTINUOUS
  0
LAYER
  5
1F0
330
2
100
AcDbSymbolTableRecord
100
AcDbLayerTableRecord
  2
寸法線
 70
     0
 62
     1
  6
CONTINUOUS
  0
LAYER
  5
1F1
330
2
100
AcDbSymbolTableRecord
100
AcDbLayerTableRecord
  2
中心線
 70
     0
 62
     4
  6
CENTER
  0
LAYER
  5
1F4
330
2
100
AcDbSymbolTableRecord
100
AcDbLayerTableRecord
  2
DEFPOINTS
 70
     0
 62
     7
  6
CONTINUOUS
  0
LAYER
  5
2AA2
330
2
100
AcDbSymbolTableRecord
100
AcDbLayerTableRecord
  2
下書線
 70
     0
 62
     2
  6
CONTINUOUS
  0
LAYER
  5
2AA3
330
2
100
AcDbSymbolTableRecord
100
AcDbLayerTableRecord
  2
隠れ線
 70
     0
 62
     3
  6
DASHED
  0
LAYER
  5
2AA4
330
2
100
AcDbSymbolTableRecord
100
AcDbLayerTableRecord
  2
細線
 70
     0
 62
     6
  6
CONTINUOUS
  0
LAYER
  5
2AA5
330
2
100
AcDbSymbolTableRecord
100
AcDbLayerTableRecord
  2
太線
 70
     0
 62
   190
  6
CONTINUOUS
  0
LAYER
  5
2B20
330
2
100
AcDbSymbolTableRecord
100
AcDbLayerTableRecord
  2
LAY-1
 70
     0
 62
     7
  6
CONTINUOUS
  0
LAYER
  5
5483
330
2
100
AcDbSymbolTableRecord
100
AcDbLayerTableRecord
  2
寸法線_文字
 70
     0
 62
     1
  6
CONTINUOUS
  0
ENDTAB
  0
TABLE
  2
STYLE
  5
3
330
0
100
AcDbSymbolTable
 70
     3
  0
STYLE
  5
10
330
3
100
AcDbSymbolTableRecord
100
AcDbTextStyleTableRecord
  2
STANDARD
 70
     0
 40
0.0
 41
1.0
 50
0.0
 71
     0
 42
2.333873885063
  3
ISOCP
  4
bigfont.shx
  0
STYLE
  5
64
330
3
100
AcDbSymbolTableRecord
100
AcDbTextStyleTableRecord
  2
EXCADSTD
 70
     0
 40
0.0
 41
1.0
 50
0.0
 71
     0
 42
0.2
  3
monotxt
  4
bigfont
  0
STYLE
  5
2B21
330
3
100
AcDbSymbolTableRecord
100
AcDbTextStyleTableRecord
  2
EXCADVERT
 70
     4
 40
0.0
 41
1.0
 50
0.0
 71
     0
 42
0.286885
  3
monotxt
  4
bigfont
  0
ENDTAB
  0
TABLE
  2
VIEW
  5
6
330
0
100
AcDbSymbolTable
 70
     0
  0
ENDTAB
  0
TABLE
  2
UCS
  5
7
330
0
100
AcDbSymbolTable
 70
     0
  0
ENDTAB
  0
TABLE
  2
APPID
  5
9
330
0
100
AcDbSymbolTable
 70
     3
  0
APPID
  5
11
330
9
100
AcDbSymbolTableRecord
100
AcDbRegAppTableRecord
  2
ACAD
 70
     0
  0
APPID
  5
7B95
330
9
100
AcDbSymbolTableRecord
100
AcDbRegAppTableRecord
  2
ACADANNOTATIVE
 70
     0
  0
APPID
  5
8D54
330
9
100
AcDbSymbolTableRecord
100
AcDbRegAppTableRecord
  2
ACAD_MLEADERVER
 70
     0
  0
ENDTAB
  0
TABLE
  2
DIMSTYLE
  5
A
330
0
100
AcDbSymbolTable
 70
     2
  0
DIMSTYLE
105
1D
330
A
100
AcDbSymbolTableRecord
100
AcDbDimStyleTableRecord
  2
STANDARD
 70
     0
  3

  4

  5

  6

  7

 40
1.0
 41
0.18
 42
0.0625
 43
0.38
 44
0.18
 45
0.0
 46
0.0
 47
0.0
 48
0.0
140
0.18
141
0.09
142
0.0
143
25.4
144
1.0
145
0.0
146
1.0
147
0.09
 71
     0
 72
     0
 73
     1
 74
     1
 75
     0
 76
     0
 77
     0
 78
     0
170
     0
171
     2
172
     0
173
     0
174
     0
175
     0
176
     0
177
     0
178
     0
270
     2
271
     4
272
     4
273
     2
274
     2
340
10
275
     0
280
     0
281
     0
282
     0
283
     1
284
     0
285
     0
286
     0
287
     3
288
     0
  0
DIMSTYLE
105
24
102
{ACAD_REACTORS
330
65DE
330
6611
330
7464
330
747E
330
7489
330
7509
330
750A
330
78D5
330
78E1
330
78E2
330
78E3
330
7862
330
7866
330
7867
330
7868
330
7869
330
786A
330
7872
330
7F78
330
7F9E
330
7F9F
102
}
330
A
100
AcDbSymbolTableRecord
100
AcDbDimStyleTableRecord
  2
ISO-25
 70
     0
  3

  4

  5

  6

  7

 40
1.0
 41
2.5
 42
0.625
 43
3.75
 44
1.25
 45
0.0
 46
0.0
 47
0.0
 48
0.0
140
2.5
141
2.5
142
0.0
143
0.0394
144
1.0
145
1.0
146
1.0
147
0.625
 71
     0
 72
     0
 73
     1
 74
     0
 75
     0
 76
     0
 77
     1
 78
     8
170
     0
171
     2
172
     1
173
     0
174
     0
175
     0
176
     0
177
     0
178
     0
270
     2
271
     4
272
     4
273
     2
274
     2
340
10
275
     0
280
     0
281
     0
282
     0
283
     1
284
     0
285
     0
286
     0
287
     3
288
     0
  0
ENDTAB
  0
TABLE
  2
BLOCK_RECORD
  5
1
330
0
100
AcDbSymbolTable
 70
    85
  0
BLOCK_RECORD
  5
1A
330
1
100
AcDbSymbolTableRecord
100
AcDbBlockTableRecord
  2
*MODEL_SPACE
  0
BLOCK_RECORD
  5
28FB
330
1
100
AcDbSymbolTableRecord
100
AcDbBlockTableRecord
  2
*PAPER_SPACE
  0
BLOCK_RECORD
  5
65
330
1
100
AcDbSymbolTableRecord
100
AcDbBlockTableRecord
  2
A$C3392
  0
BLOCK_RECORD
  5
29BF
330
1
100
AcDbSymbolTableRecord
100
AcDbBlockTableRecord
  2
A4横用_タイトル
1001
ACAD
1000
DesignCenter Data
1002
{
1070
     1
1070
     4
1002
}
  0
BLOCK_RECORD
  5
29F4
330
1
100
AcDbSymbolTableRecord
100
AcDbBlockTableRecord
  2
A4縦用_タイトル
1001
ACAD
1000
DesignCenter Data
1002
{
1070
     1
1070
     4
1002
}
  0
BLOCK_RECORD
  5
2A32
330
1
100
AcDbSymbolTableRecord
100
AcDbBlockTableRecord
  2
A3横用_タイトル
1001
ACAD
1000
DesignCenter Data
1002
{
1070
     1
1070
     4
1002
}
  0
BLOCK_RECORD
  5
2A6C
330
1
100
AcDbSymbolTableRecord
100
AcDbBlockTableRecord
  2
A3縦用_タイトル
1001
ACAD
1000
DesignCenter Data
1002
{
1070
     1
1070
     4
1002
}
  0
BLOCK_RECORD
  5
2AF4
330
1
100
AcDbSymbolTableRecord
100
AcDbBlockTableRecord
  2
_OPEN30
  0
BLOCK_RECORD
  5
3024
330
1
100
AcDbSymbolTableRecord
100
AcDbBlockTableRecord
  2
パドル_W1
  0
BLOCK_RECORD
  5
3054
330
1
100
AcDbSymbolTableRecord
100
AcDbBlockTableRecord
  2
パドル_W1立面図
  0
BLOCK_RECORD
  5
3136
330
1
100
AcDbSymbolTableRecord
100
AcDbBlockTableRecord
  2
*D8
  0
BLOCK_RECORD
  5
3142
330
1
100
AcDbSymbolTableRecord
100
AcDbBlockTableRecord
  2
*D9
  0
BLOCK_RECORD
  5
314E
330
1
100
AcDbSymbolTableRecord
100
AcDbBlockTableRecord
  2
*D10
  0
BLOCK_RECORD
  5
315C
330
1
100
AcDbSymbolTableRecord
100
AcDbBlockTableRecord
  2
A$C384A4FFB
  0
BLOCK_RECORD
  5
34BA
330
1
100
AcDbSymbolTableRecord
100
AcDbBlockTableRecord
  2
A$C77C530E9
  0
BLOCK_RECORD
  5
672E
330
1
100
AcDbSymbolTableRecord
100
AcDbBlockTableRecord
  2
*D19
  0
BLOCK_RECORD
  5
6762
330
1
100
AcDbSymbolTableRecord
100
AcDbBlockTableRecord
  2
*D20
  0
BLOCK_RECORD
  5
7391
330
1
100
AcDbSymbolTableRecord
100
AcDbBlockTableRecord
  2
A$C135842B4
  0
BLOCK_RECORD
  5
73AE
330
1
100
AcDbSymbolTableRecord
100
AcDbBlockTableRecord
  2
A$C76E55026
  0
BLOCK_RECORD
  5
7499
330
1
100
AcDbSymbolTableRecord
100
AcDbBlockTableRecord
  2
*D28
  0
BLOCK_RECORD
  5
74BF
330
1
100
AcDbSymbolTableRecord
100
AcDbBlockTableRecord
  2
*D29
  0
BLOCK_RECORD
  5
74CB
330
1
100
AcDbSymbolTableRecord
100
AcDbBlockTableRecord
  2
*D30
  0
BLOCK_RECORD
  5
750B
330
1
100
AcDbSymbolTableRecord
100
AcDbBlockTableRecord
  2
*D31
  0
BLOCK_RECORD
  5
7517
330
1
100
AcDbSymbolTableRecord
100
AcDbBlockTableRecord
  2
*D32
  0
BLOCK_RECORD
  5
797B
330
1
100
AcDbSymbolTableRecord
100
AcDbBlockTableRecord
  2
*D45
  0
BLOCK_RECORD
  5
7987
330
1
100
AcDbSymbolTableRecord
100
AcDbBlockTableRecord
  2
*D46
  0
BLOCK_RECORD
  5
7993
330
1
100
AcDbSymbolTableRecord
100
AcDbBlockTableRecord
  2
*D47
  0
BLOCK_RECORD
  5
799F
330
1
100
AcDbSymbolTableRecord
100
AcDbBlockTableRecord
  2
*D48
  0
BLOCK_RECORD
  5
79AB
330
1
100
AcDbSymbolTableRecord
100
AcDbBlockTableRecord
  2
*D49
  0
BLOCK_RECORD
  5
79B8
330
1
100
AcDbSymbolTableRecord
100
AcDbBlockTableRecord
  2
*D50
  0
BLOCK_RECORD
  5
79C6
330
1
100
AcDbSymbolTableRecord
100
AcDbBlockTableRecord
  2
*D51
  0
BLOCK_RECORD
  5
79D2
330
1
100
AcDbSymbolTableRecord
100
AcDbBlockTableRecord
  2
*D52
  0
BLOCK_RECORD
  5
79DE
330
1
100
AcDbSymbolTableRecord
100
AcDbBlockTableRecord
  2
*D53
  0
BLOCK_RECORD
  5
79EC
330
1
100
AcDbSymbolTableRecord
100
AcDbBlockTableRecord
  2
*D54
  0
BLOCK_RECORD
  5
79F8
330
1
100
AcDbSymbolTableRecord
100
AcDbBlockTableRecord
  2
*D55
  0
BLOCK_RECORD
  5
803A
330
1
100
AcDbSymbolTableRecord
100
AcDbBlockTableRecord
  2
*D81
  0
BLOCK_RECORD
  5
8054
330
1
100
AcDbSymbolTableRecord
100
AcDbBlockTableRecord
  2
*D83
  0
BLOCK_RECORD
  5
805E
330
1
100
AcDbSymbolTableRecord
100
AcDbBlockTableRecord
  2
*D84
  0
ENDTAB
  0
ENDSEC
  0
SECTION
  2
BLOCKS
  0
BLOCK
  5
1B
330
1A
100
AcDbEntity
  8
0
100
AcDbBlockBegin
  2
*MODEL_SPACE
 70
     0
 10
0.0
 20
0.0
 30
0.0
  3
*MODEL_SPACE
  1

  0
ENDBLK
  5
1C
330
1A
100
AcDbEntity
  8
0
100
AcDbBlockEnd
  0
BLOCK
  5
28FD
330
28FB
100
AcDbEntity
 67
     1
  8
0
 48
10.0
100
AcDbBlockBegin
  2
*PAPER_SPACE
 70
     0
 10
0.0
 20
0.0
 30
0.0
  3
*PAPER_SPACE
  1

  0
ENDBLK
  5
28FE
330
28FB
100
AcDbEntity
 67
     1
  8
0
 48
10.0
100
AcDbBlockEnd
  0
BLOCK
  5
93
330
65
100
AcDbEntity
  8
0
100
AcDbBlockBegin
  2
A$C3392
 70
     0
 10
0.0
 20
0.0
 30
0.0
  3
A$C3392
  1
A$C3392
  0
LINE
  5
66
330
65
100
AcDbEntity
  8
図枠太線
  6
CONTINUOUS
100
AcDbLine
 10
211.858584505185
 20
30.927375675439
 30
0.0
 11
211.858584505185
 21
0.927375675439
 31
0.0
  0
LINE
  5
67
330
65
100
AcDbEntity
  8
図枠細線
  6
CONTINUOUS
100
AcDbLine
 10
231.858592505185
 20
15.927377675439
 30
0.0
 11
287.858592505185
 21
15.927375675439
 31
0.0
  0
LINE
  5
68
330
65
100
AcDbEntity
  8
図枠細線
  6
CONTINUOUS
100
AcDbLine
 10
211.858592505185
 20
15.927377675439
 30
0.0
 11
231.858592505185
 21
15.927377675439
 31
0.0
  0
LINE
  5
69
330
65
100
AcDbEntity
  8
図枠太線
  6
CONTINUOUS
 62
   251
100
AcDbLine
 10
1.858584505185
 20
0.927375675439
 30
0.0
 11
1.858584505185
 21
275.927375675439
 31
0.0
  0
TEXT
  5
6A
330
65
100
AcDbEntity
  8
図枠細線
  6
CONTINUOUS
 62
   252
100
AcDbText
 10
351.358592505185
 20
28.427377675439
 30
0.0
 40
2.0
  1
ＴＩＴＬＥ
 41
0.903614457831
  7
EXCADSTD
 72
     5
 11
361.358592505185
 21
28.427377675439
 31
0.0
100
AcDbText
  0
TEXT
  5
6B
330
65
100
AcDbEntity
  8
図枠細線
  6
CONTINUOUS
 62
   252
100
AcDbText
 10
345.358592505185
 20
28.427377675439
 30
0.0
 40
2.0
  1
名称
 41
1.171875
  7
EXCADSTD
 72
     5
 11
350.358592505185
 21
28.427377675439
 31
0.0
100
AcDbText
  0
TEXT
  5
6C
330
65
100
AcDbEntity
  8
図枠細線
  6
CONTINUOUS
 62
   252
100
AcDbText
 10
274.358592505185
 20
25.927377675439
 30
0.0
 40
2.0
  1
ＤＲＡＷＮ
 41
0.882352941176
  7
EXCADSTD
 72
     5
 11
284.358592505185
 21
25.927377675439
 31
0.0
100
AcDbText
  0
TEXT
  5
6D
330
65
100
AcDbEntity
  8
図枠細線
  6
CONTINUOUS
 62
   252
100
AcDbText
 10
260.358592505185
 20
25.927377675439
 30
0.0
 40
2.0
  1
ＤＥＳＩＧＮＥＤ
 41
0.713043472041
  7
EXCADSTD
 72
     5
 11
273.478592390744
 21
25.927377675439
 31
0.0
100
AcDbText
  0
TEXT
  5
6E
330
65
100
AcDbEntity
  8
図枠細線
  6
CONTINUOUS
 62
   252
100
AcDbText
 10
246.358592505185
 20
25.927377675439
 30
0.0
 40
2.0
  1
ＣＨＥＣＫＥＤ
 41
0.831249989569
  7
EXCADSTD
 72
     5
 11
259.658592338292
 21
25.927377675439
 31
0.0
100
AcDbText
  0
TEXT
  5
6F
330
65
100
AcDbEntity
  8
図枠細線
  6
CONTINUOUS
 62
   252
100
AcDbText
 10
274.358592505185
 20
28.427377675439
 30
0.0
 40
2.0
  1
製図
 41
1.209677419355
  7
EXCADSTD
 72
     5
 11
279.358592505185
 21
28.427377675439
 31
0.0
100
AcDbText
  0
TEXT
  5
70
330
65
100
AcDbEntity
  8
図枠細線
  6
CONTINUOUS
 62
   252
100
AcDbText
 10
260.358592505185
 20
28.427377675439
 30
0.0
 40
2.0
  1
設計
 41
1.171875
  7
EXCADSTD
 72
     5
 11
265.358592505185
 21
28.427377675439
 31
0.0
100
AcDbText
  0
TEXT
  5
71
330
65
100
AcDbEntity
  8
図枠細線
  6
CONTINUOUS
 62
   252
100
AcDbText
 10
246.358592505185
 20
28.427377675439
 30
0.0
 40
2.0
  1
検図
 41
1.209677419355
  7
EXCADSTD
 72
     5
 11
251.358592505185
 21
28.427377675439
 31
0.0
100
AcDbText
  0
TEXT
  5
72
330
65
100
AcDbEntity
  8
図枠細線
  6
CONTINUOUS
 62
   252
100
AcDbText
 10
232.358592505185
 20
25.927377675439
 30
0.0
 40
2.0
  1
ＡＰＰＲＯＶＥＤ
 41
0.695652184279
  7
EXCADSTD
 72
     5
 11
245.15859269592
 21
25.927377675439
 31
0.0
100
AcDbText
  0
TEXT
  5
73
330
65
100
AcDbEntity
  8
図枠細線
  6
CONTINUOUS
 62
   252
100
AcDbText
 10
232.358592505185
 20
28.427377675439
 30
0.0
 40
2.0
  1
承認
 41
1.171875
  7
EXCADSTD
 72
     5
 11
237.358592505185
 21
28.427377675439
 31
0.0
100
AcDbText
  0
TEXT
  5
74
330
65
100
AcDbEntity
  8
図枠細線
  6
CONTINUOUS
 62
   252
100
AcDbText
 10
290.069888505185
 20
2.574868675439
 30
0.0
 40
3.5
  1
ＴＯＷＡ　ＳＥＩＤＥＮ　ＩＮＤＵＳＴＲＩＡＬ　ＣＯ．，ＬＴＤ．
 41
0.414568012377
  7
EXCADSTD
 72
     5
 11
342.692388209546
 21
2.574868675439
 31
0.0
100
AcDbText
  0
TEXT
  5
75
330
65
100
AcDbEntity
  8
図枠ロゴマーク
  6
CONTINUOUS
 62
   253
100
AcDbText
 10
290.107348505185
 20
7.519769675439
 30
0.0
 40
7.0
  1
東和制電工業株式会社
 41
0.639204545455
  7
EXCADSTD
 72
     5
 11
342.607348505185
 21
7.519769675439
 31
0.0
100
AcDbText
  0
TEXT
  5
76
330
65
100
AcDbEntity
  8
図枠細線
  6
CONTINUOUS
 62
   252
100
AcDbText
 10
232.499705505185
 20
5.759088675439
 30
0.0
 40
2.0
  1
ＰＲＯＪＥＣＴＩＯＮ
 41
0.754285710199
  7
EXCADSTD
 72
     5
 11
250.099705409817
 21
5.759088675439
 31
0.0
100
AcDbText
  0
TEXT
  5
77
330
65
100
AcDbEntity
  8
図枠細線
  6
CONTINUOUS
 62
   252
100
AcDbText
 10
232.574629505185
 20
8.681077675439
 30
0.0
 40
2.0
  1
ＴＨＩＲＤ　ＡＮＧＬＥ
 41
0.691099486738
  7
EXCADSTD
 72
     5
 11
250.174629767445
 21
8.681077675439
 31
0.0
100
AcDbText
  0
TEXT
  5
78
330
65
100
AcDbEntity
  8
図枠細線
  6
CONTINUOUS
 62
   252
100
AcDbText
 10
256.823999505185
 20
13.427377675439
 30
0.0
 40
2.0
  1
ＳＣＡＬＥ
 41
0.903614457831
  7
EXCADSTD
 72
     5
 11
266.823999505185
 21
13.427377675439
 31
0.0
100
AcDbText
  0
TEXT
  5
79
330
65
100
AcDbEntity
  8
図枠細線
  6
CONTINUOUS
 62
   252
100
AcDbText
 10
274.858592505185
 20
13.427377675439
 30
0.0
 40
2.0
  1
ＤＡＴＥ
 41
0.923076923077
  7
EXCADSTD
 72
     5
 11
282.858592505185
 21
13.427377675439
 31
0.0
100
AcDbText
  0
TEXT
  5
7A
330
65
100
AcDbEntity
  8
図枠細線
  6
CONTINUOUS
 62
   252
100
AcDbText
 10
356.358592505185
 20
13.427377675439
 30
0.0
 40
2.0
  1
ＤＲＧ．ＮＯ．
 41
0.9375
  7
EXCADSTD
 72
     5
 11
370.358592505185
 21
13.427377675439
 31
0.0
100
AcDbText
  0
TEXT
  5
7B
330
65
100
AcDbEntity
  8
図枠細線
  6
CONTINUOUS
 62
   252
100
AcDbText
 10
345.358592505185
 20
13.427377675439
 30
0.0
 40
2.0
  1
図面番号
 41
1.102941176471
  7
EXCADSTD
 72
     5
 11
355.358592505185
 21
13.427377675439
 31
0.0
100
AcDbText
  0
TEXT
  5
7C
330
65
100
AcDbEntity
  8
図枠細線
  6
CONTINUOUS
 62
   252
100
AcDbText
 10
269.358592505185
 20
13.427377675439
 30
0.0
 40
2.0
  1
日付
 41
1.171875
  7
EXCADSTD
 72
     5
 11
274.358592505185
 21
13.427377675439
 31
0.0
100
AcDbText
  0
TEXT
  5
7D
330
65
100
AcDbEntity
  8
図枠細線
  6
CONTINUOUS
 62
   252
100
AcDbText
 10
251.451512505185
 20
13.427377675439
 30
0.0
 40
2.0
  1
尺度
 41
1.171875
  7
EXCADSTD
 72
     5
 11
256.451512505185
 21
13.427377675439
 31
0.0
100
AcDbText
  0
TEXT
  5
7E
330
65
100
AcDbEntity
  8
図枠細線
  6
CONTINUOUS
 62
   252
100
AcDbText
 10
232.358592505185
 20
13.427377675439
 30
0.0
 40
2.0
  1
第三角法
 41
1.102941176471
  7
EXCADSTD
 72
     5
 11
242.358592505185
 21
13.427377675439
 31
0.0
100
AcDbText
  0
TEXT
  5
7F
330
65
100
AcDbEntity
  8
図枠細線
  6
CONTINUOUS
 62
   252
100
AcDbText
 10
212.358592505185
 20
28.427377675439
 30
0.0
 40
2.0
  1
ＮＯＴＥ
 41
0.923076923077
  7
EXCADSTD
 72
     5
 11
220.358592505185
 21
28.427377675439
 31
0.0
100
AcDbText
  0
LINE
  5
80
330
65
100
AcDbEntity
  8
図枠細線
  6
CONTINUOUS
 62
   252
100
AcDbLine
 10
287.858592505185
 20
23.427375675439
 30
0.0
 11
344.858592505185
 21
23.427375675439
 31
0.0
  0
LINE
  5
81
330
65
100
AcDbEntity
  8
図枠太線
  6
CONTINUOUS
 62
   251
100
AcDbLine
 10
287.858584505185
 20
15.927375675439
 30
0.0
 11
344.858592505185
 21
15.927375675439
 31
0.0
  0
LINE
  5
82
330
65
100
AcDbEntity
  8
図枠細線
  6
CONTINUOUS
 62
   252
100
AcDbLine
 10
344.858592505185
 20
15.927375675439
 30
0.0
 11
401.858584505185
 21
15.927375675439
 31
0.0
  0
LINE
  5
83
330
65
100
AcDbEntity
  8
図枠太線
  6
CONTINUOUS
 62
   251
100
AcDbLine
 10
344.858592505185
 20
0.927377675439
 30
0.0
 11
344.858592505185
 21
30.927375675439
 31
0.0
  0
LINE
  5
84
330
65
100
AcDbEntity
  8
図枠太線
  6
CONTINUOUS
 62
   251
100
AcDbLine
 10
287.858592505185
 20
0.927377675439
 30
0.0
 11
287.858592505185
 21
30.927375675439
 31
0.0
  0
LINE
  5
85
330
65
100
AcDbEntity
  8
図枠細線
  6
CONTINUOUS
 62
   252
100
AcDbLine
 10
268.858592505185
 20
0.927377675439
 30
0.0
 11
268.858592505185
 21
15.927375675439
 31
0.0
  0
LINE
  5
86
330
65
100
AcDbEntity
  8
図枠細線
  6
CONTINUOUS
 62
   252
100
AcDbLine
 10
250.858592505185
 20
0.927377675439
 30
0.0
 11
250.858592505185
 21
15.927375675439
 31
0.0
  0
LINE
  5
87
330
65
100
AcDbEntity
  8
図枠細線
  6
CONTINUOUS
 62
   252
100
AcDbLine
 10
273.858592505185
 20
30.927375675439
 30
0.0
 11
273.858592505185
 21
15.927375675439
 31
0.0
  0
LINE
  5
88
330
65
100
AcDbEntity
  8
図枠細線
  6
CONTINUOUS
 62
   252
100
AcDbLine
 10
259.858592505185
 20
30.927375675439
 30
0.0
 11
259.858592505185
 21
15.927375675439
 31
0.0
  0
LINE
  5
89
330
65
100
AcDbEntity
  8
図枠細線
  6
CONTINUOUS
 62
   252
100
AcDbLine
 10
245.858592505185
 20
30.927375675439
 30
0.0
 11
245.858592505185
 21
15.927375675439
 31
0.0
  0
LINE
  5
8A
330
65
100
AcDbEntity
  8
図枠太線
  6
CONTINUOUS
 62
   251
100
AcDbLine
 10
231.858592505185
 20
0.927377675439
 30
0.0
 11
231.858592505185
 21
30.927375675439
 31
0.0
  0
LINE
  5
8B
330
65
100
AcDbEntity
  8
図枠細線
  6
CONTINUOUS
 62
   252
100
AcDbLine
 10
211.858592505185
 20
25.927375675439
 30
0.0
 11
231.858592505185
 21
25.927375675439
 31
0.0
  0
LINE
  5
8C
330
65
100
AcDbEntity
  8
図枠細線
  6
CONTINUOUS
 62
   252
100
AcDbLine
 10
211.858592505185
 20
20.927375675439
 30
0.0
 11
231.858592505185
 21
20.927375675439
 31
0.0
  0
LINE
  5
8D
330
65
100
AcDbEntity
  8
図枠細線
  6
CONTINUOUS
 62
   252
100
AcDbLine
 10
211.858592505185
 20
10.927375675439
 30
0.0
 11
231.858592505185
 21
10.927375675439
 31
0.0
  0
LINE
  5
8E
330
65
100
AcDbEntity
  8
図枠細線
  6
CONTINUOUS
 62
   252
100
AcDbLine
 10
211.858592505185
 20
5.927377675439
 30
0.0
 11
231.858592505185
 21
5.927377675439
 31
0.0
  0
LINE
  5
8F
330
65
100
AcDbEntity
  8
図枠太線
  6
CONTINUOUS
 62
   251
100
AcDbLine
 10
211.858592505185
 20
30.927375675439
 30
0.0
 11
401.858584505185
 21
30.927375675439
 31
0.0
  0
LINE
  5
90
330
65
100
AcDbEntity
  8
図枠太線
  6
CONTINUOUS
 62
   251
100
AcDbLine
 10
1.858584505185
 20
275.927375675439
 30
0.0
 11
401.858584505185
 21
275.927375675439
 31
0.0
  0
LINE
  5
91
330
65
100
AcDbEntity
  8
図枠太線
  6
CONTINUOUS
 62
   251
100
AcDbLine
 10
401.858584505185
 20
0.927375675439
 30
0.0
 11
401.858584505185
 21
275.927375675439
 31
0.0
  0
LINE
  5
92
330
65
100
AcDbEntity
  8
図枠太線
  6
CONTINUOUS
 62
   251
100
AcDbLine
 10
1.858584505185
 20
0.927375675439
 30
0.0
 11
401.858584505185
 21
0.927375675439
 31
0.0
  0
ENDBLK
  5
94
330
65
100
AcDbEntity
  8
0
100
AcDbBlockEnd
  0
BLOCK
  5
29C0
330
29BF
100
AcDbEntity
  8
0
100
AcDbBlockBegin
  2
A4横用_タイトル
 70
     0
 10
0.0
 20
0.0
 30
0.0
  3
A4横用_タイトル
  1
A4横用_タイトル
  0
LINE
  5
29C1
330
29BF
100
AcDbEntity
  8
図枠細線
  6
CONTINUOUS
100
AcDbLine
 10
75.061011071051
 20
16.806607253358
 30
0.0
 11
144.061011071051
 21
16.806604789072
 31
0.0
  0
LINE
  5
29C2
330
29BF
100
AcDbEntity
  8
図枠細線
  6
CONTINUOUS
 62
   252
100
AcDbLine
 10
4.061011071051
 20
11.806606253358
 30
0.0
 11
75.061011071051
 21
11.806606253358
 31
0.0
  0
LINE
  5
29C3
330
29BF
100
AcDbEntity
  8
図枠細線
  6
CONTINUOUS
 62
   252
100
AcDbLine
 10
4.061011071051
 20
21.806606253358
 30
0.0
 11
75.061011071051
 21
21.806606253358
 31
0.0
  0
LINE
  5
29C4
330
29BF
100
AcDbEntity
  8
図枠細線
  6
CONTINUOUS
 62
   252
100
AcDbLine
 10
4.061011071051
 20
26.806606253358
 30
0.0
 11
75.061011071051
 21
26.806606253358
 31
0.0
  0
LINE
  5
29C5
330
29BF
100
AcDbEntity
  8
図枠細線
  6
CONTINUOUS
100
AcDbLine
 10
4.061011071051
 20
16.806608253358
 30
0.0
 11
75.061011071051
 21
16.806608253358
 31
0.0
  0
TEXT
  5
29C6
330
29BF
100
AcDbEntity
  8
図枠細線
  6
CONTINUOUS
 62
   252
100
AcDbText
 10
76.405475827713
 20
9.560308253358
 30
0.0
 40
2.0
  1
ＴＨＩＲＤ　ＡＮＧＬＥ
 41
0.691099486738
  7
EXCADSTD
 72
     5
 11
94.005476089973
 21
9.560308253358
 31
0.0
100
AcDbText
  0
TEXT
  5
29C7
330
29BF
100
AcDbEntity
  8
図枠細線
  6
CONTINUOUS
 62
   252
100
AcDbText
 10
76.705775880921
 20
14.306608253358
 30
0.0
 40
2.0
  1
第三角法
 41
1.102941176471
  7
EXCADSTD
 72
     5
 11
86.705775880921
 21
14.306608253358
 31
0.0
100
AcDbText
  0
TEXT
  5
29C8
330
29BF
100
AcDbEntity
  8
図枠細線
  6
CONTINUOUS
 62
   252
100
AcDbText
 10
76.705775880921
 20
26.806608253358
 30
0.0
 40
2.0
  1
ＡＰＰＲＯＶＥＤ
 41
0.695652184279
  7
EXCADSTD
 72
     5
 11
89.505776071656
 21
26.806608253358
 31
0.0
100
AcDbText
  0
TEXT
  5
29C9
330
29BF
100
AcDbEntity
  8
図枠細線
  6
CONTINUOUS
 62
   252
100
AcDbText
 10
76.705775880921
 20
29.306608253358
 30
0.0
 40
2.0
  1
承認
 41
1.171875
  7
EXCADSTD
 72
     5
 11
81.705775880921
 21
29.306608253358
 31
0.0
100
AcDbText
  0
LINE
  5
29CA
330
29BF
100
AcDbEntity
  8
図枠細線
  6
CONTINUOUS
 62
   252
100
AcDbLine
 10
98.061011071051
 20
31.806606253358
 30
0.0
 11
98.061011071051
 21
16.806606253358
 31
0.0
  0
TEXT
  5
29CB
330
29BF
100
AcDbEntity
  8
図枠細線
  6
CONTINUOUS
 62
   252
100
AcDbText
 10
104.216531119804
 20
14.306608253358
 30
0.0
 40
2.0
  1
ＳＣＡＬＥ
 41
0.903614457831
  7
EXCADSTD
 72
     5
 11
114.216531119804
 21
14.306608253358
 31
0.0
100
AcDbText
  0
TEXT
  5
29CC
330
29BF
100
AcDbEntity
  8
図枠細線
  6
CONTINUOUS
 62
   252
100
AcDbText
 10
98.844044119804
 20
14.306608253358
 30
0.0
 40
2.0
  1
尺度
 41
1.171875
  7
EXCADSTD
 72
     5
 11
103.844044119804
 21
14.306608253358
 31
0.0
100
AcDbText
  0
TEXT
  5
29CD
330
29BF
100
AcDbEntity
  8
図枠細線
  6
CONTINUOUS
 62
   252
100
AcDbText
 10
98.968727707497
 20
26.806608253358
 30
0.0
 40
2.0
  1
ＣＨＥＣＫＥＤ
 41
0.831249989569
  7
EXCADSTD
 72
     5
 11
112.268727540604
 21
26.806608253358
 31
0.0
100
AcDbText
  0
TEXT
  5
29CE
330
29BF
100
AcDbEntity
  8
図枠細線
  6
CONTINUOUS
 62
   252
100
AcDbText
 10
98.968727707497
 20
29.306608253358
 30
0.0
 40
2.0
  1
検図
 41
1.209677419355
  7
EXCADSTD
 72
     5
 11
103.968727707497
 21
29.306608253358
 31
0.0
100
AcDbText
  0
LINE
  5
29CF
330
29BF
100
AcDbEntity
  8
図枠細線
  6
CONTINUOUS
 62
   252
100
AcDbLine
 10
121.061011071051
 20
31.806606253358
 30
0.0
 11
121.061011071051
 21
16.806606253358
 31
0.0
  0
TEXT
  5
29D0
330
29BF
100
AcDbEntity
  8
図枠細線
  6
CONTINUOUS
 62
   252
100
AcDbText
 10
128.001465247253
 20
14.306608253358
 30
0.0
 40
2.0
  1
ＤＡＴＥ
 41
0.923076923077
  7
EXCADSTD
 72
     5
 11
136.001465247253
 21
14.306608253358
 31
0.0
100
AcDbText
  0
TEXT
  5
29D1
330
29BF
100
AcDbEntity
  8
図枠細線
  6
CONTINUOUS
 62
   252
100
AcDbText
 10
122.066415498841
 20
14.306608253358
 30
0.0
 40
2.0
  1
日付
 41
1.171875
  7
EXCADSTD
 72
     5
 11
127.066415498841
 21
14.306608253358
 31
0.0
100
AcDbText
  0
TEXT
  5
29D2
330
29BF
100
AcDbEntity
  8
図枠細線
  6
CONTINUOUS
 62
   252
100
AcDbText
 10
121.59429406571
 20
29.306608253358
 30
0.0
 40
2.0
  1
製図
 41
1.209677419355
  7
EXCADSTD
 72
     5
 11
126.59429406571
 21
29.306608253358
 31
0.0
100
AcDbText
  0
TEXT
  5
29D3
330
29BF
100
AcDbEntity
  8
図枠細線
  6
CONTINUOUS
 62
   252
100
AcDbText
 10
121.59429406571
 20
26.806608253358
 30
0.0
 40
2.0
  1
ＤＲＡＷＮ
 41
0.882352941176
  7
EXCADSTD
 72
     5
 11
131.59429406571
 21
26.806608253358
 31
0.0
100
AcDbText
  0
TEXT
  5
29D4
330
29BF
100
AcDbEntity
  8
図枠細線
  6
CONTINUOUS
 62
   252
100
AcDbText
 10
226.591229661348
 20
14.306608253358
 30
0.0
 40
2.0
  1
ＤＲＧ．ＮＯ．
 41
0.9375
  7
EXCADSTD
 72
     5
 11
240.591229661348
 21
14.306608253358
 31
0.0
100
AcDbText
  0
LINE
  5
29D5
330
29BF
100
AcDbEntity
  8
図枠太線
  6
CONTINUOUS
 62
   251
100
AcDbLine
 10
144.061003071051
 20
16.806606253358
 30
0.0
 11
214.061011071051
 21
16.806606253358
 31
0.0
  0
LINE
  5
29D6
330
29BF
100
AcDbEntity
  8
図枠細線
  6
CONTINUOUS
 62
   252
100
AcDbLine
 10
144.061011071051
 20
24.306606253358
 30
0.0
 11
214.061011071051
 21
24.306606253358
 31
0.0
  0
TEXT
  5
29D7
330
29BF
100
AcDbEntity
  8
図枠ロゴマーク
  6
CONTINUOUS
 62
   253
100
AcDbText
 10
146.433776781596
 20
8.399000253358
 30
0.0
 40
7.0
  1
東和制電工業株式会社
 41
0.80361088462
  7
EXCADSTD
 72
     5
 11
212.437017438349
 21
8.399000253358
 31
0.0
100
AcDbText
  0
TEXT
  5
29D8
330
29BF
100
AcDbEntity
  8
図枠細線
  6
CONTINUOUS
 62
   252
100
AcDbText
 10
215.156179912936
 20
14.306608253358
 30
0.0
 40
2.0
  1
図面番号
 41
1.102941176471
  7
EXCADSTD
 72
     5
 11
225.156179912936
 21
14.306608253358
 31
0.0
100
AcDbText
  0
TEXT
  5
29D9
330
29BF
100
AcDbEntity
  8
図枠細線
  6
CONTINUOUS
 62
   252
100
AcDbText
 10
221.591229661348
 20
29.306608253358
 30
0.0
 40
2.0
  1
ＴＩＴＬＥ
 41
0.903614457831
  7
EXCADSTD
 72
     5
 11
231.591229661348
 21
29.306608253358
 31
0.0
100
AcDbText
  0
TEXT
  5
29DA
330
29BF
100
AcDbEntity
  8
図枠細線
  6
CONTINUOUS
 62
   252
100
AcDbText
 10
215.156179912936
 20
29.306608253358
 30
0.0
 40
2.0
  1
名称
 41
1.171875
  7
EXCADSTD
 72
     5
 11
220.156179912936
 21
29.306608253358
 31
0.0
100
AcDbText
  0
LINE
  5
29DB
330
29BF
100
AcDbEntity
  8
図枠太線
  6
CONTINUOUS
 62
   251
100
AcDbLine
 10
4.061011071051
 20
1.806608253358
 30
0.0
 11
284.061011071051
 21
1.806608253358
 31
0.0
  0
LINE
  5
29DC
330
29BF
100
AcDbEntity
  8
図枠細線
  6
CONTINUOUS
 62
   252
100
AcDbLine
 10
4.061011071051
 20
6.806608253358
 30
0.0
 11
75.061011071051
 21
6.806608253358
 31
0.0
  0
LINE
  5
29DD
330
29BF
100
AcDbEntity
  8
図枠太線
  6
CONTINUOUS
 62
   251
100
AcDbLine
 10
75.061011071051
 20
1.806608253358
 30
0.0
 11
75.061011071051
 21
31.806606253358
 31
0.0
  0
TEXT
  5
29DE
330
29BF
100
AcDbEntity
  8
図枠細線
  6
CONTINUOUS
 62
   252
100
AcDbText
 10
76.330551827713
 20
6.638319253358
 30
0.0
 40
2.0
  1
ＰＲＯＪＥＣＴＩＯＮ
 41
0.754285710199
  7
EXCADSTD
 72
     5
 11
93.930551732346
 21
6.638319253358
 31
0.0
100
AcDbText
  0
LINE
  5
29DF
330
29BF
100
AcDbEntity
  8
図枠細線
  6
CONTINUOUS
 62
   252
100
AcDbLine
 10
98.061011071051
 20
1.806606931929
 30
0.0
 11
98.061011071051
 21
16.806604931929
 31
0.0
  0
LINE
  5
29E0
330
29BF
100
AcDbEntity
  8
図枠細線
  6
CONTINUOUS
 62
   252
100
AcDbLine
 10
121.061011071051
 20
1.806607574787
 30
0.0
 11
121.061011071051
 21
16.806605574787
 31
0.0
  0
LINE
  5
29E1
330
29BF
100
AcDbEntity
  8
図枠太線
  6
CONTINUOUS
 62
   251
100
AcDbLine
 10
284.061011071051
 20
1.806608253358
 30
0.0
 11
284.061011071051
 21
31.806606253358
 31
0.0
  0
LINE
  5
29E2
330
29BF
100
AcDbEntity
  8
図枠細線
  6
CONTINUOUS
 62
   252
100
AcDbLine
 10
214.061011071051
 20
16.806606253358
 30
0.0
 11
284.061011071051
 21
16.806606253358
 31
0.0
  0
TEXT
  5
29E3
330
29BF
100
AcDbEntity
  8
図枠細線
  6
CONTINUOUS
 62
   252
100
AcDbText
 10
146.199593676182
 20
3.454099253358
 30
0.0
 40
3.5
  1
ＴＯＷＡ　ＳＥＩＤＥＮ　ＩＮＤＵＳＴＲＩＡＬ　ＣＯ．，ＬＴＤ．
 41
0.528937826907
  7
EXCADSTD
 72
     5
 11
213.339435171588
 21
3.454099253358
 31
0.0
100
AcDbText
  0
LINE
  5
29E4
330
29BF
100
AcDbEntity
  8
図枠太線
  6
CONTINUOUS
 62
   251
100
AcDbLine
 10
144.061011071051
 20
1.806608253358
 30
0.0
 11
144.061011071051
 21
31.806606253358
 31
0.0
  0
LINE
  5
29E5
330
29BF
100
AcDbEntity
  8
図枠太線
  6
CONTINUOUS
 62
   251
100
AcDbLine
 10
214.061011071051
 20
1.806608253358
 30
0.0
 11
214.061011071051
 21
31.806606253358
 31
0.0
  0
MTEXT
  5
29E6
330
29BF
100
AcDbEntity
  8
図枠太線
100
AcDbMText
 10
5.064337346478
 20
31.010982137407
 30
0.0
 40
2.5
 41
8.67856098472
 71
     1
 72
     5
  1
{\Fmonotxt.shx,bigfont.shx|c128;図暦}
  0
LINE
  5
29E7
330
29BF
100
AcDbEntity
  8
図枠太線
  6
CONTINUOUS
 62
   251
100
AcDbLine
 10
4.061011071051
 20
1.806608253358
 30
0.0
 11
4.061011071051
 21
31.806606253358
 31
0.0
  0
TEXT
  5
29E8
330
29BF
100
AcDbEntity
  8
図枠細線
 48
10.0
100
AcDbText
 10
12.260817420402
 20
28.625419626495
 30
0.0
 40
2.0
  1
CHANGE NOTICE
100
AcDbText
  0
ENDBLK
  5
29E9
330
29BF
100
AcDbEntity
  8
0
100
AcDbBlockEnd
  0
BLOCK
  5
29F5
330
29F4
100
AcDbEntity
  8
0
100
AcDbBlockBegin
  2
A4縦用_タイトル
 70
     0
 10
0.0
 20
0.0
 30
0.0
  3
A4縦用_タイトル
  1
A4縦用_タイトル
  0
LINE
  5
29F6
330
29F4
100
AcDbEntity
  8
図枠太線
  6
CONTINUOUS
 62
   251
100
AcDbLine
 10
2.368253864267
 20
4.525433224584
 30
0.0
 11
192.368245864267
 21
4.525433224584
 31
0.0
  0
LINE
  5
29F7
330
29F4
100
AcDbEntity
  8
図枠太線
  6
CONTINUOUS
 62
   251
100
AcDbLine
 10
78.368245864267
 20
19.525431224584
 30
0.0
 11
135.368253864267
 21
19.525431224584
 31
0.0
  0
LINE
  5
29F8
330
29F4
100
AcDbEntity
  8
図枠細線
  6
CONTINUOUS
 62
   252
100
AcDbLine
 10
78.368253864267
 20
27.025431224584
 30
0.0
 11
135.368253864267
 21
27.025431224584
 31
0.0
  0
TEXT
  5
29F9
330
29F4
100
AcDbEntity
  8
図枠ロゴマーク
  6
CONTINUOUS
 62
   253
100
AcDbText
 10
80.617009864267
 20
11.117825224584
 30
0.0
 40
7.0
  1
東和制電工業株式会社
 41
0.639204545455
  7
EXCADSTD
 72
     5
 11
133.117009864267
 21
11.117825224584
 31
0.0
100
AcDbText
  0
TEXT
  5
29FA
330
29F4
100
AcDbEntity
  8
図枠細線
  6
CONTINUOUS
 62
   252
100
AcDbText
 10
80.579549864267
 20
6.172924224584
 30
0.0
 40
3.5
  1
ＴＯＷＡ　ＳＥＩＤＥＮ　ＩＮＤＵＳＴＲＩＡＬ　ＣＯ．，ＬＴＤ．
 41
0.414568012377
  7
EXCADSTD
 72
     5
 11
133.202049568628
 21
6.172924224584
 31
0.0
100
AcDbText
  0
LINE
  5
29FB
330
29F4
100
AcDbEntity
  8
図枠太線
  6
CONTINUOUS
 62
   251
100
AcDbLine
 10
2.368253864267
 20
4.525433224584
 30
0.0
 11
2.368253864267
 21
34.525431224584
 31
0.0
  0
TEXT
  5
29FC
330
29F4
100
AcDbEntity
  8
図枠細線
  6
CONTINUOUS
 62
   252
100
AcDbText
 10
22.504308136501
 20
12.279133224584
 30
0.0
 40
2.0
  1
ＴＨＩＲＤ　ＡＮＧＬＥ
 41
0.691099486738
  7
EXCADSTD
 72
     5
 11
40.104308398762
 21
12.279133224584
 31
0.0
100
AcDbText
  0
TEXT
  5
29FD
330
29F4
100
AcDbEntity
  8
図枠細線
  6
CONTINUOUS
 62
   252
100
AcDbText
 10
22.429384136501
 20
9.357144224584
 30
0.0
 40
2.0
  1
ＰＲＯＪＥＣＴＩＯＮ
 41
0.754285710199
  7
EXCADSTD
 72
     5
 11
40.029384041134
 21
9.357144224584
 31
0.0
100
AcDbText
  0
LINE
  5
29FE
330
29F4
100
AcDbEntity
  8
図枠細線
  6
CONTINUOUS
100
AcDbLine
 10
22.368253864267
 20
19.525433224584
 30
0.0
 11
78.368253864267
 21
19.525431224584
 31
0.0
  0
TEXT
  5
29FF
330
29F4
100
AcDbEntity
  8
図枠細線
  6
CONTINUOUS
 62
   252
100
AcDbText
 10
22.868253864267
 20
17.025433224584
 30
0.0
 40
2.0
  1
第三角法
 41
1.102941176471
  7
EXCADSTD
 72
     5
 11
32.868253864267
 21
17.025433224584
 31
0.0
100
AcDbText
  0
TEXT
  5
2A00
330
29F4
100
AcDbEntity
  8
図枠細線
  6
CONTINUOUS
 62
   252
100
AcDbText
 10
22.868253864267
 20
29.525433224584
 30
0.0
 40
2.0
  1
ＡＰＰＲＯＶＥＤ
 41
0.695652184279
  7
EXCADSTD
 72
     5
 11
35.668254055002
 21
29.525433224584
 31
0.0
100
AcDbText
  0
LINE
  5
2A01
330
29F4
100
AcDbEntity
  8
図枠細線
  6
CONTINUOUS
 62
   252
100
AcDbLine
 10
2.368253864267
 20
9.525433224584
 30
0.0
 11
22.368253864267
 21
9.525433224584
 31
0.0
  0
LINE
  5
2A02
330
29F4
100
AcDbEntity
  8
図枠細線
  6
CONTINUOUS
 62
   252
100
AcDbLine
 10
2.368253864267
 20
14.525431224584
 30
0.0
 11
22.368253864267
 21
14.525431224584
 31
0.0
  0
LINE
  5
2A03
330
29F4
100
AcDbEntity
  8
図枠細線
  6
CONTINUOUS
 62
   252
100
AcDbLine
 10
2.368253864267
 20
24.525431224584
 30
0.0
 11
22.368253864267
 21
24.525431224584
 31
0.0
  0
LINE
  5
2A04
330
29F4
100
AcDbEntity
  8
図枠細線
  6
CONTINUOUS
 62
   252
100
AcDbLine
 10
2.368253864267
 20
29.525431224584
 30
0.0
 11
22.368253864267
 21
29.525431224584
 31
0.0
  0
LINE
  5
2A05
330
29F4
100
AcDbEntity
  8
図枠細線
  6
CONTINUOUS
100
AcDbLine
 10
2.368253864267
 20
19.525433224584
 30
0.0
 11
22.368253864267
 21
19.525433224584
 31
0.0
  0
TEXT
  5
2A06
330
29F4
100
AcDbEntity
  8
図枠細線
  6
CONTINUOUS
 62
   252
100
AcDbText
 10
2.868253864267
 20
32.025433224584
 30
0.0
 40
2.0
  1
ＮＯＴＥ
 41
0.923076923077
  7
EXCADSTD
 72
     5
 11
10.868253864267
 21
32.025433224584
 31
0.0
100
AcDbText
  0
LINE
  5
2A07
330
29F4
100
AcDbEntity
  8
図枠太線
  6
CONTINUOUS
 62
   251
100
AcDbLine
 10
22.368253864267
 20
4.525433224584
 30
0.0
 11
22.368253864267
 21
34.525431224584
 31
0.0
  0
TEXT
  5
2A08
330
29F4
100
AcDbEntity
  8
図枠細線
  6
CONTINUOUS
 62
   252
100
AcDbText
 10
22.868253864267
 20
32.025433224584
 30
0.0
 40
2.0
  1
承認
 41
1.171875
  7
EXCADSTD
 72
     5
 11
27.868253864267
 21
32.025433224584
 31
0.0
100
AcDbText
  0
TEXT
  5
2A09
330
29F4
100
AcDbEntity
  8
図枠細線
  6
CONTINUOUS
 62
   252
100
AcDbText
 10
60.711709035982
 20
32.025433224584
 30
0.0
 40
2.0
  1
製図
 41
1.209677419355
  7
EXCADSTD
 72
     5
 11
65.711709035982
 21
32.025433224584
 31
0.0
100
AcDbText
  0
TEXT
  5
2A0A
330
29F4
100
AcDbEntity
  8
図枠細線
  6
CONTINUOUS
 62
   252
100
AcDbText
 10
60.711709035982
 20
29.525433224584
 30
0.0
 40
2.0
  1
ＤＲＡＷＮ
 41
0.882352941176
  7
EXCADSTD
 72
     5
 11
70.711709035982
 21
29.525433224584
 31
0.0
100
AcDbText
  0
TEXT
  5
2A0B
330
29F4
100
AcDbEntity
  8
図枠細線
  6
CONTINUOUS
 62
   252
100
AcDbText
 10
60.834891743877
 20
17.025433224584
 30
0.0
 40
2.0
  1
日付
 41
1.171875
  7
EXCADSTD
 72
     5
 11
65.834891743877
 21
17.025433224584
 31
0.0
100
AcDbText
  0
TEXT
  5
2A0C
330
29F4
100
AcDbEntity
  8
図枠細線
  6
CONTINUOUS
 62
   252
100
AcDbText
 10
47.333660864267
 20
17.025433224584
 30
0.0
 40
2.0
  1
ＳＣＡＬＥ
 41
0.903614457831
  7
EXCADSTD
 72
     5
 11
57.333660864267
 21
17.025433224584
 31
0.0
100
AcDbText
  0
TEXT
  5
2A0D
330
29F4
100
AcDbEntity
  8
図枠細線
  6
CONTINUOUS
 62
   252
100
AcDbText
 10
42.281425990082
 20
29.525433224584
 30
0.0
 40
2.0
  1
ＣＨＥＣＫＥＤ
 41
0.831249989569
  7
EXCADSTD
 72
     5
 11
55.581425823189
 21
29.525433224584
 31
0.0
100
AcDbText
  0
LINE
  5
2A0E
330
29F4
100
AcDbEntity
  8
図枠細線
  6
CONTINUOUS
 62
   252
100
AcDbLine
 10
40.968253864267
 20
34.525431224584
 30
0.0
 11
40.968253864267
 21
19.525431224584
 31
0.0
  0
LINE
  5
2A0F
330
29F4
100
AcDbEntity
  8
図枠細線
  6
CONTINUOUS
 62
   252
100
AcDbLine
 10
40.968253864267
 20
4.525433224584
 30
0.0
 11
40.968253864267
 21
19.525431224584
 31
0.0
  0
TEXT
  5
2A10
330
29F4
100
AcDbEntity
  8
図枠細線
  6
CONTINUOUS
 62
   252
100
AcDbText
 10
41.961173864267
 20
17.025433224584
 30
0.0
 40
2.0
  1
尺度
 41
1.171875
  7
EXCADSTD
 72
     5
 11
46.961173864267
 21
17.025433224584
 31
0.0
100
AcDbText
  0
TEXT
  5
2A11
330
29F4
100
AcDbEntity
  8
図枠細線
  6
CONTINUOUS
 62
   252
100
AcDbText
 10
42.281425990082
 20
32.025433224584
 30
0.0
 40
2.0
  1
検図
 41
1.209677419355
  7
EXCADSTD
 72
     5
 11
47.281425990082
 21
32.025433224584
 31
0.0
100
AcDbText
  0
LINE
  5
2A12
330
29F4
100
AcDbEntity
  8
図枠細線
  6
CONTINUOUS
 62
   252
100
AcDbLine
 10
59.768253864267
 20
34.525431224584
 30
0.0
 11
59.768253864267
 21
19.525431224584
 31
0.0
  0
LINE
  5
2A13
330
29F4
100
AcDbEntity
  8
図枠細線
  6
CONTINUOUS
 62
   252
100
AcDbLine
 10
59.768253864267
 20
4.525433224584
 30
0.0
 11
59.768253864267
 21
19.525431224584
 31
0.0
  0
LINE
  5
2A14
330
29F4
100
AcDbEntity
  8
図枠太線
  6
CONTINUOUS
 62
   251
100
AcDbLine
 10
78.368253864267
 20
4.525433224584
 30
0.0
 11
78.368253864267
 21
34.525431224584
 31
0.0
  0
TEXT
  5
2A15
330
29F4
100
AcDbEntity
  8
図枠細線
  6
CONTINUOUS
 62
   252
100
AcDbText
 10
66.334891743877
 20
17.025433224584
 30
0.0
 40
2.0
  1
ＤＡＴＥ
 41
0.923076923077
  7
EXCADSTD
 72
     5
 11
74.334891743877
 21
17.025433224584
 31
0.0
100
AcDbText
  0
LINE
  5
2A16
330
29F4
100
AcDbEntity
  8
図枠細線
  6
CONTINUOUS
 62
   252
100
AcDbLine
 10
135.368253864267
 20
19.525431224584
 30
0.0
 11
192.368245864267
 21
19.525431224584
 31
0.0
  0
TEXT
  5
2A17
330
29F4
100
AcDbEntity
  8
図枠細線
  6
CONTINUOUS
 62
   252
100
AcDbText
 10
141.868253864267
 20
32.025433224584
 30
0.0
 40
2.0
  1
ＴＩＴＬＥ
 41
0.903614457831
  7
EXCADSTD
 72
     5
 11
151.868253864267
 21
32.025433224584
 31
0.0
100
AcDbText
  0
LINE
  5
2A18
330
29F4
100
AcDbEntity
  8
図枠太線
  6
CONTINUOUS
 62
   251
100
AcDbLine
 10
135.368253864267
 20
4.525433224584
 30
0.0
 11
135.368253864267
 21
34.525431224584
 31
0.0
  0
TEXT
  5
2A19
330
29F4
100
AcDbEntity
  8
図枠細線
  6
CONTINUOUS
 62
   252
100
AcDbText
 10
135.868253864267
 20
17.025433224584
 30
0.0
 40
2.0
  1
図面番号
 41
1.102941176471
  7
EXCADSTD
 72
     5
 11
145.868253864267
 21
17.025433224584
 31
0.0
100
AcDbText
  0
TEXT
  5
2A1A
330
29F4
100
AcDbEntity
  8
図枠細線
  6
CONTINUOUS
 62
   252
100
AcDbText
 10
135.868253864267
 20
32.025433224584
 30
0.0
 40
2.0
  1
名称
 41
1.171875
  7
EXCADSTD
 72
     5
 11
140.868253864267
 21
32.025433224584
 31
0.0
100
AcDbText
  0
TEXT
  5
2A1B
330
29F4
100
AcDbEntity
  8
図枠細線
  6
CONTINUOUS
 62
   252
100
AcDbText
 10
146.868253864267
 20
17.025433224584
 30
0.0
 40
2.0
  1
ＤＲＧ．ＮＯ．
 41
0.9375
  7
EXCADSTD
 72
     5
 11
160.868253864267
 21
17.025433224584
 31
0.0
100
AcDbText
  0
LINE
  5
2A1C
330
29F4
100
AcDbEntity
  8
図枠太線
  6
CONTINUOUS
 62
   251
100
AcDbLine
 10
192.368245864267
 20
4.525433224584
 30
0.0
 11
192.368245864267
 21
34.525431224584
 31
0.0
  0
ENDBLK
  5
2A1D
330
29F4
100
AcDbEntity
  8
0
100
AcDbBlockEnd
  0
BLOCK
  5
2A33
330
2A32
100
AcDbEntity
  8
0
100
AcDbBlockBegin
  2
A3横用_タイトル
 70
     0
 10
0.0
 20
0.0
 30
0.0
  3
A3横用_タイトル
  1
A3横用_タイトル
  0
LINE
  5
2A34
330
2A32
100
AcDbEntity
  8
図枠細線
  6
CONTINUOUS
 62
   252
100
AcDbLine
 10
205.098414535793
 20
33.525959753527
 30
0.0
 11
305.098414535793
 21
33.525959753527
 31
0.0
  0
LINE
  5
2A35
330
2A32
100
AcDbEntity
  8
図枠太線
  6
CONTINUOUS
 62
   251
100
AcDbLine
 10
205.098414535793
 20
23.525959753527
 30
0.0
 11
305.098414535793
 21
23.525959753527
 31
0.0
  0
LINE
  5
2A36
330
2A32
100
AcDbEntity
  8
図枠細線
  6
CONTINUOUS
100
AcDbLine
 10
5.098414535793
 20
23.525959753527
 30
0.0
 11
105.098414535793
 21
23.525959753527
 31
0.0
  0
LINE
  5
2A37
330
2A32
100
AcDbEntity
  8
図枠細線
  6
CONTINUOUS
 62
   252
100
AcDbLine
 10
5.098414535793
 20
36.725957753527
 30
0.0
 11
105.098414535793
 21
36.725957753527
 31
0.0
  0
LINE
  5
2A38
330
2A32
100
AcDbEntity
  8
図枠細線
  6
CONTINUOUS
 62
   252
100
AcDbLine
 10
5.098414535793
 20
30.125957753527
 30
0.0
 11
105.098414535793
 21
30.125957753527
 31
0.0
  0
LINE
  5
2A39
330
2A32
100
AcDbEntity
  8
図枠細線
  6
CONTINUOUS
 62
   252
100
AcDbLine
 10
5.098414535793
 20
16.725959753527
 30
0.0
 11
105.098414535793
 21
16.725959753527
 31
0.0
  0
LINE
  5
2A3A
330
2A32
100
AcDbEntity
  8
図枠細線
  6
CONTINUOUS
 62
   252
100
AcDbLine
 10
5.098414535793
 20
10.125959753527
 30
0.0
 11
105.098414535793
 21
10.125959753527
 31
0.0
  0
LINE
  5
2A3B
330
2A32
100
AcDbEntity
  8
図枠細線
  6
CONTINUOUS
100
AcDbLine
 10
105.098414535793
 20
23.525961753527
 30
0.0
 11
205.098414535793
 21
23.525959753527
 31
0.0
  0
LINE
  5
2A3C
330
2A32
100
AcDbEntity
  8
図枠細線
  6
CONTINUOUS
 62
   252
100
AcDbLine
 10
138.398414535793
 20
43.525959753527
 30
0.0
 11
138.398414535793
 21
18.525957753527
 31
0.0
  0
LINE
  5
2A3D
330
2A32
100
AcDbEntity
  8
図枠細線
  6
CONTINUOUS
 62
   252
100
AcDbLine
 10
171.698414535793
 20
43.525959753527
 30
0.0
 11
171.698414535793
 21
18.525957753527
 31
0.0
  0
LINE
  5
2A3E
330
2A32
100
AcDbEntity
  8
図枠細線
  6
CONTINUOUS
 62
   252
100
AcDbLine
 10
305.098414535793
 20
23.525959753527
 30
0.0
 11
405.098414535793
 21
23.525959753527
 31
0.0
  0
TEXT
  5
2A3F
330
2A32
100
AcDbEntity
  8
図枠ロゴマーク
  6
CONTINUOUS
 62
   253
100
AcDbText
 10
206.102509212755
 20
13.294257570546
 30
0.0
 40
7.0
  1
東和制電工業株式会社
 50
0.016555220185
 41
1.186384129432
  7
EXCADSTD
 72
     5
 11
303.544188309143
 21
13.322412672217
 31
0.0
100
AcDbText
  0
MTEXT
  5
2A40
330
2A32
100
AcDbEntity
  8
図枠細線
100
AcDbMText
 10
6.356764112375
 20
41.976594175478
 30
0.0
 40
2.5
 41
49.938282706292
 71
     1
 72
     5
  1
{\Fmonotxt.shx,bigfont.shx|c128;図暦　CHANGE　NOTICE}
  0
MTEXT
  5
2A41
330
2A32
100
AcDbEntity
  8
図枠細線
 48
10.0
100
AcDbMText
 10
306.544114926828
 20
41.701835800934
 30
0.0
 40
2.5
 41
28.002809618823
 71
     1
 72
     5
  1
{\Fmonotxt.shx,bigfont.shx|c128;名称　TITLE}
  0
MTEXT
  5
2A42
330
2A32
100
AcDbEntity
  8
図枠細線
 48
10.0
100
AcDbMText
 10
307.329617114284
 20
21.606206797226
 30
0.0
 40
2.5
 41
24.385612216707
 71
     1
 72
     5
  1
{\Fmonotxt.shx,bigfont.shx|c128;図面番号\PDRG.　No.}
  0
MTEXT
  5
2A43
330
2A32
100
AcDbEntity
  8
図枠細線
 48
10.0
100
AcDbMText
 10
173.726349404609
 20
21.73680662198
 30
0.0
 40
2.5
 41
25.735090160813
 71
     1
 72
     5
  1
{\Fmonotxt.shx,bigfont.shx|c128;日付 DATE}
  0
MTEXT
  5
2A44
330
2A32
100
AcDbEntity
  8
図枠細線
 48
10.0
100
AcDbMText
 10
173.48708833982
 20
41.621592044998
 30
0.0
 40
2.5
 41
24.983741184205
 71
     1
 72
     5
  1
{\Fmonotxt.shx,bigfont.shx|c128;製図　DRAWN}
  0
MTEXT
  5
2A45
330
2A32
100
AcDbEntity
  8
図枠細線
 48
10.0
100
AcDbMText
 10
139.28009927741
 20
21.866713069868
 30
0.0
 40
2.5
 41
22.629632913243
 71
     1
 72
     5
  1
{\Fmonotxt.shx,bigfont.shx|c128;尺度　SCALE}
  0
MTEXT
  5
2A46
330
2A32
100
AcDbEntity
  8
図枠細線
 48
10.0
100
AcDbMText
 10
139.910091179835
 20
41.311840415554
 30
0.0
 40
2.5
 41
28.998753428368
 71
     1
 72
     5
  1
{\Fmonotxt.shx,bigfont.shx|c128;検図  CHECKED}
  0
MTEXT
  5
2A47
330
2A32
100
AcDbEntity
  8
図枠細線
 48
10.0
100
AcDbMText
 10
114.253294667728
 20
21.916124850174
 30
0.0
 40
3.0
 41
19.692400475383
 71
     1
 72
     5
  1
{\Fmonotxt.shx,bigfont.shx|c128;第三角法}
  0
MTEXT
  5
2A48
330
2A32
100
AcDbEntity
  8
図枠細線
 48
10.0
100
AcDbMText
 10
108.986959929915
 20
15.282880185837
 30
0.0
 40
2.5
 41
27.954882823547
 71
     1
 72
     5
  1
{\Fmonotxt.shx,bigfont.shx|c128;THIRD ANGLE\PPROJECTION}
  0
MTEXT
  5
2A49
330
2A32
100
AcDbEntity
  8
図枠細線
 48
10.0
100
AcDbMText
 10
106.319432640184
 20
41.511437145487
 30
0.0
 40
2.5
 41
28.233595265074
 71
     1
 72
     5
  1
{\Fmonotxt.shx,bigfont.shx|c128;承認 APPROVED}
  0
LINE
  5
2A4A
330
2A32
100
AcDbEntity
  8
図枠太線
  6
CONTINUOUS
 62
   251
100
AcDbLine
 10
5.098414535793
 20
3.525959753527
 30
0.0
 11
405.098414535793
 21
3.525959753527
 31
0.0
  0
LINE
  5
2A4B
330
2A32
100
AcDbEntity
  8
図枠太線
 48
10.0
100
AcDbLine
 10
5.098414535793
 20
3.525959753527
 30
0.0
 11
5.098414535793
 21
43.525959753527
 31
0.0
  0
LINE
  5
2A4C
330
2A32
100
AcDbEntity
  8
図枠太線
  6
CONTINUOUS
 62
   251
100
AcDbLine
 10
105.098414535793
 20
3.525959753527
 30
0.0
 11
105.098414535793
 21
43.525959753527
 31
0.0
  0
LINE
  5
2A4D
330
2A32
100
AcDbEntity
  8
図枠細線
  6
CONTINUOUS
 62
   252
100
AcDbLine
 10
138.398414535793
 20
3.525959753527
 30
0.0
 11
138.398414535793
 21
18.525957753527
 31
0.0
  0
LINE
  5
2A4E
330
2A32
100
AcDbEntity
  8
図枠細線
  6
CONTINUOUS
 62
   252
100
AcDbLine
 10
171.698414535793
 20
3.525959753527
 30
0.0
 11
171.698414535793
 21
18.525957753527
 31
0.0
  0
LINE
  5
2A4F
330
2A32
100
AcDbEntity
  8
図枠太線
  6
CONTINUOUS
 62
   251
100
AcDbLine
 10
205.098414535793
 20
3.525959753527
 30
0.0
 11
205.098414535793
 21
43.525959753527
 31
0.0
  0
LINE
  5
2A50
330
2A32
100
AcDbEntity
  8
図枠太線
 48
10.0
100
AcDbLine
 10
405.098414535793
 20
43.525959753527
 30
0.0
 11
405.098414535793
 21
3.525959753527
 31
0.0
  0
TEXT
  5
2A51
330
2A32
100
AcDbEntity
  8
図枠細線
  6
CONTINUOUS
 62
   252
100
AcDbText
 10
208.519754474572
 20
6.482358407285
 30
0.0
 40
3.5
  1
ＴＯＷＡ　ＳＥＩＤＥＮ　ＩＮＤＵＳＴＲＩＡＬ　ＣＯ．，ＬＴＤ．
 41
0.746656297509
  7
EXCADSTD
 72
     5
 11
303.295327171727
 21
6.482358407285
 31
0.0
100
AcDbText
  0
LINE
  5
2A52
330
2A32
100
AcDbEntity
  8
図枠太線
  6
CONTINUOUS
 62
   251
100
AcDbLine
 10
305.098414535793
 20
3.525959753527
 30
0.0
 11
305.098414535793
 21
43.525959753527
 31
0.0
  0
ENDBLK
  5
2A53
330
2A32
100
AcDbEntity
  8
0
100
AcDbBlockEnd
  0
BLOCK
  5
2A6D
330
2A6C
100
AcDbEntity
  8
0
100
AcDbBlockBegin
  2
A3縦用_タイトル
 70
     0
 10
0.0
 20
0.0
 30
0.0
  3
A3縦用_タイトル
  1
A3縦用_タイトル
  0
MTEXT
  5
2A6E
330
2A6C
100
AcDbEntity
  8
図枠細線
100
AcDbMText
 10
5.040804501593
 20
31.626098649005
 30
0.0
 40
2.5
 41
49.938282706292
 71
     1
 72
     5
  1
{\Fmonotxt.shx,bigfont.shx|c128;図暦　CHANGE　NOTICE}
  0
LINE
  5
2A6F
330
2A6C
100
AcDbEntity
  8
図枠太線
  6
CONTINUOUS
 62
   251
100
AcDbLine
 10
283.577871882961
 20
2.820844689254
 30
0.0
 11
283.577871882961
 21
32.820842689254
 31
0.0
  0
MTEXT
  5
2A70
330
2A6C
100
AcDbEntity
  8
図枠細線
 48
10.0
100
AcDbMText
 10
214.912458947454
 20
31.621488632308
 30
0.0
 40
2.5
 41
28.002809618823
 71
     1
 72
     5
  1
{\Fmonotxt.shx,bigfont.shx|c128;名称　TITLE}
  0
MTEXT
  5
2A71
330
2A6C
100
AcDbEntity
  8
図枠細線
 48
10.0
100
AcDbMText
 10
214.740030458938
 20
16.310225796722
 30
0.0
 40
2.5
 41
24.385612216707
 71
     1
 72
     5
  1
{\Fmonotxt.shx,bigfont.shx|c128;図面番号\PDRG.　No.}
  0
LINE
  5
2A72
330
2A6C
100
AcDbEntity
  8
図枠太線
  6
CONTINUOUS
 62
   251
100
AcDbLine
 10
213.577871882961
 20
2.820844689254
 30
0.0
 11
213.577871882961
 21
32.820842689254
 31
0.0
  0
LINE
  5
2A73
330
2A6C
100
AcDbEntity
  8
図枠太線
  6
CONTINUOUS
 62
   251
100
AcDbLine
 10
143.577871882961
 20
2.820844689254
 30
0.0
 11
143.577871882961
 21
32.820842689254
 31
0.0
  0
TEXT
  5
2A74
330
2A6C
100
AcDbEntity
  8
図枠細線
  6
CONTINUOUS
 62
   252
100
AcDbText
 10
145.716454488093
 20
4.468335689254
 30
0.0
 40
3.5
  1
ＴＯＷＡ　ＳＥＩＤＥＮ　ＩＮＤＵＳＴＲＩＡＬ　ＣＯ．，ＬＴＤ．
 41
0.528937826907
  7
EXCADSTD
 72
     5
 11
212.856295983498
 21
4.468335689254
 31
0.0
100
AcDbText
  0
TEXT
  5
2A75
330
2A6C
100
AcDbEntity
  8
図枠ロゴマーク
  6
CONTINUOUS
 62
   253
100
AcDbText
 10
145.950637593507
 20
9.413236689254
 30
0.0
 40
7.0
  1
東和制電工業株式会社
 41
0.80361088462
  7
EXCADSTD
 72
     5
 11
211.953878250259
 21
9.413236689254
 31
0.0
100
AcDbText
  0
LINE
  5
2A76
330
2A6C
100
AcDbEntity
  8
図枠細線
  6
CONTINUOUS
 62
   252
100
AcDbLine
 10
143.577871882961
 20
25.320842689254
 30
0.0
 11
213.577871882961
 21
25.320842689254
 31
0.0
  0
LINE
  5
2A77
330
2A6C
100
AcDbEntity
  8
図枠太線
  6
CONTINUOUS
 62
   251
100
AcDbLine
 10
143.577863882961
 20
17.820842689254
 30
0.0
 11
213.577871882961
 21
17.820842689254
 31
0.0
  0
LINE
  5
2A78
330
2A6C
100
AcDbEntity
  8
図枠細線
  6
CONTINUOUS
 62
   252
100
AcDbLine
 10
213.577871882961
 20
17.820842689254
 30
0.0
 11
283.577871882961
 21
17.820842689254
 31
0.0
  0
LINE
  5
2A79
330
2A6C
100
AcDbEntity
  8
図枠細線
  6
CONTINUOUS
 62
   252
100
AcDbLine
 10
120.577871882961
 20
32.820842689254
 30
0.0
 11
120.577871882961
 21
17.820842689254
 31
0.0
  0
MTEXT
  5
2A7A
330
2A6C
100
AcDbEntity
  8
図枠細線
 48
10.0
100
AcDbMText
 10
121.100885670352
 20
16.33785922638
 30
0.0
 40
2.0
 41
17.705978285068
 71
     1
 72
     5
  1
{\Fmonotxt.shx,bigfont.shx|c128;日付 DATE}
  0
MTEXT
  5
2A7B
330
2A6C
100
AcDbEntity
  8
図枠細線
 48
10.0
100
AcDbMText
 10
121.254842273491
 20
31.208993514037
 30
0.0
 40
2.0
 41
18.363799568758
 71
     1
 72
     5
  1
{\Fmonotxt.shx,bigfont.shx|c128;製図　DRAWN}
  0
LINE
  5
2A7C
330
2A6C
100
AcDbEntity
  8
図枠細線
  6
CONTINUOUS
 62
   252
100
AcDbLine
 10
97.577871882961
 20
32.820842689254
 30
0.0
 11
97.577871882961
 21
17.820842689254
 31
0.0
  0
MTEXT
  5
2A7D
330
2A6C
100
AcDbEntity
  8
図枠細線
 48
10.0
100
AcDbMText
 10
98.239734796872
 20
16.467764839281
 30
0.0
 40
2.0
 41
17.757791689903
 71
     1
 72
     5
  1
{\Fmonotxt.shx,bigfont.shx|c128;尺度　SCALE}
  0
MTEXT
  5
2A7E
330
2A6C
100
AcDbEntity
  8
図枠細線
 48
10.0
100
AcDbMText
 10
97.864744625154
 20
31.298433377664
 30
0.0
 40
2.0
 41
23.162655920976
 71
     1
 72
     5
  1
{\Fmonotxt.shx,bigfont.shx|c128;検図  CHECKED}
  0
LINE
  5
2A7F
330
2A6C
100
AcDbEntity
  8
図枠細線
  6
CONTINUOUS
 62
   252
100
AcDbLine
 10
97.577871882961
 20
2.820843367826
 30
0.0
 11
97.577871882961
 21
17.820841367826
 31
0.0
  0
LINE
  5
2A80
330
2A6C
100
AcDbEntity
  8
図枠細線
  6
CONTINUOUS
 62
   252
100
AcDbLine
 10
120.577871882961
 20
2.820844010683
 30
0.0
 11
120.577871882961
 21
17.820842010683
 31
0.0
  0
MTEXT
  5
2A81
330
2A6C
100
AcDbEntity
  8
図枠細線
 48
10.0
100
AcDbMText
 10
81.402399084102
 20
16.316484117426
 30
0.0
 40
2.0
 41
12.920322819369
 71
     1
 72
     5
  1
{\Fmonotxt.shx,bigfont.shx|c128;第三角法}
  0
MTEXT
  5
2A82
330
2A6C
100
AcDbEntity
  8
図枠細線
 48
10.0
100
AcDbMText
 10
75.736576535096
 20
11.080410931319
 30
0.0
 40
2.0
 41
21.072870671471
 71
     1
 72
     5
  1
{\Fmonotxt.shx,bigfont.shx|c128;THIRD ANGLE\PPROJECTION}
  0
LINE
  5
2A83
330
2A6C
100
AcDbEntity
  8
図枠太線
  6
CONTINUOUS
 62
   251
100
AcDbLine
 10
74.577871882961
 20
2.820844689254
 30
0.0
 11
74.577871882961
 21
32.820842689254
 31
0.0
  0
MTEXT
  5
2A84
330
2A6C
100
AcDbEntity
  8
図枠細線
 48
10.0
100
AcDbMText
 10
75.060214781573
 20
31.298434778555
 30
0.0
 40
2.0
 41
22.240928805967
 71
     1
 72
     5
  1
{\Fmonotxt.shx,bigfont.shx|c128;承認 APPROVED}
  0
LINE
  5
2A85
330
2A6C
100
AcDbEntity
  8
図枠細線
  6
CONTINUOUS
100
AcDbLine
 10
3.577871882961
 20
17.820844689254
 30
0.0
 11
74.577871882961
 21
17.820844689254
 31
0.0
  0
LINE
  5
2A86
330
2A6C
100
AcDbEntity
  8
図枠細線
  6
CONTINUOUS
 62
   252
100
AcDbLine
 10
3.577871882961
 20
27.820842689254
 30
0.0
 11
74.577871882961
 21
27.820842689254
 31
0.0
  0
LINE
  5
2A87
330
2A6C
100
AcDbEntity
  8
図枠細線
  6
CONTINUOUS
 62
   252
100
AcDbLine
 10
3.577871882961
 20
22.820842689254
 30
0.0
 11
74.577871882961
 21
22.820842689254
 31
0.0
  0
LINE
  5
2A88
330
2A6C
100
AcDbEntity
  8
図枠細線
  6
CONTINUOUS
 62
   252
100
AcDbLine
 10
3.577871882961
 20
12.820842689254
 30
0.0
 11
74.577871882961
 21
12.820842689254
 31
0.0
  0
LINE
  5
2A89
330
2A6C
100
AcDbEntity
  8
図枠細線
  6
CONTINUOUS
 62
   252
100
AcDbLine
 10
3.577871882961
 20
7.820844689254
 30
0.0
 11
74.577871882961
 21
7.820844689254
 31
0.0
  0
LINE
  5
2A8A
330
2A6C
100
AcDbEntity
  8
図枠細線
  6
CONTINUOUS
100
AcDbLine
 10
74.577871882961
 20
17.820843689254
 30
0.0
 11
143.577871882961
 21
17.820841224969
 31
0.0
  0
LINE
  5
2A8B
330
2A6C
100
AcDbEntity
  8
図枠太線
  6
CONTINUOUS
 62
   251
100
AcDbLine
 10
3.577871882961
 20
2.820844689254
 30
0.0
 11
283.577871882961
 21
2.820844689254
 31
0.0
  0
LINE
  5
2A8C
330
2A6C
100
AcDbEntity
  8
図枠太線
  6
CONTINUOUS
 62
   251
100
AcDbLine
 10
3.577871882961
 20
2.820844689254
 30
0.0
 11
3.577871882961
 21
32.820842689254
 31
0.0
  0
ENDBLK
  5
2A8D
330
2A6C
100
AcDbEntity
  8
0
100
AcDbBlockEnd
  0
BLOCK
  5
2AF8
330
2AF4
100
AcDbEntity
  8
0
 48
10.0
100
AcDbBlockBegin
  2
_OPEN30
 70
     0
 10
0.0
 20
0.0
 30
0.0
  3
_OPEN30
  1
_OPEN30
  0
LINE
  5
2AF5
330
2AF4
100
AcDbEntity
  8
0
  6
BYBLOCK
 62
     0
100
AcDbLine
 10
-1.0
 20
0.26794919
 30
0.0
 11
0.0
 21
0.0
 31
0.0
  0
LINE
  5
2AF6
330
2AF4
100
AcDbEntity
  8
0
  6
BYBLOCK
 62
     0
100
AcDbLine
 10
0.0
 20
0.0
 30
0.0
 11
-1.0
 21
-0.26794919
 31
0.0
  0
LINE
  5
2AF7
330
2AF4
100
AcDbEntity
  8
0
  6
BYBLOCK
 62
     0
100
AcDbLine
 10
0.0
 20
0.0
 30
0.0
 11
-1.0
 21
0.0
 31
0.0
  0
ENDBLK
  5
2AF9
330
2AF4
100
AcDbEntity
  8
0
 48
10.0
100
AcDbBlockEnd
  0
BLOCK
  5
3025
330
3024
100
AcDbEntity
  8
0
 48
10.0
100
AcDbBlockBegin
  2
パドル_W1
 70
     0
 10
0.0
 20
0.0
 30
0.0
  3
パドル_W1
  1
パドル_W1
  0
LINE
  5
3026
330
3024
100
AcDbEntity
  8
中心線
 48
10.0
100
AcDbLine
 10
124.6832879095
 20
220.674073777677
 30
0.0
 11
131.9189439095
 21
220.674073777677
 31
0.0
  0
LINE
  5
3027
330
3024
100
AcDbEntity
  8
外形線
 48
10.0
100
AcDbLine
 10
58.3011159095
 20
260.651761921811
 30
0.0
 11
58.3011159095
 21
180.651761921811
 31
0.0
  0
LINE
  5
3028
330
3024
100
AcDbEntity
  8
外形線
 48
10.0
100
AcDbLine
 10
58.3011159095
 20
180.651761921811
 30
0.0
 11
123.3011159095
 21
180.651761921811
 31
0.0
  0
LINE
  5
3029
330
3024
100
AcDbEntity
  8
外形線
 48
10.0
100
AcDbLine
 10
138.3011159095
 20
208.651761921811
 30
0.0
 11
138.3011159095
 21
212.376811207105
 31
0.0
  0
LINE
  5
302A
330
3024
100
AcDbEntity
  8
外形線
 48
10.0
100
AcDbLine
 10
123.3011159095
 20
260.651761921811
 30
0.0
 11
58.3011159095
 21
260.651761921811
 31
0.0
  0
LINE
  5
302B
330
3024
100
AcDbEntity
  8
外形線
 48
10.0
100
AcDbLine
 10
138.3011159095
 20
232.651761921811
 30
0.0
 11
123.3011159095
 21
260.651761921811
 31
0.0
  0
LINE
  5
302C
330
3024
100
AcDbEntity
  8
外形線
 48
10.0
100
AcDbLine
 10
138.3011159095
 20
208.651761921811
 30
0.0
 11
123.3011159095
 21
180.651761921811
 31
0.0
  0
LINE
  5
302D
330
3024
100
AcDbEntity
  8
外形線
 48
10.0
100
AcDbLine
 10
153.3011159095
 20
212.376811207105
 30
0.0
 11
153.3011159095
 21
228.941629207105
 31
0.0
  0
LINE
  5
302E
330
3024
100
AcDbEntity
  8
外形線
100
AcDbLine
 10
125.0147379095
 20
212.376811207105
 30
0.0
 11
153.3011159095
 21
212.376811207105
 31
0.0
  0
LINE
  5
302F
330
3024
100
AcDbEntity
  8
細線
100
AcDbLine
 10
153.2891519095
 20
216.518045207105
 30
0.0
 11
124.6692799095
 21
216.518045207105
 31
0.0
  0
LINE
  5
3030
330
3024
100
AcDbEntity
  8
外形線
100
AcDbLine
 10
125.0147379095
 20
228.941629207105
 30
0.0
 11
123.3011159095
 21
227.228007207105
 31
0.0
  0
ARC
  5
3031
330
3024
100
AcDbEntity
  8
細線
100
AcDbCircle
 10
126.4810479095
 20
227.420755207105
 30
0.0
 40
3.18575
100
AcDbArc
 50
183.469852255156
 51
235.339263082109
  0
LINE
  5
3032
330
3024
100
AcDbEntity
  8
細線
100
AcDbLine
 10
153.2891519095
 20
224.800395207105
 30
0.0
 11
124.6692799095
 21
224.800395207105
 31
0.0
  0
ARC
  5
3033
330
3024
100
AcDbEntity
  8
細線
100
AcDbCircle
 10
126.4810479095
 20
213.897685207105
 30
0.0
 40
3.18575
100
AcDbArc
 50
124.660776613574
 51
176.530130144749
  0
LINE
  5
3034
330
3024
100
AcDbEntity
  8
外形線
100
AcDbLine
 10
123.3011159095
 20
227.228007207105
 30
0.0
 11
123.3011159095
 21
214.090433207105
 31
0.0
  0
CIRCLE
  5
3035
330
3024
100
AcDbEntity
  8
外形線
100
AcDbCircle
 10
128.3011159095
 20
220.674073777677
 30
0.0
 40
2.28479
  0
ARC
  5
3036
330
3024
100
AcDbEntity
  8
細線
100
AcDbCircle
 10
130.2525019095
 20
220.659219207105
 30
0.0
 40
6.951389999999999
100
AcDbArc
 50
143.43540034864
 51
216.564582051267
  0
LINE
  5
3037
330
3024
100
AcDbEntity
  8
中心線
 48
10.0
100
AcDbLine
 10
128.3011159095
 20
224.291901777677
 30
0.0
 11
128.3011159095
 21
217.056245777676
 31
0.0
  0
LINE
  5
3038
330
3024
100
AcDbEntity
  8
外形線
100
AcDbLine
 10
125.0147379095
 20
212.376811207105
 30
0.0
 11
123.3011159095
 21
214.090433207105
 31
0.0
  0
LINE
  5
3039
330
3024
100
AcDbEntity
  8
外形線
100
AcDbLine
 10
125.0147379095
 20
228.941629207105
 30
0.0
 11
153.3011159095
 21
228.941629207105
 31
0.0
  0
LINE
  5
303A
330
3024
100
AcDbEntity
  8
外形線
 48
10.0
100
AcDbLine
 10
138.3011159095
 20
228.941629207105
 30
0.0
 11
138.3011159095
 21
232.651761921811
 31
0.0
  0
ENDBLK
  5
303B
330
3024
100
AcDbEntity
  8
0
 48
10.0
100
AcDbBlockEnd
  0
BLOCK
  5
3055
330
3054
100
AcDbEntity
  8
0
 48
10.0
100
AcDbBlockBegin
  2
パドル_W1立面図
 70
     0
 10
0.0
 20
0.0
 30
0.0
  3
パドル_W1立面図
  1
パドル_W1立面図
  0
LINE
  5
3056
330
3054
100
AcDbEntity
  8
外形線
 48
10.0
100
AcDbLine
 10
-4.385455455444
 20
189.61846140322
 30
0.0
 11
-7.241459969979
 21
189.61846140322
 31
0.0
  0
LINE
  5
3057
330
3054
100
AcDbEntity
  8
外形線
 48
10.0
100
AcDbLine
 10
-4.385455455444
 20
269.61846140322
 30
0.0
 11
-7.241459969979
 21
269.61846140322
 31
0.0
  0
LINE
  5
3058
330
3054
100
AcDbEntity
  8
外形線
 48
10.0
100
AcDbLine
 10
-4.385455455444
 20
189.61846140322
 30
0.0
 11
-4.385455455444
 21
269.61846140322
 31
0.0
  0
LINE
  5
3059
330
3054
100
AcDbEntity
  8
外形線
 48
10.0
100
AcDbLine
 10
-7.241459969979
 20
269.61846140322
 30
0.0
 11
-7.241459969979
 21
189.61846140322
 31
0.0
  0
LINE
  5
305A
330
3054
100
AcDbEntity
  8
外形線
100
AcDbLine
 10
-4.385468503734
 20
237.376935973808
 30
0.0
 11
1.606659496266
 21
233.917433973808
 31
0.0
  0
ARC
  5
305B
330
3054
100
AcDbEntity
  8
細線
100
AcDbCircle
 10
-5.813446503734
 20
229.633375973808
 30
0.0
 40
8.568
100
AcDbArc
 50
279.594007516002
 51
80.406014579591
  0
LINE
  5
305C
330
3054
100
AcDbEntity
  8
外形線
100
AcDbLine
 10
1.606659496266
 20
233.917433973808
 30
0.0
 11
1.606659496266
 21
225.349439973808
 31
0.0
  0
LINE
  5
305D
330
3054
100
AcDbEntity
  8
外形線
100
AcDbLine
 10
-4.385468503734
 20
221.889815973808
 30
0.0
 11
1.606659496266
 21
225.349439973808
 31
0.0
  0
ARC
  5
305E
330
3054
100
AcDbEntity
  8
細線
100
AcDbCircle
 10
-5.813446503734
 20
229.633375973808
 30
0.0
 40
7.458525999999999
100
AcDbArc
 50
281.037746568172
 51
78.962275527419
  0
LINE
  5
305F
330
3054
100
AcDbEntity
  8
外形線
100
AcDbLine
 10
-7.241454503734
 20
221.889845973808
 30
0.0
 11
-13.233550503734
 21
225.349439973808
 31
0.0
  0
LINE
  5
3060
330
3054
100
AcDbEntity
  8
外形線
100
AcDbLine
 10
-13.233550503734
 20
225.349439973808
 30
0.0
 11
-13.233550503734
 21
233.917433973808
 31
0.0
  0
LINE
  5
3061
330
3054
100
AcDbEntity
  8
外形線
100
AcDbLine
 10
-7.241454503734
 20
237.376905973808
 30
0.0
 11
-13.233550503734
 21
233.917433973808
 31
0.0
  0
ARC
  5
3062
330
3054
100
AcDbEntity
  8
細線
100
AcDbCircle
 10
-5.813446503734
 20
229.633375973808
 30
0.0
 40
7.458525999999999
100
AcDbArc
 50
101.038013199227
 51
258.962026496458
  0
ARC
  5
3063
330
3054
100
AcDbEntity
  8
細線
100
AcDbCircle
 10
-5.813446503734
 20
229.633375973808
 30
0.0
 40
8.568
100
AcDbArc
 50
99.594159555498
 51
260.405880140189
  0
ENDBLK
  5
3064
330
3054
100
AcDbEntity
  8
0
 48
10.0
100
AcDbBlockEnd
  0
BLOCK
  5
3137
330
3136
100
AcDbEntity
  8
0
 48
10.0
100
AcDbBlockBegin
  2
*D8
 70
     1
 10
0.0
 20
0.0
 30
0.0
  3
*D8
  1
*D8
  0
LINE
  5
3138
330
3136
100
AcDbEntity
  8
寸法線
 62
     0
 48
10.0
100
AcDbLine
 10
-49.24303505395
 20
269.61846140322
 30
0.0
 11
-71.827276343155
 21
269.61846140322
 31
0.0
  0
LINE
  5
3139
330
3136
100
AcDbEntity
  8
寸法線
 62
     0
 48
10.0
100
AcDbLine
 10
-49.24303505395
 20
189.61846140322
 30
0.0
 11
-71.827276343155
 21
189.61846140322
 31
0.0
  0
LINE
  5
313A
330
3136
100
AcDbEntity
  8
寸法線
 62
     0
 48
10.0
100
AcDbLine
 10
-70.577276343155
 20
263.61846140322
 30
0.0
 11
-70.577276343155
 21
195.61846140322
 31
0.0
  0
INSERT
  5
313B
330
3136
100
AcDbEntity
  8
寸法線
 62
     0
 48
10.0
100
AcDbBlockReference
  2
_OPEN30
 10
-70.577276343155
 20
269.61846140322
 30
0.0
 41
6.0
 42
6.0
 43
6.0
 50
90.0
  0
INSERT
  5
313C
330
3136
100
AcDbEntity
  8
寸法線
 62
     0
 48
10.0
100
AcDbBlockReference
  2
_OPEN30
 10
-70.577276343155
 20
189.61846140322
 30
0.0
 41
6.0
 42
6.0
 43
6.0
 50
270.0
  0
MTEXT
  5
313D
330
3136
100
AcDbEntity
  8
寸法線
 62
     0
 48
10.0
100
AcDbMText
 10
-73.702276343155
 20
229.61846140322
 30
0.0
 40
5.0
 41
0.0
 71
     5
 72
     1
  1
\A1;80
 11
6.123031769111886E-17
 21
1.0
 31
0.0
  0
POINT
  5
313E
330
3136
100
AcDbEntity
  8
DEFPOINTS
 62
     0
 48
10.0
100
AcDbPoint
 10
-48.61803505395
 20
269.61846140322
 30
0.0
  0
POINT
  5
313F
330
3136
100
AcDbEntity
  8
DEFPOINTS
 62
     0
 48
10.0
100
AcDbPoint
 10
-48.61803505395
 20
189.61846140322
 30
0.0
  0
POINT
  5
3140
330
3136
100
AcDbEntity
  8
DEFPOINTS
 62
     0
 48
10.0
100
AcDbPoint
 10
-70.577276343155
 20
189.61846140322
 30
0.0
  0
ENDBLK
  5
3141
330
3136
100
AcDbEntity
  8
0
 48
10.0
100
AcDbBlockEnd
  0
BLOCK
  5
3143
330
3142
100
AcDbEntity
  8
0
 48
10.0
100
AcDbBlockBegin
  2
*D9
 70
     1
 10
0.0
 20
0.0
 30
0.0
  3
*D9
  1
*D9
  0
LINE
  5
3144
330
3142
100
AcDbEntity
  8
寸法線
 62
     0
 48
10.0
100
AcDbLine
 10
-48.61803505395
 20
188.99346140322
 30
0.0
 11
-48.61803505395
 21
169.842404217648
 31
0.0
  0
LINE
  5
3145
330
3142
100
AcDbEntity
  8
寸法線
 62
     0
 48
10.0
100
AcDbLine
 10
31.38196494605
 20
216.99346140322
 30
0.0
 11
31.38196494605
 21
169.842404217648
 31
0.0
  0
LINE
  5
3146
330
3142
100
AcDbEntity
  8
寸法線
 62
     0
 48
10.0
100
AcDbLine
 10
-42.61803505395
 20
171.092404217648
 30
0.0
 11
25.38196494605
 21
171.092404217648
 31
0.0
  0
INSERT
  5
3147
330
3142
100
AcDbEntity
  8
寸法線
 62
     0
 48
10.0
100
AcDbBlockReference
  2
_OPEN30
 10
-48.61803505395
 20
171.092404217648
 30
0.0
 41
6.0
 42
6.0
 43
6.0
 50
180.0
  0
INSERT
  5
3148
330
3142
100
AcDbEntity
  8
寸法線
 62
     0
 48
10.0
100
AcDbBlockReference
  2
_OPEN30
 10
31.38196494605
 20
171.092404217648
 30
0.0
 41
6.0
 42
6.0
 43
6.0
  0
MTEXT
  5
3149
330
3142
100
AcDbEntity
  8
寸法線
 62
     0
 48
10.0
100
AcDbMText
 10
-8.61803505395
 20
174.217404217648
 30
0.0
 40
5.0
 41
0.0
 71
     5
 72
     1
  1
\A1;80
  0
POINT
  5
314A
330
3142
100
AcDbEntity
  8
DEFPOINTS
 62
     0
 48
10.0
100
AcDbPoint
 10
-48.61803505395
 20
189.61846140322
 30
0.0
  0
POINT
  5
314B
330
3142
100
AcDbEntity
  8
DEFPOINTS
 62
     0
 48
10.0
100
AcDbPoint
 10
31.38196494605
 20
217.61846140322
 30
0.0
  0
POINT
  5
314C
330
3142
100
AcDbEntity
  8
DEFPOINTS
 62
     0
 48
10.0
100
AcDbPoint
 10
31.38196494605
 20
171.092404217648
 30
0.0
  0
ENDBLK
  5
314D
330
3142
100
AcDbEntity
  8
0
 48
10.0
100
AcDbBlockEnd
  0
BLOCK
  5
314F
330
314E
100
AcDbEntity
  8
0
 48
10.0
100
AcDbBlockBegin
  2
*D10
 70
     1
 10
0.0
 20
0.0
 30
0.0
  3
*D10
  1
*D10
  0
LINE
  5
3150
330
314E
100
AcDbEntity
  8
寸法線
 62
     0
 48
10.0
100
AcDbLine
 10
-142.545856406188
 20
188.99346140322
 30
0.0
 11
-142.545856406188
 21
171.16763126853
 31
0.0
  0
LINE
  5
3151
330
314E
100
AcDbEntity
  8
寸法線
 62
     0
 48
10.0
100
AcDbLine
 10
-139.689851891653
 20
188.99346140322
 30
0.0
 11
-139.689851891653
 21
171.16763126853
 31
0.0
  0
LINE
  5
3152
330
314E
100
AcDbEntity
  8
寸法線
 62
     0
 48
10.0
100
AcDbLine
 10
-148.545856406188
 20
172.41763126853
 30
0.0
 11
-154.545856406188
 21
172.41763126853
 31
0.0
  0
LINE
  5
3153
330
314E
100
AcDbEntity
  8
寸法線
 62
     0
 48
10.0
100
AcDbLine
 10
-133.689851891653
 20
172.41763126853
 30
0.0
 11
-120.232745110466
 21
172.41763126853
 31
0.0
  0
LINE
  5
3154
330
314E
100
AcDbEntity
  8
寸法線
 62
     0
 48
10.0
100
AcDbLine
 10
-142.545856406188
 20
172.41763126853
 30
0.0
 11
-139.689851891653
 21
172.41763126853
 31
0.0
  0
INSERT
  5
3155
330
314E
100
AcDbEntity
  8
寸法線
 62
     0
 48
10.0
100
AcDbBlockReference
  2
_OPEN30
 10
-142.545856406188
 20
172.41763126853
 30
0.0
 41
6.0
 42
6.0
 43
6.0
  0
INSERT
  5
3156
330
314E
100
AcDbEntity
  8
寸法線
 62
     0
 48
10.0
100
AcDbBlockReference
  2
_OPEN30
 10
-139.689851891653
 20
172.41763126853
 30
0.0
 41
6.0
 42
6.0
 43
6.0
 50
180.0
  0
MTEXT
  5
3157
330
314E
100
AcDbEntity
  8
寸法線
 62
     0
 48
10.0
100
AcDbMText
 10
-123.961298501059
 20
175.54263126853
 30
0.0
 40
5.0
 41
0.0
 71
     5
 72
     1
  1
\A1;1.5
  0
POINT
  5
3158
330
314E
100
AcDbEntity
  8
DEFPOINTS
 62
     0
 48
10.0
100
AcDbPoint
 10
-142.545856406188
 20
189.61846140322
 30
0.0
  0
POINT
  5
3159
330
314E
100
AcDbEntity
  8
DEFPOINTS
 62
     0
 48
10.0
100
AcDbPoint
 10
-139.689851891653
 20
189.61846140322
 30
0.0
  0
POINT
  5
315A
330
314E
100
AcDbEntity
  8
DEFPOINTS
 62
     0
 48
10.0
100
AcDbPoint
 10
-139.689851891653
 20
172.41763126853
 30
0.0
  0
ENDBLK
  5
315B
330
314E
100
AcDbEntity
  8
0
 48
10.0
100
AcDbBlockEnd
  0
BLOCK
  5
3170
330
315C
100
AcDbEntity
  8
0
 48
10.0
100
AcDbBlockBegin
  2
A$C384A4FFB
 70
     0
 10
0.0
 20
0.0
 30
0.0
  3
A$C384A4FFB
  1
A$C384A4FFB
  0
LINE
  5
315D
330
315C
100
AcDbEntity
  8
外形線
100
AcDbLine
 10
312.227694679646
 20
154.159896392983
 30
0.0
 11
519.638224678776
 21
154.159896392983
 31
0.0
  0
LINE
  5
315E
330
315C
100
AcDbEntity
  8
外形線
100
AcDbLine
 10
312.227694679646
 20
144.159973892983
 30
0.0
 11
519.638224678776
 21
144.159973892983
 31
0.0
  0
LINE
  5
315F
330
315C
100
AcDbEntity
  8
外形線
100
AcDbLine
 10
303.727694679646
 20
157.303858892983
 30
0.0
 11
309.981067179646
 21
157.303858892983
 31
0.0
  0
LINE
  5
3160
330
315C
100
AcDbEntity
  8
外形線
100
AcDbLine
 10
309.981067179646
 20
157.303858892983
 30
0.0
 11
312.227619679646
 21
155.057153892983
 31
0.0
  0
LINE
  5
3161
330
315C
100
AcDbEntity
  8
細線
100
AcDbLine
 10
305.727694679646
 20
153.231858892983
 30
0.0
 11
310.983175606654
 21
153.231858892983
 31
0.0
  0
ARC
  5
3162
330
315C
100
AcDbEntity
  8
細線
100
AcDbCircle
 10
308.639057179646
 20
156.166926392983
 30
0.0
 40
3.7563025
100
AcDbArc
 50
308.612371782873
 51
342.81588950412
  0
LINE
  5
3163
330
315C
100
AcDbEntity
  8
外形線
100
AcDbLine
 10
303.727694679646
 20
141.015938892983
 30
0.0
 11
309.981067179646
 21
141.015938892983
 31
0.0
  0
LINE
  5
3164
330
315C
100
AcDbEntity
  8
外形線
100
AcDbLine
 10
309.981067179646
 20
141.015938892983
 30
0.0
 11
312.227619679646
 21
143.262568892983
 31
0.0
  0
LINE
  5
3165
330
315C
100
AcDbEntity
  8
外形線
100
AcDbLine
 10
303.727694679646
 20
157.303858892983
 30
0.0
 11
303.727694679646
 21
141.015938892983
 31
0.0
  0
LINE
  5
3166
330
315C
100
AcDbEntity
  8
外形線
100
AcDbLine
 10
305.727694679646
 20
157.303858892983
 30
0.0
 11
305.727694679646
 21
141.015938892983
 31
0.0
  0
LINE
  5
3167
330
315C
100
AcDbEntity
  8
細線
100
AcDbLine
 10
305.727694679646
 20
145.087976392983
 30
0.0
 11
310.983135652015
 21
145.087976392983
 31
0.0
  0
ARC
  5
3168
330
315C
100
AcDbEntity
  8
細線
100
AcDbCircle
 10
308.639057179646
 20
142.152718892983
 30
0.0
 40
3.7563025
100
AcDbArc
 50
17.184150191555
 51
51.38761061704
  0
LINE
  5
3169
330
315C
100
AcDbEntity
  8
外形線
100
AcDbLine
 10
312.227694679646
 20
143.262491392983
 30
0.0
 11
312.227694679646
 21
155.057153892983
 31
0.0
  0
ARC
  5
316A
330
315C
100
AcDbEntity
  8
細線
100
AcDbCircle
 10
304.943837179646
 20
149.159861392983
 30
0.0
 40
7.2838425
100
AcDbArc
 50
326.010120640452
 51
33.98932849733
  0
DIMENSION
  5
316B
330
315C
100
AcDbEntity
  8
寸法線
 48
10.0
100
AcDbDimension
  2
*D10
 10
14.856002832544
 20
2.932922293165
 30
0.0
 11
30.584556223137
 21
6.057922293165
 31
0.0
 12
154.545854724197
 22
-169.484708975365
 32
0.0
  1
1.5
  3
ISO-25
100
AcDbAlignedDimension
 13
11.999998318009
 23
20.133752427855
 33
0.0
 14
14.856002832544
 24
20.133752427855
 34
0.0
100
AcDbRotatedDimension
1001
ACAD
1000
DSTYLE
1002
{
1070
     5
1000
OPEN30
1070
    41
1040
6.0
1070
    47
1040
0.1
1070
    48
1040
0.1
1070
    73
1070
     0
1070
   140
1040
5.0
1070
   271
1070
     1
1070
   272
1070
     1
1070
   341
1005
2AF4
1002
}
  0
INSERT
  5
316C
330
315C
100
AcDbEntity
  8
外形線
100
AcDbBlockReference
  2
パドル_W1立面図
 10
19.241458287988
 20
-169.484708975365
 30
0.0
  0
DIMENSION
  5
316D
330
315C
100
AcDbEntity
  8
寸法線
 48
10.0
100
AcDbDimension
  2
*D9
 10
185.927819670247
 20
1.607695242283
 30
0.0
 11
145.927819670247
 21
4.732695242283
 31
0.0
 12
154.545854724197
 22
-169.484708975365
 32
0.0
  3
ISO-25
100
AcDbAlignedDimension
 13
105.927819670247
 23
20.133752427855
 33
0.0
 14
185.927819670247
 24
48.133752427855
 34
0.0
100
AcDbRotatedDimension
1001
ACAD
1000
DSTYLE
1002
{
1070
     5
1000
OPEN30
1070
    41
1040
6.0
1070
    47
1040
0.1
1070
    48
1040
0.1
1070
    73
1070
     0
1070
   140
1040
5.0
1070
   271
1070
     1
1070
   272
1070
     1
1070
   341
1005
2AF4
1002
}
  0
DIMENSION
  5
316E
330
315C
100
AcDbEntity
  8
寸法線
 48
10.0
100
AcDbDimension
  2
*D8
 10
83.968578381042
 20
20.133752427855
 30
0.0
 11
80.843578381042
 21
60.133752427855
 31
0.0
 12
154.545854724197
 22
-169.484708975365
 32
0.0
  3
ISO-25
100
AcDbAlignedDimension
 13
105.927819670247
 23
100.133752427855
 33
0.0
 14
105.927819670247
 24
20.133752427855
 34
0.0
 50
90.0
100
AcDbRotatedDimension
1001
ACAD
1000
DSTYLE
1002
{
1070
     5
1000
OPEN30
1070
    41
1040
6.0
1070
    47
1040
0.1
1070
    48
1040
0.1
1070
    73
1070
     0
1070
   140
1040
5.0
1070
   271
1070
     1
1070
   272
1070
     1
1070
   341
1005
2AF4
1002
}
  0
INSERT
  5
316F
330
315C
100
AcDbEntity
  8
外形線
 48
10.0
100
AcDbBlockReference
  2
パドル_W1
 10
47.626703760747
 20
-160.518009493956
 30
0.0
  0
ENDBLK
  5
3171
330
315C
100
AcDbEntity
  8
0
 48
10.0
100
AcDbBlockEnd
  0
BLOCK
  5
34BD
330
34BA
100
AcDbEntity
  8
0
 48
10.0
100
AcDbBlockBegin
  2
A$C77C530E9
 70
     0
 10
0.0
 20
0.0
 30
0.0
  3
A$C77C530E9
  1
A$C77C530E9
  0
LINE
  5
34BB
330
34BA
100
AcDbEntity
  8
中心線
 48
10.0
100
AcDbLine
 10
0.000000851412
 20
22.054596647591
 30
0.0
 11
22.054597830693
 21
-0.000000331691
 31
0.0
  0
LINE
  5
34BC
330
34BA
100
AcDbEntity
  8
中心線
 48
10.0
100
AcDbLine
 10
47.201721658668
 20
-0.000000331691
 30
0.0
 11
69.256318637949
 21
22.054596647591
 31
0.0
  0
ENDBLK
  5
34BE
330
34BA
100
AcDbEntity
  8
0
 48
10.0
100
AcDbBlockEnd
  0
BLOCK
  5
673A
330
672E
100
AcDbEntity
  8
0
 48
10.0
100
AcDbBlockBegin
  2
*D19
 70
     1
 10
0.0
 20
0.0
 30
0.0
  3
*D19
  1
*D19
  0
LINE
  5
722F
330
672E
100
AcDbEntity
  8
寸法線
 62
     0
 48
10.0
100
AcDbLine
 10
484.434167947453
 20
606.681993530943
 30
0.0
 11
483.809167947453
 21
606.681993530943
 31
0.0
  0
LINE
  5
7230
330
672E
100
AcDbEntity
  8
寸法線
 62
     0
 48
10.0
100
AcDbLine
 10
484.434167947453
 20
616.681993530943
 30
0.0
 11
483.809167947453
 21
616.681993530943
 31
0.0
  0
LINE
  5
7231
330
672E
100
AcDbEntity
  8
寸法線
 62
     0
 48
10.0
100
AcDbLine
 10
485.059167947453
 20
622.681993530943
 30
0.0
 11
485.059167947453
 21
649.765326864276
 31
0.0
  0
LINE
  5
7232
330
672E
100
AcDbEntity
  8
寸法線
 62
     0
 48
10.0
100
AcDbLine
 10
485.059167947453
 20
606.681993530943
 30
0.0
 11
485.059167947453
 21
616.681993530943
 31
0.0
  0
LINE
  5
7233
330
672E
100
AcDbEntity
  8
寸法線
 62
     0
 48
10.0
100
AcDbLine
 10
485.059167947453
 20
600.681993530943
 30
0.0
 11
485.059167947453
 21
594.681993530943
 31
0.0
  0
INSERT
  5
7234
330
672E
100
AcDbEntity
  8
寸法線
 62
     0
100
AcDbBlockReference
  2
_OPEN30
 10
485.059167947453
 20
606.681993530943
 30
0.0
 41
6.0
 42
6.0
 43
6.0
 50
90.0
  0
INSERT
  5
7235
330
672E
100
AcDbEntity
  8
寸法線
 62
     0
100
AcDbBlockReference
  2
_OPEN30
 10
485.059167947453
 20
616.681993530943
 30
0.0
 41
6.0
 42
6.0
 43
6.0
 50
270.0
  0
MTEXT
  5
7236
330
672E
100
AcDbEntity
  8
寸法線
 62
     0
 48
10.0
100
AcDbMText
 10
479.434167947453
 20
639.223660197609
 30
0.0
 40
10.0
 41
0.0
 71
     5
 72
     1
  1
\A1;φ10
 11
0.0
 21
1.0
 31
0.0
  0
POINT
  5
7237
330
672E
100
AcDbEntity
  8
DEFPOINTS
 62
     0
100
AcDbPoint
 10
485.059167947453
 20
606.681993530943
 30
0.0
  0
POINT
  5
7238
330
672E
100
AcDbEntity
  8
DEFPOINTS
 62
     0
100
AcDbPoint
 10
485.059167947453
 20
616.681993530943
 30
0.0
  0
POINT
  5
7239
330
672E
100
AcDbEntity
  8
DEFPOINTS
 62
     0
100
AcDbPoint
 10
485.059167947453
 20
616.681993530943
 30
0.0
  0
ENDBLK
  5
673B
330
672E
100
AcDbEntity
  8
0
 48
10.0
100
AcDbBlockEnd
  0
BLOCK
  5
676C
330
6762
100
AcDbEntity
  8
0
 48
10.0
100
AcDbBlockBegin
  2
*D20
 70
     1
 10
0.0
 20
0.0
 30
0.0
  3
*D20
  1
*D20
  0
LINE
  5
7683
330
6762
100
AcDbEntity
  8
寸法線
 62
     0
 48
10.0
100
AcDbLine
 10
156.275077374443
 20
552.516020024784
 30
0.0
 11
156.275077374443
 21
412.814177750876
 31
0.0
  0
LINE
  5
7684
330
6762
100
AcDbEntity
  8
寸法線
 62
     0
 48
10.0
100
AcDbLine
 10
538.808211104737
 20
533.549534245649
 30
0.0
 11
538.808211104737
 21
412.814177750876
 31
0.0
  0
LINE
  5
7685
330
6762
100
AcDbEntity
  8
寸法線
 62
     0
 48
10.0
100
AcDbLine
 10
162.275077374443
 20
414.064177750876
 30
0.0
 11
532.808211104737
 21
414.064177750876
 31
0.0
  0
INSERT
  5
7686
330
6762
100
AcDbEntity
  8
寸法線
 62
     0
100
AcDbBlockReference
  2
_OPEN30
 10
156.275077374443
 20
414.064177750876
 30
0.0
 41
6.0
 42
6.0
 43
6.0
 50
180.0
  0
INSERT
  5
7687
330
6762
100
AcDbEntity
  8
寸法線
 62
     0
100
AcDbBlockReference
  2
_OPEN30
 10
538.808211104737
 20
414.064177750876
 30
0.0
 41
6.0
 42
6.0
 43
6.0
  0
POINT
  5
7688
330
6762
100
AcDbEntity
  8
DEFPOINTS
 62
     0
100
AcDbPoint
 10
156.275077374443
 20
553.141020024784
 30
0.0
  0
POINT
  5
7689
330
6762
100
AcDbEntity
  8
DEFPOINTS
 62
     0
100
AcDbPoint
 10
538.808211104737
 20
534.174534245649
 30
0.0
  0
POINT
  5
768A
330
6762
100
AcDbEntity
  8
DEFPOINTS
 62
     0
100
AcDbPoint
 10
538.808211104737
 20
414.064177750876
 30
0.0
  0
ENDBLK
  5
676D
330
6762
100
AcDbEntity
  8
0
 48
10.0
100
AcDbBlockEnd
  0
BLOCK
  5
7392
330
7391
100
AcDbEntity
  8
0
 48
10.0
100
AcDbBlockBegin
  2
A$C135842B4
 70
     0
 10
0.0
 20
0.0
 30
0.0
  3
A$C135842B4
  1
A$C135842B4
  0
LINE
  5
7393
330
7391
100
AcDbEntity
  8
外形線
100
AcDbLine
 10
0.000000359924
 20
20.066964684103
 30
0.0
 11
0.000000359924
 21
6.066947184103
 31
0.0
  0
LINE
  5
7394
330
7391
100
AcDbEntity
  8
外形線
100
AcDbLine
 10
0.000000359924
 20
20.066964684103
 30
0.0
 11
0.000000359924
 21
6.066947184103
 31
0.0
  0
LINE
  5
7395
330
7391
100
AcDbEntity
  8
外形線
100
AcDbLine
 10
0.000000359924
 20
20.066964684103
 30
0.0
 11
4.500007859925
 21
20.066964684103
 31
0.0
  0
LINE
  5
7396
330
7391
100
AcDbEntity
  8
外形線
100
AcDbLine
 10
0.000000359924
 20
20.066964684103
 30
0.0
 11
4.500007859925
 21
20.066964684103
 31
0.0
  0
LINE
  5
7397
330
7391
100
AcDbEntity
  8
外形線
100
AcDbLine
 10
19.500007859925
 20
20.066964684103
 30
0.0
 11
26.500015359925
 21
20.066964684103
 31
0.0
  0
LINE
  5
7398
330
7391
100
AcDbEntity
  8
外形線
100
AcDbLine
 10
4.500007859925
 20
21.566939684103
 30
0.0
 11
19.500007859925
 21
21.566939684103
 31
0.0
  0
LINE
  5
7399
330
7391
100
AcDbEntity
  8
外形線
100
AcDbLine
 10
4.500007859925
 20
21.566939684103
 30
0.0
 11
19.500007859925
 21
21.566939684103
 31
0.0
  0
LINE
  5
739A
330
7391
100
AcDbEntity
  8
外形線
100
AcDbLine
 10
19.500007859925
 20
20.066964684103
 30
0.0
 11
26.572566061358
 21
20.066964684103
 31
0.0
  0
LINE
  5
739B
330
7391
100
AcDbEntity
  8
外形線
100
AcDbLine
 10
26.572566061358
 20
6.166969684103
 30
0.0
 11
26.572566061358
 21
20.066964684103
 31
0.0
  0
LINE
  5
739C
330
7391
100
AcDbEntity
  8
外形線
100
AcDbLine
 10
26.572566061358
 20
6.066947184103
 30
0.0
 11
26.572566061358
 21
20.066964684103
 31
0.0
  0
LINE
  5
739D
330
7391
100
AcDbEntity
  8
外形線
100
AcDbLine
 10
19.500007859925
 20
6.066947184103
 30
0.0
 11
26.500015359925
 21
6.066947184103
 31
0.0
  0
LINE
  5
739E
330
7391
100
AcDbEntity
  8
外形線
100
AcDbLine
 10
19.500007859925
 20
0.566957184103
 30
0.0
 11
19.500007859925
 21
21.566939684103
 31
0.0
  0
LINE
  5
739F
330
7391
100
AcDbEntity
  8
外形線
100
AcDbLine
 10
4.500007859925
 20
0.566957184103
 30
0.0
 11
4.500007859925
 21
21.566939684103
 31
0.0
  0
LINE
  5
73A0
330
7391
100
AcDbEntity
  8
外形線
100
AcDbLine
 10
0.000000359924
 20
6.066947184103
 30
0.0
 11
4.500007859925
 21
6.066947184103
 31
0.0
  0
LINE
  5
73A1
330
7391
100
AcDbEntity
  8
中心線
 48
10.0
100
AcDbLine
 10
12.000007859925
 20
13.633914547349
 30
0.0
 11
12.000007859925
 21
-0.000000179144
 31
0.0
  0
CIRCLE
  5
73A2
330
7391
100
AcDbEntity
  8
外形線
100
AcDbCircle
 10
12.000007859925
 20
6.816957184103
 30
0.0
 40
3.25
  0
LINE
  5
73A3
330
7391
100
AcDbEntity
  8
外形線
100
AcDbLine
 10
4.500007859925
 20
0.566957184103
 30
0.0
 11
19.500007859925
 21
0.566957184103
 31
0.0
  0
LINE
  5
73A4
330
7391
100
AcDbEntity
  8
中心線
 48
10.0
100
AcDbLine
 10
5.183050496679
 20
6.816957184103
 30
0.0
 11
18.816965223171
 21
6.816957184103
 31
0.0
  0
LINE
  5
73A5
330
7391
100
AcDbEntity
  8
中心線
 48
10.0
100
AcDbLine
 10
5.183050496679
 20
6.816957184103
 30
0.0
 11
18.816965223171
 21
6.816957184103
 31
0.0
  0
LINE
  5
73A6
330
7391
100
AcDbEntity
  8
外形線
100
AcDbLine
 10
4.500007859925
 20
0.566957184103
 30
0.0
 11
19.500007859925
 21
0.566957184103
 31
0.0
  0
CIRCLE
  5
73A7
330
7391
100
AcDbEntity
  8
外形線
100
AcDbCircle
 10
12.000007859925
 20
6.816957184103
 30
0.0
 40
3.25
  0
LINE
  5
73A8
330
7391
100
AcDbEntity
  8
中心線
 48
10.0
100
AcDbLine
 10
12.000007859925
 20
13.633914547349
 30
0.0
 11
12.000007859925
 21
-0.000000179144
 31
0.0
  0
LINE
  5
73A9
330
7391
100
AcDbEntity
  8
外形線
100
AcDbLine
 10
0.000000359924
 20
6.066947184103
 30
0.0
 11
4.500007859925
 21
6.066947184103
 31
0.0
  0
LINE
  5
73AA
330
7391
100
AcDbEntity
  8
外形線
100
AcDbLine
 10
4.500007859925
 20
0.566957184103
 30
0.0
 11
4.500007859925
 21
21.566939684103
 31
0.0
  0
LINE
  5
73AB
330
7391
100
AcDbEntity
  8
外形線
100
AcDbLine
 10
19.500007859925
 20
0.566957184103
 30
0.0
 11
19.500007859925
 21
21.566939684103
 31
0.0
  0
LINE
  5
73AC
330
7391
100
AcDbEntity
  8
外形線
100
AcDbLine
 10
19.500007859925
 20
6.066947184103
 30
0.0
 11
26.572566061358
 21
6.066947184103
 31
0.0
  0
ENDBLK
  5
73AD
330
7391
100
AcDbEntity
  8
0
 48
10.0
100
AcDbBlockEnd
  0
BLOCK
  5
73AF
330
73AE
100
AcDbEntity
  8
0
 48
10.0
100
AcDbBlockBegin
  2
A$C76E55026
 70
     0
 10
0.0
 20
0.0
 30
0.0
  3
A$C76E55026
  1
A$C76E55026
  0
ARC
  5
73B0
330
73AE
100
AcDbEntity
  8
外形線
100
AcDbCircle
 10
40.358863614945
 20
18.000000216549
 30
0.0
 40
1.999999999999957
100
AcDbArc
 50
0.0
 51
180.0
  0
LINE
  5
73B1
330
73AE
100
AcDbEntity
  8
外形線
100
AcDbLine
 10
0.000001114945
 20
17.500112716549
 30
0.0
 11
0.000001114945
 21
2.499885216549
 31
0.0
  0
LINE
  5
73B2
330
73AE
100
AcDbEntity
  8
細線
100
AcDbLine
 10
14.358863614945
 20
13.752776966281
 30
0.0
 11
0.000001114945
 21
13.752776966281
 31
0.0
  0
LINE
  5
73B3
330
73AE
100
AcDbEntity
  8
外形線
100
AcDbLine
 10
14.358863614945
 20
17.500112716549
 30
0.0
 11
0.000001114945
 21
17.500112716549
 31
0.0
  0
ARC
  5
73B4
330
73AE
100
AcDbEntity
  8
外形線
100
AcDbCircle
 10
20.358863614945
 20
18.000000216549
 30
0.0
 40
1.999999999999957
100
AcDbArc
 50
0.0
 51
168.578813725037
  0
ARC
  5
73B5
330
73AE
100
AcDbEntity
  8
外形線
100
AcDbCircle
 10
24.358863614945
 20
18.000000216549
 30
0.0
 40
1.999999999999957
100
AcDbArc
 50
0.0
 51
168.578813725037
  0
ARC
  5
73B6
330
73AE
100
AcDbEntity
  8
外形線
100
AcDbCircle
 10
28.358863614944
 20
18.000000216549
 30
0.0
 40
1.999999999999957
100
AcDbArc
 50
0.0
 51
168.578813725037
  0
ARC
  5
73B7
330
73AE
100
AcDbEntity
  8
外形線
100
AcDbCircle
 10
32.358863614945
 20
18.000000216549
 30
0.0
 40
1.999999999999957
100
AcDbArc
 50
0.0
 51
168.578813725037
  0
ARC
  5
73B8
330
73AE
100
AcDbEntity
  8
外形線
100
AcDbCircle
 10
36.358863614945
 20
18.000000216549
 30
0.0
 40
1.999999999999957
100
AcDbArc
 50
0.0
 51
168.578813725037
  0
ARC
  5
73B9
330
73AE
100
AcDbEntity
  8
外形線
100
AcDbCircle
 10
16.358863614945
 20
18.000000216549
 30
0.0
 40
1.999999999999957
100
AcDbArc
 50
0.0
 51
180.0
  0
LINE
  5
73BA
330
73AE
100
AcDbEntity
  8
外形線
100
AcDbLine
 10
83.217758614945
 20
16.250112716549
 30
0.0
 11
83.217758614945
 21
3.749885216549
 31
0.0
  0
LINE
  5
73BB
330
73AE
100
AcDbEntity
  8
細線
100
AcDbLine
 10
58.358863614944
 20
13.752776966281
 30
0.0
 11
72.717726114945
 21
13.752776966281
 31
0.0
  0
LINE
  5
73BC
330
73AE
100
AcDbEntity
  8
外形線
100
AcDbLine
 10
81.967756114945
 20
17.500112716549
 30
0.0
 11
58.358863614944
 21
17.500112716549
 31
0.0
  0
ARC
  5
73BD
330
73AE
100
AcDbEntity
  8
外形線
100
AcDbCircle
 10
44.358863614945
 20
18.000000216549
 30
0.0
 40
1.999999999999957
100
AcDbArc
 50
0.0
 51
168.578813725037
  0
ARC
  5
73BE
330
73AE
100
AcDbEntity
  8
外形線
100
AcDbCircle
 10
48.358863614944
 20
18.000000216549
 30
0.0
 40
1.999999999999957
100
AcDbArc
 50
0.0
 51
180.0
  0
ARC
  5
73BF
330
73AE
100
AcDbEntity
  8
外形線
100
AcDbCircle
 10
52.358863614945
 20
18.000000216549
 30
0.0
 40
1.999999999999957
100
AcDbArc
 50
0.0
 51
180.0
  0
ARC
  5
73C0
330
73AE
100
AcDbEntity
  8
外形線
100
AcDbCircle
 10
56.358863614945
 20
18.000000216549
 30
0.0
 40
1.999999999999957
100
AcDbArc
 50
0.0
 51
180.0
  0
LINE
  5
73C1
330
73AE
100
AcDbEntity
  8
細線
100
AcDbLine
 10
75.217726114945
 20
13.752776966281
 30
0.0
 11
81.641106114945
 21
13.752776966281
 31
0.0
  0
LINE
  5
73C2
330
73AE
100
AcDbEntity
  8
外形線
100
AcDbLine
 10
81.967758614945
 20
17.505553716014
 30
0.0
 11
83.217758614945
 21
16.250112716549
 31
0.0
  0
ARC
  5
73C3
330
73AE
100
AcDbEntity
  8
細線
100
AcDbCircle
 10
80.431268453793
 20
16.262953281196
 30
0.0
 40
2.7865197466204
100
AcDbArc
 50
295.732819735836
 51
359.735974322254
  0
LINE
  5
73C4
330
73AE
100
AcDbEntity
  8
細線
100
AcDbLine
 10
40.71925965455
 20
1.603960612586
 30
0.0
 11
42.39846757534
 21
18.396039820509
 31
0.0
  0
ARC
  5
73C5
330
73AE
100
AcDbEntity
  8
外形線
100
AcDbCircle
 10
42.758863614945
 20
2.000000216549
 30
0.0
 40
1.999999999999957
100
AcDbArc
 50
168.578813725075
 51
0.0
  0
LINE
  5
73C6
330
73AE
100
AcDbEntity
  8
外形線
100
AcDbLine
 10
14.358863614945
 20
0.000000216549
 30
0.0
 11
14.358863614945
 21
18.000000216549
 31
0.0
  0
LINE
  5
73C7
330
73AE
100
AcDbEntity
  8
細線
100
AcDbLine
 10
16.71925965455
 20
1.603960612586
 30
0.0
 11
18.39846757534
 21
18.396039820509
 31
0.0
  0
LINE
  5
73C8
330
73AE
100
AcDbEntity
  8
細線
100
AcDbLine
 10
20.742031931777
 20
1.831683384866
 30
0.0
 11
22.39846757534
 21
18.396039820506
 31
0.0
  0
LINE
  5
73C9
330
73AE
100
AcDbEntity
  8
細線
100
AcDbLine
 10
24.71925965455
 20
1.603960612586
 30
0.0
 11
26.39846757534
 21
18.396039820509
 31
0.0
  0
LINE
  5
73CA
330
73AE
100
AcDbEntity
  8
細線
100
AcDbLine
 10
28.758863614945
 20
2.000000216549
 30
0.0
 11
30.39846757534
 21
18.396039820509
 31
0.0
  0
LINE
  5
73CB
330
73AE
100
AcDbEntity
  8
細線
100
AcDbLine
 10
32.71925965455
 20
1.603960612586
 30
0.0
 11
34.39846757534
 21
18.396039820509
 31
0.0
  0
LINE
  5
73CC
330
73AE
100
AcDbEntity
  8
細線
100
AcDbLine
 10
36.71925965455
 20
1.603960612586
 30
0.0
 11
38.358863614944
 21
18.000000216549
 31
0.0
  0
LINE
  5
73CD
330
73AE
100
AcDbEntity
  8
細線
100
AcDbLine
 10
14.358863614945
 20
6.247223466816
 30
0.0
 11
0.000001114945
 21
6.247223466816
 31
0.0
  0
LINE
  5
73CE
330
73AE
100
AcDbEntity
  8
外形線
100
AcDbLine
 10
14.358863614945
 20
2.499885216549
 30
0.0
 11
0.000001114945
 21
2.499885216549
 31
0.0
  0
ARC
  5
73CF
330
73AE
100
AcDbEntity
  8
外形線
100
AcDbCircle
 10
22.758863614945
 20
2.000000216549
 30
0.0
 40
1.999999999999957
100
AcDbArc
 50
168.578813725075
 51
0.0
  0
ARC
  5
73D0
330
73AE
100
AcDbEntity
  8
外形線
100
AcDbCircle
 10
26.758863614945
 20
2.000000216549
 30
0.0
 40
1.999999999999957
100
AcDbArc
 50
168.578813725075
 51
0.0
  0
ARC
  5
73D1
330
73AE
100
AcDbEntity
  8
外形線
100
AcDbCircle
 10
18.758863614945
 20
2.000000216549
 30
0.0
 40
1.999999999999957
100
AcDbArc
 50
168.578813725075
 51
0.0
  0
ARC
  5
73D2
330
73AE
100
AcDbEntity
  8
外形線
100
AcDbCircle
 10
14.758863614944
 20
2.000000216549
 30
0.0
 40
1.999999999999957
100
AcDbArc
 50
258.463040967168
 51
0.0
  0
ARC
  5
73D3
330
73AE
100
AcDbEntity
  8
外形線
100
AcDbCircle
 10
30.758863614945
 20
2.000000216549
 30
0.0
 40
1.999999999999957
100
AcDbArc
 50
168.578813725075
 51
0.0
  0
ARC
  5
73D4
330
73AE
100
AcDbEntity
  8
外形線
100
AcDbCircle
 10
34.758863614944
 20
2.000000216549
 30
0.0
 40
1.999999999999957
100
AcDbArc
 50
168.578813725075
 51
0.0
  0
ARC
  5
73D5
330
73AE
100
AcDbEntity
  8
外形線
100
AcDbCircle
 10
38.758863614945
 20
2.000000216549
 30
0.0
 40
1.999999999999957
100
AcDbArc
 50
168.578813725075
 51
0.0
  0
LINE
  5
73D6
330
73AE
100
AcDbEntity
  8
外形線
100
AcDbLine
 10
72.717726114945
 20
17.500112716549
 30
0.0
 11
72.717726114945
 21
2.499885216549
 31
0.0
  0
LINE
  5
73D7
330
73AE
100
AcDbEntity
  8
外形線
100
AcDbLine
 10
58.358863614944
 20
18.000000216551
 30
0.0
 11
58.358863614944
 21
0.000000216549
 31
0.0
  0
LINE
  5
73D8
330
73AE
100
AcDbEntity
  8
細線
100
AcDbLine
 10
44.719259654547
 20
1.603960612586
 30
0.0
 11
46.358863614945
 21
18.000000216549
 31
0.0
  0
LINE
  5
73D9
330
73AE
100
AcDbEntity
  8
細線
100
AcDbLine
 10
48.719259654551
 20
1.603960612586
 30
0.0
 11
50.358863614945
 21
18.000000216551
 31
0.0
  0
LINE
  5
73DA
330
73AE
100
AcDbEntity
  8
細線
100
AcDbLine
 10
52.71925965455
 20
1.603960612586
 30
0.0
 11
54.358863614945
 21
18.000000216549
 31
0.0
  0
LINE
  5
73DB
330
73AE
100
AcDbEntity
  8
細線
100
AcDbLine
 10
56.71925965455
 20
1.603960612586
 30
0.0
 11
58.358863614944
 21
18.000000216549
 31
0.0
  0
LINE
  5
73DC
330
73AE
100
AcDbEntity
  8
外形線
100
AcDbLine
 10
75.217726114945
 20
17.500112716549
 30
0.0
 11
75.217726114945
 21
2.499885216549
 31
0.0
  0
ARC
  5
73DD
330
73AE
100
AcDbEntity
  8
細線
100
AcDbCircle
 10
77.963218873597
 20
10.000000216549
 30
0.0
 40
5.2545397413469
100
AcDbArc
 50
314.422567418831
 51
45.577432581169
  0
LINE
  5
73DE
330
73AE
100
AcDbEntity
  8
細線
100
AcDbLine
 10
58.358863614944
 20
6.247223466816
 30
0.0
 11
72.717726114945
 21
6.247223466816
 31
0.0
  0
LINE
  5
73DF
330
73AE
100
AcDbEntity
  8
外形線
100
AcDbLine
 10
81.967756114945
 20
2.499885216549
 30
0.0
 11
58.358863614944
 21
2.499885216549
 31
0.0
  0
ARC
  5
73E0
330
73AE
100
AcDbEntity
  8
外形線
100
AcDbCircle
 10
46.758863614945
 20
2.000000216549
 30
0.0
 40
1.999999999999957
100
AcDbArc
 50
168.578813725075
 51
0.0
  0
ARC
  5
73E1
330
73AE
100
AcDbEntity
  8
外形線
100
AcDbCircle
 10
54.758863614944
 20
2.000000216549
 30
0.0
 40
1.999999999999957
100
AcDbArc
 50
168.578813725075
 51
0.0
  0
ARC
  5
73E2
330
73AE
100
AcDbEntity
  8
外形線
100
AcDbCircle
 10
50.758863614945
 20
2.000000216549
 30
0.0
 40
1.999999999999957
100
AcDbArc
 50
168.578813725075
 51
0.0
  0
ARC
  5
73E3
330
73AE
100
AcDbEntity
  8
外形線
100
AcDbCircle
 10
58.758863614945
 20
2.000000216549
 30
0.0
 40
1.999999999999957
100
AcDbArc
 50
168.578813725075
 51
258.463040967168
  0
LINE
  5
73E4
330
73AE
100
AcDbEntity
  8
細線
100
AcDbLine
 10
75.217726114945
 20
6.247223466816
 30
0.0
 11
81.641106114945
 21
6.247223466816
 31
0.0
  0
ARC
  5
73E5
330
73AE
100
AcDbEntity
  8
細線
100
AcDbCircle
 10
80.431268453793
 20
3.737047151901
 30
0.0
 40
2.7865197466204
100
AcDbArc
 50
0.264025677746
 51
64.267180264164
  0
LINE
  5
73E6
330
73AE
100
AcDbEntity
  8
外形線
100
AcDbLine
 10
81.967758614945
 20
2.494446717084
 30
0.0
 11
83.217758614945
 21
3.749887716549
 31
0.0
  0
ENDBLK
  5
73E7
330
73AE
100
AcDbEntity
  8
0
 48
10.0
100
AcDbBlockEnd
  0
BLOCK
  5
74A5
330
7499
100
AcDbEntity
  8
0
 48
10.0
100
AcDbBlockBegin
  2
*D28
 70
     1
 10
0.0
 20
0.0
 30
0.0
  3
*D28
  1
*D28
  0
LINE
  5
756D
330
7499
100
AcDbEntity
  8
寸法線
 62
     0
 48
10.0
100
AcDbLine
 10
299.629713391687
 20
607.674592995649
 30
0.0
 11
299.004713391687
 21
607.674592995649
 31
0.0
  0
LINE
  5
756E
330
7499
100
AcDbEntity
  8
寸法線
 62
     0
 48
10.0
100
AcDbLine
 10
299.629713391687
 20
615.674625495649
 30
0.0
 11
299.004713391687
 21
615.674625495649
 31
0.0
  0
LINE
  5
756F
330
7499
100
AcDbEntity
  8
寸法線
 62
     0
 48
10.0
100
AcDbLine
 10
300.254713391687
 20
621.674625495649
 30
0.0
 11
300.254713391687
 21
643.757958828982
 31
0.0
  0
LINE
  5
7570
330
7499
100
AcDbEntity
  8
寸法線
 62
     0
 48
10.0
100
AcDbLine
 10
300.254713391687
 20
607.674592995649
 30
0.0
 11
300.254713391687
 21
615.674625495649
 31
0.0
  0
LINE
  5
7571
330
7499
100
AcDbEntity
  8
寸法線
 62
     0
 48
10.0
100
AcDbLine
 10
300.254713391687
 20
601.674592995649
 30
0.0
 11
300.254713391687
 21
595.674592995649
 31
0.0
  0
INSERT
  5
7572
330
7499
100
AcDbEntity
  8
寸法線
 62
     0
100
AcDbBlockReference
  2
_OPEN30
 10
300.254713391687
 20
607.674592995649
 30
0.0
 41
6.0
 42
6.0
 43
6.0
 50
90.0
  0
INSERT
  5
7573
330
7499
100
AcDbEntity
  8
寸法線
 62
     0
100
AcDbBlockReference
  2
_OPEN30
 10
300.254713391687
 20
615.674625495649
 30
0.0
 41
6.0
 42
6.0
 43
6.0
 50
270.0
  0
MTEXT
  5
7574
330
7499
100
AcDbEntity
  8
寸法線
 62
     0
 48
10.0
100
AcDbMText
 10
294.61929672502
 20
635.716292162316
 30
0.0
 40
10.0
 41
0.0
 71
     5
 72
     1
  1
\A1;φ8
 11
0.0
 21
1.0
 31
0.0
  0
POINT
  5
7575
330
7499
100
AcDbEntity
  8
DEFPOINTS
 62
     0
100
AcDbPoint
 10
300.254713391687
 20
607.674592995649
 30
0.0
  0
POINT
  5
7576
330
7499
100
AcDbEntity
  8
DEFPOINTS
 62
     0
100
AcDbPoint
 10
300.254713391687
 20
615.674625495649
 30
0.0
  0
POINT
  5
7577
330
7499
100
AcDbEntity
  8
DEFPOINTS
 62
     0
100
AcDbPoint
 10
300.254713391687
 20
615.674625495649
 30
0.0
  0
ENDBLK
  5
74A6
330
7499
100
AcDbEntity
  8
0
 48
10.0
100
AcDbBlockEnd
  0
BLOCK
  5
74C9
330
74BF
100
AcDbEntity
  8
0
 48
10.0
100
AcDbBlockBegin
  2
*D29
 70
     1
 10
0.0
 20
0.0
 30
0.0
  3
*D29
  1
*D29
  0
LINE
  5
768B
330
74BF
100
AcDbEntity
  8
寸法線
 62
     0
 48
10.0
100
AcDbLine
 10
259.775077374442
 20
605.152127995649
 30
0.0
 11
259.775077374442
 21
547.121997709291
 31
0.0
  0
LINE
  5
768C
330
74BF
100
AcDbEntity
  8
寸法線
 62
     0
 48
10.0
100
AcDbLine
 10
311.385925516227
 20
604.049526745649
 30
0.0
 11
311.385925516227
 21
547.121997709291
 31
0.0
  0
LINE
  5
768D
330
74BF
100
AcDbEntity
  8
寸法線
 62
     0
 48
10.0
100
AcDbLine
 10
265.775077374442
 20
548.371997709291
 30
0.0
 11
305.385925516227
 21
548.371997709291
 31
0.0
  0
INSERT
  5
768E
330
74BF
100
AcDbEntity
  8
寸法線
 62
     0
100
AcDbBlockReference
  2
_OPEN30
 10
259.775077374442
 20
548.371997709291
 30
0.0
 41
6.0
 42
6.0
 43
6.0
 50
180.0
  0
INSERT
  5
768F
330
74BF
100
AcDbEntity
  8
寸法線
 62
     0
100
AcDbBlockReference
  2
_OPEN30
 10
311.385925516227
 20
548.371997709291
 30
0.0
 41
6.0
 42
6.0
 43
6.0
  0
POINT
  5
7690
330
74BF
100
AcDbEntity
  8
DEFPOINTS
 62
     0
100
AcDbPoint
 10
259.775077374442
 20
605.777127995649
 30
0.0
  0
POINT
  5
7691
330
74BF
100
AcDbEntity
  8
DEFPOINTS
 62
     0
100
AcDbPoint
 10
311.385925516227
 20
604.674526745649
 30
0.0
  0
POINT
  5
7692
330
74BF
100
AcDbEntity
  8
DEFPOINTS
 62
     0
100
AcDbPoint
 10
311.385925516227
 20
548.371997709291
 30
0.0
  0
ENDBLK
  5
74CA
330
74BF
100
AcDbEntity
  8
0
 48
10.0
100
AcDbBlockEnd
  0
BLOCK
  5
74D6
330
74CB
100
AcDbEntity
  8
0
 48
10.0
100
AcDbBlockBegin
  2
*D30
 70
     1
 10
0.0
 20
0.0
 30
0.0
  3
*D30
  1
*D30
  0
LINE
  5
755A
330
74CB
100
AcDbEntity
  8
寸法線
 62
     0
 48
10.0
100
AcDbLine
 10
348.137584246155
 20
604.774623046427
 30
0.0
 11
347.512584246155
 21
604.774623046427
 31
0.0
  0
LINE
  5
755B
330
74CB
100
AcDbEntity
  8
寸法線
 62
     0
 48
10.0
100
AcDbLine
 10
348.137584246155
 20
618.57459595265
 30
0.0
 11
347.512584246155
 21
618.57459595265
 31
0.0
  0
LINE
  5
755C
330
74CB
100
AcDbEntity
  8
寸法線
 62
     0
 48
10.0
100
AcDbLine
 10
348.762584246155
 20
618.57459595265
 30
0.0
 11
348.762584246155
 21
655.657929285984
 31
0.0
  0
LINE
  5
755D
330
74CB
100
AcDbEntity
  8
寸法線
 62
     0
 48
10.0
100
AcDbLine
 10
348.762584246155
 20
610.774623046427
 30
0.0
 11
348.762584246155
 21
612.57459595265
 31
0.0
  0
INSERT
  5
755E
330
74CB
100
AcDbEntity
  8
寸法線
 62
     0
100
AcDbBlockReference
  2
_OPEN30
 10
348.762584246155
 20
604.774623046427
 30
0.0
 41
6.0
 42
6.0
 43
6.0
 50
270.0
  0
INSERT
  5
755F
330
74CB
100
AcDbEntity
  8
寸法線
 62
     0
100
AcDbBlockReference
  2
_OPEN30
 10
348.762584246155
 20
618.57459595265
 30
0.0
 41
6.0
 42
6.0
 43
6.0
 50
90.0
  0
MTEXT
  5
7560
330
74CB
100
AcDbEntity
  8
寸法線
 62
     0
 48
10.0
100
AcDbMText
 10
343.121959246155
 20
640.116262619317
 30
0.0
 40
10.0
 41
0.0
 71
     5
 72
     1
  1
\A1;φ13.8
 11
0.0
 21
1.0
 31
0.0
  0
POINT
  5
7561
330
74CB
100
AcDbEntity
  8
DEFPOINTS
 62
     0
100
AcDbPoint
 10
348.762584246155
 20
604.774623046427
 30
0.0
  0
POINT
  5
7562
330
74CB
100
AcDbEntity
  8
DEFPOINTS
 62
     0
100
AcDbPoint
 10
348.762584246155
 20
618.57459595265
 30
0.0
  0
POINT
  5
7563
330
74CB
100
AcDbEntity
  8
DEFPOINTS
 62
     0
100
AcDbPoint
 10
348.762584246155
 20
618.57459595265
 30
0.0
  0
ENDBLK
  5
74D7
330
74CB
100
AcDbEntity
  8
0
 48
10.0
100
AcDbBlockEnd
  0
BLOCK
  5
7515
330
750B
100
AcDbEntity
  8
0
 48
10.0
100
AcDbBlockBegin
  2
*D31
 70
     1
 10
0.0
 20
0.0
 30
0.0
  3
*D31
  1
*D31
  0
LINE
  5
7551
330
750B
100
AcDbEntity
  8
寸法線
 62
     0
 48
10.0
100
AcDbLine
 10
156.275077374443
 20
571.042077210356
 30
0.0
 11
156.275077374443
 21
547.121997709291
 31
0.0
  0
LINE
  5
7552
330
750B
100
AcDbEntity
  8
寸法線
 62
     0
 48
10.0
100
AcDbLine
 10
236.275077374443
 20
599.042077210356
 30
0.0
 11
236.275077374443
 21
547.121997709291
 31
0.0
  0
LINE
  5
7553
330
750B
100
AcDbEntity
  8
寸法線
 62
     0
 48
10.0
100
AcDbLine
 10
162.275077374443
 20
548.371997709291
 30
0.0
 11
230.275077374443
 21
548.371997709291
 31
0.0
  0
INSERT
  5
7554
330
750B
100
AcDbEntity
  8
寸法線
 62
     0
100
AcDbBlockReference
  2
_OPEN30
 10
156.275077374443
 20
548.371997709291
 30
0.0
 41
6.0
 42
6.0
 43
6.0
 50
180.0
  0
INSERT
  5
7555
330
750B
100
AcDbEntity
  8
寸法線
 62
     0
100
AcDbBlockReference
  2
_OPEN30
 10
236.275077374443
 20
548.371997709291
 30
0.0
 41
6.0
 42
6.0
 43
6.0
  0
MTEXT
  5
7556
330
750B
100
AcDbEntity
  8
寸法線
 62
     0
 48
10.0
100
AcDbMText
 10
196.275077374443
 20
554.007414375958
 30
0.0
 40
10.0
 41
0.0
 71
     5
 72
     1
  1
\A1;80
  0
POINT
  5
7557
330
750B
100
AcDbEntity
  8
DEFPOINTS
 62
     0
100
AcDbPoint
 10
156.275077374443
 20
571.667077210356
 30
0.0
  0
POINT
  5
7558
330
750B
100
AcDbEntity
  8
DEFPOINTS
 62
     0
100
AcDbPoint
 10
236.275077374443
 20
599.667077210356
 30
0.0
  0
POINT
  5
7559
330
750B
100
AcDbEntity
  8
DEFPOINTS
 62
     0
100
AcDbPoint
 10
236.275077374443
 20
548.371997709291
 30
0.0
  0
ENDBLK
  5
7516
330
750B
100
AcDbEntity
  8
0
 48
10.0
100
AcDbBlockEnd
  0
BLOCK
  5
7521
330
7517
100
AcDbEntity
  8
0
 48
10.0
100
AcDbBlockBegin
  2
*D32
 70
     1
 10
0.0
 20
0.0
 30
0.0
  3
*D32
  1
*D32
  0
LINE
  5
7548
330
7517
100
AcDbEntity
  8
寸法線
 62
     0
 48
10.0
100
AcDbLine
 10
155.650077374443
 20
651.667077210356
 30
0.0
 11
137.042464249741
 21
651.667077210356
 31
0.0
  0
LINE
  5
7549
330
7517
100
AcDbEntity
  8
寸法線
 62
     0
 48
10.0
100
AcDbLine
 10
155.650077374443
 20
571.667077210356
 30
0.0
 11
137.042464249741
 21
571.667077210356
 31
0.0
  0
LINE
  5
754A
330
7517
100
AcDbEntity
  8
寸法線
 62
     0
 48
10.0
100
AcDbLine
 10
138.292464249741
 20
645.667077210356
 30
0.0
 11
138.292464249741
 21
577.667077210356
 31
0.0
  0
INSERT
  5
754B
330
7517
100
AcDbEntity
  8
寸法線
 62
     0
100
AcDbBlockReference
  2
_OPEN30
 10
138.292464249741
 20
651.667077210356
 30
0.0
 41
6.0
 42
6.0
 43
6.0
 50
90.0
  0
INSERT
  5
754C
330
7517
100
AcDbEntity
  8
寸法線
 62
     0
100
AcDbBlockReference
  2
_OPEN30
 10
138.292464249741
 20
571.667077210356
 30
0.0
 41
6.0
 42
6.0
 43
6.0
 50
270.0
  0
MTEXT
  5
754D
330
7517
100
AcDbEntity
  8
寸法線
 62
     0
 48
10.0
100
AcDbMText
 10
132.657047583074
 20
611.667077210356
 30
0.0
 40
10.0
 41
0.0
 71
     5
 72
     1
  1
\A1;80
 11
0.0
 21
1.0
 31
0.0
  0
POINT
  5
754E
330
7517
100
AcDbEntity
  8
DEFPOINTS
 62
     0
100
AcDbPoint
 10
156.275077374443
 20
651.667077210356
 30
0.0
  0
POINT
  5
754F
330
7517
100
AcDbEntity
  8
DEFPOINTS
 62
     0
100
AcDbPoint
 10
156.275077374443
 20
571.667077210356
 30
0.0
  0
POINT
  5
7550
330
7517
100
AcDbEntity
  8
DEFPOINTS
 62
     0
100
AcDbPoint
 10
138.292464249741
 20
571.667077210356
 30
0.0
  0
ENDBLK
  5
7522
330
7517
100
AcDbEntity
  8
0
 48
10.0
100
AcDbBlockEnd
  0
BLOCK
  5
7985
330
797B
100
AcDbEntity
  8
0
 48
10.0
100
AcDbBlockBegin
  2
*D45
 70
     1
 10
0.0
 20
0.0
 30
0.0
  3
*D45
  1
*D45
  0
LINE
  5
7A8B
330
797B
100
AcDbEntity
  8
寸法線_文字
 62
     0
 48
10.0
100
AcDbLine
 10
862.404331064591
 20
684.674534245649
 30
0.0
 11
911.029331064592
 21
684.674534245649
 31
0.0
  0
LINE
  5
7A8C
330
797B
100
AcDbEntity
  8
寸法線_文字
 62
     0
 48
10.0
100
AcDbLine
 10
832.004331064591
 20
461.064177750876
 30
0.0
 11
911.029331064592
 21
461.064177750876
 31
0.0
  0
LINE
  5
7A8D
330
797B
100
AcDbEntity
  8
寸法線_文字
 62
     0
 48
10.0
100
AcDbLine
 10
909.779331064592
 20
678.674534245649
 30
0.0
 11
909.779331064592
 21
467.064177750876
 31
0.0
  0
INSERT
  5
7A8E
330
797B
100
AcDbEntity
  8
寸法線_文字
 62
     0
100
AcDbBlockReference
  2
_OPEN30
 10
909.779331064592
 20
684.674534245649
 30
0.0
 41
6.0
 42
6.0
 43
6.0
 50
90.0
  0
INSERT
  5
7A8F
330
797B
100
AcDbEntity
  8
寸法線_文字
 62
     0
100
AcDbBlockReference
  2
_OPEN30
 10
909.779331064592
 20
461.064177750876
 30
0.0
 41
6.0
 42
6.0
 43
6.0
 50
270.0
  0
MTEXT
  5
7A90
330
797B
100
AcDbEntity
  8
寸法線_文字
 62
     0
 48
10.0
100
AcDbMText
 10
904.143914397925
 20
572.869355998263
 30
0.0
 40
10.0
 41
0.0
 71
     5
 72
     1
  1
\A1;（224）
 11
0.0
 21
1.0
 31
0.0
  0
POINT
  5
7A91
330
797B
100
AcDbEntity
  8
DEFPOINTS
 62
     0
100
AcDbPoint
 10
861.779331064591
 20
684.674534245649
 30
0.0
  0
POINT
  5
7A92
330
797B
100
AcDbEntity
  8
DEFPOINTS
 62
     0
100
AcDbPoint
 10
831.379331064591
 20
461.064177750876
 30
0.0
  0
POINT
  5
7A93
330
797B
100
AcDbEntity
  8
DEFPOINTS
 62
     0
100
AcDbPoint
 10
909.779331064592
 20
461.064177750876
 30
0.0
  0
ENDBLK
  5
7986
330
797B
100
AcDbEntity
  8
0
 48
10.0
100
AcDbBlockEnd
  0
BLOCK
  5
7991
330
7987
100
AcDbEntity
  8
0
 48
10.0
100
AcDbBlockBegin
  2
*D46
 70
     1
 10
0.0
 20
0.0
 30
0.0
  3
*D46
  1
*D46
  0
LINE
  5
7A82
330
7987
100
AcDbEntity
  8
寸法線_文字
 62
     0
 48
10.0
100
AcDbLine
 10
846.779331064591
 20
538.54953424565
 30
0.0
 11
846.779331064591
 21
434.814177750876
 31
0.0
  0
LINE
  5
7A83
330
7987
100
AcDbEntity
  8
寸法線_文字
 62
     0
 48
10.0
100
AcDbLine
 10
862.779331064591
 20
539.049534245649
 30
0.0
 11
862.779331064591
 21
434.814177750876
 31
0.0
  0
LINE
  5
7A84
330
7987
100
AcDbEntity
  8
寸法線_文字
 62
     0
 48
10.0
100
AcDbLine
 10
852.779331064591
 20
436.064177750876
 30
0.0
 11
856.779331064591
 21
436.064177750876
 31
0.0
  0
INSERT
  5
7A85
330
7987
100
AcDbEntity
  8
寸法線_文字
 62
     0
100
AcDbBlockReference
  2
_OPEN30
 10
846.779331064591
 20
436.064177750876
 30
0.0
 41
6.0
 42
6.0
 43
6.0
 50
180.0
  0
INSERT
  5
7A86
330
7987
100
AcDbEntity
  8
寸法線_文字
 62
     0
100
AcDbBlockReference
  2
_OPEN30
 10
862.779331064591
 20
436.064177750876
 30
0.0
 41
6.0
 42
6.0
 43
6.0
  0
MTEXT
  5
7A87
330
7987
100
AcDbEntity
  8
寸法線_文字
 62
     0
 48
10.0
100
AcDbMText
 10
854.779331064591
 20
441.689177750876
 30
0.0
 40
10.0
 41
0.0
 71
     5
 72
     1
  1
\A1;16
  0
POINT
  5
7A88
330
7987
100
AcDbEntity
  8
DEFPOINTS
 62
     0
100
AcDbPoint
 10
846.779331064591
 20
539.17453424565
 30
0.0
  0
POINT
  5
7A89
330
7987
100
AcDbEntity
  8
DEFPOINTS
 62
     0
100
AcDbPoint
 10
862.779331064591
 20
539.674534245649
 30
0.0
  0
POINT
  5
7A8A
330
7987
100
AcDbEntity
  8
DEFPOINTS
 62
     0
100
AcDbPoint
 10
862.779331064591
 20
436.064177750876
 30
0.0
  0
ENDBLK
  5
7992
330
7987
100
AcDbEntity
  8
0
 48
10.0
100
AcDbBlockEnd
  0
BLOCK
  5
799D
330
7993
100
AcDbEntity
  8
0
 48
10.0
100
AcDbBlockBegin
  2
*D47
 70
     1
 10
0.0
 20
0.0
 30
0.0
  3
*D47
  1
*D47
  0
LINE
  5
7A79
330
7993
100
AcDbEntity
  8
寸法線
 62
     0
 48
10.0
100
AcDbLine
 10
790.779331064591
 20
538.549534245649
 30
0.0
 11
790.779331064591
 21
434.814177750876
 31
0.0
  0
LINE
  5
7A7A
330
7993
100
AcDbEntity
  8
寸法線
 62
     0
 48
10.0
100
AcDbLine
 10
672.808211104737
 20
534.547353344101
 30
0.0
 11
672.808211104737
 21
434.814177750876
 31
0.0
  0
LINE
  5
7A7B
330
7993
100
AcDbEntity
  8
寸法線
 62
     0
 48
10.0
100
AcDbLine
 10
784.779331064591
 20
436.064177750876
 30
0.0
 11
678.808211104737
 21
436.064177750876
 31
0.0
  0
INSERT
  5
7A7C
330
7993
100
AcDbEntity
  8
寸法線
 62
     0
100
AcDbBlockReference
  2
_OPEN30
 10
790.779331064591
 20
436.064177750876
 30
0.0
 41
6.0
 42
6.0
 43
6.0
  0
INSERT
  5
7A7D
330
7993
100
AcDbEntity
  8
寸法線
 62
     0
100
AcDbBlockReference
  2
_OPEN30
 10
672.808211104737
 20
436.064177750876
 30
0.0
 41
6.0
 42
6.0
 43
6.0
 50
180.0
  0
MTEXT
  5
7A7E
330
7993
100
AcDbEntity
  8
寸法線
 62
     0
 48
10.0
100
AcDbMText
 10
731.793771084664
 20
441.699594417543
 30
0.0
 40
10.0
 41
0.0
 71
     5
 72
     1
  1
\A1;118
  0
POINT
  5
7A7F
330
7993
100
AcDbEntity
  8
DEFPOINTS
 62
     0
100
AcDbPoint
 10
790.779331064591
 20
539.174534245649
 30
0.0
  0
POINT
  5
7A80
330
7993
100
AcDbEntity
  8
DEFPOINTS
 62
     0
100
AcDbPoint
 10
672.808211104737
 20
535.172353344101
 30
0.0
  0
POINT
  5
7A81
330
7993
100
AcDbEntity
  8
DEFPOINTS
 62
     0
100
AcDbPoint
 10
672.808211104737
 20
436.064177750876
 30
0.0
  0
ENDBLK
  5
799E
330
7993
100
AcDbEntity
  8
0
 48
10.0
100
AcDbBlockEnd
  0
BLOCK
  5
79A9
330
799F
100
AcDbEntity
  8
0
 48
10.0
100
AcDbBlockBegin
  2
*D48
 70
     1
 10
0.0
 20
0.0
 30
0.0
  3
*D48
  1
*D48
  0
LINE
  5
7A70
330
799F
100
AcDbEntity
  8
寸法線
 62
     0
 48
10.0
100
AcDbLine
 10
862.404331064591
 20
684.674534245649
 30
0.0
 11
889.029331064591
 21
684.674534245649
 31
0.0
  0
LINE
  5
7A71
330
799F
100
AcDbEntity
  8
寸法線
 62
     0
 48
10.0
100
AcDbLine
 10
862.404331064591
 20
538.674534245649
 30
0.0
 11
889.029331064591
 21
538.674534245649
 31
0.0
  0
LINE
  5
7A72
330
799F
100
AcDbEntity
  8
寸法線
 62
     0
 48
10.0
100
AcDbLine
 10
887.779331064591
 20
678.674534245649
 30
0.0
 11
887.779331064591
 21
544.674534245649
 31
0.0
  0
INSERT
  5
7A73
330
799F
100
AcDbEntity
  8
寸法線
 62
     0
100
AcDbBlockReference
  2
_OPEN30
 10
887.779331064591
 20
684.674534245649
 30
0.0
 41
6.0
 42
6.0
 43
6.0
 50
90.0
  0
INSERT
  5
7A74
330
799F
100
AcDbEntity
  8
寸法線
 62
     0
100
AcDbBlockReference
  2
_OPEN30
 10
887.779331064591
 20
538.674534245649
 30
0.0
 41
6.0
 42
6.0
 43
6.0
 50
270.0
  0
MTEXT
  5
7A75
330
799F
100
AcDbEntity
  8
寸法線
 62
     0
 48
10.0
100
AcDbMText
 10
882.154331064591
 20
609.583111918124
 30
0.0
 40
10.0
 41
0.0
 71
     5
 72
     1
  1
\A1;%%c146
 11
0.0
 21
1.0
 31
0.0
  0
POINT
  5
7A76
330
799F
100
AcDbEntity
  8
DEFPOINTS
 62
     0
100
AcDbPoint
 10
861.779331064591
 20
684.674534245649
 30
0.0
  0
POINT
  5
7A77
330
799F
100
AcDbEntity
  8
DEFPOINTS
 62
     0
100
AcDbPoint
 10
861.779331064591
 20
538.674534245649
 30
0.0
  0
POINT
  5
7A78
330
799F
100
AcDbEntity
  8
DEFPOINTS
 62
     0
100
AcDbPoint
 10
887.779331064591
 20
538.674534245649
 30
0.0
  0
ENDBLK
  5
79AA
330
799F
100
AcDbEntity
  8
0
 48
10.0
100
AcDbBlockEnd
  0
BLOCK
  5
79B6
330
79AB
100
AcDbEntity
  8
0
 48
10.0
100
AcDbBlockBegin
  2
*D49
 70
     1
 10
0.0
 20
0.0
 30
0.0
  3
*D49
  1
*D49
  0
LINE
  5
7AD0
330
79AB
100
AcDbEntity
  8
寸法線
 62
     0
 48
10.0
100
AcDbLine
 10
517.509025915477
 20
628.674534245649
 30
0.0
 11
518.268000510477
 21
628.674534245649
 31
0.0
  0
LINE
  5
7AD1
330
79AB
100
AcDbEntity
  8
寸法線
 62
     0
 48
10.0
100
AcDbLine
 10
517.643000510477
 20
594.674534245649
 30
0.0
 11
518.268000510477
 21
594.674534245649
 31
0.0
  0
LINE
  5
7AD2
330
79AB
100
AcDbEntity
  8
寸法線
 62
     0
 48
10.0
100
AcDbLine
 10
517.018000510477
 20
628.674534245649
 30
0.0
 11
517.018000510477
 21
660.252491234897
 31
0.0
  0
LINE
  5
7AD3
330
79AB
100
AcDbEntity
  8
寸法線
 62
     0
 48
10.0
100
AcDbLine
 10
517.018000510477
 20
622.674534245649
 30
0.0
 11
517.018000510477
 21
600.674534245649
 31
0.0
  0
INSERT
  5
7AD4
330
79AB
100
AcDbEntity
  8
寸法線
 62
     0
100
AcDbBlockReference
  2
_OPEN30
 10
517.018000510477
 20
628.674534245649
 30
0.0
 41
6.0
 42
6.0
 43
6.0
 50
90.0
  0
INSERT
  5
7AD5
330
79AB
100
AcDbEntity
  8
寸法線
 62
     0
100
AcDbBlockReference
  2
_OPEN30
 10
517.018000510477
 20
594.674534245649
 30
0.0
 41
6.0
 42
6.0
 43
6.0
 50
270.0
  0
MTEXT
  5
7AD6
330
79AB
100
AcDbEntity
  8
寸法線
 62
     0
 48
10.0
100
AcDbMText
 10
511.387792177143
 20
648.21082456823
 30
0.0
 40
10.0
 41
0.0
 71
     5
 72
     1
  1
\A1;φ34
 11
0.0
 21
1.0
 31
0.0
  0
POINT
  5
7AD7
330
79AB
100
AcDbEntity
  8
DEFPOINTS
 62
     0
100
AcDbPoint
 10
516.884025915477
 20
628.674534245649
 30
0.0
  0
POINT
  5
7AD8
330
79AB
100
AcDbEntity
  8
DEFPOINTS
 62
     0
100
AcDbPoint
 10
517.018000510477
 20
594.674534245649
 30
0.0
  0
POINT
  5
7AD9
330
79AB
100
AcDbEntity
  8
DEFPOINTS
 62
     0
100
AcDbPoint
 10
517.018000510477
 20
594.674534245649
 30
0.0
  0
ENDBLK
  5
79B7
330
79AB
100
AcDbEntity
  8
0
 48
10.0
100
AcDbBlockEnd
  0
BLOCK
  5
79C4
330
79B8
100
AcDbEntity
  8
0
 48
10.0
100
AcDbBlockBegin
  2
*D50
 70
     1
 10
0.0
 20
0.0
 30
0.0
  3
*D50
  1
*D50
  0
LINE
  5
7AC5
330
79B8
100
AcDbEntity
  8
寸法線
 62
     0
 48
10.0
100
AcDbLine
 10
550.808211104737
 20
533.549534245649
 30
0.0
 11
550.808211104737
 21
434.814177750876
 31
0.0
  0
LINE
  5
7AC6
330
79B8
100
AcDbEntity
  8
寸法線
 62
     0
 48
10.0
100
AcDbLine
 10
538.808211104737
 20
533.549534245649
 30
0.0
 11
538.808211104737
 21
434.814177750876
 31
0.0
  0
LINE
  5
7AC7
330
79B8
100
AcDbEntity
  8
寸法線
 62
     0
 48
10.0
100
AcDbLine
 10
550.808211104737
 20
436.064177750876
 30
0.0
 11
538.808211104737
 21
436.064177750876
 31
0.0
  0
LINE
  5
7AC8
330
79B8
100
AcDbEntity
  8
寸法線
 62
     0
 48
10.0
100
AcDbLine
 10
556.808211104737
 20
436.064177750876
 30
0.0
 11
562.808211104737
 21
436.064177750876
 31
0.0
  0
LINE
  5
7AC9
330
79B8
100
AcDbEntity
  8
寸法線
 62
     0
 48
10.0
100
AcDbLine
 10
532.808211104737
 20
436.064177750876
 30
0.0
 11
526.808211104737
 21
436.064177750876
 31
0.0
  0
INSERT
  5
7ACA
330
79B8
100
AcDbEntity
  8
寸法線
 62
     0
100
AcDbBlockReference
  2
_OPEN30
 10
550.808211104737
 20
436.064177750876
 30
0.0
 41
6.0
 42
6.0
 43
6.0
 50
180.0
  0
INSERT
  5
7ACB
330
79B8
100
AcDbEntity
  8
寸法線
 62
     0
100
AcDbBlockReference
  2
_OPEN30
 10
538.808211104737
 20
436.064177750876
 30
0.0
 41
6.0
 42
6.0
 43
6.0
  0
MTEXT
  5
7ACC
330
79B8
100
AcDbEntity
  8
寸法線
 62
     0
 48
10.0
100
AcDbMText
 10
544.808211104737
 20
441.69438608421
 30
0.0
 40
10.0
 41
0.0
 71
     5
 72
     1
  1
\A1;12
  0
POINT
  5
7ACD
330
79B8
100
AcDbEntity
  8
DEFPOINTS
 62
     0
100
AcDbPoint
 10
550.808211104737
 20
534.174534245649
 30
0.0
  0
POINT
  5
7ACE
330
79B8
100
AcDbEntity
  8
DEFPOINTS
 62
     0
100
AcDbPoint
 10
538.808211104737
 20
534.174534245649
 30
0.0
  0
POINT
  5
7ACF
330
79B8
100
AcDbEntity
  8
DEFPOINTS
 62
     0
100
AcDbPoint
 10
538.808211104737
 20
436.064177750876
 30
0.0
  0
ENDBLK
  5
79C5
330
79B8
100
AcDbEntity
  8
0
 48
10.0
100
AcDbBlockEnd
  0
BLOCK
  5
79D0
330
79C6
100
AcDbEntity
  8
0
 48
10.0
100
AcDbBlockBegin
  2
*D51
 70
     1
 10
0.0
 20
0.0
 30
0.0
  3
*D51
  1
*D51
  0
LINE
  5
7ABC
330
79C6
100
AcDbEntity
  8
寸法線
 62
     0
 48
10.0
100
AcDbLine
 10
660.808211104737
 20
533.54953424565
 30
0.0
 11
660.808211104737
 21
434.814177750876
 31
0.0
  0
LINE
  5
7ABD
330
79C6
100
AcDbEntity
  8
寸法線
 62
     0
 48
10.0
100
AcDbLine
 10
550.808211104737
 20
533.549534245649
 30
0.0
 11
550.808211104737
 21
434.814177750876
 31
0.0
  0
LINE
  5
7ABE
330
79C6
100
AcDbEntity
  8
寸法線
 62
     0
 48
10.0
100
AcDbLine
 10
654.808211104737
 20
436.064177750876
 30
0.0
 11
556.808211104737
 21
436.064177750876
 31
0.0
  0
INSERT
  5
7ABF
330
79C6
100
AcDbEntity
  8
寸法線
 62
     0
100
AcDbBlockReference
  2
_OPEN30
 10
660.808211104737
 20
436.064177750876
 30
0.0
 41
6.0
 42
6.0
 43
6.0
  0
INSERT
  5
7AC0
330
79C6
100
AcDbEntity
  8
寸法線
 62
     0
100
AcDbBlockReference
  2
_OPEN30
 10
550.808211104737
 20
436.064177750876
 30
0.0
 41
6.0
 42
6.0
 43
6.0
 50
180.0
  0
MTEXT
  5
7AC1
330
79C6
100
AcDbEntity
  8
寸法線
 62
     0
 48
10.0
100
AcDbMText
 10
605.808211104737
 20
441.689177750876
 30
0.0
 40
10.0
 41
0.0
 71
     5
 72
     1
  1
\A1;110
  0
POINT
  5
7AC2
330
79C6
100
AcDbEntity
  8
DEFPOINTS
 62
     0
100
AcDbPoint
 10
660.808211104737
 20
534.17453424565
 30
0.0
  0
POINT
  5
7AC3
330
79C6
100
AcDbEntity
  8
DEFPOINTS
 62
     0
100
AcDbPoint
 10
550.808211104737
 20
534.174534245649
 30
0.0
  0
POINT
  5
7AC4
330
79C6
100
AcDbEntity
  8
DEFPOINTS
 62
     0
100
AcDbPoint
 10
550.808211104737
 20
436.064177750876
 30
0.0
  0
ENDBLK
  5
79D1
330
79C6
100
AcDbEntity
  8
0
 48
10.0
100
AcDbBlockEnd
  0
BLOCK
  5
79DC
330
79D2
100
AcDbEntity
  8
0
 48
10.0
100
AcDbBlockBegin
  2
*D52
 70
     1
 10
0.0
 20
0.0
 30
0.0
  3
*D52
  1
*D52
  0
LINE
  5
7AB3
330
79D2
100
AcDbEntity
  8
寸法線
 62
     0
 48
10.0
100
AcDbLine
 10
862.779331064591
 20
539.049534245649
 30
0.0
 11
862.779331064591
 21
412.814177750876
 31
0.0
  0
LINE
  5
7AB4
330
79D2
100
AcDbEntity
  8
寸法線
 62
     0
 48
10.0
100
AcDbLine
 10
538.808211104737
 20
533.549534245649
 30
0.0
 11
538.808211104737
 21
412.814177750876
 31
0.0
  0
LINE
  5
7AB5
330
79D2
100
AcDbEntity
  8
寸法線
 62
     0
 48
10.0
100
AcDbLine
 10
856.779331064591
 20
414.064177750876
 30
0.0
 11
544.808211104737
 21
414.064177750876
 31
0.0
  0
INSERT
  5
7AB6
330
79D2
100
AcDbEntity
  8
寸法線
 62
     0
100
AcDbBlockReference
  2
_OPEN30
 10
862.779331064591
 20
414.064177750876
 30
0.0
 41
6.0
 42
6.0
 43
6.0
  0
INSERT
  5
7AB7
330
79D2
100
AcDbEntity
  8
寸法線
 62
     0
100
AcDbBlockReference
  2
_OPEN30
 10
538.808211104737
 20
414.064177750876
 30
0.0
 41
6.0
 42
6.0
 43
6.0
 50
180.0
  0
MTEXT
  5
7AB8
330
79D2
100
AcDbEntity
  8
寸法線
 62
     0
 48
10.0
100
AcDbMText
 10
700.793771084664
 20
419.699594417543
 30
0.0
 40
10.0
 41
0.0
 71
     5
 72
     1
  1
\A1;（324）
  0
POINT
  5
7AB9
330
79D2
100
AcDbEntity
  8
DEFPOINTS
 62
     0
100
AcDbPoint
 10
862.779331064591
 20
539.674534245649
 30
0.0
  0
POINT
  5
7ABA
330
79D2
100
AcDbEntity
  8
DEFPOINTS
 62
     0
100
AcDbPoint
 10
538.808211104737
 20
534.174534245649
 30
0.0
  0
POINT
  5
7ABB
330
79D2
100
AcDbEntity
  8
DEFPOINTS
 62
     0
100
AcDbPoint
 10
538.808211104737
 20
414.064177750876
 30
0.0
  0
ENDBLK
  5
79DD
330
79D2
100
AcDbEntity
  8
0
 48
10.0
100
AcDbBlockEnd
  0
BLOCK
  5
79EA
330
79DE
100
AcDbEntity
  8
0
 48
10.0
100
AcDbBlockBegin
  2
*D53
 70
     1
 10
0.0
 20
0.0
 30
0.0
  3
*D53
  1
*D53
  0
LINE
  5
7AA8
330
79DE
100
AcDbEntity
  8
寸法線
 62
     0
 48
10.0
100
AcDbLine
 10
672.808211104737
 20
534.547353344101
 30
0.0
 11
672.808211104737
 21
434.814177750876
 31
0.0
  0
LINE
  5
7AA9
330
79DE
100
AcDbEntity
  8
寸法線
 62
     0
 48
10.0
100
AcDbLine
 10
660.808211104737
 20
533.54953424565
 30
0.0
 11
660.808211104737
 21
434.814177750876
 31
0.0
  0
LINE
  5
7AAA
330
79DE
100
AcDbEntity
  8
寸法線
 62
     0
 48
10.0
100
AcDbLine
 10
672.808211104737
 20
436.064177750876
 30
0.0
 11
660.808211104737
 21
436.064177750876
 31
0.0
  0
LINE
  5
7AAB
330
79DE
100
AcDbEntity
  8
寸法線
 62
     0
 48
10.0
100
AcDbLine
 10
678.808211104737
 20
436.064177750876
 30
0.0
 11
684.808211104737
 21
436.064177750876
 31
0.0
  0
LINE
  5
7AAC
330
79DE
100
AcDbEntity
  8
寸法線
 62
     0
 48
10.0
100
AcDbLine
 10
654.808211104737
 20
436.064177750876
 30
0.0
 11
648.808211104737
 21
436.064177750876
 31
0.0
  0
INSERT
  5
7AAD
330
79DE
100
AcDbEntity
  8
寸法線
 62
     0
100
AcDbBlockReference
  2
_OPEN30
 10
672.808211104737
 20
436.064177750876
 30
0.0
 41
6.0
 42
6.0
 43
6.0
 50
180.0
  0
INSERT
  5
7AAE
330
79DE
100
AcDbEntity
  8
寸法線
 62
     0
100
AcDbBlockReference
  2
_OPEN30
 10
660.808211104737
 20
436.064177750876
 30
0.0
 41
6.0
 42
6.0
 43
6.0
  0
MTEXT
  5
7AAF
330
79DE
100
AcDbEntity
  8
寸法線
 62
     0
 48
10.0
100
AcDbMText
 10
665.808211104737
 20
441.69438608421
 30
0.0
 40
10.0
 41
0.0
 71
     5
 72
     1
  1
\A1;12
  0
POINT
  5
7AB0
330
79DE
100
AcDbEntity
  8
DEFPOINTS
 62
     0
100
AcDbPoint
 10
672.808211104737
 20
535.172353344101
 30
0.0
  0
POINT
  5
7AB1
330
79DE
100
AcDbEntity
  8
DEFPOINTS
 62
     0
100
AcDbPoint
 10
660.808211104737
 20
534.17453424565
 30
0.0
  0
POINT
  5
7AB2
330
79DE
100
AcDbEntity
  8
DEFPOINTS
 62
     0
100
AcDbPoint
 10
660.808211104737
 20
436.064177750876
 30
0.0
  0
ENDBLK
  5
79EB
330
79DE
100
AcDbEntity
  8
0
 48
10.0
100
AcDbBlockEnd
  0
BLOCK
  5
79F6
330
79EC
100
AcDbEntity
  8
0
 48
10.0
100
AcDbBlockBegin
  2
*D54
 70
     1
 10
0.0
 20
0.0
 30
0.0
  3
*D54
  1
*D54
  0
LINE
  5
7A9F
330
79EC
100
AcDbEntity
  8
寸法線_文字
 62
     0
 48
10.0
100
AcDbLine
 10
790.779331064591
 20
538.549534245649
 30
0.0
 11
790.779331064591
 21
434.814177750876
 31
0.0
  0
LINE
  5
7AA0
330
79EC
100
AcDbEntity
  8
寸法線_文字
 62
     0
 48
10.0
100
AcDbLine
 10
846.779331064591
 20
538.549534245649
 30
0.0
 11
846.779331064591
 21
434.814177750876
 31
0.0
  0
LINE
  5
7AA1
330
79EC
100
AcDbEntity
  8
寸法線_文字
 62
     0
 48
10.0
100
AcDbLine
 10
796.779331064591
 20
436.064177750876
 30
0.0
 11
840.779331064591
 21
436.064177750876
 31
0.0
  0
INSERT
  5
7AA2
330
79EC
100
AcDbEntity
  8
寸法線_文字
 62
     0
100
AcDbBlockReference
  2
_OPEN30
 10
790.779331064591
 20
436.064177750876
 30
0.0
 41
6.0
 42
6.0
 43
6.0
 50
180.0
  0
INSERT
  5
7AA3
330
79EC
100
AcDbEntity
  8
寸法線_文字
 62
     0
100
AcDbBlockReference
  2
_OPEN30
 10
846.779331064591
 20
436.064177750876
 30
0.0
 41
6.0
 42
6.0
 43
6.0
  0
MTEXT
  5
7AA4
330
79EC
100
AcDbEntity
  8
寸法線_文字
 62
     0
 48
10.0
100
AcDbMText
 10
818.779331064591
 20
441.689177750876
 30
0.0
 40
10.0
 41
0.0
 71
     5
 72
     1
  1
\A1;56
  0
POINT
  5
7AA5
330
79EC
100
AcDbEntity
  8
DEFPOINTS
 62
     0
100
AcDbPoint
 10
790.779331064591
 20
539.174534245649
 30
0.0
  0
POINT
  5
7AA6
330
79EC
100
AcDbEntity
  8
DEFPOINTS
 62
     0
100
AcDbPoint
 10
846.779331064591
 20
539.174534245649
 30
0.0
  0
POINT
  5
7AA7
330
79EC
100
AcDbEntity
  8
DEFPOINTS
 62
     0
100
AcDbPoint
 10
846.779331064591
 20
436.064177750876
 30
0.0
  0
ENDBLK
  5
79F7
330
79EC
100
AcDbEntity
  8
0
 48
10.0
100
AcDbBlockEnd
  0
BLOCK
  5
7A04
330
79F8
100
AcDbEntity
  8
0
 48
10.0
100
AcDbBlockBegin
  2
*D55
 70
     1
 10
0.0
 20
0.0
 30
0.0
  3
*D55
  1
*D55
  0
LINE
  5
7A94
330
79F8
100
AcDbEntity
  8
寸法線
 62
     0
 48
10.0
100
AcDbLine
 10
624.815749670552
 20
616.704301000853
 30
0.0
 11
624.190749670552
 21
616.704301000853
 31
0.0
  0
LINE
  5
7A95
330
79F8
100
AcDbEntity
  8
寸法線
 62
     0
 48
10.0
100
AcDbLine
 10
624.815749670552
 20
606.704378500853
 30
0.0
 11
624.190749670552
 21
606.704378500853
 31
0.0
  0
LINE
  5
7A96
330
79F8
100
AcDbEntity
  8
寸法線
 62
     0
 48
10.0
100
AcDbLine
 10
625.440749670552
 20
616.704301000853
 30
0.0
 11
625.440749670552
 21
650.124904675394
 31
0.0
  0
LINE
  5
7A97
330
79F8
100
AcDbEntity
  8
寸法線
 62
     0
 48
10.0
100
AcDbLine
 10
625.440749670552
 20
616.704301000853
 30
0.0
 11
625.440749670552
 21
606.704378500853
 31
0.0
  0
LINE
  5
7A98
330
79F8
100
AcDbEntity
  8
寸法線
 62
     0
 48
10.0
100
AcDbLine
 10
625.440749670552
 20
622.704301000853
 30
0.0
 11
625.440749670552
 21
628.704301000853
 31
0.0
  0
LINE
  5
7A99
330
79F8
100
AcDbEntity
  8
寸法線
 62
     0
 48
10.0
100
AcDbLine
 10
625.440749670552
 20
600.704378500853
 30
0.0
 11
625.440749670552
 21
594.704378500853
 31
0.0
  0
INSERT
  5
7A9A
330
79F8
100
AcDbEntity
  8
寸法線
 62
     0
100
AcDbBlockReference
  2
_OPEN30
 10
625.440749670552
 20
616.704301000853
 30
0.0
 41
6.0
 42
6.0
 43
6.0
 50
270.0
  0
INSERT
  5
7A9B
330
79F8
100
AcDbEntity
  8
寸法線
 62
     0
100
AcDbBlockReference
  2
_OPEN30
 10
625.440749670552
 20
606.704378500853
 30
0.0
 41
6.0
 42
6.0
 43
6.0
 50
90.0
  0
MTEXT
  5
7A9C
330
79F8
100
AcDbEntity
  8
寸法線
 62
     0
 48
10.0
100
AcDbMText
 10
619.815749670552
 20
639.583238008727
 30
0.0
 40
10.0
 41
0.0
 71
     5
 72
     1
  1
\A1;φ10
 11
0.0
 21
1.0
 31
0.0
  0
POINT
  5
7A9D
330
79F8
100
AcDbEntity
  8
DEFPOINTS
 62
     0
100
AcDbPoint
 10
625.440749670552
 20
616.704301000853
 30
0.0
  0
POINT
  5
7A9E
330
79F8
100
AcDbEntity
  8
DEFPOINTS
 62
     0
100
AcDbPoint
 10
625.440749670552
 20
606.704378500853
 30
0.0
  0
POINT
  5
8552
330
79F8
100
AcDbEntity
  8
DEFPOINTS
 62
     0
100
AcDbPoint
 10
625.440749670552
 20
606.704378500853
 30
0.0
  0
ENDBLK
  5
7A05
330
79F8
100
AcDbEntity
  8
0
 48
10.0
100
AcDbBlockEnd
  0
BLOCK
  5
803B
330
803A
100
AcDbEntity
  8
0
100
AcDbBlockBegin
  2
*D81
 70
     1
 10
0.0
 20
0.0
 30
0.0
  3
*D81
  1
*D81
  0
LINE
  5
803D
330
803A
100
AcDbEntity
  8
寸法線
 62
     0
 48
10.0
100
AcDbLine
 10
31.667364805361
 20
584.018272730334
 30
0.0
 11
31.667364805361
 21
584.643272730334
 31
0.0
  0
LINE
  5
803E
330
803A
100
AcDbEntity
  8
寸法線
 62
     0
 48
10.0
100
AcDbLine
 10
34.523369319896
 20
584.018272730334
 30
0.0
 11
34.523369319896
 21
584.643272730334
 31
0.0
  0
LINE
  5
803F
330
803A
100
AcDbEntity
  8
寸法線
 62
     0
 48
10.0
100
AcDbLine
 10
40.523369319896
 20
583.393272730334
 30
0.0
 11
59.773369319896
 21
583.393272730334
 31
0.0
  0
LINE
  5
8040
330
803A
100
AcDbEntity
  8
寸法線
 62
     0
 48
10.0
100
AcDbLine
 10
31.667364805361
 20
583.393272730334
 30
0.0
 11
34.523369319896
 21
583.393272730334
 31
0.0
  0
LINE
  5
8041
330
803A
100
AcDbEntity
  8
寸法線
 62
     0
 48
10.0
100
AcDbLine
 10
25.667364805361
 20
583.393272730334
 30
0.0
 11
19.667364805361
 21
583.393272730334
 31
0.0
  0
INSERT
  5
8042
330
803A
100
AcDbEntity
  8
寸法線
 62
     0
100
AcDbBlockReference
  2
_OPEN30
 10
31.667364805361
 20
583.393272730334
 30
0.0
 41
6.0
 42
6.0
 43
6.0
  0
INSERT
  5
8043
330
803A
100
AcDbEntity
  8
寸法線
 62
     0
100
AcDbBlockReference
  2
_OPEN30
 10
34.523369319896
 20
583.393272730334
 30
0.0
 41
6.0
 42
6.0
 43
6.0
 50
180.0
  0
MTEXT
  5
8044
330
803A
100
AcDbEntity
  8
寸法線
 62
     0
 48
10.0
100
AcDbMText
 10
53.148369319896
 20
589.018272730334
 30
0.0
 40
10.0
 41
0.0
 71
     5
 72
     1
  1
\A1;1.5
  0
POINT
  5
8045
330
803A
100
AcDbEntity
  8
DEFPOINTS
 62
     0
100
AcDbPoint
 10
31.667364805361
 20
583.393272730334
 30
0.0
  0
POINT
  5
8046
330
803A
100
AcDbEntity
  8
DEFPOINTS
 62
     0
100
AcDbPoint
 10
34.523369319896
 20
583.393272730334
 30
0.0
  0
POINT
  5
8047
330
803A
100
AcDbEntity
  8
DEFPOINTS
 62
     0
100
AcDbPoint
 10
34.523369319896
 20
583.393272730334
 30
0.0
  0
ENDBLK
  5
803C
330
803A
100
AcDbEntity
  8
0
100
AcDbBlockEnd
  0
BLOCK
  5
8055
330
8054
100
AcDbEntity
  8
0
100
AcDbBlockBegin
  2
*D83
 70
     1
 10
0.0
 20
0.0
 30
0.0
  3
*D83
  1
*D83
  0
LINE
  5
8057
330
8054
100
AcDbEntity
  8
寸法線
 62
     0
 48
10.0
100
AcDbLine
 10
-38.183020715342
 20
605.178083756904
 30
0.0
 11
104.22683960758
 21
618.156206703383
 31
0.0
  0
INSERT
  5
8058
330
8054
100
AcDbEntity
  8
寸法線
 62
     0
100
AcDbBlockReference
  2
_OPEN30
 10
-44.158259611119
 20
604.633547129678
 30
0.0
 41
6.0
 42
6.0
 43
6.0
 50
185.2071067117
  0
INSERT
  5
8059
330
8054
100
AcDbEntity
  8
寸法線
 62
     0
100
AcDbBlockReference
  2
_OPEN30
 10
110.202078503357
 20
618.700743330609
 30
0.0
 41
6.0
 42
6.0
 43
6.0
 50
5.2071067117
  0
MTEXT
  5
805A
330
8054
100
AcDbEntity
  8
寸法線
 62
     0
 48
10.0
100
AcDbMText
 10
79.160223684849
 20
621.520140741848
 30
0.0
 40
10.0
 41
0.0
 71
     5
 72
     1
  1
\A1;φ155
 11
0.9958731492962073
 21
0.0907561045376782
 31
0.0
  0
POINT
  5
805B
330
8054
100
AcDbEntity
  8
DEFPOINTS
 62
     0
100
AcDbPoint
 10
-44.158259611119
 20
604.633547129677
 30
0.0
  0
POINT
  5
805C
330
8054
100
AcDbEntity
  8
DEFPOINTS
 62
     0
100
AcDbPoint
 10
110.202078503357
 20
618.700743330609
 30
0.0
  0
POINT
  5
805D
330
8054
100
AcDbEntity
  8
DEFPOINTS
 62
     0
100
AcDbPoint
 10
110.202078503357
 20
618.700743330609
 30
0.0
  0
ENDBLK
  5
8056
330
8054
100
AcDbEntity
  8
0
100
AcDbBlockEnd
  0
BLOCK
  5
805F
330
805E
100
AcDbEntity
  8
0
100
AcDbBlockBegin
  2
*D84
 70
     1
 10
0.0
 20
0.0
 30
0.0
  3
*D84
  1
*D84
  0
LINE
  5
8061
330
805E
100
AcDbEntity
  8
寸法線
 62
     0
 48
10.0
100
AcDbLine
 10
-21.455202135799
 20
589.014058875987
 30
0.0
 11
87.500444739731
 21
634.320427154604
 31
0.0
  0
INSERT
  5
8062
330
805E
100
AcDbEntity
  8
寸法線
 62
     0
100
AcDbBlockReference
  2
_OPEN30
 10
-26.995319774998
 20
586.710345234094
 30
0.0
 41
6.0
 42
6.0
 43
6.0
 50
202.578711521241
  0
INSERT
  5
8063
330
805E
100
AcDbEntity
  8
寸法線
 62
     0
100
AcDbBlockReference
  2
_OPEN30
 10
93.040562378929
 20
636.624140796497
 30
0.0
 41
6.0
 42
6.0
 43
6.0
 50
22.578711521241
  0
MTEXT
  5
8064
330
805E
100
AcDbEntity
  8
寸法線
 62
     0
 48
10.0
100
AcDbMText
 10
74.208767497123
 20
634.890998398472
 30
0.0
 40
10.0
 41
0.0
 71
     5
 72
     1
  1
\A1;φ130
 11
0.9233529398664105
 21
0.3839522736487659
 31
0.0
  0
POINT
  5
8065
330
805E
100
AcDbEntity
  8
DEFPOINTS
 62
     0
100
AcDbPoint
 10
-26.995319774998
 20
586.710345234094
 30
0.0
  0
POINT
  5
8066
330
805E
100
AcDbEntity
  8
DEFPOINTS
 62
     0
100
AcDbPoint
 10
93.040562378929
 20
636.624140796497
 30
0.0
  0
POINT
  5
8067
330
805E
100
AcDbEntity
  8
DEFPOINTS
 62
     0
100
AcDbPoint
 10
93.040562378929
 20
636.624140796497
 30
0.0
  0
ENDBLK
  5
8060
330
805E
100
AcDbEntity
  8
0
100
AcDbBlockEnd
  0
ENDSEC
  0
SECTION
  2
ENTITIES
  0
MTEXT
  5
585A
330
1A
100
AcDbEntity
  8
細線
 48
10.0
100
AcDbMText
 10
2388.730547772073
 20
872.93633111709
 30
0.0
 40
6.0
 41
0.0
 71
     7
 72
     1
  1

  0
MTEXT
  5
5DFD
330
1A
100
AcDbEntity
  8
細線
 48
10.0
100
AcDbMText
 10
3365.875517977815
 20
358.633693314642
 30
0.0
 40
6.0
 41
0.0
 71
     7
 72
     1
  1

  0
LINE
  5
64D9
330
1A
100
AcDbEntity
  8
中心線
 48
10.0
100
AcDbLine
 10
872.779331064591
 20
611.674534245649
 30
0.0
 11
147.998277061486
 21
611.667077210356
 31
0.0
  0
LINE
  5
6561
330
1A
100
AcDbEntity
  8
下書線
100
AcDbLine
 10
88.0
 20
717.414711228493
 30
0.0
 11
916.463128659848
 21
717.414711228493
 31
0.0
  0
DIMENSION
  5
65DE
330
1A
100
AcDbEntity
  8
寸法線
 48
10.0
100
AcDbDimension
  2
*D19
 10
485.059167947453
 20
616.681993530943
 30
0.0
 11
479.434167947453
 21
639.223660197609
 31
0.0
 70
    32
  1
φ10
  3
ISO-25
100
AcDbAlignedDimension
 13
485.059167947453
 23
606.681993530943
 33
0.0
 14
485.059167947453
 24
616.681993530943
 34
0.0
 50
90.0
100
AcDbRotatedDimension
1001
ACAD
1000
DSTYLE
1002
{
1070
     5
1000
OPEN30
1070
    41
1040
6.0
1070
    47
1040
0.1
1070
    48
1040
0.1
1070
    73
1070
     0
1070
   140
1040
10.0
1070
   271
1070
     1
1070
   272
1070
     1
1070
   341
1005
2AF4
1002
}
  0
LEADER
  5
65EC
330
1A
100
AcDbEntity
  8
寸法線
 48
10.0
100
AcDbLeader
  3
ISO-25
 76
     3
 10
525.356499584079
 20
628.696606149759
 30
0.0
 10
522.462647136608
 20
681.877909086631
 30
0.0
 10
510.462647136607
 20
681.877909086631
 30
0.0
1001
ACAD
1000
DSTYLE
1002
{
1070
     5
1000
OPEN30
1070
   147
1040
0.625
1070
    77
1070
     0
1070
    41
1040
6.0
1070
    47
1040
0.1
1070
    48
1040
0.1
1070
    73
1070
     0
1070
   140
1040
8.0
1070
   271
1070
     1
1070
   272
1070
     1
1070
   341
1005
2AF4
1070
   342
1005
2AF4
1002
}
  0
MTEXT
  5
65ED
330
1A
100
AcDbEntity
  8
寸法線
 48
10.0
100
AcDbMText
 10
478.241618798999
 20
692.812559955196
 30
0.0
 40
2.333873885063
 41
47.634784273192
 71
     1
 72
     5
  1
{\H4.285x;SUS304}
  0
LINE
  5
6606
330
1A
100
AcDbEntity
  8
外形線
100
AcDbLine
 10
472.232931104737
 20
606.681993530943
 30
0.0
 11
488.808211104737
 21
606.681993530943
 31
0.0
  0
LINE
  5
660B
330
1A
100
AcDbEntity
  8
外形線
100
AcDbLine
 10
472.232931104737
 20
616.681993530943
 30
0.0
 11
488.808211104737
 21
616.681993530943
 31
0.0
  0
DIMENSION
  5
6611
330
1A
100
AcDbEntity
  8
寸法線
 48
10.0
100
AcDbDimension
  2
*D20
 10
538.808211104737
 20
414.064177750876
 30
0.0
 11
330.106797044511
 21
414.064177750876
 31
0.0
 70
    32
  1
 
  3
ISO-25
100
AcDbAlignedDimension
 13
156.275077374443
 23
553.141020024784
 33
0.0
 14
538.808211104737
 24
534.174534245649
 34
0.0
100
AcDbRotatedDimension
1001
ACAD
1000
DSTYLE
1002
{
1070
     5
1000
OPEN30
1070
    41
1040
6.0
1070
    47
1040
0.1
1070
    48
1040
0.1
1070
    73
1070
     0
1070
   140
1040
10.0
1070
   271
1070
     1
1070
   272
1070
     1
1070
   341
1005
2AF4
1002
}
  0
MTEXT
  5
6697
330
1A
100
AcDbEntity
  8
細線
 48
10.0
100
AcDbMText
 10
2386.842198953746
 20
912.80153897725
 30
0.0
 40
6.0
 41
0.0
 71
     7
 72
     1
  1

  0
INSERT
  5
7462
330
1A
100
AcDbEntity
  8
外形線
 48
10.0
100
AcDbBlockReference
  2
パドル_W1
 10
97.973961464943
 20
391.015315288544
 30
0.0
  0
LINE
  5
7463
330
1A
100
AcDbEntity
  8
外形線
100
AcDbLine
 10
259.775077374442
 20
607.674592995649
 30
0.0
 11
281.751543529766
 21
607.674592995649
 31
0.0
  0
DIMENSION
  5
7464
330
1A
100
AcDbEntity
  8
寸法線
 48
10.0
100
AcDbDimension
  2
*D28
 10
300.254713391687
 20
615.674625495649
 30
0.0
 11
294.61929672502
 21
635.716292162316
 31
0.0
 70
    32
  1
φ<>
  3
ISO-25
100
AcDbAlignedDimension
 13
300.254713391687
 23
607.674592995649
 33
0.0
 14
300.254713391687
 24
615.674625495649
 34
0.0
 50
90.0
100
AcDbRotatedDimension
1001
ACAD
1000
DSTYLE
1002
{
1070
     5
1000
OPEN30
1070
    41
1040
6.0
1070
    47
1040
0.1
1070
    48
1040
0.1
1070
    73
1070
     0
1070
   140
1040
10.0
1070
   271
1070
     1
1070
   272
1070
     1
1070
   341
1005
2AF4
1002
}
  0
LINE
  5
7465
330
1A
100
AcDbEntity
  8
外形線
100
AcDbLine
 10
251.275077374443
 20
619.956944495649
 30
0.0
 11
257.528449874442
 21
619.956944495649
 31
0.0
  0
LINE
  5
7466
330
1A
100
AcDbEntity
  8
外形線
100
AcDbLine
 10
257.528449874442
 20
619.956944495649
 30
0.0
 11
259.775002374443
 21
617.571790495649
 31
0.0
  0
ARC
  5
7467
330
1A
100
AcDbEntity
  8
細線
100
AcDbCircle
 10
256.186439874443
 20
618.681562995649
 30
0.0
 40
3.7563025
100
AcDbArc
 50
308.612371782869
 51
342.815889504128
  0
LINE
  5
7468
330
1A
100
AcDbEntity
  8
細線
100
AcDbLine
 10
253.275077374443
 20
615.746495495649
 30
0.0
 11
258.53055830145
 21
615.746495495649
 31
0.0
  0
LINE
  5
7469
330
1A
100
AcDbEntity
  8
外形線
100
AcDbLine
 10
251.275077374443
 20
603.392126495649
 30
0.0
 11
257.528449874442
 21
603.392126495649
 31
0.0
  0
LINE
  5
746A
330
1A
100
AcDbEntity
  8
外形線
100
AcDbLine
 10
257.528449874442
 20
603.392126495649
 30
0.0
 11
259.775002374443
 21
605.777205495649
 31
0.0
  0
LINE
  5
746B
330
1A
100
AcDbEntity
  8
外形線
100
AcDbLine
 10
251.275077374443
 20
619.818495495649
 30
0.0
 11
251.275077374443
 21
603.530575495649
 31
0.0
  0
LINE
  5
746C
330
1A
100
AcDbEntity
  8
外形線
100
AcDbLine
 10
259.775077374442
 20
605.777127995649
 30
0.0
 11
259.775077374442
 21
617.571790495649
 31
0.0
  0
LINE
  5
746D
330
1A
100
AcDbEntity
  8
外形線
100
AcDbLine
 10
253.275077374443
 20
619.956944495649
 30
0.0
 11
253.275077374443
 21
603.392126495649
 31
0.0
  0
LINE
  5
746E
330
1A
100
AcDbEntity
  8
外形線
100
AcDbLine
 10
251.275077374443
 20
619.818495495649
 30
0.0
 11
251.275077374443
 21
603.530575495649
 31
0.0
  0
ARC
  5
746F
330
1A
100
AcDbEntity
  8
細線
100
AcDbCircle
 10
252.491219874443
 20
611.67449799565
 30
0.0
 40
7.2838425
100
AcDbArc
 50
326.010120640441
 51
33.989328497327
  0
ARC
  5
7470
330
1A
100
AcDbEntity
  8
細線
100
AcDbCircle
 10
256.186439874443
 20
604.667355495649
 30
0.0
 40
3.7563025
100
AcDbArc
 50
17.184150191552
 51
51.387610617045
  0
LINE
  5
7471
330
1A
100
AcDbEntity
  8
細線
100
AcDbLine
 10
253.275077374443
 20
607.602612995649
 30
0.0
 11
258.53051834681
 21
607.602612995649
 31
0.0
  0
ARC
  5
7472
330
1A
100
AcDbEntity
  8
細線
100
AcDbCircle
 10
291.965803193014
 20
613.674617995649
 30
0.0
 40
4.000015
100
AcDbArc
 50
150.0
 51
210.0
  0
LINE
  5
7473
330
1A
100
AcDbEntity
  8
外形線
100
AcDbLine
 10
288.501688587495
 20
615.674625495649
 30
0.0
 11
311.385925516227
 21
615.674625495649
 31
0.0
  0
ARC
  5
7474
330
1A
100
AcDbEntity
  8
細線
100
AcDbCircle
 10
285.215657500189
 20
613.674619195654
 30
0.0
 40
4.000015
100
AcDbArc
 50
150.000019847852
 51
210.000019847829
  0
LINE
  5
7475
330
1A
100
AcDbEntity
  8
外形線
100
AcDbLine
 10
259.775077374442
 20
615.674625495649
 30
0.0
 11
281.751542201847
 21
615.674625495649
 31
0.0
  0
ARC
  5
7476
330
1A
100
AcDbEntity
  8
細線
100
AcDbCircle
 10
278.287428289151
 20
613.674616795644
 30
0.0
 40
4.000015
100
AcDbArc
 50
330.000019847852
 51
30.000019847829
  0
LINE
  5
7477
330
1A
100
AcDbEntity
  8
外形線
100
AcDbLine
 10
288.501690030872
 20
607.674592995649
 30
0.0
 11
311.385925516227
 21
607.674592995649
 31
0.0
  0
LINE
  5
7478
330
1A
100
AcDbEntity
  8
外形線
100
AcDbLine
 10
251.275077374443
 20
619.818495495649
 30
0.0
 11
251.275077374443
 21
603.530575495649
 31
0.0
  0
ARC
  5
7479
330
1A
100
AcDbEntity
  8
細線
100
AcDbCircle
 10
278.287429674799
 20
609.674601795644
 30
0.0
 40
4.000015
100
AcDbArc
 50
330.000019847852
 51
30.000019847829
  0
ARC
  5
747A
330
1A
100
AcDbEntity
  8
細線
100
AcDbCircle
 10
285.037573981977
 20
609.674602995649
 30
0.0
 40
4.000015
100
AcDbArc
 50
330.0
 51
30.0
  0
ARC
  5
747B
330
1A
100
AcDbEntity
  8
細線
100
AcDbCircle
 10
291.965803193014
 20
609.674602995649
 30
0.0
 40
4.000015
100
AcDbArc
 50
150.0
 51
210.0
  0
DIMENSION
  5
747E
330
1A
100
AcDbEntity
  8
寸法線
 48
10.0
100
AcDbDimension
  2
*D29
 10
311.385925516227
 20
548.371997709291
 30
0.0
 11
262.080501445335
 21
548.371997709291
 31
0.0
 70
   160
  1
 
  3
ISO-25
100
AcDbAlignedDimension
 13
259.775077374442
 23
605.777127995649
 33
0.0
 14
311.385925516227
 24
604.674526745649
 34
0.0
100
AcDbRotatedDimension
1001
ACAD
1000
DSTYLE
1002
{
1070
     5
1000
OPEN30
1070
    41
1040
6.0
1070
    47
1040
0.1
1070
    48
1040
0.1
1070
    73
1070
     0
1070
   140
1040
10.0
1070
   271
1070
     1
1070
   272
1070
     1
1070
   341
1005
2AF4
1002
}
  0
LEADER
  5
747F
330
1A
100
AcDbEntity
  8
寸法線
 48
10.0
100
AcDbLeader
  3
ISO-25
 76
     3
 10
325.059518864608
 20
602.638570053799
 30
0.0
 10
367.41115670656
 20
532.137106094142
 30
0.0
 10
383.086209705018
 20
532.137106094142
 30
0.0
1001
ACAD
1000
DSTYLE
1002
{
1070
     5
1000
OPEN30
1070
   147
1040
0.625
1070
    77
1070
     0
1070
    41
1040
6.0
1070
    47
1040
0.1
1070
    48
1040
0.1
1070
    73
1070
     0
1070
   140
1040
5.0
1070
   271
1070
     1
1070
   272
1070
     1
1070
   341
1005
2AF4
1070
   342
1005
2AF4
1002
}
  0
MTEXT
  5
7480
330
1A
100
AcDbEntity
  8
寸法線
 48
10.0
100
AcDbMText
 10
368.561682558632
 20
532.715362054658
 30
0.0
 40
10.0
 41
109.5
 71
     7
 72
     5
  1
可変軸締付金具\PSUS303
  0
MTEXT
  5
7481
330
1A
100
AcDbEntity
  8
寸法線
 48
10.0
100
AcDbMText
 10
120.779120401878
 20
728.167603105793
 30
0.0
 40
10.0
 41
0.0
 71
     1
 72
     5
  1
SUS304
  0
LEADER
  5
7482
330
1A
100
AcDbEntity
  8
寸法線
 48
10.0
100
AcDbLeader
  3
ISO-25
 76
     3
 10
188.775077374443
 20
651.686103589483
 30
0.0
 10
167.379570359515
 20
717.68695581709
 30
0.0
 10
155.379570359515
 20
717.68695581709
 30
0.0
1001
ACAD
1000
DSTYLE
1002
{
1070
     5
1000
OPEN30
1070
   147
1040
0.625
1070
    77
1070
     0
1070
    41
1040
6.0
1070
    47
1040
0.1
1070
    48
1040
0.1
1070
    73
1070
     0
1070
   140
1040
5.0
1070
   271
1070
     1
1070
   272
1070
     1
1070
   341
1005
2AF4
1070
   342
1005
2AF4
1002
}
  0
LEADER
  5
7483
330
1A
100
AcDbEntity
  8
寸法線
 48
10.0
100
AcDbLeader
  3
ISO-25
 76
     3
 10
266.825064081389
 20
615.674625495649
 30
0.0
 10
234.984503937392
 20
717.414711228493
 30
0.0
 10
222.984503937392
 20
717.414711228493
 30
0.0
1001
ACAD
1000
DSTYLE
1002
{
1070
     5
1000
OPEN30
1070
   147
1040
0.625
1070
    77
1070
     0
1070
    41
1040
6.0
1070
    47
1040
0.1
1070
    48
1040
0.1
1070
    73
1070
     0
1070
   140
1040
5.0
1070
   271
1070
     1
1070
   272
1070
     1
1070
   341
1005
2AF4
1070
   342
1005
2AF4
1002
}
  0
MTEXT
  5
7484
330
1A
100
AcDbEntity
  8
寸法線
 48
10.0
100
AcDbMText
 10
232.806321130286
 20
718.24198293451
 30
0.0
 40
10.0
 41
0.0
 71
     9
 72
     5
  1
寸法可変軸\PSUS304
1001
ACAD
1000
MTEXTBEGIN
1070
    44
1040
0.8
1000
MTEXTEND
  0
LEADER
  5
7485
330
1A
100
AcDbEntity
  8
寸法線
 48
10.0
100
AcDbLeader
  3
ISO-25
 76
     3
 10
321.118577057044
 20
620.392099782859
 30
0.0
 10
329.95077307841
 20
682.259389537596
 30
0.0
 10
317.95077307841
 20
682.259389537596
 30
0.0
1001
ACAD
1000
DSTYLE
1002
{
1070
     5
1000
OPEN30
1070
   147
1040
0.625
1070
    77
1070
     0
1070
    41
1040
6.0
1070
    47
1040
0.1
1070
    48
1040
0.1
1070
    73
1070
     0
1070
   140
1040
5.0
1070
   271
1070
     1
1070
   272
1070
     1
1070
   341
1005
2AF4
1070
   342
1005
2AF4
1002
}
  0
MTEXT
  5
7486
330
1A
100
AcDbEntity
  8
寸法線
 48
10.0
100
AcDbMText
 10
327.772590271304
 20
683.086661243613
 30
0.0
 40
10.0
 41
0.0
 71
     9
 72
     5
  1
可変軸固定金具\PBsBM
1001
ACAD
1000
MTEXTBEGIN
1070
    44
1040
0.8
1000
MTEXTEND
  0
MTEXT
  5
7487
330
1A
100
AcDbEntity
  8
寸法線
 48
10.0
100
AcDbMText
 10
348.162112181116
 20
718.24198293451
 30
0.0
 40
10.0
 41
0.0
 71
     9
 72
     5
  1
可変用パイプ\PSUS
1001
ACAD
1000
MTEXTBEGIN
1070
    44
1040
0.8
1000
MTEXTEND
  0
LEADER
  5
7488
330
1A
100
AcDbEntity
  8
寸法線
 48
10.0
100
AcDbLeader
  3
ISO-25
 76
     3
 10
371.377785568172
 20
618.5745978394
 30
0.0
 10
350.340294988222
 20
717.414711228493
 30
0.0
 10
338.340294988222
 20
717.414711228493
 30
0.0
1001
ACAD
1000
DSTYLE
1002
{
1070
     5
1000
OPEN30
1070
   147
1040
0.625
1070
    77
1070
     0
1070
    41
1040
6.0
1070
    47
1040
0.1
1070
    48
1040
0.1
1070
    73
1070
     0
1070
   140
1040
5.0
1070
   271
1070
     1
1070
   272
1070
     1
1070
   341
1005
2AF4
1070
   342
1005
2AF4
1002
}
  0
DIMENSION
  5
7489
330
1A
100
AcDbEntity
  8
寸法線
 48
10.0
100
AcDbDimension
  2
*D30
 10
348.762584246155
 20
618.57459595265
 30
0.0
 11
343.121959246155
 21
640.116262619317
 31
0.0
 70
    32
  1
φ<>
  3
ISO-25
100
AcDbAlignedDimension
 13
348.762584246155
 23
604.774623046427
 33
0.0
 14
348.762584246155
 24
618.57459595265
 34
0.0
 50
90.0
100
AcDbRotatedDimension
1001
ACAD
1000
DSTYLE
1002
{
1070
     5
1000
OPEN30
1070
    41
1040
6.0
1070
    47
1040
0.1
1070
    48
1040
0.1
1070
    73
1070
     0
1070
   140
1040
10.0
1070
   271
1070
     1
1070
   272
1070
     1
1070
   341
1005
2AF4
1002
}
  0
LINE
  5
748A
330
1A
100
AcDbEntity
  8
外形線
100
AcDbLine
 10
360.188411342245
 20
604.774622683155
 30
0.0
 11
337.885940516227
 21
604.774622995649
 31
0.0
  0
LINE
  5
748B
330
1A
100
AcDbEntity
  8
外形線
 48
10.0
100
AcDbLine
 10
360.208556300847
 20
618.574597683151
 30
0.0
 11
337.885940516227
 21
618.574597995649
 31
0.0
  0
ARC
  5
748C
330
1A
100
AcDbEntity
  8
細線
100
AcDbCircle
 10
368.16909560004
 20
615.124604558149
 30
0.0
 40
4.717439959755914
100
AcDbArc
 50
133.002198028015
 51
226.997801971983
  0
LINE
  5
748D
330
1A
100
AcDbEntity
  8
外形線
100
AcDbLine
 10
389.015176104737
 20
618.57459549565
 30
0.0
 11
364.951676886104
 21
618.57459826729
 31
0.0
  0
LINE
  5
748E
330
1A
100
AcDbEntity
  8
外形線
100
AcDbLine
 10
389.015176104737
 20
604.774622995649
 30
0.0
 11
364.817171065446
 21
604.774623308149
 31
0.0
  0
ARC
  5
748F
330
1A
100
AcDbEntity
  8
細線
100
AcDbCircle
 10
361.733990434302
 20
608.224617058149
 30
0.0
 40
4.71762262788198
100
AcDbArc
 50
313.004576857278
 51
46.995423142722
  0
ARC
  5
7490
330
1A
100
AcDbEntity
  8
細線
100
AcDbCircle
 10
368.168961698659
 20
608.224617058149
 30
0.0
 40
4.717348636493086
100
AcDbArc
 50
133.001008645248
 51
226.998991354752
  0
ARC
  5
7491
330
1A
100
AcDbEntity
  8
細線
100
AcDbCircle
 10
363.426087211005
 20
615.124605047738
 30
0.0
 40
4.717515696023207
100
AcDbArc
 50
133.003204200557
 51
226.996835495121
  0
ARC
  5
7492
330
1A
100
AcDbEntity
  8
細線
100
AcDbCircle
 10
356.991115964947
 20
615.124602818596
 30
0.0
 40
4.717455551515777
100
AcDbArc
 50
313.002420933761
 51
46.997618761911
  0
ARC
  5
7493
330
1A
100
AcDbEntity
  8
細線
100
AcDbCircle
 10
356.990976935418
 20
608.22461531855
 30
0.0
 40
4.717552005024041
100
AcDbArc
 50
313.003677040383
 51
46.996362655291
  0
INSERT
  5
7494
330
1A
100
AcDbEntity
  8
外形線
 48
10.0
100
AcDbBlockReference
  2
A$C135842B4
 10
311.385925156302
 20
598.607579561546
 30
0.0
  0
MTEXT
  5
7495
330
1A
100
AcDbEntity
  8
寸法線
 48
10.0
100
AcDbMText
 10
422.465382658921
 20
682.705180792648
 30
0.0
 40
10.0
 41
0.0
 71
     9
 72
     5
  1
ステンレス\Pバネ鋼
1001
ACAD
1000
MTEXTBEGIN
1070
    44
1040
0.8
1000
MTEXTEND
  0
LEADER
  5
7496
330
1A
100
AcDbEntity
  8
寸法線
 48
10.0
100
AcDbLeader
  3
ISO-25
 76
     3
 10
429.281062878502
 20
621.960505466103
 30
0.0
 10
424.643565466027
 20
681.877909086631
 30
0.0
 10
412.643565466027
 20
681.877909086631
 30
0.0
1001
ACAD
1000
DSTYLE
1002
{
1070
     5
1000
OPEN30
1070
   147
1040
0.625
1070
    77
1070
     0
1070
    41
1040
6.0
1070
    47
1040
0.1
1070
    48
1040
0.1
1070
    73
1070
     0
1070
   140
1040
5.0
1070
   271
1070
     1
1070
   272
1070
     1
1070
   341
1005
2AF4
1070
   342
1005
2AF4
1002
}
  0
INSERT
  5
7497
330
1A
100
AcDbEntity
  8
外形線
 48
10.0
100
AcDbBlockReference
  2
A$C76E55026
 10
389.015172489792
 20
601.6745352791
 30
0.0
  0
DIMENSION
  5
7509
330
1A
100
AcDbEntity
  8
寸法線
 48
10.0
100
AcDbDimension
  2
*D31
 10
236.275077374443
 20
548.371997709291
 30
0.0
 11
196.275077374443
 21
548.371997709291
 31
0.0
 70
   160
  3
ISO-25
100
AcDbAlignedDimension
 13
156.275077374443
 23
571.667077210356
 33
0.0
 14
236.275077374443
 24
599.667077210356
 34
0.0
100
AcDbRotatedDimension
1001
ACAD
1000
DSTYLE
1002
{
1070
     5
1000
OPEN30
1070
    41
1040
6.0
1070
    47
1040
0.1
1070
    48
1040
0.1
1070
    73
1070
     0
1070
   140
1040
10.0
1070
   271
1070
     1
1070
   272
1070
     1
1070
   341
1005
2AF4
1002
}
  0
DIMENSION
  5
750A
330
1A
100
AcDbEntity
  8
寸法線
 48
10.0
100
AcDbDimension
  2
*D32
 10
138.292464249741
 20
571.667077210356
 30
0.0
 11
138.292464249741
 21
611.667077210356
 31
0.0
 70
   160
  3
ISO-25
100
AcDbAlignedDimension
 13
156.275077374443
 23
651.667077210356
 33
0.0
 14
156.275077374443
 24
571.667077210356
 34
0.0
 50
90.0
100
AcDbRotatedDimension
1001
ACAD
1000
DSTYLE
1002
{
1070
     5
1000
OPEN30
1070
    41
1040
6.0
1070
    47
1040
0.1
1070
    48
1040
0.1
1070
    73
1070
     0
1070
   140
1040
10.0
1070
   271
1070
     1
1070
   272
1070
     1
1070
   341
1005
2AF4
1002
}
  0
MTEXT
  5
75EB
330
1A
100
AcDbEntity
  8
寸法線
 62
     1
 48
10.0
100
AcDbMText
 10
495.829397688749
 20
286.863822052998
 30
0.0
 40
10.0
 41
41.830572654069
 71
     1
 72
     5
  1
{\C256;記事}
  0
MTEXT
  5
75EE
330
1A
100
AcDbEntity
  8
寸法線
 62
     1
 48
10.0
100
AcDbMText
 10
350.420568133803
 20
272.0901758012
 30
0.0
 40
10.0
 41
74.76828455196
 71
     1
 72
     5
  1
470～620\P670～1020\P770～1220
  0
MTEXT
  5
75EF
330
1A
100
AcDbEntity
  8
寸法線
 62
     1
 48
10.0
100
AcDbMText
 10
415.191027632718
 20
272.063444160605
 30
0.0
 40
10.0
 41
67.174976926887
 71
     1
 72
     5
  1
0～150\P0～350\P0～450
  0
LINE
  5
75F0
330
1A
100
AcDbEntity
  8
寸法線
 48
10.0
100
AcDbLine
 10
303.479168798336
 20
242.574441042309
 30
0.0
 11
586.985417381276
 21
242.574441042309
 31
0.0
  0
LINE
  5
75F1
330
1A
100
AcDbEntity
  8
寸法線
 48
10.0
100
AcDbLine
 10
303.479168798336
 20
258.772440738233
 30
0.0
 11
586.985417381276
 21
258.772440738233
 31
0.0
  0
LINE
  5
75F2
330
1A
100
AcDbEntity
  8
寸法線
 48
10.0
100
AcDbLine
 10
303.479168798336
 20
275.20766284737
 30
0.0
 11
586.985417381276
 21
275.20766284737
 31
0.0
  0
LINE
  5
75F3
330
1A
100
AcDbEntity
  8
寸法線
 48
10.0
100
AcDbLine
 10
303.479168798336
 20
290.219550477228
 30
0.0
 11
586.985417381276
 21
290.219550477228
 31
0.0
  0
LINE
  5
75F4
330
1A
100
AcDbEntity
  8
寸法線
 48
10.0
100
AcDbLine
 10
586.985417381276
 20
290.219550477228
 30
0.0
 11
586.985417381276
 21
227.088108586025
 31
0.0
  0
LINE
  5
75F5
330
1A
100
AcDbEntity
  8
寸法線
 48
10.0
100
AcDbLine
 10
557.316657050864
 20
290.219550477228
 30
0.0
 11
557.316657050864
 21
227.088108586025
 31
0.0
  0
LINE
  5
75F6
330
1A
100
AcDbEntity
  8
寸法線
 48
10.0
100
AcDbLine
 10
456.902757052404
 20
290.219550477228
 30
0.0
 11
456.902757052404
 21
227.088108586025
 31
0.0
  0
LINE
  5
75F7
330
1A
100
AcDbEntity
  8
寸法線
 48
10.0
100
AcDbLine
 10
410.727334116412
 20
290.219550477228
 30
0.0
 11
410.727334116412
 21
227.088108586025
 31
0.0
  0
LINE
  5
75F8
330
1A
100
AcDbEntity
  8
寸法線
 48
10.0
100
AcDbLine
 10
344.102222270915
 20
290.219550477228
 30
0.0
 11
344.102222270915
 21
227.088108586025
 31
0.0
  0
LINE
  5
75F9
330
1A
100
AcDbEntity
  8
寸法線
 48
10.0
100
AcDbLine
 10
303.479168798336
 20
290.219550477228
 30
0.0
 11
303.479168798336
 21
227.088108586025
 31
0.0
  0
TEXT
  5
75FA
330
1A
100
AcDbEntity
  8
寸法線
100
AcDbText
 10
435.866273127307
 20
277.252138428643
 30
0.0
 40
4.9725
  1
０
 41
1.304347826087
  7
EXCADSTD
 72
     5
 11
440.838773127307
 21
277.252138428643
 31
0.0
100
AcDbText
  0
ARC
  5
75FB
330
1A
100
AcDbEntity
  8
寸法線
100
AcDbCircle
 10
431.443711737307
 20
287.343272744893
 30
0.0
 40
0.3343384687500001
100
AcDbArc
 50
28.230948369006
 51
123.883845843378
  0
ARC
  5
75FC
330
1A
100
AcDbEntity
  8
寸法線
100
AcDbCircle
 10
434.431035589806
 20
282.820251937393
 30
0.0
 40
5.75490547125
100
AcDbArc
 50
123.469024399707
 51
239.773899120639
  0
ARC
  5
75FD
330
1A
100
AcDbEntity
  8
寸法線
100
AcDbCircle
 10
426.536463368557
 20
284.069445873642
 30
0.0
 40
6.23195717625
100
AcDbArc
 50
273.280470979895
 51
33.415912335969
  0
ARC
  5
75FE
330
1A
100
AcDbEntity
  8
寸法線
100
AcDbCircle
 10
432.177264882306
 20
279.939605613643
 30
0.0
 40
2.18863344375
100
AcDbArc
 50
252.903398883417
 51
337.412611017139
  0
ARC
  5
75FF
330
1A
100
AcDbEntity
  8
寸法線
100
AcDbCircle
 10
378.66151647648
 20
287.599144983619
 30
0.0
 40
0.3343384687500001
100
AcDbArc
 50
28.230948369006
 51
123.883845843378
  0
ARC
  5
7600
330
1A
100
AcDbEntity
  8
寸法線
100
AcDbCircle
 10
381.64884032898
 20
283.076124176119
 30
0.0
 40
5.75490547125
100
AcDbArc
 50
123.469024399699
 51
239.773899120639
  0
ARC
  5
7601
330
1A
100
AcDbEntity
  8
寸法線
100
AcDbCircle
 10
373.75426810773
 20
284.325318112369
 30
0.0
 40
6.23195717625
100
AcDbArc
 50
273.280470979895
 51
33.415912335969
  0
ARC
  5
7602
330
1A
100
AcDbEntity
  8
寸法線
100
AcDbCircle
 10
379.39514420898
 20
280.195477852369
 30
0.0
 40
2.18863344375
100
AcDbArc
 50
252.903398883417
 51
337.412611017139
  0
MTEXT
  5
7603
330
1A
100
AcDbEntity
  8
寸法線
 48
10.0
100
AcDbMText
 10
411.504209903648
 20
223.929999710141
 30
0.0
 40
10.0
 41
198.225985867547
 71
     1
 72
     5
  1
○印が今回の貴社の御仕様です。
  0
LINE
  5
7637
330
1A
100
AcDbEntity
  8
寸法線
 48
10.0
100
AcDbLine
 10
303.479168798336
 20
227.088108586025
 30
0.0
 11
586.985417381276
 21
227.088108586025
 31
0.0
  0
MTEXT
  5
7674
330
1A
100
AcDbEntity
  8
寸法線
 62
     1
 48
10.0
100
AcDbMText
 10
306.150033913751
 20
286.863822052998
 30
0.0
 40
10.0
 41
41.830572654069
 71
     1
 72
     5
  1
御仕様
  0
ARC
  5
767F
330
1A
100
AcDbEntity
  8
寸法線
100
AcDbCircle
 10
332.209618367089
 20
418.087982422624
 30
0.0
 40
2.18863344375
100
AcDbArc
 50
252.903398883417
 51
337.412611017139
  0
ARC
  5
7680
330
1A
100
AcDbEntity
  8
寸法線
100
AcDbCircle
 10
326.568742265839
 20
422.217822682624
 30
0.0
 40
6.23195717625
100
AcDbArc
 50
273.280470979895
 51
33.415912335969
  0
ARC
  5
7681
330
1A
100
AcDbEntity
  8
寸法線
100
AcDbCircle
 10
334.463314487089
 20
420.968628746375
 30
0.0
 40
5.75490547125
100
AcDbArc
 50
123.469024399699
 51
239.773899120639
  0
ARC
  5
7682
330
1A
100
AcDbEntity
  8
寸法線
100
AcDbCircle
 10
331.475990634589
 20
425.491649553875
 30
0.0
 40
0.3343384687500001
100
AcDbArc
 50
28.230948369006
 51
123.883845843378
  0
ARC
  5
7693
330
1A
100
AcDbEntity
  8
寸法線
100
AcDbCircle
 10
284.604954527428
 20
551.96544300298
 30
0.0
 40
2.18863344375
100
AcDbArc
 50
252.903398883417
 51
337.412611017138
  0
ARC
  5
7694
330
1A
100
AcDbEntity
  8
寸法線
100
AcDbCircle
 10
278.964153013678
 20
556.09528326298
 30
0.0
 40
6.23195717625
100
AcDbArc
 50
273.280470979894
 51
33.415912335969
  0
ARC
  5
7695
330
1A
100
AcDbEntity
  8
寸法線
100
AcDbCircle
 10
286.858725234928
 20
554.84608932673
 30
0.0
 40
5.75490547125
100
AcDbArc
 50
123.469024399708
 51
239.773899120639
  0
ARC
  5
7696
330
1A
100
AcDbEntity
  8
寸法線
100
AcDbCircle
 10
283.871401382428
 20
559.36911013423
 30
0.0
 40
0.3343384687500001
100
AcDbArc
 50
28.230948369006
 51
123.883845843378
  0
TEXT
  5
7697
330
1A
100
AcDbEntity
  8
寸法線
100
AcDbText
 10
288.293962772428
 20
549.27797581798
 30
0.0
 40
4.9725
  1
０
 41
1.304347826087
  7
EXCADSTD
 72
     5
 11
293.266462772428
 21
549.27797581798
 31
0.0
100
AcDbText
  0
LWPOLYLINE
  5
7861
330
1A
100
AcDbEntity
  8
外形線
 48
10.0
100
AcDbPolyline
 90
        4
 70
     0
 43
0.0
 10
538.808211104737
 20
628.674534245649
 10
488.808211104737
 20
628.674534245649
 10
488.808211104737
 20
594.674534245649
 10
538.808211104737
 20
594.674534245649
  0
DIMENSION
  5
7862
330
1A
100
AcDbEntity
  8
寸法線
 48
10.0
100
AcDbDimension
  2
*D49
 10
517.018000510477
 20
594.674534245649
 30
0.0
 11
517.018000510477
 21
648.21082456823
 31
0.0
 70
   160
  3
ISO-25
100
AcDbAlignedDimension
 13
516.884025915477
 23
628.674534245649
 33
0.0
 14
517.018000510477
 24
594.674534245649
 34
0.0
 50
90.0
100
AcDbRotatedDimension
1001
ACAD
1000
DSTYLE
1002
{
1070
     5
1000
OPEN30
1070
     3
1000
φ<>
1070
    41
1040
6.0
1070
    47
1040
0.1
1070
    48
1040
0.1
1070
    73
1070
     0
1070
   140
1040
10.0
1070
   271
1070
     1
1070
   272
1070
     1
1070
   341
1005
2AF4
1002
}
  0
MTEXT
  5
7864
330
1A
100
AcDbEntity
  8
寸法線
 48
10.0
100
AcDbMText
 10
532.209108986043
 20
742.197714817512
 30
0.0
 40
10.0
 41
61.304386020114
 71
     3
 72
     5
  1
フランジ\Pアルミ鋳物
1001
ACAD
1000
MTEXTBEGIN
1070
    44
1040
0.8
1000
MTEXTEND
  0
LEADER
  5
7865
330
1A
100
AcDbEntity
  8
寸法線
 48
10.0
100
AcDbLeader
  3
ISO-25
 76
     3
 10
543.851894278336
 20
689.436903728068
 30
0.0
 10
533.189585582244
 20
717.414711228493
 30
0.0
 10
521.189585582244
 20
717.414711228493
 30
0.0
1001
ACAD
1000
DSTYLE
1002
{
1070
     5
1000
OPEN30
1070
   147
1040
0.625
1070
    77
1070
     0
1070
    41
1040
6.0
1070
    47
1040
0.1
1070
    48
1040
0.1
1070
    73
1070
     0
1070
   140
1040
8.0
1070
   271
1070
     1
1070
   272
1070
     1
1070
   341
1005
2AF4
1070
   342
1005
2AF4
1002
}
  0
DIMENSION
  5
7866
330
1A
100
AcDbEntity
  8
寸法線
 48
10.0
100
AcDbDimension
  2
*D50
 10
538.808211104737
 20
436.064177750876
 30
0.0
 11
544.808211104737
 21
436.064177750876
 31
0.0
 70
   160
  3
ISO-25
100
AcDbAlignedDimension
 13
550.808211104737
 23
534.174534245649
 33
0.0
 14
538.808211104737
 24
534.174534245649
 34
0.0
100
AcDbRotatedDimension
1001
ACAD
1000
DSTYLE
1002
{
1070
     5
1000
OPEN30
1070
    41
1040
6.0
1070
    47
1040
0.1
1070
    48
1040
0.1
1070
    73
1070
     0
1070
   140
1040
10.0
1070
   271
1070
     1
1070
   272
1070
     1
1070
   341
1005
2AF4
1002
}
  0
DIMENSION
  5
7867
330
1A
100
AcDbEntity
  8
寸法線
 48
10.0
100
AcDbDimension
  2
*D51
 10
550.808211104737
 20
436.064177750876
 30
0.0
 11
605.808211104737
 21
441.689177750876
 31
0.0
 70
    32
  3
ISO-25
100
AcDbAlignedDimension
 13
660.808211104737
 23
534.17453424565
 33
0.0
 14
550.808211104737
 24
534.174534245649
 34
0.0
100
AcDbRotatedDimension
1001
ACAD
1000
DSTYLE
1002
{
1070
     5
1000
OPEN30
1070
    41
1040
6.0
1070
    47
1040
0.1
1070
    48
1040
0.1
1070
    73
1070
     0
1070
   140
1040
10.0
1070
   271
1070
     1
1070
   272
1070
     1
1070
   341
1005
2AF4
1002
}
  0
DIMENSION
  5
7868
330
1A
100
AcDbEntity
  8
寸法線
 48
10.0
100
AcDbDimension
  2
*D52
 10
538.808211104737
 20
414.064177750876
 30
0.0
 11
700.793771084664
 21
419.699594417543
 31
0.0
 70
    32
  3
ISO-25
100
AcDbAlignedDimension
 13
862.779331064591
 23
539.674534245649
 33
0.0
 14
538.808211104737
 24
534.174534245649
 34
0.0
100
AcDbRotatedDimension
1001
ACAD
1000
DSTYLE
1002
{
1070
     5
1000
OPEN30
1070
     3
1000
（<>）
1070
    41
1040
6.0
1070
   271
1070
     1
1070
   341
1005
2AF4
1070
   272
1070
     1
1070
    73
1070
     0
1070
    48
1040
0.1
1070
    47
1040
0.1
1070
   140
1040
10.0
1002
}
  0
DIMENSION
  5
7869
330
1A
100
AcDbEntity
  8
寸法線
 48
10.0
100
AcDbDimension
  2
*D53
 10
660.808211104737
 20
436.064177750876
 30
0.0
 11
665.808211104737
 21
436.064177750876
 31
0.0
 70
   160
  3
ISO-25
100
AcDbAlignedDimension
 13
672.808211104737
 23
535.172353344101
 33
0.0
 14
660.808211104737
 24
534.17453424565
 34
0.0
100
AcDbRotatedDimension
1001
ACAD
1000
DSTYLE
1002
{
1070
     5
1000
OPEN30
1070
    41
1040
6.0
1070
    47
1040
0.1
1070
    48
1040
0.1
1070
    73
1070
     0
1070
   140
1040
10.0
1070
   271
1070
     1
1070
   272
1070
     1
1070
   341
1005
2AF4
1002
}
  0
DIMENSION
  5
786A
330
1A
100
AcDbEntity
  8
寸法線_文字
 48
10.0
100
AcDbDimension
  2
*D54
 10
846.779331064591
 20
436.064177750876
 30
0.0
 11
818.779331064591
 21
441.689177750876
 31
0.0
 70
    32
  3
ISO-25
100
AcDbAlignedDimension
 13
790.779331064591
 23
539.174534245649
 33
0.0
 14
846.779331064591
 24
539.174534245649
 34
0.0
100
AcDbRotatedDimension
1001
ACAD
1000
DSTYLE
1002
{
1070
     5
1000
OPEN30
1070
    41
1040
6.0
1070
    47
1040
0.1
1070
    48
1040
0.1
1070
    73
1070
     0
1070
   140
1040
10.0
1070
   271
1070
     1
1070
   272
1070
     1
1070
   341
1005
2AF4
1002
}
  0
LWPOLYLINE
  5
786B
330
1A
100
AcDbEntity
  8
外形線
 48
10.0
100
AcDbPolyline
 90
        4
 70
     1
 43
0.0
 10
538.808211104737
 20
534.174534245649
 10
550.808211104737
 20
534.174534245649
 10
550.808211104737
 20
689.174534245649
 10
538.808211104737
 20
689.174534245649
  0
LINE
  5
786C
330
1A
100
AcDbEntity
  8
外形線
 48
10.0
100
AcDbLine
 10
550.808211104737
 20
591.674534245649
 30
0.0
 11
572.808211104737
 21
591.674534245649
 31
0.0
  0
LINE
  5
786D
330
1A
100
AcDbEntity
  8
外形線
 48
10.0
100
AcDbLine
 10
550.808211104737
 20
631.674534245649
 30
0.0
 11
572.808211104737
 21
631.674534245649
 31
0.0
  0
HATCH
  5
786E
330
1A
100
AcDbEntity
  8
細線
 48
10.0
100
AcDbHatch
 10
0.0
 20
0.0
 30
0.0
210
0.0
220
0.0
230
1.0
  2
LINE
 70
     0
 71
     0
 91
        1
 92
        7
 72
     0
 73
     1
 93
        4
 10
635.7793310645915
 20
611.6745342456489
 10
635.7793310645915
 20
616.674534245649
 10
615.1132786047375
 20
616.6745342456489
 10
615.1132786047375
 20
611.6745342456492
 97
        0
 75
     0
 76
     1
 52
45.0
 41
1.0
 77
     0
 78
     1
 53
45.0
 43
119.7799377794121
 44
0.0
 45
-2.245064030267288
 46
2.245064030267288
 79
     0
 47
0.058980973623
 98
        1
 10
617.0770261873271
 20
613.5688880948396
  0
HATCH
  5
786F
330
1A
100
AcDbEntity
  8
細線
 48
10.0
100
AcDbHatch
 10
0.0
 20
0.0
 30
0.0
210
0.0
220
0.0
230
1.0
  2
LINE
 70
     0
 71
     0
 91
        2
 92
       23
 72
     0
 73
     1
 93
        4
 10
635.7793310645915
 20
611.6745342456492
 10
635.7793310645916
 20
616.674534245649
 10
615.1132786047375
 20
616.674534245649
 10
615.1132786047375
 20
611.674534245649
 97
        0
 92
        7
 72
     0
 73
     1
 93
        4
 10
635.7793310645915
 20
606.674534245649
 10
635.7793310645916
 20
616.674534245649
 10
615.1132786047375
 20
616.674534245649
 10
615.1132786047375
 20
606.6745342456488
 97
        0
 75
     0
 76
     1
 52
45.0
 41
1.0
 77
     0
 78
     1
 53
45.0
 43
119.7799377794121
 44
0.0
 45
-2.245064030267288
 46
2.245064030267288
 79
     0
 47
0.058980973623
 98
        2
 10
620.2641340810609
 20
613.273982989348
 10
619.6739280091991
 20
609.6171634432776
  0
LEADER
  5
7870
330
1A
100
AcDbEntity
  8
寸法線
 48
10.0
100
AcDbLeader
  3
ISO-25
 76
     3
 10
594.059002990324
 20
626.706269133553
 30
0.0
 10
577.200424270124
 20
717.414711228493
 30
0.0
 10
565.200424270124
 20
717.414711228493
 30
0.0
1001
ACAD
1000
DSTYLE
1002
{
1070
     5
1000
OPEN30
1070
   147
1040
0.625
1070
    77
1070
     0
1070
    41
1040
6.0
1070
    47
1040
0.1
1070
    48
1040
0.1
1070
    73
1070
     0
1070
   140
1040
5.0
1070
   271
1070
     1
1070
   272
1070
     1
1070
   341
1005
2AF4
1070
   342
1005
2AF4
1002
}
  0
MTEXT
  5
7871
330
1A
100
AcDbEntity
  8
寸法線
 48
10.0
100
AcDbMText
 10
547.022768850201
 20
727.913066468895
 30
0.0
 40
10.0
 41
17.617431142437
 71
     1
 72
     5
  1
BsBM
  0
DIMENSION
  5
7872
330
1A
100
AcDbEntity
  8
寸法線
 48
10.0
100
AcDbDimension
  2
*D55
 10
625.440749670552
 20
606.704378500853
 30
0.0
 11
625.440749670552
 21
639.583238008727
 31
0.0
 70
   160
  1
φ<>
  3
ISO-25
100
AcDbAlignedDimension
 13
625.440749670552
 23
616.704301000853
 33
0.0
 14
625.440749670552
 24
606.704378500853
 34
0.0
 50
90.0
100
AcDbRotatedDimension
1001
ACAD
1000
DSTYLE
1002
{
1070
     5
1000
OPEN30
1070
    41
1040
6.0
1070
    47
1040
0.1
1070
    48
1040
0.1
1070
    73
1070
     0
1070
   140
1040
10.0
1070
   271
1070
     1
1070
   272
1070
     1
1070
   341
1005
2AF4
1002
}
  0
LINE
  5
7873
330
1A
100
AcDbEntity
  8
外形線
100
AcDbLine
 10
585.147365744862
 20
606.696886101515
 30
0.0
 11
572.808211104737
 21
606.696886101515
 31
0.0
  0
LINE
  5
7874
330
1A
100
AcDbEntity
  8
外形線
100
AcDbLine
 10
585.147365744862
 20
616.696886101515
 30
0.0
 11
572.808211104737
 21
616.696886101515
 31
0.0
  0
LINE
  5
7875
330
1A
100
AcDbEntity
  8
外形線
100
AcDbLine
 10
572.808211104737
 20
631.674534245649
 30
0.0
 11
572.808211104737
 21
591.674534245649
 31
0.0
  0
LINE
  5
7876
330
1A
100
AcDbEntity
  8
外形線
100
AcDbLine
 10
615.113278604738
 20
617.462384245649
 30
0.0
 11
615.113278604738
 21
605.88660674565
 31
0.0
  0
ARC
  5
7877
330
1A
100
AcDbEntity
  8
細線
100
AcDbCircle
 10
609.493271085824
 20
611.674515656224
 30
0.0
 40
5.62000751922095
100
AcDbArc
 50
318.143885364234
 51
41.855618507182
  0
LINE
  5
7878
330
1A
100
AcDbEntity
  8
外形線
100
AcDbLine
 10
613.836118604736
 20
604.174496745649
 30
0.0
 11
615.113278604738
 21
605.88660674565
 31
0.0
  0
ARC
  5
7879
330
1A
100
AcDbEntity
  8
細線
100
AcDbCircle
 10
609.582501104736
 20
603.518024245649
 30
0.0
 40
6.016645
100
AcDbArc
 50
23.183190193917
 51
47.086301857426
  0
LINE
  5
787A
330
1A
100
AcDbEntity
  8
外形線
100
AcDbLine
 10
608.363248604736
 20
604.174496745649
 30
0.0
 11
613.836118604736
 21
604.174496745649
 31
0.0
  0
LINE
  5
787B
330
1A
100
AcDbEntity
  8
細線
100
AcDbLine
 10
608.363248604736
 20
607.924496745649
 30
0.0
 11
613.679181104737
 21
607.924496745649
 31
0.0
  0
ARC
  5
787C
330
1A
100
AcDbEntity
  8
細線
100
AcDbCircle
 10
609.582501104736
 20
619.83096674565
 30
0.0
 40
6.016645
100
AcDbArc
 50
312.913737838255
 51
336.816849501773
  0
LINE
  5
787D
330
1A
100
AcDbEntity
  8
外形線
100
AcDbLine
 10
613.836118604736
 20
619.174496745649
 30
0.0
 11
615.113278604738
 21
617.462384245649
 31
0.0
  0
LINE
  5
787E
330
1A
100
AcDbEntity
  8
外形線
100
AcDbLine
 10
608.363248604736
 20
619.174496745649
 30
0.0
 11
613.836118604736
 21
619.174496745649
 31
0.0
  0
LINE
  5
787F
330
1A
100
AcDbEntity
  8
細線
100
AcDbLine
 10
608.363248604736
 20
615.424496745649
 30
0.0
 11
613.679181104737
 21
615.424496745649
 31
0.0
  0
LINE
  5
7880
330
1A
100
AcDbEntity
  8
細線
 48
10.0
100
AcDbLine
 10
598.147365744862
 20
596.707904698553
 30
0.0
 11
598.147365744862
 21
608.674534245649
 31
0.0
  0
LINE
  5
7881
330
1A
100
AcDbEntity
  8
細線
 48
10.0
100
AcDbLine
 10
598.147365744862
 20
626.641163792745
 30
0.0
 11
598.147365744862
 21
614.674534245649
 31
0.0
  0
LINE
  5
7882
330
1A
100
AcDbEntity
  8
細線
 48
10.0
100
AcDbLine
 10
598.147365744862
 20
608.674534245649
 30
0.0
 11
593.647365744862
 21
608.674534245649
 31
0.0
  0
LINE
  5
7883
330
1A
100
AcDbEntity
  8
細線
 48
10.0
100
AcDbLine
 10
593.647365744862
 20
614.674534245649
 30
0.0
 11
593.647365744862
 21
608.674534245649
 31
0.0
  0
LINE
  5
7884
330
1A
100
AcDbEntity
  8
細線
 48
10.0
100
AcDbLine
 10
598.147365744862
 20
614.674534245649
 30
0.0
 11
593.647365744862
 21
614.674534245649
 31
0.0
  0
LINE
  5
7885
330
1A
100
AcDbEntity
  8
外形線
 48
10.0
100
AcDbLine
 10
591.147365744862
 20
596.707904698553
 30
0.0
 11
598.147365744862
 21
596.707904698553
 31
0.0
  0
LINE
  5
7886
330
1A
100
AcDbEntity
  8
外形線
 48
10.0
100
AcDbLine
 10
591.147365744862
 20
626.641163792745
 30
0.0
 11
598.147365744862
 21
626.641163792745
 31
0.0
  0
LINE
  5
7887
330
1A
100
AcDbEntity
  8
細線
100
AcDbLine
 10
599.863248604736
 20
596.707904698553
 30
0.0
 11
599.863248604736
 21
609.174534245649
 31
0.0
  0
LINE
  5
7888
330
1A
100
AcDbEntity
  8
細線
100
AcDbLine
 10
599.863248604736
 20
609.174534245649
 30
0.0
 11
595.363248604736
 21
609.174534245649
 31
0.0
  0
LINE
  5
7889
330
1A
100
AcDbEntity
  8
細線
100
AcDbLine
 10
599.863248604736
 20
626.641163792745
 30
0.0
 11
599.863248604736
 21
614.174534245649
 31
0.0
  0
LINE
  5
788A
330
1A
100
AcDbEntity
  8
外形線
100
AcDbLine
 10
602.363248604736
 20
626.641163792745
 30
0.0
 11
599.863248604736
 21
626.641163792745
 31
0.0
  0
LINE
  5
788B
330
1A
100
AcDbEntity
  8
外形線
100
AcDbLine
 10
608.363248604736
 20
621.674496745649
 30
0.0
 11
602.363248604736
 21
621.674496745649
 31
0.0
  0
LINE
  5
788C
330
1A
100
AcDbEntity
  8
外形線
100
AcDbLine
 10
591.147365744862
 20
621.674496745649
 30
0.0
 11
585.147365744862
 21
621.674496745649
 31
0.0
  0
LINE
  5
788D
330
1A
100
AcDbEntity
  8
細線
100
AcDbLine
 10
599.863248604736
 20
614.174534245649
 30
0.0
 11
595.363248604736
 21
614.174534245649
 31
0.0
  0
LINE
  5
788E
330
1A
100
AcDbEntity
  8
外形線
100
AcDbLine
 10
602.363248604736
 20
596.707904698553
 30
0.0
 11
599.863248604736
 21
596.707904698553
 31
0.0
  0
LINE
  5
788F
330
1A
100
AcDbEntity
  8
外形線
100
AcDbLine
 10
608.363248604736
 20
601.674496745649
 30
0.0
 11
602.363248604736
 21
601.674496745649
 31
0.0
  0
LINE
  5
7890
330
1A
100
AcDbEntity
  8
外形線
100
AcDbLine
 10
591.147365744862
 20
601.674496745649
 30
0.0
 11
585.147365744862
 21
601.674496745649
 31
0.0
  0
LINE
  5
7891
330
1A
100
AcDbEntity
  8
外形線
100
AcDbLine
 10
591.147365744862
 20
626.641163792745
 30
0.0
 11
591.147365744862
 21
596.707904698553
 31
0.0
  0
LINE
  5
7892
330
1A
100
AcDbEntity
  8
外形線
100
AcDbLine
 10
602.363248604736
 20
596.707904698553
 30
0.0
 11
602.363248604736
 21
626.641163792745
 31
0.0
  0
LINE
  5
7893
330
1A
100
AcDbEntity
  8
外形線
100
AcDbLine
 10
608.363248604736
 20
621.674496745649
 30
0.0
 11
608.363248604736
 21
601.674496745649
 31
0.0
  0
LINE
  5
7894
330
1A
100
AcDbEntity
  8
外形線
100
AcDbLine
 10
585.147365744862
 20
621.674496745649
 30
0.0
 11
585.147365744862
 21
601.674496745649
 31
0.0
  0
LINE
  5
7895
330
1A
100
AcDbEntity
  8
細線
100
AcDbLine
 10
595.363248604736
 20
614.174534245649
 30
0.0
 11
595.363248604736
 21
609.174534245649
 31
0.0
  0
LINE
  5
78C1
330
1A
100
AcDbEntity
  8
外形線
100
AcDbLine
 10
550.808211104737
 20
552.924534245649
 30
0.0
 11
660.808211104737
 21
552.924534245649
 31
0.0
  0
LINE
  5
78C2
330
1A
100
AcDbEntity
  8
中心線
  6
DASHDOT
100
AcDbLine
 10
687.808216193389
 20
546.674534245649
 30
0.0
 11
532.808211104737
 21
546.674534245649
 31
0.0
  0
LINE
  5
78C3
330
1A
100
AcDbEntity
  8
外形線
100
AcDbLine
 10
550.808211104737
 20
540.42453424565
 30
0.0
 11
660.808211104737
 21
540.42453424565
 31
0.0
  0
LINE
  5
78C4
330
1A
100
AcDbEntity
  8
外形線
100
AcDbLine
 10
550.808211104737
 20
682.924534245649
 30
0.0
 11
660.808211104737
 21
682.924534245649
 31
0.0
  0
LINE
  5
78C5
330
1A
100
AcDbEntity
  8
外形線
100
AcDbLine
 10
550.808211104737
 20
670.424534245649
 30
0.0
 11
660.808211104737
 21
670.424534245649
 31
0.0
  0
LINE
  5
78C6
330
1A
100
AcDbEntity
  8
中心線
  6
DASHDOT
100
AcDbLine
 10
687.808216193389
 20
676.674534245649
 30
0.0
 11
532.808211104737
 21
676.674534245649
 31
0.0
  0
LEADER
  5
78C7
330
1A
100
AcDbEntity
  8
寸法線
 48
10.0
100
AcDbLeader
  3
ISO-25
 76
     3
 10
641.377246685412
 20
631.174534245649
 30
0.0
 10
629.318099775059
 20
717.414711228493
 30
0.0
 10
617.318099775059
 20
717.414711228493
 30
0.0
1001
ACAD
1000
DSTYLE
1002
{
1070
     5
1000
OPEN30
1070
   147
1040
0.625
1070
    77
1070
     0
1070
    41
1040
6.0
1070
    47
1040
0.1
1070
    48
1040
0.1
1070
    73
1070
     0
1070
   140
1040
5.0
1070
   271
1070
     1
1070
   272
1070
     1
1070
   341
1005
2AF4
1070
   342
1005
2AF4
1002
}
  0
LEADER
  5
78C8
330
1A
100
AcDbEntity
  8
寸法線
 48
10.0
100
AcDbLeader
  3
ISO-25
 76
     3
 10
659.94455347152
 20
630.670977973682
 30
0.0
 10
644.744179103375
 20
717.414711228493
 30
0.0
 10
656.744179103375
 20
717.414711228493
 30
0.0
1001
ACAD
1000
DSTYLE
1002
{
1070
     5
1000
OPEN30
1070
   147
1040
0.625
1070
    77
1070
     0
1070
    41
1040
6.0
1070
    47
1040
0.1
1070
    48
1040
0.1
1070
    73
1070
     0
1070
   140
1040
5.0
1070
   271
1070
     1
1070
   272
1070
     1
1070
   341
1005
2AF4
1070
   342
1005
2AF4
1002
}
  0
LEADER
  5
78C9
330
1A
100
AcDbEntity
  8
寸法線
 48
10.0
100
AcDbLeader
  3
ISO-25
 76
     3
 10
666.773505071825
 20
689.257517911403
 30
0.0
 10
695.045019325461
 20
717.414711228493
 30
0.0
 10
707.045019325461
 20
717.414711228493
 30
0.0
1001
ACAD
1000
DSTYLE
1002
{
1070
     5
1000
OPEN30
1070
   147
1040
0.625
1070
    77
1070
     0
1070
    41
1040
6.0
1070
    47
1040
0.1
1070
    48
1040
0.1
1070
    73
1070
     0
1070
   140
1040
5.0
1070
   271
1070
     1
1070
   272
1070
     1
1070
   341
1005
2AF4
1070
   342
1005
2AF4
1002
}
  0
MTEXT
  5
78CA
330
1A
100
AcDbEntity
  8
寸法線
 48
10.0
100
AcDbMText
 10
695.239724254477
 20
741.566793957436
 30
0.0
 40
10.0
 41
79.577533516595
 71
     1
 72
     5
  1
フランジ\Pアルミ鋳物
1001
ACAD
1000
MTEXTBEGIN
1070
    44
1040
0.8
1000
MTEXTEND
  0
MTEXT
  5
78CB
330
1A
100
AcDbEntity
  8
寸法線
 48
10.0
100
AcDbMText
 10
645.330567203948
 20
728.744095645645
 30
0.0
 40
10.0
 41
43.610722308331
 71
     1
 72
     5
  1
Oリング
  0
MTEXT
  5
78CC
330
1A
100
AcDbEntity
  8
寸法線
 48
10.0
100
AcDbMText
 10
586.370645491574
 20
728.747318667074
 30
0.0
 40
10.0
 41
89.2
 71
     1
 72
     5
  1
SUS304
  0
LINE
  5
78D1
330
1A
100
AcDbEntity
  8
外形線
100
AcDbLine
 10
615.113278604738
 20
606.674534245649
 30
0.0
 11
635.779331064591
 21
606.674534245649
 31
0.0
  0
LINE
  5
78D2
330
1A
100
AcDbEntity
  8
中心線
 48
10.0
100
AcDbLine
 10
818.779331064591
 20
553.704128263965
 30
0.0
 11
818.779331064591
 21
451.064177750876
 31
0.0
  0
MTEXT
  5
78D3
330
1A
100
AcDbEntity
  8
寸法線
 48
10.0
100
AcDbMText
 10
845.024950841984
 20
405.016733371615
 30
0.0
 40
10.0
 41
57.713255088558
 71
     1
 72
     5
  1
G 1/2"
  0
LEADER
  5
78D4
330
1A
100
AcDbEntity
  8
寸法線
 48
10.0
100
AcDbLeader
  3
ISO-25
 76
     3
 10
823.257045597138
 20
461.064177750876
 30
0.0
 10
843.409541840171
 20
394.484675467194
 30
0.0
 10
854.562640905972
 20
394.484675467194
 30
0.0
213
-43.12471811989826
223
0.0
233
0.0
1001
ACAD
1000
DSTYLE
1002
{
1070
     5
1000
OPEN30
1070
   147
1040
0.625
1070
    77
1070
     0
1070
    41
1040
6.0
1070
    47
1040
0.1
1070
    48
1040
0.1
1070
    73
1070
     0
1070
   140
1040
5.0
1070
   271
1070
     1
1070
   272
1070
     1
1070
   341
1005
2AF4
1070
   342
1005
2AF4
1002
}
  0
DIMENSION
  5
78D5
330
1A
100
AcDbEntity
  8
寸法線_文字
 48
10.0
100
AcDbDimension
  2
*D45
 10
909.779331064592
 20
461.064177750876
 30
0.0
 11
909.779331064592
 21
572.869355998263
 31
0.0
 70
   160
  3
ISO-25
100
AcDbAlignedDimension
 13
861.779331064591
 23
684.674534245649
 33
0.0
 14
831.379331064591
 24
461.064177750876
 34
0.0
 50
90.0
100
AcDbRotatedDimension
1001
ACAD
1000
DSTYLE
1002
{
1070
     5
1000
OPEN30
1070
     3
1000
（<>）
1070
    41
1040
6.0
1070
   271
1070
     0
1070
   341
1005
2AF4
1070
   272
1070
     1
1070
    73
1070
     0
1070
    48
1040
0.1
1070
    47
1040
0.1
1070
   140
1040
10.0
1002
}
  0
LINE
  5
78D6
330
1A
100
AcDbEntity
  8
隠れ線
 48
10.0
100
AcDbLine
 10
690.779331064591
 20
590.174534245649
 30
0.0
 11
660.779331064591
 21
590.174534245649
 31
0.0
  0
LINE
  5
78D7
330
1A
100
AcDbEntity
  8
隠れ線
 48
10.0
100
AcDbLine
 10
690.779331064591
 20
633.174534245649
 30
0.0
 11
660.779331064591
 21
633.174534245649
 31
0.0
  0
LEADER
  5
78D8
330
1A
100
AcDbEntity
  8
寸法線
 48
10.0
100
AcDbLeader
  3
ISO-25
 76
     3
 10
679.203230213297
 20
633.772143089965
 30
0.0
 10
696.586974980845
 20
682.341175142617
 30
0.0
 10
708.586974980845
 20
682.341175142617
 30
0.0
1001
ACAD
1000
DSTYLE
1002
{
1070
     5
1000
OPEN30
1070
   147
1040
0.625
1070
    77
1070
     0
1070
    41
1040
6.0
1070
    47
1040
0.1
1070
    48
1040
0.1
1070
    73
1070
     0
1070
   140
1040
5.0
1070
   271
1070
     1
1070
   272
1070
     1
1070
   341
1005
2AF4
1070
   342
1005
2AF4
1002
}
  0
LEADER
  5
78D9
330
1A
100
AcDbEntity
  8
寸法線
 48
10.0
100
AcDbLeader
  3
ISO-25
 76
     3
 10
781.680345462587
 20
685.162519768283
 30
0.0
 10
778.563027507761
 20
717.414711228493
 30
0.0
 10
790.563027507761
 20
717.414711228493
 30
0.0
1001
ACAD
1000
DSTYLE
1002
{
1070
     5
1000
OPEN30
1070
   147
1040
0.625
1070
    77
1070
     0
1070
    41
1040
6.0
1070
    47
1040
0.1
1070
    48
1040
0.1
1070
    73
1070
     0
1070
   140
1040
5.0
1070
   271
1070
     1
1070
   272
1070
     1
1070
   341
1005
2AF4
1070
   342
1005
2AF4
1002
}
  0
LEADER
  5
78DA
330
1A
100
AcDbEntity
  8
寸法線
 48
10.0
100
AcDbLeader
  3
ISO-25
 76
     3
 10
820.117981495428
 20
672.125396071422
 30
0.0
 10
820.717356440312
 20
717.414711228492
 30
0.0
 10
832.717356440312
 20
717.414711228493
 30
0.0
1001
ACAD
1000
DSTYLE
1002
{
1070
     5
1000
OPEN30
1070
   147
1040
0.625
1070
    77
1070
     0
1070
    41
1040
6.0
1070
    47
1040
0.1
1070
    48
1040
0.1
1070
    73
1070
     0
1070
   140
1040
5.0
1070
   271
1070
     1
1070
   272
1070
     1
1070
   341
1005
2AF4
1070
   342
1005
2AF4
1002
}
  0
LEADER
  5
78DB
330
1A
100
AcDbEntity
  8
寸法線
 48
10.0
100
AcDbLeader
  3
ISO-25
 76
     3
 10
855.385503216283
 20
684.768734549684
 30
0.0
 10
866.91899388117
 20
717.414711228492
 30
0.0
 10
878.918993881171
 20
717.414711228493
 30
0.0
1001
ACAD
1000
DSTYLE
1002
{
1070
     5
1000
OPEN30
1070
   147
1040
0.625
1070
    77
1070
     0
1070
    41
1040
6.0
1070
    47
1040
0.1
1070
    48
1040
0.1
1070
    73
1070
     0
1070
   140
1040
5.0
1070
   271
1070
     1
1070
   272
1070
     1
1070
   341
1005
2AF4
1070
   342
1005
2AF4
1002
}
  0
MTEXT
  5
78DC
330
1A
100
AcDbEntity
  8
寸法線
 48
10.0
100
AcDbMText
 10
868.49498569356
 20
727.792713420799
 30
0.0
 40
10.0
 41
26.553641107301
 71
     1
 72
     5
  1
AC7A
  0
MTEXT
  5
78DD
330
1A
100
AcDbEntity
  8
寸法線
 48
10.0
100
AcDbMText
 10
822.047057818428
 20
727.709918942569
 30
0.0
 40
10.0
 41
26.553641107301
 71
     1
 72
     5
  1
AC7A
  0
MTEXT
  5
78DE
330
1A
100
AcDbEntity
  8
寸法線
 48
10.0
100
AcDbMText
 10
780.880085113458
 20
728.150976392273
 30
0.0
 40
10.0
 41
26.553641107301
 71
     1
 72
     5
  1
AC7A
  0
MTEXT
  5
78DF
330
1A
100
AcDbEntity
  8
寸法線
 48
10.0
100
AcDbMText
 10
697.303896847419
 20
693.788230526292
 30
0.0
 40
10.0
 41
74.696477522242
 71
     1
 72
     5
  1
固着剤使用
  0
LINE
  5
78E0
330
1A
100
AcDbEntity
  8
外形線
 48
10.0
100
AcDbLine
 10
690.779331064591
 20
579.17453424565
 30
0.0
 11
690.779331064591
 21
644.174534245649
 31
0.0
  0
DIMENSION
  5
78E1
330
1A
100
AcDbEntity
  8
寸法線_文字
 48
10.0
100
AcDbDimension
  2
*D46
 10
862.779331064591
 20
436.064177750876
 30
0.0
 11
854.779331064591
 21
441.689177750876
 31
0.0
 70
    32
  3
ISO-25
100
AcDbAlignedDimension
 13
846.779331064591
 23
539.17453424565
 33
0.0
 14
862.779331064591
 24
539.674534245649
 34
0.0
100
AcDbRotatedDimension
1001
ACAD
1000
DSTYLE
1002
{
1070
     5
1000
OPEN30
1070
    41
1040
6.0
1070
    47
1040
0.1
1070
    48
1040
0.1
1070
    73
1070
     0
1070
   140
1040
10.0
1070
   271
1070
     1
1070
   272
1070
     1
1070
   341
1005
2AF4
1002
}
  0
DIMENSION
  5
78E2
330
1A
100
AcDbEntity
  8
寸法線
 48
10.0
100
AcDbDimension
  2
*D47
 10
672.808211104737
 20
436.064177750876
 30
0.0
 11
731.793771084664
 21
441.699594417543
 31
0.0
 70
    32
  3
ISO-25
100
AcDbAlignedDimension
 13
790.779331064591
 23
539.174534245649
 33
0.0
 14
672.808211104737
 24
535.172353344101
 34
0.0
100
AcDbRotatedDimension
1001
ACAD
1000
DSTYLE
1002
{
1070
     5
1000
OPEN30
1070
    41
1040
6.0
1070
    47
1040
0.1
1070
    48
1040
0.1
1070
    73
1070
     0
1070
   140
1040
10.0
1070
   271
1070
     1
1070
   272
1070
     1
1070
   341
1005
2AF4
1002
}
  0
DIMENSION
  5
78E3
330
1A
100
AcDbEntity
  8
寸法線
 48
10.0
100
AcDbDimension
  2
*D48
 10
887.779331064591
 20
538.674534245649
 30
0.0
 11
887.779331064591
 21
609.583111918124
 31
0.0
 70
   160
  3
ISO-25
100
AcDbAlignedDimension
 13
861.779331064591
 23
684.674534245649
 33
0.0
 14
861.779331064591
 24
538.674534245649
 34
0.0
 50
90.0
100
AcDbRotatedDimension
1001
ACAD
1000
DSTYLE
1002
{
1070
     5
1000
OPEN30
1070
     3
1000
%%c<>
1070
    41
1040
6.0
1070
    47
1040
0.1
1070
    48
1040
0.1
1070
    73
1070
     0
1070
   140
1040
10.0
1070
   271
1070
     1
1070
   272
1070
     1
1070
   341
1005
2AF4
1002
}
  0
LINE
  5
78E4
330
1A
100
AcDbEntity
  8
外形線
100
AcDbLine
 10
635.779331064591
 20
616.674534245649
 30
0.0
 11
615.113278604738
 21
616.674534245649
 31
0.0
  0
LINE
  5
78E5
330
1A
100
AcDbEntity
  8
外形線
100
AcDbLine
 10
838.743032917582
 20
538.67453424565
 30
0.0
 11
846.279331064591
 21
538.674534245649
 31
0.0
  0
LINE
  5
78E6
330
1A
100
AcDbEntity
  8
外形線
 48
10.0
100
AcDbLine
 10
826.738862714554
 20
521.909477212497
 30
0.0
 11
829.424565239609
 21
521.909477212497
 31
0.0
  0
ARC
  5
78E7
330
1A
100
AcDbEntity
  8
外形線
 48
10.0
100
AcDbCircle
 10
801.243016470659
 20
501.924928958257
 30
0.0
 40
21.13927998456884
100
AcDbArc
 50
70.974760675969
 51
89.901573090859
  0
ARC
  5
78E8
330
1A
100
AcDbEntity
  8
外形線
 48
10.0
100
AcDbCircle
 10
836.315645658523
 20
501.924928958257
 30
0.0
 40
21.13927998456884
100
AcDbArc
 50
90.098426909141
 51
109.025239324031
  0
ARC
  5
78E9
330
1A
100
AcDbEntity
  8
外形線
 48
10.0
100
AcDbCircle
 10
818.779331064591
 20
495.053678374607
 30
0.0
 40
28.01049937626924
100
AcDbArc
 50
73.491210313048
 51
106.508789686952
  0
LINE
  5
78EA
330
1A
100
AcDbEntity
  8
外形線
 48
10.0
100
AcDbLine
 10
808.134096889572
 20
521.909477212497
 30
0.0
 11
810.819799414627
 21
521.909477212497
 31
0.0
  0
LINE
  5
78EB
330
1A
100
AcDbEntity
  8
外形線
 48
10.0
100
AcDbLine
 10
826.738862714554
 20
496.218878289255
 30
0.0
 11
829.424565239609
 21
496.218878289255
 31
0.0
  0
ARC
  5
78EC
330
1A
100
AcDbEntity
  8
外形線
 48
10.0
100
AcDbCircle
 10
801.243016470659
 20
516.203426543496
 30
0.0
 40
21.13927998456884
100
AcDbArc
 50
270.098426909141
 51
289.025239324031
  0
ARC
  5
78ED
330
1A
100
AcDbEntity
  8
外形線
 48
10.0
100
AcDbCircle
 10
836.315645658523
 20
516.203426543496
 30
0.0
 40
21.13927998456884
100
AcDbArc
 50
250.974760675969
 51
269.901573090846
  0
ARC
  5
78EE
330
1A
100
AcDbEntity
  8
外形線
 48
10.0
100
AcDbCircle
 10
818.779331064591
 20
523.074677127146
 30
0.0
 40
28.01049937626924
100
AcDbArc
 50
253.491210313048
 51
286.508789686952
  0
LINE
  5
78EF
330
1A
100
AcDbEntity
  8
外形線
 48
10.0
100
AcDbLine
 10
808.134096889572
 20
496.218878289255
 30
0.0
 11
810.819799414627
 21
496.218878289255
 31
0.0
  0
LINE
  5
78F0
330
1A
100
AcDbEntity
  8
外形線
 48
10.0
100
AcDbLine
 10
808.134096889572
 20
532.064177750877
 30
0.0
 11
808.134096889573
 21
539.064177750877
 31
0.0
  0
LINE
  5
78F1
330
1A
100
AcDbEntity
  8
外形線
 48
10.0
100
AcDbLine
 10
810.819799414627
 20
532.064177750877
 30
0.0
 11
810.819799414627
 21
539.064177750877
 31
0.0
  0
LINE
  5
78F2
330
1A
100
AcDbEntity
  8
外形線
 48
10.0
100
AcDbLine
 10
829.424565239609
 20
532.064177750877
 30
0.0
 11
829.424565239609
 21
539.064177750877
 31
0.0
  0
LINE
  5
78F3
330
1A
100
AcDbEntity
  8
外形線
 48
10.0
100
AcDbLine
 10
826.738862714555
 20
532.064177750877
 30
0.0
 11
826.738862714554
 21
539.064177750877
 31
0.0
  0
LINE
  5
78F4
330
1A
100
AcDbEntity
  8
外形線
 48
10.0
100
AcDbLine
 10
808.134096889572
 20
496.218878289255
 30
0.0
 11
808.134096889572
 21
521.909477212497
 31
0.0
  0
LINE
  5
78F5
330
1A
100
AcDbEntity
  8
外形線
 48
10.0
100
AcDbLine
 10
810.819799414627
 20
496.218878289255
 30
0.0
 11
810.819799414627
 21
521.909477212497
 31
0.0
  0
LINE
  5
78F6
330
1A
100
AcDbEntity
  8
外形線
 48
10.0
100
AcDbLine
 10
829.424565239609
 20
496.218878289255
 30
0.0
 11
829.424565239609
 21
521.909477212497
 31
0.0
  0
LINE
  5
78F7
330
1A
100
AcDbEntity
  8
外形線
 48
10.0
100
AcDbLine
 10
826.738862714554
 20
496.218878289255
 30
0.0
 11
826.738862714554
 21
521.909477212497
 31
0.0
  0
LINE
  5
78F8
330
1A
100
AcDbEntity
  8
外形線
 48
10.0
100
AcDbLine
 10
802.779331064591
 20
523.064177750877
 30
0.0
 11
834.779331064591
 21
523.064177750877
 31
0.0
  0
LINE
  5
78F9
330
1A
100
AcDbEntity
  8
外形線
 62
     0
100
AcDbLine
 10
834.779331064591
 20
532.064177750877
 30
0.0
 11
834.779331064591
 21
523.064177750877
 31
0.0
  0
LINE
  5
78FA
330
1A
100
AcDbEntity
  8
外形線
 48
10.0
100
AcDbLine
 10
831.879331064591
 20
461.930203154661
 30
0.0
 11
831.879331064591
 21
473.064177750876
 31
0.0
  0
LINE
  5
78FB
330
1A
100
AcDbEntity
  8
外形線
 48
10.0
100
AcDbLine
 10
803.529331064591
 20
473.064177750876
 30
0.0
 11
832.029331064591
 21
473.064177750876
 31
0.0
  0
LINE
  5
78FC
330
1A
100
AcDbEntity
  8
外形線
 48
10.0
100
AcDbLine
 10
802.779331064591
 20
532.064177750877
 30
0.0
 11
834.779331064591
 21
532.064177750877
 31
0.0
  0
LINE
  5
78FD
330
1A
100
AcDbEntity
  8
外形線
 48
10.0
100
AcDbLine
 10
827.979331064591
 20
539.064177750877
 30
0.0
 11
809.579331064591
 21
539.064177750877
 31
0.0
  0
LINE
  5
78FE
330
1A
100
AcDbEntity
  8
外形線
100
AcDbLine
 10
836.279331064591
 20
539.064177750877
 30
0.0
 11
827.979331064591
 21
539.064177750877
 31
0.0
  0
LINE
  5
78FF
330
1A
100
AcDbEntity
  8
外形線
100
AcDbLine
 10
836.279331064591
 20
539.064177750877
 30
0.0
 11
838.279331064591
 21
538.528279366014
 31
0.0
  0
LINE
  5
7900
330
1A
100
AcDbEntity
  8
外形線
 62
     0
100
AcDbLine
 10
838.279331064591
 20
538.528279366014
 30
0.0
 11
838.279331064591
 21
533.001999924385
 31
0.0
  0
LINE
  5
7901
330
1A
100
AcDbEntity
  8
外形線
100
AcDbLine
 10
801.279331064591
 20
539.064177750877
 30
0.0
 11
809.579331064591
 21
539.064177750877
 31
0.0
  0
LINE
  5
7902
330
1A
100
AcDbEntity
  8
外形線
100
AcDbLine
 10
801.279331064591
 20
539.064177750877
 30
0.0
 11
799.279331064591
 21
538.528279366014
 31
0.0
  0
LINE
  5
7903
330
1A
100
AcDbEntity
  8
外形線
 62
     0
100
AcDbLine
 10
799.279331064591
 20
538.528279366014
 30
0.0
 11
799.279331064591
 21
533.001999924385
 31
0.0
  0
LINE
  5
7904
330
1A
100
AcDbEntity
  8
外形線
 62
     0
100
AcDbLine
 10
802.779331064591
 20
532.064177750877
 30
0.0
 11
802.779331064591
 21
523.064177750877
 31
0.0
  0
LINE
  5
7905
330
1A
100
AcDbEntity
  8
外形線
100
AcDbLine
 10
805.679331064591
 20
473.064177750876
 30
0.0
 11
805.679331064591
 21
461.930203154661
 31
0.0
  0
LINE
  5
7906
330
1A
100
AcDbEntity
  8
外形線
100
AcDbLine
 10
831.379331064591
 20
461.064177750876
 30
0.0
 11
831.879331064591
 21
461.930203154661
 31
0.0
  0
LINE
  5
7907
330
1A
100
AcDbEntity
  8
外形線
100
AcDbLine
 10
806.179331064591
 20
461.064177750876
 30
0.0
 11
805.679331064591
 21
461.930203154661
 31
0.0
  0
LINE
  5
7908
330
1A
100
AcDbEntity
  8
外形線
100
AcDbLine
 10
806.179331064591
 20
461.064177750876
 30
0.0
 11
831.379331064591
 21
461.064177750876
 31
0.0
  0
LINE
  5
7909
330
1A
100
AcDbEntity
  8
外形線
100
AcDbLine
 10
801.529331064591
 20
475.064177750876
 30
0.0
 11
801.529331064591
 21
495.064177750876
 31
0.0
  0
LINE
  5
790A
330
1A
100
AcDbEntity
  8
外形線
100
AcDbLine
 10
836.029331064591
 20
475.064177750876
 30
0.0
 11
836.029331064591
 21
495.064177750876
 31
0.0
  0
ARC
  5
790B
330
1A
100
AcDbEntity
  8
外形線
100
AcDbCircle
 10
834.029331064591
 20
475.064177750876
 30
0.0
 40
2.0
100
AcDbArc
 50
270.0
 51
0.0
  0
ARC
  5
790C
330
1A
100
AcDbEntity
  8
外形線
100
AcDbCircle
 10
803.529331064591
 20
475.064177750876
 30
0.0
 40
2.0
100
AcDbArc
 50
180.0
 51
270.0
  0
LINE
  5
790D
330
1A
100
AcDbEntity
  8
外形線
100
AcDbLine
 10
836.279331064591
 20
495.064177750876
 30
0.0
 11
838.279331064591
 21
496.218878289255
 31
0.0
  0
LINE
  5
790E
330
1A
100
AcDbEntity
  8
外形線
 62
     0
100
AcDbLine
 10
836.279331064591
 20
523.064177750877
 30
0.0
 11
838.279331064591
 21
521.909477212497
 31
0.0
  0
LINE
  5
790F
330
1A
100
AcDbEntity
  8
外形線
 62
     0
100
AcDbLine
 10
801.279331064591
 20
523.064177750877
 30
0.0
 11
799.279331064591
 21
521.909477212497
 31
0.0
  0
LINE
  5
7910
330
1A
100
AcDbEntity
  8
外形線
100
AcDbLine
 10
801.279331064591
 20
495.064177750876
 30
0.0
 11
799.279331064591
 21
496.218878289255
 31
0.0
  0
LINE
  5
7911
330
1A
100
AcDbEntity
  8
外形線
100
AcDbLine
 10
801.279331064591
 20
495.064177750876
 30
0.0
 11
836.279331064591
 21
495.064177750876
 31
0.0
  0
LINE
  5
7912
330
1A
100
AcDbEntity
  8
外形線
100
AcDbLine
 10
838.279331064591
 20
521.909477212497
 30
0.0
 11
838.279331064591
 21
496.218878289255
 31
0.0
  0
LINE
  5
7913
330
1A
100
AcDbEntity
  8
外形線
100
AcDbLine
 10
799.279331064591
 20
521.909477212497
 30
0.0
 11
799.279331064591
 21
496.218878289255
 31
0.0
  0
LINE
  5
7914
330
1A
100
AcDbEntity
  8
外形線
 62
     0
100
AcDbLine
 10
836.279331064591
 20
523.064177750877
 30
0.0
 11
834.779331064591
 21
523.064177750877
 31
0.0
  0
LINE
  5
7915
330
1A
100
AcDbEntity
  8
外形線
 62
     0
100
AcDbLine
 10
802.779331064591
 20
523.064177750877
 30
0.0
 11
801.279331064591
 21
523.064177750877
 31
0.0
  0
LINE
  5
7916
330
1A
100
AcDbEntity
  8
外形線
100
AcDbLine
 10
834.029331064591
 20
473.064177750876
 30
0.0
 11
831.879331064591
 21
473.064177750876
 31
0.0
  0
LINE
  5
7917
330
1A
100
AcDbEntity
  8
外形線
100
AcDbLine
 10
834.779331064591
 20
532.064177750877
 30
0.0
 11
838.279331064591
 21
533.001999924385
 31
0.0
  0
LINE
  5
7918
330
1A
100
AcDbEntity
  8
外形線
 62
     0
100
AcDbLine
 10
802.779331064591
 20
532.064177750877
 30
0.0
 11
799.279331064591
 21
533.001999924385
 31
0.0
  0
ARC
  5
7919
330
1A
100
AcDbEntity
  8
外形線
100
AcDbCircle
 10
828.979331064591
 20
540.264177750876
 30
0.0
 40
1.2
100
AcDbArc
 50
270.0
 51
14.902994654036
  0
ARC
  5
791A
330
1A
100
AcDbEntity
  8
外形線
100
AcDbCircle
 10
808.579331064591
 20
540.264177750876
 30
0.0
 40
1.2
100
AcDbArc
 50
165.097005345964
 51
270.0
  0
HATCH
  5
791B
330
1A
100
AcDbEntity
  8
細線
 48
10.0
100
AcDbHatch
 10
0.0
 20
0.0
 30
0.0
210
0.0
220
0.0
230
1.0
  2
ANSI31
 70
     0
 71
     0
 91
       18
 92
        7
 72
     1
 73
     1
 93
        7
 10
829.3967593182218
 20
539.1391205731868
 42
-0.0890553773191663
 10
828.9793310645908
 20
539.0641777508765
 42
0.0
 10
827.9793310645908
 20
539.0641777508765
 42
0.0
 10
826.7388627145541
 20
539.0641777508765
 42
0.0
 10
826.7388627145546
 20
532.0641777508765
 42
0.0
 10
829.4245652396093
 20
532.0641777508765
 42
0.0
 10
829.4245652396093
 20
539.0641777508765
 42
0.0
 97
        0
 92
        7
 72
     0
 73
     1
 93
        7
 10
799.279331064591
 20
533.0019999243852
 10
802.779331064591
 20
532.0641777508765
 10
808.1340968895723
 20
532.0641777508765
 10
808.1340968895728
 20
539.0641777508765
 10
808.1619028109602
 20
539.0641777508765
 10
801.279331064591
 20
539.0641777508765
 10
799.279331064591
 20
538.5282793660142
 97
        0
 92
        7
 72
     0
 73
     1
 93
        7
 10
834.779331064591
 20
532.0641777508765
 10
838.279331064591
 20
533.0019999243852
 10
838.279331064591
 20
538.5282793660142
 10
836.279331064591
 20
539.0641777508765
 10
829.3967593182218
 20
539.0641777508765
 10
829.4245652396093
 20
539.0641777508765
 10
829.4245652396093
 20
532.0641777508765
 97
        0
 92
        7
 72
     1
 73
     1
 93
       11
 10
832.029331064591
 20
473.0641777508764
 42
0.0
 10
834.029331064591
 20
473.0641777508764
 42
0.414213562373095
 10
836.029331064591
 20
475.0641777508764
 42
0.0
 10
836.029331064591
 20
495.0641777508764
 42
0.0
 10
818.779331064591
 20
495.0641777508764
 42
0.0
 10
801.529331064591
 20
495.0641777508764
 42
0.0
 10
801.529331064591
 20
475.0641777508764
 42
0.414213562373095
 10
803.529331064591
 20
473.0641777508764
 42
0.0
 10
805.6793310645907
 20
473.0641777508764
 42
0.0
 10
818.779331064591
 20
473.0641777508764
 42
0.0
 10
831.8793310645909
 20
473.0641777508764
 42
0.0
 97
        0
 92
        7
 72
     1
 73
     1
 93
       10
 10
802.779331064591
 20
523.0641777508765
 42
0.0
 10
801.279331064591
 20
523.0641777508765
 42
0.0
 10
799.279331064591
 20
521.909477212497
 42
0.0
 10
799.279331064591
 20
496.2188782892555
 42
0.0
 10
801.279331064591
 20
495.0641777508764
 42
0.0
 10
801.529331064591
 20
495.0641777508764
 42
0.0
 10
801.5293052290248
 20
495.0660852486964
 42
0.0797961404903644
 10
808.1340968895732
 20
496.2188782892559
 42
0.0
 10
808.1340968895723
 20
521.909477212497
 42
0.064967344209285
 10
802.7752920809661
 20
523.0086024930104
 42
0.0
 97
        0
 92
        7
 72
     1
 73
     1
 93
       10
 10
836.279331064591
 20
523.0641777508765
 42
0.0
 10
834.779331064591
 20
523.0641777508765
 42
0.0
 10
834.7833700482164
 20
523.0086024930104
 42
0.0649673442092901
 10
829.4245652396083
 20
521.909477212497
 42
0.0
 10
829.4245652396093
 20
496.2188782892555
 42
0.0797961404903702
 10
836.0293569001573
 20
495.0660852486964
 42
0.0
 10
836.029331064591
 20
495.0641777508764
 42
0.0
 10
836.279331064591
 20
495.0641777508764
 42
0.0
 10
838.279331064591
 20
496.2188782892555
 42
0.0
 10
838.279331064591
 20
521.909477212497
 42
0.0
 97
        0
 92
        7
 72
     0
 73
     1
 93
        5
 10
806.1793310645907
 20
461.0641777508764
 10
818.779331064591
 20
461.0641777508764
 10
818.779331064591
 20
473.0641777508764
 10
805.6793310645907
 20
473.0641777508764
 10
805.6793310645907
 20
461.9302031546609
 97
        0
 92
        7
 72
     0
 73
     1
 93
        5
 10
831.3793310645909
 20
461.0641777508764
 10
831.8793310645909
 20
461.9302031546609
 10
831.8793310645909
 20
473.0641777508764
 10
818.779331064591
 20
473.0641777508764
 10
818.779331064591
 20
461.0641777508764
 97
        0
 92
        7
 72
     0
 73
     1
 93
        9
 10
802.779331064591
 20
532.0641777508765
 10
802.779331064591
 20
523.0641777508765
 10
818.779331064591
 20
523.0641777508765
 10
834.779331064591
 20
523.0641777508765
 10
834.779331064591
 20
532.0641777508765
 10
829.4245652396093
 20
532.0641777508765
 10
826.7388627145546
 20
532.0641777508765
 10
810.8197994146275
 20
532.0641777508765
 10
808.1340968895723
 20
532.0641777508765
 97
        0
 92
        7
 72
     1
 73
     1
 93
        5
 10
818.779331064591
 20
523.0641777508765
 42
0.0
 10
802.779331064591
 20
523.0641777508765
 42
0.0
 10
802.7752920809661
 20
523.0086024930104
 42
-0.064967344209285
 10
808.1340968895732
 20
521.909477212497
 42
0.0
 10
810.8197994146275
 20
521.909477212497
 42
-0.0721580311220423
 97
        0
 92
        7
 72
     1
 73
     1
 93
        6
 10
826.7388627145541
 20
496.2188782892555
 42
0.0
 10
826.7388627145541
 20
521.909477212497
 42
0.0721580311220383
 10
818.779331064591
 20
523.0641777508765
 42
0.0721580311220423
 10
810.8197994146252
 20
521.9094772124965
 42
0.0
 10
810.8197994146275
 20
496.2188782892555
 42
0.0721580311220422
 10
818.779331064591
 20
495.0641777508764
 42
0.0721580311220384
 97
        0
 92
        7
 72
     0
 73
     1
 93
        4
 10
826.7388627145541
 20
521.909477212497
 10
826.7388627145541
 20
496.2188782892555
 10
829.4245652396093
 20
496.2188782892555
 10
829.4245652396093
 20
521.909477212497
 97
        0
 92
        7
 72
     0
 73
     1
 93
        4
 10
810.8197994146275
 20
496.2188782892555
 10
810.8197994146275
 20
521.909477212497
 10
808.1340968895723
 20
521.909477212497
 10
808.1340968895723
 20
496.2188782892555
 97
        0
 92
        7
 72
     0
 73
     1
 93
        4
 10
826.7388627145546
 20
532.0641777508765
 10
826.7388627145541
 20
539.0641777508765
 10
810.8197994146275
 20
539.0641777508765
 10
810.8197994146275
 20
532.0641777508765
 97
        0
 92
        7
 72
     1
 73
     1
 93
        7
 10
810.8197994146275
 20
532.0641777508765
 42
0.0
 10
810.8197994146275
 20
539.0641777508765
 42
0.0
 10
809.5793310645907
 20
539.0641777508765
 42
0.0
 10
808.5793310645907
 20
539.0641777508765
 42
-0.0890553773190824
 10
808.1619028109602
 20
539.1391205731868
 42
0.0
 10
808.1340968895728
 20
539.0641777508765
 42
0.0
 10
808.1340968895723
 20
532.0641777508765
 42
0.0
 97
        0
 92
        7
 72
     1
 73
     1
 93
        5
 10
810.8197994146275
 20
496.2188782892555
 42
0.0
 10
808.1340968895723
 20
496.2188782892555
 42
-0.0797961404903644
 10
801.5293052290248
 20
495.0660852486964
 42
0.0
 10
801.529331064591
 20
495.0641777508764
 42
0.0
 10
818.779331064591
 20
495.0641777508764
 42
-0.0721580311220422
 97
        0
 92
        7
 72
     1
 73
     1
 93
        5
 10
836.0293569001573
 20
495.0660852486964
 42
-0.0797961404903702
 10
829.4245652396083
 20
496.2188782892559
 42
0.0
 10
826.7388627145541
 20
496.2188782892555
 42
-0.0721580311220384
 10
818.779331064591
 20
495.0641777508764
 42
0.0
 10
836.029331064591
 20
495.0641777508764
 42
0.0
 97
        0
 92
        7
 72
     1
 73
     1
 93
        5
 10
818.779331064591
 20
523.0641777508765
 42
-0.0721580311220383
 10
826.7388627145564
 20
521.9094772124965
 42
0.0
 10
829.4245652396093
 20
521.909477212497
 42
-0.0649673442092901
 10
834.7833700482164
 20
523.0086024930104
 42
0.0
 10
834.779331064591
 20
523.0641777508765
 42
0.0
 97
        0
 75
     0
 76
     1
 52
0.0
 41
1.25
 77
     0
 78
     1
 53
45.0
 43
119.7799377794121
 44
0.0
 45
-2.80633003783411
 46
2.806330037834111
 79
     0
 47
0.0
 98
       18
 10
827.7579910454305
 20
536.1566158032781
 10
803.6643983840521
 20
535.3758049299929
 10
831.3274121804492
 20
535.3758049299929
 10
811.999851689793
 20
483.8254249880539
 10
804.9544472805177
 20
509.1888808614465
 10
833.8406053585476
 20
511.6547724046929
 10
815.1702836739672
 20
468.3255352876473
 10
823.9770391855617
 20
467.2687246262559
 10
812.8085860655082
 20
525.5987142635338
 10
810.206924235721
 20
522.8057537697921
 10
817.28390499675
 20
502.4957466726344
 10
827.8520116106637
 20
510.5979617433015
 10
809.1816899260829
 20
509.5411510819101
 10
823.1846702161873
 20
535.2642605195235
 10
809.4647077284579
 20
535.3758049299929
 10
810.8503292858089
 20
495.3892797983855
 10
826.8684759072397
 20
495.2817754586446
 10
827.1942455949182
 20
522.5379356402552
1001
ACAD
1010
0.0
1020
0.0
1030
0.0
  0
ARC
  5
791C
330
1A
100
AcDbEntity
  8
外形線
 48
10.0
100
AcDbCircle
 10
818.779331064591
 20
468.635606322304
 30
0.0
 40
72.82857142857176
100
AcDbArc
 50
74.060779211365
 51
105.939220788635
  0
LINE
  5
791D
330
1A
100
AcDbEntity
  8
外形線
 48
10.0
100
AcDbLine
 10
774.779331064591
 20
668.663256010236
 30
0.0
 11
774.779331064591
 21
554.685812481062
 31
0.0
  0
LINE
  5
791E
330
1A
100
AcDbEntity
  8
外形線
 48
10.0
100
AcDbLine
 10
834.779331064591
 20
673.674534245649
 30
0.0
 11
834.779331064591
 21
549.674534245649
 31
0.0
  0
LINE
  5
791F
330
1A
100
AcDbEntity
  8
外形線
 48
10.0
100
AcDbLine
 10
846.779331064591
 20
661.674534245649
 30
0.0
 11
846.779331064591
 21
561.674534245649
 31
0.0
  0
LWPOLYLINE
  5
7920
330
1A
100
AcDbEntity
  8
外形線
100
AcDbPolyline
 90
       10
 70
     0
 43
0.0
 10
846.779331064591
 20
561.674534245649
 10
846.779331064591
 20
539.174534245649
 10
847.279331064591
 20
538.674534245649
 10
861.779331064591
 20
538.674534245649
 10
862.779331064591
 20
539.674534245649
 10
862.779331064591
 20
683.674534245649
 10
861.779331064591
 20
684.674534245649
 10
847.279331064591
 20
684.674534245649
 10
846.779331064591
 20
684.174534245649
 10
846.779331064591
 20
661.674534245649
  0
LINE
  5
7921
330
1A
100
AcDbEntity
  8
外形線
 48
10.0
100
AcDbLine
 10
790.779331064591
 20
657.174534245649
 30
0.0
 11
790.779331064591
 21
566.174534245649
 31
0.0
  0
LINE
  5
7922
330
1A
100
AcDbEntity
  8
外形線
100
AcDbLine
 10
846.279331064591
 20
538.674534245649
 30
0.0
 11
846.779331064591
 21
539.174534245649
 31
0.0
  0
LINE
  5
7923
330
1A
100
AcDbEntity
  8
外形線
100
AcDbLine
 10
846.779331064591
 20
539.174534245649
 30
0.0
 11
846.779331064591
 21
684.174534245649
 31
0.0
  0
LINE
  5
7924
330
1A
100
AcDbEntity
  8
外形線
100
AcDbLine
 10
846.779331064591
 20
684.174534245649
 30
0.0
 11
846.279331064591
 21
684.674534245649
 31
0.0
  0
LINE
  5
7925
330
1A
100
AcDbEntity
  8
外形線
100
AcDbLine
 10
846.279331064591
 20
684.674534245649
 30
0.0
 11
835.779331064591
 21
684.674534245649
 31
0.0
  0
LINE
  5
7926
330
1A
100
AcDbEntity
  8
外形線
100
AcDbLine
 10
835.779331064591
 20
684.674534245649
 30
0.0
 11
834.779331064591
 21
683.674534245649
 31
0.0
  0
LINE
  5
7927
330
1A
100
AcDbEntity
  8
外形線
100
AcDbLine
 10
834.779331064591
 20
683.674534245649
 30
0.0
 11
834.779331064591
 21
673.674534245649
 31
0.0
  0
ARC
  5
7928
330
1A
100
AcDbEntity
  8
外形線
100
AcDbCircle
 10
832.779331064591
 20
673.674534245649
 30
0.0
 40
2.0
100
AcDbArc
 50
270.0
 51
0.0
  0
ARC
  5
7929
330
1A
100
AcDbEntity
  8
外形線
100
AcDbCircle
 10
832.779331064591
 20
549.674534245649
 30
0.0
 40
2.0
100
AcDbArc
 50
0.0
 51
90.0
  0
LINE
  5
792A
330
1A
100
AcDbEntity
  8
外形線
100
AcDbLine
 10
834.779331064591
 20
539.674534245649
 30
0.0
 11
834.779331064591
 21
549.674534245649
 31
0.0
  0
LINE
  5
792B
330
1A
100
AcDbEntity
  8
外形線
100
AcDbLine
 10
798.8156292116
 20
538.674534245649
 30
0.0
 11
791.279331064591
 21
538.674534245649
 31
0.0
  0
LINE
  5
792C
330
1A
100
AcDbEntity
  8
外形線
100
AcDbLine
 10
791.279331064591
 20
538.674534245649
 30
0.0
 11
790.779331064591
 21
539.174534245649
 31
0.0
  0
LINE
  5
792D
330
1A
100
AcDbEntity
  8
外形線
100
AcDbLine
 10
790.779331064591
 20
539.174534245649
 30
0.0
 11
790.779331064591
 21
566.174534245649
 31
0.0
  0
LINE
  5
792E
330
1A
100
AcDbEntity
  8
外形線
100
AcDbLine
 10
790.779331064591
 20
684.174534245649
 30
0.0
 11
791.279331064591
 21
684.674534245649
 31
0.0
  0
LINE
  5
792F
330
1A
100
AcDbEntity
  8
外形線
100
AcDbLine
 10
791.279331064591
 20
684.674534245649
 30
0.0
 11
801.779331064591
 21
684.674534245649
 31
0.0
  0
LINE
  5
7930
330
1A
100
AcDbEntity
  8
外形線
100
AcDbLine
 10
801.779331064591
 20
684.674534245649
 30
0.0
 11
802.779331064591
 21
683.674534245649
 31
0.0
  0
LINE
  5
7931
330
1A
100
AcDbEntity
  8
外形線
100
AcDbLine
 10
802.779331064591
 20
683.674534245649
 30
0.0
 11
802.779331064591
 21
539.67453424565
 31
0.0
  0
ARC
  5
7932
330
1A
100
AcDbEntity
  8
外形線
100
AcDbCircle
 10
804.779331064591
 20
673.674534245649
 30
0.0
 40
2.0
100
AcDbArc
 50
180.0
 51
270.0
  0
LINE
  5
7933
330
1A
100
AcDbEntity
  8
外形線
100
AcDbLine
 10
804.779331064591
 20
671.674534245649
 30
0.0
 11
832.779331064591
 21
671.674534245649
 31
0.0
  0
ARC
  5
7934
330
1A
100
AcDbEntity
  8
外形線
100
AcDbCircle
 10
804.779331064591
 20
549.674534245649
 30
0.0
 40
2.0
100
AcDbArc
 50
90.0
 51
180.0
  0
LINE
  5
7935
330
1A
100
AcDbEntity
  8
外形線
100
AcDbLine
 10
804.779331064591
 20
551.674534245649
 30
0.0
 11
832.779331064591
 21
551.674534245649
 31
0.0
  0
LINE
  5
7936
330
1A
100
AcDbEntity
  8
外形線
100
AcDbLine
 10
790.779331064591
 20
657.174534245649
 30
0.0
 11
790.779331064591
 21
684.174534245649
 31
0.0
  0
ELLIPSE
  5
7938
330
1A
100
AcDbEntity
  8
外形線
 48
10.0
100
AcDbEllipse
 10
660.029331064591
 20
593.674534245649
 30
0.0
 11
5.684341886080801E-14
 21
1.000000000000028
 31
0.0
210
0.0
220
0.0
230
1.0
 40
0.75
 41
0.0
 42
6.283185307179586
  0
ELLIPSE
  5
7939
330
1A
100
AcDbEntity
  8
外形線
 48
10.0
100
AcDbEllipse
 10
660.029331064591
 20
629.674534245649
 30
0.0
 11
5.684341886080801E-14
 21
1.000000000000028
 31
0.0
210
0.0
220
0.0
230
1.0
 40
0.75
 41
0.0
 42
6.283185307179586
  0
ARC
  5
793A
330
1A
100
AcDbEntity
  8
細線
100
AcDbCircle
 10
648.476452791598
 20
611.674534245649
 30
0.0
 40
12.69712172700661
100
AcDbArc
 50
180.0
 51
200.215333896393
  0
LINE
  5
793B
330
1A
100
AcDbEntity
  8
細線
100
AcDbLine
 10
636.561466423564
 20
597.413792670593
 30
0.0
 11
636.561466423564
 21
607.287052051953
 31
0.0
  0
LINE
  5
793C
330
1A
100
AcDbEntity
  8
細線
100
AcDbLine
 10
659.279331064591
 20
597.413792670593
 30
0.0
 11
636.561466423564
 21
597.413792670593
 31
0.0
  0
LINE
  5
793D
330
1A
100
AcDbEntity
  8
細線
100
AcDbLine
 10
659.279331064591
 20
607.287052051953
 30
0.0
 11
636.561466423564
 21
607.287052051953
 31
0.0
  0
ARC
  5
793E
330
1A
100
AcDbEntity
  8
細線
100
AcDbCircle
 10
690.677544585372
 20
584.142981396246
 30
0.0
 40
55.71951496104566
100
AcDbArc
 50
166.221342641834
 51
170.150364435503
  0
ARC
  5
793F
330
1A
100
AcDbEntity
  8
細線
100
AcDbCircle
 10
648.476452791598
 20
611.674534245649
 30
0.0
 40
12.69712172700661
100
AcDbArc
 50
159.784666103607
 51
180.0
  0
LINE
  5
7940
330
1A
100
AcDbEntity
  8
細線
100
AcDbLine
 10
636.561466423564
 20
625.935275820706
 30
0.0
 11
636.561466423564
 21
616.062016439346
 31
0.0
  0
LINE
  5
7941
330
1A
100
AcDbEntity
  8
細線
100
AcDbLine
 10
659.279331064591
 20
625.935275820706
 30
0.0
 11
636.561466423564
 21
625.935275820706
 31
0.0
  0
LINE
  5
7942
330
1A
100
AcDbEntity
  8
細線
100
AcDbLine
 10
659.279331064591
 20
616.062016439345
 30
0.0
 11
636.561466423564
 21
616.062016439345
 31
0.0
  0
LINE
  5
7943
330
1A
100
AcDbEntity
  8
外形線
100
AcDbLine
 10
635.779331064591
 20
629.674534245649
 30
0.0
 11
636.645356468376
 21
631.174534245649
 31
0.0
  0
LINE
  5
7944
330
1A
100
AcDbEntity
  8
外形線
100
AcDbLine
 10
635.779331064591
 20
593.674534245649
 30
0.0
 11
636.645356468376
 21
592.174534245649
 31
0.0
  0
LINE
  5
7945
330
1A
100
AcDbEntity
  8
外形線
100
AcDbLine
 10
635.779331064591
 20
593.674534245649
 30
0.0
 11
635.779331064591
 21
629.674534245649
 31
0.0
  0
ARC
  5
7946
330
1A
100
AcDbEntity
  8
細線
100
AcDbCircle
 10
690.677544585372
 20
639.206087095052
 30
0.0
 40
55.71951496104566
100
AcDbArc
 50
189.849635564497
 51
193.778657358166
  0
LINE
  5
7947
330
1A
100
AcDbEntity
  8
外形線
100
AcDbLine
 10
659.279331064591
 20
631.174534245649
 30
0.0
 11
659.279331064591
 21
592.174534245649
 31
0.0
  0
LINE
  5
7948
330
1A
100
AcDbEntity
  8
外形線
100
AcDbLine
 10
636.645356468376
 20
631.174534245649
 30
0.0
 11
659.279331064591
 21
631.174534245649
 31
0.0
  0
LINE
  5
7949
330
1A
100
AcDbEntity
  8
外形線
100
AcDbLine
 10
659.279331064591
 20
592.174534245649
 30
0.0
 11
636.645356468376
 21
592.174534245649
 31
0.0
  0
LINE
  5
794A
330
1A
100
AcDbEntity
  8
外形線
100
AcDbLine
 10
774.779331064591
 20
683.674534245649
 30
0.0
 11
774.779331064591
 21
668.663256010236
 31
0.0
  0
LINE
  5
794B
330
1A
100
AcDbEntity
  8
外形線
100
AcDbLine
 10
775.779331064591
 20
684.674534245649
 30
0.0
 11
774.779331064591
 21
683.674534245649
 31
0.0
  0
LINE
  5
794C
330
1A
100
AcDbEntity
  8
外形線
100
AcDbLine
 10
790.279331064591
 20
684.674534245649
 30
0.0
 11
775.779331064591
 21
684.674534245649
 31
0.0
  0
LINE
  5
794D
330
1A
100
AcDbEntity
  8
外形線
100
AcDbLine
 10
790.779331064591
 20
684.174534245649
 30
0.0
 11
790.279331064591
 21
684.674534245649
 31
0.0
  0
LINE
  5
794E
330
1A
100
AcDbEntity
  8
外形線
100
AcDbLine
 10
790.779331064591
 20
539.174534245649
 30
0.0
 11
790.779331064591
 21
684.174534245649
 31
0.0
  0
LINE
  5
794F
330
1A
100
AcDbEntity
  8
外形線
100
AcDbLine
 10
790.279331064591
 20
538.674534245649
 30
0.0
 11
790.779331064591
 21
539.174534245649
 31
0.0
  0
LINE
  5
7950
330
1A
100
AcDbEntity
  8
外形線
100
AcDbLine
 10
775.779331064591
 20
538.674534245649
 30
0.0
 11
790.279331064591
 21
538.674534245649
 31
0.0
  0
LINE
  5
7951
330
1A
100
AcDbEntity
  8
外形線
100
AcDbLine
 10
774.779331064591
 20
539.674534245649
 30
0.0
 11
775.779331064591
 21
538.674534245649
 31
0.0
  0
LINE
  5
7952
330
1A
100
AcDbEntity
  8
外形線
100
AcDbLine
 10
774.779331064591
 20
554.685812481062
 30
0.0
 11
774.779331064591
 21
539.674534245649
 31
0.0
  0
LINE
  5
7953
330
1A
100
AcDbEntity
  8
細線
100
AcDbLine
 10
659.279331064591
 20
596.17453424565
 30
0.0
 11
659.779331064591
 21
596.17453424565
 31
0.0
  0
LINE
  5
7954
330
1A
100
AcDbEntity
  8
細線
100
AcDbLine
 10
659.779331064591
 20
594.67453424565
 30
0.0
 11
659.779331064591
 21
596.17453424565
 31
0.0
  0
LINE
  5
7955
330
1A
100
AcDbEntity
  8
細線
100
AcDbLine
 10
659.279331064591
 20
627.174534245649
 30
0.0
 11
659.779331064591
 21
627.174534245649
 31
0.0
  0
LINE
  5
7956
330
1A
100
AcDbEntity
  8
細線
100
AcDbLine
 10
659.779331064591
 20
628.674534245649
 30
0.0
 11
659.779331064591
 21
627.174534245649
 31
0.0
  0
LINE
  5
7958
330
1A
100
AcDbEntity
  8
外形線
100
AcDbLine
 10
659.279331064591
 20
594.674534245649
 30
0.0
 11
660.808211104737
 21
594.674534245649
 31
0.0
  0
LINE
  5
7959
330
1A
100
AcDbEntity
  8
外形線
100
AcDbLine
 10
659.279331064591
 20
628.674534245649
 30
0.0
 11
660.808211104737
 21
628.674534245649
 31
0.0
  0
ARC
  5
795B
330
1A
100
AcDbEntity
  8
外形線
100
AcDbCircle
 10
693.279331064591
 20
579.17453424565
 30
0.0
 40
2.5
100
AcDbArc
 50
180.0
 51
270.0
  0
ARC
  5
795C
330
1A
100
AcDbEntity
  8
外形線
100
AcDbCircle
 10
693.279331064591
 20
644.174534245649
 30
0.0
 40
2.5
100
AcDbArc
 50
90.0
 51
180.0
  0
ARC
  5
795D
330
1A
100
AcDbEntity
  8
外形線
100
AcDbCircle
 10
693.342859761774
 20
574.174534245649
 30
0.0
 40
2.5
100
AcDbArc
 50
4.883543378274
 51
90.0
  0
ARC
  5
795E
330
1A
100
AcDbEntity
  8
外形線
100
AcDbCircle
 10
693.342859761774
 20
649.174534245649
 30
0.0
 40
2.5
100
AcDbArc
 50
270.0
 51
355.116456621726
  0
LINE
  5
795F
330
1A
100
AcDbEntity
  8
外形線
100
AcDbLine
 10
693.342859761774
 20
576.674534245649
 30
0.0
 11
693.279331064591
 21
576.67453424565
 31
0.0
  0
LINE
  5
7960
330
1A
100
AcDbEntity
  8
外形線
100
AcDbLine
 10
693.279331064591
 20
646.674534245649
 30
0.0
 11
693.342859761774
 21
646.674534245649
 31
0.0
  0
ARC
  5
7961
330
1A
100
AcDbEntity
  8
外形線
100
AcDbCircle
 10
710.779331064591
 20
575.664322319852
 30
0.0
 40
15.0
100
AcDbArc
 50
184.883543378274
 51
267.885681217768
  0
ARC
  5
7962
330
1A
100
AcDbEntity
  8
外形線
100
AcDbCircle
 10
710.779331064591
 20
647.684746171446
 30
0.0
 40
15.0
100
AcDbArc
 50
92.114318782232
 51
175.116456621726
  0
LINE
  5
7963
330
1A
100
AcDbEntity
  8
外形線
100
AcDbLine
 10
710.225929320391
 20
560.674534245649
 30
0.0
 11
772.039219913686
 21
557.674534245649
 31
0.0
  0
LINE
  5
7964
330
1A
100
AcDbEntity
  8
外形線
100
AcDbLine
 10
710.225929320391
 20
662.674534245649
 30
0.0
 11
772.039219913686
 21
665.674534245649
 31
0.0
  0
ARC
  5
7965
330
1A
100
AcDbEntity
  8
外形線
100
AcDbCircle
 10
771.779331064591
 20
554.685812481062
 30
0.0
 40
2.999999999999992
100
AcDbArc
 50
0.0
 51
85.030259271885
  0
HATCH
  5
7966
330
1A
100
AcDbEntity
  8
細線
 48
10.0
100
AcDbHatch
 10
0.0
 20
0.0
 30
0.0
210
0.0
220
0.0
230
1.0
  2
ANSI31
 70
     0
 71
     0
 91
        4
 92
        7
 72
     0
 73
     1
 93
        4
 10
659.2793310645915
 20
594.674534245649
 10
659.7793310645915
 20
594.674534245649
 10
659.7793310645915
 20
596.1745342456495
 10
659.2793310645915
 20
596.1745342456495
 97
        0
 92
        7
 72
     0
 73
     1
 93
        6
 10
659.2793310645915
 20
596.1745342456495
 10
659.7793310645915
 20
596.1745342456495
 10
659.7793310645915
 20
594.6745342456495
 10
660.7793310645915
 20
594.674534245649
 10
660.7793310645915
 20
611.6745342456493
 10
659.2793310645915
 20
611.6745342456493
 97
        0
 92
        7
 72
     0
 73
     1
 93
        4
 10
659.2793310645915
 20
627.174534245649
 10
659.7793310645915
 20
627.174534245649
 10
659.7793310645915
 20
628.674534245649
 10
659.2793310645915
 20
628.674534245649
 97
        0
 92
        7
 72
     0
 73
     1
 93
        6
 10
659.7793310645915
 20
627.174534245649
 10
659.2793310645915
 20
627.174534245649
 10
659.2793310645915
 20
611.6745342456493
 10
660.7793310645915
 20
611.6745342456493
 10
660.7793310645915
 20
628.674534245649
 10
659.7793310645915
 20
628.674534245649
 97
        0
 75
     0
 76
     1
 52
0.0
 41
1.0
 77
     0
 78
     1
 53
45.0
 43
-311.8179592142984
 44
117.4852868404897
 45
-2.245064030267288
 46
2.245064030267288
 79
     0
 47
0.0
 98
        4
 10
659.435695560472
 20
627.702536029939
 10
659.5077770269735
 20
595.4821205037852
 10
660.5169175579939
 20
627.0538028314259
 10
659.8681843594808
 20
610.1867396700836
1001
ACAD
1010
0.0
1020
0.0
1030
0.0
  0
HATCH
  5
7967
330
1A
100
AcDbEntity
  8
細線
 48
10.0
100
AcDbHatch
 10
0.0
 20
0.0
 30
0.0
210
0.0
220
0.0
230
1.0
  2
ANSI31
 70
     0
 71
     0
 91
        8
 92
        7
 72
     1
 73
     1
 93
        5
 10
636.5614664235642
 20
597.4137926705923
 42
0.0171452713841633
 10
635.7793310645909
 20
593.6745342456481
 42
0.0
 10
636.6453564683756
 20
592.174534245649
 42
0.0
 10
659.2793310645915
 20
592.174534245649
 42
0.0
 10
659.2793310645915
 20
597.4137926705928
 42
0.0
 97
        0
 92
        7
 72
     1
 73
     1
 93
        4
 10
635.7793310645909
 20
593.6745342456481
 42
-0.0171452713841633
 10
636.5614664235642
 20
597.4137926705923
 42
0.0
 10
636.5614664235644
 20
607.287052051953
 42
-0.088435504736872
 10
635.7793310645915
 20
611.674534245649
 42
0.0
 97
        0
 92
        7
 72
     0
 73
     1
 93
        4
 10
636.5614664235644
 20
597.4137926705928
 10
659.2793310645915
 20
597.4137926705928
 10
659.2793310645915
 20
607.287052051953
 10
636.5614664235644
 20
607.287052051953
 97
        0
 92
        7
 72
     1
 73
     1
 93
        4
 10
636.5614664235648
 20
616.0620164393458
 42
0.088435504736872
 10
635.7793310645915
 20
611.674534245649
 42
0.0
 10
659.2793310645915
 20
611.6745342456493
 42
0.0
 10
659.2793310645915
 20
616.0620164393451
 42
0.0
 97
        0
 92
        7
 72
     1
 73
     1
 93
        4
 10
635.7793310645915
 20
611.674534245649
 42
-0.088435504736872
 10
636.5614664235648
 20
616.0620164393458
 42
0.0
 10
636.5614664235644
 20
625.9352758207058
 42
-0.0171452713841626
 10
635.7793310645909
 20
629.6745342456504
 42
0.0
 97
        0
 92
        7
 72
     1
 73
     1
 93
        5
 10
659.2793310645915
 20
631.174534245649
 42
0.0
 10
636.6453564683756
 20
631.174534245649
 42
0.0
 10
635.7793310645915
 20
629.674534245649
 42
0.0171452713841626
 10
636.5614664235641
 20
625.9352758207062
 42
0.0
 10
659.2793310645915
 20
625.9352758207058
 42
0.0
 97
        0
 92
        7
 72
     1
 73
     1
 93
        4
 10
636.5614664235644
 20
607.287052051953
 42
0.0
 10
659.2793310645915
 20
607.287052051953
 42
0.0
 10
659.2793310645915
 20
611.6745342456493
 42
0.0
 10
635.7793310645915
 20
611.6745342456493
 42
0.088435504736872
 97
        0
 92
        7
 72
     0
 73
     1
 93
        4
 10
659.2793310645915
 20
625.9352758207058
 10
636.5614664235644
 20
625.9352758207058
 10
636.5614664235644
 20
616.0620164393456
 10
659.2793310645915
 20
616.0620164393451
 97
        0
 75
     0
 76
     1
 52
0.0
 41
1.25
 77
     0
 78
     1
 53
45.0
 43
119.7799377794121
 44
0.0
 45
-2.80633003783411
 46
2.806330037834111
 79
     0
 47
0.0
 98
        8
 10
644.1544246621619
 20
594.4729799727647
 10
652.8956576070347
 20
628.7330991728036
 10
635.896887190101
 20
624.5738255601498
 10
636.225463347001
 20
603.6273262184504
 10
651.1776967670254
 20
614.2660605200942
 10
642.0453786175025
 20
623.5792166527758
 10
640.5503513370887
 20
603.6994076849519
 10
643.2173655976429
 20
610.1146582035822
1001
ACAD
1010
0.0
1020
0.0
1030
0.0
  0
HATCH
  5
7968
330
1A
100
AcDbEntity
  8
細線
 48
10.0
100
AcDbHatch
 10
0.0
 20
0.0
 30
0.0
210
0.0
220
0.0
230
1.0
  2
ANSI31
 70
     0
 71
     0
 91
        7
 92
        7
 72
     0
 73
     1
 93
        7
 10
846.7793310645915
 20
561.674534245649
 10
846.7793310645915
 20
539.174534245649
 10
847.2793310645915
 20
538.674534245649
 10
861.7793310645915
 20
538.674534245649
 10
862.7793310645915
 20
539.674534245649
 10
862.7793310645915
 20
611.6745342456493
 10
846.7793310645915
 20
611.6745342456493
 97
        0
 92
        7
 72
     1
 73
     1
 93
        9
 10
846.7793310645915
 20
539.174534245649
 42
0.0
 10
846.7793310645915
 20
561.674534245649
 42
0.0
 10
846.7793310645915
 20
611.6745342456493
 42
0.0
 10
834.7793310645915
 20
611.6745342456493
 42
0.0
 10
834.7793310645915
 20
549.674534245649
 42
0.0
 10
834.7793310645915
 20
539.674534245649
 42
0.0
 10
834.781551037244
 20
539.6843907754771
 42
-0.0140363087987104
 10
838.743032917582
 20
538.674534245649
 42
0.0
 10
846.2793310645915
 20
538.674534245649
 42
0.0
 97
        0
 92
        7
 72
     0
 73
     1
 93
        7
 10
862.7793310645915
 20
683.674534245649
 10
861.7793310645915
 20
684.674534245649
 10
847.2793310645915
 20
684.674534245649
 10
846.7793310645915
 20
684.174534245649
 10
846.7793310645915
 20
661.674534245649
 10
846.7793310645915
 20
611.6745342456493
 10
862.7793310645915
 20
611.6745342456493
 97
        0
 92
        7
 72
     0
 73
     1
 93
        8
 10
846.7793310645915
 20
661.674534245649
 10
846.7793310645915
 20
684.174534245649
 10
846.2793310645915
 20
684.674534245649
 10
835.7793310645915
 20
684.674534245649
 10
834.7793310645915
 20
683.674534245649
 10
834.7793310645915
 20
673.674534245649
 10
834.7793310645915
 20
611.6745342456493
 10
846.7793310645915
 20
611.6745342456493
 97
        0
 92
        7
 72
     1
 73
     1
 93
        6
 10
804.7793310645915
 20
551.674534245649
 42
0.0
 10
832.7793310645915
 20
551.674534245649
 42
-0.414213562373095
 10
834.7793310645915
 20
549.674534245649
 42
0.0
 10
834.7793310645915
 20
611.6745342456493
 42
0.0
 10
802.7793310645912
 20
611.6745342456493
 42
0.0
 10
802.7793310645915
 20
549.674534245649
 42
-0.414213562373095
 97
        0
 92
        7
 72
     1
 73
     1
 93
        8
 10
832.7793310645915
 20
551.674534245649
 42
0.0
 10
804.7793310645915
 20
551.674534245649
 42
0.414213562373095
 10
802.7793310645915
 20
549.674534245649
 42
0.0
 10
802.7793310645915
 20
539.6745342456495
 42
0.0
 10
802.7793310645915
 20
539.6848907404221
 42
-0.1112133461715754
 10
834.781551037244
 20
539.6843907754771
 42
0.0
 10
834.7793310645915
 20
539.674534245649
 42
0.0
 10
834.7793310645915
 20
549.674534245649
 42
0.414213562373095
 97
        0
 92
        7
 72
     1
 73
     1
 93
        6
 10
834.7793310645915
 20
673.674534245649
 42
-0.414213562373095
 10
832.7793310645915
 20
671.674534245649
 42
0.0
 10
804.7793310645915
 20
671.674534245649
 42
-0.414213562373095
 10
802.7793310645915
 20
673.674534245649
 42
0.0
 10
802.7793310645912
 20
611.6745342456493
 42
0.0
 10
834.7793310645915
 20
611.6745342456493
 42
0.0
 97
        0
 75
     0
 76
     1
 52
0.0
 41
1.25
 77
     0
 78
     1
 53
45.0
 43
119.7799377794121
 44
0.0
 45
-2.80633003783411
 46
2.806330037834111
 79
     0
 47
0.0
 98
        7
 10
822.3391440726876
 20
594.582797521449
 10
825.5911677015314
 20
547.1032525403293
 10
827.8675842417218
 20
627.1030338098874
 10
842.1764882086349
 20
603.3632613193274
 10
837.9488574911378
 20
630.6802598016156
 10
859.0870110786226
 20
594.9079998843335
 10
858.436606352854
 20
627.1030338098874
1001
ACAD
1010
0.0
1020
0.0
1030
0.0
  0
ARC
  5
7969
330
1A
100
AcDbEntity
  8
外形線
100
AcDbCircle
 10
771.779331064591
 20
668.663256010236
 30
0.0
 40
2.999999999999992
100
AcDbArc
 50
274.969740728115
 51
0.0
  0
HATCH
  5
796A
330
1A
100
AcDbEntity
  8
細線
 48
10.0
100
AcDbHatch
 10
0.0
 20
0.0
 30
0.0
210
0.0
220
0.0
230
1.0
  2
ANSI31
 70
     0
 71
     0
 91
        2
 92
        7
 72
     1
 73
     1
 93
       13
 10
710.225929320391
 20
560.674534245649
 42
0.0
 10
772.0392199136858
 20
557.674534245649
 42
-0.3890307372446858
 10
774.779331064591
 20
554.6858124810622
 42
0.0
 10
774.779331064591
 20
611.6745342456493
 42
0.0
 10
690.7793412175155
 20
611.6745342456493
 42
0.0
 10
690.7793412175155
 20
590.1745342456493
 42
0.0
 10
690.7793412175155
 20
589.7179289552935
 42
0.0
 10
690.7793412175155
 20
587.3745319773436
 42
0.0
 10
690.7793310645915
 20
587.3745319773436
 42
0.0
 10
690.7793310645915
 20
579.1745342456495
 42
0.414213562373095
 10
693.2793310645915
 20
576.6745342456495
 42
0.0
 10
693.3428597617743
 20
576.674534245649
 42
-0.3894638293893796
 10
695.8337842336053
 20
574.3873611133924
 42
0.3788767757664114
 97
        0
 92
        7
 72
     1
 73
     1
 93
       13
 10
774.779331064591
 20
611.6745342456493
 42
0.0
 10
774.779331064591
 20
668.6632560102364
 42
-0.389030737244686
 10
772.0392199136858
 20
665.6745342456495
 42
0.0
 10
710.225929320391
 20
662.674534245649
 42
0.3788767757664114
 10
695.8337842336053
 20
648.9617073779061
 42
-0.3894638293893795
 10
693.3428597617743
 20
646.674534245649
 42
0.0
 10
693.2793310645915
 20
646.674534245649
 42
0.414213562373095
 10
690.7793310645915
 20
644.174534245649
 42
0.0
 10
690.7793412175155
 20
644.174534245649
 42
0.0
 10
690.7793412175155
 20
635.9745394773433
 42
0.0
 10
690.7793412175155
 20
633.6311449993934
 42
0.0
 10
690.7793412175155
 20
633.174534245649
 42
0.0
 10
690.7793412175155
 20
611.6745342456493
 42
0.0
 97
        0
 75
     0
 76
     1
 52
0.0
 41
1.25
 77
     0
 78
     1
 53
45.0
 43
119.7799377794121
 44
0.0
 45
-2.80633003783411
 46
2.806330037834111
 79
     0
 47
0.0
 98
        2
 10
732.1047225644505
 20
593.4211206217158
 10
723.0831772851019
 20
637.1756152265559
1001
ACAD
1010
0.0
1020
0.0
1030
0.0
  0
HATCH
  5
796B
330
1A
100
AcDbEntity
  8
細線
 48
10.0
100
AcDbHatch
 10
0.0
 20
0.0
 30
0.0
210
0.0
220
0.0
230
1.0
  2
ANSI31
 70
     0
 71
     0
 91
        6
 92
        7
 72
     0
 73
     1
 93
        8
 10
774.779331064591
 20
668.6632560102364
 10
774.779331064591
 20
611.6745342456493
 10
790.7793310645912
 20
611.6745342456493
 10
790.779331064591
 20
657.174534245649
 10
790.7793310645915
 20
684.174534245649
 10
790.279331064591
 20
684.674534245649
 10
775.779331064591
 20
684.674534245649
 10
774.779331064591
 20
683.674534245649
 97
        0
 92
        7
 72
     0
 73
     1
 93
        5
 10
660.7793310645915
 20
633.174534245649
 10
660.7793310645915
 20
628.6745342456495
 10
660.7793310645915
 20
611.6745342456493
 10
690.7793310645915
 20
611.6745342456493
 10
690.7793310645915
 20
633.174534245649
 97
        0
 92
        7
 72
     0
 73
     1
 93
        7
 10
790.779331064591
 20
657.174534245649
 10
790.7793310645912
 20
611.6745342456493
 10
802.7793310645912
 20
611.6745342456493
 10
802.779331064591
 20
683.674534245649
 10
801.779331064591
 20
684.674534245649
 10
791.2793310645915
 20
684.674534245649
 10
790.7793310645915
 20
684.174534245649
 97
        0
 92
        7
 72
     0
 73
     1
 93
        8
 10
790.279331064591
 20
538.674534245649
 10
790.779331064591
 20
539.174534245649
 10
790.779331064591
 20
566.174534245649
 10
790.7793310645912
 20
611.6745342456493
 10
774.779331064591
 20
611.6745342456493
 10
774.779331064591
 20
554.6858124810622
 10
774.779331064591
 20
539.674534245649
 10
775.779331064591
 20
538.674534245649
 97
        0
 92
        7
 72
     0
 73
     1
 93
        5
 10
660.7793310645915
 20
590.1745342456493
 10
690.7793310645915
 20
590.1745342456493
 10
690.7793310645915
 20
611.6745342456493
 10
660.7793310645915
 20
611.6745342456493
 10
660.7793310645915
 20
594.674534245649
 97
        0
 92
        7
 72
     1
 73
     1
 93
        8
 10
790.779331064591
 20
539.174534245649
 42
0.0
 10
791.279331064591
 20
538.674534245649
 42
0.0
 10
798.8156292115999
 20
538.674534245649
 42
-0.0140441217489112
 10
802.7793310645915
 20
539.6848907404221
 42
0.0
 10
802.7793310645915
 20
539.6745342456495
 42
0.0
 10
802.7793310645912
 20
611.6745342456493
 42
0.0
 10
790.7793310645912
 20
611.6745342456493
 42
0.0
 10
790.7793310645915
 20
566.174534245649
 42
0.0
 97
        0
 75
     0
 76
     1
 52
0.0
 41
1.25
 77
     0
 78
     1
 53
45.0
 43
119.7799377794121
 44
0.0
 45
-2.80633003783411
 46
2.806330037834111
 79
     0
 47
0.0
 98
       10
 10
763.1523140277299
 20
623.2006054552749
 10
755.3474573185048
 20
595.2332022472178
 10
666.8924146139526
 20
602.7128565935589
 10
667.5428193397212
 20
621.574593640853
 10
784.2904676152147
 20
599.4608329647149
 10
797.9489668563587
 20
601.0868447791368
 10
784.9408723409837
 20
630.0298550758469
 10
795.9977526790525
 20
631.981069253153
 10
681.8517233066342
 20
624.8266172696967
 10
681.5265209437497
 20
604.0136660450962
1001
ACAD
1010
0.0
1020
0.0
1030
0.0
  0
LEADER
  5
796C
330
1A
100
AcDbEntity
  8
寸法線
 48
10.0
100
AcDbLeader
  3
ISO-25
 76
     2
 10
802.0
 20
473.888945409045
 30
0.0
 10
741.585478366982
 20
375.029478507719
 30
0.0
213
0.0
223
-4.010673062364845
233
0.0
1001
ACAD
1000
DSTYLE
1002
{
1070
     5
1000
OPEN30
1070
   147
1040
0.625
1070
    77
1070
     0
1070
    41
1040
6.0
1070
    47
1040
0.1
1070
    48
1040
0.1
1070
    73
1070
     0
1070
   140
1040
8.0
1070
   271
1070
     1
1070
   272
1070
     1
1070
   341
1005
2AF4
1070
   342
1005
2AF4
1002
}
  0
LINE
  5
796D
330
1A
100
AcDbEntity
  8
寸法線_文字
 48
10.0
100
AcDbLine
 10
741.585478366982
 20
375.029478507719
 30
0.0
 11
741.585478366982
 21
334.345655727556
 31
0.0
  0
MTEXT
  5
796E
330
1A
100
AcDbEntity
  8
寸法線
 48
10.0
100
AcDbMText
 10
782.245742978573
 20
358.663426709782
 30
0.0
 40
8.4
 41
178.158537710773
 71
     1
 72
     5
  1
SXC-16B-1\PSXC-16B-2
  0
MTEXT
  5
796F
330
1A
100
AcDbEntity
  8
寸法線
 48
10.0
100
AcDbMText
 10
744.467720267414
 20
372.66013816505
 30
0.0
 40
8.4
 41
39.04500251385
 71
     1
 72
     5
  1
御仕様
  0
LINE
  5
7970
330
1A
100
AcDbEntity
  8
寸法線
 48
10.0
100
AcDbLine
 10
776.155743695089
 20
375.029478507719
 30
0.0
 11
776.155743695089
 21
334.345655727556
 31
0.0
  0
LINE
  5
7971
330
1A
100
AcDbEntity
  8
寸法線
 48
10.0
100
AcDbLine
 10
840.616903585472
 20
375.029478507719
 30
0.0
 11
840.616903585472
 21
334.345655727556
 31
0.0
  0
TEXT
  5
7972
330
1A
100
AcDbEntity
  8
寸法線
 48
10.0
100
AcDbText
 10
778.227620709216
 20
364.250968864103
 30
0.0
 40
8.4
  1
ケーブルグランド型式
 41
0.600158661747
 72
     5
 11
837.715347261572
 21
364.250968864103
 31
0.0
100
AcDbText
  0
MTEXT
  5
7973
330
1A
100
AcDbEntity
  8
寸法線
 48
10.0
100
AcDbMText
 10
870.135869389862
 20
348.496719356508
 30
0.0
 40
8.4
 41
103.552
 71
     5
 72
     5
  1
φ10～φ12\Pφ8～φ10
  0
TEXT
  5
7974
330
1A
100
AcDbEntity
  8
寸法線
 48
10.0
100
AcDbText
 10
744.078858047076
 20
322.558928523864
 30
0.0
 40
8.4
  1
○印が今回の貴社の御仕様です。
100
AcDbText
  0
LINE
  5
7975
330
1A
100
AcDbEntity
  8
寸法線
 48
10.0
100
AcDbLine
 10
902.399548859687
 20
375.029478507719
 30
0.0
 11
902.399548859687
 21
334.345655727556
 31
0.0
  0
LINE
  5
7976
330
1A
100
AcDbEntity
  8
寸法線
 48
10.0
100
AcDbLine
 10
741.585478366982
 20
375.029478507719
 30
0.0
 11
902.399548859687
 21
375.029478507719
 31
0.0
  0
LINE
  5
7977
330
1A
100
AcDbEntity
  8
寸法線
 48
10.0
100
AcDbLine
 10
741.585478366982
 20
361.840819288331
 30
0.0
 11
902.399548859687
 21
361.840819288331
 31
0.0
  0
LINE
  5
7978
330
1A
100
AcDbEntity
  8
寸法線
 48
10.0
100
AcDbLine
 10
741.585478366982
 20
348.093237507943
 30
0.0
 11
902.399548859687
 21
348.093237507943
 31
0.0
  0
LINE
  5
7979
330
1A
100
AcDbEntity
  8
寸法線
 48
10.0
100
AcDbLine
 10
741.585478366982
 20
334.345655727556
 30
0.0
 11
902.399548859687
 21
334.345655727556
 31
0.0
  0
TEXT
  5
797A
330
1A
100
AcDbEntity
  8
寸法線
 48
10.0
100
AcDbText
 10
843.794717536362
 20
364.250968864103
 30
0.0
 40
8.4
  1
適合ケーブル範囲
 41
0.711985775428
 72
     5
 11
899.614402329937
 21
364.250968864103
 31
0.0
100
AcDbText
  0
TEXT
  5
7E21
330
1A
100
AcDbEntity
  8
寸法線
100
AcDbText
 10
75.758819408869
 20
237.678156530273
 30
0.0
 40
10.0
  1
１００   ０
 41
0.593716175771
  7
EXCADSTD
 72
     5
 11
112.371316914741
 21
237.678156530273
 31
0.0
100
AcDbText
  0
CIRCLE
  5
7E22
330
1A
100
AcDbEntity
  8
寸法線
100
AcDbCircle
 10
110.552864869489
 20
253.205724030273
 30
0.0
 40
3.75
  0
CIRCLE
  5
7E23
330
1A
100
AcDbEntity
  8
寸法線
100
AcDbCircle
 10
110.552864869489
 20
253.205724030273
 30
0.0
 40
1.9999975
  0
CIRCLE
  5
7E24
330
1A
100
AcDbEntity
  8
寸法線
100
AcDbCircle
 10
85.562857369489
 20
253.205724030273
 30
0.0
 40
3.75
  0
CIRCLE
  5
7E25
330
1A
100
AcDbEntity
  8
寸法線
100
AcDbCircle
 10
85.562857369489
 20
253.205724030273
 30
0.0
 40
1.9999975
  0
CIRCLE
  5
7E26
330
1A
100
AcDbEntity
  8
寸法線
100
AcDbCircle
 10
60.929832369489
 20
253.205724030273
 30
0.0
 40
3.75
  0
CIRCLE
  5
7E27
330
1A
100
AcDbEntity
  8
寸法線
100
AcDbCircle
 10
60.929832369489
 20
253.205724030273
 30
0.0
 40
1.9999975
  0
CIRCLE
  5
7E28
330
1A
100
AcDbEntity
  8
寸法線
100
AcDbCircle
 10
35.047339869489
 20
253.205724030273
 30
0.0
 40
3.75
  0
CIRCLE
  5
7E29
330
1A
100
AcDbEntity
  8
寸法線
100
AcDbCircle
 10
35.047339869489
 20
253.205724030273
 30
0.0
 40
1.9999975
  0
CIRCLE
  5
7E2A
330
1A
100
AcDbEntity
  8
寸法線
100
AcDbCircle
 10
9.164847369489
 20
253.205724030273
 30
0.0
 40
3.75
  0
TEXT
  5
7E2B
330
1A
100
AcDbEntity
  8
寸法線
100
AcDbText
 10
79.195137369489
 20
305.010036530273
 30
0.0
 40
11.206896551724
  1
シ　ロ
  7
EXCADVERT
 72
     3
 11
79.195137369489
 21
272.510036530273
 31
0.0
100
AcDbText
  0
TEXT
  5
7E2C
330
1A
100
AcDbEntity
  8
寸法線
100
AcDbText
 10
-38.065222630511
 20
224.496179030273
 30
0.0
 40
10.0
  1
接地端子
 41
0.869565217391
  7
EXCADSTD
 72
     5
 11
1.934777369489
 21
224.496179030273
 31
0.0
100
AcDbText
  0
TEXT
  5
7E2D
330
1A
100
AcDbEntity
  8
寸法線
100
AcDbText
 10
-19.657801706798
 20
237.746454030273
 30
0.0
 40
10.0
  1
E
100
AcDbText
  0
CIRCLE
  5
7E2E
330
1A
100
AcDbEntity
  8
寸法線
100
AcDbCircle
 10
-16.717642630511
 20
253.205724030273
 30
0.0
 40
1.9999975
  0
TEXT
  5
7E2F
330
1A
100
AcDbEntity
  8
寸法線
100
AcDbText
 10
104.053764869489
 20
305.010036530273
 30
0.0
 40
10.955056179775
  1
ク　ロ
  7
EXCADVERT
 72
     3
 11
104.053764869489
 21
272.510036530273
 31
0.0
100
AcDbText
  0
TEXT
  5
7E30
330
1A
100
AcDbEntity
  8
寸法線
100
AcDbText
 10
2.944222369489
 20
305.010036530273
 30
0.0
 40
9.393939398455
  1
ミドリ
  7
EXCADVERT
 72
     3
 11
2.944222369489
 21
274.010036515371
 31
0.0
100
AcDbText
  0
TEXT
  5
7E31
330
1A
100
AcDbEntity
  8
寸法線
100
AcDbText
 10
54.882164869489
 20
305.010036530273
 30
0.0
 40
10.051546391753
  1
ア　カ
  7
EXCADVERT
 72
     3
 11
54.882164869489
 21
272.510036530273
 31
0.0
100
AcDbText
  0
CIRCLE
  5
7E32
330
1A
100
AcDbEntity
  8
寸法線
100
AcDbCircle
 10
110.562324869489
 20
340.357251530273
 30
0.0
 40
11.4722475
  0
LINE
  5
7E33
330
1A
100
AcDbEntity
  8
寸法線
100
AcDbLine
 10
85.562857369489
 20
333.461709030273
 30
0.0
 11
87.562827369489
 21
351.737676530272
 31
0.0
  0
LINE
  5
7E34
330
1A
100
AcDbEntity
  8
寸法線
100
AcDbLine
 10
35.047339869489
 20
333.461709030273
 30
0.0
 11
27.229882369489
 21
351.737676530272
 31
0.0
  0
CIRCLE
  5
7E35
330
1A
100
AcDbEntity
  8
寸法線
100
AcDbCircle
 10
85.562857369489
 20
351.737676530272
 30
0.0
 40
2.0000075
  0
LINE
  5
7E36
330
1A
100
AcDbEntity
  8
寸法線
100
AcDbLine
 10
85.562857369489
 20
378.370709030273
 30
0.0
 11
85.562857369489
 21
353.737684030273
 31
0.0
  0
CIRCLE
  5
7E37
330
1A
100
AcDbEntity
  8
寸法線
100
AcDbCircle
 10
44.864844869489
 20
351.737676530272
 30
0.0
 40
2.0000075
  0
LINE
  5
7E38
330
1A
100
AcDbEntity
  8
寸法線
100
AcDbLine
 10
44.864844869489
 20
378.370709030273
 30
0.0
 11
44.864844869489
 21
353.737684030273
 31
0.0
  0
CIRCLE
  5
7E39
330
1A
100
AcDbEntity
  8
寸法線
100
AcDbCircle
 10
25.229834869489
 20
351.737676530272
 30
0.0
 40
2.0000075
  0
TEXT
  5
7E3A
330
1A
100
AcDbEntity
  8
寸法線
100
AcDbText
 10
31.312440264141
 20
237.992277778488
 30
0.0
 40
10.0
  1
C
100
AcDbText
  0
TEXT
  5
7E3B
330
1A
100
AcDbEntity
  8
寸法線
100
AcDbText
 10
56.734430912297
 20
238.242292778488
 30
0.0
 40
10.0
  1
H
100
AcDbText
  0
TEXT
  5
7E3C
330
1A
100
AcDbEntity
  8
寸法線
100
AcDbText
 10
5.74939276414
 20
238.054782778488
 30
0.0
 40
10.0
  1
L
100
AcDbText
  0
CIRCLE
  5
7E3D
330
1A
100
AcDbEntity
  8
寸法線
100
AcDbCircle
 10
85.562857369489
 20
331.461721530273
 30
0.0
 40
2.0000075
  0
LINE
  5
7E3E
330
1A
100
AcDbEntity
  8
寸法線
100
AcDbLine
 10
85.562857369489
 20
329.461714030273
 30
0.0
 11
85.562857369489
 21
256.955724030273
 31
0.0
  0
CIRCLE
  5
7E3F
330
1A
100
AcDbEntity
  8
寸法線
100
AcDbCircle
 10
9.164847369489
 20
253.205724030273
 30
0.0
 40
1.9999975
  0
LINE
  5
7E40
330
1A
100
AcDbEntity
  8
寸法線
100
AcDbLine
 10
110.552864869489
 20
328.848881530273
 30
0.0
 11
110.552864869489
 21
256.955724030273
 31
0.0
  0
LINE
  5
7E41
330
1A
100
AcDbEntity
  8
寸法線
100
AcDbLine
 10
60.929832369489
 20
378.370709030273
 30
0.0
 11
60.929832369489
 21
256.955724030273
 31
0.0
  0
LINE
  5
7E42
330
1A
100
AcDbEntity
  8
寸法線
100
AcDbLine
 10
35.047339869489
 20
329.461714030273
 30
0.0
 11
35.047339869489
 21
256.955724030273
 31
0.0
  0
CIRCLE
  5
7E43
330
1A
100
AcDbEntity
  8
寸法線
100
AcDbCircle
 10
35.047339869489
 20
331.461721530273
 30
0.0
 40
2.0000075
  0
LINE
  5
7E44
330
1A
100
AcDbEntity
  8
寸法線
100
AcDbLine
 10
110.552864869489
 20
378.370709030273
 30
0.0
 11
110.552864869489
 21
351.829496530273
 31
0.0
  0
TEXT
  5
7E45
330
1A
100
AcDbEntity
  8
寸法線
100
AcDbText
 10
103.051262369489
 20
332.578779030273
 30
0.0
 40
15.0
  1
Ｍ
 41
1.25
  7
EXCADSTD
 72
     5
 11
118.051262369489
 21
332.578779030273
 31
0.0
100
AcDbText
  0
TEXT
  5
7E46
330
1A
100
AcDbEntity
  8
寸法線
100
AcDbText
 10
28.552207369489
 20
293.634761530273
 30
0.0
 40
10.714285714286
  1
キ
  7
EXCADVERT
 72
     3
 11
28.552207369489
 21
283.634761530273
 31
0.0
100
AcDbText
  0
TEXT
  5
7E47
330
1A
100
AcDbEntity
  8
寸法線
100
AcDbText
 10
84.882596989893
 20
210.683341658288
 30
0.0
 40
11.25
  1
電源
100
AcDbText
  0
LINE
  5
7E48
330
1A
100
AcDbEntity
  8
寸法線
100
AcDbLine
 10
85.562857369489
 20
378.370709030273
 30
0.0
 11
110.552864869489
 21
378.370709030273
 31
0.0
  0
LINE
  5
7E49
330
1A
100
AcDbEntity
  8
寸法線
100
AcDbLine
 10
44.864844869489
 20
378.370709030273
 30
0.0
 11
60.929832369489
 21
378.370709030273
 31
0.0
  0
LINE
  5
7E4A
330
1A
100
AcDbEntity
  8
寸法線
100
AcDbLine
 10
25.229834869489
 20
378.370709030273
 30
0.0
 11
25.229834869489
 21
353.737684030273
 31
0.0
  0
LINE
  5
7E4B
330
1A
100
AcDbEntity
  8
寸法線
100
AcDbLine
 10
9.164847369489
 20
378.370709030273
 30
0.0
 11
25.229834869489
 21
378.370709030273
 31
0.0
  0
LINE
  5
7E4C
330
1A
100
AcDbEntity
  8
寸法線
100
AcDbLine
 10
9.164847369489
 20
256.955724030273
 30
0.0
 11
9.164847369489
 21
378.370709030273
 31
0.0
  0
HATCH
  5
7F06
330
1A
100
AcDbEntity
  8
細線
 48
10.0
100
AcDbHatch
 10
0.0
 20
0.0
 30
0.0
210
0.0
220
0.0
230
1.0
  2
ANSI31
 70
     0
 71
     0
 91
       19
 92
        7
 72
     1
 73
     1
 93
        5
 10
13.52225632749338
 20
533.0049845411563
 42
0.0
 10
17.02225632749338
 20
532.0671623676474
 42
0.0
 10
22.37702215247515
 20
532.0671623676474
 42
0.0
 10
22.37702215247515
 20
534.9031855158389
 42
-0.0291464811783065
 10
13.52225632749338
 20
536.6619381052778
 42
0.0
 97
        0
 92
        7
 72
     1
 73
     1
 93
       10
 10
17.02225632749315
 20
523.0671623676474
 42
0.0
 10
15.52225632749315
 20
523.0671623676474
 42
0.0
 10
13.52225632749315
 20
521.9124618292681
 42
0.0
 10
13.52225632749315
 20
496.2218629060267
 42
0.0
 10
15.52225632749315
 20
495.0671623676474
 42
0.0
 10
15.77225632749315
 20
495.0671623676474
 42
0.0
 10
23.71987341500272
 20
495.0671623676474
 42
0.0721580311220404
 10
31.67940506496831
 20
496.2218629060274
 42
0.0
 10
31.67940506496581
 20
521.9124618292681
 42
0.0721580311220404
 10
23.71987341500272
 20
523.0671623676474
 42
0.0
 97
        0
 92
        7
 72
     1
 73
     1
 93
        7
 10
15.77225632749315
 20
475.0671623676474
 42
0.414213562373095
 10
17.77225632749315
 20
473.0671623676474
 42
0.0
 10
19.92225632749324
 20
473.0671623676474
 42
0.0
 10
33.02225632749338
 20
473.0671623676474
 42
0.0
 10
33.02225632749338
 20
495.0671623676474
 42
0.0
 10
23.71987341500272
 20
495.0671623676474
 42
0.0
 10
15.77225632749315
 20
495.0671623676474
 42
0.0
 97
        0
 92
        7
 72
     0
 73
     1
 93
        8
 10
17.02225632749338
 20
532.0671623676474
 10
17.02225632749338
 20
523.0671623676474
 10
23.71987341500272
 20
523.0671623676474
 10
33.02225632749338
 20
523.0671623676474
 10
33.02225632749338
 20
532.0671623676474
 10
31.67940506496603
 20
532.0671623676474
 10
25.0627246775303
 20
532.0671623676474
 10
22.37702215247515
 20
532.0671623676474
 97
        0
 92
        7
 72
     0
 73
     1
 93
        4
 10
31.67940506496581
 20
521.9124618292681
 10
31.67940506496581
 20
496.2218629060267
 10
33.02225632749315
 20
496.2218629060267
 10
33.02225632749338
 20
521.9124618292681
 97
        0
 92
        7
 72
     1
 73
     1
 93
        4
 10
31.67940506496603
 20
532.0671623676474
 42
0.0
 10
31.67940506496603
 20
534.1802319374231
 42
-0.0213925304775309
 10
25.0627246775303
 20
534.5784197512796
 42
0.0
 10
25.0627246775303
 20
532.0671623676474
 42
0.0
 97
        0
 92
        7
 72
     1
 73
     1
 93
        4
 10
31.67940506496603
 20
534.1802319374231
 42
0.0
 10
31.67940506496603
 20
532.0671623676474
 42
0.0
 10
33.02225632749338
 20
532.0671623676474
 42
0.0
 10
33.02225632749338
 20
534.1685966763673
 42
-0.0043320221627083
 97
        0
 92
        7
 72
     1
 73
     1
 93
        4
 10
25.0627246775303
 20
532.0671623676474
 42
0.0
 10
25.0627246775303
 20
534.5784197512796
 42
-0.008727333203576
 10
22.37702215247515
 20
534.9031855158389
 42
0.0
 10
22.37702215247515
 20
532.0671623676474
 42
0.0
 97
        0
 92
        7
 72
     1
 73
     1
 93
        4
 10
33.02225632749315
 20
496.2218629060267
 42
0.0
 10
31.67940506496581
 20
496.2218629060267
 42
-0.0721580311220404
 10
23.71987341500272
 20
495.0671623676474
 42
0.0
 10
33.02225632749338
 20
495.0671623676474
 42
0.0
 97
        0
 92
        7
 72
     1
 73
     1
 93
        4
 10
23.71987341500272
 20
523.0671623676474
 42
-0.0721580311220404
 10
31.67940506496831
 20
521.9124618292674
 42
0.0
 10
33.02225632749315
 20
521.9124618292681
 42
0.0
 10
33.02225632749338
 20
523.0671623676474
 42
0.0
 97
        0
 92
        7
 72
     1
 73
     1
 93
        7
 10
49.02225632749315
 20
532.0671623676474
 42
0.0
 10
52.52225632749315
 20
533.0049845411563
 42
0.0
 10
52.52225632749315
 20
536.6619381052778
 42
0.0
 10
52.52225632749315
 20
536.6619225066645
 42
-0.0291464765926826
 10
43.66749050251138
 20
534.9031771955028
 42
0.0
 10
43.66749050251138
 20
534.9031855158389
 42
0.0
 10
43.66749050251138
 20
532.0671623676474
 42
0.0
 97
        0
 92
        7
 72
     1
 73
     1
 93
       10
 10
50.52225632749338
 20
523.0671623676474
 42
0.0
 10
49.02225632749338
 20
523.0671623676474
 42
0.0
 10
42.32463923998381
 20
523.0671623676474
 42
0.0721580311220404
 10
34.36510759001823
 20
521.9124618292674
 42
0.0
 10
34.36510759002073
 20
496.2218629060267
 42
0.0721580311220404
 10
42.32463923998381
 20
495.0671623676474
 42
0.0
 10
50.27225632749338
 20
495.0671623676474
 42
0.0
 10
50.52225632749338
 20
495.0671623676474
 42
0.0
 10
52.52225632749338
 20
496.2218629060267
 42
0.0
 10
52.52225632749338
 20
521.9124618292681
 42
0.0
 97
        0
 92
        7
 72
     1
 73
     1
 93
        7
 10
48.27225632749338
 20
473.0671623676474
 42
0.414213562373095
 10
50.27225632749338
 20
475.0671623676474
 42
0.0
 10
50.27225632749338
 20
495.0671623676474
 42
0.0
 10
42.32463923998381
 20
495.0671623676474
 42
0.0
 10
33.02225632749338
 20
495.0671623676474
 42
0.0
 10
33.02225632749338
 20
473.0671623676474
 42
0.0
 10
46.12225632749329
 20
473.0671623676474
 42
0.0
 97
        0
 92
        7
 72
     0
 73
     1
 93
        8
 10
49.02225632749315
 20
523.0671623676474
 10
49.02225632749315
 20
532.0671623676474
 10
43.66749050251138
 20
532.0671623676474
 10
40.98178797745624
 20
532.0671623676474
 10
34.3651075900205
 20
532.0671623676474
 10
33.02225632749338
 20
532.0671623676474
 10
33.02225632749338
 20
523.0671623676474
 10
42.32463923998381
 20
523.0671623676474
 97
        0
 92
        7
 72
     0
 73
     1
 93
        4
 10
34.36510759002073
 20
496.2218629060267
 10
34.36510759002073
 20
521.9124618292681
 10
33.02225632749338
 20
521.9124618292681
 10
33.02225632749338
 20
496.2218629060267
 97
        0
 92
        7
 72
     1
 73
     1
 93
        4
 10
34.36510759002073
 20
496.2218629060267
 42
0.0
 10
33.02225632749338
 20
496.2218629060267
 42
0.0
 10
33.02225632749338
 20
495.0671623676474
 42
0.0
 10
42.32463923998381
 20
495.0671623676474
 42
-0.0721580311220404
 97
        0
 92
        7
 72
     1
 73
     1
 93
        4
 10
34.36510759001823
 20
521.9124618292674
 42
-0.0721580311220404
 10
42.32463923998381
 20
523.0671623676474
 42
0.0
 10
33.02225632749338
 20
523.0671623676474
 42
0.0
 10
33.02225632749338
 20
521.9124618292681
 42
0.0
 97
        0
 92
        7
 72
     1
 73
     1
 93
        6
 10
43.66749050251138
 20
532.0671623676474
 42
0.0
 10
43.66749050251138
 20
534.9031855158389
 42
0.0
 10
43.66749050251138
 20
534.9031771955028
 42
-0.0087273323803324
 10
40.98178797745624
 20
534.5784135563024
 42
0.0
 10
40.98178797745624
 20
534.5784197512796
 42
0.0
 10
40.98178797745624
 20
532.0671623676474
 42
0.0
 97
        0
 92
        7
 72
     1
 73
     1
 93
        6
 10
40.98178797745624
 20
532.0671623676474
 42
0.0
 10
40.98178797745624
 20
534.5784197512796
 42
0.0
 10
40.98178797745624
 20
534.5784135563024
 42
-0.0213925294772096
 10
34.3651075900205
 20
534.1802308976403
 42
0.0
 10
34.3651075900205
 20
534.1802319374231
 42
0.0
 10
34.3651075900205
 20
532.0671623676474
 42
0.0
 97
        0
 75
     0
 76
     1
 52
0.0
 41
1.0
 77
     0
 78
     1
 53
45.0
 43
1180.266766675664
 44
117.4779149624883
 45
-2.245064030267288
 46
2.245064030267288
 79
     0
 47
0.0
 98
       19
 10
18.90356209058092
 20
532.6436617197071
 10
19.90939225361313
 20
513.6586173924713
 10
29.88721161099835
 20
490.590293578857
 10
26.44728831332355
 20
527.8659684453035
 10
32.50412448793128
 20
520.9597263786231
 10
27.07593216521883
 20
532.8951192604652
 10
32.48226929151775
 20
532.8951192604652
 10
24.05844167612173
 20
532.8951192604652
 10
32.08454154116436
 20
495.5342859217308
 10
31.92090997689553
 20
522.5558924088259
 10
46.3124340332127
 20
533.0208480308443
 10
36.86288557040785
 20
521.0825083809466
 10
35.82999028576575
 20
491.9885944435082
 10
41.91192706994599
 20
526.9858670526501
 10
34.13098601871485
 20
519.7626018559711
 10
34.58150737089846
 20
495.334528655352
 10
34.53002752626554
 20
522.6479789105683
 10
42.41484215146221
 20
533.0208480308443
 10
35.24830223985674
 20
533.0208480308443
1001
ACAD
1010
0.0
1020
0.0
1030
0.0
  0
LINE
  5
7F07
330
1A
100
AcDbEntity
  8
外形線
 62
     0
100
AcDbLine
 10
17.022256327493
 20
532.067162367647
 30
0.0
 11
13.522256327493
 21
533.004984541156
 31
0.0
  0
LINE
  5
7F08
330
1A
100
AcDbEntity
  8
外形線
 62
     0
100
AcDbLine
 10
17.022256327493
 20
523.067162367647
 30
0.0
 11
15.522256327493
 21
523.067162367647
 31
0.0
  0
LINE
  5
7F09
330
1A
100
AcDbEntity
  8
外形線
100
AcDbLine
 10
13.522256327493
 20
521.912461829268
 30
0.0
 11
13.522256327493
 21
496.221862906027
 31
0.0
  0
LINE
  5
7F0A
330
1A
100
AcDbEntity
  8
外形線
100
AcDbLine
 10
15.522256327493
 20
495.067162367647
 30
0.0
 11
50.522256327493
 21
495.067162367647
 31
0.0
  0
LINE
  5
7F0B
330
1A
100
AcDbEntity
  8
外形線
100
AcDbLine
 10
15.522256327493
 20
495.067162367647
 30
0.0
 11
13.522256327493
 21
496.221862906027
 31
0.0
  0
LINE
  5
7F0C
330
1A
100
AcDbEntity
  8
外形線
 62
     0
100
AcDbLine
 10
15.522256327493
 20
523.067162367647
 30
0.0
 11
13.522256327493
 21
521.912461829268
 31
0.0
  0
ARC
  5
7F0D
330
1A
100
AcDbEntity
  8
外形線
100
AcDbCircle
 10
17.772256327493
 20
475.067162367647
 30
0.0
 40
2.0
100
AcDbArc
 50
180.0
 51
270.0
  0
LINE
  5
7F0E
330
1A
100
AcDbEntity
  8
外形線
100
AcDbLine
 10
15.772256327493
 20
475.067162367647
 30
0.0
 11
15.772256327493
 21
495.067162367647
 31
0.0
  0
HATCH
  5
7F0F
330
1A
100
AcDbEntity
  8
細線
 48
10.0
100
AcDbHatch
 10
0.0
 20
0.0
 30
0.0
210
0.0
220
0.0
230
1.0
  2
ANSI31
 70
     0
 71
     1
 91
        2
 92
        7
 72
     0
 73
     1
 93
        5
 10
20.42225632749324
 20
461.0671623676474
 10
33.02225632749327
 20
461.0671623676474
 10
33.02225632749327
 20
473.0671623676474
 10
19.92225632749324
 20
473.0671623676474
 10
19.92225632749324
 20
461.9331877714319
 97
        5
330
7F10
330
7F20
330
7F16
330
7F12
330
7F11
 92
        7
 72
     0
 73
     1
 93
        5
 10
45.62225632749329
 20
461.0671623676474
 10
46.12225632749329
 20
461.9331877714319
 10
46.12225632749329
 20
473.0671623676474
 10
33.02225632749328
 20
473.0671623676474
 10
33.02225632749327
 20
461.0671623676474
 97
        5
330
7F56
330
7F57
330
7F16
330
7F20
330
7F10
 75
     0
 76
     1
 52
0.0
 41
1.0
 77
     0
 78
     1
 53
45.0
 43
1180.266766675664
 44
117.4779149624883
 45
-2.245064030267288
 46
2.245064030267288
 79
     0
 47
0.0
 98
        2
 10
27.56190308232868
 20
468.1420611846838
 10
38.91836574817495
 20
468.7244438854964
1001
ACAD
1010
0.0
1020
0.0
1030
0.0
  0
LINE
  5
7F10
102
{ACAD_REACTORS
330
7F0F
102
}
330
1A
100
AcDbEntity
  8
外形線
100
AcDbLine
 10
20.422256327493
 20
461.067162367647
 30
0.0
 11
45.622256327493
 21
461.067162367647
 31
0.0
  0
LINE
  5
7F11
102
{ACAD_REACTORS
330
7F0F
102
}
330
1A
100
AcDbEntity
  8
外形線
100
AcDbLine
 10
20.422256327493
 20
461.067162367647
 30
0.0
 11
19.922256327493
 21
461.933187771432
 31
0.0
  0
LINE
  5
7F12
102
{ACAD_REACTORS
330
7F0F
102
}
330
1A
100
AcDbEntity
  8
外形線
100
AcDbLine
 10
19.922256327493
 20
473.067162367647
 30
0.0
 11
19.922256327493
 21
461.933187771432
 31
0.0
  0
LINE
  5
7F13
330
1A
100
AcDbEntity
  8
外形線
 62
     0
100
AcDbLine
 10
17.022256327493
 20
532.067162367647
 30
0.0
 11
17.022256327493
 21
523.067162367647
 31
0.0
  0
LINE
  5
7F14
330
1A
100
AcDbEntity
  8
外形線
 62
     0
100
AcDbLine
 10
13.522256327493
 20
536.661938105278
 30
0.0
 11
13.522256327493
 21
533.004984541156
 31
0.0
  0
LINE
  5
7F15
330
1A
100
AcDbEntity
  8
外形線
 48
10.0
100
AcDbLine
 10
17.022256327493
 20
532.067162367647
 30
0.0
 11
49.022256327493
 21
532.067162367647
 31
0.0
  0
LINE
  5
7F16
102
{ACAD_REACTORS
330
7F0F
102
}
330
1A
100
AcDbEntity
  8
外形線
 48
10.0
100
AcDbLine
 10
17.772256327493
 20
473.067162367647
 30
0.0
 11
48.272256327493
 21
473.067162367647
 31
0.0
  0
LINE
  5
7F17
330
1A
100
AcDbEntity
  8
外形線
 48
10.0
100
AcDbLine
 10
17.022256327493
 20
523.067162367647
 30
0.0
 11
49.022256327493
 21
523.067162367647
 31
0.0
  0
LINE
  5
7F18
330
1A
100
AcDbEntity
  8
外形線
 48
10.0
100
AcDbLine
 10
31.679405064966
 20
496.221862906027
 30
0.0
 11
31.679405064966
 21
521.912461829268
 31
0.0
  0
LINE
  5
7F19
330
1A
100
AcDbEntity
  8
外形線
 48
10.0
100
AcDbLine
 10
31.679405064966
 20
532.067162367647
 30
0.0
 11
31.679405064966
 21
534.180231937423
 31
0.0
  0
LINE
  5
7F1A
330
1A
100
AcDbEntity
  8
外形線
 48
10.0
100
AcDbLine
 10
25.06272467753
 20
532.067162367647
 30
0.0
 11
25.06272467753
 21
534.57841975128
 31
0.0
  0
LINE
  5
7F1B
330
1A
100
AcDbEntity
  8
外形線
 48
10.0
100
AcDbLine
 10
22.377022152475
 20
532.067162367647
 30
0.0
 11
22.377022152475
 21
534.903185515839
 31
0.0
  0
LINE
  5
7F1C
330
1A
100
AcDbEntity
  8
外形線
 48
10.0
100
AcDbLine
 10
31.679405064966
 20
496.221862906027
 30
0.0
 11
33.022256327493
 21
496.221862906027
 31
0.0
  0
ARC
  5
7F1D
330
1A
100
AcDbEntity
  8
外形線
 48
10.0
100
AcDbCircle
 10
23.719873415003
 20
523.077661743917
 30
0.0
 40
28.01049937626924
100
AcDbArc
 50
270.0
 51
286.508789686952
  0
ARC
  5
7F1E
330
1A
100
AcDbEntity
  8
外形線
 48
10.0
100
AcDbCircle
 10
23.719873415003
 20
495.056662991378
 30
0.0
 40
28.01049937626924
100
AcDbArc
 50
73.491210313048
 51
90.0
  0
LINE
  5
7F1F
330
1A
100
AcDbEntity
  8
外形線
 48
10.0
100
AcDbLine
 10
31.679405064966
 20
521.912461829268
 30
0.0
 11
33.022256327493
 21
521.912461829268
 31
0.0
  0
LINE
  5
7F20
102
{ACAD_REACTORS
330
7F0F
102
}
330
1A
100
AcDbEntity
  8
中心線
 48
10.0
100
AcDbLine
 10
33.022256327493
 20
453.067162367647
 30
0.0
 11
33.022256327493
 21
697.168596676356
 31
0.0
  0
LINE
  5
7F21
330
1A
100
AcDbEntity
  8
中心線
 48
10.0
100
AcDbLine
 10
-52.477713659234
 20
611.667162367648
 30
0.0
 11
118.522286314221
 21
611.667162367648
 31
0.0
  0
LINE
  5
7F2C
330
1A
100
AcDbEntity
  8
外形線
 48
10.0
100
AcDbLine
 10
34.450277375784
 20
571.653682105774
 30
0.0
 11
31.594272861249
 21
571.653682105774
 31
0.0
  0
LINE
  5
7F2D
330
1A
100
AcDbEntity
  8
外形線
 48
10.0
100
AcDbLine
 10
34.450277375784
 20
651.653682105774
 30
0.0
 11
31.594272861249
 21
651.653682105774
 31
0.0
  0
LINE
  5
7F2E
330
1A
100
AcDbEntity
  8
外形線
 48
10.0
100
AcDbLine
 10
34.450277375784
 20
571.653682105774
 30
0.0
 11
34.450277375784
 21
651.653682105774
 31
0.0
  0
LINE
  5
7F2F
330
1A
100
AcDbEntity
  8
外形線
 48
10.0
100
AcDbLine
 10
31.594272861249
 20
651.653682105774
 30
0.0
 11
31.594272861249
 21
571.653682105774
 31
0.0
  0
ARC
  5
7F30
330
1A
100
AcDbEntity
  8
外形線
 48
10.0
100
AcDbCircle
 10
33.022256327493
 20
611.667162367648
 30
0.0
 40
21.5
100
AcDbArc
 50
270.0
 51
270.000001804094
  0
CIRCLE
  5
7F42
330
1A
100
AcDbEntity
  8
外形線
100
AcDbCircle
 10
78.984226499631
 20
565.706596122558
 30
0.0
 40
7.711199999999998
  0
CIRCLE
  5
7F43
330
1A
100
AcDbEntity
  8
外形線
100
AcDbCircle
 10
-12.939653844644
 20
565.706596122558
 30
0.0
 40
7.711199999999998
  0
CIRCLE
  5
7F44
330
1A
100
AcDbEntity
  8
外形線
100
AcDbCircle
 10
78.984226499631
 20
657.630597230166
 30
0.0
 40
7.711199999999998
  0
CIRCLE
  5
7F45
330
1A
100
AcDbEntity
  8
外形線
100
AcDbCircle
 10
33.022286327493
 20
611.668596676361
 30
0.0
 40
77.5
  0
CIRCLE
  5
7F46
330
1A
100
AcDbEntity
  8
外形線
100
AcDbCircle
 10
-12.939653844644
 20
657.630597230166
 30
0.0
 40
7.711199999999998
  0
LINE
  5
7F47
330
1A
100
AcDbEntity
  8
中心線
 48
10.0
100
AcDbLine
 10
71.83429086697
 20
572.945978804746
 30
0.0
 11
86.134290035307
 21
558.645979636409
 31
0.0
  0
LINE
  5
7F48
330
1A
100
AcDbEntity
  8
中心線
 48
10.0
100
AcDbLine
 10
-20.089653428813
 20
558.556596538389
 30
0.0
 11
-5.789654260476
 21
572.856595706726
 31
0.0
  0
LINE
  5
7F49
330
1A
100
AcDbEntity
  8
中心線
 48
10.0
100
AcDbLine
 10
-20.089653428813
 20
664.780596814334
 30
0.0
 11
-5.789654260476
 21
650.480597645997
 31
0.0
  0
LINE
  5
7F4A
330
1A
100
AcDbEntity
  8
中心線
 48
10.0
100
AcDbLine
 10
71.834226915463
 20
650.480597645997
 30
0.0
 11
86.1342260838
 21
664.780596814334
 31
0.0
  0
CIRCLE
  5
7F4B
330
1A
100
AcDbEntity
  8
中心線
 48
10.0
100
AcDbCircle
 10
33.022256327493
 20
611.668583905984
 30
0.0
 40
65.0
  0
LEADER
  5
7F4C
330
1A
100
AcDbEntity
  8
寸法線
 48
10.0
100
AcDbLeader
  3
ISO-25
 76
     3
 10
-13.578543972493
 20
557.965535964583
 30
0.0
 10
-22.644060000312
 20
520.600751096728
 30
0.0
 10
-32.644060000312
 20
520.600751096728
 30
0.0
1001
ACAD
1000
DSTYLE
1002
{
1070
     5
1000
OPEN30
1070
   147
1040
0.625
1070
    77
1070
     0
1070
    41
1040
6.0
1070
    47
1040
0.1
1070
    48
1040
0.1
1070
    73
1070
     0
1070
   140
1040
5.0
1070
   271
1070
     1
1070
   272
1070
     1
1070
   341
1005
2AF4
1070
   342
1005
2AF4
1002
}
  0
MTEXT
  5
7F4D
330
1A
100
AcDbEntity
  8
寸法線
 48
10.0
100
AcDbMText
 10
-60.479997856102
 20
532.143218469822
 30
0.0
 40
10.0
 41
30.694469560982
 71
     1
 72
     5
  1
4-φ15
  0
LINE
  5
7F4F
330
1A
100
AcDbEntity
  8
外形線
 62
     0
100
AcDbLine
 10
49.022256327493
 20
532.067162367647
 30
0.0
 11
52.522256327493
 21
533.004984541156
 31
0.0
  0
LINE
  5
7F50
330
1A
100
AcDbEntity
  8
外形線
 62
     0
100
AcDbLine
 10
49.022256327493
 20
523.067162367647
 30
0.0
 11
50.522256327493
 21
523.067162367647
 31
0.0
  0
LINE
  5
7F51
330
1A
100
AcDbEntity
  8
外形線
100
AcDbLine
 10
52.522256327493
 20
521.912461829268
 30
0.0
 11
52.522256327493
 21
496.221862906027
 31
0.0
  0
LINE
  5
7F52
330
1A
100
AcDbEntity
  8
外形線
100
AcDbLine
 10
50.522256327493
 20
495.067162367647
 30
0.0
 11
52.522256327493
 21
496.221862906027
 31
0.0
  0
LINE
  5
7F53
330
1A
100
AcDbEntity
  8
外形線
 62
     0
100
AcDbLine
 10
50.522256327493
 20
523.067162367647
 30
0.0
 11
52.522256327493
 21
521.912461829268
 31
0.0
  0
ARC
  5
7F54
330
1A
100
AcDbEntity
  8
外形線
100
AcDbCircle
 10
48.272256327493
 20
475.067162367647
 30
0.0
 40
1.999999999999999
100
AcDbArc
 50
270.0
 51
0.0
  0
LINE
  5
7F55
330
1A
100
AcDbEntity
  8
外形線
100
AcDbLine
 10
50.272256327493
 20
475.067162367647
 30
0.0
 11
50.272256327493
 21
495.067162367647
 31
0.0
  0
LINE
  5
7F56
102
{ACAD_REACTORS
330
7F0F
102
}
330
1A
100
AcDbEntity
  8
外形線
100
AcDbLine
 10
45.622256327493
 20
461.067162367647
 30
0.0
 11
46.122256327493
 21
461.933187771432
 31
0.0
  0
LINE
  5
7F57
102
{ACAD_REACTORS
330
7F0F
102
}
330
1A
100
AcDbEntity
  8
外形線
100
AcDbLine
 10
46.122256327493
 20
473.067162367647
 30
0.0
 11
46.122256327493
 21
461.933187771432
 31
0.0
  0
LINE
  5
7F58
330
1A
100
AcDbEntity
  8
外形線
 62
     0
100
AcDbLine
 10
49.022256327493
 20
532.067162367647
 30
0.0
 11
49.022256327493
 21
523.067162367647
 31
0.0
  0
LINE
  5
7F59
330
1A
100
AcDbEntity
  8
外形線
 48
10.0
100
AcDbLine
 10
34.365107590021
 20
496.221862906027
 30
0.0
 11
34.365107590021
 21
521.912461829268
 31
0.0
  0
LINE
  5
7F5A
330
1A
100
AcDbEntity
  8
外形線
 48
10.0
100
AcDbLine
 10
34.365107590021
 20
496.221862906027
 30
0.0
 11
33.022256327493
 21
496.221862906027
 31
0.0
  0
ARC
  5
7F5B
330
1A
100
AcDbEntity
  8
外形線
 48
10.0
100
AcDbCircle
 10
42.324639239984
 20
523.077661743917
 30
0.0
 40
28.01049937626922
100
AcDbArc
 50
253.491210313048
 51
270.0
  0
ARC
  5
7F5C
330
1A
100
AcDbEntity
  8
外形線
 48
10.0
100
AcDbCircle
 10
42.324639239984
 20
495.056662991378
 30
0.0
 40
28.01049937626922
100
AcDbArc
 50
90.0
 51
106.508789686952
  0
LINE
  5
7F5D
330
1A
100
AcDbEntity
  8
外形線
 48
10.0
100
AcDbLine
 10
34.365107590021
 20
521.912461829268
 30
0.0
 11
33.022256327493
 21
521.912461829268
 31
0.0
  0
LINE
  5
7F5E
330
1A
100
AcDbEntity
  8
外形線
 62
     0
100
AcDbLine
 10
52.522256327493
 20
536.661938105278
 30
0.0
 11
52.522256327493
 21
533.004984541156
 31
0.0
  0
LINE
  5
7F5F
330
1A
100
AcDbEntity
  8
外形線
 48
10.0
100
AcDbLine
 10
43.667490502511
 20
532.067162367647
 30
0.0
 11
43.667490502511
 21
534.903185515839
 31
0.0
  0
LINE
  5
7F60
330
1A
100
AcDbEntity
  8
外形線
 48
10.0
100
AcDbLine
 10
40.981787977456
 20
532.067162367647
 30
0.0
 11
40.981787977456
 21
534.57841975128
 31
0.0
  0
LINE
  5
7F61
330
1A
100
AcDbEntity
  8
外形線
 48
10.0
100
AcDbLine
 10
34.365107590021
 20
532.067162367647
 30
0.0
 11
34.365107590021
 21
534.180231937423
 31
0.0
  0
DIMENSION
  5
7F78
330
1A
100
AcDbEntity
  8
寸法線
 48
10.0
100
AcDbDimension
  2
*D81
 10
34.523369319896
 20
583.393272730334
 30
0.0
 11
53.148369319896
 21
589.018272730334
 31
0.0
 70
    32
  1
1.5
  3
ISO-25
100
AcDbAlignedDimension
 13
31.667364805361
 23
583.393272730334
 33
0.0
 14
34.523369319896
 24
583.393272730334
 34
0.0
100
AcDbRotatedDimension
1001
ACAD
1000
DSTYLE
1002
{
1070
     5
1000
OPEN30
1070
    41
1040
6.0
1070
    47
1040
0.1
1070
    48
1040
0.1
1070
    73
1070
     0
1070
   140
1040
10.0
1070
   271
1070
     1
1070
   272
1070
     1
1070
   341
1005
2AF4
1002
}
  0
MTEXT
  5
7F88
330
1A
100
AcDbEntity
  8
寸法線
 48
10.0
100
AcDbMText
 10
140.736634695204
 20
371.426240502014
 30
0.0
 40
10.0
 41
414.880882725883
 71
     1
 72
     5
  1
内蔵マイクロスイッチ\PAC250V 6A  抵抗負荷\PDC125V 0.5A 抵抗負荷
  0
LINE
  5
7F89
330
1A
100
AcDbEntity
  8
外形線
100
AcDbLine
 10
907.607463722233
 20
294.753722321878
 30
0.0
 11
907.607463722232
 21
195.120019087294
 31
0.0
  0
LINE
  5
7F8A
330
1A
100
AcDbEntity
  8
外形線
100
AcDbLine
 10
700.502534240863
 20
294.753722321878
 30
0.0
 11
907.607463722233
 21
294.753722321878
 31
0.0
  0
MTEXT
  5
7F8B
102
{ACAD_XDICTIONARY
360
8D23
102
}
330
1A
100
AcDbEntity
  8
寸法線
 48
10.0
100
AcDbMText
 10
778.875806309029
 20
261.871959281634
 30
0.0
 40
11.25
 41
147.712275705142
 71
     1
 72
     5
  1
労検第T66814号
1001
ACADANNOTATIVE
1000
AnnotativeData
1002
{
1070
     1
1070
     0
1002
}
  0
LINE
  5
7F8C
102
{ACAD_REACTORS
330
7F91
102
}
330
1A
100
AcDbEntity
  8
外形線
100
AcDbLine
 10
761.372959081118
 20
281.145636544506
 30
0.0
 11
761.372959081118
 21
251.145636544506
 31
0.0
  0
LINE
  5
7F8D
102
{ACAD_REACTORS
330
7F91
102
}
330
1A
100
AcDbEntity
  8
外形線
100
AcDbLine
 10
711.372959081118
 20
251.145636544506
 30
0.0
 11
761.372959081118
 21
251.145636544506
 31
0.0
  0
LINE
  5
7F8E
102
{ACAD_REACTORS
330
7F91
102
}
330
1A
100
AcDbEntity
  8
外形線
100
AcDbLine
 10
711.372959081118
 20
281.145636544506
 30
0.0
 11
761.372959081118
 21
281.145636544506
 31
0.0
  0
LINE
  5
7F8F
102
{ACAD_REACTORS
330
7F91
102
}
330
1A
100
AcDbEntity
  8
外形線
100
AcDbLine
 10
711.372959081118
 20
281.145636544506
 30
0.0
 11
711.372959081118
 21
251.145636544506
 31
0.0
  0
MTEXT
  5
7F90
330
1A
100
AcDbEntity
  8
寸法線
 48
10.0
100
AcDbMText
 10
782.128282317239
 20
288.80424909319
 30
0.0
 40
15.0
 41
88.948093776244
 71
     1
 72
     5
  1
{\H1.25x;d2G4}
  0
HATCH
  5
7F91
330
1A
100
AcDbEntity
  8
細線
 48
10.0
100
AcDbHatch
 10
0.0
 20
0.0
 30
0.0
210
0.0
220
0.0
230
1.0
  2
ANSI31
 70
     0
 71
     1
 91
        1
 92
        7
 72
     0
 73
     1
 93
        4
 10
761.3729590811183
 20
251.1456365445061
 10
761.3729590811183
 20
281.1456365445061
 10
711.3729590811183
 20
281.1456365445061
 10
711.3729590811183
 20
251.1456365445061
 97
        4
330
7F8C
330
7F8E
330
7F8F
330
7F8D
 75
     0
 76
     1
 52
0.0
 41
1.0
 77
     0
 78
     1
 53
45.0
 43
-152.6445683584205
 44
-194.9741032568685
 45
-2.245064030267288
 46
2.245064030267288
 79
     0
 47
0.627807578291
 98
        1
 10
725.7441128408899
 20
269.8680010841697
  0
LINE
  5
7F92
330
1A
100
AcDbEntity
  8
外形線
100
AcDbLine
 10
907.607463722232
 20
195.120019087294
 30
0.0
 11
700.502534240863
 21
195.120019087294
 31
0.0
  0
LINE
  5
7F93
330
1A
100
AcDbEntity
  8
外形線
100
AcDbLine
 10
700.502534240863
 20
195.120019087294
 30
0.0
 11
700.502534240863
 21
294.753722321878
 31
0.0
  0
MTEXT
  5
7F94
102
{ACAD_XDICTIONARY
360
7F95
102
}
330
1A
100
AcDbEntity
  8
寸法線
 48
10.0
100
AcDbMText
 10
711.172060260928
 20
239.894669368673
 30
0.0
 40
8.75
 41
266.161527505396
 71
     1
 72
     5
  1
防爆構造：耐圧防爆構造\P爆発等級及び発火度：2G4\P導線引込方式：耐圧パッキン式引込方式
1001
ACADANNOTATIVE
1000
AnnotativeData
1002
{
1070
     1
1070
     0
1002
}
  0
MTEXT
  5
7F9A
102
{ACAD_XDICTIONARY
360
7F9B
102
}
330
1A
100
AcDbEntity
  8
寸法線
 62
     1
 48
10.0
100
AcDbMText
 10
138.350737896193
 20
307.684982402255
 30
0.0
 40
10.0
 41
189.697553026647
 71
     1
 72
     5
  1
\C256;塗　装　色：10YR7.5/14\P静止トルク：約10.0N・cm\P回　転　数：1RPM\P使用周囲温度：-10～+40℃
1001
ACADANNOTATIVE
1000
AnnotativeData
1002
{
1070
     1
1070
     0
1002
}
  0
DIMENSION
  5
7F9E
330
1A
100
AcDbEntity
  8
寸法線
 62
     1
 48
10.0
100
AcDbDimension
  2
*D83
 10
110.202078503357
 20
618.700743330609
 30
0.0
 11
79.670726772874
 21
615.918354277056
 31
0.0
 70
   160
  3
ISO-25
100
AcDbAlignedDimension
 13
-44.158259611119
 23
604.633547129677
 33
0.0
 14
110.202078503357
 24
618.700743330609
 34
0.0
 50
5.2071067117
100
AcDbRotatedDimension
1001
ACAD
1000
DSTYLE
1002
{
1070
     5
1000
OPEN30
1070
    76
1070
     1
1070
    75
1070
     1
1070
     3
1000
φ<>
1070
    41
1040
6.0
1070
    47
1040
0.1
1070
    48
1040
0.1
1070
    73
1070
     0
1070
   140
1040
10.0
1070
   271
1070
     1
1070
   272
1070
     1
1070
   341
1005
2AF4
1002
}
  0
DIMENSION
  5
7F9F
330
1A
100
AcDbEntity
  8
寸法線
 62
     1
 48
10.0
100
AcDbDimension
  2
*D84
 10
93.040562378929
 20
636.624140796497
 30
0.0
 11
76.370498787822
 21
629.692328981828
 31
0.0
 70
   160
  3
ISO-25
100
AcDbAlignedDimension
 13
-26.995319774998
 23
586.710345234094
 33
0.0
 14
93.040562378929
 24
636.624140796497
 34
0.0
 50
22.578711521241
100
AcDbRotatedDimension
1001
ACAD
1000
DSTYLE
1002
{
1070
     5
1000
OPEN30
1070
     3
1000
φ<>
1070
    76
1070
     1
1070
    75
1070
     1
1070
    41
1040
6.0
1070
    47
1040
0.1
1070
    48
1040
0.1
1070
    73
1070
     0
1070
   140
1040
10.0
1070
   271
1070
     1
1070
   272
1070
     1
1070
   341
1005
2AF4
1002
}
  0
TEXT
  5
7FAB
330
1A
100
AcDbEntity
  8
寸法線
100
AcDbText
 10
70.874129345788
 20
225.372845202466
 30
0.0
 40
10.0
  1
(２００   ０)
 41
0.566629621207
  7
EXCADSTD
 72
     5
 11
117.479415690099
 21
225.372845202466
 31
0.0
100
AcDbText
  0
MTEXT
  5
7FAC
102
{ACAD_XDICTIONARY
360
7FAD
102
}
330
1A
100
AcDbEntity
  8
寸法線
 48
10.0
100
AcDbMText
 10
306.801736585011
 20
366.663647036889
 30
0.0
 40
10.0
 41
210.629527060302
 71
     1
 72
     5
  1
御仕様  電源電圧  \P      　AC100V\P        AC200V
1001
ACADANNOTATIVE
1000
AnnotativeData
1002
{
1070
     1
1070
     0
1002
}
  0
MTEXT
  5
7FB0
330
1A
100
AcDbEntity
  8
寸法線
 48
10.0
100
AcDbMText
 10
332.030364238129
 20
315.342754407183
 30
0.0
 40
10.0
 41
202.063492063492
 71
     1
 72
     5
  1
○印が今回の貴社の御仕様です。
  0
LINE
  5
7FB1
330
1A
100
AcDbEntity
  8
寸法線
 62
     1
 48
10.0
100
AcDbLine
 10
303.762372130348
 20
353.107064249526
 30
0.0
 11
495.496877473799
 21
353.107064249526
 31
0.0
  0
LINE
  5
7FB2
330
1A
100
AcDbEntity
  8
寸法線
 62
     1
 48
10.0
100
AcDbLine
 10
303.762372130348
 20
336.530128294218
 30
0.0
 11
495.496877473799
 21
336.530128294218
 31
0.0
  0
LINE
  5
7FB3
330
1A
100
AcDbEntity
  8
寸法線
 62
     1
 48
10.0
100
AcDbLine
 10
303.762372130348
 20
319.95319233891
 30
0.0
 11
495.496877473799
 21
319.95319233891
 31
0.0
  0
LINE
  5
7FB4
330
1A
100
AcDbEntity
  8
寸法線
 62
     1
 48
10.0
100
AcDbLine
 10
303.762372130348
 20
369.358962244926
 30
0.0
 11
495.496877473799
 21
369.358962244926
 31
0.0
  0
LINE
  5
7FB5
330
1A
100
AcDbEntity
  8
寸法線
 62
     1
 48
10.0
100
AcDbLine
 10
344.717155078757
 20
369.358962244926
 30
0.0
 11
344.717155078757
 21
319.95319233891
 31
0.0
  0
LINE
  5
7FB6
330
1A
100
AcDbEntity
  8
寸法線
 62
     1
 48
10.0
100
AcDbLine
 10
303.762372130348
 20
369.358962244926
 30
0.0
 11
303.762372130348
 21
319.95319233891
 31
0.0
  0
LINE
  5
7FB7
330
1A
100
AcDbEntity
  8
寸法線
 62
     1
 48
10.0
100
AcDbLine
 10
411.516521356181
 20
369.358962244926
 30
0.0
 11
411.516521356181
 21
319.95319233891
 31
0.0
  0
LINE
  5
7FB8
330
1A
100
AcDbEntity
  8
寸法線
 62
     1
 48
10.0
100
AcDbLine
 10
495.496877473799
 20
369.358962244926
 30
0.0
 11
495.496877473799
 21
319.95319233891
 31
0.0
  0
MTEXT
  5
7FB9
102
{ACAD_XDICTIONARY
360
7FBA
102
}
330
1A
100
AcDbEntity
  8
寸法線
 48
10.0
100
AcDbMText
 10
454.275388468783
 20
366.663647036889
 30
0.0
 40
10.0
 41
71.895805002061
 71
     2
 72
     5
  1
申請型式名称   \PPRL-5-WP\PPRL-5-VP
1001
ACADANNOTATIVE
1000
AnnotativeData
1002
{
1070
     1
1070
     0
1002
}
  0
ARC
  5
8554
330
1A
100
AcDbEntity
  8
外形線
 48
10.0
100
AcDbCircle
 10
33.02209749717
 20
611.667162367648
 30
0.0
 40
17.0
100
AcDbArc
 50
94.817930299977
 51
265.182069700023
  0
ARC
  5
8555
330
1A
100
AcDbEntity
  8
外形線
 48
10.0
100
AcDbCircle
 10
33.02209749717
 20
611.667162367648
 30
0.0
 40
17.0
100
AcDbArc
 50
274.81913183516
 51
85.18086816484
  0
LEADER
  5
8557
330
1A
100
AcDbEntity
  8
寸法線
 48
10.0
100
AcDbLeader
  3
ISO-25
 76
     3
 10
476.066143872272
 20
616.717134916989
 30
0.0
 10
454.888879427461
 20
717.414711228493
 30
0.0
 10
442.888879427461
 20
717.414711228493
 30
0.0
1001
ACAD
1000
DSTYLE
1002
{
1070
     5
1000
OPEN30
1070
   147
1040
0.625
1070
    77
1070
     0
1070
    41
1040
6.0
1070
    47
1040
0.1
1070
    48
1040
0.1
1070
    73
1070
     0
1070
   140
1040
8.0
1070
   271
1070
     1
1070
   272
1070
     1
1070
   341
1005
2AF4
1070
   342
1005
2AF4
1002
}
  0
MTEXT
  5
8558
330
1A
100
AcDbEntity
  8
寸法線
 48
10.0
100
AcDbMText
 10
410.667851089852
 20
728.349362097058
 30
0.0
 40
2.333873885063
 41
47.634784273192
 71
     1
 72
     5
  1
{\H4.285x;SUS304}
  0
MTEXT
  5
8559
102
{ACAD_XDICTIONARY
360
855A
102
}
330
1A
100
AcDbEntity
  8
寸法線
 62
     1
 48
10.0
100
AcDbMText
 10
560.581433948466
 20
286.863822052998
 30
0.0
 40
10.0
 41
41.830572654069
 71
     1
 72
     5
  1
台数
1001
ACADANNOTATIVE
1000
AnnotativeData
1002
{
1070
     1
1070
     0
1002
}
  0
MTEXT
  5
8597
330
1A
100
AcDbEntity
  8
寸法線
 62
     1
 48
10.0
100
AcDbMText
 10
752.419162575323
 20
384.505428333757
 30
0.0
 40
8.0
 41
152.261044059946
 71
     1
 72
     1
  1
※ケーブルグランドをご指定下さい
  0
LINE
  5
895A
330
1A
100
AcDbEntity
  8
外形線
 48
10.0
100
AcDbLine
 10
690.808211104737
 20
579.172353344101
 30
0.0
 11
690.808211104737
 21
644.172353344101
 31
0.0
  0
LINE
  5
89CE
330
1A
100
AcDbEntity
  8
外形線
 48
10.0
100
AcDbLine
 10
690.808211104737
 20
579.172353344101
 30
0.0
 11
690.808211104737
 21
644.172353344101
 31
0.0
  0
LWPOLYLINE
  5
89CF
330
1A
100
AcDbEntity
  8
外形線
100
AcDbPolyline
 90
       10
 70
     0
 43
0.0
 10
672.808211104737
 20
648.672353344101
 10
672.808211104737
 20
648.672353344101
 42
0.414213562373
 10
674.808211104737
 20
646.672353344101
 10
688.808211104737
 20
646.672353344101
 10
690.808211104737
 20
644.672353344101
 10
690.808211104737
 20
578.672353344101
 10
688.808211104737
 20
576.672353344101
 10
674.808211104737
 20
576.672353344101
 42
0.414213562373
 10
672.808211104737
 20
574.672353344101
 10
672.808211104737
 20
574.672353344101
  0
LINE
  5
89D0
330
1A
100
AcDbEntity
  8
外形線
100
AcDbLine
 10
672.808211104737
 20
688.172353344101
 30
0.0
 11
671.808211104737
 21
689.172353344101
 31
0.0
  0
LINE
  5
89D1
330
1A
100
AcDbEntity
  8
外形線
100
AcDbLine
 10
671.808211104737
 20
689.172353344101
 30
0.0
 11
661.308211104737
 21
689.172353344101
 31
0.0
  0
LINE
  5
89D2
330
1A
100
AcDbEntity
  8
外形線
100
AcDbLine
 10
661.308211104737
 20
689.172353344101
 30
0.0
 11
660.808211104737
 21
688.672353344101
 31
0.0
  0
LINE
  5
89D3
330
1A
100
AcDbEntity
  8
外形線
100
AcDbLine
 10
660.808211104737
 20
688.672353344101
 30
0.0
 11
660.808211104737
 21
534.672353344101
 31
0.0
  0
LINE
  5
89D4
330
1A
100
AcDbEntity
  8
外形線
100
AcDbLine
 10
660.808211104737
 20
534.672353344101
 30
0.0
 11
661.308211104737
 21
534.172353344101
 31
0.0
  0
LINE
  5
89D5
330
1A
100
AcDbEntity
  8
外形線
100
AcDbLine
 10
661.308211104737
 20
534.172353344101
 30
0.0
 11
671.808211104737
 21
534.172353344101
 31
0.0
  0
LINE
  5
89D6
330
1A
100
AcDbEntity
  8
外形線
100
AcDbLine
 10
671.808211104737
 20
534.172353344101
 30
0.0
 11
672.808211104737
 21
535.172353344101
 31
0.0
  0
LINE
  5
89D7
330
1A
100
AcDbEntity
  8
外形線
100
AcDbLine
 10
672.808211104737
 20
535.172353344101
 30
0.0
 11
672.808211104737
 21
688.172353344101
 31
0.0
  0
LINE
  5
89D8
330
1A
100
AcDbEntity
  8
外形線
 48
10.0
100
AcDbLine
 10
672.808211104737
 20
537.822353344101
 30
0.0
 11
674.388211104737
 21
537.822353344101
 31
0.0
  0
LINE
  5
89D9
330
1A
100
AcDbEntity
  8
外形線
 48
10.0
100
AcDbLine
 10
672.808211104737
 20
555.522353344101
 30
0.0
 11
674.388211104737
 21
555.522353344101
 31
0.0
  0
LINE
  5
89DA
330
1A
100
AcDbEntity
  8
外形線
 48
10.0
100
AcDbLine
 10
674.388211104737
 20
537.822353344101
 30
0.0
 11
674.388211104737
 21
555.522353344101
 31
0.0
  0
LINE
  5
89DB
330
1A
100
AcDbEntity
  8
外形線
 48
10.0
100
AcDbLine
 10
679.573180718888
 20
539.282269898473
 30
0.0
 11
674.388211104737
 21
539.282269898473
 31
0.0
  0
LINE
  5
89DC
330
1A
100
AcDbEntity
  8
外形線
 48
10.0
100
AcDbLine
 10
679.573180718888
 20
554.062436789728
 30
0.0
 11
674.388211104737
 21
554.062436789728
 31
0.0
  0
LINE
  5
89DD
330
1A
100
AcDbEntity
  8
外形線
100
AcDbLine
 10
679.573180718888
 20
539.282269898473
 30
0.0
 11
680.708211104738
 21
540.422240844101
 31
0.0
  0
ARC
  5
89DE
330
1A
100
AcDbEntity
  8
細線
100
AcDbCircle
 10
677.777694929527
 20
540.367380118676
 30
0.0
 40
2.93102964030951
100
AcDbArc
 50
1.07248031449
 51
62.929683273473
  0
LINE
  5
89DF
330
1A
100
AcDbEntity
  8
細線
100
AcDbLine
 10
674.388211104737
 20
542.977311621287
 30
0.0
 11
679.111558604739
 21
542.977311621287
 31
0.0
  0
ARC
  5
89E0
330
1A
100
AcDbEntity
  8
細線
100
AcDbCircle
 10
675.634858696156
 20
546.672353344101
 30
0.0
 40
5.073536792778295
100
AcDbArc
 50
313.256183488111
 51
46.743816511899
  0
ARC
  5
89E1
330
1A
100
AcDbEntity
  8
細線
100
AcDbCircle
 10
677.777694929527
 20
552.977326569526
 30
0.0
 40
2.931029640308923
100
AcDbArc
 50
297.070316726528
 51
358.92751968551
  0
LINE
  5
89E2
330
1A
100
AcDbEntity
  8
外形線
100
AcDbLine
 10
679.573180718888
 20
554.062436789728
 30
0.0
 11
680.708211104738
 21
552.922465844101
 31
0.0
  0
LINE
  5
89E3
330
1A
100
AcDbEntity
  8
細線
100
AcDbLine
 10
674.388211104737
 20
550.367395066915
 30
0.0
 11
679.111558604739
 21
550.367395066915
 31
0.0
  0
LINE
  5
89E4
330
1A
100
AcDbEntity
  8
外形線
100
AcDbLine
 10
680.708211104738
 20
552.922465844101
 30
0.0
 11
680.708211104738
 21
540.422238344101
 31
0.0
  0
LINE
  5
89E5
330
1A
100
AcDbEntity
  8
細線
 48
10.0
100
AcDbLine
 10
681.808216193389
 20
543.672353344101
 30
0.0
 11
680.708211104738
 21
543.672353344101
 31
0.0
  0
LINE
  5
89E6
330
1A
100
AcDbEntity
  8
細線
 48
10.0
100
AcDbLine
 10
681.808216193389
 20
549.672353344101
 30
0.0
 11
680.708211104738
 21
549.672353344101
 31
0.0
  0
LINE
  5
89E7
330
1A
100
AcDbEntity
  8
外形線
100
AcDbLine
 10
680.708211104738
 20
550.592353344101
 30
0.0
 11
681.808216193389
 21
550.592353344101
 31
0.0
  0
LINE
  5
89E8
330
1A
100
AcDbEntity
  8
外形線
100
AcDbLine
 10
680.708211104738
 20
542.752353344101
 30
0.0
 11
681.808216193389
 21
542.752353344101
 31
0.0
  0
LINE
  5
89E9
330
1A
100
AcDbEntity
  8
外形線
 48
10.0
100
AcDbLine
 10
672.808211104737
 20
667.822353344101
 30
0.0
 11
674.388211104737
 21
667.822353344101
 31
0.0
  0
LINE
  5
89EA
330
1A
100
AcDbEntity
  8
外形線
 48
10.0
100
AcDbLine
 10
672.808211104737
 20
685.522353344101
 30
0.0
 11
674.388211104737
 21
685.522353344101
 31
0.0
  0
LINE
  5
89EB
330
1A
100
AcDbEntity
  8
外形線
 48
10.0
100
AcDbLine
 10
674.388211104737
 20
667.822353344101
 30
0.0
 11
674.388211104737
 21
685.522353344101
 31
0.0
  0
LINE
  5
89EC
330
1A
100
AcDbEntity
  8
外形線
 48
10.0
100
AcDbLine
 10
679.573180718888
 20
669.282269898474
 30
0.0
 11
674.388211104737
 21
669.282269898474
 31
0.0
  0
LINE
  5
89ED
330
1A
100
AcDbEntity
  8
外形線
 48
10.0
100
AcDbLine
 10
679.573180718888
 20
684.062436789728
 30
0.0
 11
674.388211104737
 21
684.062436789728
 31
0.0
  0
LINE
  5
89EE
330
1A
100
AcDbEntity
  8
外形線
100
AcDbLine
 10
679.573180718888
 20
669.282269898474
 30
0.0
 11
680.708211104738
 21
670.422240844101
 31
0.0
  0
ARC
  5
89EF
330
1A
100
AcDbEntity
  8
細線
100
AcDbCircle
 10
677.777694929527
 20
670.367380118676
 30
0.0
 40
2.93102964030951
100
AcDbArc
 50
1.072480314488
 51
62.929683273473
  0
LINE
  5
89F0
330
1A
100
AcDbEntity
  8
細線
100
AcDbLine
 10
674.388211104737
 20
672.977311621287
 30
0.0
 11
679.111558604739
 21
672.977311621287
 31
0.0
  0
ARC
  5
89F1
330
1A
100
AcDbEntity
  8
細線
100
AcDbCircle
 10
675.634858696156
 20
676.672353344101
 30
0.0
 40
5.073536792778295
100
AcDbArc
 50
313.256183488111
 51
46.743816511897
  0
ARC
  5
89F2
330
1A
100
AcDbEntity
  8
細線
100
AcDbCircle
 10
677.777694929527
 20
682.977326569526
 30
0.0
 40
2.931029640308923
100
AcDbArc
 50
297.070316726527
 51
358.927519685508
  0
LINE
  5
89F3
330
1A
100
AcDbEntity
  8
外形線
100
AcDbLine
 10
679.573180718888
 20
684.062436789728
 30
0.0
 11
680.708211104738
 21
682.922465844101
 31
0.0
  0
LINE
  5
89F4
330
1A
100
AcDbEntity
  8
細線
100
AcDbLine
 10
674.388211104737
 20
680.367395066915
 30
0.0
 11
679.111558604739
 21
680.367395066915
 31
0.0
  0
LINE
  5
89F5
330
1A
100
AcDbEntity
  8
外形線
100
AcDbLine
 10
680.708211104738
 20
682.922465844101
 30
0.0
 11
680.708211104738
 21
670.422238344101
 31
0.0
  0
LINE
  5
89F6
330
1A
100
AcDbEntity
  8
細線
 48
10.0
100
AcDbLine
 10
681.808216193389
 20
673.672353344101
 30
0.0
 11
680.708211104738
 21
673.672353344101
 31
0.0
  0
LINE
  5
89F7
330
1A
100
AcDbEntity
  8
細線
 48
10.0
100
AcDbLine
 10
681.808216193389
 20
679.672353344101
 30
0.0
 11
680.708211104738
 21
679.672353344101
 31
0.0
  0
LINE
  5
89F8
330
1A
100
AcDbEntity
  8
外形線
100
AcDbLine
 10
680.708211104738
 20
680.592353344101
 30
0.0
 11
681.808216193389
 21
680.592353344101
 31
0.0
  0
LINE
  5
89F9
330
1A
100
AcDbEntity
  8
外形線
100
AcDbLine
 10
680.708211104738
 20
672.752353344101
 30
0.0
 11
681.808216193389
 21
672.752353344101
 31
0.0
  0
LINE
  5
89FA
330
1A
100
AcDbEntity
  8
外形線
 48
10.0
100
AcDbLine
 10
681.808216193389
 20
542.752353344101
 30
0.0
 11
681.808216193389
 21
550.592353344101
 31
0.0
  0
LINE
  5
89FB
330
1A
100
AcDbEntity
  8
外形線
 48
10.0
100
AcDbLine
 10
681.808216193389
 20
680.592353344101
 30
0.0
 11
681.808216193389
 21
672.752353344101
 31
0.0
  0
CIRCLE
  5
8BF3
330
1A
100
AcDbEntity
  8
細線
100
AcDbCircle
 10
33.031810781697
 20
676.675704165355
 30
0.0
 40
4.0
  0
CIRCLE
  5
8BF4
330
1A
100
AcDbEntity
  8
外形線
100
AcDbCircle
 10
33.031810781697
 20
676.675704165355
 30
0.0
 40
3.0
  0
CIRCLE
  5
8BF5
330
1A
100
AcDbEntity
  8
細線
100
AcDbCircle
 10
98.022255220356
 20
611.667162367648
 30
0.0
 40
4.0
  0
CIRCLE
  5
8BF6
330
1A
100
AcDbEntity
  8
外形線
100
AcDbCircle
 10
98.022255220356
 20
611.667162367648
 30
0.0
 40
3.0
  0
CIRCLE
  5
8BF7
330
1A
100
AcDbEntity
  8
外形線
100
AcDbCircle
 10
33.022255781697
 20
546.675704867647
 30
0.0
 40
3.0
  0
CIRCLE
  5
8BF8
330
1A
100
AcDbEntity
  8
細線
100
AcDbCircle
 10
33.022255781697
 20
546.675704867647
 30
0.0
 40
4.0
  0
CIRCLE
  5
8BF9
330
1A
100
AcDbEntity
  8
細線
100
AcDbCircle
 10
-31.977743656962
 20
611.667162367648
 30
0.0
 40
4.0
  0
CIRCLE
  5
8BFA
330
1A
100
AcDbEntity
  8
外形線
100
AcDbCircle
 10
-31.977743656962
 20
611.667162367648
 30
0.0
 40
3.0
  0
LINE
  5
8CBF
330
1A
100
AcDbEntity
  8
外形線
 48
10.0
100
AcDbLine
 10
40.531652480282
 20
615.814260895843
 30
0.0
 11
40.531652480282
 21
619.132333678066
 31
0.0
  0
LINE
  5
8CC0
330
1A
100
AcDbEntity
  8
外形線
 48
10.0
100
AcDbLine
 10
25.531652480282
 20
615.814260834681
 30
0.0
 11
25.531652480282
 21
619.132333678066
 31
0.0
  0
LINE
  5
8CC1
330
1A
100
AcDbEntity
  8
外形線
 48
10.0
100
AcDbLine
 10
25.531652480282
 20
599.132333678066
 30
0.0
 11
25.531652480282
 21
607.564132044769
 31
0.0
  0
LINE
  5
8CC2
330
1A
100
AcDbEntity
  8
外形線
 48
10.0
100
AcDbLine
 10
40.531652480282
 20
599.132333678066
 30
0.0
 11
40.531652480282
 21
607.529184130148
 31
0.0
  0
LINE
  5
8CC6
330
1A
100
AcDbEntity
  8
外形線
 48
10.0
100
AcDbLine
 10
40.531652480282
 20
619.132333678066
 30
0.0
 11
37.244716114498
 21
619.132333678066
 31
0.0
  0
LINE
  5
8CC7
330
1A
100
AcDbEntity
  8
外形線
 48
10.0
100
AcDbLine
 10
40.531652480282
 20
599.132333678066
 30
0.0
 11
34.459643545463
 21
599.132333678066
 31
0.0
  0
LINE
  5
8CC8
330
1A
100
AcDbEntity
  8
中心線
 48
10.0
100
AcDbLine
 10
46.022029997173
 20
606.982333678066
 30
0.0
 11
36.531652497173
 21
606.982333678066
 31
0.0
  0
LINE
  5
8CC9
330
1A
100
AcDbEntity
  8
外形線
 48
10.0
100
AcDbLine
 10
28.818588879848
 20
619.132333678066
 30
0.0
 11
25.531652480282
 21
619.132333678066
 31
0.0
  0
LINE
  5
8CCA
330
1A
100
AcDbEntity
  8
外形線
 48
10.0
100
AcDbLine
 10
31.603639030928
 20
599.132333678066
 30
0.0
 11
25.531652480282
 21
599.132333678066
 31
0.0
  0
LINE
  5
8CCB
330
1A
100
AcDbEntity
  8
外形線
 48
10.0
100
AcDbLine
 10
41.431449480697
 20
609.982333678066
 30
0.0
 11
44.876650751091
 21
609.982333678066
 31
0.0
  0
LINE
  5
8CCC
330
1A
100
AcDbEntity
  8
外形線
 48
10.0
100
AcDbLine
 10
40.531652480282
 20
603.982333678066
 30
0.0
 11
44.876650751091
 21
603.982333678066
 31
0.0
  0
LINE
  5
8CEA
330
1A
100
AcDbEntity
  8
外形線
 48
10.0
100
AcDbLine
 10
44.876650751091
 20
609.982333678066
 30
0.0
 11
44.876650751091
 21
603.982333678066
 31
0.0
  0
LINE
  5
8CEB
330
1A
100
AcDbEntity
  8
寸法線
 62
     1
 48
10.0
100
AcDbLine
 10
41.611518295395
 20
603.982333678066
 30
0.0
 11
41.611518295395
 21
609.982333678066
 31
0.0
  0
ARC
  5
8D14
330
1A
100
AcDbEntity
  8
外形線
 48
10.0
100
AcDbCircle
 10
33.02209749717
 20
611.667162367648
 30
0.0
 40
9.980521113939817
100
AcDbArc
 50
138.634263273399
 51
221.365736726601
  0
ARC
  5
8D15
330
1A
100
AcDbEntity
  8
外形線
 48
10.0
100
AcDbCircle
 10
33.02209749717
 20
611.667162367648
 30
0.0
 40
9.980521113939817
100
AcDbArc
 50
48.415191719235
 51
81.772919795408
  0
ARC
  5
8D16
330
1A
100
AcDbEntity
  8
外形線
 48
10.0
100
AcDbCircle
 10
33.02209749717
 20
611.667162367648
 30
0.0
 40
9.980521113939817
100
AcDbArc
 50
350.281264294593
 51
41.199458782662
  0
ARC
  5
8D17
330
1A
100
AcDbEntity
  8
外形線
 48
10.0
100
AcDbCircle
 10
33.02209749717
 20
611.667162367648
 30
0.0
 40
9.980521113939817
100
AcDbArc
 50
98.225019640875
 51
131.584808280765
  0
ARC
  5
8D18
330
1A
100
AcDbEntity
  8
細線
 48
10.0
100
AcDbCircle
 10
33.02209749717
 20
611.667162367648
 30
0.0
 40
8.518852863664373
100
AcDbArc
 50
279.651173507392
 51
80.348826492608
  0
LINE
  5
8D19
330
1A
100
AcDbEntity
  8
外形線
 48
10.0
100
AcDbLine
 10
31.594272861249
 20
619.361660291698
 30
0.0
 11
25.644554504654
 21
615.926588796916
 31
0.0
  0
LINE
  5
8D1A
330
1A
100
AcDbEntity
  8
外形線
 48
10.0
100
AcDbLine
 10
34.450277375784
 20
619.361546894902
 30
0.0
 11
40.39956107028
 21
615.926726352399
 31
0.0
  0
LINE
  5
8D1B
330
1A
100
AcDbEntity
  8
外形線
 48
10.0
100
AcDbLine
 10
25.644554504654
 20
615.926588796916
 30
0.0
 11
25.644554504654
 21
607.40773593838
 31
0.0
  0
LINE
  5
8D1C
330
1A
100
AcDbEntity
  8
外形線
 48
10.0
100
AcDbLine
 10
40.39956107028
 20
615.926726352399
 30
0.0
 11
40.39956107028
 21
607.407598382896
 31
0.0
  0
LINE
  5
8D1D
330
1A
100
AcDbEntity
  8
外形線
 48
10.0
100
AcDbLine
 10
31.594272861249
 20
603.972664443598
 30
0.0
 11
25.644554504654
 21
607.40773593838
 31
0.0
  0
LINE
  5
8D1E
330
1A
100
AcDbEntity
  8
外形線
 48
10.0
100
AcDbLine
 10
34.450277375784
 20
603.972777840394
 30
0.0
 11
40.39956107028
 21
607.407598382896
 31
0.0
  0
ARC
  5
8D20
330
1A
100
AcDbEntity
  8
細線
 48
10.0
100
AcDbCircle
 10
33.02209749717
 20
611.667162367648
 30
0.0
 40
7.377542992515782
100
AcDbArc
 50
281.16206097357
 51
78.83793902643
  0
ARC
  5
8D21
330
1A
100
AcDbEntity
  8
細線
 48
10.0
100
AcDbCircle
 10
33.02209749717
 20
611.667162367648
 30
0.0
 40
7.377542992515782
100
AcDbArc
 50
101.159248891838
 51
258.840751108162
  0
ARC
  5
8D22
330
1A
100
AcDbEntity
  8
細線
 48
10.0
100
AcDbCircle
 10
33.02209749717
 20
611.667162367648
 30
0.0
 40
8.518852863664373
100
AcDbArc
 50
99.648749936528
 51
260.351250063472
  0
VIEWPORT
  5
2902
330
28FB
100
AcDbEntity
 67
     1
  8
0
 48
10.0
100
AcDbViewport
 10
205.385757446289
 20
143.184346847534
 30
0.0
 40
507.572417547164
 41
302.53399960839
 68
     1
 69
     1
1001
ACAD
1000
MVIEW
1002
{
1070
    16
1010
0.0
1020
0.0
1030
0.0
1010
0.0
1020
0.0
1030
1.0
1040
0.0
1040
302.53399960839
1040
205.385757446289
1040
143.184346847534
1040
50.0
1040
0.0
1040
0.0
1070
     0
1070
   100
1070
     0
1070
     1
1070
     0
1070
     0
1070
     0
1070
     0
1040
0.0
1040
0.0
1040
0.0
1040
10.0
1040
10.0
1040
10.0
1040
10.0
1070
     0
1002
{
1002
}
1002
}
  0
VIEWPORT
  5
2904
330
28FB
100
AcDbEntity
 67
     1
  8
図枠太線
 48
10.0
100
AcDbViewport
 10
204.746305129083
 20
161.396645458131
 30
0.0
 40
400.0
 41
240.0
 68
     2
 69
     2
1001
ACAD
1000
MVIEW
1002
{
1070
    16
1010
0.0
1020
0.0
1030
0.0
1010
0.0
1020
0.0
1030
1.0
1040
0.0
1040
599.999998534488
1040
428.507786938727
1040
467.660869078415
1040
50.0
1040
0.0
1040
0.0
1070
     0
1070
   100
1070
     0
1070
     0
1070
     0
1070
     0
1070
     0
1070
     0
1040
0.0
1040
0.0
1040
0.0
1040
1.0
1040
1.0
1040
0.0
1040
0.0
1070
     0
1002
{
1002
}
1002
}
  0
INSERT
  5
2A59
330
28FB
100
AcDbEntity
 67
     1
  8
図枠太線
100
AcDbBlockReference
  2
A3横用_タイトル
 10
-0.352109406709
 20
-2.129314295396
 30
0.0
  0
MTEXT
  5
2FE5
330
28FB
100
AcDbEntity
 67
     1
  8
寸法線
 48
10.0
100
AcDbMText
 10
363.177813562453
 20
37.101021772108
 30
0.0
 40
5.0
 41
45.27425591701
 71
     1
 72
     5
  1
パドル式\Pレベルスイッチ
  0
MTEXT
  5
2FE6
330
28FB
100
AcDbEntity
 67
     1
  8
寸法線
 48
10.0
100
AcDbMText
 10
312.858533615354
 20
33.854739812749
 30
0.0
 40
7.0
 41
35.987227926891
 71
     1
 72
     5
  1
PRL-F7EB
  0
MTEXT
  5
2FE7
330
28FB
100
AcDbEntity
 67
     1
  8
寸法線
 48
10.0
100
AcDbMText
 10
146.077332112683
 20
14.022357319784
 30
0.0
 40
7.0
 41
12.5019545219
 71
     1
 72
     5
  1
1:2.5
  0
MTEXT
  5
2FEB
102
{ACAD_XDICTIONARY
360
8560
102
}
330
28FB
100
AcDbEntity
 67
     1
  8
寸法線
 48
10.0
100
AcDbMText
 10
341.544198781952
 20
14.917354273555
 30
0.0
 40
8.0
 41
36.402559001308
 71
     1
 72
     5
  1
HR-90003
1001
ACADANNOTATIVE
1000
AnnotativeData
1002
{
1070
     1
1070
     0
1002
}
  0
MTEXT
  5
2FEC
330
28FB
100
AcDbEntity
 67
     1
  8
寸法線
 48
10.0
100
AcDbMText
 10
373.949051752515
 20
48.742699288767
 30
0.0
 40
5.0
 41
33.206838365079
 71
     1
 72
     5
  1
台数   台
  0
MTEXT
  5
4936
102
{ACAD_XDICTIONARY
360
855D
102
}
330
28FB
100
AcDbEntity
 67
     1
  8
寸法線
 48
10.0
100
AcDbMText
 10
174.423592077792
 20
12.151996916646
 30
0.0
 40
5.0
 41
63.606060606061
 71
     1
 72
     5
  1
2015.6.16
1001
ACADANNOTATIVE
1000
AnnotativeData
1002
{
1070
     1
1070
     0
1002
}
  0
MTEXT
  5
4937
330
28FB
100
AcDbEntity
 67
     1
  8
寸法線
 48
10.0
100
AcDbMText
 10
180.969782321733
 20
32.229377230579
 30
0.0
 40
5.0
 41
23.879746689072
 71
     1
 72
     5
  1
ohno
  0
ENDSEC
  0
SECTION
  2
OBJECTS
  0
DICTIONARY
  5
C
330
0
100
AcDbDictionary
  3
ACAD_COLOR
350
2948
  3
ACAD_GROUP
350
D
  3
ACAD_LAYOUT
350
2816
  3
ACAD_MATERIAL
350
2947
  3
ACAD_MLEADERSTYLE
350
7B84
  3
ACAD_MLINESTYLE
350
E
  3
ACAD_PLOTSETTINGS
350
2817
  3
ACAD_SCALELIST
350
7B5E
  3
ACAD_VISUALSTYLE
350
7B45
  3
ACADDIM
350
3450
  3
ACDBHEADERROUNDTRIPXREC
350
8D26
  3
ACDBVARIABLEDICTIONARY
350
8563
  3
DWGPROPS
350
8D4B
  0
DICTIONARY
  5
8D4C
330
8
100
AcDbDictionary
280
     1
  3
ACAD_XREC_ROUNDTRIP
360
8D4D
  0
DICTIONARY
  5
29EA
330
2
100
AcDbDictionary
280
     1
  3
ACAD_LAYERFILTERS
360
2B0C
  3
ACAD_LAYERSTATES
360
29EB
  0
DICTIONARY
  5
8D23
330
7F8B
100
AcDbDictionary
280
     1
  3
ACDBCONTEXTDATAMANAGER
360
8D24
  0
DICTIONARY
  5
7F95
330
7F94
100
AcDbDictionary
280
     1
  3
ACDBCONTEXTDATAMANAGER
360
7F96
  0
DICTIONARY
  5
7F9B
330
7F9A
100
AcDbDictionary
280
     1
  3
ACDBCONTEXTDATAMANAGER
360
7F9C
  0
DICTIONARY
  5
7FAD
330
7FAC
100
AcDbDictionary
280
     1
  3
ACDBCONTEXTDATAMANAGER
360
7FAE
  0
DICTIONARY
  5
7FBA
330
7FB9
100
AcDbDictionary
280
     1
  3
ACDBCONTEXTDATAMANAGER
360
7FBB
  0
DICTIONARY
  5
855A
330
8559
100
AcDbDictionary
280
     1
  3
ACDBCONTEXTDATAMANAGER
360
855B
  0
DICTIONARY
  5
8560
330
2FEB
100
AcDbDictionary
280
     1
  3
ACDBCONTEXTDATAMANAGER
360
8561
  0
DICTIONARY
  5
855D
330
4936
100
AcDbDictionary
280
     1
  3
ACDBCONTEXTDATAMANAGER
360
855E
  0
DICTIONARY
  5
2948
102
{ACAD_REACTORS
330
C
102
}
330
C
100
AcDbDictionary
  0
DICTIONARY
  5
D
102
{ACAD_REACTORS
330
C
102
}
330
C
100
AcDbDictionary
  0
DICTIONARY
  5
2816
102
{ACAD_REACTORS
330
C
102
}
330
C
100
AcDbDictionary
  0
DICTIONARY
  5
2947
102
{ACAD_REACTORS
330
C
102
}
330
C
100
AcDbDictionary
  3
BYBLOCK
350
7B81
  3
BYLAYER
350
7B80
  3
GLOBAL
350
5486
  0
DICTIONARY
  5
7B84
102
{ACAD_REACTORS
330
C
102
}
330
C
100
AcDbDictionary
  3
STANDARD
350
7B85
  0
DICTIONARY
  5
E
102
{ACAD_REACTORS
330
C
102
}
330
C
100
AcDbDictionary
  3
STANDARD
350
13
  0
DICTIONARY
  5
2817
102
{ACAD_REACTORS
330
C
102
}
330
C
100
AcDbDictionary
  0
DICTIONARY
  5
7B5E
102
{ACAD_REACTORS
330
C
102
}
330
C
100
AcDbDictionary
  3
A0
350
7B5F
  3
A1
350
7B60
  3
A2
350
7B61
  3
A3
350
7B62
  3
A4
350
7B63
  3
A5
350
7B64
  3
A6
350
7B65
  3
A7
350
7B66
  3
A8
350
7B67
  3
A9
350
7B68
  3
B0
350
7B69
  3
B1
350
7B6A
  3
B2
350
7B6B
  3
B3
350
7B6C
  3
B4
350
7B6D
  3
B5
350
7B6E
  3
B6
350
7B6F
  3
B7
350
7B70
  3
B8
350
7B71
  3
B9
350
7B72
  3
C0
350
7B73
  3
C1
350
7B74
  3
C2
350
7B75
  3
C3
350
7B76
  3
C4
350
7B77
  3
C5
350
7B78
  3
C6
350
7B79
  3
C7
350
7B7A
  3
C8
350
7B7B
  3
C9
350
7B7C
  3
D0
350
7B7D
  3
D1
350
7B7E
  3
D2
350
7B7F
  0
DICTIONARY
  5
7B45
102
{ACAD_REACTORS
330
C
102
}
330
C
100
AcDbDictionary
  3
2DWIREFRAME
350
7B4A
  3
BASIC
350
7B4D
  3
BRIGHTEN
350
7B51
  3
COLORCHANGE
350
7B55
  3
CONCEPTUAL
350
7B4F
  3
DIM
350
7B50
  3
EDGECOLOROFF
350
7B58
  3
FACEPATTERN
350
7B54
  3
FLAT
350
7B46
  3
FLATWITHEDGES
350
7B47
  3
GOURAUD
350
7B48
  3
GOURAUDWITHEDGES
350
7B49
  3
HIDDEN
350
7B4C
  3
JITTEROFF
350
7B56
  3
LINEPATTERN
350
7B53
  3
OVERHANGOFF
350
7B57
  3
REALISTIC
350
7B4E
  3
SHADED
350
7B5D
  3
SHADED_WITH_EDGES
350
7B5C
  3
SHADES_OF_GRAY
350
7B59
  3
SKETCHY
350
7B5A
  3
THICKEN
350
7B52
  3
WIREFRAME
350
7B4B
  3
X-RAY
350
7B5B
  0
XRECORD
  5
3450
102
{ACAD_REACTORS
330
C
102
}
330
C
100
AcDbXrecord
 90
   990106
  3

 60
     0
 61
     0
 62
     1
 63
     3
 64
     0
 65
     0
 66
     0
 67
     3
 68
     1
 69
     0
 70
     0
 71
     0
 72
     0
 40
88.016021699386
170
     0
  0
DICTIONARY
  5
8D26
102
{ACAD_REACTORS
330
C
102
}
330
C
100
AcDbDictionary
  3
CEPSNID
350
8D30
  3
CEPSNTYPE
350
8D2F
  3
COLORDICT
350
8D49
  3
DIMSTYLEDATA
350
8D46
  3
FINGERPRINTGUID
350
8D31
  3
HYPERLINKBASE
350
8D29
  3
INSUNITS
350
8D2E
  3
LAYOUTDICT
350
8D2B
  3
LWETCUNION
350
8D2D
  3
MATERIALDICT
350
8D4A
  3
PLOTSETDICT
350
8D2C
  3
PSVPSCALE
350
8D33
  3
PUCSBASE
350
8D36
  3
PUCSORGBACK
350
8D3C
  3
PUCSORGBOTTOM
350
8D38
  3
PUCSORGFRONT
350
8D3B
  3
PUCSORGLEFT
350
8D39
  3
PUCSORGRIGHT
350
8D3A
  3
PUCSORGTOP
350
8D37
  3
PUCSORTHOREF
350
8D34
  3
PUCSORTHOVIEW
350
8D35
  3
STYLESHEET
350
8D2A
  3
TSTACKALIGN
350
8D27
  3
TSTACKSIZE
350
8D28
  3
UCSBASE
350
8D3F
  3
UCSORGBACK
350
8D45
  3
UCSORGBOTTOM
350
8D41
  3
UCSORGFRONT
350
8D44
  3
UCSORGLEFT
350
8D42
  3
UCSORGRIGHT
350
8D43
  3
UCSORGTOP
350
8D40
  3
UCSORTHOREF
350
8D3D
  3
UCSORTHOVIEW
350
8D3E
  3
VERSIONGUID
350
8D32
  0
DICTIONARY
  5
8563
102
{ACAD_REACTORS
330
C
102
}
330
C
100
AcDbDictionary
  3
CANNOSCALE
350
8564
  3
CMLEADERSTYLE
350
8566
  3
CTABLESTYLE
350
8565
  3
DIMASSOC
350
8D47
  3
HIDETEXT
350
8D48
  3
MSLTSCALE
350
8567
  3
XCLIPFRAME
350
8568
  0
XRECORD
  5
8D4B
102
{ACAD_REACTORS
330
C
102
}
330
C
100
AcDbXrecord
  1
DWGPROPS COOKIE
  2

  3

  4

  6

  7

  8
y-ohno
  9

300
=
301
=
302
=
303
=
304
=
305
=
306
=
307
=
308
=
309
=
 40
0.0
 41
2450576.222302431
 42
2457193.284746609
  1

 90
        0
  0
XRECORD
  5
8D4D
102
{ACAD_REACTORS
330
8D4C
102
}
330
8D4C
100
AcDbXrecord
102
VTR_0.000_0.000_1.000_1.000_VISUALSTYLE
340
7B4A
102
VTR_0.000_0.000_1.000_1.000_GRIDDISPLAY
 70
     3
102
VTR_0.000_0.000_1.000_1.000_GRIDMAJOR
 70
     5
102
VTR_0.000_0.000_1.000_1.000_DEFAULTLIGHTING
280
     1
102
VTR_0.000_0.000_1.000_1.000_DEFAULTLIGHTINGTYPE
 70
     1
102
VTR_0.000_0.000_1.000_1.000_BRIGHTNESS
141
0.0
102
VTR_0.000_0.000_1.000_1.000_CONTRAST
142
0.0
  0
DICTIONARY
  5
2B0C
102
{ACAD_REACTORS
330
29EA
102
}
330
29EA
100
AcDbDictionary
  0
DICTIONARY
  5
29EB
102
{ACAD_REACTORS
330
29EA
102
}
330
29EA
100
AcDbDictionary
  0
DICTIONARY
  5
8D24
102
{ACAD_REACTORS
330
8D23
102
}
330
8D23
100
AcDbDictionary
  3
ACDB_ANNOTATIONSCALES
350
8D25
  0
DICTIONARY
  5
7F96
102
{ACAD_REACTORS
330
7F95
102
}
330
7F95
100
AcDbDictionary
  3
ACDB_ANNOTATIONSCALES
350
7F97
  0
DICTIONARY
  5
7F9C
102
{ACAD_REACTORS
330
7F9B
102
}
330
7F9B
100
AcDbDictionary
  3
ACDB_ANNOTATIONSCALES
350
7F9D
  0
DICTIONARY
  5
7FAE
102
{ACAD_REACTORS
330
7FAD
102
}
330
7FAD
100
AcDbDictionary
  3
ACDB_ANNOTATIONSCALES
350
7FAF
  0
DICTIONARY
  5
7FBB
102
{ACAD_REACTORS
330
7FBA
102
}
330
7FBA
100
AcDbDictionary
  3
ACDB_ANNOTATIONSCALES
350
7FBC
  0
DICTIONARY
  5
855B
102
{ACAD_REACTORS
330
855A
102
}
330
855A
100
AcDbDictionary
  3
ACDB_ANNOTATIONSCALES
350
855C
  0
DICTIONARY
  5
8561
102
{ACAD_REACTORS
330
8560
102
}
330
8560
100
AcDbDictionary
  3
ACDB_ANNOTATIONSCALES
350
8562
  0
DICTIONARY
  5
855E
102
{ACAD_REACTORS
330
855D
102
}
330
855D
100
AcDbDictionary
  3
ACDB_ANNOTATIONSCALES
350
855F
  0
MATERIAL
  5
7B81
102
{ACAD_REACTORS
330
2947
102
}
102
{ACAD_XDICTIONARY
360
8D52
102
}
330
2947
100
AcDbMaterial
  1
BYBLOCK
  0
MATERIAL
  5
7B80
102
{ACAD_REACTORS
330
2947
102
}
102
{ACAD_XDICTIONARY
360
8D50
102
}
330
2947
100
AcDbMaterial
  1
BYLAYER
  0
MATERIAL
  5
5486
102
{ACAD_REACTORS
330
2947
102
}
102
{ACAD_XDICTIONARY
360
8D4E
102
}
330
2947
100
AcDbMaterial
  1
GLOBAL
  0
ACAD_PROXY_OBJECT
  5
7B85
102
{ACAD_REACTORS
330
7B84
102
}
330
7B84
100
AcDbProxyObject
 90
      499
 91
      508
 93
      610
310
40901902A4063FBFFFFFE0000000000000020400000000000020404214DD185B99185C990000000000000104090141901A00000000000004100000000000000041025764000000000000039000
340
14
340
0
340
10
340
0
 94
        0
1001
ACAD_MLEADERVER
1070
     2
  0
MLINESTYLE
  5
13
102
{ACAD_REACTORS
330
E
102
}
330
E
100
AcDbMlineStyle
  2
STANDARD
 70
     0
  3

 62
     0
 51
90.0
 52
90.0
 71
     2
 49
0.5
 62
   256
  6
BYLAYER
 49
-0.5
 62
   256
  6
BYLAYER
  0
ACAD_PROXY_OBJECT
  5
7B5F
102
{ACAD_REACTORS
330
7B5E
102
}
330
7B5E
100
AcDbProxyObject
 90
      499
 91
      506
 93
       41
310
903313A31580
  0
ACAD_PROXY_OBJECT
  5
7B60
102
{ACAD_REACTORS
330
7B5E
102
}
330
7B5E
100
AcDbProxyObject
 90
      499
 91
      506
 93
      105
310
903313A324000000000000004000
  0
ACAD_PROXY_OBJECT
  5
7B61
102
{ACAD_REACTORS
330
7B5E
102
}
330
7B5E
100
AcDbProxyObject
 90
      499
 91
      506
 93
      105
310
903313A344000000000000104000
  0
ACAD_PROXY_OBJECT
  5
7B62
102
{ACAD_REACTORS
330
7B5E
102
}
330
7B5E
100
AcDbProxyObject
 90
      499
 91
      506
 93
      105
310
903313A354000000000000144000
  0
ACAD_PROXY_OBJECT
  5
7B63
102
{ACAD_REACTORS
330
7B5E
102
}
330
7B5E
100
AcDbProxyObject
 90
      499
 91
      506
 93
      105
310
903313A384000000000000204000
  0
ACAD_PROXY_OBJECT
  5
7B64
102
{ACAD_REACTORS
330
7B5E
102
}
330
7B5E
100
AcDbProxyObject
 90
      499
 91
      506
 93
      113
310
904313A31304000000000000244000
  0
ACAD_PROXY_OBJECT
  5
7B65
102
{ACAD_REACTORS
330
7B5E
102
}
330
7B5E
100
AcDbProxyObject
 90
      499
 91
      506
 93
      113
310
904313A31364000000000000304000
  0
ACAD_PROXY_OBJECT
  5
7B66
102
{ACAD_REACTORS
330
7B5E
102
}
330
7B5E
100
AcDbProxyObject
 90
      499
 91
      506
 93
      113
310
904313A32304000000000000344000
  0
ACAD_PROXY_OBJECT
  5
7B67
102
{ACAD_REACTORS
330
7B5E
102
}
330
7B5E
100
AcDbProxyObject
 90
      499
 91
      506
 93
      113
310
904313A333040000000000003E4000
  0
ACAD_PROXY_OBJECT
  5
7B68
102
{ACAD_REACTORS
330
7B5E
102
}
330
7B5E
100
AcDbProxyObject
 90
      499
 91
      506
 93
      113
310
904313A34304000000000000444000
  0
ACAD_PROXY_OBJECT
  5
7B69
102
{ACAD_REACTORS
330
7B5E
102
}
330
7B5E
100
AcDbProxyObject
 90
      499
 91
      506
 93
      113
310
904313A35304000000000000494000
  0
ACAD_PROXY_OBJECT
  5
7B6A
102
{ACAD_REACTORS
330
7B5E
102
}
330
7B5E
100
AcDbProxyObject
 90
      499
 91
      506
 93
      121
310
905313A3130304000000000000594000
  0
ACAD_PROXY_OBJECT
  5
7B6B
102
{ACAD_REACTORS
330
7B5E
102
}
330
7B5E
100
AcDbProxyObject
 90
      499
 91
      506
 93
      105
310
903323A310000000000000010100
  0
ACAD_PROXY_OBJECT
  5
7B6C
102
{ACAD_REACTORS
330
7B5E
102
}
330
7B5E
100
AcDbProxyObject
 90
      499
 91
      506
 93
      105
310
903343A310000000000000410100
  0
ACAD_PROXY_OBJECT
  5
7B6D
102
{ACAD_REACTORS
330
7B5E
102
}
330
7B5E
100
AcDbProxyObject
 90
      499
 91
      506
 93
      105
310
903383A310000000000000810100
  0
ACAD_PROXY_OBJECT
  5
7B6E
102
{ACAD_REACTORS
330
7B5E
102
}
330
7B5E
100
AcDbProxyObject
 90
      499
 91
      506
 93
      113
310
90431303A310000000000000910100
  0
ACAD_PROXY_OBJECT
  5
7B6F
102
{ACAD_REACTORS
330
7B5E
102
}
330
7B5E
100
AcDbProxyObject
 90
      499
 91
      506
 93
      121
310
9053130303A310000000000001650100
  0
ACAD_PROXY_OBJECT
  5
7B70
102
{ACAD_REACTORS
330
7B5E
102
}
330
7B5E
100
AcDbProxyObject
 90
      499
 91
      506
 93
      257
310
90E312F31323822203D2031272D3022000000000000200FC000000000000284000
  0
ACAD_PROXY_OBJECT
  5
7B71
102
{ACAD_REACTORS
330
7B5E
102
}
330
7B5E
100
AcDbProxyObject
 90
      499
 91
      506
 93
      249
310
90D312F363422203D2031272D3022000000000000240FC000000000000284000
  0
ACAD_PROXY_OBJECT
  5
7B72
102
{ACAD_REACTORS
330
7B5E
102
}
330
7B5E
100
AcDbProxyObject
 90
      499
 91
      506
 93
      249
310
90D312F333222203D2031272D3022000000000000280FC000000000000284000
  0
ACAD_PROXY_OBJECT
  5
7B73
102
{ACAD_REACTORS
330
7B5E
102
}
330
7B5E
100
AcDbProxyObject
 90
      499
 91
      506
 93
      249
310
90D312F313622203D2031272D30220000000000002C0FC000000000000284000
  0
ACAD_PROXY_OBJECT
  5
7B74
102
{ACAD_REACTORS
330
7B5E
102
}
330
7B5E
100
AcDbProxyObject
 90
      499
 91
      506
 93
      249
310
90D332F333222203D2031272D30220000000000002E0FC000000000000284000
  0
ACAD_PROXY_OBJECT
  5
7B75
102
{ACAD_REACTORS
330
7B5E
102
}
330
7B5E
100
AcDbProxyObject
 90
      499
 91
      506
 93
      241
310
90C312F3822203D2031272D3022000000000000300FC000000000000284000
  0
ACAD_PROXY_OBJECT
  5
7B76
102
{ACAD_REACTORS
330
7B5E
102
}
330
7B5E
100
AcDbProxyObject
 90
      499
 91
      506
 93
      249
310
90D332F313622203D2031272D3022000000000000320FC000000000000284000
  0
ACAD_PROXY_OBJECT
  5
7B77
102
{ACAD_REACTORS
330
7B5E
102
}
330
7B5E
100
AcDbProxyObject
 90
      499
 91
      506
 93
      241
310
90C312F3422203D2031272D3022000000000000340FC000000000000284000
  0
ACAD_PROXY_OBJECT
  5
7B78
102
{ACAD_REACTORS
330
7B5E
102
}
330
7B5E
100
AcDbProxyObject
 90
      499
 91
      506
 93
      241
310
90C332F3822203D2031272D3022000000000000360FC000000000000284000
  0
ACAD_PROXY_OBJECT
  5
7B79
102
{ACAD_REACTORS
330
7B5E
102
}
330
7B5E
100
AcDbProxyObject
 90
      499
 91
      506
 93
      241
310
90C312F3222203D2031272D3022000000000000380FC000000000000284000
  0
ACAD_PROXY_OBJECT
  5
7B7A
102
{ACAD_REACTORS
330
7B5E
102
}
330
7B5E
100
AcDbProxyObject
 90
      499
 91
      506
 93
      241
310
90C332F3422203D2031272D30220000000000003A0FC000000000000284000
  0
ACAD_PROXY_OBJECT
  5
7B7B
102
{ACAD_REACTORS
330
7B5E
102
}
330
7B5E
100
AcDbProxyObject
 90
      499
 91
      506
 93
      161
310
90A3122203D2031272D30224000000000000284000
  0
ACAD_PROXY_OBJECT
  5
7B7C
102
{ACAD_REACTORS
330
7B5E
102
}
330
7B5E
100
AcDbProxyObject
 90
      499
 91
      506
 93
      257
310
90E312D312F3222203D2031272D30220000000000003E0FC000000000000284000
  0
ACAD_PROXY_OBJECT
  5
7B7D
102
{ACAD_REACTORS
330
7B5E
102
}
330
7B5E
100
AcDbProxyObject
 90
      499
 91
      506
 93
      225
310
90A3322203D2031272D302200000000000002100000000000000284000
  0
ACAD_PROXY_OBJECT
  5
7B7E
102
{ACAD_REACTORS
330
7B5E
102
}
330
7B5E
100
AcDbProxyObject
 90
      499
 91
      506
 93
      225
310
90A3622203D2031272D302200000000000006100000000000000284000
  0
ACAD_PROXY_OBJECT
  5
7B7F
102
{ACAD_REACTORS
330
7B5E
102
}
330
7B5E
100
AcDbProxyObject
 90
      499
 91
      506
 93
      249
310
90D31272D3022203D2031272D30220000000000000A100000000000000284000
  0
ACAD_PROXY_OBJECT
  5
7B4A
102
{ACAD_REACTORS
330
7B45
102
}
330
7B45
100
AcDbProxyObject
 90
      499
 91
      505
 93
      436
310
42CC9915DA5C99599C985B595049028333333333333E33F0000000000000F90107901411070040501600405405064090741402480A0340
1001
ACAD
1000
AcDbSavedByObjectVersion
1070
     0
  0
ACAD_PROXY_OBJECT
  5
7B4D
102
{ACAD_REACTORS
330
7B45
102
}
330
7B45
100
AcDbProxyObject
 90
      499
 91
      505
 93
      388
310
4150985CDA58D07406404333333333333E33F0000000000000F90107A41107004050150841D405064090741402480A0350
1001
ACAD
1000
AcDbSavedByObjectVersion
1070
     0
  0
ACAD_PROXY_OBJECT
  5
7B51
102
{ACAD_REACTORS
330
7B45
102
}
330
7B45
100
AcDbProxyObject
 90
      499
 91
      505
 93
      428
310
42109C9A59DA1D195B90C409028333333333333E33F0000000000000F9010790141107004050150841D405064090741402480A029950
1001
ACAD
1000
AcDbSavedByObjectVersion
1070
     0
  0
ACAD_PROXY_OBJECT
  5
7B55
102
{ACAD_REACTORS
330
7B45
102
}
330
7B45
100
AcDbProxyObject
 90
      499
 91
      505
 93
      452
310
42D0DBDB1BDC90DA185B99D95104090240C333333333333E33F0000000000000F90108901411070040501508421405064090741402480A0350
1001
ACAD
1000
AcDbSavedByObjectVersion
1070
     0
  0
ACAD_PROXY_OBJECT
  5
7B4F
102
{ACAD_REACTORS
330
7B45
102
}
330
7B45
100
AcDbProxyObject
 90
      499
 91
      505
 93
      500
310
4290DBDB98D95C1D1D585B10940D028333333333333E33F0000000000000F90107902409070040501000000000018199010841D405064090740C02480A0340
1001
ACAD
1000
AcDbSavedByObjectVersion
1070
     0
  0
ACAD_PROXY_OBJECT
  5
7B50
102
{ACAD_REACTORS
330
7B45
102
}
330
7B45
100
AcDbProxyObject
 90
      499
 91
      505
 93
      412
310
40D11A5B50B409028333333333333E33F0000000000000F9010790141107004050150841D405064090741402480A02677FFFFFD0
1001
ACAD
1000
AcDbSavedByObjectVersion
1070
     0
  0
ACAD_PROXY_OBJECT
  5
7B58
102
{ACAD_REACTORS
330
7B45
102
}
330
7B45
100
AcDbProxyObject
 90
      499
 91
      505
 93
      452
310
43115919D950DBDB1BDC93D999916409028333333333333E33F0000000000000F9010790141107004050150841D405064090741402480A0350
1001
ACAD
1000
AcDbSavedByObjectVersion
1070
     0
  0
ACAD_PROXY_OBJECT
  5
7B54
102
{ACAD_REACTORS
330
7B45
102
}
330
7B45
100
AcDbProxyObject
 90
      499
 91
      505
 93
      444
310
42D19858D95C185D1D195C9B90F409028333333333333E33F0000000000000F9010790141107004050150841D405064090741402480A0350
1001
ACAD
1000
AcDbSavedByObjectVersion
1070
     0
  0
ACAD_PROXY_OBJECT
  5
7B46
102
{ACAD_REACTORS
330
7B45
102
}
330
7B45
100
AcDbProxyObject
 90
      499
 91
      505
 93
      380
310
41119B185D240901404333333333333E33F0000000000000F9010740A907004050150841D405064090741402480A1B50
1001
ACAD
1000
AcDbSavedByObjectVersion
1070
     0
  0
ACAD_PROXY_OBJECT
  5
7B47
102
{ACAD_REACTORS
330
7B45
102
}
330
7B45
100
AcDbProxyObject
 90
      499
 91
      505
 93
      468
310
43519B185D15DA5D1A115919D95CD0140901404333333333333E33F0000000000000F90107409019070040501600405405064090741402480A1B50
1001
ACAD
1000
AcDbSavedByObjectVersion
1070
     0
  0
ACAD_PROXY_OBJECT
  5
7B48
102
{ACAD_REACTORS
330
7B45
102
}
330
7B45
100
AcDbProxyObject
 90
      499
 91
      505
 93
      404
310
41D1DBDD5C985D5910240902404333333333333E33F0000000000000F9010740A9070040501641D405064090741402480A1B50
1001
ACAD
1000
AcDbSavedByObjectVersion
1070
     0
  0
ACAD_PROXY_OBJECT
  5
7B49
102
{ACAD_REACTORS
330
7B45
102
}
330
7B45
100
AcDbProxyObject
 90
      499
 91
      505
 93
      492
310
4411DBDD5C985D5915DA5D1A115919D95CD0340902404333333333333E33F0000000000000F90107409019070040501600405405064090741402480A1B50
1001
ACAD
1000
AcDbSavedByObjectVersion
1070
     0
  0
ACAD_PROXY_OBJECT
  5
7B4C
102
{ACAD_REACTORS
330
7B45
102
}
330
7B45
100
AcDbProxyObject
 90
      499
 91
      505
 93
      476
310
41921A5919195B90640502408333333333333E33F0000000000000F901079024090700405020000000000001110200405405064090740C02480A0340
1001
ACAD
1000
AcDbSavedByObjectVersion
1070
     0
  0
ACAD_PROXY_OBJECT
  5
7B56
102
{ACAD_REACTORS
330
7B45
102
}
330
7B45
100
AcDbProxyObject
 90
      499
 91
      505
 93
      428
310
42529A5D1D195C93D999914409028333333333333E33F0000000000000F9010790141107004050150A41D405064090741402480A0350
1001
ACAD
1000
AcDbSavedByObjectVersion
1070
     0
  0
ACAD_PROXY_OBJECT
  5
7B53
102
{ACAD_REACTORS
330
7B45
102
}
330
7B45
100
AcDbProxyObject
 90
      499
 91
      505
 93
      444
310
42D31A5B995C185D1D195C9B90E409028333333333333E33F0000000000000F9010790141107004050750841D405064090741402483A0350
1001
ACAD
1000
AcDbSavedByObjectVersion
1070
     0
  0
ACAD_PROXY_OBJECT
  5
7B57
102
{ACAD_REACTORS
330
7B45
102
}
330
7B45
100
AcDbProxyObject
 90
      499
 91
      505
 93
      444
310
42D3DD995C9A185B99D3D999915409028333333333333E33F0000000000000F9010790141107004050150941D405064090741402480A0350
1001
ACAD
1000
AcDbSavedByObjectVersion
1070
     0
  0
ACAD_PROXY_OBJECT
  5
7B4E
102
{ACAD_REACTORS
330
7B45
102
}
330
7B45
100
AcDbProxyObject
 90
      499
 91
      505
 93
      428
310
425499585B1A5CDD1A58D08409038333333333333E33F0000000000000F9010740A907004050150800405405064090740C02480A1B40
1001
ACAD
1000
AcDbSavedByObjectVersion
1070
     0
  0
ACAD_PROXY_OBJECT
  5
7B5D
102
{ACAD_REACTORS
330
7B45
102
}
330
7B45
100
AcDbProxyObject
 90
      499
 91
      505
 93
      420
310
4194DA1859195911B40902404333333333333E33F0000000000000F9010740A41107004050150800405405064090840C02480A0B40
1001
ACAD
1000
AcDbSavedByObjectVersion
1070
     0
  0
ACAD_PROXY_OBJECT
  5
7B5C
102
{ACAD_REACTORS
330
7B45
102
}
330
7B45
100
AcDbProxyObject
 90
      499
 91
      505
 93
      516
310
4454DA18591959081DDA5D1A08195919D95CD1A40902404333333333333E33F0000000000000F901074090142907004050250800405405064090740C02480A0B40
1001
ACAD
1000
AcDbSavedByObjectVersion
1070
     0
  0
ACAD_PROXY_OBJECT
  5
7B59
102
{ACAD_REACTORS
330
7B45
102
}
330
7B45
100
AcDbProxyObject
 90
      499
 91
      505
 93
      532
310
4394DA1859195CC81BD98811DC985E5174090240C333333333333E33F0000000000000F901079024090741D01000000000000111010841D405064090740C02480A0340
1001
ACAD
1000
AcDbSavedByObjectVersion
1070
     0
  0
ACAD_PROXY_OBJECT
  5
7B5A
102
{ACAD_REACTORS
330
7B45
102
}
330
7B45
100
AcDbProxyObject
 90
      499
 91
      505
 93
      476
310
41D4DAD95D18DA1E51840502408333333333333E33F0000000000000F901079024090741D01000000000000111010B41D405064090741802480A0340
1001
ACAD
1000
AcDbSavedByObjectVersion
1070
     0
  0
ACAD_PROXY_OBJECT
  5
7B52
102
{ACAD_REACTORS
330
7B45
102
}
330
7B45
100
AcDbProxyObject
 90
      499
 91
      505
 93
      412
310
41D51A1A58DAD95B90D409028333333333333E33F0000000000000F9010790141107004050150C41D405064090741402480A0350
1001
ACAD
1000
AcDbSavedByObjectVersion
1070
     0
  0
ACAD_PROXY_OBJECT
  5
7B4B
102
{ACAD_REACTORS
330
7B45
102
}
330
7B45
100
AcDbProxyObject
 90
      499
 91
      505
 93
      420
310
4255DA5C99599C985B595059028333333333333E33F0000000000000F90107901411070040501600405405064090740C02480A0340
1001
ACAD
1000
AcDbSavedByObjectVersion
1070
     0
  0
ACAD_PROXY_OBJECT
  5
7B5B
102
{ACAD_REACTORS
330
7B45
102
}
330
7B45
100
AcDbProxyObject
 90
      499
 91
      505
 93
      404
310
41560B54985E51940902404000000000000E03F0000000000000F9010740501907004050150841D405064090740C02480A1B40
1001
ACAD
1000
AcDbSavedByObjectVersion
1070
     0
  0
XRECORD
  5
8D30
102
{ACAD_REACTORS
330
8D26
102
}
330
8D26
100
AcDbXrecord
340
0
  0
XRECORD
  5
8D2F
102
{ACAD_REACTORS
330
8D26
102
}
330
8D26
100
AcDbXrecord
 90
        0
  0
XRECORD
  5
8D49
102
{ACAD_REACTORS
330
8D26
102
}
330
8D26
100
AcDbXrecord
340
2948
  0
XRECORD
  5
8D46
102
{ACAD_REACTORS
330
8D26
102
}
330
8D26
100
AcDbXrecord
1000
DSTYLE
1002
{
1070
   171
 70
     2
1070
   143
 40
0.0394
1070
   274
 70
     2
1070
    41
 40
6.0
1070
   342
340
2AF4
1070
   271
 70
     1
1070
   278
 70
    46
1070
   341
340
2AF4
1070
   272
 70
     1
1070
    48
 40
0.1
1070
   283
 70
     1
1070
    47
 40
0.1
1070
   145
 40
1.0
1070
   340
340
10
1070
   140
 40
8.0
1070
   284
 70
     0
1002
}
  0
XRECORD
  5
8D31
102
{ACAD_REACTORS
330
8D26
102
}
330
8D26
100
AcDbXrecord
  1
{23698909-1D67-4744-B0E2-8DE11E3ED422}
  0
XRECORD
  5
8D29
102
{ACAD_REACTORS
330
8D26
102
}
330
8D26
100
AcDbXrecord
  1

  0
XRECORD
  5
8D2E
102
{ACAD_REACTORS
330
8D26
102
}
330
8D26
100
AcDbXrecord
 90
        0
  0
XRECORD
  5
8D2B
102
{ACAD_REACTORS
330
8D26
102
}
330
8D26
100
AcDbXrecord
340
2816
  0
XRECORD
  5
8D2D
102
{ACAD_REACTORS
330
8D26
102
}
330
8D26
100
AcDbXrecord
 90
    10781
  0
XRECORD
  5
8D4A
102
{ACAD_REACTORS
330
8D26
102
}
330
8D26
100
AcDbXrecord
340
2947
  0
XRECORD
  5
8D2C
102
{ACAD_REACTORS
330
8D26
102
}
330
8D26
100
AcDbXrecord
340
2817
  0
XRECORD
  5
8D33
102
{ACAD_REACTORS
330
8D26
102
}
330
8D26
100
AcDbXrecord
 40
0.25
  0
XRECORD
  5
8D36
102
{ACAD_REACTORS
330
8D26
102
}
330
8D26
100
AcDbXrecord
340
0
  0
XRECORD
  5
8D3C
102
{ACAD_REACTORS
330
8D26
102
}
330
8D26
100
AcDbXrecord
 10
0.0
 20
0.0
 30
0.0
  0
XRECORD
  5
8D38
102
{ACAD_REACTORS
330
8D26
102
}
330
8D26
100
AcDbXrecord
 10
0.0
 20
0.0
 30
0.0
  0
XRECORD
  5
8D3B
102
{ACAD_REACTORS
330
8D26
102
}
330
8D26
100
AcDbXrecord
 10
0.0
 20
0.0
 30
0.0
  0
XRECORD
  5
8D39
102
{ACAD_REACTORS
330
8D26
102
}
330
8D26
100
AcDbXrecord
 10
0.0
 20
0.0
 30
0.0
  0
XRECORD
  5
8D3A
102
{ACAD_REACTORS
330
8D26
102
}
330
8D26
100
AcDbXrecord
 10
0.0
 20
0.0
 30
0.0
  0
XRECORD
  5
8D37
102
{ACAD_REACTORS
330
8D26
102
}
330
8D26
100
AcDbXrecord
 10
0.0
 20
0.0
 30
0.0
  0
XRECORD
  5
8D34
102
{ACAD_REACTORS
330
8D26
102
}
330
8D26
100
AcDbXrecord
340
0
  0
XRECORD
  5
8D35
102
{ACAD_REACTORS
330
8D26
102
}
330
8D26
100
AcDbXrecord
 70
     0
  0
XRECORD
  5
8D2A
102
{ACAD_REACTORS
330
8D26
102
}
330
8D26
100
AcDbXrecord
  1

  0
XRECORD
  5
8D27
102
{ACAD_REACTORS
330
8D26
102
}
330
8D26
100
AcDbXrecord
 90
        1
  0
XRECORD
  5
8D28
102
{ACAD_REACTORS
330
8D26
102
}
330
8D26
100
AcDbXrecord
 90
       70
  0
XRECORD
  5
8D3F
102
{ACAD_REACTORS
330
8D26
102
}
330
8D26
100
AcDbXrecord
340
0
  0
XRECORD
  5
8D45
102
{ACAD_REACTORS
330
8D26
102
}
330
8D26
100
AcDbXrecord
 10
0.0
 20
0.0
 30
0.0
  0
XRECORD
  5
8D41
102
{ACAD_REACTORS
330
8D26
102
}
330
8D26
100
AcDbXrecord
 10
0.0
 20
0.0
 30
0.0
  0
XRECORD
  5
8D44
102
{ACAD_REACTORS
330
8D26
102
}
330
8D26
100
AcDbXrecord
 10
0.0
 20
0.0
 30
0.0
  0
XRECORD
  5
8D42
102
{ACAD_REACTORS
330
8D26
102
}
330
8D26
100
AcDbXrecord
 10
0.0
 20
0.0
 30
0.0
  0
XRECORD
  5
8D43
102
{ACAD_REACTORS
330
8D26
102
}
330
8D26
100
AcDbXrecord
 10
0.0
 20
0.0
 30
0.0
  0
XRECORD
  5
8D40
102
{ACAD_REACTORS
330
8D26
102
}
330
8D26
100
AcDbXrecord
 10
0.0
 20
0.0
 30
0.0
  0
XRECORD
  5
8D3D
102
{ACAD_REACTORS
330
8D26
102
}
330
8D26
100
AcDbXrecord
340
0
  0
XRECORD
  5
8D3E
102
{ACAD_REACTORS
330
8D26
102
}
330
8D26
100
AcDbXrecord
 70
     0
  0
XRECORD
  5
8D32
102
{ACAD_REACTORS
330
8D26
102
}
330
8D26
100
AcDbXrecord
  1
{6A42C947-49B6-48E1-BD56-B5E765992F0F}
  0
DICTIONARYVAR
  5
8564
102
{ACAD_REACTORS
330
8563
102
}
330
8563
100
DictionaryVariables
280
     0
  1
1:1
  0
DICTIONARYVAR
  5
8566
102
{ACAD_REACTORS
330
8563
102
}
330
8563
100
DictionaryVariables
280
     0
  1
Standard
  0
DICTIONARYVAR
  5
8565
102
{ACAD_REACTORS
330
8563
102
}
330
8563
100
DictionaryVariables
280
     0
  1
Standard
  0
DICTIONARYVAR
  5
8D47
102
{ACAD_REACTORS
330
8563
102
}
330
8563
100
DictionaryVariables
280
     0
  1
1
  0
DICTIONARYVAR
  5
8D48
102
{ACAD_REACTORS
330
8563
102
}
330
8563
100
DictionaryVariables
280
     0
  1
0
  0
DICTIONARYVAR
  5
8567
102
{ACAD_REACTORS
330
8563
102
}
330
8563
100
DictionaryVariables
280
     0
  1
0
  0
DICTIONARYVAR
  5
8568
102
{ACAD_REACTORS
330
8563
102
}
330
8563
100
DictionaryVariables
280
     0
  1
0
  0
DICTIONARY
  5
8D25
102
{ACAD_REACTORS
330
8D24
102
}
330
8D24
100
AcDbDictionary
  0
DICTIONARY
  5
7F97
102
{ACAD_REACTORS
330
7F96
102
}
330
7F96
100
AcDbDictionary
  0
DICTIONARY
  5
7F9D
102
{ACAD_REACTORS
330
7F9C
102
}
330
7F9C
100
AcDbDictionary
  0
DICTIONARY
  5
7FAF
102
{ACAD_REACTORS
330
7FAE
102
}
330
7FAE
100
AcDbDictionary
  0
DICTIONARY
  5
7FBC
102
{ACAD_REACTORS
330
7FBB
102
}
330
7FBB
100
AcDbDictionary
  0
DICTIONARY
  5
855C
102
{ACAD_REACTORS
330
855B
102
}
330
855B
100
AcDbDictionary
  0
DICTIONARY
  5
8562
102
{ACAD_REACTORS
330
8561
102
}
330
8561
100
AcDbDictionary
  0
DICTIONARY
  5
855F
102
{ACAD_REACTORS
330
855E
102
}
330
855E
100
AcDbDictionary
  0
DICTIONARY
  5
8D52
330
7B81
100
AcDbDictionary
280
     1
  3
ACAD_XREC_ROUNDTRIP
360
8D53
  0
DICTIONARY
  5
8D50
330
7B80
100
AcDbDictionary
280
     1
  3
ACAD_XREC_ROUNDTRIP
360
8D51
  0
DICTIONARY
  5
8D4E
330
5486
100
AcDbDictionary
280
     1
  3
ACAD_XREC_ROUNDTRIP
360
8D4F
  0
XRECORD
  5
8D53
102
{ACAD_REACTORS
330
8D52
102
}
330
8D52
100
AcDbXrecord
102
MATERIAL
148
0.0
149
0.0
149
0.0
 93
        0
 94
      127
282
     0
 72
     1
 77
     1
171
     1
175
     1
179
     1
273
     0
  0
XRECORD
  5
8D51
102
{ACAD_REACTORS
330
8D50
102
}
330
8D50
100
AcDbXrecord
102
MATERIAL
148
0.0
149
0.0
149
0.0
 93
        0
 94
      127
282
     0
 72
     1
 77
     1
171
     1
175
     1
179
     1
273
     0
  0
XRECORD
  5
8D4F
102
{ACAD_REACTORS
330
8D4E
102
}
330
8D4E
100
AcDbXrecord
102
MATERIAL
148
0.0
149
0.0
149
0.0
 93
        0
 94
      127
282
     0
 72
     1
 77
     1
171
     1
175
     1
179
     1
273
     0
  0
ENDSEC
  0
EOF
