  0
SECTION
  2
HEADER
  9
$ACADVER
  1
AC1014
  9
$ACADMAINTVER
 70
     9
  9
$DWGCODEPAGE
  3
ANSI_932
  9
$INSBASE
 10
0.0
 20
0.0
 30
0.0
  9
$EXTMIN
 10
-347.614817617053
 20
582.022845194442
 30
0.0
  9
$EXTMAX
 10
581.6407009681
 20
1077.76852500693
 30
0.0
  9
$LIMMIN
 10
-360.747566795242
 20
4.457354754526
  9
$LIMMAX
 10
-162.153696144267
 20
287.675440264018
  9
$ORTHOMODE
 70
     1
  9
$REGENMODE
 70
     1
  9
$FILLMODE
 70
     1
  9
$QTEXTMODE
 70
     0
  9
$MIRRTEXT
 70
     1
  9
$DRAGMODE
 70
     2
  9
$LTSCALE
 40
1.0
  9
$OSMODE
 70
    32
  9
$ATTMODE
 70
     1
  9
$TEXTSIZE
 40
2.333873885063
  9
$TRACEWID
 40
1.0
  9
$TEXTSTYLE
  7
STANDARD
  9
$CLAYER
  8
外形線
  9
$CELTYPE
  6
BYLAYER
  9
$CECOLOR
 62
     1
  9
$CELTSCALE
 40
10.0
  9
$DELOBJ
 70
     1
  9
$DISPSILH
 70
     0
  9
$DIMSCALE
 40
1.0
  9
$DIMASZ
 40
6.0
  9
$DIMEXO
 40
0.625
  9
$DIMDLI
 40
3.75
  9
$DIMRND
 40
0.0
  9
$DIMDLE
 40
0.0
  9
$DIMEXE
 40
1.25
  9
$DIMTP
 40
0.1
  9
$DIMTM
 40
0.1
  9
$DIMTXT
 40
5.0
  9
$DIMCEN
 40
2.5
  9
$DIMTSZ
 40
0.0
  9
$DIMTOL
 70
     0
  9
$DIMLIM
 70
     0
  9
$DIMTIH
 70
     0
  9
$DIMTOH
 70
     0
  9
$DIMSE1
 70
     0
  9
$DIMSE2
 70
     0
  9
$DIMTAD
 70
     1
  9
$DIMZIN
 70
     8
  9
$DIMBLK
  1
OPEN30
  9
$DIMASO
 70
     1
  9
$DIMSHO
 70
     1
  9
$DIMPOST
  1

  9
$DIMAPOST
  1

  9
$DIMALT
 70
     0
  9
$DIMALTD
 70
     2
  9
$DIMALTF
 40
0.0394
  9
$DIMLFAC
 40
1.0
  9
$DIMTOFL
 70
     1
  9
$DIMTVP
 40
1.0
  9
$DIMTIX
 70
     0
  9
$DIMSOXD
 70
     0
  9
$DIMSAH
 70
     0
  9
$DIMBLK1
  1

  9
$DIMBLK2
  1

  9
$DIMSTYLE
  2
ISO-25
  9
$DIMCLRD
 70
     0
  9
$DIMCLRE
 70
     0
  9
$DIMCLRT
 70
     0
  9
$DIMTFAC
 40
1.0
  9
$DIMGAP
 40
0.625
  9
$DIMJUST
 70
     0
  9
$DIMSD1
 70
     0
  9
$DIMSD2
 70
     0
  9
$DIMTOLJ
 70
     1
  9
$DIMTZIN
 70
     0
  9
$DIMALTZ
 70
     0
  9
$DIMALTTZ
 70
     0
  9
$DIMFIT
 70
     3
  9
$DIMUPT
 70
     0
  9
$DIMUNIT
 70
     2
  9
$DIMDEC
 70
     1
  9
$DIMTDEC
 70
     1
  9
$DIMALTU
 70
     2
  9
$DIMALTTD
 70
     2
  9
$DIMTXSTY
  7
STANDARD
  9
$DIMAUNIT
 70
     0
  9
$LUNITS
 70
     2
  9
$LUPREC
 70
     4
  9
$SKETCHINC
 40
1.0
  9
$FILLETRAD
 40
2.0
  9
$AUNITS
 70
     0
  9
$AUPREC
 70
     0
  9
$MENU
  1
.
  9
$ELEVATION
 40
0.0
  9
$PELEVATION
 40
0.0
  9
$THICKNESS
 40
0.0
  9
$LIMCHECK
 70
     0
  9
$CHAMFERA
 40
10.0
  9
$CHAMFERB
 40
10.0
  9
$CHAMFERC
 40
20.0
  9
$CHAMFERD
 40
0.0
  9
$SKPOLY
 70
     0
  9
$TDCREATE
 40
2450576.597302431
  9
$TDUPDATE
 40
2457191.655213148
  9
$TDINDWG
 40
1.1632146528
  9
$TDUSRTIMER
 40
1.1632146528
  9
$USRTIMER
 70
     1
  9
$ANGBASE
 50
0.0
  9
$ANGDIR
 70
     0
  9
$PDMODE
 70
     0
  9
$PDSIZE
 40
0.0
  9
$PLINEWID
 40
0.0
  9
$COORDS
 70
     1
  9
$SPLFRAME
 70
     0
  9
$SPLINETYPE
 70
     6
  9
$SPLINESEGS
 70
     8
  9
$ATTDIA
 70
     0
  9
$ATTREQ
 70
     1
  9
$HANDLING
 70
     1
  9
$HANDSEED
  5
5278
  9
$SURFTAB1
 70
     6
  9
$SURFTAB2
 70
     6
  9
$SURFTYPE
 70
     6
  9
$SURFU
 70
     6
  9
$SURFV
 70
     6
  9
$UCSNAME
  2

  9
$UCSORG
 10
0.0
 20
0.0
 30
0.0
  9
$UCSXDIR
 10
1.0
 20
0.0
 30
0.0
  9
$UCSYDIR
 10
0.0
 20
1.0
 30
0.0
  9
$PUCSNAME
  2

  9
$PUCSORG
 10
0.0
 20
0.0
 30
0.0
  9
$PUCSXDIR
 10
1.0
 20
0.0
 30
0.0
  9
$PUCSYDIR
 10
0.0
 20
1.0
 30
0.0
  9
$USERI1
 70
     0
  9
$USERI2
 70
     0
  9
$USERI3
 70
     0
  9
$USERI4
 70
     0
  9
$USERI5
 70
     0
  9
$USERR1
 40
0.0
  9
$USERR2
 40
0.0
  9
$USERR3
 40
0.0
  9
$USERR4
 40
0.0
  9
$USERR5
 40
0.0
  9
$WORLDVIEW
 70
     1
  9
$SHADEDGE
 70
     3
  9
$SHADEDIF
 70
    70
  9
$TILEMODE
 70
     0
  9
$MAXACTVP
 70
    16
  9
$PINSBASE
 10
0.0
 20
0.0
 30
0.0
  9
$PLIMCHECK
 70
     0
  9
$PEXTMIN
 10
4.746305129083
 20
3.011580533901
 30
0.0
  9
$PEXTMAX
 10
404.746305129083
 20
283.011580533901
 30
0.0
  9
$PLIMMIN
 10
-7.007122192383
 20
-7.007118782997
  9
$PLIMMAX
 10
417.718108215332
 20
293.315290427208
  9
$UNITMODE
 70
     0
  9
$VISRETAIN
 70
     0
  9
$PLINEGEN
 70
     0
  9
$PSLTSCALE
 70
     1
  9
$TREEDEPTH
 70
  3020
  9
$PICKSTYLE
 70
     1
  9
$CMLSTYLE
  2
STANDARD
  9
$CMLJUST
 70
     0
  9
$CMLSCALE
 40
1.0
  9
$PROXYGRAPHICS
 70
     1
  9
$MEASUREMENT
 70
     1
  0
ENDSEC
  0
SECTION
  2
CLASSES
  0
CLASS
  1
ACDBDICTIONARYWDFLT
  2
AcDbDictionaryWithDefault
  3
ObjectDBX Classes
 90
        0
280
     0
281
     0
  0
CLASS
  1
ACDBPLACEHOLDER
  2
AcDbPlaceHolder
  3
ObjectDBX Classes
 90
        0
280
     0
281
     0
  0
CLASS
  1
LAYOUT
  2
AcDbLayout
  3
ObjectDBX Classes
 90
        0
280
     0
281
     0
  0
CLASS
  1
DIMASSOC
  2
AcDbDimAssoc
  3
"AcDbDimAssoc|Product Desc:     AcDim ARX App For Dimension|Company:          Autodesk, Inc.|WEB Address:      www.autodesk.com"
 90
        0
280
     0
281
     0
  0
CLASS
  1
VISUALSTYLE
  2
AcDbVisualStyle
  3
ObjectDBX Classes
 90
     4095
280
     0
281
     0
  0
CLASS
  1
SCALE
  2
AcDbScale
  3
ObjectDBX Classes
 90
     1153
280
     0
281
     0
  0
CLASS
  1
MATERIAL
  2
AcDbMaterial
  3
ObjectDBX Classes
 90
     1153
280
     0
281
     0
  0
CLASS
  1
TABLESTYLE
  2
AcDbTableStyle
  3
ObjectDBX Classes
 90
     4095
280
     0
281
     0
  0
CLASS
  1
MLEADERSTYLE
  2
AcDbMLeaderStyle
  3
ACDB_MLEADERSTYLE_CLASS
 90
     4095
280
     0
281
     0
  0
CLASS
  1
SUN
  2
AcDbSun
  3
SCENEOE
 90
     1153
280
     0
281
     0
  0
CLASS
  1
DICTIONARYVAR
  2
AcDbDictionaryVar
  3
ObjectDBX Classes
 90
        0
280
     0
281
     0
  0
CLASS
  1
CELLSTYLEMAP
  2
AcDbCellStyleMap
  3
ObjectDBX Classes
 90
     1152
280
     0
281
     0
  0
CLASS
  1
XRECORD
  2
AcDbXrecord
  3
ObjectDBX Classes
 90
        0
280
     0
281
     0
  0
CLASS
  1
LWPOLYLINE
  2
AcDbPolyline
  3
ObjectDBX Classes
 90
        0
280
     0
281
     1
  0
CLASS
  1
HATCH
  2
AcDbHatch
  3
ObjectDBX Classes
 90
        0
280
     0
281
     1
  0
ENDSEC
  0
SECTION
  2
TABLES
  0
TABLE
  2
VPORT
  5
8
102
{ACAD_XDICTIONARY
360
5270
102
}
330
0
100
AcDbSymbolTable
 70
     7
  0
VPORT
  5
509C
330
8
100
AcDbSymbolTableRecord
100
AcDbViewportTableRecord
  2
*ACTIVE
 70
     0
 10
0.0
 20
0.0
 11
1.0
 21
1.0
 12
-142.85441970244
 22
678.476979610065
 13
0.0
 23
0.0
 14
1.0
 24
1.0
 15
0.0
 25
0.0
 16
0.0
 26
0.0
 36
1.0
 17
0.0
 27
0.0
 37
0.0
 40
232.961035744415
 41
1.56746031746
 42
50.0
 43
0.0
 44
0.0
 50
0.0
 51
0.0
 71
    16
 72
   100
 73
     1
 74
     0
 75
     0
 76
     0
 77
     0
 78
     0
  0
ENDTAB
  0
TABLE
  2
LTYPE
  5
5
330
0
100
AcDbSymbolTable
 70
     5
  0
LTYPE
  5
14
330
5
100
AcDbSymbolTableRecord
100
AcDbLinetypeTableRecord
  2
BYBLOCK
 70
     0
  3

 72
    65
 73
     0
 40
0.0
  0
LTYPE
  5
15
330
5
100
AcDbSymbolTableRecord
100
AcDbLinetypeTableRecord
  2
BYLAYER
 70
     0
  3

 72
    65
 73
     0
 40
0.0
  0
LTYPE
  5
16
330
5
100
AcDbSymbolTableRecord
100
AcDbLinetypeTableRecord
  2
CONTINUOUS
 70
     0
  3
Solid line
 72
    65
 73
     0
 40
0.0
  0
LTYPE
  5
1EC
330
5
100
AcDbSymbolTableRecord
100
AcDbLinetypeTableRecord
  2
CENTER
 70
     0
  3
____ _ ____ _ ____ _ ____ _ ____ _ ____ _ ____ 
 72
    65
 73
     4
 40
2.0
 49
1.25
 74
     0
 49
-0.25
 74
     0
 49
0.25
 74
     0
 49
-0.25
 74
     0
  0
LTYPE
  5
1ED
330
5
100
AcDbSymbolTableRecord
100
AcDbLinetypeTableRecord
  2
DASHED
 70
     0
  3
__ __ __ __ __ __ __ __ __ __ __ __ __ __ __ __
 72
    65
 73
     2
 40
0.75
 49
0.5
 74
     0
 49
-0.25
 74
     0
  0
LTYPE
  5
2B1F
330
5
100
AcDbSymbolTableRecord
100
AcDbLinetypeTableRecord
  2
DASHDOT
 70
     0
  3
一点鎖線
 72
    65
 73
     4
 40
25.6
 49
20.0
 74
     0
 49
-2.0
 74
     0
 49
1.6
 74
     0
 49
-2.0
 74
     0
  0
LTYPE
  5
444B
330
5
100
AcDbSymbolTableRecord
100
AcDbLinetypeTableRecord
  2
CENTER2
 70
     0
  3
Center (.5x) ___ _ ___ _ ___ _ ___ _ ___ _ ___
 72
    65
 73
     4
 40
28.575
 49
19.05
 74
     0
 49
-3.175
 74
     0
 49
3.175
 74
     0
 49
-3.175
 74
     0
  0
ENDTAB
  0
TABLE
  2
LAYER
  5
2
102
{ACAD_XDICTIONARY
360
29EA
102
}
330
0
100
AcDbSymbolTable
 70
    13
  0
LAYER
  5
F
330
2
100
AcDbSymbolTableRecord
100
AcDbLayerTableRecord
  2
0
 70
     0
 62
     7
  6
CONTINUOUS
  0
LAYER
  5
61
330
2
100
AcDbSymbolTableRecord
100
AcDbLayerTableRecord
  2
図枠太線
 70
     0
 62
   251
  6
CONTINUOUS
  0
LAYER
  5
62
330
2
100
AcDbSymbolTableRecord
100
AcDbLayerTableRecord
  2
図枠細線
 70
     0
 62
   252
  6
CONTINUOUS
  0
LAYER
  5
63
330
2
100
AcDbSymbolTableRecord
100
AcDbLayerTableRecord
  2
図枠ロゴマーク
 70
     0
 62
   253
  6
CONTINUOUS
  0
LAYER
  5
1EF
330
2
100
AcDbSymbolTableRecord
100
AcDbLayerTableRecord
  2
外形線
 70
     0
 62
     7
  6
CONTINUOUS
  0
LAYER
  5
1F0
330
2
100
AcDbSymbolTableRecord
100
AcDbLayerTableRecord
  2
寸法線
 70
     0
 62
     1
  6
CONTINUOUS
  0
LAYER
  5
1F1
330
2
100
AcDbSymbolTableRecord
100
AcDbLayerTableRecord
  2
中心線
 70
     0
 62
     4
  6
CENTER
  0
LAYER
  5
1F4
330
2
100
AcDbSymbolTableRecord
100
AcDbLayerTableRecord
  2
DEFPOINTS
 70
     0
 62
     7
  6
CONTINUOUS
  0
LAYER
  5
2AA2
330
2
100
AcDbSymbolTableRecord
100
AcDbLayerTableRecord
  2
下書線
 70
     0
 62
     2
  6
CONTINUOUS
  0
LAYER
  5
2AA4
330
2
100
AcDbSymbolTableRecord
100
AcDbLayerTableRecord
  2
細線
 70
     0
 62
     6
  6
CONTINUOUS
  0
LAYER
  5
2B20
330
2
100
AcDbSymbolTableRecord
100
AcDbLayerTableRecord
  2
LAY-1
 70
     0
 62
     7
  6
CONTINUOUS
  0
LAYER
  5
444C
330
2
100
AcDbSymbolTableRecord
100
AcDbLayerTableRecord
  2
寸法線_文字
 70
     0
 62
     1
  6
CONTINUOUS
  0
LAYER
  5
4933
330
2
100
AcDbSymbolTableRecord
100
AcDbLayerTableRecord
  2
下書き線
 70
     0
 62
     2
  6
CONTINUOUS
  0
ENDTAB
  0
TABLE
  2
STYLE
  5
3
330
0
100
AcDbSymbolTable
 70
     3
  0
STYLE
  5
10
330
3
100
AcDbSymbolTableRecord
100
AcDbTextStyleTableRecord
  2
STANDARD
 70
     0
 40
0.0
 41
1.0
 50
0.0
 71
     0
 42
2.333873885063
  3
ISOCP
  4
bigfont.shx
  0
STYLE
  5
64
330
3
100
AcDbSymbolTableRecord
100
AcDbTextStyleTableRecord
  2
EXCADSTD
 70
     0
 40
0.0
 41
1.0
 50
0.0
 71
     0
 42
0.2
  3
monotxt
  4
bigfont
  0
STYLE
  5
2B21
330
3
100
AcDbSymbolTableRecord
100
AcDbTextStyleTableRecord
  2
EXCADVERT
 70
     4
 40
0.0
 41
1.0
 50
0.0
 71
     0
 42
0.286885
  3
monotxt
  4
bigfont
  0
ENDTAB
  0
TABLE
  2
VIEW
  5
6
330
0
100
AcDbSymbolTable
 70
     0
  0
ENDTAB
  0
TABLE
  2
UCS
  5
7
330
0
100
AcDbSymbolTable
 70
     0
  0
ENDTAB
  0
TABLE
  2
APPID
  5
9
330
0
100
AcDbSymbolTable
 70
     3
  0
APPID
  5
11
330
9
100
AcDbSymbolTableRecord
100
AcDbRegAppTableRecord
  2
ACAD
 70
     0
  0
APPID
  5
5176
330
9
100
AcDbSymbolTableRecord
100
AcDbRegAppTableRecord
  2
ACAD_MLEADERVER
 70
     0
  0
APPID
  5
517A
330
9
100
AcDbSymbolTableRecord
100
AcDbRegAppTableRecord
  2
ACADANNOTATIVE
 70
     0
  0
ENDTAB
  0
TABLE
  2
DIMSTYLE
  5
A
330
0
100
AcDbSymbolTable
 70
     2
  0
DIMSTYLE
105
1D
330
A
100
AcDbSymbolTableRecord
100
AcDbDimStyleTableRecord
  2
STANDARD
 70
     0
  3

  4

  5

  6

  7

 40
1.0
 41
0.18
 42
0.0625
 43
0.38
 44
0.18
 45
0.0
 46
0.0
 47
0.0
 48
0.0
140
0.18
141
0.09
142
0.0
143
25.4
144
1.0
145
0.0
146
1.0
147
0.09
 71
     0
 72
     0
 73
     1
 74
     1
 75
     0
 76
     0
 77
     0
 78
     0
170
     0
171
     2
172
     0
173
     0
174
     0
175
     0
176
     0
177
     0
178
     0
270
     2
271
     4
272
     4
273
     2
274
     2
340
10
275
     0
280
     0
281
     0
282
     0
283
     1
284
     0
285
     0
286
     0
287
     3
288
     0
  0
DIMSTYLE
105
24
102
{ACAD_REACTORS
330
38E8
330
397F
330
398B
330
398C
330
398D
330
3A0E
330
3A0F
330
3A13
330
3BE2
330
4110
330
4F70
330
4FC4
102
}
330
A
100
AcDbSymbolTableRecord
100
AcDbDimStyleTableRecord
  2
ISO-25
 70
     0
  3

  4

  5

  6

  7

 40
1.0
 41
2.5
 42
0.625
 43
3.75
 44
1.25
 45
0.0
 46
0.0
 47
0.0
 48
0.0
140
2.5
141
2.5
142
0.0
143
0.0394
144
1.0
145
1.0
146
1.0
147
0.625
 71
     0
 72
     0
 73
     1
 74
     0
 75
     0
 76
     0
 77
     1
 78
     8
170
     0
171
     2
172
     1
173
     0
174
     0
175
     0
176
     0
177
     0
178
     0
270
     2
271
     4
272
     4
273
     2
274
     2
340
10
275
     0
280
     0
281
     0
282
     0
283
     1
284
     0
285
     0
286
     0
287
     3
288
     0
  0
ENDTAB
  0
TABLE
  2
BLOCK_RECORD
  5
1
330
0
100
AcDbSymbolTable
 70
    20
  0
BLOCK_RECORD
  5
1A
330
1
100
AcDbSymbolTableRecord
100
AcDbBlockTableRecord
  2
*MODEL_SPACE
  0
BLOCK_RECORD
  5
28FB
330
1
100
AcDbSymbolTableRecord
100
AcDbBlockTableRecord
  2
*PAPER_SPACE
  0
BLOCK_RECORD
  5
2A32
330
1
100
AcDbSymbolTableRecord
100
AcDbBlockTableRecord
  2
A3横用_タイトル
1001
ACAD
1000
DesignCenter Data
1002
{
1070
     1
1070
     4
1002
}
  0
BLOCK_RECORD
  5
2AF4
330
1
100
AcDbSymbolTableRecord
100
AcDbBlockTableRecord
  2
_OPEN30
  0
BLOCK_RECORD
  5
2E7A
330
1
100
AcDbSymbolTableRecord
100
AcDbBlockTableRecord
  2
*D2
  0
BLOCK_RECORD
  5
2E86
330
1
100
AcDbSymbolTableRecord
100
AcDbBlockTableRecord
  2
ケース外形図_PRL-500N
  0
BLOCK_RECORD
  5
3A43
330
1
100
AcDbSymbolTableRecord
100
AcDbBlockTableRecord
  2
*D4
  0
BLOCK_RECORD
  5
3A5B
330
1
100
AcDbSymbolTableRecord
100
AcDbBlockTableRecord
  2
*D6
  0
BLOCK_RECORD
  5
3A75
330
1
100
AcDbSymbolTableRecord
100
AcDbBlockTableRecord
  2
*D7
  0
BLOCK_RECORD
  5
3A81
330
1
100
AcDbSymbolTableRecord
100
AcDbBlockTableRecord
  2
*D8
  0
BLOCK_RECORD
  5
3A8D
330
1
100
AcDbSymbolTableRecord
100
AcDbBlockTableRecord
  2
*D9
  0
BLOCK_RECORD
  5
3AA5
330
1
100
AcDbSymbolTableRecord
100
AcDbBlockTableRecord
  2
*D10
  0
BLOCK_RECORD
  5
3AB2
330
1
100
AcDbSymbolTableRecord
100
AcDbBlockTableRecord
  2
*D11
  0
BLOCK_RECORD
  5
3AE2
330
1
100
AcDbSymbolTableRecord
100
AcDbBlockTableRecord
  2
*D12
  0
BLOCK_RECORD
  5
3BE3
330
1
100
AcDbSymbolTableRecord
100
AcDbBlockTableRecord
  2
*D13
  0
BLOCK_RECORD
  5
4111
330
1
100
AcDbSymbolTableRecord
100
AcDbBlockTableRecord
  2
*D14
  0
BLOCK_RECORD
  5
42C3
330
1
100
AcDbSymbolTableRecord
100
AcDbBlockTableRecord
  2
_DOTSMALL
  0
BLOCK_RECORD
  5
4BC3
330
1
100
AcDbSymbolTableRecord
100
AcDbBlockTableRecord
  2
A$C5F435AFC
  0
BLOCK_RECORD
  5
4BDA
330
1
100
AcDbSymbolTableRecord
100
AcDbBlockTableRecord
  2
A$C2AA85C5D
  0
BLOCK_RECORD
  5
4FDA
330
1
100
AcDbSymbolTableRecord
100
AcDbBlockTableRecord
  2
*D18
  0
BLOCK_RECORD
  5
4FE6
330
1
100
AcDbSymbolTableRecord
100
AcDbBlockTableRecord
  2
*D19
  0
ENDTAB
  0
ENDSEC
  0
SECTION
  2
BLOCKS
  0
BLOCK
  5
1B
330
1A
100
AcDbEntity
  8
0
100
AcDbBlockBegin
  2
*MODEL_SPACE
 70
     0
 10
0.0
 20
0.0
 30
0.0
  3
*MODEL_SPACE
  1

  0
ENDBLK
  5
1C
330
1A
100
AcDbEntity
  8
0
100
AcDbBlockEnd
  0
BLOCK
  5
28FD
330
28FB
100
AcDbEntity
 67
     1
  8
0
 48
10.0
100
AcDbBlockBegin
  2
*PAPER_SPACE
 70
     0
 10
0.0
 20
0.0
 30
0.0
  3
*PAPER_SPACE
  1

  0
ENDBLK
  5
28FE
330
28FB
100
AcDbEntity
 67
     1
  8
0
 48
10.0
100
AcDbBlockEnd
  0
BLOCK
  5
2A33
330
2A32
100
AcDbEntity
  8
0
100
AcDbBlockBegin
  2
A3横用_タイトル
 70
     0
 10
0.0
 20
0.0
 30
0.0
  3
A3横用_タイトル
  1
A3横用_タイトル
  0
LINE
  5
2A34
330
2A32
100
AcDbEntity
  8
図枠細線
  6
CONTINUOUS
 62
   252
100
AcDbLine
 10
205.098414535793
 20
33.525959753527
 30
0.0
 11
305.098414535793
 21
33.525959753527
 31
0.0
  0
LINE
  5
2A35
330
2A32
100
AcDbEntity
  8
図枠太線
  6
CONTINUOUS
 62
   251
100
AcDbLine
 10
205.098414535793
 20
23.525959753527
 30
0.0
 11
305.098414535793
 21
23.525959753527
 31
0.0
  0
LINE
  5
2A36
330
2A32
100
AcDbEntity
  8
図枠細線
  6
CONTINUOUS
100
AcDbLine
 10
5.098414535793
 20
23.525959753527
 30
0.0
 11
105.098414535793
 21
23.525959753527
 31
0.0
  0
LINE
  5
2A37
330
2A32
100
AcDbEntity
  8
図枠細線
  6
CONTINUOUS
 62
   252
100
AcDbLine
 10
5.098414535793
 20
36.725957753527
 30
0.0
 11
105.098414535793
 21
36.725957753527
 31
0.0
  0
LINE
  5
2A38
330
2A32
100
AcDbEntity
  8
図枠細線
  6
CONTINUOUS
 62
   252
100
AcDbLine
 10
5.098414535793
 20
30.125957753527
 30
0.0
 11
105.098414535793
 21
30.125957753527
 31
0.0
  0
LINE
  5
2A39
330
2A32
100
AcDbEntity
  8
図枠細線
  6
CONTINUOUS
 62
   252
100
AcDbLine
 10
5.098414535793
 20
16.725959753527
 30
0.0
 11
105.098414535793
 21
16.725959753527
 31
0.0
  0
LINE
  5
2A3A
330
2A32
100
AcDbEntity
  8
図枠細線
  6
CONTINUOUS
 62
   252
100
AcDbLine
 10
5.098414535793
 20
10.125959753527
 30
0.0
 11
105.098414535793
 21
10.125959753527
 31
0.0
  0
LINE
  5
2A3B
330
2A32
100
AcDbEntity
  8
図枠細線
  6
CONTINUOUS
100
AcDbLine
 10
105.098414535793
 20
23.525961753527
 30
0.0
 11
205.098414535793
 21
23.525959753527
 31
0.0
  0
LINE
  5
2A3C
330
2A32
100
AcDbEntity
  8
図枠細線
  6
CONTINUOUS
 62
   252
100
AcDbLine
 10
138.398414535793
 20
43.525959753527
 30
0.0
 11
138.398414535793
 21
18.525957753527
 31
0.0
  0
LINE
  5
2A3D
330
2A32
100
AcDbEntity
  8
図枠細線
  6
CONTINUOUS
 62
   252
100
AcDbLine
 10
171.698414535793
 20
43.525959753527
 30
0.0
 11
171.698414535793
 21
18.525957753527
 31
0.0
  0
LINE
  5
2A3E
330
2A32
100
AcDbEntity
  8
図枠細線
  6
CONTINUOUS
 62
   252
100
AcDbLine
 10
305.098414535793
 20
23.525959753527
 30
0.0
 11
405.098414535793
 21
23.525959753527
 31
0.0
  0
TEXT
  5
2A3F
330
2A32
100
AcDbEntity
  8
図枠ロゴマーク
  6
CONTINUOUS
 62
   253
100
AcDbText
 10
206.102509212755
 20
13.294257570546
 30
0.0
 40
7.0
  1
東和制電工業株式会社
 50
0.016555220185
 41
1.186384129432
  7
EXCADSTD
 72
     5
 11
303.544188309143
 21
13.322412672217
 31
0.0
100
AcDbText
  0
MTEXT
  5
2A40
330
2A32
100
AcDbEntity
  8
図枠細線
100
AcDbMText
 10
6.356764112375
 20
41.976594175478
 30
0.0
 40
2.5
 41
49.938282706292
 71
     1
 72
     5
  1
{\Fmonotxt.shx,bigfont.shx|c128;図暦　CHANGE　NOTICE}
  0
MTEXT
  5
2A41
330
2A32
100
AcDbEntity
  8
図枠細線
 48
10.0
100
AcDbMText
 10
306.544114926828
 20
41.701835800934
 30
0.0
 40
2.5
 41
28.002809618823
 71
     1
 72
     5
  1
{\Fmonotxt.shx,bigfont.shx|c128;名称　TITLE}
  0
MTEXT
  5
2A42
330
2A32
100
AcDbEntity
  8
図枠細線
 48
10.0
100
AcDbMText
 10
307.329617114284
 20
21.606206797226
 30
0.0
 40
2.5
 41
24.385612216707
 71
     1
 72
     5
  1
{\Fmonotxt.shx,bigfont.shx|c128;図面番号\PDRG.　No.}
  0
MTEXT
  5
2A43
330
2A32
100
AcDbEntity
  8
図枠細線
 48
10.0
100
AcDbMText
 10
173.726349404609
 20
21.73680662198
 30
0.0
 40
2.5
 41
25.735090160813
 71
     1
 72
     5
  1
{\Fmonotxt.shx,bigfont.shx|c128;日付 DATE}
  0
MTEXT
  5
2A44
330
2A32
100
AcDbEntity
  8
図枠細線
 48
10.0
100
AcDbMText
 10
173.48708833982
 20
41.621592044998
 30
0.0
 40
2.5
 41
24.983741184205
 71
     1
 72
     5
  1
{\Fmonotxt.shx,bigfont.shx|c128;製図　DRAWN}
  0
MTEXT
  5
2A45
330
2A32
100
AcDbEntity
  8
図枠細線
 48
10.0
100
AcDbMText
 10
139.28009927741
 20
21.866713069868
 30
0.0
 40
2.5
 41
22.629632913243
 71
     1
 72
     5
  1
{\Fmonotxt.shx,bigfont.shx|c128;尺度　SCALE}
  0
MTEXT
  5
2A46
330
2A32
100
AcDbEntity
  8
図枠細線
 48
10.0
100
AcDbMText
 10
139.910091179835
 20
41.311840415554
 30
0.0
 40
2.5
 41
28.998753428368
 71
     1
 72
     5
  1
{\Fmonotxt.shx,bigfont.shx|c128;検図  CHECKED}
  0
MTEXT
  5
2A47
330
2A32
100
AcDbEntity
  8
図枠細線
 48
10.0
100
AcDbMText
 10
114.253294667728
 20
21.916124850174
 30
0.0
 40
3.0
 41
19.692400475383
 71
     1
 72
     5
  1
{\Fmonotxt.shx,bigfont.shx|c128;第三角法}
  0
MTEXT
  5
2A48
330
2A32
100
AcDbEntity
  8
図枠細線
 48
10.0
100
AcDbMText
 10
108.986959929915
 20
15.282880185837
 30
0.0
 40
2.5
 41
27.954882823547
 71
     1
 72
     5
  1
{\Fmonotxt.shx,bigfont.shx|c128;THIRD ANGLE\PPROJECTION}
  0
MTEXT
  5
2A49
330
2A32
100
AcDbEntity
  8
図枠細線
 48
10.0
100
AcDbMText
 10
106.319432640184
 20
41.511437145487
 30
0.0
 40
2.5
 41
28.233595265074
 71
     1
 72
     5
  1
{\Fmonotxt.shx,bigfont.shx|c128;承認 APPROVED}
  0
LINE
  5
2A4A
330
2A32
100
AcDbEntity
  8
図枠太線
  6
CONTINUOUS
 62
   251
100
AcDbLine
 10
5.098414535793
 20
3.525959753527
 30
0.0
 11
405.098414535793
 21
3.525959753527
 31
0.0
  0
LINE
  5
2A4B
330
2A32
100
AcDbEntity
  8
図枠太線
 48
10.0
100
AcDbLine
 10
5.098414535793
 20
3.525959753527
 30
0.0
 11
5.098414535793
 21
43.525959753527
 31
0.0
  0
LINE
  5
2A4C
330
2A32
100
AcDbEntity
  8
図枠太線
  6
CONTINUOUS
 62
   251
100
AcDbLine
 10
105.098414535793
 20
3.525959753527
 30
0.0
 11
105.098414535793
 21
43.525959753527
 31
0.0
  0
LINE
  5
2A4D
330
2A32
100
AcDbEntity
  8
図枠細線
  6
CONTINUOUS
 62
   252
100
AcDbLine
 10
138.398414535793
 20
3.525959753527
 30
0.0
 11
138.398414535793
 21
18.525957753527
 31
0.0
  0
LINE
  5
2A4E
330
2A32
100
AcDbEntity
  8
図枠細線
  6
CONTINUOUS
 62
   252
100
AcDbLine
 10
171.698414535793
 20
3.525959753527
 30
0.0
 11
171.698414535793
 21
18.525957753527
 31
0.0
  0
LINE
  5
2A4F
330
2A32
100
AcDbEntity
  8
図枠太線
  6
CONTINUOUS
 62
   251
100
AcDbLine
 10
205.098414535793
 20
3.525959753527
 30
0.0
 11
205.098414535793
 21
43.525959753527
 31
0.0
  0
LINE
  5
2A50
330
2A32
100
AcDbEntity
  8
図枠太線
 48
10.0
100
AcDbLine
 10
405.098414535793
 20
43.525959753527
 30
0.0
 11
405.098414535793
 21
3.525959753527
 31
0.0
  0
TEXT
  5
2A51
330
2A32
100
AcDbEntity
  8
図枠細線
  6
CONTINUOUS
 62
   252
100
AcDbText
 10
208.519754474572
 20
6.482358407285
 30
0.0
 40
3.5
  1
ＴＯＷＡ　ＳＥＩＤＥＮ　ＩＮＤＵＳＴＲＩＡＬ　ＣＯ．，ＬＴＤ．
 41
0.746656297509
  7
EXCADSTD
 72
     5
 11
303.295327171727
 21
6.482358407285
 31
0.0
100
AcDbText
  0
LINE
  5
2A52
330
2A32
100
AcDbEntity
  8
図枠太線
  6
CONTINUOUS
 62
   251
100
AcDbLine
 10
305.098414535793
 20
3.525959753527
 30
0.0
 11
305.098414535793
 21
43.525959753527
 31
0.0
  0
ENDBLK
  5
2A53
330
2A32
100
AcDbEntity
  8
0
100
AcDbBlockEnd
  0
BLOCK
  5
2AF8
330
2AF4
100
AcDbEntity
  8
0
 48
10.0
100
AcDbBlockBegin
  2
_OPEN30
 70
     0
 10
0.0
 20
0.0
 30
0.0
  3
_OPEN30
  1
_OPEN30
  0
LINE
  5
2AF5
330
2AF4
100
AcDbEntity
  8
0
  6
BYBLOCK
 62
     0
100
AcDbLine
 10
-1.0
 20
0.26794919
 30
0.0
 11
0.0
 21
0.0
 31
0.0
  0
LINE
  5
2AF6
330
2AF4
100
AcDbEntity
  8
0
  6
BYBLOCK
 62
     0
100
AcDbLine
 10
0.0
 20
0.0
 30
0.0
 11
-1.0
 21
-0.26794919
 31
0.0
  0
LINE
  5
2AF7
330
2AF4
100
AcDbEntity
  8
0
  6
BYBLOCK
 62
     0
100
AcDbLine
 10
0.0
 20
0.0
 30
0.0
 11
-1.0
 21
0.0
 31
0.0
  0
ENDBLK
  5
2AF9
330
2AF4
100
AcDbEntity
  8
0
 48
10.0
100
AcDbBlockEnd
  0
BLOCK
  5
2E7B
330
2E7A
100
AcDbEntity
  8
0
 48
10.0
100
AcDbBlockBegin
  2
*D2
 70
     1
 10
0.0
 20
0.0
 30
0.0
  3
*D2
  1
*D2
  0
LINE
  5
2E7C
330
2E7A
100
AcDbEntity
  8
寸法線
 62
     0
 48
10.0
100
AcDbLine
 10
-2758.836345131417
 20
832.47277548805
 30
0.0
 11
-2759.461345131417
 21
832.47277548805
 31
0.0
  0
LINE
  5
2E7D
330
2E7A
100
AcDbEntity
  8
寸法線
 62
     0
 48
10.0
100
AcDbLine
 10
-2758.836345131417
 20
776.47277548805
 30
0.0
 11
-2759.461345131417
 21
776.47277548805
 31
0.0
  0
LINE
  5
2E7E
330
2E7A
100
AcDbEntity
  8
寸法線
 62
     0
 48
10.0
100
AcDbLine
 10
-2758.211345131417
 20
827.47277548805
 30
0.0
 11
-2758.211345131417
 21
781.47277548805
 31
0.0
  0
INSERT
  5
2E7F
330
2E7A
100
AcDbEntity
  8
寸法線
 62
     0
 48
10.0
100
AcDbBlockReference
  2
_OPEN30
 10
-2758.211345131417
 20
832.47277548805
 30
0.0
 41
5.0
 42
5.0
 43
5.0
 50
90.0
  0
INSERT
  5
2E80
330
2E7A
100
AcDbEntity
  8
寸法線
 62
     0
 48
10.0
100
AcDbBlockReference
  2
_OPEN30
 10
-2758.211345131417
 20
776.47277548805
 30
0.0
 41
5.0
 42
5.0
 43
5.0
 50
270.0
  0
MTEXT
  5
2E81
330
2E7A
100
AcDbEntity
  8
寸法線
 62
     0
 48
10.0
100
AcDbMText
 10
-2761.336345131417
 20
804.472775488049
 30
0.0
 40
5.0
 41
0.0
 71
     5
 72
     1
  1
\A1;56
 11
6.123031769111886E-17
 21
1.0
 31
0.0
  0
POINT
  5
2E82
330
2E7A
100
AcDbEntity
  8
DEFPOINTS
 62
     0
 48
10.0
100
AcDbPoint
 10
-2758.211345131417
 20
832.47277548805
 30
0.0
  0
POINT
  5
2E83
330
2E7A
100
AcDbEntity
  8
DEFPOINTS
 62
     0
 48
10.0
100
AcDbPoint
 10
-2758.211345131417
 20
776.47277548805
 30
0.0
  0
POINT
  5
2E84
330
2E7A
100
AcDbEntity
  8
DEFPOINTS
 62
     0
 48
10.0
100
AcDbPoint
 10
-2758.211345131417
 20
776.47277548805
 30
0.0
  0
ENDBLK
  5
2E85
330
2E7A
100
AcDbEntity
  8
0
 48
10.0
100
AcDbBlockEnd
  0
BLOCK
  5
2E87
330
2E86
100
AcDbEntity
  8
0
 48
10.0
100
AcDbBlockBegin
  2
ケース外形図_PRL-500N
 70
     0
 10
0.0
 20
0.0
 30
0.0
  3
ケース外形図_PRL-500N
  1
ケース外形図_PRL-500N
  0
ARC
  5
2E88
330
2E86
100
AcDbEntity
  8
外形線
100
AcDbCircle
 10
-2596.407869023793
 20
798.534998263293
 30
0.0
 40
2.15556
100
AcDbArc
 50
95.512637406103
 51
178.08903371374
  0
ARC
  5
2E89
330
2E86
100
AcDbEntity
  8
外形線
100
AcDbCircle
 10
-2590.851107023792
 20
802.679650263293
 30
0.0
 40
1.9992
100
AcDbArc
 50
270.0
 51
359.999982399908
  0
ARC
  5
2E8A
330
2E86
100
AcDbEntity
  8
外形線
100
AcDbCircle
 10
-2633.735079023793
 20
796.682154263293
 30
0.0
 40
4.32794
100
AcDbArc
 50
278.171639789583
 51
81.828325010231
  0
LINE
  5
2E8B
330
2E86
100
AcDbEntity
  8
外形線
100
AcDbLine
 10
-2598.562289023792
 20
796.682092263293
 30
0.0
 11
-2598.562289023792
 21
839.170496263293
 31
0.0
  0
LINE
  5
2E8C
330
2E86
100
AcDbEntity
  8
細線
100
AcDbLine
 10
-2709.567111023793
 20
819.473444263292
 30
0.0
 11
-2709.567111023793
 21
773.890742263293
 31
0.0
  0
LINE
  5
2E8D
330
2E86
100
AcDbEntity
  8
外形線
100
AcDbLine
 10
-2773.167087023793
 20
820.282098263293
 30
0.0
 11
-2773.167087023793
 21
773.082086263293
 31
0.0
  0
DIMENSION
  5
2E8E
330
2E86
100
AcDbEntity
  8
寸法線
 48
10.0
100
AcDbDimension
  2
*D2
 10
-2758.211345131417
 20
776.47277548805
 30
0.0
 11
-2761.336345131417
 21
804.472775488049
 31
0.0
  3
ISO-25
100
AcDbAlignedDimension
 13
-2758.211345131417
 23
832.47277548805
 33
0.0
 14
-2758.211345131417
 24
776.47277548805
 34
0.0
 50
90.0
100
AcDbRotatedDimension
  0
LINE
  5
2E8F
330
2E86
100
AcDbEntity
  8
細線
100
AcDbLine
 10
-2657.967073023793
 20
753.674402263293
 30
0.0
 11
-2657.967073023793
 21
842.378138263293
 31
0.0
  0
LINE
  5
2E90
330
2E86
100
AcDbEntity
  8
細線
100
AcDbLine
 10
-2655.111117023792
 20
848.090174263293
 30
0.0
 11
-2655.111117023792
 21
745.274134263292
 31
0.0
  0
LINE
  5
2E91
330
2E86
100
AcDbEntity
  8
細線
100
AcDbLine
 10
-2629.407137023793
 20
748.130090263293
 30
0.0
 11
-2629.407137023793
 21
845.234094263293
 31
0.0
  0
LINE
  5
2E92
330
2E86
100
AcDbEntity
  8
細線
100
AcDbLine
 10
-2698.767061023792
 20
835.809290263293
 30
0.0
 11
-2698.767061023792
 21
757.554896263293
 31
0.0
  0
LINE
  5
2E93
330
2E86
100
AcDbEntity
  8
外形線
100
AcDbLine
 10
-2648.827913023793
 20
745.274134263292
 30
0.0
 11
-2648.827913023793
 21
848.090174263293
 31
0.0
  0
LINE
  5
2E94
330
2E86
100
AcDbEntity
  8
外形線
100
AcDbLine
 10
-2650.827059023792
 20
848.090174263293
 30
0.0
 11
-2650.827059023792
 21
745.274134263292
 31
0.0
  0
LINE
  5
2E95
330
2E86
100
AcDbEntity
  8
外形線
100
AcDbLine
 10
-2727.167087023793
 20
874.182092263293
 30
0.0
 11
-2727.167087023793
 21
719.182092263293
 31
0.0
  0
LINE
  5
2E96
330
2E86
100
AcDbEntity
  8
外形線
100
AcDbLine
 10
-2739.167087023793
 20
719.182092263293
 30
0.0
 11
-2739.167087023793
 21
874.182092263293
 31
0.0
  0
ARC
  5
2E97
330
2E86
100
AcDbEntity
  8
細線
100
AcDbCircle
 10
-2652.981051023793
 20
758.555414263293
 30
0.0
 40
38.097766
100
AcDbArc
 50
252.34442125848
 51
262.046372899211
  0
ARC
  5
2E98
330
2E86
100
AcDbEntity
  8
細線
100
AcDbCircle
 10
-2670.203647023792
 20
719.481958263293
 30
0.0
 40
36.766532
100
AcDbArc
 50
72.054026400074
 51
115.211785839402
  0
LINE
  5
2E99
330
2E86
100
AcDbEntity
  8
外形線
100
AcDbLine
 10
-2684.813509023792
 20
725.964930263293
 30
0.0
 11
-2656.824617023793
 21
725.964930263293
 31
0.0
  0
LINE
  5
2E9A
330
2E86
100
AcDbEntity
  8
外形線
100
AcDbLine
 10
-2682.013949023793
 20
730.248956263293
 30
0.0
 11
-2659.611483023793
 21
730.248956263293
 31
0.0
  0
LINE
  5
2E9B
330
2E86
100
AcDbEntity
  8
外形線
100
AcDbLine
 10
-2683.385531023793
 20
720.824122263293
 30
0.0
 11
-2658.252719023793
 21
720.824122263293
 31
0.0
  0
LINE
  5
2E9C
330
2E86
100
AcDbEntity
  8
外形線
100
AcDbLine
 10
-2687.081943023793
 20
750.215296263293
 30
0.0
 11
-2684.846835023792
 21
732.742578263293
 31
0.0
  0
LINE
  5
2E9D
330
2E86
100
AcDbEntity
  8
中心線
 48
10.0
100
AcDbLine
 10
-2670.819125023793
 20
714.862202263292
 30
0.0
 11
-2670.819125023793
 21
767.062140263293
 31
0.0
  0
LINE
  5
2E9E
330
2E86
100
AcDbEntity
  8
中心線
 48
10.0
100
AcDbLine
 10
-2745.575967023793
 20
731.682092263293
 30
0.0
 11
-2722.775967023792
 21
731.682092263293
 31
0.0
  0
LINE
  5
2E9F
330
2E86
100
AcDbEntity
  8
外形線
100
AcDbLine
 10
-2727.167087023793
 20
719.182092263293
 30
0.0
 11
-2739.167087023793
 21
719.182092263293
 31
0.0
  0
LINE
  5
2EA0
330
2E86
100
AcDbEntity
  8
細線
100
AcDbLine
 10
-2664.535921023793
 20
722.252160263293
 30
0.0
 11
-2664.535921023793
 21
725.964930263293
 31
0.0
  0
LINE
  5
2EA1
330
2E86
100
AcDbEntity
  8
細線
100
AcDbLine
 10
-2677.102327023792
 20
722.252160263293
 30
0.0
 11
-2677.102327023792
 21
725.964930263293
 31
0.0
  0
LINE
  5
2EA2
330
2E86
100
AcDbEntity
  8
細線
100
AcDbLine
 10
-2677.959139023792
 20
730.248926263293
 30
0.0
 11
-2677.959139023792
 21
725.964930263293
 31
0.0
  0
LINE
  5
2EA3
330
2E86
100
AcDbEntity
  8
外形線
100
AcDbLine
 10
-2684.813509023792
 20
725.964930263293
 30
0.0
 11
-2684.813509023792
 21
722.252160263293
 31
0.0
  0
LINE
  5
2EA4
330
2E86
100
AcDbEntity
  8
外形線
100
AcDbLine
 10
-2680.243929023793
 20
725.964930263293
 30
0.0
 11
-2680.243929023793
 21
730.248926263293
 31
0.0
  0
ARC
  5
2EA5
330
2E86
100
AcDbEntity
  8
外形線
100
AcDbCircle
 10
-2682.013949023793
 20
733.104944263293
 30
0.0
 40
2.856
100
AcDbArc
 50
187.289418100615
 51
270.0
  0
ARC
  5
2EA6
330
2E86
100
AcDbEntity
  8
細線
100
AcDbCircle
 10
-2688.657199023792
 20
758.555414263293
 30
0.0
 40
38.097766
100
AcDbArc
 50
277.953629348533
 51
287.655580989282
  0
LINE
  5
2EA7
330
2E86
100
AcDbEntity
  8
外形線
100
AcDbLine
 10
-2684.813509023792
 20
722.252160263293
 30
0.0
 11
-2683.385531023793
 21
720.824122263293
 31
0.0
  0
ARC
  5
2EA8
330
2E86
100
AcDbEntity
  8
細線
100
AcDbCircle
 10
-2670.819125023793
 20
735.360804263293
 30
0.0
 40
14.53669
100
AcDbArc
 50
244.3907930338
 51
295.609209213942
  0
LINE
  5
2EA9
330
2E86
100
AcDbEntity
  8
外形線
100
AcDbLine
 10
-2725.167087023793
 20
771.182092263293
 30
0.0
 11
-2711.830259891121
 21
771.182092263293
 31
0.0
  0
LINE
  5
2EAA
330
2E86
100
AcDbEntity
  8
外形線
100
AcDbLine
 10
-2773.167087023793
 20
773.082086263293
 30
0.0
 11
-2740.910433023793
 21
768.907708263293
 31
0.0
  0
LINE
  5
2EAB
330
2E86
100
AcDbEntity
  8
寸法線
100
AcDbLine
 10
-2739.664827023792
 20
769.119592263293
 30
0.0
 11
-2763.743685023792
 21
778.603204263293
 31
0.0
  0
ARC
  5
2EAC
330
2E86
100
AcDbEntity
  8
外形線
100
AcDbCircle
 10
-2725.167087023793
 20
769.182092263293
 30
0.0
 40
2.0
100
AcDbArc
 50
90.0
 51
180.0
  0
ARC
  5
2EAD
330
2E86
100
AcDbEntity
  8
外形線
100
AcDbCircle
 10
-2741.167087023793
 20
766.924250263292
 30
0.0
 40
2.0
100
AcDbArc
 50
0.0
 51
82.626243635811
  0
ARC
  5
2EAE
330
2E86
100
AcDbEntity
  8
外形線
100
AcDbCircle
 10
-2711.830259891121
 20
767.182092263293
 30
0.0
 40
4.0
100
AcDbArc
 50
30.998746657089
 51
90.0
  0
LINE
  5
2EAF
330
2E86
100
AcDbEntity
  8
外形線
100
AcDbLine
 10
-2695.578128665481
 20
753.019135597582
 30
0.0
 11
-2689.760671330091
 21
752.704704868377
 31
0.0
  0
LINE
  5
2EB0
330
2E86
100
AcDbEntity
  8
外形線
100
AcDbLine
 10
-2700.397339100389
 20
755.920272782411
 30
0.0
 11
-2708.401545623382
 21
769.242169560437
 31
0.0
  0
ARC
  5
2EB1
330
2E86
100
AcDbEntity
  8
外形線
100
AcDbCircle
 10
-2695.254267698781
 20
759.010388728126
 30
0.0
 40
6.0
100
AcDbArc
 50
210.998746657089
 51
266.905851868664
  0
ARC
  5
2EB2
330
2E86
100
AcDbEntity
  8
外形線
100
AcDbCircle
 10
-2689.914827023792
 20
749.852868263293
 30
0.0
 40
2.856
100
AcDbArc
 50
7.289398252773
 51
86.905894590757
  0
LINE
  5
2EB3
330
2E86
100
AcDbEntity
  8
外形線
100
AcDbLine
 10
-2655.111117023792
 20
745.274134263292
 30
0.0
 11
-2656.780429023792
 21
732.728234263293
 31
0.0
  0
LINE
  5
2EB4
330
2E86
100
AcDbEntity
  8
細線
100
AcDbLine
 10
-2663.679111023792
 20
730.248926263293
 30
0.0
 11
-2663.679111023792
 21
725.964930263293
 31
0.0
  0
LINE
  5
2EB5
330
2E86
100
AcDbEntity
  8
外形線
100
AcDbLine
 10
-2656.824617023793
 20
725.964930263293
 30
0.0
 11
-2656.824617023793
 21
722.252160263293
 31
0.0
  0
LINE
  5
2EB6
330
2E86
100
AcDbEntity
  8
外形線
100
AcDbLine
 10
-2661.394321023793
 20
725.964930263293
 30
0.0
 11
-2661.394321023793
 21
730.248926263293
 31
0.0
  0
ARC
  5
2EB7
330
2E86
100
AcDbEntity
  8
外形線
100
AcDbCircle
 10
-2659.611483023793
 20
733.104944263293
 30
0.0
 40
2.856
100
AcDbArc
 50
270.0
 51
352.421011277475
  0
LINE
  5
2EB8
330
2E86
100
AcDbEntity
  8
外形線
100
AcDbLine
 10
-2656.824617023793
 20
722.252160263293
 30
0.0
 11
-2658.252719023793
 21
720.824122263293
 31
0.0
  0
LINE
  5
2EB9
330
2E86
100
AcDbEntity
  8
外形線
100
AcDbLine
 10
-2629.407137023793
 20
748.130090263293
 30
0.0
 11
-2603.192905023793
 21
749.343774263293
 31
0.0
  0
ARC
  5
2EBA
330
2E86
100
AcDbEntity
  8
外形線
100
AcDbCircle
 10
-2633.445955023793
 20
769.831628263293
 30
0.0
 40
4.015794000000001
100
AcDbArc
 50
275.934583374273
 51
85.343077308665
  0
LINE
  5
2EBB
330
2E86
100
AcDbEntity
  8
外形線
100
AcDbLine
 10
-2648.827913023793
 20
765.837366263293
 30
0.0
 11
-2633.030795023793
 21
765.837366263293
 31
0.0
  0
LINE
  5
2EBC
330
2E86
100
AcDbEntity
  8
外形線
100
AcDbLine
 10
-2631.079805023792
 20
754.413294263293
 30
0.0
 11
-2648.827913023793
 21
754.413294263293
 31
0.0
  0
LINE
  5
2EBD
330
2E86
100
AcDbEntity
  8
外形線
100
AcDbLine
 10
-2631.079805023792
 20
750.986170263293
 30
0.0
 11
-2648.827913023793
 21
750.986170263293
 31
0.0
  0
LINE
  5
2EBE
330
2E86
100
AcDbEntity
  8
外形線
100
AcDbLine
 10
-2655.111117023792
 20
745.274134263292
 30
0.0
 11
-2633.119905023792
 21
745.274134263292
 31
0.0
  0
LINE
  5
2EBF
330
2E86
100
AcDbEntity
  8
細線
100
AcDbLine
 10
-2657.967073023793
 20
753.674402263293
 30
0.0
 11
-2655.111117023792
 21
745.274134263292
 31
0.0
  0
LINE
  5
2EC0
330
2E86
100
AcDbEntity
  8
細線
100
AcDbLine
 10
-2633.119905023792
 20
765.837366263293
 30
0.0
 11
-2633.119905023792
 21
754.413294263293
 31
0.0
  0
ARC
  5
2EC1
330
2E86
100
AcDbEntity
  8
外形線
100
AcDbCircle
 10
-2631.133821023792
 20
752.699670263293
 30
0.0
 40
1.714446
100
AcDbArc
 50
271.804703586974
 51
88.195318508631
  0
LINE
  5
2EC2
330
2E86
100
AcDbEntity
  8
細線
100
AcDbLine
 10
-2633.119905023792
 20
750.986170263293
 30
0.0
 11
-2633.119905023792
 21
745.274134263292
 31
0.0
  0
LINE
  5
2EC3
330
2E86
100
AcDbEntity
  8
外形線
100
AcDbLine
 10
-2633.119905023792
 20
745.274134263292
 30
0.0
 11
-2629.407137023793
 21
748.130090263293
 31
0.0
  0
LINE
  5
2EC4
330
2E86
100
AcDbEntity
  8
外形線
100
AcDbLine
 10
-2648.827913023793
 20
792.398156263293
 30
0.0
 11
-2633.119905023792
 21
792.398156263293
 31
0.0
  0
LINE
  5
2EC5
330
2E86
100
AcDbEntity
  8
外形線
100
AcDbLine
 10
-2648.827913023793
 20
773.834070263293
 30
0.0
 11
-2633.119905023792
 21
773.834070263293
 31
0.0
  0
LINE
  5
2EC6
330
2E86
100
AcDbEntity
  8
細線
100
AcDbLine
 10
-2633.119905023792
 20
792.398156263293
 30
0.0
 11
-2633.119905023792
 21
773.834070263293
 31
0.0
  0
ARC
  5
2EC7
330
2E86
100
AcDbEntity
  8
外形線
100
AcDbCircle
 10
-2596.576083023793
 20
769.249476263293
 30
0.0
 40
1.986266
100
AcDbArc
 50
84.716336376667
 51
272.672276280362
  0
LINE
  5
2EC8
330
2E86
100
AcDbEntity
  8
外形線
100
AcDbLine
 10
-2598.562289023792
 20
796.682092263293
 30
0.0
 11
-2598.562289023792
 21
754.193812263293
 31
0.0
  0
LINE
  5
2EC9
330
2E86
100
AcDbEntity
  8
外形線
100
AcDbLine
 10
-2596.483553023793
 20
767.265344263293
 30
0.0
 11
-2590.763339023793
 21
767.265344263293
 31
0.0
  0
ARC
  5
2ECA
330
2E86
100
AcDbEntity
  8
外形線
100
AcDbCircle
 10
-2590.714023023792
 20
765.414026263293
 30
0.0
 40
1.86215
100
AcDbArc
 50
268.482178628784
 51
83.815801009983
  0
LINE
  5
2ECB
330
2E86
100
AcDbEntity
  8
外形線
100
AcDbLine
 10
-2598.562289023792
 20
763.552576263293
 30
0.0
 11
-2590.763339023793
 21
763.552576263293
 31
0.0
  0
ARC
  5
2ECC
330
2E86
100
AcDbEntity
  8
外形線
100
AcDbCircle
 10
-2603.417513023792
 20
754.193812263293
 30
0.0
 40
4.8552
100
AcDbArc
 50
272.650733067261
 51
359.999982399908
  0
LINE
  5
2ECD
330
2E86
100
AcDbEntity
  8
外形線
100
AcDbLine
 10
-2596.614901023793
 20
792.683802263293
 30
0.0
 11
-2590.851107023792
 21
792.683802263293
 31
0.0
  0
ARC
  5
2ECE
330
2E86
100
AcDbEntity
  8
外形線
100
AcDbCircle
 10
-2590.851107023792
 20
790.684534263293
 30
0.0
 40
1.9992
100
AcDbArc
 50
0.0
 51
89.999981276047
  0
LINE
  5
2ECF
330
2E86
100
AcDbEntity
  8
外形線
100
AcDbLine
 10
-2596.483493023793
 20
771.263758263293
 30
0.0
 11
-2590.851107023792
 21
771.263758263293
 31
0.0
  0
ARC
  5
2ED0
330
2E86
100
AcDbEntity
  8
外形線
100
AcDbCircle
 10
-2590.851107023792
 20
773.262902263293
 30
0.0
 40
1.9992
100
AcDbArc
 50
270.0
 51
359.999982399908
  0
LINE
  5
2ED1
330
2E86
100
AcDbEntity
  8
外形線
100
AcDbLine
 10
-2588.851839023793
 20
773.262902263293
 30
0.0
 11
-2588.851839023793
 21
790.684534263293
 31
0.0
  0
ARC
  5
2ED2
330
2E86
100
AcDbEntity
  8
外形線
100
AcDbCircle
 10
-2596.407869023793
 20
794.829310263293
 30
0.0
 40
2.15556
100
AcDbArc
 50
181.910948686163
 51
264.487402289583
  0
LINE
  5
2ED3
330
2E86
100
AcDbEntity
  8
外形線
100
AcDbLine
 10
-2695.578128665481
 20
840.345048929002
 30
0.0
 11
-2657.967073023793
 21
842.378138263293
 31
0.0
  0
LINE
  5
2ED4
330
2E86
100
AcDbEntity
  8
外形線
100
AcDbLine
 10
-2725.167087023793
 20
822.182092263293
 30
0.0
 11
-2711.830259891121
 21
822.182092263293
 31
0.0
  0
LINE
  5
2ED5
330
2E86
100
AcDbEntity
  8
寸法線
100
AcDbLine
 10
-2739.664827023792
 20
825.119592263293
 30
0.0
 11
-2763.743685023792
 21
834.603204263293
 31
0.0
  0
LINE
  5
2ED6
330
2E86
100
AcDbEntity
  8
外形線
100
AcDbLine
 10
-2773.167087023793
 20
820.282098263293
 30
0.0
 11
-2740.910433023793
 21
824.456476263293
 31
0.0
  0
ARC
  5
2ED7
330
2E86
100
AcDbEntity
  8
外形線
100
AcDbCircle
 10
-2741.167087023793
 20
826.439936263292
 30
0.0
 40
2.0
100
AcDbArc
 50
277.373738764089
 51
359.999982399908
  0
ARC
  5
2ED8
330
2E86
100
AcDbEntity
  8
外形線
100
AcDbCircle
 10
-2725.167087023793
 20
824.182092263293
 30
0.0
 40
2.0
100
AcDbArc
 50
180.0
 51
270.0
  0
LINE
  5
2ED9
330
2E86
100
AcDbEntity
  8
外形線
100
AcDbLine
 10
-2700.397339100389
 20
837.443911744175
 30
0.0
 11
-2708.401545623382
 21
824.122014966149
 31
0.0
  0
ARC
  5
2EDA
330
2E86
100
AcDbEntity
  8
外形線
100
AcDbCircle
 10
-2711.830259891121
 20
826.182092263293
 30
0.0
 40
4.0
100
AcDbArc
 50
270.0
 51
329.001253342911
  0
ARC
  5
2EDB
330
2E86
100
AcDbEntity
  8
外形線
100
AcDbCircle
 10
-2695.254267698781
 20
834.353795798458
 30
0.0
 40
6.0
100
AcDbArc
 50
93.094148131336
 51
149.001253342911
  0
LINE
  5
2EDC
330
2E86
100
AcDbEntity
  8
外形線
100
AcDbLine
 10
-2727.167087023793
 20
874.182092263293
 30
0.0
 11
-2739.167087023793
 21
874.182092263293
 31
0.0
  0
LINE
  5
2EDD
330
2E86
100
AcDbEntity
  8
中心線
 48
10.0
100
AcDbLine
 10
-2745.575967023793
 20
861.682092263293
 30
0.0
 11
-2722.775967023792
 21
861.682092263293
 31
0.0
  0
LINE
  5
2EDE
330
2E86
100
AcDbEntity
  8
外形線
100
AcDbLine
 10
-2629.407137023793
 20
845.234094263293
 30
0.0
 11
-2603.192905023793
 21
844.020472263293
 31
0.0
  0
LINE
  5
2EDF
330
2E86
100
AcDbEntity
  8
細線
100
AcDbLine
 10
-2633.119905023792
 20
827.526942263293
 30
0.0
 11
-2633.119905023792
 21
838.950892263293
 31
0.0
  0
LINE
  5
2EE0
330
2E86
100
AcDbEntity
  8
外形線
100
AcDbLine
 10
-2648.827913023793
 20
819.530114263293
 30
0.0
 11
-2633.119905023792
 21
819.530114263293
 31
0.0
  0
LINE
  5
2EE1
330
2E86
100
AcDbEntity
  8
外形線
100
AcDbLine
 10
-2648.827913023793
 20
827.526942263293
 30
0.0
 11
-2633.030795023793
 21
827.526942263293
 31
0.0
  0
LINE
  5
2EE2
330
2E86
100
AcDbEntity
  8
外形線
100
AcDbLine
 10
-2648.827913023793
 20
800.966150263293
 30
0.0
 11
-2633.119905023792
 21
800.966150263293
 31
0.0
  0
ARC
  5
2EE3
330
2E86
100
AcDbEntity
  8
外形線
100
AcDbCircle
 10
-2633.445955023793
 20
823.532678263292
 30
0.0
 40
4.015794000000001
100
AcDbArc
 50
274.656944786913
 51
84.065438721313
  0
LINE
  5
2EE4
330
2E86
100
AcDbEntity
  8
細線
100
AcDbLine
 10
-2633.119905023792
 20
800.966150263293
 30
0.0
 11
-2633.119905023792
 21
819.530114263293
 31
0.0
  0
LINE
  5
2EE5
330
2E86
100
AcDbEntity
  8
外形線
100
AcDbLine
 10
-2655.111117023792
 20
848.090174263293
 30
0.0
 11
-2633.119905023792
 21
848.090174263293
 31
0.0
  0
LINE
  5
2EE6
330
2E86
100
AcDbEntity
  8
外形線
100
AcDbLine
 10
-2631.079805023792
 20
838.950892263293
 30
0.0
 11
-2648.827913023793
 21
838.950892263293
 31
0.0
  0
LINE
  5
2EE7
330
2E86
100
AcDbEntity
  8
外形線
100
AcDbLine
 10
-2631.079805023792
 20
842.378138263293
 30
0.0
 11
-2648.827913023793
 21
842.378138263293
 31
0.0
  0
LINE
  5
2EE8
330
2E86
100
AcDbEntity
  8
外形線
100
AcDbLine
 10
-2657.967073023793
 20
842.378138263293
 30
0.0
 11
-2655.111117023792
 21
848.090174263293
 31
0.0
  0
LINE
  5
2EE9
330
2E86
100
AcDbEntity
  8
外形線
100
AcDbLine
 10
-2633.119905023792
 20
848.090174263293
 30
0.0
 11
-2629.407137023793
 21
845.234094263293
 31
0.0
  0
ARC
  5
2EEA
330
2E86
100
AcDbEntity
  8
外形線
100
AcDbCircle
 10
-2631.133821023792
 20
840.664514263293
 30
0.0
 40
1.714446
100
AcDbArc
 50
271.804703586974
 51
88.195318508631
  0
LINE
  5
2EEB
330
2E86
100
AcDbEntity
  8
細線
100
AcDbLine
 10
-2633.119905023792
 20
842.378138263293
 30
0.0
 11
-2633.119905023792
 21
848.090174263293
 31
0.0
  0
LINE
  5
2EEC
330
2E86
100
AcDbEntity
  8
外形線
100
AcDbLine
 10
-2596.483493023793
 20
826.098932263293
 30
0.0
 11
-2590.513461023792
 21
826.098932263293
 31
0.0
  0
ARC
  5
2EED
330
2E86
100
AcDbEntity
  8
外形線
100
AcDbCircle
 10
-2596.576083023793
 20
824.114832263292
 30
0.0
 40
1.986266
100
AcDbArc
 50
87.327706119557
 51
275.283646023236
  0
LINE
  5
2EEE
330
2E86
100
AcDbEntity
  8
外形線
100
AcDbLine
 10
-2596.389803023793
 20
822.100550263293
 30
0.0
 11
-2590.851107023792
 21
822.100550263293
 31
0.0
  0
ARC
  5
2EEF
330
2E86
100
AcDbEntity
  8
外形線
100
AcDbCircle
 10
-2590.714023023792
 20
827.950280263292
 30
0.0
 40
1.86215
100
AcDbArc
 50
276.18422108563
 51
91.517843466792
  0
LINE
  5
2EF0
330
2E86
100
AcDbEntity
  8
外形線
100
AcDbLine
 10
-2598.562289023792
 20
829.811732263293
 30
0.0
 11
-2590.763339023793
 21
829.811732263293
 31
0.0
  0
ARC
  5
2EF1
330
2E86
100
AcDbEntity
  8
外形線
100
AcDbCircle
 10
-2590.851107023792
 20
820.101282263293
 30
0.0
 40
1.9992
100
AcDbArc
 50
0.0
 51
89.999981276047
  0
LINE
  5
2EF2
330
2E86
100
AcDbEntity
  8
外形線
100
AcDbLine
 10
-2596.614901023793
 20
800.680506263293
 30
0.0
 11
-2590.851107023792
 21
800.680506263293
 31
0.0
  0
LINE
  5
2EF3
330
2E86
100
AcDbEntity
  8
外形線
100
AcDbLine
 10
-2588.851839023793
 20
820.101282263293
 30
0.0
 11
-2588.851839023793
 21
802.679650263293
 31
0.0
  0
ARC
  5
2EF4
330
2E86
100
AcDbEntity
  8
外形線
100
AcDbCircle
 10
-2603.417513023792
 20
839.170496263293
 30
0.0
 40
4.8552
100
AcDbArc
 50
0.0
 51
87.349306628423
  0
ENDBLK
  5
2EF5
330
2E86
100
AcDbEntity
  8
0
 48
10.0
100
AcDbBlockEnd
  0
BLOCK
  5
3A4D
330
3A43
100
AcDbEntity
  8
0
 48
10.0
100
AcDbBlockBegin
  2
*D4
 70
     1
 10
0.0
 20
0.0
 30
0.0
  3
*D4
  1
*D4
  0
LINE
  5
5090
330
3A43
100
AcDbEntity
  8
寸法線
 62
     0
 48
10.0
100
AcDbLine
 10
359.991836180744
 20
969.191623392897
 30
0.0
 11
359.174227496914
 21
969.191623392897
 31
0.0
  0
LINE
  5
5091
330
3A43
100
AcDbEntity
  8
寸法線
 62
     0
 48
10.0
100
AcDbLine
 10
359.799227496914
 20
913.267483553095
 30
0.0
 11
359.174227496914
 21
913.267483553095
 31
0.0
  0
LINE
  5
5092
330
3A43
100
AcDbEntity
  8
寸法線
 62
     0
 48
10.0
100
AcDbLine
 10
360.424227496914
 20
963.191623392897
 30
0.0
 11
360.424227496914
 21
919.267483553095
 31
0.0
  0
MTEXT
  5
5093
330
3A43
100
AcDbEntity
  8
寸法線
 62
     0
 48
10.0
100
AcDbMText
 10
353.703181136436
 20
946.100979297839
 30
0.0
 40
10.0
 41
0.0
 71
     5
 72
     1
  1
\A1;φ56
 11
6.123031769111886E-17
 21
1.0
 31
0.0
  0
INSERT
  5
5094
330
3A43
100
AcDbEntity
  8
寸法線
 62
     0
 48
10.0
100
AcDbBlockReference
  2
_OPEN30
 10
360.424227496914
 20
969.191623392897
 30
0.0
 41
6.0
 42
6.0
 43
6.0
 50
90.0
  0
INSERT
  5
5095
330
3A43
100
AcDbEntity
  8
寸法線
 62
     0
 48
10.0
100
AcDbBlockReference
  2
_OPEN30
 10
360.424227496914
 20
913.267483553095
 30
0.0
 41
6.0
 42
6.0
 43
6.0
 50
270.0
  0
POINT
  5
5096
330
3A43
100
AcDbEntity
  8
DEFPOINTS
 62
     0
 48
10.0
100
AcDbPoint
 10
360.616836180744
 20
969.191623392897
 30
0.0
  0
POINT
  5
5097
330
3A43
100
AcDbEntity
  8
DEFPOINTS
 62
     0
 48
10.0
100
AcDbPoint
 10
360.424227496914
 20
913.267483553095
 30
0.0
  0
POINT
  5
5098
330
3A43
100
AcDbEntity
  8
DEFPOINTS
 62
     0
 48
10.0
100
AcDbPoint
 10
360.424227496914
 20
913.267483553095
 30
0.0
  0
ENDBLK
  5
3A4E
330
3A43
100
AcDbEntity
  8
0
 48
10.0
100
AcDbBlockEnd
  0
BLOCK
  5
3A67
330
3A5B
100
AcDbEntity
  8
0
 48
10.0
100
AcDbBlockBegin
  2
*D6
 70
     1
 10
0.0
 20
0.0
 30
0.0
  3
*D6
  1
*D6
  0
LINE
  5
4292
330
3A5B
100
AcDbEntity
  8
寸法線
 62
     0
 48
10.0
100
AcDbLine
 10
84.779045456383
 20
931.648033107232
 30
0.0
 11
84.154045456383
 21
931.648033107232
 31
0.0
  0
LINE
  5
4293
330
3A5B
100
AcDbEntity
  8
寸法線
 62
     0
 48
10.0
100
AcDbLine
 10
84.779045456383
 20
937.648015607232
 30
0.0
 11
84.154045456383
 21
937.648015607232
 31
0.0
  0
LINE
  5
4294
330
3A5B
100
AcDbEntity
  8
寸法線
 62
     0
 48
10.0
100
AcDbLine
 10
85.404045456383
 20
925.648033107232
 30
0.0
 11
85.404045456383
 21
919.648033107232
 31
0.0
  0
LINE
  5
4295
330
3A5B
100
AcDbEntity
  8
寸法線
 62
     0
 48
10.0
100
AcDbLine
 10
85.404045456383
 20
943.648015607232
 30
0.0
 11
85.404045456383
 21
966.894078599358
 31
0.0
  0
LINE
  5
4296
330
3A5B
100
AcDbEntity
  8
寸法線
 62
     0
 48
10.0
100
AcDbLine
 10
85.404045456383
 20
931.648033107232
 30
0.0
 11
85.404045456383
 21
937.648015607232
 31
0.0
  0
INSERT
  5
4297
330
3A5B
100
AcDbEntity
  8
寸法線
 62
     0
 48
10.0
100
AcDbBlockReference
  2
_OPEN30
 10
85.404045456383
 20
931.648033107232
 30
0.0
 41
6.0
 42
6.0
 43
6.0
 50
90.0
  0
INSERT
  5
4298
330
3A5B
100
AcDbEntity
  8
寸法線
 62
     0
 48
10.0
100
AcDbBlockReference
  2
_OPEN30
 10
85.404045456383
 20
937.648015607232
 30
0.0
 41
6.0
 42
6.0
 43
6.0
 50
270.0
  0
MTEXT
  5
4299
330
3A5B
100
AcDbEntity
  8
寸法線
 62
     0
 48
10.0
100
AcDbMText
 10
79.779045456383
 20
958.271047103295
 30
0.0
 40
10.0
 41
0.0
 71
     5
 72
     1
  1
\A1;φ6
 11
6.123031769111886E-17
 21
1.0
 31
0.0
  0
POINT
  5
429A
330
3A5B
100
AcDbEntity
  8
DEFPOINTS
 62
     0
 48
10.0
100
AcDbPoint
 10
85.404045456383
 20
931.648033107232
 30
0.0
  0
POINT
  5
429B
330
3A5B
100
AcDbEntity
  8
DEFPOINTS
 62
     0
 48
10.0
100
AcDbPoint
 10
85.404045456383
 20
937.648015607232
 30
0.0
  0
POINT
  5
429C
330
3A5B
100
AcDbEntity
  8
DEFPOINTS
 62
     0
 48
10.0
100
AcDbPoint
 10
85.404045456383
 20
937.648015607232
 30
0.0
  0
ENDBLK
  5
3A68
330
3A5B
100
AcDbEntity
  8
0
 48
10.0
100
AcDbBlockEnd
  0
BLOCK
  5
3A7F
330
3A75
100
AcDbEntity
  8
0
 48
10.0
100
AcDbBlockBegin
  2
*D7
 70
     1
 10
0.0
 20
0.0
 30
0.0
  3
*D7
  1
*D7
  0
LINE
  5
4289
330
3A75
100
AcDbEntity
  8
寸法線
 62
     0
 48
10.0
100
AcDbLine
 10
-276.784144030026
 20
873.486055666586
 30
0.0
 11
-276.784144030026
 21
849.456446740971
 31
0.0
  0
LINE
  5
428A
330
3A75
100
AcDbEntity
  8
寸法線
 62
     0
 48
10.0
100
AcDbLine
 10
-136.784144030026
 20
923.023024357232
 30
0.0
 11
-136.784144030026
 21
849.456446740971
 31
0.0
  0
LINE
  5
428B
330
3A75
100
AcDbEntity
  8
寸法線
 62
     0
 48
10.0
100
AcDbLine
 10
-270.784144030026
 20
850.706446740971
 30
0.0
 11
-142.784144030026
 21
850.706446740971
 31
0.0
  0
INSERT
  5
428C
330
3A75
100
AcDbEntity
  8
寸法線
 62
     0
100
AcDbBlockReference
  2
_OPEN30
 10
-276.784144030026
 20
850.706446740971
 30
0.0
 41
6.0
 42
6.0
 43
6.0
 50
180.0
  0
INSERT
  5
428D
330
3A75
100
AcDbEntity
  8
寸法線
 62
     0
100
AcDbBlockReference
  2
_OPEN30
 10
-136.784144030026
 20
850.706446740971
 30
0.0
 41
6.0
 42
6.0
 43
6.0
  0
MTEXT
  5
428E
330
3A75
100
AcDbEntity
  8
寸法線
 62
     0
 48
10.0
100
AcDbMText
 10
-199.034137780026
 20
856.331446740971
 30
0.0
 40
10.0
 41
0.0
 71
     5
 72
     1
  1
\A1;140
  0
POINT
  5
428F
330
3A75
100
AcDbEntity
  8
DEFPOINTS
 62
     0
100
AcDbPoint
 10
-276.784144030026
 20
874.111055666586
 30
0.0
  0
POINT
  5
4290
330
3A75
100
AcDbEntity
  8
DEFPOINTS
 62
     0
100
AcDbPoint
 10
-136.784144030026
 20
923.648024357232
 30
0.0
  0
POINT
  5
4291
330
3A75
100
AcDbEntity
  8
DEFPOINTS
 62
     0
100
AcDbPoint
 10
-136.784144030026
 20
850.706446740971
 30
0.0
  0
ENDBLK
  5
3A80
330
3A75
100
AcDbEntity
  8
0
 48
10.0
100
AcDbBlockEnd
  0
BLOCK
  5
3A8B
330
3A81
100
AcDbEntity
  8
0
 48
10.0
100
AcDbBlockBegin
  2
*D8
 70
     1
 10
0.0
 20
0.0
 30
0.0
  3
*D8
  1
*D8
  0
LINE
  5
4280
330
3A81
100
AcDbEntity
  8
寸法線
 62
     0
 48
10.0
100
AcDbLine
 10
-276.784144030026
 20
896.523025607232
 30
0.0
 11
-276.784144030026
 21
870.608790866772
 31
0.0
  0
LINE
  5
4281
330
3A81
100
AcDbEntity
  8
寸法線
 62
     0
 48
10.0
100
AcDbLine
 10
-246.784144030026
 20
896.523025607232
 30
0.0
 11
-246.784144030026
 21
870.608790866772
 31
0.0
  0
LINE
  5
4282
330
3A81
100
AcDbEntity
  8
寸法線
 62
     0
 48
10.0
100
AcDbLine
 10
-270.784144030026
 20
871.858790866772
 30
0.0
 11
-252.784144030026
 21
871.858790866772
 31
0.0
  0
INSERT
  5
4283
330
3A81
100
AcDbEntity
  8
寸法線
 62
     0
 48
10.0
100
AcDbBlockReference
  2
_OPEN30
 10
-276.784144030026
 20
871.858790866772
 30
0.0
 41
6.0
 42
6.0
 43
6.0
 50
180.0
  0
INSERT
  5
4284
330
3A81
100
AcDbEntity
  8
寸法線
 62
     0
 48
10.0
100
AcDbBlockReference
  2
_OPEN30
 10
-246.784144030026
 20
871.858790866772
 30
0.0
 41
6.0
 42
6.0
 43
6.0
  0
MTEXT
  5
4285
330
3A81
100
AcDbEntity
  8
寸法線
 62
     0
 48
10.0
100
AcDbMText
 10
-261.784144030026
 20
877.483790866772
 30
0.0
 40
10.0
 41
0.0
 71
     5
 72
     1
  1
\A1;30
  0
POINT
  5
4286
330
3A81
100
AcDbEntity
  8
DEFPOINTS
 62
     0
 48
10.0
100
AcDbPoint
 10
-276.784144030026
 20
897.148025607232
 30
0.0
  0
POINT
  5
4287
330
3A81
100
AcDbEntity
  8
DEFPOINTS
 62
     0
 48
10.0
100
AcDbPoint
 10
-246.784144030026
 20
897.148025607232
 30
0.0
  0
POINT
  5
4288
330
3A81
100
AcDbEntity
  8
DEFPOINTS
 62
     0
 48
10.0
100
AcDbPoint
 10
-246.784144030026
 20
871.858790866772
 30
0.0
  0
ENDBLK
  5
3A8C
330
3A81
100
AcDbEntity
  8
0
 48
10.0
100
AcDbBlockEnd
  0
BLOCK
  5
3A97
330
3A8D
100
AcDbEntity
  8
0
 48
10.0
100
AcDbBlockBegin
  2
*D9
 70
     1
 10
0.0
 20
0.0
 30
0.0
  3
*D9
  1
*D9
  0
LINE
  5
5074
330
3A8D
100
AcDbEntity
  8
寸法線
 62
     0
 48
10.0
100
AcDbLine
 10
-277.409144030026
 20
972.148025607232
 30
0.0
 11
-303.087799139922
 21
972.148025607232
 31
0.0
  0
LINE
  5
5075
330
3A8D
100
AcDbEntity
  8
寸法線
 62
     0
 48
10.0
100
AcDbLine
 10
-277.409144030026
 20
897.148025607232
 30
0.0
 11
-303.087799139922
 21
897.148025607232
 31
0.0
  0
LINE
  5
5076
330
3A8D
100
AcDbEntity
  8
寸法線
 62
     0
 48
10.0
100
AcDbLine
 10
-301.837799139922
 20
966.148025607232
 30
0.0
 11
-301.837799139922
 21
903.148025607232
 31
0.0
  0
INSERT
  5
5077
330
3A8D
100
AcDbEntity
  8
寸法線
 62
     0
 48
10.0
100
AcDbBlockReference
  2
_OPEN30
 10
-301.837799139922
 20
972.148025607232
 30
0.0
 41
6.0
 42
6.0
 43
6.0
 50
90.0
  0
INSERT
  5
5078
330
3A8D
100
AcDbEntity
  8
寸法線
 62
     0
 48
10.0
100
AcDbBlockReference
  2
_OPEN30
 10
-301.837799139922
 20
897.148025607232
 30
0.0
 41
6.0
 42
6.0
 43
6.0
 50
270.0
  0
MTEXT
  5
5079
330
3A8D
100
AcDbEntity
  8
寸法線
 62
     0
 48
10.0
100
AcDbMText
 10
-307.462799139923
 20
934.648025607232
 30
0.0
 40
10.0
 41
0.0
 71
     5
 72
     1
  1
\A1;75
 11
6.123031769111886E-17
 21
1.0
 31
0.0
  0
POINT
  5
507A
330
3A8D
100
AcDbEntity
  8
DEFPOINTS
 62
     0
 48
10.0
100
AcDbPoint
 10
-276.784144030026
 20
972.148025607232
 30
0.0
  0
POINT
  5
507B
330
3A8D
100
AcDbEntity
  8
DEFPOINTS
 62
     0
 48
10.0
100
AcDbPoint
 10
-276.784144030026
 20
897.148025607232
 30
0.0
  0
POINT
  5
507C
330
3A8D
100
AcDbEntity
  8
DEFPOINTS
 62
     0
 48
10.0
100
AcDbPoint
 10
-301.837799139922
 20
897.148025607232
 30
0.0
  0
ENDBLK
  5
3A98
330
3A8D
100
AcDbEntity
  8
0
 48
10.0
100
AcDbBlockEnd
  0
BLOCK
  5
3AB0
330
3AA5
100
AcDbEntity
  8
0
 48
10.0
100
AcDbBlockBegin
  2
*D10
 70
     1
 10
0.0
 20
0.0
 30
0.0
  3
*D10
  1
*D10
  0
LINE
  5
4264
330
3AA5
100
AcDbEntity
  8
寸法線
 62
     0
 48
10.0
100
AcDbLine
 10
331.442937469974
 20
942.148024357232
 30
0.0
 11
332.12059993869
 21
942.148024357232
 31
0.0
  0
LINE
  5
4265
330
3AA5
100
AcDbEntity
  8
寸法線
 62
     0
 48
10.0
100
AcDbLine
 10
331.442937469974
 20
927.148024357232
 30
0.0
 11
332.12059993869
 21
927.148024357232
 31
0.0
  0
LINE
  5
4266
330
3AA5
100
AcDbEntity
  8
寸法線
 62
     0
 48
10.0
100
AcDbLine
 10
330.87059993869
 20
933.148024357232
 30
0.0
 11
330.87059993869
 21
936.148024357232
 31
0.0
  0
LINE
  5
4267
330
3AA5
100
AcDbEntity
  8
寸法線
 62
     0
 48
10.0
100
AcDbLine
 10
330.87059993869
 20
942.148024357232
 30
0.0
 11
330.87059993869
 21
970.312237919605
 31
0.0
  0
INSERT
  5
4268
330
3AA5
100
AcDbEntity
  8
寸法線
 62
     0
 48
10.0
100
AcDbBlockReference
  2
_OPEN30
 10
330.87059993869
 20
927.148024357232
 30
0.0
 41
6.0
 42
6.0
 43
6.0
 50
270.0
  0
INSERT
  5
4269
330
3AA5
100
AcDbEntity
  8
寸法線
 62
     0
 48
10.0
100
AcDbBlockReference
  2
_OPEN30
 10
330.87059993869
 20
942.148024357232
 30
0.0
 41
6.0
 42
6.0
 43
6.0
 50
90.0
  0
MTEXT
  5
426A
330
3AA5
100
AcDbEntity
  8
寸法線
 62
     0
 48
10.0
100
AcDbMText
 10
325.24559993869
 20
959.230131138419
 30
0.0
 40
10.0
 41
0.0
 71
     5
 72
     1
  1
\A1;φ15
 11
6.123031769111886E-17
 21
1.0
 31
0.0
  0
POINT
  5
426B
330
3AA5
100
AcDbEntity
  8
DEFPOINTS
 62
     0
 48
10.0
100
AcDbPoint
 10
330.817937469974
 20
942.148024357232
 30
0.0
  0
POINT
  5
426C
330
3AA5
100
AcDbEntity
  8
DEFPOINTS
 62
     0
 48
10.0
100
AcDbPoint
 10
330.817937469974
 20
927.148024357232
 30
0.0
  0
POINT
  5
426D
330
3AA5
100
AcDbEntity
  8
DEFPOINTS
 62
     0
 48
10.0
100
AcDbPoint
 10
330.87059993869
 20
927.148024357232
 30
0.0
  0
ENDBLK
  5
3AB1
330
3AA5
100
AcDbEntity
  8
0
 48
10.0
100
AcDbBlockEnd
  0
BLOCK
  5
3ABC
330
3AB2
100
AcDbEntity
  8
0
 48
10.0
100
AcDbBlockBegin
  2
*D11
 70
     1
 10
0.0
 20
0.0
 30
0.0
  3
*D11
  1
*D11
  0
LINE
  5
503A
330
3AB2
100
AcDbEntity
  8
寸法線
 62
     0
 48
10.0
100
AcDbLine
 10
376.617940469974
 20
824.602690892015
 30
0.0
 11
376.617940469974
 21
800.968711737413
 31
0.0
  0
LINE
  5
503B
330
3AB2
100
AcDbEntity
  8
寸法線
 62
     0
 48
10.0
100
AcDbLine
 10
526.623234238057
 20
825.6745636281
 30
0.0
 11
526.623234238057
 21
800.968711737413
 31
0.0
  0
LINE
  5
503C
330
3AB2
100
AcDbEntity
  8
寸法線
 62
     0
 48
10.0
100
AcDbLine
 10
382.617940469974
 20
802.218711737413
 30
0.0
 11
520.623234238057
 21
802.218711737413
 31
0.0
  0
INSERT
  5
503D
330
3AB2
100
AcDbEntity
  8
寸法線
 62
     0
 48
10.0
100
AcDbBlockReference
  2
_OPEN30
 10
376.617940469974
 20
802.218711737413
 30
0.0
 41
6.0
 42
6.0
 43
6.0
 50
180.0
  0
INSERT
  5
503E
330
3AB2
100
AcDbEntity
  8
寸法線
 62
     0
 48
10.0
100
AcDbBlockReference
  2
_OPEN30
 10
526.623234238057
 20
802.218711737413
 30
0.0
 41
6.0
 42
6.0
 43
6.0
  0
MTEXT
  5
503F
330
3AB2
100
AcDbEntity
  8
寸法線
 62
     0
 48
10.0
100
AcDbMText
 10
451.775547469974
 20
807.843711737413
 30
0.0
 40
10.0
 41
0.0
 71
     5
 72
     1
  1
\A1;150
  0
POINT
  5
5040
330
3AB2
100
AcDbEntity
  8
DEFPOINTS
 62
     0
 48
10.0
100
AcDbPoint
 10
376.617940469974
 20
825.227690892015
 30
0.0
  0
POINT
  5
5041
330
3AB2
100
AcDbEntity
  8
DEFPOINTS
 62
     0
 48
10.0
100
AcDbPoint
 10
526.623234238057
 20
826.2995636281
 30
0.0
  0
POINT
  5
5042
330
3AB2
100
AcDbEntity
  8
DEFPOINTS
 62
     0
 48
10.0
100
AcDbPoint
 10
526.623234238057
 20
802.218711737413
 30
0.0
  0
ENDBLK
  5
3ABD
330
3AB2
100
AcDbEntity
  8
0
 48
10.0
100
AcDbBlockEnd
  0
BLOCK
  5
3AEE
330
3AE2
100
AcDbEntity
  8
0
 48
10.0
100
AcDbBlockBegin
  2
*D12
 70
     1
 10
0.0
 20
0.0
 30
0.0
  3
*D12
  1
*D12
  0
LINE
  5
4247
330
3AE2
100
AcDbEntity
  8
寸法線
 62
     0
 48
10.0
100
AcDbLine
 10
376.617940469974
 20
856.523024357232
 30
0.0
 11
376.617940469974
 21
825.227690892015
 31
0.0
  0
LINE
  5
4248
330
3AE2
100
AcDbEntity
  8
寸法線
 62
     0
 48
10.0
100
AcDbLine
 10
388.617940469974
 20
856.523024357232
 30
0.0
 11
388.617940469974
 21
825.227690892015
 31
0.0
  0
LINE
  5
4249
330
3AE2
100
AcDbEntity
  8
寸法線
 62
     0
 48
10.0
100
AcDbLine
 10
370.617940469974
 20
826.477690892015
 30
0.0
 11
364.617940469974
 21
826.477690892015
 31
0.0
  0
LINE
  5
424A
330
3AE2
100
AcDbEntity
  8
寸法線
 62
     0
 48
10.0
100
AcDbLine
 10
394.617940469974
 20
826.477690892015
 30
0.0
 11
400.617940469974
 21
826.477690892015
 31
0.0
  0
LINE
  5
424B
330
3AE2
100
AcDbEntity
  8
寸法線
 62
     0
 48
10.0
100
AcDbLine
 10
376.617940469974
 20
826.477690892015
 30
0.0
 11
388.617940469974
 21
826.477690892015
 31
0.0
  0
INSERT
  5
424C
330
3AE2
100
AcDbEntity
  8
寸法線
 62
     0
 48
10.0
100
AcDbBlockReference
  2
_OPEN30
 10
376.617940469974
 20
826.477690892015
 30
0.0
 41
6.0
 42
6.0
 43
6.0
  0
INSERT
  5
424D
330
3AE2
100
AcDbEntity
  8
寸法線
 62
     0
 48
10.0
100
AcDbBlockReference
  2
_OPEN30
 10
388.617940469974
 20
826.477690892015
 30
0.0
 41
6.0
 42
6.0
 43
6.0
 50
180.0
  0
MTEXT
  5
424E
330
3AE2
100
AcDbEntity
  8
寸法線
 62
     0
 48
10.0
100
AcDbMText
 10
382.617940469974
 20
832.103675143984
 30
0.0
 40
10.0
 41
0.0
 71
     5
 72
     1
  1
\A1;12
  0
POINT
  5
424F
330
3AE2
100
AcDbEntity
  8
DEFPOINTS
 62
     0
 48
10.0
100
AcDbPoint
 10
376.617940469974
 20
857.148024357232
 30
0.0
  0
POINT
  5
4250
330
3AE2
100
AcDbEntity
  8
DEFPOINTS
 62
     0
 48
10.0
100
AcDbPoint
 10
388.617940469974
 20
857.148024357232
 30
0.0
  0
POINT
  5
4251
330
3AE2
100
AcDbEntity
  8
DEFPOINTS
 62
     0
 48
10.0
100
AcDbPoint
 10
388.617940469974
 20
826.477690892015
 30
0.0
  0
ENDBLK
  5
3AEF
330
3AE2
100
AcDbEntity
  8
0
 48
10.0
100
AcDbBlockEnd
  0
BLOCK
  5
3BED
330
3BE3
100
AcDbEntity
  8
0
 48
10.0
100
AcDbBlockBegin
  2
*D13
 70
     1
 10
0.0
 20
0.0
 30
0.0
  3
*D13
  1
*D13
  0
LINE
  5
423F
330
3BE3
100
AcDbEntity
  8
寸法線
 62
     0
 48
10.0
100
AcDbLine
 10
-276.784144030026
 20
850.081446740971
 30
0.0
 11
-276.784144030026
 21
800.968711737413
 31
0.0
  0
LINE
  5
4240
330
3BE3
100
AcDbEntity
  8
寸法線
 62
     0
 48
10.0
100
AcDbLine
 10
376.617940469974
 20
825.852690892015
 30
0.0
 11
376.617940469974
 21
800.968711737413
 31
0.0
  0
LINE
  5
4241
330
3BE3
100
AcDbEntity
  8
寸法線
 62
     0
 48
10.0
100
AcDbLine
 10
-270.784144030026
 20
802.218711737413
 30
0.0
 11
370.617940469974
 21
802.218711737413
 31
0.0
  0
INSERT
  5
4242
330
3BE3
100
AcDbEntity
  8
寸法線
 62
     0
 48
10.0
100
AcDbBlockReference
  2
_OPEN30
 10
-276.784144030026
 20
802.218711737413
 30
0.0
 41
6.0
 42
6.0
 43
6.0
 50
180.0
  0
INSERT
  5
4243
330
3BE3
100
AcDbEntity
  8
寸法線
 62
     0
 48
10.0
100
AcDbBlockReference
  2
_OPEN30
 10
376.617940469974
 20
802.218711737413
 30
0.0
 41
6.0
 42
6.0
 43
6.0
  0
POINT
  5
4244
330
3BE3
100
AcDbEntity
  8
DEFPOINTS
 62
     0
 48
10.0
100
AcDbPoint
 10
-276.784144030026
 20
850.706446740971
 30
0.0
  0
POINT
  5
4245
330
3BE3
100
AcDbEntity
  8
DEFPOINTS
 62
     0
 48
10.0
100
AcDbPoint
 10
376.617940469974
 20
826.477690892015
 30
0.0
  0
POINT
  5
4246
330
3BE3
100
AcDbEntity
  8
DEFPOINTS
 62
     0
 48
10.0
100
AcDbPoint
 10
376.617940469974
 20
802.218711737413
 30
0.0
  0
ENDBLK
  5
3BEE
330
3BE3
100
AcDbEntity
  8
0
 48
10.0
100
AcDbBlockEnd
  0
BLOCK
  5
411C
330
4111
100
AcDbEntity
  8
0
 48
10.0
100
AcDbBlockBegin
  2
*D14
 70
     1
 10
0.0
 20
0.0
 30
0.0
  3
*D14
  1
*D14
  0
LINE
  5
4235
330
4111
100
AcDbEntity
  8
寸法線
 62
     0
 48
10.0
100
AcDbLine
 10
-217.965155722793
 20
952.148025607232
 30
0.0
 11
-207.787923990006
 21
952.148025607232
 31
0.0
  0
LINE
  5
4236
330
4111
100
AcDbEntity
  8
寸法線
 62
     0
 48
10.0
100
AcDbLine
 10
-218.953315397402
 20
917.148103107233
 30
0.0
 11
-207.787923990006
 21
917.148103107233
 31
0.0
  0
LINE
  5
4237
330
4111
100
AcDbEntity
  8
寸法線
 62
     0
 48
10.0
100
AcDbLine
 10
-209.037923990006
 20
923.148103107233
 30
0.0
 11
-209.037923990006
 21
946.148025607232
 31
0.0
  0
LINE
  5
4238
330
4111
100
AcDbEntity
  8
寸法線
 62
     0
 48
10.0
100
AcDbLine
 10
-209.037923990006
 20
952.148025607232
 30
0.0
 11
-209.037923990006
 21
985.415487231716
 31
0.0
  0
INSERT
  5
4239
330
4111
100
AcDbEntity
  8
寸法線
 62
     0
 48
10.0
100
AcDbBlockReference
  2
_OPEN30
 10
-209.037923990006
 20
917.148103107233
 30
0.0
 41
6.0
 42
6.0
 43
6.0
 50
270.0
  0
INSERT
  5
423A
330
4111
100
AcDbEntity
  8
寸法線
 62
     0
 48
10.0
100
AcDbBlockReference
  2
_OPEN30
 10
-209.037923990006
 20
952.148025607232
 30
0.0
 41
6.0
 42
6.0
 43
6.0
 50
90.0
  0
MTEXT
  5
423B
330
4111
100
AcDbEntity
  8
寸法線
 62
     0
 48
10.0
100
AcDbMText
 10
-214.662923990006
 20
973.333380450529
 30
0.0
 40
10.0
 41
0.0
 71
     5
 72
     1
  1
\A1;φ35
 11
6.123031769111886E-17
 21
1.0
 31
0.0
  0
POINT
  5
423C
330
4111
100
AcDbEntity
  8
DEFPOINTS
 62
     0
 48
10.0
100
AcDbPoint
 10
-218.590155722793
 20
952.148025607232
 30
0.0
  0
POINT
  5
423D
330
4111
100
AcDbEntity
  8
DEFPOINTS
 62
     0
 48
10.0
100
AcDbPoint
 10
-219.578315397402
 20
917.148103107233
 30
0.0
  0
POINT
  5
423E
330
4111
100
AcDbEntity
  8
DEFPOINTS
 62
     0
 48
10.0
100
AcDbPoint
 10
-209.037923990006
 20
917.148103107233
 30
0.0
  0
ENDBLK
  5
411D
330
4111
100
AcDbEntity
  8
0
 48
10.0
100
AcDbBlockEnd
  0
BLOCK
  5
42C4
330
42C3
100
AcDbEntity
  8
0
 48
10.0
100
AcDbBlockBegin
  2
_DOTSMALL
 70
     0
 10
0.0
 20
0.0
 30
0.0
  3
_DOTSMALL
  1
_DOTSMALL
  0
LWPOLYLINE
  5
42C5
330
42C3
100
AcDbEntity
  8
0
  6
BYBLOCK
 62
     0
100
AcDbPolyline
 90
        2
 70
     1
 43
0.5
 10
-0.0625
 20
0.0
 42
1.0
 10
0.0625
 20
0.0
 42
1.0
  0
ENDBLK
  5
42C6
330
42C3
100
AcDbEntity
  8
0
 48
10.0
100
AcDbBlockEnd
  0
BLOCK
  5
4BC4
330
4BC3
100
AcDbEntity
  8
0
 48
10.0
100
AcDbBlockBegin
  2
A$C5F435AFC
 70
     0
 10
0.0
 20
0.0
 30
0.0
  3
A$C5F435AFC
  1
A$C5F435AFC
  0
LINE
  5
4BC5
330
4BC3
100
AcDbEntity
  8
外形線
 48
10.0
100
AcDbLine
 10
48.799987606332
 20
59.999999460263
 30
0.0
 11
48.799987606332
 21
35.999999460263
 31
0.0
  0
LINE
  5
4BC6
330
4BC3
100
AcDbEntity
  8
中心線
 48
10.0
100
AcDbLine
 10
22.999999606332
 20
53.999999460263
 30
0.0
 11
22.999999606332
 21
41.999999460263
 31
0.0
  0
LINE
  5
4BC7
330
4BC3
100
AcDbEntity
  8
中心線
 48
10.0
100
AcDbLine
 10
10.999999606332
 20
53.999999460263
 30
0.0
 11
10.999999606332
 21
41.999999460263
 31
0.0
  0
CIRCLE
  5
4BC8
330
4BC3
100
AcDbEntity
  8
外形線
100
AcDbCircle
 10
22.999999606332
 20
47.999999460263
 30
0.0
 40
2.4
  0
CIRCLE
  5
4BC9
330
4BC3
100
AcDbEntity
  8
外形線
100
AcDbCircle
 10
10.999999606332
 20
47.999999460263
 30
0.0
 40
2.4
  0
LINE
  5
4BCA
330
4BC3
100
AcDbEntity
  8
外形線
100
AcDbLine
 10
3.999999606332
 20
57.399993460263
 30
0.0
 11
3.999999606332
 21
47.999999460263
 31
0.0
  0
LINE
  5
4BCB
330
4BC3
100
AcDbEntity
  8
外形線
100
AcDbLine
 10
48.799987606332
 20
59.999999460263
 30
0.0
 11
7.399993606332
 21
59.999999460263
 31
0.0
  0
LINE
  5
4BCC
330
4BC3
100
AcDbEntity
  8
細線
100
AcDbLine
 10
5.991119606332
 20
53.999999460263
 30
0.0
 11
48.799987606332
 21
53.999999460263
 31
0.0
  0
LINE
  5
4BCD
330
4BC3
100
AcDbEntity
  8
外形線
100
AcDbLine
 10
3.999999606332
 20
57.399993460263
 30
0.0
 11
7.399993606332
 21
59.999999460263
 31
0.0
  0
LINE
  5
4BCE
330
4BC3
100
AcDbEntity
  8
外形線
100
AcDbLine
 10
-0.000000393668
 20
59.999999460263
 30
0.0
 11
7.399993606332
 21
59.999999460263
 31
0.0
  0
ARC
  5
4BCF
330
4BC3
100
AcDbEntity
  8
細線
100
AcDbCircle
 10
7.751899987068
 20
57.314177090845
 30
0.0
 40
3.75288168161888
100
AcDbArc
 50
178.689715050974
 51
242.018860308436
  0
LINE
  5
4BD0
330
4BC3
100
AcDbEntity
  8
外形線
100
AcDbLine
 10
48.799987606332
 20
35.999999460263
 30
0.0
 11
7.399993606332
 21
35.999999460263
 31
0.0
  0
LINE
  5
4BD1
330
4BC3
100
AcDbEntity
  8
外形線
100
AcDbLine
 10
3.999999606332
 20
38.600005460263
 30
0.0
 11
3.999999606332
 21
47.999999460263
 31
0.0
  0
LINE
  5
4BD2
330
4BC3
100
AcDbEntity
  8
細線
100
AcDbLine
 10
5.991119606332
 20
41.999999460263
 30
0.0
 11
48.799987606332
 21
41.999999460263
 31
0.0
  0
LINE
  5
4BD3
330
4BC3
100
AcDbEntity
  8
外形線
100
AcDbLine
 10
3.999999606332
 20
38.600005460263
 30
0.0
 11
7.399993606332
 21
35.999999460263
 31
0.0
  0
ARC
  5
4BD4
330
4BC3
100
AcDbEntity
  8
細線
100
AcDbCircle
 10
14.035697820002
 20
47.999999460263
 30
0.0
 40
10.03569821366904
100
AcDbArc
 50
143.282806020859
 51
216.717193979141
  0
ARC
  5
4BD5
330
4BC3
100
AcDbEntity
  8
細線
100
AcDbCircle
 10
7.751899987068
 20
38.685821829683
 30
0.0
 40
3.75288168161888
100
AcDbArc
 50
117.981139691564
 51
181.310284949026
  0
LINE
  5
4BD6
330
4BC3
100
AcDbEntity
  8
外形線
100
AcDbLine
 10
-0.000000393668
 20
-0.000000539737
 30
0.0
 11
29.999999606332
 21
-0.000000539737
 31
0.0
  0
LINE
  5
4BD7
330
4BC3
100
AcDbEntity
  8
外形線
100
AcDbLine
 10
-0.000000393668
 20
59.999999460263
 30
0.0
 11
-0.000000393668
 21
-0.000000539737
 31
0.0
  0
LINE
  5
4BD8
330
4BC3
100
AcDbEntity
  8
外形線
100
AcDbLine
 10
29.999999606332
 20
-0.000000539737
 30
0.0
 11
29.999999606332
 21
35.999999460263
 31
0.0
  0
ENDBLK
  5
4BD9
330
4BC3
100
AcDbEntity
  8
0
 48
10.0
100
AcDbBlockEnd
  0
BLOCK
  5
4BDB
330
4BDA
100
AcDbEntity
  8
0
 48
10.0
100
AcDbBlockBegin
  2
A$C2AA85C5D
 70
     0
 10
0.0
 20
0.0
 30
0.0
  3
A$C2AA85C5D
  1
A$C2AA85C5D
  0
LINE
  5
4BDC
330
4BDA
100
AcDbEntity
  8
外形線
100
AcDbLine
 10
10.570220168629
 20
59.914734238971
 30
0.0
 11
13.49823016863
 21
59.914734238971
 31
0.0
  0
LINE
  5
4BDD
330
4BDA
100
AcDbEntity
  8
外形線
100
AcDbLine
 10
13.49823016863
 20
59.133972238971
 30
0.0
 11
22.390532168629
 21
54.000000238971
 31
0.0
  0
LINE
  5
4BDE
330
4BDA
100
AcDbEntity
  8
外形線
100
AcDbLine
 10
10.49823016863
 20
59.133972238971
 30
0.0
 11
1.60592616863
 21
54.000000238971
 31
0.0
  0
LINE
  5
4BDF
330
4BDA
100
AcDbEntity
  8
外形線
100
AcDbLine
 10
1.60592616863
 20
42.000000238971
 30
0.0
 11
1.60592616863
 21
54.000000238971
 31
0.0
  0
LINE
  5
4BE0
330
4BDA
100
AcDbEntity
  8
外形線
100
AcDbLine
 10
10.49823016863
 20
36.866028238971
 30
0.0
 11
1.60592616863
 21
42.000000238971
 31
0.0
  0
ARC
  5
4BE1
330
4BDA
100
AcDbEntity
  8
細線
100
AcDbCircle
 10
11.99823016863
 20
48.000000238971
 30
0.0
 40
10.392304
100
AcDbArc
 50
98.298931163823
 51
261.701051236085
  0
LINE
  5
4BE2
330
4BDA
100
AcDbEntity
  8
外形線
100
AcDbLine
 10
22.390532168629
 20
54.000000238971
 30
0.0
 11
22.390532168629
 21
42.000000238971
 31
0.0
  0
LINE
  5
4BE3
330
4BDA
100
AcDbEntity
  8
外形線
100
AcDbLine
 10
13.49823016863
 20
36.866058238971
 30
0.0
 11
22.390532168629
 21
42.000000238971
 31
0.0
  0
ARC
  5
4BE4
330
4BDA
100
AcDbEntity
  8
細線
100
AcDbCircle
 10
11.99823016863
 20
48.000000238971
 30
0.0
 40
12.0
100
AcDbArc
 50
277.180766578687
 51
261.701051236085
  0
ARC
  5
4BE5
330
4BDA
100
AcDbEntity
  8
細線
100
AcDbCircle
 10
11.99823016863
 20
48.000000238971
 30
0.0
 40
10.392304
100
AcDbArc
 50
278.298951011672
 51
81.701088684012
  0
LINE
  5
4BE6
330
4BDA
100
AcDbEntity
  8
外形線
100
AcDbLine
 10
10.49823016863
 20
0.000000238971
 30
0.0
 11
13.49823016863
 21
0.000000238971
 31
0.0
  0
LINE
  5
4BE7
330
4BDA
100
AcDbEntity
  8
外形線
100
AcDbLine
 10
10.49823016863
 20
59.914734238971
 30
0.0
 11
10.49823016863
 21
0.000000238971
 31
0.0
  0
LINE
  5
4BE8
330
4BDA
100
AcDbEntity
  8
外形線
100
AcDbLine
 10
13.49823016863
 20
59.914734238971
 30
0.0
 11
13.49823016863
 21
0.000000238971
 31
0.0
  0
ENDBLK
  5
4BE9
330
4BDA
100
AcDbEntity
  8
0
 48
10.0
100
AcDbBlockEnd
  0
BLOCK
  5
4FE4
330
4FDA
100
AcDbEntity
  8
0
 48
10.0
100
AcDbBlockBegin
  2
*D18
 70
     1
 10
0.0
 20
0.0
 30
0.0
  3
*D18
  1
*D18
  0
LINE
  5
501F
330
4FDA
100
AcDbEntity
  8
寸法線
 62
     0
 48
10.0
100
AcDbLine
 10
482.950094469974
 20
985.648024357232
 30
0.0
 11
550.212930899853
 21
985.648024357232
 31
0.0
  0
LINE
  5
5020
330
4FDA
100
AcDbEntity
  8
寸法線
 62
     0
 48
10.0
100
AcDbLine
 10
482.950094469974
 20
883.648024357232
 30
0.0
 11
550.212930899853
 21
883.648024357232
 31
0.0
  0
LINE
  5
5021
330
4FDA
100
AcDbEntity
  8
寸法線
 62
     0
 48
10.0
100
AcDbLine
 10
548.962930899853
 20
979.648024357232
 30
0.0
 11
548.962930899853
 21
889.648024357232
 31
0.0
  0
INSERT
  5
5022
330
4FDA
100
AcDbEntity
  8
寸法線
 62
     0
 48
10.0
100
AcDbBlockReference
  2
_OPEN30
 10
548.962930899853
 20
985.648024357232
 30
0.0
 41
6.0
 42
6.0
 43
6.0
 50
90.0
  0
INSERT
  5
5023
330
4FDA
100
AcDbEntity
  8
寸法線
 62
     0
 48
10.0
100
AcDbBlockReference
  2
_OPEN30
 10
548.962930899853
 20
883.648024357232
 30
0.0
 41
6.0
 42
6.0
 43
6.0
 50
270.0
  0
MTEXT
  5
5024
330
4FDA
100
AcDbEntity
  8
寸法線
 62
     0
 48
10.0
100
AcDbMText
 10
543.336946647884
 20
934.036024857232
 30
0.0
 40
10.0
 41
0.0
 71
     5
 72
     1
  1
\A1;φ102
 11
6.123031769111886E-17
 21
1.0
 31
0.0
  0
POINT
  5
5025
330
4FDA
100
AcDbEntity
  8
DEFPOINTS
 62
     0
 48
10.0
100
AcDbPoint
 10
482.325094469974
 20
985.648024357232
 30
0.0
  0
POINT
  5
5026
330
4FDA
100
AcDbEntity
  8
DEFPOINTS
 62
     0
 48
10.0
100
AcDbPoint
 10
482.325094469974
 20
883.648024357232
 30
0.0
  0
POINT
  5
5027
330
4FDA
100
AcDbEntity
  8
DEFPOINTS
 62
     0
 48
10.0
100
AcDbPoint
 10
548.962930899853
 20
883.648024357232
 30
0.0
  0
ENDBLK
  5
4FE5
330
4FDA
100
AcDbEntity
  8
0
 48
10.0
100
AcDbBlockEnd
  0
BLOCK
  5
4FF0
330
4FE6
100
AcDbEntity
  8
0
 48
10.0
100
AcDbBlockBegin
  2
*D19
 70
     1
 10
0.0
 20
0.0
 30
0.0
  3
*D19
  1
*D19
  0
LINE
  5
5028
330
4FE6
100
AcDbEntity
  8
寸法線
 62
     0
 48
10.0
100
AcDbLine
 10
526.623234238057
 20
901.971823484039
 30
0.0
 11
526.623234238057
 21
825.0495636281
 31
0.0
  0
LINE
  5
5029
330
4FE6
100
AcDbEntity
  8
寸法線
 62
     0
 48
10.0
100
AcDbLine
 10
443.623234238057
 20
855.14689881979
 30
0.0
 11
443.623234238057
 21
825.0495636281
 31
0.0
  0
LINE
  5
502A
330
4FE6
100
AcDbEntity
  8
寸法線
 62
     0
 48
10.0
100
AcDbLine
 10
520.623234238057
 20
826.2995636281
 30
0.0
 11
449.623234238057
 21
826.2995636281
 31
0.0
  0
INSERT
  5
502B
330
4FE6
100
AcDbEntity
  8
寸法線
 62
     0
 48
10.0
100
AcDbBlockReference
  2
_OPEN30
 10
526.623234238057
 20
826.2995636281
 30
0.0
 41
6.0
 42
6.0
 43
6.0
  0
INSERT
  5
502C
330
4FE6
100
AcDbEntity
  8
寸法線
 62
     0
 48
10.0
100
AcDbBlockReference
  2
_OPEN30
 10
443.623234238057
 20
826.2995636281
 30
0.0
 41
6.0
 42
6.0
 43
6.0
 50
180.0
  0
MTEXT
  5
502D
330
4FE6
100
AcDbEntity
  8
寸法線
 62
     0
 48
10.0
100
AcDbMText
 10
485.123234238057
 20
831.9245636281
 30
0.0
 40
10.0
 41
0.0
 71
     5
 72
     1
  1
\A1;83
  0
POINT
  5
502E
330
4FE6
100
AcDbEntity
  8
DEFPOINTS
 62
     0
 48
10.0
100
AcDbPoint
 10
526.623234238057
 20
902.596823484039
 30
0.0
  0
POINT
  5
502F
330
4FE6
100
AcDbEntity
  8
DEFPOINTS
 62
     0
 48
10.0
100
AcDbPoint
 10
443.623234238057
 20
855.77189881979
 30
0.0
  0
POINT
  5
5030
330
4FE6
100
AcDbEntity
  8
DEFPOINTS
 62
     0
 48
10.0
100
AcDbPoint
 10
443.623234238057
 20
826.2995636281
 30
0.0
  0
ENDBLK
  5
4FF1
330
4FE6
100
AcDbEntity
  8
0
 48
10.0
100
AcDbBlockEnd
  0
ENDSEC
  0
SECTION
  2
ENTITIES
  0
DIMENSION
  5
38E8
330
1A
100
AcDbEntity
  8
寸法線
 48
10.0
100
AcDbDimension
  2
*D4
 10
360.424227496914
 20
913.267483553095
 30
0.0
 11
353.703181136436
 21
946.100979297839
 31
0.0
 70
   160
  1
φ56
  3
ISO-25
100
AcDbAlignedDimension
 13
360.616836180744
 23
969.191623392897
 33
0.0
 14
360.424227496914
 24
913.267483553095
 34
0.0
 50
90.0
100
AcDbRotatedDimension
1001
ACAD
1000
DSTYLE
1002
{
1070
   287
1070
     5
1070
     5
1000
OPEN30
1070
    41
1040
6.0
1070
    47
1040
0.1
1070
    48
1040
0.1
1070
    73
1070
     0
1070
   140
1040
10.0
1070
   271
1070
     1
1070
   272
1070
     1
1070
   279
1070
     2
1070
   341
1005
2AF4
1002
}
  0
LINE
  5
3908
330
1A
100
AcDbEntity
  8
寸法線
100
AcDbLine
 10
376.120200469974
 20
963.085524357232
 30
0.0
 11
352.041342469974
 21
972.569136357232
 31
0.0
  0
LINE
  5
3932
330
1A
100
AcDbEntity
  8
寸法線
100
AcDbLine
 10
376.120200469974
 20
907.085524357232
 30
0.0
 11
352.041342469974
 21
916.569136357232
 31
0.0
  0
ARC
  5
3968
330
1A
100
AcDbEntity
  8
寸法線
100
AcDbCircle
 10
54.542341014841
 20
805.96607334136
 30
0.0
 40
2.1127368
100
AcDbArc
 50
252.904086432754
 51
337.411923467786
  0
ARC
  5
3969
330
1A
100
AcDbEntity
  8
寸法線
100
AcDbCircle
 10
54.542341014841
 20
805.965998941359
 30
0.0
 40
2.112708
100
AcDbArc
 50
252.903398883403
 51
337.412611017141
  0
ARC
  5
396A
330
1A
100
AcDbEntity
  8
寸法線
100
AcDbCircle
 10
49.087117014841
 20
809.95147254136
 30
0.0
 40
6.024468
100
AcDbArc
 50
274.628927150738
 51
33.374029121142
  0
ARC
  5
396B
330
1A
100
AcDbEntity
  8
寸法線
100
AcDbCircle
 10
49.097077014841
 20
809.952571741359
 30
0.0
 40
6.015765599999999
100
AcDbArc
 50
273.280470979895
 51
33.415912335968
  0
ARC
  5
396C
330
1A
100
AcDbEntity
  8
寸法線
100
AcDbCircle
 10
56.717780214841
 20
808.74663894136
 30
0.0
 40
5.555256
100
AcDbArc
 50
123.469024399696
 51
239.774013712196
  0
ARC
  5
396D
330
1A
100
AcDbEntity
  8
寸法線
100
AcDbCircle
 10
56.717780214841
 20
808.74663894136
 30
0.0
 40
5.5552632
100
AcDbArc
 50
123.469024399696
 51
239.773899120646
  0
ARC
  5
396E
330
1A
100
AcDbEntity
  8
寸法線
100
AcDbCircle
 10
53.834089014841
 20
813.11289894136
 30
0.0
 40
0.32274
100
AcDbArc
 50
28.230948368997
 51
123.883845843374
  0
DIMENSION
  5
397F
330
1A
100
AcDbEntity
  8
寸法線
 48
10.0
100
AcDbDimension
  2
*D6
 10
85.404045456383
 20
937.648015607232
 30
0.0
 11
79.779045456383
 21
958.271047103295
 31
0.0
 70
    32
  1
φ<>
  3
ISO-25
100
AcDbAlignedDimension
 13
85.404045456383
 23
931.648033107232
 33
0.0
 14
85.404045456383
 24
937.648015607232
 34
0.0
 50
90.0
100
AcDbRotatedDimension
1001
ACAD
1000
DSTYLE
1002
{
1070
     5
1000
OPEN30
1070
    41
1040
6.0
1070
    47
1040
0.1
1070
    48
1040
0.1
1070
    73
1070
     0
1070
   140
1040
10.0
1070
   271
1070
     1
1070
   272
1070
     1
1070
   341
1005
2AF4
1002
}
  0
LEADER
  5
3980
330
1A
100
AcDbEntity
  8
寸法線
 48
10.0
100
AcDbLeader
  3
ISO-25
 76
     3
 10
166.667928469974
 20
942.148025607232
 30
0.0
 10
166.667928469974
 20
1050.043084025895
 30
0.0
 10
149.984633228591
 20
1050.043084025895
 30
0.0
1001
ACAD
1000
DSTYLE
1002
{
1070
     5
1000
OPEN30
1070
   147
1040
0.625
1070
    77
1070
     0
1070
    41
1040
6.0
1070
    47
1040
0.1
1070
    48
1040
0.1
1070
    73
1070
     0
1070
   140
1040
5.0
1070
   271
1070
     1
1070
   272
1070
     1
1070
   341
1005
2AF4
1070
   342
1005
2AF4
1002
}
  0
MTEXT
  5
3981
330
1A
100
AcDbEntity
  8
寸法線
 48
10.0
100
AcDbMText
 10
84.5623182059
 20
1061.521828824047
 30
0.0
 40
10.0
 41
95.767917082764
 71
     1
 72
     5
  1
アルミスリーブ
  0
MTEXT
  5
3982
330
1A
100
AcDbEntity
  8
寸法線
 48
10.0
100
AcDbMText
 10
15.413703544312
 20
1051.998144459673
 30
0.0
 40
10.0
 41
93.30303030303
 71
     9
 72
     5
  1
ステンレス\Pワイヤーロープ
  0
LEADER
  5
3983
330
1A
100
AcDbEntity
  8
寸法線
 48
10.0
100
AcDbLeader
  3
ISO-25
 76
     3
 10
33.13829906614
 20
937.648015607232
 30
0.0
 10
16.865710747471
 20
1050.043084025895
 30
0.0
 10
3.733624217868
 20
1050.043084025895
 30
0.0
1001
ACAD
1000
DSTYLE
1002
{
1070
     5
1000
OPEN30
1070
   147
1040
0.625
1070
    77
1070
     0
1070
    41
1040
6.0
1070
    47
1040
0.1
1070
    48
1040
0.1
1070
    73
1070
     0
1070
   140
1040
5.0
1070
   271
1070
     1
1070
   272
1070
     1
1070
   341
1005
2AF4
1070
   342
1005
2AF4
1002
}
  0
MTEXT
  5
3984
330
1A
100
AcDbEntity
  8
寸法線
 48
10.0
100
AcDbMText
 10
-166.101882792174
 20
1061.766614632938
 30
0.0
 40
10.0
 41
86.839616113823
 71
     1
 72
     5
  1
アルミスリーブ
  0
LEADER
  5
3985
330
1A
100
AcDbEntity
  8
寸法線
 48
10.0
100
AcDbLeader
  3
ISO-25
 76
     3
 10
-53.854016203768
 20
942.148025607232
 30
0.0
 10
-85.128553320318
 20
1050.043084025895
 30
0.0
 10
-101.782023550651
 20
1050.043084025895
 30
0.0
1001
ACAD
1000
DSTYLE
1002
{
1070
     5
1000
OPEN30
1070
   147
1040
0.625
1070
    77
1070
     0
1070
    41
1040
6.0
1070
    47
1040
0.1
1070
    48
1040
0.1
1070
    73
1070
     0
1070
   140
1040
5.0
1070
   271
1070
     1
1070
   272
1070
     1
1070
   341
1005
2AF4
1070
   342
1005
2AF4
1002
}
  0
MTEXT
  5
3986
330
1A
100
AcDbEntity
  8
寸法線
 48
10.0
100
AcDbMText
 10
-228.200176403558
 20
1061.577747338769
 30
0.0
 40
10.0
 41
24.718933289539
 71
     1
 72
     5
  1
SUS303
  0
LEADER
  5
3987
330
1A
100
AcDbEntity
  8
寸法線
 48
10.0
100
AcDbLeader
  3
ISO-25
 76
     3
 10
-193.737257317881
 20
952.147985607232
 30
0.0
 10
-184.689549898246
 20
1050.043084025895
 30
0.0
 10
-198.470846926391
 20
1050.043084025895
 30
0.0
1001
ACAD
1000
DSTYLE
1002
{
1070
     5
1000
OPEN30
1070
   147
1040
0.625
1070
    77
1070
     0
1070
    41
1040
6.0
1070
    47
1040
0.1
1070
    48
1040
0.1
1070
    73
1070
     0
1070
   140
1040
5.0
1070
   271
1070
     1
1070
   272
1070
     1
1070
   341
1005
2AF4
1070
   342
1005
2AF4
1002
}
  0
MTEXT
  5
3988
330
1A
100
AcDbEntity
  8
寸法線
 48
10.0
100
AcDbMText
 10
-326.620092149997
 20
1062.49983529169
 30
0.0
 40
10.0
 41
35.477693607344
 71
     1
 72
     5
  1
熔接
  0
LEADER
  5
3989
330
1A
100
AcDbEntity
  8
寸法線
 48
10.0
100
AcDbLeader
  3
ISO-25
 76
     3
 10
-258.810551643752
 20
952.147985607232
 30
0.0
 10
-302.09836569245
 20
1050.043084025895
 30
0.0
 10
-316.893516471122
 20
1050.043084025895
 30
0.0
1001
ACAD
1000
DSTYLE
1002
{
1070
     5
1000
OPEN30
1070
   147
1040
0.625
1070
    77
1070
     0
1070
    41
1040
6.0
1070
    47
1040
0.1
1070
    48
1040
0.1
1070
    73
1070
     0
1070
   140
1040
5.0
1070
   271
1070
     1
1070
   272
1070
     1
1070
   341
1005
2AF4
1070
   342
1005
2AF4
1002
}
  0
DIMENSION
  5
398B
330
1A
100
AcDbEntity
  8
寸法線
 48
10.0
100
AcDbDimension
  2
*D7
 10
-136.784144030026
 20
850.706446740971
 30
0.0
 11
-199.034137780026
 21
850.706446740971
 31
0.0
 70
   160
  1
140
  3
ISO-25
100
AcDbAlignedDimension
 13
-276.784144030026
 23
874.111055666586
 33
0.0
 14
-136.784144030026
 24
923.648024357232
 34
0.0
100
AcDbRotatedDimension
1001
ACAD
1000
DSTYLE
1002
{
1070
     5
1000
OPEN30
1070
    41
1040
6.0
1070
    47
1040
0.1
1070
    48
1040
0.1
1070
    73
1070
     0
1070
   140
1040
10.0
1070
   271
1070
     1
1070
   272
1070
     1
1070
   341
1005
2AF4
1002
}
  0
DIMENSION
  5
398C
330
1A
100
AcDbEntity
  8
寸法線
 48
10.0
100
AcDbDimension
  2
*D8
 10
-246.784144030026
 20
871.858790866772
 30
0.0
 11
-261.784144030026
 21
871.858790866772
 31
0.0
 70
   160
  3
ISO-25
100
AcDbAlignedDimension
 13
-276.784144030026
 23
897.148025607232
 33
0.0
 14
-246.784144030026
 24
897.148025607232
 34
0.0
100
AcDbRotatedDimension
1001
ACAD
1000
DSTYLE
1002
{
1070
     5
1000
OPEN30
1070
    41
1040
6.0
1070
    47
1040
0.1
1070
    48
1040
0.1
1070
    73
1070
     0
1070
   140
1040
10.0
1070
   271
1070
     1
1070
   272
1070
     1
1070
   341
1005
2AF4
1002
}
  0
DIMENSION
  5
398D
330
1A
100
AcDbEntity
  8
寸法線
 48
10.0
100
AcDbDimension
  2
*D9
 10
-301.837799139922
 20
897.148025607232
 30
0.0
 11
-307.462799139923
 21
934.648025607232
 31
0.0
 70
    32
  3
ISO-25
100
AcDbAlignedDimension
 13
-276.784144030026
 23
972.148025607232
 33
0.0
 14
-276.784144030026
 24
897.148025607232
 34
0.0
 50
90.0
100
AcDbRotatedDimension
1001
ACAD
1000
DSTYLE
1002
{
1070
     5
1000
OPEN30
1070
    41
1040
6.0
1070
    47
1040
0.1
1070
    48
1040
0.1
1070
    73
1070
     0
1070
   140
1040
10.0
1070
   271
1070
     1
1070
   272
1070
     1
1070
   341
1005
2AF4
1002
}
  0
LINE
  5
398E
330
1A
100
AcDbEntity
  8
中心線
 48
10.0
100
AcDbLine
 10
-151.784144030026
 20
945.148015607232
 30
0.0
 11
-151.784144030026
 21
924.148033107232
 31
0.0
  0
LINE
  5
398F
330
1A
100
AcDbEntity
  8
中心線
 48
10.0
100
AcDbLine
 10
268.417958469974
 20
931.810690607232
 30
0.0
 11
268.417958469974
 21
902.622573107232
 31
0.0
  0
LINE
  5
3990
330
1A
100
AcDbEntity
  8
中心線
 48
10.0
100
AcDbLine
 10
268.417958469974
 20
966.686408107232
 30
0.0
 11
268.417958469974
 21
938.435828107232
 31
0.0
  0
LINE
  5
3991
330
1A
100
AcDbEntity
  8
外形線
100
AcDbLine
 10
-276.784144030026
 20
972.148025607232
 30
0.0
 11
-246.784144030026
 21
972.148025607232
 31
0.0
  0
LINE
  5
3992
330
1A
100
AcDbEntity
  8
外形線
100
AcDbLine
 10
-246.784144030026
 20
972.148025607232
 30
0.0
 11
-246.784144030026
 21
952.148025607232
 31
0.0
  0
LINE
  5
3993
330
1A
100
AcDbEntity
  8
外形線
100
AcDbLine
 10
-276.784144030026
 20
897.148025607232
 30
0.0
 11
-246.784144030026
 21
897.148025607232
 31
0.0
  0
LINE
  5
3994
330
1A
100
AcDbEntity
  8
外形線
100
AcDbLine
 10
-246.784144030026
 20
897.148025607232
 30
0.0
 11
-246.784144030026
 21
917.148025607232
 31
0.0
  0
LINE
  5
3995
330
1A
100
AcDbEntity
  8
外形線
100
AcDbLine
 10
-161.784144030026
 20
945.648024357232
 30
0.0
 11
-171.784144030026
 21
952.147985607232
 31
0.0
  0
LINE
  5
3997
330
1A
100
AcDbEntity
  8
外形線
100
AcDbLine
 10
-161.784144030026
 20
923.648024357232
 30
0.0
 11
-171.784144030026
 21
917.148063107232
 31
0.0
  0
LINE
  5
3999
330
1A
100
AcDbEntity
  8
外形線
100
AcDbLine
 10
-276.784144030026
 20
972.148025607232
 30
0.0
 11
-276.784144030026
 21
897.148025607232
 31
0.0
  0
LINE
  5
399A
330
1A
100
AcDbEntity
  8
外形線
100
AcDbLine
 10
-256.784144030026
 20
952.147985607232
 30
0.0
 11
-171.784144030026
 21
952.147985607232
 31
0.0
  0
LINE
  5
399B
330
1A
100
AcDbEntity
  8
外形線
100
AcDbLine
 10
-256.784161530026
 20
917.148063107232
 30
0.0
 11
-171.784144030026
 21
917.148063107232
 31
0.0
  0
LINE
  5
399C
330
1A
100
AcDbEntity
  8
外形線
  6
CONTINUOUS
100
AcDbLine
 10
-256.784161530026
 20
952.147985607232
 30
0.0
 11
-256.784161530026
 21
917.148063107232
 31
0.0
  0
LINE
  5
399D
330
1A
100
AcDbEntity
  8
外形線
100
AcDbLine
 10
-171.784144030026
 20
952.147985607232
 30
0.0
 11
-171.784144030026
 21
917.148063107232
 31
0.0
  0
LINE
  5
399E
330
1A
100
AcDbEntity
  8
外形線
100
AcDbLine
 10
-161.784144030026
 20
945.648024357232
 30
0.0
 11
-161.784144030026
 21
923.648024357232
 31
0.0
  0
LINE
  5
399F
330
1A
100
AcDbEntity
  8
外形線
100
AcDbLine
 10
-63.784114030026
 20
937.648015607232
 30
0.0
 11
-151.784144030026
 21
937.648015607232
 31
0.0
  0
LINE
  5
39A0
330
1A
100
AcDbEntity
  8
外形線
100
AcDbLine
 10
-63.784114030026
 20
931.648033107232
 30
0.0
 11
-151.784144030026
 21
931.648033107232
 31
0.0
  0
ARC
  5
39A1
330
1A
100
AcDbEntity
  8
外形線
100
AcDbCircle
 10
-151.791389714629
 20
934.648025607232
 30
0.0
 40
5.0
100
AcDbArc
 50
36.869719525107
 51
323.130262874799
  0
ARC
  5
39A2
330
1A
100
AcDbEntity
  8
外形線
100
AcDbCircle
 10
-151.791389714629
 20
934.648025607232
 30
0.0
 40
2.9999925
100
AcDbArc
 50
89.99998127603
 51
270.0
  0
LINE
  5
39A3
330
1A
100
AcDbEntity
  8
外形線
100
AcDbLine
 10
-136.784144030026
 20
937.648015607232
 30
0.0
 11
-136.784144030026
 21
945.648024357232
 31
0.0
  0
LINE
  5
39A4
330
1A
100
AcDbEntity
  8
外形線
100
AcDbLine
 10
-136.784144030026
 20
931.648033107232
 30
0.0
 11
-136.784144030026
 21
923.648024357232
 31
0.0
  0
LINE
  5
39A5
330
1A
100
AcDbEntity
  8
細線
100
AcDbLine
 10
-256.784144030026
 20
952.147985607232
 30
0.0
 11
-260.534144030026
 21
952.147985607232
 31
0.0
  0
LINE
  5
39A6
330
1A
100
AcDbEntity
  8
細線
100
AcDbLine
 10
-256.784161530026
 20
917.148063107232
 30
0.0
 11
-260.534144030026
 21
917.148063107232
 31
0.0
  0
LINE
  5
39A7
330
1A
100
AcDbEntity
  8
細線
100
AcDbLine
 10
-260.534144030026
 20
952.147985607232
 30
0.0
 11
-260.534144030026
 21
917.148063107232
 31
0.0
  0
LINE
  5
39A8
330
1A
100
AcDbEntity
  8
細線
100
AcDbLine
 10
-260.534144030026
 20
947.14799667866
 30
0.0
 11
-256.784161530026
 21
947.14799667866
 31
0.0
  0
LINE
  5
39A9
330
1A
100
AcDbEntity
  8
細線
100
AcDbLine
 10
-260.534144030026
 20
942.14800775009
 30
0.0
 11
-256.784161530026
 21
942.14800775009
 31
0.0
  0
LINE
  5
39AA
330
1A
100
AcDbEntity
  8
細線
100
AcDbLine
 10
-260.534144030026
 20
937.148018821517
 30
0.0
 11
-256.784161530026
 21
937.148018821517
 31
0.0
  0
LINE
  5
39AB
330
1A
100
AcDbEntity
  8
細線
100
AcDbLine
 10
-260.534144030026
 20
932.148029892947
 30
0.0
 11
-256.784161530026
 21
932.148029892947
 31
0.0
  0
LINE
  5
39AC
330
1A
100
AcDbEntity
  8
細線
100
AcDbLine
 10
-260.534144030026
 20
927.148040964375
 30
0.0
 11
-256.784161530026
 21
927.148040964375
 31
0.0
  0
LINE
  5
39AD
330
1A
100
AcDbEntity
  8
細線
100
AcDbLine
 10
-260.534144030026
 20
922.148052035805
 30
0.0
 11
-256.784161530026
 21
922.148052035805
 31
0.0
  0
LINE
  5
39AE
330
1A
100
AcDbEntity
  8
外形線
100
AcDbLine
 10
-63.784114030026
 20
942.148025607232
 30
0.0
 11
-33.784114030026
 21
942.148025607232
 31
0.0
  0
LINE
  5
39AF
330
1A
100
AcDbEntity
  8
外形線
100
AcDbLine
 10
-33.784114030026
 20
942.148025607232
 30
0.0
 11
-33.784114030026
 21
927.148025607232
 31
0.0
  0
LINE
  5
39B0
330
1A
100
AcDbEntity
  8
外形線
100
AcDbLine
 10
-63.784114030026
 20
927.148025607232
 30
0.0
 11
-33.784114030026
 21
927.148025607232
 31
0.0
  0
LINE
  5
39B1
330
1A
100
AcDbEntity
  8
外形線
100
AcDbLine
 10
-63.784114030026
 20
942.148025607232
 30
0.0
 11
-63.784114030026
 21
927.148025607232
 31
0.0
  0
LINE
  5
39B4
330
1A
100
AcDbEntity
  8
外形線
100
AcDbLine
 10
50.729970969974
 20
937.648015607232
 30
0.0
 11
-33.784114030026
 21
937.648015607232
 31
0.0
  0
LINE
  5
39B5
330
1A
100
AcDbEntity
  8
外形線
100
AcDbLine
 10
50.729970969974
 20
931.648033107232
 30
0.0
 11
-33.784114030026
 21
931.648033107232
 31
0.0
  0
LINE
  5
39B6
330
1A
100
AcDbEntity
  8
外形線
100
AcDbLine
 10
259.167928469974
 20
939.648025607232
 30
0.0
 11
259.167928469974
 21
934.648025607232
 31
0.0
  0
LINE
  5
39B7
330
1A
100
AcDbEntity
  8
外形線
100
AcDbLine
 10
259.167928469974
 20
939.648025607232
 30
0.0
 11
260.417928469974
 21
944.648025607232
 31
0.0
  0
ARC
  5
39B8
330
1A
100
AcDbEntity
  8
細線
100
AcDbCircle
 10
267.863760969974
 20
939.543235607232
 30
0.0
 40
8.6964425
100
AcDbArc
 50
179.309605704711
 51
214.955372787859
  0
LINE
  5
39B9
330
1A
100
AcDbEntity
  8
外形線
100
AcDbLine
 10
181.667928469974
 20
927.148025607232
 30
0.0
 11
181.667928469974
 21
942.148025607232
 31
0.0
  0
LINE
  5
39BA
330
1A
100
AcDbEntity
  8
外形線
100
AcDbLine
 10
181.667928469974
 20
942.148025607232
 30
0.0
 11
151.667928469974
 21
942.148025607232
 31
0.0
  0
LINE
  5
39BB
330
1A
100
AcDbEntity
  8
外形線
100
AcDbLine
 10
151.667928469974
 20
927.148025607232
 30
0.0
 11
151.667928469974
 21
942.148025607232
 31
0.0
  0
LINE
  5
39BC
330
1A
100
AcDbEntity
  8
外形線
100
AcDbLine
 10
181.667928469974
 20
940.648008107232
 30
0.0
 11
185.663098469974
 21
940.648008107232
 31
0.0
  0
ARC
  5
39BD
330
1A
100
AcDbEntity
  8
外形線
100
AcDbCircle
 10
185.663098469974
 20
1065.648008107232
 30
0.0
 40
125.0
100
AcDbArc
 50
270.000001123874
 51
286.849486667302
  0
LINE
  5
39BE
330
1A
100
AcDbEntity
  8
外形線
100
AcDbLine
 10
271.417913469974
 20
944.648025607232
 30
0.0
 11
271.417913469974
 21
948.925750607232
 31
0.0
  0
LINE
  5
39BF
330
1A
100
AcDbEntity
  8
外形線
100
AcDbLine
 10
237.369145969974
 20
953.840910607232
 30
0.0
 11
237.053748469974
 21
953.608633107232
 31
0.0
  0
ARC
  5
39C0
330
1A
100
AcDbEntity
  8
外形線
100
AcDbCircle
 10
256.271428469974
 20
941.683240607232
 30
0.0
 40
20.0
100
AcDbArc
 50
59.363161372327
 51
104.029442467941
  0
ARC
  5
39C1
330
1A
100
AcDbEntity
  8
外形線
100
AcDbCircle
 10
258.917913469974
 20
948.925750607232
 30
0.0
 40
12.5
100
AcDbArc
 50
0.0
 51
52.869479142378
  0
ARC
  5
39C2
330
1A
100
AcDbEntity
  8
外形線
100
AcDbCircle
 10
267.020405969974
 20
913.581703107232
 30
0.0
 40
50.0
100
AcDbArc
 50
108.176649439879
 51
126.371915068733
  0
ARC
  5
39C3
330
1A
100
AcDbEntity
  8
外形線
100
AcDbCircle
 10
207.402485969974
 20
993.867803107232
 30
0.0
 40
50.0
100
AcDbArc
 50
286.849486667302
 51
306.372049508131
  0
LINE
  5
39C4
330
1A
100
AcDbEntity
  8
外形線
100
AcDbLine
 10
181.667928469974
 20
934.648025607232
 30
0.0
 11
185.663098469974
 21
934.648025607232
 31
0.0
  0
ARC
  5
39C5
330
1A
100
AcDbEntity
  8
外形線
100
AcDbCircle
 10
185.663098469974
 20
1059.648025607232
 30
0.0
 40
125.0
100
AcDbArc
 50
270.000001123874
 51
286.849486667302
  0
LINE
  5
39C6
330
1A
100
AcDbEntity
  8
外形線
100
AcDbLine
 10
237.369145969974
 20
947.840925607232
 30
0.0
 11
237.053748469974
 21
947.608648107232
 31
0.0
  0
ARC
  5
39C7
330
1A
100
AcDbEntity
  8
外形線
100
AcDbCircle
 10
267.020405969974
 20
907.581718107232
 30
0.0
 40
50.0
100
AcDbArc
 50
108.176611008637
 51
126.371915068733
  0
ARC
  5
39C8
330
1A
100
AcDbEntity
  8
外形線
100
AcDbCircle
 10
207.402485969974
 20
987.867820607232
 30
0.0
 40
50.0
100
AcDbArc
 50
286.849486667302
 51
306.372049508131
  0
LINE
  5
39C9
330
1A
100
AcDbEntity
  8
外形線
100
AcDbLine
 10
265.417928469974
 20
944.648025607232
 30
0.0
 11
265.417928469974
 21
947.602163107232
 31
0.0
  0
ARC
  5
39CA
330
1A
100
AcDbEntity
  8
外形線
100
AcDbCircle
 10
257.917928469974
 20
947.602163107232
 30
0.0
 40
7.5
100
AcDbArc
 50
0.0
 51
50.146755920118
  0
ARC
  5
39CB
330
1A
100
AcDbEntity
  8
外形線
100
AcDbCircle
 10
256.271428469974
 20
935.683258107232
 30
0.0
 40
20.0
100
AcDbArc
 50
88.202211602251
 51
104.029348377615
  0
ARC
  5
39CC
330
1A
100
AcDbEntity
  8
外形線
100
AcDbCircle
 10
257.307043469974
 20
948.210913107232
 30
0.0
 40
7.473645000000001
100
AcDbArc
 50
43.54651130333
 51
93.130851851743
  0
LINE
  5
39CD
330
1A
100
AcDbEntity
  8
外形線
100
AcDbLine
 10
259.167928469974
 20
929.648025607232
 30
0.0
 11
259.167928469974
 21
934.648025607232
 31
0.0
  0
LINE
  5
39CE
330
1A
100
AcDbEntity
  8
外形線
100
AcDbLine
 10
259.167928469974
 20
929.648025607232
 30
0.0
 11
260.417928469974
 21
924.648025607232
 31
0.0
  0
ARC
  5
39CF
330
1A
100
AcDbEntity
  8
細線
100
AcDbCircle
 10
267.863760969974
 20
929.752813107232
 30
0.0
 40
8.6964425
100
AcDbArc
 50
145.044609612047
 51
180.690433990978
  0
LINE
  5
39D0
330
1A
100
AcDbEntity
  8
外形線
100
AcDbLine
 10
181.667928469974
 20
927.148025607232
 30
0.0
 11
151.667928469974
 21
927.148025607232
 31
0.0
  0
LINE
  5
39D1
330
1A
100
AcDbEntity
  8
外形線
100
AcDbLine
 10
181.667928469974
 20
928.648040607232
 30
0.0
 11
185.663098469974
 21
928.648040607232
 31
0.0
  0
ARC
  5
39D2
330
1A
100
AcDbEntity
  8
外形線
100
AcDbCircle
 10
185.663098469974
 20
803.648040607232
 30
0.0
 40
125.0
100
AcDbArc
 50
73.150553028384
 51
90.00003857181
  0
LINE
  5
39D3
330
1A
100
AcDbEntity
  8
外形線
100
AcDbLine
 10
271.417913469974
 20
924.648025607232
 30
0.0
 11
271.417913469974
 21
920.370298107232
 31
0.0
  0
LINE
  5
39D4
330
1A
100
AcDbEntity
  8
外形線
100
AcDbLine
 10
237.369145969974
 20
915.455138107232
 30
0.0
 11
237.053748469974
 21
915.687415607232
 31
0.0
  0
ARC
  5
39D5
330
1A
100
AcDbEntity
  8
外形線
100
AcDbCircle
 10
256.271428469974
 20
927.612808107232
 30
0.0
 40
20.0
100
AcDbArc
 50
255.970557532062
 51
300.636838627673
  0
ARC
  5
39D6
330
1A
100
AcDbEntity
  8
外形線
100
AcDbCircle
 10
258.917913469974
 20
920.370298107232
 30
0.0
 40
12.5
100
AcDbArc
 50
307.130520857613
 51
359.999982399908
  0
ARC
  5
39D7
330
1A
100
AcDbEntity
  8
外形線
100
AcDbCircle
 10
267.020405969974
 20
955.714345607232
 30
0.0
 40
50.0
100
AcDbArc
 50
233.628124626953
 51
251.823350560121
  0
ARC
  5
39D8
330
1A
100
AcDbEntity
  8
外形線
100
AcDbCircle
 10
207.402485969974
 20
875.428245607232
 30
0.0
 40
50.0
100
AcDbArc
 50
53.62799018755
 51
73.150553028384
  0
LINE
  5
39D9
330
1A
100
AcDbEntity
  8
外形線
100
AcDbLine
 10
181.667928469974
 20
934.648025607232
 30
0.0
 11
185.663098469974
 21
934.648025607232
 31
0.0
  0
ARC
  5
39DA
330
1A
100
AcDbEntity
  8
外形線
100
AcDbCircle
 10
185.663098469974
 20
809.648025607232
 30
0.0
 40
125.0
100
AcDbArc
 50
73.150553028384
 51
90.00003857181
  0
LINE
  5
39DB
330
1A
100
AcDbEntity
  8
外形線
100
AcDbLine
 10
237.369145969974
 20
921.455123107232
 30
0.0
 11
237.053748469974
 21
921.687400607232
 31
0.0
  0
ARC
  5
39DC
330
1A
100
AcDbEntity
  8
外形線
100
AcDbCircle
 10
267.020405969974
 20
961.714330607232
 30
0.0
 40
50.0
100
AcDbArc
 50
233.628124626953
 51
251.823388991363
  0
ARC
  5
39DD
330
1A
100
AcDbEntity
  8
外形線
100
AcDbCircle
 10
207.402485969974
 20
881.428228107232
 30
0.0
 40
50.0
100
AcDbArc
 50
53.62799018755
 51
73.150553028384
  0
LINE
  5
39DE
330
1A
100
AcDbEntity
  8
外形線
100
AcDbLine
 10
265.417928469974
 20
924.648025607232
 30
0.0
 11
265.417928469974
 21
921.693885607232
 31
0.0
  0
ARC
  5
39DF
330
1A
100
AcDbEntity
  8
外形線
100
AcDbCircle
 10
257.917928469974
 20
921.693885607232
 30
0.0
 40
7.5
100
AcDbArc
 50
309.853226479784
 51
359.999982399908
  0
ARC
  5
39E0
330
1A
100
AcDbEntity
  8
外形線
100
AcDbCircle
 10
256.271428469974
 20
933.612790607232
 30
0.0
 40
20.0
100
AcDbArc
 50
255.970651622385
 51
271.797770797657
  0
ARC
  5
39E1
330
1A
100
AcDbEntity
  8
外形線
100
AcDbCircle
 10
257.307043469974
 20
921.085135607232
 30
0.0
 40
7.473645000000001
100
AcDbArc
 50
266.86918784394
 51
316.453528392356
  0
LINE
  5
39E2
330
1A
100
AcDbEntity
  8
外形線
100
AcDbLine
 10
59.355153469974
 20
937.648015607232
 30
0.0
 11
121.919203469974
 21
937.648015607232
 31
0.0
  0
LINE
  5
39E3
330
1A
100
AcDbEntity
  8
外形線
100
AcDbLine
 10
59.355153469974
 20
931.648033107232
 30
0.0
 11
121.945600969974
 21
931.648033107232
 31
0.0
  0
LINE
  5
39E4
330
1A
100
AcDbEntity
  8
外形線
100
AcDbLine
 10
125.445853469974
 20
932.148100607232
 30
0.0
 11
127.158230969974
 21
932.647598107232
 31
0.0
  0
LINE
  5
39E5
330
1A
100
AcDbEntity
  8
外形線
100
AcDbLine
 10
125.469083469974
 20
938.162695607232
 30
0.0
 11
126.909550969974
 21
938.589330607232
 31
0.0
  0
LINE
  5
39E6
330
1A
100
AcDbEntity
  8
外形線
100
AcDbLine
 10
151.667928469974
 20
934.648025607232
 30
0.0
 11
148.715543469974
 21
934.648025607232
 31
0.0
  0
LINE
  5
39E7
330
1A
100
AcDbEntity
  8
外形線
100
AcDbLine
 10
151.667928469974
 20
940.648008107232
 30
0.0
 11
141.109190969974
 21
940.648008107232
 31
0.0
  0
LINE
  5
39E8
330
1A
100
AcDbEntity
  8
外形線
100
AcDbLine
 10
151.667928469974
 20
928.648040607232
 30
0.0
 11
151.170798469974
 21
928.663260607232
 31
0.0
  0
LINE
  5
39E9
330
1A
100
AcDbEntity
  8
外形線
100
AcDbLine
 10
140.061635969974
 20
926.434103107232
 30
0.0
 11
139.856785969974
 21
926.340988107232
 31
0.0
  0
ARC
  5
39EA
330
1A
100
AcDbEntity
  8
外形線
100
AcDbCircle
 10
141.109190969974
 20
890.648008107232
 30
0.0
 40
50.0
100
AcDbArc
 50
89.99998127603
 51
106.4986447615
  0
ARC
  5
39EB
330
1A
100
AcDbEntity
  8
外形線
100
AcDbCircle
 10
121.919203469974
 20
950.148015607232
 30
0.0
 40
12.5
100
AcDbArc
 50
270.0
 51
286.498664609346
  0
ARC
  5
39EC
330
1A
100
AcDbEntity
  8
外形線
100
AcDbCircle
 10
141.159620969974
 20
884.648025607232
 30
0.0
 40
50.0
100
AcDbArc
 50
89.99998127603
 51
106.261898600553
  0
ARC
  5
39ED
330
1A
100
AcDbEntity
  8
外形線
100
AcDbCircle
 10
121.945600969974
 20
944.148033107232
 30
0.0
 40
12.5
100
AcDbArc
 50
270.0
 51
286.261574673717
  0
ARC
  5
39EE
330
1A
100
AcDbEntity
  8
外形線
100
AcDbCircle
 10
148.715543469974
 20
909.648025607232
 30
0.0
 40
25.0
100
AcDbArc
 50
89.99998127603
 51
114.062890868598
  0
ARC
  5
39EF
330
1A
100
AcDbEntity
  8
外形線
100
AcDbCircle
 10
150.406675969974
 20
903.674933107232
 30
0.0
 40
25.0
100
AcDbArc
 50
88.248506592097
 51
114.443850506581
  0
LINE
  5
39F0
330
1A
100
AcDbEntity
  8
外形線
100
AcDbLine
 10
139.856785969974
 20
926.340988107232
 30
0.0
 11
139.797505969974
 21
926.417470607232
 31
0.0
  0
LINE
  5
39F1
330
1A
100
AcDbEntity
  8
外形線
100
AcDbLine
 10
138.522063469974
 20
932.475478107232
 30
0.0
 11
137.266225969974
 21
931.914678107232
 31
0.0
  0
LINE
  5
39F2
330
1A
100
AcDbEntity
  8
外形線
100
AcDbLine
 10
137.266225969974
 20
931.914678107232
 30
0.0
 11
139.856785969974
 21
926.340988107232
 31
0.0
  0
LINE
  5
39F3
330
1A
100
AcDbEntity
  8
外形線
100
AcDbLine
 10
141.159620969974
 20
934.648025607232
 30
0.0
 11
148.715543469974
 21
934.648025607232
 31
0.0
  0
ARC
  5
39F4
330
1A
100
AcDbEntity
  8
細線
100
AcDbCircle
 10
61.953223186136
 20
936.148021857232
 30
0.0
 40
2.9999925
100
AcDbArc
 50
149.999999999999
 51
210.000000000001
  0
ARC
  5
39F5
330
1A
100
AcDbEntity
  8
細線
100
AcDbCircle
 10
61.953223186136
 20
933.148029357232
 30
0.0
 40
2.9999925
100
AcDbArc
 50
149.999999999999
 51
210.000000000001
  0
ARC
  5
39F6
330
1A
100
AcDbEntity
  8
細線
100
AcDbCircle
 10
56.757083753811
 20
933.148029357232
 30
0.0
 40
2.9999925
100
AcDbArc
 50
329.999999999999
 51
30.000000000001
  0
ARC
  5
39F7
330
1A
100
AcDbEntity
  8
細線
100
AcDbCircle
 10
48.131910773454
 20
933.148012868847
 30
0.0
 40
2.9999925
100
AcDbArc
 50
330.00036362252
 51
30.000363622521
  0
ARC
  5
39F8
330
1A
100
AcDbEntity
  8
細線
100
AcDbCircle
 10
48.131891734271
 20
936.148005368785
 30
0.0
 40
2.9999925
100
AcDbArc
 50
330.00036362252
 51
30.000363622521
  0
ARC
  5
39F9
330
1A
100
AcDbEntity
  8
細線
100
AcDbCircle
 10
53.328031166494
 20
936.148038345617
 30
0.0
 40
2.9999925
100
AcDbArc
 50
150.00036362252
 51
210.000363622521
  0
LINE
  5
39FA
330
1A
100
AcDbEntity
  8
外形線
100
AcDbLine
 10
305.417928469974
 20
944.648025607232
 30
0.0
 11
260.417928469974
 21
944.648025607232
 31
0.0
  0
LINE
  5
39FB
330
1A
100
AcDbEntity
  8
細線
100
AcDbLine
 10
260.736150969974
 20
934.648025607232
 30
0.0
 11
305.417928469974
 21
934.648025607232
 31
0.0
  0
LINE
  5
39FC
330
1A
100
AcDbEntity
  8
外形線
100
AcDbLine
 10
305.417928469974
 20
924.648025607232
 30
0.0
 11
260.417928469974
 21
924.648025607232
 31
0.0
  0
LINE
  5
39FD
330
1A
100
AcDbEntity
  8
外形線
100
AcDbLine
 10
305.417928469974
 20
946.648024357232
 30
0.0
 11
305.417928469974
 21
922.648024357232
 31
0.0
  0
LEADER
  5
3A05
330
1A
100
AcDbEntity
  8
寸法線
 48
10.0
100
AcDbLeader
  3
ISO-25
 76
     3
 10
512.252096469974
 20
981.986404357232
 30
0.0
 10
525.273481747649
 20
1050.043084025895
 30
0.0
 10
539.866572383316
 20
1050.043084025895
 30
0.0
1001
ACAD
1000
DSTYLE
1002
{
1070
     5
1000
OPEN30
1070
   147
1040
0.625
1070
    77
1070
     0
1070
    41
1040
6.0
1070
    47
1040
0.1
1070
    48
1040
0.1
1070
    73
1070
     0
1070
   140
1040
5.0
1070
   271
1070
     1
1070
   272
1070
     1
1070
   341
1005
2AF4
1070
   342
1005
2AF4
1002
}
  0
MTEXT
  5
3A06
330
1A
100
AcDbEntity
  8
寸法線
 48
10.0
100
AcDbMText
 10
523.974034301433
 20
1061.441892689133
 30
0.0
 40
10.0
 41
59.089777462164
 71
     1
 72
     5
  1
アルミ鋳物
  0
MTEXT
  5
3A07
330
1A
100
AcDbEntity
  8
寸法線
 48
10.0
100
AcDbMText
 10
474.169014093878
 20
1061.163357340125
 30
0.0
 40
10.0
 41
58.578747858881
 71
     1
 72
     5
  1
Oリング
  0
LEADER
  5
3A08
330
1A
100
AcDbEntity
  8
寸法線
 48
10.0
100
AcDbLeader
  3
ISO-25
 76
     3
 10
465.603565983194
 20
985.648024357232
 30
0.0
 10
474.548187732203
 20
1050.043084025895
 30
0.0
 10
486.999475319494
 20
1050.043084025895
 30
0.0
1001
ACAD
1000
DSTYLE
1002
{
1070
     5
1000
OPEN30
1070
   147
1040
0.625
1070
    77
1070
     0
1070
    41
1040
6.0
1070
    47
1040
0.1
1070
    48
1040
0.1
1070
    73
1070
     0
1070
   140
1040
5.0
1070
   271
1070
     1
1070
   272
1070
     1
1070
   341
1005
2AF4
1070
   342
1005
2AF4
1002
}
  0
LEADER
  5
3A09
330
1A
100
AcDbEntity
  8
寸法線
 48
10.0
100
AcDbLeader
  3
ISO-25
 76
     3
 10
382.285178634995
 20
1012.488049202348
 30
0.0
 10
374.192308018951
 20
1050.043084025895
 30
0.0
 10
360.539009860388
 20
1050.043084025895
 30
0.0
1001
ACAD
1000
DSTYLE
1002
{
1070
     5
1000
OPEN30
1070
   147
1040
0.625
1070
    77
1070
     0
1070
    41
1040
6.0
1070
    47
1040
0.1
1070
    48
1040
0.1
1070
    73
1070
     0
1070
   140
1040
5.0
1070
   271
1070
     1
1070
   272
1070
     1
1070
   341
1005
2AF4
1070
   342
1005
2AF4
1002
}
  0
LINE
  5
3A0B
330
1A
100
AcDbEntity
  8
下書線
 48
10.0
100
AcDbLine
 10
-312.073712746823
 20
1050.043084025895
 30
0.0
 11
549.658944823309
 21
1050.043084025895
 31
0.0
  0
DIMENSION
  5
3A0E
330
1A
100
AcDbEntity
  8
寸法線
 48
10.0
100
AcDbDimension
  2
*D10
 10
330.87059993869
 20
927.148024357232
 30
0.0
 11
330.87059993869
 21
959.230131138419
 31
0.0
 70
   160
  1
φ<>
  3
ISO-25
100
AcDbAlignedDimension
 13
330.817937469974
 23
942.148024357232
 33
0.0
 14
330.817937469974
 24
927.148024357232
 34
0.0
 50
90.0
100
AcDbRotatedDimension
1001
ACAD
1000
DSTYLE
1002
{
1070
     5
1000
OPEN30
1070
    41
1040
6.0
1070
    47
1040
0.1
1070
    48
1040
0.1
1070
    73
1070
     0
1070
   140
1040
10.0
1070
   271
1070
     1
1070
   272
1070
     1
1070
   341
1005
2AF4
1002
}
  0
DIMENSION
  5
3A0F
330
1A
100
AcDbEntity
  8
寸法線
 48
10.0
100
AcDbDimension
  2
*D11
 10
526.623234238057
 20
802.218711737413
 30
0.0
 11
451.775547469974
 21
802.218711737413
 31
0.0
 70
   160
  1
150
  3
ISO-25
100
AcDbAlignedDimension
 13
376.617940469974
 23
825.227690892015
 33
0.0
 14
526.623234238057
 24
826.2995636281
 34
0.0
100
AcDbRotatedDimension
1001
ACAD
1000
DSTYLE
1002
{
1070
     5
1000
OPEN30
1070
    41
1040
6.0
1070
    47
1040
0.1
1070
    48
1040
0.1
1070
    73
1070
     0
1070
   140
1040
10.0
1070
   271
1070
     1
1070
   272
1070
     1
1070
   341
1005
2AF4
1002
}
  0
DIMENSION
  5
3A13
330
1A
100
AcDbEntity
  8
寸法線
 48
10.0
100
AcDbDimension
  2
*D12
 10
388.617940469974
 20
826.477690892015
 30
0.0
 11
382.617940469974
 21
832.103675143984
 31
0.0
 70
    32
  3
ISO-25
100
AcDbAlignedDimension
 13
376.617940469974
 23
857.148024357232
 33
0.0
 14
388.617940469974
 24
857.148024357232
 34
0.0
100
AcDbRotatedDimension
1001
ACAD
1000
DSTYLE
1002
{
1070
     5
1000
OPEN30
1070
    41
1040
6.0
1070
    47
1040
0.1
1070
    48
1040
0.1
1070
    73
1070
     0
1070
   140
1040
10.0
1070
   271
1070
     1
1070
   272
1070
     1
1070
   341
1005
2AF4
1002
}
  0
LINE
  5
3A35
330
1A
100
AcDbEntity
  8
中心線
 48
10.0
100
AcDbLine
 10
527.060561353825
 20
934.648024357232
 30
0.0
 11
-288.360421590356
 21
934.648024357232
 31
0.0
  0
ARC
  5
3A36
330
1A
100
AcDbEntity
  8
細線
100
AcDbCircle
 10
315.266034089238
 20
925.333846726652
 30
0.0
 40
3.75288168161888
100
AcDbArc
 50
358.689715050974
 51
62.018860308433
  0
ARC
  5
3A37
330
1A
100
AcDbEntity
  8
細線
100
AcDbCircle
 10
308.982236256306
 20
934.648024357232
 30
0.0
 40
10.03569821366904
100
AcDbArc
 50
323.282806020859
 51
36.717193979141
  0
LINE
  5
3A38
330
1A
100
AcDbEntity
  8
外形線
100
AcDbLine
 10
319.017934469974
 20
944.048018357232
 30
0.0
 11
319.017934469974
 21
925.248030357232
 31
0.0
  0
LINE
  5
3A39
330
1A
100
AcDbEntity
  8
外形線
100
AcDbLine
 10
315.617940469974
 20
922.648024357232
 30
0.0
 11
319.017934469974
 21
925.248030357232
 31
0.0
  0
LINE
  5
3A3A
330
1A
100
AcDbEntity
  8
細線
100
AcDbLine
 10
317.026814469974
 20
928.648024357232
 30
0.0
 11
308.417928469974
 21
928.648024357232
 31
0.0
  0
LINE
  5
3A3B
330
1A
100
AcDbEntity
  8
外形線
100
AcDbLine
 10
308.417928469974
 20
946.648024357232
 30
0.0
 11
308.417928469974
 21
922.648024357232
 31
0.0
  0
LINE
  5
3A3C
330
1A
100
AcDbEntity
  8
外形線
100
AcDbLine
 10
315.617940469974
 20
922.648024357232
 30
0.0
 11
305.417928469974
 21
922.648024357232
 31
0.0
  0
LINE
  5
3A3D
330
1A
100
AcDbEntity
  8
外形線
100
AcDbLine
 10
342.617940469974
 20
927.148024357232
 30
0.0
 11
319.017934469974
 21
927.148024357232
 31
0.0
  0
ARC
  5
3A3E
330
1A
100
AcDbEntity
  8
細線
100
AcDbCircle
 10
315.266034089238
 20
943.962201987814
 30
0.0
 40
3.75288168161888
100
AcDbArc
 50
297.981139691567
 51
1.310284949026
  0
LINE
  5
3A3F
330
1A
100
AcDbEntity
  8
外形線
100
AcDbLine
 10
315.617940469974
 20
946.648024357232
 30
0.0
 11
319.017934469974
 21
944.048018357232
 31
0.0
  0
LINE
  5
3A40
330
1A
100
AcDbEntity
  8
細線
100
AcDbLine
 10
317.026814469974
 20
940.648024357232
 30
0.0
 11
308.417928469974
 21
940.648024357232
 31
0.0
  0
LINE
  5
3A41
330
1A
100
AcDbEntity
  8
外形線
100
AcDbLine
 10
315.617940469974
 20
946.648024357232
 30
0.0
 11
305.417928469974
 21
946.648024357232
 31
0.0
  0
LINE
  5
3A42
330
1A
100
AcDbEntity
  8
外形線
100
AcDbLine
 10
342.617940469974
 20
942.148024357232
 30
0.0
 11
319.017934469974
 21
942.148024357232
 31
0.0
  0
DIMENSION
  5
3BE2
330
1A
100
AcDbEntity
  8
寸法線
 48
10.0
100
AcDbDimension
  2
*D13
 10
376.617940469974
 20
802.218711737413
 30
0.0
 11
49.916898219974
 21
802.218711737413
 31
0.0
 70
    32
  1
 
  3
ISO-25
100
AcDbAlignedDimension
 13
-276.784144030026
 23
850.706446740971
 33
0.0
 14
376.617940469974
 24
826.477690892015
 34
0.0
100
AcDbRotatedDimension
1001
ACAD
1000
DSTYLE
1002
{
1070
     5
1000
OPEN30
1070
    41
1040
6.0
1070
    47
1040
0.1
1070
    48
1040
0.1
1070
    73
1070
     0
1070
   140
1040
5.0
1070
   271
1070
     1
1070
   272
1070
     1
1070
   341
1005
2AF4
1002
}
  0
LINE
  5
3C70
330
1A
100
AcDbEntity
  8
寸法線
 48
10.0
100
AcDbLine
 10
303.870500093874
 20
678.092149996509
 30
0.0
 11
538.409629827787
 21
678.092149996509
 31
0.0
  0
LINE
  5
3C71
330
1A
100
AcDbEntity
  8
寸法線
 48
10.0
100
AcDbLine
 10
303.870500093874
 20
661.248839324635
 30
0.0
 11
538.409629827787
 21
661.248839324635
 31
0.0
  0
LINE
  5
3C99
330
1A
100
AcDbEntity
  8
寸法線
100
AcDbLine
 10
51.798678435046
 20
746.447337439393
 30
0.0
 11
51.798678435046
 21
647.852165575393
 31
0.0
  0
LINE
  5
3C9A
330
1A
100
AcDbEntity
  8
寸法線
100
AcDbLine
 10
242.097203081653
 20
746.447337439393
 30
0.0
 11
242.097203081653
 21
647.852165575393
 31
0.0
  0
LINE
  5
3C9B
330
1A
100
AcDbEntity
  8
寸法線
100
AcDbLine
 10
140.479252011046
 20
746.447337439393
 30
0.0
 11
140.479252011046
 21
647.852165575393
 31
0.0
  0
LINE
  5
3C9C
330
1A
100
AcDbEntity
  8
寸法線
100
AcDbLine
 10
51.798678435046
 20
647.852165575393
 30
0.0
 11
242.097203081653
 21
647.852165575393
 31
0.0
  0
LINE
  5
3C9D
330
1A
100
AcDbEntity
  8
寸法線
100
AcDbLine
 10
51.798678435046
 20
746.447337439393
 30
0.0
 11
242.097203081653
 21
746.447337439393
 31
0.0
  0
LINE
  5
3C9E
330
1A
100
AcDbEntity
  8
寸法線
100
AcDbLine
 10
51.798678435046
 20
729.647601451393
 30
0.0
 11
242.097203081653
 21
729.647601451393
 31
0.0
  0
LINE
  5
3C9F
330
1A
100
AcDbEntity
  8
寸法線
100
AcDbLine
 10
51.798678435046
 20
663.550279531393
 30
0.0
 11
242.097203081653
 21
663.550279531393
 31
0.0
  0
LINE
  5
3CA0
330
1A
100
AcDbEntity
  8
寸法線
100
AcDbLine
 10
51.798678435046
 20
679.799204503393
 30
0.0
 11
242.097203081653
 21
679.799204503393
 31
0.0
  0
LINE
  5
3CA1
330
1A
100
AcDbEntity
  8
寸法線
100
AcDbLine
 10
51.798678435046
 20
697.149751507393
 30
0.0
 11
242.097203081653
 21
697.149751507393
 31
0.0
  0
LINE
  5
3CA2
330
1A
100
AcDbEntity
  8
寸法線
100
AcDbLine
 10
51.798678435046
 20
712.297054447393
 30
0.0
 11
242.097203081653
 21
712.297054447393
 31
0.0
  0
MTEXT
  5
3CA3
330
1A
100
AcDbEntity
  8
寸法線
 48
10.0
100
AcDbMText
 10
60.479250863613
 20
743.039758897485
 30
0.0
 40
10.0002
 41
200.440234867813
 71
     1
 72
     5
  1
フ ラ ン ジ　   JIS5K呼び65\P材　　　　質　  アルミ鋳物\Pフランジ外径　   　φ155\P取付穴中心径　 　  φ130\P取　 付 　穴　    4-φ15\P厚　　　　み　　  　12
  0
MTEXT
  5
3CA4
102
{ACAD_XDICTIONARY
360
5247
102
}
330
1A
100
AcDbEntity
  8
寸法線
 48
10.0
100
AcDbMText
 10
358.153626550542
 20
741.881184563968
 30
0.0
 40
10.0
 41
185.581810115388
 71
     1
 72
     5
  1
\P2000\P3000\P4000\P5000
1001
ACADANNOTATIVE
1000
AnnotativeData
1002
{
1070
     1
1070
     0
1002
}
  0
MTEXT
  5
3CA5
330
1A
100
AcDbEntity
  8
寸法線
 48
10.0
100
AcDbMText
 10
309.854247935368
 20
740.959935005742
 30
0.0
 40
10.0
 41
75.896562136518
 71
     1
 72
     5
  1
御仕様\P\P　
  0
MTEXT
  5
3CA6
330
1A
100
AcDbEntity
  8
寸法線
 48
10.0
100
AcDbMText
 10
435.175162126696
 20
740.959935005742
 30
0.0
 40
10.0
 41
75.896562136518
 71
     1
 72
     5
  1
記事
  0
MTEXT
  5
3CA7
330
1A
100
AcDbEntity
  8
寸法線
 48
10.0
100
AcDbMText
 10
505.287596394084
 20
740.959935005742
 30
0.0
 40
10.0
 41
75.896562136518
 71
     1
 72
     5
  1
台数\P\P 
  0
TEXT
  5
3CA8
330
1A
100
AcDbEntity
  8
寸法線
 48
10.0
100
AcDbText
 10
366.727498683436
 20
642.814487055413
 30
0.0
 40
10.0
  1
○印が今回の貴社の御仕様です。
100
AcDbText
  0
SPLINE
  5
3CA9
330
1A
100
AcDbEntity
  8
寸法線
 48
10.0
100
AcDbSpline
210
0.0
220
0.0
230
1.0
 70
  1064
 71
     3
 72
    13
 73
     9
 74
     7
 42
0.000000001
 43
0.0000000001
 44
0.0000000001
 40
0.0
 40
0.0
 40
0.0
 40
0.0
 40
4.835527642765405
 40
12.65317649086195
 40
18.95413784279421
 40
23.3119044953856
 40
25.62914257776075
 40
27.30960953803401
 40
27.30960953803401
 40
27.30960953803401
 40
27.30960953803401
 10
368.9359915860625
 20
731.08936956392
 30
0.0
 10
370.3739846802603
 20
731.753636019653
 30
0.0
 10
374.136796467873
 20
733.491829102661
 30
0.0
 10
375.0435286129092
 20
745.6260884746857
 30
0.0
 10
369.6799335868001
 20
736.8986973511288
 30
0.0
 10
369.9148011270747
 20
732.4682188621716
 30
0.0
 10
372.7406398056875
 20
730.7325564847038
 30
0.0
 10
373.9905544578274
 20
731.3578070536166
 30
0.0
 10
374.5159659761048
 20
731.6206360797057
 30
0.0
 11
368.9359915860625
 21
731.08936956392
 31
0.0
 11
372.7888308128108
 21
734.0113479137333
 31
0.0
 11
373.6523983944576
 21
741.7811538665273
 31
0.0
 11
370.2645578491961
 21
736.4684661852848
 31
0.0
 11
370.8624128307359
 21
732.1519050980899
 31
0.0
 11
372.9216871128644
 21
731.08936956392
 31
0.0
 11
374.5159659761048
 21
731.6206360797057
 31
0.0
  0
LINE
  5
3CAA
330
1A
100
AcDbEntity
  8
寸法線
 48
10.0
100
AcDbLine
 10
303.870500093874
 20
745.465392684004
 30
0.0
 11
303.870500093874
 21
661.248839324635
 31
0.0
  0
LINE
  5
3CAB
330
1A
100
AcDbEntity
  8
寸法線
 48
10.0
100
AcDbLine
 10
350.469273377693
 20
745.465392684004
 30
0.0
 11
350.469273377693
 21
661.248839324635
 31
0.0
  0
LINE
  5
3CAC
330
1A
100
AcDbEntity
  8
寸法線
 48
10.0
100
AcDbLine
 10
393.844237616823
 20
745.465392684004
 30
0.0
 11
393.844237616824
 21
661.248839324635
 31
0.0
  0
LINE
  5
3CAD
330
1A
100
AcDbEntity
  8
寸法線
 48
10.0
100
AcDbLine
 10
495.034665588656
 20
745.465392684004
 30
0.0
 11
495.034665588656
 21
661.248839324635
 31
0.0
  0
LINE
  5
3CAE
330
1A
100
AcDbEntity
  8
寸法線
 48
10.0
100
AcDbLine
 10
538.409629827786
 20
745.465392684004
 30
0.0
 11
538.409629827786
 21
661.248839324635
 31
0.0
  0
LINE
  5
3CAF
330
1A
100
AcDbEntity
  8
寸法線
 48
10.0
100
AcDbLine
 10
303.870500093874
 20
711.778771340256
 30
0.0
 11
538.409629827787
 21
711.778771340256
 31
0.0
  0
LINE
  5
3CB0
330
1A
100
AcDbEntity
  8
寸法線
 48
10.0
100
AcDbLine
 10
303.870500093874
 20
694.935460668383
 30
0.0
 11
538.409629827787
 21
694.935460668383
 31
0.0
  0
LINE
  5
3CB1
330
1A
100
AcDbEntity
  8
寸法線
 48
10.0
100
AcDbLine
 10
303.870500093874
 20
745.465392684004
 30
0.0
 11
538.409629827787
 21
745.465392684004
 31
0.0
  0
LINE
  5
3CB2
330
1A
100
AcDbEntity
  8
寸法線
 48
10.0
100
AcDbLine
 10
303.870500093874
 20
728.62208201213
 30
0.0
 11
538.409629827786
 21
728.62208201213
 31
0.0
  0
MTEXT
  5
40FB
330
1A
100
AcDbEntity
  8
寸法線
 48
10.0
100
AcDbMText
 10
405.106960202914
 20
1061.429954824694
 30
0.0
 40
10.0
 41
59.089777462164
 71
     1
 72
     5
  1
アルミ鋳物
  0
LEADER
  5
40FC
330
1A
100
AcDbEntity
  8
寸法線
 48
10.0
100
AcDbLeader
  3
ISO-25
 76
     3
 10
422.987997120199
 20
978.648024357232
 30
0.0
 10
407.441177852577
 20
1050.010388145424
 30
0.0
 10
422.71162537421
 20
1050.010388145424
 30
0.0
1001
ACAD
1000
DSTYLE
1002
{
1070
     5
1000
OPEN30
1070
   147
1040
0.625
1070
    77
1070
     0
1070
    41
1040
6.0
1070
    47
1040
0.1
1070
    48
1040
0.1
1070
    73
1070
     0
1070
   140
1040
5.0
1070
   271
1070
     1
1070
   272
1070
     1
1070
   341
1005
2AF4
1070
   342
1005
2AF4
1002
}
  0
DIMENSION
  5
4110
330
1A
100
AcDbEntity
  8
寸法線
 48
10.0
100
AcDbDimension
  2
*D14
 10
-209.037923990006
 20
917.148103107233
 30
0.0
 11
-209.037923990006
 21
973.333380450529
 31
0.0
 70
   160
  1
φ<>
  3
ISO-25
100
AcDbAlignedDimension
 13
-218.590155722793
 23
952.148025607232
 33
0.0
 14
-219.578315397402
 24
917.148103107233
 34
0.0
 50
90.0
100
AcDbRotatedDimension
1001
ACAD
1000
DSTYLE
1002
{
1070
     5
1000
OPEN30
1070
    41
1040
6.0
1070
    47
1040
0.1
1070
    48
1040
0.1
1070
    73
1070
     0
1070
   140
1040
10.0
1070
   271
1070
     1
1070
   272
1070
     1
1070
   341
1005
2AF4
1002
}
  0
MTEXT
  5
451C
330
1A
100
AcDbEntity
  8
細線
100
AcDbMText
 10
234.136796869485
 20
989.044003117804
 30
0.0
 40
5.0
 41
0.0
 71
     7
 72
     1
  1

  0
LWPOLYLINE
  5
4B53
330
1A
100
AcDbEntity
  8
外形線
100
AcDbPolyline
 90
        7
 70
     0
 43
0.0
 10
373.620695060574
 20
962.648024357232
 10
345.621250095481
 20
960.148024357232
 42
0.414213562373
 10
342.621250095481
 20
957.148024357232
 10
342.621250095481
 20
912.148024357232
 42
0.414213562373
 10
345.621250095481
 20
909.148024357232
 10
373.620695060574
 20
906.648024357232
 10
373.620695060574
 20
906.648024357232
  0
ARC
  5
4B54
330
1A
100
AcDbEntity
  8
外形線
100
AcDbCircle
 10
373.620695060574
 20
903.648024357232
 30
0.0
 40
3.0
100
AcDbArc
 50
359.996745841381
 51
90.0
  0
ARC
  5
4B55
330
1A
100
AcDbEntity
  8
外形線
100
AcDbCircle
 10
373.620695060574
 20
965.648024357232
 30
0.0
 40
3.0
100
AcDbArc
 50
270.0
 51
0.003254158619
  0
LINE
  5
4B5D
330
1A
100
AcDbEntity
  8
外形線
100
AcDbLine
 10
388.617940469974
 20
858.148024357232
 30
0.0
 11
388.617940469974
 21
1011.148024357232
 31
0.0
  0
LINE
  5
4B5F
330
1A
100
AcDbEntity
  8
外形線
100
AcDbLine
 10
387.617940469974
 20
1012.148024357232
 30
0.0
 11
377.117940469974
 21
1012.148024357232
 31
0.0
  0
LINE
  5
4B60
330
1A
100
AcDbEntity
  8
外形線
100
AcDbLine
 10
387.617940469974
 20
1012.148024357232
 30
0.0
 11
388.617940469974
 21
1011.148024357232
 31
0.0
  0
LINE
  5
4B61
330
1A
100
AcDbEntity
  8
外形線
100
AcDbLine
 10
377.117940469974
 20
1012.148024357232
 30
0.0
 11
376.617940469974
 21
1011.648024357232
 31
0.0
  0
LINE
  5
4B62
330
1A
100
AcDbEntity
  8
外形線
100
AcDbLine
 10
377.117940469974
 20
857.148024357232
 30
0.0
 11
376.617940469974
 21
857.648024357232
 31
0.0
  0
LINE
  5
4B64
330
1A
100
AcDbEntity
  8
外形線
100
AcDbLine
 10
387.617940469974
 20
857.148024357232
 30
0.0
 11
377.117940469974
 21
857.148024357232
 31
0.0
  0
LINE
  5
4B67
330
1A
100
AcDbEntity
  8
外形線
100
AcDbLine
 10
376.617940469974
 20
857.648024357232
 30
0.0
 11
376.617940469974
 21
1011.648024357232
 31
0.0
  0
LINE
  5
4B68
330
1A
100
AcDbEntity
  8
中心線
 48
10.0
100
AcDbLine
 10
371.615453027721
 20
999.648024357232
 30
0.0
 11
393.617940469974
 21
999.648024357232
 31
0.0
  0
LEADER
  5
4BB6
330
1A
100
AcDbEntity
  8
寸法線
 48
10.0
100
AcDbLeader
  3
ISO-25
 76
     3
 10
322.247511241305
 20
941.957798590121
 30
0.0
 10
294.505554415768
 20
1050.043084025895
 30
0.0
 10
280.724257387622
 20
1050.043084025895
 30
0.0
1001
ACAD
1000
DSTYLE
1002
{
1070
     5
1000
OPEN30
1070
   147
1040
0.625
1070
    77
1070
     0
1070
    41
1040
6.0
1070
    47
1040
0.1
1070
    48
1040
0.1
1070
    73
1070
     0
1070
   140
1040
5.0
1070
   271
1070
     1
1070
   272
1070
     1
1070
   341
1005
2AF4
1070
   342
1005
2AF4
1002
}
  0
MTEXT
  5
4BB7
330
1A
100
AcDbEntity
  8
寸法線
 48
10.0
100
AcDbMText
 10
250.994927910455
 20
1062.298792440927
 30
0.0
 40
10.0
 41
24.718933289539
 71
     1
 72
     5
  1
SUS304
  0
LEADER
  5
4F6F
330
1A
100
AcDbEntity
  8
寸法線
 48
10.0
100
AcDbLeader
  3
ISO-25
 76
     3
 10
453.034496196312
 20
867.565359260645
 30
0.0
 10
466.163323971362
 20
849.700406406275
 30
0.0
 10
478.657725174345
 20
849.700406406275
 30
0.0
213
-33.23430690921373
223
0.0
233
0.0
1001
ACAD
1000
DSTYLE
1002
{
1070
     5
1000
OPEN30
1070
   147
1040
0.625
1070
    77
1070
     1
1070
    41
1040
6.0
1070
    47
1040
0.1
1070
    48
1040
0.1
1070
    73
1070
     0
1070
   140
1040
8.0
1070
   271
1070
     1
1070
   272
1070
     1
1070
   341
1005
2AF4
1070
   342
1005
2AF4
1002
}
  0
DIMENSION
  5
4F70
330
1A
100
AcDbEntity
  8
寸法線
 48
10.0
100
AcDbDimension
  2
*D18
 10
548.962930899853
 20
883.648024357232
 30
0.0
 11
548.962930899853
 21
934.036024857232
 31
0.0
 70
   160
  1
φ102
  3
ISO-25
100
AcDbAlignedDimension
 13
482.325094469974
 23
985.648024357232
 33
0.0
 14
482.325094469974
 24
883.648024357232
 34
0.0
 50
90.0
100
AcDbRotatedDimension
1001
ACAD
1000
DSTYLE
1002
{
1070
     5
1000
OPEN30
1070
    41
1040
6.0
1070
    47
1040
0.1
1070
    48
1040
0.1
1070
    73
1070
     0
1070
   140
1040
10.0
1070
   271
1070
     1
1070
   272
1070
     1
1070
   341
1005
2AF4
1002
}
  0
LINE
  5
4F71
330
1A
100
AcDbEntity
  8
外形線
100
AcDbLine
 10
482.325094469974
 20
985.648024357232
 30
0.0
 11
486.037862469974
 21
983.200026357232
 31
0.0
  0
LINE
  5
4F72
330
1A
100
AcDbEntity
  8
細線
100
AcDbLine
 10
482.325094469974
 20
980.344070357232
 30
0.0
 11
482.325094469974
 21
985.648024357232
 31
0.0
  0
LINE
  5
4F73
330
1A
100
AcDbEntity
  8
外形線
100
AcDbLine
 10
466.617086469974
 20
883.648024357232
 30
0.0
 11
466.617086469974
 21
985.648024357232
 31
0.0
  0
LINE
  5
4F74
330
1A
100
AcDbEntity
  8
外形線
100
AcDbLine
 10
516.912784238057
 20
934.648024357232
 30
0.0
 11
516.912784238057
 21
892.159744357232
 31
0.0
  0
LINE
  5
4F75
330
1A
100
AcDbEntity
  8
外形線
100
AcDbLine
 10
526.623234238057
 20
911.228836357232
 30
0.0
 11
526.623234238057
 21
928.650466357232
 31
0.0
  0
LINE
  5
4F76
330
1A
100
AcDbEntity
  8
細線
100
AcDbLine
 10
482.325094469974
 20
930.364090357232
 30
0.0
 11
482.325094469974
 21
911.800002357232
 31
0.0
  0
LINE
  5
4F77
330
1A
100
AcDbEntity
  8
細線
100
AcDbLine
 10
486.037862469974
 20
983.200026357232
 30
0.0
 11
486.037862469974
 21
886.096022357232
 31
0.0
  0
LINE
  5
4F78
330
1A
100
AcDbEntity
  8
外形線
100
AcDbLine
 10
486.037862469974
 20
886.096022357232
 30
0.0
 11
512.252096469974
 21
887.309708357232
 31
0.0
  0
LINE
  5
4F79
330
1A
100
AcDbEntity
  8
細線
100
AcDbLine
 10
482.325094469974
 20
903.803298357232
 30
0.0
 11
482.325094469974
 21
892.379226357232
 31
0.0
  0
LINE
  5
4F7A
330
1A
100
AcDbEntity
  8
外形線
100
AcDbLine
 10
464.617940469974
 20
883.648024357232
 30
0.0
 11
482.325094469974
 21
883.648024357232
 31
0.0
  0
ARC
  5
4F7B
330
1A
100
AcDbEntity
  8
外形線
100
AcDbCircle
 10
484.311178469974
 20
890.665604357232
 30
0.0
 40
1.714446
100
AcDbArc
 50
271.804703586974
 51
88.195318508605
  0
LINE
  5
4F7C
330
1A
100
AcDbEntity
  8
外形線
100
AcDbLine
 10
484.365194469974
 20
888.952102357232
 30
0.0
 11
466.617086469974
 21
888.952102357232
 31
0.0
  0
LINE
  5
4F7D
330
1A
100
AcDbEntity
  8
外形線
100
AcDbLine
 10
484.365194469974
 20
892.379226357232
 30
0.0
 11
466.617086469974
 21
892.379226357232
 31
0.0
  0
LINE
  5
4F7E
330
1A
100
AcDbEntity
  8
外形線
100
AcDbLine
 10
486.037862469974
 20
886.096022357232
 30
0.0
 11
482.325094469974
 21
883.648024357232
 31
0.0
  0
LINE
  5
4F7F
330
1A
100
AcDbEntity
  8
細線
100
AcDbLine
 10
482.325094469974
 20
888.952102357232
 30
0.0
 11
482.325094469974
 21
883.648024357232
 31
0.0
  0
LINE
  5
4F80
330
1A
100
AcDbEntity
  8
外形線
100
AcDbLine
 10
466.617086469974
 20
911.800002357232
 30
0.0
 11
482.325094469974
 21
911.800002357232
 31
0.0
  0
LINE
  5
4F81
330
1A
100
AcDbEntity
  8
外形線
100
AcDbLine
 10
466.617086469974
 20
903.803298357232
 30
0.0
 11
482.414204469974
 21
903.803298357232
 31
0.0
  0
ARC
  5
4F82
330
1A
100
AcDbEntity
  8
外形線
100
AcDbCircle
 10
481.999044469974
 20
907.797562357232
 30
0.0
 40
4.015794000000001
100
AcDbArc
 50
275.934583374273
 51
85.343077308665
  0
ARC
  5
4F83
330
1A
100
AcDbEntity
  8
外形線
100
AcDbCircle
 10
512.057560238056
 20
892.159744357232
 30
0.0
 40
4.8552
100
AcDbArc
 50
272.650733067261
 51
359.999982399895
  0
LINE
  5
4F84
330
1A
100
AcDbEntity
  8
外形線
100
AcDbLine
 10
518.991582238057
 20
909.229690357232
 30
0.0
 11
524.623966238056
 21
909.229690357232
 31
0.0
  0
LINE
  5
4F85
330
1A
100
AcDbEntity
  8
外形線
100
AcDbLine
 10
516.912784238057
 20
901.518508357232
 30
0.0
 11
524.711734238057
 21
901.518508357232
 31
0.0
  0
LINE
  5
4F86
330
1A
100
AcDbEntity
  8
外形線
100
AcDbLine
 10
518.991520238057
 20
905.231276357232
 30
0.0
 11
524.961612238056
 21
905.231276357232
 31
0.0
  0
ARC
  5
4F87
330
1A
100
AcDbEntity
  8
外形線
100
AcDbCircle
 10
518.913274238057
 20
907.230514357232
 30
0.0
 40
2.000724
100
AcDbArc
 50
87.757023395436
 51
272.242959004484
  0
ARC
  5
4F88
330
1A
100
AcDbEntity
  8
外形線
100
AcDbCircle
 10
524.623966238056
 20
911.228836357232
 30
0.0
 40
1.9992
100
AcDbArc
 50
270.0
 51
359.999982399895
  0
ARC
  5
4F89
330
1A
100
AcDbEntity
  8
外形線
100
AcDbCircle
 10
524.761052238057
 20
903.379958357232
 30
0.0
 40
1.86215
100
AcDbArc
 50
268.482178628784
 51
83.815801009983
  0
LINE
  5
4F8A
330
1A
100
AcDbEntity
  8
外形線
100
AcDbLine
 10
526.623234238057
 20
958.067214357232
 30
0.0
 11
526.623234238057
 21
940.645584357232
 31
0.0
  0
LINE
  5
4F8B
330
1A
100
AcDbEntity
  8
細線
100
AcDbLine
 10
482.325094469974
 20
938.932082357232
 30
0.0
 11
482.325094469974
 21
957.496048357232
 31
0.0
  0
LINE
  5
4F8C
330
1A
100
AcDbEntity
  8
外形線
100
AcDbLine
 10
516.912784238057
 20
934.648024357232
 30
0.0
 11
516.912784238057
 21
977.136428357232
 31
0.0
  0
ARC
  5
4F8D
330
1A
100
AcDbEntity
  8
外形線
100
AcDbCircle
 10
481.037984469974
 20
935.230544357232
 30
0.0
 40
5.033766
100
AcDbArc
 50
284.815257311476
 51
353.355849216006
  0
LINE
  5
4F8E
330
1A
100
AcDbEntity
  8
外形線
100
AcDbLine
 10
466.617086469974
 20
930.364090357232
 30
0.0
 11
482.325094469974
 21
930.364090357232
 31
0.0
  0
ARC
  5
4F8F
330
1A
100
AcDbEntity
  8
外形線
100
AcDbCircle
 10
481.037984469974
 20
934.065628357232
 30
0.0
 40
5.033766
100
AcDbArc
 50
6.644133183896
 51
75.184725088441
  0
LINE
  5
4F90
330
1A
100
AcDbEntity
  8
外形線
100
AcDbLine
 10
466.617086469974
 20
938.932082357232
 30
0.0
 11
482.325094469974
 21
938.932082357232
 31
0.0
  0
ARC
  5
4F91
330
1A
100
AcDbEntity
  8
外形線
100
AcDbCircle
 10
519.067204238057
 20
932.795242357232
 30
0.0
 40
2.15556
100
AcDbArc
 50
181.910948686156
 51
264.487402289583
  0
ARC
  5
4F92
330
1A
100
AcDbEntity
  8
外形線
100
AcDbCircle
 10
524.623966238056
 20
928.650466357232
 30
0.0
 40
1.9992
100
AcDbArc
 50
0.0
 51
89.999981276021
  0
LINE
  5
4F93
330
1A
100
AcDbEntity
  8
外形線
100
AcDbLine
 10
518.860172238057
 20
930.649734357232
 30
0.0
 11
524.623966238056
 21
930.649734357232
 31
0.0
  0
LINE
  5
4F94
330
1A
100
AcDbEntity
  8
外形線
100
AcDbLine
 10
518.860172238057
 20
938.646438357232
 30
0.0
 11
524.623966238056
 21
938.646438357232
 31
0.0
  0
ARC
  5
4F95
330
1A
100
AcDbEntity
  8
外形線
100
AcDbCircle
 10
519.067204238057
 20
936.500930357232
 30
0.0
 40
2.15556
100
AcDbArc
 50
95.512637406103
 51
178.089033713734
  0
ARC
  5
4F96
330
1A
100
AcDbEntity
  8
外形線
100
AcDbCircle
 10
524.623966238056
 20
940.645584357232
 30
0.0
 40
1.9992
100
AcDbArc
 50
270.0
 51
359.999982399908
  0
LINE
  5
4F97
330
1A
100
AcDbEntity
  8
外形線
100
AcDbLine
 10
486.037862469974
 20
983.200026357232
 30
0.0
 11
512.252096469974
 21
981.986404357232
 31
0.0
  0
LINE
  5
4F98
330
1A
100
AcDbEntity
  8
細線
100
AcDbLine
 10
482.325094469974
 20
965.492874357232
 30
0.0
 11
482.325094469974
 21
976.916824357232
 31
0.0
  0
LINE
  5
4F99
330
1A
100
AcDbEntity
  8
外形線
100
AcDbLine
 10
466.617086469974
 20
965.492874357232
 30
0.0
 11
482.414204469974
 21
965.492874357232
 31
0.0
  0
LINE
  5
4F9A
330
1A
100
AcDbEntity
  8
外形線
100
AcDbLine
 10
466.617086469974
 20
957.496048357232
 30
0.0
 11
482.325094469974
 21
957.496048357232
 31
0.0
  0
ARC
  5
4F9B
330
1A
100
AcDbEntity
  8
外形線
100
AcDbCircle
 10
481.999044469974
 20
961.498610357232
 30
0.0
 40
4.015794000000001
100
AcDbArc
 50
274.656944786913
 51
84.065438721313
  0
ARC
  5
4F9C
330
1A
100
AcDbEntity
  8
外形線
100
AcDbCircle
 10
484.311178469974
 20
978.630446357232
 30
0.0
 40
1.714446
100
AcDbArc
 50
271.804703586974
 51
88.195318508605
  0
LINE
  5
4F9D
330
1A
100
AcDbEntity
  8
外形線
100
AcDbLine
 10
484.365194469974
 20
980.344070357232
 30
0.0
 11
466.617086469974
 21
980.344070357232
 31
0.0
  0
LINE
  5
4F9E
330
1A
100
AcDbEntity
  8
外形線
100
AcDbLine
 10
484.365194469974
 20
976.916824357232
 30
0.0
 11
466.617086469974
 21
976.916824357232
 31
0.0
  0
ARC
  5
4F9F
330
1A
100
AcDbEntity
  8
外形線
100
AcDbCircle
 10
524.761052238057
 20
965.916214357232
 30
0.0
 40
1.86215
100
AcDbArc
 50
276.18422108563
 51
91.517843466792
  0
LINE
  5
4FA0
330
1A
100
AcDbEntity
  8
外形線
100
AcDbLine
 10
518.991520238057
 20
964.064772357232
 30
0.0
 11
524.961612238056
 21
964.064772357232
 31
0.0
  0
LINE
  5
4FA1
330
1A
100
AcDbEntity
  8
外形線
100
AcDbLine
 10
518.991520238057
 20
960.066482357232
 30
0.0
 11
524.623966238056
 21
960.066482357232
 31
0.0
  0
ARC
  5
4FA2
330
1A
100
AcDbEntity
  8
外形線
100
AcDbCircle
 10
518.911992238056
 20
962.065628357232
 30
0.0
 40
2.000726
100
AcDbArc
 50
87.722187561485
 51
272.27785213419
  0
ARC
  5
4FA3
330
1A
100
AcDbEntity
  8
外形線
100
AcDbCircle
 10
524.623966238056
 20
958.067214357232
 30
0.0
 40
1.9992
100
AcDbArc
 50
0.0
 51
89.999981276021
  0
LINE
  5
4FA4
330
1A
100
AcDbEntity
  8
外形線
100
AcDbLine
 10
516.912784238057
 20
967.777664357232
 30
0.0
 11
524.711734238057
 21
967.777664357232
 31
0.0
  0
ARC
  5
4FA5
330
1A
100
AcDbEntity
  8
外形線
100
AcDbCircle
 10
512.057560238056
 20
977.136428357232
 30
0.0
 40
4.8552
100
AcDbArc
 50
0.0
 51
87.349306628423
  0
LINE
  5
4FA6
330
1A
100
AcDbEntity
  8
外形線
100
AcDbLine
 10
464.617940469974
 20
985.648024357232
 30
0.0
 11
482.325094469974
 21
985.648024357232
 31
0.0
  0
LINE
  5
4FA7
330
1A
100
AcDbEntity
  8
細線
 48
10.0
100
AcDbLine
 10
456.617940469974
 20
892.471613011694
 30
0.0
 11
459.617940469974
 21
883.648024357401
 31
0.0
  0
LINE
  5
4FA8
330
1A
100
AcDbEntity
  8
細線
 48
10.0
100
AcDbLine
 10
456.617940469974
 20
980.648024357401
 30
0.0
 11
456.617940469974
 21
892.471613011694
 31
0.0
  0
LINE
  5
4FA9
330
1A
100
AcDbEntity
  8
細線
 48
10.0
100
AcDbLine
 10
459.617940469974
 20
985.648024357401
 30
0.0
 11
459.617940469974
 21
883.648024357401
 31
0.0
  0
LINE
  5
4FAA
330
1A
100
AcDbEntity
  8
中心線
 48
10.0
100
AcDbLine
 10
443.623234238057
 20
898.157371060712
 30
0.0
 11
443.623234238057
 21
855.77189881979
 31
0.0
  0
LINE
  5
4FAB
330
1A
100
AcDbEntity
  8
外形線
100
AcDbLine
 10
464.117940469974
 20
883.648024357401
 30
0.0
 11
464.617940469974
 21
884.148024357401
 31
0.0
  0
LINE
  5
4FAC
330
1A
100
AcDbEntity
  8
外形線
100
AcDbLine
 10
464.117940469974
 20
985.648024357401
 30
0.0
 11
464.617940469974
 21
985.148024357401
 31
0.0
  0
ARC
  5
4FAD
330
1A
100
AcDbEntity
  8
外形線
100
AcDbCircle
 10
431.499634189923
 20
870.648024357401
 30
0.0
 40
2.0
100
AcDbArc
 50
183.491441283441
 51
270.0
  0
ARC
  5
4FAE
330
1A
100
AcDbEntity
  8
外形線
100
AcDbCircle
 10
455.746834286191
 20
870.648024357401
 30
0.0
 40
2.0
100
AcDbArc
 50
270.0
 51
356.185925165712
  0
ARC
  5
4FAF
330
1A
100
AcDbEntity
  8
外形線
100
AcDbCircle
 10
427.357753852661
 20
889.272048259623
 30
0.0
 40
1.0
100
AcDbArc
 50
3.491441283441
 51
86.820169880138
  0
ARC
  5
4FB0
330
1A
100
AcDbEntity
  8
外形線
100
AcDbCircle
 10
422.32854605587
 20
893.557616776627
 30
0.0
 40
3.0
100
AcDbArc
 50
212.275644314579
 51
266.820169880138
  0
ARC
  5
4FB1
330
1A
100
AcDbEntity
  8
外形線
100
AcDbCircle
 10
422.32854605587
 20
975.738431938175
 30
0.0
 40
3.0
100
AcDbArc
 50
93.179830119862
 51
147.724355685421
  0
ARC
  5
4FB2
330
1A
100
AcDbEntity
  8
外形線
100
AcDbCircle
 10
406.964434408777
 20
906.648024357401
 30
0.0
 40
3.0
100
AcDbArc
 50
32.275644314579
 51
90.0
  0
ARC
  5
4FB3
330
1A
100
AcDbEntity
  8
外形線
100
AcDbCircle
 10
406.964434408777
 20
962.648024357401
 30
0.0
 40
3.0
100
AcDbArc
 50
270.0
 51
327.724355685421
  0
LINE
  5
4FB4
330
1A
100
AcDbEntity
  8
外形線
100
AcDbLine
 10
419.792079346777
 20
891.955637802463
 30
0.0
 11
409.50090111787
 21
908.250003331565
 31
0.0
  0
LINE
  5
4FB5
330
1A
100
AcDbEntity
  8
外形線
100
AcDbLine
 10
406.964434408777
 20
959.648024357401
 30
0.0
 11
391.617940469974
 21
959.648024357401
 31
0.0
  0
LINE
  5
4FB6
330
1A
100
AcDbEntity
  8
外形線
100
AcDbLine
 10
419.792079346777
 20
977.340410912339
 30
0.0
 11
409.50090111787
 21
961.046045383237
 31
0.0
  0
LINE
  5
4FB7
330
1A
100
AcDbEntity
  8
外形線
100
AcDbLine
 10
427.413223872284
 20
890.270508612828
 30
0.0
 11
422.162135997002
 21
890.56223571701
 31
0.0
  0
LINE
  5
4FB8
330
1A
100
AcDbEntity
  8
外形線
100
AcDbLine
 10
428.355897759243
 20
889.332947699313
 30
0.0
 11
429.50334637676
 21
870.52622547802
 31
0.0
  0
LINE
  5
4FB9
330
1A
100
AcDbEntity
  8
外形線
100
AcDbLine
 10
458.617940469974
 20
883.648024357401
 30
0.0
 11
457.742404601904
 21
870.514986336353
 31
0.0
  0
LINE
  5
4FBA
330
1A
100
AcDbEntity
  8
外形線
100
AcDbLine
 10
431.499634189923
 20
868.648024357401
 30
0.0
 11
455.746834286191
 21
868.648024357401
 31
0.0
  0
LINE
  5
4FBB
330
1A
100
AcDbEntity
  8
外形線
100
AcDbLine
 10
464.117940469974
 20
883.648024357401
 30
0.0
 11
458.617940469974
 21
883.648024357401
 31
0.0
  0
LINE
  5
4FBC
330
1A
100
AcDbEntity
  8
外形線
100
AcDbLine
 10
456.617940469974
 20
980.648024357401
 30
0.0
 11
422.162135997002
 21
978.733812997791
 31
0.0
  0
LINE
  5
4FBD
330
1A
100
AcDbEntity
  8
外形線
100
AcDbLine
 10
459.617940469974
 20
985.648024357401
 30
0.0
 11
456.617940469974
 21
980.648024357401
 31
0.0
  0
LINE
  5
4FBE
330
1A
100
AcDbEntity
  8
外形線
100
AcDbLine
 10
464.117940469974
 20
985.648024357401
 30
0.0
 11
459.617940469974
 21
985.648024357401
 31
0.0
  0
LINE
  5
4FBF
330
1A
100
AcDbEntity
  8
外形線
100
AcDbLine
 10
464.617940469974
 20
883.648024357232
 30
0.0
 11
464.617940469974
 21
985.648024357232
 31
0.0
  0
ARC
  5
4FC0
330
1A
100
AcDbEntity
  8
外形線
100
AcDbCircle
 10
391.617940469974
 20
962.648024357401
 30
0.0
 40
3.0
100
AcDbArc
 50
180.0
 51
270.0
  0
LINE
  5
4FC1
330
1A
100
AcDbEntity
  8
外形線
100
AcDbLine
 10
387.617940469974
 20
857.148024357401
 30
0.0
 11
388.617940469974
 21
858.148024357401
 31
0.0
  0
ARC
  5
4FC2
330
1A
100
AcDbEntity
  8
外形線
100
AcDbCircle
 10
391.617940469974
 20
906.648024357401
 30
0.0
 40
3.0
100
AcDbArc
 50
90.0
 51
180.0
  0
LINE
  5
4FC3
330
1A
100
AcDbEntity
  8
外形線
100
AcDbLine
 10
406.964434408777
 20
909.648024357401
 30
0.0
 11
391.617940469974
 21
909.648024357401
 31
0.0
  0
DIMENSION
  5
4FC4
330
1A
100
AcDbEntity
  8
寸法線
 48
10.0
100
AcDbDimension
  2
*D19
 10
443.623234238057
 20
826.2995636281
 30
0.0
 11
485.123234238057
 21
831.9245636281
 31
0.0
 70
    32
  1
83
  3
ISO-25
100
AcDbAlignedDimension
 13
526.623234238057
 23
902.596823484039
 33
0.0
 14
443.623234238057
 24
855.77189881979
 34
0.0
100
AcDbRotatedDimension
1001
ACAD
1000
DSTYLE
1002
{
1070
     5
1000
OPEN30
1070
    41
1040
6.0
1070
    47
1040
0.1
1070
    48
1040
0.1
1070
    73
1070
     0
1070
   140
1040
10.0
1070
   271
1070
     1
1070
   272
1070
     1
1070
   341
1005
2AF4
1002
}
  0
LINE
  5
4FC5
330
1A
100
AcDbEntity
  8
細線
100
AcDbLine
 10
406.207064936263
 20
957.439376357232
 30
0.0
 11
406.207064936263
 21
911.856674357232
 31
0.0
  0
LINE
  5
4FC6
330
1A
100
AcDbEntity
  8
細線
100
AcDbLine
 10
420.127426990414
 20
973.775222357232
 30
0.0
 11
420.127426990414
 21
895.520828357232
 31
0.0
  0
ARC
  5
4FC7
330
1A
100
AcDbEntity
  8
細線
100
AcDbCircle
 10
461.461308238057
 20
896.954482357401
 30
0.0
 40
38.097766
100
AcDbArc
 50
252.34442125848
 51
262.046372899211
  0
ARC
  5
4FC8
330
1A
100
AcDbEntity
  8
細線
100
AcDbCircle
 10
444.194488808706
 20
858.052986788695
 30
0.0
 40
36.59213005904878
100
AcDbArc
 50
70.152880697386
 51
115.263830550294
  0
LINE
  5
4FC9
330
1A
100
AcDbEntity
  8
外形線
100
AcDbLine
 10
429.628850238057
 20
864.363998357401
 30
0.0
 11
457.617742238057
 21
864.363998357401
 31
0.0
  0
LINE
  5
4FCA
330
1A
100
AcDbEntity
  8
外形線
100
AcDbLine
 10
431.056828238057
 20
859.223190357401
 30
0.0
 11
456.189640238057
 21
859.223190357401
 31
0.0
  0
LINE
  5
4FCB
330
1A
100
AcDbEntity
  8
細線
100
AcDbLine
 10
449.906438238057
 20
860.651228357401
 30
0.0
 11
449.906438238057
 21
864.363998357401
 31
0.0
  0
LINE
  5
4FCC
330
1A
100
AcDbEntity
  8
細線
100
AcDbLine
 10
437.340032238057
 20
860.651228357401
 30
0.0
 11
437.340032238057
 21
864.363998357401
 31
0.0
  0
LINE
  5
4FCD
330
1A
100
AcDbEntity
  8
細線
100
AcDbLine
 10
436.483220238057
 20
868.647994357401
 30
0.0
 11
436.483220238057
 21
864.363998357401
 31
0.0
  0
LINE
  5
4FCE
330
1A
100
AcDbEntity
  8
外形線
100
AcDbLine
 10
429.628850238057
 20
864.363998357401
 30
0.0
 11
429.628850238057
 21
860.651228357401
 31
0.0
  0
LINE
  5
4FCF
330
1A
100
AcDbEntity
  8
外形線
100
AcDbLine
 10
434.198430238057
 20
864.363998357401
 30
0.0
 11
434.198430238057
 21
868.647994357401
 31
0.0
  0
ARC
  5
4FD0
330
1A
100
AcDbEntity
  8
細線
100
AcDbCircle
 10
425.785160238057
 20
896.954482357401
 30
0.0
 40
38.097766
100
AcDbArc
 50
277.953629348533
 51
287.655580989282
  0
LINE
  5
4FD1
330
1A
100
AcDbEntity
  8
外形線
100
AcDbLine
 10
429.628850238057
 20
860.651228357401
 30
0.0
 11
431.056828238057
 21
859.223190357401
 31
0.0
  0
ARC
  5
4FD2
330
1A
100
AcDbEntity
  8
細線
100
AcDbCircle
 10
443.623234238057
 20
873.759872357401
 30
0.0
 40
14.53669
100
AcDbArc
 50
244.3907930338
 51
295.609209213936
  0
LINE
  5
4FD3
330
1A
100
AcDbEntity
  8
細線
100
AcDbLine
 10
450.763248238057
 20
868.647994357401
 30
0.0
 11
450.763248238057
 21
864.363998357401
 31
0.0
  0
LINE
  5
4FD4
330
1A
100
AcDbEntity
  8
外形線
100
AcDbLine
 10
457.617742238057
 20
864.363998357401
 30
0.0
 11
457.617742238057
 21
860.651228357401
 31
0.0
  0
LINE
  5
4FD5
330
1A
100
AcDbEntity
  8
外形線
100
AcDbLine
 10
453.048038238057
 20
864.363998357401
 30
0.0
 11
453.048038238057
 21
868.647994357401
 31
0.0
  0
LINE
  5
4FD6
330
1A
100
AcDbEntity
  8
外形線
100
AcDbLine
 10
457.617742238057
 20
860.651228357401
 30
0.0
 11
456.189640238057
 21
859.223190357401
 31
0.0
  0
MTEXT
  5
4FD7
330
1A
100
AcDbEntity
  8
寸法線
 48
10.0
100
AcDbMText
 10
468.155188702229
 20
850.695687889755
 30
0.0
 40
9.5
 41
0.0
 71
     7
 72
     1
  1
導線取出口\PG 1/2"
  0
MTEXT
  5
5037
330
1A
100
AcDbEntity
  8
寸法線
 48
10.0
100
AcDbMText
 10
374.268624063614
 20
1051.435191673597
 30
0.0
 40
10.0
 41
0.0
 71
     9
 72
     1
  1
フランジ\Pアルミ鋳物
  0
LINE
  5
5060
330
1A
100
AcDbEntity
  8
中心線
 48
10.0
100
AcDbLine
 10
371.081370320125
 20
869.64802429573
 30
0.0
 11
393.083857762378
 21
869.64802429573
 31
0.0
  0
LEADER
  5
506C
330
1A
100
AcDbEntity
  8
寸法線
 62
     1
 48
10.0
100
AcDbLeader
  3
ISO-25
 76
     3
 10
-253.241205428345
 20
972.148025607232
 30
0.0
 10
-247.348082047145
 20
1050.043084025895
 30
0.0
 10
-264.510511697172
 20
1050.043084025895
 30
0.0
1001
ACAD
1000
DSTYLE
1002
{
1070
     5
1000
OPEN30
1070
   147
1040
0.625
1070
    77
1070
     0
1070
    41
1040
6.0
1070
    47
1040
0.1
1070
    48
1040
0.1
1070
    73
1070
     0
1070
   140
1040
5.0
1070
   271
1070
     1
1070
   272
1070
     1
1070
   341
1005
2AF4
1070
   342
1005
2AF4
1002
}
  0
MTEXT
  5
5073
330
1A
100
AcDbEntity
  8
寸法線
 48
10.0
100
AcDbMText
 10
-291.094799918652
 20
1061.441502045085
 30
0.0
 40
10.0
 41
24.718933289539
 71
     1
 72
     5
  1
SUS304
  0
LINE
  5
510D
330
1A
100
AcDbEntity
  8
外形線
 48
10.0
100
AcDbLine
 10
-161.784144030026
 20
945.648024357232
 30
0.0
 11
-136.784144030026
 21
945.648024357232
 31
0.0
  0
LINE
  5
510E
330
1A
100
AcDbEntity
  8
外形線
 48
10.0
100
AcDbLine
 10
-161.784144030026
 20
923.648024357232
 30
0.0
 11
-136.784144030026
 21
923.648024357232
 31
0.0
  0
MTEXT
  5
51FD
102
{ACAD_XDICTIONARY
360
51FE
102
}
330
1A
100
AcDbEntity
  8
寸法線
 48
10.0
100
AcDbMText
 10
-200.812072499729
 20
744.021429937586
 30
0.0
 40
10.0
 41
210.629527060302
 71
     1
 72
     5
  1
御仕様   電源電圧    リード線色\P       AC100/110V　 シロ・シロ\P       AC200/220V　クロ・クロ
1001
ACADANNOTATIVE
1000
AnnotativeData
1002
{
1070
     1
1070
     0
1002
}
  0
MTEXT
  5
5201
102
{ACAD_XDICTIONARY
360
5202
102
}
330
1A
100
AcDbEntity
  8
寸法線
 48
10.0
100
AcDbMText
 10
-340.293880860757
 20
615.251096740953
 30
0.0
 40
7.5
 41
61.875981802212
 71
     1
 72
     5
  1
L　　C　　 H
1001
ACADANNOTATIVE
1000
AnnotativeData
1002
{
1070
     1
1070
     0
1002
}
  0
MTEXT
  5
5205
330
1A
100
AcDbEntity
  8
寸法線
 48
10.0
100
AcDbMText
 10
-266.037767501008
 20
589.272845194442
 30
0.0
 40
7.5
 41
28.32839459278
 71
     1
 72
     5
  1
電　源
  0
LINE
  5
5206
330
1A
100
AcDbEntity
  8
寸法線
100
AcDbLine
 10
-340.298230520566
 20
626.572355346317
 30
0.0
 11
-340.298230520566
 21
747.987302846317
 31
0.0
  0
LINE
  5
5207
330
1A
100
AcDbEntity
  8
寸法線
100
AcDbLine
 10
-340.298230520566
 20
747.987302846317
 30
0.0
 11
-324.233243020566
 21
747.987302846317
 31
0.0
  0
LINE
  5
5208
330
1A
100
AcDbEntity
  8
寸法線
100
AcDbLine
 10
-324.233243020566
 20
747.987302846317
 30
0.0
 11
-324.233243020566
 21
723.354277846317
 31
0.0
  0
LINE
  5
5209
330
1A
100
AcDbEntity
  8
寸法線
100
AcDbLine
 10
-304.598233020566
 20
747.987302846317
 30
0.0
 11
-288.533245520566
 21
747.987302846317
 31
0.0
  0
LINE
  5
520A
330
1A
100
AcDbEntity
  8
寸法線
100
AcDbLine
 10
-263.900298020566
 20
747.987302846317
 30
0.0
 11
-238.910215520566
 21
747.987302846317
 31
0.0
  0
TEXT
  5
520B
330
1A
100
AcDbEntity
  8
寸法線
100
AcDbText
 10
-320.910870520566
 20
663.251357846317
 30
0.0
 40
10.714285714286
  1
キ
  7
EXCADVERT
 72
     3
 11
-320.910870520566
 21
653.251357846317
 31
0.0
100
AcDbText
  0
TEXT
  5
520C
330
1A
100
AcDbEntity
  8
寸法線
100
AcDbText
 10
-246.411893020566
 20
702.195372846317
 30
0.0
 40
15.0
  1
Ｍ
 41
1.25
  7
EXCADSTD
 72
     5
 11
-231.411893020566
 21
702.195372846317
 31
0.0
100
AcDbText
  0
LINE
  5
520D
330
1A
100
AcDbEntity
  8
寸法線
100
AcDbLine
 10
-238.910215520566
 20
747.987302846317
 30
0.0
 11
-238.910215520566
 21
721.446090346317
 31
0.0
  0
CIRCLE
  5
520E
330
1A
100
AcDbEntity
  8
寸法線
100
AcDbCircle
 10
-314.415738020566
 20
701.078352846317
 30
0.0
 40
2.0000075
  0
LINE
  5
520F
330
1A
100
AcDbEntity
  8
寸法線
100
AcDbLine
 10
-314.415738020566
 20
699.078307846317
 30
0.0
 11
-314.415738020566
 21
626.572355346317
 31
0.0
  0
LINE
  5
5210
330
1A
100
AcDbEntity
  8
寸法線
100
AcDbLine
 10
-288.533245520566
 20
747.987302846317
 30
0.0
 11
-288.533245520566
 21
626.572355346317
 31
0.0
  0
LINE
  5
5211
330
1A
100
AcDbEntity
  8
寸法線
100
AcDbLine
 10
-238.910215520566
 20
698.465512846317
 30
0.0
 11
-238.910215520566
 21
626.572355346317
 31
0.0
  0
CIRCLE
  5
5212
330
1A
100
AcDbEntity
  8
寸法線
100
AcDbCircle
 10
-340.298230520566
 20
622.822355346317
 30
0.0
 40
1.9999975
  0
LINE
  5
5213
330
1A
100
AcDbEntity
  8
寸法線
100
AcDbLine
 10
-263.900298020566
 20
699.078307846317
 30
0.0
 11
-263.900298020566
 21
626.572355346317
 31
0.0
  0
CIRCLE
  5
5214
330
1A
100
AcDbEntity
  8
寸法線
100
AcDbCircle
 10
-263.900298020566
 20
701.078352846317
 30
0.0
 40
2.0000075
  0
CIRCLE
  5
5215
330
1A
100
AcDbEntity
  8
寸法線
100
AcDbCircle
 10
-324.233243020566
 20
721.354307846317
 30
0.0
 40
2.0000075
  0
LINE
  5
5216
330
1A
100
AcDbEntity
  8
寸法線
100
AcDbLine
 10
-304.598233020566
 20
747.987302846317
 30
0.0
 11
-304.598233020566
 21
723.354277846317
 31
0.0
  0
CIRCLE
  5
5217
330
1A
100
AcDbEntity
  8
寸法線
100
AcDbCircle
 10
-304.598233020566
 20
721.354307846317
 30
0.0
 40
2.0000075
  0
LINE
  5
5218
330
1A
100
AcDbEntity
  8
寸法線
100
AcDbLine
 10
-263.900298020566
 20
747.987302846317
 30
0.0
 11
-263.900298020566
 21
723.354277846317
 31
0.0
  0
CIRCLE
  5
5219
330
1A
100
AcDbEntity
  8
寸法線
100
AcDbCircle
 10
-263.900298020566
 20
721.354307846317
 30
0.0
 40
2.0000075
  0
LINE
  5
521A
330
1A
100
AcDbEntity
  8
寸法線
100
AcDbLine
 10
-314.415738020566
 20
703.078322846317
 30
0.0
 11
-322.233273020566
 21
721.354307846317
 31
0.0
  0
LINE
  5
521B
330
1A
100
AcDbEntity
  8
寸法線
100
AcDbLine
 10
-263.900298020566
 20
703.078322846317
 30
0.0
 11
-261.900250520566
 21
721.354307846317
 31
0.0
  0
CIRCLE
  5
521C
330
1A
100
AcDbEntity
  8
寸法線
100
AcDbCircle
 10
-238.900755520566
 20
709.973845346317
 30
0.0
 40
11.4722475
  0
TEXT
  5
521D
330
1A
100
AcDbEntity
  8
寸法線
100
AcDbText
 10
-294.580990520566
 20
674.626630346317
 30
0.0
 40
10.051546391753
  1
ア　カ
  7
EXCADVERT
 72
     3
 11
-294.580990520566
 21
642.126630346317
 31
0.0
100
AcDbText
  0
TEXT
  5
521E
330
1A
100
AcDbEntity
  8
寸法線
100
AcDbText
 10
-346.518858020566
 20
674.626630346317
 30
0.0
 40
9.393939398455
  1
ミドリ
  7
EXCADVERT
 72
     3
 11
-346.518858020566
 21
643.626630331416
 31
0.0
100
AcDbText
  0
CIRCLE
  5
521F
330
1A
100
AcDbEntity
  8
寸法線
100
AcDbCircle
 10
-340.298230520566
 20
622.822355346317
 30
0.0
 40
3.75
  0
CIRCLE
  5
5220
330
1A
100
AcDbEntity
  8
寸法線
100
AcDbCircle
 10
-314.415738020566
 20
622.822355346317
 30
0.0
 40
1.9999975
  0
CIRCLE
  5
5221
330
1A
100
AcDbEntity
  8
寸法線
100
AcDbCircle
 10
-314.415738020566
 20
622.822355346317
 30
0.0
 40
3.75
  0
CIRCLE
  5
5222
330
1A
100
AcDbEntity
  8
寸法線
100
AcDbCircle
 10
-263.900298020566
 20
622.822355346317
 30
0.0
 40
1.9999975
  0
CIRCLE
  5
5223
330
1A
100
AcDbEntity
  8
寸法線
100
AcDbCircle
 10
-263.900298020566
 20
622.822355346317
 30
0.0
 40
3.75
  0
CIRCLE
  5
5224
330
1A
100
AcDbEntity
  8
寸法線
100
AcDbCircle
 10
-238.910215520566
 20
622.822355346317
 30
0.0
 40
1.9999975
  0
CIRCLE
  5
5225
330
1A
100
AcDbEntity
  8
寸法線
100
AcDbCircle
 10
-238.910215520566
 20
622.822355346317
 30
0.0
 40
3.75
  0
CIRCLE
  5
5226
330
1A
100
AcDbEntity
  8
寸法線
100
AcDbCircle
 10
-288.533245520566
 20
622.822355346317
 30
0.0
 40
1.9999975
  0
CIRCLE
  5
5227
330
1A
100
AcDbEntity
  8
寸法線
100
AcDbCircle
 10
-288.533245520566
 20
622.822355346317
 30
0.0
 40
3.75
  0
MTEXT
  5
5228
102
{ACAD_XDICTIONARY
360
5229
102
}
330
1A
100
AcDbEntity
  8
寸法線
 62
     1
 48
10.0
100
AcDbMText
 10
-275.670819424229
 20
682.178113798701
 30
0.0
 40
10.0
 41
94.858461499522
 71
     1
 72
     3
  1
シロ クロ
1001
ACADANNOTATIVE
1000
AnnotativeData
1002
{
1070
     1
1070
     0
1002
}
  0
MTEXT
  5
522C
330
1A
100
AcDbEntity
  8
寸法線
 62
     1
 48
10.0
100
AcDbMText
 10
-277.182254157464
 20
629.99814428123
 30
0.0
 40
10.0
 41
141.659430794935
 71
     1
 72
     1
  1
(    )
 11
6.123233995736766E-17
 21
1.0
 31
0.0
  0
MTEXT
  5
522D
102
{ACAD_XDICTIONARY
360
522E
102
}
330
1A
100
AcDbEntity
  8
寸法線
 48
10.0
100
AcDbMText
 10
-277.771861690695
 20
614.587655275443
 30
0.0
 40
7.5
 41
127.25725755372
 71
     1
 72
     5
  1
100/110 0
1001
ACADANNOTATIVE
1000
AnnotativeData
1002
{
1070
     1
1070
     0
1002
}
  0
MTEXT
  5
5231
102
{ACAD_XDICTIONARY
360
5232
102
}
330
1A
100
AcDbEntity
  8
寸法線
 62
     1
 48
10.0
100
AcDbMText
 10
-250.119516256973
 20
681.426604882017
 30
0.0
 40
10.0
 41
94.858461499522
 71
     1
 72
     3
  1
シロ クロ
1001
ACADANNOTATIVE
1000
AnnotativeData
1002
{
1070
     1
1070
     0
1002
}
  0
MTEXT
  5
5235
330
1A
100
AcDbEntity
  8
寸法線
 62
     1
 48
10.0
100
AcDbMText
 10
-251.630950990208
 20
629.246635364547
 30
0.0
 40
10.0
 41
141.659430794935
 71
     1
 72
     1
  1
(    )
 11
6.123233995736766E-17
 21
1.0
 31
0.0
  0
MTEXT
  5
5236
102
{ACAD_XDICTIONARY
360
5237
102
}
330
1A
100
AcDbEntity
  8
寸法線
 48
10.0
100
AcDbMText
 10
-283.854386985106
 20
604.800425868316
 30
0.0
 40
7.5
 41
127.25725755372
 71
     1
 72
     5
  1
(200/220 0)
1001
ACADANNOTATIVE
1000
AnnotativeData
1002
{
1070
     1
1070
     0
1002
}
  0
MTEXT
  5
523A
102
{ACAD_XDICTIONARY
360
523B
102
}
330
1A
100
AcDbEntity
  8
寸法線
 48
10.0
100
AcDbMText
 10
-200.591300125737
 20
651.471190968089
 30
0.0
 40
10.0
 41
314.641674230864
 71
     1
 72
     5
  1
塗　装　色：10YR7.5/14\P接点　容量：AC250V5A\P静止トルク：約10.0N・cm\P回　転　数：1RPM
1001
ACADANNOTATIVE
1000
AnnotativeData
1002
{
1070
     1
1070
     0
1002
}
  0
MTEXT
  5
523E
330
1A
100
AcDbEntity
  8
寸法線
 48
10.0
100
AcDbMText
 10
-175.583444846611
 20
692.70053730788
 30
0.0
 40
10.0
 41
202.063492063492
 71
     1
 72
     5
  1
○印が今回の貴社の御仕様です。
  0
LINE
  5
523F
330
1A
100
AcDbEntity
  8
寸法線
 62
     1
 48
10.0
100
AcDbLine
 10
-203.851436954392
 20
730.464847150223
 30
0.0
 11
-1.072111019897
 21
730.464847150223
 31
0.0
  0
LINE
  5
5240
330
1A
100
AcDbEntity
  8
寸法線
 62
     1
 48
10.0
100
AcDbLine
 10
-203.851436954392
 20
713.887911194915
 30
0.0
 11
-1.072111019897
 21
713.887911194915
 31
0.0
  0
LINE
  5
5241
330
1A
100
AcDbEntity
  8
寸法線
 62
     1
 48
10.0
100
AcDbLine
 10
-203.851436954392
 20
697.310975239607
 30
0.0
 11
-1.072111019897
 21
697.310975239607
 31
0.0
  0
LINE
  5
5242
330
1A
100
AcDbEntity
  8
寸法線
 62
     1
 48
10.0
100
AcDbLine
 10
-203.851436954392
 20
746.716745145623
 30
0.0
 11
-1.072111019897
 21
746.716745145623
 31
0.0
  0
LINE
  5
5243
330
1A
100
AcDbEntity
  8
寸法線
 62
     1
 48
10.0
100
AcDbLine
 10
-162.896654005984
 20
746.716745145623
 30
0.0
 11
-162.896654005984
 21
697.310975239607
 31
0.0
  0
LINE
  5
5244
330
1A
100
AcDbEntity
  8
寸法線
 62
     1
 48
10.0
100
AcDbLine
 10
-203.851436954392
 20
746.716745145623
 30
0.0
 11
-203.851436954392
 21
697.310975239607
 31
0.0
  0
LINE
  5
5245
330
1A
100
AcDbEntity
  8
寸法線
 62
     1
 48
10.0
100
AcDbLine
 10
-81.637164028982
 20
746.716745145623
 30
0.0
 11
-81.637164028982
 21
697.310975239607
 31
0.0
  0
LINE
  5
5246
330
1A
100
AcDbEntity
  8
寸法線
 62
     1
 48
10.0
100
AcDbLine
 10
-1.072111019897
 20
746.716745145623
 30
0.0
 11
-1.072111019897
 21
697.310975239607
 31
0.0
  0
VIEWPORT
  5
2902
330
28FB
100
AcDbEntity
 67
     1
  8
0
 48
10.0
100
AcDbViewport
 10
0.0
 20
0.0
 30
0.0
 40
496.092966997911
 41
316.494753629047
 68
     1
 69
     1
1001
ACAD
1000
MVIEW
1002
{
1070
    16
1010
0.0
1020
0.0
1030
0.0
1010
0.0
1020
0.0
1030
1.0
1040
0.0
1040
316.494753629047
1040
241.592656232486
1040
166.887602510502
1040
50.0
1040
0.0
1040
0.0
1070
    16
1070
   100
1070
     0
1070
     1
1070
     0
1070
     0
1070
     0
1070
     0
1040
0.0
1040
0.0
1040
0.0
1040
10.0
1040
10.0
1040
10.0
1040
10.0
1070
     0
1002
{
1002
}
1002
}
  0
VIEWPORT
  5
2904
330
28FB
100
AcDbEntity
 67
     1
  8
図枠太線
 48
10.0
100
AcDbViewport
 10
204.746305129083
 20
163.011580533901
 30
0.0
 40
400.0
 41
240.0
 68
     2
 69
     2
1001
ACAD
1000
MVIEW
1002
{
1070
    16
1010
0.0
1020
0.0
1030
0.0
1010
0.0
1020
0.0
1030
1.0
1040
0.0
1040
599.999996521364
1040
116.832747667435
1040
840.11582052932
1040
50.0
1040
0.0
1040
0.0
1070
     0
1070
   100
1070
     0
1070
     0
1070
     0
1070
     0
1070
     0
1070
     0
1040
0.0
1040
0.0
1040
0.0
1040
1.0
1040
1.0
1040
0.0
1040
0.0
1070
     0
1002
{
1002
}
1002
}
  0
INSERT
  5
2A59
330
28FB
100
AcDbEntity
 67
     1
  8
図枠太線
100
AcDbBlockReference
  2
A3横用_タイトル
 10
-0.352109406709
 20
-0.514379219625
 30
0.0
  0
MTEXT
  5
3045
330
28FB
100
AcDbEntity
 67
     1
  8
寸法線
 48
10.0
100
AcDbMText
 10
369.221746150436
 20
52.991738217043
 30
0.0
 40
5.0
 41
33.833566292678
 71
     1
 72
     5
  1
台数 　 台
  0
MTEXT
  5
3046
330
28FB
100
AcDbEntity
 67
     1
  8
寸法線
 48
10.0
100
AcDbMText
 10
312.717865269051
 20
35.046409205088
 30
0.0
 40
7.0
 41
41.045003631856
 71
     1
 72
     5
  1
PRL-500W
  0
MTEXT
  5
3047
330
28FB
100
AcDbEntity
 67
     1
  8
寸法線
 48
10.0
100
AcDbMText
 10
364.095941486128
 20
39.548012933158
 30
0.0
 40
5.0
 41
43.047199206047
 71
     1
 72
     5
  1
パドル式\Pレベルスイッチ
  0
MTEXT
  5
3048
102
{ACAD_XDICTIONARY
360
517B
102
}
330
28FB
100
AcDbEntity
 67
     1
  8
寸法線
 48
10.0
100
AcDbMText
 10
340.586568271998
 20
16.2947598931
 30
0.0
 40
8.0
 41
38.04171107615
 71
     1
 72
     5
  1
HR-10014
1001
ACADANNOTATIVE
1000
AnnotativeData
1002
{
1070
     1
1070
     0
1002
}
  0
MTEXT
  5
304A
330
28FB
100
AcDbEntity
 67
     1
  8
寸法線
 48
10.0
100
AcDbMText
 10
145.153429877343
 20
15.338255147255
 30
0.0
 40
7.0
 41
15.363556412778
 71
     1
 72
     5
  1
1:2.5
  0
MTEXT
  5
3C1B
102
{ACAD_XDICTIONARY
360
5181
102
}
330
28FB
100
AcDbEntity
 67
     1
  8
寸法線
 48
10.0
100
AcDbMText
 10
180.841826029599
 20
33.524597466059
 30
0.0
 40
4.5
 41
21.375384236178
 71
     1
 72
     5
  1
ohno
1001
ACADANNOTATIVE
1000
AnnotativeData
1002
{
1070
     1
1070
     0
1002
}
  0
MTEXT
  5
3C1C
102
{ACAD_XDICTIONARY
360
517E
102
}
330
28FB
100
AcDbEntity
 67
     1
  8
寸法線
 48
10.0
100
AcDbMText
 10
175.231871779429
 20
14.102084476058
 30
0.0
 40
4.0
 41
23.156665718806
 71
     1
 72
     5
  1
\H1.25x;2015.6.11
1001
ACADANNOTATIVE
1000
AnnotativeData
1002
{
1070
     1
1070
     0
1002
}
  0
ENDSEC
  0
SECTION
  2
OBJECTS
  0
DICTIONARY
  5
C
330
0
100
AcDbDictionary
  3
ACAD_COLOR
350
2948
  3
ACAD_GROUP
350
D
  3
ACAD_LAYOUT
350
2816
  3
ACAD_MATERIAL
350
2947
  3
ACAD_MLEADERSTYLE
350
50DD
  3
ACAD_MLINESTYLE
350
E
  3
ACAD_PLOTSETTINGS
350
2817
  3
ACAD_SCALELIST
350
50B6
  3
ACAD_VISUALSTYLE
350
509D
  3
ACDBHEADERROUNDTRIPXREC
350
524A
  3
ACDBVARIABLEDICTIONARY
350
510F
  3
DWGPROPS
350
526F
  0
DICTIONARY
  5
5270
330
8
100
AcDbDictionary
280
     1
  3
ACAD_XREC_ROUNDTRIP
360
5271
  0
DICTIONARY
  5
29EA
330
2
100
AcDbDictionary
280
     1
  3
ACAD_LAYERFILTERS
360
2B0C
  3
ACAD_LAYERSTATES
360
29EB
  0
DICTIONARY
  5
5247
330
3CA4
100
AcDbDictionary
280
     1
  3
ACDBCONTEXTDATAMANAGER
360
5248
  0
DICTIONARY
  5
51FE
330
51FD
100
AcDbDictionary
280
     1
  3
ACDBCONTEXTDATAMANAGER
360
51FF
  0
DICTIONARY
  5
5202
330
5201
100
AcDbDictionary
280
     1
  3
ACDBCONTEXTDATAMANAGER
360
5203
  0
DICTIONARY
  5
5229
330
5228
100
AcDbDictionary
280
     1
  3
ACDBCONTEXTDATAMANAGER
360
522A
  0
DICTIONARY
  5
522E
330
522D
100
AcDbDictionary
280
     1
  3
ACDBCONTEXTDATAMANAGER
360
522F
  0
DICTIONARY
  5
5232
330
5231
100
AcDbDictionary
280
     1
  3
ACDBCONTEXTDATAMANAGER
360
5233
  0
DICTIONARY
  5
5237
330
5236
100
AcDbDictionary
280
     1
  3
ACDBCONTEXTDATAMANAGER
360
5238
  0
DICTIONARY
  5
523B
330
523A
100
AcDbDictionary
280
     1
  3
ACDBCONTEXTDATAMANAGER
360
523C
  0
DICTIONARY
  5
517B
330
3048
100
AcDbDictionary
280
     1
  3
ACDBCONTEXTDATAMANAGER
360
517C
  0
DICTIONARY
  5
5181
330
3C1B
100
AcDbDictionary
280
     1
  3
ACDBCONTEXTDATAMANAGER
360
5182
  0
DICTIONARY
  5
517E
330
3C1C
100
AcDbDictionary
280
     1
  3
ACDBCONTEXTDATAMANAGER
360
517F
  0
DICTIONARY
  5
2948
102
{ACAD_REACTORS
330
C
102
}
330
C
100
AcDbDictionary
  0
DICTIONARY
  5
D
102
{ACAD_REACTORS
330
C
102
}
330
C
100
AcDbDictionary
  0
DICTIONARY
  5
2816
102
{ACAD_REACTORS
330
C
102
}
330
C
100
AcDbDictionary
  0
DICTIONARY
  5
2947
102
{ACAD_REACTORS
330
C
102
}
330
C
100
AcDbDictionary
  3
BYBLOCK
350
50D9
  3
BYLAYER
350
50D8
  3
GLOBAL
350
50DA
  0
DICTIONARY
  5
50DD
102
{ACAD_REACTORS
330
C
102
}
330
C
100
AcDbDictionary
  3
STANDARD
350
50DE
  0
DICTIONARY
  5
E
102
{ACAD_REACTORS
330
C
102
}
330
C
100
AcDbDictionary
  3
STANDARD
350
13
  0
DICTIONARY
  5
2817
102
{ACAD_REACTORS
330
C
102
}
330
C
100
AcDbDictionary
  0
DICTIONARY
  5
50B6
102
{ACAD_REACTORS
330
C
102
}
330
C
100
AcDbDictionary
  3
A0
350
50B7
  3
A1
350
50B8
  3
A2
350
50B9
  3
A3
350
50BA
  3
A4
350
50BB
  3
A5
350
50BC
  3
A6
350
50BD
  3
A7
350
50BE
  3
A8
350
50BF
  3
A9
350
50C0
  3
B0
350
50C1
  3
B1
350
50C2
  3
B2
350
50C3
  3
B3
350
50C4
  3
B4
350
50C5
  3
B5
350
50C6
  3
B6
350
50C7
  3
B7
350
50C8
  3
B8
350
50C9
  3
B9
350
50CA
  3
C0
350
50CB
  3
C1
350
50CC
  3
C2
350
50CD
  3
C3
350
50CE
  3
C4
350
50CF
  3
C5
350
50D0
  3
C6
350
50D1
  3
C7
350
50D2
  3
C8
350
50D3
  3
C9
350
50D4
  3
D0
350
50D5
  3
D1
350
50D6
  3
D2
350
50D7
  0
DICTIONARY
  5
509D
102
{ACAD_REACTORS
330
C
102
}
330
C
100
AcDbDictionary
  3
2DWIREFRAME
350
50A2
  3
BASIC
350
50A5
  3
BRIGHTEN
350
50A9
  3
COLORCHANGE
350
50AD
  3
CONCEPTUAL
350
50A7
  3
DIM
350
50A8
  3
EDGECOLOROFF
350
50B0
  3
FACEPATTERN
350
50AC
  3
FLAT
350
509E
  3
FLATWITHEDGES
350
509F
  3
GOURAUD
350
50A0
  3
GOURAUDWITHEDGES
350
50A1
  3
HIDDEN
350
50A4
  3
JITTEROFF
350
50AE
  3
LINEPATTERN
350
50AB
  3
OVERHANGOFF
350
50AF
  3
REALISTIC
350
50A6
  3
SHADED
350
50B5
  3
SHADED_WITH_EDGES
350
50B4
  3
SHADES_OF_GRAY
350
50B1
  3
SKETCHY
350
50B2
  3
THICKEN
350
50AA
  3
WIREFRAME
350
50A3
  3
X-RAY
350
50B3
  0
DICTIONARY
  5
524A
102
{ACAD_REACTORS
330
C
102
}
330
C
100
AcDbDictionary
  3
CEPSNID
350
5254
  3
CEPSNTYPE
350
5253
  3
COLORDICT
350
526D
  3
DIMSTYLEDATA
350
526A
  3
FINGERPRINTGUID
350
5255
  3
HYPERLINKBASE
350
524D
  3
INSUNITS
350
5252
  3
LAYOUTDICT
350
524F
  3
LWETCUNION
350
5251
  3
MATERIALDICT
350
526E
  3
PLOTSETDICT
350
5250
  3
PSVPSCALE
350
5257
  3
PUCSBASE
350
525A
  3
PUCSORGBACK
350
5260
  3
PUCSORGBOTTOM
350
525C
  3
PUCSORGFRONT
350
525F
  3
PUCSORGLEFT
350
525D
  3
PUCSORGRIGHT
350
525E
  3
PUCSORGTOP
350
525B
  3
PUCSORTHOREF
350
5258
  3
PUCSORTHOVIEW
350
5259
  3
STYLESHEET
350
524E
  3
TSTACKALIGN
350
524B
  3
TSTACKSIZE
350
524C
  3
UCSBASE
350
5263
  3
UCSORGBACK
350
5269
  3
UCSORGBOTTOM
350
5265
  3
UCSORGFRONT
350
5268
  3
UCSORGLEFT
350
5266
  3
UCSORGRIGHT
350
5267
  3
UCSORGTOP
350
5264
  3
UCSORTHOREF
350
5261
  3
UCSORTHOVIEW
350
5262
  3
VERSIONGUID
350
5256
  0
DICTIONARY
  5
510F
102
{ACAD_REACTORS
330
C
102
}
330
C
100
AcDbDictionary
  3
CANNOSCALE
350
5110
  3
CMLEADERSTYLE
350
5112
  3
CTABLESTYLE
350
5111
  3
DIMASSOC
350
526B
  3
HIDETEXT
350
526C
  3
MSLTSCALE
350
5113
  3
XCLIPFRAME
350
5114
  0
XRECORD
  5
526F
102
{ACAD_REACTORS
330
C
102
}
330
C
100
AcDbXrecord
  1
DWGPROPS COOKIE
  2

  3

  4

  6

  7

  8
y-ohno
  9

300
=
301
=
302
=
303
=
304
=
305
=
306
=
307
=
308
=
309
=
 40
0.0
 41
2450576.222302431
 42
2457191.280213148
  1

 90
        0
  0
XRECORD
  5
5271
102
{ACAD_REACTORS
330
5270
102
}
330
5270
100
AcDbXrecord
102
VTR_0.000_0.000_1.000_1.000_VISUALSTYLE
340
50A2
102
VTR_0.000_0.000_1.000_1.000_GRIDDISPLAY
 70
     3
102
VTR_0.000_0.000_1.000_1.000_GRIDMAJOR
 70
     5
102
VTR_0.000_0.000_1.000_1.000_DEFAULTLIGHTING
280
     1
102
VTR_0.000_0.000_1.000_1.000_DEFAULTLIGHTINGTYPE
 70
     1
102
VTR_0.000_0.000_1.000_1.000_BRIGHTNESS
141
0.0
102
VTR_0.000_0.000_1.000_1.000_CONTRAST
142
0.0
  0
DICTIONARY
  5
2B0C
102
{ACAD_REACTORS
330
29EA
102
}
330
29EA
100
AcDbDictionary
  0
DICTIONARY
  5
29EB
102
{ACAD_REACTORS
330
29EA
102
}
330
29EA
100
AcDbDictionary
  0
DICTIONARY
  5
5248
102
{ACAD_REACTORS
330
5247
102
}
330
5247
100
AcDbDictionary
  3
ACDB_ANNOTATIONSCALES
350
5249
  0
DICTIONARY
  5
51FF
102
{ACAD_REACTORS
330
51FE
102
}
330
51FE
100
AcDbDictionary
  3
ACDB_ANNOTATIONSCALES
350
5200
  0
DICTIONARY
  5
5203
102
{ACAD_REACTORS
330
5202
102
}
330
5202
100
AcDbDictionary
  3
ACDB_ANNOTATIONSCALES
350
5204
  0
DICTIONARY
  5
522A
102
{ACAD_REACTORS
330
5229
102
}
330
5229
100
AcDbDictionary
  3
ACDB_ANNOTATIONSCALES
350
522B
  0
DICTIONARY
  5
522F
102
{ACAD_REACTORS
330
522E
102
}
330
522E
100
AcDbDictionary
  3
ACDB_ANNOTATIONSCALES
350
5230
  0
DICTIONARY
  5
5233
102
{ACAD_REACTORS
330
5232
102
}
330
5232
100
AcDbDictionary
  3
ACDB_ANNOTATIONSCALES
350
5234
  0
DICTIONARY
  5
5238
102
{ACAD_REACTORS
330
5237
102
}
330
5237
100
AcDbDictionary
  3
ACDB_ANNOTATIONSCALES
350
5239
  0
DICTIONARY
  5
523C
102
{ACAD_REACTORS
330
523B
102
}
330
523B
100
AcDbDictionary
  3
ACDB_ANNOTATIONSCALES
350
523D
  0
DICTIONARY
  5
517C
102
{ACAD_REACTORS
330
517B
102
}
330
517B
100
AcDbDictionary
  3
ACDB_ANNOTATIONSCALES
350
517D
  0
DICTIONARY
  5
5182
102
{ACAD_REACTORS
330
5181
102
}
330
5181
100
AcDbDictionary
  3
ACDB_ANNOTATIONSCALES
350
5183
  0
DICTIONARY
  5
517F
102
{ACAD_REACTORS
330
517E
102
}
330
517E
100
AcDbDictionary
  3
ACDB_ANNOTATIONSCALES
350
5180
  0
MATERIAL
  5
50D9
102
{ACAD_REACTORS
330
2947
102
}
102
{ACAD_XDICTIONARY
360
5274
102
}
330
2947
100
AcDbMaterial
  1
BYBLOCK
  0
MATERIAL
  5
50D8
102
{ACAD_REACTORS
330
2947
102
}
102
{ACAD_XDICTIONARY
360
5272
102
}
330
2947
100
AcDbMaterial
  1
BYLAYER
  0
MATERIAL
  5
50DA
102
{ACAD_REACTORS
330
2947
102
}
102
{ACAD_XDICTIONARY
360
5276
102
}
330
2947
100
AcDbMaterial
  1
GLOBAL
  0
ACAD_PROXY_OBJECT
  5
50DE
102
{ACAD_REACTORS
330
50DD
102
}
330
50DD
100
AcDbProxyObject
 90
      499
 91
      508
 93
      610
310
40901902A4063FBFFFFFE0000000000000020400000000000020404214DD185B99185C990000000000000104090141901A00000000000004100000000000000041025764000000000000039000
340
14
340
0
340
10
340
0
 94
        0
1001
ACAD_MLEADERVER
1070
     2
  0
MLINESTYLE
  5
13
102
{ACAD_REACTORS
330
E
102
}
330
E
100
AcDbMlineStyle
  2
STANDARD
 70
     0
  3

 62
     0
 51
90.0
 52
90.0
 71
     2
 49
0.5
 62
   256
  6
BYLAYER
 49
-0.5
 62
   256
  6
BYLAYER
  0
ACAD_PROXY_OBJECT
  5
50B7
102
{ACAD_REACTORS
330
50B6
102
}
330
50B6
100
AcDbProxyObject
 90
      499
 91
      505
 93
       41
310
903313A31580
  0
ACAD_PROXY_OBJECT
  5
50B8
102
{ACAD_REACTORS
330
50B6
102
}
330
50B6
100
AcDbProxyObject
 90
      499
 91
      505
 93
      105
310
903313A324000000000000004000
  0
ACAD_PROXY_OBJECT
  5
50B9
102
{ACAD_REACTORS
330
50B6
102
}
330
50B6
100
AcDbProxyObject
 90
      499
 91
      505
 93
      105
310
903313A344000000000000104000
  0
ACAD_PROXY_OBJECT
  5
50BA
102
{ACAD_REACTORS
330
50B6
102
}
330
50B6
100
AcDbProxyObject
 90
      499
 91
      505
 93
      105
310
903313A354000000000000144000
  0
ACAD_PROXY_OBJECT
  5
50BB
102
{ACAD_REACTORS
330
50B6
102
}
330
50B6
100
AcDbProxyObject
 90
      499
 91
      505
 93
      105
310
903313A384000000000000204000
  0
ACAD_PROXY_OBJECT
  5
50BC
102
{ACAD_REACTORS
330
50B6
102
}
330
50B6
100
AcDbProxyObject
 90
      499
 91
      505
 93
      113
310
904313A31304000000000000244000
  0
ACAD_PROXY_OBJECT
  5
50BD
102
{ACAD_REACTORS
330
50B6
102
}
330
50B6
100
AcDbProxyObject
 90
      499
 91
      505
 93
      113
310
904313A31364000000000000304000
  0
ACAD_PROXY_OBJECT
  5
50BE
102
{ACAD_REACTORS
330
50B6
102
}
330
50B6
100
AcDbProxyObject
 90
      499
 91
      505
 93
      113
310
904313A32304000000000000344000
  0
ACAD_PROXY_OBJECT
  5
50BF
102
{ACAD_REACTORS
330
50B6
102
}
330
50B6
100
AcDbProxyObject
 90
      499
 91
      505
 93
      113
310
904313A333040000000000003E4000
  0
ACAD_PROXY_OBJECT
  5
50C0
102
{ACAD_REACTORS
330
50B6
102
}
330
50B6
100
AcDbProxyObject
 90
      499
 91
      505
 93
      113
310
904313A34304000000000000444000
  0
ACAD_PROXY_OBJECT
  5
50C1
102
{ACAD_REACTORS
330
50B6
102
}
330
50B6
100
AcDbProxyObject
 90
      499
 91
      505
 93
      113
310
904313A35304000000000000494000
  0
ACAD_PROXY_OBJECT
  5
50C2
102
{ACAD_REACTORS
330
50B6
102
}
330
50B6
100
AcDbProxyObject
 90
      499
 91
      505
 93
      121
310
905313A3130304000000000000594000
  0
ACAD_PROXY_OBJECT
  5
50C3
102
{ACAD_REACTORS
330
50B6
102
}
330
50B6
100
AcDbProxyObject
 90
      499
 91
      505
 93
      105
310
903323A310000000000000010100
  0
ACAD_PROXY_OBJECT
  5
50C4
102
{ACAD_REACTORS
330
50B6
102
}
330
50B6
100
AcDbProxyObject
 90
      499
 91
      505
 93
      105
310
903343A310000000000000410100
  0
ACAD_PROXY_OBJECT
  5
50C5
102
{ACAD_REACTORS
330
50B6
102
}
330
50B6
100
AcDbProxyObject
 90
      499
 91
      505
 93
      105
310
903383A310000000000000810100
  0
ACAD_PROXY_OBJECT
  5
50C6
102
{ACAD_REACTORS
330
50B6
102
}
330
50B6
100
AcDbProxyObject
 90
      499
 91
      505
 93
      113
310
90431303A310000000000000910100
  0
ACAD_PROXY_OBJECT
  5
50C7
102
{ACAD_REACTORS
330
50B6
102
}
330
50B6
100
AcDbProxyObject
 90
      499
 91
      505
 93
      121
310
9053130303A310000000000001650100
  0
ACAD_PROXY_OBJECT
  5
50C8
102
{ACAD_REACTORS
330
50B6
102
}
330
50B6
100
AcDbProxyObject
 90
      499
 91
      505
 93
      257
310
90E312F31323822203D2031272D3022000000000000200FC000000000000284000
  0
ACAD_PROXY_OBJECT
  5
50C9
102
{ACAD_REACTORS
330
50B6
102
}
330
50B6
100
AcDbProxyObject
 90
      499
 91
      505
 93
      249
310
90D312F363422203D2031272D3022000000000000240FC000000000000284000
  0
ACAD_PROXY_OBJECT
  5
50CA
102
{ACAD_REACTORS
330
50B6
102
}
330
50B6
100
AcDbProxyObject
 90
      499
 91
      505
 93
      249
310
90D312F333222203D2031272D3022000000000000280FC000000000000284000
  0
ACAD_PROXY_OBJECT
  5
50CB
102
{ACAD_REACTORS
330
50B6
102
}
330
50B6
100
AcDbProxyObject
 90
      499
 91
      505
 93
      249
310
90D312F313622203D2031272D30220000000000002C0FC000000000000284000
  0
ACAD_PROXY_OBJECT
  5
50CC
102
{ACAD_REACTORS
330
50B6
102
}
330
50B6
100
AcDbProxyObject
 90
      499
 91
      505
 93
      249
310
90D332F333222203D2031272D30220000000000002E0FC000000000000284000
  0
ACAD_PROXY_OBJECT
  5
50CD
102
{ACAD_REACTORS
330
50B6
102
}
330
50B6
100
AcDbProxyObject
 90
      499
 91
      505
 93
      241
310
90C312F3822203D2031272D3022000000000000300FC000000000000284000
  0
ACAD_PROXY_OBJECT
  5
50CE
102
{ACAD_REACTORS
330
50B6
102
}
330
50B6
100
AcDbProxyObject
 90
      499
 91
      505
 93
      249
310
90D332F313622203D2031272D3022000000000000320FC000000000000284000
  0
ACAD_PROXY_OBJECT
  5
50CF
102
{ACAD_REACTORS
330
50B6
102
}
330
50B6
100
AcDbProxyObject
 90
      499
 91
      505
 93
      241
310
90C312F3422203D2031272D3022000000000000340FC000000000000284000
  0
ACAD_PROXY_OBJECT
  5
50D0
102
{ACAD_REACTORS
330
50B6
102
}
330
50B6
100
AcDbProxyObject
 90
      499
 91
      505
 93
      241
310
90C332F3822203D2031272D3022000000000000360FC000000000000284000
  0
ACAD_PROXY_OBJECT
  5
50D1
102
{ACAD_REACTORS
330
50B6
102
}
330
50B6
100
AcDbProxyObject
 90
      499
 91
      505
 93
      241
310
90C312F3222203D2031272D3022000000000000380FC000000000000284000
  0
ACAD_PROXY_OBJECT
  5
50D2
102
{ACAD_REACTORS
330
50B6
102
}
330
50B6
100
AcDbProxyObject
 90
      499
 91
      505
 93
      241
310
90C332F3422203D2031272D30220000000000003A0FC000000000000284000
  0
ACAD_PROXY_OBJECT
  5
50D3
102
{ACAD_REACTORS
330
50B6
102
}
330
50B6
100
AcDbProxyObject
 90
      499
 91
      505
 93
      161
310
90A3122203D2031272D30224000000000000284000
  0
ACAD_PROXY_OBJECT
  5
50D4
102
{ACAD_REACTORS
330
50B6
102
}
330
50B6
100
AcDbProxyObject
 90
      499
 91
      505
 93
      257
310
90E312D312F3222203D2031272D30220000000000003E0FC000000000000284000
  0
ACAD_PROXY_OBJECT
  5
50D5
102
{ACAD_REACTORS
330
50B6
102
}
330
50B6
100
AcDbProxyObject
 90
      499
 91
      505
 93
      225
310
90A3322203D2031272D302200000000000002100000000000000284000
  0
ACAD_PROXY_OBJECT
  5
50D6
102
{ACAD_REACTORS
330
50B6
102
}
330
50B6
100
AcDbProxyObject
 90
      499
 91
      505
 93
      225
310
90A3622203D2031272D302200000000000006100000000000000284000
  0
ACAD_PROXY_OBJECT
  5
50D7
102
{ACAD_REACTORS
330
50B6
102
}
330
50B6
100
AcDbProxyObject
 90
      499
 91
      505
 93
      249
310
90D31272D3022203D2031272D30220000000000000A100000000000000284000
  0
ACAD_PROXY_OBJECT
  5
50A2
102
{ACAD_REACTORS
330
509D
102
}
330
509D
100
AcDbProxyObject
 90
      499
 91
      504
 93
      436
310
42CC9915DA5C99599C985B595049028333333333333E33F0000000000000F90107901411070040501600405405064090741402480A0340
1001
ACAD
1000
AcDbSavedByObjectVersion
1070
     0
  0
ACAD_PROXY_OBJECT
  5
50A5
102
{ACAD_REACTORS
330
509D
102
}
330
509D
100
AcDbProxyObject
 90
      499
 91
      504
 93
      388
310
4150985CDA58D07406404333333333333E33F0000000000000F90107A41107004050150841D405064090741402480A0350
1001
ACAD
1000
AcDbSavedByObjectVersion
1070
     0
  0
ACAD_PROXY_OBJECT
  5
50A9
102
{ACAD_REACTORS
330
509D
102
}
330
509D
100
AcDbProxyObject
 90
      499
 91
      504
 93
      428
310
42109C9A59DA1D195B90C409028333333333333E33F0000000000000F9010790141107004050150841D405064090741402480A029950
1001
ACAD
1000
AcDbSavedByObjectVersion
1070
     0
  0
ACAD_PROXY_OBJECT
  5
50AD
102
{ACAD_REACTORS
330
509D
102
}
330
509D
100
AcDbProxyObject
 90
      499
 91
      504
 93
      452
310
42D0DBDB1BDC90DA185B99D95104090240C333333333333E33F0000000000000F90108901411070040501508421405064090741402480A0350
1001
ACAD
1000
AcDbSavedByObjectVersion
1070
     0
  0
ACAD_PROXY_OBJECT
  5
50A7
102
{ACAD_REACTORS
330
509D
102
}
330
509D
100
AcDbProxyObject
 90
      499
 91
      504
 93
      500
310
4290DBDB98D95C1D1D585B10940D028333333333333E33F0000000000000F90107902409070040501000000000018199010841D405064090740C02480A0340
1001
ACAD
1000
AcDbSavedByObjectVersion
1070
     0
  0
ACAD_PROXY_OBJECT
  5
50A8
102
{ACAD_REACTORS
330
509D
102
}
330
509D
100
AcDbProxyObject
 90
      499
 91
      504
 93
      412
310
40D11A5B50B409028333333333333E33F0000000000000F9010790141107004050150841D405064090741402480A02677FFFFFD0
1001
ACAD
1000
AcDbSavedByObjectVersion
1070
     0
  0
ACAD_PROXY_OBJECT
  5
50B0
102
{ACAD_REACTORS
330
509D
102
}
330
509D
100
AcDbProxyObject
 90
      499
 91
      504
 93
      452
310
43115919D950DBDB1BDC93D999916409028333333333333E33F0000000000000F9010790141107004050150841D405064090741402480A0350
1001
ACAD
1000
AcDbSavedByObjectVersion
1070
     0
  0
ACAD_PROXY_OBJECT
  5
50AC
102
{ACAD_REACTORS
330
509D
102
}
330
509D
100
AcDbProxyObject
 90
      499
 91
      504
 93
      444
310
42D19858D95C185D1D195C9B90F409028333333333333E33F0000000000000F9010790141107004050150841D405064090741402480A0350
1001
ACAD
1000
AcDbSavedByObjectVersion
1070
     0
  0
ACAD_PROXY_OBJECT
  5
509E
102
{ACAD_REACTORS
330
509D
102
}
330
509D
100
AcDbProxyObject
 90
      499
 91
      504
 93
      380
310
41119B185D240901404333333333333E33F0000000000000F9010740A907004050150841D405064090741402480A1B50
1001
ACAD
1000
AcDbSavedByObjectVersion
1070
     0
  0
ACAD_PROXY_OBJECT
  5
509F
102
{ACAD_REACTORS
330
509D
102
}
330
509D
100
AcDbProxyObject
 90
      499
 91
      504
 93
      468
310
43519B185D15DA5D1A115919D95CD0140901404333333333333E33F0000000000000F90107409019070040501600405405064090741402480A1B50
1001
ACAD
1000
AcDbSavedByObjectVersion
1070
     0
  0
ACAD_PROXY_OBJECT
  5
50A0
102
{ACAD_REACTORS
330
509D
102
}
330
509D
100
AcDbProxyObject
 90
      499
 91
      504
 93
      404
310
41D1DBDD5C985D5910240902404333333333333E33F0000000000000F9010740A9070040501641D405064090741402480A1B50
1001
ACAD
1000
AcDbSavedByObjectVersion
1070
     0
  0
ACAD_PROXY_OBJECT
  5
50A1
102
{ACAD_REACTORS
330
509D
102
}
330
509D
100
AcDbProxyObject
 90
      499
 91
      504
 93
      492
310
4411DBDD5C985D5915DA5D1A115919D95CD0340902404333333333333E33F0000000000000F90107409019070040501600405405064090741402480A1B50
1001
ACAD
1000
AcDbSavedByObjectVersion
1070
     0
  0
ACAD_PROXY_OBJECT
  5
50A4
102
{ACAD_REACTORS
330
509D
102
}
330
509D
100
AcDbProxyObject
 90
      499
 91
      504
 93
      476
310
41921A5919195B90640502408333333333333E33F0000000000000F901079024090700405020000000000001110200405405064090740C02480A0340
1001
ACAD
1000
AcDbSavedByObjectVersion
1070
     0
  0
ACAD_PROXY_OBJECT
  5
50AE
102
{ACAD_REACTORS
330
509D
102
}
330
509D
100
AcDbProxyObject
 90
      499
 91
      504
 93
      428
310
42529A5D1D195C93D999914409028333333333333E33F0000000000000F9010790141107004050150A41D405064090741402480A0350
1001
ACAD
1000
AcDbSavedByObjectVersion
1070
     0
  0
ACAD_PROXY_OBJECT
  5
50AB
102
{ACAD_REACTORS
330
509D
102
}
330
509D
100
AcDbProxyObject
 90
      499
 91
      504
 93
      444
310
42D31A5B995C185D1D195C9B90E409028333333333333E33F0000000000000F9010790141107004050750841D405064090741402483A0350
1001
ACAD
1000
AcDbSavedByObjectVersion
1070
     0
  0
ACAD_PROXY_OBJECT
  5
50AF
102
{ACAD_REACTORS
330
509D
102
}
330
509D
100
AcDbProxyObject
 90
      499
 91
      504
 93
      444
310
42D3DD995C9A185B99D3D999915409028333333333333E33F0000000000000F9010790141107004050150941D405064090741402480A0350
1001
ACAD
1000
AcDbSavedByObjectVersion
1070
     0
  0
ACAD_PROXY_OBJECT
  5
50A6
102
{ACAD_REACTORS
330
509D
102
}
330
509D
100
AcDbProxyObject
 90
      499
 91
      504
 93
      428
310
425499585B1A5CDD1A58D08409038333333333333E33F0000000000000F9010740A907004050150800405405064090740C02480A1B40
1001
ACAD
1000
AcDbSavedByObjectVersion
1070
     0
  0
ACAD_PROXY_OBJECT
  5
50B5
102
{ACAD_REACTORS
330
509D
102
}
330
509D
100
AcDbProxyObject
 90
      499
 91
      504
 93
      420
310
4194DA1859195911B40902404333333333333E33F0000000000000F9010740A41107004050150800405405064090840C02480A0B40
1001
ACAD
1000
AcDbSavedByObjectVersion
1070
     0
  0
ACAD_PROXY_OBJECT
  5
50B4
102
{ACAD_REACTORS
330
509D
102
}
330
509D
100
AcDbProxyObject
 90
      499
 91
      504
 93
      516
310
4454DA18591959081DDA5D1A08195919D95CD1A40902404333333333333E33F0000000000000F901074090142907004050250800405405064090740C02480A0B40
1001
ACAD
1000
AcDbSavedByObjectVersion
1070
     0
  0
ACAD_PROXY_OBJECT
  5
50B1
102
{ACAD_REACTORS
330
509D
102
}
330
509D
100
AcDbProxyObject
 90
      499
 91
      504
 93
      532
310
4394DA1859195CC81BD98811DC985E5174090240C333333333333E33F0000000000000F901079024090741D01000000000000111010841D405064090740C02480A0340
1001
ACAD
1000
AcDbSavedByObjectVersion
1070
     0
  0
ACAD_PROXY_OBJECT
  5
50B2
102
{ACAD_REACTORS
330
509D
102
}
330
509D
100
AcDbProxyObject
 90
      499
 91
      504
 93
      476
310
41D4DAD95D18DA1E51840502408333333333333E33F0000000000000F901079024090741D01000000000000111010B41D405064090741802480A0340
1001
ACAD
1000
AcDbSavedByObjectVersion
1070
     0
  0
ACAD_PROXY_OBJECT
  5
50AA
102
{ACAD_REACTORS
330
509D
102
}
330
509D
100
AcDbProxyObject
 90
      499
 91
      504
 93
      412
310
41D51A1A58DAD95B90D409028333333333333E33F0000000000000F9010790141107004050150C41D405064090741402480A0350
1001
ACAD
1000
AcDbSavedByObjectVersion
1070
     0
  0
ACAD_PROXY_OBJECT
  5
50A3
102
{ACAD_REACTORS
330
509D
102
}
330
509D
100
AcDbProxyObject
 90
      499
 91
      504
 93
      420
310
4255DA5C99599C985B595059028333333333333E33F0000000000000F90107901411070040501600405405064090740C02480A0340
1001
ACAD
1000
AcDbSavedByObjectVersion
1070
     0
  0
ACAD_PROXY_OBJECT
  5
50B3
102
{ACAD_REACTORS
330
509D
102
}
330
509D
100
AcDbProxyObject
 90
      499
 91
      504
 93
      404
310
41560B54985E51940902404000000000000E03F0000000000000F9010740501907004050150841D405064090740C02480A1B40
1001
ACAD
1000
AcDbSavedByObjectVersion
1070
     0
  0
XRECORD
  5
5254
102
{ACAD_REACTORS
330
524A
102
}
330
524A
100
AcDbXrecord
340
0
  0
XRECORD
  5
5253
102
{ACAD_REACTORS
330
524A
102
}
330
524A
100
AcDbXrecord
 90
        0
  0
XRECORD
  5
526D
102
{ACAD_REACTORS
330
524A
102
}
330
524A
100
AcDbXrecord
340
2948
  0
XRECORD
  5
526A
102
{ACAD_REACTORS
330
524A
102
}
330
524A
100
AcDbXrecord
1000
DSTYLE
1002
{
1070
   171
 70
     2
1070
   143
 40
0.0394
1070
   274
 70
     2
1070
    41
 40
6.0
1070
   342
340
2AF4
1070
   271
 70
     1
1070
   278
 70
    46
1070
   341
340
2AF4
1070
   272
 70
     1
1070
    48
 40
0.1
1070
   283
 70
     1
1070
    47
 40
0.1
1070
   145
 40
1.0
1070
   340
340
10
1070
   140
 40
5.0
1070
   284
 70
     0
1002
}
  0
XRECORD
  5
5255
102
{ACAD_REACTORS
330
524A
102
}
330
524A
100
AcDbXrecord
  1
{23698909-1D67-4744-B0E2-8DE11E3ED422}
  0
XRECORD
  5
524D
102
{ACAD_REACTORS
330
524A
102
}
330
524A
100
AcDbXrecord
  1

  0
XRECORD
  5
5252
102
{ACAD_REACTORS
330
524A
102
}
330
524A
100
AcDbXrecord
 90
        0
  0
XRECORD
  5
524F
102
{ACAD_REACTORS
330
524A
102
}
330
524A
100
AcDbXrecord
340
2816
  0
XRECORD
  5
5251
102
{ACAD_REACTORS
330
524A
102
}
330
524A
100
AcDbXrecord
 90
    10781
  0
XRECORD
  5
526E
102
{ACAD_REACTORS
330
524A
102
}
330
524A
100
AcDbXrecord
340
2947
  0
XRECORD
  5
5250
102
{ACAD_REACTORS
330
524A
102
}
330
524A
100
AcDbXrecord
340
2817
  0
XRECORD
  5
5257
102
{ACAD_REACTORS
330
524A
102
}
330
524A
100
AcDbXrecord
 40
0.25
  0
XRECORD
  5
525A
102
{ACAD_REACTORS
330
524A
102
}
330
524A
100
AcDbXrecord
340
0
  0
XRECORD
  5
5260
102
{ACAD_REACTORS
330
524A
102
}
330
524A
100
AcDbXrecord
 10
0.0
 20
0.0
 30
0.0
  0
XRECORD
  5
525C
102
{ACAD_REACTORS
330
524A
102
}
330
524A
100
AcDbXrecord
 10
0.0
 20
0.0
 30
0.0
  0
XRECORD
  5
525F
102
{ACAD_REACTORS
330
524A
102
}
330
524A
100
AcDbXrecord
 10
0.0
 20
0.0
 30
0.0
  0
XRECORD
  5
525D
102
{ACAD_REACTORS
330
524A
102
}
330
524A
100
AcDbXrecord
 10
0.0
 20
0.0
 30
0.0
  0
XRECORD
  5
525E
102
{ACAD_REACTORS
330
524A
102
}
330
524A
100
AcDbXrecord
 10
0.0
 20
0.0
 30
0.0
  0
XRECORD
  5
525B
102
{ACAD_REACTORS
330
524A
102
}
330
524A
100
AcDbXrecord
 10
0.0
 20
0.0
 30
0.0
  0
XRECORD
  5
5258
102
{ACAD_REACTORS
330
524A
102
}
330
524A
100
AcDbXrecord
340
0
  0
XRECORD
  5
5259
102
{ACAD_REACTORS
330
524A
102
}
330
524A
100
AcDbXrecord
 70
     0
  0
XRECORD
  5
524E
102
{ACAD_REACTORS
330
524A
102
}
330
524A
100
AcDbXrecord
  1

  0
XRECORD
  5
524B
102
{ACAD_REACTORS
330
524A
102
}
330
524A
100
AcDbXrecord
 90
        1
  0
XRECORD
  5
524C
102
{ACAD_REACTORS
330
524A
102
}
330
524A
100
AcDbXrecord
 90
       70
  0
XRECORD
  5
5263
102
{ACAD_REACTORS
330
524A
102
}
330
524A
100
AcDbXrecord
340
0
  0
XRECORD
  5
5269
102
{ACAD_REACTORS
330
524A
102
}
330
524A
100
AcDbXrecord
 10
0.0
 20
0.0
 30
0.0
  0
XRECORD
  5
5265
102
{ACAD_REACTORS
330
524A
102
}
330
524A
100
AcDbXrecord
 10
0.0
 20
0.0
 30
0.0
  0
XRECORD
  5
5268
102
{ACAD_REACTORS
330
524A
102
}
330
524A
100
AcDbXrecord
 10
0.0
 20
0.0
 30
0.0
  0
XRECORD
  5
5266
102
{ACAD_REACTORS
330
524A
102
}
330
524A
100
AcDbXrecord
 10
0.0
 20
0.0
 30
0.0
  0
XRECORD
  5
5267
102
{ACAD_REACTORS
330
524A
102
}
330
524A
100
AcDbXrecord
 10
0.0
 20
0.0
 30
0.0
  0
XRECORD
  5
5264
102
{ACAD_REACTORS
330
524A
102
}
330
524A
100
AcDbXrecord
 10
0.0
 20
0.0
 30
0.0
  0
XRECORD
  5
5261
102
{ACAD_REACTORS
330
524A
102
}
330
524A
100
AcDbXrecord
340
0
  0
XRECORD
  5
5262
102
{ACAD_REACTORS
330
524A
102
}
330
524A
100
AcDbXrecord
 70
     0
  0
XRECORD
  5
5256
102
{ACAD_REACTORS
330
524A
102
}
330
524A
100
AcDbXrecord
  1
{CC43F1FA-95BE-44F4-8932-F49A92AC86E1}
  0
DICTIONARYVAR
  5
5110
102
{ACAD_REACTORS
330
510F
102
}
330
510F
100
DictionaryVariables
280
     0
  1
1:1
  0
DICTIONARYVAR
  5
5112
102
{ACAD_REACTORS
330
510F
102
}
330
510F
100
DictionaryVariables
280
     0
  1
Standard
  0
DICTIONARYVAR
  5
5111
102
{ACAD_REACTORS
330
510F
102
}
330
510F
100
DictionaryVariables
280
     0
  1
Standard
  0
DICTIONARYVAR
  5
526B
102
{ACAD_REACTORS
330
510F
102
}
330
510F
100
DictionaryVariables
280
     0
  1
1
  0
DICTIONARYVAR
  5
526C
102
{ACAD_REACTORS
330
510F
102
}
330
510F
100
DictionaryVariables
280
     0
  1
0
  0
DICTIONARYVAR
  5
5113
102
{ACAD_REACTORS
330
510F
102
}
330
510F
100
DictionaryVariables
280
     0
  1
0
  0
DICTIONARYVAR
  5
5114
102
{ACAD_REACTORS
330
510F
102
}
330
510F
100
DictionaryVariables
280
     0
  1
0
  0
DICTIONARY
  5
5249
102
{ACAD_REACTORS
330
5248
102
}
330
5248
100
AcDbDictionary
  0
DICTIONARY
  5
5200
102
{ACAD_REACTORS
330
51FF
102
}
330
51FF
100
AcDbDictionary
  0
DICTIONARY
  5
5204
102
{ACAD_REACTORS
330
5203
102
}
330
5203
100
AcDbDictionary
  0
DICTIONARY
  5
522B
102
{ACAD_REACTORS
330
522A
102
}
330
522A
100
AcDbDictionary
  0
DICTIONARY
  5
5230
102
{ACAD_REACTORS
330
522F
102
}
330
522F
100
AcDbDictionary
  0
DICTIONARY
  5
5234
102
{ACAD_REACTORS
330
5233
102
}
330
5233
100
AcDbDictionary
  0
DICTIONARY
  5
5239
102
{ACAD_REACTORS
330
5238
102
}
330
5238
100
AcDbDictionary
  0
DICTIONARY
  5
523D
102
{ACAD_REACTORS
330
523C
102
}
330
523C
100
AcDbDictionary
  0
DICTIONARY
  5
517D
102
{ACAD_REACTORS
330
517C
102
}
330
517C
100
AcDbDictionary
  0
DICTIONARY
  5
5183
102
{ACAD_REACTORS
330
5182
102
}
330
5182
100
AcDbDictionary
  0
DICTIONARY
  5
5180
102
{ACAD_REACTORS
330
517F
102
}
330
517F
100
AcDbDictionary
  0
DICTIONARY
  5
5274
330
50D9
100
AcDbDictionary
280
     1
  3
ACAD_XREC_ROUNDTRIP
360
5275
  0
DICTIONARY
  5
5272
330
50D8
100
AcDbDictionary
280
     1
  3
ACAD_XREC_ROUNDTRIP
360
5273
  0
DICTIONARY
  5
5276
330
50DA
100
AcDbDictionary
280
     1
  3
ACAD_XREC_ROUNDTRIP
360
5277
  0
XRECORD
  5
5275
102
{ACAD_REACTORS
330
5274
102
}
330
5274
100
AcDbXrecord
102
MATERIAL
148
0.0
149
0.0
149
0.0
 93
        0
 94
      127
282
     0
 72
     1
 77
     1
171
     1
175
     1
179
     1
273
     0
  0
XRECORD
  5
5273
102
{ACAD_REACTORS
330
5272
102
}
330
5272
100
AcDbXrecord
102
MATERIAL
148
0.0
149
0.0
149
0.0
 93
        0
 94
      127
282
     0
 72
     1
 77
     1
171
     1
175
     1
179
     1
273
     0
  0
XRECORD
  5
5277
102
{ACAD_REACTORS
330
5276
102
}
330
5276
100
AcDbXrecord
102
MATERIAL
148
0.0
149
0.0
149
0.0
 93
        0
 94
      127
282
     0
 72
     1
 77
     1
171
     1
175
     1
179
     1
273
     0
  0
ENDSEC
  0
EOF
