  0
SECTION
  2
HEADER
  9
$ACADVER
  1
AC1014
  9
$ACADMAINTVER
 70
     9
  9
$DWGCODEPAGE
  3
ANSI_932
  9
$INSBASE
 10
0.0
 20
0.0
 30
0.0
  9
$EXTMIN
 10
-319.674921918294
 20
644.58439480343
 30
0.0
  9
$EXTMAX
 10
429.54737552945
 20
1077.340221079724
 30
0.0
  9
$LIMMIN
 10
-360.747566795242
 20
4.457354754526
  9
$LIMMAX
 10
-162.153696144267
 20
287.675440264018
  9
$ORTHOMODE
 70
     1
  9
$REGENMODE
 70
     1
  9
$FILLMODE
 70
     1
  9
$QTEXTMODE
 70
     0
  9
$MIRRTEXT
 70
     1
  9
$DRAGMODE
 70
     2
  9
$LTSCALE
 40
1.0
  9
$OSMODE
 70
    32
  9
$ATTMODE
 70
     1
  9
$TEXTSIZE
 40
2.333873885063
  9
$TRACEWID
 40
1.0
  9
$TEXTSTYLE
  7
STANDARD
  9
$CLAYER
  8
寸法線
  9
$CELTYPE
  6
BYLAYER
  9
$CECOLOR
 62
     1
  9
$CELTSCALE
 40
10.0
  9
$DELOBJ
 70
     1
  9
$DISPSILH
 70
     0
  9
$DIMSCALE
 40
1.0
  9
$DIMASZ
 40
6.0
  9
$DIMEXO
 40
0.625
  9
$DIMDLI
 40
3.75
  9
$DIMRND
 40
0.0
  9
$DIMDLE
 40
0.0
  9
$DIMEXE
 40
1.25
  9
$DIMTP
 40
0.1
  9
$DIMTM
 40
0.1
  9
$DIMTXT
 40
5.0
  9
$DIMCEN
 40
2.5
  9
$DIMTSZ
 40
0.0
  9
$DIMTOL
 70
     0
  9
$DIMLIM
 70
     0
  9
$DIMTIH
 70
     0
  9
$DIMTOH
 70
     0
  9
$DIMSE1
 70
     0
  9
$DIMSE2
 70
     0
  9
$DIMTAD
 70
     1
  9
$DIMZIN
 70
     8
  9
$DIMBLK
  1
OPEN30
  9
$DIMASO
 70
     1
  9
$DIMSHO
 70
     1
  9
$DIMPOST
  1

  9
$DIMAPOST
  1

  9
$DIMALT
 70
     0
  9
$DIMALTD
 70
     2
  9
$DIMALTF
 40
0.0394
  9
$DIMLFAC
 40
1.0
  9
$DIMTOFL
 70
     1
  9
$DIMTVP
 40
1.0
  9
$DIMTIX
 70
     0
  9
$DIMSOXD
 70
     0
  9
$DIMSAH
 70
     0
  9
$DIMBLK1
  1

  9
$DIMBLK2
  1

  9
$DIMSTYLE
  2
ISO-25
  9
$DIMCLRD
 70
     0
  9
$DIMCLRE
 70
     0
  9
$DIMCLRT
 70
     0
  9
$DIMTFAC
 40
1.0
  9
$DIMGAP
 40
0.625
  9
$DIMJUST
 70
     0
  9
$DIMSD1
 70
     0
  9
$DIMSD2
 70
     0
  9
$DIMTOLJ
 70
     1
  9
$DIMTZIN
 70
     0
  9
$DIMALTZ
 70
     0
  9
$DIMALTTZ
 70
     0
  9
$DIMFIT
 70
     3
  9
$DIMUPT
 70
     0
  9
$DIMUNIT
 70
     2
  9
$DIMDEC
 70
     1
  9
$DIMTDEC
 70
     1
  9
$DIMALTU
 70
     2
  9
$DIMALTTD
 70
     2
  9
$DIMTXSTY
  7
STANDARD
  9
$DIMAUNIT
 70
     0
  9
$LUNITS
 70
     2
  9
$LUPREC
 70
     4
  9
$SKETCHINC
 40
1.0
  9
$FILLETRAD
 40
6.5
  9
$AUNITS
 70
     0
  9
$AUPREC
 70
     0
  9
$MENU
  1
.
  9
$ELEVATION
 40
0.0
  9
$PELEVATION
 40
0.0
  9
$THICKNESS
 40
0.0
  9
$LIMCHECK
 70
     0
  9
$CHAMFERA
 40
10.0
  9
$CHAMFERB
 40
10.0
  9
$CHAMFERC
 40
20.0
  9
$CHAMFERD
 40
0.0
  9
$SKPOLY
 70
     0
  9
$TDCREATE
 40
2450576.597302431
  9
$TDUPDATE
 40
2457191.650522836
  9
$TDINDWG
 40
1.1198716204
  9
$TDUSRTIMER
 40
1.1198716204
  9
$USRTIMER
 70
     1
  9
$ANGBASE
 50
0.0
  9
$ANGDIR
 70
     0
  9
$PDMODE
 70
     0
  9
$PDSIZE
 40
0.0
  9
$PLINEWID
 40
0.0
  9
$COORDS
 70
     1
  9
$SPLFRAME
 70
     0
  9
$SPLINETYPE
 70
     6
  9
$SPLINESEGS
 70
     8
  9
$ATTDIA
 70
     0
  9
$ATTREQ
 70
     1
  9
$HANDLING
 70
     1
  9
$HANDSEED
  5
4C0D
  9
$SURFTAB1
 70
     6
  9
$SURFTAB2
 70
     6
  9
$SURFTYPE
 70
     6
  9
$SURFU
 70
     6
  9
$SURFV
 70
     6
  9
$UCSNAME
  2

  9
$UCSORG
 10
0.0
 20
0.0
 30
0.0
  9
$UCSXDIR
 10
1.0
 20
0.0
 30
0.0
  9
$UCSYDIR
 10
0.0
 20
1.0
 30
0.0
  9
$PUCSNAME
  2

  9
$PUCSORG
 10
0.0
 20
0.0
 30
0.0
  9
$PUCSXDIR
 10
1.0
 20
0.0
 30
0.0
  9
$PUCSYDIR
 10
0.0
 20
1.0
 30
0.0
  9
$USERI1
 70
     0
  9
$USERI2
 70
     0
  9
$USERI3
 70
     0
  9
$USERI4
 70
     0
  9
$USERI5
 70
     0
  9
$USERR1
 40
0.0
  9
$USERR2
 40
0.0
  9
$USERR3
 40
0.0
  9
$USERR4
 40
0.0
  9
$USERR5
 40
0.0
  9
$WORLDVIEW
 70
     1
  9
$SHADEDGE
 70
     3
  9
$SHADEDIF
 70
    70
  9
$TILEMODE
 70
     0
  9
$MAXACTVP
 70
    16
  9
$PINSBASE
 10
0.0
 20
0.0
 30
0.0
  9
$PLIMCHECK
 70
     0
  9
$PEXTMIN
 10
4.746305129083
 20
3.026548700026
 30
0.0
  9
$PEXTMAX
 10
404.746305129083
 20
283.026548700026
 30
0.0
  9
$PLIMMIN
 10
-7.007122192383
 20
-7.007118782997
  9
$PLIMMAX
 10
417.718108215332
 20
293.315290427208
  9
$UNITMODE
 70
     0
  9
$VISRETAIN
 70
     0
  9
$PLINEGEN
 70
     0
  9
$PSLTSCALE
 70
     1
  9
$TREEDEPTH
 70
  3020
  9
$PICKSTYLE
 70
     1
  9
$CMLSTYLE
  2
STANDARD
  9
$CMLJUST
 70
     0
  9
$CMLSCALE
 40
1.0
  9
$PROXYGRAPHICS
 70
     1
  9
$MEASUREMENT
 70
     1
  0
ENDSEC
  0
SECTION
  2
CLASSES
  0
CLASS
  1
ACDBDICTIONARYWDFLT
  2
AcDbDictionaryWithDefault
  3
ObjectDBX Classes
 90
        0
280
     0
281
     0
  0
CLASS
  1
ACDBPLACEHOLDER
  2
AcDbPlaceHolder
  3
ObjectDBX Classes
 90
        0
280
     0
281
     0
  0
CLASS
  1
LAYOUT
  2
AcDbLayout
  3
ObjectDBX Classes
 90
        0
280
     0
281
     0
  0
CLASS
  1
SORTENTSTABLE
  2
AcDbSortentsTable
  3
ObjectDBX Classes
 90
        0
280
     0
281
     0
  0
CLASS
  1
VISUALSTYLE
  2
AcDbVisualStyle
  3
ObjectDBX Classes
 90
     4095
280
     0
281
     0
  0
CLASS
  1
SCALE
  2
AcDbScale
  3
ObjectDBX Classes
 90
     1153
280
     0
281
     0
  0
CLASS
  1
MATERIAL
  2
AcDbMaterial
  3
ObjectDBX Classes
 90
     1153
280
     0
281
     0
  0
CLASS
  1
TABLESTYLE
  2
AcDbTableStyle
  3
ObjectDBX Classes
 90
     4095
280
     0
281
     0
  0
CLASS
  1
MLEADERSTYLE
  2
AcDbMLeaderStyle
  3
ACDB_MLEADERSTYLE_CLASS
 90
     4095
280
     0
281
     0
  0
CLASS
  1
SUN
  2
AcDbSun
  3
SCENEOE
 90
     1153
280
     0
281
     0
  0
CLASS
  1
DICTIONARYVAR
  2
AcDbDictionaryVar
  3
ObjectDBX Classes
 90
        0
280
     0
281
     0
  0
CLASS
  1
XRECORD
  2
AcDbXrecord
  3
ObjectDBX Classes
 90
        0
280
     0
281
     0
  0
CLASS
  1
LWPOLYLINE
  2
AcDbPolyline
  3
ObjectDBX Classes
 90
        0
280
     0
281
     1
  0
CLASS
  1
HATCH
  2
AcDbHatch
  3
ObjectDBX Classes
 90
        0
280
     0
281
     1
  0
ENDSEC
  0
SECTION
  2
TABLES
  0
TABLE
  2
VPORT
  5
8
102
{ACAD_XDICTIONARY
360
4C04
102
}
330
0
100
AcDbSymbolTable
 70
     7
  0
VPORT
  5
4ABE
330
8
100
AcDbSymbolTableRecord
100
AcDbViewportTableRecord
  2
*ACTIVE
 70
     0
 10
0.0
 20
0.0
 11
1.0
 21
1.0
 12
-262.034455629424
 22
702.837862213691
 13
0.0
 23
0.0
 14
1.0
 24
1.0
 15
0.0
 25
0.0
 16
0.0
 26
0.0
 36
1.0
 17
0.0
 27
0.0
 37
0.0
 40
97.405072714277
 41
1.56746031746
 42
50.0
 43
0.0
 44
0.0
 50
0.0
 51
0.0
 71
    16
 72
   100
 73
     1
 74
     0
 75
     0
 76
     0
 77
     0
 78
     0
  0
ENDTAB
  0
TABLE
  2
LTYPE
  5
5
330
0
100
AcDbSymbolTable
 70
     3
  0
LTYPE
  5
14
330
5
100
AcDbSymbolTableRecord
100
AcDbLinetypeTableRecord
  2
BYBLOCK
 70
     0
  3

 72
    65
 73
     0
 40
0.0
  0
LTYPE
  5
15
330
5
100
AcDbSymbolTableRecord
100
AcDbLinetypeTableRecord
  2
BYLAYER
 70
     0
  3

 72
    65
 73
     0
 40
0.0
  0
LTYPE
  5
16
330
5
100
AcDbSymbolTableRecord
100
AcDbLinetypeTableRecord
  2
CONTINUOUS
 70
     0
  3
Solid line
 72
    65
 73
     0
 40
0.0
  0
LTYPE
  5
1EC
330
5
100
AcDbSymbolTableRecord
100
AcDbLinetypeTableRecord
  2
CENTER
 70
     0
  3
____ _ ____ _ ____ _ ____ _ ____ _ ____ _ ____ 
 72
    65
 73
     4
 40
2.0
 49
1.25
 74
     0
 49
-0.25
 74
     0
 49
0.25
 74
     0
 49
-0.25
 74
     0
  0
LTYPE
  5
1ED
330
5
100
AcDbSymbolTableRecord
100
AcDbLinetypeTableRecord
  2
DASHED
 70
     0
  3
__ __ __ __ __ __ __ __ __ __ __ __ __ __ __ __
 72
    65
 73
     2
 40
0.75
 49
0.5
 74
     0
 49
-0.25
 74
     0
  0
ENDTAB
  0
TABLE
  2
LAYER
  5
2
102
{ACAD_XDICTIONARY
360
29EA
102
}
330
0
100
AcDbSymbolTable
 70
    10
  0
LAYER
  5
F
330
2
100
AcDbSymbolTableRecord
100
AcDbLayerTableRecord
  2
0
 70
     0
 62
     7
  6
CONTINUOUS
  0
LAYER
  5
61
330
2
100
AcDbSymbolTableRecord
100
AcDbLayerTableRecord
  2
図枠太線
 70
     0
 62
   251
  6
CONTINUOUS
  0
LAYER
  5
62
330
2
100
AcDbSymbolTableRecord
100
AcDbLayerTableRecord
  2
図枠細線
 70
     0
 62
   252
  6
CONTINUOUS
  0
LAYER
  5
63
330
2
100
AcDbSymbolTableRecord
100
AcDbLayerTableRecord
  2
図枠ロゴマーク
 70
     0
 62
   253
  6
CONTINUOUS
  0
LAYER
  5
1EF
330
2
100
AcDbSymbolTableRecord
100
AcDbLayerTableRecord
  2
外形線
 70
     0
 62
     7
  6
CONTINUOUS
  0
LAYER
  5
1F0
330
2
100
AcDbSymbolTableRecord
100
AcDbLayerTableRecord
  2
寸法線
 70
     0
 62
     1
  6
CONTINUOUS
  0
LAYER
  5
1F1
330
2
100
AcDbSymbolTableRecord
100
AcDbLayerTableRecord
  2
中心線
 70
     0
 62
     4
  6
CENTER
  0
LAYER
  5
1F4
330
2
100
AcDbSymbolTableRecord
100
AcDbLayerTableRecord
  2
DEFPOINTS
 70
     0
 62
     7
  6
CONTINUOUS
  0
LAYER
  5
2AA2
330
2
100
AcDbSymbolTableRecord
100
AcDbLayerTableRecord
  2
下書線
 70
     0
 62
     2
  6
CONTINUOUS
  0
LAYER
  5
2AA4
330
2
100
AcDbSymbolTableRecord
100
AcDbLayerTableRecord
  2
細線
 70
     0
 62
     6
  6
CONTINUOUS
  0
ENDTAB
  0
TABLE
  2
STYLE
  5
3
330
0
100
AcDbSymbolTable
 70
     3
  0
STYLE
  5
10
330
3
100
AcDbSymbolTableRecord
100
AcDbTextStyleTableRecord
  2
STANDARD
 70
     0
 40
0.0
 41
1.0
 50
0.0
 71
     0
 42
2.333873885063
  3
ISOCP
  4
bigfont.shx
  0
STYLE
  5
64
330
3
100
AcDbSymbolTableRecord
100
AcDbTextStyleTableRecord
  2
EXCADSTD
 70
     0
 40
0.0
 41
1.0
 50
0.0
 71
     0
 42
0.2
  3
monotxt
  4
bigfont
  0
STYLE
  5
2B21
330
3
100
AcDbSymbolTableRecord
100
AcDbTextStyleTableRecord
  2
EXCADVERT
 70
     4
 40
0.0
 41
1.0
 50
0.0
 71
     0
 42
0.286885
  3
monotxt
  4
bigfont
  0
ENDTAB
  0
TABLE
  2
VIEW
  5
6
330
0
100
AcDbSymbolTable
 70
     0
  0
ENDTAB
  0
TABLE
  2
UCS
  5
7
330
0
100
AcDbSymbolTable
 70
     0
  0
ENDTAB
  0
TABLE
  2
APPID
  5
9
330
0
100
AcDbSymbolTable
 70
     3
  0
APPID
  5
11
330
9
100
AcDbSymbolTableRecord
100
AcDbRegAppTableRecord
  2
ACAD
 70
     0
  0
APPID
  5
4B02
330
9
100
AcDbSymbolTableRecord
100
AcDbRegAppTableRecord
  2
ACADANNOTATIVE
 70
     0
  0
APPID
  5
4C0C
330
9
100
AcDbSymbolTableRecord
100
AcDbRegAppTableRecord
  2
ACAD_MLEADERVER
 70
     0
  0
ENDTAB
  0
TABLE
  2
DIMSTYLE
  5
A
330
0
100
AcDbSymbolTable
 70
     2
  0
DIMSTYLE
105
1D
330
A
100
AcDbSymbolTableRecord
100
AcDbDimStyleTableRecord
  2
STANDARD
 70
     0
  3

  4

  5

  6

  7

 40
1.0
 41
0.18
 42
0.0625
 43
0.38
 44
0.18
 45
0.0
 46
0.0
 47
0.0
 48
0.0
140
0.18
141
0.09
142
0.0
143
25.4
144
1.0
145
0.0
146
1.0
147
0.09
 71
     0
 72
     0
 73
     1
 74
     1
 75
     0
 76
     0
 77
     0
 78
     0
170
     0
171
     2
172
     0
173
     0
174
     0
175
     0
176
     0
177
     0
178
     0
270
     2
271
     4
272
     4
273
     2
274
     2
340
10
275
     0
280
     0
281
     0
282
     0
283
     1
284
     0
285
     0
286
     0
287
     3
288
     0
  0
DIMSTYLE
105
24
102
{ACAD_REACTORS
330
3A5B
330
3A64
330
3A65
330
3A81
330
3A82
330
3A84
330
3A8B
330
3A8C
330
3A8D
330
3A8E
330
3A91
330
3A98
330
3A99
330
4882
330
4883
102
}
330
A
100
AcDbSymbolTableRecord
100
AcDbDimStyleTableRecord
  2
ISO-25
 70
     0
  3

  4

  5

  6

  7

 40
1.0
 41
2.5
 42
0.625
 43
3.75
 44
1.25
 45
0.0
 46
0.0
 47
0.0
 48
0.0
140
2.5
141
2.5
142
0.0
143
0.0394
144
1.0
145
1.0
146
1.0
147
0.625
 71
     0
 72
     0
 73
     1
 74
     0
 75
     0
 76
     0
 77
     1
 78
     8
170
     0
171
     2
172
     1
173
     0
174
     0
175
     0
176
     0
177
     0
178
     0
270
     2
271
     4
272
     4
273
     2
274
     2
340
10
275
     0
280
     0
281
     0
282
     0
283
     1
284
     0
285
     0
286
     0
287
     3
288
     0
  0
ENDTAB
  0
TABLE
  2
BLOCK_RECORD
  5
1
330
0
100
AcDbSymbolTable
 70
    21
  0
BLOCK_RECORD
  5
1A
330
1
100
AcDbSymbolTableRecord
100
AcDbBlockTableRecord
  2
*MODEL_SPACE
  0
BLOCK_RECORD
  5
28FB
330
1
100
AcDbSymbolTableRecord
100
AcDbBlockTableRecord
  2
*PAPER_SPACE
  0
BLOCK_RECORD
  5
2A32
330
1
100
AcDbSymbolTableRecord
100
AcDbBlockTableRecord
  2
A3横用_タイトル
1001
ACAD
1000
DesignCenter Data
1002
{
1070
     1
1070
     4
1002
}
  0
BLOCK_RECORD
  5
2AF4
330
1
100
AcDbSymbolTableRecord
100
AcDbBlockTableRecord
  2
_OPEN30
  0
BLOCK_RECORD
  5
2EB5
330
1
100
AcDbSymbolTableRecord
100
AcDbBlockTableRecord
  2
パドル_W1
  0
BLOCK_RECORD
  5
2ECD
330
1
100
AcDbSymbolTableRecord
100
AcDbBlockTableRecord
  2
パドル_W1立面図
  0
BLOCK_RECORD
  5
3312
330
1
100
AcDbSymbolTableRecord
100
AcDbBlockTableRecord
  2
ケース外形図_PRL-100F
  0
BLOCK_RECORD
  5
3B73
330
1
100
AcDbSymbolTableRecord
100
AcDbBlockTableRecord
  2
*D5
  0
BLOCK_RECORD
  5
3B8D
330
1
100
AcDbSymbolTableRecord
100
AcDbBlockTableRecord
  2
*D6
  0
BLOCK_RECORD
  5
3B99
330
1
100
AcDbSymbolTableRecord
100
AcDbBlockTableRecord
  2
*D7
  0
BLOCK_RECORD
  5
3BA5
330
1
100
AcDbSymbolTableRecord
100
AcDbBlockTableRecord
  2
*D8
  0
BLOCK_RECORD
  5
3BB1
330
1
100
AcDbSymbolTableRecord
100
AcDbBlockTableRecord
  2
*D9
  0
BLOCK_RECORD
  5
3BBD
330
1
100
AcDbSymbolTableRecord
100
AcDbBlockTableRecord
  2
*D10
  0
BLOCK_RECORD
  5
3BCB
330
1
100
AcDbSymbolTableRecord
100
AcDbBlockTableRecord
  2
*D11
  0
BLOCK_RECORD
  5
3BD7
330
1
100
AcDbSymbolTableRecord
100
AcDbBlockTableRecord
  2
*D12
  0
BLOCK_RECORD
  5
3BE5
330
1
100
AcDbSymbolTableRecord
100
AcDbBlockTableRecord
  2
*D13
  0
BLOCK_RECORD
  5
3BF1
330
1
100
AcDbSymbolTableRecord
100
AcDbBlockTableRecord
  2
*D14
  0
BLOCK_RECORD
  5
3C17
330
1
100
AcDbSymbolTableRecord
100
AcDbBlockTableRecord
  2
*D15
  0
BLOCK_RECORD
  5
3C23
330
1
100
AcDbSymbolTableRecord
100
AcDbBlockTableRecord
  2
*D16
  0
BLOCK_RECORD
  5
3C30
330
1
100
AcDbSymbolTableRecord
100
AcDbBlockTableRecord
  2
*D17
  0
BLOCK_RECORD
  5
3E35
330
1
100
AcDbSymbolTableRecord
100
AcDbBlockTableRecord
  2
A$C480F1F2B
  0
BLOCK_RECORD
  5
488D
330
1
100
AcDbSymbolTableRecord
100
AcDbBlockTableRecord
  2
*D19
  0
BLOCK_RECORD
  5
4899
330
1
100
AcDbSymbolTableRecord
100
AcDbBlockTableRecord
  2
*D20
  0
ENDTAB
  0
ENDSEC
  0
SECTION
  2
BLOCKS
  0
BLOCK
  5
1B
330
1A
100
AcDbEntity
  8
0
100
AcDbBlockBegin
  2
*MODEL_SPACE
 70
     0
 10
0.0
 20
0.0
 30
0.0
  3
*MODEL_SPACE
  1

  0
ENDBLK
  5
1C
330
1A
100
AcDbEntity
  8
0
100
AcDbBlockEnd
  0
BLOCK
  5
28FD
330
28FB
100
AcDbEntity
 67
     1
  8
0
 48
10.0
100
AcDbBlockBegin
  2
*PAPER_SPACE
 70
     0
 10
0.0
 20
0.0
 30
0.0
  3
*PAPER_SPACE
  1

  0
ENDBLK
  5
28FE
330
28FB
100
AcDbEntity
 67
     1
  8
0
 48
10.0
100
AcDbBlockEnd
  0
BLOCK
  5
2A33
330
2A32
100
AcDbEntity
  8
0
100
AcDbBlockBegin
  2
A3横用_タイトル
 70
     0
 10
0.0
 20
0.0
 30
0.0
  3
A3横用_タイトル
  1
A3横用_タイトル
  0
LINE
  5
2A34
330
2A32
100
AcDbEntity
  8
図枠細線
  6
CONTINUOUS
 62
   252
100
AcDbLine
 10
205.098414535793
 20
33.525959753527
 30
0.0
 11
305.098414535793
 21
33.525959753527
 31
0.0
  0
LINE
  5
2A35
330
2A32
100
AcDbEntity
  8
図枠太線
  6
CONTINUOUS
 62
   251
100
AcDbLine
 10
205.098414535793
 20
23.525959753527
 30
0.0
 11
305.098414535793
 21
23.525959753527
 31
0.0
  0
LINE
  5
2A36
330
2A32
100
AcDbEntity
  8
図枠細線
  6
CONTINUOUS
100
AcDbLine
 10
5.098414535793
 20
23.525959753527
 30
0.0
 11
105.098414535793
 21
23.525959753527
 31
0.0
  0
LINE
  5
2A37
330
2A32
100
AcDbEntity
  8
図枠細線
  6
CONTINUOUS
 62
   252
100
AcDbLine
 10
5.098414535793
 20
36.725957753527
 30
0.0
 11
105.098414535793
 21
36.725957753527
 31
0.0
  0
LINE
  5
2A38
330
2A32
100
AcDbEntity
  8
図枠細線
  6
CONTINUOUS
 62
   252
100
AcDbLine
 10
5.098414535793
 20
30.125957753527
 30
0.0
 11
105.098414535793
 21
30.125957753527
 31
0.0
  0
LINE
  5
2A39
330
2A32
100
AcDbEntity
  8
図枠細線
  6
CONTINUOUS
 62
   252
100
AcDbLine
 10
5.098414535793
 20
16.725959753527
 30
0.0
 11
105.098414535793
 21
16.725959753527
 31
0.0
  0
LINE
  5
2A3A
330
2A32
100
AcDbEntity
  8
図枠細線
  6
CONTINUOUS
 62
   252
100
AcDbLine
 10
5.098414535793
 20
10.125959753527
 30
0.0
 11
105.098414535793
 21
10.125959753527
 31
0.0
  0
LINE
  5
2A3B
330
2A32
100
AcDbEntity
  8
図枠細線
  6
CONTINUOUS
100
AcDbLine
 10
105.098414535793
 20
23.525961753527
 30
0.0
 11
205.098414535793
 21
23.525959753527
 31
0.0
  0
LINE
  5
2A3C
330
2A32
100
AcDbEntity
  8
図枠細線
  6
CONTINUOUS
 62
   252
100
AcDbLine
 10
138.398414535793
 20
43.525959753527
 30
0.0
 11
138.398414535793
 21
18.525957753527
 31
0.0
  0
LINE
  5
2A3D
330
2A32
100
AcDbEntity
  8
図枠細線
  6
CONTINUOUS
 62
   252
100
AcDbLine
 10
171.698414535793
 20
43.525959753527
 30
0.0
 11
171.698414535793
 21
18.525957753527
 31
0.0
  0
LINE
  5
2A3E
330
2A32
100
AcDbEntity
  8
図枠細線
  6
CONTINUOUS
 62
   252
100
AcDbLine
 10
305.098414535793
 20
23.525959753527
 30
0.0
 11
405.098414535793
 21
23.525959753527
 31
0.0
  0
TEXT
  5
2A3F
330
2A32
100
AcDbEntity
  8
図枠ロゴマーク
  6
CONTINUOUS
 62
   253
100
AcDbText
 10
206.102509212755
 20
13.294257570546
 30
0.0
 40
7.0
  1
東和制電工業株式会社
 50
0.016555220185
 41
1.186384129432
  7
EXCADSTD
 72
     5
 11
303.544188309143
 21
13.322412672217
 31
0.0
100
AcDbText
  0
MTEXT
  5
2A40
330
2A32
100
AcDbEntity
  8
図枠細線
100
AcDbMText
 10
6.356764112375
 20
41.976594175478
 30
0.0
 40
2.5
 41
49.938282706292
 71
     1
 72
     5
  1
{\Fmonotxt.shx,bigfont.shx|c128;図暦　CHANGE　NOTICE}
  0
MTEXT
  5
2A41
330
2A32
100
AcDbEntity
  8
図枠細線
 48
10.0
100
AcDbMText
 10
306.544114926828
 20
41.701835800934
 30
0.0
 40
2.5
 41
28.002809618823
 71
     1
 72
     5
  1
{\Fmonotxt.shx,bigfont.shx|c128;名称　TITLE}
  0
MTEXT
  5
2A42
330
2A32
100
AcDbEntity
  8
図枠細線
 48
10.0
100
AcDbMText
 10
307.329617114284
 20
21.606206797226
 30
0.0
 40
2.5
 41
24.385612216707
 71
     1
 72
     5
  1
{\Fmonotxt.shx,bigfont.shx|c128;図面番号\PDRG.　No.}
  0
MTEXT
  5
2A43
330
2A32
100
AcDbEntity
  8
図枠細線
 48
10.0
100
AcDbMText
 10
173.726349404609
 20
21.73680662198
 30
0.0
 40
2.5
 41
25.735090160813
 71
     1
 72
     5
  1
{\Fmonotxt.shx,bigfont.shx|c128;日付 DATE}
  0
MTEXT
  5
2A44
330
2A32
100
AcDbEntity
  8
図枠細線
 48
10.0
100
AcDbMText
 10
173.48708833982
 20
41.621592044998
 30
0.0
 40
2.5
 41
24.983741184205
 71
     1
 72
     5
  1
{\Fmonotxt.shx,bigfont.shx|c128;製図　DRAWN}
  0
MTEXT
  5
2A45
330
2A32
100
AcDbEntity
  8
図枠細線
 48
10.0
100
AcDbMText
 10
139.28009927741
 20
21.866713069868
 30
0.0
 40
2.5
 41
22.629632913243
 71
     1
 72
     5
  1
{\Fmonotxt.shx,bigfont.shx|c128;尺度　SCALE}
  0
MTEXT
  5
2A46
330
2A32
100
AcDbEntity
  8
図枠細線
 48
10.0
100
AcDbMText
 10
139.910091179835
 20
41.311840415554
 30
0.0
 40
2.5
 41
28.998753428368
 71
     1
 72
     5
  1
{\Fmonotxt.shx,bigfont.shx|c128;検図  CHECKED}
  0
MTEXT
  5
2A47
330
2A32
100
AcDbEntity
  8
図枠細線
 48
10.0
100
AcDbMText
 10
114.253294667728
 20
21.916124850174
 30
0.0
 40
3.0
 41
19.692400475383
 71
     1
 72
     5
  1
{\Fmonotxt.shx,bigfont.shx|c128;第三角法}
  0
MTEXT
  5
2A48
330
2A32
100
AcDbEntity
  8
図枠細線
 48
10.0
100
AcDbMText
 10
108.986959929915
 20
15.282880185837
 30
0.0
 40
2.5
 41
27.954882823547
 71
     1
 72
     5
  1
{\Fmonotxt.shx,bigfont.shx|c128;THIRD ANGLE\PPROJECTION}
  0
MTEXT
  5
2A49
330
2A32
100
AcDbEntity
  8
図枠細線
 48
10.0
100
AcDbMText
 10
106.319432640184
 20
41.511437145487
 30
0.0
 40
2.5
 41
28.233595265074
 71
     1
 72
     5
  1
{\Fmonotxt.shx,bigfont.shx|c128;承認 APPROVED}
  0
LINE
  5
2A4A
330
2A32
100
AcDbEntity
  8
図枠太線
  6
CONTINUOUS
 62
   251
100
AcDbLine
 10
5.098414535793
 20
3.525959753527
 30
0.0
 11
405.098414535793
 21
3.525959753527
 31
0.0
  0
LINE
  5
2A4B
330
2A32
100
AcDbEntity
  8
図枠太線
 48
10.0
100
AcDbLine
 10
5.098414535793
 20
3.525959753527
 30
0.0
 11
5.098414535793
 21
43.525959753527
 31
0.0
  0
LINE
  5
2A4C
330
2A32
100
AcDbEntity
  8
図枠太線
  6
CONTINUOUS
 62
   251
100
AcDbLine
 10
105.098414535793
 20
3.525959753527
 30
0.0
 11
105.098414535793
 21
43.525959753527
 31
0.0
  0
LINE
  5
2A4D
330
2A32
100
AcDbEntity
  8
図枠細線
  6
CONTINUOUS
 62
   252
100
AcDbLine
 10
138.398414535793
 20
3.525959753527
 30
0.0
 11
138.398414535793
 21
18.525957753527
 31
0.0
  0
LINE
  5
2A4E
330
2A32
100
AcDbEntity
  8
図枠細線
  6
CONTINUOUS
 62
   252
100
AcDbLine
 10
171.698414535793
 20
3.525959753527
 30
0.0
 11
171.698414535793
 21
18.525957753527
 31
0.0
  0
LINE
  5
2A4F
330
2A32
100
AcDbEntity
  8
図枠太線
  6
CONTINUOUS
 62
   251
100
AcDbLine
 10
205.098414535793
 20
3.525959753527
 30
0.0
 11
205.098414535793
 21
43.525959753527
 31
0.0
  0
LINE
  5
2A50
330
2A32
100
AcDbEntity
  8
図枠太線
 48
10.0
100
AcDbLine
 10
405.098414535793
 20
43.525959753527
 30
0.0
 11
405.098414535793
 21
3.525959753527
 31
0.0
  0
TEXT
  5
2A51
330
2A32
100
AcDbEntity
  8
図枠細線
  6
CONTINUOUS
 62
   252
100
AcDbText
 10
208.519754474572
 20
6.482358407285
 30
0.0
 40
3.5
  1
ＴＯＷＡ　ＳＥＩＤＥＮ　ＩＮＤＵＳＴＲＩＡＬ　ＣＯ．，ＬＴＤ．
 41
0.746656297509
  7
EXCADSTD
 72
     5
 11
303.295327171727
 21
6.482358407285
 31
0.0
100
AcDbText
  0
LINE
  5
2A52
330
2A32
100
AcDbEntity
  8
図枠太線
  6
CONTINUOUS
 62
   251
100
AcDbLine
 10
305.098414535793
 20
3.525959753527
 30
0.0
 11
305.098414535793
 21
43.525959753527
 31
0.0
  0
ENDBLK
  5
2A53
330
2A32
100
AcDbEntity
  8
0
100
AcDbBlockEnd
  0
BLOCK
  5
2AF8
330
2AF4
100
AcDbEntity
  8
0
 48
10.0
100
AcDbBlockBegin
  2
_OPEN30
 70
     0
 10
0.0
 20
0.0
 30
0.0
  3
_OPEN30
  1
_OPEN30
  0
LINE
  5
2AF5
330
2AF4
100
AcDbEntity
  8
0
  6
BYBLOCK
 62
     0
100
AcDbLine
 10
-1.0
 20
0.26794919
 30
0.0
 11
0.0
 21
0.0
 31
0.0
  0
LINE
  5
2AF6
330
2AF4
100
AcDbEntity
  8
0
  6
BYBLOCK
 62
     0
100
AcDbLine
 10
0.0
 20
0.0
 30
0.0
 11
-1.0
 21
-0.26794919
 31
0.0
  0
LINE
  5
2AF7
330
2AF4
100
AcDbEntity
  8
0
  6
BYBLOCK
 62
     0
100
AcDbLine
 10
0.0
 20
0.0
 30
0.0
 11
-1.0
 21
0.0
 31
0.0
  0
ENDBLK
  5
2AF9
330
2AF4
100
AcDbEntity
  8
0
 48
10.0
100
AcDbBlockEnd
  0
BLOCK
  5
2EB6
330
2EB5
100
AcDbEntity
  8
0
 48
10.0
100
AcDbBlockBegin
  2
パドル_W1
 70
     0
 10
0.0
 20
0.0
 30
0.0
  3
パドル_W1
  1
パドル_W1
  0
LINE
  5
2EB7
330
2EB5
100
AcDbEntity
  8
中心線
 48
10.0
100
AcDbLine
 10
124.6832879095
 20
220.674073777677
 30
0.0
 11
131.9189439095
 21
220.674073777677
 31
0.0
  0
LINE
  5
2EB8
330
2EB5
100
AcDbEntity
  8
外形線
 48
10.0
100
AcDbLine
 10
58.3011159095
 20
260.651761921811
 30
0.0
 11
58.3011159095
 21
180.651761921811
 31
0.0
  0
LINE
  5
2EB9
330
2EB5
100
AcDbEntity
  8
外形線
 48
10.0
100
AcDbLine
 10
58.3011159095
 20
180.651761921811
 30
0.0
 11
123.3011159095
 21
180.651761921811
 31
0.0
  0
LINE
  5
2EBA
330
2EB5
100
AcDbEntity
  8
外形線
 48
10.0
100
AcDbLine
 10
138.3011159095
 20
208.651761921811
 30
0.0
 11
138.3011159095
 21
212.376811207105
 31
0.0
  0
LINE
  5
2EBB
330
2EB5
100
AcDbEntity
  8
外形線
 48
10.0
100
AcDbLine
 10
123.3011159095
 20
260.651761921811
 30
0.0
 11
58.3011159095
 21
260.651761921811
 31
0.0
  0
LINE
  5
2EBC
330
2EB5
100
AcDbEntity
  8
外形線
 48
10.0
100
AcDbLine
 10
138.3011159095
 20
232.651761921811
 30
0.0
 11
123.3011159095
 21
260.651761921811
 31
0.0
  0
LINE
  5
2EBD
330
2EB5
100
AcDbEntity
  8
外形線
 48
10.0
100
AcDbLine
 10
138.3011159095
 20
208.651761921811
 30
0.0
 11
123.3011159095
 21
180.651761921811
 31
0.0
  0
LINE
  5
2EBE
330
2EB5
100
AcDbEntity
  8
外形線
 48
10.0
100
AcDbLine
 10
153.3011159095
 20
212.376811207105
 30
0.0
 11
153.3011159095
 21
228.941629207105
 31
0.0
  0
LINE
  5
2EBF
330
2EB5
100
AcDbEntity
  8
外形線
100
AcDbLine
 10
125.0147379095
 20
212.376811207105
 30
0.0
 11
153.3011159095
 21
212.376811207105
 31
0.0
  0
LINE
  5
2EC0
330
2EB5
100
AcDbEntity
  8
細線
100
AcDbLine
 10
153.2891519095
 20
216.518045207105
 30
0.0
 11
124.6692799095
 21
216.518045207105
 31
0.0
  0
LINE
  5
2EC1
330
2EB5
100
AcDbEntity
  8
外形線
100
AcDbLine
 10
125.0147379095
 20
228.941629207105
 30
0.0
 11
123.3011159095
 21
227.228007207105
 31
0.0
  0
ARC
  5
2EC2
330
2EB5
100
AcDbEntity
  8
細線
100
AcDbCircle
 10
126.4810479095
 20
227.420755207105
 30
0.0
 40
3.18575
100
AcDbArc
 50
183.469852255156
 51
235.339263082109
  0
LINE
  5
2EC3
330
2EB5
100
AcDbEntity
  8
細線
100
AcDbLine
 10
153.2891519095
 20
224.800395207105
 30
0.0
 11
124.6692799095
 21
224.800395207105
 31
0.0
  0
ARC
  5
2EC4
330
2EB5
100
AcDbEntity
  8
細線
100
AcDbCircle
 10
126.4810479095
 20
213.897685207105
 30
0.0
 40
3.18575
100
AcDbArc
 50
124.660776613574
 51
176.530130144749
  0
LINE
  5
2EC5
330
2EB5
100
AcDbEntity
  8
外形線
100
AcDbLine
 10
123.3011159095
 20
227.228007207105
 30
0.0
 11
123.3011159095
 21
214.090433207105
 31
0.0
  0
CIRCLE
  5
2EC6
330
2EB5
100
AcDbEntity
  8
外形線
100
AcDbCircle
 10
128.3011159095
 20
220.674073777677
 30
0.0
 40
2.28479
  0
ARC
  5
2EC7
330
2EB5
100
AcDbEntity
  8
細線
100
AcDbCircle
 10
130.2525019095
 20
220.659219207105
 30
0.0
 40
6.951389999999999
100
AcDbArc
 50
143.43540034864
 51
216.564582051267
  0
LINE
  5
2EC8
330
2EB5
100
AcDbEntity
  8
中心線
 48
10.0
100
AcDbLine
 10
128.3011159095
 20
224.291901777677
 30
0.0
 11
128.3011159095
 21
217.056245777676
 31
0.0
  0
LINE
  5
2EC9
330
2EB5
100
AcDbEntity
  8
外形線
100
AcDbLine
 10
125.0147379095
 20
212.376811207105
 30
0.0
 11
123.3011159095
 21
214.090433207105
 31
0.0
  0
LINE
  5
2ECA
330
2EB5
100
AcDbEntity
  8
外形線
100
AcDbLine
 10
125.0147379095
 20
228.941629207105
 30
0.0
 11
153.3011159095
 21
228.941629207105
 31
0.0
  0
LINE
  5
2ECB
330
2EB5
100
AcDbEntity
  8
外形線
 48
10.0
100
AcDbLine
 10
138.3011159095
 20
228.941629207105
 30
0.0
 11
138.3011159095
 21
232.651761921811
 31
0.0
  0
ENDBLK
  5
2ECC
330
2EB5
100
AcDbEntity
  8
0
 48
10.0
100
AcDbBlockEnd
  0
BLOCK
  5
2ECE
330
2ECD
100
AcDbEntity
  8
0
 48
10.0
100
AcDbBlockBegin
  2
パドル_W1立面図
 70
     0
 10
0.0
 20
0.0
 30
0.0
  3
パドル_W1立面図
  1
パドル_W1立面図
  0
LINE
  5
2ECF
330
2ECD
100
AcDbEntity
  8
外形線
 48
10.0
100
AcDbLine
 10
-4.385455455444
 20
189.61846140322
 30
0.0
 11
-7.241459969979
 21
189.61846140322
 31
0.0
  0
LINE
  5
2ED0
330
2ECD
100
AcDbEntity
  8
外形線
 48
10.0
100
AcDbLine
 10
-4.385455455444
 20
269.61846140322
 30
0.0
 11
-7.241459969979
 21
269.61846140322
 31
0.0
  0
LINE
  5
2ED1
330
2ECD
100
AcDbEntity
  8
外形線
 48
10.0
100
AcDbLine
 10
-4.385455455444
 20
189.61846140322
 30
0.0
 11
-4.385455455444
 21
269.61846140322
 31
0.0
  0
LINE
  5
2ED2
330
2ECD
100
AcDbEntity
  8
外形線
 48
10.0
100
AcDbLine
 10
-7.241459969979
 20
269.61846140322
 30
0.0
 11
-7.241459969979
 21
189.61846140322
 31
0.0
  0
LINE
  5
2ED3
330
2ECD
100
AcDbEntity
  8
外形線
100
AcDbLine
 10
-4.385468503734
 20
237.376935973808
 30
0.0
 11
1.606659496266
 21
233.917433973808
 31
0.0
  0
ARC
  5
2ED4
330
2ECD
100
AcDbEntity
  8
細線
100
AcDbCircle
 10
-5.813446503734
 20
229.633375973808
 30
0.0
 40
8.568
100
AcDbArc
 50
279.594007516002
 51
80.406014579591
  0
LINE
  5
2ED5
330
2ECD
100
AcDbEntity
  8
外形線
100
AcDbLine
 10
1.606659496266
 20
233.917433973808
 30
0.0
 11
1.606659496266
 21
225.349439973808
 31
0.0
  0
LINE
  5
2ED6
330
2ECD
100
AcDbEntity
  8
外形線
100
AcDbLine
 10
-4.385468503734
 20
221.889815973808
 30
0.0
 11
1.606659496266
 21
225.349439973808
 31
0.0
  0
ARC
  5
2ED7
330
2ECD
100
AcDbEntity
  8
細線
100
AcDbCircle
 10
-5.813446503734
 20
229.633375973808
 30
0.0
 40
7.458525999999999
100
AcDbArc
 50
281.037746568172
 51
78.962275527419
  0
LINE
  5
2ED8
330
2ECD
100
AcDbEntity
  8
外形線
100
AcDbLine
 10
-7.241454503734
 20
221.889845973808
 30
0.0
 11
-13.233550503734
 21
225.349439973808
 31
0.0
  0
LINE
  5
2ED9
330
2ECD
100
AcDbEntity
  8
外形線
100
AcDbLine
 10
-13.233550503734
 20
225.349439973808
 30
0.0
 11
-13.233550503734
 21
233.917433973808
 31
0.0
  0
LINE
  5
2EDA
330
2ECD
100
AcDbEntity
  8
外形線
100
AcDbLine
 10
-7.241454503734
 20
237.376905973808
 30
0.0
 11
-13.233550503734
 21
233.917433973808
 31
0.0
  0
ARC
  5
2EDB
330
2ECD
100
AcDbEntity
  8
細線
100
AcDbCircle
 10
-5.813446503734
 20
229.633375973808
 30
0.0
 40
7.458525999999999
100
AcDbArc
 50
101.038013199227
 51
258.962026496458
  0
ARC
  5
2EDC
330
2ECD
100
AcDbEntity
  8
細線
100
AcDbCircle
 10
-5.813446503734
 20
229.633375973808
 30
0.0
 40
8.568
100
AcDbArc
 50
99.594159555498
 51
260.405880140189
  0
ENDBLK
  5
2EDD
330
2ECD
100
AcDbEntity
  8
0
 48
10.0
100
AcDbBlockEnd
  0
BLOCK
  5
3313
330
3312
100
AcDbEntity
  8
0
 48
10.0
100
AcDbBlockBegin
  2
ケース外形図_PRL-100F
 70
     0
 10
0.0
 20
0.0
 30
0.0
  3
ケース外形図_PRL-100F
  1
ケース外形図_PRL-100F
  0
ARC
  5
3314
330
3312
100
AcDbEntity
  8
外形線
100
AcDbCircle
 10
-2258.588594902521
 20
864.573853073417
 30
0.0
 40
4.8552
100
AcDbArc
 50
0.0
 51
87.349306628423
  0
LINE
  5
3315
330
3312
100
AcDbEntity
  8
細線
100
AcDbLine
 10
-2284.57821890252
 20
870.637451073418
 30
0.0
 11
-2284.57821890252
 21
773.533447073417
 31
0.0
  0
LINE
  5
3316
330
3312
100
AcDbEntity
  8
外形線
100
AcDbLine
 10
-2303.99899490252
 20
771.085449073418
 30
0.0
 11
-2303.99899490252
 21
873.085449073418
 31
0.0
  0
LINE
  5
3317
330
3312
100
AcDbEntity
  8
外形線
100
AcDbLine
 10
-2305.99814090252
 20
873.085449073418
 30
0.0
 11
-2305.99814090252
 21
771.085449073418
 31
0.0
  0
LINE
  5
3318
330
3312
100
AcDbEntity
  8
細線
100
AcDbLine
 10
-2310.282198902521
 20
873.085449073418
 30
0.0
 11
-2310.282198902521
 21
771.085449073418
 31
0.0
  0
LINE
  5
3319
330
3312
100
AcDbEntity
  8
外形線
100
AcDbLine
 10
-2313.13815490252
 20
867.781495073418
 30
0.0
 11
-2310.282198902521
 21
873.085449073418
 31
0.0
  0
LINE
  5
331A
330
3312
100
AcDbEntity
  8
細線
100
AcDbLine
 10
-2288.29098690252
 20
867.781495073418
 30
0.0
 11
-2288.29098690252
 21
873.085449073418
 31
0.0
  0
LINE
  5
331B
330
3312
100
AcDbEntity
  8
外形線
100
AcDbLine
 10
-2513.803170902519
 20
899.585449959373
 30
0.0
 11
-2513.803170902519
 21
744.585449959373
 31
0.0
  0
LINE
  5
331C
330
3312
100
AcDbEntity
  8
外形線
100
AcDbLine
 10
-2503.803170902519
 20
899.585449959373
 30
0.0
 11
-2503.803170902519
 21
744.585449959373
 31
0.0
  0
LINE
  5
331D
330
3312
100
AcDbEntity
  8
外形線
100
AcDbLine
 10
-2383.998140902519
 20
744.585449959373
 30
0.0
 11
-2383.998140902519
 21
899.585449959373
 31
0.0
  0
LINE
  5
331E
330
3312
100
AcDbEntity
  8
外形線
100
AcDbLine
 10
-2393.998140902519
 20
744.585449959373
 30
0.0
 11
-2393.998140902519
 21
899.585449959373
 31
0.0
  0
ARC
  5
331F
330
3312
100
AcDbEntity
  8
細線
100
AcDbCircle
 10
-2313.57577690252
 20
764.530397073418
 30
0.0
 40
18.322924
100
AcDbArc
 50
247.068453993571
 51
267.322397459894
  0
LINE
  5
3320
330
3312
100
AcDbEntity
  8
外形線
100
AcDbLine
 10
-2350.212476923446
 20
865.701905073417
 30
0.0
 11
-2313.13815490252
 21
867.781495073418
 31
0.0
  0
LINE
  5
3321
330
3312
100
AcDbEntity
  8
外形線
100
AcDbLine
 10
-2338.192964902521
 20
755.652313073418
 30
0.0
 11
-2315.79049890252
 21
755.652313073418
 31
0.0
  0
LINE
  5
3322
330
3312
100
AcDbEntity
  8
外形線
100
AcDbLine
 10
-2339.56454690252
 20
746.227479073417
 30
0.0
 11
-2314.43173290252
 21
746.227479073417
 31
0.0
  0
LINE
  5
3323
330
3312
100
AcDbEntity
  8
外形線
100
AcDbLine
 10
-2340.99252490252
 20
751.368287073418
 30
0.0
 11
-2313.00363290252
 21
751.368287073418
 31
0.0
  0
ARC
  5
3324
330
3312
100
AcDbEntity
  8
細線
100
AcDbCircle
 10
-2326.38266090252
 20
744.885315073418
 30
0.0
 40
36.766532
100
AcDbArc
 50
68.885514212383
 51
115.211785839404
  0
LINE
  5
3325
330
3312
100
AcDbEntity
  8
中心線
 48
10.0
100
AcDbLine
 10
-2326.99814090252
 20
795.744629073417
 30
0.0
 11
-2326.99814090252
 21
740.142335073418
 31
0.0
  0
LINE
  5
3326
330
3312
100
AcDbEntity
  8
外形線
100
AcDbLine
 10
-2343.26095690252
 20
775.618653073418
 30
0.0
 11
-2341.02585090252
 21
758.145935073418
 31
0.0
  0
LINE
  5
3327
330
3312
100
AcDbEntity
  8
外形線
100
AcDbLine
 10
-2393.998140902519
 20
763.585504959373
 30
0.0
 11
-2503.803170902519
 21
763.585504959373
 31
0.0
  0
LINE
  5
3328
330
3312
100
AcDbEntity
  8
外形線
100
AcDbLine
 10
-2393.998140902519
 20
750.585472459373
 30
0.0
 11
-2503.803170902519
 21
750.585472459373
 31
0.0
  0
LINE
  5
3329
330
3312
100
AcDbEntity
  8
中心線
 48
10.0
100
AcDbLine
 10
-2522.545160902519
 20
757.085489959373
 30
0.0
 11
-2364.35603590252
 21
757.085489959373
 31
0.0
  0
LINE
  5
332A
330
3312
100
AcDbEntity
  8
外形線
100
AcDbLine
 10
-2513.803170902519
 20
744.585449959373
 30
0.0
 11
-2503.803170902519
 21
744.585449959373
 31
0.0
  0
LINE
  5
332B
330
3312
100
AcDbEntity
  8
外形線
100
AcDbLine
 10
-2377.77736340252
 20
764.835504959373
 30
0.0
 11
-2376.498140902519
 21
762.738144959373
 31
0.0
  0
ARC
  5
332C
330
3312
100
AcDbEntity
  8
細線
100
AcDbCircle
 10
-2380.147053402519
 20
764.368317459373
 30
0.0
 40
3.996535
100
AcDbArc
 50
301.493886840397
 51
335.927103341708
  0
ARC
  5
332D
330
3312
100
AcDbEntity
  8
細線
100
AcDbCircle
 10
-2381.97475090252
 20
757.131112459373
 30
0.0
 40
5.47679
100
AcDbArc
 50
359.522880443905
 51
44.363245040191
  0
ARC
  5
332E
330
3312
100
AcDbEntity
  8
細線
100
AcDbCircle
 10
-2380.147053402519
 20
749.802659959373
 30
0.0
 40
3.996535
100
AcDbArc
 50
24.072936353984
 51
58.506152855296
  0
ARC
  5
332F
330
3312
100
AcDbEntity
  8
細線
100
AcDbCircle
 10
-2381.97475090252
 20
757.039864959373
 30
0.0
 40
5.47679
100
AcDbArc
 50
315.636777055405
 51
0.477141651694
  0
LINE
  5
3330
330
3312
100
AcDbEntity
  8
外形線
100
AcDbLine
 10
-2377.77736340252
 20
749.335472459373
 30
0.0
 11
-2376.498140902519
 21
751.432832459373
 31
0.0
  0
LINE
  5
3331
330
3312
100
AcDbEntity
  8
外形線
100
AcDbLine
 10
-2393.998140902519
 20
744.585449959373
 30
0.0
 11
-2383.998140902519
 21
744.585449959373
 31
0.0
  0
LINE
  5
3332
330
3312
100
AcDbEntity
  8
外形線
100
AcDbLine
 10
-2383.998140902519
 20
764.835504959373
 30
0.0
 11
-2377.77736340252
 21
764.835504959373
 31
0.0
  0
LINE
  5
3333
330
3312
100
AcDbEntity
  8
細線
100
AcDbLine
 10
-2383.998140902519
 20
760.960497459373
 30
0.0
 11
-2378.059268402519
 21
760.960497459373
 31
0.0
  0
LINE
  5
3334
330
3312
100
AcDbEntity
  8
細線
100
AcDbLine
 10
-2383.998140902519
 20
753.210479959373
 30
0.0
 11
-2378.059268402519
 21
753.210479959373
 31
0.0
  0
LINE
  5
3335
330
3312
100
AcDbEntity
  8
外形線
100
AcDbLine
 10
-2383.998140902519
 20
749.335472459373
 30
0.0
 11
-2377.77736340252
 21
749.335472459373
 31
0.0
  0
LINE
  5
3336
330
3312
100
AcDbEntity
  8
外形線
100
AcDbLine
 10
-2372.246050902519
 20
762.085489959373
 30
0.0
 11
-2371.498140902519
 21
760.894349959373
 31
0.0
  0
ARC
  5
3337
330
3312
100
AcDbEntity
  8
細線
100
AcDbCircle
 10
-2373.486363402519
 20
761.301072459373
 30
0.0
 40
2.029365
100
AcDbArc
 50
302.28783445711
 51
348.438782713979
  0
ARC
  5
3338
330
3312
100
AcDbEntity
  8
細線
100
AcDbCircle
 10
-2377.000080902519
 20
756.509124959373
 30
0.0
 40
5.53204
100
AcDbArc
 50
5.980132395117
 51
33.786289854839
  0
LINE
  5
3339
330
3312
100
AcDbEntity
  8
外形線
100
AcDbLine
 10
-2372.246050902519
 20
752.085489959373
 30
0.0
 11
-2371.498140902519
 21
753.276627459373
 31
0.0
  0
ARC
  5
333A
330
3312
100
AcDbEntity
  8
細線
100
AcDbCircle
 10
-2373.486363402519
 20
752.869904959373
 30
0.0
 40
2.029365
100
AcDbArc
 50
11.561199685929
 51
57.712147942814
  0
LINE
  5
333B
330
3312
100
AcDbEntity
  8
外形線
100
AcDbLine
 10
-2371.498140902519
 20
753.276627459373
 30
0.0
 11
-2371.498140902519
 21
760.894349959373
 31
0.0
  0
ARC
  5
333C
330
3312
100
AcDbEntity
  8
細線
100
AcDbCircle
 10
-2377.000080902519
 20
757.661852459373
 30
0.0
 40
5.53204
100
AcDbArc
 50
326.213692545076
 51
354.019850004791
  0
LINE
  5
333D
330
3312
100
AcDbEntity
  8
外形線
100
AcDbLine
 10
-2376.498140902519
 20
751.432832459373
 30
0.0
 11
-2376.498140902519
 21
762.738144959373
 31
0.0
  0
LINE
  5
333E
330
3312
100
AcDbEntity
  8
外形線
100
AcDbLine
 10
-2376.498140902519
 20
762.085489959373
 30
0.0
 11
-2372.246050902519
 21
762.085489959373
 31
0.0
  0
LINE
  5
333F
330
3312
100
AcDbEntity
  8
外形線
100
AcDbLine
 10
-2376.498140902519
 20
752.085489959373
 30
0.0
 11
-2372.246050902519
 21
752.085489959373
 31
0.0
  0
LINE
  5
3340
330
3312
100
AcDbEntity
  8
細線
100
AcDbLine
 10
-2376.498140902519
 20
759.585489959373
 30
0.0
 11
-2372.402300902519
 21
759.585489959373
 31
0.0
  0
LINE
  5
3341
330
3312
100
AcDbEntity
  8
細線
100
AcDbLine
 10
-2376.498140902519
 20
754.585489959373
 30
0.0
 11
-2372.402300902519
 21
754.585489959373
 31
0.0
  0
LINE
  5
3342
330
3312
100
AcDbEntity
  8
細線
100
AcDbLine
 10
-2320.71493690252
 20
747.655519073418
 30
0.0
 11
-2320.71493690252
 21
751.368287073418
 31
0.0
  0
LINE
  5
3343
330
3312
100
AcDbEntity
  8
細線
100
AcDbLine
 10
-2333.28134290252
 20
747.655519073418
 30
0.0
 11
-2333.28134290252
 21
751.368287073418
 31
0.0
  0
ARC
  5
3344
330
3312
100
AcDbEntity
  8
細線
100
AcDbCircle
 10
-2326.99814090252
 20
760.764161073418
 30
0.0
 40
14.53669
100
AcDbArc
 50
244.3907930338
 51
295.609209213942
  0
ARC
  5
3345
330
3312
100
AcDbEntity
  8
外形線
100
AcDbCircle
 10
-2338.192964902521
 20
758.508301073417
 30
0.0
 40
2.856
100
AcDbArc
 50
187.289418100616
 51
270.0
  0
LINE
  5
3346
330
3312
100
AcDbEntity
  8
外形線
100
AcDbLine
 10
-2340.99252490252
 20
747.655519073418
 30
0.0
 11
-2339.56454690252
 21
746.227479073417
 31
0.0
  0
LINE
  5
3347
330
3312
100
AcDbEntity
  8
外形線
100
AcDbLine
 10
-2340.99252490252
 20
751.368287073418
 30
0.0
 11
-2340.99252490252
 21
747.655519073418
 31
0.0
  0
LINE
  5
3348
330
3312
100
AcDbEntity
  8
細線
100
AcDbLine
 10
-2334.13815490252
 20
755.652283073417
 30
0.0
 11
-2334.13815490252
 21
751.368287073418
 31
0.0
  0
LINE
  5
3349
330
3312
100
AcDbEntity
  8
外形線
100
AcDbLine
 10
-2336.42294490252
 20
751.368287073418
 30
0.0
 11
-2336.42294490252
 21
755.652283073417
 31
0.0
  0
ARC
  5
334A
330
3312
100
AcDbEntity
  8
細線
100
AcDbCircle
 10
-2340.420502902521
 20
764.530397073418
 30
0.0
 40
18.322924
100
AcDbArc
 50
272.67766208363
 51
292.93154825417
  0
LINE
  5
334B
330
3312
100
AcDbEntity
  8
外形線
100
AcDbLine
 10
-2419.553103402519
 20
827.085602459373
 30
0.0
 11
-2441.303133402519
 21
827.085602459373
 31
0.0
  0
LINE
  5
334C
330
3312
100
AcDbEntity
  8
外形線
100
AcDbLine
 10
-2419.553103402519
 20
817.085374959373
 30
0.0
 11
-2441.303133402519
 21
817.085374959373
 31
0.0
  0
LINE
  5
334D
330
3312
100
AcDbEntity
  8
外形線
100
AcDbLine
 10
-2441.303133402519
 20
827.873377459373
 30
0.0
 11
-2441.303133402519
 21
816.297599959373
 31
0.0
  0
ARC
  5
334E
330
3312
100
AcDbEntity
  8
細線
100
AcDbCircle
 10
-2446.923140921432
 20
822.085508869948
 30
0.0
 40
5.62000751922095
100
AcDbArc
 50
318.143885364227
 51
41.855618507183
  0
LINE
  5
334F
330
3312
100
AcDbEntity
  8
細線
100
AcDbLine
 10
-2465.053170902519
 20
826.335479959373
 30
0.0
 11
-2465.053170902519
 21
817.835497459373
 31
0.0
  0
LINE
  5
3350
330
3312
100
AcDbEntity
  8
外形線
100
AcDbLine
 10
-2483.803170902519
 20
847.085489959373
 30
0.0
 11
-2483.803170902519
 21
797.085489959373
 31
0.0
  0
LINE
  5
3351
330
3312
100
AcDbEntity
  8
外形線
100
AcDbLine
 10
-2471.553185902519
 20
832.085489959373
 30
0.0
 11
-2471.553185902519
 21
812.085489959373
 31
0.0
  0
LINE
  5
3352
330
3312
100
AcDbEntity
  8
外形線
100
AcDbLine
 10
-2448.05316340252
 20
829.585489959373
 30
0.0
 11
-2448.05316340252
 21
814.585489959373
 31
0.0
  0
LINE
  5
3353
330
3312
100
AcDbEntity
  8
外形線
100
AcDbLine
 10
-2450.55316340252
 20
832.085489959373
 30
0.0
 11
-2450.55316340252
 21
812.085489959373
 31
0.0
  0
LINE
  5
3354
330
3312
100
AcDbEntity
  8
外形線
100
AcDbLine
 10
-2455.55316340252
 20
806.585497459373
 30
0.0
 11
-2455.55316340252
 21
837.585479959373
 31
0.0
  0
LINE
  5
3355
330
3312
100
AcDbEntity
  8
外形線
100
AcDbLine
 10
-2466.553185902519
 20
837.585479959373
 30
0.0
 11
-2466.553185902519
 21
806.585497459373
 31
0.0
  0
LINE
  5
3356
330
3312
100
AcDbEntity
  8
細線
100
AcDbLine
 10
-2465.80317840252
 20
828.335489959373
 30
0.0
 11
-2465.80317840252
 21
815.835489959373
 31
0.0
  0
LINE
  5
3357
330
3312
100
AcDbEntity
  8
外形線
100
AcDbLine
 10
-2483.803170902519
 20
797.085489959373
 30
0.0
 11
-2503.803170902519
 21
797.085489959373
 31
0.0
  0
LINE
  5
3358
330
3312
100
AcDbEntity
  8
細線
100
AcDbLine
 10
-2465.80317840252
 20
815.835489959373
 30
0.0
 11
-2462.05317840252
 21
815.835489959373
 31
0.0
  0
LINE
  5
3359
330
3312
100
AcDbEntity
  8
細線
100
AcDbLine
 10
-2460.053170902519
 20
817.835497459373
 30
0.0
 11
-2465.053170902519
 21
817.835497459373
 31
0.0
  0
LINE
  5
335A
330
3312
100
AcDbEntity
  8
外形線
100
AcDbLine
 10
-2462.05317840252
 20
806.585497459373
 30
0.0
 11
-2466.553185902519
 21
806.585497459373
 31
0.0
  0
LINE
  5
335B
330
3312
100
AcDbEntity
  8
外形線
100
AcDbLine
 10
-2466.553185902519
 20
812.085489959373
 30
0.0
 11
-2471.553185902519
 21
812.085489959373
 31
0.0
  0
LINE
  5
335C
330
3312
100
AcDbEntity
  8
外形線
100
AcDbLine
 10
-2471.553185902519
 20
817.085489959373
 30
0.0
 11
-2483.803170902519
 21
817.085489959373
 31
0.0
  0
LINE
  5
335D
330
3312
100
AcDbEntity
  8
外形線
100
AcDbLine
 10
-2442.58029340252
 20
814.585489959373
 30
0.0
 11
-2441.303133402519
 21
816.297599959373
 31
0.0
  0
ARC
  5
335E
330
3312
100
AcDbEntity
  8
細線
100
AcDbCircle
 10
-2446.83391090252
 20
813.929017459373
 30
0.0
 40
6.016645
100
AcDbArc
 50
23.183190193924
 51
47.086301857426
  0
LINE
  5
335F
330
3312
100
AcDbEntity
  8
外形線
100
AcDbLine
 10
-2450.55316340252
 20
812.085489959373
 30
0.0
 11
-2455.55316340252
 21
812.085489959373
 31
0.0
  0
LINE
  5
3360
330
3312
100
AcDbEntity
  8
外形線
100
AcDbLine
 10
-2455.55316340252
 20
806.585497459373
 30
0.0
 11
-2460.053170902519
 21
806.585497459373
 31
0.0
  0
LINE
  5
3361
330
3312
100
AcDbEntity
  8
細線
100
AcDbLine
 10
-2462.05317840252
 20
806.585497459373
 30
0.0
 11
-2462.05317840252
 21
815.835489959373
 31
0.0
  0
LINE
  5
3362
330
3312
100
AcDbEntity
  8
細線
100
AcDbLine
 10
-2460.053170902519
 20
806.585497459373
 30
0.0
 11
-2460.053170902519
 21
817.835497459373
 31
0.0
  0
LINE
  5
3363
330
3312
100
AcDbEntity
  8
外形線
100
AcDbLine
 10
-2450.55316340252
 20
814.585489959373
 30
0.0
 11
-2442.58029340252
 21
814.585489959373
 31
0.0
  0
LINE
  5
3364
330
3312
100
AcDbEntity
  8
細線
100
AcDbLine
 10
-2448.05316340252
 20
818.335489959373
 30
0.0
 11
-2442.737230902519
 21
818.335489959373
 31
0.0
  0
LINE
  5
3365
330
3312
100
AcDbEntity
  8
外形線
100
AcDbLine
 10
-2483.803170902519
 20
847.085489959373
 30
0.0
 11
-2503.803170902519
 21
847.085489959373
 31
0.0
  0
LINE
  5
3366
330
3312
100
AcDbEntity
  8
外形線
100
AcDbLine
 10
-2462.05317840252
 20
837.585479959373
 30
0.0
 11
-2466.553185902519
 21
837.585479959373
 31
0.0
  0
LINE
  5
3367
330
3312
100
AcDbEntity
  8
細線
100
AcDbLine
 10
-2465.80317840252
 20
828.335489959373
 30
0.0
 11
-2462.05317840252
 21
828.335489959373
 31
0.0
  0
LINE
  5
3368
330
3312
100
AcDbEntity
  8
細線
100
AcDbLine
 10
-2460.053170902519
 20
826.335479959373
 30
0.0
 11
-2465.053170902519
 21
826.335479959373
 31
0.0
  0
LINE
  5
3369
330
3312
100
AcDbEntity
  8
外形線
100
AcDbLine
 10
-2466.553185902519
 20
832.085489959373
 30
0.0
 11
-2471.553185902519
 21
832.085489959373
 31
0.0
  0
LINE
  5
336A
330
3312
100
AcDbEntity
  8
外形線
100
AcDbLine
 10
-2471.553185902519
 20
827.085489959373
 30
0.0
 11
-2483.803170902519
 21
827.085489959373
 31
0.0
  0
ARC
  5
336B
330
3312
100
AcDbEntity
  8
細線
100
AcDbCircle
 10
-2446.83391090252
 20
830.241959959373
 30
0.0
 40
6.016645
100
AcDbArc
 50
312.913737838254
 51
336.816849501767
  0
LINE
  5
336C
330
3312
100
AcDbEntity
  8
外形線
100
AcDbLine
 10
-2442.58029340252
 20
829.585489959373
 30
0.0
 11
-2441.303133402519
 21
827.873377459373
 31
0.0
  0
LINE
  5
336D
330
3312
100
AcDbEntity
  8
外形線
100
AcDbLine
 10
-2450.55316340252
 20
832.085489959373
 30
0.0
 11
-2455.55316340252
 21
832.085489959373
 31
0.0
  0
LINE
  5
336E
330
3312
100
AcDbEntity
  8
細線
100
AcDbLine
 10
-2462.05317840252
 20
837.585479959373
 30
0.0
 11
-2462.05317840252
 21
828.335489959373
 31
0.0
  0
LINE
  5
336F
330
3312
100
AcDbEntity
  8
外形線
100
AcDbLine
 10
-2455.55316340252
 20
837.585479959373
 30
0.0
 11
-2460.053170902519
 21
837.585479959373
 31
0.0
  0
LINE
  5
3370
330
3312
100
AcDbEntity
  8
細線
100
AcDbLine
 10
-2460.053170902519
 20
837.585479959373
 30
0.0
 11
-2460.053170902519
 21
826.335479959373
 31
0.0
  0
LINE
  5
3371
330
3312
100
AcDbEntity
  8
外形線
100
AcDbLine
 10
-2450.55316340252
 20
829.585489959373
 30
0.0
 11
-2442.58029340252
 21
829.585489959373
 31
0.0
  0
LINE
  5
3372
330
3312
100
AcDbEntity
  8
細線
100
AcDbLine
 10
-2448.05316340252
 20
825.835489959373
 30
0.0
 11
-2442.737230902519
 21
825.835489959373
 31
0.0
  0
LINE
  5
3373
330
3312
100
AcDbEntity
  8
細線
100
AcDbLine
 10
-2354.010084923446
 20
861.212677073418
 30
0.0
 11
-2354.010084923446
 21
782.958283073418
 31
0.0
  0
LINE
  5
3374
330
3312
100
AcDbEntity
  8
細線
100
AcDbLine
 10
-2366.290968923447
 20
844.933473073417
 30
0.0
 11
-2366.290968923447
 21
799.237427073418
 31
0.0
  0
ARC
  5
3375
330
3312
100
AcDbEntity
  8
細線
100
AcDbCircle
 10
-2401.910660902519
 20
821.956932459373
 30
0.0
 40
17.6428625
100
AcDbArc
 50
179.582505502533
 51
204.991121068525
  0
LINE
  5
3376
330
3312
100
AcDbEntity
  8
外形線
100
AcDbLine
 10
-2419.553103402519
 20
810.290939959373
 30
0.0
 11
-2419.553103402519
 21
833.880227459373
 31
0.0
  0
LINE
  5
3377
330
3312
100
AcDbEntity
  8
外形線
100
AcDbLine
 10
-2399.33360590252
 20
807.482637459373
 30
0.0
 11
-2399.33360590252
 21
836.688417459373
 31
0.0
  0
LINE
  5
3378
330
3312
100
AcDbEntity
  8
外形線
100
AcDbLine
 10
-2367.777174923446
 20
797.908693073417
 30
0.0
 11
-2382.342968923446
 21
795.909425073417
 31
0.0
  0
ARC
  5
3379
330
3312
100
AcDbEntity
  8
外形線
100
AcDbCircle
 10
-2381.224560923446
 20
793.366455073417
 30
0.0
 40
2.778136
100
AcDbArc
 50
113.741117770862
 51
176.718232188895
  0
LINE
  5
337A
330
3312
100
AcDbEntity
  8
外形線
100
AcDbLine
 10
-2393.998140902519
 20
807.482637459373
 30
0.0
 11
-2416.74487590252
 21
807.482637459373
 31
0.0
  0
LINE
  5
337B
330
3312
100
AcDbEntity
  8
細線
100
AcDbLine
 10
-2399.33360590252
 20
814.503282459373
 30
0.0
 11
-2417.901720902519
 21
814.503282459373
 31
0.0
  0
ARC
  5
337C
330
3312
100
AcDbEntity
  8
細線
100
AcDbCircle
 10
-2409.461625902519
 20
808.764679959373
 30
0.0
 40
10.206275
100
AcDbArc
 50
145.787277506084
 51
171.399522272475
  0
LINE
  5
337D
330
3312
100
AcDbEntity
  8
外形線
100
AcDbLine
 10
-2416.74487590252
 20
807.482637459373
 30
0.0
 11
-2419.553103402519
 21
810.291017459373
 31
0.0
  0
LWPOLYLINE
  5
337E
330
3312
100
AcDbEntity
  8
外形線
100
AcDbPolyline
 90
       67
 70
     0
 43
0.0
 10
-2350.212476923446
 20
778.468995073418
 10
-2350.253237842367
 20
778.480742751955
 10
-2350.368421745604
 20
778.515124362438
 10
-2350.547380352884
 20
778.57084776716
 10
-2350.77946538393
 20
778.646620828421
 10
-2351.054028558466
 20
778.741151408519
 10
-2351.360421596212
 20
778.853147369756
 10
-2351.687996216896
 20
778.981316574426
 10
-2352.026104140238
 20
779.124366884827
 10
-2352.364097085961
 20
779.281006163262
 10
-2352.69132677379
 20
779.449942272026
 10
-2352.997144923446
 20
779.629883073418
 10
-2353.34167065603
 20
779.871862301012
 10
-2353.639781864368
 20
780.128041764822
 10
-2353.896531238006
 20
780.397029655784
 10
-2354.116971466492
 20
780.677434164836
 10
-2354.306155239368
 20
780.967863482914
 10
-2354.469135246184
 20
781.266925800956
 10
-2354.610964176484
 20
781.573229309897
 10
-2354.736694719814
 20
781.885382200677
 10
-2354.85137956572
 20
782.201992664234
 10
-2354.960071403751
 20
782.521668891502
 10
-2355.067822923446
 20
782.843019073418
 10
-2355.29549524278
 20
783.491483972731
 10
-2355.538902566072
 20
784.140190173302
 10
-2355.7970945495
 20
784.788234211723
 10
-2356.069120849246
 20
785.434712624595
 10
-2356.354031121488
 20
786.078721948513
 10
-2356.650875022408
 20
786.719358720075
 10
-2356.958702208184
 20
787.355719475876
 10
-2357.276562334996
 20
787.986900752516
 10
-2357.603505059024
 20
788.611999086585
 10
-2357.938580036448
 20
789.230111014688
 10
-2358.280836923446
 20
789.840333073417
 10
-2358.53912959825
 20
790.288450596365
 10
-2358.79974589844
 20
790.733239607156
 10
-2359.061568546326
 20
791.176227035582
 10
-2359.323480264215
 20
791.61893981144
 10
-2359.584363774414
 20
792.062904864528
 10
-2359.843101799236
 20
792.509649124638
 10
-2360.098577060986
 20
792.960699521569
 10
-2360.349672281974
 20
793.417582985117
 10
-2360.595270184506
 20
793.881826445077
 10
-2360.834253490896
 20
794.354956831246
 10
-2361.065504923446
 20
794.838501073418
 10
-2361.226937403852
 20
795.191759451606
 10
-2361.388890698378
 20
795.546244294288
 10
-2361.556440212718
 20
795.897036233539
 10
-2361.734661352561
 20
796.23921590144
 10
-2361.928629523592
 20
796.567863930066
 10
-2362.143420131509
 20
796.878060951496
 10
-2362.384108581994
 20
797.164887597806
 10
-2362.655770280742
 20
797.423424501075
 10
-2362.963480633441
 20
797.648752293383
 10
-2363.312315045779
 20
797.835951606804
 10
-2363.707348923446
 20
797.980103073417
 10
-2364.146202022828
 20
798.077594197189
 10
-2364.61942779965
 20
798.134509505499
 10
-2365.110977433596
 20
798.157442074036
 10
-2365.604802104348
 20
798.152984978492
 10
-2366.084852991588
 20
798.127731294556
 10
-2366.535081274996
 20
798.08827409792
 10
-2366.939438134256
 20
798.041206464274
 10
-2367.28187474905
 20
797.993121469312
 10
-2367.546342299058
 20
797.95061218872
 10
-2367.716791963964
 20
797.920271698192
 10
-2367.777174923446
 20
797.908693073417
  0
LINE
  5
337F
330
3312
100
AcDbEntity
  8
外形線
100
AcDbLine
 10
-2350.212476923446
 20
778.468995073418
 30
0.0
 11
-2345.939687208818
 21
778.108063678502
 31
0.0
  0
ARC
  5
3380
330
3312
100
AcDbEntity
  8
外形線
100
AcDbCircle
 10
-2346.09384290252
 20
775.256227073417
 30
0.0
 40
2.856
100
AcDbArc
 50
7.289398252773
 51
86.905894590757
  0
LINE
  5
3381
330
3312
100
AcDbEntity
  8
外形線
100
AcDbLine
 10
-2367.777174923446
 20
846.262207073418
 30
0.0
 11
-2382.342968923446
 21
848.261475073418
 31
0.0
  0
LINE
  5
3382
330
3312
100
AcDbEntity
  8
外形線
100
AcDbLine
 10
-2393.998140902519
 20
836.688417459373
 30
0.0
 11
-2416.74487590252
 21
836.688417459373
 31
0.0
  0
LINE
  5
3383
330
3312
100
AcDbEntity
  8
細線
100
AcDbLine
 10
-2399.33360590252
 20
829.667772459373
 30
0.0
 11
-2417.901720902519
 21
829.667772459373
 31
0.0
  0
ARC
  5
3384
330
3312
100
AcDbEntity
  8
細線
100
AcDbCircle
 10
-2409.461625902519
 20
835.406524959373
 30
0.0
 40
10.206275
100
AcDbArc
 50
188.600460127437
 51
214.212762189598
  0
LINE
  5
3385
330
3312
100
AcDbEntity
  8
外形線
100
AcDbLine
 10
-2416.74487590252
 20
836.688417459373
 30
0.0
 11
-2419.553103402519
 21
833.880264959373
 31
0.0
  0
ARC
  5
3386
330
3312
100
AcDbEntity
  8
細線
100
AcDbCircle
 10
-2401.910660902519
 20
822.214044959373
 30
0.0
 40
17.6428625
100
AcDbArc
 50
155.008861331383
 51
180.417476897376
  0
ARC
  5
3387
330
3312
100
AcDbEntity
  8
外形線
100
AcDbCircle
 10
-2381.224560923446
 20
850.804567073418
 30
0.0
 40
2.778136
100
AcDbArc
 50
183.281807506792
 51
246.258864629058
  0
LWPOLYLINE
  5
3388
330
3312
100
AcDbEntity
  8
外形線
100
AcDbPolyline
 90
       67
 70
     0
 43
0.0
 10
-2350.212476923446
 20
865.701905073417
 10
-2350.253237779094
 20
865.69015731945
 10
-2350.368421517826
 20
865.655775512847
 10
-2350.54737989733
 20
865.600051836577
 10
-2350.779464675292
 20
865.524278473594
 10
-2351.054027609396
 20
865.42974760686
 10
-2351.36042045733
 20
865.317751419332
 10
-2351.687994976778
 20
865.189582093974
 10
-2352.026102925428
 20
865.046531813744
 10
-2352.364096060966
 20
864.8898927616
 10
-2352.691326141078
 20
864.720957120506
 10
-2352.997144923446
 20
864.541017073418
 10
-2353.341663247734
 20
864.299045943525
 10
-2353.639769824428
 20
864.042875754091
 10
-2353.896516911412
 20
863.773898121505
 10
-2354.116956766568
 20
863.493504662148
 10
-2354.306141647776
 20
863.203086992404
 10
-2354.469123812916
 20
862.904036728662
 10
-2354.61095551987
 20
862.597745487304
 10
-2354.73668902652
 20
862.285604884715
 10
-2354.851376590746
 20
861.969006537282
 10
-2354.960070470426
 20
861.649342061387
 10
-2355.067822923446
 20
861.328003073418
 10
-2355.295502472002
 20
860.679531836784
 10
-2355.538913008306
 20
860.03081670765
 10
-2355.79710504533
 20
859.382761696264
 10
-2356.069129096039
 20
858.736270812868
 10
-2356.3540356734
 20
858.092248067707
 10
-2356.65087529038
 20
857.451597471028
 10
-2356.95869845995
 20
856.815223033075
 10
-2357.276555695073
 20
856.184028764093
 10
-2357.603497508718
 20
855.558918674325
 10
-2357.938574413854
 20
854.94079677402
 10
-2358.280836923446
 20
854.330567073418
 10
-2358.53912794297
 20
853.882460328281
 10
-2358.799744385048
 20
853.437683061873
 10
-2359.061568483282
 20
852.994708043085
 10
-2359.32348247128
 20
852.5520080408
 10
-2359.584368582647
 20
852.108055823905
 10
-2359.843109050984
 20
851.661324161289
 10
-2360.0985861099
 20
851.210285821837
 10
-2360.349681993
 20
850.753413574439
 10
-2360.595278933886
 20
850.289180187978
 10
-2360.834259166169
 20
849.816058431341
 10
-2361.065504923446
 20
849.332521073417
 10
-2361.22693811312
 20
848.979251696429
 10
-2361.388890605926
 20
848.624754678809
 10
-2361.556438263932
 20
848.273949774386
 10
-2361.734656949208
 20
847.931756736989
 10
-2361.92862252382
 20
847.603095320444
 10
-2362.143410849842
 20
847.292885278578
 10
-2362.384097789338
 20
847.006046365219
 10
-2362.655759204376
 20
846.747498334197
 10
-2362.96347095703
 20
846.522160939337
 10
-2363.312308909364
 20
846.334953934469
 10
-2363.707348923446
 20
846.190797073418
 10
-2364.1462004138
 20
846.093304830928
 10
-2364.619425193028
 20
846.036388829014
 10
-2365.110974344266
 20
846.013455924862
 10
-2365.604798950656
 20
846.01791297566
 10
-2366.084850095341
 20
846.04316683859
 10
-2366.535078861458
 20
846.08262437084
 10
-2366.939436332148
 20
846.129692429598
 10
-2367.281873590552
 20
846.177777872047
 10
-2367.54634171981
 20
846.220287555378
 10
-2367.71679180306
 20
846.250628336772
 10
-2367.777174923446
 20
846.262207073418
  0
ARC
  5
3389
330
3312
100
AcDbEntity
  8
外形線
100
AcDbCircle
 10
-2310.360103644516
 20
770.085449073418
 30
0.0
 40
1.0
100
AcDbArc
 50
90.0
 51
172.420956229591
  0
LINE
  5
338A
330
3312
100
AcDbEntity
  8
外形線
100
AcDbLine
 10
-2311.351367491928
 20
770.217342912593
 30
0.0
 11
-2312.9594489924
 21
758.131614988712
 31
0.0
  0
ARC
  5
338B
330
3312
100
AcDbEntity
  8
外形線
100
AcDbCircle
 10
-2315.79049890252
 20
758.508301073417
 30
0.0
 40
2.856
100
AcDbArc
 50
270.0
 51
352.421011277476
  0
LINE
  5
338C
330
3312
100
AcDbEntity
  8
外形線
100
AcDbLine
 10
-2313.00363290252
 20
747.655519073418
 30
0.0
 11
-2314.43173290252
 21
746.227479073417
 31
0.0
  0
LINE
  5
338D
330
3312
100
AcDbEntity
  8
外形線
100
AcDbLine
 10
-2313.00363290252
 20
751.368287073418
 30
0.0
 11
-2313.00363290252
 21
747.655519073418
 31
0.0
  0
LINE
  5
338E
330
3312
100
AcDbEntity
  8
細線
100
AcDbLine
 10
-2319.85812490252
 20
755.652283073417
 30
0.0
 11
-2319.85812490252
 21
751.368287073418
 31
0.0
  0
LINE
  5
338F
330
3312
100
AcDbEntity
  8
外形線
100
AcDbLine
 10
-2317.57333490252
 20
751.368287073418
 30
0.0
 11
-2317.57333490252
 21
755.652283073417
 31
0.0
  0
LINE
  5
3390
330
3312
100
AcDbEntity
  8
細線
100
AcDbLine
 10
-2313.13815490252
 20
867.781495073418
 30
0.0
 11
-2313.13815490252
 21
779.077759073417
 31
0.0
  0
ARC
  5
3391
330
3312
100
AcDbEntity
  8
外形線
100
AcDbCircle
 10
-2251.57895090252
 20
820.232667073418
 30
0.0
 40
2.15556
100
AcDbArc
 50
181.910948686163
 51
264.487402289583
  0
ARC
  5
3392
330
3312
100
AcDbEntity
  8
外形線
100
AcDbCircle
 10
-2289.57809690252
 20
822.667969073417
 30
0.0
 40
5.033766
100
AcDbArc
 50
284.815257311477
 51
353.355849216015
  0
LINE
  5
3393
330
3312
100
AcDbEntity
  8
外形線
100
AcDbLine
 10
-2253.73337090252
 20
822.085449073418
 30
0.0
 11
-2253.73337090252
 21
779.597169073417
 31
0.0
  0
LINE
  5
3394
330
3312
100
AcDbEntity
  8
外形線
100
AcDbLine
 10
-2284.57821890252
 20
773.533447073417
 30
0.0
 11
-2258.36398490252
 21
774.747133073417
 31
0.0
  0
ARC
  5
3395
330
3312
100
AcDbEntity
  8
外形線
100
AcDbCircle
 10
-2288.61703690252
 20
795.234987073417
 30
0.0
 40
4.015794000000001
100
AcDbArc
 50
275.934583374273
 51
85.343077308664
  0
LINE
  5
3396
330
3312
100
AcDbEntity
  8
外形線
100
AcDbLine
 10
-2286.250886902521
 20
779.816651073417
 30
0.0
 11
-2303.99899490252
 21
779.816651073417
 31
0.0
  0
LINE
  5
3397
330
3312
100
AcDbEntity
  8
外形線
100
AcDbLine
 10
-2303.99899490252
 20
791.240723073417
 30
0.0
 11
-2288.20187690252
 21
791.240723073417
 31
0.0
  0
LINE
  5
3398
330
3312
100
AcDbEntity
  8
外形線
100
AcDbLine
 10
-2286.250886902521
 20
776.389527073417
 30
0.0
 11
-2303.99899490252
 21
776.389527073417
 31
0.0
  0
LINE
  5
3399
330
3312
100
AcDbEntity
  8
外形線
100
AcDbLine
 10
-2310.360103644516
 20
771.085449073418
 30
0.0
 11
-2288.29098690252
 21
771.085449073418
 31
0.0
  0
LINE
  5
339A
330
3312
100
AcDbEntity
  8
細線
100
AcDbLine
 10
-2310.282198902521
 20
771.085449073418
 30
0.0
 11
-2313.13815490252
 21
779.183433624192
 31
0.0
  0
LINE
  5
339B
330
3312
100
AcDbEntity
  8
細線
100
AcDbLine
 10
-2288.29098690252
 20
791.240723073417
 30
0.0
 11
-2288.29098690252
 21
779.816651073417
 31
0.0
  0
LINE
  5
339C
330
3312
100
AcDbEntity
  8
外形線
100
AcDbLine
 10
-2284.57821890252
 20
773.533447073417
 30
0.0
 11
-2288.29098690252
 21
771.085449073418
 31
0.0
  0
LINE
  5
339D
330
3312
100
AcDbEntity
  8
細線
100
AcDbLine
 10
-2288.29098690252
 20
776.389527073417
 30
0.0
 11
-2288.29098690252
 21
771.085449073418
 31
0.0
  0
ARC
  5
339E
330
3312
100
AcDbEntity
  8
外形線
100
AcDbCircle
 10
-2286.30490290252
 20
778.103029073417
 30
0.0
 40
1.714446
100
AcDbArc
 50
271.804703586974
 51
88.195318508605
  0
LINE
  5
339F
330
3312
100
AcDbEntity
  8
外形線
100
AcDbLine
 10
-2303.99899490252
 20
799.237427073418
 30
0.0
 11
-2288.29098690252
 21
799.237427073418
 31
0.0
  0
LINE
  5
33A0
330
3312
100
AcDbEntity
  8
外形線
100
AcDbLine
 10
-2303.99899490252
 20
817.801515073417
 30
0.0
 11
-2288.29098690252
 21
817.801515073417
 31
0.0
  0
LINE
  5
33A1
330
3312
100
AcDbEntity
  8
細線
100
AcDbLine
 10
-2288.29098690252
 20
817.801515073417
 30
0.0
 11
-2288.29098690252
 21
799.237427073418
 31
0.0
  0
ARC
  5
33A2
330
3312
100
AcDbEntity
  8
外形線
100
AcDbCircle
 10
-2251.73288090252
 20
794.667939073418
 30
0.0
 40
2.000724
100
AcDbArc
 50
87.757023395436
 51
272.242959004484
  0
ARC
  5
33A3
330
3312
100
AcDbEntity
  8
外形線
100
AcDbCircle
 10
-2245.88510290252
 20
790.817383073418
 30
0.0
 40
1.86215
100
AcDbArc
 50
268.482178628784
 51
83.815801009983
  0
ARC
  5
33A4
330
3312
100
AcDbEntity
  8
外形線
100
AcDbCircle
 10
-2258.588594902521
 20
779.597169073417
 30
0.0
 40
4.8552
100
AcDbArc
 50
272.650733067261
 51
359.999982399901
  0
LINE
  5
33A5
330
3312
100
AcDbEntity
  8
外形線
100
AcDbLine
 10
-2253.73337090252
 20
788.955933073418
 30
0.0
 11
-2245.93442090252
 21
788.955933073418
 31
0.0
  0
LINE
  5
33A6
330
3312
100
AcDbEntity
  8
外形線
100
AcDbLine
 10
-2251.65463490252
 20
792.668701073418
 30
0.0
 11
-2245.684542902521
 21
792.668701073418
 31
0.0
  0
ARC
  5
33A7
330
3312
100
AcDbEntity
  8
外形線
100
AcDbCircle
 10
-2246.022188902521
 20
816.087891073417
 30
0.0
 40
1.9992
100
AcDbArc
 50
0.0
 51
89.999981276021
  0
ARC
  5
33A8
330
3312
100
AcDbEntity
  8
外形線
100
AcDbCircle
 10
-2246.022188902521
 20
798.666261073417
 30
0.0
 40
1.9992
100
AcDbArc
 50
270.0
 51
359.999982399901
  0
LINE
  5
33A9
330
3312
100
AcDbEntity
  8
外形線
100
AcDbLine
 10
-2244.02292090252
 20
798.666261073417
 30
0.0
 11
-2244.02292090252
 21
816.087891073417
 31
0.0
  0
LINE
  5
33AA
330
3312
100
AcDbEntity
  8
外形線
100
AcDbLine
 10
-2251.65457290252
 20
796.667115073418
 30
0.0
 11
-2246.022188902521
 21
796.667115073418
 31
0.0
  0
LINE
  5
33AB
330
3312
100
AcDbEntity
  8
外形線
100
AcDbLine
 10
-2251.78598290252
 20
818.087159073418
 30
0.0
 11
-2246.022188902521
 21
818.087159073418
 31
0.0
  0
LINE
  5
33AC
330
3312
100
AcDbEntity
  8
細線
100
AcDbLine
 10
-2288.29098690252
 20
826.369507073417
 30
0.0
 11
-2288.29098690252
 21
844.933473073417
 31
0.0
  0
LINE
  5
33AD
330
3312
100
AcDbEntity
  8
外形線
100
AcDbLine
 10
-2303.99899490252
 20
826.369507073417
 30
0.0
 11
-2288.29098690252
 21
826.369507073417
 31
0.0
  0
ARC
  5
33AE
330
3312
100
AcDbEntity
  8
外形線
100
AcDbCircle
 10
-2289.57809690252
 20
821.503053073418
 30
0.0
 40
5.033766
100
AcDbArc
 50
6.644133183896
 51
75.184725088441
  0
LINE
  5
33AF
330
3312
100
AcDbEntity
  8
外形線
100
AcDbLine
 10
-2303.99899490252
 20
844.933473073417
 30
0.0
 11
-2288.29098690252
 21
844.933473073417
 31
0.0
  0
LINE
  5
33B0
330
3312
100
AcDbEntity
  8
外形線
100
AcDbLine
 10
-2303.99899490252
 20
852.930299073418
 30
0.0
 11
-2288.20187690252
 21
852.930299073418
 31
0.0
  0
LINE
  5
33B1
330
3312
100
AcDbEntity
  8
外形線
100
AcDbLine
 10
-2286.250886902521
 20
864.354249073418
 30
0.0
 11
-2303.99899490252
 21
864.354249073418
 31
0.0
  0
LINE
  5
33B2
330
3312
100
AcDbEntity
  8
外形線
100
AcDbLine
 10
-2286.250886902521
 20
867.781495073418
 30
0.0
 11
-2303.99899490252
 21
867.781495073418
 31
0.0
  0
ARC
  5
33B3
330
3312
100
AcDbEntity
  8
外形線
100
AcDbCircle
 10
-2286.30490290252
 20
866.067871073418
 30
0.0
 40
1.714446
100
AcDbArc
 50
271.804703586974
 51
88.195318508605
  0
LINE
  5
33B4
330
3312
100
AcDbEntity
  8
細線
100
AcDbLine
 10
-2288.29098690252
 20
852.930299073418
 30
0.0
 11
-2288.29098690252
 21
864.354249073418
 31
0.0
  0
ARC
  5
33B5
330
3312
100
AcDbEntity
  8
外形線
100
AcDbCircle
 10
-2288.61703690252
 20
848.936035073418
 30
0.0
 40
4.015794000000001
100
AcDbArc
 50
274.656944786914
 51
84.065438721313
  0
LINE
  5
33B6
330
3312
100
AcDbEntity
  8
外形線
100
AcDbLine
 10
-2244.02292090252
 20
845.504639073417
 30
0.0
 11
-2244.02292090252
 21
828.083009073418
 31
0.0
  0
LINE
  5
33B7
330
3312
100
AcDbEntity
  8
外形線
100
AcDbLine
 10
-2253.73337090252
 20
822.085449073418
 30
0.0
 11
-2253.73337090252
 21
864.573853073417
 31
0.0
  0
ARC
  5
33B8
330
3312
100
AcDbEntity
  8
外形線
100
AcDbCircle
 10
-2246.022188902521
 20
828.083009073418
 30
0.0
 40
1.9992
100
AcDbArc
 50
270.0
 51
359.999982399908
  0
ARC
  5
33B9
330
3312
100
AcDbEntity
  8
外形線
100
AcDbCircle
 10
-2251.57895090252
 20
823.938355073418
 30
0.0
 40
2.15556
100
AcDbArc
 50
95.512637406103
 51
178.08903371374
  0
LINE
  5
33BA
330
3312
100
AcDbEntity
  8
外形線
100
AcDbLine
 10
-2251.78598290252
 20
826.083863073417
 30
0.0
 11
-2246.022188902521
 21
826.083863073417
 31
0.0
  0
ARC
  5
33BB
330
3312
100
AcDbEntity
  8
外形線
100
AcDbCircle
 10
-2246.022188902521
 20
845.504639073417
 30
0.0
 40
1.9992
100
AcDbArc
 50
0.0
 51
89.999981276021
  0
ARC
  5
33BC
330
3312
100
AcDbEntity
  8
外形線
100
AcDbCircle
 10
-2245.88510290252
 20
853.353639073418
 30
0.0
 40
1.86215
100
AcDbArc
 50
276.18422108563
 51
91.517843466792
  0
ARC
  5
33BD
330
3312
100
AcDbEntity
  8
外形線
100
AcDbCircle
 10
-2251.73416290252
 20
849.503053073418
 30
0.0
 40
2.000726
100
AcDbArc
 50
87.722187561485
 51
272.27785213419
  0
LINE
  5
33BE
330
3312
100
AcDbEntity
  8
外形線
100
AcDbLine
 10
-2253.73337090252
 20
855.215089073417
 30
0.0
 11
-2245.93442090252
 21
855.215089073417
 31
0.0
  0
LINE
  5
33BF
330
3312
100
AcDbEntity
  8
外形線
100
AcDbLine
 10
-2251.65463490252
 20
847.503907073418
 30
0.0
 11
-2246.022188902521
 21
847.503907073418
 31
0.0
  0
LINE
  5
33C0
330
3312
100
AcDbEntity
  8
外形線
100
AcDbLine
 10
-2251.65463490252
 20
851.502197073417
 30
0.0
 11
-2245.684542902521
 21
851.502197073417
 31
0.0
  0
LINE
  5
33C1
330
3312
100
AcDbEntity
  8
外形線
100
AcDbLine
 10
-2393.998140902519
 20
880.585472459373
 30
0.0
 11
-2503.803170902519
 21
880.585472459373
 31
0.0
  0
LINE
  5
33C2
330
3312
100
AcDbEntity
  8
外形線
100
AcDbLine
 10
-2393.998140902519
 20
893.585504959373
 30
0.0
 11
-2503.803170902519
 21
893.585504959373
 31
0.0
  0
LINE
  5
33C3
330
3312
100
AcDbEntity
  8
中心線
 48
10.0
100
AcDbLine
 10
-2519.795160902519
 20
887.085489959373
 30
0.0
 11
-2364.35603590252
 21
887.085489959373
 31
0.0
  0
LINE
  5
33C4
330
3312
100
AcDbEntity
  8
外形線
100
AcDbLine
 10
-2513.803170902519
 20
899.585449959373
 30
0.0
 11
-2503.803170902519
 21
899.585449959373
 31
0.0
  0
ARC
  5
33C5
330
3312
100
AcDbEntity
  8
細線
100
AcDbCircle
 10
-2381.97475090252
 20
887.039864959373
 30
0.0
 40
5.47679
100
AcDbArc
 50
315.636777055405
 51
0.477141651694
  0
ARC
  5
33C6
330
3312
100
AcDbEntity
  8
細線
100
AcDbCircle
 10
-2380.147053402519
 20
894.368317459373
 30
0.0
 40
3.996535
100
AcDbArc
 50
301.493886840397
 51
335.927103341708
  0
ARC
  5
33C7
330
3312
100
AcDbEntity
  8
細線
100
AcDbCircle
 10
-2381.97475090252
 20
887.131112459373
 30
0.0
 40
5.47679
100
AcDbArc
 50
359.522880443905
 51
44.363245040191
  0
LINE
  5
33C8
330
3312
100
AcDbEntity
  8
外形線
100
AcDbLine
 10
-2377.77736340252
 20
879.335472459373
 30
0.0
 11
-2376.498140902519
 21
881.432832459373
 31
0.0
  0
ARC
  5
33C9
330
3312
100
AcDbEntity
  8
細線
100
AcDbCircle
 10
-2380.147053402519
 20
879.802659959373
 30
0.0
 40
3.996535
100
AcDbArc
 50
24.072936353984
 51
58.506152855296
  0
LINE
  5
33CA
330
3312
100
AcDbEntity
  8
外形線
100
AcDbLine
 10
-2377.77736340252
 20
894.835504959373
 30
0.0
 11
-2376.498140902519
 21
892.738144959373
 31
0.0
  0
LINE
  5
33CB
330
3312
100
AcDbEntity
  8
細線
100
AcDbLine
 10
-2383.998140902519
 20
883.210479959373
 30
0.0
 11
-2378.059268402519
 21
883.210479959373
 31
0.0
  0
LINE
  5
33CC
330
3312
100
AcDbEntity
  8
細線
100
AcDbLine
 10
-2383.998140902519
 20
890.960497459373
 30
0.0
 11
-2378.059268402519
 21
890.960497459373
 31
0.0
  0
LINE
  5
33CD
330
3312
100
AcDbEntity
  8
外形線
100
AcDbLine
 10
-2383.998140902519
 20
879.335472459373
 30
0.0
 11
-2377.77736340252
 21
879.335472459373
 31
0.0
  0
LINE
  5
33CE
330
3312
100
AcDbEntity
  8
外形線
100
AcDbLine
 10
-2383.998140902519
 20
894.835504959373
 30
0.0
 11
-2377.77736340252
 21
894.835504959373
 31
0.0
  0
LINE
  5
33CF
330
3312
100
AcDbEntity
  8
外形線
100
AcDbLine
 10
-2393.998140902519
 20
899.585449959373
 30
0.0
 11
-2383.998140902519
 21
899.585449959373
 31
0.0
  0
LINE
  5
33D0
330
3312
100
AcDbEntity
  8
外形線
100
AcDbLine
 10
-2371.498140902519
 20
890.894349959373
 30
0.0
 11
-2371.498140902519
 21
883.276627459373
 31
0.0
  0
ARC
  5
33D1
330
3312
100
AcDbEntity
  8
細線
100
AcDbCircle
 10
-2377.000080902519
 20
887.661852459373
 30
0.0
 40
5.53204
100
AcDbArc
 50
326.213692545076
 51
354.019850004791
  0
LINE
  5
33D2
330
3312
100
AcDbEntity
  8
外形線
100
AcDbLine
 10
-2372.246050902519
 20
882.085489959373
 30
0.0
 11
-2371.498140902519
 21
883.276627459373
 31
0.0
  0
ARC
  5
33D3
330
3312
100
AcDbEntity
  8
細線
100
AcDbCircle
 10
-2373.486363402519
 20
882.869904959373
 30
0.0
 40
2.029365
100
AcDbArc
 50
11.561199685929
 51
57.712205238589
  0
LINE
  5
33D4
330
3312
100
AcDbEntity
  8
外形線
100
AcDbLine
 10
-2372.246050902519
 20
892.085489959373
 30
0.0
 11
-2371.498140902519
 21
890.894349959373
 31
0.0
  0
ARC
  5
33D5
330
3312
100
AcDbEntity
  8
細線
100
AcDbCircle
 10
-2373.486363402519
 20
891.301072459373
 30
0.0
 40
2.029365
100
AcDbArc
 50
302.28783445711
 51
348.438782713979
  0
ARC
  5
33D6
330
3312
100
AcDbEntity
  8
細線
100
AcDbCircle
 10
-2377.000080902519
 20
886.509124959373
 30
0.0
 40
5.53204
100
AcDbArc
 50
5.980132395117
 51
33.786289854839
  0
LINE
  5
33D7
330
3312
100
AcDbEntity
  8
外形線
100
AcDbLine
 10
-2376.498140902519
 20
892.738144959373
 30
0.0
 11
-2376.498140902519
 21
881.432832459373
 31
0.0
  0
LINE
  5
33D8
330
3312
100
AcDbEntity
  8
外形線
100
AcDbLine
 10
-2376.498140902519
 20
882.085489959373
 30
0.0
 11
-2372.246050902519
 21
882.085489959373
 31
0.0
  0
LINE
  5
33D9
330
3312
100
AcDbEntity
  8
細線
100
AcDbLine
 10
-2376.498140902519
 20
884.585489959373
 30
0.0
 11
-2372.402300902519
 21
884.585489959373
 31
0.0
  0
LINE
  5
33DA
330
3312
100
AcDbEntity
  8
外形線
100
AcDbLine
 10
-2376.498140902519
 20
892.085489959373
 30
0.0
 11
-2372.246050902519
 21
892.085489959373
 31
0.0
  0
LINE
  5
33DB
330
3312
100
AcDbEntity
  8
細線
100
AcDbLine
 10
-2376.498140902519
 20
889.585489959373
 30
0.0
 11
-2372.402300902519
 21
889.585489959373
 31
0.0
  0
LINE
  5
33DC
330
3312
100
AcDbEntity
  8
外形線
100
AcDbLine
 10
-2284.57821890252
 20
870.637451073418
 30
0.0
 11
-2258.36398490252
 21
869.423829073417
 31
0.0
  0
LINE
  5
33DD
330
3312
100
AcDbEntity
  8
外形線
100
AcDbLine
 10
-2310.282198902521
 20
873.085449073418
 30
0.0
 11
-2288.29098690252
 21
873.085449073418
 31
0.0
  0
LINE
  5
33DE
330
3312
100
AcDbEntity
  8
外形線
100
AcDbLine
 10
-2288.29098690252
 20
873.085449073418
 30
0.0
 11
-2284.57821890252
 21
870.637451073418
 31
0.0
  0
ENDBLK
  5
33DF
330
3312
100
AcDbEntity
  8
0
 48
10.0
100
AcDbBlockEnd
  0
BLOCK
  5
3B7F
330
3B73
100
AcDbEntity
  8
0
 48
10.0
100
AcDbBlockBegin
  2
*D5
 70
     1
 10
0.0
 20
0.0
 30
0.0
  3
*D5
  1
*D5
  0
LINE
  5
4A4E
330
3B73
100
AcDbEntity
  8
寸法線
 62
     0
 48
10.0
100
AcDbLine
 10
178.690728455009
 20
944.655814593375
 30
0.0
 11
179.315728455009
 21
944.655814593375
 31
0.0
  0
LINE
  5
4A4F
330
3B73
100
AcDbEntity
  8
寸法線
 62
     0
 48
10.0
100
AcDbLine
 10
178.690728455009
 20
934.655892093375
 30
0.0
 11
179.315728455009
 21
934.655892093375
 31
0.0
  0
LINE
  5
4A50
330
3B73
100
AcDbEntity
  8
寸法線
 62
     0
 48
10.0
100
AcDbLine
 10
178.065728455009
 20
928.655892093375
 30
0.0
 11
178.065728455009
 21
922.655892093375
 31
0.0
  0
LINE
  5
4A51
330
3B73
100
AcDbEntity
  8
寸法線
 62
     0
 48
10.0
100
AcDbLine
 10
178.065728455009
 20
950.655814593375
 30
0.0
 11
178.065728455009
 21
974.312113805974
 31
0.0
  0
LINE
  5
4A52
330
3B73
100
AcDbEntity
  8
寸法線
 62
     0
 48
10.0
100
AcDbLine
 10
178.065728455009
 20
934.655892093375
 30
0.0
 11
178.065728455009
 21
944.655814593375
 31
0.0
  0
INSERT
  5
4A53
330
3B73
100
AcDbEntity
  8
寸法線
 62
     0
 48
10.0
100
AcDbBlockReference
  2
_OPEN30
 10
178.065728455009
 20
934.655892093375
 30
0.0
 41
6.0
 42
6.0
 43
6.0
 50
90.0
  0
INSERT
  5
4A54
330
3B73
100
AcDbEntity
  8
寸法線
 62
     0
 48
10.0
100
AcDbBlockReference
  2
_OPEN30
 10
178.065728455009
 20
944.655814593375
 30
0.0
 41
6.0
 42
6.0
 43
6.0
 50
270.0
  0
MTEXT
  5
4A55
330
3B73
100
AcDbEntity
  8
寸法線
 62
     0
 48
10.0
100
AcDbMText
 10
173.440728455009
 20
965.483964199674
 30
0.0
 40
8.0
 41
0.0
 71
     5
 72
     1
  1
\A1;φ10
 11
6.123031769111886E-17
 21
1.0
 31
0.0
  0
POINT
  5
4A56
330
3B73
100
AcDbEntity
  8
DEFPOINTS
 62
     0
 48
10.0
100
AcDbPoint
 10
178.065728455009
 20
944.655814593375
 30
0.0
  0
POINT
  5
4A57
330
3B73
100
AcDbEntity
  8
DEFPOINTS
 62
     0
 48
10.0
100
AcDbPoint
 10
178.065728455009
 20
934.655892093375
 30
0.0
  0
POINT
  5
4A58
330
3B73
100
AcDbEntity
  8
DEFPOINTS
 62
     0
 48
10.0
100
AcDbPoint
 10
178.065728455009
 20
934.655892093375
 30
0.0
  0
ENDBLK
  5
3B80
330
3B73
100
AcDbEntity
  8
0
 48
10.0
100
AcDbBlockEnd
  0
BLOCK
  5
3B97
330
3B8D
100
AcDbEntity
  8
0
 48
10.0
100
AcDbBlockBegin
  2
*D6
 70
     1
 10
0.0
 20
0.0
 30
0.0
  3
*D6
  1
*D6
  0
LINE
  5
4A45
330
3B8D
100
AcDbEntity
  8
寸法線
 62
     0
 48
10.0
100
AcDbLine
 10
-302.422620726642
 20
925.687376364381
 30
0.0
 11
-302.315177371862
 21
925.071680883227
 31
0.0
  0
LINE
  5
4A46
330
3B8D
100
AcDbEntity
  8
寸法線
 62
     0
 48
10.0
100
AcDbLine
 10
-149.730141400387
 20
952.333328349651
 30
0.0
 11
-149.622698045608
 21
951.717632868496
 31
0.0
  0
LINE
  5
4A47
330
3B8D
100
AcDbEntity
  8
寸法線
 62
     0
 48
10.0
100
AcDbLine
 10
-296.61938746234
 20
927.334528051417
 30
0.0
 11
-155.748261374247
 21
951.917567624923
 31
0.0
  0
INSERT
  5
4A48
330
3B8D
100
AcDbEntity
  8
寸法線
 62
     0
 48
10.0
100
AcDbBlockReference
  2
_OPEN30
 10
-302.530064081421
 20
926.303071845535
 30
0.0
 41
6.0
 42
6.0
 43
6.0
 50
189.898852315621
  0
INSERT
  5
4A49
330
3B8D
100
AcDbEntity
  8
寸法線
 62
     0
 48
10.0
100
AcDbBlockReference
  2
_OPEN30
 10
-149.837584755166
 20
952.949023830804
 30
0.0
 41
6.0
 42
6.0
 43
6.0
 50
9.898852315621
  0
MTEXT
  5
4A4A
330
3B8D
100
AcDbEntity
  8
寸法線
 62
     0
 48
10.0
100
AcDbMText
 10
-181.106757756718
 20
952.187218908049
 30
0.0
 40
8.0
 41
0.0
 71
     5
 72
     1
  1
\A1;φ155
 11
0.9851127698468048
 21
0.1719093676468983
 31
0.0
  0
POINT
  5
4A4B
330
3B8D
100
AcDbEntity
  8
DEFPOINTS
 62
     0
 48
10.0
100
AcDbPoint
 10
-302.530064081421
 20
926.303071845536
 30
0.0
  0
POINT
  5
4A4C
330
3B8D
100
AcDbEntity
  8
DEFPOINTS
 62
     0
 48
10.0
100
AcDbPoint
 10
-149.837584755166
 20
952.949023830805
 30
0.0
  0
POINT
  5
4A4D
330
3B8D
100
AcDbEntity
  8
DEFPOINTS
 62
     0
 48
10.0
100
AcDbPoint
 10
-149.837584755166
 20
952.949023830804
 30
0.0
  0
ENDBLK
  5
3B98
330
3B8D
100
AcDbEntity
  8
0
 48
10.0
100
AcDbBlockEnd
  0
BLOCK
  5
3BA3
330
3B99
100
AcDbEntity
  8
0
 48
10.0
100
AcDbBlockBegin
  2
*D7
 70
     1
 10
0.0
 20
0.0
 30
0.0
  3
*D7
  1
*D7
  0
LINE
  5
4A3C
330
3B99
100
AcDbEntity
  8
寸法線
 62
     0
 48
10.0
100
AcDbLine
 10
-285.11143416311
 20
912.195242716905
 30
0.0
 11
-285.38063075173
 21
912.759297853108
 31
0.0
  0
LINE
  5
4A3D
330
3B99
100
AcDbEntity
  8
寸法線
 62
     0
 48
10.0
100
AcDbLine
 10
-167.787966658371
 20
968.188132755897
 30
0.0
 11
-168.057163246991
 21
968.752187892099
 31
0.0
  0
LINE
  5
4A3E
330
3B99
100
AcDbEntity
  8
寸法線
 62
     0
 48
10.0
100
AcDbLine
 10
-279.427308266953
 20
914.21547483145
 30
0.0
 11
-172.93369937729
 21
965.039790368949
 31
0.0
  0
INSERT
  5
4A3F
330
3B99
100
AcDbEntity
  8
寸法線
 62
     0
 48
10.0
100
AcDbBlockReference
  2
_OPEN30
 10
-284.842237574491
 20
911.631187580704
 30
0.0
 41
6.0
 42
6.0
 43
6.0
 50
205.512915306565
  0
INSERT
  5
4A40
330
3B99
100
AcDbEntity
  8
寸法線
 62
     0
 48
10.0
100
AcDbBlockReference
  2
_OPEN30
 10
-167.518770069752
 20
967.624077619695
 30
0.0
 41
6.0
 42
6.0
 43
6.0
 50
25.512915306565
  0
MTEXT
  5
4A41
330
3B99
100
AcDbEntity
  8
寸法線
 62
     0
 48
10.0
100
AcDbMText
 10
-186.283134270811
 20
963.793463036364
 30
0.0
 40
8.0
 41
0.0
 71
     5
 72
     1
  1
\A1;φ130
 11
0.9024882179229283
 21
0.4307145417910766
 31
0.0
  0
POINT
  5
4A42
330
3B99
100
AcDbEntity
  8
DEFPOINTS
 62
     0
 48
10.0
100
AcDbPoint
 10
-284.842237574491
 20
911.631187580703
 30
0.0
  0
POINT
  5
4A43
330
3B99
100
AcDbEntity
  8
DEFPOINTS
 62
     0
 48
10.0
100
AcDbPoint
 10
-167.518770069752
 20
967.624077619695
 30
0.0
  0
POINT
  5
4A44
330
3B99
100
AcDbEntity
  8
DEFPOINTS
 62
     0
 48
10.0
100
AcDbPoint
 10
-167.518770069752
 20
967.624077619695
 30
0.0
  0
ENDBLK
  5
3BA4
330
3B99
100
AcDbEntity
  8
0
 48
10.0
100
AcDbBlockEnd
  0
BLOCK
  5
3BAF
330
3BA5
100
AcDbEntity
  8
0
 48
10.0
100
AcDbBlockBegin
  2
*D8
 70
     1
 10
0.0
 20
0.0
 30
0.0
  3
*D8
  1
*D8
  0
LINE
  5
4A7A
330
3BA5
100
AcDbEntity
  8
寸法線
 62
     0
 48
10.0
100
AcDbLine
 10
-79.175475711116
 20
979.62974970535
 30
0.0
 11
-101.75971700032
 21
979.62974970535
 31
0.0
  0
LINE
  5
4A7B
330
3BA5
100
AcDbEntity
  8
寸法線
 62
     0
 48
10.0
100
AcDbLine
 10
-79.175475711116
 20
899.62974970535
 30
0.0
 11
-101.759717000321
 21
899.62974970535
 31
0.0
  0
LINE
  5
4A7C
330
3BA5
100
AcDbEntity
  8
寸法線
 62
     0
 48
10.0
100
AcDbLine
 10
-100.50971700032
 20
973.62974970535
 30
0.0
 11
-100.509717000321
 21
905.62974970535
 31
0.0
  0
INSERT
  5
4A7D
330
3BA5
100
AcDbEntity
  8
寸法線
 62
     0
 48
10.0
100
AcDbBlockReference
  2
_OPEN30
 10
-100.50971700032
 20
979.62974970535
 30
0.0
 41
6.0
 42
6.0
 43
6.0
 50
90.0
  0
INSERT
  5
4A7E
330
3BA5
100
AcDbEntity
  8
寸法線
 62
     0
 48
10.0
100
AcDbBlockReference
  2
_OPEN30
 10
-100.509717000321
 20
899.62974970535
 30
0.0
 41
6.0
 42
6.0
 43
6.0
 50
270.0
  0
MTEXT
  5
4A7F
330
3BA5
100
AcDbEntity
  8
寸法線
 62
     0
 48
10.0
100
AcDbMText
 10
-105.134717000321
 20
939.62974970535
 30
0.0
 40
8.0
 41
0.0
 71
     5
 72
     1
  1
\A1;80
 11
6.123031769111886E-17
 21
1.0
 31
0.0
  0
POINT
  5
4A80
330
3BA5
100
AcDbEntity
  8
DEFPOINTS
 62
     0
 48
10.0
100
AcDbPoint
 10
-78.550475711116
 20
979.62974970535
 30
0.0
  0
POINT
  5
4A81
330
3BA5
100
AcDbEntity
  8
DEFPOINTS
 62
     0
 48
10.0
100
AcDbPoint
 10
-78.550475711116
 20
899.62974970535
 30
0.0
  0
POINT
  5
4A82
330
3BA5
100
AcDbEntity
  8
DEFPOINTS
 62
     0
 48
10.0
100
AcDbPoint
 10
-100.509717000321
 20
899.62974970535
 30
0.0
  0
ENDBLK
  5
3BB0
330
3BA5
100
AcDbEntity
  8
0
 48
10.0
100
AcDbBlockEnd
  0
BLOCK
  5
3BBB
330
3BB1
100
AcDbEntity
  8
0
 48
10.0
100
AcDbBlockBegin
  2
*D9
 70
     1
 10
0.0
 20
0.0
 30
0.0
  3
*D9
  1
*D9
  0
LINE
  5
4A71
330
3BB1
100
AcDbEntity
  8
寸法線
 62
     0
 48
10.0
100
AcDbLine
 10
-78.550475711116
 20
899.00474970535
 30
0.0
 11
-78.550475711116
 21
879.853692519778
 31
0.0
  0
LINE
  5
4A72
330
3BB1
100
AcDbEntity
  8
寸法線
 62
     0
 48
10.0
100
AcDbLine
 10
1.449524288884
 20
927.00474970535
 30
0.0
 11
1.449524288884
 21
879.853692519778
 31
0.0
  0
LINE
  5
4A73
330
3BB1
100
AcDbEntity
  8
寸法線
 62
     0
 48
10.0
100
AcDbLine
 10
-72.550475711116
 20
881.103692519778
 30
0.0
 11
-4.550475711116
 21
881.103692519778
 31
0.0
  0
INSERT
  5
4A74
330
3BB1
100
AcDbEntity
  8
寸法線
 62
     0
 48
10.0
100
AcDbBlockReference
  2
_OPEN30
 10
-78.550475711116
 20
881.103692519778
 30
0.0
 41
6.0
 42
6.0
 43
6.0
 50
180.0
  0
INSERT
  5
4A75
330
3BB1
100
AcDbEntity
  8
寸法線
 62
     0
 48
10.0
100
AcDbBlockReference
  2
_OPEN30
 10
1.449524288884
 20
881.103692519778
 30
0.0
 41
6.0
 42
6.0
 43
6.0
  0
MTEXT
  5
4A76
330
3BB1
100
AcDbEntity
  8
寸法線
 62
     0
 48
10.0
100
AcDbMText
 10
-38.550475711116
 20
885.728692519778
 30
0.0
 40
8.0
 41
0.0
 71
     5
 72
     1
  1
\A1;80
  0
POINT
  5
4A77
330
3BB1
100
AcDbEntity
  8
DEFPOINTS
 62
     0
 48
10.0
100
AcDbPoint
 10
-78.550475711116
 20
899.62974970535
 30
0.0
  0
POINT
  5
4A78
330
3BB1
100
AcDbEntity
  8
DEFPOINTS
 62
     0
 48
10.0
100
AcDbPoint
 10
1.449524288884
 20
927.62974970535
 30
0.0
  0
POINT
  5
4A79
330
3BB1
100
AcDbEntity
  8
DEFPOINTS
 62
     0
 48
10.0
100
AcDbPoint
 10
1.449524288884
 20
881.103692519778
 30
0.0
  0
ENDBLK
  5
3BBC
330
3BB1
100
AcDbEntity
  8
0
 48
10.0
100
AcDbBlockEnd
  0
BLOCK
  5
3BC9
330
3BBD
100
AcDbEntity
  8
0
 48
10.0
100
AcDbBlockBegin
  2
*D10
 70
     1
 10
0.0
 20
0.0
 30
0.0
  3
*D10
  1
*D10
  0
LINE
  5
4A1F
330
3BBD
100
AcDbEntity
  8
寸法線
 62
     0
 48
10.0
100
AcDbLine
 10
-227.602282884539
 20
909.167291109647
 30
0.0
 11
-227.602282884539
 21
909.796851254993
 31
0.0
  0
LINE
  5
4A20
330
3BBD
100
AcDbEntity
  8
寸法線
 62
     0
 48
10.0
100
AcDbLine
 10
-224.746278370004
 20
909.167291109647
 30
0.0
 11
-224.746278370004
 21
909.796851254993
 31
0.0
  0
LINE
  5
4A21
330
3BBD
100
AcDbEntity
  8
寸法線
 62
     0
 48
10.0
100
AcDbLine
 10
-233.602282884539
 20
908.546851254993
 30
0.0
 11
-239.602282884539
 21
908.546851254993
 31
0.0
  0
LINE
  5
4A22
330
3BBD
100
AcDbEntity
  8
寸法線
 62
     0
 48
10.0
100
AcDbLine
 10
-218.746278370004
 20
908.546851254993
 30
0.0
 11
-201.564907520105
 21
908.546851254993
 31
0.0
  0
LINE
  5
4A23
330
3BBD
100
AcDbEntity
  8
寸法線
 62
     0
 48
10.0
100
AcDbLine
 10
-227.602282884539
 20
908.546851254993
 30
0.0
 11
-224.746278370004
 21
908.546851254993
 31
0.0
  0
INSERT
  5
4A24
330
3BBD
100
AcDbEntity
  8
寸法線
 62
     0
 48
10.0
100
AcDbBlockReference
  2
_OPEN30
 10
-227.602282884539
 20
908.546851254993
 30
0.0
 41
6.0
 42
6.0
 43
6.0
  0
INSERT
  5
4A25
330
3BBD
100
AcDbEntity
  8
寸法線
 62
     0
 48
10.0
100
AcDbBlockReference
  2
_OPEN30
 10
-224.746278370004
 20
908.546851254993
 30
0.0
 41
6.0
 42
6.0
 43
6.0
 50
180.0
  0
MTEXT
  5
4A26
330
3BBD
100
AcDbEntity
  8
寸法線
 62
     0
 48
10.0
100
AcDbMText
 10
-207.155592945054
 20
913.171851254993
 30
0.0
 40
8.0
 41
0.0
 71
     5
 72
     1
  1
\A1;1.5
  0
POINT
  5
4A27
330
3BBD
100
AcDbEntity
  8
DEFPOINTS
 62
     0
 48
10.0
100
AcDbPoint
 10
-227.602282884539
 20
908.542291109647
 30
0.0
  0
POINT
  5
4A28
330
3BBD
100
AcDbEntity
  8
DEFPOINTS
 62
     0
 48
10.0
100
AcDbPoint
 10
-224.746278370004
 20
908.542291109647
 30
0.0
  0
POINT
  5
4A29
330
3BBD
100
AcDbEntity
  8
DEFPOINTS
 62
     0
 48
10.0
100
AcDbPoint
 10
-224.746278370004
 20
908.546851254993
 30
0.0
  0
ENDBLK
  5
3BCA
330
3BBD
100
AcDbEntity
  8
0
 48
10.0
100
AcDbBlockEnd
  0
BLOCK
  5
3BD5
330
3BCB
100
AcDbEntity
  8
0
 48
10.0
100
AcDbBlockBegin
  2
*D11
 70
     1
 10
0.0
 20
0.0
 30
0.0
  3
*D11
  1
*D11
  0
LINE
  5
4AA0
330
3BCB
100
AcDbEntity
  8
寸法線
 62
     0
 48
10.0
100
AcDbLine
 10
-78.550475711116
 20
899.00474970535
 30
0.0
 11
-78.550475711116
 21
811.83110934614
 31
0.0
  0
LINE
  5
4AA1
330
3BCB
100
AcDbEntity
  8
寸法線
 62
     0
 48
10.0
100
AcDbLine
 10
91.433193315152
 20
834.623911868342
 30
0.0
 11
91.433193315152
 21
811.83110934614
 31
0.0
  0
LINE
  5
4AA2
330
3BCB
100
AcDbEntity
  8
寸法線
 62
     0
 48
10.0
100
AcDbLine
 10
-72.550475711116
 20
813.08110934614
 30
0.0
 11
85.433193315152
 21
813.08110934614
 31
0.0
  0
INSERT
  5
4AA3
330
3BCB
100
AcDbEntity
  8
寸法線
 62
     0
 48
10.0
100
AcDbBlockReference
  2
_OPEN30
 10
-78.550475711116
 20
813.08110934614
 30
0.0
 41
6.0
 42
6.0
 43
6.0
 50
180.0
  0
INSERT
  5
4AA4
330
3BCB
100
AcDbEntity
  8
寸法線
 62
     0
 48
10.0
100
AcDbBlockReference
  2
_OPEN30
 10
91.433193315152
 20
813.08110934614
 30
0.0
 41
6.0
 42
6.0
 43
6.0
  0
MTEXT
  5
4AA5
330
3BCB
100
AcDbEntity
  8
寸法線
 62
     0
 48
10.0
100
AcDbMText
 10
6.441358802018
 20
817.70610934614
 30
0.0
 40
8.0
 41
0.0
 71
     5
 72
     1
  1
\A1;170
  0
POINT
  5
4AA6
330
3BCB
100
AcDbEntity
  8
DEFPOINTS
 62
     0
 48
10.0
100
AcDbPoint
 10
-78.550475711116
 20
899.62974970535
 30
0.0
  0
POINT
  5
4AA7
330
3BCB
100
AcDbEntity
  8
DEFPOINTS
 62
     0
 48
10.0
100
AcDbPoint
 10
91.433193315152
 20
835.248911868342
 30
0.0
  0
POINT
  5
4AA8
330
3BCB
100
AcDbEntity
  8
DEFPOINTS
 62
     0
 48
10.0
100
AcDbPoint
 10
91.433193315152
 20
813.08110934614
 30
0.0
  0
ENDBLK
  5
3BD6
330
3BCB
100
AcDbEntity
  8
0
 48
10.0
100
AcDbBlockEnd
  0
BLOCK
  5
3BE3
330
3BD7
100
AcDbEntity
  8
0
 48
10.0
100
AcDbBlockBegin
  2
*D12
 70
     1
 10
0.0
 20
0.0
 30
0.0
  3
*D12
  1
*D12
  0
LINE
  5
4A83
330
3BD7
100
AcDbEntity
  8
寸法線
 62
     0
 48
10.0
100
AcDbLine
 10
103.433189889194
 20
861.523359694036
 30
0.0
 11
103.433189889194
 21
833.998911868342
 31
0.0
  0
LINE
  5
4A84
330
3BD7
100
AcDbEntity
  8
寸法線
 62
     0
 48
10.0
100
AcDbLine
 10
91.433193315152
 20
861.527061561216
 30
0.0
 11
91.433193315152
 21
833.998911868342
 31
0.0
  0
LINE
  5
4A85
330
3BD7
100
AcDbEntity
  8
寸法線
 62
     0
 48
10.0
100
AcDbLine
 10
109.433189889194
 20
835.248911868342
 30
0.0
 11
115.433189889194
 21
835.248911868342
 31
0.0
  0
LINE
  5
4A86
330
3BD7
100
AcDbEntity
  8
寸法線
 62
     0
 48
10.0
100
AcDbLine
 10
85.433193315152
 20
835.248911868342
 30
0.0
 11
79.433193315152
 21
835.248911868342
 31
0.0
  0
LINE
  5
4A87
330
3BD7
100
AcDbEntity
  8
寸法線
 62
     0
 48
10.0
100
AcDbLine
 10
103.433189889194
 20
835.248911868342
 30
0.0
 11
91.433193315152
 21
835.248911868342
 31
0.0
  0
INSERT
  5
4A88
330
3BD7
100
AcDbEntity
  8
寸法線
 62
     0
 48
10.0
100
AcDbBlockReference
  2
_OPEN30
 10
103.433189889194
 20
835.248911868342
 30
0.0
 41
6.0
 42
6.0
 43
6.0
 50
180.0
  0
INSERT
  5
4A89
330
3BD7
100
AcDbEntity
  8
寸法線
 62
     0
 48
10.0
100
AcDbBlockReference
  2
_OPEN30
 10
91.433193315152
 20
835.248911868342
 30
0.0
 41
6.0
 42
6.0
 43
6.0
  0
MTEXT
  5
4A8A
330
3BD7
100
AcDbEntity
  8
寸法線
 62
     0
 48
10.0
100
AcDbMText
 10
97.433191602173
 20
839.874699269917
 30
0.0
 40
8.0
 41
0.0
 71
     5
 72
     1
  1
\A1;12
  0
POINT
  5
4A8B
330
3BD7
100
AcDbEntity
  8
DEFPOINTS
 62
     0
 48
10.0
100
AcDbPoint
 10
103.433189889194
 20
862.148359694036
 30
0.0
  0
POINT
  5
4A8C
330
3BD7
100
AcDbEntity
  8
DEFPOINTS
 62
     0
 48
10.0
100
AcDbPoint
 10
91.433193315152
 20
862.152061561216
 30
0.0
  0
POINT
  5
4A8D
330
3BD7
100
AcDbEntity
  8
DEFPOINTS
 62
     0
 48
10.0
100
AcDbPoint
 10
91.433193315152
 20
835.248911868342
 30
0.0
  0
ENDBLK
  5
3BE4
330
3BD7
100
AcDbEntity
  8
0
 48
10.0
100
AcDbBlockEnd
  0
BLOCK
  5
3BEF
330
3BE5
100
AcDbEntity
  8
0
 48
10.0
100
AcDbBlockBegin
  2
*D13
 70
     1
 10
0.0
 20
0.0
 30
0.0
  3
*D13
  1
*D13
  0
LINE
  5
4A02
330
3BE5
100
AcDbEntity
  8
寸法線
 62
     0
 48
10.0
100
AcDbLine
 10
213.433189889194
 20
861.523359694036
 30
0.0
 11
213.433189889194
 21
833.998911868342
 31
0.0
  0
LINE
  5
4A03
330
3BE5
100
AcDbEntity
  8
寸法線
 62
     0
 48
10.0
100
AcDbLine
 10
103.433189889194
 20
861.523359694036
 30
0.0
 11
103.433189889194
 21
833.998911868342
 31
0.0
  0
LINE
  5
4A04
330
3BE5
100
AcDbEntity
  8
寸法線
 62
     0
 48
10.0
100
AcDbLine
 10
207.433189889194
 20
835.248911868342
 30
0.0
 11
109.433189889194
 21
835.248911868342
 31
0.0
  0
INSERT
  5
4A05
330
3BE5
100
AcDbEntity
  8
寸法線
 62
     0
 48
10.0
100
AcDbBlockReference
  2
_OPEN30
 10
213.433189889194
 20
835.248911868342
 30
0.0
 41
6.0
 42
6.0
 43
6.0
  0
INSERT
  5
4A06
330
3BE5
100
AcDbEntity
  8
寸法線
 62
     0
 48
10.0
100
AcDbBlockReference
  2
_OPEN30
 10
103.433189889194
 20
835.248911868342
 30
0.0
 41
6.0
 42
6.0
 43
6.0
 50
180.0
  0
MTEXT
  5
4A07
330
3BE5
100
AcDbEntity
  8
寸法線
 62
     0
 48
10.0
100
AcDbMText
 10
158.433189889194
 20
839.873911868342
 30
0.0
 40
8.0
 41
0.0
 71
     5
 72
     1
  1
\A1;110
  0
POINT
  5
4A08
330
3BE5
100
AcDbEntity
  8
DEFPOINTS
 62
     0
 48
10.0
100
AcDbPoint
 10
213.433189889194
 20
862.148359694036
 30
0.0
  0
POINT
  5
4A09
330
3BE5
100
AcDbEntity
  8
DEFPOINTS
 62
     0
 48
10.0
100
AcDbPoint
 10
103.433189889194
 20
862.148359694036
 30
0.0
  0
POINT
  5
4A0A
330
3BE5
100
AcDbEntity
  8
DEFPOINTS
 62
     0
 48
10.0
100
AcDbPoint
 10
103.433189889194
 20
835.248911868342
 30
0.0
  0
ENDBLK
  5
3BF0
330
3BE5
100
AcDbEntity
  8
0
 48
10.0
100
AcDbBlockEnd
  0
BLOCK
  5
3BFD
330
3BF1
100
AcDbEntity
  8
0
 48
10.0
100
AcDbBlockBegin
  2
*D14
 70
     1
 10
0.0
 20
0.0
 30
0.0
  3
*D14
  1
*D14
  0
LINE
  5
49F7
330
3BF1
100
AcDbEntity
  8
寸法線
 62
     0
 48
10.0
100
AcDbLine
 10
223.433189889194
 20
861.523359694036
 30
0.0
 11
223.433189889194
 21
833.998911868342
 31
0.0
  0
LINE
  5
49F8
330
3BF1
100
AcDbEntity
  8
寸法線
 62
     0
 48
10.0
100
AcDbLine
 10
213.433189889194
 20
861.523359694036
 30
0.0
 11
213.433189889194
 21
833.998911868342
 31
0.0
  0
LINE
  5
49F9
330
3BF1
100
AcDbEntity
  8
寸法線
 62
     0
 48
10.0
100
AcDbLine
 10
229.433189889194
 20
835.248911868342
 30
0.0
 11
235.433189889194
 21
835.248911868342
 31
0.0
  0
LINE
  5
49FA
330
3BF1
100
AcDbEntity
  8
寸法線
 62
     0
 48
10.0
100
AcDbLine
 10
207.433189889194
 20
835.248911868342
 30
0.0
 11
201.433189889194
 21
835.248911868342
 31
0.0
  0
LINE
  5
49FB
330
3BF1
100
AcDbEntity
  8
寸法線
 62
     0
 48
10.0
100
AcDbLine
 10
223.433189889194
 20
835.248911868342
 30
0.0
 11
213.433189889194
 21
835.248911868342
 31
0.0
  0
INSERT
  5
49FC
330
3BF1
100
AcDbEntity
  8
寸法線
 62
     0
 48
10.0
100
AcDbBlockReference
  2
_OPEN30
 10
223.433189889194
 20
835.248911868342
 30
0.0
 41
6.0
 42
6.0
 43
6.0
 50
180.0
  0
INSERT
  5
49FD
330
3BF1
100
AcDbEntity
  8
寸法線
 62
     0
 48
10.0
100
AcDbBlockReference
  2
_OPEN30
 10
213.433189889194
 20
835.248911868342
 30
0.0
 41
6.0
 42
6.0
 43
6.0
  0
MTEXT
  5
49FE
330
3BF1
100
AcDbEntity
  8
寸法線
 62
     0
 48
10.0
100
AcDbMText
 10
218.433189889194
 20
839.873911868342
 30
0.0
 40
8.0
 41
0.0
 71
     5
 72
     1
  1
\A1;10
  0
POINT
  5
49FF
330
3BF1
100
AcDbEntity
  8
DEFPOINTS
 62
     0
 48
10.0
100
AcDbPoint
 10
223.433189889194
 20
862.148359694036
 30
0.0
  0
POINT
  5
4A00
330
3BF1
100
AcDbEntity
  8
DEFPOINTS
 62
     0
 48
10.0
100
AcDbPoint
 10
213.433189889194
 20
862.148359694036
 30
0.0
  0
POINT
  5
4A01
330
3BF1
100
AcDbEntity
  8
DEFPOINTS
 62
     0
 48
10.0
100
AcDbPoint
 10
213.433189889194
 20
835.248911868342
 30
0.0
  0
ENDBLK
  5
3BFE
330
3BF1
100
AcDbEntity
  8
0
 48
10.0
100
AcDbBlockEnd
  0
BLOCK
  5
3C21
330
3C17
100
AcDbEntity
  8
0
 48
10.0
100
AcDbBlockBegin
  2
*D15
 70
     1
 10
0.0
 20
0.0
 30
0.0
  3
*D15
  1
*D15
  0
LINE
  5
4AB3
330
3C17
100
AcDbEntity
  8
寸法線
 62
     0
 48
10.0
100
AcDbLine
 10
363.433189889194
 20
837.928457892793
 30
0.0
 11
363.433189889194
 21
811.83110934614
 31
0.0
  0
LINE
  5
4AB4
330
3C17
100
AcDbEntity
  8
寸法線
 62
     0
 48
10.0
100
AcDbLine
 10
91.433193315152
 20
834.623911868342
 30
0.0
 11
91.433193315152
 21
811.83110934614
 31
0.0
  0
LINE
  5
4AB5
330
3C17
100
AcDbEntity
  8
寸法線
 62
     0
 48
10.0
100
AcDbLine
 10
357.433189889194
 20
813.08110934614
 30
0.0
 11
97.433193315152
 21
813.08110934614
 31
0.0
  0
INSERT
  5
4AB6
330
3C17
100
AcDbEntity
  8
寸法線
 62
     0
 48
10.0
100
AcDbBlockReference
  2
_OPEN30
 10
363.433189889194
 20
813.08110934614
 30
0.0
 41
6.0
 42
6.0
 43
6.0
  0
INSERT
  5
4AB7
330
3C17
100
AcDbEntity
  8
寸法線
 62
     0
 48
10.0
100
AcDbBlockReference
  2
_OPEN30
 10
91.433193315152
 20
813.08110934614
 30
0.0
 41
6.0
 42
6.0
 43
6.0
 50
180.0
  0
MTEXT
  5
4AB8
330
3C17
100
AcDbEntity
  8
寸法線
 62
     0
 48
10.0
100
AcDbMText
 10
228.51616658655
 20
817.706896747714
 30
0.0
 40
8.0
 41
0.0
 71
     5
 72
     1
  1
\A1;272
  0
POINT
  5
4AB9
330
3C17
100
AcDbEntity
  8
DEFPOINTS
 62
     0
 48
10.0
100
AcDbPoint
 10
363.433189889194
 20
838.553457892793
 30
0.0
  0
POINT
  5
4ABA
330
3C17
100
AcDbEntity
  8
DEFPOINTS
 62
     0
 48
10.0
100
AcDbPoint
 10
91.433193315152
 20
835.248911868342
 30
0.0
  0
POINT
  5
4ABB
330
3C17
100
AcDbEntity
  8
DEFPOINTS
 62
     0
 48
10.0
100
AcDbPoint
 10
91.433193315152
 20
813.08110934614
 30
0.0
  0
ENDBLK
  5
3C22
330
3C17
100
AcDbEntity
  8
0
 48
10.0
100
AcDbBlockEnd
  0
BLOCK
  5
3C2E
330
3C23
100
AcDbEntity
  8
0
 48
10.0
100
AcDbBlockBegin
  2
*D16
 70
     1
 10
0.0
 20
0.0
 30
0.0
  3
*D16
  1
*D16
  0
LINE
  5
4AA9
330
3C23
100
AcDbEntity
  8
寸法線
 62
     0
 48
10.0
100
AcDbLine
 10
77.417309767229
 20
956.652061561216
 30
0.0
 11
78.042309767229
 21
956.652061561216
 31
0.0
  0
LINE
  5
4AAA
330
3C23
100
AcDbEntity
  8
寸法線
 62
     0
 48
10.0
100
AcDbLine
 10
77.417309767229
 20
922.652061561216
 30
0.0
 11
78.042309767229
 21
922.652061561216
 31
0.0
  0
LINE
  5
4AAB
330
3C23
100
AcDbEntity
  8
寸法線
 62
     0
 48
10.0
100
AcDbLine
 10
76.792309767229
 20
928.652061561216
 30
0.0
 11
76.792309767229
 21
950.652061561216
 31
0.0
  0
LINE
  5
4AAC
330
3C23
100
AcDbEntity
  8
寸法線
 62
     0
 48
10.0
100
AcDbLine
 10
76.792309767229
 20
956.652061561216
 30
0.0
 11
76.792309767229
 21
982.702061561216
 31
0.0
  0
INSERT
  5
4AAD
330
3C23
100
AcDbEntity
  8
寸法線
 62
     0
 48
10.0
100
AcDbBlockReference
  2
_OPEN30
 10
76.792309767229
 20
922.652061561216
 30
0.0
 41
6.0
 42
6.0
 43
6.0
 50
270.0
  0
INSERT
  5
4AAE
330
3C23
100
AcDbEntity
  8
寸法線
 62
     0
 48
10.0
100
AcDbBlockReference
  2
_OPEN30
 10
76.792309767229
 20
956.652061561216
 30
0.0
 41
6.0
 42
6.0
 43
6.0
 50
90.0
  0
MTEXT
  5
4AAF
330
3C23
100
AcDbEntity
  8
寸法線
 62
     0
 48
10.0
100
AcDbMText
 10
72.167309767229
 20
972.677061561216
 30
0.0
 40
8.0
 41
0.0
 71
     5
 72
     1
  1
\A1;φ34
 11
6.123031769111886E-17
 21
1.0
 31
0.0
  0
POINT
  5
4AB0
330
3C23
100
AcDbEntity
  8
DEFPOINTS
 62
     0
 48
10.0
100
AcDbPoint
 10
76.792309767229
 20
956.652061561216
 30
0.0
  0
POINT
  5
4AB1
330
3C23
100
AcDbEntity
  8
DEFPOINTS
 62
     0
 48
10.0
100
AcDbPoint
 10
76.792309767229
 20
922.652061561216
 30
0.0
  0
POINT
  5
4AB2
330
3C23
100
AcDbEntity
  8
DEFPOINTS
 62
     0
 48
10.0
100
AcDbPoint
 10
76.792309767229
 20
922.652061561216
 30
0.0
  0
ENDBLK
  5
3C2F
330
3C23
100
AcDbEntity
  8
0
 48
10.0
100
AcDbBlockEnd
  0
BLOCK
  5
3C3C
330
3C30
100
AcDbEntity
  8
0
 48
10.0
100
AcDbBlockBegin
  2
*D17
 70
     1
 10
0.0
 20
0.0
 30
0.0
  3
*D17
  1
*D17
  0
LINE
  5
4A5C
330
3C30
100
AcDbEntity
  8
寸法線
 62
     0
 48
10.0
100
AcDbLine
 10
35.383634296266
 20
934.637282990644
 30
0.0
 11
34.758634296266
 21
934.637282990644
 31
0.0
  0
LINE
  5
4A5D
330
3C30
100
AcDbEntity
  8
寸法線
 62
     0
 48
10.0
100
AcDbLine
 10
35.383634296266
 20
944.637205490644
 30
0.0
 11
34.758634296266
 21
944.637205490644
 31
0.0
  0
LINE
  5
4A5E
330
3C30
100
AcDbEntity
  8
寸法線
 62
     0
 48
10.0
100
AcDbLine
 10
36.008634296266
 20
950.637205490644
 30
0.0
 11
36.008634296266
 21
973.753872157311
 31
0.0
  0
LINE
  5
4A5F
330
3C30
100
AcDbEntity
  8
寸法線
 62
     0
 48
10.0
100
AcDbLine
 10
36.008634296266
 20
934.637282990644
 30
0.0
 11
36.008634296266
 21
944.637205490644
 31
0.0
  0
LINE
  5
4A60
330
3C30
100
AcDbEntity
  8
寸法線
 62
     0
 48
10.0
100
AcDbLine
 10
36.008634296266
 20
928.637282990644
 30
0.0
 11
36.008634296266
 21
922.637282990644
 31
0.0
  0
INSERT
  5
4A61
330
3C30
100
AcDbEntity
  8
寸法線
 62
     0
100
AcDbBlockReference
  2
_OPEN30
 10
36.008634296266
 20
934.637282990644
 30
0.0
 41
6.0
 42
6.0
 43
6.0
 50
90.0
  0
INSERT
  5
4A62
330
3C30
100
AcDbEntity
  8
寸法線
 62
     0
100
AcDbBlockReference
  2
_OPEN30
 10
36.008634296266
 20
944.637205490644
 30
0.0
 41
6.0
 42
6.0
 43
6.0
 50
270.0
  0
MTEXT
  5
4A63
330
3C30
100
AcDbEntity
  8
寸法線
 62
     0
 48
10.0
100
AcDbMText
 10
31.383634296266
 20
965.195538823977
 30
0.0
 40
8.0
 41
0.0
 71
     5
 72
     1
  1
\A1;φ10
 11
0.0
 21
1.0
 31
0.0
  0
POINT
  5
4A64
330
3C30
100
AcDbEntity
  8
DEFPOINTS
 62
     0
100
AcDbPoint
 10
36.008634296266
 20
934.637282990644
 30
0.0
  0
POINT
  5
4A65
330
3C30
100
AcDbEntity
  8
DEFPOINTS
 62
     0
100
AcDbPoint
 10
36.008634296266
 20
944.637205490644
 30
0.0
  0
POINT
  5
4A66
330
3C30
100
AcDbEntity
  8
DEFPOINTS
 62
     0
100
AcDbPoint
 10
36.008634296266
 20
944.637205490644
 30
0.0
  0
ENDBLK
  5
3C3D
330
3C30
100
AcDbEntity
  8
0
 48
10.0
100
AcDbBlockEnd
  0
BLOCK
  5
3E36
330
3E35
100
AcDbEntity
  8
0
 48
10.0
100
AcDbBlockBegin
  2
A$C480F1F2B
 70
     0
 10
0.0
 20
0.0
 30
0.0
  3
A$C480F1F2B
  1
A$C480F1F2B
  0
LINE
  5
3E37
330
3E35
100
AcDbEntity
  8
外形線
100
AcDbLine
 10
8.500001501512
 20
2.385002184348
 30
0.0
 11
8.500001501512
 21
14.179664684348
 31
0.0
  0
ARC
  5
3E38
330
3E35
100
AcDbEntity
  8
細線
100
AcDbCircle
 10
1.216144001512
 20
8.282372184348
 30
0.0
 40
7.2838425
100
AcDbArc
 50
326.010120640452
 51
33.98932849733
  0
ARC
  5
3E39
330
3E35
100
AcDbEntity
  8
細線
100
AcDbCircle
 10
4.911364001511
 20
1.275229684348
 30
0.0
 40
3.7563025
100
AcDbArc
 50
17.184150191555
 51
51.38761061704
  0
LINE
  5
3E3A
330
3E35
100
AcDbEntity
  8
細線
100
AcDbLine
 10
2.000001501511
 20
4.210487184348
 30
0.0
 11
7.255442473881
 21
4.210487184348
 31
0.0
  0
LINE
  5
3E3B
330
3E35
100
AcDbEntity
  8
外形線
100
AcDbLine
 10
2.000001501511
 20
16.564818684348
 30
0.0
 11
2.000001501511
 21
0.000000684348
 31
0.0
  0
LINE
  5
3E3C
330
3E35
100
AcDbEntity
  8
外形線
100
AcDbLine
 10
0.000001501512
 20
16.564818684348
 30
0.0
 11
0.000001501512
 21
0.000000684348
 31
0.0
  0
LINE
  5
3E3D
330
3E35
100
AcDbEntity
  8
外形線
100
AcDbLine
 10
6.114929777464
 20
0.000000684348
 30
0.0
 11
8.499926501511
 21
2.385079684348
 31
0.0
  0
LINE
  5
3E3E
330
3E35
100
AcDbEntity
  8
外形線
100
AcDbLine
 10
0.000001501512
 20
0.000000684348
 30
0.0
 11
6.114929777464
 21
0.000000684348
 31
0.0
  0
ARC
  5
3E3F
330
3E35
100
AcDbEntity
  8
細線
100
AcDbCircle
 10
4.911364001511
 20
15.289437184348
 30
0.0
 40
3.7563025
100
AcDbArc
 50
308.612371782873
 51
342.81588950412
  0
LINE
  5
3E40
330
3E35
100
AcDbEntity
  8
細線
100
AcDbLine
 10
2.000001501511
 20
12.354369684348
 30
0.0
 11
7.25548242852
 21
12.354369684348
 31
0.0
  0
LINE
  5
3E41
330
3E35
100
AcDbEntity
  8
外形線
100
AcDbLine
 10
6.11493439904
 20
16.564818684348
 30
0.0
 11
8.499926501511
 21
14.179664684348
 31
0.0
  0
LINE
  5
3E42
330
3E35
100
AcDbEntity
  8
外形線
100
AcDbLine
 10
0.000001501512
 20
16.564818684348
 30
0.0
 11
6.11493439904
 21
16.564818684348
 31
0.0
  0
ENDBLK
  5
3E43
330
3E35
100
AcDbEntity
  8
0
 48
10.0
100
AcDbBlockEnd
  0
BLOCK
  5
4897
330
488D
100
AcDbEntity
  8
0
 48
10.0
100
AcDbBlockBegin
  2
*D19
 70
     1
 10
0.0
 20
0.0
 30
0.0
  3
*D19
  1
*D19
  0
LINE
  5
49D0
330
488D
100
AcDbEntity
  8
寸法線
 62
     0
 48
10.0
100
AcDbLine
 10
319.765343889196
 20
990.626047838171
 30
0.0
 11
385.801968499418
 21
990.626047838171
 31
0.0
  0
LINE
  5
49D1
330
488D
100
AcDbEntity
  8
寸法線
 62
     0
 48
10.0
100
AcDbLine
 10
319.765343889196
 20
888.626047838171
 30
0.0
 11
385.801968499418
 21
888.626047838171
 31
0.0
  0
LINE
  5
49D2
330
488D
100
AcDbEntity
  8
寸法線
 62
     0
 48
10.0
100
AcDbLine
 10
384.551968499418
 20
984.626047838171
 30
0.0
 11
384.551968499418
 21
894.626047838171
 31
0.0
  0
INSERT
  5
49D3
330
488D
100
AcDbEntity
  8
寸法線
 62
     0
 48
10.0
100
AcDbBlockReference
  2
_OPEN30
 10
384.551968499418
 20
990.626047838171
 30
0.0
 41
6.0
 42
6.0
 43
6.0
 50
90.0
  0
INSERT
  5
49D4
330
488D
100
AcDbEntity
  8
寸法線
 62
     0
 48
10.0
100
AcDbBlockReference
  2
_OPEN30
 10
384.551968499418
 20
888.626047838171
 30
0.0
 41
6.0
 42
6.0
 43
6.0
 50
270.0
  0
MTEXT
  5
49D5
330
488D
100
AcDbEntity
  8
寸法線
 62
     0
 48
10.0
100
AcDbMText
 10
379.926181097843
 20
939.014048338171
 30
0.0
 40
8.0
 41
0.0
 71
     5
 72
     1
  1
\A1;φ102
 11
6.123031769111886E-17
 21
1.0
 31
0.0
  0
POINT
  5
49D6
330
488D
100
AcDbEntity
  8
DEFPOINTS
 62
     0
 48
10.0
100
AcDbPoint
 10
319.140343889196
 20
990.626047838171
 30
0.0
  0
POINT
  5
49D7
330
488D
100
AcDbEntity
  8
DEFPOINTS
 62
     0
 48
10.0
100
AcDbPoint
 10
319.140343889196
 20
888.626047838171
 30
0.0
  0
POINT
  5
49D8
330
488D
100
AcDbEntity
  8
DEFPOINTS
 62
     0
 48
10.0
100
AcDbPoint
 10
384.551968499418
 20
888.626047838171
 30
0.0
  0
ENDBLK
  5
4898
330
488D
100
AcDbEntity
  8
0
 48
10.0
100
AcDbBlockEnd
  0
BLOCK
  5
48A3
330
4899
100
AcDbEntity
  8
0
 48
10.0
100
AcDbBlockBegin
  2
*D20
 70
     1
 10
0.0
 20
0.0
 30
0.0
  3
*D20
  1
*D20
  0
LINE
  5
49C7
330
4899
100
AcDbEntity
  8
寸法線
 62
     0
 48
10.0
100
AcDbLine
 10
363.433189889194
 20
907.79183064796
 30
0.0
 11
363.433189889194
 21
837.303457892793
 31
0.0
  0
LINE
  5
49C8
330
4899
100
AcDbEntity
  8
寸法線
 62
     0
 48
10.0
100
AcDbLine
 10
280.433189889194
 20
857.099856901532
 30
0.0
 11
280.433189889194
 21
837.303457892793
 31
0.0
  0
LINE
  5
49C9
330
4899
100
AcDbEntity
  8
寸法線
 62
     0
 48
10.0
100
AcDbLine
 10
357.433189889194
 20
838.553457892793
 30
0.0
 11
286.433189889194
 21
838.553457892793
 31
0.0
  0
INSERT
  5
49CA
330
4899
100
AcDbEntity
  8
寸法線
 62
     0
 48
10.0
100
AcDbBlockReference
  2
_OPEN30
 10
363.433189889194
 20
838.553457892793
 30
0.0
 41
6.0
 42
6.0
 43
6.0
  0
INSERT
  5
49CB
330
4899
100
AcDbEntity
  8
寸法線
 62
     0
 48
10.0
100
AcDbBlockReference
  2
_OPEN30
 10
280.433189889194
 20
838.553457892793
 30
0.0
 41
6.0
 42
6.0
 43
6.0
 50
180.0
  0
MTEXT
  5
49CC
330
4899
100
AcDbEntity
  8
寸法線
 62
     0
 48
10.0
100
AcDbMText
 10
321.933189889194
 20
843.178457892793
 30
0.0
 40
8.0
 41
0.0
 71
     5
 72
     1
  1
\A1;83
  0
POINT
  5
49CD
330
4899
100
AcDbEntity
  8
DEFPOINTS
 62
     0
 48
10.0
100
AcDbPoint
 10
363.433189889194
 20
908.41683064796
 30
0.0
  0
POINT
  5
49CE
330
4899
100
AcDbEntity
  8
DEFPOINTS
 62
     0
 48
10.0
100
AcDbPoint
 10
280.433189889194
 20
857.724856901532
 30
0.0
  0
POINT
  5
49CF
330
4899
100
AcDbEntity
  8
DEFPOINTS
 62
     0
 48
10.0
100
AcDbPoint
 10
280.433189889194
 20
838.553457892793
 30
0.0
  0
ENDBLK
  5
48A4
330
4899
100
AcDbEntity
  8
0
 48
10.0
100
AcDbBlockEnd
  0
ENDSEC
  0
SECTION
  2
ENTITIES
  0
LEADER
  5
3A51
330
1A
100
AcDbEntity
  8
寸法線
 48
10.0
100
AcDbLeader
  3
ISO-25
 76
     3
 10
338.085863628577
 20
987.495140787864
 30
0.0
 10
357.886023453691
 20
1054.703316131627
 30
0.0
 10
370.68218076468
 20
1054.703316131627
 30
0.0
1001
ACAD
1000
DSTYLE
1002
{
1070
     5
1000
OPEN30
1070
   147
1040
0.625
1070
    77
1070
     0
1070
    41
1040
6.0
1070
    47
1040
0.1
1070
    48
1040
0.1
1070
    73
1070
     0
1070
   140
1040
5.0
1070
   271
1070
     1
1070
   272
1070
     1
1070
   341
1005
2AF4
1070
   342
1005
2AF4
1002
}
  0
MTEXT
  5
3A52
330
1A
100
AcDbEntity
  8
寸法線
 48
10.0
100
AcDbMText
 10
357.833481775528
 20
1063.710086261218
 30
0.0
 40
8.0
 41
47.858955347662
 71
     1
 72
     5
  1
アルミ鋳物
  0
MTEXT
  5
3A53
330
1A
100
AcDbEntity
  8
寸法線
 48
10.0
100
AcDbMText
 10
310.652784703623
 20
1063.43155091221
 30
0.0
 40
8.0
 41
38.931165525765
 71
     1
 72
     5
  1
Oリング
  0
LEADER
  5
3A54
330
1A
100
AcDbEntity
  8
寸法線
 48
10.0
100
AcDbLeader
  3
ISO-25
 76
     3
 10
302.379109706431
 20
990.648358808081
 30
0.0
 10
311.191456429302
 20
1054.703316131627
 30
0.0
 10
323.46433594972
 20
1054.703316131627
 30
0.0
1001
ACAD
1000
DSTYLE
1002
{
1070
     5
1000
OPEN30
1070
   147
1040
0.625
1070
    77
1070
     0
1070
    41
1040
6.0
1070
    47
1040
0.1
1070
    48
1040
0.1
1070
    73
1070
     0
1070
   140
1040
5.0
1070
   271
1070
     1
1070
   272
1070
     1
1070
   341
1005
2AF4
1070
   342
1005
2AF4
1002
}
  0
LEADER
  5
3A55
330
1A
100
AcDbEntity
  8
寸法線
 48
10.0
100
AcDbLeader
  3
ISO-25
 76
     3
 10
218.433189889193
 20
1017.148281308081
 30
0.0
 10
227.045848004679
 20
1054.703316131627
 30
0.0
 10
213.530013654554
 20
1054.703316131627
 30
0.0
1001
ACAD
1000
DSTYLE
1002
{
1070
     5
1000
OPEN30
1070
   147
1040
0.625
1070
    77
1070
     0
1070
    41
1040
6.0
1070
    47
1040
0.1
1070
    48
1040
0.1
1070
    73
1070
     0
1070
   140
1040
5.0
1070
   271
1070
     1
1070
   272
1070
     1
1070
   341
1005
2AF4
1070
   342
1005
2AF4
1002
}
  0
LEADER
  5
3A57
330
1A
100
AcDbEntity
  8
寸法線
 48
10.0
100
AcDbLeader
  3
ISO-25
 76
     3
 10
202.124182148058
 20
954.499478308081
 30
0.0
 10
167.49438374302
 20
1054.703316131627
 30
0.0
 10
157.382096059707
 20
1054.703316131627
 30
0.0
1001
ACAD
1000
DSTYLE
1002
{
1070
     5
1000
OPEN30
1070
   147
1040
0.625
1070
    77
1070
     0
1070
    41
1040
6.0
1070
    47
1040
0.1
1070
    48
1040
0.1
1070
    73
1070
     0
1070
   140
1040
5.0
1070
   271
1070
     1
1070
   272
1070
     1
1070
   341
1005
2AF4
1070
   342
1005
2AF4
1002
}
  0
MTEXT
  5
3A58
330
1A
100
AcDbEntity
  8
寸法線
 48
10.0
100
AcDbMText
 10
144.130293110197
 20
1064.095069927862
 30
0.0
 40
8.0
 41
17.617431142437
 71
     1
 72
     5
  1
BsBM
  0
LEADER
  5
3A5A
330
1A
100
AcDbEntity
  8
寸法線
 48
10.0
100
AcDbLeader
  3
ISO-25
 76
     3
 10
27.456750615103
 20
944.659516460554
 30
0.0
 10
-11.544833650379
 20
1054.710946890172
 30
0.0
 10
-23.336023418925
 20
1054.715167203014
 30
0.0
1001
ACAD
1000
DSTYLE
1002
{
1070
     5
1000
OPEN30
1070
   147
1040
0.625
1070
    77
1070
     0
1070
    41
1040
6.0
1070
    47
1040
0.1
1070
    48
1040
0.1
1070
    73
1070
     0
1070
   140
1040
5.0
1070
   271
1070
     1
1070
   272
1070
     1
1070
   341
1005
2AF4
1070
   342
1005
2AF4
1002
}
  0
DIMENSION
  5
3A5B
330
1A
100
AcDbEntity
  8
寸法線
 48
10.0
100
AcDbDimension
  2
*D5
 10
178.065728455009
 20
934.655892093375
 30
0.0
 11
178.065728455009
 21
965.483964199674
 31
0.0
 70
   160
  1
φ<>
  3
ISO-25
100
AcDbAlignedDimension
 13
178.065728455009
 23
944.655814593375
 33
0.0
 14
178.065728455009
 24
934.655892093375
 34
0.0
 50
90.0
100
AcDbRotatedDimension
1001
ACAD
1000
DSTYLE
1002
{
1070
     5
1000
OPEN30
1070
    41
1040
6.0
1070
    47
1040
0.1
1070
    48
1040
0.1
1070
    73
1070
     0
1070
   140
1040
8.0
1070
   271
1070
     1
1070
   272
1070
     1
1070
   341
1005
2AF4
1002
}
  0
MTEXT
  5
3A5C
330
1A
100
AcDbEntity
  8
寸法線
 48
10.0
100
AcDbMText
 10
-93.872809439895
 20
1063.300538771255
 30
0.0
 40
8.0
 41
0.0
 71
     1
 72
     5
  1
SUS304
  0
LEADER
  5
3A5D
330
1A
100
AcDbEntity
  8
寸法線
 48
10.0
100
AcDbLeader
  3
ISO-25
 76
     3
 10
-45.094494252301
 20
979.65206067526
 30
0.0
 10
-59.224657402532
 20
1054.707017998807
 30
0.0
 10
-72.021583145899
 20
1054.707017998807
 30
0.0
1001
ACAD
1000
DSTYLE
1002
{
1070
     5
1000
OPEN30
1070
   147
1040
0.625
1070
    77
1070
     0
1070
    41
1040
6.0
1070
    47
1040
0.1
1070
    48
1040
0.1
1070
    73
1070
     0
1070
   140
1040
5.0
1070
   271
1070
     1
1070
   272
1070
     1
1070
   341
1005
2AF4
1070
   342
1005
2AF4
1002
}
  0
LINE
  5
3A61
330
1A
100
AcDbEntity
  8
下書線
 48
10.0
100
AcDbLine
 10
-83.453124211265
 20
1054.703316131627
 30
0.0
 11
419.502949068027
 21
1054.703316131627
 31
0.0
  0
MTEXT
  5
3A62
330
1A
100
AcDbEntity
  8
寸法線
 48
10.0
100
AcDbMText
 10
-296.912598132702
 20
854.412870435088
 30
0.0
 40
8.0
 41
30.27277980885
 71
     1
 72
     5
  1
4-φ15
  0
LEADER
  5
3A63
330
1A
100
AcDbEntity
  8
寸法線
 48
10.0
100
AcDbLeader
  3
ISO-25
 76
     3
 10
-272.145765195419
 20
886.164107061046
 30
0.0
 10
-258.749308231613
 20
842.461742019909
 30
0.0
 10
-299.436154671738
 20
842.461742019909
 30
0.0
1001
ACAD
1000
DSTYLE
1002
{
1070
     5
1000
OPEN30
1070
   147
1040
0.625
1070
    77
1070
     0
1070
    41
1040
6.0
1070
    47
1040
0.1
1070
    48
1040
0.1
1070
    73
1070
     0
1070
   140
1040
5.0
1070
   271
1070
     1
1070
   272
1070
     1
1070
   341
1005
2AF4
1070
   342
1005
2AF4
1002
}
  0
DIMENSION
  5
3A64
330
1A
100
AcDbEntity
  8
寸法線
 48
10.0
100
AcDbDimension
  2
*D6
 10
-149.837584755166
 20
952.949023830804
 30
0.0
 11
-180.311676931351
 21
947.631072347508
 31
0.0
 70
   161
  1
φ<>
  3
ISO-25
100
AcDbAlignedDimension
 13
-302.530064081421
 23
926.303071845536
 33
0.0
 14
-149.837584755166
 24
952.949023830805
 34
0.0
1001
ACAD
1000
DSTYLE
1002
{
1070
     5
1000
OPEN30
1070
    41
1040
6.0
1070
    47
1040
0.1
1070
    48
1040
0.1
1070
    73
1070
     0
1070
   140
1040
8.0
1070
   271
1070
     1
1070
   272
1070
     1
1070
   341
1005
2AF4
1002
}
  0
DIMENSION
  5
3A65
330
1A
100
AcDbEntity
  8
寸法線
 48
10.0
100
AcDbDimension
  2
*D7
 10
-167.518770069752
 20
967.624077619695
 30
0.0
 11
-184.291079515027
 21
959.619455028471
 31
0.0
 70
   161
  1
φ<>
  3
ISO-25
100
AcDbAlignedDimension
 13
-284.842237574491
 23
911.631187580703
 33
0.0
 14
-167.518770069752
 24
967.624077619695
 34
0.0
1001
ACAD
1000
DSTYLE
1002
{
1070
     5
1000
OPEN30
1070
    41
1040
6.0
1070
    47
1040
0.1
1070
    48
1040
0.1
1070
    73
1070
     0
1070
   140
1040
8.0
1070
   271
1070
     1
1070
   272
1070
     1
1070
   341
1005
2AF4
1002
}
  0
LINE
  5
3A67
330
1A
100
AcDbEntity
  8
中心線
 48
10.0
100
AcDbLine
 10
-226.174269418294
 20
846.125395338171
 30
0.0
 11
-226.174269418294
 21
1033.126700338171
 31
0.0
  0
LINE
  5
3A68
330
1A
100
AcDbEntity
  8
中心線
 48
10.0
100
AcDbLine
 10
-132.673616918294
 20
939.626047838171
 30
0.0
 11
-319.674921918294
 21
939.626047838171
 31
0.0
  0
LINE
  5
3A69
330
1A
100
AcDbEntity
  8
中心線
 48
10.0
100
AcDbLine
 10
-281.163161553023
 20
994.6053849729
 30
0.0
 11
-263.128369998772
 21
976.570593418649
 31
0.0
  0
LINE
  5
3A6A
330
1A
100
AcDbEntity
  8
中心線
 48
10.0
100
AcDbLine
 10
-189.239279418294
 20
976.57059283817
 30
0.0
 11
-171.204487864043
 21
994.605384392421
 31
0.0
  0
LINE
  5
3A6B
330
1A
100
AcDbEntity
  8
中心線
 48
10.0
100
AcDbLine
 10
-281.163160972544
 20
884.64671128392
 30
0.0
 11
-263.128369418294
 21
902.681502838171
 31
0.0
  0
LINE
  5
3A6C
330
1A
100
AcDbEntity
  8
中心線
 48
10.0
100
AcDbLine
 10
-189.239279418294
 20
902.681502838171
 30
0.0
 11
-171.204487864043
 21
884.64671128392
 31
0.0
  0
CIRCLE
  5
3A6D
330
1A
100
AcDbEntity
  8
中心線
 48
10.0
100
AcDbCircle
 10
-226.183824418294
 20
939.63459033817
 30
0.0
 40
65.0
  0
CIRCLE
  5
3A6E
330
1A
100
AcDbEntity
  8
外形線
100
AcDbCircle
 10
-272.145765195419
 20
893.664107061046
 30
0.0
 40
7.5
  0
CIRCLE
  5
3A6F
330
1A
100
AcDbEntity
  8
外形線
100
AcDbCircle
 10
-272.145765195419
 20
985.587988615295
 30
0.0
 40
7.5
  0
CIRCLE
  5
3A70
330
1A
100
AcDbEntity
  8
外形線
100
AcDbCircle
 10
-180.221883641169
 20
893.664107061046
 30
0.0
 40
7.5
  0
CIRCLE
  5
3A71
330
1A
100
AcDbEntity
  8
外形線
100
AcDbCircle
 10
-180.221883641169
 20
985.587988615295
 30
0.0
 40
7.5
  0
CIRCLE
  5
3A72
330
1A
100
AcDbEntity
  8
外形線
100
AcDbCircle
 10
-226.183824418294
 20
939.626047838171
 30
0.0
 40
77.5
  0
ARC
  5
3A73
330
1A
100
AcDbEntity
  8
細線
100
AcDbCircle
 10
17.665666788884
 20
939.637170490644
 30
0.0
 40
7.2838425
100
AcDbArc
 50
326.010120640442
 51
33.989328497328
  0
LINE
  5
3A74
330
1A
100
AcDbEntity
  8
外形線
100
AcDbLine
 10
24.949524288885
 20
933.739800490644
 30
0.0
 11
24.949524288885
 21
945.534462990644
 31
0.0
  0
ARC
  5
3A75
330
1A
100
AcDbEntity
  8
細線
100
AcDbCircle
 10
21.360886788884
 20
932.630027990644
 30
0.0
 40
3.7563025
100
AcDbArc
 50
17.184150191551
 51
51.387610617044
  0
LINE
  5
3A76
330
1A
100
AcDbEntity
  8
細線
100
AcDbLine
 10
18.449524288884
 20
935.565285490644
 30
0.0
 11
23.704965261254
 21
935.565285490644
 31
0.0
  0
LINE
  5
3A77
330
1A
100
AcDbEntity
  8
外形線
100
AcDbLine
 10
18.449524288884
 20
947.781167990644
 30
0.0
 11
18.449524288884
 21
931.493247990644
 31
0.0
  0
LINE
  5
3A78
330
1A
100
AcDbEntity
  8
外形線
100
AcDbLine
 10
16.449524288884
 20
947.781167990644
 30
0.0
 11
16.449524288884
 21
931.493247990644
 31
0.0
  0
LINE
  5
3A79
330
1A
100
AcDbEntity
  8
外形線
100
AcDbLine
 10
22.702896788885
 20
931.493247990644
 30
0.0
 11
24.949449288884
 21
933.739877990644
 31
0.0
  0
LINE
  5
3A7A
330
1A
100
AcDbEntity
  8
外形線
100
AcDbLine
 10
16.449524288884
 20
931.493247990644
 30
0.0
 11
22.702896788885
 21
931.493247990644
 31
0.0
  0
ARC
  5
3A7B
330
1A
100
AcDbEntity
  8
細線
100
AcDbCircle
 10
21.360886788884
 20
946.644235490644
 30
0.0
 40
3.7563025
100
AcDbArc
 50
308.612371782868
 51
342.815889504126
  0
LINE
  5
3A7C
330
1A
100
AcDbEntity
  8
細線
100
AcDbLine
 10
18.449524288884
 20
943.709167990644
 30
0.0
 11
23.705005215892
 21
943.709167990644
 31
0.0
  0
LINE
  5
3A7D
330
1A
100
AcDbEntity
  8
外形線
100
AcDbLine
 10
22.702896788885
 20
947.781167990644
 30
0.0
 11
24.949449288884
 21
945.534462990644
 31
0.0
  0
LINE
  5
3A7E
330
1A
100
AcDbEntity
  8
外形線
100
AcDbLine
 10
16.449524288884
 20
947.781167990644
 30
0.0
 11
22.702896788885
 21
947.781167990644
 31
0.0
  0
LINE
  5
3A7F
330
1A
100
AcDbEntity
  8
外形線
100
AcDbLine
 10
24.949524288885
 20
934.637282990644
 30
0.0
 11
41.449524288884
 21
934.637282990644
 31
0.0
  0
LINE
  5
3A80
330
1A
100
AcDbEntity
  8
外形線
100
AcDbLine
 10
24.949524288885
 20
944.637205490644
 30
0.0
 11
41.449524288884
 21
944.637205490644
 31
0.0
  0
DIMENSION
  5
3A81
330
1A
100
AcDbEntity
  8
寸法線
 48
10.0
100
AcDbDimension
  2
*D8
 10
-100.509717000321
 20
899.62974970535
 30
0.0
 11
-105.134717000321
 21
939.62974970535
 31
0.0
 70
    32
  3
ISO-25
100
AcDbAlignedDimension
 13
-78.550475711116
 23
979.62974970535
 33
0.0
 14
-78.550475711116
 24
899.62974970535
 34
0.0
 50
90.0
100
AcDbRotatedDimension
1001
ACAD
1000
DSTYLE
1002
{
1070
     5
1000
OPEN30
1070
    41
1040
6.0
1070
    47
1040
0.1
1070
    48
1040
0.1
1070
    73
1070
     0
1070
   140
1040
8.0
1070
   271
1070
     1
1070
   272
1070
     1
1070
   341
1005
2AF4
1002
}
  0
DIMENSION
  5
3A82
330
1A
100
AcDbEntity
  8
寸法線
 48
10.0
100
AcDbDimension
  2
*D9
 10
1.449524288884
 20
881.103692519778
 30
0.0
 11
-38.550475711116
 21
885.728692519778
 31
0.0
 70
    32
  3
ISO-25
100
AcDbAlignedDimension
 13
-78.550475711116
 23
899.62974970535
 33
0.0
 14
1.449524288884
 24
927.62974970535
 34
0.0
100
AcDbRotatedDimension
1001
ACAD
1000
DSTYLE
1002
{
1070
     5
1000
OPEN30
1070
    41
1040
6.0
1070
    47
1040
0.1
1070
    48
1040
0.1
1070
    73
1070
     0
1070
   140
1040
8.0
1070
   271
1070
     1
1070
   272
1070
     1
1070
   341
1005
2AF4
1002
}
  0
INSERT
  5
3A83
330
1A
100
AcDbEntity
  8
外形線
100
AcDbBlockReference
  2
パドル_W1立面図
 10
-220.36082291456
 20
709.997232009709
 30
0.0
  0
DIMENSION
  5
3A84
330
1A
100
AcDbEntity
  8
寸法線
 48
10.0
100
AcDbDimension
  2
*D10
 10
-224.746278370004
 20
908.546851254993
 30
0.0
 11
-207.155592945054
 21
913.171851254993
 31
0.0
 70
    32
  1
1.5
  3
ISO-25
100
AcDbAlignedDimension
 13
-227.602282884539
 23
908.542291109647
 33
0.0
 14
-224.746278370004
 24
908.542291109647
 34
0.0
100
AcDbRotatedDimension
1001
ACAD
1000
DSTYLE
1002
{
1070
     5
1000
OPEN30
1070
    41
1040
6.0
1070
    47
1040
0.1
1070
    48
1040
0.1
1070
    73
1070
     0
1070
   140
1040
8.0
1070
   271
1070
     1
1070
   272
1070
     1
1070
   341
1005
2AF4
1002
}
  0
INSERT
  5
3A85
330
1A
100
AcDbEntity
  8
外形線
 48
10.0
100
AcDbBlockReference
  2
パドル_W1
 10
-136.851591620616
 20
718.977987783539
 30
0.0
  0
MTEXT
  5
3A86
330
1A
100
AcDbEntity
  8
寸法線
 48
10.0
100
AcDbMText
 10
251.427457030468
 20
1064.036733856906
 30
0.0
 40
8.0
 41
46.984966197733
 71
     1
 72
     5
  1
アルミ鋳物
  0
LEADER
  5
3A87
330
1A
100
AcDbEntity
  8
寸法線
 48
10.0
100
AcDbLeader
  3
ISO-25
 76
     3
 10
258.97209164814
 20
983.711836478561
 30
0.0
 10
251.842798414478
 20
1054.703316131627
 30
0.0
 10
263.491279515983
 20
1054.703316131627
 30
0.0
1001
ACAD
1000
DSTYLE
1002
{
1070
     5
1000
OPEN30
1070
   147
1040
0.625
1070
    77
1070
     0
1070
    41
1040
6.0
1070
    47
1040
0.1
1070
    48
1040
0.1
1070
    73
1070
     0
1070
   140
1040
5.0
1070
   271
1070
     1
1070
   272
1070
     1
1070
   341
1005
2AF4
1070
   342
1005
2AF4
1002
}
  0
LINE
  5
3A88
330
1A
100
AcDbEntity
  8
外形線
 48
10.0
100
AcDbLine
 10
91.433193315152
 20
956.652061561216
 30
0.0
 11
41.449524288884
 21
956.652061561216
 31
0.0
  0
LINE
  5
3A89
330
1A
100
AcDbEntity
  8
外形線
 48
10.0
100
AcDbLine
 10
91.433193315152
 20
922.652061561216
 30
0.0
 11
41.449524288884
 21
922.652061561216
 31
0.0
  0
LINE
  5
3A8A
330
1A
100
AcDbEntity
  8
外形線
 48
10.0
100
AcDbLine
 10
41.449524288884
 20
956.652061561216
 30
0.0
 11
41.449524288884
 21
922.652061561216
 31
0.0
  0
DIMENSION
  5
3A8B
330
1A
100
AcDbEntity
  8
寸法線
 48
10.0
100
AcDbDimension
  2
*D11
 10
91.433193315152
 20
813.08110934614
 30
0.0
 11
6.441358802018
 21
817.70610934614
 31
0.0
 70
    32
  3
ISO-25
100
AcDbAlignedDimension
 13
-78.550475711116
 23
899.62974970535
 33
0.0
 14
91.433193315152
 24
835.248911868342
 34
0.0
100
AcDbRotatedDimension
1001
ACAD
1000
DSTYLE
1002
{
1070
     5
1000
OPEN30
1070
    41
1040
6.0
1070
    47
1040
0.1
1070
    48
1040
0.1
1070
    73
1070
     0
1070
   140
1040
8.0
1070
   271
1070
     1
1070
   272
1070
     1
1070
   341
1005
2AF4
1002
}
  0
DIMENSION
  5
3A8C
330
1A
100
AcDbEntity
  8
寸法線
 48
10.0
100
AcDbDimension
  2
*D12
 10
91.433193315152
 20
835.248911868342
 30
0.0
 11
97.433191602173
 21
839.874699269917
 31
0.0
 70
    32
  3
ISO-25
100
AcDbAlignedDimension
 13
103.433189889194
 23
862.148359694036
 33
0.0
 14
91.433193315152
 24
862.152061561216
 34
0.0
100
AcDbRotatedDimension
1001
ACAD
1000
DSTYLE
1002
{
1070
     5
1000
OPEN30
1070
    41
1040
6.0
1070
    47
1040
0.1
1070
    48
1040
0.1
1070
    73
1070
     0
1070
   140
1040
8.0
1070
   271
1070
     1
1070
   272
1070
     1
1070
   341
1005
2AF4
1002
}
  0
DIMENSION
  5
3A8D
330
1A
100
AcDbEntity
  8
寸法線
 48
10.0
100
AcDbDimension
  2
*D13
 10
103.433189889194
 20
835.248911868342
 30
0.0
 11
158.433189889194
 21
839.873911868342
 31
0.0
 70
    32
  1
110
  3
ISO-25
100
AcDbAlignedDimension
 13
213.433189889194
 23
862.148359694036
 33
0.0
 14
103.433189889194
 24
862.148359694036
 34
0.0
100
AcDbRotatedDimension
1001
ACAD
1000
DSTYLE
1002
{
1070
     5
1000
OPEN30
1070
    41
1040
6.0
1070
    47
1040
0.1
1070
    48
1040
0.1
1070
    73
1070
     0
1070
   140
1040
8.0
1070
   271
1070
     1
1070
   272
1070
     1
1070
   341
1005
2AF4
1002
}
  0
DIMENSION
  5
3A8E
330
1A
100
AcDbEntity
  8
寸法線
 48
10.0
100
AcDbDimension
  2
*D14
 10
213.433189889194
 20
835.248911868342
 30
0.0
 11
218.433189889194
 21
839.873911868342
 31
0.0
 70
    32
  3
ISO-25
100
AcDbAlignedDimension
 13
223.433189889194
 23
862.148359694036
 33
0.0
 14
213.433189889194
 24
862.148359694036
 34
0.0
100
AcDbRotatedDimension
1001
ACAD
1000
DSTYLE
1002
{
1070
     5
1000
OPEN30
1070
    41
1040
6.0
1070
    47
1040
0.1
1070
    48
1040
0.1
1070
    73
1070
     0
1070
   140
1040
8.0
1070
   271
1070
     1
1070
   272
1070
     1
1070
   341
1005
2AF4
1002
}
  0
DIMENSION
  5
3A91
330
1A
100
AcDbEntity
  8
寸法線
 48
10.0
100
AcDbDimension
  2
*D15
 10
91.433193315152
 20
813.08110934614
 30
0.0
 11
228.51616658655
 21
813.08110934614
 31
0.0
 70
   160
  3
ISO-25
100
AcDbAlignedDimension
 13
363.433189889194
 23
838.553457892793
 33
0.0
 14
91.433193315152
 24
835.248911868342
 34
0.0
100
AcDbRotatedDimension
1001
ACAD
1000
DSTYLE
1002
{
1070
     5
1000
OPEN30
1070
    41
1040
6.0
1070
    47
1040
0.1
1070
    48
1040
0.1
1070
    73
1070
     0
1070
   140
1040
8.0
1070
   271
1070
     1
1070
   272
1070
     1
1070
   341
1005
2AF4
1002
}
  0
LINE
  5
3A92
330
1A
100
AcDbEntity
  8
中心線
 48
10.0
100
AcDbLine
 10
-89.057664436964
 20
939.626047838171
 30
0.0
 11
363.594504147558
 21
939.626047838171
 31
0.0
  0
MTEXT
  5
3A94
330
1A
100
AcDbEntity
  8
寸法線
 48
10.0
100
AcDbMText
 10
106.656194983659
 20
1064.112155704042
 30
0.0
 40
8.0
 41
17.617431142437
 71
     1
 72
     5
  1
BsBM
  0
MTEXT
  5
3A95
330
1A
100
AcDbEntity
  8
寸法線
 48
10.0
100
AcDbMText
 10
90.377077913251
 20
1056.273554413057
 30
0.0
 40
8.0
 41
48.119719006341
 71
     9
 72
     5
  1
フランジ\Pアルミ鋳物
  0
LEADER
  5
3A96
330
1A
100
AcDbEntity
  8
寸法線
 48
10.0
100
AcDbLeader
  3
ISO-25
 76
     3
 10
98.433189889194
 20
1017.148359694036
 30
0.0
 10
89.765125679375
 20
1054.703316131627
 30
0.0
 10
77.456746720888
 20
1054.703316131627
 30
0.0
1001
ACAD
1000
DSTYLE
1002
{
1070
     5
1000
OPEN30
1070
   147
1040
0.625
1070
    77
1070
     0
1070
    41
1040
6.0
1070
    47
1040
0.1
1070
    48
1040
0.1
1070
    73
1070
     0
1070
   140
1040
5.0
1070
   271
1070
     1
1070
   272
1070
     1
1070
   341
1005
2AF4
1070
   342
1005
2AF4
1002
}
  0
LEADER
  5
3A97
330
1A
100
AcDbEntity
  8
寸法線
 48
10.0
100
AcDbLeader
  3
ISO-25
 76
     3
 10
145.998947037255
 20
954.683376744376
 30
0.0
 10
129.798839066574
 20
1054.703316131627
 30
0.0
 10
119.236516861363
 20
1054.703316131627
 30
0.0
1001
ACAD
1000
DSTYLE
1002
{
1070
     5
1000
OPEN30
1070
   147
1040
0.625
1070
    77
1070
     0
1070
    41
1040
6.0
1070
    47
1040
0.1
1070
    48
1040
0.1
1070
    73
1070
     0
1070
   140
1040
5.0
1070
   271
1070
     1
1070
   272
1070
     1
1070
   341
1005
2AF4
1070
   342
1005
2AF4
1002
}
  0
DIMENSION
  5
3A98
330
1A
100
AcDbEntity
  8
寸法線
 48
10.0
100
AcDbDimension
  2
*D16
 10
76.792309767229
 20
922.652061561216
 30
0.0
 11
76.792309767229
 21
972.677061561216
 31
0.0
 70
   160
  1
φ<>
  3
ISO-25
100
AcDbAlignedDimension
 13
76.792309767229
 23
956.652061561216
 33
0.0
 14
76.792309767229
 24
922.652061561216
 34
0.0
 50
90.0
100
AcDbRotatedDimension
1001
ACAD
1000
DSTYLE
1002
{
1070
     5
1000
OPEN30
1070
    41
1040
6.0
1070
    47
1040
0.1
1070
    48
1040
0.1
1070
    73
1070
     0
1070
   140
1040
8.0
1070
   271
1070
     1
1070
   272
1070
     1
1070
   341
1005
2AF4
1002
}
  0
DIMENSION
  5
3A99
330
1A
100
AcDbEntity
  8
寸法線
 48
10.0
100
AcDbDimension
  2
*D17
 10
36.008634296266
 20
944.637205490644
 30
0.0
 11
31.383634296266
 21
965.195538823977
 31
0.0
 70
    32
  1
φ<>
  3
ISO-25
100
AcDbAlignedDimension
 13
36.008634296266
 23
934.637282990644
 33
0.0
 14
36.008634296266
 24
944.637205490644
 34
0.0
 50
90.0
100
AcDbRotatedDimension
1001
ACAD
1000
DSTYLE
1002
{
1070
     5
1000
OPEN30
1070
    41
1040
6.0
1070
    47
1040
0.1
1070
    48
1040
0.1
1070
    73
1070
     0
1070
   140
1040
8.0
1070
   271
1070
     1
1070
   272
1070
     1
1070
   341
1005
2AF4
1002
}
  0
CIRCLE
  5
3A9A
330
1A
100
AcDbEntity
  8
外形線
100
AcDbCircle
 10
-226.183824418294
 20
874.63459033817
 30
0.0
 40
3.0
  0
CIRCLE
  5
3A9B
330
1A
100
AcDbEntity
  8
細線
100
AcDbCircle
 10
-226.183824418294
 20
874.63459033817
 30
0.0
 40
4.0
  0
CIRCLE
  5
3A9C
330
1A
100
AcDbEntity
  8
細線
100
AcDbCircle
 10
-161.183824979634
 20
939.626047838171
 30
0.0
 40
4.0
  0
CIRCLE
  5
3A9D
330
1A
100
AcDbEntity
  8
外形線
100
AcDbCircle
 10
-161.183824979634
 20
939.626047838171
 30
0.0
 40
3.0
  0
CIRCLE
  5
3A9E
330
1A
100
AcDbEntity
  8
細線
100
AcDbCircle
 10
-226.174269418294
 20
1004.634589635878
 30
0.0
 40
4.0
  0
CIRCLE
  5
3A9F
330
1A
100
AcDbEntity
  8
外形線
100
AcDbCircle
 10
-226.174269418294
 20
1004.634589635878
 30
0.0
 40
3.0
  0
CIRCLE
  5
3AA0
330
1A
100
AcDbEntity
  8
細線
100
AcDbCircle
 10
-291.183823856953
 20
939.626047838171
 30
0.0
 40
4.0
  0
CIRCLE
  5
3AA1
330
1A
100
AcDbEntity
  8
外形線
100
AcDbCircle
 10
-291.183823856953
 20
939.626047838171
 30
0.0
 40
3.0
  0
LINE
  5
3AA9
330
1A
100
AcDbEntity
  8
外形線
100
AcDbLine
 10
91.433193315152
 20
1017.152061561216
 30
0.0
 11
91.433193315152
 21
862.152061561216
 31
0.0
  0
LINE
  5
3AAA
330
1A
100
AcDbEntity
  8
外形線
100
AcDbLine
 10
103.433189889194
 20
1017.148359694036
 30
0.0
 11
103.433189889194
 21
862.148359694036
 31
0.0
  0
LINE
  5
3AB5
330
1A
100
AcDbEntity
  8
中心線
 48
10.0
100
AcDbLine
 10
84.691199889194
 20
874.648399694036
 30
0.0
 11
242.880324889193
 21
874.648399694036
 31
0.0
  0
LINE
  5
3AB6
330
1A
100
AcDbEntity
  8
外形線
100
AcDbLine
 10
91.433193315152
 20
862.152061561216
 30
0.0
 11
103.433189889194
 21
862.148359694036
 31
0.0
  0
LINE
  5
3AC1
330
1A
100
AcDbEntity
  8
外形線
100
AcDbLine
 10
189.433189889194
 20
944.648512194036
 30
0.0
 11
167.738257389194
 21
944.648512194036
 31
0.0
  0
LINE
  5
3AC2
330
1A
100
AcDbEntity
  8
外形線
100
AcDbLine
 10
189.433189889194
 20
934.648284694036
 30
0.0
 11
167.738257389194
 21
934.648284694036
 31
0.0
  0
LINE
  5
3AC4
330
1A
100
AcDbEntity
  8
外形線
100
AcDbLine
 10
125.433189889194
 20
959.626047838171
 30
0.0
 11
125.433189889194
 21
919.626047838171
 31
0.0
  0
LINE
  5
3AD0
330
1A
100
AcDbEntity
  8
外形線
100
AcDbLine
 10
137.772344529319
 20
934.648399694036
 30
0.0
 11
125.433189889194
 21
934.648399694036
 31
0.0
  0
LINE
  5
3ADA
330
1A
100
AcDbEntity
  8
外形線
100
AcDbLine
 10
137.772344529319
 20
944.648399694036
 30
0.0
 11
125.433189889194
 21
944.648399694036
 31
0.0
  0
LINE
  5
3B2D
330
1A
100
AcDbEntity
  8
外形線
100
AcDbLine
 10
213.238219889194
 20
998.648399694036
 30
0.0
 11
103.433189889194
 21
998.648399694036
 31
0.0
  0
LINE
  5
3B2E
330
1A
100
AcDbEntity
  8
外形線
100
AcDbLine
 10
213.238219889194
 20
1010.648399694036
 30
0.0
 11
103.433189889194
 21
1010.648399694036
 31
0.0
  0
LINE
  5
3B2F
330
1A
100
AcDbEntity
  8
中心線
 48
10.0
100
AcDbLine
 10
87.441199889194
 20
1004.648399694036
 30
0.0
 11
237.909902020685
 21
1004.648399694036
 31
0.0
  0
LINE
  5
3B30
330
1A
100
AcDbEntity
  8
外形線
100
AcDbLine
 10
91.433193315152
 20
1017.152061561216
 30
0.0
 11
103.433189889194
 21
1017.148359694036
 31
0.0
  0
LINE
  5
3B32
330
1A
100
AcDbEntity
  8
外形線
100
AcDbLine
 10
234.433194977846
 20
1008.568399694036
 30
0.0
 11
234.433194977846
 21
1000.728399694036
 31
0.0
  0
LINE
  5
3B33
330
1A
100
AcDbEntity
  8
外形線
100
AcDbLine
 10
231.333189889194
 20
1000.728399694036
 30
0.0
 11
234.433194977846
 21
1000.728399694036
 31
0.0
  0
LINE
  5
3B34
330
1A
100
AcDbEntity
  8
外形線
100
AcDbLine
 10
231.333189889194
 20
1008.568399694036
 30
0.0
 11
234.433194977846
 21
1008.568399694036
 31
0.0
  0
LINE
  5
3B38
330
1A
100
AcDbEntity
  8
細線
 48
10.0
100
AcDbLine
 10
234.433194977846
 20
1007.648399694036
 30
0.0
 11
231.333189889194
 21
1007.648399694036
 31
0.0
  0
LINE
  5
3B39
330
1A
100
AcDbEntity
  8
細線
 48
10.0
100
AcDbLine
 10
234.433194977846
 20
1001.648399694036
 30
0.0
 11
231.333189889194
 21
1001.648399694036
 31
0.0
  0
ARC
  5
3B3A
330
1A
100
AcDbEntity
  8
外形線
 48
10.0
100
AcDbCircle
 10
-226.183824418296
 20
939.62604783817
 30
0.0
 40
16.99999999999993
100
AcDbArc
 50
274.85081174141
 51
85.14918825859
  0
ARC
  5
3B3B
330
1A
100
AcDbEntity
  8
外形線
 48
10.0
100
AcDbCircle
 10
-226.183824418295
 20
939.62604783817
 30
0.0
 40
16.99999999999986
100
AcDbArc
 50
94.78625192625
 51
265.21374807375
  0
LINE
  5
3B3C
330
1A
100
AcDbEntity
  8
外形線
100
AcDbLine
 10
231.333189889194
 20
1010.898512194036
 30
0.0
 11
231.333189889194
 21
998.398284694036
 31
0.0
  0
LINE
  5
3B3D
330
1A
100
AcDbEntity
  8
細線
100
AcDbLine
 10
225.013189889194
 20
1008.34344141685
 30
0.0
 11
229.736537389196
 21
1008.34344141685
 31
0.0
  0
LINE
  5
3B3E
330
1A
100
AcDbEntity
  8
外形線
100
AcDbLine
 10
230.198159503345
 20
1012.038483139663
 30
0.0
 11
231.333189889194
 21
1010.898512194036
 31
0.0
  0
ARC
  5
3B3F
330
1A
100
AcDbEntity
  8
細線
100
AcDbCircle
 10
228.402673713984
 20
1010.953372919461
 30
0.0
 40
2.931029640308923
100
AcDbArc
 50
297.070316726528
 51
358.92751968551
  0
ARC
  5
3B40
330
1A
100
AcDbEntity
  8
細線
100
AcDbCircle
 10
226.259837480613
 20
1004.648399694036
 30
0.0
 40
5.073536792778295
100
AcDbArc
 50
313.2561834881
 51
46.7438165119
  0
LINE
  5
3B41
330
1A
100
AcDbEntity
  8
細線
100
AcDbLine
 10
225.013189889194
 20
1000.953357971223
 30
0.0
 11
229.736537389196
 21
1000.953357971223
 31
0.0
  0
ARC
  5
3B42
330
1A
100
AcDbEntity
  8
細線
100
AcDbCircle
 10
228.402673713984
 20
998.343426468611
 30
0.0
 40
2.93102964030951
100
AcDbArc
 50
1.072480314503
 51
62.929683273472
  0
LINE
  5
3B43
330
1A
100
AcDbEntity
  8
外形線
100
AcDbLine
 10
230.198159503345
 20
997.258316248409
 30
0.0
 11
231.333189889194
 21
998.398287194036
 31
0.0
  0
LINE
  5
3B44
330
1A
100
AcDbEntity
  8
外形線
 48
10.0
100
AcDbLine
 10
230.198159503345
 20
1012.038483139663
 30
0.0
 11
225.013189889194
 21
1012.038483139663
 31
0.0
  0
LINE
  5
3B45
330
1A
100
AcDbEntity
  8
外形線
 48
10.0
100
AcDbLine
 10
230.198159503345
 20
997.258316248409
 30
0.0
 11
225.013189889194
 21
997.258316248409
 31
0.0
  0
LINE
  5
3B50
330
1A
100
AcDbEntity
  8
外形線
 48
10.0
100
AcDbLine
 10
225.013189889194
 20
995.798399694036
 30
0.0
 11
225.013189889194
 21
1013.498399694036
 31
0.0
  0
LINE
  5
3B51
330
1A
100
AcDbEntity
  8
外形線
 48
10.0
100
AcDbLine
 10
223.433189889194
 20
1013.498399694036
 30
0.0
 11
225.013189889194
 21
1013.498399694036
 31
0.0
  0
LINE
  5
3B52
330
1A
100
AcDbEntity
  8
外形線
 48
10.0
100
AcDbLine
 10
223.433189889194
 20
995.798399694036
 30
0.0
 11
225.013189889194
 21
995.798399694036
 31
0.0
  0
LINE
  5
3B53
330
1A
100
AcDbEntity
  8
外形線
 48
10.0
100
AcDbLine
 10
223.433189889194
 20
865.798399694036
 30
0.0
 11
225.013189889194
 21
865.798399694036
 31
0.0
  0
LINE
  5
3B54
330
1A
100
AcDbEntity
  8
外形線
 48
10.0
100
AcDbLine
 10
223.433189889194
 20
883.498399694036
 30
0.0
 11
225.013189889194
 21
883.498399694036
 31
0.0
  0
LINE
  5
3B55
330
1A
100
AcDbEntity
  8
外形線
 48
10.0
100
AcDbLine
 10
225.013189889194
 20
865.798399694036
 30
0.0
 11
225.013189889194
 21
883.498399694036
 31
0.0
  0
LINE
  5
3B56
330
1A
100
AcDbEntity
  8
外形線
 48
10.0
100
AcDbLine
 10
230.198159503345
 20
867.258316248409
 30
0.0
 11
225.013189889194
 21
867.258316248409
 31
0.0
  0
LINE
  5
3B57
330
1A
100
AcDbEntity
  8
外形線
 48
10.0
100
AcDbLine
 10
230.198159503345
 20
882.038483139663
 30
0.0
 11
225.013189889194
 21
882.038483139663
 31
0.0
  0
LINE
  5
3B58
330
1A
100
AcDbEntity
  8
外形線
100
AcDbLine
 10
230.198159503345
 20
867.258316248409
 30
0.0
 11
231.333189889194
 21
868.398287194036
 31
0.0
  0
ARC
  5
3B59
330
1A
100
AcDbEntity
  8
細線
100
AcDbCircle
 10
228.402673713984
 20
868.343426468611
 30
0.0
 40
2.93102964030951
100
AcDbArc
 50
1.072480314503
 51
62.929683273472
  0
LINE
  5
3B5A
330
1A
100
AcDbEntity
  8
細線
100
AcDbLine
 10
225.013189889194
 20
870.953357971222
 30
0.0
 11
229.736537389196
 21
870.953357971222
 31
0.0
  0
ARC
  5
3B5B
330
1A
100
AcDbEntity
  8
細線
100
AcDbCircle
 10
226.259837480613
 20
874.648399694036
 30
0.0
 40
5.073536792778295
100
AcDbArc
 50
313.2561834881
 51
46.7438165119
  0
ARC
  5
3B5C
330
1A
100
AcDbEntity
  8
細線
100
AcDbCircle
 10
228.402673713984
 20
880.953372919461
 30
0.0
 40
2.931029640308923
100
AcDbArc
 50
297.070316726528
 51
358.92751968551
  0
LINE
  5
3B5D
330
1A
100
AcDbEntity
  8
外形線
100
AcDbLine
 10
230.198159503345
 20
882.038483139663
 30
0.0
 11
231.333189889194
 21
880.898512194036
 31
0.0
  0
LINE
  5
3B5E
330
1A
100
AcDbEntity
  8
細線
100
AcDbLine
 10
225.013189889194
 20
878.34344141685
 30
0.0
 11
229.736537389196
 21
878.34344141685
 31
0.0
  0
LINE
  5
3B5F
330
1A
100
AcDbEntity
  8
外形線
100
AcDbLine
 10
231.333189889194
 20
880.898512194036
 30
0.0
 11
231.333189889194
 21
868.398284694036
 31
0.0
  0
LINE
  5
3B60
330
1A
100
AcDbEntity
  8
細線
 48
10.0
100
AcDbLine
 10
234.433194977846
 20
871.648399694036
 30
0.0
 11
231.333189889194
 21
871.648399694036
 31
0.0
  0
LINE
  5
3B61
330
1A
100
AcDbEntity
  8
細線
 48
10.0
100
AcDbLine
 10
234.433194977846
 20
877.648399694036
 30
0.0
 11
231.333189889194
 21
877.648399694036
 31
0.0
  0
LINE
  5
3B62
330
1A
100
AcDbEntity
  8
外形線
100
AcDbLine
 10
231.333189889194
 20
878.568399694036
 30
0.0
 11
234.433194977846
 21
878.568399694036
 31
0.0
  0
LINE
  5
3B63
330
1A
100
AcDbEntity
  8
外形線
100
AcDbLine
 10
231.333189889194
 20
870.728399694036
 30
0.0
 11
234.433194977846
 21
870.728399694036
 31
0.0
  0
LINE
  5
3B64
330
1A
100
AcDbEntity
  8
外形線
100
AcDbLine
 10
234.433194977846
 20
878.568399694036
 30
0.0
 11
234.433194977846
 21
870.728399694036
 31
0.0
  0
LINE
  5
3B65
330
1A
100
AcDbEntity
  8
外形線
100
AcDbLine
 10
213.238219889194
 20
868.648399694036
 30
0.0
 11
103.433189889194
 21
868.648399694036
 31
0.0
  0
LINE
  5
3B66
330
1A
100
AcDbEntity
  8
外形線
100
AcDbLine
 10
213.238219889194
 20
880.648399694036
 30
0.0
 11
103.433189889194
 21
880.648399694036
 31
0.0
  0
LINE
  5
3FF9
330
1A
100
AcDbEntity
  8
外形線
100
AcDbLine
 10
222.433189889194
 20
862.126047838171
 30
0.0
 11
213.933189889194
 21
862.126047838171
 31
0.0
  0
LINE
  5
3FFA
330
1A
100
AcDbEntity
  8
外形線
100
AcDbLine
 10
222.433189889194
 20
862.126047838171
 30
0.0
 11
223.433189889194
 21
863.126047838171
 31
0.0
  0
LINE
  5
3FFB
330
1A
100
AcDbEntity
  8
外形線
100
AcDbLine
 10
213.933189889194
 20
862.126047838171
 30
0.0
 11
213.433189889194
 21
862.626047838171
 31
0.0
  0
LINE
  5
3FFC
330
1A
100
AcDbEntity
  8
外形線
100
AcDbLine
 10
213.933189889194
 20
1017.126047838171
 30
0.0
 11
213.433189889194
 21
1016.626047838171
 31
0.0
  0
LINE
  5
3FFD
330
1A
100
AcDbEntity
  8
外形線
100
AcDbLine
 10
213.433189889194
 20
862.626047838171
 30
0.0
 11
213.433189889194
 21
1016.626047838171
 31
0.0
  0
LINE
  5
3FFE
330
1A
100
AcDbEntity
  8
外形線
100
AcDbLine
 10
222.433189889194
 20
1017.126047838171
 30
0.0
 11
223.433189889194
 21
1016.126047838171
 31
0.0
  0
LINE
  5
3FFF
330
1A
100
AcDbEntity
  8
外形線
100
AcDbLine
 10
222.433189889194
 20
1017.126047838171
 30
0.0
 11
213.933189889194
 21
1017.126047838171
 31
0.0
  0
LINE
  5
4001
330
1A
100
AcDbEntity
  8
外形線
100
AcDbLine
 10
223.433189889194
 20
863.126047838171
 30
0.0
 11
223.433189889194
 21
1016.126047838171
 31
0.0
  0
LINE
  5
4022
330
1A
100
AcDbEntity
  8
外形線
100
AcDbLine
 10
189.433189889194
 20
952.626047838171
 30
0.0
 11
189.433189889194
 21
926.626047838171
 31
0.0
  0
LINE
  5
4067
330
1A
100
AcDbEntity
  8
外形線
100
AcDbLine
 10
213.433189889194
 20
954.626047838171
 30
0.0
 11
208.933189889194
 21
954.626047838171
 31
0.0
  0
LINE
  5
4068
330
1A
100
AcDbEntity
  8
外形線
100
AcDbLine
 10
208.933189889194
 20
954.626047838171
 30
0.0
 11
208.433189889194
 21
954.126047838171
 31
0.0
  0
LINE
  5
4069
330
1A
100
AcDbEntity
  8
外形線
100
AcDbLine
 10
208.433189889194
 20
954.637154837101
 30
0.0
 11
208.433189889194
 21
924.61494083924
 31
0.0
  0
LINE
  5
406A
330
1A
100
AcDbEntity
  8
外形線
100
AcDbLine
 10
208.433189889194
 20
925.126047838171
 30
0.0
 11
208.933189889194
 21
924.626047838171
 31
0.0
  0
LINE
  5
406B
330
1A
100
AcDbEntity
  8
外形線
100
AcDbLine
 10
208.933189889194
 20
924.626047838171
 30
0.0
 11
213.433189889194
 21
924.626047838171
 31
0.0
  0
LINE
  5
406C
330
1A
100
AcDbEntity
  8
外形線
100
AcDbLine
 10
213.433189889194
 20
924.626047838171
 30
0.0
 11
213.433189889194
 21
924.626047838171
 31
0.0
  0
LINE
  5
406D
330
1A
100
AcDbEntity
  8
外形線
100
AcDbLine
 10
189.433189889194
 20
926.626047838171
 30
0.0
 11
191.120709030254
 21
924.61494083924
 31
0.0
  0
LINE
  5
406E
330
1A
100
AcDbEntity
  8
外形線
100
AcDbLine
 10
189.433189889194
 20
952.626047838171
 30
0.0
 11
191.120709030254
 21
954.637154837101
 31
0.0
  0
LINE
  5
406F
330
1A
100
AcDbEntity
  8
外形線
100
AcDbLine
 10
208.433189889194
 20
954.637154837101
 30
0.0
 11
191.120709030254
 21
954.637154837101
 31
0.0
  0
LINE
  5
4070
330
1A
100
AcDbEntity
  8
外形線
100
AcDbLine
 10
208.433189889194
 20
924.61494083924
 30
0.0
 11
191.120709030254
 21
924.61494083924
 31
0.0
  0
LINE
  5
4072
330
1A
100
AcDbEntity
  8
細線
100
AcDbLine
 10
208.433189889194
 20
947.131601337636
 30
0.0
 11
190.594303056395
 21
947.131601337636
 31
0.0
  0
ARC
  5
4073
330
1A
100
AcDbEntity
  8
細線
100
AcDbCircle
 10
214.272076721993
 20
939.626047838171
 30
0.0
 40
24.83888683279929
100
AcDbArc
 50
162.412046226009
 51
197.587953773991
  0
ARC
  5
4074
330
1A
100
AcDbEntity
  8
細線
100
AcDbCircle
 10
214.160149188214
 20
954.981559891759
 30
0.0
 40
24.8389
100
AcDbArc
 50
185.441626111183
 51
198.423299304877
  0
LINE
  5
4075
330
1A
100
AcDbEntity
  8
細線
100
AcDbLine
 10
208.433189889194
 20
932.120494338706
 30
0.0
 11
190.594303056395
 21
932.120494338706
 31
0.0
  0
ARC
  5
4076
330
1A
100
AcDbEntity
  8
細線
100
AcDbCircle
 10
214.160149188214
 20
924.270535784583
 30
0.0
 40
24.8389
100
AcDbArc
 50
161.576700695123
 51
174.558373888817
  0
LINE
  5
45FE
330
1A
100
AcDbEntity
  8
細線
 48
10.0
100
AcDbLine
 10
150.772344529319
 20
924.659418291075
 30
0.0
 11
150.772344529319
 21
936.626047838171
 31
0.0
  0
LINE
  5
45FF
330
1A
100
AcDbEntity
  8
細線
 48
10.0
100
AcDbLine
 10
150.772344529319
 20
954.592677385267
 30
0.0
 11
150.772344529319
 21
942.626047838171
 31
0.0
  0
LINE
  5
4600
330
1A
100
AcDbEntity
  8
細線
 48
10.0
100
AcDbLine
 10
150.772344529319
 20
936.626047838171
 30
0.0
 11
146.272344529319
 21
936.626047838171
 31
0.0
  0
LINE
  5
4601
330
1A
100
AcDbEntity
  8
細線
 48
10.0
100
AcDbLine
 10
146.272344529319
 20
942.626047838171
 30
0.0
 11
146.272344529319
 21
936.626047838171
 31
0.0
  0
LINE
  5
4602
330
1A
100
AcDbEntity
  8
細線
 48
10.0
100
AcDbLine
 10
150.772344529319
 20
942.626047838171
 30
0.0
 11
146.272344529319
 21
942.626047838171
 31
0.0
  0
LINE
  5
4603
330
1A
100
AcDbEntity
  8
外形線
 48
10.0
100
AcDbLine
 10
143.772344529319
 20
924.659418291075
 30
0.0
 11
150.772344529319
 21
924.659418291075
 31
0.0
  0
LINE
  5
4604
330
1A
100
AcDbEntity
  8
外形線
 48
10.0
100
AcDbLine
 10
143.772344529319
 20
954.592677385267
 30
0.0
 11
150.772344529319
 21
954.592677385267
 31
0.0
  0
LINE
  5
4605
330
1A
100
AcDbEntity
  8
細線
100
AcDbLine
 10
152.488227389193
 20
924.659418291075
 30
0.0
 11
152.488227389193
 21
937.126047838171
 31
0.0
  0
LINE
  5
4606
330
1A
100
AcDbEntity
  8
細線
100
AcDbLine
 10
152.488227389193
 20
937.126047838171
 30
0.0
 11
147.988227389193
 21
937.126047838171
 31
0.0
  0
LINE
  5
4607
330
1A
100
AcDbEntity
  8
細線
100
AcDbLine
 10
160.988227389193
 20
943.376010338171
 30
0.0
 11
166.304159889194
 21
943.376010338171
 31
0.0
  0
LINE
  5
4608
330
1A
100
AcDbEntity
  8
外形線
100
AcDbLine
 10
160.988227389193
 20
947.126010338171
 30
0.0
 11
166.461097389193
 21
947.126010338171
 31
0.0
  0
LINE
  5
4609
330
1A
100
AcDbEntity
  8
細線
100
AcDbLine
 10
152.488227389193
 20
954.592677385267
 30
0.0
 11
152.488227389193
 21
942.126047838171
 31
0.0
  0
LINE
  5
460A
330
1A
100
AcDbEntity
  8
外形線
100
AcDbLine
 10
154.988227389193
 20
954.592677385267
 30
0.0
 11
152.488227389193
 21
954.592677385267
 31
0.0
  0
LINE
  5
460B
330
1A
100
AcDbEntity
  8
外形線
100
AcDbLine
 10
160.988227389193
 20
949.626010338171
 30
0.0
 11
154.988227389193
 21
949.626010338171
 31
0.0
  0
LINE
  5
460C
330
1A
100
AcDbEntity
  8
外形線
100
AcDbLine
 10
166.461097389193
 20
947.126010338171
 30
0.0
 11
167.738257389194
 21
945.413897838171
 31
0.0
  0
ARC
  5
460D
330
1A
100
AcDbEntity
  8
細線
100
AcDbCircle
 10
162.207479889193
 20
947.782480338171
 30
0.0
 40
6.016645
100
AcDbArc
 50
312.913737838252
 51
336.816849501773
  0
LINE
  5
460E
330
1A
100
AcDbEntity
  8
外形線
100
AcDbLine
 10
143.772344529319
 20
949.626010338171
 30
0.0
 11
137.772344529319
 21
949.626010338171
 31
0.0
  0
LINE
  5
460F
330
1A
100
AcDbEntity
  8
細線
100
AcDbLine
 10
152.488227389193
 20
942.126047838171
 30
0.0
 11
147.988227389193
 21
942.126047838171
 31
0.0
  0
LINE
  5
4610
330
1A
100
AcDbEntity
  8
細線
100
AcDbLine
 10
160.988227389193
 20
935.876010338171
 30
0.0
 11
166.304159889194
 21
935.876010338171
 31
0.0
  0
LINE
  5
4611
330
1A
100
AcDbEntity
  8
外形線
100
AcDbLine
 10
160.988227389193
 20
932.126010338171
 30
0.0
 11
166.461097389193
 21
932.126010338171
 31
0.0
  0
LINE
  5
4612
330
1A
100
AcDbEntity
  8
外形線
100
AcDbLine
 10
154.988227389193
 20
924.659418291075
 30
0.0
 11
152.488227389193
 21
924.659418291075
 31
0.0
  0
LINE
  5
4613
330
1A
100
AcDbEntity
  8
外形線
100
AcDbLine
 10
160.988227389193
 20
929.626010338171
 30
0.0
 11
154.988227389193
 21
929.626010338171
 31
0.0
  0
ARC
  5
4614
330
1A
100
AcDbEntity
  8
細線
100
AcDbCircle
 10
162.207479889193
 20
931.469537838171
 30
0.0
 40
6.016645
100
AcDbArc
 50
23.183190193918
 51
47.086301857426
  0
LINE
  5
4615
330
1A
100
AcDbEntity
  8
外形線
100
AcDbLine
 10
166.461097389193
 20
932.126010338171
 30
0.0
 11
167.738257389194
 21
933.838120338171
 31
0.0
  0
LINE
  5
4616
330
1A
100
AcDbEntity
  8
外形線
100
AcDbLine
 10
143.772344529319
 20
929.626010338171
 30
0.0
 11
137.772344529319
 21
929.626010338171
 31
0.0
  0
LINE
  5
4617
330
1A
100
AcDbEntity
  8
外形線
100
AcDbLine
 10
143.772344529319
 20
954.592677385267
 30
0.0
 11
143.772344529319
 21
924.659418291075
 31
0.0
  0
LINE
  5
4618
330
1A
100
AcDbEntity
  8
外形線
100
AcDbLine
 10
154.988227389193
 20
924.659418291075
 30
0.0
 11
154.988227389193
 21
954.592677385267
 31
0.0
  0
LINE
  5
4619
330
1A
100
AcDbEntity
  8
外形線
100
AcDbLine
 10
160.988227389193
 20
949.626010338171
 30
0.0
 11
160.988227389193
 21
929.626010338171
 31
0.0
  0
LINE
  5
461A
330
1A
100
AcDbEntity
  8
外形線
100
AcDbLine
 10
137.772344529319
 20
949.626010338171
 30
0.0
 11
137.772344529319
 21
929.626010338171
 31
0.0
  0
LINE
  5
461B
330
1A
100
AcDbEntity
  8
細線
100
AcDbLine
 10
147.988227389193
 20
942.126047838171
 30
0.0
 11
147.988227389193
 21
937.126047838171
 31
0.0
  0
ARC
  5
461C
330
1A
100
AcDbEntity
  8
細線
100
AcDbCircle
 10
162.118249870281
 20
939.626029248746
 30
0.0
 40
5.62000751922095
100
AcDbArc
 50
318.143885364232
 51
41.855618507184
  0
LINE
  5
461D
330
1A
100
AcDbEntity
  8
外形線
100
AcDbLine
 10
167.738257389194
 20
945.413897838171
 30
0.0
 11
167.738257389194
 21
933.838120338171
 31
0.0
  0
LINE
  5
4817
330
1A
100
AcDbEntity
  8
外形線
100
AcDbLine
 10
322.847818121112
 20
988.178049838171
 30
0.0
 11
349.067345889194
 21
986.96442783817
 31
0.0
  0
ARC
  5
4818
330
1A
100
AcDbEntity
  8
外形線
100
AcDbCircle
 10
321.121134121113
 20
983.608469838171
 30
0.0
 40
1.714446
100
AcDbArc
 50
271.804703587
 51
88.195318508631
  0
ARC
  5
4819
330
1A
100
AcDbEntity
  8
外形線
100
AcDbCircle
 10
348.869501213383
 20
982.115247411881
 30
0.0
 40
4.853214741019798
100
AcDbArc
 50
359.990607665518
 51
87.663650269118
  0
LINE
  5
481A
330
1A
100
AcDbEntity
  8
細線
100
AcDbLine
 10
319.135050121113
 20
985.322093838171
 30
0.0
 11
319.135050121113
 21
990.626047838171
 31
0.0
  0
LINE
  5
481B
330
1A
100
AcDbEntity
  8
外形線
100
AcDbLine
 10
301.427896121111
 20
990.626047838171
 30
0.0
 11
319.135050121113
 21
990.626047838171
 31
0.0
  0
LINE
  5
481C
330
1A
100
AcDbEntity
  8
外形線
100
AcDbLine
 10
319.135050121113
 20
990.626047838171
 30
0.0
 11
322.847818121112
 21
988.178049838171
 31
0.0
  0
LINE
  5
481D
330
1A
100
AcDbEntity
  8
外形線
100
AcDbLine
 10
321.175150121111
 20
985.322093838171
 30
0.0
 11
303.427042121111
 21
985.322093838171
 31
0.0
  0
LINE
  5
481E
330
1A
100
AcDbEntity
  8
外形線
100
AcDbLine
 10
321.175150121111
 20
981.894847838171
 30
0.0
 11
303.427042121111
 21
981.894847838171
 31
0.0
  0
ARC
  5
481F
330
1A
100
AcDbEntity
  8
外形線
100
AcDbCircle
 10
361.571007889195
 20
970.894237838171
 30
0.0
 40
1.86215
100
AcDbArc
 50
276.184221085604
 51
91.517843466766
  0
LINE
  5
4820
330
1A
100
AcDbEntity
  8
外形線
100
AcDbLine
 10
355.801475889195
 20
969.04279583817
 30
0.0
 11
361.771567889194
 21
969.04279583817
 31
0.0
  0
LINE
  5
4821
330
1A
100
AcDbEntity
  8
外形線
100
AcDbLine
 10
355.801475889195
 20
965.044505838171
 30
0.0
 11
361.433921889194
 21
965.044505838171
 31
0.0
  0
ARC
  5
4822
330
1A
100
AcDbEntity
  8
外形線
100
AcDbCircle
 10
355.721947889195
 20
967.04365183817
 30
0.0
 40
2.000726
100
AcDbArc
 50
87.722187561485
 51
272.27785213419
  0
ARC
  5
4823
330
1A
100
AcDbEntity
  8
外形線
100
AcDbCircle
 10
361.433921889194
 20
963.04523783817
 30
0.0
 40
1.9992
100
AcDbArc
 50
0.0
 51
89.999981276021
  0
LINE
  5
4824
330
1A
100
AcDbEntity
  8
外形線
100
AcDbLine
 10
353.722739889195
 20
972.75568783817
 30
0.0
 11
361.521689889194
 21
972.75568783817
 31
0.0
  0
ARC
  5
4825
330
1A
100
AcDbEntity
  8
外形線
100
AcDbCircle
 10
355.877159889194
 20
937.773265838171
 30
0.0
 40
2.15556
100
AcDbArc
 50
181.910948686169
 51
264.487402289583
  0
ARC
  5
4826
330
1A
100
AcDbEntity
  8
外形線
100
AcDbCircle
 10
361.433921889194
 20
933.628489838171
 30
0.0
 40
1.9992
100
AcDbArc
 50
0.0
 51
89.999981276021
  0
LINE
  5
4827
330
1A
100
AcDbEntity
  8
外形線
100
AcDbLine
 10
355.670127889194
 20
935.627757838171
 30
0.0
 11
361.433921889194
 21
935.627757838171
 31
0.0
  0
LINE
  5
4828
330
1A
100
AcDbEntity
  8
外形線
100
AcDbLine
 10
355.670127889194
 20
943.62446183817
 30
0.0
 11
361.433921889194
 21
943.62446183817
 31
0.0
  0
ARC
  5
4829
330
1A
100
AcDbEntity
  8
外形線
100
AcDbCircle
 10
355.877159889194
 20
941.478953838171
 30
0.0
 40
2.15556
100
AcDbArc
 50
95.512637406103
 51
178.089033713721
  0
ARC
  5
482A
330
1A
100
AcDbEntity
  8
外形線
100
AcDbCircle
 10
361.433921889194
 20
945.623607838171
 30
0.0
 40
1.9992
100
AcDbArc
 50
270.0
 51
359.999982399908
  0
LINE
  5
482B
330
1A
100
AcDbEntity
  8
外形線
100
AcDbLine
 10
363.433189889194
 20
963.04523783817
 30
0.0
 11
363.433189889194
 21
945.623607838171
 31
0.0
  0
LINE
  5
482C
330
1A
100
AcDbEntity
  8
外形線
100
AcDbLine
 10
355.801537889194
 20
914.207713838171
 30
0.0
 11
361.433921889194
 21
914.207713838171
 31
0.0
  0
ARC
  5
482D
330
1A
100
AcDbEntity
  8
外形線
100
AcDbCircle
 10
361.433921889194
 20
916.20685983817
 30
0.0
 40
1.9992
100
AcDbArc
 50
270.0
 51
359.999982399882
  0
LINE
  5
482E
330
1A
100
AcDbEntity
  8
外形線
100
AcDbLine
 10
363.433189889194
 20
916.20685983817
 30
0.0
 11
363.433189889194
 21
933.628489838171
 31
0.0
  0
LINE
  5
482F
330
1A
100
AcDbEntity
  8
外形線
100
AcDbLine
 10
303.427042121111
 20
970.470897838171
 30
0.0
 11
319.224160121112
 21
970.470897838171
 31
0.0
  0
LINE
  5
4830
330
1A
100
AcDbEntity
  8
外形線
100
AcDbLine
 10
303.427042121111
 20
962.474071838171
 30
0.0
 11
319.135050121113
 21
962.474071838171
 31
0.0
  0
LINE
  5
4831
330
1A
100
AcDbEntity
  8
外形線
100
AcDbLine
 10
303.427042121111
 20
935.342113838171
 30
0.0
 11
319.135050121113
 21
935.342113838171
 31
0.0
  0
LINE
  5
4832
330
1A
100
AcDbEntity
  8
外形線
100
AcDbLine
 10
303.427042121111
 20
943.91010583817
 30
0.0
 11
319.135050121113
 21
943.91010583817
 31
0.0
  0
LINE
  5
4833
330
1A
100
AcDbEntity
  8
細線
100
AcDbLine
 10
319.135050121113
 20
943.91010583817
 30
0.0
 11
319.135050121113
 21
962.474071838171
 31
0.0
  0
LINE
  5
4834
330
1A
100
AcDbEntity
  8
外形線
100
AcDbLine
 10
303.427042121111
 20
916.778025838171
 30
0.0
 11
319.135050121113
 21
916.778025838171
 31
0.0
  0
LINE
  5
4835
330
1A
100
AcDbEntity
  8
細線
100
AcDbLine
 10
319.135050121113
 20
935.342113838171
 30
0.0
 11
319.135050121113
 21
916.778025838171
 31
0.0
  0
ARC
  5
4836
330
1A
100
AcDbEntity
  8
外形線
100
AcDbCircle
 10
317.847940121111
 20
940.208567838171
 30
0.0
 40
5.033766
100
AcDbArc
 50
284.815257311503
 51
353.35584921602
  0
ARC
  5
4837
330
1A
100
AcDbEntity
  8
外形線
100
AcDbCircle
 10
317.847940121111
 20
939.04365183817
 30
0.0
 40
5.033766
100
AcDbArc
 50
6.644133183896
 51
75.184725088468
  0
ARC
  5
4838
330
1A
100
AcDbEntity
  8
外形線
100
AcDbCircle
 10
318.809000121111
 20
966.476633838171
 30
0.0
 40
4.015794000000001
100
AcDbArc
 50
274.656944786913
 51
84.065438721313
  0
LINE
  5
4839
330
1A
100
AcDbEntity
  8
外形線
100
AcDbLine
 10
353.722739889195
 20
939.626047838171
 30
0.0
 11
353.722739889195
 21
982.11445183817
 31
0.0
  0
LINE
  5
483A
330
1A
100
AcDbEntity
  8
細線
100
AcDbLine
 10
319.135050121113
 20
970.470897838171
 30
0.0
 11
319.135050121113
 21
981.894847838171
 31
0.0
  0
LINE
  5
483B
330
1A
100
AcDbEntity
  8
細線
 62
     6
 48
10.0
100
AcDbLine
 10
245.647039026066
 20
962.76435358443
 30
0.0
 11
245.647039026066
 21
915.975981075599
 31
0.0
  0
LINE
  5
483C
330
1A
100
AcDbEntity
  8
外形線
100
AcDbLine
 10
300.927896121111
 20
990.626047838171
 30
0.0
 11
301.427896121111
 21
990.126047838171
 31
0.0
  0
ARC
  5
483D
330
1A
100
AcDbEntity
  8
外形線
100
AcDbCircle
 10
259.138501707008
 20
980.716455418945
 30
0.0
 40
3.0
100
AcDbArc
 50
93.179830119868
 51
147.724355685421
  0
ARC
  5
483E
330
1A
100
AcDbEntity
  8
外形線
100
AcDbCircle
 10
243.774390059915
 20
911.626047838171
 30
0.0
 40
3.0
100
AcDbArc
 50
32.275644314579
 51
90.0
  0
ARC
  5
483F
330
1A
100
AcDbEntity
  8
外形線
100
AcDbCircle
 10
243.774390059915
 20
967.626047838171
 30
0.0
 40
3.0
100
AcDbArc
 50
270.0
 51
327.724355685421
  0
LINE
  5
4840
330
1A
100
AcDbEntity
  8
外形線
100
AcDbLine
 10
243.774390059915
 20
964.626047838171
 30
0.0
 11
226.427896121111
 21
964.626047838171
 31
0.0
  0
LINE
  5
4841
330
1A
100
AcDbEntity
  8
外形線
100
AcDbLine
 10
256.602034997914
 20
982.318434393109
 30
0.0
 11
246.310856769008
 21
966.024068864007
 31
0.0
  0
LINE
  5
4842
330
1A
100
AcDbEntity
  8
外形線
100
AcDbLine
 10
293.427896121111
 20
985.626047838171
 30
0.0
 11
258.97209164814
 21
983.711836478561
 31
0.0
  0
LINE
  5
4843
330
1A
100
AcDbEntity
  8
外形線
100
AcDbLine
 10
296.427896121111
 20
990.626047838171
 30
0.0
 11
293.427896121111
 21
985.626047838171
 31
0.0
  0
LINE
  5
4844
330
1A
100
AcDbEntity
  8
外形線
100
AcDbLine
 10
300.927896121111
 20
990.626047838171
 30
0.0
 11
296.427896121111
 21
990.626047838171
 31
0.0
  0
ARC
  5
4845
330
1A
100
AcDbEntity
  8
外形線
100
AcDbCircle
 10
226.427896121111
 20
967.626047838171
 30
0.0
 40
3.0
100
AcDbArc
 50
183.404264859033
 51
270.0
  0
LINE
  5
4847
330
1A
100
AcDbEntity
  8
外形線
100
AcDbLine
 10
243.774390059915
 20
914.626047838171
 30
0.0
 11
226.427896121111
 21
914.626047838171
 31
0.0
  0
LINE
  5
484A
330
1A
100
AcDbEntity
  8
細線
 62
     6
 48
10.0
100
AcDbLine
 10
293.427896121111
 20
897.478879895611
 30
0.0
 11
296.427896121111
 21
888.626047838171
 31
0.0
  0
ARC
  5
484B
330
1A
100
AcDbEntity
  8
細線
100
AcDbCircle
 10
281.048669889194
 20
862.859049838169
 30
0.0
 40
36.76653200000171
100
AcDbArc
 50
70.324160459507
 51
115.211785839405
  0
LINE
  5
484C
330
1A
100
AcDbEntity
  8
外形線
100
AcDbLine
 10
353.722739889195
 20
906.496531838171
 30
0.0
 11
361.521689889194
 21
906.496531838171
 31
0.0
  0
LINE
  5
484D
330
1A
100
AcDbEntity
  8
外形線
100
AcDbLine
 10
355.801475889195
 20
910.209299838171
 30
0.0
 11
361.771567889194
 21
910.209299838171
 31
0.0
  0
ARC
  5
484E
330
1A
100
AcDbEntity
  8
外形線
100
AcDbCircle
 10
355.723229889194
 20
912.208537838171
 30
0.0
 40
2.000724
100
AcDbArc
 50
87.757023395409
 51
272.242959004484
  0
ARC
  5
484F
330
1A
100
AcDbEntity
  8
外形線
100
AcDbCircle
 10
361.571007889195
 20
908.357981838171
 30
0.0
 40
1.86215
100
AcDbArc
 50
268.482178628784
 51
83.815801009983
  0
LINE
  5
4850
330
1A
100
AcDbEntity
  8
外形線
100
AcDbLine
 10
322.847818121112
 20
891.07404583817
 30
0.0
 11
349.067345889194
 21
892.28773183817
 31
0.0
  0
ARC
  5
4851
330
1A
100
AcDbEntity
  8
外形線
100
AcDbCircle
 10
321.121134121113
 20
895.64362783817
 30
0.0
 40
1.714446
100
AcDbArc
 50
271.804703587
 51
88.195318508631
  0
ARC
  5
4852
330
1A
100
AcDbEntity
  8
外形線
100
AcDbCircle
 10
348.869393922966
 20
897.13701525854
 30
0.0
 40
4.853322024346461
100
AcDbArc
 50
272.337565725697
 51
0.008866954305
  0
LINE
  5
4853
330
1A
100
AcDbEntity
  8
外形線
100
AcDbLine
 10
353.722739889195
 20
939.626047838171
 30
0.0
 11
353.722739889195
 21
897.137767838171
 31
0.0
  0
LINE
  5
4854
330
1A
100
AcDbEntity
  8
外形線
100
AcDbLine
 10
303.427042121111
 20
908.78132183817
 30
0.0
 11
319.224160121112
 21
908.78132183817
 31
0.0
  0
LINE
  5
4855
330
1A
100
AcDbEntity
  8
外形線
100
AcDbLine
 10
301.427896121111
 20
888.626047838171
 30
0.0
 11
319.135050121113
 21
888.626047838171
 31
0.0
  0
LINE
  5
4856
330
1A
100
AcDbEntity
  8
細線
100
AcDbLine
 10
319.135050121113
 20
893.93012583817
 30
0.0
 11
319.135050121113
 21
888.626047838171
 31
0.0
  0
LINE
  5
4857
330
1A
100
AcDbEntity
  8
細線
100
AcDbLine
 10
319.135050121113
 20
908.78132183817
 30
0.0
 11
319.135050121113
 21
897.357249838171
 31
0.0
  0
LINE
  5
4858
330
1A
100
AcDbEntity
  8
外形線
100
AcDbLine
 10
321.175150121111
 20
893.93012583817
 30
0.0
 11
303.427042121111
 21
893.93012583817
 31
0.0
  0
LINE
  5
4859
330
1A
100
AcDbEntity
  8
外形線
100
AcDbLine
 10
321.175150121111
 20
897.357249838171
 30
0.0
 11
303.427042121111
 21
897.357249838171
 31
0.0
  0
LINE
  5
485A
330
1A
100
AcDbEntity
  8
外形線
100
AcDbLine
 10
322.847818121112
 20
891.07404583817
 30
0.0
 11
319.135050121113
 21
888.626047838171
 31
0.0
  0
ARC
  5
485B
330
1A
100
AcDbEntity
  8
外形線
100
AcDbCircle
 10
318.809000121111
 20
912.77558583817
 30
0.0
 40
4.015794000000001
100
AcDbArc
 50
275.934583374273
 51
85.343077308691
  0
LINE
  5
485C
330
1A
100
AcDbEntity
  8
外形線
100
AcDbLine
 10
294.427697889196
 20
869.342021838171
 30
0.0
 11
294.427697889196
 21
865.629253838171
 31
0.0
  0
LINE
  5
485D
330
1A
100
AcDbEntity
  8
外形線
100
AcDbLine
 10
294.427697889196
 20
865.629253838171
 30
0.0
 11
292.999597889195
 21
864.201213838171
 31
0.0
  0
ARC
  5
485E
330
1A
100
AcDbEntity
  8
細線
100
AcDbCircle
 10
280.433189889194
 20
878.737895838171
 30
0.0
 40
14.53669
100
AcDbArc
 50
244.3907930338
 51
295.609209213942
  0
LINE
  5
485F
330
1A
100
AcDbEntity
  8
外形線
100
AcDbLine
 10
266.438805889194
 20
869.342021838171
 30
0.0
 11
266.438805889194
 21
865.629253838171
 31
0.0
  0
LINE
  5
4860
330
1A
100
AcDbEntity
  8
細線
100
AcDbLine
 10
274.149987889195
 20
865.629253838171
 30
0.0
 11
274.149987889195
 21
869.342021838171
 31
0.0
  0
LINE
  5
4861
330
1A
100
AcDbEntity
  8
外形線
100
AcDbLine
 10
266.438805889194
 20
865.629253838171
 30
0.0
 11
267.866783889194
 21
864.201213838171
 31
0.0
  0
ARC
  5
4862
330
1A
100
AcDbEntity
  8
細線
100
AcDbCircle
 10
267.010827889195
 20
882.504131838171
 30
0.0
 40
18.322924
100
AcDbArc
 50
272.67766208363
 51
292.931548254149
  0
LINE
  5
4863
330
1A
100
AcDbEntity
  8
外形線
100
AcDbLine
 10
271.008385889196
 20
869.342021838171
 30
0.0
 11
271.008385889196
 21
873.626017838171
 31
0.0
  0
LINE
  5
4864
330
1A
100
AcDbEntity
  8
細線
100
AcDbLine
 10
273.293175889195
 20
873.626017838171
 30
0.0
 11
273.293175889195
 21
869.342021838171
 31
0.0
  0
LINE
  5
4865
330
1A
100
AcDbEntity
  8
細線
100
AcDbLine
 10
286.716393889195
 20
865.629253838171
 30
0.0
 11
286.716393889195
 21
869.342021838171
 31
0.0
  0
LINE
  5
4866
330
1A
100
AcDbEntity
  8
外形線
100
AcDbLine
 10
289.857995889195
 20
869.342021838171
 30
0.0
 11
289.857995889195
 21
873.626017838171
 31
0.0
  0
LINE
  5
4867
330
1A
100
AcDbEntity
  8
細線
100
AcDbLine
 10
287.573205889195
 20
873.626017838171
 30
0.0
 11
287.573205889195
 21
869.342021838171
 31
0.0
  0
LINE
  5
4868
330
1A
100
AcDbEntity
  8
外形線
100
AcDbLine
 10
266.438805889194
 20
869.342021838171
 30
0.0
 11
294.427697889196
 21
869.342021838171
 31
0.0
  0
LINE
  5
4869
330
1A
100
AcDbEntity
  8
外形線
100
AcDbLine
 10
267.866783889194
 20
864.201213838171
 30
0.0
 11
292.999597889195
 21
864.201213838171
 31
0.0
  0
ARC
  5
486A
330
1A
100
AcDbEntity
  8
細線
100
AcDbCircle
 10
293.855553889194
 20
882.504131838171
 30
0.0
 40
18.322924
100
AcDbArc
 50
247.068453993571
 51
267.32239745992
  0
LINE
  5
486B
330
1A
100
AcDbEntity
  8
外形線
100
AcDbLine
 10
301.427896121111
 20
990.626047838171
 30
0.0
 11
301.427896121111
 21
888.626047838171
 31
0.0
  0
LINE
  5
486C
330
1A
100
AcDbEntity
  8
外形線
100
AcDbLine
 10
303.427042121111
 20
888.626047838171
 30
0.0
 11
303.427042121111
 21
990.626047838171
 31
0.0
  0
LINE
  5
486D
330
1A
100
AcDbEntity
  8
細線
100
AcDbLine
 10
322.847818121112
 20
988.178049838171
 30
0.0
 11
322.847818121112
 21
891.07404583817
 31
0.0
  0
LINE
  5
486E
330
1A
100
AcDbEntity
  8
細線
 62
     6
 48
10.0
100
AcDbLine
 10
258.029918576093
 20
980.551669900301
 30
0.0
 11
258.029918576093
 21
898.575346391352
 31
0.0
  0
LINE
  5
486F
330
1A
100
AcDbEntity
  8
細線
 62
     6
 48
10.0
100
AcDbLine
 10
293.427896121111
 20
985.626047838171
 30
0.0
 11
293.427896121111
 21
897.478879895611
 31
0.0
  0
LINE
  5
4870
330
1A
100
AcDbEntity
  8
細線
 62
     6
 48
10.0
100
AcDbLine
 10
296.427896121111
 20
990.626047838171
 30
0.0
 11
296.427896121111
 21
888.626047838171
 31
0.0
  0
LINE
  5
4871
330
1A
100
AcDbEntity
  8
外形線
100
AcDbLine
 10
300.927896121111
 20
888.626047838171
 30
0.0
 11
301.427896121111
 21
889.126047838171
 31
0.0
  0
ARC
  5
4872
330
1A
100
AcDbEntity
  8
外形線
100
AcDbCircle
 10
268.309589841061
 20
875.626047838171
 30
0.0
 40
2.0
100
AcDbArc
 50
183.491441283441
 51
270.0
  0
ARC
  5
4873
330
1A
100
AcDbEntity
  8
外形線
100
AcDbCircle
 10
292.556789937329
 20
875.626047838171
 30
0.0
 40
2.0
100
AcDbArc
 50
270.0
 51
356.185925165712
  0
ARC
  5
4874
330
1A
100
AcDbEntity
  8
外形線
100
AcDbCircle
 10
264.167709503799
 20
894.250071740393
 30
0.0
 40
1.0
100
AcDbArc
 50
3.491441283441
 51
86.820169880132
  0
ARC
  5
4875
330
1A
100
AcDbEntity
  8
外形線
100
AcDbCircle
 10
259.138501707008
 20
898.535640257396
 30
0.0
 40
3.0
100
AcDbArc
 50
212.275644314579
 51
266.820169880132
  0
LINE
  5
4876
330
1A
100
AcDbEntity
  8
外形線
100
AcDbLine
 10
256.602034997915
 20
896.933661283233
 30
0.0
 11
246.310856769008
 21
913.228026812335
 31
0.0
  0
LINE
  5
4877
330
1A
100
AcDbEntity
  8
中心線
  6
CENTER
 48
10.0
100
AcDbLine
 10
280.433189889194
 20
857.724856901532
 30
0.0
 11
280.433189889194
 21
907.331493847791
 31
0.0
  0
LINE
  5
4878
330
1A
100
AcDbEntity
  8
外形線
100
AcDbLine
 10
264.223179523422
 20
895.248532093598
 30
0.0
 11
258.97209164814
 21
895.54025919778
 31
0.0
  0
LINE
  5
4879
330
1A
100
AcDbEntity
  8
外形線
100
AcDbLine
 10
265.165853410381
 20
894.310971180083
 30
0.0
 11
266.313302027898
 21
875.50424895879
 31
0.0
  0
LINE
  5
487A
330
1A
100
AcDbEntity
  8
外形線
100
AcDbLine
 10
295.427896121112
 20
888.626047838171
 30
0.0
 11
294.552360253042
 21
875.493009817123
 31
0.0
  0
LINE
  5
487B
330
1A
100
AcDbEntity
  8
外形線
100
AcDbLine
 10
268.309589841061
 20
873.626047838171
 30
0.0
 11
292.556789937329
 21
873.626047838171
 31
0.0
  0
LINE
  5
487C
330
1A
100
AcDbEntity
  8
外形線
100
AcDbLine
 10
300.927896121111
 20
888.626047838171
 30
0.0
 11
295.427896121112
 21
888.626047838171
 31
0.0
  0
ARC
  5
487F
330
1A
100
AcDbEntity
  8
外形線
100
AcDbCircle
 10
226.427896121111
 20
911.626047838171
 30
0.0
 40
3.0
100
AcDbArc
 50
90.0
 51
176.595735140967
  0
LEADER
  5
4881
330
1A
100
AcDbEntity
  8
寸法線
 62
     1
 48
10.0
100
AcDbLeader
  3
ISO-25
 76
     3
 10
290.170060323508
 20
871.253536214898
 30
0.0
 10
313.148001597548
 20
855.904939600515
 30
0.0
 10
321.271543320303
 20
855.904939600515
 30
0.0
213
-33.4568131056609
223
0.0
233
0.0
1001
ACAD
1000
DSTYLE
1002
{
1070
     5
1000
OPEN30
1070
   147
1040
0.625
1070
    77
1070
     0
1070
    41
1040
6.0
1070
    47
1040
0.1
1070
    48
1040
0.1
1070
    73
1070
     0
1070
   140
1040
8.0
1070
   271
1070
     1
1070
   272
1070
     1
1070
   341
1005
2AF4
1070
   342
1005
2AF4
1002
}
  0
DIMENSION
  5
4882
330
1A
100
AcDbEntity
  8
寸法線
 48
10.0
100
AcDbDimension
  2
*D19
 10
384.551968499418
 20
888.626047838171
 30
0.0
 11
384.551968499418
 21
939.014048338171
 31
0.0
 70
   160
  1
φ102
  3
ISO-25
100
AcDbAlignedDimension
 13
319.140343889196
 23
990.626047838171
 33
0.0
 14
319.140343889196
 24
888.626047838171
 34
0.0
 50
90.0
100
AcDbRotatedDimension
1001
ACAD
1000
DSTYLE
1002
{
1070
     5
1000
OPEN30
1070
    41
1040
6.0
1070
    47
1040
0.1
1070
    48
1040
0.1
1070
    73
1070
     0
1070
   140
1040
8.0
1070
   271
1070
     1
1070
   272
1070
     1
1070
   341
1005
2AF4
1002
}
  0
DIMENSION
  5
4883
330
1A
100
AcDbEntity
  8
寸法線
 48
10.0
100
AcDbDimension
  2
*D20
 10
280.433189889194
 20
838.553457892793
 30
0.0
 11
321.933189889194
 21
843.178457892793
 31
0.0
 70
    32
  3
ISO-25
100
AcDbAlignedDimension
 13
363.433189889194
 23
908.41683064796
 33
0.0
 14
280.433189889194
 24
857.724856901532
 34
0.0
100
AcDbRotatedDimension
1001
ACAD
1000
DSTYLE
1002
{
1070
     5
1000
OPEN30
1070
    41
1040
6.0
1070
    47
1040
0.1
1070
    48
1040
0.1
1070
    73
1070
     0
1070
   140
1040
8.0
1070
   271
1070
     1
1070
   272
1070
     1
1070
   341
1005
2AF4
1002
}
  0
MTEXT
  5
4885
330
1A
100
AcDbEntity
  8
寸法線
 48
10.0
100
AcDbMText
 10
313.899289662819
 20
857.274280806574
 30
0.0
 40
8.0
 41
0.0
 71
     7
 72
     1
  1
導線取出口\PG 1/2"
  0
LINE
  5
490E
330
1A
100
AcDbEntity
  8
外形線
 48
10.0
100
AcDbLine
 10
103.433189889194
 20
959.626047838171
 30
0.0
 11
125.433189889194
 21
959.626047838171
 31
0.0
  0
LINE
  5
490F
330
1A
100
AcDbEntity
  8
外形線
 48
10.0
100
AcDbLine
 10
103.433189889194
 20
919.626047838171
 30
0.0
 11
125.433189889194
 21
919.626047838171
 31
0.0
  0
MTEXT
  5
4921
330
1A
100
AcDbEntity
  8
寸法線
 48
10.0
100
AcDbMText
 10
227.392691381438
 20
1056.055315370946
 30
0.0
 40
8.0
 41
48.119719006341
 71
     9
 72
     5
  1
フランジ\Pアルミ鋳物
  0
MTEXT
  5
4B0D
330
1A
100
AcDbEntity
  8
寸法線
 48
10.0
100
AcDbMText
 10
-46.089472988285
 20
1062.980316904626
 30
0.0
 40
8.0
 41
0.0
 71
     1
 72
     5
  1
SUS304
  0
MTEXT
  5
4B10
330
1A
100
AcDbEntity
  8
寸法線
 48
10.0
100
AcDbMText
 10
-1.726589450332
 20
1062.980316904626
 30
0.0
 40
8.0
 41
0.0
 71
     1
 72
     5
  1
SUS304
  0
LINE
  5
4B11
330
1A
100
AcDbEntity
  8
下書線
 48
10.0
100
AcDbLine
 10
-73.408697749842
 20
1054.703316131627
 30
0.0
 11
429.54737552945
 21
1054.703316131627
 31
0.0
  0
LEADER
  5
4B12
330
1A
100
AcDbEntity
  8
寸法線
 48
10.0
100
AcDbLeader
  3
ISO-25
 76
     3
 10
45.55557200753
 20
956.573642733421
 30
0.0
 10
31.981014349123
 20
1054.710946890172
 30
0.0
 10
20.189824580577
 20
1054.715167203014
 30
0.0
1001
ACAD
1000
DSTYLE
1002
{
1070
     5
1000
OPEN30
1070
   147
1040
0.625
1070
    77
1070
     0
1070
    41
1040
6.0
1070
    47
1040
0.1
1070
    48
1040
0.1
1070
    73
1070
     0
1070
   140
1040
5.0
1070
   271
1070
     1
1070
   272
1070
     1
1070
   341
1005
2AF4
1070
   342
1005
2AF4
1002
}
  0
MTEXT
  5
4B94
102
{ACAD_XDICTIONARY
360
4B95
102
}
330
1A
100
AcDbEntity
  8
寸法線
 48
10.0
100
AcDbMText
 10
-187.017128119532
 20
774.183262597945
 30
0.0
 40
8.0
 41
168.503621648242
 71
     1
 72
     5
  1
御仕様   電源電圧    リード線色\P       AC100/110V　 シロ・シロ\P       AC200/220V　クロ・クロ
1001
ACADANNOTATIVE
1000
AnnotativeData
1002
{
1070
     1
1070
     0
1002
}
  0
MTEXT
  5
4B98
102
{ACAD_XDICTIONARY
360
4B99
102
}
330
1A
100
AcDbEntity
  8
寸法線
 48
10.0
100
AcDbMText
 10
-298.602574808355
 20
671.166996040638
 30
0.0
 40
6.0
 41
49.50078544177
 71
     1
 72
     5
  1
L　　C　　 H
1001
ACADANNOTATIVE
1000
AnnotativeData
1002
{
1070
     1
1070
     0
1002
}
  0
MTEXT
  5
4B9C
330
1A
100
AcDbEntity
  8
寸法線
 48
10.0
100
AcDbMText
 10
-239.197684120555
 20
650.384394803429
 30
0.0
 40
6.0
 41
22.662715674224
 71
     1
 72
     5
  1
電　源
  0
LINE
  5
4B9D
330
1A
100
AcDbEntity
  8
寸法線
100
AcDbLine
 10
-298.606054536202
 20
680.22400292493
 30
0.0
 11
-298.606054536202
 21
777.355960924929
 31
0.0
  0
LINE
  5
4B9E
330
1A
100
AcDbEntity
  8
寸法線
100
AcDbLine
 10
-298.606054536202
 20
777.355960924929
 30
0.0
 11
-285.754064536202
 21
777.355960924929
 31
0.0
  0
LINE
  5
4B9F
330
1A
100
AcDbEntity
  8
寸法線
100
AcDbLine
 10
-285.754064536202
 20
777.355960924929
 30
0.0
 11
-285.754064536202
 21
757.64954092493
 31
0.0
  0
LINE
  5
4BA0
330
1A
100
AcDbEntity
  8
寸法線
100
AcDbLine
 10
-270.046056536202
 20
777.355960924929
 30
0.0
 11
-257.194066536202
 21
777.355960924929
 31
0.0
  0
LINE
  5
4BA1
330
1A
100
AcDbEntity
  8
寸法線
100
AcDbLine
 10
-237.487708536202
 20
777.355960924929
 30
0.0
 11
-217.495642536202
 21
777.355960924929
 31
0.0
  0
TEXT
  5
4BA2
330
1A
100
AcDbEntity
  8
寸法線
100
AcDbText
 10
-283.096166536202
 20
709.56720492493
 30
0.0
 40
8.571428571429
  1
キ
  7
EXCADVERT
 72
     3
 11
-283.096166536202
 21
701.56720492493
 31
0.0
100
AcDbText
  0
TEXT
  5
4BA3
330
1A
100
AcDbEntity
  8
寸法線
100
AcDbText
 10
-223.496984536202
 20
740.722416924929
 30
0.0
 40
12.0
  1
Ｍ
 41
1.25
  7
EXCADSTD
 72
     5
 11
-211.496984536202
 21
740.722416924929
 31
0.0
100
AcDbText
  0
LINE
  5
4BA4
330
1A
100
AcDbEntity
  8
寸法線
100
AcDbLine
 10
-217.495642536202
 20
777.355960924929
 30
0.0
 11
-217.495642536202
 21
756.122990924929
 31
0.0
  0
CIRCLE
  5
4BA5
330
1A
100
AcDbEntity
  8
寸法線
100
AcDbCircle
 10
-277.900060536202
 20
739.828800924929
 30
0.0
 40
1.600006
  0
LINE
  5
4BA6
330
1A
100
AcDbEntity
  8
寸法線
100
AcDbLine
 10
-277.900060536202
 20
738.22876492493
 30
0.0
 11
-277.900060536202
 21
680.22400292493
 31
0.0
  0
LINE
  5
4BA7
330
1A
100
AcDbEntity
  8
寸法線
100
AcDbLine
 10
-257.194066536202
 20
777.355960924929
 30
0.0
 11
-257.194066536202
 21
680.22400292493
 31
0.0
  0
LINE
  5
4BA8
330
1A
100
AcDbEntity
  8
寸法線
100
AcDbLine
 10
-217.495642536202
 20
737.738528924929
 30
0.0
 11
-217.495642536202
 21
680.22400292493
 31
0.0
  0
CIRCLE
  5
4BA9
330
1A
100
AcDbEntity
  8
寸法線
100
AcDbCircle
 10
-298.606054536202
 20
677.22400292493
 30
0.0
 40
1.599998
  0
LINE
  5
4BAA
330
1A
100
AcDbEntity
  8
寸法線
100
AcDbLine
 10
-237.487708536202
 20
738.22876492493
 30
0.0
 11
-237.487708536202
 21
680.22400292493
 31
0.0
  0
CIRCLE
  5
4BAB
330
1A
100
AcDbEntity
  8
寸法線
100
AcDbCircle
 10
-237.487708536202
 20
739.828800924929
 30
0.0
 40
1.600006
  0
CIRCLE
  5
4BAC
330
1A
100
AcDbEntity
  8
寸法線
100
AcDbCircle
 10
-285.754064536202
 20
756.04956492493
 30
0.0
 40
1.600006
  0
LINE
  5
4BAD
330
1A
100
AcDbEntity
  8
寸法線
100
AcDbLine
 10
-270.046056536202
 20
777.355960924929
 30
0.0
 11
-270.046056536202
 21
757.64954092493
 31
0.0
  0
CIRCLE
  5
4BAE
330
1A
100
AcDbEntity
  8
寸法線
100
AcDbCircle
 10
-270.046056536202
 20
756.04956492493
 30
0.0
 40
1.600006
  0
LINE
  5
4BAF
330
1A
100
AcDbEntity
  8
寸法線
100
AcDbLine
 10
-237.487708536202
 20
777.355960924929
 30
0.0
 11
-237.487708536202
 21
757.64954092493
 31
0.0
  0
CIRCLE
  5
4BB0
330
1A
100
AcDbEntity
  8
寸法線
100
AcDbCircle
 10
-237.487708536202
 20
756.04956492493
 30
0.0
 40
1.600006
  0
LINE
  5
4BB1
330
1A
100
AcDbEntity
  8
寸法線
100
AcDbLine
 10
-277.900060536202
 20
741.428776924929
 30
0.0
 11
-284.154088536202
 21
756.04956492493
 31
0.0
  0
LINE
  5
4BB2
330
1A
100
AcDbEntity
  8
寸法線
100
AcDbLine
 10
-237.487708536202
 20
741.428776924929
 30
0.0
 11
-235.887670536202
 21
756.04956492493
 31
0.0
  0
CIRCLE
  5
4BB3
330
1A
100
AcDbEntity
  8
寸法線
100
AcDbCircle
 10
-217.488074536202
 20
746.94519492493
 30
0.0
 40
9.177798
  0
TEXT
  5
4BB4
330
1A
100
AcDbEntity
  8
寸法線
100
AcDbText
 10
-262.032262536202
 20
718.66742292493
 30
0.0
 40
8.041237113402
  1
ア　カ
  7
EXCADVERT
 72
     3
 11
-262.032262536202
 21
692.66742292493
 31
0.0
100
AcDbText
  0
TEXT
  5
4BB5
330
1A
100
AcDbEntity
  8
寸法線
100
AcDbText
 10
-303.582556536202
 20
718.66742292493
 30
0.0
 40
7.515151518764
  1
ミドリ
  7
EXCADVERT
 72
     3
 11
-303.582556536202
 21
693.867422913008
 31
0.0
100
AcDbText
  0
CIRCLE
  5
4BB6
330
1A
100
AcDbEntity
  8
寸法線
100
AcDbCircle
 10
-298.606054536202
 20
677.22400292493
 30
0.0
 40
3.0
  0
CIRCLE
  5
4BB7
330
1A
100
AcDbEntity
  8
寸法線
100
AcDbCircle
 10
-277.900060536202
 20
677.22400292493
 30
0.0
 40
1.599998
  0
CIRCLE
  5
4BB8
330
1A
100
AcDbEntity
  8
寸法線
100
AcDbCircle
 10
-277.900060536202
 20
677.22400292493
 30
0.0
 40
3.0
  0
CIRCLE
  5
4BB9
330
1A
100
AcDbEntity
  8
寸法線
100
AcDbCircle
 10
-237.487708536202
 20
677.22400292493
 30
0.0
 40
1.599998
  0
CIRCLE
  5
4BBA
330
1A
100
AcDbEntity
  8
寸法線
100
AcDbCircle
 10
-237.487708536202
 20
677.22400292493
 30
0.0
 40
3.0
  0
CIRCLE
  5
4BBB
330
1A
100
AcDbEntity
  8
寸法線
100
AcDbCircle
 10
-217.495642536202
 20
677.22400292493
 30
0.0
 40
1.599998
  0
CIRCLE
  5
4BBC
330
1A
100
AcDbEntity
  8
寸法線
100
AcDbCircle
 10
-217.495642536202
 20
677.22400292493
 30
0.0
 40
3.0
  0
CIRCLE
  5
4BBD
330
1A
100
AcDbEntity
  8
寸法線
100
AcDbCircle
 10
-257.194066536202
 20
677.22400292493
 30
0.0
 40
1.599998
  0
CIRCLE
  5
4BBE
330
1A
100
AcDbEntity
  8
寸法線
100
AcDbCircle
 10
-257.194066536202
 20
677.22400292493
 30
0.0
 40
3.0
  0
MTEXT
  5
4BBF
102
{ACAD_XDICTIONARY
360
4BC0
102
}
330
1A
100
AcDbEntity
  8
寸法線
 62
     1
 48
10.0
100
AcDbMText
 10
-246.904125659132
 20
724.708609686837
 30
0.0
 40
8.0
 41
75.886769199617
 71
     1
 72
     3
  1
シロ クロ
1001
ACADANNOTATIVE
1000
AnnotativeData
1002
{
1070
     1
1070
     0
1002
}
  0
MTEXT
  5
4BC3
330
1A
100
AcDbEntity
  8
寸法線
 62
     1
 48
10.0
100
AcDbMText
 10
-248.11327344572
 20
682.96463407286
 30
0.0
 40
8.0
 41
113.327544635948
 71
     1
 72
     1
  1
(    )
 11
6.123233995736766E-17
 21
1.0
 31
0.0
  0
MTEXT
  5
4BC4
102
{ACAD_XDICTIONARY
360
4BC5
102
}
330
1A
100
AcDbEntity
  8
寸法線
 48
10.0
100
AcDbMText
 10
-248.584959472305
 20
670.63624286823
 30
0.0
 40
6.0
 41
101.805806042976
 71
     1
 72
     5
  1
100/110 0
1001
ACADANNOTATIVE
1000
AnnotativeData
1002
{
1070
     1
1070
     0
1002
}
  0
MTEXT
  5
4BC8
102
{ACAD_XDICTIONARY
360
4BC9
102
}
330
1A
100
AcDbEntity
  8
寸法線
 62
     1
 48
10.0
100
AcDbMText
 10
-226.463083125327
 20
724.10740255349
 30
0.0
 40
8.0
 41
75.886769199617
 71
     1
 72
     3
  1
シロ クロ
1001
ACADANNOTATIVE
1000
AnnotativeData
1002
{
1070
     1
1070
     0
1002
}
  0
MTEXT
  5
4BCC
330
1A
100
AcDbEntity
  8
寸法線
 62
     1
 48
10.0
100
AcDbMText
 10
-227.672230911915
 20
682.363426939513
 30
0.0
 40
8.0
 41
113.327544635948
 71
     1
 72
     1
  1
(    )
 11
6.123233995736766E-17
 21
1.0
 31
0.0
  0
MTEXT
  5
4BCD
102
{ACAD_XDICTIONARY
360
4BCE
102
}
330
1A
100
AcDbEntity
  8
寸法線
 48
10.0
100
AcDbMText
 10
-253.450979707834
 20
662.806459342528
 30
0.0
 40
6.0
 41
101.805806042976
 71
     1
 72
     5
  1
(200/220 0)
1001
ACADANNOTATIVE
1000
AnnotativeData
1002
{
1070
     1
1070
     0
1002
}
  0
MTEXT
  5
4BD1
102
{ACAD_XDICTIONARY
360
4BD2
102
}
330
1A
100
AcDbEntity
  8
寸法線
 48
10.0
100
AcDbMText
 10
-186.840510220339
 20
700.143071422347
 30
0.0
 40
8.0
 41
251.713339384691
 71
     1
 72
     5
  1
塗　装　色：10YR7.5/14\P接点　容量：AC250V5A\P静止トルク：約10.0N・cm\P回　転　数：1RPM
1001
ACADANNOTATIVE
1000
AnnotativeData
1002
{
1070
     1
1070
     0
1002
}
  0
MTEXT
  5
4BD5
330
1A
100
AcDbEntity
  8
寸法線
 48
10.0
100
AcDbMText
 10
-166.834225997037
 20
733.12654849418
 30
0.0
 40
8.0
 41
161.650793650794
 71
     1
 72
     5
  1
○印が今回の貴社の御仕様です。
  0
LINE
  5
4BD6
330
1A
100
AcDbEntity
  8
寸法線
 62
     1
 48
10.0
100
AcDbLine
 10
-189.448619683262
 20
763.337996368054
 30
0.0
 11
-27.225158935666
 21
763.337996368054
 31
0.0
  0
LINE
  5
4BD7
330
1A
100
AcDbEntity
  8
寸法線
 62
     1
 48
10.0
100
AcDbLine
 10
-189.448619683262
 20
750.076447603808
 30
0.0
 11
-27.225158935666
 21
750.076447603808
 31
0.0
  0
LINE
  5
4BD8
330
1A
100
AcDbEntity
  8
寸法線
 62
     1
 48
10.0
100
AcDbLine
 10
-189.448619683262
 20
736.814898839561
 30
0.0
 11
-27.225158935666
 21
736.814898839561
 31
0.0
  0
LINE
  5
4BD9
330
1A
100
AcDbEntity
  8
寸法線
 62
     1
 48
10.0
100
AcDbLine
 10
-189.448619683262
 20
776.339514764374
 30
0.0
 11
-27.225158935666
 21
776.339514764374
 31
0.0
  0
LINE
  5
4BDA
330
1A
100
AcDbEntity
  8
寸法線
 62
     1
 48
10.0
100
AcDbLine
 10
-156.684793324536
 20
776.339514764374
 30
0.0
 11
-156.684793324536
 21
736.814898839561
 31
0.0
  0
LINE
  5
4BDB
330
1A
100
AcDbEntity
  8
寸法線
 62
     1
 48
10.0
100
AcDbLine
 10
-189.448619683262
 20
776.339514764374
 30
0.0
 11
-189.448619683262
 21
736.814898839561
 31
0.0
  0
LINE
  5
4BDC
330
1A
100
AcDbEntity
  8
寸法線
 62
     1
 48
10.0
100
AcDbLine
 10
-91.677201342934
 20
776.339514764374
 30
0.0
 11
-91.677201342934
 21
736.814898839561
 31
0.0
  0
LINE
  5
4BDD
330
1A
100
AcDbEntity
  8
寸法線
 62
     1
 48
10.0
100
AcDbLine
 10
-27.225158935666
 20
776.339514764374
 30
0.0
 11
-27.225158935666
 21
736.814898839561
 31
0.0
  0
VIEWPORT
  5
2902
330
28FB
100
AcDbEntity
 67
     1
  8
0
 48
10.0
100
AcDbViewport
 10
245.091106815952
 20
137.55147797761
 30
0.0
 40
786.333963874174
 41
396.218730826638
 68
     1
 69
     1
1001
ACAD
1000
MVIEW
1002
{
1070
    16
1010
0.0
1020
0.0
1030
0.0
1010
0.0
1020
0.0
1030
1.0
1040
0.0
1040
396.218730826638
1040
245.091106815952
1040
137.55147797761
1040
50.0
1040
0.0
1040
0.0
1070
     0
1070
   100
1070
     0
1070
     1
1070
     0
1070
     0
1070
     0
1070
     0
1040
0.0
1040
0.0
1040
0.0
1040
10.0
1040
10.0
1040
10.0
1040
10.0
1070
     0
1002
{
1002
}
1002
}
  0
VIEWPORT
  5
2904
330
28FB
100
AcDbEntity
 67
     1
  8
図枠太線
 48
10.0
100
AcDbViewport
 10
204.746305129083
 20
163.026548700026
 30
0.0
 40
400.0
 41
240.0
 68
     2
 69
     2
1001
ACAD
1000
MVIEW
1002
{
1070
    16
1010
0.0
1020
0.0
1030
0.0
1010
0.0
1020
0.0
1030
1.0
1040
0.0
1040
480.000001131078
1040
42.755589349148
1040
875.926538466615
1040
50.0
1040
0.0
1040
0.0
1070
     0
1070
   100
1070
     0
1070
     0
1070
     0
1070
     0
1070
     0
1070
     0
1040
0.0
1040
0.0
1040
0.0
1040
1.0
1040
1.0
1040
0.0
1040
0.0
1070
     0
1002
{
1002
}
1002
}
  0
INSERT
  5
2A59
330
28FB
100
AcDbEntity
 67
     1
  8
図枠太線
100
AcDbBlockReference
  2
A3横用_タイトル
 10
-0.352109406709
 20
-0.499411053501
 30
0.0
  0
MTEXT
  5
2E5D
330
28FB
100
AcDbEntity
 67
     1
  8
寸法線
 48
10.0
100
AcDbMText
 10
149.717021038353
 20
15.112549874042
 30
0.0
 40
7.0
 41
15.363556412778
 71
     1
 72
     5
  1
1:2
  0
MTEXT
  5
2E60
330
28FB
100
AcDbEntity
 67
     1
  8
寸法線
 48
10.0
100
AcDbMText
 10
363.432493644154
 20
39.322307659944
 30
0.0
 40
5.0
 41
43.047199206047
 71
     1
 72
     5
  1
パドル式\Pレベルスイッチ
  0
MTEXT
  5
2E61
330
28FB
100
AcDbEntity
 67
     1
  8
寸法線
 48
10.0
100
AcDbMText
 10
312.286598578268
 20
34.852272718083
 30
0.0
 40
7.0
 41
41.045003631856
 71
     1
 72
     5
  1
PRL-100F
  0
MTEXT
  5
2E62
102
{ACAD_XDICTIONARY
360
4B03
102
}
330
28FB
100
AcDbEntity
 67
     1
  8
寸法線
 48
10.0
100
AcDbMText
 10
341.90889404113
 20
17.064379259533
 30
0.0
 40
8.0
 41
38.04171107615
 71
     1
 72
     5
  1
HR-10004
1001
ACADANNOTATIVE
1000
AnnotativeData
1002
{
1070
     1
1070
     0
1002
}
  0
MTEXT
  5
2E63
330
28FB
100
AcDbEntity
 67
     1
  8
寸法線
 48
10.0
100
AcDbMText
 10
370.080638451785
 20
52.766032943829
 30
0.0
 40
5.0
 41
33.833566292678
 71
     1
 72
     5
  1
台数 　 台
  0
MTEXT
  5
462E
102
{ACAD_XDICTIONARY
360
4B06
102
}
330
28FB
100
AcDbEntity
 67
     1
  8
寸法線
 48
10.0
100
AcDbMText
 10
174.166148964135
 20
14.524700247236
 30
0.0
 40
4.0
 41
23.156665718806
 71
     1
 72
     5
  1
\H1.25x;2015.6.11
1001
ACADANNOTATIVE
1000
AnnotativeData
1002
{
1070
     1
1070
     0
1002
}
  0
MTEXT
  5
462F
102
{ACAD_XDICTIONARY
360
4B09
102
}
330
28FB
100
AcDbEntity
 67
     1
  8
寸法線
 48
10.0
100
AcDbMText
 10
180.252155132798
 20
33.195581543696
 30
0.0
 40
4.5
 41
21.375384236178
 71
     1
 72
     5
  1
ohno
1001
ACADANNOTATIVE
1000
AnnotativeData
1002
{
1070
     1
1070
     0
1002
}
  0
ENDSEC
  0
SECTION
  2
OBJECTS
  0
DICTIONARY
  5
C
330
0
100
AcDbDictionary
  3
ACAD_COLOR
350
2948
  3
ACAD_GROUP
350
D
  3
ACAD_LAYOUT
350
2816
  3
ACAD_MATERIAL
350
2947
  3
ACAD_MLEADERSTYLE
350
4AFF
  3
ACAD_MLINESTYLE
350
E
  3
ACAD_PLOTSETTINGS
350
2817
  3
ACAD_SCALELIST
350
4AD8
  3
ACAD_VISUALSTYLE
350
4ABF
  3
ACDBHEADERROUNDTRIPXREC
350
4BDE
  3
ACDBVARIABLEDICTIONARY
350
4B13
  3
DWGPROPS
350
4C03
  0
DICTIONARY
  5
4C04
330
8
100
AcDbDictionary
280
     1
  3
ACAD_XREC_ROUNDTRIP
360
4C05
  0
DICTIONARY
  5
29EA
330
2
100
AcDbDictionary
280
     1
  3
ACAD_LAYERFILTERS
360
2B0C
  3
ACAD_LAYERSTATES
360
29EB
  0
DICTIONARY
  5
4B95
330
4B94
100
AcDbDictionary
280
     1
  3
ACDBCONTEXTDATAMANAGER
360
4B96
  0
DICTIONARY
  5
4B99
330
4B98
100
AcDbDictionary
280
     1
  3
ACDBCONTEXTDATAMANAGER
360
4B9A
  0
DICTIONARY
  5
4BC0
330
4BBF
100
AcDbDictionary
280
     1
  3
ACDBCONTEXTDATAMANAGER
360
4BC1
  0
DICTIONARY
  5
4BC5
330
4BC4
100
AcDbDictionary
280
     1
  3
ACDBCONTEXTDATAMANAGER
360
4BC6
  0
DICTIONARY
  5
4BC9
330
4BC8
100
AcDbDictionary
280
     1
  3
ACDBCONTEXTDATAMANAGER
360
4BCA
  0
DICTIONARY
  5
4BCE
330
4BCD
100
AcDbDictionary
280
     1
  3
ACDBCONTEXTDATAMANAGER
360
4BCF
  0
DICTIONARY
  5
4BD2
330
4BD1
100
AcDbDictionary
280
     1
  3
ACDBCONTEXTDATAMANAGER
360
4BD3
  0
DICTIONARY
  5
4B03
330
2E62
100
AcDbDictionary
280
     1
  3
ACDBCONTEXTDATAMANAGER
360
4B04
  0
DICTIONARY
  5
4B06
330
462E
100
AcDbDictionary
280
     1
  3
ACDBCONTEXTDATAMANAGER
360
4B07
  0
DICTIONARY
  5
4B09
330
462F
100
AcDbDictionary
280
     1
  3
ACDBCONTEXTDATAMANAGER
360
4B0A
  0
DICTIONARY
  5
2948
102
{ACAD_REACTORS
330
C
102
}
330
C
100
AcDbDictionary
  0
DICTIONARY
  5
D
102
{ACAD_REACTORS
330
C
102
}
330
C
100
AcDbDictionary
  0
DICTIONARY
  5
2816
102
{ACAD_REACTORS
330
C
102
}
330
C
100
AcDbDictionary
  0
DICTIONARY
  5
2947
102
{ACAD_REACTORS
330
C
102
}
330
C
100
AcDbDictionary
  3
BYBLOCK
350
4AFB
  3
BYLAYER
350
4AFA
  3
GLOBAL
350
4AFC
  0
DICTIONARY
  5
4AFF
102
{ACAD_REACTORS
330
C
102
}
330
C
100
AcDbDictionary
  3
STANDARD
350
4B00
  0
DICTIONARY
  5
E
102
{ACAD_REACTORS
330
C
102
}
330
C
100
AcDbDictionary
  3
STANDARD
350
13
  0
DICTIONARY
  5
2817
102
{ACAD_REACTORS
330
C
102
}
330
C
100
AcDbDictionary
  0
DICTIONARY
  5
4AD8
102
{ACAD_REACTORS
330
C
102
}
330
C
100
AcDbDictionary
  3
A0
350
4AD9
  3
A1
350
4ADA
  3
A2
350
4ADB
  3
A3
350
4ADC
  3
A4
350
4ADD
  3
A5
350
4ADE
  3
A6
350
4ADF
  3
A7
350
4AE0
  3
A8
350
4AE1
  3
A9
350
4AE2
  3
B0
350
4AE3
  3
B1
350
4AE4
  3
B2
350
4AE5
  3
B3
350
4AE6
  3
B4
350
4AE7
  3
B5
350
4AE8
  3
B6
350
4AE9
  3
B7
350
4AEA
  3
B8
350
4AEB
  3
B9
350
4AEC
  3
C0
350
4AED
  3
C1
350
4AEE
  3
C2
350
4AEF
  3
C3
350
4AF0
  3
C4
350
4AF1
  3
C5
350
4AF2
  3
C6
350
4AF3
  3
C7
350
4AF4
  3
C8
350
4AF5
  3
C9
350
4AF6
  3
D0
350
4AF7
  3
D1
350
4AF8
  3
D2
350
4AF9
  0
DICTIONARY
  5
4ABF
102
{ACAD_REACTORS
330
C
102
}
330
C
100
AcDbDictionary
  3
2DWIREFRAME
350
4AC4
  3
BASIC
350
4AC7
  3
BRIGHTEN
350
4ACB
  3
COLORCHANGE
350
4ACF
  3
CONCEPTUAL
350
4AC9
  3
DIM
350
4ACA
  3
EDGECOLOROFF
350
4AD2
  3
FACEPATTERN
350
4ACE
  3
FLAT
350
4AC0
  3
FLATWITHEDGES
350
4AC1
  3
GOURAUD
350
4AC2
  3
GOURAUDWITHEDGES
350
4AC3
  3
HIDDEN
350
4AC6
  3
JITTEROFF
350
4AD0
  3
LINEPATTERN
350
4ACD
  3
OVERHANGOFF
350
4AD1
  3
REALISTIC
350
4AC8
  3
SHADED
350
4AD7
  3
SHADED_WITH_EDGES
350
4AD6
  3
SHADES_OF_GRAY
350
4AD3
  3
SKETCHY
350
4AD4
  3
THICKEN
350
4ACC
  3
WIREFRAME
350
4AC5
  3
X-RAY
350
4AD5
  0
DICTIONARY
  5
4BDE
102
{ACAD_REACTORS
330
C
102
}
330
C
100
AcDbDictionary
  3
CEPSNID
350
4BE8
  3
CEPSNTYPE
350
4BE7
  3
COLORDICT
350
4C01
  3
DIMSTYLEDATA
350
4BFE
  3
FINGERPRINTGUID
350
4BE9
  3
HYPERLINKBASE
350
4BE1
  3
INSUNITS
350
4BE6
  3
LAYOUTDICT
350
4BE3
  3
LWETCUNION
350
4BE5
  3
MATERIALDICT
350
4C02
  3
PLOTSETDICT
350
4BE4
  3
PSVPSCALE
350
4BEB
  3
PUCSBASE
350
4BEE
  3
PUCSORGBACK
350
4BF4
  3
PUCSORGBOTTOM
350
4BF0
  3
PUCSORGFRONT
350
4BF3
  3
PUCSORGLEFT
350
4BF1
  3
PUCSORGRIGHT
350
4BF2
  3
PUCSORGTOP
350
4BEF
  3
PUCSORTHOREF
350
4BEC
  3
PUCSORTHOVIEW
350
4BED
  3
STYLESHEET
350
4BE2
  3
TSTACKALIGN
350
4BDF
  3
TSTACKSIZE
350
4BE0
  3
UCSBASE
350
4BF7
  3
UCSORGBACK
350
4BFD
  3
UCSORGBOTTOM
350
4BF9
  3
UCSORGFRONT
350
4BFC
  3
UCSORGLEFT
350
4BFA
  3
UCSORGRIGHT
350
4BFB
  3
UCSORGTOP
350
4BF8
  3
UCSORTHOREF
350
4BF5
  3
UCSORTHOVIEW
350
4BF6
  3
VERSIONGUID
350
4BEA
  0
DICTIONARY
  5
4B13
102
{ACAD_REACTORS
330
C
102
}
330
C
100
AcDbDictionary
  3
CANNOSCALE
350
4B14
  3
CMLEADERSTYLE
350
4B16
  3
CTABLESTYLE
350
4B15
  3
DIMASSOC
350
4BFF
  3
HIDETEXT
350
4C00
  3
MSLTSCALE
350
4B17
  3
XCLIPFRAME
350
4B18
  0
XRECORD
  5
4C03
102
{ACAD_REACTORS
330
C
102
}
330
C
100
AcDbXrecord
  1
DWGPROPS COOKIE
  2

  3

  4

  6

  7

  8
y-ohno
  9

300
=
301
=
302
=
303
=
304
=
305
=
306
=
307
=
308
=
309
=
 40
0.0
 41
2450576.222302431
 42
2457191.275522836
  1

 90
        0
  0
XRECORD
  5
4C05
102
{ACAD_REACTORS
330
4C04
102
}
330
4C04
100
AcDbXrecord
102
VTR_0.000_0.000_1.000_1.000_VISUALSTYLE
340
4AC4
102
VTR_0.000_0.000_1.000_1.000_GRIDDISPLAY
 70
     3
102
VTR_0.000_0.000_1.000_1.000_GRIDMAJOR
 70
     5
102
VTR_0.000_0.000_1.000_1.000_DEFAULTLIGHTING
280
     1
102
VTR_0.000_0.000_1.000_1.000_DEFAULTLIGHTINGTYPE
 70
     1
102
VTR_0.000_0.000_1.000_1.000_BRIGHTNESS
141
0.0
102
VTR_0.000_0.000_1.000_1.000_CONTRAST
142
0.0
  0
DICTIONARY
  5
2B0C
102
{ACAD_REACTORS
330
29EA
102
}
330
29EA
100
AcDbDictionary
  0
DICTIONARY
  5
29EB
102
{ACAD_REACTORS
330
29EA
102
}
330
29EA
100
AcDbDictionary
  0
DICTIONARY
  5
4B96
102
{ACAD_REACTORS
330
4B95
102
}
330
4B95
100
AcDbDictionary
  3
ACDB_ANNOTATIONSCALES
350
4B97
  0
DICTIONARY
  5
4B9A
102
{ACAD_REACTORS
330
4B99
102
}
330
4B99
100
AcDbDictionary
  3
ACDB_ANNOTATIONSCALES
350
4B9B
  0
DICTIONARY
  5
4BC1
102
{ACAD_REACTORS
330
4BC0
102
}
330
4BC0
100
AcDbDictionary
  3
ACDB_ANNOTATIONSCALES
350
4BC2
  0
DICTIONARY
  5
4BC6
102
{ACAD_REACTORS
330
4BC5
102
}
330
4BC5
100
AcDbDictionary
  3
ACDB_ANNOTATIONSCALES
350
4BC7
  0
DICTIONARY
  5
4BCA
102
{ACAD_REACTORS
330
4BC9
102
}
330
4BC9
100
AcDbDictionary
  3
ACDB_ANNOTATIONSCALES
350
4BCB
  0
DICTIONARY
  5
4BCF
102
{ACAD_REACTORS
330
4BCE
102
}
330
4BCE
100
AcDbDictionary
  3
ACDB_ANNOTATIONSCALES
350
4BD0
  0
DICTIONARY
  5
4BD3
102
{ACAD_REACTORS
330
4BD2
102
}
330
4BD2
100
AcDbDictionary
  3
ACDB_ANNOTATIONSCALES
350
4BD4
  0
DICTIONARY
  5
4B04
102
{ACAD_REACTORS
330
4B03
102
}
330
4B03
100
AcDbDictionary
  3
ACDB_ANNOTATIONSCALES
350
4B05
  0
DICTIONARY
  5
4B07
102
{ACAD_REACTORS
330
4B06
102
}
330
4B06
100
AcDbDictionary
  3
ACDB_ANNOTATIONSCALES
350
4B08
  0
DICTIONARY
  5
4B0A
102
{ACAD_REACTORS
330
4B09
102
}
330
4B09
100
AcDbDictionary
  3
ACDB_ANNOTATIONSCALES
350
4B0B
  0
MATERIAL
  5
4AFB
102
{ACAD_REACTORS
330
2947
102
}
102
{ACAD_XDICTIONARY
360
4C08
102
}
330
2947
100
AcDbMaterial
  1
BYBLOCK
  0
MATERIAL
  5
4AFA
102
{ACAD_REACTORS
330
2947
102
}
102
{ACAD_XDICTIONARY
360
4C06
102
}
330
2947
100
AcDbMaterial
  1
BYLAYER
  0
MATERIAL
  5
4AFC
102
{ACAD_REACTORS
330
2947
102
}
102
{ACAD_XDICTIONARY
360
4C0A
102
}
330
2947
100
AcDbMaterial
  1
GLOBAL
  0
ACAD_PROXY_OBJECT
  5
4B00
102
{ACAD_REACTORS
330
4AFF
102
}
330
4AFF
100
AcDbProxyObject
 90
      499
 91
      508
 93
      610
310
40901902A4063FBFFFFFE0000000000000020400000000000020404214DD185B99185C990000000000000104090141901A00000000000004100000000000000041025764000000000000039000
340
14
340
0
340
10
340
0
 94
        0
1001
ACAD_MLEADERVER
1070
     2
  0
MLINESTYLE
  5
13
102
{ACAD_REACTORS
330
E
102
}
330
E
100
AcDbMlineStyle
  2
STANDARD
 70
     0
  3

 62
     0
 51
90.0
 52
90.0
 71
     2
 49
0.5
 62
   256
  6
BYLAYER
 49
-0.5
 62
   256
  6
BYLAYER
  0
ACAD_PROXY_OBJECT
  5
4AD9
102
{ACAD_REACTORS
330
4AD8
102
}
330
4AD8
100
AcDbProxyObject
 90
      499
 91
      505
 93
       41
310
903313A31580
  0
ACAD_PROXY_OBJECT
  5
4ADA
102
{ACAD_REACTORS
330
4AD8
102
}
330
4AD8
100
AcDbProxyObject
 90
      499
 91
      505
 93
      105
310
903313A324000000000000004000
  0
ACAD_PROXY_OBJECT
  5
4ADB
102
{ACAD_REACTORS
330
4AD8
102
}
330
4AD8
100
AcDbProxyObject
 90
      499
 91
      505
 93
      105
310
903313A344000000000000104000
  0
ACAD_PROXY_OBJECT
  5
4ADC
102
{ACAD_REACTORS
330
4AD8
102
}
330
4AD8
100
AcDbProxyObject
 90
      499
 91
      505
 93
      105
310
903313A354000000000000144000
  0
ACAD_PROXY_OBJECT
  5
4ADD
102
{ACAD_REACTORS
330
4AD8
102
}
330
4AD8
100
AcDbProxyObject
 90
      499
 91
      505
 93
      105
310
903313A384000000000000204000
  0
ACAD_PROXY_OBJECT
  5
4ADE
102
{ACAD_REACTORS
330
4AD8
102
}
330
4AD8
100
AcDbProxyObject
 90
      499
 91
      505
 93
      113
310
904313A31304000000000000244000
  0
ACAD_PROXY_OBJECT
  5
4ADF
102
{ACAD_REACTORS
330
4AD8
102
}
330
4AD8
100
AcDbProxyObject
 90
      499
 91
      505
 93
      113
310
904313A31364000000000000304000
  0
ACAD_PROXY_OBJECT
  5
4AE0
102
{ACAD_REACTORS
330
4AD8
102
}
330
4AD8
100
AcDbProxyObject
 90
      499
 91
      505
 93
      113
310
904313A32304000000000000344000
  0
ACAD_PROXY_OBJECT
  5
4AE1
102
{ACAD_REACTORS
330
4AD8
102
}
330
4AD8
100
AcDbProxyObject
 90
      499
 91
      505
 93
      113
310
904313A333040000000000003E4000
  0
ACAD_PROXY_OBJECT
  5
4AE2
102
{ACAD_REACTORS
330
4AD8
102
}
330
4AD8
100
AcDbProxyObject
 90
      499
 91
      505
 93
      113
310
904313A34304000000000000444000
  0
ACAD_PROXY_OBJECT
  5
4AE3
102
{ACAD_REACTORS
330
4AD8
102
}
330
4AD8
100
AcDbProxyObject
 90
      499
 91
      505
 93
      113
310
904313A35304000000000000494000
  0
ACAD_PROXY_OBJECT
  5
4AE4
102
{ACAD_REACTORS
330
4AD8
102
}
330
4AD8
100
AcDbProxyObject
 90
      499
 91
      505
 93
      121
310
905313A3130304000000000000594000
  0
ACAD_PROXY_OBJECT
  5
4AE5
102
{ACAD_REACTORS
330
4AD8
102
}
330
4AD8
100
AcDbProxyObject
 90
      499
 91
      505
 93
      105
310
903323A310000000000000010100
  0
ACAD_PROXY_OBJECT
  5
4AE6
102
{ACAD_REACTORS
330
4AD8
102
}
330
4AD8
100
AcDbProxyObject
 90
      499
 91
      505
 93
      105
310
903343A310000000000000410100
  0
ACAD_PROXY_OBJECT
  5
4AE7
102
{ACAD_REACTORS
330
4AD8
102
}
330
4AD8
100
AcDbProxyObject
 90
      499
 91
      505
 93
      105
310
903383A310000000000000810100
  0
ACAD_PROXY_OBJECT
  5
4AE8
102
{ACAD_REACTORS
330
4AD8
102
}
330
4AD8
100
AcDbProxyObject
 90
      499
 91
      505
 93
      113
310
90431303A310000000000000910100
  0
ACAD_PROXY_OBJECT
  5
4AE9
102
{ACAD_REACTORS
330
4AD8
102
}
330
4AD8
100
AcDbProxyObject
 90
      499
 91
      505
 93
      121
310
9053130303A310000000000001650100
  0
ACAD_PROXY_OBJECT
  5
4AEA
102
{ACAD_REACTORS
330
4AD8
102
}
330
4AD8
100
AcDbProxyObject
 90
      499
 91
      505
 93
      257
310
90E312F31323822203D2031272D3022000000000000200FC000000000000284000
  0
ACAD_PROXY_OBJECT
  5
4AEB
102
{ACAD_REACTORS
330
4AD8
102
}
330
4AD8
100
AcDbProxyObject
 90
      499
 91
      505
 93
      249
310
90D312F363422203D2031272D3022000000000000240FC000000000000284000
  0
ACAD_PROXY_OBJECT
  5
4AEC
102
{ACAD_REACTORS
330
4AD8
102
}
330
4AD8
100
AcDbProxyObject
 90
      499
 91
      505
 93
      249
310
90D312F333222203D2031272D3022000000000000280FC000000000000284000
  0
ACAD_PROXY_OBJECT
  5
4AED
102
{ACAD_REACTORS
330
4AD8
102
}
330
4AD8
100
AcDbProxyObject
 90
      499
 91
      505
 93
      249
310
90D312F313622203D2031272D30220000000000002C0FC000000000000284000
  0
ACAD_PROXY_OBJECT
  5
4AEE
102
{ACAD_REACTORS
330
4AD8
102
}
330
4AD8
100
AcDbProxyObject
 90
      499
 91
      505
 93
      249
310
90D332F333222203D2031272D30220000000000002E0FC000000000000284000
  0
ACAD_PROXY_OBJECT
  5
4AEF
102
{ACAD_REACTORS
330
4AD8
102
}
330
4AD8
100
AcDbProxyObject
 90
      499
 91
      505
 93
      241
310
90C312F3822203D2031272D3022000000000000300FC000000000000284000
  0
ACAD_PROXY_OBJECT
  5
4AF0
102
{ACAD_REACTORS
330
4AD8
102
}
330
4AD8
100
AcDbProxyObject
 90
      499
 91
      505
 93
      249
310
90D332F313622203D2031272D3022000000000000320FC000000000000284000
  0
ACAD_PROXY_OBJECT
  5
4AF1
102
{ACAD_REACTORS
330
4AD8
102
}
330
4AD8
100
AcDbProxyObject
 90
      499
 91
      505
 93
      241
310
90C312F3422203D2031272D3022000000000000340FC000000000000284000
  0
ACAD_PROXY_OBJECT
  5
4AF2
102
{ACAD_REACTORS
330
4AD8
102
}
330
4AD8
100
AcDbProxyObject
 90
      499
 91
      505
 93
      241
310
90C332F3822203D2031272D3022000000000000360FC000000000000284000
  0
ACAD_PROXY_OBJECT
  5
4AF3
102
{ACAD_REACTORS
330
4AD8
102
}
330
4AD8
100
AcDbProxyObject
 90
      499
 91
      505
 93
      241
310
90C312F3222203D2031272D3022000000000000380FC000000000000284000
  0
ACAD_PROXY_OBJECT
  5
4AF4
102
{ACAD_REACTORS
330
4AD8
102
}
330
4AD8
100
AcDbProxyObject
 90
      499
 91
      505
 93
      241
310
90C332F3422203D2031272D30220000000000003A0FC000000000000284000
  0
ACAD_PROXY_OBJECT
  5
4AF5
102
{ACAD_REACTORS
330
4AD8
102
}
330
4AD8
100
AcDbProxyObject
 90
      499
 91
      505
 93
      161
310
90A3122203D2031272D30224000000000000284000
  0
ACAD_PROXY_OBJECT
  5
4AF6
102
{ACAD_REACTORS
330
4AD8
102
}
330
4AD8
100
AcDbProxyObject
 90
      499
 91
      505
 93
      257
310
90E312D312F3222203D2031272D30220000000000003E0FC000000000000284000
  0
ACAD_PROXY_OBJECT
  5
4AF7
102
{ACAD_REACTORS
330
4AD8
102
}
330
4AD8
100
AcDbProxyObject
 90
      499
 91
      505
 93
      225
310
90A3322203D2031272D302200000000000002100000000000000284000
  0
ACAD_PROXY_OBJECT
  5
4AF8
102
{ACAD_REACTORS
330
4AD8
102
}
330
4AD8
100
AcDbProxyObject
 90
      499
 91
      505
 93
      225
310
90A3622203D2031272D302200000000000006100000000000000284000
  0
ACAD_PROXY_OBJECT
  5
4AF9
102
{ACAD_REACTORS
330
4AD8
102
}
330
4AD8
100
AcDbProxyObject
 90
      499
 91
      505
 93
      249
310
90D31272D3022203D2031272D30220000000000000A100000000000000284000
  0
ACAD_PROXY_OBJECT
  5
4AC4
102
{ACAD_REACTORS
330
4ABF
102
}
330
4ABF
100
AcDbProxyObject
 90
      499
 91
      504
 93
      436
310
42CC9915DA5C99599C985B595049028333333333333E33F0000000000000F90107901411070040501600405405064090741402480A0340
1001
ACAD
1000
AcDbSavedByObjectVersion
1070
     0
  0
ACAD_PROXY_OBJECT
  5
4AC7
102
{ACAD_REACTORS
330
4ABF
102
}
330
4ABF
100
AcDbProxyObject
 90
      499
 91
      504
 93
      388
310
4150985CDA58D07406404333333333333E33F0000000000000F90107A41107004050150841D405064090741402480A0350
1001
ACAD
1000
AcDbSavedByObjectVersion
1070
     0
  0
ACAD_PROXY_OBJECT
  5
4ACB
102
{ACAD_REACTORS
330
4ABF
102
}
330
4ABF
100
AcDbProxyObject
 90
      499
 91
      504
 93
      428
310
42109C9A59DA1D195B90C409028333333333333E33F0000000000000F9010790141107004050150841D405064090741402480A029950
1001
ACAD
1000
AcDbSavedByObjectVersion
1070
     0
  0
ACAD_PROXY_OBJECT
  5
4ACF
102
{ACAD_REACTORS
330
4ABF
102
}
330
4ABF
100
AcDbProxyObject
 90
      499
 91
      504
 93
      452
310
42D0DBDB1BDC90DA185B99D95104090240C333333333333E33F0000000000000F90108901411070040501508421405064090741402480A0350
1001
ACAD
1000
AcDbSavedByObjectVersion
1070
     0
  0
ACAD_PROXY_OBJECT
  5
4AC9
102
{ACAD_REACTORS
330
4ABF
102
}
330
4ABF
100
AcDbProxyObject
 90
      499
 91
      504
 93
      500
310
4290DBDB98D95C1D1D585B10940D028333333333333E33F0000000000000F90107902409070040501000000000018199010841D405064090740C02480A0340
1001
ACAD
1000
AcDbSavedByObjectVersion
1070
     0
  0
ACAD_PROXY_OBJECT
  5
4ACA
102
{ACAD_REACTORS
330
4ABF
102
}
330
4ABF
100
AcDbProxyObject
 90
      499
 91
      504
 93
      412
310
40D11A5B50B409028333333333333E33F0000000000000F9010790141107004050150841D405064090741402480A02677FFFFFD0
1001
ACAD
1000
AcDbSavedByObjectVersion
1070
     0
  0
ACAD_PROXY_OBJECT
  5
4AD2
102
{ACAD_REACTORS
330
4ABF
102
}
330
4ABF
100
AcDbProxyObject
 90
      499
 91
      504
 93
      452
310
43115919D950DBDB1BDC93D999916409028333333333333E33F0000000000000F9010790141107004050150841D405064090741402480A0350
1001
ACAD
1000
AcDbSavedByObjectVersion
1070
     0
  0
ACAD_PROXY_OBJECT
  5
4ACE
102
{ACAD_REACTORS
330
4ABF
102
}
330
4ABF
100
AcDbProxyObject
 90
      499
 91
      504
 93
      444
310
42D19858D95C185D1D195C9B90F409028333333333333E33F0000000000000F9010790141107004050150841D405064090741402480A0350
1001
ACAD
1000
AcDbSavedByObjectVersion
1070
     0
  0
ACAD_PROXY_OBJECT
  5
4AC0
102
{ACAD_REACTORS
330
4ABF
102
}
330
4ABF
100
AcDbProxyObject
 90
      499
 91
      504
 93
      380
310
41119B185D240901404333333333333E33F0000000000000F9010740A907004050150841D405064090741402480A1B50
1001
ACAD
1000
AcDbSavedByObjectVersion
1070
     0
  0
ACAD_PROXY_OBJECT
  5
4AC1
102
{ACAD_REACTORS
330
4ABF
102
}
330
4ABF
100
AcDbProxyObject
 90
      499
 91
      504
 93
      468
310
43519B185D15DA5D1A115919D95CD0140901404333333333333E33F0000000000000F90107409019070040501600405405064090741402480A1B50
1001
ACAD
1000
AcDbSavedByObjectVersion
1070
     0
  0
ACAD_PROXY_OBJECT
  5
4AC2
102
{ACAD_REACTORS
330
4ABF
102
}
330
4ABF
100
AcDbProxyObject
 90
      499
 91
      504
 93
      404
310
41D1DBDD5C985D5910240902404333333333333E33F0000000000000F9010740A9070040501641D405064090741402480A1B50
1001
ACAD
1000
AcDbSavedByObjectVersion
1070
     0
  0
ACAD_PROXY_OBJECT
  5
4AC3
102
{ACAD_REACTORS
330
4ABF
102
}
330
4ABF
100
AcDbProxyObject
 90
      499
 91
      504
 93
      492
310
4411DBDD5C985D5915DA5D1A115919D95CD0340902404333333333333E33F0000000000000F90107409019070040501600405405064090741402480A1B50
1001
ACAD
1000
AcDbSavedByObjectVersion
1070
     0
  0
ACAD_PROXY_OBJECT
  5
4AC6
102
{ACAD_REACTORS
330
4ABF
102
}
330
4ABF
100
AcDbProxyObject
 90
      499
 91
      504
 93
      476
310
41921A5919195B90640502408333333333333E33F0000000000000F901079024090700405020000000000001110200405405064090740C02480A0340
1001
ACAD
1000
AcDbSavedByObjectVersion
1070
     0
  0
ACAD_PROXY_OBJECT
  5
4AD0
102
{ACAD_REACTORS
330
4ABF
102
}
330
4ABF
100
AcDbProxyObject
 90
      499
 91
      504
 93
      428
310
42529A5D1D195C93D999914409028333333333333E33F0000000000000F9010790141107004050150A41D405064090741402480A0350
1001
ACAD
1000
AcDbSavedByObjectVersion
1070
     0
  0
ACAD_PROXY_OBJECT
  5
4ACD
102
{ACAD_REACTORS
330
4ABF
102
}
330
4ABF
100
AcDbProxyObject
 90
      499
 91
      504
 93
      444
310
42D31A5B995C185D1D195C9B90E409028333333333333E33F0000000000000F9010790141107004050750841D405064090741402483A0350
1001
ACAD
1000
AcDbSavedByObjectVersion
1070
     0
  0
ACAD_PROXY_OBJECT
  5
4AD1
102
{ACAD_REACTORS
330
4ABF
102
}
330
4ABF
100
AcDbProxyObject
 90
      499
 91
      504
 93
      444
310
42D3DD995C9A185B99D3D999915409028333333333333E33F0000000000000F9010790141107004050150941D405064090741402480A0350
1001
ACAD
1000
AcDbSavedByObjectVersion
1070
     0
  0
ACAD_PROXY_OBJECT
  5
4AC8
102
{ACAD_REACTORS
330
4ABF
102
}
330
4ABF
100
AcDbProxyObject
 90
      499
 91
      504
 93
      428
310
425499585B1A5CDD1A58D08409038333333333333E33F0000000000000F9010740A907004050150800405405064090740C02480A1B40
1001
ACAD
1000
AcDbSavedByObjectVersion
1070
     0
  0
ACAD_PROXY_OBJECT
  5
4AD7
102
{ACAD_REACTORS
330
4ABF
102
}
330
4ABF
100
AcDbProxyObject
 90
      499
 91
      504
 93
      420
310
4194DA1859195911B40902404333333333333E33F0000000000000F9010740A41107004050150800405405064090840C02480A0B40
1001
ACAD
1000
AcDbSavedByObjectVersion
1070
     0
  0
ACAD_PROXY_OBJECT
  5
4AD6
102
{ACAD_REACTORS
330
4ABF
102
}
330
4ABF
100
AcDbProxyObject
 90
      499
 91
      504
 93
      516
310
4454DA18591959081DDA5D1A08195919D95CD1A40902404333333333333E33F0000000000000F901074090142907004050250800405405064090740C02480A0B40
1001
ACAD
1000
AcDbSavedByObjectVersion
1070
     0
  0
ACAD_PROXY_OBJECT
  5
4AD3
102
{ACAD_REACTORS
330
4ABF
102
}
330
4ABF
100
AcDbProxyObject
 90
      499
 91
      504
 93
      532
310
4394DA1859195CC81BD98811DC985E5174090240C333333333333E33F0000000000000F901079024090741D01000000000000111010841D405064090740C02480A0340
1001
ACAD
1000
AcDbSavedByObjectVersion
1070
     0
  0
ACAD_PROXY_OBJECT
  5
4AD4
102
{ACAD_REACTORS
330
4ABF
102
}
330
4ABF
100
AcDbProxyObject
 90
      499
 91
      504
 93
      476
310
41D4DAD95D18DA1E51840502408333333333333E33F0000000000000F901079024090741D01000000000000111010B41D405064090741802480A0340
1001
ACAD
1000
AcDbSavedByObjectVersion
1070
     0
  0
ACAD_PROXY_OBJECT
  5
4ACC
102
{ACAD_REACTORS
330
4ABF
102
}
330
4ABF
100
AcDbProxyObject
 90
      499
 91
      504
 93
      412
310
41D51A1A58DAD95B90D409028333333333333E33F0000000000000F9010790141107004050150C41D405064090741402480A0350
1001
ACAD
1000
AcDbSavedByObjectVersion
1070
     0
  0
ACAD_PROXY_OBJECT
  5
4AC5
102
{ACAD_REACTORS
330
4ABF
102
}
330
4ABF
100
AcDbProxyObject
 90
      499
 91
      504
 93
      420
310
4255DA5C99599C985B595059028333333333333E33F0000000000000F90107901411070040501600405405064090740C02480A0340
1001
ACAD
1000
AcDbSavedByObjectVersion
1070
     0
  0
ACAD_PROXY_OBJECT
  5
4AD5
102
{ACAD_REACTORS
330
4ABF
102
}
330
4ABF
100
AcDbProxyObject
 90
      499
 91
      504
 93
      404
310
41560B54985E51940902404000000000000E03F0000000000000F9010740501907004050150841D405064090740C02480A1B40
1001
ACAD
1000
AcDbSavedByObjectVersion
1070
     0
  0
XRECORD
  5
4BE8
102
{ACAD_REACTORS
330
4BDE
102
}
330
4BDE
100
AcDbXrecord
340
0
  0
XRECORD
  5
4BE7
102
{ACAD_REACTORS
330
4BDE
102
}
330
4BDE
100
AcDbXrecord
 90
        0
  0
XRECORD
  5
4C01
102
{ACAD_REACTORS
330
4BDE
102
}
330
4BDE
100
AcDbXrecord
340
2948
  0
XRECORD
  5
4BFE
102
{ACAD_REACTORS
330
4BDE
102
}
330
4BDE
100
AcDbXrecord
1000
DSTYLE
1002
{
1070
   171
 70
     2
1070
   143
 40
0.0394
1070
   274
 70
     2
1070
    41
 40
6.0
1070
   342
340
2AF4
1070
   271
 70
     1
1070
   278
 70
    46
1070
   341
340
2AF4
1070
   272
 70
     1
1070
    48
 40
0.1
1070
   283
 70
     1
1070
    47
 40
0.1
1070
   145
 40
1.0
1070
   340
340
10
1070
   140
 40
5.0
1070
   284
 70
     0
1002
}
  0
XRECORD
  5
4BE9
102
{ACAD_REACTORS
330
4BDE
102
}
330
4BDE
100
AcDbXrecord
  1
{23698909-1D67-4744-B0E2-8DE11E3ED422}
  0
XRECORD
  5
4BE1
102
{ACAD_REACTORS
330
4BDE
102
}
330
4BDE
100
AcDbXrecord
  1

  0
XRECORD
  5
4BE6
102
{ACAD_REACTORS
330
4BDE
102
}
330
4BDE
100
AcDbXrecord
 90
        0
  0
XRECORD
  5
4BE3
102
{ACAD_REACTORS
330
4BDE
102
}
330
4BDE
100
AcDbXrecord
340
2816
  0
XRECORD
  5
4BE5
102
{ACAD_REACTORS
330
4BDE
102
}
330
4BDE
100
AcDbXrecord
 90
    10781
  0
XRECORD
  5
4C02
102
{ACAD_REACTORS
330
4BDE
102
}
330
4BDE
100
AcDbXrecord
340
2947
  0
XRECORD
  5
4BE4
102
{ACAD_REACTORS
330
4BDE
102
}
330
4BDE
100
AcDbXrecord
340
2817
  0
XRECORD
  5
4BEB
102
{ACAD_REACTORS
330
4BDE
102
}
330
4BDE
100
AcDbXrecord
 40
0.25
  0
XRECORD
  5
4BEE
102
{ACAD_REACTORS
330
4BDE
102
}
330
4BDE
100
AcDbXrecord
340
0
  0
XRECORD
  5
4BF4
102
{ACAD_REACTORS
330
4BDE
102
}
330
4BDE
100
AcDbXrecord
 10
0.0
 20
0.0
 30
0.0
  0
XRECORD
  5
4BF0
102
{ACAD_REACTORS
330
4BDE
102
}
330
4BDE
100
AcDbXrecord
 10
0.0
 20
0.0
 30
0.0
  0
XRECORD
  5
4BF3
102
{ACAD_REACTORS
330
4BDE
102
}
330
4BDE
100
AcDbXrecord
 10
0.0
 20
0.0
 30
0.0
  0
XRECORD
  5
4BF1
102
{ACAD_REACTORS
330
4BDE
102
}
330
4BDE
100
AcDbXrecord
 10
0.0
 20
0.0
 30
0.0
  0
XRECORD
  5
4BF2
102
{ACAD_REACTORS
330
4BDE
102
}
330
4BDE
100
AcDbXrecord
 10
0.0
 20
0.0
 30
0.0
  0
XRECORD
  5
4BEF
102
{ACAD_REACTORS
330
4BDE
102
}
330
4BDE
100
AcDbXrecord
 10
0.0
 20
0.0
 30
0.0
  0
XRECORD
  5
4BEC
102
{ACAD_REACTORS
330
4BDE
102
}
330
4BDE
100
AcDbXrecord
340
0
  0
XRECORD
  5
4BED
102
{ACAD_REACTORS
330
4BDE
102
}
330
4BDE
100
AcDbXrecord
 70
     0
  0
XRECORD
  5
4BE2
102
{ACAD_REACTORS
330
4BDE
102
}
330
4BDE
100
AcDbXrecord
  1

  0
XRECORD
  5
4BDF
102
{ACAD_REACTORS
330
4BDE
102
}
330
4BDE
100
AcDbXrecord
 90
        1
  0
XRECORD
  5
4BE0
102
{ACAD_REACTORS
330
4BDE
102
}
330
4BDE
100
AcDbXrecord
 90
       70
  0
XRECORD
  5
4BF7
102
{ACAD_REACTORS
330
4BDE
102
}
330
4BDE
100
AcDbXrecord
340
0
  0
XRECORD
  5
4BFD
102
{ACAD_REACTORS
330
4BDE
102
}
330
4BDE
100
AcDbXrecord
 10
0.0
 20
0.0
 30
0.0
  0
XRECORD
  5
4BF9
102
{ACAD_REACTORS
330
4BDE
102
}
330
4BDE
100
AcDbXrecord
 10
0.0
 20
0.0
 30
0.0
  0
XRECORD
  5
4BFC
102
{ACAD_REACTORS
330
4BDE
102
}
330
4BDE
100
AcDbXrecord
 10
0.0
 20
0.0
 30
0.0
  0
XRECORD
  5
4BFA
102
{ACAD_REACTORS
330
4BDE
102
}
330
4BDE
100
AcDbXrecord
 10
0.0
 20
0.0
 30
0.0
  0
XRECORD
  5
4BFB
102
{ACAD_REACTORS
330
4BDE
102
}
330
4BDE
100
AcDbXrecord
 10
0.0
 20
0.0
 30
0.0
  0
XRECORD
  5
4BF8
102
{ACAD_REACTORS
330
4BDE
102
}
330
4BDE
100
AcDbXrecord
 10
0.0
 20
0.0
 30
0.0
  0
XRECORD
  5
4BF5
102
{ACAD_REACTORS
330
4BDE
102
}
330
4BDE
100
AcDbXrecord
340
0
  0
XRECORD
  5
4BF6
102
{ACAD_REACTORS
330
4BDE
102
}
330
4BDE
100
AcDbXrecord
 70
     0
  0
XRECORD
  5
4BEA
102
{ACAD_REACTORS
330
4BDE
102
}
330
4BDE
100
AcDbXrecord
  1
{05923340-D4D0-4918-A6E8-D8082D28DCDA}
  0
DICTIONARYVAR
  5
4B14
102
{ACAD_REACTORS
330
4B13
102
}
330
4B13
100
DictionaryVariables
280
     0
  1
1:1
  0
DICTIONARYVAR
  5
4B16
102
{ACAD_REACTORS
330
4B13
102
}
330
4B13
100
DictionaryVariables
280
     0
  1
Standard
  0
DICTIONARYVAR
  5
4B15
102
{ACAD_REACTORS
330
4B13
102
}
330
4B13
100
DictionaryVariables
280
     0
  1
Standard
  0
DICTIONARYVAR
  5
4BFF
102
{ACAD_REACTORS
330
4B13
102
}
330
4B13
100
DictionaryVariables
280
     0
  1
1
  0
DICTIONARYVAR
  5
4C00
102
{ACAD_REACTORS
330
4B13
102
}
330
4B13
100
DictionaryVariables
280
     0
  1
0
  0
DICTIONARYVAR
  5
4B17
102
{ACAD_REACTORS
330
4B13
102
}
330
4B13
100
DictionaryVariables
280
     0
  1
0
  0
DICTIONARYVAR
  5
4B18
102
{ACAD_REACTORS
330
4B13
102
}
330
4B13
100
DictionaryVariables
280
     0
  1
0
  0
DICTIONARY
  5
4B97
102
{ACAD_REACTORS
330
4B96
102
}
330
4B96
100
AcDbDictionary
  0
DICTIONARY
  5
4B9B
102
{ACAD_REACTORS
330
4B9A
102
}
330
4B9A
100
AcDbDictionary
  0
DICTIONARY
  5
4BC2
102
{ACAD_REACTORS
330
4BC1
102
}
330
4BC1
100
AcDbDictionary
  0
DICTIONARY
  5
4BC7
102
{ACAD_REACTORS
330
4BC6
102
}
330
4BC6
100
AcDbDictionary
  0
DICTIONARY
  5
4BCB
102
{ACAD_REACTORS
330
4BCA
102
}
330
4BCA
100
AcDbDictionary
  0
DICTIONARY
  5
4BD0
102
{ACAD_REACTORS
330
4BCF
102
}
330
4BCF
100
AcDbDictionary
  0
DICTIONARY
  5
4BD4
102
{ACAD_REACTORS
330
4BD3
102
}
330
4BD3
100
AcDbDictionary
  0
DICTIONARY
  5
4B05
102
{ACAD_REACTORS
330
4B04
102
}
330
4B04
100
AcDbDictionary
  0
DICTIONARY
  5
4B08
102
{ACAD_REACTORS
330
4B07
102
}
330
4B07
100
AcDbDictionary
  0
DICTIONARY
  5
4B0B
102
{ACAD_REACTORS
330
4B0A
102
}
330
4B0A
100
AcDbDictionary
  0
DICTIONARY
  5
4C08
330
4AFB
100
AcDbDictionary
280
     1
  3
ACAD_XREC_ROUNDTRIP
360
4C09
  0
DICTIONARY
  5
4C06
330
4AFA
100
AcDbDictionary
280
     1
  3
ACAD_XREC_ROUNDTRIP
360
4C07
  0
DICTIONARY
  5
4C0A
330
4AFC
100
AcDbDictionary
280
     1
  3
ACAD_XREC_ROUNDTRIP
360
4C0B
  0
XRECORD
  5
4C09
102
{ACAD_REACTORS
330
4C08
102
}
330
4C08
100
AcDbXrecord
102
MATERIAL
148
0.0
149
0.0
149
0.0
 93
        0
 94
      127
282
     0
 72
     1
 77
     1
171
     1
175
     1
179
     1
273
     0
  0
XRECORD
  5
4C07
102
{ACAD_REACTORS
330
4C06
102
}
330
4C06
100
AcDbXrecord
102
MATERIAL
148
0.0
149
0.0
149
0.0
 93
        0
 94
      127
282
     0
 72
     1
 77
     1
171
     1
175
     1
179
     1
273
     0
  0
XRECORD
  5
4C0B
102
{ACAD_REACTORS
330
4C0A
102
}
330
4C0A
100
AcDbXrecord
102
MATERIAL
148
0.0
149
0.0
149
0.0
 93
        0
 94
      127
282
     0
 72
     1
 77
     1
171
     1
175
     1
179
     1
273
     0
  0
ENDSEC
  0
EOF
