  0
SECTION
  2
HEADER
  9
$ACADVER
  1
AC1014
  9
$ACADMAINTVER
 70
     9
  9
$DWGCODEPAGE
  3
ANSI_932
  9
$INSBASE
 10
0.0
 20
0.0
 30
0.0
  9
$EXTMIN
 10
-77.409920105064
 20
102.822366766981
 30
0.0
  9
$EXTMAX
 10
751.815023060082
 20
520.626395220234
 30
0.0
  9
$LIMMIN
 10
-360.747566795242
 20
4.457354754526
  9
$LIMMAX
 10
-162.153696144267
 20
287.675440264018
  9
$ORTHOMODE
 70
     1
  9
$REGENMODE
 70
     1
  9
$FILLMODE
 70
     1
  9
$QTEXTMODE
 70
     0
  9
$MIRRTEXT
 70
     1
  9
$DRAGMODE
 70
     2
  9
$LTSCALE
 40
1.0
  9
$OSMODE
 70
    32
  9
$ATTMODE
 70
     1
  9
$TEXTSIZE
 40
2.333873885063
  9
$TRACEWID
 40
1.0
  9
$TEXTSTYLE
  7
STANDARD
  9
$CLAYER
  8
寸法線
  9
$CELTYPE
  6
BYLAYER
  9
$CECOLOR
 62
     1
  9
$CELTSCALE
 40
10.0
  9
$DELOBJ
 70
     1
  9
$DISPSILH
 70
     0
  9
$DIMSCALE
 40
1.0
  9
$DIMASZ
 40
6.0
  9
$DIMEXO
 40
0.625
  9
$DIMDLI
 40
3.75
  9
$DIMRND
 40
0.0
  9
$DIMDLE
 40
0.0
  9
$DIMEXE
 40
1.25
  9
$DIMTP
 40
0.1
  9
$DIMTM
 40
0.1
  9
$DIMTXT
 40
8.0
  9
$DIMCEN
 40
2.5
  9
$DIMTSZ
 40
0.0
  9
$DIMTOL
 70
     0
  9
$DIMLIM
 70
     0
  9
$DIMTIH
 70
     0
  9
$DIMTOH
 70
     0
  9
$DIMSE1
 70
     0
  9
$DIMSE2
 70
     0
  9
$DIMTAD
 70
     1
  9
$DIMZIN
 70
     8
  9
$DIMBLK
  1
OPEN30
  9
$DIMASO
 70
     1
  9
$DIMSHO
 70
     1
  9
$DIMPOST
  1

  9
$DIMAPOST
  1

  9
$DIMALT
 70
     0
  9
$DIMALTD
 70
     2
  9
$DIMALTF
 40
0.0394
  9
$DIMLFAC
 40
1.0
  9
$DIMTOFL
 70
     1
  9
$DIMTVP
 40
1.0
  9
$DIMTIX
 70
     0
  9
$DIMSOXD
 70
     0
  9
$DIMSAH
 70
     0
  9
$DIMBLK1
  1

  9
$DIMBLK2
  1

  9
$DIMSTYLE
  2
ISO-25
  9
$DIMCLRD
 70
     0
  9
$DIMCLRE
 70
     0
  9
$DIMCLRT
 70
     0
  9
$DIMTFAC
 40
1.0
  9
$DIMGAP
 40
0.625
  9
$DIMJUST
 70
     0
  9
$DIMSD1
 70
     0
  9
$DIMSD2
 70
     0
  9
$DIMTOLJ
 70
     1
  9
$DIMTZIN
 70
     0
  9
$DIMALTZ
 70
     0
  9
$DIMALTTZ
 70
     0
  9
$DIMFIT
 70
     3
  9
$DIMUPT
 70
     0
  9
$DIMUNIT
 70
     2
  9
$DIMDEC
 70
     1
  9
$DIMTDEC
 70
     1
  9
$DIMALTU
 70
     2
  9
$DIMALTTD
 70
     2
  9
$DIMTXSTY
  7
STANDARD
  9
$DIMAUNIT
 70
     0
  9
$LUNITS
 70
     2
  9
$LUPREC
 70
     4
  9
$SKETCHINC
 40
1.0
  9
$FILLETRAD
 40
6.5
  9
$AUNITS
 70
     0
  9
$AUPREC
 70
     0
  9
$MENU
  1
.
  9
$ELEVATION
 40
0.0
  9
$PELEVATION
 40
0.0
  9
$THICKNESS
 40
0.0
  9
$LIMCHECK
 70
     0
  9
$CHAMFERA
 40
10.0
  9
$CHAMFERB
 40
10.0
  9
$CHAMFERC
 40
20.0
  9
$CHAMFERD
 40
0.0
  9
$SKPOLY
 70
     0
  9
$TDCREATE
 40
2450576.597302431
  9
$TDUPDATE
 40
2457191.650081736
  9
$TDINDWG
 40
1.3853729861
  9
$TDUSRTIMER
 40
1.3853729861
  9
$USRTIMER
 70
     1
  9
$ANGBASE
 50
0.0
  9
$ANGDIR
 70
     0
  9
$PDMODE
 70
     0
  9
$PDSIZE
 40
0.0
  9
$PLINEWID
 40
0.0
  9
$COORDS
 70
     1
  9
$SPLFRAME
 70
     0
  9
$SPLINETYPE
 70
     6
  9
$SPLINESEGS
 70
     8
  9
$ATTDIA
 70
     0
  9
$ATTREQ
 70
     1
  9
$HANDLING
 70
     1
  9
$HANDSEED
  5
5332
  9
$SURFTAB1
 70
     6
  9
$SURFTAB2
 70
     6
  9
$SURFTYPE
 70
     6
  9
$SURFU
 70
     6
  9
$SURFV
 70
     6
  9
$UCSNAME
  2

  9
$UCSORG
 10
0.0
 20
0.0
 30
0.0
  9
$UCSXDIR
 10
1.0
 20
0.0
 30
0.0
  9
$UCSYDIR
 10
0.0
 20
1.0
 30
0.0
  9
$PUCSNAME
  2

  9
$PUCSORG
 10
0.0
 20
0.0
 30
0.0
  9
$PUCSXDIR
 10
1.0
 20
0.0
 30
0.0
  9
$PUCSYDIR
 10
0.0
 20
1.0
 30
0.0
  9
$USERI1
 70
     0
  9
$USERI2
 70
     0
  9
$USERI3
 70
     0
  9
$USERI4
 70
     0
  9
$USERI5
 70
     0
  9
$USERR1
 40
0.0
  9
$USERR2
 40
0.0
  9
$USERR3
 40
0.0
  9
$USERR4
 40
0.0
  9
$USERR5
 40
0.0
  9
$WORLDVIEW
 70
     1
  9
$SHADEDGE
 70
     3
  9
$SHADEDIF
 70
    70
  9
$TILEMODE
 70
     0
  9
$MAXACTVP
 70
    16
  9
$PINSBASE
 10
0.0
 20
0.0
 30
0.0
  9
$PLIMCHECK
 70
     0
  9
$PEXTMIN
 10
4.746305129083
 20
2.673622616852
 30
0.0
  9
$PEXTMAX
 10
404.746305129083
 20
282.673622616852
 30
0.0
  9
$PLIMMIN
 10
-7.007122192383
 20
-7.007118782997
  9
$PLIMMAX
 10
417.718108215332
 20
293.315290427208
  9
$UNITMODE
 70
     0
  9
$VISRETAIN
 70
     0
  9
$PLINEGEN
 70
     0
  9
$PSLTSCALE
 70
     1
  9
$TREEDEPTH
 70
  3020
  9
$PICKSTYLE
 70
     1
  9
$CMLSTYLE
  2
STANDARD
  9
$CMLJUST
 70
     0
  9
$CMLSCALE
 40
1.0
  9
$PROXYGRAPHICS
 70
     1
  9
$MEASUREMENT
 70
     1
  0
ENDSEC
  0
SECTION
  2
CLASSES
  0
CLASS
  1
ACDBDICTIONARYWDFLT
  2
AcDbDictionaryWithDefault
  3
ObjectDBX Classes
 90
        0
280
     0
281
     0
  0
CLASS
  1
ACDBPLACEHOLDER
  2
AcDbPlaceHolder
  3
ObjectDBX Classes
 90
        0
280
     0
281
     0
  0
CLASS
  1
LAYOUT
  2
AcDbLayout
  3
ObjectDBX Classes
 90
        0
280
     0
281
     0
  0
CLASS
  1
SORTENTSTABLE
  2
AcDbSortentsTable
  3
ObjectDBX Classes
 90
        0
280
     0
281
     0
  0
CLASS
  1
VISUALSTYLE
  2
AcDbVisualStyle
  3
ObjectDBX Classes
 90
     4095
280
     0
281
     0
  0
CLASS
  1
SCALE
  2
AcDbScale
  3
ObjectDBX Classes
 90
     1153
280
     0
281
     0
  0
CLASS
  1
MATERIAL
  2
AcDbMaterial
  3
ObjectDBX Classes
 90
     1153
280
     0
281
     0
  0
CLASS
  1
TABLESTYLE
  2
AcDbTableStyle
  3
ObjectDBX Classes
 90
     4095
280
     0
281
     0
  0
CLASS
  1
MLEADERSTYLE
  2
AcDbMLeaderStyle
  3
ACDB_MLEADERSTYLE_CLASS
 90
     4095
280
     0
281
     0
  0
CLASS
  1
SUN
  2
AcDbSun
  3
SCENEOE
 90
     1153
280
     0
281
     0
  0
CLASS
  1
DICTIONARYVAR
  2
AcDbDictionaryVar
  3
ObjectDBX Classes
 90
        0
280
     0
281
     0
  0
CLASS
  1
CELLSTYLEMAP
  2
AcDbCellStyleMap
  3
ObjectDBX Classes
 90
     1152
280
     0
281
     0
  0
CLASS
  1
XRECORD
  2
AcDbXrecord
  3
ObjectDBX Classes
 90
        0
280
     0
281
     0
  0
CLASS
  1
LWPOLYLINE
  2
AcDbPolyline
  3
ObjectDBX Classes
 90
        0
280
     0
281
     1
  0
CLASS
  1
HATCH
  2
AcDbHatch
  3
ObjectDBX Classes
 90
        0
280
     0
281
     1
  0
ENDSEC
  0
SECTION
  2
TABLES
  0
TABLE
  2
VPORT
  5
8
102
{ACAD_XDICTIONARY
360
532A
102
}
330
0
100
AcDbSymbolTable
 70
     2
  0
VPORT
  5
48A1
330
8
100
AcDbSymbolTableRecord
100
AcDbViewportTableRecord
  2
*ACTIVE
 70
     0
 10
0.0
 20
0.0
 11
1.0
 21
1.0
 12
113.742443045076
 22
178.018081531528
 13
0.0
 23
0.0
 14
1.0
 24
1.0
 15
0.0
 25
0.0
 16
0.0
 26
0.0
 36
1.0
 17
0.0
 27
0.0
 37
0.0
 40
182.25270055512
 41
1.56746031746
 42
50.0
 43
0.0
 44
0.0
 50
0.0
 51
0.0
 71
    16
 72
   100
 73
     1
 74
     0
 75
     0
 76
     0
 77
     0
 78
     0
  0
ENDTAB
  0
TABLE
  2
LTYPE
  5
5
330
0
100
AcDbSymbolTable
 70
     5
  0
LTYPE
  5
14
330
5
100
AcDbSymbolTableRecord
100
AcDbLinetypeTableRecord
  2
BYBLOCK
 70
     0
  3

 72
    65
 73
     0
 40
0.0
  0
LTYPE
  5
15
330
5
100
AcDbSymbolTableRecord
100
AcDbLinetypeTableRecord
  2
BYLAYER
 70
     0
  3

 72
    65
 73
     0
 40
0.0
  0
LTYPE
  5
16
330
5
100
AcDbSymbolTableRecord
100
AcDbLinetypeTableRecord
  2
CONTINUOUS
 70
     0
  3
Solid line
 72
    65
 73
     0
 40
0.0
  0
LTYPE
  5
1EC
330
5
100
AcDbSymbolTableRecord
100
AcDbLinetypeTableRecord
  2
CENTER
 70
     0
  3
____ _ ____ _ ____ _ ____ _ ____ _ ____ _ ____ 
 72
    65
 73
     4
 40
2.0
 49
1.25
 74
     0
 49
-0.25
 74
     0
 49
0.25
 74
     0
 49
-0.25
 74
     0
  0
LTYPE
  5
1ED
330
5
100
AcDbSymbolTableRecord
100
AcDbLinetypeTableRecord
  2
DASHED
 70
     0
  3
__ __ __ __ __ __ __ __ __ __ __ __ __ __ __ __
 72
    65
 73
     2
 40
0.75
 49
0.5
 74
     0
 49
-0.25
 74
     0
  0
LTYPE
  5
48EC
330
5
100
AcDbSymbolTableRecord
100
AcDbLinetypeTableRecord
  2
DASHED2
 70
     0
  3
Dashed (.5x) _ _ _ _ _ _ _ _ _ _ _ _ _ _ _ _ _
 72
    65
 73
     2
 40
9.525
 49
6.35
 74
     0
 49
-3.175
 74
     0
  0
LTYPE
  5
48EE
330
5
100
AcDbSymbolTableRecord
100
AcDbLinetypeTableRecord
  2
CENTER2
 70
     0
  3
Center (.5x) ___ _ ___ _ ___ _ ___ _ ___ _ ___
 72
    65
 73
     4
 40
28.575
 49
19.05
 74
     0
 49
-3.175
 74
     0
 49
3.175
 74
     0
 49
-3.175
 74
     0
  0
ENDTAB
  0
TABLE
  2
LAYER
  5
2
102
{ACAD_XDICTIONARY
360
29EA
102
}
330
0
100
AcDbSymbolTable
 70
    12
  0
LAYER
  5
F
330
2
100
AcDbSymbolTableRecord
100
AcDbLayerTableRecord
  2
0
 70
     0
 62
     7
  6
CONTINUOUS
  0
LAYER
  5
61
330
2
100
AcDbSymbolTableRecord
100
AcDbLayerTableRecord
  2
図枠太線
 70
     0
 62
   251
  6
CONTINUOUS
  0
LAYER
  5
62
330
2
100
AcDbSymbolTableRecord
100
AcDbLayerTableRecord
  2
図枠細線
 70
     0
 62
   252
  6
CONTINUOUS
  0
LAYER
  5
63
330
2
100
AcDbSymbolTableRecord
100
AcDbLayerTableRecord
  2
図枠ロゴマーク
 70
     0
 62
   253
  6
CONTINUOUS
  0
LAYER
  5
1EF
330
2
100
AcDbSymbolTableRecord
100
AcDbLayerTableRecord
  2
外形線
 70
     0
 62
     7
  6
CONTINUOUS
  0
LAYER
  5
1F0
330
2
100
AcDbSymbolTableRecord
100
AcDbLayerTableRecord
  2
寸法線
 70
     0
 62
     1
  6
CONTINUOUS
  0
LAYER
  5
1F1
330
2
100
AcDbSymbolTableRecord
100
AcDbLayerTableRecord
  2
中心線
 70
     0
 62
     4
  6
CENTER
  0
LAYER
  5
1F4
330
2
100
AcDbSymbolTableRecord
100
AcDbLayerTableRecord
  2
DEFPOINTS
 70
     0
 62
     7
  6
CONTINUOUS
  0
LAYER
  5
2AA2
330
2
100
AcDbSymbolTableRecord
100
AcDbLayerTableRecord
  2
下書線
 70
     0
 62
     2
  6
CONTINUOUS
  0
LAYER
  5
2AA4
330
2
100
AcDbSymbolTableRecord
100
AcDbLayerTableRecord
  2
細線
 70
     0
 62
     6
  6
CONTINUOUS
  0
LAYER
  5
48EA
330
2
100
AcDbSymbolTableRecord
100
AcDbLayerTableRecord
  2
寸法線_文字
 70
     0
 62
     1
  6
CONTINUOUS
  0
LAYER
  5
48EB
330
2
100
AcDbSymbolTableRecord
100
AcDbLayerTableRecord
  2
隠れ線
 70
     0
 62
     3
  6
DASHED2
  0
ENDTAB
  0
TABLE
  2
STYLE
  5
3
330
0
100
AcDbSymbolTable
 70
     3
  0
STYLE
  5
10
330
3
100
AcDbSymbolTableRecord
100
AcDbTextStyleTableRecord
  2
STANDARD
 70
     0
 40
0.0
 41
1.0
 50
0.0
 71
     0
 42
2.333873885063
  3
ISOCP
  4
bigfont.shx
  0
STYLE
  5
64
330
3
100
AcDbSymbolTableRecord
100
AcDbTextStyleTableRecord
  2
EXCADSTD
 70
     0
 40
0.0
 41
1.0
 50
0.0
 71
     0
 42
0.2
  3
monotxt
  4
bigfont
  0
STYLE
  5
2B21
330
3
100
AcDbSymbolTableRecord
100
AcDbTextStyleTableRecord
  2
EXCADVERT
 70
     4
 40
0.0
 41
1.0
 50
0.0
 71
     0
 42
0.286885
  3
monotxt
  4
bigfont
  0
ENDTAB
  0
TABLE
  2
VIEW
  5
6
330
0
100
AcDbSymbolTable
 70
     0
  0
ENDTAB
  0
TABLE
  2
UCS
  5
7
330
0
100
AcDbSymbolTable
 70
     0
  0
ENDTAB
  0
TABLE
  2
APPID
  5
9
330
0
100
AcDbSymbolTable
 70
     3
  0
APPID
  5
11
330
9
100
AcDbSymbolTableRecord
100
AcDbRegAppTableRecord
  2
ACAD
 70
     0
  0
APPID
  5
4B50
330
9
100
AcDbSymbolTableRecord
100
AcDbRegAppTableRecord
  2
ACAD_MLEADERVER
 70
     0
  0
APPID
  5
4D58
330
9
100
AcDbSymbolTableRecord
100
AcDbRegAppTableRecord
  2
ACADANNOTATIVE
 70
     0
  0
ENDTAB
  0
TABLE
  2
DIMSTYLE
  5
A
330
0
100
AcDbSymbolTable
 70
     2
  0
DIMSTYLE
105
1D
330
A
100
AcDbSymbolTableRecord
100
AcDbDimStyleTableRecord
  2
STANDARD
 70
     0
  3

  4

  5

  6

  7

 40
1.0
 41
0.18
 42
0.0625
 43
0.38
 44
0.18
 45
0.0
 46
0.0
 47
0.0
 48
0.0
140
0.18
141
0.09
142
0.0
143
25.4
144
1.0
145
0.0
146
1.0
147
0.09
 71
     0
 72
     0
 73
     1
 74
     1
 75
     0
 76
     0
 77
     0
 78
     0
170
     0
171
     2
172
     0
173
     0
174
     0
175
     0
176
     0
177
     0
178
     0
270
     2
271
     4
272
     4
273
     2
274
     2
340
10
275
     0
280
     0
281
     0
282
     0
283
     1
284
     0
285
     0
286
     0
287
     3
288
     0
  0
DIMSTYLE
105
24
102
{ACAD_REACTORS
330
45B0
330
45B1
330
45B2
330
45B5
330
45CA
330
45CB
330
4617
330
4618
330
4619
330
4636
330
4637
330
4D1A
330
4D2A
330
4D2B
102
}
330
A
100
AcDbSymbolTableRecord
100
AcDbDimStyleTableRecord
  2
ISO-25
 70
     0
  3

  4

  5

  6

  7

 40
1.0
 41
2.5
 42
0.625
 43
3.75
 44
1.25
 45
0.0
 46
0.0
 47
0.0
 48
0.0
140
2.5
141
2.5
142
0.0
143
0.0394
144
1.0
145
1.0
146
1.0
147
0.625
 71
     0
 72
     0
 73
     1
 74
     0
 75
     0
 76
     0
 77
     1
 78
     8
170
     0
171
     2
172
     1
173
     0
174
     0
175
     0
176
     0
177
     0
178
     0
270
     2
271
     4
272
     4
273
     2
274
     2
340
10
275
     0
280
     0
281
     0
282
     0
283
     1
284
     0
285
     0
286
     0
287
     3
288
     0
  0
ENDTAB
  0
TABLE
  2
BLOCK_RECORD
  5
1
330
0
100
AcDbSymbolTable
 70
    61
  0
BLOCK_RECORD
  5
1A
330
1
100
AcDbSymbolTableRecord
100
AcDbBlockTableRecord
  2
*MODEL_SPACE
  0
BLOCK_RECORD
  5
28FB
330
1
100
AcDbSymbolTableRecord
100
AcDbBlockTableRecord
  2
*PAPER_SPACE
  0
BLOCK_RECORD
  5
2A32
330
1
100
AcDbSymbolTableRecord
100
AcDbBlockTableRecord
  2
A3横用_タイトル
1001
ACAD
1000
DesignCenter Data
1002
{
1070
     1
1070
     4
1002
}
  0
BLOCK_RECORD
  5
2AF4
330
1
100
AcDbSymbolTableRecord
100
AcDbBlockTableRecord
  2
_OPEN30
  0
BLOCK_RECORD
  5
34B1
330
1
100
AcDbSymbolTableRecord
100
AcDbBlockTableRecord
  2
パドル_W1
  0
BLOCK_RECORD
  5
3515
330
1
100
AcDbSymbolTableRecord
100
AcDbBlockTableRecord
  2
PRL-100_ケース
  0
BLOCK_RECORD
  5
395C
330
1
100
AcDbSymbolTableRecord
100
AcDbBlockTableRecord
  2
A$C135842B4
  0
BLOCK_RECORD
  5
3979
330
1
100
AcDbSymbolTableRecord
100
AcDbBlockTableRecord
  2
A$C511028D3
  0
BLOCK_RECORD
  5
3994
330
1
100
AcDbSymbolTableRecord
100
AcDbBlockTableRecord
  2
A$C76E55026
  0
BLOCK_RECORD
  5
3EC9
330
1
100
AcDbSymbolTableRecord
100
AcDbBlockTableRecord
  2
A$C480F1F2B
  0
BLOCK_RECORD
  5
4645
330
1
100
AcDbSymbolTableRecord
100
AcDbBlockTableRecord
  2
*D8
  0
BLOCK_RECORD
  5
4651
330
1
100
AcDbSymbolTableRecord
100
AcDbBlockTableRecord
  2
*D9
  0
BLOCK_RECORD
  5
465D
330
1
100
AcDbSymbolTableRecord
100
AcDbBlockTableRecord
  2
*D10
  0
BLOCK_RECORD
  5
466B
330
1
100
AcDbSymbolTableRecord
100
AcDbBlockTableRecord
  2
*D11
  0
BLOCK_RECORD
  5
4677
330
1
100
AcDbSymbolTableRecord
100
AcDbBlockTableRecord
  2
*D12
  0
BLOCK_RECORD
  5
4682
330
1
100
AcDbSymbolTableRecord
100
AcDbBlockTableRecord
  2
*D13
  0
BLOCK_RECORD
  5
468D
330
1
100
AcDbSymbolTableRecord
100
AcDbBlockTableRecord
  2
*D14
  0
BLOCK_RECORD
  5
469B
330
1
100
AcDbSymbolTableRecord
100
AcDbBlockTableRecord
  2
*D15
  0
BLOCK_RECORD
  5
46A8
330
1
100
AcDbSymbolTableRecord
100
AcDbBlockTableRecord
  2
*D16
  0
BLOCK_RECORD
  5
46B6
330
1
100
AcDbSymbolTableRecord
100
AcDbBlockTableRecord
  2
*D17
  0
BLOCK_RECORD
  5
46C2
330
1
100
AcDbSymbolTableRecord
100
AcDbBlockTableRecord
  2
*D18
  0
BLOCK_RECORD
  5
4CCD
330
1
100
AcDbSymbolTableRecord
100
AcDbBlockTableRecord
  2
パドル_W1立面図
  0
BLOCK_RECORD
  5
4D2C
330
1
100
AcDbSymbolTableRecord
100
AcDbBlockTableRecord
  2
*D58
  0
BLOCK_RECORD
  5
4D3A
330
1
100
AcDbSymbolTableRecord
100
AcDbBlockTableRecord
  2
*D59
  0
BLOCK_RECORD
  5
4D46
330
1
100
AcDbSymbolTableRecord
100
AcDbBlockTableRecord
  2
*D60
  0
ENDTAB
  0
ENDSEC
  0
SECTION
  2
BLOCKS
  0
BLOCK
  5
1B
330
1A
100
AcDbEntity
  8
0
100
AcDbBlockBegin
  2
*MODEL_SPACE
 70
     0
 10
0.0
 20
0.0
 30
0.0
  3
*MODEL_SPACE
  1

  0
ENDBLK
  5
1C
330
1A
100
AcDbEntity
  8
0
100
AcDbBlockEnd
  0
BLOCK
  5
28FD
330
28FB
100
AcDbEntity
 67
     1
  8
0
 48
10.0
100
AcDbBlockBegin
  2
*PAPER_SPACE
 70
     0
 10
0.0
 20
0.0
 30
0.0
  3
*PAPER_SPACE
  1

  0
ENDBLK
  5
28FE
330
28FB
100
AcDbEntity
 67
     1
  8
0
 48
10.0
100
AcDbBlockEnd
  0
BLOCK
  5
2A33
330
2A32
100
AcDbEntity
  8
0
100
AcDbBlockBegin
  2
A3横用_タイトル
 70
     0
 10
0.0
 20
0.0
 30
0.0
  3
A3横用_タイトル
  1
A3横用_タイトル
  0
LINE
  5
2A34
330
2A32
100
AcDbEntity
  8
図枠細線
  6
CONTINUOUS
 62
   252
100
AcDbLine
 10
205.098414535793
 20
33.525959753527
 30
0.0
 11
305.098414535793
 21
33.525959753527
 31
0.0
  0
LINE
  5
2A35
330
2A32
100
AcDbEntity
  8
図枠太線
  6
CONTINUOUS
 62
   251
100
AcDbLine
 10
205.098414535793
 20
23.525959753527
 30
0.0
 11
305.098414535793
 21
23.525959753527
 31
0.0
  0
LINE
  5
2A36
330
2A32
100
AcDbEntity
  8
図枠細線
  6
CONTINUOUS
100
AcDbLine
 10
5.098414535793
 20
23.525959753527
 30
0.0
 11
105.098414535793
 21
23.525959753527
 31
0.0
  0
LINE
  5
2A37
330
2A32
100
AcDbEntity
  8
図枠細線
  6
CONTINUOUS
 62
   252
100
AcDbLine
 10
5.098414535793
 20
36.725957753527
 30
0.0
 11
105.098414535793
 21
36.725957753527
 31
0.0
  0
LINE
  5
2A38
330
2A32
100
AcDbEntity
  8
図枠細線
  6
CONTINUOUS
 62
   252
100
AcDbLine
 10
5.098414535793
 20
30.125957753527
 30
0.0
 11
105.098414535793
 21
30.125957753527
 31
0.0
  0
LINE
  5
2A39
330
2A32
100
AcDbEntity
  8
図枠細線
  6
CONTINUOUS
 62
   252
100
AcDbLine
 10
5.098414535793
 20
16.725959753527
 30
0.0
 11
105.098414535793
 21
16.725959753527
 31
0.0
  0
LINE
  5
2A3A
330
2A32
100
AcDbEntity
  8
図枠細線
  6
CONTINUOUS
 62
   252
100
AcDbLine
 10
5.098414535793
 20
10.125959753527
 30
0.0
 11
105.098414535793
 21
10.125959753527
 31
0.0
  0
LINE
  5
2A3B
330
2A32
100
AcDbEntity
  8
図枠細線
  6
CONTINUOUS
100
AcDbLine
 10
105.098414535793
 20
23.525961753527
 30
0.0
 11
205.098414535793
 21
23.525959753527
 31
0.0
  0
LINE
  5
2A3C
330
2A32
100
AcDbEntity
  8
図枠細線
  6
CONTINUOUS
 62
   252
100
AcDbLine
 10
138.398414535793
 20
43.525959753527
 30
0.0
 11
138.398414535793
 21
18.525957753527
 31
0.0
  0
LINE
  5
2A3D
330
2A32
100
AcDbEntity
  8
図枠細線
  6
CONTINUOUS
 62
   252
100
AcDbLine
 10
171.698414535793
 20
43.525959753527
 30
0.0
 11
171.698414535793
 21
18.525957753527
 31
0.0
  0
LINE
  5
2A3E
330
2A32
100
AcDbEntity
  8
図枠細線
  6
CONTINUOUS
 62
   252
100
AcDbLine
 10
305.098414535793
 20
23.525959753527
 30
0.0
 11
405.098414535793
 21
23.525959753527
 31
0.0
  0
TEXT
  5
2A3F
330
2A32
100
AcDbEntity
  8
図枠ロゴマーク
  6
CONTINUOUS
 62
   253
100
AcDbText
 10
206.102509212755
 20
13.294257570546
 30
0.0
 40
7.0
  1
東和制電工業株式会社
 50
0.016555220185
 41
1.186384129432
  7
EXCADSTD
 72
     5
 11
303.544188309143
 21
13.322412672217
 31
0.0
100
AcDbText
  0
MTEXT
  5
2A40
330
2A32
100
AcDbEntity
  8
図枠細線
100
AcDbMText
 10
6.356764112375
 20
41.976594175478
 30
0.0
 40
2.5
 41
49.938282706292
 71
     1
 72
     5
  1
{\Fmonotxt.shx,bigfont.shx|c128;図暦　CHANGE　NOTICE}
  0
MTEXT
  5
2A41
330
2A32
100
AcDbEntity
  8
図枠細線
 48
10.0
100
AcDbMText
 10
306.544114926828
 20
41.701835800934
 30
0.0
 40
2.5
 41
28.002809618823
 71
     1
 72
     5
  1
{\Fmonotxt.shx,bigfont.shx|c128;名称　TITLE}
  0
MTEXT
  5
2A42
330
2A32
100
AcDbEntity
  8
図枠細線
 48
10.0
100
AcDbMText
 10
307.329617114284
 20
21.606206797226
 30
0.0
 40
2.5
 41
24.385612216707
 71
     1
 72
     5
  1
{\Fmonotxt.shx,bigfont.shx|c128;図面番号\PDRG.　No.}
  0
MTEXT
  5
2A43
330
2A32
100
AcDbEntity
  8
図枠細線
 48
10.0
100
AcDbMText
 10
173.726349404609
 20
21.73680662198
 30
0.0
 40
2.5
 41
25.735090160813
 71
     1
 72
     5
  1
{\Fmonotxt.shx,bigfont.shx|c128;日付 DATE}
  0
MTEXT
  5
2A44
330
2A32
100
AcDbEntity
  8
図枠細線
 48
10.0
100
AcDbMText
 10
173.48708833982
 20
41.621592044998
 30
0.0
 40
2.5
 41
24.983741184205
 71
     1
 72
     5
  1
{\Fmonotxt.shx,bigfont.shx|c128;製図　DRAWN}
  0
MTEXT
  5
2A45
330
2A32
100
AcDbEntity
  8
図枠細線
 48
10.0
100
AcDbMText
 10
139.28009927741
 20
21.866713069868
 30
0.0
 40
2.5
 41
22.629632913243
 71
     1
 72
     5
  1
{\Fmonotxt.shx,bigfont.shx|c128;尺度　SCALE}
  0
MTEXT
  5
2A46
330
2A32
100
AcDbEntity
  8
図枠細線
 48
10.0
100
AcDbMText
 10
139.910091179835
 20
41.311840415554
 30
0.0
 40
2.5
 41
28.998753428368
 71
     1
 72
     5
  1
{\Fmonotxt.shx,bigfont.shx|c128;検図  CHECKED}
  0
MTEXT
  5
2A47
330
2A32
100
AcDbEntity
  8
図枠細線
 48
10.0
100
AcDbMText
 10
114.253294667728
 20
21.916124850174
 30
0.0
 40
3.0
 41
19.692400475383
 71
     1
 72
     5
  1
{\Fmonotxt.shx,bigfont.shx|c128;第三角法}
  0
MTEXT
  5
2A48
330
2A32
100
AcDbEntity
  8
図枠細線
 48
10.0
100
AcDbMText
 10
108.986959929915
 20
15.282880185837
 30
0.0
 40
2.5
 41
27.954882823547
 71
     1
 72
     5
  1
{\Fmonotxt.shx,bigfont.shx|c128;THIRD ANGLE\PPROJECTION}
  0
MTEXT
  5
2A49
330
2A32
100
AcDbEntity
  8
図枠細線
 48
10.0
100
AcDbMText
 10
106.319432640184
 20
41.511437145487
 30
0.0
 40
2.5
 41
28.233595265074
 71
     1
 72
     5
  1
{\Fmonotxt.shx,bigfont.shx|c128;承認 APPROVED}
  0
LINE
  5
2A4A
330
2A32
100
AcDbEntity
  8
図枠太線
  6
CONTINUOUS
 62
   251
100
AcDbLine
 10
5.098414535793
 20
3.525959753527
 30
0.0
 11
405.098414535793
 21
3.525959753527
 31
0.0
  0
LINE
  5
2A4B
330
2A32
100
AcDbEntity
  8
図枠太線
 48
10.0
100
AcDbLine
 10
5.098414535793
 20
3.525959753527
 30
0.0
 11
5.098414535793
 21
43.525959753527
 31
0.0
  0
LINE
  5
2A4C
330
2A32
100
AcDbEntity
  8
図枠太線
  6
CONTINUOUS
 62
   251
100
AcDbLine
 10
105.098414535793
 20
3.525959753527
 30
0.0
 11
105.098414535793
 21
43.525959753527
 31
0.0
  0
LINE
  5
2A4D
330
2A32
100
AcDbEntity
  8
図枠細線
  6
CONTINUOUS
 62
   252
100
AcDbLine
 10
138.398414535793
 20
3.525959753527
 30
0.0
 11
138.398414535793
 21
18.525957753527
 31
0.0
  0
LINE
  5
2A4E
330
2A32
100
AcDbEntity
  8
図枠細線
  6
CONTINUOUS
 62
   252
100
AcDbLine
 10
171.698414535793
 20
3.525959753527
 30
0.0
 11
171.698414535793
 21
18.525957753527
 31
0.0
  0
LINE
  5
2A4F
330
2A32
100
AcDbEntity
  8
図枠太線
  6
CONTINUOUS
 62
   251
100
AcDbLine
 10
205.098414535793
 20
3.525959753527
 30
0.0
 11
205.098414535793
 21
43.525959753527
 31
0.0
  0
LINE
  5
2A50
330
2A32
100
AcDbEntity
  8
図枠太線
 48
10.0
100
AcDbLine
 10
405.098414535793
 20
43.525959753527
 30
0.0
 11
405.098414535793
 21
3.525959753527
 31
0.0
  0
TEXT
  5
2A51
330
2A32
100
AcDbEntity
  8
図枠細線
  6
CONTINUOUS
 62
   252
100
AcDbText
 10
208.519754474572
 20
6.482358407285
 30
0.0
 40
3.5
  1
ＴＯＷＡ　ＳＥＩＤＥＮ　ＩＮＤＵＳＴＲＩＡＬ　ＣＯ．，ＬＴＤ．
 41
0.746656297509
  7
EXCADSTD
 72
     5
 11
303.295327171727
 21
6.482358407285
 31
0.0
100
AcDbText
  0
LINE
  5
2A52
330
2A32
100
AcDbEntity
  8
図枠太線
  6
CONTINUOUS
 62
   251
100
AcDbLine
 10
305.098414535793
 20
3.525959753527
 30
0.0
 11
305.098414535793
 21
43.525959753527
 31
0.0
  0
ENDBLK
  5
2A53
330
2A32
100
AcDbEntity
  8
0
100
AcDbBlockEnd
  0
BLOCK
  5
2AF8
330
2AF4
100
AcDbEntity
  8
0
 48
10.0
100
AcDbBlockBegin
  2
_OPEN30
 70
     0
 10
0.0
 20
0.0
 30
0.0
  3
_OPEN30
  1
_OPEN30
  0
LINE
  5
2AF5
330
2AF4
100
AcDbEntity
  8
0
  6
BYBLOCK
 62
     0
100
AcDbLine
 10
-1.0
 20
0.26794919
 30
0.0
 11
0.0
 21
0.0
 31
0.0
  0
LINE
  5
2AF6
330
2AF4
100
AcDbEntity
  8
0
  6
BYBLOCK
 62
     0
100
AcDbLine
 10
0.0
 20
0.0
 30
0.0
 11
-1.0
 21
-0.26794919
 31
0.0
  0
LINE
  5
2AF7
330
2AF4
100
AcDbEntity
  8
0
  6
BYBLOCK
 62
     0
100
AcDbLine
 10
0.0
 20
0.0
 30
0.0
 11
-1.0
 21
0.0
 31
0.0
  0
ENDBLK
  5
2AF9
330
2AF4
100
AcDbEntity
  8
0
 48
10.0
100
AcDbBlockEnd
  0
BLOCK
  5
34B2
330
34B1
100
AcDbEntity
  8
0
 48
10.0
100
AcDbBlockBegin
  2
パドル_W1
 70
     0
 10
0.0
 20
0.0
 30
0.0
  3
パドル_W1
  1
パドル_W1
  0
LINE
  5
34B3
330
34B1
100
AcDbEntity
  8
中心線
 48
10.0
100
AcDbLine
 10
124.6832879095
 20
220.674073777677
 30
0.0
 11
131.9189439095
 21
220.674073777677
 31
0.0
  0
LINE
  5
34B4
330
34B1
100
AcDbEntity
  8
外形線
 48
10.0
100
AcDbLine
 10
58.3011159095
 20
260.651761921811
 30
0.0
 11
58.3011159095
 21
180.651761921811
 31
0.0
  0
LINE
  5
34B5
330
34B1
100
AcDbEntity
  8
外形線
 48
10.0
100
AcDbLine
 10
58.3011159095
 20
180.651761921811
 30
0.0
 11
123.3011159095
 21
180.651761921811
 31
0.0
  0
LINE
  5
34B6
330
34B1
100
AcDbEntity
  8
外形線
 48
10.0
100
AcDbLine
 10
138.3011159095
 20
208.651761921811
 30
0.0
 11
138.3011159095
 21
212.376811207105
 31
0.0
  0
LINE
  5
34B7
330
34B1
100
AcDbEntity
  8
外形線
 48
10.0
100
AcDbLine
 10
123.3011159095
 20
260.651761921811
 30
0.0
 11
58.3011159095
 21
260.651761921811
 31
0.0
  0
LINE
  5
34B8
330
34B1
100
AcDbEntity
  8
外形線
 48
10.0
100
AcDbLine
 10
138.3011159095
 20
232.651761921811
 30
0.0
 11
123.3011159095
 21
260.651761921811
 31
0.0
  0
LINE
  5
34B9
330
34B1
100
AcDbEntity
  8
外形線
 48
10.0
100
AcDbLine
 10
138.3011159095
 20
208.651761921811
 30
0.0
 11
123.3011159095
 21
180.651761921811
 31
0.0
  0
LINE
  5
34BA
330
34B1
100
AcDbEntity
  8
外形線
 48
10.0
100
AcDbLine
 10
153.3011159095
 20
212.376811207105
 30
0.0
 11
153.3011159095
 21
228.941629207105
 31
0.0
  0
LINE
  5
34BB
330
34B1
100
AcDbEntity
  8
外形線
100
AcDbLine
 10
125.0147379095
 20
212.376811207105
 30
0.0
 11
153.3011159095
 21
212.376811207105
 31
0.0
  0
LINE
  5
34BC
330
34B1
100
AcDbEntity
  8
細線
100
AcDbLine
 10
153.2891519095
 20
216.518045207105
 30
0.0
 11
124.6692799095
 21
216.518045207105
 31
0.0
  0
LINE
  5
34BD
330
34B1
100
AcDbEntity
  8
外形線
100
AcDbLine
 10
125.0147379095
 20
228.941629207105
 30
0.0
 11
123.3011159095
 21
227.228007207105
 31
0.0
  0
ARC
  5
34BE
330
34B1
100
AcDbEntity
  8
細線
100
AcDbCircle
 10
126.4810479095
 20
227.420755207105
 30
0.0
 40
3.18575
100
AcDbArc
 50
183.469852255156
 51
235.339263082109
  0
LINE
  5
34BF
330
34B1
100
AcDbEntity
  8
細線
100
AcDbLine
 10
153.2891519095
 20
224.800395207105
 30
0.0
 11
124.6692799095
 21
224.800395207105
 31
0.0
  0
ARC
  5
34C0
330
34B1
100
AcDbEntity
  8
細線
100
AcDbCircle
 10
126.4810479095
 20
213.897685207105
 30
0.0
 40
3.18575
100
AcDbArc
 50
124.660776613574
 51
176.530130144749
  0
LINE
  5
34C1
330
34B1
100
AcDbEntity
  8
外形線
100
AcDbLine
 10
123.3011159095
 20
227.228007207105
 30
0.0
 11
123.3011159095
 21
214.090433207105
 31
0.0
  0
CIRCLE
  5
34C2
330
34B1
100
AcDbEntity
  8
外形線
100
AcDbCircle
 10
128.3011159095
 20
220.674073777677
 30
0.0
 40
2.28479
  0
ARC
  5
34C3
330
34B1
100
AcDbEntity
  8
細線
100
AcDbCircle
 10
130.2525019095
 20
220.659219207105
 30
0.0
 40
6.951389999999999
100
AcDbArc
 50
143.43540034864
 51
216.564582051267
  0
LINE
  5
34C4
330
34B1
100
AcDbEntity
  8
中心線
 48
10.0
100
AcDbLine
 10
128.3011159095
 20
224.291901777677
 30
0.0
 11
128.3011159095
 21
217.056245777676
 31
0.0
  0
LINE
  5
34C5
330
34B1
100
AcDbEntity
  8
外形線
100
AcDbLine
 10
125.0147379095
 20
212.376811207105
 30
0.0
 11
123.3011159095
 21
214.090433207105
 31
0.0
  0
LINE
  5
34C6
330
34B1
100
AcDbEntity
  8
外形線
100
AcDbLine
 10
125.0147379095
 20
228.941629207105
 30
0.0
 11
153.3011159095
 21
228.941629207105
 31
0.0
  0
LINE
  5
34C7
330
34B1
100
AcDbEntity
  8
外形線
 48
10.0
100
AcDbLine
 10
138.3011159095
 20
228.941629207105
 30
0.0
 11
138.3011159095
 21
232.651761921811
 31
0.0
  0
ENDBLK
  5
34C8
330
34B1
100
AcDbEntity
  8
0
 48
10.0
100
AcDbBlockEnd
  0
BLOCK
  5
3516
330
3515
100
AcDbEntity
  8
0
 48
10.0
100
AcDbBlockBegin
  2
PRL-100_ケース
 70
     0
 10
0.0
 20
0.0
 30
0.0
  3
PRL-100_ケース
  1
PRL-100_ケース
  0
ARC
  5
3517
330
3515
100
AcDbEntity
  8
細線
100
AcDbCircle
 10
-2866.31607772969
 20
752.770649344789
 30
0.0
 40
36.766532
100
AcDbArc
 50
68.885514212384
 51
115.211785839405
  0
LINE
  5
3518
330
3515
100
AcDbEntity
  8
外形線
100
AcDbLine
 10
-2880.92594172969
 20
759.253621344789
 30
0.0
 11
-2852.93704972969
 21
759.253621344789
 31
0.0
  0
LINE
  5
3519
330
3515
100
AcDbEntity
  8
外形線
100
AcDbLine
 10
-2879.49796372969
 20
754.112813344789
 30
0.0
 11
-2854.36514972969
 21
754.112813344789
 31
0.0
  0
ARC
  5
351A
330
3515
100
AcDbEntity
  8
細線
100
AcDbCircle
 10
-2866.93155772969
 20
768.649495344789
 30
0.0
 40
14.53669
100
AcDbArc
 50
244.3907930338
 51
295.609209213942
  0
LINE
  5
351B
330
3515
100
AcDbEntity
  8
外形線
100
AcDbLine
 10
-2878.12638172969
 20
763.537647344789
 30
0.0
 11
-2855.72391572969
 21
763.537647344789
 31
0.0
  0
LINE
  5
351C
330
3515
100
AcDbEntity
  8
外形線
100
AcDbLine
 10
-2890.145893750616
 20
873.587239344789
 30
0.0
 11
-2853.07157172969
 21
875.666829344789
 31
0.0
  0
LINE
  5
351D
330
3515
100
AcDbEntity
  8
外形線
100
AcDbLine
 10
-2933.93155772969
 20
752.470783344789
 30
0.0
 11
-2933.93155772969
 21
907.470783344789
 31
0.0
  0
LINE
  5
351E
330
3515
100
AcDbEntity
  8
外形線
100
AcDbLine
 10
-2923.93155772969
 20
907.470783344789
 30
0.0
 11
-2923.93155772969
 21
752.470783344789
 31
0.0
  0
LINE
  5
351F
330
3515
100
AcDbEntity
  8
細線
100
AcDbLine
 10
-2906.224385750616
 20
852.818807344789
 30
0.0
 11
-2906.224385750616
 21
807.122761344789
 31
0.0
  0
LINE
  5
3520
330
3515
100
AcDbEntity
  8
細線
100
AcDbLine
 10
-2893.943501750616
 20
869.098011344789
 30
0.0
 11
-2893.943501750616
 21
790.843617344789
 31
0.0
  0
LINE
  5
3521
330
3515
100
AcDbEntity
  8
外形線
100
AcDbLine
 10
-2883.19437372969
 20
783.503987344789
 30
0.0
 11
-2880.95926772969
 21
766.031269344789
 31
0.0
  0
LINE
  5
3522
330
3515
100
AcDbEntity
  8
中心線
 48
10.0
100
AcDbLine
 10
-2944.21661474548
 20
764.970783344789
 30
0.0
 11
-2911.612778792372
 21
764.970783344789
 31
0.0
  0
LINE
  5
3523
330
3515
100
AcDbEntity
  8
外形線
100
AcDbLine
 10
-2933.93155772969
 20
752.470783344789
 30
0.0
 11
-2923.93155772969
 21
752.470783344789
 31
0.0
  0
LINE
  5
3524
330
3515
100
AcDbEntity
  8
外形線
100
AcDbLine
 10
-2880.92594172969
 20
759.253621344789
 30
0.0
 11
-2880.92594172969
 21
755.540853344789
 31
0.0
  0
LINE
  5
3525
330
3515
100
AcDbEntity
  8
細線
100
AcDbLine
 10
-2873.21475972969
 20
755.540853344789
 30
0.0
 11
-2873.21475972969
 21
759.253621344789
 31
0.0
  0
LINE
  5
3526
330
3515
100
AcDbEntity
  8
外形線
100
AcDbLine
 10
-2880.92594172969
 20
755.540853344789
 30
0.0
 11
-2879.49796372969
 21
754.112813344789
 31
0.0
  0
ARC
  5
3527
330
3515
100
AcDbEntity
  8
細線
100
AcDbCircle
 10
-2880.35391972969
 20
772.415731344789
 30
0.0
 40
18.322924
100
AcDbArc
 50
272.67766208363
 51
292.93154825417
  0
ARC
  5
3528
330
3515
100
AcDbEntity
  8
外形線
100
AcDbCircle
 10
-2878.12638172969
 20
766.393635344789
 30
0.0
 40
2.856
100
AcDbArc
 50
187.289418100615
 51
270.0
  0
LINE
  5
3529
330
3515
100
AcDbEntity
  8
外形線
100
AcDbLine
 10
-2876.35636172969
 20
759.253621344789
 30
0.0
 11
-2876.35636172969
 21
763.537617344789
 31
0.0
  0
LINE
  5
352A
330
3515
100
AcDbEntity
  8
細線
100
AcDbLine
 10
-2874.07157172969
 20
763.537617344789
 30
0.0
 11
-2874.07157172969
 21
759.253621344789
 31
0.0
  0
LWPOLYLINE
  5
352B
330
3515
100
AcDbEntity
  8
外形線
100
AcDbPolyline
 90
       67
 70
     0
 43
0.0
 10
-2890.145893750616
 20
786.354329344789
 10
-2890.186654669536
 20
786.366077023327
 10
-2890.301838572774
 20
786.400458633809
 10
-2890.480797180054
 20
786.456182038531
 10
-2890.7128822111
 20
786.531955099793
 10
-2890.987445385636
 20
786.626485679891
 10
-2891.293838423382
 20
786.738481641127
 10
-2891.621413044066
 20
786.866650845797
 10
-2891.959520967408
 20
787.009701156199
 10
-2892.29751391313
 20
787.166340434633
 10
-2892.62474360096
 20
787.335276543397
 10
-2892.930561750616
 20
787.515217344789
 10
-2893.2750874832
 20
787.757196572383
 10
-2893.573198691538
 20
788.013376036193
 10
-2893.829948065176
 20
788.282363927155
 10
-2894.050388293662
 20
788.562768436207
 10
-2894.239572066538
 20
788.853197754285
 10
-2894.402552073354
 20
789.152260072327
 10
-2894.544381003654
 20
789.458563581269
 10
-2894.670111546984
 20
789.770716472049
 10
-2894.78479639289
 20
790.087326935605
 10
-2894.89348823092
 20
790.407003162873
 10
-2895.001239750616
 20
790.728353344789
 10
-2895.22891206995
 20
791.376818244103
 10
-2895.472319393242
 20
792.025524444673
 10
-2895.73051137667
 20
792.673568483095
 10
-2896.002537676416
 20
793.320046895967
 10
-2896.287447948658
 20
793.964056219885
 10
-2896.584291849578
 20
794.604692991447
 10
-2896.892119035354
 20
795.241053747247
 10
-2897.209979162166
 20
795.872235023887
 10
-2897.536921886194
 20
796.497333357957
 10
-2897.871996863618
 20
797.115445286059
 10
-2898.214253750616
 20
797.725667344789
 10
-2898.47254642542
 20
798.173784867737
 10
-2898.73316272561
 20
798.618573878527
 10
-2898.994985373496
 20
799.061561306953
 10
-2899.256897091384
 20
799.504274082811
 10
-2899.517780601584
 20
799.948239135899
 10
-2899.776518626406
 20
800.394983396009
 10
-2900.031993888156
 20
800.846033792941
 10
-2900.283089109143
 20
801.302917256489
 10
-2900.528687011676
 20
801.767160716449
 10
-2900.767670318066
 20
802.240291102617
 10
-2900.998921750616
 20
802.723835344789
 10
-2901.160354231022
 20
803.077093722977
 10
-2901.322307525548
 20
803.431578565659
 10
-2901.489857039888
 20
803.782370504911
 10
-2901.66807817973
 20
804.124550172811
 10
-2901.862046350762
 20
804.453198201437
 10
-2902.076836958679
 20
804.763395222867
 10
-2902.317525409164
 20
805.050221869177
 10
-2902.589187107912
 20
805.308758772447
 10
-2902.89689746061
 20
805.534086564755
 10
-2903.245731872948
 20
805.721285878175
 10
-2903.640765750616
 20
805.865437344789
 10
-2904.079618849998
 20
805.962928468561
 10
-2904.55284462682
 20
806.019843776871
 10
-2905.044394260766
 20
806.042776345407
 10
-2905.538218931518
 20
806.038319249863
 10
-2906.018269818758
 20
806.013065565927
 10
-2906.468498102166
 20
805.973608369291
 10
-2906.872854961426
 20
805.926540735645
 10
-2907.21529157622
 20
805.878455740683
 10
-2907.479759126228
 20
805.835946460091
 10
-2907.650208791134
 20
805.805605969563
 10
-2907.710591750616
 20
805.794027344789
  0
ARC
  5
352C
330
3515
100
AcDbEntity
  8
外形線
100
AcDbCircle
 10
-2886.02725972969
 20
783.141561344789
 30
0.0
 40
2.856
100
AcDbArc
 50
7.289398252773
 51
86.905894590757
  0
LINE
  5
352D
330
3515
100
AcDbEntity
  8
外形線
100
AcDbLine
 10
-2890.145893750616
 20
786.354329344789
 30
0.0
 11
-2885.873104035988
 21
785.993397949873
 31
0.0
  0
LINE
  5
352E
330
3515
100
AcDbEntity
  8
外形線
100
AcDbLine
 10
-2907.710591750616
 20
805.794027344789
 30
0.0
 11
-2922.276385750616
 21
803.794759344789
 31
0.0
  0
ARC
  5
352F
330
3515
100
AcDbEntity
  8
外形線
100
AcDbCircle
 10
-2921.157977750616
 20
801.251789344789
 30
0.0
 40
2.778136
100
AcDbArc
 50
113.741117770861
 51
176.718232188895
  0
LINE
  5
3530
330
3515
100
AcDbEntity
  8
外形線
100
AcDbLine
 10
-2959.53153372969
 20
841.670856344789
 30
0.0
 11
-2956.15963321196
 21
844.821980344789
 31
0.0
  0
LINE
  5
3531
330
3515
100
AcDbEntity
  8
細線
100
AcDbLine
 10
-2939.35782772969
 20
844.821980344789
 30
0.0
 11
-2939.35782772969
 21
815.119586344789
 31
0.0
  0
ARC
  5
3532
330
3515
100
AcDbEntity
  8
細線
100
AcDbCircle
 10
-2949.669256764438
 20
829.970782344789
 30
0.0
 40
9.86227696525272
100
AcDbArc
 50
131.155220883625
 51
228.844779116375
  0
LINE
  5
3533
330
3515
100
AcDbEntity
  8
外形線
100
AcDbLine
 10
-2959.53153372969
 20
841.670856344789
 30
0.0
 11
-2959.53153372969
 21
818.270710344789
 31
0.0
  0
LINE
  5
3534
330
3515
100
AcDbEntity
  8
細線
100
AcDbLine
 10
-2939.35782772969
 20
822.545183344789
 30
0.0
 11
-2956.15963321196
 21
822.545183344789
 31
0.0
  0
LINE
  5
3535
330
3515
100
AcDbEntity
  8
外形線
100
AcDbLine
 10
-2956.15963525558
 20
815.119586344789
 30
0.0
 11
-2933.93155772969
 21
815.119586344789
 31
0.0
  0
LINE
  5
3536
330
3515
100
AcDbEntity
  8
外形線
100
AcDbLine
 10
-2959.53153372969
 20
818.270710344789
 30
0.0
 11
-2956.00040572969
 21
814.970782344789
 31
0.0
  0
ARC
  5
3537
330
3515
100
AcDbEntity
  8
細線
100
AcDbCircle
 10
-2951.938149287948
 20
815.747892766997
 30
0.0
 40
8.00150521587242
100
AcDbArc
 50
121.842510322088
 51
161.621519846141
  0
LINE
  5
3538
330
3515
100
AcDbEntity
  8
細線
100
AcDbLine
 10
-2939.35782772969
 20
837.396381344789
 30
0.0
 11
-2956.15963321196
 21
837.396381344789
 31
0.0
  0
ARC
  5
3539
330
3515
100
AcDbEntity
  8
細線
100
AcDbCircle
 10
-2951.938149287948
 20
844.193671922581
 30
0.0
 40
8.00150521587242
100
AcDbArc
 50
198.378480153859
 51
238.157489677912
  0
LINE
  5
353A
330
3515
100
AcDbEntity
  8
外形線
100
AcDbLine
 10
-2956.15963321196
 20
844.821980344789
 30
0.0
 11
-2933.93155772969
 21
844.821980344789
 31
0.0
  0
LWPOLYLINE
  5
353B
330
3515
100
AcDbEntity
  8
外形線
100
AcDbPolyline
 90
       67
 70
     0
 43
0.0
 10
-2890.145893750616
 20
873.587239344789
 10
-2890.186654606264
 20
873.575491590821
 10
-2890.301838344996
 20
873.541109784219
 10
-2890.4807967245
 20
873.485386107949
 10
-2890.712881502462
 20
873.409612744965
 10
-2890.987444436566
 20
873.315081878231
 10
-2891.2938372845
 20
873.203085690703
 10
-2891.621411803948
 20
873.074916365345
 10
-2891.959519752598
 20
872.931866085115
 10
-2892.297512888136
 20
872.775227032971
 10
-2892.624742968248
 20
872.606291391877
 10
-2892.930561750616
 20
872.426351344789
 10
-2893.275080074904
 20
872.184380214897
 10
-2893.573186651598
 20
871.928210025463
 10
-2893.829933738582
 20
871.659232392877
 10
-2894.050373593738
 20
871.378838933519
 10
-2894.239558474946
 20
871.088421263775
 10
-2894.402540640086
 20
870.789371000033
 10
-2894.54437234704
 20
870.483079758675
 10
-2894.67010585369
 20
870.170939156087
 10
-2894.784793417916
 20
869.854340808653
 10
-2894.893487297596
 20
869.534676332759
 10
-2895.001239750616
 20
869.213337344789
 10
-2895.228919299172
 20
868.564866108155
 10
-2895.472329835476
 20
867.916150979021
 10
-2895.7305218725
 20
867.268095967635
 10
-2896.002545923208
 20
866.621605084239
 10
-2896.28745250057
 20
865.977582339079
 10
-2896.58429211755
 20
865.336931742399
 10
-2896.89211528712
 20
864.700557304447
 10
-2897.209972522242
 20
864.069363035465
 10
-2897.536914335888
 20
863.444252945697
 10
-2897.871991241024
 20
862.826131045391
 10
-2898.214253750616
 20
862.215901344789
 10
-2898.47254477014
 20
861.767794599653
 10
-2898.733161212218
 20
861.323017333245
 10
-2898.994985310452
 20
860.880042314457
 10
-2899.25689929845
 20
860.437342312171
 10
-2899.517785409816
 20
859.993390095277
 10
-2899.776525878154
 20
859.546658432661
 10
-2900.03200293707
 20
859.095620093209
 10
-2900.283098820169
 20
858.638747845811
 10
-2900.528695761056
 20
858.174514459349
 10
-2900.767675993338
 20
857.701392702713
 10
-2900.998921750616
 20
857.217855344789
 10
-2901.16035494029
 20
856.864585967801
 10
-2901.322307433096
 20
856.510088950181
 10
-2901.489855091102
 20
856.159284045757
 10
-2901.668073776378
 20
855.817091008361
 10
-2901.86203935099
 20
855.488429591815
 10
-2902.076827677012
 20
855.178219549949
 10
-2902.317514616508
 20
854.891380636591
 10
-2902.589176031546
 20
854.632832605569
 10
-2902.8968877842
 20
854.407495210709
 10
-2903.245725736534
 20
854.220288205841
 10
-2903.640765750616
 20
854.076131344789
 10
-2904.07961724097
 20
853.978639102299
 10
-2904.552842020198
 20
853.921723100385
 10
-2905.044391171436
 20
853.898790196233
 10
-2905.538215777826
 20
853.903247247031
 10
-2906.018266922511
 20
853.928501109961
 10
-2906.468495688628
 20
853.967958642211
 10
-2906.872853159318
 20
854.015026700969
 10
-2907.215290417722
 20
854.063112143419
 10
-2907.47975854698
 20
854.105621826749
 10
-2907.65020863023
 20
854.135962608143
 10
-2907.710591750616
 20
854.147541344789
  0
LINE
  5
353C
330
3515
100
AcDbEntity
  8
外形線
100
AcDbLine
 10
-2907.710591750616
 20
854.147541344789
 30
0.0
 11
-2922.276385750616
 21
856.146809344789
 31
0.0
  0
ARC
  5
353D
330
3515
100
AcDbEntity
  8
外形線
100
AcDbCircle
 10
-2921.157977750616
 20
858.689901344789
 30
0.0
 40
2.778136
100
AcDbArc
 50
183.281807506792
 51
246.258864629059
  0
LINE
  5
353E
330
3515
100
AcDbEntity
  8
中心線
 48
10.0
100
AcDbLine
 10
-2944.086052498169
 20
894.970783344789
 30
0.0
 11
-2911.482216545061
 21
894.970783344789
 31
0.0
  0
LINE
  5
353F
330
3515
100
AcDbEntity
  8
外形線
100
AcDbLine
 10
-2933.93155772969
 20
907.470783344789
 30
0.0
 11
-2923.93155772969
 21
907.470783344789
 31
0.0
  0
LINE
  5
3540
330
3515
100
AcDbEntity
  8
外形線
100
AcDbLine
 10
-2828.22440372969
 20
880.970783344789
 30
0.0
 11
-2824.51163572969
 21
878.522785344789
 31
0.0
  0
LINE
  5
3541
330
3515
100
AcDbEntity
  8
細線
100
AcDbLine
 10
-2828.22440372969
 20
875.666829344789
 30
0.0
 11
-2828.22440372969
 21
880.970783344789
 31
0.0
  0
LINE
  5
3542
330
3515
100
AcDbEntity
  8
外形線
100
AcDbLine
 10
-2853.07157172969
 20
875.666829344789
 30
0.0
 11
-2850.21561572969
 21
880.970783344789
 31
0.0
  0
LINE
  5
3543
330
3515
100
AcDbEntity
  8
細線
100
AcDbLine
 10
-2850.21561572969
 20
880.970783344789
 30
0.0
 11
-2850.21561572969
 21
778.970783344789
 31
0.0
  0
LINE
  5
3544
330
3515
100
AcDbEntity
  8
外形線
100
AcDbLine
 10
-2845.93155772969
 20
880.970783344789
 30
0.0
 11
-2845.93155772969
 21
778.970783344789
 31
0.0
  0
LINE
  5
3545
330
3515
100
AcDbEntity
  8
外形線
100
AcDbLine
 10
-2843.93241172969
 20
778.970783344789
 30
0.0
 11
-2843.93241172969
 21
880.970783344789
 31
0.0
  0
LINE
  5
3546
330
3515
100
AcDbEntity
  8
外形線
100
AcDbLine
 10
-2793.66678772969
 20
829.970783344789
 30
0.0
 11
-2793.66678772969
 21
787.482503344789
 31
0.0
  0
LINE
  5
3547
330
3515
100
AcDbEntity
  8
外形線
100
AcDbLine
 10
-2783.95633772969
 20
806.551595344789
 30
0.0
 11
-2783.95633772969
 21
823.973225344789
 31
0.0
  0
LINE
  5
3548
330
3515
100
AcDbEntity
  8
細線
100
AcDbLine
 10
-2828.22440372969
 20
825.686849344789
 30
0.0
 11
-2828.22440372969
 21
807.122761344789
 31
0.0
  0
LINE
  5
3549
330
3515
100
AcDbEntity
  8
細線
100
AcDbLine
 10
-2853.07157172969
 20
875.666829344789
 30
0.0
 11
-2853.07157172969
 21
786.963093344789
 31
0.0
  0
LINE
  5
354A
330
3515
100
AcDbEntity
  8
細線
100
AcDbLine
 10
-2824.51163572969
 20
878.522785344789
 30
0.0
 11
-2824.51163572969
 21
781.418781344789
 31
0.0
  0
LINE
  5
354B
330
3515
100
AcDbEntity
  8
外形線
100
AcDbLine
 10
-2851.284784319098
 20
778.102677183965
 30
0.0
 11
-2852.89286581957
 21
766.016949260083
 31
0.0
  0
LINE
  5
354C
330
3515
100
AcDbEntity
  8
中心線
 48
10.0
100
AcDbLine
 10
-2866.93155772969
 20
803.629963344789
 30
0.0
 11
-2866.93155772969
 21
748.027669344789
 31
0.0
  0
LINE
  5
354D
330
3515
100
AcDbEntity
  8
細線
100
AcDbLine
 10
-2860.64835372969
 20
755.540853344789
 30
0.0
 11
-2860.64835372969
 21
759.253621344789
 31
0.0
  0
LINE
  5
354E
330
3515
100
AcDbEntity
  8
外形線
100
AcDbLine
 10
-2852.93704972969
 20
759.253621344789
 30
0.0
 11
-2852.93704972969
 21
755.540853344789
 31
0.0
  0
ARC
  5
354F
330
3515
100
AcDbEntity
  8
細線
100
AcDbCircle
 10
-2853.50919372969
 20
772.415731344789
 30
0.0
 40
18.322924
100
AcDbArc
 50
247.068453993571
 51
267.322397459894
  0
LINE
  5
3550
330
3515
100
AcDbEntity
  8
外形線
100
AcDbLine
 10
-2852.93704972969
 20
755.540853344789
 30
0.0
 11
-2854.36514972969
 21
754.112813344789
 31
0.0
  0
ARC
  5
3551
330
3515
100
AcDbEntity
  8
外形線
100
AcDbCircle
 10
-2855.72391572969
 20
766.393635344789
 30
0.0
 40
2.856
100
AcDbArc
 50
270.0
 51
352.421011277475
  0
LINE
  5
3552
330
3515
100
AcDbEntity
  8
外形線
100
AcDbLine
 10
-2857.50675172969
 20
759.253621344789
 30
0.0
 11
-2857.50675172969
 21
763.537617344789
 31
0.0
  0
LINE
  5
3553
330
3515
100
AcDbEntity
  8
細線
100
AcDbLine
 10
-2859.79154172969
 20
763.537617344789
 30
0.0
 11
-2859.79154172969
 21
759.253621344789
 31
0.0
  0
LINE
  5
3554
330
3515
100
AcDbEntity
  8
外形線
100
AcDbLine
 10
-2824.51163572969
 20
781.418781344789
 30
0.0
 11
-2798.29740172969
 21
782.632467344789
 31
0.0
  0
LINE
  5
3555
330
3515
100
AcDbEntity
  8
細線
100
AcDbLine
 10
-2828.22440372969
 20
799.126057344789
 30
0.0
 11
-2828.22440372969
 21
787.701985344789
 31
0.0
  0
LINE
  5
3556
330
3515
100
AcDbEntity
  8
外形線
100
AcDbLine
 10
-2850.293520471686
 20
778.970783344789
 30
0.0
 11
-2828.22440372969
 21
778.970783344789
 31
0.0
  0
ARC
  5
3557
330
3515
100
AcDbEntity
  8
外形線
100
AcDbCircle
 10
-2850.293520471686
 20
777.970783344789
 30
0.0
 40
1.0
100
AcDbArc
 50
90.0
 51
172.420956229591
  0
LINE
  5
3558
330
3515
100
AcDbEntity
  8
細線
100
AcDbLine
 10
-2850.21561572969
 20
778.970783344789
 30
0.0
 11
-2853.07157172969
 21
787.068767895563
 31
0.0
  0
ARC
  5
3559
330
3515
100
AcDbEntity
  8
外形線
100
AcDbCircle
 10
-2826.238319729689
 20
785.988363344789
 30
0.0
 40
1.714446
100
AcDbArc
 50
271.804703586974
 51
88.195318508605
  0
LINE
  5
355A
330
3515
100
AcDbEntity
  8
外形線
100
AcDbLine
 10
-2826.18430372969
 20
784.274861344789
 30
0.0
 11
-2843.93241172969
 21
784.274861344789
 31
0.0
  0
LINE
  5
355B
330
3515
100
AcDbEntity
  8
外形線
100
AcDbLine
 10
-2826.18430372969
 20
787.701985344789
 30
0.0
 11
-2843.93241172969
 21
787.701985344789
 31
0.0
  0
LINE
  5
355C
330
3515
100
AcDbEntity
  8
外形線
100
AcDbLine
 10
-2824.51163572969
 20
781.418781344789
 30
0.0
 11
-2828.22440372969
 21
778.970783344789
 31
0.0
  0
LINE
  5
355D
330
3515
100
AcDbEntity
  8
細線
100
AcDbLine
 10
-2828.22440372969
 20
784.274861344789
 30
0.0
 11
-2828.22440372969
 21
778.970783344789
 31
0.0
  0
LINE
  5
355E
330
3515
100
AcDbEntity
  8
外形線
100
AcDbLine
 10
-2843.93241172969
 20
807.122761344789
 30
0.0
 11
-2828.22440372969
 21
807.122761344789
 31
0.0
  0
LINE
  5
355F
330
3515
100
AcDbEntity
  8
外形線
100
AcDbLine
 10
-2843.93241172969
 20
799.126057344789
 30
0.0
 11
-2828.13529372969
 21
799.126057344789
 31
0.0
  0
ARC
  5
3560
330
3515
100
AcDbEntity
  8
外形線
100
AcDbCircle
 10
-2828.55045372969
 20
803.120321344789
 30
0.0
 40
4.015794000000001
100
AcDbArc
 50
275.934583374273
 51
85.343077308664
  0
ARC
  5
3561
330
3515
100
AcDbEntity
  8
外形線
100
AcDbCircle
 10
-2798.52201172969
 20
787.482503344789
 30
0.0
 40
4.8552
100
AcDbArc
 50
272.650733067261
 51
359.999982399901
  0
LINE
  5
3562
330
3515
100
AcDbEntity
  8
外形線
100
AcDbLine
 10
-2791.58798972969
 20
804.552449344789
 30
0.0
 11
-2785.95560572969
 21
804.552449344789
 31
0.0
  0
LINE
  5
3563
330
3515
100
AcDbEntity
  8
外形線
100
AcDbLine
 10
-2793.66678772969
 20
796.841267344789
 30
0.0
 11
-2785.86783772969
 21
796.841267344789
 31
0.0
  0
LINE
  5
3564
330
3515
100
AcDbEntity
  8
外形線
100
AcDbLine
 10
-2791.58805172969
 20
800.554035344789
 30
0.0
 11
-2785.61795972969
 21
800.554035344789
 31
0.0
  0
ARC
  5
3565
330
3515
100
AcDbEntity
  8
外形線
100
AcDbCircle
 10
-2791.66629772969
 20
802.553273344789
 30
0.0
 40
2.000724
100
AcDbArc
 50
87.757023395436
 51
272.242959004484
  0
ARC
  5
3566
330
3515
100
AcDbEntity
  8
外形線
100
AcDbCircle
 10
-2785.95560572969
 20
806.551595344789
 30
0.0
 40
1.9992
100
AcDbArc
 50
270.0
 51
359.999982399901
  0
ARC
  5
3567
330
3515
100
AcDbEntity
  8
外形線
100
AcDbCircle
 10
-2785.81851972969
 20
798.702717344789
 30
0.0
 40
1.86215
100
AcDbArc
 50
268.482178628784
 51
83.815801009983
  0
LINE
  5
3568
330
3515
100
AcDbEntity
  8
外形線
100
AcDbLine
 10
-2783.95633772969
 20
853.389973344789
 30
0.0
 11
-2783.95633772969
 21
835.968343344789
 31
0.0
  0
LINE
  5
3569
330
3515
100
AcDbEntity
  8
細線
100
AcDbLine
 10
-2828.22440372969
 20
834.254841344789
 30
0.0
 11
-2828.22440372969
 21
852.818807344789
 31
0.0
  0
LINE
  5
356A
330
3515
100
AcDbEntity
  8
外形線
100
AcDbLine
 10
-2793.66678772969
 20
829.970783344789
 30
0.0
 11
-2793.66678772969
 21
872.459187344789
 31
0.0
  0
ARC
  5
356B
330
3515
100
AcDbEntity
  8
外形線
100
AcDbCircle
 10
-2829.51151372969
 20
830.553303344789
 30
0.0
 40
5.033766
100
AcDbArc
 50
284.815257311476
 51
353.355849216014
  0
LINE
  5
356C
330
3515
100
AcDbEntity
  8
外形線
100
AcDbLine
 10
-2843.93241172969
 20
825.686849344789
 30
0.0
 11
-2828.22440372969
 21
825.686849344789
 31
0.0
  0
ARC
  5
356D
330
3515
100
AcDbEntity
  8
外形線
100
AcDbCircle
 10
-2829.51151372969
 20
829.388387344789
 30
0.0
 40
5.033766
100
AcDbArc
 50
6.644133183896
 51
75.184725088441
  0
LINE
  5
356E
330
3515
100
AcDbEntity
  8
外形線
100
AcDbLine
 10
-2843.93241172969
 20
834.254841344789
 30
0.0
 11
-2828.22440372969
 21
834.254841344789
 31
0.0
  0
ARC
  5
356F
330
3515
100
AcDbEntity
  8
外形線
100
AcDbCircle
 10
-2791.51236772969
 20
828.118001344789
 30
0.0
 40
2.15556
100
AcDbArc
 50
181.910948686163
 51
264.487402289583
  0
ARC
  5
3570
330
3515
100
AcDbEntity
  8
外形線
100
AcDbCircle
 10
-2785.95560572969
 20
823.973225344789
 30
0.0
 40
1.9992
100
AcDbArc
 50
0.0
 51
89.999981276021
  0
LINE
  5
3571
330
3515
100
AcDbEntity
  8
外形線
100
AcDbLine
 10
-2791.71939972969
 20
825.972493344789
 30
0.0
 11
-2785.95560572969
 21
825.972493344789
 31
0.0
  0
LINE
  5
3572
330
3515
100
AcDbEntity
  8
外形線
100
AcDbLine
 10
-2791.71939972969
 20
833.969197344789
 30
0.0
 11
-2785.95560572969
 21
833.969197344789
 31
0.0
  0
ARC
  5
3573
330
3515
100
AcDbEntity
  8
外形線
100
AcDbCircle
 10
-2791.51236772969
 20
831.823689344789
 30
0.0
 40
2.15556
100
AcDbArc
 50
95.512637406103
 51
178.08903371374
  0
ARC
  5
3574
330
3515
100
AcDbEntity
  8
外形線
100
AcDbCircle
 10
-2785.95560572969
 20
835.968343344789
 30
0.0
 40
1.9992
100
AcDbArc
 50
270.0
 51
359.999982399908
  0
LINE
  5
3575
330
3515
100
AcDbEntity
  8
外形線
100
AcDbLine
 10
-2824.51163572969
 20
878.522785344789
 30
0.0
 11
-2798.29740172969
 21
877.309163344789
 31
0.0
  0
LINE
  5
3576
330
3515
100
AcDbEntity
  8
細線
100
AcDbLine
 10
-2828.22440372969
 20
860.815633344789
 30
0.0
 11
-2828.22440372969
 21
872.239583344789
 31
0.0
  0
LINE
  5
3577
330
3515
100
AcDbEntity
  8
外形線
100
AcDbLine
 10
-2843.93241172969
 20
860.815633344789
 30
0.0
 11
-2828.13529372969
 21
860.815633344789
 31
0.0
  0
LINE
  5
3578
330
3515
100
AcDbEntity
  8
外形線
100
AcDbLine
 10
-2843.93241172969
 20
852.818807344789
 30
0.0
 11
-2828.22440372969
 21
852.818807344789
 31
0.0
  0
ARC
  5
3579
330
3515
100
AcDbEntity
  8
外形線
100
AcDbCircle
 10
-2828.55045372969
 20
856.821369344789
 30
0.0
 40
4.015794000000001
100
AcDbArc
 50
274.656944786914
 51
84.065438721313
  0
ARC
  5
357A
330
3515
100
AcDbEntity
  8
外形線
100
AcDbCircle
 10
-2826.238319729689
 20
873.953205344789
 30
0.0
 40
1.714446
100
AcDbArc
 50
271.804703586974
 51
88.195318508605
  0
LINE
  5
357B
330
3515
100
AcDbEntity
  8
外形線
100
AcDbLine
 10
-2826.18430372969
 20
875.666829344789
 30
0.0
 11
-2843.93241172969
 21
875.666829344789
 31
0.0
  0
LINE
  5
357C
330
3515
100
AcDbEntity
  8
外形線
100
AcDbLine
 10
-2826.18430372969
 20
872.239583344789
 30
0.0
 11
-2843.93241172969
 21
872.239583344789
 31
0.0
  0
ARC
  5
357D
330
3515
100
AcDbEntity
  8
外形線
100
AcDbCircle
 10
-2785.81851972969
 20
861.238973344789
 30
0.0
 40
1.86215
100
AcDbArc
 50
276.18422108563
 51
91.517843466792
  0
LINE
  5
357E
330
3515
100
AcDbEntity
  8
外形線
100
AcDbLine
 10
-2791.58805172969
 20
859.387531344789
 30
0.0
 11
-2785.61795972969
 21
859.387531344789
 31
0.0
  0
LINE
  5
357F
330
3515
100
AcDbEntity
  8
外形線
100
AcDbLine
 10
-2791.58805172969
 20
855.389241344789
 30
0.0
 11
-2785.95560572969
 21
855.389241344789
 31
0.0
  0
ARC
  5
3580
330
3515
100
AcDbEntity
  8
外形線
100
AcDbCircle
 10
-2791.66757972969
 20
857.388387344789
 30
0.0
 40
2.000726
100
AcDbArc
 50
87.722187561485
 51
272.27785213419
  0
ARC
  5
3581
330
3515
100
AcDbEntity
  8
外形線
100
AcDbCircle
 10
-2785.95560572969
 20
853.389973344789
 30
0.0
 40
1.9992
100
AcDbArc
 50
0.0
 51
89.999981276021
  0
LINE
  5
3582
330
3515
100
AcDbEntity
  8
外形線
100
AcDbLine
 10
-2793.66678772969
 20
863.100423344789
 30
0.0
 11
-2785.86783772969
 21
863.100423344789
 31
0.0
  0
ARC
  5
3583
330
3515
100
AcDbEntity
  8
外形線
100
AcDbCircle
 10
-2798.52201172969
 20
872.459187344789
 30
0.0
 40
4.8552
100
AcDbArc
 50
0.0
 51
87.349306628423
  0
LINE
  5
3584
330
3515
100
AcDbEntity
  8
外形線
100
AcDbLine
 10
-2850.21561572969
 20
880.970783344789
 30
0.0
 11
-2828.22440372969
 21
880.970783344789
 31
0.0
  0
ENDBLK
  5
3585
330
3515
100
AcDbEntity
  8
0
 48
10.0
100
AcDbBlockEnd
  0
BLOCK
  5
395D
330
395C
100
AcDbEntity
  8
0
 48
10.0
100
AcDbBlockBegin
  2
A$C135842B4
 70
     0
 10
0.0
 20
0.0
 30
0.0
  3
A$C135842B4
  1
A$C135842B4
  0
LINE
  5
395E
330
395C
100
AcDbEntity
  8
外形線
100
AcDbLine
 10
0.000000359924
 20
20.066964684103
 30
0.0
 11
0.000000359924
 21
6.066947184103
 31
0.0
  0
LINE
  5
395F
330
395C
100
AcDbEntity
  8
外形線
100
AcDbLine
 10
0.000000359924
 20
20.066964684103
 30
0.0
 11
0.000000359924
 21
6.066947184103
 31
0.0
  0
LINE
  5
3960
330
395C
100
AcDbEntity
  8
外形線
100
AcDbLine
 10
0.000000359924
 20
20.066964684103
 30
0.0
 11
4.500007859925
 21
20.066964684103
 31
0.0
  0
LINE
  5
3961
330
395C
100
AcDbEntity
  8
外形線
100
AcDbLine
 10
0.000000359924
 20
20.066964684103
 30
0.0
 11
4.500007859925
 21
20.066964684103
 31
0.0
  0
LINE
  5
3962
330
395C
100
AcDbEntity
  8
外形線
100
AcDbLine
 10
19.500007859925
 20
20.066964684103
 30
0.0
 11
26.500015359925
 21
20.066964684103
 31
0.0
  0
LINE
  5
3963
330
395C
100
AcDbEntity
  8
外形線
100
AcDbLine
 10
4.500007859925
 20
21.566939684103
 30
0.0
 11
19.500007859925
 21
21.566939684103
 31
0.0
  0
LINE
  5
3964
330
395C
100
AcDbEntity
  8
外形線
100
AcDbLine
 10
4.500007859925
 20
21.566939684103
 30
0.0
 11
19.500007859925
 21
21.566939684103
 31
0.0
  0
LINE
  5
3965
330
395C
100
AcDbEntity
  8
外形線
100
AcDbLine
 10
19.500007859925
 20
20.066964684103
 30
0.0
 11
26.572566061358
 21
20.066964684103
 31
0.0
  0
LINE
  5
3966
330
395C
100
AcDbEntity
  8
外形線
100
AcDbLine
 10
26.572566061358
 20
6.166969684103
 30
0.0
 11
26.572566061358
 21
20.066964684103
 31
0.0
  0
LINE
  5
3967
330
395C
100
AcDbEntity
  8
外形線
100
AcDbLine
 10
26.572566061358
 20
6.066947184103
 30
0.0
 11
26.572566061358
 21
20.066964684103
 31
0.0
  0
LINE
  5
3968
330
395C
100
AcDbEntity
  8
外形線
100
AcDbLine
 10
19.500007859925
 20
6.066947184103
 30
0.0
 11
26.500015359925
 21
6.066947184103
 31
0.0
  0
LINE
  5
3969
330
395C
100
AcDbEntity
  8
外形線
100
AcDbLine
 10
19.500007859925
 20
0.566957184103
 30
0.0
 11
19.500007859925
 21
21.566939684103
 31
0.0
  0
LINE
  5
396A
330
395C
100
AcDbEntity
  8
外形線
100
AcDbLine
 10
4.500007859925
 20
0.566957184103
 30
0.0
 11
4.500007859925
 21
21.566939684103
 31
0.0
  0
LINE
  5
396B
330
395C
100
AcDbEntity
  8
外形線
100
AcDbLine
 10
0.000000359924
 20
6.066947184103
 30
0.0
 11
4.500007859925
 21
6.066947184103
 31
0.0
  0
LINE
  5
396C
330
395C
100
AcDbEntity
  8
中心線
 48
10.0
100
AcDbLine
 10
12.000007859925
 20
13.633914547349
 30
0.0
 11
12.000007859925
 21
-0.000000179144
 31
0.0
  0
CIRCLE
  5
396D
330
395C
100
AcDbEntity
  8
外形線
100
AcDbCircle
 10
12.000007859925
 20
6.816957184103
 30
0.0
 40
3.25
  0
LINE
  5
396E
330
395C
100
AcDbEntity
  8
外形線
100
AcDbLine
 10
4.500007859925
 20
0.566957184103
 30
0.0
 11
19.500007859925
 21
0.566957184103
 31
0.0
  0
LINE
  5
396F
330
395C
100
AcDbEntity
  8
中心線
 48
10.0
100
AcDbLine
 10
5.183050496679
 20
6.816957184103
 30
0.0
 11
18.816965223171
 21
6.816957184103
 31
0.0
  0
LINE
  5
3970
330
395C
100
AcDbEntity
  8
中心線
 48
10.0
100
AcDbLine
 10
5.183050496679
 20
6.816957184103
 30
0.0
 11
18.816965223171
 21
6.816957184103
 31
0.0
  0
LINE
  5
3971
330
395C
100
AcDbEntity
  8
外形線
100
AcDbLine
 10
4.500007859925
 20
0.566957184103
 30
0.0
 11
19.500007859925
 21
0.566957184103
 31
0.0
  0
CIRCLE
  5
3972
330
395C
100
AcDbEntity
  8
外形線
100
AcDbCircle
 10
12.000007859925
 20
6.816957184103
 30
0.0
 40
3.25
  0
LINE
  5
3973
330
395C
100
AcDbEntity
  8
中心線
 48
10.0
100
AcDbLine
 10
12.000007859925
 20
13.633914547349
 30
0.0
 11
12.000007859925
 21
-0.000000179144
 31
0.0
  0
LINE
  5
3974
330
395C
100
AcDbEntity
  8
外形線
100
AcDbLine
 10
0.000000359924
 20
6.066947184103
 30
0.0
 11
4.500007859925
 21
6.066947184103
 31
0.0
  0
LINE
  5
3975
330
395C
100
AcDbEntity
  8
外形線
100
AcDbLine
 10
4.500007859925
 20
0.566957184103
 30
0.0
 11
4.500007859925
 21
21.566939684103
 31
0.0
  0
LINE
  5
3976
330
395C
100
AcDbEntity
  8
外形線
100
AcDbLine
 10
19.500007859925
 20
0.566957184103
 30
0.0
 11
19.500007859925
 21
21.566939684103
 31
0.0
  0
LINE
  5
3977
330
395C
100
AcDbEntity
  8
外形線
100
AcDbLine
 10
19.500007859925
 20
6.066947184103
 30
0.0
 11
26.572566061358
 21
6.066947184103
 31
0.0
  0
ENDBLK
  5
3978
330
395C
100
AcDbEntity
  8
0
 48
10.0
100
AcDbBlockEnd
  0
BLOCK
  5
397A
330
3979
100
AcDbEntity
  8
0
 48
10.0
100
AcDbBlockBegin
  2
A$C511028D3
 70
     0
 10
0.0
 20
0.0
 30
0.0
  3
A$C511028D3
  1
A$C511028D3
  0
LINE
  5
397B
330
3979
100
AcDbEntity
  8
細線
100
AcDbLine
 10
2.000001078863
 20
4.072037970105
 30
0.0
 11
7.255442051231
 21
4.072037970105
 31
0.0
  0
ARC
  5
397C
330
3979
100
AcDbEntity
  8
細線
100
AcDbCircle
 10
4.911363578863
 20
1.136780470105
 30
0.0
 40
3.7563025
100
AcDbArc
 50
17.184150191548
 51
51.38761061704
  0
ARC
  5
397D
330
3979
100
AcDbEntity
  8
細線
100
AcDbCircle
 10
1.216143578864
 20
8.143922970106
 30
0.0
 40
7.2838425
100
AcDbArc
 50
326.010120640446
 51
33.989328497327
  0
LINE
  5
397E
330
3979
100
AcDbEntity
  8
外形線
100
AcDbLine
 10
0.000001078864
 20
0.000000470105
 30
0.0
 11
6.253373578863
 21
0.000000470105
 31
0.0
  0
LINE
  5
397F
330
3979
100
AcDbEntity
  8
外形線
100
AcDbLine
 10
6.253373578863
 20
0.000000470105
 30
0.0
 11
8.499926078863
 21
2.246630470105
 31
0.0
  0
LINE
  5
3980
330
3979
100
AcDbEntity
  8
外形線
100
AcDbLine
 10
0.000001078864
 20
16.287920470106
 30
0.0
 11
0.000001078864
 21
0.000000470105
 31
0.0
  0
LINE
  5
3981
330
3979
100
AcDbEntity
  8
外形線
100
AcDbLine
 10
2.000001078863
 20
16.287920470106
 30
0.0
 11
2.000001078863
 21
0.000000470105
 31
0.0
  0
LINE
  5
3982
330
3979
100
AcDbEntity
  8
外形線
100
AcDbLine
 10
8.500001078863
 20
2.246552970106
 30
0.0
 11
8.500001078863
 21
14.041215470105
 31
0.0
  0
LINE
  5
3983
330
3979
100
AcDbEntity
  8
外形線
100
AcDbLine
 10
8.500001078863
 20
2.246552970106
 30
0.0
 11
8.500001078863
 21
14.041215470105
 31
0.0
  0
LINE
  5
3984
330
3979
100
AcDbEntity
  8
外形線
100
AcDbLine
 10
2.000001078863
 20
16.287920470106
 30
0.0
 11
2.000001078863
 21
0.000000470105
 31
0.0
  0
LINE
  5
3985
330
3979
100
AcDbEntity
  8
外形線
100
AcDbLine
 10
0.000001078864
 20
16.287920470106
 30
0.0
 11
0.000001078864
 21
0.000000470105
 31
0.0
  0
LINE
  5
3986
330
3979
100
AcDbEntity
  8
外形線
100
AcDbLine
 10
6.253373578863
 20
0.000000470105
 30
0.0
 11
8.499926078863
 21
2.246630470105
 31
0.0
  0
LINE
  5
3987
330
3979
100
AcDbEntity
  8
外形線
100
AcDbLine
 10
0.000001078864
 20
0.000000470105
 30
0.0
 11
6.253373578863
 21
0.000000470105
 31
0.0
  0
ARC
  5
3988
330
3979
100
AcDbEntity
  8
細線
100
AcDbCircle
 10
1.216143578864
 20
8.143922970106
 30
0.0
 40
7.2838425
100
AcDbArc
 50
326.010120640446
 51
33.989328497327
  0
ARC
  5
3989
330
3979
100
AcDbEntity
  8
細線
100
AcDbCircle
 10
4.911363578863
 20
1.136780470105
 30
0.0
 40
3.7563025
100
AcDbArc
 50
17.184150191548
 51
51.38761061704
  0
LINE
  5
398A
330
3979
100
AcDbEntity
  8
細線
100
AcDbLine
 10
2.000001078863
 20
4.072037970105
 30
0.0
 11
7.255442051231
 21
4.072037970105
 31
0.0
  0
LINE
  5
398B
330
3979
100
AcDbEntity
  8
細線
100
AcDbLine
 10
2.000001078863
 20
12.215920470105
 30
0.0
 11
7.255482005871
 21
12.215920470105
 31
0.0
  0
ARC
  5
398C
330
3979
100
AcDbEntity
  8
細線
100
AcDbCircle
 10
4.911363578863
 20
15.150987970105
 30
0.0
 40
3.7563025
100
AcDbArc
 50
308.612371782871
 51
342.815889504127
  0
LINE
  5
398D
330
3979
100
AcDbEntity
  8
外形線
100
AcDbLine
 10
0.000001078864
 20
16.287920470106
 30
0.0
 11
6.253373578863
 21
16.287920470106
 31
0.0
  0
LINE
  5
398E
330
3979
100
AcDbEntity
  8
外形線
100
AcDbLine
 10
6.253373578863
 20
16.287920470106
 30
0.0
 11
8.499926078863
 21
14.041215470105
 31
0.0
  0
LINE
  5
398F
330
3979
100
AcDbEntity
  8
外形線
100
AcDbLine
 10
6.253373578863
 20
16.287920470106
 30
0.0
 11
8.499926078863
 21
14.041215470105
 31
0.0
  0
LINE
  5
3990
330
3979
100
AcDbEntity
  8
外形線
100
AcDbLine
 10
0.000001078864
 20
16.287920470106
 30
0.0
 11
6.253373578863
 21
16.287920470106
 31
0.0
  0
ARC
  5
3991
330
3979
100
AcDbEntity
  8
細線
100
AcDbCircle
 10
4.911363578863
 20
15.150987970105
 30
0.0
 40
3.7563025
100
AcDbArc
 50
308.612371782871
 51
342.815889504127
  0
LINE
  5
3992
330
3979
100
AcDbEntity
  8
細線
100
AcDbLine
 10
2.000001078863
 20
12.215920470105
 30
0.0
 11
7.255482005871
 21
12.215920470105
 31
0.0
  0
ENDBLK
  5
3993
330
3979
100
AcDbEntity
  8
0
 48
10.0
100
AcDbBlockEnd
  0
BLOCK
  5
3995
330
3994
100
AcDbEntity
  8
0
 48
10.0
100
AcDbBlockBegin
  2
A$C76E55026
 70
     0
 10
0.0
 20
0.0
 30
0.0
  3
A$C76E55026
  1
A$C76E55026
  0
ARC
  5
3996
330
3994
100
AcDbEntity
  8
外形線
100
AcDbCircle
 10
40.358863614945
 20
18.000000216549
 30
0.0
 40
1.999999999999957
100
AcDbArc
 50
0.0
 51
180.0
  0
LINE
  5
3997
330
3994
100
AcDbEntity
  8
外形線
100
AcDbLine
 10
0.000001114945
 20
17.500112716549
 30
0.0
 11
0.000001114945
 21
2.499885216549
 31
0.0
  0
LINE
  5
3998
330
3994
100
AcDbEntity
  8
細線
100
AcDbLine
 10
14.358863614945
 20
13.752776966281
 30
0.0
 11
0.000001114945
 21
13.752776966281
 31
0.0
  0
LINE
  5
3999
330
3994
100
AcDbEntity
  8
外形線
100
AcDbLine
 10
14.358863614945
 20
17.500112716549
 30
0.0
 11
0.000001114945
 21
17.500112716549
 31
0.0
  0
ARC
  5
399A
330
3994
100
AcDbEntity
  8
外形線
100
AcDbCircle
 10
20.358863614945
 20
18.000000216549
 30
0.0
 40
1.999999999999957
100
AcDbArc
 50
0.0
 51
168.578813725037
  0
ARC
  5
399B
330
3994
100
AcDbEntity
  8
外形線
100
AcDbCircle
 10
24.358863614945
 20
18.000000216549
 30
0.0
 40
1.999999999999957
100
AcDbArc
 50
0.0
 51
168.578813725037
  0
ARC
  5
399C
330
3994
100
AcDbEntity
  8
外形線
100
AcDbCircle
 10
28.358863614944
 20
18.000000216549
 30
0.0
 40
1.999999999999957
100
AcDbArc
 50
0.0
 51
168.578813725037
  0
ARC
  5
399D
330
3994
100
AcDbEntity
  8
外形線
100
AcDbCircle
 10
32.358863614945
 20
18.000000216549
 30
0.0
 40
1.999999999999957
100
AcDbArc
 50
0.0
 51
168.578813725037
  0
ARC
  5
399E
330
3994
100
AcDbEntity
  8
外形線
100
AcDbCircle
 10
36.358863614945
 20
18.000000216549
 30
0.0
 40
1.999999999999957
100
AcDbArc
 50
0.0
 51
168.578813725037
  0
ARC
  5
399F
330
3994
100
AcDbEntity
  8
外形線
100
AcDbCircle
 10
16.358863614945
 20
18.000000216549
 30
0.0
 40
1.999999999999957
100
AcDbArc
 50
0.0
 51
180.0
  0
LINE
  5
39A0
330
3994
100
AcDbEntity
  8
外形線
100
AcDbLine
 10
83.217758614945
 20
16.250112716549
 30
0.0
 11
83.217758614945
 21
3.749885216549
 31
0.0
  0
LINE
  5
39A1
330
3994
100
AcDbEntity
  8
細線
100
AcDbLine
 10
58.358863614944
 20
13.752776966281
 30
0.0
 11
72.717726114945
 21
13.752776966281
 31
0.0
  0
LINE
  5
39A2
330
3994
100
AcDbEntity
  8
外形線
100
AcDbLine
 10
81.967756114945
 20
17.500112716549
 30
0.0
 11
58.358863614944
 21
17.500112716549
 31
0.0
  0
ARC
  5
39A3
330
3994
100
AcDbEntity
  8
外形線
100
AcDbCircle
 10
44.358863614945
 20
18.000000216549
 30
0.0
 40
1.999999999999957
100
AcDbArc
 50
0.0
 51
168.578813725037
  0
ARC
  5
39A4
330
3994
100
AcDbEntity
  8
外形線
100
AcDbCircle
 10
48.358863614944
 20
18.000000216549
 30
0.0
 40
1.999999999999957
100
AcDbArc
 50
0.0
 51
180.0
  0
ARC
  5
39A5
330
3994
100
AcDbEntity
  8
外形線
100
AcDbCircle
 10
52.358863614945
 20
18.000000216549
 30
0.0
 40
1.999999999999957
100
AcDbArc
 50
0.0
 51
180.0
  0
ARC
  5
39A6
330
3994
100
AcDbEntity
  8
外形線
100
AcDbCircle
 10
56.358863614945
 20
18.000000216549
 30
0.0
 40
1.999999999999957
100
AcDbArc
 50
0.0
 51
180.0
  0
LINE
  5
39A7
330
3994
100
AcDbEntity
  8
細線
100
AcDbLine
 10
75.217726114945
 20
13.752776966281
 30
0.0
 11
81.641106114945
 21
13.752776966281
 31
0.0
  0
LINE
  5
39A8
330
3994
100
AcDbEntity
  8
外形線
100
AcDbLine
 10
81.967758614945
 20
17.505553716014
 30
0.0
 11
83.217758614945
 21
16.250112716549
 31
0.0
  0
ARC
  5
39A9
330
3994
100
AcDbEntity
  8
細線
100
AcDbCircle
 10
80.431268453793
 20
16.262953281196
 30
0.0
 40
2.7865197466204
100
AcDbArc
 50
295.732819735836
 51
359.735974322254
  0
LINE
  5
39AA
330
3994
100
AcDbEntity
  8
細線
100
AcDbLine
 10
40.71925965455
 20
1.603960612586
 30
0.0
 11
42.39846757534
 21
18.396039820509
 31
0.0
  0
ARC
  5
39AB
330
3994
100
AcDbEntity
  8
外形線
100
AcDbCircle
 10
42.758863614945
 20
2.000000216549
 30
0.0
 40
1.999999999999957
100
AcDbArc
 50
168.578813725075
 51
0.0
  0
LINE
  5
39AC
330
3994
100
AcDbEntity
  8
外形線
100
AcDbLine
 10
14.358863614945
 20
0.000000216549
 30
0.0
 11
14.358863614945
 21
18.000000216549
 31
0.0
  0
LINE
  5
39AD
330
3994
100
AcDbEntity
  8
細線
100
AcDbLine
 10
16.71925965455
 20
1.603960612586
 30
0.0
 11
18.39846757534
 21
18.396039820509
 31
0.0
  0
LINE
  5
39AE
330
3994
100
AcDbEntity
  8
細線
100
AcDbLine
 10
20.742031931777
 20
1.831683384866
 30
0.0
 11
22.39846757534
 21
18.396039820506
 31
0.0
  0
LINE
  5
39AF
330
3994
100
AcDbEntity
  8
細線
100
AcDbLine
 10
24.71925965455
 20
1.603960612586
 30
0.0
 11
26.39846757534
 21
18.396039820509
 31
0.0
  0
LINE
  5
39B0
330
3994
100
AcDbEntity
  8
細線
100
AcDbLine
 10
28.758863614945
 20
2.000000216549
 30
0.0
 11
30.39846757534
 21
18.396039820509
 31
0.0
  0
LINE
  5
39B1
330
3994
100
AcDbEntity
  8
細線
100
AcDbLine
 10
32.71925965455
 20
1.603960612586
 30
0.0
 11
34.39846757534
 21
18.396039820509
 31
0.0
  0
LINE
  5
39B2
330
3994
100
AcDbEntity
  8
細線
100
AcDbLine
 10
36.71925965455
 20
1.603960612586
 30
0.0
 11
38.358863614944
 21
18.000000216549
 31
0.0
  0
LINE
  5
39B3
330
3994
100
AcDbEntity
  8
細線
100
AcDbLine
 10
14.358863614945
 20
6.247223466816
 30
0.0
 11
0.000001114945
 21
6.247223466816
 31
0.0
  0
LINE
  5
39B4
330
3994
100
AcDbEntity
  8
外形線
100
AcDbLine
 10
14.358863614945
 20
2.499885216549
 30
0.0
 11
0.000001114945
 21
2.499885216549
 31
0.0
  0
ARC
  5
39B5
330
3994
100
AcDbEntity
  8
外形線
100
AcDbCircle
 10
22.758863614945
 20
2.000000216549
 30
0.0
 40
1.999999999999957
100
AcDbArc
 50
168.578813725075
 51
0.0
  0
ARC
  5
39B6
330
3994
100
AcDbEntity
  8
外形線
100
AcDbCircle
 10
26.758863614945
 20
2.000000216549
 30
0.0
 40
1.999999999999957
100
AcDbArc
 50
168.578813725075
 51
0.0
  0
ARC
  5
39B7
330
3994
100
AcDbEntity
  8
外形線
100
AcDbCircle
 10
18.758863614945
 20
2.000000216549
 30
0.0
 40
1.999999999999957
100
AcDbArc
 50
168.578813725075
 51
0.0
  0
ARC
  5
39B8
330
3994
100
AcDbEntity
  8
外形線
100
AcDbCircle
 10
14.758863614944
 20
2.000000216549
 30
0.0
 40
1.999999999999957
100
AcDbArc
 50
258.463040967168
 51
0.0
  0
ARC
  5
39B9
330
3994
100
AcDbEntity
  8
外形線
100
AcDbCircle
 10
30.758863614945
 20
2.000000216549
 30
0.0
 40
1.999999999999957
100
AcDbArc
 50
168.578813725075
 51
0.0
  0
ARC
  5
39BA
330
3994
100
AcDbEntity
  8
外形線
100
AcDbCircle
 10
34.758863614944
 20
2.000000216549
 30
0.0
 40
1.999999999999957
100
AcDbArc
 50
168.578813725075
 51
0.0
  0
ARC
  5
39BB
330
3994
100
AcDbEntity
  8
外形線
100
AcDbCircle
 10
38.758863614945
 20
2.000000216549
 30
0.0
 40
1.999999999999957
100
AcDbArc
 50
168.578813725075
 51
0.0
  0
LINE
  5
39BC
330
3994
100
AcDbEntity
  8
外形線
100
AcDbLine
 10
72.717726114945
 20
17.500112716549
 30
0.0
 11
72.717726114945
 21
2.499885216549
 31
0.0
  0
LINE
  5
39BD
330
3994
100
AcDbEntity
  8
外形線
100
AcDbLine
 10
58.358863614944
 20
18.000000216551
 30
0.0
 11
58.358863614944
 21
0.000000216549
 31
0.0
  0
LINE
  5
39BE
330
3994
100
AcDbEntity
  8
細線
100
AcDbLine
 10
44.719259654547
 20
1.603960612586
 30
0.0
 11
46.358863614945
 21
18.000000216549
 31
0.0
  0
LINE
  5
39BF
330
3994
100
AcDbEntity
  8
細線
100
AcDbLine
 10
48.719259654551
 20
1.603960612586
 30
0.0
 11
50.358863614945
 21
18.000000216551
 31
0.0
  0
LINE
  5
39C0
330
3994
100
AcDbEntity
  8
細線
100
AcDbLine
 10
52.71925965455
 20
1.603960612586
 30
0.0
 11
54.358863614945
 21
18.000000216549
 31
0.0
  0
LINE
  5
39C1
330
3994
100
AcDbEntity
  8
細線
100
AcDbLine
 10
56.71925965455
 20
1.603960612586
 30
0.0
 11
58.358863614944
 21
18.000000216549
 31
0.0
  0
LINE
  5
39C2
330
3994
100
AcDbEntity
  8
外形線
100
AcDbLine
 10
75.217726114945
 20
17.500112716549
 30
0.0
 11
75.217726114945
 21
2.499885216549
 31
0.0
  0
ARC
  5
39C3
330
3994
100
AcDbEntity
  8
細線
100
AcDbCircle
 10
77.963218873597
 20
10.000000216549
 30
0.0
 40
5.2545397413469
100
AcDbArc
 50
314.422567418831
 51
45.577432581169
  0
LINE
  5
39C4
330
3994
100
AcDbEntity
  8
細線
100
AcDbLine
 10
58.358863614944
 20
6.247223466816
 30
0.0
 11
72.717726114945
 21
6.247223466816
 31
0.0
  0
LINE
  5
39C5
330
3994
100
AcDbEntity
  8
外形線
100
AcDbLine
 10
81.967756114945
 20
2.499885216549
 30
0.0
 11
58.358863614944
 21
2.499885216549
 31
0.0
  0
ARC
  5
39C6
330
3994
100
AcDbEntity
  8
外形線
100
AcDbCircle
 10
46.758863614945
 20
2.000000216549
 30
0.0
 40
1.999999999999957
100
AcDbArc
 50
168.578813725075
 51
0.0
  0
ARC
  5
39C7
330
3994
100
AcDbEntity
  8
外形線
100
AcDbCircle
 10
54.758863614944
 20
2.000000216549
 30
0.0
 40
1.999999999999957
100
AcDbArc
 50
168.578813725075
 51
0.0
  0
ARC
  5
39C8
330
3994
100
AcDbEntity
  8
外形線
100
AcDbCircle
 10
50.758863614945
 20
2.000000216549
 30
0.0
 40
1.999999999999957
100
AcDbArc
 50
168.578813725075
 51
0.0
  0
ARC
  5
39C9
330
3994
100
AcDbEntity
  8
外形線
100
AcDbCircle
 10
58.758863614945
 20
2.000000216549
 30
0.0
 40
1.999999999999957
100
AcDbArc
 50
168.578813725075
 51
258.463040967168
  0
LINE
  5
39CA
330
3994
100
AcDbEntity
  8
細線
100
AcDbLine
 10
75.217726114945
 20
6.247223466816
 30
0.0
 11
81.641106114945
 21
6.247223466816
 31
0.0
  0
ARC
  5
39CB
330
3994
100
AcDbEntity
  8
細線
100
AcDbCircle
 10
80.431268453793
 20
3.737047151901
 30
0.0
 40
2.7865197466204
100
AcDbArc
 50
0.264025677746
 51
64.267180264164
  0
LINE
  5
39CC
330
3994
100
AcDbEntity
  8
外形線
100
AcDbLine
 10
81.967758614945
 20
2.494446717084
 30
0.0
 11
83.217758614945
 21
3.749887716549
 31
0.0
  0
ENDBLK
  5
39CD
330
3994
100
AcDbEntity
  8
0
 48
10.0
100
AcDbBlockEnd
  0
BLOCK
  5
3ECA
330
3EC9
100
AcDbEntity
  8
0
 48
10.0
100
AcDbBlockBegin
  2
A$C480F1F2B
 70
     0
 10
0.0
 20
0.0
 30
0.0
  3
A$C480F1F2B
  1
A$C480F1F2B
  0
LINE
  5
3ECB
330
3EC9
100
AcDbEntity
  8
外形線
100
AcDbLine
 10
8.500001501512
 20
2.385002184348
 30
0.0
 11
8.500001501512
 21
14.179664684348
 31
0.0
  0
ARC
  5
3ECC
330
3EC9
100
AcDbEntity
  8
細線
100
AcDbCircle
 10
1.216144001512
 20
8.282372184348
 30
0.0
 40
7.2838425
100
AcDbArc
 50
326.010120640452
 51
33.98932849733
  0
ARC
  5
3ECD
330
3EC9
100
AcDbEntity
  8
細線
100
AcDbCircle
 10
4.911364001511
 20
1.275229684348
 30
0.0
 40
3.7563025
100
AcDbArc
 50
17.184150191555
 51
51.38761061704
  0
LINE
  5
3ECE
330
3EC9
100
AcDbEntity
  8
細線
100
AcDbLine
 10
2.000001501511
 20
4.210487184348
 30
0.0
 11
7.255442473881
 21
4.210487184348
 31
0.0
  0
LINE
  5
3ECF
330
3EC9
100
AcDbEntity
  8
外形線
100
AcDbLine
 10
2.000001501511
 20
16.564818684348
 30
0.0
 11
2.000001501511
 21
0.000000684348
 31
0.0
  0
LINE
  5
3ED0
330
3EC9
100
AcDbEntity
  8
外形線
100
AcDbLine
 10
0.000001501512
 20
16.564818684348
 30
0.0
 11
0.000001501512
 21
0.000000684348
 31
0.0
  0
LINE
  5
3ED1
330
3EC9
100
AcDbEntity
  8
外形線
100
AcDbLine
 10
6.114929777464
 20
0.000000684348
 30
0.0
 11
8.499926501511
 21
2.385079684348
 31
0.0
  0
LINE
  5
3ED2
330
3EC9
100
AcDbEntity
  8
外形線
100
AcDbLine
 10
0.000001501512
 20
0.000000684348
 30
0.0
 11
6.114929777464
 21
0.000000684348
 31
0.0
  0
ARC
  5
3ED3
330
3EC9
100
AcDbEntity
  8
細線
100
AcDbCircle
 10
4.911364001511
 20
15.289437184348
 30
0.0
 40
3.7563025
100
AcDbArc
 50
308.612371782873
 51
342.81588950412
  0
LINE
  5
3ED4
330
3EC9
100
AcDbEntity
  8
細線
100
AcDbLine
 10
2.000001501511
 20
12.354369684348
 30
0.0
 11
7.25548242852
 21
12.354369684348
 31
0.0
  0
LINE
  5
3ED5
330
3EC9
100
AcDbEntity
  8
外形線
100
AcDbLine
 10
6.11493439904
 20
16.564818684348
 30
0.0
 11
8.499926501511
 21
14.179664684348
 31
0.0
  0
LINE
  5
3ED6
330
3EC9
100
AcDbEntity
  8
外形線
100
AcDbLine
 10
0.000001501512
 20
16.564818684348
 30
0.0
 11
6.11493439904
 21
16.564818684348
 31
0.0
  0
ENDBLK
  5
3ED7
330
3EC9
100
AcDbEntity
  8
0
 48
10.0
100
AcDbBlockEnd
  0
BLOCK
  5
464F
330
4645
100
AcDbEntity
  8
0
 62
     1
 48
10.0
100
AcDbBlockBegin
  2
*D8
 70
     1
 10
0.0
 20
0.0
 30
0.0
  3
*D8
  1
*D8
  0
LINE
  5
47FF
330
4645
100
AcDbEntity
  8
寸法線
 62
     0
 48
10.0
100
AcDbLine
 10
638.609583994314
 20
433.720079874993
 30
0.0
 11
704.646208604536
 21
433.720079874993
 31
0.0
  0
LINE
  5
4800
330
4645
100
AcDbEntity
  8
寸法線
 62
     0
 48
10.0
100
AcDbLine
 10
638.609583994314
 20
331.720079874993
 30
0.0
 11
704.646208604536
 21
331.720079874993
 31
0.0
  0
LINE
  5
4801
330
4645
100
AcDbEntity
  8
寸法線
 62
     0
 48
10.0
100
AcDbLine
 10
703.396208604536
 20
427.720079874993
 30
0.0
 11
703.396208604536
 21
337.720079874993
 31
0.0
  0
INSERT
  5
4802
330
4645
100
AcDbEntity
  8
寸法線
 62
     0
100
AcDbBlockReference
  2
_OPEN30
 10
703.396208604536
 20
433.720079874993
 30
0.0
 41
6.0
 42
6.0
 43
6.0
 50
90.0
  0
INSERT
  5
4803
330
4645
100
AcDbEntity
  8
寸法線
 62
     0
100
AcDbBlockReference
  2
_OPEN30
 10
703.396208604536
 20
331.720079874993
 30
0.0
 41
6.0
 42
6.0
 43
6.0
 50
270.0
  0
MTEXT
  5
4804
330
4645
100
AcDbEntity
  8
寸法線
 62
     0
 48
10.0
100
AcDbMText
 10
698.767041937869
 20
382.108080374993
 30
0.0
 40
8.0
 41
0.0
 71
     5
 72
     1
  1
\A1;φ102
 11
0.0
 21
1.0
 31
0.0
  0
POINT
  5
4805
330
4645
100
AcDbEntity
  8
DEFPOINTS
 62
     0
100
AcDbPoint
 10
637.984583994314
 20
433.720079874993
 30
0.0
  0
POINT
  5
4806
330
4645
100
AcDbEntity
  8
DEFPOINTS
 62
     0
100
AcDbPoint
 10
637.984583994314
 20
331.720079874993
 30
0.0
  0
POINT
  5
4807
330
4645
100
AcDbEntity
  8
DEFPOINTS
 62
     0
100
AcDbPoint
 10
703.396208604536
 20
331.720079874993
 30
0.0
  0
ENDBLK
  5
4650
330
4645
100
AcDbEntity
  8
0
 62
     1
 48
10.0
100
AcDbBlockEnd
  0
BLOCK
  5
465B
330
4651
100
AcDbEntity
  8
0
 62
     1
 48
10.0
100
AcDbBlockBegin
  2
*D9
 70
     1
 10
0.0
 20
0.0
 30
0.0
  3
*D9
  1
*D9
  0
LINE
  5
47F6
330
4651
100
AcDbEntity
  8
寸法線
 62
     0
 48
10.0
100
AcDbLine
 10
682.277429994312
 20
350.885862684782
 30
0.0
 11
682.277429994312
 21
280.397489929616
 31
0.0
  0
LINE
  5
47F7
330
4651
100
AcDbEntity
  8
寸法線
 62
     0
 48
10.0
100
AcDbLine
 10
599.277429994312
 20
300.193888938354
 30
0.0
 11
599.277429994312
 21
280.397489929616
 31
0.0
  0
LINE
  5
47F8
330
4651
100
AcDbEntity
  8
寸法線
 62
     0
 48
10.0
100
AcDbLine
 10
676.277429994312
 20
281.647489929616
 30
0.0
 11
605.277429994312
 21
281.647489929616
 31
0.0
  0
INSERT
  5
47F9
330
4651
100
AcDbEntity
  8
寸法線
 62
     0
100
AcDbBlockReference
  2
_OPEN30
 10
682.277429994312
 20
281.647489929616
 30
0.0
 41
6.0
 42
6.0
 43
6.0
  0
INSERT
  5
47FA
330
4651
100
AcDbEntity
  8
寸法線
 62
     0
100
AcDbBlockReference
  2
_OPEN30
 10
599.277429994312
 20
281.647489929616
 30
0.0
 41
6.0
 42
6.0
 43
6.0
 50
180.0
  0
MTEXT
  5
47FB
330
4651
100
AcDbEntity
  8
寸法線
 62
     0
 48
10.0
100
AcDbMText
 10
640.777429994312
 20
286.284989929616
 30
0.0
 40
8.0
 41
0.0
 71
     5
 72
     1
  1
\A1;83
  0
POINT
  5
47FC
330
4651
100
AcDbEntity
  8
DEFPOINTS
 62
     0
100
AcDbPoint
 10
682.277429994312
 20
351.510862684782
 30
0.0
  0
POINT
  5
47FD
330
4651
100
AcDbEntity
  8
DEFPOINTS
 62
     0
100
AcDbPoint
 10
599.277429994312
 20
300.818888938354
 30
0.0
  0
POINT
  5
47FE
330
4651
100
AcDbEntity
  8
DEFPOINTS
 62
     0
100
AcDbPoint
 10
599.277429994312
 20
281.647489929616
 30
0.0
  0
ENDBLK
  5
465C
330
4651
100
AcDbEntity
  8
0
 62
     1
 48
10.0
100
AcDbBlockEnd
  0
BLOCK
  5
4669
330
465D
100
AcDbEntity
  8
0
 62
     1
 48
10.0
100
AcDbBlockBegin
  2
*D10
 70
     1
 10
0.0
 20
0.0
 30
0.0
  3
*D10
  1
*D10
  0
LINE
  5
4830
330
465D
100
AcDbEntity
  8
寸法線
 62
     0
 48
10.0
100
AcDbLine
 10
532.277429994312
 20
305.095079874993
 30
0.0
 11
532.277429994312
 21
280.397489929616
 31
0.0
  0
LINE
  5
4831
330
465D
100
AcDbEntity
  8
寸法線
 62
     0
 48
10.0
100
AcDbLine
 10
542.277429994312
 20
305.595079874993
 30
0.0
 11
542.277429994312
 21
280.397489929616
 31
0.0
  0
LINE
  5
4832
330
465D
100
AcDbEntity
  8
寸法線
 62
     0
 48
10.0
100
AcDbLine
 10
532.277429994312
 20
281.647489929616
 30
0.0
 11
542.277429994312
 21
281.647489929616
 31
0.0
  0
LINE
  5
4833
330
465D
100
AcDbEntity
  8
寸法線
 62
     0
 48
10.0
100
AcDbLine
 10
526.277429994312
 20
281.647489929616
 30
0.0
 11
520.277429994312
 21
281.647489929616
 31
0.0
  0
LINE
  5
4834
330
465D
100
AcDbEntity
  8
寸法線
 62
     0
 48
10.0
100
AcDbLine
 10
548.277429994312
 20
281.647489929616
 30
0.0
 11
554.277429994312
 21
281.647489929616
 31
0.0
  0
INSERT
  5
4835
330
465D
100
AcDbEntity
  8
寸法線
 62
     0
100
AcDbBlockReference
  2
_OPEN30
 10
532.277429994312
 20
281.647489929616
 30
0.0
 41
6.0
 42
6.0
 43
6.0
  0
INSERT
  5
4836
330
465D
100
AcDbEntity
  8
寸法線
 62
     0
100
AcDbBlockReference
  2
_OPEN30
 10
542.277429994312
 20
281.647489929616
 30
0.0
 41
6.0
 42
6.0
 43
6.0
 50
180.0
  0
MTEXT
  5
4837
330
465D
100
AcDbEntity
  8
寸法線
 62
     0
 48
10.0
100
AcDbMText
 10
537.277429994312
 20
286.272489929616
 30
0.0
 40
8.0
 41
0.0
 71
     5
 72
     1
  1
\A1;10
  0
POINT
  5
4838
330
465D
100
AcDbEntity
  8
DEFPOINTS
 62
     0
100
AcDbPoint
 10
532.277429994312
 20
305.720079874993
 30
0.0
  0
POINT
  5
4839
330
465D
100
AcDbEntity
  8
DEFPOINTS
 62
     0
100
AcDbPoint
 10
542.277429994312
 20
306.220079874993
 30
0.0
  0
POINT
  5
483A
330
465D
100
AcDbEntity
  8
DEFPOINTS
 62
     0
100
AcDbPoint
 10
542.277429994312
 20
281.647489929616
 30
0.0
  0
ENDBLK
  5
466A
330
465D
100
AcDbEntity
  8
0
 62
     1
 48
10.0
100
AcDbBlockEnd
  0
BLOCK
  5
4675
330
466B
100
AcDbEntity
  8
0
 62
     1
 48
10.0
100
AcDbBlockBegin
  2
*D11
 70
     1
 10
0.0
 20
0.0
 30
0.0
  3
*D11
  1
*D11
  0
LINE
  5
47E2
330
466B
100
AcDbEntity
  8
寸法線
 62
     0
 48
10.0
100
AcDbLine
 10
532.277429994312
 20
305.095079874993
 30
0.0
 11
532.277429994312
 21
262.829852703284
 31
0.0
  0
LINE
  5
47E3
330
466B
100
AcDbEntity
  8
寸法線
 62
     0
 48
10.0
100
AcDbLine
 10
682.277429994312
 20
350.885862684782
 30
0.0
 11
682.277429994312
 21
262.829852703284
 31
0.0
  0
LINE
  5
47E4
330
466B
100
AcDbEntity
  8
寸法線
 62
     0
 48
10.0
100
AcDbLine
 10
538.277429994312
 20
264.079852703284
 30
0.0
 11
676.277429994312
 21
264.079852703284
 31
0.0
  0
INSERT
  5
47E5
330
466B
100
AcDbEntity
  8
寸法線
 62
     0
100
AcDbBlockReference
  2
_OPEN30
 10
532.277429994312
 20
264.079852703284
 30
0.0
 41
6.0
 42
6.0
 43
6.0
 50
180.0
  0
INSERT
  5
47E6
330
466B
100
AcDbEntity
  8
寸法線
 62
     0
100
AcDbBlockReference
  2
_OPEN30
 10
682.277429994312
 20
264.079852703284
 30
0.0
 41
6.0
 42
6.0
 43
6.0
  0
MTEXT
  5
47E7
330
466B
100
AcDbEntity
  8
寸法線
 62
     0
 48
10.0
100
AcDbMText
 10
607.265023994313
 20
268.704852703284
 30
0.0
 40
8.0
 41
0.0
 71
     5
 72
     1
  1
\A1;150
  0
POINT
  5
47E8
330
466B
100
AcDbEntity
  8
DEFPOINTS
 62
     0
100
AcDbPoint
 10
532.277429994312
 20
305.720079874993
 30
0.0
  0
POINT
  5
47E9
330
466B
100
AcDbEntity
  8
DEFPOINTS
 62
     0
100
AcDbPoint
 10
682.277429994312
 20
351.510862684782
 30
0.0
  0
POINT
  5
47EA
330
466B
100
AcDbEntity
  8
DEFPOINTS
 62
     0
100
AcDbPoint
 10
682.277429994312
 20
264.079852703284
 30
0.0
  0
ENDBLK
  5
4676
330
466B
100
AcDbEntity
  8
0
 62
     1
 48
10.0
100
AcDbBlockEnd
  0
BLOCK
  5
4680
330
4677
100
AcDbEntity
  8
0
 62
     1
 48
10.0
100
AcDbBlockBegin
  2
*D12
 70
     1
 10
0.0
 20
0.0
 30
0.0
  3
*D12
  1
*D12
  0
LINE
  5
47DA
330
4677
100
AcDbEntity
  8
寸法線
 62
     0
 48
10.0
100
AcDbLine
 10
246.158611994758
 20
375.208016253081
 30
0.0
 11
246.158611994758
 21
322.936564404127
 31
0.0
  0
LINE
  5
47DB
330
4677
100
AcDbEntity
  8
寸法線
 62
     0
 48
10.0
100
AcDbLine
 10
303.248861476076
 20
375.095071124993
 30
0.0
 11
303.248861476076
 21
322.936564404127
 31
0.0
  0
LINE
  5
47DC
330
4677
100
AcDbEntity
  8
寸法線
 62
     0
 48
10.0
100
AcDbLine
 10
252.158611994758
 20
324.186564404127
 30
0.0
 11
297.248861476076
 21
324.186564404127
 31
0.0
  0
INSERT
  5
47DD
330
4677
100
AcDbEntity
  8
寸法線
 62
     0
100
AcDbBlockReference
  2
_OPEN30
 10
246.158611994758
 20
324.186564404127
 30
0.0
 41
6.0
 42
6.0
 43
6.0
 50
180.0
  0
INSERT
  5
47DE
330
4677
100
AcDbEntity
  8
寸法線
 62
     0
100
AcDbBlockReference
  2
_OPEN30
 10
303.248861476076
 20
324.186564404127
 30
0.0
 41
6.0
 42
6.0
 43
6.0
  0
POINT
  5
47DF
330
4677
100
AcDbEntity
  8
DEFPOINTS
 62
     0
100
AcDbPoint
 10
246.158611994758
 20
375.833016253081
 30
0.0
  0
POINT
  5
47E0
330
4677
100
AcDbEntity
  8
DEFPOINTS
 62
     0
100
AcDbPoint
 10
303.248861476076
 20
375.720071124993
 30
0.0
  0
POINT
  5
47E1
330
4677
100
AcDbEntity
  8
DEFPOINTS
 62
     0
100
AcDbPoint
 10
303.248861476076
 20
324.186564404127
 30
0.0
  0
ENDBLK
  5
4681
330
4677
100
AcDbEntity
  8
0
 62
     1
 48
10.0
100
AcDbBlockEnd
  0
BLOCK
  5
468B
330
4682
100
AcDbEntity
  8
0
 62
     1
 48
10.0
100
AcDbBlockBegin
  2
*D13
 70
     1
 10
0.0
 20
0.0
 30
0.0
  3
*D13
  1
*D13
  0
LINE
  5
47D2
330
4682
100
AcDbEntity
  8
寸法線
 62
     0
 48
10.0
100
AcDbLine
 10
142.658611994759
 20
323.561564404127
 30
0.0
 11
142.658611994759
 21
262.829852703284
 31
0.0
  0
LINE
  5
47D3
330
4682
100
AcDbEntity
  8
寸法線
 62
     0
 48
10.0
100
AcDbLine
 10
532.277429994312
 20
304.595080874993
 30
0.0
 11
532.277429994312
 21
262.829852703284
 31
0.0
  0
LINE
  5
47D4
330
4682
100
AcDbEntity
  8
寸法線
 62
     0
 48
10.0
100
AcDbLine
 10
148.658611994759
 20
264.079852703284
 30
0.0
 11
526.277429994312
 21
264.079852703284
 31
0.0
  0
INSERT
  5
47D5
330
4682
100
AcDbEntity
  8
寸法線
 62
     0
100
AcDbBlockReference
  2
_OPEN30
 10
142.658611994759
 20
264.079852703284
 30
0.0
 41
6.0
 42
6.0
 43
6.0
 50
180.0
  0
INSERT
  5
47D6
330
4682
100
AcDbEntity
  8
寸法線
 62
     0
100
AcDbBlockReference
  2
_OPEN30
 10
532.277429994312
 20
264.079852703284
 30
0.0
 41
6.0
 42
6.0
 43
6.0
  0
POINT
  5
47D7
330
4682
100
AcDbEntity
  8
DEFPOINTS
 62
     0
100
AcDbPoint
 10
142.658611994759
 20
324.186564404127
 30
0.0
  0
POINT
  5
47D8
330
4682
100
AcDbEntity
  8
DEFPOINTS
 62
     0
100
AcDbPoint
 10
532.277429994312
 20
305.220080874993
 30
0.0
  0
POINT
  5
47D9
330
4682
100
AcDbEntity
  8
DEFPOINTS
 62
     0
100
AcDbPoint
 10
532.277429994312
 20
264.079852703284
 30
0.0
  0
ENDBLK
  5
468C
330
4682
100
AcDbEntity
  8
0
 62
     1
 48
10.0
100
AcDbBlockEnd
  0
BLOCK
  5
4699
330
468D
100
AcDbEntity
  8
0
 62
     1
 48
10.0
100
AcDbBlockBegin
  2
*D14
 70
     1
 10
0.0
 20
0.0
 30
0.0
  3
*D14
  1
*D14
  0
LINE
  5
47C7
330
468D
100
AcDbEntity
  8
寸法線
 62
     0
 48
10.0
100
AcDbLine
 10
500.565851055016
 20
377.720154874993
 30
0.0
 11
499.940851055016
 21
377.720154874993
 31
0.0
  0
LINE
  5
47C8
330
468D
100
AcDbEntity
  8
寸法線
 62
     0
 48
10.0
100
AcDbLine
 10
500.565851055016
 20
387.720154874993
 30
0.0
 11
499.940851055016
 21
387.720154874993
 31
0.0
  0
LINE
  5
47C9
330
468D
100
AcDbEntity
  8
寸法線
 62
     0
 48
10.0
100
AcDbLine
 10
501.190851055016
 20
393.720154874993
 30
0.0
 11
501.190851055016
 21
416.83682154166
 31
0.0
  0
LINE
  5
47CA
330
468D
100
AcDbEntity
  8
寸法線
 62
     0
 48
10.0
100
AcDbLine
 10
501.190851055016
 20
377.720154874993
 30
0.0
 11
501.190851055016
 21
387.720154874993
 31
0.0
  0
LINE
  5
47CB
330
468D
100
AcDbEntity
  8
寸法線
 62
     0
 48
10.0
100
AcDbLine
 10
501.190851055016
 20
371.720154874993
 30
0.0
 11
501.190851055016
 21
365.720154874993
 31
0.0
  0
INSERT
  5
47CC
330
468D
100
AcDbEntity
  8
寸法線
 62
     0
100
AcDbBlockReference
  2
_OPEN30
 10
501.190851055016
 20
377.720154874993
 30
0.0
 41
6.0
 42
6.0
 43
6.0
 50
90.0
  0
INSERT
  5
47CD
330
468D
100
AcDbEntity
  8
寸法線
 62
     0
100
AcDbBlockReference
  2
_OPEN30
 10
501.190851055016
 20
387.720154874993
 30
0.0
 41
6.0
 42
6.0
 43
6.0
 50
270.0
  0
MTEXT
  5
47CE
330
468D
100
AcDbEntity
  8
寸法線
 62
     0
 48
10.0
100
AcDbMText
 10
496.565851055016
 20
408.278488208326
 30
0.0
 40
8.0
 41
0.0
 71
     5
 72
     1
  1
\A1;φ10
 11
0.0
 21
1.0
 31
0.0
  0
POINT
  5
47CF
330
468D
100
AcDbEntity
  8
DEFPOINTS
 62
     0
100
AcDbPoint
 10
501.190851055016
 20
377.720154874993
 30
0.0
  0
POINT
  5
47D0
330
468D
100
AcDbEntity
  8
DEFPOINTS
 62
     0
100
AcDbPoint
 10
501.190851055016
 20
387.720154874993
 30
0.0
  0
POINT
  5
47D1
330
468D
100
AcDbEntity
  8
DEFPOINTS
 62
     0
100
AcDbPoint
 10
501.190851055016
 20
387.720154874993
 30
0.0
  0
ENDBLK
  5
469A
330
468D
100
AcDbEntity
  8
0
 62
     1
 48
10.0
100
AcDbBlockEnd
  0
BLOCK
  5
46A6
330
469B
100
AcDbEntity
  8
0
 62
     1
 48
10.0
100
AcDbBlockBegin
  2
*D15
 70
     1
 10
0.0
 20
0.0
 30
0.0
  3
*D15
  1
*D15
  0
LINE
  5
47BD
330
469B
100
AcDbEntity
  8
寸法線
 62
     0
 48
10.0
100
AcDbLine
 10
365.394889042571
 20
389.620139874993
 30
0.0
 11
364.769889042571
 21
389.620139874993
 31
0.0
  0
LINE
  5
47BE
330
469B
100
AcDbEntity
  8
寸法線
 62
     0
 48
10.0
100
AcDbLine
 10
365.394889042571
 20
375.820167374993
 30
0.0
 11
364.769889042571
 21
375.820167374993
 31
0.0
  0
LINE
  5
47BF
330
469B
100
AcDbEntity
  8
寸法線
 62
     0
 48
10.0
100
AcDbLine
 10
366.019889042571
 20
389.620139874993
 30
0.0
 11
366.019889042571
 21
421.003473208327
 31
0.0
  0
LINE
  5
47C0
330
469B
100
AcDbEntity
  8
寸法線
 62
     0
 48
10.0
100
AcDbLine
 10
366.019889042571
 20
383.620139874993
 30
0.0
 11
366.019889042571
 21
381.820167374993
 31
0.0
  0
INSERT
  5
47C1
330
469B
100
AcDbEntity
  8
寸法線
 62
     0
100
AcDbBlockReference
  2
_OPEN30
 10
366.019889042571
 20
389.620139874993
 30
0.0
 41
6.0
 42
6.0
 43
6.0
 50
90.0
  0
INSERT
  5
47C2
330
469B
100
AcDbEntity
  8
寸法線
 62
     0
100
AcDbBlockReference
  2
_OPEN30
 10
366.019889042571
 20
375.820167374993
 30
0.0
 41
6.0
 42
6.0
 43
6.0
 50
270.0
  0
MTEXT
  5
47C3
330
469B
100
AcDbEntity
  8
寸法線
 62
     0
 48
10.0
100
AcDbMText
 10
361.382389042571
 20
408.445139874993
 30
0.0
 40
8.0
 41
0.0
 71
     5
 72
     1
  1
\A1;φ13.8
 11
0.0
 21
1.0
 31
0.0
  0
POINT
  5
47C4
330
469B
100
AcDbEntity
  8
DEFPOINTS
 62
     0
100
AcDbPoint
 10
366.019889042571
 20
389.620139874993
 30
0.0
  0
POINT
  5
47C5
330
469B
100
AcDbEntity
  8
DEFPOINTS
 62
     0
100
AcDbPoint
 10
366.019889042571
 20
375.820167374993
 30
0.0
  0
POINT
  5
47C6
330
469B
100
AcDbEntity
  8
DEFPOINTS
 62
     0
100
AcDbPoint
 10
366.019889042571
 20
375.820167374993
 30
0.0
  0
ENDBLK
  5
46A7
330
469B
100
AcDbEntity
  8
0
 62
     1
 48
10.0
100
AcDbBlockEnd
  0
BLOCK
  5
46B4
330
46A8
100
AcDbEntity
  8
0
 62
     1
 48
10.0
100
AcDbBlockBegin
  2
*D16
 70
     1
 10
0.0
 20
0.0
 30
0.0
  3
*D16
  1
*D16
  0
LINE
  5
47B2
330
46A8
100
AcDbEntity
  8
寸法線
 62
     0
 48
10.0
100
AcDbLine
 10
285.325868976076
 20
386.720169874993
 30
0.0
 11
284.700868976076
 21
386.720169874993
 31
0.0
  0
LINE
  5
47B3
330
46A8
100
AcDbEntity
  8
寸法線
 62
     0
 48
10.0
100
AcDbLine
 10
285.325868976076
 20
378.720137374993
 30
0.0
 11
284.700868976076
 21
378.720137374993
 31
0.0
  0
LINE
  5
47B4
330
46A8
100
AcDbEntity
  8
寸法線
 62
     0
 48
10.0
100
AcDbLine
 10
285.950868976076
 20
386.720169874993
 30
0.0
 11
285.950868976076
 21
412.103503208326
 31
0.0
  0
LINE
  5
47B5
330
46A8
100
AcDbEntity
  8
寸法線
 62
     0
 48
10.0
100
AcDbLine
 10
285.950868976076
 20
386.720169874993
 30
0.0
 11
285.950868976076
 21
378.720137374993
 31
0.0
  0
LINE
  5
47B6
330
46A8
100
AcDbEntity
  8
寸法線
 62
     0
 48
10.0
100
AcDbLine
 10
285.950868976076
 20
392.720169874993
 30
0.0
 11
285.950868976076
 21
398.720169874993
 31
0.0
  0
LINE
  5
47B7
330
46A8
100
AcDbEntity
  8
寸法線
 62
     0
 48
10.0
100
AcDbLine
 10
285.950868976076
 20
372.720137374993
 30
0.0
 11
285.950868976076
 21
366.720137374993
 31
0.0
  0
INSERT
  5
47B8
330
46A8
100
AcDbEntity
  8
寸法線
 62
     0
100
AcDbBlockReference
  2
_OPEN30
 10
285.950868976076
 20
386.720169874993
 30
0.0
 41
6.0
 42
6.0
 43
6.0
 50
270.0
  0
INSERT
  5
47B9
330
46A8
100
AcDbEntity
  8
寸法線
 62
     0
100
AcDbBlockReference
  2
_OPEN30
 10
285.950868976076
 20
378.720137374993
 30
0.0
 41
6.0
 42
6.0
 43
6.0
 50
90.0
  0
MTEXT
  5
47BA
330
46A8
100
AcDbEntity
  8
寸法線
 62
     0
 48
10.0
100
AcDbMText
 10
281.317535642743
 20
405.545169874993
 30
0.0
 40
8.0
 41
0.0
 71
     5
 72
     1
  1
\A1;φ8
 11
0.0
 21
1.0
 31
0.0
  0
POINT
  5
47BB
330
46A8
100
AcDbEntity
  8
DEFPOINTS
 62
     0
100
AcDbPoint
 10
285.950868976076
 20
386.720169874993
 30
0.0
  0
POINT
  5
47BC
330
46A8
100
AcDbEntity
  8
DEFPOINTS
 62
     0
100
AcDbPoint
 10
285.950868976076
 20
378.720137374993
 30
0.0
  0
POINT
  5
4D5F
330
46A8
100
AcDbEntity
  8
DEFPOINTS
 62
     0
100
AcDbPoint
 10
285.950868976076
 20
378.720137374993
 30
0.0
  0
ENDBLK
  5
46B5
330
46A8
100
AcDbEntity
  8
0
 62
     1
 48
10.0
100
AcDbBlockEnd
  0
BLOCK
  5
46C0
330
46B6
100
AcDbEntity
  8
0
 62
     1
 48
10.0
100
AcDbBlockBegin
  2
*D17
 70
     1
 10
0.0
 20
0.0
 30
0.0
  3
*D17
  1
*D17
  0
LINE
  5
47A9
330
46B6
100
AcDbEntity
  8
寸法線
 62
     0
 48
10.0
100
AcDbLine
 10
142.033611994759
 20
422.712621589699
 30
0.0
 11
119.449370705554
 21
422.712621589699
 31
0.0
  0
LINE
  5
47AA
330
46B6
100
AcDbEntity
  8
寸法線
 62
     0
 48
10.0
100
AcDbLine
 10
142.033611994759
 20
342.712621589699
 30
0.0
 11
119.449370705554
 21
342.712621589699
 31
0.0
  0
LINE
  5
47AB
330
46B6
100
AcDbEntity
  8
寸法線
 62
     0
 48
10.0
100
AcDbLine
 10
120.699370705554
 20
416.712621589699
 30
0.0
 11
120.699370705554
 21
348.712621589699
 31
0.0
  0
INSERT
  5
47AC
330
46B6
100
AcDbEntity
  8
寸法線
 62
     0
100
AcDbBlockReference
  2
_OPEN30
 10
120.699370705554
 20
422.712621589699
 30
0.0
 41
6.0
 42
6.0
 43
6.0
 50
90.0
  0
INSERT
  5
47AD
330
46B6
100
AcDbEntity
  8
寸法線
 62
     0
100
AcDbBlockReference
  2
_OPEN30
 10
120.699370705554
 20
342.712621589699
 30
0.0
 41
6.0
 42
6.0
 43
6.0
 50
270.0
  0
MTEXT
  5
47AE
330
46B6
100
AcDbEntity
  8
寸法線
 62
     0
 48
10.0
100
AcDbMText
 10
116.066037372221
 20
382.712621589699
 30
0.0
 40
8.0
 41
0.0
 71
     5
 72
     1
  1
\A1;80
 11
0.0
 21
1.0
 31
0.0
  0
POINT
  5
47AF
330
46B6
100
AcDbEntity
  8
DEFPOINTS
 62
     0
100
AcDbPoint
 10
142.658611994759
 20
422.712621589699
 30
0.0
  0
POINT
  5
47B0
330
46B6
100
AcDbEntity
  8
DEFPOINTS
 62
     0
100
AcDbPoint
 10
142.658611994759
 20
342.712621589699
 30
0.0
  0
POINT
  5
47B1
330
46B6
100
AcDbEntity
  8
DEFPOINTS
 62
     0
100
AcDbPoint
 10
120.699370705554
 20
342.712621589699
 30
0.0
  0
ENDBLK
  5
46C1
330
46B6
100
AcDbEntity
  8
0
 62
     1
 48
10.0
100
AcDbBlockEnd
  0
BLOCK
  5
46CC
330
46C2
100
AcDbEntity
  8
0
 62
     1
 48
10.0
100
AcDbBlockBegin
  2
*D18
 70
     1
 10
0.0
 20
0.0
 30
0.0
  3
*D18
  1
*D18
  0
LINE
  5
47A0
330
46C2
100
AcDbEntity
  8
寸法線
 62
     0
 48
10.0
100
AcDbLine
 10
142.658611994759
 20
342.087621589699
 30
0.0
 11
142.658611994759
 21
322.936564404127
 31
0.0
  0
LINE
  5
47A1
330
46C2
100
AcDbEntity
  8
寸法線
 62
     0
 48
10.0
100
AcDbLine
 10
222.658611994759
 20
370.087621589699
 30
0.0
 11
222.658611994759
 21
322.936564404127
 31
0.0
  0
LINE
  5
47A2
330
46C2
100
AcDbEntity
  8
寸法線
 62
     0
 48
10.0
100
AcDbLine
 10
148.658611994759
 20
324.186564404127
 30
0.0
 11
216.658611994759
 21
324.186564404127
 31
0.0
  0
INSERT
  5
47A3
330
46C2
100
AcDbEntity
  8
寸法線
 62
     0
100
AcDbBlockReference
  2
_OPEN30
 10
142.658611994759
 20
324.186564404127
 30
0.0
 41
6.0
 42
6.0
 43
6.0
 50
180.0
  0
INSERT
  5
47A4
330
46C2
100
AcDbEntity
  8
寸法線
 62
     0
100
AcDbBlockReference
  2
_OPEN30
 10
222.658611994759
 20
324.186564404127
 30
0.0
 41
6.0
 42
6.0
 43
6.0
  0
MTEXT
  5
47A5
330
46C2
100
AcDbEntity
  8
寸法線
 62
     0
 48
10.0
100
AcDbMText
 10
182.658611994759
 20
328.81989773746
 30
0.0
 40
8.0
 41
0.0
 71
     5
 72
     1
  1
\A1;80
  0
POINT
  5
47A6
330
46C2
100
AcDbEntity
  8
DEFPOINTS
 62
     0
100
AcDbPoint
 10
142.658611994759
 20
342.712621589699
 30
0.0
  0
POINT
  5
47A7
330
46C2
100
AcDbEntity
  8
DEFPOINTS
 62
     0
100
AcDbPoint
 10
222.658611994759
 20
370.712621589699
 30
0.0
  0
POINT
  5
47A8
330
46C2
100
AcDbEntity
  8
DEFPOINTS
 62
     0
100
AcDbPoint
 10
222.658611994759
 20
324.186564404127
 30
0.0
  0
ENDBLK
  5
46CD
330
46C2
100
AcDbEntity
  8
0
 62
     1
 48
10.0
100
AcDbBlockEnd
  0
BLOCK
  5
4D0A
330
4CCD
100
AcDbEntity
  8
0
100
AcDbBlockBegin
  2
パドル_W1立面図
 70
     0
 10
0.0
 20
0.0
 30
0.0
  3
パドル_W1立面図
  1
パドル_W1立面図
  0
LINE
  5
4CCF
330
4CCD
100
AcDbEntity
  8
外形線
 48
10.0
100
AcDbLine
 10
-4.385455455444
 20
189.61846140322
 30
0.0
 11
-7.241459969979
 21
189.61846140322
 31
0.0
  0
LINE
  5
4CD0
330
4CCD
100
AcDbEntity
  8
外形線
 48
10.0
100
AcDbLine
 10
-4.385455455444
 20
269.61846140322
 30
0.0
 11
-7.241459969979
 21
269.61846140322
 31
0.0
  0
LINE
  5
4CD1
330
4CCD
100
AcDbEntity
  8
外形線
 48
10.0
100
AcDbLine
 10
-4.385455455444
 20
189.61846140322
 30
0.0
 11
-4.385455455444
 21
269.61846140322
 31
0.0
  0
LINE
  5
4CD2
330
4CCD
100
AcDbEntity
  8
外形線
 48
10.0
100
AcDbLine
 10
-7.241459969979
 20
269.61846140322
 30
0.0
 11
-7.241459969979
 21
189.61846140322
 31
0.0
  0
LINE
  5
4CD3
330
4CCD
100
AcDbEntity
  8
外形線
100
AcDbLine
 10
-4.385468503734
 20
237.376935973808
 30
0.0
 11
1.606659496266
 21
233.917433973808
 31
0.0
  0
ARC
  5
4CD4
330
4CCD
100
AcDbEntity
  8
細線
100
AcDbCircle
 10
-5.813446503734
 20
229.633375973808
 30
0.0
 40
8.568
100
AcDbArc
 50
279.594007516002
 51
80.406014579591
  0
LINE
  5
4CD5
330
4CCD
100
AcDbEntity
  8
外形線
100
AcDbLine
 10
1.606659496266
 20
233.917433973808
 30
0.0
 11
1.606659496266
 21
225.349439973808
 31
0.0
  0
LINE
  5
4CD6
330
4CCD
100
AcDbEntity
  8
外形線
100
AcDbLine
 10
-4.385468503734
 20
221.889815973808
 30
0.0
 11
1.606659496266
 21
225.349439973808
 31
0.0
  0
ARC
  5
4CD7
330
4CCD
100
AcDbEntity
  8
細線
100
AcDbCircle
 10
-5.813446503734
 20
229.633375973808
 30
0.0
 40
7.458525999999999
100
AcDbArc
 50
281.037746568172
 51
78.962275527419
  0
LINE
  5
4CD8
330
4CCD
100
AcDbEntity
  8
外形線
100
AcDbLine
 10
-7.241454503734
 20
221.889845973808
 30
0.0
 11
-13.233550503734
 21
225.349439973808
 31
0.0
  0
LINE
  5
4CD9
330
4CCD
100
AcDbEntity
  8
外形線
100
AcDbLine
 10
-13.233550503734
 20
225.349439973808
 30
0.0
 11
-13.233550503734
 21
233.917433973808
 31
0.0
  0
LINE
  5
4CDA
330
4CCD
100
AcDbEntity
  8
外形線
100
AcDbLine
 10
-7.241454503734
 20
237.376905973808
 30
0.0
 11
-13.233550503734
 21
233.917433973808
 31
0.0
  0
ARC
  5
4CDB
330
4CCD
100
AcDbEntity
  8
細線
100
AcDbCircle
 10
-5.813446503734
 20
229.633375973808
 30
0.0
 40
7.458525999999999
100
AcDbArc
 50
101.038013199227
 51
258.962026496458
  0
ARC
  5
4CDC
330
4CCD
100
AcDbEntity
  8
細線
100
AcDbCircle
 10
-5.813446503734
 20
229.633375973808
 30
0.0
 40
8.568
100
AcDbArc
 50
99.594159555498
 51
260.405880140189
  0
ENDBLK
  5
4D0B
330
4CCD
100
AcDbEntity
  8
0
100
AcDbBlockEnd
  0
BLOCK
  5
4D2D
330
4D2C
100
AcDbEntity
  8
0
100
AcDbBlockBegin
  2
*D58
 70
     1
 10
0.0
 20
0.0
 30
0.0
  3
*D58
  1
*D58
  0
LINE
  5
4D2F
330
4D2C
100
AcDbEntity
  8
寸法線
 62
     0
 48
10.0
100
AcDbLine
 10
11.207897846205
 20
352.256763001123
 30
0.0
 11
11.207897846205
 21
352.886323146469
 31
0.0
  0
LINE
  5
4D30
330
4D2C
100
AcDbEntity
  8
寸法線
 62
     0
 48
10.0
100
AcDbLine
 10
14.06390236074
 20
352.256763001123
 30
0.0
 11
14.06390236074
 21
352.886323146469
 31
0.0
  0
LINE
  5
4D31
330
4D2C
100
AcDbEntity
  8
寸法線
 62
     0
 48
10.0
100
AcDbLine
 10
20.06390236074
 20
351.636323146469
 30
0.0
 11
36.91390236074
 21
351.636323146469
 31
0.0
  0
LINE
  5
4D32
330
4D2C
100
AcDbEntity
  8
寸法線
 62
     0
 48
10.0
100
AcDbLine
 10
11.207897846205
 20
351.636323146469
 30
0.0
 11
14.06390236074
 21
351.636323146469
 31
0.0
  0
LINE
  5
4D33
330
4D2C
100
AcDbEntity
  8
寸法線
 62
     0
 48
10.0
100
AcDbLine
 10
5.207897846205
 20
351.636323146469
 30
0.0
 11
-0.792102153795
 21
351.636323146469
 31
0.0
  0
INSERT
  5
4D34
330
4D2C
100
AcDbEntity
  8
寸法線
 62
     0
100
AcDbBlockReference
  2
_OPEN30
 10
11.207897846205
 20
351.636323146469
 30
0.0
 41
6.0
 42
6.0
 43
6.0
  0
INSERT
  5
4D35
330
4D2C
100
AcDbEntity
  8
寸法線
 62
     0
100
AcDbBlockReference
  2
_OPEN30
 10
14.06390236074
 20
351.636323146469
 30
0.0
 41
6.0
 42
6.0
 43
6.0
 50
180.0
  0
MTEXT
  5
4D36
330
4D2C
100
AcDbEntity
  8
寸法線
 62
     0
 48
10.0
100
AcDbMText
 10
31.48890236074
 20
356.261323146469
 30
0.0
 40
8.0
 41
0.0
 71
     5
 72
     1
  1
\A1;1.5
  0
POINT
  5
4D37
330
4D2C
100
AcDbEntity
  8
DEFPOINTS
 62
     0
100
AcDbPoint
 10
11.207897846205
 20
351.631763001123
 30
0.0
  0
POINT
  5
4D38
330
4D2C
100
AcDbEntity
  8
DEFPOINTS
 62
     0
100
AcDbPoint
 10
14.06390236074
 20
351.631763001123
 30
0.0
  0
POINT
  5
4D39
330
4D2C
100
AcDbEntity
  8
DEFPOINTS
 62
     0
100
AcDbPoint
 10
14.06390236074
 20
351.636323146469
 30
0.0
  0
ENDBLK
  5
4D2E
330
4D2C
100
AcDbEntity
  8
0
100
AcDbBlockEnd
  0
BLOCK
  5
4D3B
330
4D3A
100
AcDbEntity
  8
0
100
AcDbBlockBegin
  2
*D59
 70
     1
 10
0.0
 20
0.0
 30
0.0
  3
*D59
  1
*D59
  0
LINE
  5
4D3D
330
4D3A
100
AcDbEntity
  8
寸法線
 62
     0
 48
10.0
100
AcDbLine
 10
-46.301253432366
 20
355.284714608382
 30
0.0
 11
-46.570450020985
 21
355.848769744583
 31
0.0
  0
LINE
  5
4D3E
330
4D3A
100
AcDbEntity
  8
寸法線
 62
     0
 48
10.0
100
AcDbLine
 10
71.022214072373
 20
411.277604647373
 30
0.0
 11
70.753017483753
 21
411.841659783575
 31
0.0
  0
LINE
  5
4D3F
330
4D3A
100
AcDbEntity
  8
寸法線
 62
     0
 48
10.0
100
AcDbLine
 10
-40.617127536209
 20
357.304946722926
 30
0.0
 11
65.876481353455
 21
408.129262260425
 31
0.0
  0
INSERT
  5
4D40
330
4D3A
100
AcDbEntity
  8
寸法線
 62
     0
100
AcDbBlockReference
  2
_OPEN30
 10
-46.032056843747
 20
354.72065947218
 30
0.0
 41
6.0
 42
6.0
 43
6.0
 50
205.512915306565
  0
INSERT
  5
4D41
330
4D3A
100
AcDbEntity
  8
寸法線
 62
     0
100
AcDbBlockReference
  2
_OPEN30
 10
71.291410660992
 20
410.713549511171
 30
0.0
 41
6.0
 42
6.0
 43
6.0
 50
25.512915306565
  0
MTEXT
  5
4D42
330
4D3A
100
AcDbEntity
  8
寸法線
 62
     0
 48
10.0
100
AcDbMText
 10
52.525251816009
 20
406.886695295415
 30
0.0
 40
8.0
 41
0.0
 71
     5
 72
     1
  1
\A1;φ130
 11
0.9024882179229283
 21
0.4307145417910768
 31
0.0
  0
POINT
  5
4D43
330
4D3A
100
AcDbEntity
  8
DEFPOINTS
 62
     0
100
AcDbPoint
 10
-46.032056843747
 20
354.72065947218
 30
0.0
  0
POINT
  5
4D44
330
4D3A
100
AcDbEntity
  8
DEFPOINTS
 62
     0
100
AcDbPoint
 10
71.291410660992
 20
410.713549511171
 30
0.0
  0
POINT
  5
4D45
330
4D3A
100
AcDbEntity
  8
DEFPOINTS
 62
     0
100
AcDbPoint
 10
71.291410660992
 20
410.713549511171
 30
0.0
  0
ENDBLK
  5
4D3C
330
4D3A
100
AcDbEntity
  8
0
100
AcDbBlockEnd
  0
BLOCK
  5
4D47
330
4D46
100
AcDbEntity
  8
0
100
AcDbBlockBegin
  2
*D60
 70
     1
 10
0.0
 20
0.0
 30
0.0
  3
*D60
  1
*D60
  0
LINE
  5
4D49
330
4D46
100
AcDbEntity
  8
寸法線
 62
     0
 48
10.0
100
AcDbLine
 10
-63.827326705457
 20
370.008239218166
 30
0.0
 11
-63.934770060236
 21
370.62393469932
 31
0.0
  0
LINE
  5
4D4A
330
4D46
100
AcDbEntity
  8
寸法線
 62
     0
 48
10.0
100
AcDbLine
 10
88.865152620798
 20
396.654191203436
 30
0.0
 11
88.757709266019
 21
397.269886684589
 31
0.0
  0
LINE
  5
4D4B
330
4D46
100
AcDbEntity
  8
寸法線
 62
     0
 48
10.0
100
AcDbLine
 10
-57.809206731596
 20
370.423999942893
 30
0.0
 11
83.061919356497
 21
395.007039516399
 31
0.0
  0
INSERT
  5
4D4C
330
4D46
100
AcDbEntity
  8
寸法線
 62
     0
100
AcDbBlockReference
  2
_OPEN30
 10
-63.719883350677
 20
369.392543737011
 30
0.0
 41
6.0
 42
6.0
 43
6.0
 50
189.898852315621
  0
INSERT
  5
4D4D
330
4D46
100
AcDbEntity
  8
寸法線
 62
     0
100
AcDbBlockReference
  2
_OPEN30
 10
88.972595975578
 20
396.038495722281
 30
0.0
 41
6.0
 42
6.0
 43
6.0
 50
9.898852315621
  0
MTEXT
  5
4D4E
330
4D46
100
AcDbEntity
  8
寸法線
 62
     0
 48
10.0
100
AcDbMText
 10
57.703422974026
 20
395.276690799526
 30
0.0
 40
8.0
 41
0.0
 71
     5
 72
     1
  1
\A1;φ155
 11
0.9851127698468046
 21
0.1719093676468986
 31
0.0
  0
POINT
  5
4D4F
330
4D46
100
AcDbEntity
  8
DEFPOINTS
 62
     0
100
AcDbPoint
 10
-63.719883350677
 20
369.392543737012
 30
0.0
  0
POINT
  5
4D50
330
4D46
100
AcDbEntity
  8
DEFPOINTS
 62
     0
100
AcDbPoint
 10
88.972595975577
 20
396.038495722281
 30
0.0
  0
POINT
  5
4D51
330
4D46
100
AcDbEntity
  8
DEFPOINTS
 62
     0
100
AcDbPoint
 10
88.972595975578
 20
396.038495722281
 30
0.0
  0
ENDBLK
  5
4D48
330
4D46
100
AcDbEntity
  8
0
100
AcDbBlockEnd
  0
ENDSEC
  0
SECTION
  2
ENTITIES
  0
LINE
  5
4546
330
1A
100
AcDbEntity
  8
外形線
100
AcDbLine
 10
641.69205822623
 20
431.272081874993
 30
0.0
 11
667.911585994313
 21
430.058459874993
 31
0.0
  0
ARC
  5
4547
330
1A
100
AcDbEntity
  8
外形線
100
AcDbCircle
 10
639.965374226231
 20
426.702501874993
 30
0.0
 40
1.714446
100
AcDbArc
 50
271.804703587001
 51
88.195318508631
  0
ARC
  5
4548
330
1A
100
AcDbEntity
  8
外形線
100
AcDbCircle
 10
667.713741318501
 20
425.209279448704
 30
0.0
 40
4.853214741019798
100
AcDbArc
 50
359.990607665518
 51
87.663650269118
  0
LINE
  5
4549
330
1A
100
AcDbEntity
  8
細線
100
AcDbLine
 10
637.979290226231
 20
428.416125874993
 30
0.0
 11
637.979290226231
 21
433.720079874993
 31
0.0
  0
LINE
  5
454A
330
1A
100
AcDbEntity
  8
外形線
100
AcDbLine
 10
620.272136226229
 20
433.720079874993
 30
0.0
 11
637.979290226231
 21
433.720079874993
 31
0.0
  0
LINE
  5
454B
330
1A
100
AcDbEntity
  8
外形線
100
AcDbLine
 10
637.979290226231
 20
433.720079874993
 30
0.0
 11
641.69205822623
 21
431.272081874993
 31
0.0
  0
LINE
  5
454C
330
1A
100
AcDbEntity
  8
外形線
100
AcDbLine
 10
640.019390226229
 20
428.416125874993
 30
0.0
 11
622.27128222623
 21
428.416125874993
 31
0.0
  0
LINE
  5
454D
330
1A
100
AcDbEntity
  8
外形線
100
AcDbLine
 10
640.019390226229
 20
424.988879874993
 30
0.0
 11
622.27128222623
 21
424.988879874993
 31
0.0
  0
ARC
  5
454E
330
1A
100
AcDbEntity
  8
外形線
100
AcDbCircle
 10
680.415247994314
 20
413.988269874993
 30
0.0
 40
1.86215
100
AcDbArc
 50
276.184221085604
 51
91.517843466766
  0
LINE
  5
454F
330
1A
100
AcDbEntity
  8
外形線
100
AcDbLine
 10
674.645715994313
 20
412.136827874992
 30
0.0
 11
680.615807994313
 21
412.136827874992
 31
0.0
  0
LINE
  5
4550
330
1A
100
AcDbEntity
  8
外形線
100
AcDbLine
 10
674.645715994313
 20
408.138537874993
 30
0.0
 11
680.278161994313
 21
408.138537874993
 31
0.0
  0
ARC
  5
4551
330
1A
100
AcDbEntity
  8
外形線
100
AcDbCircle
 10
674.566187994313
 20
410.137683874993
 30
0.0
 40
2.000726
100
AcDbArc
 50
87.722187561485
 51
272.277852134191
  0
ARC
  5
4552
330
1A
100
AcDbEntity
  8
外形線
100
AcDbCircle
 10
680.278161994313
 20
406.139269874992
 30
0.0
 40
1.9992
100
AcDbArc
 50
0.0
 51
89.999981276022
  0
LINE
  5
4553
330
1A
100
AcDbEntity
  8
外形線
100
AcDbLine
 10
672.566979994314
 20
415.849719874993
 30
0.0
 11
680.365929994312
 21
415.849719874993
 31
0.0
  0
ARC
  5
4554
330
1A
100
AcDbEntity
  8
外形線
100
AcDbCircle
 10
674.721399994313
 20
380.867297874993
 30
0.0
 40
2.15556
100
AcDbArc
 50
181.91094868617
 51
264.487402289584
  0
ARC
  5
4555
330
1A
100
AcDbEntity
  8
外形線
100
AcDbCircle
 10
680.278161994313
 20
376.722521874993
 30
0.0
 40
1.9992
100
AcDbArc
 50
0.0
 51
89.999981276022
  0
LINE
  5
4556
330
1A
100
AcDbEntity
  8
外形線
100
AcDbLine
 10
674.514367994312
 20
378.721789874993
 30
0.0
 11
680.278161994313
 21
378.721789874993
 31
0.0
  0
LINE
  5
4557
330
1A
100
AcDbEntity
  8
外形線
100
AcDbLine
 10
674.514367994312
 20
386.718493874993
 30
0.0
 11
680.278161994313
 21
386.718493874993
 31
0.0
  0
ARC
  5
4558
330
1A
100
AcDbEntity
  8
外形線
100
AcDbCircle
 10
674.721399994313
 20
384.572985874993
 30
0.0
 40
2.15556
100
AcDbArc
 50
95.512637406102
 51
178.089033713721
  0
ARC
  5
4559
330
1A
100
AcDbEntity
  8
外形線
100
AcDbCircle
 10
680.278161994313
 20
388.717639874993
 30
0.0
 40
1.9992
100
AcDbArc
 50
270.0
 51
359.999982399907
  0
LINE
  5
455A
330
1A
100
AcDbEntity
  8
外形線
100
AcDbLine
 10
682.277429994312
 20
406.139269874992
 30
0.0
 11
682.277429994312
 21
388.717639874993
 31
0.0
  0
LINE
  5
455B
330
1A
100
AcDbEntity
  8
外形線
100
AcDbLine
 10
674.645777994312
 20
357.301745874993
 30
0.0
 11
680.278161994313
 21
357.301745874993
 31
0.0
  0
ARC
  5
455C
330
1A
100
AcDbEntity
  8
外形線
100
AcDbCircle
 10
680.278161994313
 20
359.300891874993
 30
0.0
 40
1.9992
100
AcDbArc
 50
270.0
 51
359.999982399881
  0
LINE
  5
455D
330
1A
100
AcDbEntity
  8
外形線
100
AcDbLine
 10
682.277429994312
 20
359.300891874993
 30
0.0
 11
682.277429994312
 21
376.722521874993
 31
0.0
  0
LINE
  5
455E
330
1A
100
AcDbEntity
  8
外形線
100
AcDbLine
 10
622.27128222623
 20
413.564929874993
 30
0.0
 11
638.06840022623
 21
413.564929874993
 31
0.0
  0
LINE
  5
455F
330
1A
100
AcDbEntity
  8
外形線
100
AcDbLine
 10
622.27128222623
 20
405.568103874993
 30
0.0
 11
637.979290226231
 21
405.568103874993
 31
0.0
  0
LINE
  5
4560
330
1A
100
AcDbEntity
  8
外形線
100
AcDbLine
 10
622.27128222623
 20
378.436145874993
 30
0.0
 11
637.979290226231
 21
378.436145874993
 31
0.0
  0
LINE
  5
4561
330
1A
100
AcDbEntity
  8
外形線
100
AcDbLine
 10
622.27128222623
 20
387.004137874993
 30
0.0
 11
637.979290226231
 21
387.004137874993
 31
0.0
  0
LINE
  5
4562
330
1A
100
AcDbEntity
  8
細線
100
AcDbLine
 10
637.979290226231
 20
387.004137874993
 30
0.0
 11
637.979290226231
 21
405.568103874993
 31
0.0
  0
LINE
  5
4563
330
1A
100
AcDbEntity
  8
外形線
100
AcDbLine
 10
622.27128222623
 20
359.872057874993
 30
0.0
 11
637.979290226231
 21
359.872057874993
 31
0.0
  0
LINE
  5
4564
330
1A
100
AcDbEntity
  8
細線
100
AcDbLine
 10
637.979290226231
 20
378.436145874993
 30
0.0
 11
637.979290226231
 21
359.872057874993
 31
0.0
  0
ARC
  5
4565
330
1A
100
AcDbEntity
  8
外形線
100
AcDbCircle
 10
636.69218022623
 20
383.302599874993
 30
0.0
 40
5.033766
100
AcDbArc
 50
284.815257311503
 51
353.355849216013
  0
ARC
  5
4566
330
1A
100
AcDbEntity
  8
外形線
100
AcDbCircle
 10
636.69218022623
 20
382.137683874993
 30
0.0
 40
5.033766
100
AcDbArc
 50
6.644133183896
 51
75.184725088468
  0
ARC
  5
4567
330
1A
100
AcDbEntity
  8
外形線
100
AcDbCircle
 10
637.65324022623
 20
409.570665874993
 30
0.0
 40
4.015794000000001
100
AcDbArc
 50
274.656944786914
 51
84.065438721313
  0
LINE
  5
4568
330
1A
100
AcDbEntity
  8
外形線
100
AcDbLine
 10
672.566979994314
 20
382.720079874993
 30
0.0
 11
672.566979994314
 21
425.208483874993
 31
0.0
  0
LINE
  5
4569
330
1A
100
AcDbEntity
  8
細線
100
AcDbLine
 10
637.979290226231
 20
413.564929874993
 30
0.0
 11
637.979290226231
 21
424.988879874993
 31
0.0
  0
LINE
  5
456A
330
1A
100
AcDbEntity
  8
細線
 62
     6
 48
10.0
100
AcDbLine
 10
564.491279131185
 20
405.858385621252
 30
0.0
 11
564.491279131185
 21
359.070013112421
 31
0.0
  0
LINE
  5
456B
330
1A
100
AcDbEntity
  8
外形線
100
AcDbLine
 10
619.772136226229
 20
433.720079874993
 30
0.0
 11
620.272136226229
 21
433.220079874993
 31
0.0
  0
ARC
  5
456C
330
1A
100
AcDbEntity
  8
外形線
100
AcDbCircle
 10
577.982741812126
 20
423.810487455767
 30
0.0
 40
3.0
100
AcDbArc
 50
93.179830119868
 51
147.724355685419
  0
ARC
  5
456D
330
1A
100
AcDbEntity
  8
外形線
100
AcDbCircle
 10
562.618630165034
 20
354.720079874993
 30
0.0
 40
3.0
100
AcDbArc
 50
32.275644314581
 51
90.0
  0
ARC
  5
456E
330
1A
100
AcDbEntity
  8
外形線
100
AcDbCircle
 10
562.618630165034
 20
410.720079874993
 30
0.0
 40
3.0
100
AcDbArc
 50
270.0
 51
327.724355685419
  0
LINE
  5
456F
330
1A
100
AcDbEntity
  8
外形線
100
AcDbLine
 10
562.618630165034
 20
407.720079874993
 30
0.0
 11
545.272136226229
 21
407.720079874993
 31
0.0
  0
LINE
  5
4570
330
1A
100
AcDbEntity
  8
外形線
100
AcDbLine
 10
575.446275103033
 20
425.412466429931
 30
0.0
 11
565.155096874126
 21
409.118100900829
 31
0.0
  0
LINE
  5
4571
330
1A
100
AcDbEntity
  8
外形線
100
AcDbLine
 10
612.272136226229
 20
428.720079874993
 30
0.0
 11
577.816331753258
 21
426.805868515383
 31
0.0
  0
LINE
  5
4572
330
1A
100
AcDbEntity
  8
外形線
100
AcDbLine
 10
615.272136226229
 20
433.720079874993
 30
0.0
 11
612.272136226229
 21
428.720079874993
 31
0.0
  0
LINE
  5
4573
330
1A
100
AcDbEntity
  8
外形線
100
AcDbLine
 10
619.772136226229
 20
433.720079874993
 30
0.0
 11
615.272136226229
 21
433.720079874993
 31
0.0
  0
ARC
  5
4574
330
1A
100
AcDbEntity
  8
外形線
100
AcDbCircle
 10
545.272136226229
 20
410.720079874993
 30
0.0
 40
3.0
100
AcDbArc
 50
183.404264859033
 51
270.0
  0
LINE
  5
4576
330
1A
100
AcDbEntity
  8
外形線
100
AcDbLine
 10
562.618630165034
 20
357.720079874993
 30
0.0
 11
545.272136226229
 21
357.720079874993
 31
0.0
  0
LINE
  5
4577
330
1A
100
AcDbEntity
  8
中心線
  6
CENTER
 48
10.0
100
AcDbLine
 10
527.27494255206
 20
447.720079874993
 30
0.0
 11
547.277429994312
 21
447.720079874993
 31
0.0
  0
LINE
  5
4578
330
1A
100
AcDbEntity
  8
中心線
  6
CENTER
 48
10.0
100
AcDbLine
 10
527.27494255206
 20
317.720079874993
 30
0.0
 11
547.277429994312
 21
317.720079874993
 31
0.0
  0
LINE
  5
4579
330
1A
100
AcDbEntity
  8
細線
 62
     6
 48
10.0
100
AcDbLine
 10
612.272136226229
 20
340.572911932433
 30
0.0
 11
615.272136226229
 21
331.720079874993
 31
0.0
  0
ARC
  5
457A
330
1A
100
AcDbEntity
  8
細線
100
AcDbCircle
 10
599.892909994313
 20
305.953081874991
 30
0.0
 40
36.76653200000171
100
AcDbArc
 50
70.324160459508
 51
115.211785839405
  0
LINE
  5
457B
330
1A
100
AcDbEntity
  8
外形線
100
AcDbLine
 10
672.566979994314
 20
349.590563874993
 30
0.0
 11
680.365929994312
 21
349.590563874993
 31
0.0
  0
LINE
  5
457C
330
1A
100
AcDbEntity
  8
外形線
100
AcDbLine
 10
674.645715994313
 20
353.303331874993
 30
0.0
 11
680.615807994313
 21
353.303331874993
 31
0.0
  0
ARC
  5
457D
330
1A
100
AcDbEntity
  8
外形線
100
AcDbCircle
 10
674.567469994312
 20
355.302569874993
 30
0.0
 40
2.000724
100
AcDbArc
 50
87.75702339541
 51
272.242959004483
  0
ARC
  5
457E
330
1A
100
AcDbEntity
  8
外形線
100
AcDbCircle
 10
680.415247994314
 20
351.452013874993
 30
0.0
 40
1.86215
100
AcDbArc
 50
268.482178628786
 51
83.815801009984
  0
LINE
  5
457F
330
1A
100
AcDbEntity
  8
外形線
100
AcDbLine
 10
641.69205822623
 20
334.168077874992
 30
0.0
 11
667.911585994313
 21
335.381763874993
 31
0.0
  0
ARC
  5
4580
330
1A
100
AcDbEntity
  8
外形線
100
AcDbCircle
 10
639.965374226231
 20
338.737659874993
 30
0.0
 40
1.714446
100
AcDbArc
 50
271.804703587001
 51
88.195318508631
  0
ARC
  5
4581
330
1A
100
AcDbEntity
  8
外形線
100
AcDbCircle
 10
667.713634028084
 20
340.231047295362
 30
0.0
 40
4.853322024346461
100
AcDbArc
 50
272.337565725697
 51
0.008866954305
  0
LINE
  5
4582
330
1A
100
AcDbEntity
  8
外形線
100
AcDbLine
 10
672.566979994314
 20
382.720079874993
 30
0.0
 11
672.566979994314
 21
340.231799874993
 31
0.0
  0
LINE
  5
4583
330
1A
100
AcDbEntity
  8
外形線
100
AcDbLine
 10
622.27128222623
 20
351.875353874993
 30
0.0
 11
638.06840022623
 21
351.875353874993
 31
0.0
  0
LINE
  5
4584
330
1A
100
AcDbEntity
  8
外形線
100
AcDbLine
 10
620.272136226229
 20
331.720079874993
 30
0.0
 11
637.979290226231
 21
331.720079874993
 31
0.0
  0
LINE
  5
4585
330
1A
100
AcDbEntity
  8
細線
100
AcDbLine
 10
637.979290226231
 20
337.024157874993
 30
0.0
 11
637.979290226231
 21
331.720079874993
 31
0.0
  0
LINE
  5
4586
330
1A
100
AcDbEntity
  8
細線
100
AcDbLine
 10
637.979290226231
 20
351.875353874993
 30
0.0
 11
637.979290226231
 21
340.451281874993
 31
0.0
  0
LINE
  5
4587
330
1A
100
AcDbEntity
  8
外形線
100
AcDbLine
 10
640.019390226229
 20
337.024157874993
 30
0.0
 11
622.27128222623
 21
337.024157874993
 31
0.0
  0
LINE
  5
4588
330
1A
100
AcDbEntity
  8
外形線
100
AcDbLine
 10
640.019390226229
 20
340.451281874993
 30
0.0
 11
622.27128222623
 21
340.451281874993
 31
0.0
  0
LINE
  5
4589
330
1A
100
AcDbEntity
  8
外形線
100
AcDbLine
 10
641.69205822623
 20
334.168077874992
 30
0.0
 11
637.979290226231
 21
331.720079874993
 31
0.0
  0
ARC
  5
458A
330
1A
100
AcDbEntity
  8
外形線
100
AcDbCircle
 10
637.65324022623
 20
355.869617874993
 30
0.0
 40
4.015794000000001
100
AcDbArc
 50
275.934583374273
 51
85.343077308691
  0
LINE
  5
458B
330
1A
100
AcDbEntity
  8
外形線
100
AcDbLine
 10
613.271937994314
 20
312.436053874993
 30
0.0
 11
613.271937994314
 21
308.723285874993
 31
0.0
  0
LINE
  5
458C
330
1A
100
AcDbEntity
  8
外形線
100
AcDbLine
 10
613.271937994314
 20
308.723285874993
 30
0.0
 11
611.843837994313
 21
307.295245874993
 31
0.0
  0
ARC
  5
458D
330
1A
100
AcDbEntity
  8
細線
100
AcDbCircle
 10
599.277429994312
 20
321.831927874993
 30
0.0
 40
14.53669
100
AcDbArc
 50
244.390793033801
 51
295.609209213941
  0
LINE
  5
458E
330
1A
100
AcDbEntity
  8
外形線
100
AcDbLine
 10
585.283045994313
 20
312.436053874993
 30
0.0
 11
585.283045994313
 21
308.723285874993
 31
0.0
  0
LINE
  5
458F
330
1A
100
AcDbEntity
  8
細線
100
AcDbLine
 10
592.994227994314
 20
308.723285874993
 30
0.0
 11
592.994227994314
 21
312.436053874993
 31
0.0
  0
LINE
  5
4590
330
1A
100
AcDbEntity
  8
外形線
100
AcDbLine
 10
585.283045994313
 20
308.723285874993
 30
0.0
 11
586.711023994313
 21
307.295245874993
 31
0.0
  0
ARC
  5
4591
330
1A
100
AcDbEntity
  8
細線
100
AcDbCircle
 10
585.855067994313
 20
325.598163874993
 30
0.0
 40
18.322924
100
AcDbArc
 50
272.67766208363
 51
292.931548254149
  0
LINE
  5
4592
330
1A
100
AcDbEntity
  8
外形線
100
AcDbLine
 10
589.852625994314
 20
312.436053874993
 30
0.0
 11
589.852625994314
 21
316.720049874993
 31
0.0
  0
LINE
  5
4593
330
1A
100
AcDbEntity
  8
細線
100
AcDbLine
 10
592.137415994314
 20
316.720049874993
 30
0.0
 11
592.137415994314
 21
312.436053874993
 31
0.0
  0
LINE
  5
4594
330
1A
100
AcDbEntity
  8
細線
100
AcDbLine
 10
605.560633994314
 20
308.723285874993
 30
0.0
 11
605.560633994314
 21
312.436053874993
 31
0.0
  0
LINE
  5
4595
330
1A
100
AcDbEntity
  8
外形線
100
AcDbLine
 10
608.702235994313
 20
312.436053874993
 30
0.0
 11
608.702235994313
 21
316.720049874993
 31
0.0
  0
LINE
  5
4596
330
1A
100
AcDbEntity
  8
細線
100
AcDbLine
 10
606.417445994314
 20
316.720049874993
 30
0.0
 11
606.417445994314
 21
312.436053874993
 31
0.0
  0
LINE
  5
4597
330
1A
100
AcDbEntity
  8
外形線
100
AcDbLine
 10
585.283045994313
 20
312.436053874993
 30
0.0
 11
613.271937994314
 21
312.436053874993
 31
0.0
  0
LINE
  5
4598
330
1A
100
AcDbEntity
  8
外形線
100
AcDbLine
 10
586.711023994313
 20
307.295245874993
 30
0.0
 11
611.843837994313
 21
307.295245874993
 31
0.0
  0
ARC
  5
4599
330
1A
100
AcDbEntity
  8
細線
100
AcDbCircle
 10
612.699793994312
 20
325.598163874993
 30
0.0
 40
18.322924
100
AcDbArc
 50
247.068453993572
 51
267.32239745992
  0
LINE
  5
459A
330
1A
100
AcDbEntity
  8
外形線
100
AcDbLine
 10
620.272136226229
 20
433.720079874993
 30
0.0
 11
620.272136226229
 21
331.720079874993
 31
0.0
  0
LINE
  5
459B
330
1A
100
AcDbEntity
  8
外形線
100
AcDbLine
 10
622.27128222623
 20
331.720079874993
 30
0.0
 11
622.27128222623
 21
433.720079874993
 31
0.0
  0
LINE
  5
459C
330
1A
100
AcDbEntity
  8
細線
100
AcDbLine
 10
641.69205822623
 20
431.272081874993
 30
0.0
 11
641.69205822623
 21
334.168077874992
 31
0.0
  0
LINE
  5
459D
330
1A
100
AcDbEntity
  8
細線
 62
     6
 48
10.0
100
AcDbLine
 10
576.874158681211
 20
423.645701937123
 30
0.0
 11
576.874158681211
 21
341.669378428174
 31
0.0
  0
LINE
  5
459E
330
1A
100
AcDbEntity
  8
細線
 62
     6
 48
10.0
100
AcDbLine
 10
612.272136226229
 20
428.720079874993
 30
0.0
 11
612.272136226229
 21
340.572911932433
 31
0.0
  0
LINE
  5
459F
330
1A
100
AcDbEntity
  8
細線
 62
     6
 48
10.0
100
AcDbLine
 10
615.272136226229
 20
433.720079874993
 30
0.0
 11
615.272136226229
 21
331.720079874993
 31
0.0
  0
LINE
  5
45A0
330
1A
100
AcDbEntity
  8
外形線
100
AcDbLine
 10
619.772136226229
 20
331.720079874993
 30
0.0
 11
620.272136226229
 21
332.220079874993
 31
0.0
  0
ARC
  5
45A1
330
1A
100
AcDbEntity
  8
外形線
100
AcDbCircle
 10
587.153829946179
 20
318.720079874993
 30
0.0
 40
2.0
100
AcDbArc
 50
183.491441283441
 51
270.0
  0
ARC
  5
45A2
330
1A
100
AcDbEntity
  8
外形線
100
AcDbCircle
 10
611.401030042447
 20
318.720079874993
 30
0.0
 40
2.0
100
AcDbArc
 50
270.0
 51
356.185925165712
  0
ARC
  5
45A3
330
1A
100
AcDbEntity
  8
外形線
100
AcDbCircle
 10
583.011949608918
 20
337.344103777215
 30
0.0
 40
1.0
100
AcDbArc
 50
3.491441283441
 51
86.820169880132
  0
ARC
  5
45A4
330
1A
100
AcDbEntity
  8
外形線
100
AcDbCircle
 10
577.982741812126
 20
341.629672294218
 30
0.0
 40
3.0
100
AcDbArc
 50
212.275644314581
 51
266.820169880132
  0
LINE
  5
45A5
330
1A
100
AcDbEntity
  8
外形線
100
AcDbLine
 10
575.446275103034
 20
340.027693320055
 30
0.0
 11
565.155096874126
 21
356.322058849157
 31
0.0
  0
LINE
  5
45A6
330
1A
100
AcDbEntity
  8
中心線
  6
CENTER
 48
10.0
100
AcDbLine
 10
599.277429994312
 20
300.818888938354
 30
0.0
 11
599.277429994312
 21
350.425525884613
 31
0.0
  0
LINE
  5
45A7
330
1A
100
AcDbEntity
  8
外形線
100
AcDbLine
 10
583.06741962854
 20
338.34256413042
 30
0.0
 11
577.816331753258
 21
338.634291234602
 31
0.0
  0
LINE
  5
45A8
330
1A
100
AcDbEntity
  8
外形線
100
AcDbLine
 10
584.010093515499
 20
337.405003216905
 30
0.0
 11
585.157542133017
 21
318.598280995612
 31
0.0
  0
LINE
  5
45A9
330
1A
100
AcDbEntity
  8
外形線
100
AcDbLine
 10
614.27213622623
 20
331.720079874993
 30
0.0
 11
613.39660035816
 21
318.587041853945
 31
0.0
  0
LINE
  5
45AA
330
1A
100
AcDbEntity
  8
外形線
100
AcDbLine
 10
587.153829946179
 20
316.720079874993
 30
0.0
 11
611.401030042447
 21
316.720079874993
 31
0.0
  0
LINE
  5
45AB
330
1A
100
AcDbEntity
  8
外形線
100
AcDbLine
 10
619.772136226229
 20
331.720079874993
 30
0.0
 11
614.27213622623
 21
331.720079874993
 31
0.0
  0
LINE
  5
45AC
330
1A
100
AcDbEntity
  8
外形線
100
AcDbLine
 10
542.277429994312
 20
306.220079874993
 30
0.0
 11
542.277429994312
 21
459.220079874993
 31
0.0
  0
LINE
  5
45AD
330
1A
100
AcDbEntity
  8
外形線
100
AcDbLine
 10
541.277429994312
 20
305.220079874993
 30
0.0
 11
532.777429994312
 21
305.220079874993
 31
0.0
  0
ARC
  5
45AE
330
1A
100
AcDbEntity
  8
外形線
100
AcDbCircle
 10
545.272136226229
 20
354.720079874993
 30
0.0
 40
3.0
100
AcDbArc
 50
90.0
 51
176.595735140967
  0
LEADER
  5
45AF
330
1A
100
AcDbEntity
  8
寸法線
 62
     1
 48
10.0
100
AcDbLeader
  3
ISO-25
 76
     3
 10
609.014300428626
 20
314.34756825172
 30
0.0
 10
631.992241702667
 20
298.998971637338
 30
0.0
 10
673.572596531082
 20
298.998971637338
 30
0.0
1001
ACAD
1000
DSTYLE
1002
{
1070
     5
1000
OPEN30
1070
   147
1040
0.625
1070
    77
1070
     0
1070
    41
1040
6.0
1070
    47
1040
0.1
1070
    48
1040
0.1
1070
    73
1070
     0
1070
   140
1040
8.0
1070
   271
1070
     1
1070
   272
1070
     1
1070
   341
1005
2AF4
1070
   342
1005
2AF4
1002
}
  0
DIMENSION
  5
45B0
330
1A
100
AcDbEntity
  8
寸法線
 48
10.0
100
AcDbDimension
  2
*D8
 10
703.396208604536
 20
331.720079874993
 30
0.0
 11
703.396208604536
 21
382.108080374993
 31
0.0
 70
   160
  1
φ102
  3
ISO-25
100
AcDbAlignedDimension
 13
637.984583994314
 23
433.720079874993
 33
0.0
 14
637.984583994314
 24
331.720079874993
 34
0.0
 50
90.0
100
AcDbRotatedDimension
1001
ACAD
1000
DSTYLE
1002
{
1070
     5
1000
OPEN30
1070
    41
1040
6.0
1070
    47
1040
0.1
1070
    48
1040
0.1
1070
    73
1070
     0
1070
   140
1040
8.0
1070
   271
1070
     1
1070
   272
1070
     1
1070
   341
1005
2AF4
1002
}
  0
DIMENSION
  5
45B1
330
1A
100
AcDbEntity
  8
寸法線
 48
10.0
100
AcDbDimension
  2
*D9
 10
599.277429994312
 20
281.647489929616
 30
0.0
 11
640.777429994312
 21
286.284989929616
 31
0.0
 70
    32
  3
ISO-25
100
AcDbAlignedDimension
 13
682.277429994312
 23
351.510862684782
 33
0.0
 14
599.277429994312
 24
300.818888938354
 34
0.0
100
AcDbRotatedDimension
1001
ACAD
1000
DSTYLE
1002
{
1070
     5
1000
OPEN30
1070
    41
1040
6.0
1070
    47
1040
0.1
1070
    48
1040
0.1
1070
    73
1070
     0
1070
   140
1040
8.0
1070
   271
1070
     1
1070
   272
1070
     1
1070
   341
1005
2AF4
1002
}
  0
DIMENSION
  5
45B2
330
1A
100
AcDbEntity
  8
寸法線
 48
10.0
100
AcDbDimension
  2
*D10
 10
542.277429994312
 20
281.647489929616
 30
0.0
 11
537.277429994312
 21
281.647489929616
 31
0.0
 70
   160
  3
ISO-25
100
AcDbAlignedDimension
 13
532.277429994312
 23
305.720079874993
 33
0.0
 14
542.277429994312
 24
306.220079874993
 34
0.0
100
AcDbRotatedDimension
1001
ACAD
1000
DSTYLE
1002
{
1070
     5
1000
OPEN30
1070
    41
1040
6.0
1070
    47
1040
0.1
1070
    48
1040
0.1
1070
    73
1070
     0
1070
   140
1040
8.0
1070
   271
1070
     1
1070
   272
1070
     1
1070
   341
1005
2AF4
1002
}
  0
MTEXT
  5
45B3
330
1A
100
AcDbEntity
  8
寸法線
 48
10.0
100
AcDbMText
 10
632.743529767937
 20
300.368312843396
 30
0.0
 40
8.0
 41
0.0
 71
     7
 72
     1
  1
導線取出口\PG 1/2"
  0
DIMENSION
  5
45B5
330
1A
100
AcDbEntity
  8
寸法線
 48
10.0
100
AcDbDimension
  2
*D11
 10
682.277429994312
 20
264.079852703284
 30
0.0
 11
607.265023994313
 21
264.079852703284
 31
0.0
 70
   160
  3
ISO-25
100
AcDbAlignedDimension
 13
532.277429994312
 23
305.720079874993
 33
0.0
 14
682.277429994312
 24
351.510862684782
 34
0.0
100
AcDbRotatedDimension
1001
ACAD
1000
DSTYLE
1002
{
1070
     5
1000
OPEN30
1070
    41
1040
6.0
1070
    47
1040
0.1
1070
    48
1040
0.1
1070
    73
1070
     0
1070
   140
1040
8.0
1070
   271
1070
     1
1070
   272
1070
     1
1070
   341
1005
2AF4
1002
}
  0
LINE
  5
45B6
330
1A
100
AcDbEntity
  8
外形線
100
AcDbLine
 10
532.277429994312
 20
305.720079874993
 30
0.0
 11
532.277429994312
 21
459.720079874993
 31
0.0
  0
LINE
  5
45B7
330
1A
100
AcDbEntity
  8
外形線
100
AcDbLine
 10
508.277429994312
 20
394.420153874993
 30
0.0
 11
508.277429994312
 21
371.020007874993
 31
0.0
  0
LINE
  5
45B8
330
1A
100
AcDbEntity
  8
外形線
100
AcDbLine
 10
532.277429994312
 20
397.720079874993
 30
0.0
 11
527.777429994312
 21
397.720079874993
 31
0.0
  0
LINE
  5
45B9
330
1A
100
AcDbEntity
  8
外形線
100
AcDbLine
 10
527.777429994312
 20
397.720079874993
 30
0.0
 11
527.277429994312
 21
397.220079874993
 31
0.0
  0
LINE
  5
45BA
330
1A
100
AcDbEntity
  8
外形線
100
AcDbLine
 10
527.277429994312
 20
397.731186873923
 30
0.0
 11
527.277429994312
 21
367.708972876062
 31
0.0
  0
LINE
  5
45BB
330
1A
100
AcDbEntity
  8
外形線
100
AcDbLine
 10
527.277429994312
 20
368.220079874993
 30
0.0
 11
527.777429994312
 21
367.720079874993
 31
0.0
  0
LINE
  5
45BC
330
1A
100
AcDbEntity
  8
外形線
100
AcDbLine
 10
527.777429994312
 20
367.720079874993
 30
0.0
 11
532.277429994312
 21
367.720079874993
 31
0.0
  0
LINE
  5
45BD
330
1A
100
AcDbEntity
  8
外形線
100
AcDbLine
 10
532.277429994312
 20
367.720079874993
 30
0.0
 11
532.277429994312
 21
367.720079874993
 31
0.0
  0
LINE
  5
45BE
330
1A
100
AcDbEntity
  8
外形線
100
AcDbLine
 10
508.277429994312
 20
369.720079874993
 30
0.0
 11
509.964949135373
 21
367.708972876062
 31
0.0
  0
LINE
  5
45BF
330
1A
100
AcDbEntity
  8
外形線
100
AcDbLine
 10
508.277429994312
 20
395.720079874993
 30
0.0
 11
509.964949135373
 21
397.731186873923
 31
0.0
  0
LINE
  5
45C0
330
1A
100
AcDbEntity
  8
外形線
100
AcDbLine
 10
527.277429994312
 20
397.731186873923
 30
0.0
 11
509.964949135373
 21
397.731186873923
 31
0.0
  0
LINE
  5
45C1
330
1A
100
AcDbEntity
  8
外形線
100
AcDbLine
 10
527.277429994312
 20
367.708972876062
 30
0.0
 11
509.964949135373
 21
367.708972876063
 31
0.0
  0
LINE
  5
45C2
330
1A
100
AcDbEntity
  8
外形線
100
AcDbLine
 10
508.277429994312
 20
395.720079874993
 30
0.0
 11
508.277429994312
 21
369.720079874993
 31
0.0
  0
LINE
  5
45C3
330
1A
100
AcDbEntity
  8
細線
100
AcDbLine
 10
527.277429994312
 20
390.225633374458
 30
0.0
 11
509.438543161514
 21
390.225633374458
 31
0.0
  0
ARC
  5
45C4
330
1A
100
AcDbEntity
  8
細線
100
AcDbCircle
 10
533.116316827112
 20
382.720079874993
 30
0.0
 40
24.83888683279929
100
AcDbArc
 50
162.412046226009
 51
197.587953773991
  0
ARC
  5
45C5
330
1A
100
AcDbEntity
  8
細線
100
AcDbCircle
 10
533.004389293333
 20
398.075591928581
 30
0.0
 40
24.8389
100
AcDbArc
 50
185.441626111183
 51
198.42329930487
  0
LINE
  5
45C6
330
1A
100
AcDbEntity
  8
細線
100
AcDbLine
 10
527.277429994312
 20
375.214526375528
 30
0.0
 11
509.438543161514
 21
375.214526375528
 31
0.0
  0
ARC
  5
45C7
330
1A
100
AcDbEntity
  8
細線
100
AcDbCircle
 10
533.004389293333
 20
367.364567821405
 30
0.0
 40
24.8389
100
AcDbArc
 50
161.57670069513
 51
174.558373888817
  0
LEADER
  5
45C8
330
1A
100
AcDbEntity
  8
寸法線
 62
     1
 48
10.0
100
AcDbLeader
  3
ISO-25
 76
     3
 10
490.92923809482
 20
387.919327555891
 30
0.0
 10
452.713836751854
 20
497.776470969309
 30
0.0
 10
441.944400184396
 20
497.776470969309
 30
0.0
1001
ACAD
1000
DSTYLE
1002
{
1070
     5
1000
OPEN30
1070
   147
1040
0.625
1070
    77
1070
     0
1070
    41
1040
6.0
1070
    47
1040
0.1
1070
    48
1040
0.1
1070
    73
1070
     0
1070
   140
1040
8.0
1070
   271
1070
     1
1070
   272
1070
     1
1070
   341
1005
2AF4
1070
   342
1005
2AF4
1002
}
  0
MTEXT
  5
45C9
330
1A
100
AcDbEntity
  8
寸法線
 48
10.0
100
AcDbMText
 10
418.914997444307
 20
506.272141688301
 30
0.0
 40
8.0
 41
0.0
 71
     1
 72
     5
  1
SUS304
  0
DIMENSION
  5
45CA
330
1A
100
AcDbEntity
  8
寸法線
 62
     1
 48
10.0
100
AcDbDimension
  2
*D12
 10
303.248861476076
 20
324.186564404127
 30
0.0
 11
265.992780226511
 21
324.186564404127
 31
0.0
 70
    32
  1
 
  3
ISO-25
100
AcDbAlignedDimension
 13
246.158611994758
 23
375.833016253081
 33
0.0
 14
303.248861476076
 24
375.720071124993
 34
0.0
100
AcDbRotatedDimension
1001
ACAD
1000
DSTYLE
1002
{
1070
     5
1000
OPEN30
1070
    41
1040
6.0
1070
    47
1040
0.1
1070
    48
1040
0.1
1070
    73
1070
     0
1070
   140
1040
8.0
1070
   271
1070
     1
1070
   272
1070
     1
1070
   341
1005
2AF4
1002
}
  0
DIMENSION
  5
45CB
330
1A
100
AcDbEntity
  8
寸法線
 62
     1
 48
10.0
100
AcDbDimension
  2
*D13
 10
532.277429994312
 20
264.079852703284
 30
0.0
 11
286.415453767999
 21
264.079852703284
 31
0.0
 70
    32
  1
 
  3
ISO-25
100
AcDbAlignedDimension
 13
142.658611994759
 23
324.186564404127
 33
0.0
 14
532.277429994312
 24
305.220080874993
 34
0.0
100
AcDbRotatedDimension
1001
ACAD
1000
DSTYLE
1002
{
1070
     5
1000
OPEN30
1070
    41
1040
6.0
1070
    47
1040
0.1
1070
    48
1040
0.1
1070
    73
1070
     0
1070
   140
1040
8.0
1070
   271
1070
     1
1070
   272
1070
     1
1070
   341
1005
2AF4
1002
}
  0
LINE
  5
4603
330
1A
100
AcDbEntity
  8
外形線
100
AcDbLine
 10
508.277429994312
 20
377.720154874993
 30
0.0
 11
487.577429994313
 21
377.720154874993
 31
0.0
  0
LINE
  5
4604
330
1A
100
AcDbEntity
  8
外形線
100
AcDbLine
 10
508.277429994312
 20
387.720154874993
 30
0.0
 11
487.577429994313
 21
387.720154874993
 31
0.0
  0
INSERT
  5
4605
330
1A
100
AcDbEntity
  8
外形線
 48
10.0
100
AcDbBlockReference
  2
A$C511028D3
 10
237.658610915895
 20
374.576119404888
 30
0.0
  0
LEADER
  5
4607
330
1A
100
AcDbEntity
  8
寸法線
 48
10.0
100
AcDbLeader
  3
ISO-25
 76
     3
 10
314.912313523258
 20
374.788405113968
 30
0.0
 10
343.955493288678
 20
325.704262801284
 30
0.0
 10
357.480394616951
 20
325.704262801284
 30
0.0
1001
ACAD
1000
DSTYLE
1002
{
1070
     5
1000
OPEN30
1070
   147
1040
0.625
1070
    77
1070
     0
1070
    41
1040
6.0
1070
    47
1040
0.1
1070
    48
1040
0.1
1070
    73
1070
     0
1070
   140
1040
5.0
1070
   271
1070
     1
1070
   272
1070
     1
1070
   341
1005
2AF4
1070
   342
1005
2AF4
1002
}
  0
MTEXT
  5
4608
330
1A
100
AcDbEntity
  8
寸法線
 48
10.0
100
AcDbMText
 10
344.468277220987
 20
348.509004858787
 30
0.0
 40
8.0
 41
0.0
 71
     1
 72
     5
  1
可変軸締付金具\PSUS303
  0
TEXT
  5
4609
330
1A
100
AcDbEntity
  8
寸法線
100
AcDbText
 10
275.426293712431
 20
324.996312732473
 30
0.0
 40
3.4
  1
０
 41
1.304347826087
  7
EXCADSTD
 72
     5
 11
278.826293712431
 21
324.996312732473
 31
0.0
100
AcDbText
  0
ARC
  5
460A
330
1A
100
AcDbEntity
  8
寸法線
100
AcDbCircle
 10
272.402320112431
 20
331.896233632473
 30
0.0
 40
0.2286075
100
AcDbArc
 50
28.230948369017
 51
123.88384584338
  0
ARC
  5
460B
330
1A
100
AcDbEntity
  8
寸法線
100
AcDbCircle
 10
274.444934712431
 20
328.803569832473
 30
0.0
 40
3.9349781
100
AcDbArc
 50
123.469024399704
 51
239.773899120646
  0
ARC
  5
460C
330
1A
100
AcDbEntity
  8
寸法線
100
AcDbCircle
 10
269.046936612431
 20
329.657719532473
 30
0.0
 40
4.261167299999999
100
AcDbArc
 50
273.280470979895
 51
33.415912335962
  0
ARC
  5
460D
330
1A
100
AcDbEntity
  8
寸法線
100
AcDbCircle
 10
272.903894912431
 20
326.833897132473
 30
0.0
 40
1.4965015
100
AcDbArc
 50
252.90339888341
 51
337.412611017141
  0
LEADER
  5
460F
330
1A
100
AcDbEntity
  8
寸法線
 48
10.0
100
AcDbLeader
  3
ISO-25
 76
     3
 10
155.995719055623
 20
422.712621589699
 30
0.0
 10
110.316336741321
 20
497.707058543656
 30
0.0
 10
99.949710519668
 20
497.707058543656
 30
0.0
1001
ACAD
1000
DSTYLE
1002
{
1070
     5
1000
OPEN30
1070
   147
1040
0.625
1070
    77
1070
     0
1070
    41
1040
6.0
1070
    47
1040
0.1
1070
    48
1040
0.1
1070
    73
1070
     0
1070
   140
1040
5.0
1070
   271
1070
     1
1070
   272
1070
     1
1070
   341
1005
2AF4
1070
   342
1005
2AF4
1002
}
  0
LEADER
  5
4610
330
1A
100
AcDbEntity
  8
寸法線
 48
10.0
100
AcDbLeader
  3
ISO-25
 76
     3
 10
253.899363082465
 20
386.720169874993
 30
0.0
 10
166.417353969886
 20
497.707058543656
 30
0.0
 10
154.412681201216
 20
497.707058543656
 30
0.0
1001
ACAD
1000
DSTYLE
1002
{
1070
     5
1000
OPEN30
1070
   147
1040
0.625
1070
    77
1070
     0
1070
    41
1040
6.0
1070
    47
1040
0.1
1070
    48
1040
0.1
1070
    73
1070
     0
1070
   140
1040
5.0
1070
   271
1070
     1
1070
   272
1070
     1
1070
   341
1005
2AF4
1070
   342
1005
2AF4
1002
}
  0
MTEXT
  5
4611
330
1A
100
AcDbEntity
  8
寸法線
 48
10.0
100
AcDbMText
 10
73.997778267065
 20
506.483384755849
 30
0.0
 40
8.0
 41
0.0
 71
     1
 72
     5
  1
SUS304
  0
LEADER
  5
4612
330
1A
100
AcDbEntity
  8
寸法線
 48
10.0
100
AcDbLeader
  3
ISO-25
 76
     3
 10
309.974205636539
 20
390.11391590632
 30
0.0
 10
247.79516826315
 20
497.707058543656
 30
0.0
 10
236.692156932022
 20
497.707058543656
 30
0.0
1001
ACAD
1000
DSTYLE
1002
{
1070
     5
1000
OPEN30
1070
   147
1040
0.625
1070
    77
1070
     0
1070
    41
1040
6.0
1070
    47
1040
0.1
1070
    48
1040
0.1
1070
    73
1070
     0
1070
   140
1040
5.0
1070
   271
1070
     1
1070
   272
1070
     1
1070
   341
1005
2AF4
1070
   342
1005
2AF4
1002
}
  0
MTEXT
  5
4613
330
1A
100
AcDbEntity
  8
寸法線
 48
10.0
100
AcDbMText
 10
247.848487026147
 20
520.098843463313
 30
0.0
 40
8.0
 41
0.0
 71
     3
 72
     5
  1
可変軸固定金具\PBsBM
  0
MTEXT
  5
4614
330
1A
100
AcDbEntity
  8
寸法線
 48
10.0
100
AcDbMText
 10
317.822182005558
 20
519.613842266371
 30
0.0
 40
8.0
 41
0.0
 71
     3
 72
     5
  1
可変用パイプ\PSUS304
  0
LEADER
  5
4615
330
1A
100
AcDbEntity
  8
寸法線
 48
10.0
100
AcDbLeader
  3
ISO-25
 76
     3
 10
434.632152564821
 20
394.937599649429
 30
0.0
 10
405.941950842417
 20
497.707058543656
 30
0.0
 10
392.03094006299
 20
497.707058543656
 30
0.0
1001
ACAD
1000
DSTYLE
1002
{
1070
     5
1000
OPEN30
1070
   147
1040
0.625
1070
    77
1070
     0
1070
    41
1040
6.0
1070
    47
1040
0.1
1070
    48
1040
0.1
1070
    73
1070
     0
1070
   140
1040
5.0
1070
   271
1070
     1
1070
   272
1070
     1
1070
   341
1005
2AF4
1070
   342
1005
2AF4
1002
}
  0
MTEXT
  5
4616
330
1A
100
AcDbEntity
  8
寸法線
 48
10.0
100
AcDbMText
 10
330.779776050918
 20
507.321861232527
 30
0.0
 40
8.0
 41
77.487064274815
 71
     1
 72
     5
  1
ステンレスバネ鋼
  0
DIMENSION
  5
4617
330
1A
100
AcDbEntity
  8
寸法線
 48
10.0
100
AcDbDimension
  2
*D14
 10
501.190851055016
 20
387.720154874993
 30
0.0
 11
496.565851055016
 21
408.278488208326
 31
0.0
 70
    32
  1
φ<>
  3
ISO-25
100
AcDbAlignedDimension
 13
501.190851055016
 23
377.720154874993
 33
0.0
 14
501.190851055016
 24
387.720154874993
 34
0.0
 50
90.0
100
AcDbRotatedDimension
1001
ACAD
1000
DSTYLE
1002
{
1070
     5
1000
OPEN30
1070
    41
1040
6.0
1070
    47
1040
0.1
1070
    48
1040
0.1
1070
    73
1070
     0
1070
   140
1040
8.0
1070
   271
1070
     1
1070
   272
1070
     1
1070
   341
1005
2AF4
1002
}
  0
DIMENSION
  5
4618
330
1A
100
AcDbEntity
  8
寸法線
 48
10.0
100
AcDbDimension
  2
*D15
 10
366.019889042571
 20
375.820167374993
 30
0.0
 11
366.019889042571
 21
408.445139874993
 31
0.0
 70
   160
  1
φ<>
  3
ISO-25
100
AcDbAlignedDimension
 13
366.019889042571
 23
389.620139874993
 33
0.0
 14
366.019889042571
 24
375.820167374993
 34
0.0
 50
90.0
100
AcDbRotatedDimension
1001
ACAD
1000
DSTYLE
1002
{
1070
     5
1000
OPEN30
1070
    41
1040
6.0
1070
    47
1040
0.1
1070
    48
1040
0.1
1070
    73
1070
     0
1070
   140
1040
8.0
1070
   271
1070
     1
1070
   272
1070
     1
1070
   341
1005
2AF4
1002
}
  0
DIMENSION
  5
4619
330
1A
100
AcDbEntity
  8
寸法線
 48
10.0
100
AcDbDimension
  2
*D16
 10
285.950868976076
 20
378.720137374993
 30
0.0
 11
285.950868976076
 21
405.545169874993
 31
0.0
 70
   160
  1
φ<>
  3
ISO-25
100
AcDbAlignedDimension
 13
285.950868976076
 23
386.720169874993
 33
0.0
 14
285.950868976076
 24
378.720137374993
 34
0.0
 50
90.0
100
AcDbRotatedDimension
1001
ACAD
1000
DSTYLE
1002
{
1070
     5
1000
OPEN30
1070
    41
1040
6.0
1070
    47
1040
0.1
1070
    48
1040
0.1
1070
    73
1070
     0
1070
   140
1040
8.0
1070
   271
1070
     1
1070
   272
1070
     1
1070
   341
1005
2AF4
1002
}
  0
ARC
  5
461A
330
1A
100
AcDbEntity
  8
寸法線
100
AcDbCircle
 10
345.106027377715
 20
272.745804391324
 30
0.0
 40
0.2286075
100
AcDbArc
 50
28.230948369017
 51
123.88384584338
  0
ARC
  5
461B
330
1A
100
AcDbEntity
  8
寸法線
100
AcDbCircle
 10
347.148641977715
 20
269.653140591324
 30
0.0
 40
3.9349781
100
AcDbArc
 50
123.469024399697
 51
239.773899120646
  0
ARC
  5
461C
330
1A
100
AcDbEntity
  8
寸法線
100
AcDbCircle
 10
341.750643877715
 20
270.507290291324
 30
0.0
 40
4.261167299999999
100
AcDbArc
 50
273.280470979895
 51
33.415912335962
  0
ARC
  5
461D
330
1A
100
AcDbEntity
  8
寸法線
100
AcDbCircle
 10
345.607653177715
 20
267.683467891324
 30
0.0
 40
1.4965015
100
AcDbArc
 50
252.90339888341
 51
337.412611017141
  0
LINE
  5
461E
330
1A
100
AcDbEntity
  8
外形線
 48
10.0
100
AcDbLine
 10
353.058773103773
 20
389.620142374992
 30
0.0
 11
328.248861476076
 21
389.620142374992
 31
0.0
  0
LINE
  5
461F
330
1A
100
AcDbEntity
  8
中心線
 48
10.0
100
AcDbLine
 10
130.658086719401
 20
382.720079874993
 30
0.0
 11
682.065996121998
 21
382.720079874993
 31
0.0
  0
ARC
  5
4620
330
1A
100
AcDbEntity
  8
細線
100
AcDbCircle
 10
279.924385048493
 20
380.720147374993
 30
0.0
 40
4.000015
100
AcDbArc
 50
150.000000000008
 51
209.999999999992
  0
ARC
  5
4621
330
1A
100
AcDbEntity
  8
細線
100
AcDbCircle
 10
272.996155837456
 20
380.720147374993
 30
0.0
 40
4.000015
100
AcDbArc
 50
330.000000000008
 51
29.999999999992
  0
ARC
  5
4622
330
1A
100
AcDbEntity
  8
細線
100
AcDbCircle
 10
269.313202017273
 20
380.720146174988
 30
0.0
 40
4.000015
100
AcDbArc
 50
330.000019847854
 51
30.000019847828
  0
LINE
  5
4623
330
1A
100
AcDbEntity
  8
外形線
100
AcDbLine
 10
237.658611994759
 20
390.864039874993
 30
0.0
 11
237.658611994759
 21
374.576119874993
 31
0.0
  0
LINE
  5
4624
330
1A
100
AcDbEntity
  8
外形線
100
AcDbLine
 10
246.158611994758
 20
378.720137374993
 30
0.0
 11
272.694516000419
 21
378.720137374993
 31
0.0
  0
LINE
  5
4625
330
1A
100
AcDbEntity
  8
外形線
100
AcDbLine
 10
276.3862047636
 20
378.720137374993
 30
0.0
 11
303.248861476076
 21
378.720137374993
 31
0.0
  0
ARC
  5
4626
330
1A
100
AcDbEntity
  8
細線
100
AcDbCircle
 10
269.313200631626
 20
384.720161174988
 30
0.0
 40
4.000015
100
AcDbArc
 50
330.000019847854
 51
30.000019847828
  0
LINE
  5
4627
330
1A
100
AcDbEntity
  8
外形線
100
AcDbLine
 10
246.158611994758
 20
386.720169874993
 30
0.0
 11
272.694516000419
 21
386.720169874993
 31
0.0
  0
ARC
  5
4628
330
1A
100
AcDbEntity
  8
細線
100
AcDbCircle
 10
276.241429842663
 20
384.720163574998
 30
0.0
 40
4.000015
100
AcDbArc
 50
150.000019847854
 51
210.000019847828
  0
LINE
  5
4629
330
1A
100
AcDbEntity
  8
外形線
100
AcDbLine
 10
276.3862047636
 20
386.720169874993
 30
0.0
 11
303.248861476076
 21
386.720169874993
 31
0.0
  0
ARC
  5
462A
330
1A
100
AcDbEntity
  8
細線
100
AcDbCircle
 10
279.924385048493
 20
384.720162374993
 30
0.0
 40
4.000015
100
AcDbArc
 50
150.000000000008
 51
209.999999999992
  0
ARC
  5
462B
330
1A
100
AcDbEntity
  8
細線
100
AcDbCircle
 10
347.031549006633
 20
379.270159054998
 30
0.0
 40
6.8999875
100
AcDbArc
 50
330.000019847854
 51
30.000019847828
  0
LINE
  5
462C
330
1A
100
AcDbEntity
  8
外形線
100
AcDbLine
 10
352.817142756575
 20
375.820167374993
 30
0.0
 11
328.248861476076
 21
375.820167374993
 31
0.0
  0
ARC
  5
462E
330
1A
100
AcDbEntity
  8
細線
100
AcDbCircle
 10
347.031546616408
 20
386.170146554995
 30
0.0
 40
6.8999875
100
AcDbArc
 50
330.000019847854
 51
30.000019847828
  0
ARC
  5
462F
330
1A
100
AcDbEntity
  8
細線
100
AcDbCircle
 10
358.982675537999
 20
386.17015069499
 30
0.0
 40
6.8999875
100
AcDbArc
 50
150.000019847854
 51
210.000019847828
  0
ARC
  5
4630
330
1A
100
AcDbEntity
  8
細線
100
AcDbCircle
 10
362.896682267396
 20
379.270161124993
 30
0.0
 40
6.8999875
100
AcDbArc
 50
150.000000000007
 51
209.999999999993
  0
ARC
  5
4631
330
1A
100
AcDbEntity
  8
細線
100
AcDbCircle
 10
350.945553345807
 20
379.270161124993
 30
0.0
 40
6.8999875
100
AcDbArc
 50
330.000000000007
 51
29.999999999993
  0
LINE
  5
4632
330
1A
100
AcDbEntity
  8
外形線
100
AcDbLine
 10
377.277429994312
 20
375.820167374993
 30
0.0
 11
356.907453154506
 21
375.820167374993
 31
0.0
  0
LINE
  5
4633
330
1A
100
AcDbEntity
  8
外形線
100
AcDbLine
 10
377.277429994312
 20
389.620139874993
 30
0.0
 11
356.907453154506
 21
389.620139874993
 31
0.0
  0
ARC
  5
4634
330
1A
100
AcDbEntity
  8
細線
100
AcDbCircle
 10
362.896682267396
 20
386.170148624993
 30
0.0
 40
6.8999875
100
AcDbArc
 50
150.000000000007
 51
209.999999999993
  0
INSERT
  5
4635
330
1A
100
AcDbEntity
  8
外形線
 48
10.0
100
AcDbBlockReference
  2
パドル_W1
 10
84.357496085259
 20
162.060859667888
 30
0.0
  0
DIMENSION
  5
4636
330
1A
100
AcDbEntity
  8
寸法線
 48
10.0
100
AcDbDimension
  2
*D17
 10
120.699370705554
 20
342.712621589699
 30
0.0
 11
116.066037372221
 21
382.712621589699
 31
0.0
 70
    32
  3
ISO-25
100
AcDbAlignedDimension
 13
142.658611994759
 23
422.712621589699
 33
0.0
 14
142.658611994759
 24
342.712621589699
 34
0.0
 50
90.0
100
AcDbRotatedDimension
1001
ACAD
1000
DSTYLE
1002
{
1070
     5
1000
OPEN30
1070
    41
1040
6.0
1070
    47
1040
0.1
1070
    48
1040
0.1
1070
    73
1070
     0
1070
   140
1040
8.0
1070
   271
1070
     1
1070
   272
1070
     1
1070
   341
1005
2AF4
1002
}
  0
DIMENSION
  5
4637
330
1A
100
AcDbEntity
  8
寸法線
 48
10.0
100
AcDbDimension
  2
*D18
 10
222.658611994759
 20
324.186564404127
 30
0.0
 11
182.658611994759
 21
328.81989773746
 31
0.0
 70
    32
  3
ISO-25
100
AcDbAlignedDimension
 13
142.658611994759
 23
342.712621589699
 33
0.0
 14
222.658611994759
 24
370.712621589699
 34
0.0
100
AcDbRotatedDimension
1001
ACAD
1000
DSTYLE
1002
{
1070
     5
1000
OPEN30
1070
    41
1040
6.0
1070
    47
1040
0.1
1070
    48
1040
0.1
1070
    73
1070
     0
1070
   140
1040
8.0
1070
   271
1070
     1
1070
   272
1070
     1
1070
   341
1005
2AF4
1002
}
  0
LEADER
  5
4638
330
1A
100
AcDbEntity
  8
寸法線
 48
10.0
100
AcDbLeader
  3
ISO-25
 76
     3
 10
655.613457693409
 20
430.58030812221
 30
0.0
 10
664.448503169392
 20
497.707058543656
 30
0.0
 10
676.659018400445
 20
497.707058543656
 30
0.0
1001
ACAD
1000
DSTYLE
1002
{
1070
     5
1000
OPEN30
1070
   147
1040
0.625
1070
    77
1070
     0
1070
    41
1040
6.0
1070
    47
1040
0.1
1070
    48
1040
0.1
1070
    73
1070
     0
1070
   140
1040
5.0
1070
   271
1070
     1
1070
   272
1070
     1
1070
   341
1005
2AF4
1070
   342
1005
2AF4
1002
}
  0
MTEXT
  5
4639
330
1A
100
AcDbEntity
  8
寸法線
 48
10.0
100
AcDbMText
 10
664.475970514407
 20
506.535322288152
 30
0.0
 40
8.0
 41
47.506438463652
 71
     1
 72
     5
  1
アルミ鋳物
  0
MTEXT
  5
463A
330
1A
100
AcDbEntity
  8
寸法線
 48
10.0
100
AcDbMText
 10
620.554586507848
 20
506.429485057916
 30
0.0
 40
8.0
 41
38.931165525765
 71
     1
 72
     5
  1
Oリング
  0
LEADER
  5
463B
330
1A
100
AcDbEntity
  8
寸法線
 48
10.0
100
AcDbLeader
  3
ISO-25
 76
     3
 10
621.215218130843
 20
433.723783116365
 30
0.0
 10
620.231424103579
 20
497.707058543656
 30
0.0
 10
631.211590240798
 20
497.707058543656
 30
0.0
1001
ACAD
1000
DSTYLE
1002
{
1070
     5
1000
OPEN30
1070
   147
1040
0.625
1070
    77
1070
     0
1070
    41
1040
6.0
1070
    47
1040
0.1
1070
    48
1040
0.1
1070
    73
1070
     0
1070
   140
1040
5.0
1070
   271
1070
     1
1070
   272
1070
     1
1070
   341
1005
2AF4
1070
   342
1005
2AF4
1002
}
  0
LEADER
  5
463C
330
1A
100
AcDbEntity
  8
寸法線
 48
10.0
100
AcDbLeader
  3
ISO-25
 76
     3
 10
534.760157024556
 20
460.220079874993
 30
0.0
 10
504.196904954518
 20
497.707058543656
 30
0.0
 10
533.579034852792
 20
497.707058543656
 30
0.0
1001
ACAD
1000
DSTYLE
1002
{
1070
     5
1000
OPEN30
1070
   147
1040
0.625
1070
    77
1070
     0
1070
    41
1040
6.0
1070
    47
1040
0.1
1070
    48
1040
0.1
1070
    73
1070
     0
1070
   140
1040
5.0
1070
   271
1070
     1
1070
   272
1070
     1
1070
   341
1005
2AF4
1070
   342
1005
2AF4
1002
}
  0
MTEXT
  5
463D
330
1A
100
AcDbEntity
  8
寸法線
 48
10.0
100
AcDbMText
 10
501.96829433232
 20
520.583226915516
 30
0.0
 40
8.0
 41
48.103612616268
 71
     1
 72
     5
  1
フランジ\Pアルミ鋳物
  0
MTEXT
  5
463E
330
1A
100
AcDbEntity
  8
寸法線
 48
10.0
100
AcDbMText
 10
466.827956387541
 20
506.364059118089
 30
0.0
 40
8.0
 41
0.0
 71
     1
 72
     5
  1
BsBM
  0
LEADER
  5
463F
330
1A
100
AcDbEntity
  8
寸法線
 48
10.0
100
AcDbLeader
  3
ISO-25
 76
     3
 10
519.671281183658
 20
397.782786243104
 30
0.0
 10
490.444484956316
 20
497.71098743502
 30
0.0
 10
481.305143800174
 20
497.715207747863
 30
0.0
1001
ACAD
1000
DSTYLE
1002
{
1070
     5
1000
OPEN30
1070
   147
1040
0.625
1070
    77
1070
     0
1070
    41
1040
6.0
1070
    47
1040
0.1
1070
    48
1040
0.1
1070
    73
1070
     0
1070
   140
1040
5.0
1070
   271
1070
     1
1070
   272
1070
     1
1070
   341
1005
2AF4
1070
   342
1005
2AF4
1002
}
  0
MTEXT
  5
4640
330
1A
100
AcDbEntity
  8
寸法線
 48
10.0
100
AcDbMText
 10
166.431660241023
 20
520.626395220234
 30
0.0
 40
8.0
 41
0.0
 71
     3
 72
     5
  1
寸法可変軸\PSUS304
  0
LEADER
  5
4641
330
1A
100
AcDbEntity
  8
寸法線
 48
10.0
100
AcDbLeader
  3
ISO-25
 76
     3
 10
335.738322485708
 20
389.620139874993
 30
0.0
 10
318.093820054823
 20
497.707058543656
 30
0.0
 10
306.017840463047
 20
497.707058543656
 30
0.0
1001
ACAD
1000
DSTYLE
1002
{
1070
     5
1000
OPEN30
1070
   147
1040
0.625
1070
    77
1070
     0
1070
    41
1040
6.0
1070
    47
1040
0.1
1070
    48
1040
0.1
1070
    73
1070
     0
1070
   140
1040
5.0
1070
   271
1070
     1
1070
   272
1070
     1
1070
   341
1005
2AF4
1070
   342
1005
2AF4
1002
}
  0
LINE
  5
4642
330
1A
100
AcDbEntity
  8
下書線
 48
10.0
100
AcDbLine
 10
47.224108357814
 20
497.707058543656
 30
0.0
 11
751.815023060082
 21
497.707058543656
 31
0.0
  0
MTEXT
  5
4643
330
1A
100
AcDbEntity
  8
寸法線
 48
10.0
100
AcDbMText
 10
562.103431523566
 20
506.592230161073
 30
0.0
 40
8.0
 41
46.634629426177
 71
     1
 72
     5
  1
アルミ鋳物
  0
LEADER
  5
4644
330
1A
100
AcDbEntity
  8
寸法線
 48
10.0
100
AcDbLeader
  3
ISO-25
 76
     3
 10
582.36363505348
 20
426.956780923588
 30
0.0
 10
562.711816627554
 20
497.707058543655
 30
0.0
 10
575.543909142798
 20
497.707058543655
 30
0.0
1001
ACAD
1000
DSTYLE
1002
{
1070
     5
1000
OPEN30
1070
   147
1040
0.625
1070
    77
1070
     0
1070
    41
1040
6.0
1070
    47
1040
0.1
1070
    48
1040
0.1
1070
    73
1070
     0
1070
   140
1040
5.0
1070
   271
1070
     1
1070
   272
1070
     1
1070
   341
1005
2AF4
1070
   342
1005
2AF4
1002
}
  0
LINE
  5
4820
330
1A
100
AcDbEntity
  8
外形線
100
AcDbLine
 10
541.277429994312
 20
460.220079874993
 30
0.0
 11
532.777429994312
 21
460.220079874993
 31
0.0
  0
LINE
  5
4821
330
1A
100
AcDbEntity
  8
外形線
100
AcDbLine
 10
532.777429994312
 20
460.220079874993
 30
0.0
 11
532.277429994312
 21
459.720079874993
 31
0.0
  0
LINE
  5
4822
330
1A
100
AcDbEntity
  8
外形線
100
AcDbLine
 10
541.277429994312
 20
460.220079874993
 30
0.0
 11
542.277429994312
 21
459.220079874993
 31
0.0
  0
LINE
  5
4823
330
1A
100
AcDbEntity
  8
外形線
100
AcDbLine
 10
532.777429994312
 20
305.220079874993
 30
0.0
 11
532.277429994312
 21
305.720079874993
 31
0.0
  0
LINE
  5
4824
330
1A
100
AcDbEntity
  8
外形線
100
AcDbLine
 10
541.277429994312
 20
305.220079874993
 30
0.0
 11
542.277429994312
 21
306.220079874993
 31
0.0
  0
LWPOLYLINE
  5
4A10
330
1A
100
AcDbEntity
  8
外形線
100
AcDbPolyline
 90
        5
 70
     0
 43
0.0
 10
306.248861476076
 20
390.120079874993
 10
303.248861476076
 20
390.120079874993
 10
303.248861476076
 20
375.320079874993
 10
306.248861476076
 20
375.320079874993
 10
306.248861476076
 20
375.320079874993
  0
LINE
  5
4A1E
330
1A
100
AcDbEntity
  8
中心線
 48
10.0
100
AcDbLine
 10
313.248861476076
 20
382.720079874993
 30
0.0
 11
313.248861476076
 21
370.120079874993
 31
0.0
  0
CIRCLE
  5
4A1F
330
1A
100
AcDbEntity
  8
外形線
100
AcDbCircle
 10
313.248861476076
 20
377.720079874993
 30
0.0
 40
3.015
  0
LINE
  5
4A20
330
1A
100
AcDbEntity
  8
中心線
 48
10.0
100
AcDbLine
 10
318.763861476076
 20
377.720079874993
 30
0.0
 11
307.733861476076
 21
377.720079874993
 31
0.0
  0
LWPOLYLINE
  5
4A38
330
1A
100
AcDbEntity
  8
外形線
100
AcDbPolyline
 90
        4
 70
     1
 43
0.0
 10
306.248861476076
 20
370.120079874993
 10
320.248861476076
 20
370.120079874993
 10
320.248861476076
 20
390.120079874993
 10
306.248861476076
 20
390.120079874993
  0
LWPOLYLINE
  5
4A39
330
1A
100
AcDbEntity
  8
外形線
100
AcDbPolyline
 90
        5
 70
     0
 43
0.0
 10
320.248861476076
 20
375.320079874993
 10
320.248861476076
 20
375.320079874993
 10
328.248861476076
 20
375.320079874993
 10
328.248861476076
 20
390.120079874993
 10
320.248861476076
 20
390.120079874993
  0
LINE
  5
4C09
330
1A
100
AcDbEntity
  8
外形線
 48
10.0
100
AcDbLine
 10
20.135911295559
 20
386.86261825784
 30
0.0
 11
20.135911295559
 21
390.180691040063
 31
0.0
  0
LINE
  5
4C0A
330
1A
100
AcDbEntity
  8
外形線
 48
10.0
100
AcDbLine
 10
5.135911295559
 20
386.862618196679
 30
0.0
 11
5.135911295559
 21
390.180691040063
 31
0.0
  0
LINE
  5
4C0B
330
1A
100
AcDbEntity
  8
外形線
 48
10.0
100
AcDbLine
 10
5.135911295559
 20
370.180691040063
 30
0.0
 11
5.135911295559
 21
378.612489406766
 31
0.0
  0
LINE
  5
4C0C
330
1A
100
AcDbEntity
  8
外形線
 48
10.0
100
AcDbLine
 10
20.135911295559
 20
370.180691040063
 30
0.0
 11
20.135911295559
 21
378.577541492146
 31
0.0
  0
LINE
  5
4C26
330
1A
100
AcDbEntity
  8
中心線
 48
10.0
100
AcDbLine
 10
103.202556694455
 20
382.720079874993
 30
0.0
 11
-77.409920105064
 21
382.720079874993
 31
0.0
  0
LINE
  5
4C27
330
1A
100
AcDbEntity
  8
中心線
 48
10.0
100
AcDbLine
 10
12.63591131245
 20
282.659458248041
 30
0.0
 11
12.63591131245
 21
482.780701501945
 31
0.0
  0
LINE
  5
4C2C
330
1A
100
AcDbEntity
  8
中心線
 48
10.0
100
AcDbLine
 10
12.63591131245
 20
282.659458248041
 30
0.0
 11
12.63591131245
 21
482.780701501945
 31
0.0
  0
LINE
  5
4C3D
330
1A
100
AcDbEntity
  8
外形線
 48
10.0
100
AcDbLine
 10
20.135911295559
 20
390.180691040063
 30
0.0
 11
16.848974929775
 21
390.180691040063
 31
0.0
  0
LINE
  5
4C3E
330
1A
100
AcDbEntity
  8
外形線
 48
10.0
100
AcDbLine
 10
20.135911295559
 20
370.180691040063
 30
0.0
 11
14.06390236074
 21
370.180691040063
 31
0.0
  0
LINE
  5
4C3F
330
1A
100
AcDbEntity
  8
中心線
 48
10.0
100
AcDbLine
 10
25.62628881245
 20
378.030691040063
 30
0.0
 11
16.13591131245
 21
378.030691040063
 31
0.0
  0
LINE
  5
4C41
330
1A
100
AcDbEntity
  8
外形線
 48
10.0
100
AcDbLine
 10
8.422847695125
 20
390.180691040063
 30
0.0
 11
5.135911295559
 21
390.180691040063
 31
0.0
  0
LINE
  5
4C42
330
1A
100
AcDbEntity
  8
外形線
 48
10.0
100
AcDbLine
 10
11.207897846205
 20
370.180691040063
 30
0.0
 11
5.135911295559
 21
370.180691040063
 31
0.0
  0
LINE
  5
4C5C
330
1A
100
AcDbEntity
  8
外形線
 48
10.0
100
AcDbLine
 10
21.035708295974
 20
381.030691040063
 30
0.0
 11
24.480909566369
 21
381.030691040063
 31
0.0
  0
LINE
  5
4C5D
330
1A
100
AcDbEntity
  8
外形線
 48
10.0
100
AcDbLine
 10
20.135911295559
 20
375.030691040063
 30
0.0
 11
24.480909566369
 21
375.030691040063
 31
0.0
  0
LINE
  5
4D10
330
1A
100
AcDbEntity
  8
外形線
100
AcDbLine
 10
-0.36408868755
 20
390.221073229112
 30
0.0
 11
-0.36408868755
 21
375.209966230182
 31
0.0
  0
LINE
  5
4D11
330
1A
100
AcDbEntity
  8
外形線
100
AcDbLine
 10
11.207897846205
 20
396.902162769434
 30
0.0
 11
-0.36408868755
 21
390.221073229112
 31
0.0
  0
LINE
  5
4D12
330
1A
100
AcDbEntity
  8
外形線
100
AcDbLine
 10
25.63591131245
 20
390.221073229112
 30
0.0
 11
14.06390236074
 21
396.902175712447
 31
0.0
  0
LINE
  5
4D13
330
1A
100
AcDbEntity
  8
外形線
100
AcDbLine
 10
25.63591131245
 20
375.209966230182
 30
0.0
 11
25.63591131245
 21
390.221073229112
 31
0.0
  0
LINE
  5
4D14
330
1A
100
AcDbEntity
  8
外形線
100
AcDbLine
 10
14.06390236074
 20
368.528863746847
 30
0.0
 11
16.924951157919
 21
370.180691040063
 31
0.0
  0
LINE
  5
4D15
330
1A
100
AcDbEntity
  8
外形線
100
AcDbLine
 10
-0.36408868755
 20
375.209966230182
 30
0.0
 11
5.135911295559
 21
372.034539759391
 31
0.0
  0
ARC
  5
4D16
330
1A
100
AcDbEntity
  8
細線
 48
10.0
100
AcDbCircle
 10
12.63591131245
 20
382.715519729647
 30
0.0
 40
12.99999999999991
100
AcDbArc
 50
276.306407398251
 51
285.373615097361
  0
ARC
  5
4D17
330
1A
100
AcDbEntity
  8
細線
 48
10.0
100
AcDbCircle
 10
12.63591131245
 20
382.715519729647
 30
0.0
 40
13.00000000000001
100
AcDbArc
 50
96.306506803967
 51
234.765581924278
  0
LEADER
  5
4D18
330
1A
100
AcDbEntity
  8
寸法線
 48
10.0
100
AcDbLeader
  3
ISO-25
 76
     3
 10
-32.838129398488
 20
329.229398788092
 30
0.0
 10
-34.487696514056
 20
291.336227058897
 30
0.0
 10
-44.055188956375
 20
291.336227058897
 30
0.0
1001
ACAD
1000
DSTYLE
1002
{
1070
     5
1000
OPEN30
1070
    41
1040
6.0
1070
   341
1005
2AF4
1070
   147
1040
0.625
1070
    77
1070
     1
1002
}
  0
MTEXT
  5
4D19
330
1A
100
AcDbEntity
  8
寸法線
 48
10.0
100
AcDbMText
 10
-37.216452547565
 20
293.032421865223
 30
0.0
 40
8.0
 41
0.0
 71
     9
 72
     1
  1
\A1;4-φ15
  0
DIMENSION
  5
4D1A
330
1A
100
AcDbEntity
  8
寸法線
 48
10.0
100
AcDbDimension
  2
*D58
 10
14.06390236074
 20
351.636323146469
 30
0.0
 11
31.48890236074
 21
356.261323146469
 31
0.0
 70
    32
  1
1.5
  3
ISO-25
100
AcDbAlignedDimension
 13
11.207897846205
 23
351.631763001123
 33
0.0
 14
14.06390236074
 24
351.631763001123
 34
0.0
100
AcDbRotatedDimension
1001
ACAD
1000
DSTYLE
1002
{
1070
     5
1000
OPEN30
1070
    41
1040
6.0
1070
    47
1040
0.1
1070
    48
1040
0.1
1070
    73
1070
     0
1070
   140
1040
8.0
1070
   271
1070
     1
1070
   272
1070
     1
1070
   341
1005
2AF4
1002
}
  0
INSERT
  5
4D1B
330
1A
100
AcDbEntity
  8
外形線
100
AcDbBlockReference
  2
パドル_W1立面図
 10
18.449357816184
 20
153.086703901185
 30
0.0
  0
ARC
  5
4D1C
330
1A
100
AcDbEntity
  8
外形線
100
AcDbCircle
 10
12.62635631245
 20
382.715519729647
 30
0.0
 40
15.0
100
AcDbArc
 50
275.259524500061
 51
84.740457899851
  0
ARC
  5
4D1D
330
1A
100
AcDbEntity
  8
外形線
100
AcDbCircle
 10
12.62635631245
 20
382.715519729647
 30
0.0
 40
15.0
100
AcDbArc
 50
95.259561947989
 51
264.740477747692
  0
CIRCLE
  5
4D1E
330
1A
100
AcDbEntity
  8
外形線
100
AcDbCircle
 10
12.62635631245
 20
382.715519729647
 30
0.0
 40
77.5
  0
CIRCLE
  5
4D1F
330
1A
100
AcDbEntity
  8
外形線
100
AcDbCircle
 10
58.588297089575
 20
428.677460506772
 30
0.0
 40
7.5
  0
CIRCLE
  5
4D20
330
1A
100
AcDbEntity
  8
外形線
100
AcDbCircle
 10
58.588297089575
 20
336.753578952522
 30
0.0
 40
7.5
  0
CIRCLE
  5
4D21
330
1A
100
AcDbEntity
  8
外形線
100
AcDbCircle
 10
-33.335584464675
 20
428.677460506772
 30
0.0
 40
7.5
  0
CIRCLE
  5
4D22
330
1A
100
AcDbEntity
  8
外形線
100
AcDbCircle
 10
-33.335584464675
 20
336.753578952522
 30
0.0
 40
7.5
  0
CIRCLE
  5
4D23
330
1A
100
AcDbEntity
  8
中心線
 48
10.0
100
AcDbCircle
 10
12.62635631245
 20
382.724062229647
 30
0.0
 40
65.0
  0
LINE
  5
4D24
330
1A
100
AcDbEntity
  8
中心線
 48
10.0
100
AcDbLine
 10
49.57090131245
 20
345.770974729647
 30
0.0
 11
67.605692866701
 21
327.736183175396
 31
0.0
  0
LINE
  5
4D25
330
1A
100
AcDbEntity
  8
中心線
 48
10.0
100
AcDbLine
 10
-42.352980241801
 20
327.736183175396
 30
0.0
 11
-24.31818868755
 21
345.770974729647
 31
0.0
  0
LINE
  5
4D26
330
1A
100
AcDbEntity
  8
中心線
 48
10.0
100
AcDbLine
 10
49.57090131245
 20
419.660064729647
 30
0.0
 11
67.605692866701
 21
437.694856283897
 31
0.0
  0
LINE
  5
4D27
330
1A
100
AcDbEntity
  8
中心線
 48
10.0
100
AcDbLine
 10
-42.352980822279
 20
437.694856864376
 30
0.0
 11
-24.318189268029
 21
419.660065310125
 31
0.0
  0
DIMENSION
  5
4D2A
330
1A
100
AcDbEntity
  8
寸法線
 48
10.0
100
AcDbDimension
  2
*D59
 10
71.291410660992
 20
410.713549511171
 30
0.0
 11
54.519101215717
 21
402.708926919946
 31
0.0
 70
   161
  1
φ<>
  3
ISO-25
100
AcDbAlignedDimension
 13
-46.032056843747
 23
354.72065947218
 33
0.0
 14
71.291410660992
 24
410.713549511171
 34
0.0
1001
ACAD
1000
DSTYLE
1002
{
1070
     5
1000
OPEN30
1070
    41
1040
6.0
1070
    47
1040
0.1
1070
    48
1040
0.1
1070
    73
1070
     0
1070
   140
1040
8.0
1070
   271
1070
     1
1070
   272
1070
     1
1070
   341
1005
2AF4
1002
}
  0
DIMENSION
  5
4D2B
330
1A
100
AcDbEntity
  8
寸法線
 48
10.0
100
AcDbDimension
  2
*D60
 10
88.972595975578
 20
396.038495722281
 30
0.0
 11
58.498503799393
 21
390.720544238984
 31
0.0
 70
   161
  1
φ<>
  3
ISO-25
100
AcDbAlignedDimension
 13
-63.719883350677
 23
369.392543737012
 33
0.0
 14
88.972595975577
 24
396.038495722281
 34
0.0
1001
ACAD
1000
DSTYLE
1002
{
1070
     5
1000
OPEN30
1070
    41
1040
6.0
1070
    47
1040
0.1
1070
    48
1040
0.1
1070
    73
1070
     0
1070
   140
1040
8.0
1070
   271
1070
     1
1070
   272
1070
     1
1070
   341
1005
2AF4
1002
}
  0
ARC
  5
4D52
330
1A
100
AcDbEntity
  8
細線
 48
10.0
100
AcDbCircle
 10
12.63591131245
 20
382.715519729647
 30
0.0
 40
12.99999999999991
100
AcDbArc
 50
305.23441789344
 51
323.762004660239
  0
LINE
  5
4D53
330
1A
100
AcDbEntity
  8
外形線
100
AcDbLine
 10
20.135911295559
 20
372.034539739887
 30
0.0
 11
25.63591131245
 21
375.209966230182
 31
0.0
  0
LINE
  5
4D54
330
1A
100
AcDbEntity
  8
外形線
100
AcDbLine
 10
8.346871466981
 20
370.180691040063
 30
0.0
 11
11.207897846205
 21
368.52887668986
 31
0.0
  0
LINE
  5
4D55
330
1A
100
AcDbEntity
  8
外形線
 48
10.0
100
AcDbLine
 10
24.480909566369
 20
381.030691040063
 30
0.0
 11
24.480909566369
 21
375.030691040063
 31
0.0
  0
LINE
  5
4D56
330
1A
100
AcDbEntity
  8
寸法線
 62
     1
 48
10.0
100
AcDbLine
 10
21.215777110672
 20
375.030691040063
 30
0.0
 11
21.215777110672
 21
381.030691040063
 31
0.0
  0
ARC
  5
4D57
330
1A
100
AcDbEntity
  8
細線
 48
10.0
100
AcDbCircle
 10
12.63591131245
 20
382.715519729647
 30
0.0
 40
12.99999999999991
100
AcDbArc
 50
335.665276010162
 51
83.693592601749
  0
MTEXT
  5
4DDD
102
{ACAD_XDICTIONARY
360
4DDE
102
}
330
1A
100
AcDbEntity
  8
寸法線
 48
10.0
100
AcDbMText
 10
76.65977948378
 20
232.421234561496
 30
0.0
 40
8.0
 41
168.503621648242
 71
     1
 72
     5
  1
御仕様   電源電圧    リード線色\P       AC100/110V　 シロ・シロ\P       AC200/220V　クロ・クロ
1001
ACADANNOTATIVE
1000
AnnotativeData
1002
{
1070
     1
1070
     0
1002
}
  0
MTEXT
  5
4DE1
102
{ACAD_XDICTIONARY
360
4DE2
102
}
330
1A
100
AcDbEntity
  8
寸法線
 48
10.0
100
AcDbMText
 10
-34.925667205043
 20
129.404968004189
 30
0.0
 40
6.0
 41
49.50078544177
 71
     1
 72
     5
  1
L　　C　　 H
1001
ACADANNOTATIVE
1000
AnnotativeData
1002
{
1070
     1
1070
     0
1002
}
  0
MTEXT
  5
4DE5
330
1A
100
AcDbEntity
  8
寸法線
 48
10.0
100
AcDbMText
 10
24.479223482756
 20
108.622366766981
 30
0.0
 40
6.0
 41
22.662715674224
 71
     1
 72
     5
  1
電　源
  0
LINE
  5
4DE6
330
1A
100
AcDbEntity
  8
寸法線
100
AcDbLine
 10
-34.92914693289
 20
138.461974888481
 30
0.0
 11
-34.92914693289
 21
235.593932888481
 31
0.0
  0
LINE
  5
4DE7
330
1A
100
AcDbEntity
  8
寸法線
100
AcDbLine
 10
-34.92914693289
 20
235.593932888481
 30
0.0
 11
-22.07715693289
 21
235.593932888481
 31
0.0
  0
LINE
  5
4DE8
330
1A
100
AcDbEntity
  8
寸法線
100
AcDbLine
 10
-22.07715693289
 20
235.593932888481
 30
0.0
 11
-22.07715693289
 21
215.887512888481
 31
0.0
  0
LINE
  5
4DE9
330
1A
100
AcDbEntity
  8
寸法線
100
AcDbLine
 10
-6.36914893289
 20
235.593932888481
 30
0.0
 11
6.48284106711
 21
235.593932888481
 31
0.0
  0
LINE
  5
4DEA
330
1A
100
AcDbEntity
  8
寸法線
100
AcDbLine
 10
26.18919906711
 20
235.593932888481
 30
0.0
 11
46.18126506711
 21
235.593932888481
 31
0.0
  0
TEXT
  5
4DEB
330
1A
100
AcDbEntity
  8
寸法線
100
AcDbText
 10
-19.41925893289
 20
167.805176888481
 30
0.0
 40
8.571428571429
  1
キ
  7
EXCADVERT
 72
     3
 11
-19.41925893289
 21
159.805176888481
 31
0.0
100
AcDbText
  0
TEXT
  5
4DEC
330
1A
100
AcDbEntity
  8
寸法線
100
AcDbText
 10
40.17992306711
 20
198.960388888481
 30
0.0
 40
12.0
  1
Ｍ
 41
1.25
  7
EXCADSTD
 72
     5
 11
52.17992306711
 21
198.960388888481
 31
0.0
100
AcDbText
  0
LINE
  5
4DED
330
1A
100
AcDbEntity
  8
寸法線
100
AcDbLine
 10
46.18126506711
 20
235.593932888481
 30
0.0
 11
46.18126506711
 21
214.360962888481
 31
0.0
  0
CIRCLE
  5
4DEE
330
1A
100
AcDbEntity
  8
寸法線
100
AcDbCircle
 10
-14.22315293289
 20
198.066772888481
 30
0.0
 40
1.600006
  0
LINE
  5
4DEF
330
1A
100
AcDbEntity
  8
寸法線
100
AcDbLine
 10
-14.22315293289
 20
196.466736888481
 30
0.0
 11
-14.22315293289
 21
138.461974888481
 31
0.0
  0
LINE
  5
4DF0
330
1A
100
AcDbEntity
  8
寸法線
100
AcDbLine
 10
6.48284106711
 20
235.593932888481
 30
0.0
 11
6.48284106711
 21
138.461974888481
 31
0.0
  0
LINE
  5
4DF1
330
1A
100
AcDbEntity
  8
寸法線
100
AcDbLine
 10
46.18126506711
 20
195.976500888481
 30
0.0
 11
46.18126506711
 21
138.461974888481
 31
0.0
  0
CIRCLE
  5
4DF2
330
1A
100
AcDbEntity
  8
寸法線
100
AcDbCircle
 10
-34.92914693289
 20
135.461974888481
 30
0.0
 40
1.599998
  0
LINE
  5
4DF3
330
1A
100
AcDbEntity
  8
寸法線
100
AcDbLine
 10
26.18919906711
 20
196.466736888481
 30
0.0
 11
26.18919906711
 21
138.461974888481
 31
0.0
  0
CIRCLE
  5
4DF4
330
1A
100
AcDbEntity
  8
寸法線
100
AcDbCircle
 10
26.18919906711
 20
198.066772888481
 30
0.0
 40
1.600006
  0
CIRCLE
  5
4DF5
330
1A
100
AcDbEntity
  8
寸法線
100
AcDbCircle
 10
-22.07715693289
 20
214.287536888481
 30
0.0
 40
1.600006
  0
LINE
  5
4DF6
330
1A
100
AcDbEntity
  8
寸法線
100
AcDbLine
 10
-6.36914893289
 20
235.593932888481
 30
0.0
 11
-6.36914893289
 21
215.887512888481
 31
0.0
  0
CIRCLE
  5
4DF7
330
1A
100
AcDbEntity
  8
寸法線
100
AcDbCircle
 10
-6.36914893289
 20
214.287536888481
 30
0.0
 40
1.600006
  0
LINE
  5
4DF8
330
1A
100
AcDbEntity
  8
寸法線
100
AcDbLine
 10
26.18919906711
 20
235.593932888481
 30
0.0
 11
26.18919906711
 21
215.887512888481
 31
0.0
  0
CIRCLE
  5
4DF9
330
1A
100
AcDbEntity
  8
寸法線
100
AcDbCircle
 10
26.18919906711
 20
214.287536888481
 30
0.0
 40
1.600006
  0
LINE
  5
4DFA
330
1A
100
AcDbEntity
  8
寸法線
100
AcDbLine
 10
-14.22315293289
 20
199.666748888481
 30
0.0
 11
-20.47718093289
 21
214.287536888481
 31
0.0
  0
LINE
  5
4DFB
330
1A
100
AcDbEntity
  8
寸法線
100
AcDbLine
 10
26.18919906711
 20
199.666748888481
 30
0.0
 11
27.78923706711
 21
214.287536888481
 31
0.0
  0
CIRCLE
  5
4DFC
330
1A
100
AcDbEntity
  8
寸法線
100
AcDbCircle
 10
46.18883306711
 20
205.183166888481
 30
0.0
 40
9.177798
  0
TEXT
  5
4DFD
330
1A
100
AcDbEntity
  8
寸法線
100
AcDbText
 10
1.64464506711
 20
176.905394888481
 30
0.0
 40
8.041237113402
  1
ア　カ
  7
EXCADVERT
 72
     3
 11
1.64464506711
 21
150.905394888481
 31
0.0
100
AcDbText
  0
TEXT
  5
4DFE
330
1A
100
AcDbEntity
  8
寸法線
100
AcDbText
 10
-39.90564893289
 20
176.905394888481
 30
0.0
 40
7.515151518764
  1
ミドリ
  7
EXCADVERT
 72
     3
 11
-39.90564893289
 21
152.10539487656
 31
0.0
100
AcDbText
  0
CIRCLE
  5
4DFF
330
1A
100
AcDbEntity
  8
寸法線
100
AcDbCircle
 10
-34.92914693289
 20
135.461974888481
 30
0.0
 40
3.0
  0
CIRCLE
  5
4E00
330
1A
100
AcDbEntity
  8
寸法線
100
AcDbCircle
 10
-14.22315293289
 20
135.461974888481
 30
0.0
 40
1.599998
  0
CIRCLE
  5
4E01
330
1A
100
AcDbEntity
  8
寸法線
100
AcDbCircle
 10
-14.22315293289
 20
135.461974888481
 30
0.0
 40
3.0
  0
CIRCLE
  5
4E02
330
1A
100
AcDbEntity
  8
寸法線
100
AcDbCircle
 10
26.18919906711
 20
135.461974888481
 30
0.0
 40
1.599998
  0
CIRCLE
  5
4E03
330
1A
100
AcDbEntity
  8
寸法線
100
AcDbCircle
 10
26.18919906711
 20
135.461974888481
 30
0.0
 40
3.0
  0
CIRCLE
  5
4E04
330
1A
100
AcDbEntity
  8
寸法線
100
AcDbCircle
 10
46.18126506711
 20
135.461974888481
 30
0.0
 40
1.599998
  0
CIRCLE
  5
4E05
330
1A
100
AcDbEntity
  8
寸法線
100
AcDbCircle
 10
46.18126506711
 20
135.461974888481
 30
0.0
 40
3.0
  0
CIRCLE
  5
4E06
330
1A
100
AcDbEntity
  8
寸法線
100
AcDbCircle
 10
6.48284106711
 20
135.461974888481
 30
0.0
 40
1.599998
  0
CIRCLE
  5
4E07
330
1A
100
AcDbEntity
  8
寸法線
100
AcDbCircle
 10
6.48284106711
 20
135.461974888481
 30
0.0
 40
3.0
  0
MTEXT
  5
4E08
102
{ACAD_XDICTIONARY
360
4E09
102
}
330
1A
100
AcDbEntity
  8
寸法線
 62
     1
 48
10.0
100
AcDbMText
 10
16.77278194418
 20
182.946581650388
 30
0.0
 40
8.0
 41
75.886769199617
 71
     1
 72
     3
  1
シロ クロ
1001
ACADANNOTATIVE
1000
AnnotativeData
1002
{
1070
     1
1070
     0
1002
}
  0
MTEXT
  5
4E0C
330
1A
100
AcDbEntity
  8
寸法線
 62
     1
 48
10.0
100
AcDbMText
 10
15.563634157592
 20
141.202606036411
 30
0.0
 40
8.0
 41
113.327544635948
 71
     1
 72
     1
  1
(    )
 11
6.123233995736766E-17
 21
1.0
 31
0.0
  0
MTEXT
  5
4E0D
102
{ACAD_XDICTIONARY
360
4E0E
102
}
330
1A
100
AcDbEntity
  8
寸法線
 48
10.0
100
AcDbMText
 10
15.091948131007
 20
128.874214831781
 30
0.0
 40
6.0
 41
101.805806042976
 71
     1
 72
     5
  1
100/110 0
1001
ACADANNOTATIVE
1000
AnnotativeData
1002
{
1070
     1
1070
     0
1002
}
  0
MTEXT
  5
4E11
102
{ACAD_XDICTIONARY
360
4E12
102
}
330
1A
100
AcDbEntity
  8
寸法線
 62
     1
 48
10.0
100
AcDbMText
 10
37.213824477984
 20
182.345374517041
 30
0.0
 40
8.0
 41
75.886769199617
 71
     1
 72
     3
  1
シロ クロ
1001
ACADANNOTATIVE
1000
AnnotativeData
1002
{
1070
     1
1070
     0
1002
}
  0
MTEXT
  5
4E15
330
1A
100
AcDbEntity
  8
寸法線
 62
     1
 48
10.0
100
AcDbMText
 10
36.004676691397
 20
140.601398903064
 30
0.0
 40
8.0
 41
113.327544635948
 71
     1
 72
     1
  1
(    )
 11
6.123233995736766E-17
 21
1.0
 31
0.0
  0
MTEXT
  5
4E16
102
{ACAD_XDICTIONARY
360
4E17
102
}
330
1A
100
AcDbEntity
  8
寸法線
 48
10.0
100
AcDbMText
 10
10.225927895478
 20
121.044431306079
 30
0.0
 40
6.0
 41
101.805806042976
 71
     1
 72
     5
  1
(200/220 0)
1001
ACADANNOTATIVE
1000
AnnotativeData
1002
{
1070
     1
1070
     0
1002
}
  0
MTEXT
  5
4E1A
102
{ACAD_XDICTIONARY
360
4E1B
102
}
330
1A
100
AcDbEntity
  8
寸法線
 48
10.0
100
AcDbMText
 10
76.836397382973
 20
158.381043385898
 30
0.0
 40
8.0
 41
251.713339384691
 71
     1
 72
     5
  1
塗　装　色：10YR7.5/14\P接点　容量：AC250V5A\P静止トルク：約10.0N・cm\P回　転　数：1RPM
1001
ACADANNOTATIVE
1000
AnnotativeData
1002
{
1070
     1
1070
     0
1002
}
  0
MTEXT
  5
4E1E
330
1A
100
AcDbEntity
  8
寸法線
 48
10.0
100
AcDbMText
 10
96.842681606274
 20
191.364520457731
 30
0.0
 40
8.0
 41
161.650793650794
 71
     1
 72
     5
  1
○印が今回の貴社の御仕様です。
  0
LINE
  5
4E1F
330
1A
100
AcDbEntity
  8
寸法線
 62
     1
 48
10.0
100
AcDbLine
 10
74.228287920049
 20
221.575968331605
 30
0.0
 11
236.451748667645
 21
221.575968331605
 31
0.0
  0
LINE
  5
4E20
330
1A
100
AcDbEntity
  8
寸法線
 62
     1
 48
10.0
100
AcDbLine
 10
74.228287920049
 20
208.314419567359
 30
0.0
 11
236.451748667645
 21
208.314419567359
 31
0.0
  0
LINE
  5
4E21
330
1A
100
AcDbEntity
  8
寸法線
 62
     1
 48
10.0
100
AcDbLine
 10
74.228287920049
 20
195.052870803112
 30
0.0
 11
236.451748667645
 21
195.052870803112
 31
0.0
  0
LINE
  5
4E22
330
1A
100
AcDbEntity
  8
寸法線
 62
     1
 48
10.0
100
AcDbLine
 10
74.228287920049
 20
234.577486727926
 30
0.0
 11
236.451748667645
 21
234.577486727926
 31
0.0
  0
LINE
  5
4E23
330
1A
100
AcDbEntity
  8
寸法線
 62
     1
 48
10.0
100
AcDbLine
 10
106.992114278776
 20
234.577486727926
 30
0.0
 11
106.992114278776
 21
195.052870803112
 31
0.0
  0
LINE
  5
4E24
330
1A
100
AcDbEntity
  8
寸法線
 62
     1
 48
10.0
100
AcDbLine
 10
74.228287920049
 20
234.577486727926
 30
0.0
 11
74.228287920049
 21
195.052870803112
 31
0.0
  0
LINE
  5
4E25
330
1A
100
AcDbEntity
  8
寸法線
 62
     1
 48
10.0
100
AcDbLine
 10
171.999706260377
 20
234.577486727926
 30
0.0
 11
171.999706260377
 21
195.052870803112
 31
0.0
  0
LINE
  5
4E26
330
1A
100
AcDbEntity
  8
寸法線
 62
     1
 48
10.0
100
AcDbLine
 10
236.451748667645
 20
234.577486727926
 30
0.0
 11
236.451748667645
 21
195.052870803112
 31
0.0
  0
MTEXT
  5
512C
330
1A
100
AcDbEntity
  8
寸法線
 48
10.0
100
AcDbMText
 10
537.970596804666
 20
160.869579360276
 30
0.0
 40
8.0
 41
137.966787846051
 71
     1
 72
     5
  1
○印が今回の貴社の御仕様です。
  0
MTEXT
  5
512D
102
{ACAD_XDICTIONARY
360
512E
102
}
330
1A
100
AcDbEntity
  8
寸法線
 48
10.0
100
AcDbMText
 10
417.64414662717
 20
231.509540942024
 30
0.0
 40
8.0
 41
116.267486362195
 71
     1
 72
     5
  1
御仕様　　　　　　　   {\fArial|b0|i0|c0|p32;           }  　　　 1000～1500                           \P    　 1200～2000　\P　     1500～2500                         \P　　　 1700～3000
1001
ACADANNOTATIVE
1000
AnnotativeData
1002
{
1070
     1
1070
     0
1002
}
  0
ARC
  5
5131
330
1A
100
AcDbEntity
  8
寸法線
100
AcDbCircle
 10
475.960778094813
 20
225.535181045679
 30
0.0
 40
1.94545195
100
AcDbArc
 50
252.903398883409
 51
337.412611017142
  0
ARC
  5
5132
330
1A
100
AcDbEntity
  8
寸法線
100
AcDbCircle
 10
470.946666004813
 20
229.206150165679
 30
0.0
 40
5.53951749
100
AcDbArc
 50
273.280470979897
 51
33.415912335966
  0
ARC
  5
5133
330
1A
100
AcDbEntity
  8
寸法線
100
AcDbCircle
 10
477.964063534813
 20
228.095755555679
 30
0.0
 40
5.11547153
100
AcDbArc
 50
123.469024399701
 51
239.773899120646
  0
ARC
  5
5134
330
1A
100
AcDbEntity
  8
寸法線
100
AcDbCircle
 10
475.308664554813
 20
232.116218495679
 30
0.0
 40
0.29718975
100
AcDbArc
 50
28.230948369012
 51
123.883845843397
  0
ARC
  5
5135
330
1A
100
AcDbEntity
  8
寸法線
100
AcDbCircle
 10
529.713343951103
 20
225.3077390557
 30
0.0
 40
1.94545195
100
AcDbArc
 50
252.903398883409
 51
337.412611017142
  0
ARC
  5
5136
330
1A
100
AcDbEntity
  8
寸法線
100
AcDbCircle
 10
524.699298161103
 20
228.9787081757
 30
0.0
 40
5.53951749
100
AcDbArc
 50
273.280470979896
 51
33.415912335966
  0
ARC
  5
5137
330
1A
100
AcDbEntity
  8
寸法線
100
AcDbCircle
 10
531.716695691103
 20
227.8683135657
 30
0.0
 40
5.11547153
100
AcDbArc
 50
123.469024399701
 51
239.773899120644
  0
ARC
  5
5138
330
1A
100
AcDbEntity
  8
寸法線
100
AcDbCircle
 10
529.061296711103
 20
231.8887765057
 30
0.0
 40
0.29718975
100
AcDbArc
 50
28.230948369012
 51
123.883845843378
  0
TEXT
  5
5139
330
1A
100
AcDbEntity
  8
寸法線
100
AcDbText
 10
532.992462391103
 20
222.9188793357
 30
0.0
 40
4.42
  1
０
 41
1.304347826087
  7
EXCADSTD
 72
     5
 11
537.412462391103
 21
222.9188793357
 31
0.0
100
AcDbText
  0
LINE
  5
513A
330
1A
100
AcDbEntity
  8
寸法線
 48
10.0
100
AcDbLine
 10
415.598558805259
 20
234.445467823331
 30
0.0
 11
415.598558805259
 21
167.725967246185
 31
0.0
  0
LINE
  5
513B
330
1A
100
AcDbEntity
  8
寸法線
 48
10.0
100
AcDbLine
 10
447.135625582899
 20
234.445467823331
 30
0.0
 11
447.135625582899
 21
167.725967246185
 31
0.0
  0
LINE
  5
513C
330
1A
100
AcDbEntity
  8
寸法線
 48
10.0
100
AcDbLine
 10
508.188276046834
 20
234.445467823331
 30
0.0
 11
508.188276046834
 21
167.725967246185
 31
0.0
  0
LINE
  5
513D
330
1A
100
AcDbEntity
  8
寸法線
 48
10.0
100
AcDbLine
 10
552.160394021039
 20
234.445467823331
 30
0.0
 11
552.160394021039
 21
167.725967246185
 31
0.0
  0
LINE
  5
513E
330
1A
100
AcDbEntity
  8
寸法線
 48
10.0
100
AcDbLine
 10
643.957872831525
 20
234.445467823331
 30
0.0
 11
643.957872831525
 21
167.725967246185
 31
0.0
  0
LINE
  5
513F
330
1A
100
AcDbEntity
  8
寸法線
 48
10.0
100
AcDbLine
 10
676.059687574045
 20
234.445467823331
 30
0.0
 11
676.059687574045
 21
167.725967246185
 31
0.0
  0
LINE
  5
5140
330
1A
100
AcDbEntity
  8
寸法線
 48
10.0
100
AcDbLine
 10
415.598558805259
 20
234.445467823331
 30
0.0
 11
676.059687574045
 21
234.445467823331
 31
0.0
  0
LINE
  5
5141
330
1A
100
AcDbEntity
  8
寸法線
 48
10.0
100
AcDbLine
 10
415.598558805259
 20
221.101567707902
 30
0.0
 11
676.059687574045
 21
221.101567707902
 31
0.0
  0
LINE
  5
5142
330
1A
100
AcDbEntity
  8
寸法線
 48
10.0
100
AcDbLine
 10
415.598558805259
 20
207.757667592473
 30
0.0
 11
676.059687574045
 21
207.757667592473
 31
0.0
  0
LINE
  5
5143
330
1A
100
AcDbEntity
  8
寸法線
 48
10.0
100
AcDbLine
 10
415.598558805259
 20
194.413767477044
 30
0.0
 11
676.059687574045
 21
194.413767477044
 31
0.0
  0
LINE
  5
5144
330
1A
100
AcDbEntity
  8
寸法線
 48
10.0
100
AcDbLine
 10
415.598558805259
 20
181.069867361614
 30
0.0
 11
676.059687574045
 21
181.069867361614
 31
0.0
  0
LINE
  5
5145
330
1A
100
AcDbEntity
  8
寸法線
 48
10.0
100
AcDbLine
 10
415.598558805259
 20
167.725967246185
 30
0.0
 11
676.059687574045
 21
167.725967246185
 31
0.0
  0
MTEXT
  5
514D
102
{ACAD_XDICTIONARY
360
514E
102
}
330
1A
100
AcDbEntity
  8
寸法線
 48
10.0
100
AcDbMText
 10
530.39814234044
 20
217.668617803848
 30
0.0
 40
8.0
 41
45.973110101695
 71
     2
 72
     5
  1
0～500\P0～800\P0～1000\P0～1300
1001
ACADANNOTATIVE
1000
AnnotativeData
1002
{
1070
     1
1070
     0
1002
}
  0
LINE
  5
5152
330
1A
100
AcDbEntity
  8
外形線
 62
     0
 48
10.0
100
AcDbLine
 10
486.327429994313
 20
375.214526375528
 30
0.0
 11
479.277429994313
 21
375.214526375528
 31
0.0
  0
LINE
  5
5153
330
1A
100
AcDbEntity
  8
外形線
 62
     0
 48
10.0
100
AcDbLine
 10
486.327429994313
 20
390.225633374458
 30
0.0
 11
479.277429994313
 21
390.225633374458
 31
0.0
  0
LINE
  5
5154
330
1A
100
AcDbEntity
  8
外形線
100
AcDbLine
 10
377.277429994312
 20
372.470064874993
 30
0.0
 11
379.027414994312
 21
370.720079874993
 31
0.0
  0
LINE
  5
5155
330
1A
100
AcDbEntity
  8
細線
100
AcDbLine
 10
397.277429994312
 20
376.720079874993
 30
0.0
 11
379.168947494312
 21
376.720079874993
 31
0.0
  0
ARC
  5
5156
330
1A
100
AcDbEntity
  8
細線
100
AcDbCircle
 10
387.73935764045
 20
382.720079874993
 30
0.0
 40
10.4619276461377
100
AcDbArc
 50
145.004781311394
 51
214.995218688606
  0
ARC
  5
5157
330
1A
100
AcDbEntity
  8
細線
100
AcDbCircle
 10
384.20945889623
 20
371.930814777766
 30
0.0
 40
6.952971693050801
100
AcDbArc
 50
136.464145118942
 51
175.551856895771
  0
LINE
  5
5158
330
1A
100
AcDbEntity
  8
外形線
100
AcDbLine
 10
397.277429994312
 20
370.720079874993
 30
0.0
 11
379.027414994312
 21
370.720079874993
 31
0.0
  0
LINE
  5
5159
330
1A
100
AcDbEntity
  8
外形線
100
AcDbLine
 10
377.277429994312
 20
392.970094874993
 30
0.0
 11
377.277429994312
 21
372.470064874993
 31
0.0
  0
LINE
  5
515A
330
1A
100
AcDbEntity
  8
外形線
100
AcDbLine
 10
377.277429994312
 20
392.970094874993
 30
0.0
 11
379.027414994312
 21
394.720079874993
 31
0.0
  0
LINE
  5
515B
330
1A
100
AcDbEntity
  8
細線
100
AcDbLine
 10
397.277429994312
 20
388.720079874993
 30
0.0
 11
379.168947494312
 21
388.720079874993
 31
0.0
  0
ARC
  5
515C
330
1A
100
AcDbEntity
  8
細線
100
AcDbCircle
 10
384.20945889623
 20
393.509344972221
 30
0.0
 40
6.952971693050801
100
AcDbArc
 50
184.448143104221
 51
223.535854881058
  0
LINE
  5
515D
330
1A
100
AcDbEntity
  8
外形線
100
AcDbLine
 10
397.277429994312
 20
394.720079874993
 30
0.0
 11
379.027414994312
 21
394.720079874993
 31
0.0
  0
LINE
  5
515E
330
1A
100
AcDbEntity
  8
細線
100
AcDbLine
 10
432.940808925604
 20
392.961560365673
 30
0.0
 11
434.64056679426
 21
372.154007577648
 31
0.0
  0
ARC
  5
515F
330
1A
100
AcDbEntity
  8
外形線
100
AcDbCircle
 10
434.940808925605
 20
392.961560365673
 30
0.0
 40
2.000000000000028
100
AcDbArc
 50
9.340183859378
 51
180.0
  0
LINE
  5
5160
330
1A
100
AcDbEntity
  8
細線
100
AcDbLine
 10
433.037104760137
 20
371.929177435346
 30
0.0
 11
434.15562591718
 21
378.090401863563
 31
0.0
  0
LINE
  5
5161
330
1A
100
AcDbEntity
  8
外形線
100
AcDbLine
 10
397.277429994312
 20
394.77816852028
 30
0.0
 11
397.277429994312
 21
370.661991229705
 31
0.0
  0
ARC
  5
5162
330
1A
100
AcDbEntity
  8
外形線
100
AcDbCircle
 10
401.940808925605
 20
392.961560365673
 30
0.0
 40
2.000000000000028
100
AcDbArc
 50
9.340183859378
 51
180.0
  0
ARC
  5
5163
330
1A
100
AcDbEntity
  8
外形線
100
AcDbCircle
 10
407.440808925605
 20
392.961560365673
 30
0.0
 40
2.000000000000028
100
AcDbArc
 50
9.340183859378
 51
180.0
  0
ARC
  5
5164
330
1A
100
AcDbEntity
  8
外形線
100
AcDbCircle
 10
412.940808925604
 20
392.961560365673
 30
0.0
 40
2.000000000000028
100
AcDbArc
 50
9.340183859378
 51
180.0
  0
ARC
  5
5165
330
1A
100
AcDbEntity
  8
外形線
100
AcDbCircle
 10
418.440808925605
 20
392.961560365673
 30
0.0
 40
2.000000000000028
100
AcDbArc
 50
9.340183859378
 51
180.0
  0
ARC
  5
5166
330
1A
100
AcDbEntity
  8
外形線
100
AcDbCircle
 10
423.940808925604
 20
392.961560365673
 30
0.0
 40
2.000000000000028
100
AcDbArc
 50
9.340183859378
 51
180.0
  0
ARC
  5
5167
330
1A
100
AcDbEntity
  8
外形線
100
AcDbCircle
 10
429.440808925605
 20
392.961560365673
 30
0.0
 40
2.000000000000028
100
AcDbArc
 50
9.340183859378
 51
180.0
  0
ARC
  5
5168
330
1A
100
AcDbEntity
  8
外形線
100
AcDbCircle
 10
396.440808925604
 20
392.961560365673
 30
0.0
 40
2.000000000000028
100
AcDbArc
 50
9.340183859378
 51
65.272029671756
  0
LINE
  5
5169
330
1A
100
AcDbEntity
  8
細線
100
AcDbLine
 10
403.914293194365
 20
393.286152172341
 30
0.0
 11
405.61405106302
 21
372.478599384313
 31
0.0
  0
ARC
  5
516A
330
1A
100
AcDbEntity
  8
外形線
100
AcDbCircle
 10
403.614051063019
 20
372.478599384315
 30
0.0
 40
2.000000000000028
100
AcDbArc
 50
180.0
 51
9.340183859404
  0
LINE
  5
516B
330
1A
100
AcDbEntity
  8
細線
100
AcDbLine
 10
404.40437925342
 20
387.286773241666
 30
0.0
 11
405.440808925604
 21
392.961560365673
 31
0.0
  0
LINE
  5
516C
330
1A
100
AcDbEntity
  8
細線
100
AcDbLine
 10
399.954750766314
 20
392.790891594616
 30
0.0
 11
401.64056679426
 21
372.154007577648
 31
0.0
  0
LINE
  5
516D
330
1A
100
AcDbEntity
  8
細線
100
AcDbLine
 10
398.414293194365
 20
393.286152172341
 30
0.0
 11
400.11405106302
 21
372.478599384313
 31
0.0
  0
ARC
  5
516E
330
1A
100
AcDbEntity
  8
外形線
100
AcDbCircle
 10
398.11405106302
 20
372.478599384315
 30
0.0
 40
2.000000000000028
100
AcDbArc
 50
245.272029671756
 51
9.340183859404
  0
LINE
  5
516F
330
1A
100
AcDbEntity
  8
細線
100
AcDbLine
 10
400.037104760138
 20
371.929177435346
 30
0.0
 11
401.15562591718
 21
378.090401863563
 31
0.0
  0
LINE
  5
5170
330
1A
100
AcDbEntity
  8
細線
100
AcDbLine
 10
398.904379253419
 20
387.286773241666
 30
0.0
 11
399.940808925605
 21
392.961560365673
 31
0.0
  0
LINE
  5
5171
330
1A
100
AcDbEntity
  8
細線
100
AcDbLine
 10
431.414293194365
 20
393.286152172341
 30
0.0
 11
433.11405106302
 21
372.478599384313
 31
0.0
  0
LINE
  5
5172
330
1A
100
AcDbEntity
  8
細線
100
AcDbLine
 10
427.440808925605
 20
392.961560365673
 30
0.0
 11
429.14056679426
 21
372.154007577643
 31
0.0
  0
LINE
  5
5173
330
1A
100
AcDbEntity
  8
細線
100
AcDbLine
 10
425.914293194365
 20
393.286152172341
 30
0.0
 11
427.61405106302
 21
372.478599384313
 31
0.0
  0
LINE
  5
5174
330
1A
100
AcDbEntity
  8
細線
100
AcDbLine
 10
421.940808925605
 20
392.961560365673
 30
0.0
 11
423.64056679426
 21
372.154007577648
 31
0.0
  0
LINE
  5
5175
330
1A
100
AcDbEntity
  8
細線
100
AcDbLine
 10
420.414293194364
 20
393.286152172341
 30
0.0
 11
422.114051063019
 21
372.478599384313
 31
0.0
  0
LINE
  5
5176
330
1A
100
AcDbEntity
  8
細線
100
AcDbLine
 10
416.440808925604
 20
392.961560365673
 30
0.0
 11
418.14056679426
 21
372.154007577643
 31
0.0
  0
LINE
  5
5177
330
1A
100
AcDbEntity
  8
細線
100
AcDbLine
 10
414.914293194365
 20
393.286152172341
 30
0.0
 11
416.61405106302
 21
372.478599384313
 31
0.0
  0
LINE
  5
5178
330
1A
100
AcDbEntity
  8
細線
100
AcDbLine
 10
410.940808925605
 20
392.961560365673
 30
0.0
 11
412.640566794259
 21
372.154007577648
 31
0.0
  0
LINE
  5
5179
330
1A
100
AcDbEntity
  8
細線
100
AcDbLine
 10
409.414293194365
 20
393.286152172341
 30
0.0
 11
411.114051063019
 21
372.478599384313
 31
0.0
  0
LINE
  5
517A
330
1A
100
AcDbEntity
  8
細線
100
AcDbLine
 10
405.440808925604
 20
392.961560365675
 30
0.0
 11
407.114051063019
 21
372.478599384318
 31
0.0
  0
ARC
  5
517B
330
1A
100
AcDbEntity
  8
外形線
100
AcDbCircle
 10
409.11405106302
 20
372.478599384315
 30
0.0
 40
2.000000000000028
100
AcDbArc
 50
180.0
 51
9.340183859404
  0
ARC
  5
517C
330
1A
100
AcDbEntity
  8
外形線
100
AcDbCircle
 10
414.614051063019
 20
372.478599384315
 30
0.0
 40
2.000000000000028
100
AcDbArc
 50
180.0
 51
9.340183859404
  0
ARC
  5
517D
330
1A
100
AcDbEntity
  8
外形線
100
AcDbCircle
 10
420.11405106302
 20
372.478599384315
 30
0.0
 40
2.000000000000028
100
AcDbArc
 50
180.0
 51
9.340183859404
  0
ARC
  5
517E
330
1A
100
AcDbEntity
  8
外形線
100
AcDbCircle
 10
425.61405106302
 20
372.478599384315
 30
0.0
 40
2.000000000000028
100
AcDbArc
 50
180.0
 51
9.340183859404
  0
ARC
  5
517F
330
1A
100
AcDbEntity
  8
外形線
100
AcDbCircle
 10
431.114051063019
 20
372.478599384315
 30
0.0
 40
2.000000000000028
100
AcDbArc
 50
180.0
 51
9.340183859404
  0
LINE
  5
5180
330
1A
100
AcDbEntity
  8
細線
100
AcDbLine
 10
405.537104760137
 20
371.929177435346
 30
0.0
 11
406.65562591718
 21
378.090401863563
 31
0.0
  0
LINE
  5
5181
330
1A
100
AcDbEntity
  8
細線
100
AcDbLine
 10
411.037104760137
 20
371.929177435346
 30
0.0
 11
412.15562591718
 21
378.090401863563
 31
0.0
  0
LINE
  5
5182
330
1A
100
AcDbEntity
  8
細線
100
AcDbLine
 10
409.90437925342
 20
387.286773241666
 30
0.0
 11
410.940808925605
 21
392.961560365673
 31
0.0
  0
LINE
  5
5183
330
1A
100
AcDbEntity
  8
細線
100
AcDbLine
 10
416.537104760137
 20
371.929177435346
 30
0.0
 11
417.655625917179
 21
378.090401863563
 31
0.0
  0
LINE
  5
5184
330
1A
100
AcDbEntity
  8
細線
100
AcDbLine
 10
415.404379253419
 20
387.286773241666
 30
0.0
 11
416.440808925604
 21
392.961560365673
 31
0.0
  0
LINE
  5
5185
330
1A
100
AcDbEntity
  8
細線
100
AcDbLine
 10
422.037104760137
 20
371.929177435346
 30
0.0
 11
423.15562591718
 21
378.090401863563
 31
0.0
  0
LINE
  5
5186
330
1A
100
AcDbEntity
  8
細線
100
AcDbLine
 10
420.90437925342
 20
387.286773241666
 30
0.0
 11
421.940808925605
 21
392.961560365673
 31
0.0
  0
LINE
  5
5187
330
1A
100
AcDbEntity
  8
細線
100
AcDbLine
 10
427.537104760138
 20
371.929177435346
 30
0.0
 11
428.65562591718
 21
378.090401863563
 31
0.0
  0
LINE
  5
5188
330
1A
100
AcDbEntity
  8
細線
100
AcDbLine
 10
426.404379253419
 20
387.286773241666
 30
0.0
 11
427.440808925605
 21
392.961560365673
 31
0.0
  0
LINE
  5
5189
330
1A
100
AcDbEntity
  8
細線
100
AcDbLine
 10
431.90437925342
 20
387.286773241666
 30
0.0
 11
432.940808925604
 21
392.961560365673
 31
0.0
  0
ARC
  5
518A
330
1A
100
AcDbEntity
  8
外形線
100
AcDbCircle
 10
440.440808925604
 20
392.961560365673
 30
0.0
 40
2.000000000000028
100
AcDbArc
 50
9.340183859378
 51
180.0
  0
ARC
  5
518B
330
1A
100
AcDbEntity
  8
外形線
100
AcDbCircle
 10
445.940808925605
 20
392.961560365673
 30
0.0
 40
2.000000000000028
100
AcDbArc
 50
9.340183859378
 51
180.0
  0
ARC
  5
518C
330
1A
100
AcDbEntity
  8
外形線
100
AcDbCircle
 10
451.440808925604
 20
392.961560365673
 30
0.0
 40
2.000000000000028
100
AcDbArc
 50
9.340183859378
 51
180.0
  0
ARC
  5
518D
330
1A
100
AcDbEntity
  8
外形線
100
AcDbCircle
 10
456.940808925605
 20
392.961560365673
 30
0.0
 40
2.000000000000028
100
AcDbArc
 50
9.340183859378
 51
180.0
  0
ARC
  5
518E
330
1A
100
AcDbEntity
  8
外形線
100
AcDbCircle
 10
462.440808925605
 20
392.961560365673
 30
0.0
 40
2.000000000000028
100
AcDbArc
 50
23.319669944921
 51
180.0
  0
LINE
  5
518F
330
1A
100
AcDbEntity
  8
外形線
100
AcDbLine
 10
464.277429994313
 20
394.720079874993
 30
0.0
 11
464.277429994313
 21
370.485283723208
 31
0.0
  0
LINE
  5
5190
330
1A
100
AcDbEntity
  8
外形線
100
AcDbLine
 10
477.493947494313
 20
394.720079874993
 30
0.0
 11
479.277429994313
 21
392.072372374993
 31
0.0
  0
LINE
  5
5191
330
1A
100
AcDbEntity
  8
細線
100
AcDbLine
 10
460.440808925604
 20
392.961560365673
 30
0.0
 11
462.14056679426
 21
372.154007577648
 31
0.0
  0
ARC
  5
5192
330
1A
100
AcDbEntity
  8
外形線
100
AcDbCircle
 10
464.11405106302
 20
372.478599384315
 30
0.0
 40
2.000000000000028
100
AcDbArc
 50
180.0
 51
274.685682891617
  0
LINE
  5
5193
330
1A
100
AcDbEntity
  8
細線
100
AcDbLine
 10
458.914293194365
 20
393.286152172341
 30
0.0
 11
460.61405106302
 21
372.478599384313
 31
0.0
  0
LINE
  5
5194
330
1A
100
AcDbEntity
  8
細線
100
AcDbLine
 10
454.940808925605
 20
392.961560365673
 30
0.0
 11
456.61405106302
 21
372.478599384313
 31
0.0
  0
LINE
  5
5195
330
1A
100
AcDbEntity
  8
細線
100
AcDbLine
 10
453.414293194365
 20
393.286152172341
 30
0.0
 11
455.11405106302
 21
372.478599384313
 31
0.0
  0
LINE
  5
5196
330
1A
100
AcDbEntity
  8
細線
100
AcDbLine
 10
449.440808925605
 20
392.961560365673
 30
0.0
 11
451.14056679426
 21
372.154007577645
 31
0.0
  0
LINE
  5
5197
330
1A
100
AcDbEntity
  8
細線
100
AcDbLine
 10
447.914293194364
 20
393.286152172341
 30
0.0
 11
449.614051063019
 21
372.478599384313
 31
0.0
  0
LINE
  5
5198
330
1A
100
AcDbEntity
  8
細線
100
AcDbLine
 10
443.940808925604
 20
392.961560365673
 30
0.0
 11
445.64056679426
 21
372.154007577648
 31
0.0
  0
LINE
  5
5199
330
1A
100
AcDbEntity
  8
細線
100
AcDbLine
 10
442.414293194365
 20
393.286152172341
 30
0.0
 11
444.11405106302
 21
372.478599384313
 31
0.0
  0
LINE
  5
519A
330
1A
100
AcDbEntity
  8
細線
100
AcDbLine
 10
438.440808925605
 20
392.961560365673
 30
0.0
 11
440.140566794259
 21
372.154007577643
 31
0.0
  0
LINE
  5
519B
330
1A
100
AcDbEntity
  8
細線
100
AcDbLine
 10
436.914293194365
 20
393.286152172341
 30
0.0
 11
438.614051063019
 21
372.478599384313
 31
0.0
  0
ARC
  5
519C
330
1A
100
AcDbEntity
  8
外形線
100
AcDbCircle
 10
436.61405106302
 20
372.478599384315
 30
0.0
 40
2.000000000000028
100
AcDbArc
 50
180.0
 51
9.340183859404
  0
ARC
  5
519D
330
1A
100
AcDbEntity
  8
外形線
100
AcDbCircle
 10
442.114051063019
 20
372.478599384315
 30
0.0
 40
2.000000000000028
100
AcDbArc
 50
180.0
 51
9.340183859404
  0
ARC
  5
519E
330
1A
100
AcDbEntity
  8
外形線
100
AcDbCircle
 10
447.61405106302
 20
372.478599384315
 30
0.0
 40
2.000000000000028
100
AcDbArc
 50
180.0
 51
9.340183859404
  0
ARC
  5
519F
330
1A
100
AcDbEntity
  8
外形線
100
AcDbCircle
 10
453.11405106302
 20
372.478599384315
 30
0.0
 40
2.000000000000028
100
AcDbArc
 50
180.0
 51
9.340183859404
  0
ARC
  5
51A0
330
1A
100
AcDbEntity
  8
外形線
100
AcDbCircle
 10
458.614051063019
 20
372.478599384315
 30
0.0
 40
2.000000000000028
100
AcDbArc
 50
180.0
 51
9.340183859404
  0
LINE
  5
51A1
330
1A
100
AcDbEntity
  8
細線
100
AcDbLine
 10
438.537104760137
 20
371.929177435346
 30
0.0
 11
439.65562591718
 21
378.090401863563
 31
0.0
  0
LINE
  5
51A2
330
1A
100
AcDbEntity
  8
細線
100
AcDbLine
 10
437.40437925342
 20
387.286773241666
 30
0.0
 11
438.440808925605
 21
392.961560365673
 31
0.0
  0
LINE
  5
51A3
330
1A
100
AcDbEntity
  8
細線
100
AcDbLine
 10
444.037104760137
 20
371.929177435346
 30
0.0
 11
445.155625917179
 21
378.090401863563
 31
0.0
  0
LINE
  5
51A4
330
1A
100
AcDbEntity
  8
細線
100
AcDbLine
 10
442.904379253419
 20
387.286773241666
 30
0.0
 11
443.940808925604
 21
392.961560365673
 31
0.0
  0
LINE
  5
51A5
330
1A
100
AcDbEntity
  8
細線
100
AcDbLine
 10
449.537104760137
 20
371.929177435346
 30
0.0
 11
450.65562591718
 21
378.090401863563
 31
0.0
  0
LINE
  5
51A6
330
1A
100
AcDbEntity
  8
細線
100
AcDbLine
 10
448.40437925342
 20
387.286773241666
 30
0.0
 11
449.440808925605
 21
392.961560365673
 31
0.0
  0
LINE
  5
51A7
330
1A
100
AcDbEntity
  8
細線
100
AcDbLine
 10
455.037104760138
 20
371.929177435346
 30
0.0
 11
456.15562591718
 21
378.090401863563
 31
0.0
  0
LINE
  5
51A8
330
1A
100
AcDbEntity
  8
細線
100
AcDbLine
 10
453.904379253419
 20
387.286773241666
 30
0.0
 11
454.940808925605
 21
392.961560365673
 31
0.0
  0
LINE
  5
51A9
330
1A
100
AcDbEntity
  8
細線
100
AcDbLine
 10
460.537104760137
 20
371.929177435346
 30
0.0
 11
461.65562591718
 21
378.090401863563
 31
0.0
  0
LINE
  5
51AA
330
1A
100
AcDbEntity
  8
細線
100
AcDbLine
 10
459.40437925342
 20
387.286773241666
 30
0.0
 11
460.440808925604
 21
392.961560365673
 31
0.0
  0
LINE
  5
51AB
330
1A
100
AcDbEntity
  8
外形線
100
AcDbLine
 10
479.277429994313
 20
373.367787374993
 30
0.0
 11
479.277429994313
 21
392.072372374993
 31
0.0
  0
LINE
  5
51AC
330
1A
100
AcDbEntity
  8
細線
100
AcDbLine
 10
464.277429994313
 20
388.720079874993
 30
0.0
 11
477.493947494313
 21
388.720079874993
 31
0.0
  0
LINE
  5
51AD
330
1A
100
AcDbEntity
  8
細線
100
AcDbLine
 10
464.277429994313
 20
376.720079874993
 30
0.0
 11
477.493947494313
 21
376.720079874993
 31
0.0
  0
LINE
  5
51AE
330
1A
100
AcDbEntity
  8
外形線
100
AcDbLine
 10
477.493947494313
 20
370.720079874993
 30
0.0
 11
464.277429994313
 21
370.720079874993
 31
0.0
  0
ARC
  5
51AF
330
1A
100
AcDbEntity
  8
細線
100
AcDbCircle
 10
468.29307499565
 20
382.720079874993
 30
0.0
 40
10.98435499866225
100
AcDbArc
 50
326.891144138683
 51
33.108855861317
  0
ARC
  5
51B0
330
1A
100
AcDbEntity
  8
細線
100
AcDbCircle
 10
475.139501926824
 20
392.123258411323
 30
0.0
 40
4.1382409403513
100
AcDbArc
 50
304.676927093584
 51
359.295442522744
  0
ARC
  5
51B1
330
1A
100
AcDbEntity
  8
細線
100
AcDbCircle
 10
475.139501926824
 20
373.316901338663
 30
0.0
 40
4.1382409403513
100
AcDbArc
 50
0.704557477248
 51
55.323072906416
  0
LINE
  5
51B2
330
1A
100
AcDbEntity
  8
外形線
100
AcDbLine
 10
477.493947494313
 20
370.720079874993
 30
0.0
 11
479.277429994313
 21
373.367787374993
 31
0.0
  0
LINE
  5
51B3
330
1A
100
AcDbEntity
  8
外形線
100
AcDbLine
 10
477.493947494313
 20
394.720079874993
 30
0.0
 11
464.277429994313
 21
394.720079874993
 31
0.0
  0
LINE
  5
51B4
330
1A
100
AcDbEntity
  8
外形線
100
AcDbLine
 10
486.327429994313
 20
375.214526375528
 30
0.0
 11
487.577429994313
 21
376.469967374993
 31
0.0
  0
ARC
  5
51B5
330
1A
100
AcDbEntity
  8
細線
100
AcDbCircle
 10
484.790939833161
 20
376.457126810346
 30
0.0
 40
2.7865197466204
100
AcDbArc
 50
0.264025677746
 51
64.267180264161
  0
LINE
  5
51B6
330
1A
100
AcDbEntity
  8
細線
100
AcDbLine
 10
481.277429994313
 20
378.96730312526
 30
0.0
 11
486.000777494314
 21
378.96730312526
 31
0.0
  0
ARC
  5
51B7
330
1A
100
AcDbEntity
  8
細線
100
AcDbCircle
 10
482.322890252965
 20
382.720079874993
 30
0.0
 40
5.2545397413469
100
AcDbArc
 50
314.422567418831
 51
45.577432581169
  0
LINE
  5
51B8
330
1A
100
AcDbEntity
  8
外形線
100
AcDbLine
 10
481.277429994313
 20
390.220192374993
 30
0.0
 11
481.277429994313
 21
375.219964874993
 31
0.0
  0
ARC
  5
51B9
330
1A
100
AcDbEntity
  8
細線
100
AcDbCircle
 10
484.790939833161
 20
388.98303293964
 30
0.0
 40
2.7865197466204
100
AcDbArc
 50
295.732819735839
 51
359.735974322254
  0
LINE
  5
51BA
330
1A
100
AcDbEntity
  8
外形線
100
AcDbLine
 10
486.327429994313
 20
390.225633374458
 30
0.0
 11
487.577429994313
 21
388.970192374993
 31
0.0
  0
LINE
  5
51BB
330
1A
100
AcDbEntity
  8
細線
100
AcDbLine
 10
481.277429994313
 20
386.472856624726
 30
0.0
 11
486.000777494314
 21
386.472856624725
 31
0.0
  0
LINE
  5
51BC
330
1A
100
AcDbEntity
  8
外形線
100
AcDbLine
 10
487.577429994313
 20
388.970192374993
 30
0.0
 11
487.577429994313
 21
376.469964874993
 31
0.0
  0
MTEXT
  5
51DC
330
1A
100
AcDbEntity
  8
寸法線
 62
     1
 48
10.0
100
AcDbMText
 10
651.536345378596
 20
231.944461495831
 30
0.0
 40
8.0
 41
38.344837173322
 71
     1
 72
     5
  1
{\C256;台数}
  0
MTEXT
  5
51DD
330
1A
100
AcDbEntity
  8
寸法線
 62
     1
 48
10.0
100
AcDbMText
 10
590.601906762293
 20
232.395980188185
 30
0.0
 40
2.333873885063
 41
30.596305943412
 71
     1
 72
     5
  1
{\H3.428x;\C256;記事}
  0
VIEWPORT
  5
2902
330
28FB
100
AcDbEntity
 67
     1
  8
0
 48
10.0
100
AcDbViewport
 10
191.138271368075
 20
147.291822643468
 30
0.0
 40
632.507645533329
 41
309.602212727595
 68
     1
 69
     1
1001
ACAD
1000
MVIEW
1002
{
1070
    16
1010
0.0
1020
0.0
1030
0.0
1010
0.0
1020
0.0
1030
1.0
1040
0.0
1040
309.602212727595
1040
191.138271368075
1040
147.291822643468
1040
50.0
1040
0.0
1040
0.0
1070
     0
1070
   100
1070
     0
1070
     1
1070
     0
1070
     0
1070
     0
1070
     0
1040
0.0
1040
0.0
1040
0.0
1040
10.0
1040
10.0
1040
10.0
1040
10.0
1070
     0
1002
{
1002
}
1002
}
  0
VIEWPORT
  5
2904
330
28FB
100
AcDbEntity
 67
     1
  8
図枠太線
 48
10.0
100
AcDbViewport
 10
204.746305129083
 20
162.673622616852
 30
0.0
 40
400.0
 41
240.0
 68
     2
 69
     2
1001
ACAD
1000
MVIEW
1002
{
1070
    16
1010
0.0
1020
0.0
1030
0.0
1010
0.0
1020
0.0
1030
1.0
1040
0.0
1040
480.000000539533
1040
318.603065098722
1040
325.638330778613
1040
50.0
1040
0.0
1040
0.0
1070
     0
1070
   100
1070
     0
1070
     0
1070
     0
1070
     0
1070
     0
1070
     0
1040
0.0
1040
0.0
1040
0.0
1040
1.0
1040
1.0
1040
0.0
1040
0.0
1070
     0
1002
{
1002
}
1002
}
  0
INSERT
  5
2A59
330
28FB
100
AcDbEntity
 67
     1
  8
図枠太線
100
AcDbBlockReference
  2
A3横用_タイトル
 10
-0.352109406709
 20
-0.852337136674
 30
0.0
  0
MTEXT
  5
3045
102
{ACAD_XDICTIONARY
360
4D60
102
}
330
28FB
100
AcDbEntity
 67
     1
  8
寸法線
 48
10.0
100
AcDbMText
 10
368.881391732863
 20
53.037777982323
 30
0.0
 40
5.0
 41
33.833566292678
 71
     1
 72
     5
  1
台数    台
1001
ACADANNOTATIVE
1000
AnnotativeData
1002
{
1070
     1
1070
     0
1002
}
  0
MTEXT
  5
3046
102
{ACAD_XDICTIONARY
360
4E27
102
}
330
28FB
100
AcDbEntity
 67
     1
  8
寸法線
 48
10.0
100
AcDbMText
 10
311.463699675531
 20
34.708451288039
 30
0.0
 40
7.0
 41
41.045003631856
 71
     1
 72
     5
  1
PRL-100ED
1001
ACADANNOTATIVE
1000
AnnotativeData
1002
{
1070
     1
1070
     0
1002
}
  0
MTEXT
  5
3047
330
28FB
100
AcDbEntity
 67
     1
  8
寸法線
 48
10.0
100
AcDbMText
 10
363.049458857608
 20
39.210055016109
 30
0.0
 40
5.0
 41
43.047199206047
 71
     1
 72
     5
  1
パドル式\Pレベルスイッチ
  0
MTEXT
  5
3048
102
{ACAD_XDICTIONARY
360
4D5C
102
}
330
28FB
100
AcDbEntity
 67
     1
  8
寸法線
 48
10.0
100
AcDbMText
 10
337.036300149155
 20
16.952126615698
 30
0.0
 40
8.0
 41
38.04171107615
 71
     1
 72
     5
  1
HR-10003
1001
ACADANNOTATIVE
1000
AnnotativeData
1002
{
1070
     1
1070
     0
1002
}
  0
MTEXT
  5
304A
330
28FB
100
AcDbEntity
 67
     1
  8
寸法線
 48
10.0
100
AcDbMText
 10
150.380468880327
 20
15.000297230206
 30
0.0
 40
7.0
 41
15.363556412778
 71
     1
 72
     5
  1
1:2
  0
MTEXT
  5
43AE
102
{ACAD_XDICTIONARY
360
5300
102
}
330
28FB
100
AcDbEntity
 67
     1
  8
寸法線
 48
10.0
100
AcDbMText
 10
180.191108250375
 20
32.547016217212
 30
0.0
 40
4.5
 41
21.375384236178
 71
     1
 72
     5
  1
ohno
1001
ACADANNOTATIVE
1000
AnnotativeData
1002
{
1070
     1
1070
     0
1002
}
  0
MTEXT
  5
43AF
102
{ACAD_XDICTIONARY
360
4D59
102
}
330
28FB
100
AcDbEntity
 67
     1
  8
寸法線
 48
10.0
100
AcDbMText
 10
175.785868491072
 20
12.986904709291
 30
0.0
 40
4.0
 41
23.156665718806
 71
     1
 72
     5
  1
\H1.25x;2015.6.11
1001
ACADANNOTATIVE
1000
AnnotativeData
1002
{
1070
     1
1070
     0
1002
}
  0
ENDSEC
  0
SECTION
  2
OBJECTS
  0
DICTIONARY
  5
C
330
0
100
AcDbDictionary
  3
ACAD_COLOR
350
2948
  3
ACAD_GROUP
350
D
  3
ACAD_LAYOUT
350
2816
  3
ACAD_MATERIAL
350
2947
  3
ACAD_MLEADERSTYLE
350
48E2
  3
ACAD_MLINESTYLE
350
E
  3
ACAD_PLOTSETTINGS
350
2817
  3
ACAD_SCALELIST
350
48BB
  3
ACAD_VISUALSTYLE
350
48A2
  3
ACDBHEADERROUNDTRIPXREC
350
5303
  3
ACDBVARIABLEDICTIONARY
350
4AF1
  3
DWGPROPS
350
5328
  0
DICTIONARY
  5
532A
330
8
100
AcDbDictionary
280
     1
  3
ACAD_XREC_ROUNDTRIP
360
532B
  0
DICTIONARY
  5
29EA
330
2
100
AcDbDictionary
280
     1
  3
ACAD_LAYERFILTERS
360
2B0C
  3
ACAD_LAYERSTATES
360
29EB
  0
DICTIONARY
  5
4DDE
330
4DDD
100
AcDbDictionary
280
     1
  3
ACDBCONTEXTDATAMANAGER
360
4DDF
  0
DICTIONARY
  5
4DE2
330
4DE1
100
AcDbDictionary
280
     1
  3
ACDBCONTEXTDATAMANAGER
360
4DE3
  0
DICTIONARY
  5
4E09
330
4E08
100
AcDbDictionary
280
     1
  3
ACDBCONTEXTDATAMANAGER
360
4E0A
  0
DICTIONARY
  5
4E0E
330
4E0D
100
AcDbDictionary
280
     1
  3
ACDBCONTEXTDATAMANAGER
360
4E0F
  0
DICTIONARY
  5
4E12
330
4E11
100
AcDbDictionary
280
     1
  3
ACDBCONTEXTDATAMANAGER
360
4E13
  0
DICTIONARY
  5
4E17
330
4E16
100
AcDbDictionary
280
     1
  3
ACDBCONTEXTDATAMANAGER
360
4E18
  0
DICTIONARY
  5
4E1B
330
4E1A
100
AcDbDictionary
280
     1
  3
ACDBCONTEXTDATAMANAGER
360
4E1C
  0
DICTIONARY
  5
512E
330
512D
100
AcDbDictionary
280
     1
  3
ACDBCONTEXTDATAMANAGER
360
512F
  0
DICTIONARY
  5
514E
330
514D
100
AcDbDictionary
280
     1
  3
ACAD_MTEXT_RT
360
5329
  3
ACDBCONTEXTDATAMANAGER
360
514F
  0
DICTIONARY
  5
4D60
330
3045
100
AcDbDictionary
280
     1
  3
ACDBCONTEXTDATAMANAGER
360
4D61
  0
DICTIONARY
  5
4E27
330
3046
100
AcDbDictionary
280
     1
  3
ACDBCONTEXTDATAMANAGER
360
4E28
  0
DICTIONARY
  5
4D5C
330
3048
100
AcDbDictionary
280
     1
  3
ACDBCONTEXTDATAMANAGER
360
4D5D
  0
DICTIONARY
  5
5300
330
43AE
100
AcDbDictionary
280
     1
  3
ACDBCONTEXTDATAMANAGER
360
5301
  0
DICTIONARY
  5
4D59
330
43AF
100
AcDbDictionary
280
     1
  3
ACDBCONTEXTDATAMANAGER
360
4D5A
  0
DICTIONARY
  5
2948
102
{ACAD_REACTORS
330
C
102
}
330
C
100
AcDbDictionary
  0
DICTIONARY
  5
D
102
{ACAD_REACTORS
330
C
102
}
330
C
100
AcDbDictionary
  0
DICTIONARY
  5
2816
102
{ACAD_REACTORS
330
C
102
}
330
C
100
AcDbDictionary
  0
DICTIONARY
  5
2947
102
{ACAD_REACTORS
330
C
102
}
330
C
100
AcDbDictionary
  3
BYBLOCK
350
48DE
  3
BYLAYER
350
48DD
  3
GLOBAL
350
48DF
  0
DICTIONARY
  5
48E2
102
{ACAD_REACTORS
330
C
102
}
330
C
100
AcDbDictionary
  3
STANDARD
350
48E3
  0
DICTIONARY
  5
E
102
{ACAD_REACTORS
330
C
102
}
330
C
100
AcDbDictionary
  3
STANDARD
350
13
  0
DICTIONARY
  5
2817
102
{ACAD_REACTORS
330
C
102
}
330
C
100
AcDbDictionary
  0
DICTIONARY
  5
48BB
102
{ACAD_REACTORS
330
C
102
}
330
C
100
AcDbDictionary
  3
A0
350
48BC
  3
A1
350
48BD
  3
A2
350
48BE
  3
A3
350
48BF
  3
A4
350
48C0
  3
A5
350
48C1
  3
A6
350
48C2
  3
A7
350
48C3
  3
A8
350
48C4
  3
A9
350
48C5
  3
B0
350
48C6
  3
B1
350
48C7
  3
B2
350
48C8
  3
B3
350
48C9
  3
B4
350
48CA
  3
B5
350
48CB
  3
B6
350
48CC
  3
B7
350
48CD
  3
B8
350
48CE
  3
B9
350
48CF
  3
C0
350
48D0
  3
C1
350
48D1
  3
C2
350
48D2
  3
C3
350
48D3
  3
C4
350
48D4
  3
C5
350
48D5
  3
C6
350
48D6
  3
C7
350
48D7
  3
C8
350
48D8
  3
C9
350
48D9
  3
D0
350
48DA
  3
D1
350
48DB
  3
D2
350
48DC
  0
DICTIONARY
  5
48A2
102
{ACAD_REACTORS
330
C
102
}
330
C
100
AcDbDictionary
  3
2DWIREFRAME
350
48A7
  3
BASIC
350
48AA
  3
BRIGHTEN
350
48AE
  3
COLORCHANGE
350
48B2
  3
CONCEPTUAL
350
48AC
  3
DIM
350
48AD
  3
EDGECOLOROFF
350
48B5
  3
FACEPATTERN
350
48B1
  3
FLAT
350
48A3
  3
FLATWITHEDGES
350
48A4
  3
GOURAUD
350
48A5
  3
GOURAUDWITHEDGES
350
48A6
  3
HIDDEN
350
48A9
  3
JITTEROFF
350
48B3
  3
LINEPATTERN
350
48B0
  3
OVERHANGOFF
350
48B4
  3
REALISTIC
350
48AB
  3
SHADED
350
48BA
  3
SHADED_WITH_EDGES
350
48B9
  3
SHADES_OF_GRAY
350
48B6
  3
SKETCHY
350
48B7
  3
THICKEN
350
48AF
  3
WIREFRAME
350
48A8
  3
X-RAY
350
48B8
  0
DICTIONARY
  5
5303
102
{ACAD_REACTORS
330
C
102
}
330
C
100
AcDbDictionary
  3
CEPSNID
350
530D
  3
CEPSNTYPE
350
530C
  3
COLORDICT
350
5326
  3
DIMSTYLEDATA
350
5323
  3
FINGERPRINTGUID
350
530E
  3
HYPERLINKBASE
350
5306
  3
INSUNITS
350
530B
  3
LAYOUTDICT
350
5308
  3
LWETCUNION
350
530A
  3
MATERIALDICT
350
5327
  3
PLOTSETDICT
350
5309
  3
PSVPSCALE
350
5310
  3
PUCSBASE
350
5313
  3
PUCSORGBACK
350
5319
  3
PUCSORGBOTTOM
350
5315
  3
PUCSORGFRONT
350
5318
  3
PUCSORGLEFT
350
5316
  3
PUCSORGRIGHT
350
5317
  3
PUCSORGTOP
350
5314
  3
PUCSORTHOREF
350
5311
  3
PUCSORTHOVIEW
350
5312
  3
STYLESHEET
350
5307
  3
TSTACKALIGN
350
5304
  3
TSTACKSIZE
350
5305
  3
UCSBASE
350
531C
  3
UCSORGBACK
350
5322
  3
UCSORGBOTTOM
350
531E
  3
UCSORGFRONT
350
5321
  3
UCSORGLEFT
350
531F
  3
UCSORGRIGHT
350
5320
  3
UCSORGTOP
350
531D
  3
UCSORTHOREF
350
531A
  3
UCSORTHOVIEW
350
531B
  3
VERSIONGUID
350
530F
  0
DICTIONARY
  5
4AF1
102
{ACAD_REACTORS
330
C
102
}
330
C
100
AcDbDictionary
  3
CANNOSCALE
350
4AF2
  3
CMLEADERSTYLE
350
4AF4
  3
CTABLESTYLE
350
4AF3
  3
DIMASSOC
350
5324
  3
HIDETEXT
350
5325
  3
MSLTSCALE
350
4AF5
  3
XCLIPFRAME
350
4AF6
  0
XRECORD
  5
5328
102
{ACAD_REACTORS
330
C
102
}
330
C
100
AcDbXrecord
  1
DWGPROPS COOKIE
  2

  3

  4

  6

  7

  8
y-ohno
  9

300
=
301
=
302
=
303
=
304
=
305
=
306
=
307
=
308
=
309
=
 40
0.0
 41
2450576.222302431
 42
2457191.275081736
  1

 90
        0
  0
XRECORD
  5
532B
102
{ACAD_REACTORS
330
532A
102
}
330
532A
100
AcDbXrecord
102
VTR_0.000_0.000_1.000_1.000_VISUALSTYLE
340
48A7
102
VTR_0.000_0.000_1.000_1.000_GRIDDISPLAY
 70
     3
102
VTR_0.000_0.000_1.000_1.000_GRIDMAJOR
 70
     5
102
VTR_0.000_0.000_1.000_1.000_DEFAULTLIGHTING
280
     1
102
VTR_0.000_0.000_1.000_1.000_DEFAULTLIGHTINGTYPE
 70
     1
102
VTR_0.000_0.000_1.000_1.000_BRIGHTNESS
141
0.0
102
VTR_0.000_0.000_1.000_1.000_CONTRAST
142
0.0
  0
DICTIONARY
  5
2B0C
102
{ACAD_REACTORS
330
29EA
102
}
330
29EA
100
AcDbDictionary
  0
DICTIONARY
  5
29EB
102
{ACAD_REACTORS
330
29EA
102
}
330
29EA
100
AcDbDictionary
  0
DICTIONARY
  5
4DDF
102
{ACAD_REACTORS
330
4DDE
102
}
330
4DDE
100
AcDbDictionary
  3
ACDB_ANNOTATIONSCALES
350
4DE0
  0
DICTIONARY
  5
4DE3
102
{ACAD_REACTORS
330
4DE2
102
}
330
4DE2
100
AcDbDictionary
  3
ACDB_ANNOTATIONSCALES
350
4DE4
  0
DICTIONARY
  5
4E0A
102
{ACAD_REACTORS
330
4E09
102
}
330
4E09
100
AcDbDictionary
  3
ACDB_ANNOTATIONSCALES
350
4E0B
  0
DICTIONARY
  5
4E0F
102
{ACAD_REACTORS
330
4E0E
102
}
330
4E0E
100
AcDbDictionary
  3
ACDB_ANNOTATIONSCALES
350
4E10
  0
DICTIONARY
  5
4E13
102
{ACAD_REACTORS
330
4E12
102
}
330
4E12
100
AcDbDictionary
  3
ACDB_ANNOTATIONSCALES
350
4E14
  0
DICTIONARY
  5
4E18
102
{ACAD_REACTORS
330
4E17
102
}
330
4E17
100
AcDbDictionary
  3
ACDB_ANNOTATIONSCALES
350
4E19
  0
DICTIONARY
  5
4E1C
102
{ACAD_REACTORS
330
4E1B
102
}
330
4E1B
100
AcDbDictionary
  3
ACDB_ANNOTATIONSCALES
350
4E1D
  0
DICTIONARY
  5
512F
102
{ACAD_REACTORS
330
512E
102
}
330
512E
100
AcDbDictionary
  3
ACDB_ANNOTATIONSCALES
350
5130
  0
XRECORD
  5
5329
102
{ACAD_REACTORS
330
514E
102
}
330
514E
100
AcDbXrecord
 40
22144.0
  1
\pt352,480;0～500\P0～800\P\ptz;0～1000\P0～1300
  0
DICTIONARY
  5
514F
102
{ACAD_REACTORS
330
514E
102
}
330
514E
100
AcDbDictionary
  3
ACDB_ANNOTATIONSCALES
350
5150
  0
DICTIONARY
  5
4D61
102
{ACAD_REACTORS
330
4D60
102
}
330
4D60
100
AcDbDictionary
  3
ACDB_ANNOTATIONSCALES
350
4D62
  0
DICTIONARY
  5
4E28
102
{ACAD_REACTORS
330
4E27
102
}
330
4E27
100
AcDbDictionary
  3
ACDB_ANNOTATIONSCALES
350
4E29
  0
DICTIONARY
  5
4D5D
102
{ACAD_REACTORS
330
4D5C
102
}
330
4D5C
100
AcDbDictionary
  3
ACDB_ANNOTATIONSCALES
350
4D5E
  0
DICTIONARY
  5
5301
102
{ACAD_REACTORS
330
5300
102
}
330
5300
100
AcDbDictionary
  3
ACDB_ANNOTATIONSCALES
350
5302
  0
DICTIONARY
  5
4D5A
102
{ACAD_REACTORS
330
4D59
102
}
330
4D59
100
AcDbDictionary
  3
ACDB_ANNOTATIONSCALES
350
4D5B
  0
MATERIAL
  5
48DE
102
{ACAD_REACTORS
330
2947
102
}
102
{ACAD_XDICTIONARY
360
532E
102
}
330
2947
100
AcDbMaterial
  1
BYBLOCK
  0
MATERIAL
  5
48DD
102
{ACAD_REACTORS
330
2947
102
}
102
{ACAD_XDICTIONARY
360
532C
102
}
330
2947
100
AcDbMaterial
  1
BYLAYER
  0
MATERIAL
  5
48DF
102
{ACAD_REACTORS
330
2947
102
}
102
{ACAD_XDICTIONARY
360
5330
102
}
330
2947
100
AcDbMaterial
  1
GLOBAL
  0
ACAD_PROXY_OBJECT
  5
48E3
102
{ACAD_REACTORS
330
48E2
102
}
330
48E2
100
AcDbProxyObject
 90
      499
 91
      508
 93
      610
310
40901902A4063FBFFFFFE0000000000000020400000000000020404214DD185B99185C990000000000000104090141901A00000000000004100000000000000041025764000000000000039000
340
14
340
0
340
10
340
0
 94
        0
1001
ACAD_MLEADERVER
1070
     2
  0
MLINESTYLE
  5
13
102
{ACAD_REACTORS
330
E
102
}
330
E
100
AcDbMlineStyle
  2
STANDARD
 70
     0
  3

 62
     0
 51
90.0
 52
90.0
 71
     2
 49
0.5
 62
   256
  6
BYLAYER
 49
-0.5
 62
   256
  6
BYLAYER
  0
ACAD_PROXY_OBJECT
  5
48BC
102
{ACAD_REACTORS
330
48BB
102
}
330
48BB
100
AcDbProxyObject
 90
      499
 91
      505
 93
       41
310
903313A31580
  0
ACAD_PROXY_OBJECT
  5
48BD
102
{ACAD_REACTORS
330
48BB
102
}
330
48BB
100
AcDbProxyObject
 90
      499
 91
      505
 93
      105
310
903313A324000000000000004000
  0
ACAD_PROXY_OBJECT
  5
48BE
102
{ACAD_REACTORS
330
48BB
102
}
330
48BB
100
AcDbProxyObject
 90
      499
 91
      505
 93
      105
310
903313A344000000000000104000
  0
ACAD_PROXY_OBJECT
  5
48BF
102
{ACAD_REACTORS
330
48BB
102
}
330
48BB
100
AcDbProxyObject
 90
      499
 91
      505
 93
      105
310
903313A354000000000000144000
  0
ACAD_PROXY_OBJECT
  5
48C0
102
{ACAD_REACTORS
330
48BB
102
}
330
48BB
100
AcDbProxyObject
 90
      499
 91
      505
 93
      105
310
903313A384000000000000204000
  0
ACAD_PROXY_OBJECT
  5
48C1
102
{ACAD_REACTORS
330
48BB
102
}
330
48BB
100
AcDbProxyObject
 90
      499
 91
      505
 93
      113
310
904313A31304000000000000244000
  0
ACAD_PROXY_OBJECT
  5
48C2
102
{ACAD_REACTORS
330
48BB
102
}
330
48BB
100
AcDbProxyObject
 90
      499
 91
      505
 93
      113
310
904313A31364000000000000304000
  0
ACAD_PROXY_OBJECT
  5
48C3
102
{ACAD_REACTORS
330
48BB
102
}
330
48BB
100
AcDbProxyObject
 90
      499
 91
      505
 93
      113
310
904313A32304000000000000344000
  0
ACAD_PROXY_OBJECT
  5
48C4
102
{ACAD_REACTORS
330
48BB
102
}
330
48BB
100
AcDbProxyObject
 90
      499
 91
      505
 93
      113
310
904313A333040000000000003E4000
  0
ACAD_PROXY_OBJECT
  5
48C5
102
{ACAD_REACTORS
330
48BB
102
}
330
48BB
100
AcDbProxyObject
 90
      499
 91
      505
 93
      113
310
904313A34304000000000000444000
  0
ACAD_PROXY_OBJECT
  5
48C6
102
{ACAD_REACTORS
330
48BB
102
}
330
48BB
100
AcDbProxyObject
 90
      499
 91
      505
 93
      113
310
904313A35304000000000000494000
  0
ACAD_PROXY_OBJECT
  5
48C7
102
{ACAD_REACTORS
330
48BB
102
}
330
48BB
100
AcDbProxyObject
 90
      499
 91
      505
 93
      121
310
905313A3130304000000000000594000
  0
ACAD_PROXY_OBJECT
  5
48C8
102
{ACAD_REACTORS
330
48BB
102
}
330
48BB
100
AcDbProxyObject
 90
      499
 91
      505
 93
      105
310
903323A310000000000000010100
  0
ACAD_PROXY_OBJECT
  5
48C9
102
{ACAD_REACTORS
330
48BB
102
}
330
48BB
100
AcDbProxyObject
 90
      499
 91
      505
 93
      105
310
903343A310000000000000410100
  0
ACAD_PROXY_OBJECT
  5
48CA
102
{ACAD_REACTORS
330
48BB
102
}
330
48BB
100
AcDbProxyObject
 90
      499
 91
      505
 93
      105
310
903383A310000000000000810100
  0
ACAD_PROXY_OBJECT
  5
48CB
102
{ACAD_REACTORS
330
48BB
102
}
330
48BB
100
AcDbProxyObject
 90
      499
 91
      505
 93
      113
310
90431303A310000000000000910100
  0
ACAD_PROXY_OBJECT
  5
48CC
102
{ACAD_REACTORS
330
48BB
102
}
330
48BB
100
AcDbProxyObject
 90
      499
 91
      505
 93
      121
310
9053130303A310000000000001650100
  0
ACAD_PROXY_OBJECT
  5
48CD
102
{ACAD_REACTORS
330
48BB
102
}
330
48BB
100
AcDbProxyObject
 90
      499
 91
      505
 93
      257
310
90E312F31323822203D2031272D3022000000000000200FC000000000000284000
  0
ACAD_PROXY_OBJECT
  5
48CE
102
{ACAD_REACTORS
330
48BB
102
}
330
48BB
100
AcDbProxyObject
 90
      499
 91
      505
 93
      249
310
90D312F363422203D2031272D3022000000000000240FC000000000000284000
  0
ACAD_PROXY_OBJECT
  5
48CF
102
{ACAD_REACTORS
330
48BB
102
}
330
48BB
100
AcDbProxyObject
 90
      499
 91
      505
 93
      249
310
90D312F333222203D2031272D3022000000000000280FC000000000000284000
  0
ACAD_PROXY_OBJECT
  5
48D0
102
{ACAD_REACTORS
330
48BB
102
}
330
48BB
100
AcDbProxyObject
 90
      499
 91
      505
 93
      249
310
90D312F313622203D2031272D30220000000000002C0FC000000000000284000
  0
ACAD_PROXY_OBJECT
  5
48D1
102
{ACAD_REACTORS
330
48BB
102
}
330
48BB
100
AcDbProxyObject
 90
      499
 91
      505
 93
      249
310
90D332F333222203D2031272D30220000000000002E0FC000000000000284000
  0
ACAD_PROXY_OBJECT
  5
48D2
102
{ACAD_REACTORS
330
48BB
102
}
330
48BB
100
AcDbProxyObject
 90
      499
 91
      505
 93
      241
310
90C312F3822203D2031272D3022000000000000300FC000000000000284000
  0
ACAD_PROXY_OBJECT
  5
48D3
102
{ACAD_REACTORS
330
48BB
102
}
330
48BB
100
AcDbProxyObject
 90
      499
 91
      505
 93
      249
310
90D332F313622203D2031272D3022000000000000320FC000000000000284000
  0
ACAD_PROXY_OBJECT
  5
48D4
102
{ACAD_REACTORS
330
48BB
102
}
330
48BB
100
AcDbProxyObject
 90
      499
 91
      505
 93
      241
310
90C312F3422203D2031272D3022000000000000340FC000000000000284000
  0
ACAD_PROXY_OBJECT
  5
48D5
102
{ACAD_REACTORS
330
48BB
102
}
330
48BB
100
AcDbProxyObject
 90
      499
 91
      505
 93
      241
310
90C332F3822203D2031272D3022000000000000360FC000000000000284000
  0
ACAD_PROXY_OBJECT
  5
48D6
102
{ACAD_REACTORS
330
48BB
102
}
330
48BB
100
AcDbProxyObject
 90
      499
 91
      505
 93
      241
310
90C312F3222203D2031272D3022000000000000380FC000000000000284000
  0
ACAD_PROXY_OBJECT
  5
48D7
102
{ACAD_REACTORS
330
48BB
102
}
330
48BB
100
AcDbProxyObject
 90
      499
 91
      505
 93
      241
310
90C332F3422203D2031272D30220000000000003A0FC000000000000284000
  0
ACAD_PROXY_OBJECT
  5
48D8
102
{ACAD_REACTORS
330
48BB
102
}
330
48BB
100
AcDbProxyObject
 90
      499
 91
      505
 93
      161
310
90A3122203D2031272D30224000000000000284000
  0
ACAD_PROXY_OBJECT
  5
48D9
102
{ACAD_REACTORS
330
48BB
102
}
330
48BB
100
AcDbProxyObject
 90
      499
 91
      505
 93
      257
310
90E312D312F3222203D2031272D30220000000000003E0FC000000000000284000
  0
ACAD_PROXY_OBJECT
  5
48DA
102
{ACAD_REACTORS
330
48BB
102
}
330
48BB
100
AcDbProxyObject
 90
      499
 91
      505
 93
      225
310
90A3322203D2031272D302200000000000002100000000000000284000
  0
ACAD_PROXY_OBJECT
  5
48DB
102
{ACAD_REACTORS
330
48BB
102
}
330
48BB
100
AcDbProxyObject
 90
      499
 91
      505
 93
      225
310
90A3622203D2031272D302200000000000006100000000000000284000
  0
ACAD_PROXY_OBJECT
  5
48DC
102
{ACAD_REACTORS
330
48BB
102
}
330
48BB
100
AcDbProxyObject
 90
      499
 91
      505
 93
      249
310
90D31272D3022203D2031272D30220000000000000A100000000000000284000
  0
ACAD_PROXY_OBJECT
  5
48A7
102
{ACAD_REACTORS
330
48A2
102
}
330
48A2
100
AcDbProxyObject
 90
      499
 91
      504
 93
      436
310
42CC9915DA5C99599C985B595049028333333333333E33F0000000000000F90107901411070040501600405405064090741402480A0340
1001
ACAD
1000
AcDbSavedByObjectVersion
1070
     0
  0
ACAD_PROXY_OBJECT
  5
48AA
102
{ACAD_REACTORS
330
48A2
102
}
330
48A2
100
AcDbProxyObject
 90
      499
 91
      504
 93
      388
310
4150985CDA58D07406404333333333333E33F0000000000000F90107A41107004050150841D405064090741402480A0350
1001
ACAD
1000
AcDbSavedByObjectVersion
1070
     0
  0
ACAD_PROXY_OBJECT
  5
48AE
102
{ACAD_REACTORS
330
48A2
102
}
330
48A2
100
AcDbProxyObject
 90
      499
 91
      504
 93
      428
310
42109C9A59DA1D195B90C409028333333333333E33F0000000000000F9010790141107004050150841D405064090741402480A029950
1001
ACAD
1000
AcDbSavedByObjectVersion
1070
     0
  0
ACAD_PROXY_OBJECT
  5
48B2
102
{ACAD_REACTORS
330
48A2
102
}
330
48A2
100
AcDbProxyObject
 90
      499
 91
      504
 93
      452
310
42D0DBDB1BDC90DA185B99D95104090240C333333333333E33F0000000000000F90108901411070040501508421405064090741402480A0350
1001
ACAD
1000
AcDbSavedByObjectVersion
1070
     0
  0
ACAD_PROXY_OBJECT
  5
48AC
102
{ACAD_REACTORS
330
48A2
102
}
330
48A2
100
AcDbProxyObject
 90
      499
 91
      504
 93
      500
310
4290DBDB98D95C1D1D585B10940D028333333333333E33F0000000000000F90107902409070040501000000000018199010841D405064090740C02480A0340
1001
ACAD
1000
AcDbSavedByObjectVersion
1070
     0
  0
ACAD_PROXY_OBJECT
  5
48AD
102
{ACAD_REACTORS
330
48A2
102
}
330
48A2
100
AcDbProxyObject
 90
      499
 91
      504
 93
      412
310
40D11A5B50B409028333333333333E33F0000000000000F9010790141107004050150841D405064090741402480A02677FFFFFD0
1001
ACAD
1000
AcDbSavedByObjectVersion
1070
     0
  0
ACAD_PROXY_OBJECT
  5
48B5
102
{ACAD_REACTORS
330
48A2
102
}
330
48A2
100
AcDbProxyObject
 90
      499
 91
      504
 93
      452
310
43115919D950DBDB1BDC93D999916409028333333333333E33F0000000000000F9010790141107004050150841D405064090741402480A0350
1001
ACAD
1000
AcDbSavedByObjectVersion
1070
     0
  0
ACAD_PROXY_OBJECT
  5
48B1
102
{ACAD_REACTORS
330
48A2
102
}
330
48A2
100
AcDbProxyObject
 90
      499
 91
      504
 93
      444
310
42D19858D95C185D1D195C9B90F409028333333333333E33F0000000000000F9010790141107004050150841D405064090741402480A0350
1001
ACAD
1000
AcDbSavedByObjectVersion
1070
     0
  0
ACAD_PROXY_OBJECT
  5
48A3
102
{ACAD_REACTORS
330
48A2
102
}
330
48A2
100
AcDbProxyObject
 90
      499
 91
      504
 93
      380
310
41119B185D240901404333333333333E33F0000000000000F9010740A907004050150841D405064090741402480A1B50
1001
ACAD
1000
AcDbSavedByObjectVersion
1070
     0
  0
ACAD_PROXY_OBJECT
  5
48A4
102
{ACAD_REACTORS
330
48A2
102
}
330
48A2
100
AcDbProxyObject
 90
      499
 91
      504
 93
      468
310
43519B185D15DA5D1A115919D95CD0140901404333333333333E33F0000000000000F90107409019070040501600405405064090741402480A1B50
1001
ACAD
1000
AcDbSavedByObjectVersion
1070
     0
  0
ACAD_PROXY_OBJECT
  5
48A5
102
{ACAD_REACTORS
330
48A2
102
}
330
48A2
100
AcDbProxyObject
 90
      499
 91
      504
 93
      404
310
41D1DBDD5C985D5910240902404333333333333E33F0000000000000F9010740A9070040501641D405064090741402480A1B50
1001
ACAD
1000
AcDbSavedByObjectVersion
1070
     0
  0
ACAD_PROXY_OBJECT
  5
48A6
102
{ACAD_REACTORS
330
48A2
102
}
330
48A2
100
AcDbProxyObject
 90
      499
 91
      504
 93
      492
310
4411DBDD5C985D5915DA5D1A115919D95CD0340902404333333333333E33F0000000000000F90107409019070040501600405405064090741402480A1B50
1001
ACAD
1000
AcDbSavedByObjectVersion
1070
     0
  0
ACAD_PROXY_OBJECT
  5
48A9
102
{ACAD_REACTORS
330
48A2
102
}
330
48A2
100
AcDbProxyObject
 90
      499
 91
      504
 93
      476
310
41921A5919195B90640502408333333333333E33F0000000000000F901079024090700405020000000000001110200405405064090740C02480A0340
1001
ACAD
1000
AcDbSavedByObjectVersion
1070
     0
  0
ACAD_PROXY_OBJECT
  5
48B3
102
{ACAD_REACTORS
330
48A2
102
}
330
48A2
100
AcDbProxyObject
 90
      499
 91
      504
 93
      428
310
42529A5D1D195C93D999914409028333333333333E33F0000000000000F9010790141107004050150A41D405064090741402480A0350
1001
ACAD
1000
AcDbSavedByObjectVersion
1070
     0
  0
ACAD_PROXY_OBJECT
  5
48B0
102
{ACAD_REACTORS
330
48A2
102
}
330
48A2
100
AcDbProxyObject
 90
      499
 91
      504
 93
      444
310
42D31A5B995C185D1D195C9B90E409028333333333333E33F0000000000000F9010790141107004050750841D405064090741402483A0350
1001
ACAD
1000
AcDbSavedByObjectVersion
1070
     0
  0
ACAD_PROXY_OBJECT
  5
48B4
102
{ACAD_REACTORS
330
48A2
102
}
330
48A2
100
AcDbProxyObject
 90
      499
 91
      504
 93
      444
310
42D3DD995C9A185B99D3D999915409028333333333333E33F0000000000000F9010790141107004050150941D405064090741402480A0350
1001
ACAD
1000
AcDbSavedByObjectVersion
1070
     0
  0
ACAD_PROXY_OBJECT
  5
48AB
102
{ACAD_REACTORS
330
48A2
102
}
330
48A2
100
AcDbProxyObject
 90
      499
 91
      504
 93
      428
310
425499585B1A5CDD1A58D08409038333333333333E33F0000000000000F9010740A907004050150800405405064090740C02480A1B40
1001
ACAD
1000
AcDbSavedByObjectVersion
1070
     0
  0
ACAD_PROXY_OBJECT
  5
48BA
102
{ACAD_REACTORS
330
48A2
102
}
330
48A2
100
AcDbProxyObject
 90
      499
 91
      504
 93
      420
310
4194DA1859195911B40902404333333333333E33F0000000000000F9010740A41107004050150800405405064090840C02480A0B40
1001
ACAD
1000
AcDbSavedByObjectVersion
1070
     0
  0
ACAD_PROXY_OBJECT
  5
48B9
102
{ACAD_REACTORS
330
48A2
102
}
330
48A2
100
AcDbProxyObject
 90
      499
 91
      504
 93
      516
310
4454DA18591959081DDA5D1A08195919D95CD1A40902404333333333333E33F0000000000000F901074090142907004050250800405405064090740C02480A0B40
1001
ACAD
1000
AcDbSavedByObjectVersion
1070
     0
  0
ACAD_PROXY_OBJECT
  5
48B6
102
{ACAD_REACTORS
330
48A2
102
}
330
48A2
100
AcDbProxyObject
 90
      499
 91
      504
 93
      532
310
4394DA1859195CC81BD98811DC985E5174090240C333333333333E33F0000000000000F901079024090741D01000000000000111010841D405064090740C02480A0340
1001
ACAD
1000
AcDbSavedByObjectVersion
1070
     0
  0
ACAD_PROXY_OBJECT
  5
48B7
102
{ACAD_REACTORS
330
48A2
102
}
330
48A2
100
AcDbProxyObject
 90
      499
 91
      504
 93
      476
310
41D4DAD95D18DA1E51840502408333333333333E33F0000000000000F901079024090741D01000000000000111010B41D405064090741802480A0340
1001
ACAD
1000
AcDbSavedByObjectVersion
1070
     0
  0
ACAD_PROXY_OBJECT
  5
48AF
102
{ACAD_REACTORS
330
48A2
102
}
330
48A2
100
AcDbProxyObject
 90
      499
 91
      504
 93
      412
310
41D51A1A58DAD95B90D409028333333333333E33F0000000000000F9010790141107004050150C41D405064090741402480A0350
1001
ACAD
1000
AcDbSavedByObjectVersion
1070
     0
  0
ACAD_PROXY_OBJECT
  5
48A8
102
{ACAD_REACTORS
330
48A2
102
}
330
48A2
100
AcDbProxyObject
 90
      499
 91
      504
 93
      420
310
4255DA5C99599C985B595059028333333333333E33F0000000000000F90107901411070040501600405405064090740C02480A0340
1001
ACAD
1000
AcDbSavedByObjectVersion
1070
     0
  0
ACAD_PROXY_OBJECT
  5
48B8
102
{ACAD_REACTORS
330
48A2
102
}
330
48A2
100
AcDbProxyObject
 90
      499
 91
      504
 93
      404
310
41560B54985E51940902404000000000000E03F0000000000000F9010740501907004050150841D405064090740C02480A1B40
1001
ACAD
1000
AcDbSavedByObjectVersion
1070
     0
  0
XRECORD
  5
530D
102
{ACAD_REACTORS
330
5303
102
}
330
5303
100
AcDbXrecord
340
0
  0
XRECORD
  5
530C
102
{ACAD_REACTORS
330
5303
102
}
330
5303
100
AcDbXrecord
 90
        0
  0
XRECORD
  5
5326
102
{ACAD_REACTORS
330
5303
102
}
330
5303
100
AcDbXrecord
340
2948
  0
XRECORD
  5
5323
102
{ACAD_REACTORS
330
5303
102
}
330
5303
100
AcDbXrecord
1000
DSTYLE
1002
{
1070
   171
 70
     2
1070
   143
 40
0.0394
1070
   274
 70
     2
1070
    41
 40
6.0
1070
   342
340
2AF4
1070
   271
 70
     1
1070
   278
 70
    46
1070
   341
340
2AF4
1070
   272
 70
     1
1070
    48
 40
0.1
1070
   283
 70
     1
1070
    47
 40
0.1
1070
   145
 40
1.0
1070
   340
340
10
1070
   140
 40
8.0
1070
   284
 70
     0
1002
}
  0
XRECORD
  5
530E
102
{ACAD_REACTORS
330
5303
102
}
330
5303
100
AcDbXrecord
  1
{23698909-1D67-4744-B0E2-8DE11E3ED422}
  0
XRECORD
  5
5306
102
{ACAD_REACTORS
330
5303
102
}
330
5303
100
AcDbXrecord
  1

  0
XRECORD
  5
530B
102
{ACAD_REACTORS
330
5303
102
}
330
5303
100
AcDbXrecord
 90
        0
  0
XRECORD
  5
5308
102
{ACAD_REACTORS
330
5303
102
}
330
5303
100
AcDbXrecord
340
2816
  0
XRECORD
  5
530A
102
{ACAD_REACTORS
330
5303
102
}
330
5303
100
AcDbXrecord
 90
    10781
  0
XRECORD
  5
5327
102
{ACAD_REACTORS
330
5303
102
}
330
5303
100
AcDbXrecord
340
2947
  0
XRECORD
  5
5309
102
{ACAD_REACTORS
330
5303
102
}
330
5303
100
AcDbXrecord
340
2817
  0
XRECORD
  5
5310
102
{ACAD_REACTORS
330
5303
102
}
330
5303
100
AcDbXrecord
 40
0.25
  0
XRECORD
  5
5313
102
{ACAD_REACTORS
330
5303
102
}
330
5303
100
AcDbXrecord
340
0
  0
XRECORD
  5
5319
102
{ACAD_REACTORS
330
5303
102
}
330
5303
100
AcDbXrecord
 10
0.0
 20
0.0
 30
0.0
  0
XRECORD
  5
5315
102
{ACAD_REACTORS
330
5303
102
}
330
5303
100
AcDbXrecord
 10
0.0
 20
0.0
 30
0.0
  0
XRECORD
  5
5318
102
{ACAD_REACTORS
330
5303
102
}
330
5303
100
AcDbXrecord
 10
0.0
 20
0.0
 30
0.0
  0
XRECORD
  5
5316
102
{ACAD_REACTORS
330
5303
102
}
330
5303
100
AcDbXrecord
 10
0.0
 20
0.0
 30
0.0
  0
XRECORD
  5
5317
102
{ACAD_REACTORS
330
5303
102
}
330
5303
100
AcDbXrecord
 10
0.0
 20
0.0
 30
0.0
  0
XRECORD
  5
5314
102
{ACAD_REACTORS
330
5303
102
}
330
5303
100
AcDbXrecord
 10
0.0
 20
0.0
 30
0.0
  0
XRECORD
  5
5311
102
{ACAD_REACTORS
330
5303
102
}
330
5303
100
AcDbXrecord
340
0
  0
XRECORD
  5
5312
102
{ACAD_REACTORS
330
5303
102
}
330
5303
100
AcDbXrecord
 70
     0
  0
XRECORD
  5
5307
102
{ACAD_REACTORS
330
5303
102
}
330
5303
100
AcDbXrecord
  1

  0
XRECORD
  5
5304
102
{ACAD_REACTORS
330
5303
102
}
330
5303
100
AcDbXrecord
 90
        1
  0
XRECORD
  5
5305
102
{ACAD_REACTORS
330
5303
102
}
330
5303
100
AcDbXrecord
 90
       70
  0
XRECORD
  5
531C
102
{ACAD_REACTORS
330
5303
102
}
330
5303
100
AcDbXrecord
340
0
  0
XRECORD
  5
5322
102
{ACAD_REACTORS
330
5303
102
}
330
5303
100
AcDbXrecord
 10
0.0
 20
0.0
 30
0.0
  0
XRECORD
  5
531E
102
{ACAD_REACTORS
330
5303
102
}
330
5303
100
AcDbXrecord
 10
0.0
 20
0.0
 30
0.0
  0
XRECORD
  5
5321
102
{ACAD_REACTORS
330
5303
102
}
330
5303
100
AcDbXrecord
 10
0.0
 20
0.0
 30
0.0
  0
XRECORD
  5
531F
102
{ACAD_REACTORS
330
5303
102
}
330
5303
100
AcDbXrecord
 10
0.0
 20
0.0
 30
0.0
  0
XRECORD
  5
5320
102
{ACAD_REACTORS
330
5303
102
}
330
5303
100
AcDbXrecord
 10
0.0
 20
0.0
 30
0.0
  0
XRECORD
  5
531D
102
{ACAD_REACTORS
330
5303
102
}
330
5303
100
AcDbXrecord
 10
0.0
 20
0.0
 30
0.0
  0
XRECORD
  5
531A
102
{ACAD_REACTORS
330
5303
102
}
330
5303
100
AcDbXrecord
340
0
  0
XRECORD
  5
531B
102
{ACAD_REACTORS
330
5303
102
}
330
5303
100
AcDbXrecord
 70
     0
  0
XRECORD
  5
530F
102
{ACAD_REACTORS
330
5303
102
}
330
5303
100
AcDbXrecord
  1
{0A0AE00D-1E0B-4A73-B4D1-4DFB3F92F7DF}
  0
DICTIONARYVAR
  5
4AF2
102
{ACAD_REACTORS
330
4AF1
102
}
330
4AF1
100
DictionaryVariables
280
     0
  1
1:1
  0
DICTIONARYVAR
  5
4AF4
102
{ACAD_REACTORS
330
4AF1
102
}
330
4AF1
100
DictionaryVariables
280
     0
  1
Standard
  0
DICTIONARYVAR
  5
4AF3
102
{ACAD_REACTORS
330
4AF1
102
}
330
4AF1
100
DictionaryVariables
280
     0
  1
Standard
  0
DICTIONARYVAR
  5
5324
102
{ACAD_REACTORS
330
4AF1
102
}
330
4AF1
100
DictionaryVariables
280
     0
  1
1
  0
DICTIONARYVAR
  5
5325
102
{ACAD_REACTORS
330
4AF1
102
}
330
4AF1
100
DictionaryVariables
280
     0
  1
0
  0
DICTIONARYVAR
  5
4AF5
102
{ACAD_REACTORS
330
4AF1
102
}
330
4AF1
100
DictionaryVariables
280
     0
  1
0
  0
DICTIONARYVAR
  5
4AF6
102
{ACAD_REACTORS
330
4AF1
102
}
330
4AF1
100
DictionaryVariables
280
     0
  1
0
  0
DICTIONARY
  5
4DE0
102
{ACAD_REACTORS
330
4DDF
102
}
330
4DDF
100
AcDbDictionary
  0
DICTIONARY
  5
4DE4
102
{ACAD_REACTORS
330
4DE3
102
}
330
4DE3
100
AcDbDictionary
  0
DICTIONARY
  5
4E0B
102
{ACAD_REACTORS
330
4E0A
102
}
330
4E0A
100
AcDbDictionary
  0
DICTIONARY
  5
4E10
102
{ACAD_REACTORS
330
4E0F
102
}
330
4E0F
100
AcDbDictionary
  0
DICTIONARY
  5
4E14
102
{ACAD_REACTORS
330
4E13
102
}
330
4E13
100
AcDbDictionary
  0
DICTIONARY
  5
4E19
102
{ACAD_REACTORS
330
4E18
102
}
330
4E18
100
AcDbDictionary
  0
DICTIONARY
  5
4E1D
102
{ACAD_REACTORS
330
4E1C
102
}
330
4E1C
100
AcDbDictionary
  0
DICTIONARY
  5
5130
102
{ACAD_REACTORS
330
512F
102
}
330
512F
100
AcDbDictionary
  0
DICTIONARY
  5
5150
102
{ACAD_REACTORS
330
514F
102
}
330
514F
100
AcDbDictionary
  0
DICTIONARY
  5
4D62
102
{ACAD_REACTORS
330
4D61
102
}
330
4D61
100
AcDbDictionary
  0
DICTIONARY
  5
4E29
102
{ACAD_REACTORS
330
4E28
102
}
330
4E28
100
AcDbDictionary
  0
DICTIONARY
  5
4D5E
102
{ACAD_REACTORS
330
4D5D
102
}
330
4D5D
100
AcDbDictionary
  0
DICTIONARY
  5
5302
102
{ACAD_REACTORS
330
5301
102
}
330
5301
100
AcDbDictionary
  0
DICTIONARY
  5
4D5B
102
{ACAD_REACTORS
330
4D5A
102
}
330
4D5A
100
AcDbDictionary
  0
DICTIONARY
  5
532E
330
48DE
100
AcDbDictionary
280
     1
  3
ACAD_XREC_ROUNDTRIP
360
532F
  0
DICTIONARY
  5
532C
330
48DD
100
AcDbDictionary
280
     1
  3
ACAD_XREC_ROUNDTRIP
360
532D
  0
DICTIONARY
  5
5330
330
48DF
100
AcDbDictionary
280
     1
  3
ACAD_XREC_ROUNDTRIP
360
5331
  0
XRECORD
  5
532F
102
{ACAD_REACTORS
330
532E
102
}
330
532E
100
AcDbXrecord
102
MATERIAL
148
0.0
149
0.0
149
0.0
 93
        0
 94
      127
282
     0
 72
     1
 77
     1
171
     1
175
     1
179
     1
273
     0
  0
XRECORD
  5
532D
102
{ACAD_REACTORS
330
532C
102
}
330
532C
100
AcDbXrecord
102
MATERIAL
148
0.0
149
0.0
149
0.0
 93
        0
 94
      127
282
     0
 72
     1
 77
     1
171
     1
175
     1
179
     1
273
     0
  0
XRECORD
  5
5331
102
{ACAD_REACTORS
330
5330
102
}
330
5330
100
AcDbXrecord
102
MATERIAL
148
0.0
149
0.0
149
0.0
 93
        0
 94
      127
282
     0
 72
     1
 77
     1
171
     1
175
     1
179
     1
273
     0
  0
ENDSEC
  0
EOF
