  0
SECTION
  2
HEADER
  9
$ACADVER
  1
AC1014
  9
$ACADMAINTVER
 70
     9
  9
$DWGCODEPAGE
  3
ANSI_932
  9
$INSBASE
 10
0.0
 20
0.0
 30
0.0
  9
$EXTMIN
 10
9.537729321417
 20
22.362869706131
 30
0.0
  9
$EXTMAX
 10
996.190303071704
 20
540.675998104421
 30
0.0
  9
$LIMMIN
 10
-360.747566795242
 20
4.457354754526
  9
$LIMMAX
 10
-162.153696144267
 20
287.675440264018
  9
$ORTHOMODE
 70
     0
  9
$REGENMODE
 70
     1
  9
$FILLMODE
 70
     1
  9
$QTEXTMODE
 70
     0
  9
$MIRRTEXT
 70
     1
  9
$DRAGMODE
 70
     2
  9
$LTSCALE
 40
1.0
  9
$OSMODE
 70
    32
  9
$ATTMODE
 70
     1
  9
$TEXTSIZE
 40
2.333873885063
  9
$TRACEWID
 40
1.0
  9
$TEXTSTYLE
  7
STANDARD
  9
$CLAYER
  8
隠れ線
  9
$CELTYPE
  6
BYLAYER
  9
$CECOLOR
 62
   256
  9
$CELTSCALE
 40
10.0
  9
$DELOBJ
 70
     1
  9
$DISPSILH
 70
     0
  9
$DIMSCALE
 40
1.0
  9
$DIMASZ
 40
6.0
  9
$DIMEXO
 40
0.625
  9
$DIMDLI
 40
3.75
  9
$DIMRND
 40
0.0
  9
$DIMDLE
 40
0.0
  9
$DIMEXE
 40
1.25
  9
$DIMTP
 40
0.1
  9
$DIMTM
 40
0.1
  9
$DIMTXT
 40
5.0
  9
$DIMCEN
 40
2.5
  9
$DIMTSZ
 40
0.0
  9
$DIMTOL
 70
     0
  9
$DIMLIM
 70
     0
  9
$DIMTIH
 70
     0
  9
$DIMTOH
 70
     0
  9
$DIMSE1
 70
     0
  9
$DIMSE2
 70
     0
  9
$DIMTAD
 70
     1
  9
$DIMZIN
 70
     8
  9
$DIMBLK
  1
OPEN30
  9
$DIMASO
 70
     1
  9
$DIMSHO
 70
     1
  9
$DIMPOST
  1

  9
$DIMAPOST
  1

  9
$DIMALT
 70
     0
  9
$DIMALTD
 70
     2
  9
$DIMALTF
 40
0.0394
  9
$DIMLFAC
 40
1.0
  9
$DIMTOFL
 70
     1
  9
$DIMTVP
 40
1.0
  9
$DIMTIX
 70
     0
  9
$DIMSOXD
 70
     0
  9
$DIMSAH
 70
     0
  9
$DIMBLK1
  1

  9
$DIMBLK2
  1

  9
$DIMSTYLE
  2
ISO-25
  9
$DIMCLRD
 70
     0
  9
$DIMCLRE
 70
     0
  9
$DIMCLRT
 70
     0
  9
$DIMTFAC
 40
1.0
  9
$DIMGAP
 40
0.625
  9
$DIMJUST
 70
     0
  9
$DIMSD1
 70
     0
  9
$DIMSD2
 70
     0
  9
$DIMTOLJ
 70
     1
  9
$DIMTZIN
 70
     0
  9
$DIMALTZ
 70
     0
  9
$DIMALTTZ
 70
     0
  9
$DIMFIT
 70
     3
  9
$DIMUPT
 70
     0
  9
$DIMUNIT
 70
     2
  9
$DIMDEC
 70
     1
  9
$DIMTDEC
 70
     1
  9
$DIMALTU
 70
     2
  9
$DIMALTTD
 70
     2
  9
$DIMTXSTY
  7
STANDARD
  9
$DIMAUNIT
 70
     0
  9
$LUNITS
 70
     2
  9
$LUPREC
 70
     4
  9
$SKETCHINC
 40
1.0
  9
$FILLETRAD
 40
6.5
  9
$AUNITS
 70
     0
  9
$AUPREC
 70
     0
  9
$MENU
  1
.
  9
$ELEVATION
 40
0.0
  9
$PELEVATION
 40
0.0
  9
$THICKNESS
 40
0.0
  9
$LIMCHECK
 70
     0
  9
$CHAMFERA
 40
10.0
  9
$CHAMFERB
 40
10.0
  9
$CHAMFERC
 40
20.0
  9
$CHAMFERD
 40
0.0
  9
$SKPOLY
 70
     0
  9
$TDCREATE
 40
2450576.597302431
  9
$TDUPDATE
 40
2457191.670594896
  9
$TDINDWG
 40
1.4104873843
  9
$TDUSRTIMER
 40
1.4104873843
  9
$USRTIMER
 70
     1
  9
$ANGBASE
 50
0.0
  9
$ANGDIR
 70
     0
  9
$PDMODE
 70
     0
  9
$PDSIZE
 40
0.0
  9
$PLINEWID
 40
0.0
  9
$COORDS
 70
     1
  9
$SPLFRAME
 70
     0
  9
$SPLINETYPE
 70
     6
  9
$SPLINESEGS
 70
     8
  9
$ATTDIA
 70
     0
  9
$ATTREQ
 70
     1
  9
$HANDLING
 70
     1
  9
$HANDSEED
  5
6075
  9
$SURFTAB1
 70
     6
  9
$SURFTAB2
 70
     6
  9
$SURFTYPE
 70
     6
  9
$SURFU
 70
     6
  9
$SURFV
 70
     6
  9
$UCSNAME
  2

  9
$UCSORG
 10
0.0
 20
0.0
 30
0.0
  9
$UCSXDIR
 10
1.0
 20
0.0
 30
0.0
  9
$UCSYDIR
 10
0.0
 20
1.0
 30
0.0
  9
$PUCSNAME
  2

  9
$PUCSORG
 10
0.0
 20
0.0
 30
0.0
  9
$PUCSXDIR
 10
1.0
 20
0.0
 30
0.0
  9
$PUCSYDIR
 10
0.0
 20
1.0
 30
0.0
  9
$USERI1
 70
     0
  9
$USERI2
 70
     0
  9
$USERI3
 70
     0
  9
$USERI4
 70
     0
  9
$USERI5
 70
     0
  9
$USERR1
 40
0.0
  9
$USERR2
 40
0.0
  9
$USERR3
 40
0.0
  9
$USERR4
 40
0.0
  9
$USERR5
 40
0.0
  9
$WORLDVIEW
 70
     1
  9
$SHADEDGE
 70
     3
  9
$SHADEDIF
 70
    70
  9
$TILEMODE
 70
     0
  9
$MAXACTVP
 70
    16
  9
$PINSBASE
 10
0.0
 20
0.0
 30
0.0
  9
$PLIMCHECK
 70
     0
  9
$PEXTMIN
 10
4.746305129083
 20
3.457123274536
 30
0.0
  9
$PEXTMAX
 10
404.746305129083
 20
283.457123274536
 30
0.0
  9
$PLIMMIN
 10
-7.007122192383
 20
-7.007118782997
  9
$PLIMMAX
 10
417.718108215332
 20
293.315290427208
  9
$UNITMODE
 70
     0
  9
$VISRETAIN
 70
     0
  9
$PLINEGEN
 70
     0
  9
$PSLTSCALE
 70
     1
  9
$TREEDEPTH
 70
  3020
  9
$PICKSTYLE
 70
     1
  9
$CMLSTYLE
  2
STANDARD
  9
$CMLJUST
 70
     0
  9
$CMLSCALE
 40
1.0
  9
$PROXYGRAPHICS
 70
     1
  9
$MEASUREMENT
 70
     1
  0
ENDSEC
  0
SECTION
  2
CLASSES
  0
CLASS
  1
ACDBDICTIONARYWDFLT
  2
AcDbDictionaryWithDefault
  3
ObjectDBX Classes
 90
        0
280
     0
281
     0
  0
CLASS
  1
ACDBPLACEHOLDER
  2
AcDbPlaceHolder
  3
ObjectDBX Classes
 90
        0
280
     0
281
     0
  0
CLASS
  1
LAYOUT
  2
AcDbLayout
  3
ObjectDBX Classes
 90
        0
280
     0
281
     0
  0
CLASS
  1
SORTENTSTABLE
  2
AcDbSortentsTable
  3
ObjectDBX Classes
 90
        0
280
     0
281
     0
  0
CLASS
  1
VISUALSTYLE
  2
AcDbVisualStyle
  3
ObjectDBX Classes
 90
     4095
280
     0
281
     0
  0
CLASS
  1
SCALE
  2
AcDbScale
  3
ObjectDBX Classes
 90
     1153
280
     0
281
     0
  0
CLASS
  1
MATERIAL
  2
AcDbMaterial
  3
ObjectDBX Classes
 90
     1153
280
     0
281
     0
  0
CLASS
  1
TABLESTYLE
  2
AcDbTableStyle
  3
ObjectDBX Classes
 90
     4095
280
     0
281
     0
  0
CLASS
  1
MLEADERSTYLE
  2
AcDbMLeaderStyle
  3
ACDB_MLEADERSTYLE_CLASS
 90
     4095
280
     0
281
     0
  0
CLASS
  1
SUN
  2
AcDbSun
  3
SCENEOE
 90
     1153
280
     0
281
     0
  0
CLASS
  1
DICTIONARYVAR
  2
AcDbDictionaryVar
  3
ObjectDBX Classes
 90
        0
280
     0
281
     0
  0
CLASS
  1
XRECORD
  2
AcDbXrecord
  3
ObjectDBX Classes
 90
        0
280
     0
281
     0
  0
CLASS
  1
LWPOLYLINE
  2
AcDbPolyline
  3
ObjectDBX Classes
 90
        0
280
     0
281
     1
  0
CLASS
  1
HATCH
  2
AcDbHatch
  3
ObjectDBX Classes
 90
        0
280
     0
281
     1
  0
ENDSEC
  0
SECTION
  2
TABLES
  0
TABLE
  2
VPORT
  5
8
102
{ACAD_XDICTIONARY
360
606C
102
}
330
0
100
AcDbSymbolTable
 70
     1
  0
VPORT
  5
5A8D
330
8
100
AcDbSymbolTableRecord
100
AcDbViewportTableRecord
  2
*ACTIVE
 70
     0
 10
0.0
 20
0.0
 11
1.0
 21
1.0
 12
437.491886406395
 22
493.08966580014
 13
0.0
 23
0.0
 14
1.0
 24
1.0
 15
0.0
 25
0.0
 16
0.0
 26
0.0
 36
1.0
 17
0.0
 27
0.0
 37
0.0
 40
342.008435275882
 41
1.884057971014
 42
50.0
 43
0.0
 44
0.0
 50
0.0
 51
0.0
 71
    16
 72
   100
 73
     1
 74
     0
 75
     0
 76
     0
 77
     0
 78
     0
  0
ENDTAB
  0
TABLE
  2
LTYPE
  5
5
330
0
100
AcDbSymbolTable
 70
     5
  0
LTYPE
  5
14
330
5
100
AcDbSymbolTableRecord
100
AcDbLinetypeTableRecord
  2
BYBLOCK
 70
     0
  3

 72
    65
 73
     0
 40
0.0
  0
LTYPE
  5
15
330
5
100
AcDbSymbolTableRecord
100
AcDbLinetypeTableRecord
  2
BYLAYER
 70
     0
  3

 72
    65
 73
     0
 40
0.0
  0
LTYPE
  5
16
330
5
100
AcDbSymbolTableRecord
100
AcDbLinetypeTableRecord
  2
CONTINUOUS
 70
     0
  3
Solid line
 72
    65
 73
     0
 40
0.0
  0
LTYPE
  5
1EC
330
5
100
AcDbSymbolTableRecord
100
AcDbLinetypeTableRecord
  2
CENTER
 70
     0
  3
____ _ ____ _ ____ _ ____ _ ____ _ ____ _ ____ 
 72
    65
 73
     4
 40
2.0
 49
1.25
 74
     0
 49
-0.25
 74
     0
 49
0.25
 74
     0
 49
-0.25
 74
     0
  0
LTYPE
  5
1ED
330
5
100
AcDbSymbolTableRecord
100
AcDbLinetypeTableRecord
  2
DASHED
 70
     0
  3
__ __ __ __ __ __ __ __ __ __ __ __ __ __ __ __
 72
    65
 73
     2
 40
0.75
 49
0.5
 74
     0
 49
-0.25
 74
     0
  0
LTYPE
  5
4D7E
330
5
100
AcDbSymbolTableRecord
100
AcDbLinetypeTableRecord
  2
DASHDOT
 70
     0
  3
一点鎖線
 72
    65
 73
     4
 40
25.6
 49
20.0
 74
     0
 49
-2.0
 74
     0
 49
1.6
 74
     0
 49
-2.0
 74
     0
  0
LTYPE
  5
4D7F
330
5
100
AcDbSymbolTableRecord
100
AcDbLinetypeTableRecord
  2
DIVIDE
 70
     0
  3
二点鎖線
 72
    65
 73
     6
 40
31.2
 49
20.0
 74
     0
 49
-2.4
 74
     0
 49
2.0
 74
     0
 49
-2.4
 74
     0
 49
2.0
 74
     0
 49
-2.4
 74
     0
  0
ENDTAB
  0
TABLE
  2
LAYER
  5
2
102
{ACAD_XDICTIONARY
360
29EA
102
}
330
0
100
AcDbSymbolTable
 70
    12
  0
LAYER
  5
F
330
2
100
AcDbSymbolTableRecord
100
AcDbLayerTableRecord
  2
0
 70
     0
 62
     7
  6
CONTINUOUS
  0
LAYER
  5
61
330
2
100
AcDbSymbolTableRecord
100
AcDbLayerTableRecord
  2
図枠太線
 70
     0
 62
   251
  6
CONTINUOUS
  0
LAYER
  5
62
330
2
100
AcDbSymbolTableRecord
100
AcDbLayerTableRecord
  2
図枠細線
 70
     0
 62
   252
  6
CONTINUOUS
  0
LAYER
  5
63
330
2
100
AcDbSymbolTableRecord
100
AcDbLayerTableRecord
  2
図枠ロゴマーク
 70
     0
 62
   253
  6
CONTINUOUS
  0
LAYER
  5
1EF
330
2
100
AcDbSymbolTableRecord
100
AcDbLayerTableRecord
  2
外形線
 70
     0
 62
     7
  6
CONTINUOUS
  0
LAYER
  5
1F0
330
2
100
AcDbSymbolTableRecord
100
AcDbLayerTableRecord
  2
寸法線
 70
     0
 62
     1
  6
CONTINUOUS
  0
LAYER
  5
1F1
330
2
100
AcDbSymbolTableRecord
100
AcDbLayerTableRecord
  2
中心線
 70
     0
 62
     4
  6
CENTER
  0
LAYER
  5
1F4
330
2
100
AcDbSymbolTableRecord
100
AcDbLayerTableRecord
  2
DEFPOINTS
 70
     0
 62
     7
  6
CONTINUOUS
  0
LAYER
  5
2AA2
330
2
100
AcDbSymbolTableRecord
100
AcDbLayerTableRecord
  2
下書線
 70
     0
 62
     2
  6
CONTINUOUS
  0
LAYER
  5
2AA4
330
2
100
AcDbSymbolTableRecord
100
AcDbLayerTableRecord
  2
細線
 70
     0
 62
     6
  6
CONTINUOUS
  0
LAYER
  5
3C9C
330
2
100
AcDbSymbolTableRecord
100
AcDbLayerTableRecord
  2
LAY-1
 70
     0
 62
     7
  6
CONTINUOUS
  0
LAYER
  5
4D80
330
2
100
AcDbSymbolTableRecord
100
AcDbLayerTableRecord
  2
隠れ線
 70
     0
 62
     3
  6
DASHED
  0
ENDTAB
  0
TABLE
  2
STYLE
  5
3
330
0
100
AcDbSymbolTable
 70
     3
  0
STYLE
  5
10
330
3
100
AcDbSymbolTableRecord
100
AcDbTextStyleTableRecord
  2
STANDARD
 70
     0
 40
0.0
 41
1.0
 50
0.0
 71
     0
 42
2.333873885063
  3
ISOCP
  4
bigfont.shx
  0
STYLE
  5
64
330
3
100
AcDbSymbolTableRecord
100
AcDbTextStyleTableRecord
  2
EXCADSTD
 70
     0
 40
0.0
 41
1.0
 50
0.0
 71
     0
 42
0.2
  3
monotxt
  4
bigfont
  0
STYLE
  5
433F
330
3
100
AcDbSymbolTableRecord
100
AcDbTextStyleTableRecord
  2
EXCADVERT
 70
     4
 40
0.0
 41
1.0
 50
0.0
 71
     0
 42
0.286885
  3
monotxt
  4
bigfont
  0
ENDTAB
  0
TABLE
  2
VIEW
  5
6
330
0
100
AcDbSymbolTable
 70
     0
  0
ENDTAB
  0
TABLE
  2
UCS
  5
7
330
0
100
AcDbSymbolTable
 70
     0
  0
ENDTAB
  0
TABLE
  2
APPID
  5
9
330
0
100
AcDbSymbolTable
 70
     3
  0
APPID
  5
11
330
9
100
AcDbSymbolTableRecord
100
AcDbRegAppTableRecord
  2
ACAD
 70
     0
  0
APPID
  5
5FDA
330
9
100
AcDbSymbolTableRecord
100
AcDbRegAppTableRecord
  2
ACADANNOTATIVE
 70
     0
  0
APPID
  5
6074
330
9
100
AcDbSymbolTableRecord
100
AcDbRegAppTableRecord
  2
ACAD_MLEADERVER
 70
     0
  0
ENDTAB
  0
TABLE
  2
DIMSTYLE
  5
A
330
0
100
AcDbSymbolTable
 70
     2
  0
DIMSTYLE
105
1D
330
A
100
AcDbSymbolTableRecord
100
AcDbDimStyleTableRecord
  2
STANDARD
 70
     0
  3

  4

  5

  6

  7

 40
1.0
 41
0.18
 42
0.0625
 43
0.38
 44
0.18
 45
0.0
 46
0.0
 47
0.0
 48
0.0
140
0.18
141
0.09
142
0.0
143
25.4
144
1.0
145
0.0
146
1.0
147
0.09
 71
     0
 72
     0
 73
     1
 74
     1
 75
     0
 76
     0
 77
     0
 78
     0
170
     0
171
     2
172
     0
173
     0
174
     0
175
     0
176
     0
177
     0
178
     0
270
     2
271
     4
272
     4
273
     2
274
     2
340
10
275
     0
280
     0
281
     0
282
     0
283
     1
284
     0
285
     0
286
     0
287
     3
288
     0
  0
DIMSTYLE
105
24
102
{ACAD_REACTORS
330
401E
330
43DD
330
43DE
330
43DF
330
43E0
330
43E1
330
43E2
330
4973
330
4F2B
330
4F2D
330
4F2E
330
4F2F
330
4F30
330
53E6
330
53E7
330
543C
330
5440
330
5441
330
6035
102
}
330
A
100
AcDbSymbolTableRecord
100
AcDbDimStyleTableRecord
  2
ISO-25
 70
     0
  3

  4

  5

  6

  7

 40
1.0
 41
2.5
 42
0.625
 43
3.75
 44
1.25
 45
0.0
 46
0.0
 47
0.0
 48
0.0
140
2.5
141
2.5
142
0.0
143
0.0394
144
1.0
145
1.0
146
1.0
147
0.625
 71
     0
 72
     0
 73
     1
 74
     0
 75
     0
 76
     0
 77
     1
 78
     8
170
     0
171
     2
172
     1
173
     0
174
     0
175
     0
176
     0
177
     0
178
     0
270
     2
271
     4
272
     4
273
     2
274
     2
340
10
275
     0
280
     0
281
     0
282
     0
283
     1
284
     0
285
     0
286
     0
287
     3
288
     0
  0
ENDTAB
  0
TABLE
  2
BLOCK_RECORD
  5
1
330
0
100
AcDbSymbolTable
 70
    54
  0
BLOCK_RECORD
  5
1A
330
1
100
AcDbSymbolTableRecord
100
AcDbBlockTableRecord
  2
*MODEL_SPACE
  0
BLOCK_RECORD
  5
28FB
330
1
100
AcDbSymbolTableRecord
100
AcDbBlockTableRecord
  2
*PAPER_SPACE
  0
BLOCK_RECORD
  5
2A32
330
1
100
AcDbSymbolTableRecord
100
AcDbBlockTableRecord
  2
A3横用_タイトル
1001
ACAD
1000
DesignCenter Data
1002
{
1070
     1
1070
     4
1002
}
  0
BLOCK_RECORD
  5
2AEB
330
1
100
AcDbSymbolTableRecord
100
AcDbBlockTableRecord
  2
_OPEN30
  0
BLOCK_RECORD
  5
3A78
330
1
100
AcDbSymbolTableRecord
100
AcDbBlockTableRecord
  2
ケース外形図_HL-100
  0
BLOCK_RECORD
  5
3F30
330
1
100
AcDbSymbolTableRecord
100
AcDbBlockTableRecord
  2
ケース外形図_HL101
  0
BLOCK_RECORD
  5
3F7D
330
1
100
AcDbSymbolTableRecord
100
AcDbBlockTableRecord
  2
A$C16143EC0
  0
BLOCK_RECORD
  5
401F
330
1
100
AcDbSymbolTableRecord
100
AcDbBlockTableRecord
  2
*D5
  0
BLOCK_RECORD
  5
4200
330
1
100
AcDbSymbolTableRecord
100
AcDbBlockTableRecord
  2
パドル_W1
  0
BLOCK_RECORD
  5
4218
330
1
100
AcDbSymbolTableRecord
100
AcDbBlockTableRecord
  2
パドル_W1立面図
  0
BLOCK_RECORD
  5
42BD
330
1
100
AcDbSymbolTableRecord
100
AcDbBlockTableRecord
  2
ケース外形図_PRL-101
  0
BLOCK_RECORD
  5
4323
330
1
100
AcDbSymbolTableRecord
100
AcDbBlockTableRecord
  2
A$C480F1F2B
  0
BLOCK_RECORD
  5
4478
330
1
100
AcDbSymbolTableRecord
100
AcDbBlockTableRecord
  2
*D10
  0
BLOCK_RECORD
  5
4484
330
1
100
AcDbSymbolTableRecord
100
AcDbBlockTableRecord
  2
*D11
  0
BLOCK_RECORD
  5
4492
330
1
100
AcDbSymbolTableRecord
100
AcDbBlockTableRecord
  2
*D12
  0
BLOCK_RECORD
  5
449E
330
1
100
AcDbSymbolTableRecord
100
AcDbBlockTableRecord
  2
*D13
  0
BLOCK_RECORD
  5
44AA
330
1
100
AcDbSymbolTableRecord
100
AcDbBlockTableRecord
  2
*D14
  0
BLOCK_RECORD
  5
44B6
330
1
100
AcDbSymbolTableRecord
100
AcDbBlockTableRecord
  2
*D15
  0
BLOCK_RECORD
  5
4974
330
1
100
AcDbSymbolTableRecord
100
AcDbBlockTableRecord
  2
*D16
  0
BLOCK_RECORD
  5
5003
330
1
100
AcDbSymbolTableRecord
100
AcDbBlockTableRecord
  2
*D17
  0
BLOCK_RECORD
  5
501E
330
1
100
AcDbSymbolTableRecord
100
AcDbBlockTableRecord
  2
*D18
  0
BLOCK_RECORD
  5
502A
330
1
100
AcDbSymbolTableRecord
100
AcDbBlockTableRecord
  2
*D19
  0
BLOCK_RECORD
  5
5036
330
1
100
AcDbSymbolTableRecord
100
AcDbBlockTableRecord
  2
*D20
  0
BLOCK_RECORD
  5
5042
330
1
100
AcDbSymbolTableRecord
100
AcDbBlockTableRecord
  2
*D21
  0
BLOCK_RECORD
  5
5442
330
1
100
AcDbSymbolTableRecord
100
AcDbBlockTableRecord
  2
*D22
  0
BLOCK_RECORD
  5
544E
330
1
100
AcDbSymbolTableRecord
100
AcDbBlockTableRecord
  2
*D23
  0
BLOCK_RECORD
  5
545A
330
1
100
AcDbSymbolTableRecord
100
AcDbBlockTableRecord
  2
*D24
  0
BLOCK_RECORD
  5
5468
330
1
100
AcDbSymbolTableRecord
100
AcDbBlockTableRecord
  2
*D25
  0
BLOCK_RECORD
  5
5476
330
1
100
AcDbSymbolTableRecord
100
AcDbBlockTableRecord
  2
*D26
  0
BLOCK_RECORD
  5
6036
330
1
100
AcDbSymbolTableRecord
100
AcDbBlockTableRecord
  2
*D53
  0
ENDTAB
  0
ENDSEC
  0
SECTION
  2
BLOCKS
  0
BLOCK
  5
1B
330
1A
100
AcDbEntity
  8
0
100
AcDbBlockBegin
  2
*MODEL_SPACE
 70
     0
 10
0.0
 20
0.0
 30
0.0
  3
*MODEL_SPACE
  1

  0
ENDBLK
  5
1C
330
1A
100
AcDbEntity
  8
0
100
AcDbBlockEnd
  0
BLOCK
  5
28FD
330
28FB
100
AcDbEntity
 67
     1
  8
0
 48
10.0
100
AcDbBlockBegin
  2
*PAPER_SPACE
 70
     0
 10
0.0
 20
0.0
 30
0.0
  3
*PAPER_SPACE
  1

  0
ENDBLK
  5
28FE
330
28FB
100
AcDbEntity
 67
     1
  8
0
 48
10.0
100
AcDbBlockEnd
  0
BLOCK
  5
2A33
330
2A32
100
AcDbEntity
  8
0
100
AcDbBlockBegin
  2
A3横用_タイトル
 70
     0
 10
0.0
 20
0.0
 30
0.0
  3
A3横用_タイトル
  1
A3横用_タイトル
  0
LINE
  5
2A34
330
2A32
100
AcDbEntity
  8
図枠細線
  6
CONTINUOUS
 62
   252
100
AcDbLine
 10
205.098414535793
 20
33.525959753527
 30
0.0
 11
305.098414535793
 21
33.525959753527
 31
0.0
  0
LINE
  5
2A35
330
2A32
100
AcDbEntity
  8
図枠太線
  6
CONTINUOUS
 62
   251
100
AcDbLine
 10
205.098414535793
 20
23.525959753527
 30
0.0
 11
305.098414535793
 21
23.525959753527
 31
0.0
  0
LINE
  5
2A36
330
2A32
100
AcDbEntity
  8
図枠細線
  6
CONTINUOUS
100
AcDbLine
 10
5.098414535793
 20
23.525959753527
 30
0.0
 11
105.098414535793
 21
23.525959753527
 31
0.0
  0
LINE
  5
2A37
330
2A32
100
AcDbEntity
  8
図枠細線
  6
CONTINUOUS
 62
   252
100
AcDbLine
 10
5.098414535793
 20
36.725957753527
 30
0.0
 11
105.098414535793
 21
36.725957753527
 31
0.0
  0
LINE
  5
2A38
330
2A32
100
AcDbEntity
  8
図枠細線
  6
CONTINUOUS
 62
   252
100
AcDbLine
 10
5.098414535793
 20
30.125957753527
 30
0.0
 11
105.098414535793
 21
30.125957753527
 31
0.0
  0
LINE
  5
2A39
330
2A32
100
AcDbEntity
  8
図枠細線
  6
CONTINUOUS
 62
   252
100
AcDbLine
 10
5.098414535793
 20
16.725959753527
 30
0.0
 11
105.098414535793
 21
16.725959753527
 31
0.0
  0
LINE
  5
2A3A
330
2A32
100
AcDbEntity
  8
図枠細線
  6
CONTINUOUS
 62
   252
100
AcDbLine
 10
5.098414535793
 20
10.125959753527
 30
0.0
 11
105.098414535793
 21
10.125959753527
 31
0.0
  0
LINE
  5
2A3B
330
2A32
100
AcDbEntity
  8
図枠細線
  6
CONTINUOUS
100
AcDbLine
 10
105.098414535793
 20
23.525961753527
 30
0.0
 11
205.098414535793
 21
23.525959753527
 31
0.0
  0
LINE
  5
2A3C
330
2A32
100
AcDbEntity
  8
図枠細線
  6
CONTINUOUS
 62
   252
100
AcDbLine
 10
138.398414535793
 20
43.525959753527
 30
0.0
 11
138.398414535793
 21
18.525957753527
 31
0.0
  0
LINE
  5
2A3D
330
2A32
100
AcDbEntity
  8
図枠細線
  6
CONTINUOUS
 62
   252
100
AcDbLine
 10
171.698414535793
 20
43.525959753527
 30
0.0
 11
171.698414535793
 21
18.525957753527
 31
0.0
  0
LINE
  5
2A3E
330
2A32
100
AcDbEntity
  8
図枠細線
  6
CONTINUOUS
 62
   252
100
AcDbLine
 10
305.098414535793
 20
23.525959753527
 30
0.0
 11
405.098414535793
 21
23.525959753527
 31
0.0
  0
TEXT
  5
2A3F
330
2A32
100
AcDbEntity
  8
図枠ロゴマーク
  6
CONTINUOUS
 62
   253
100
AcDbText
 10
206.102509212755
 20
13.294257570546
 30
0.0
 40
7.0
  1
東和制電工業株式会社
 50
0.016555220185
 41
1.186384129432
  7
EXCADSTD
 72
     5
 11
303.544188309143
 21
13.322412672217
 31
0.0
100
AcDbText
  0
MTEXT
  5
2A40
330
2A32
100
AcDbEntity
  8
図枠細線
100
AcDbMText
 10
6.356764112375
 20
41.976594175478
 30
0.0
 40
2.5
 41
49.938282706292
 71
     1
 72
     5
  1
{\Fmonotxt.shx,bigfont.shx|c128;図暦　CHANGE　NOTICE}
  0
MTEXT
  5
2A41
330
2A32
100
AcDbEntity
  8
図枠細線
 48
10.0
100
AcDbMText
 10
306.544114926828
 20
41.701835800934
 30
0.0
 40
2.5
 41
28.002809618823
 71
     1
 72
     5
  1
{\Fmonotxt.shx,bigfont.shx|c128;名称　TITLE}
  0
MTEXT
  5
2A42
330
2A32
100
AcDbEntity
  8
図枠細線
 48
10.0
100
AcDbMText
 10
307.329617114284
 20
21.606206797226
 30
0.0
 40
2.5
 41
24.385612216707
 71
     1
 72
     5
  1
{\Fmonotxt.shx,bigfont.shx|c128;図面番号\PDRG.　No.}
  0
MTEXT
  5
2A43
330
2A32
100
AcDbEntity
  8
図枠細線
 48
10.0
100
AcDbMText
 10
173.726349404609
 20
21.73680662198
 30
0.0
 40
2.5
 41
25.735090160813
 71
     1
 72
     5
  1
{\Fmonotxt.shx,bigfont.shx|c128;日付 DATE}
  0
MTEXT
  5
2A44
330
2A32
100
AcDbEntity
  8
図枠細線
 48
10.0
100
AcDbMText
 10
173.48708833982
 20
41.621592044998
 30
0.0
 40
2.5
 41
24.983741184205
 71
     1
 72
     5
  1
{\Fmonotxt.shx,bigfont.shx|c128;製図　DRAWN}
  0
MTEXT
  5
2A45
330
2A32
100
AcDbEntity
  8
図枠細線
 48
10.0
100
AcDbMText
 10
139.28009927741
 20
21.866713069868
 30
0.0
 40
2.5
 41
22.629632913243
 71
     1
 72
     5
  1
{\Fmonotxt.shx,bigfont.shx|c128;尺度　SCALE}
  0
MTEXT
  5
2A46
330
2A32
100
AcDbEntity
  8
図枠細線
 48
10.0
100
AcDbMText
 10
139.910091179835
 20
41.311840415554
 30
0.0
 40
2.5
 41
28.998753428368
 71
     1
 72
     5
  1
{\Fmonotxt.shx,bigfont.shx|c128;検図  CHECKED}
  0
MTEXT
  5
2A47
330
2A32
100
AcDbEntity
  8
図枠細線
 48
10.0
100
AcDbMText
 10
114.253294667728
 20
21.916124850174
 30
0.0
 40
3.0
 41
19.692400475383
 71
     1
 72
     5
  1
{\Fmonotxt.shx,bigfont.shx|c128;第三角法}
  0
MTEXT
  5
2A48
330
2A32
100
AcDbEntity
  8
図枠細線
 48
10.0
100
AcDbMText
 10
108.986959929915
 20
15.282880185837
 30
0.0
 40
2.5
 41
27.954882823547
 71
     1
 72
     5
  1
{\Fmonotxt.shx,bigfont.shx|c128;THIRD ANGLE\PPROJECTION}
  0
MTEXT
  5
2A49
330
2A32
100
AcDbEntity
  8
図枠細線
 48
10.0
100
AcDbMText
 10
106.319432640184
 20
41.511437145487
 30
0.0
 40
2.5
 41
28.233595265074
 71
     1
 72
     5
  1
{\Fmonotxt.shx,bigfont.shx|c128;承認 APPROVED}
  0
LINE
  5
2A4A
330
2A32
100
AcDbEntity
  8
図枠太線
  6
CONTINUOUS
 62
   251
100
AcDbLine
 10
5.098414535793
 20
3.525959753527
 30
0.0
 11
405.098414535793
 21
3.525959753527
 31
0.0
  0
LINE
  5
2A4B
330
2A32
100
AcDbEntity
  8
図枠太線
 48
10.0
100
AcDbLine
 10
5.098414535793
 20
3.525959753527
 30
0.0
 11
5.098414535793
 21
43.525959753527
 31
0.0
  0
LINE
  5
2A4C
330
2A32
100
AcDbEntity
  8
図枠太線
  6
CONTINUOUS
 62
   251
100
AcDbLine
 10
105.098414535793
 20
3.525959753527
 30
0.0
 11
105.098414535793
 21
43.525959753527
 31
0.0
  0
LINE
  5
2A4D
330
2A32
100
AcDbEntity
  8
図枠細線
  6
CONTINUOUS
 62
   252
100
AcDbLine
 10
138.398414535793
 20
3.525959753527
 30
0.0
 11
138.398414535793
 21
18.525957753527
 31
0.0
  0
LINE
  5
2A4E
330
2A32
100
AcDbEntity
  8
図枠細線
  6
CONTINUOUS
 62
   252
100
AcDbLine
 10
171.698414535793
 20
3.525959753527
 30
0.0
 11
171.698414535793
 21
18.525957753527
 31
0.0
  0
LINE
  5
2A4F
330
2A32
100
AcDbEntity
  8
図枠太線
  6
CONTINUOUS
 62
   251
100
AcDbLine
 10
205.098414535793
 20
3.525959753527
 30
0.0
 11
205.098414535793
 21
43.525959753527
 31
0.0
  0
LINE
  5
2A50
330
2A32
100
AcDbEntity
  8
図枠太線
 48
10.0
100
AcDbLine
 10
405.098414535793
 20
43.525959753527
 30
0.0
 11
405.098414535793
 21
3.525959753527
 31
0.0
  0
TEXT
  5
2A51
330
2A32
100
AcDbEntity
  8
図枠細線
  6
CONTINUOUS
 62
   252
100
AcDbText
 10
208.519754474572
 20
6.482358407285
 30
0.0
 40
3.5
  1
ＴＯＷＡ　ＳＥＩＤＥＮ　ＩＮＤＵＳＴＲＩＡＬ　ＣＯ．，ＬＴＤ．
 41
0.746656297509
  7
EXCADSTD
 72
     5
 11
303.295327171727
 21
6.482358407285
 31
0.0
100
AcDbText
  0
LINE
  5
2A52
330
2A32
100
AcDbEntity
  8
図枠太線
  6
CONTINUOUS
 62
   251
100
AcDbLine
 10
305.098414535793
 20
3.525959753527
 30
0.0
 11
305.098414535793
 21
43.525959753527
 31
0.0
  0
ENDBLK
  5
2A53
330
2A32
100
AcDbEntity
  8
0
100
AcDbBlockEnd
  0
BLOCK
  5
2AEF
330
2AEB
100
AcDbEntity
  8
0
 48
10.0
100
AcDbBlockBegin
  2
_OPEN30
 70
     0
 10
0.0
 20
0.0
 30
0.0
  3
_OPEN30
  1
_OPEN30
  0
LINE
  5
2AEC
330
2AEB
100
AcDbEntity
  8
0
  6
BYBLOCK
 62
     0
100
AcDbLine
 10
-1.0
 20
0.26794919
 30
0.0
 11
0.0
 21
0.0
 31
0.0
  0
LINE
  5
2AED
330
2AEB
100
AcDbEntity
  8
0
  6
BYBLOCK
 62
     0
100
AcDbLine
 10
0.0
 20
0.0
 30
0.0
 11
-1.0
 21
-0.26794919
 31
0.0
  0
LINE
  5
2AEE
330
2AEB
100
AcDbEntity
  8
0
  6
BYBLOCK
 62
     0
100
AcDbLine
 10
0.0
 20
0.0
 30
0.0
 11
-1.0
 21
0.0
 31
0.0
  0
ENDBLK
  5
2AF0
330
2AEB
100
AcDbEntity
  8
0
 48
10.0
100
AcDbBlockEnd
  0
BLOCK
  5
3A79
330
3A78
100
AcDbEntity
  8
0
 48
10.0
100
AcDbBlockBegin
  2
ケース外形図_HL-100
 70
     0
 10
0.0
 20
0.0
 30
0.0
  3
ケース外形図_HL-100
  1
ケース外形図_HL-100
  0
ARC
  5
3A7A
330
3A78
100
AcDbEntity
  8
外形線
100
AcDbCircle
 10
-2925.377906671296
 20
152.118815834594
 30
0.0
 40
7.5
100
AcDbArc
 50
0.0
 51
86.629979268965
  0
LINE
  5
3A7B
330
3A78
100
AcDbEntity
  8
外形線
100
AcDbLine
 10
-3002.377829171295
 20
141.457735857521
 30
0.0
 11
-2990.377829171296
 21
165.457828357521
 31
0.0
  0
LINE
  5
3A7C
330
3A78
100
AcDbEntity
  8
外形線
100
AcDbLine
 10
-2924.937026299913
 20
159.605846253801
 30
0.0
 11
-2966.627829171296
 21
162.060845849639
 31
0.0
  0
LINE
  5
3A7D
330
3A78
100
AcDbEntity
  8
外形線
100
AcDbLine
 10
-2990.377829171296
 20
165.457828357521
 30
0.0
 11
-2990.377829171296
 21
62.457798357521
 31
0.0
  0
LINE
  5
3A7E
330
3A78
100
AcDbEntity
  8
外形線
100
AcDbLine
 10
-2983.377861671295
 20
167.457798357521
 30
0.0
 11
-2983.377861671295
 21
60.457828357521
 31
0.0
  0
LINE
  5
3A7F
330
3A78
100
AcDbEntity
  8
外形線
100
AcDbLine
 10
-2975.377829171296
 20
60.457828357521
 30
0.0
 11
-2975.377829171296
 21
167.457798357521
 31
0.0
  0
LINE
  5
3A80
330
3A78
100
AcDbEntity
  8
外形線
100
AcDbLine
 10
-2973.627829171295
 20
167.457798357521
 30
0.0
 11
-2973.627829171295
 21
60.457828357521
 31
0.0
  0
LINE
  5
3A81
330
3A78
100
AcDbEntity
  8
外形線
100
AcDbLine
 10
-2966.627829171296
 20
60.457828357521
 30
0.0
 11
-2966.627829171296
 21
167.457798357521
 31
0.0
  0
LINE
  5
3A82
330
3A78
100
AcDbEntity
  8
外形線
100
AcDbLine
 10
-3027.377829171295
 20
40.957783357521
 30
0.0
 11
-3027.377829171295
 21
195.957783357521
 31
0.0
  0
LINE
  5
3A83
330
3A78
100
AcDbEntity
  8
外形線
100
AcDbLine
 10
-3037.377829171295
 20
40.957860857521
 30
0.0
 11
-3037.377829171295
 21
195.957860857521
 31
0.0
  0
LINE
  5
3A84
330
3A78
100
AcDbEntity
  8
外形線
100
AcDbLine
 10
-2983.377861671295
 20
60.457828357521
 30
0.0
 11
-2966.627829171296
 21
60.457828357521
 31
0.0
  0
LINE
  5
3A85
330
3A78
100
AcDbEntity
  8
外形線
100
AcDbLine
 10
-3002.377829171295
 20
95.457828357521
 30
0.0
 11
-2990.377829171296
 21
62.457798357521
 31
0.0
  0
LINE
  5
3A86
330
3A78
100
AcDbEntity
  8
外形線
100
AcDbLine
 10
-3037.377829171295
 20
40.957783357521
 30
0.0
 11
-3027.377829171295
 21
40.957783357521
 31
0.0
  0
LINE
  5
3A87
330
3A78
100
AcDbEntity
  8
中心線
 48
10.0
100
AcDbLine
 10
-3044.864706671296
 20
53.457783357521
 30
0.0
 11
-3019.114164171296
 21
53.457783357521
 31
0.0
  0
LINE
  5
3A88
330
3A78
100
AcDbEntity
  8
外形線
100
AcDbLine
 10
-2990.377829171296
 20
62.457798357521
 30
0.0
 11
-2983.377861671295
 21
61.457735857521
 31
0.0
  0
LINE
  5
3A89
330
3A78
100
AcDbEntity
  8
外形線
100
AcDbLine
 10
-3002.377829171295
 20
95.457828357521
 30
0.0
 11
-3002.377829171295
 21
141.457735857521
 31
0.0
  0
ARC
  5
3A8A
330
3A78
100
AcDbEntity
  8
細線
100
AcDbCircle
 10
-3053.115528206043
 20
118.457782357522
 30
0.0
 40
9.86227696525272
100
AcDbArc
 50
131.155220883625
 51
228.844779116375
  0
LINE
  5
3A8B
330
3A78
100
AcDbEntity
  8
外形線
100
AcDbLine
 10
-3062.977805171295
 20
130.157856357522
 30
0.0
 11
-3062.977805171295
 21
106.757710357522
 31
0.0
  0
LINE
  5
3A8C
330
3A78
100
AcDbEntity
  8
細線
100
AcDbLine
 10
-3042.804099171295
 20
133.308980357522
 30
0.0
 11
-3042.804099171295
 21
103.606586357521
 31
0.0
  0
LINE
  5
3A8D
330
3A78
100
AcDbEntity
  8
外形線
100
AcDbLine
 10
-3062.977805171295
 20
106.757710357522
 30
0.0
 11
-3059.446677171295
 21
103.457782357522
 31
0.0
  0
LINE
  5
3A8E
330
3A78
100
AcDbEntity
  8
外形線
100
AcDbLine
 10
-3059.605906697185
 20
103.606586357521
 30
0.0
 11
-3037.377829171295
 21
103.606586357521
 31
0.0
  0
LINE
  5
3A8F
330
3A78
100
AcDbEntity
  8
細線
100
AcDbLine
 10
-3042.804099171295
 20
111.032183357522
 30
0.0
 11
-3059.605904653565
 21
111.032183357522
 31
0.0
  0
ARC
  5
3A90
330
3A78
100
AcDbEntity
  8
細線
100
AcDbCircle
 10
-3055.384420729553
 20
104.23489277973
 30
0.0
 40
8.00150521587242
100
AcDbArc
 50
121.842510322088
 51
161.621519846142
  0
ARC
  5
3A91
330
3A78
100
AcDbEntity
  8
外形線
100
AcDbCircle
 10
-3021.377921671296
 20
89.457765857521
 30
0.0
 40
6.0
100
AcDbArc
 50
89.999981276021
 51
180.00001984784
  0
LINE
  5
3A92
330
3A78
100
AcDbEntity
  8
外形線
100
AcDbLine
 10
-3021.377921671296
 20
95.457828357521
 30
0.0
 11
-3002.377829171295
 21
95.457828357521
 31
0.0
  0
LINE
  5
3A93
330
3A78
100
AcDbEntity
  8
外形線
100
AcDbLine
 10
-3059.605904653565
 20
133.308980357522
 30
0.0
 11
-3037.377829171295
 21
133.308980357522
 31
0.0
  0
LINE
  5
3A94
330
3A78
100
AcDbEntity
  8
細線
100
AcDbLine
 10
-3042.804099171295
 20
125.883381357521
 30
0.0
 11
-3059.605904653565
 21
125.883381357521
 31
0.0
  0
ARC
  5
3A95
330
3A78
100
AcDbEntity
  8
細線
100
AcDbCircle
 10
-3055.384420729553
 20
132.680671935313
 30
0.0
 40
8.00150521587242
100
AcDbArc
 50
198.378480153858
 51
238.157489677912
  0
LINE
  5
3A96
330
3A78
100
AcDbEntity
  8
外形線
100
AcDbLine
 10
-3062.977805171295
 20
130.157856357522
 30
0.0
 11
-3059.605904653565
 21
133.308980357522
 31
0.0
  0
ARC
  5
3A97
330
3A78
100
AcDbEntity
  8
外形線
100
AcDbCircle
 10
-3021.377921671296
 20
147.457798357521
 30
0.0
 40
6.0
100
AcDbArc
 50
180.00001984784
 51
270.0
  0
LINE
  5
3A98
330
3A78
100
AcDbEntity
  8
外形線
100
AcDbLine
 10
-3021.377921671296
 20
141.457735857521
 30
0.0
 11
-3002.377829171295
 21
141.457735857521
 31
0.0
  0
LINE
  5
3A99
330
3A78
100
AcDbEntity
  8
外形線
100
AcDbLine
 10
-2917.877906671296
 20
152.118815834594
 30
0.0
 11
-2917.877906671296
 21
75.796810880449
 31
0.0
  0
LINE
  5
3A9A
330
3A78
100
AcDbEntity
  8
外形線
100
AcDbLine
 10
-2925.789370913838
 20
67.122885519941
 30
0.0
 11
-2926.321109507413
 21
51.266759702689
 31
0.0
  0
LINE
  5
3A9B
330
3A78
100
AcDbEntity
  8
外形線
100
AcDbLine
 10
-2954.86089061111
 20
63.980015655949
 30
0.0
 11
-2954.434548835178
 21
51.266759702689
 31
0.0
  0
LINE
  5
3A9C
330
3A78
100
AcDbEntity
  8
中心線
 48
10.0
100
AcDbLine
 10
-2940.377829171296
 20
75.649935857521
 30
0.0
 11
-2940.377829171296
 21
33.510113357521
 31
0.0
  0
ARC
  5
3A9D
330
3A78
100
AcDbEntity
  8
細線
100
AcDbCircle
 10
-2940.377906671296
 20
52.324970857521
 30
0.0
 40
12.7495375
100
AcDbArc
 50
241.926501556963
 51
298.073500690785
  0
LINE
  5
3A9E
330
3A78
100
AcDbEntity
  8
外形線
100
AcDbLine
 10
-2952.377876671295
 20
45.575473357521
 30
0.0
 11
-2928.377936671295
 21
45.575473357521
 31
0.0
  0
LINE
  5
3A9F
330
3A78
100
AcDbEntity
  8
外形線
100
AcDbLine
 10
-2952.685532040298
 20
49.575413357521
 30
0.0
 11
-2928.070126302293
 21
49.575413357521
 31
0.0
  0
LINE
  5
3AA0
330
3A78
100
AcDbEntity
  8
外形線
100
AcDbLine
 10
-2949.377844171295
 20
39.575413357521
 30
0.0
 11
-2931.377891671295
 21
39.575413357521
 31
0.0
  0
ARC
  5
3AA1
330
3A78
100
AcDbEntity
  8
細線
100
AcDbCircle
 10
-2950.887549171296
 20
46.344820857521
 30
0.0
 40
6.935630000000001
100
AcDbArc
 50
282.571898360404
 51
310.557678088908
  0
LINE
  5
3AA2
330
3A78
100
AcDbEntity
  8
細線
100
AcDbLine
 10
-2946.377891671295
 20
45.575473357521
 30
0.0
 11
-2946.377891671295
 21
41.075428357521
 31
0.0
  0
LINE
  5
3AA3
330
3A78
100
AcDbEntity
  8
外形線
100
AcDbLine
 10
-2950.627921671295
 20
45.575473357521
 30
0.0
 11
-2950.627921671295
 21
49.575413357521
 31
0.0
  0
LINE
  5
3AA4
330
3A78
100
AcDbEntity
  8
細線
100
AcDbLine
 10
-2948.127921671295
 20
49.575413357521
 30
0.0
 11
-2948.127921671295
 21
45.575473357521
 31
0.0
  0
ARC
  5
3AA5
330
3A78
100
AcDbEntity
  8
外形線
100
AcDbCircle
 10
-2952.685532040298
 20
51.325413357521
 30
0.0
 40
1.75
100
AcDbArc
 50
181.920706503578
 51
270.0
  0
LINE
  5
3AA6
330
3A78
100
AcDbEntity
  8
外形線
100
AcDbLine
 10
-2949.377844171295
 20
39.575413357521
 30
0.0
 11
-2952.377876671295
 21
41.075428357521
 31
0.0
  0
LINE
  5
3AA7
330
3A78
100
AcDbEntity
  8
外形線
100
AcDbLine
 10
-2952.377876671295
 20
45.575473357521
 30
0.0
 11
-2952.377876671295
 21
41.075428357521
 31
0.0
  0
ARC
  5
3AA8
330
3A78
100
AcDbEntity
  8
細線
100
AcDbCircle
 10
-2929.868261671295
 20
46.344820857521
 30
0.0
 40
6.935630000000001
100
AcDbArc
 50
229.442381454627
 51
257.428103887329
  0
LINE
  5
3AA9
330
3A78
100
AcDbEntity
  8
細線
100
AcDbLine
 10
-2934.377921671295
 20
45.575473357521
 30
0.0
 11
-2934.377921671295
 21
41.075428357521
 31
0.0
  0
LINE
  5
3AAA
330
3A78
100
AcDbEntity
  8
外形線
100
AcDbLine
 10
-2930.127891671295
 20
45.575473357521
 30
0.0
 11
-2930.127891671295
 21
49.575413357521
 31
0.0
  0
LINE
  5
3AAB
330
3A78
100
AcDbEntity
  8
細線
100
AcDbLine
 10
-2932.627891671295
 20
49.575413357521
 30
0.0
 11
-2932.627891671295
 21
45.575473357521
 31
0.0
  0
ARC
  5
3AAC
330
3A78
100
AcDbEntity
  8
外形線
100
AcDbCircle
 10
-2928.070126302293
 20
51.325413357521
 30
0.0
 40
1.75
100
AcDbArc
 50
270.0
 51
358.079293496422
  0
LINE
  5
3AAD
330
3A78
100
AcDbEntity
  8
外形線
100
AcDbLine
 10
-2931.377966671296
 20
39.575413357521
 30
0.0
 11
-2928.377936671295
 21
41.075428357521
 31
0.0
  0
LINE
  5
3AAE
330
3A78
100
AcDbEntity
  8
外形線
100
AcDbLine
 10
-2928.377936671295
 20
45.575473357521
 30
0.0
 11
-2928.377936671295
 21
41.075428357521
 31
0.0
  0
ARC
  5
3AAF
330
3A78
100
AcDbEntity
  8
外形線
100
AcDbCircle
 10
-2925.377906671296
 20
75.796810880449
 30
0.0
 40
7.5
100
AcDbArc
 50
273.370020731035
 51
0.0
  0
LINE
  5
3AB0
330
3A78
100
AcDbEntity
  8
外形線
100
AcDbLine
 10
-2924.937026299913
 20
68.309780461244
 30
0.0
 11
-2966.627829171296
 21
65.854780865404
 31
0.0
  0
ARC
  5
3AB1
330
3A78
100
AcDbEntity
  8
外形線
100
AcDbCircle
 10
-2957.359486032368
 20
63.896224720476
 30
0.0
 40
2.5
100
AcDbArc
 50
1.920706503578
 51
93.370020731035
  0
LINE
  5
3AB2
330
3A78
100
AcDbEntity
  8
外形線
100
AcDbLine
 10
-2924.598459495897
 20
67.694343137641
 30
0.0
 11
-2924.603574782856
 21
67.694122607611
 31
0.0
  0
ARC
  5
3AB3
330
3A78
100
AcDbEntity
  8
外形線
100
AcDbCircle
 10
-2924.540073203208
 20
67.080990052204
 30
0.0
 40
1.25
100
AcDbArc
 50
93.370020731035
 51
178.079293496422
  0
LINE
  5
3AB4
330
3A78
100
AcDbEntity
  8
外形線
100
AcDbLine
 10
-2915.377981671295
 20
138.457783357521
 30
0.0
 11
-2915.377981671295
 21
98.457783357521
 31
0.0
  0
ARC
  5
3AB5
330
3A78
100
AcDbEntity
  8
外形線
100
AcDbCircle
 10
-2915.712531671295
 20
96.243655857521
 30
0.0
 40
2.2392525
100
AcDbArc
 50
81.407104039339
 51
165.246528510565
  0
ARC
  5
3AB6
330
3A78
100
AcDbEntity
  8
外形線
100
AcDbCircle
 10
-2915.712531671295
 20
140.671908357521
 30
0.0
 40
2.2392525
100
AcDbArc
 50
194.753453889343
 51
278.592935656363
  0
LINE
  5
3AB7
330
3A78
100
AcDbEntity
  8
外形線
100
AcDbLine
 10
-2966.627829171296
 20
167.457798357521
 30
0.0
 11
-2983.377861671295
 21
167.457798357521
 31
0.0
  0
LINE
  5
3AB8
330
3A78
100
AcDbEntity
  8
中心線
 48
10.0
100
AcDbLine
 10
-3044.864706671296
 20
183.457783357521
 30
0.0
 11
-3019.114164171296
 21
183.457783357521
 31
0.0
  0
LINE
  5
3AB9
330
3A78
100
AcDbEntity
  8
外形線
100
AcDbLine
 10
-2990.377829171296
 20
165.457828357521
 30
0.0
 11
-2983.377861671295
 21
166.457735857521
 31
0.0
  0
LINE
  5
3ABA
330
3A78
100
AcDbEntity
  8
外形線
100
AcDbLine
 10
-3037.377829171295
 20
195.957783357521
 30
0.0
 11
-3027.377829171295
 21
195.957783357521
 31
0.0
  0
ENDBLK
  5
3ABB
330
3A78
100
AcDbEntity
  8
0
 48
10.0
100
AcDbBlockEnd
  0
BLOCK
  5
3F31
330
3F30
100
AcDbEntity
  8
0
 48
10.0
100
AcDbBlockBegin
  2
ケース外形図_HL101
 70
     0
 10
0.0
 20
0.0
 30
0.0
  3
ケース外形図_HL101
  1
ケース外形図_HL101
  0
LINE
  5
3F32
330
3F30
100
AcDbEntity
  8
外形線
100
AcDbLine
 10
-2746.476279393282
 20
140.090942491455
 30
0.0
 11
-2734.476279393282
 21
164.091034991455
 31
0.0
  0
LINE
  5
3F33
330
3F30
100
AcDbEntity
  8
外形線
100
AcDbLine
 10
-2669.035476521899
 20
158.239052887735
 30
0.0
 11
-2710.726279393282
 21
160.694052483573
 31
0.0
  0
LINE
  5
3F34
330
3F30
100
AcDbEntity
  8
外形線
100
AcDbLine
 10
-2710.726279393282
 20
59.091034991455
 30
0.0
 11
-2710.726279393282
 21
166.091004991455
 31
0.0
  0
LINE
  5
3F35
330
3F30
100
AcDbEntity
  8
外形線
100
AcDbLine
 10
-2717.726279393282
 20
166.091004991455
 30
0.0
 11
-2717.726279393282
 21
59.091034991455
 31
0.0
  0
LINE
  5
3F36
330
3F30
100
AcDbEntity
  8
外形線
100
AcDbLine
 10
-2719.476279393282
 20
59.091034991455
 30
0.0
 11
-2719.476279393282
 21
166.091004991455
 31
0.0
  0
LINE
  5
3F37
330
3F30
100
AcDbEntity
  8
外形線
100
AcDbLine
 10
-2727.476311893282
 20
166.091004991455
 30
0.0
 11
-2727.476311893282
 21
59.091034991455
 31
0.0
  0
LINE
  5
3F38
330
3F30
100
AcDbEntity
  8
外形線
100
AcDbLine
 10
-2734.476279393282
 20
164.091034991455
 30
0.0
 11
-2734.476279393282
 21
61.091004991455
 31
0.0
  0
LINE
  5
3F39
330
3F30
100
AcDbEntity
  8
外形線
100
AcDbLine
 10
-2781.476279393282
 20
194.590989991455
 30
0.0
 11
-2781.476279393282
 21
39.590989991455
 31
0.0
  0
LINE
  5
3F3A
330
3F30
100
AcDbEntity
  8
外形線
100
AcDbLine
 10
-2771.476279393282
 20
39.590989991455
 30
0.0
 11
-2771.476279393282
 21
194.590989991455
 31
0.0
  0
LINE
  5
3F3B
330
3F30
100
AcDbEntity
  8
外形線
100
AcDbLine
 10
-2746.476279393282
 20
94.091034991455
 30
0.0
 11
-2734.476279393282
 21
61.091004991455
 31
0.0
  0
LINE
  5
3F3C
330
3F30
100
AcDbEntity
  8
外形線
100
AcDbLine
 10
-2781.476279393282
 20
39.590989991455
 30
0.0
 11
-2771.476279393282
 21
39.590989991455
 31
0.0
  0
LINE
  5
3F3D
330
3F30
100
AcDbEntity
  8
中心線
 48
10.0
100
AcDbLine
 10
-2788.963156893282
 20
52.090989991455
 30
0.0
 11
-2763.212614393282
 21
52.090989991455
 31
0.0
  0
LINE
  5
3F3E
330
3F30
100
AcDbEntity
  8
外形線
100
AcDbLine
 10
-2746.476279393282
 20
94.091034991455
 30
0.0
 11
-2746.476279393282
 21
140.090942491455
 31
0.0
  0
ARC
  5
3F3F
330
3F30
100
AcDbEntity
  8
外形線
100
AcDbCircle
 10
-2765.476371893282
 20
88.090972491455
 30
0.0
 40
6.0
100
AcDbArc
 50
89.999981276021
 51
180.000019847843
  0
LINE
  5
3F40
330
3F30
100
AcDbEntity
  8
外形線
100
AcDbLine
 10
-2765.476371893282
 20
94.091034991455
 30
0.0
 11
-2746.476279393282
 21
94.091034991455
 31
0.0
  0
ARC
  5
3F41
330
3F30
100
AcDbEntity
  8
外形線
100
AcDbCircle
 10
-2765.476371893282
 20
146.091004991455
 30
0.0
 40
6.0
100
AcDbArc
 50
180.000019847842
 51
270.0
  0
LINE
  5
3F42
330
3F30
100
AcDbEntity
  8
外形線
100
AcDbLine
 10
-2765.476371893282
 20
140.090942491455
 30
0.0
 11
-2746.476279393282
 21
140.090942491455
 31
0.0
  0
LINE
  5
3F43
330
3F30
100
AcDbEntity
  8
外形線
100
AcDbLine
 10
-2661.976356893282
 20
150.752022468528
 30
0.0
 11
-2661.976356893282
 21
74.430017514385
 31
0.0
  0
LINE
  5
3F44
330
3F30
100
AcDbEntity
  8
外形線
100
AcDbLine
 10
-2698.959340833097
 20
62.613222289882
 30
0.0
 11
-2698.532999057164
 21
49.899966336623
 31
0.0
  0
LINE
  5
3F45
330
3F30
100
AcDbEntity
  8
外形線
100
AcDbLine
 10
-2669.887821135825
 20
65.756092153875
 30
0.0
 11
-2670.419559729399
 21
49.899966336623
 31
0.0
  0
LINE
  5
3F46
330
3F30
100
AcDbEntity
  8
中心線
 48
10.0
100
AcDbLine
 10
-2684.476279393282
 20
28.023838696997
 30
0.0
 11
-2684.476279393282
 21
76.214502130929
 31
0.0
  0
ARC
  5
3F47
330
3F30
100
AcDbEntity
  8
細線
100
AcDbCircle
 10
-2684.476356893282
 20
50.958177491455
 30
0.0
 40
12.7495375
100
AcDbArc
 50
241.926501556961
 51
298.073500690787
  0
LINE
  5
3F48
330
3F30
100
AcDbEntity
  8
外形線
100
AcDbLine
 10
-2696.783982262284
 20
48.208619991455
 30
0.0
 11
-2672.16857652428
 21
48.208619991455
 31
0.0
  0
LINE
  5
3F49
330
3F30
100
AcDbEntity
  8
外形線
100
AcDbLine
 10
-2693.476294393282
 20
38.208619991455
 30
0.0
 11
-2675.476341893282
 21
38.208619991455
 31
0.0
  0
LINE
  5
3F4A
330
3F30
100
AcDbEntity
  8
外形線
100
AcDbLine
 10
-2696.476326893282
 20
44.208679991455
 30
0.0
 11
-2672.476386893281
 21
44.208679991455
 31
0.0
  0
ARC
  5
3F4B
330
3F30
100
AcDbEntity
  8
細線
100
AcDbCircle
 10
-2694.985999393282
 20
44.978027491455
 30
0.0
 40
6.935630000000001
100
AcDbArc
 50
282.571898360404
 51
310.557678088908
  0
LINE
  5
3F4C
330
3F30
100
AcDbEntity
  8
細線
100
AcDbLine
 10
-2690.476341893282
 20
44.208679991455
 30
0.0
 11
-2690.476341893282
 21
39.708634991455
 31
0.0
  0
ARC
  5
3F4D
330
3F30
100
AcDbEntity
  8
外形線
100
AcDbCircle
 10
-2696.783982262284
 20
49.958619991455
 30
0.0
 40
1.75
100
AcDbArc
 50
181.920706503579
 51
270.0
  0
LINE
  5
3F4E
330
3F30
100
AcDbEntity
  8
外形線
100
AcDbLine
 10
-2693.476294393282
 20
38.208619991455
 30
0.0
 11
-2696.476326893282
 21
39.708634991455
 31
0.0
  0
LINE
  5
3F4F
330
3F30
100
AcDbEntity
  8
外形線
100
AcDbLine
 10
-2696.476326893282
 20
44.208679991455
 30
0.0
 11
-2696.476326893282
 21
39.708634991455
 31
0.0
  0
LINE
  5
3F50
330
3F30
100
AcDbEntity
  8
外形線
100
AcDbLine
 10
-2694.726371893282
 20
44.208679991455
 30
0.0
 11
-2694.726371893282
 21
48.208619991455
 31
0.0
  0
LINE
  5
3F51
330
3F30
100
AcDbEntity
  8
細線
100
AcDbLine
 10
-2692.226371893282
 20
48.208619991455
 30
0.0
 11
-2692.226371893282
 21
44.208679991455
 31
0.0
  0
ARC
  5
3F52
330
3F30
100
AcDbEntity
  8
細線
100
AcDbCircle
 10
-2673.966711893282
 20
44.978027491455
 30
0.0
 40
6.935630000000001
100
AcDbArc
 50
229.442381454625
 51
257.428103887329
  0
LINE
  5
3F53
330
3F30
100
AcDbEntity
  8
細線
100
AcDbLine
 10
-2678.476371893282
 20
44.208679991455
 30
0.0
 11
-2678.476371893282
 21
39.708634991455
 31
0.0
  0
ARC
  5
3F54
330
3F30
100
AcDbEntity
  8
外形線
100
AcDbCircle
 10
-2672.16857652428
 20
49.958619991455
 30
0.0
 40
1.75
100
AcDbArc
 50
270.0
 51
358.079293496421
  0
LINE
  5
3F55
330
3F30
100
AcDbEntity
  8
外形線
100
AcDbLine
 10
-2675.476416893282
 20
38.208619991455
 30
0.0
 11
-2672.476386893281
 21
39.708634991455
 31
0.0
  0
LINE
  5
3F56
330
3F30
100
AcDbEntity
  8
外形線
100
AcDbLine
 10
-2672.476386893281
 20
44.208679991455
 30
0.0
 11
-2672.476386893281
 21
39.708634991455
 31
0.0
  0
LINE
  5
3F57
330
3F30
100
AcDbEntity
  8
外形線
100
AcDbLine
 10
-2674.226341893282
 20
44.208679991455
 30
0.0
 11
-2674.226341893282
 21
48.208619991455
 31
0.0
  0
LINE
  5
3F58
330
3F30
100
AcDbEntity
  8
細線
100
AcDbLine
 10
-2676.726341893282
 20
48.208619991455
 30
0.0
 11
-2676.726341893282
 21
44.208679991455
 31
0.0
  0
LINE
  5
3F59
330
3F30
100
AcDbEntity
  8
外形線
100
AcDbLine
 10
-2669.035476521899
 20
66.942987095177
 30
0.0
 11
-2710.726279393282
 21
64.487987499337
 31
0.0
  0
LINE
  5
3F5A
330
3F30
100
AcDbEntity
  8
外形線
100
AcDbLine
 10
-2727.476311893282
 20
59.091034991455
 30
0.0
 11
-2710.726279393282
 21
59.091034991455
 31
0.0
  0
LINE
  5
3F5B
330
3F30
100
AcDbEntity
  8
外形線
100
AcDbLine
 10
-2734.476279393282
 20
61.091004991455
 30
0.0
 11
-2727.476311893282
 21
60.090942491455
 31
0.0
  0
ARC
  5
3F5C
330
3F30
100
AcDbEntity
  8
外形線
100
AcDbCircle
 10
-2701.457936254356
 20
62.52943135441
 30
0.0
 40
2.5
100
AcDbArc
 50
1.920706503578
 51
93.370020731035
  0
ARC
  5
3F5D
330
3F30
100
AcDbEntity
  8
外形線
100
AcDbCircle
 10
-2669.476356893282
 20
74.430017514385
 30
0.0
 40
7.5
100
AcDbArc
 50
273.370020731035
 51
0.0
  0
ARC
  5
3F5E
330
3F30
100
AcDbEntity
  8
外形線
100
AcDbCircle
 10
-2668.638523425194
 20
65.714196686138
 30
0.0
 40
1.25
100
AcDbArc
 50
93.370020731035
 51
178.079293496416
  0
LINE
  5
3F5F
330
3F30
100
AcDbEntity
  8
外形線
100
AcDbLine
 10
-2668.696909717885
 20
66.327549771575
 30
0.0
 11
-2668.702025004842
 21
66.327329241545
 31
0.0
  0
LINE
  5
3F60
330
3F30
100
AcDbEntity
  8
外形線
100
AcDbLine
 10
-2659.476431893282
 20
137.090989991455
 30
0.0
 11
-2659.476431893282
 21
97.090989991455
 31
0.0
  0
ARC
  5
3F61
330
3F30
100
AcDbEntity
  8
外形線
100
AcDbCircle
 10
-2659.810981893283
 20
94.876862491455
 30
0.0
 40
2.2392525
100
AcDbArc
 50
81.407104039339
 51
165.246528510564
  0
ARC
  5
3F62
330
3F30
100
AcDbEntity
  8
外形線
100
AcDbCircle
 10
-2659.810981893283
 20
139.305114991455
 30
0.0
 40
2.2392525
100
AcDbArc
 50
194.753453889341
 51
278.592935656337
  0
ARC
  5
3F63
330
3F30
100
AcDbEntity
  8
外形線
100
AcDbCircle
 10
-2669.476356893282
 20
150.752022468528
 30
0.0
 40
7.5
100
AcDbArc
 50
0.0
 51
86.629979268965
  0
LINE
  5
3F64
330
3F30
100
AcDbEntity
  8
外形線
100
AcDbLine
 10
-2781.476279393282
 20
194.590989991455
 30
0.0
 11
-2771.476279393282
 21
194.590989991455
 31
0.0
  0
LINE
  5
3F65
330
3F30
100
AcDbEntity
  8
中心線
 48
10.0
100
AcDbLine
 10
-2788.963156893282
 20
182.090989991455
 30
0.0
 11
-2763.212614393282
 21
182.090989991455
 31
0.0
  0
LINE
  5
3F66
330
3F30
100
AcDbEntity
  8
外形線
100
AcDbLine
 10
-2710.726279393282
 20
166.091004991455
 30
0.0
 11
-2727.476311893282
 21
166.091004991455
 31
0.0
  0
LINE
  5
3F67
330
3F30
100
AcDbEntity
  8
外形線
100
AcDbLine
 10
-2734.476279393282
 20
164.091034991455
 30
0.0
 11
-2727.476311893282
 21
165.090942491455
 31
0.0
  0
ENDBLK
  5
3F68
330
3F30
100
AcDbEntity
  8
0
 48
10.0
100
AcDbBlockEnd
  0
BLOCK
  5
3F7F
330
3F7D
100
AcDbEntity
  8
0
 48
10.0
100
AcDbBlockBegin
  2
A$C16143EC0
 70
     0
 10
0.0
 20
0.0
 30
0.0
  3
A$C16143EC0
  1
A$C16143EC0
  0
INSERT
  5
3F7E
330
3F7D
100
AcDbEntity
  8
外形線
100
AcDbBlockReference
  2
ケース外形図_HL101
 10
2788.963159465442
 20
-28.023839097048
 30
0.0
  0
ENDBLK
  5
3F80
330
3F7D
100
AcDbEntity
  8
0
 48
10.0
100
AcDbBlockEnd
  0
BLOCK
  5
4029
330
401F
100
AcDbEntity
  8
0
 48
10.0
100
AcDbBlockBegin
  2
*D5
 70
     1
 10
0.0
 20
0.0
 30
0.0
  3
*D5
  1
*D5
  0
LINE
  5
5A82
330
401F
100
AcDbEntity
  8
寸法線
 62
     0
 48
10.0
100
AcDbLine
 10
669.431668754075
 20
424.07961703916
 30
0.0
 11
668.806668754074
 21
424.07961703916
 31
0.0
  0
LINE
  5
5A83
330
401F
100
AcDbEntity
  8
寸法線
 62
     0
 48
10.0
100
AcDbLine
 10
669.431680497758
 20
390.07961703916
 30
0.0
 11
668.806668754074
 21
390.07961703916
 31
0.0
  0
LINE
  5
5A84
330
401F
100
AcDbEntity
  8
寸法線
 62
     0
 48
10.0
100
AcDbLine
 10
670.056668754074
 20
424.07961703916
 30
0.0
 11
670.056668754074
 21
454.496283705827
 31
0.0
  0
LINE
  5
5A85
330
401F
100
AcDbEntity
  8
寸法線
 62
     0
 48
10.0
100
AcDbLine
 10
670.056668754074
 20
418.07961703916
 30
0.0
 11
670.056668754074
 21
396.07961703916
 31
0.0
  0
INSERT
  5
5A86
330
401F
100
AcDbEntity
  8
寸法線
 62
     0
100
AcDbBlockReference
  2
_OPEN30
 10
670.056668754074
 20
424.07961703916
 30
0.0
 41
6.0
 42
6.0
 43
6.0
 50
90.0
  0
INSERT
  5
5A87
330
401F
100
AcDbEntity
  8
寸法線
 62
     0
100
AcDbBlockReference
  2
_OPEN30
 10
670.056668754074
 20
390.07961703916
 30
0.0
 41
6.0
 42
6.0
 43
6.0
 50
270.0
  0
MTEXT
  5
5A88
330
401F
100
AcDbEntity
  8
寸法線
 62
     0
 48
10.0
100
AcDbMText
 10
664.426460420741
 20
442.45461703916
 30
0.0
 40
10.0
 41
0.0
 71
     5
 72
     1
  1
\A1;φ34
 11
0.0
 21
1.0
 31
0.0
  0
POINT
  5
5A89
330
401F
100
AcDbEntity
  8
DEFPOINTS
 62
     0
100
AcDbPoint
 10
670.056668754075
 20
424.07961703916
 30
0.0
  0
POINT
  5
5A8A
330
401F
100
AcDbEntity
  8
DEFPOINTS
 62
     0
100
AcDbPoint
 10
670.056680497758
 20
390.07961703916
 30
0.0
  0
POINT
  5
5A8B
330
401F
100
AcDbEntity
  8
DEFPOINTS
 62
     0
100
AcDbPoint
 10
670.056668754074
 20
390.07961703916
 30
0.0
  0
ENDBLK
  5
402A
330
401F
100
AcDbEntity
  8
0
 48
10.0
100
AcDbBlockEnd
  0
BLOCK
  5
4201
330
4200
100
AcDbEntity
  8
0
 48
10.0
100
AcDbBlockBegin
  2
パドル_W1
 70
     0
 10
0.0
 20
0.0
 30
0.0
  3
パドル_W1
  1
パドル_W1
  0
LINE
  5
4202
330
4200
100
AcDbEntity
  8
中心線
 48
10.0
100
AcDbLine
 10
124.6832879095
 20
220.674073777677
 30
0.0
 11
131.9189439095
 21
220.674073777677
 31
0.0
  0
LINE
  5
4203
330
4200
100
AcDbEntity
  8
外形線
 48
10.0
100
AcDbLine
 10
58.3011159095
 20
260.651761921811
 30
0.0
 11
58.3011159095
 21
180.651761921811
 31
0.0
  0
LINE
  5
4204
330
4200
100
AcDbEntity
  8
外形線
 48
10.0
100
AcDbLine
 10
58.3011159095
 20
180.651761921811
 30
0.0
 11
123.3011159095
 21
180.651761921811
 31
0.0
  0
LINE
  5
4205
330
4200
100
AcDbEntity
  8
外形線
 48
10.0
100
AcDbLine
 10
138.3011159095
 20
208.651761921811
 30
0.0
 11
138.3011159095
 21
212.376811207105
 31
0.0
  0
LINE
  5
4206
330
4200
100
AcDbEntity
  8
外形線
 48
10.0
100
AcDbLine
 10
123.3011159095
 20
260.651761921811
 30
0.0
 11
58.3011159095
 21
260.651761921811
 31
0.0
  0
LINE
  5
4207
330
4200
100
AcDbEntity
  8
外形線
 48
10.0
100
AcDbLine
 10
138.3011159095
 20
232.651761921811
 30
0.0
 11
123.3011159095
 21
260.651761921811
 31
0.0
  0
LINE
  5
4208
330
4200
100
AcDbEntity
  8
外形線
 48
10.0
100
AcDbLine
 10
138.3011159095
 20
208.651761921811
 30
0.0
 11
123.3011159095
 21
180.651761921811
 31
0.0
  0
LINE
  5
4209
330
4200
100
AcDbEntity
  8
外形線
 48
10.0
100
AcDbLine
 10
153.3011159095
 20
212.376811207105
 30
0.0
 11
153.3011159095
 21
228.941629207105
 31
0.0
  0
LINE
  5
420A
330
4200
100
AcDbEntity
  8
外形線
100
AcDbLine
 10
125.0147379095
 20
212.376811207105
 30
0.0
 11
153.3011159095
 21
212.376811207105
 31
0.0
  0
LINE
  5
420B
330
4200
100
AcDbEntity
  8
細線
100
AcDbLine
 10
153.2891519095
 20
216.518045207105
 30
0.0
 11
124.6692799095
 21
216.518045207105
 31
0.0
  0
LINE
  5
420C
330
4200
100
AcDbEntity
  8
外形線
100
AcDbLine
 10
125.0147379095
 20
228.941629207105
 30
0.0
 11
123.3011159095
 21
227.228007207105
 31
0.0
  0
ARC
  5
420D
330
4200
100
AcDbEntity
  8
細線
100
AcDbCircle
 10
126.4810479095
 20
227.420755207105
 30
0.0
 40
3.18575
100
AcDbArc
 50
183.469852255156
 51
235.339263082109
  0
LINE
  5
420E
330
4200
100
AcDbEntity
  8
細線
100
AcDbLine
 10
153.2891519095
 20
224.800395207105
 30
0.0
 11
124.6692799095
 21
224.800395207105
 31
0.0
  0
ARC
  5
420F
330
4200
100
AcDbEntity
  8
細線
100
AcDbCircle
 10
126.4810479095
 20
213.897685207105
 30
0.0
 40
3.18575
100
AcDbArc
 50
124.660776613574
 51
176.530130144749
  0
LINE
  5
4210
330
4200
100
AcDbEntity
  8
外形線
100
AcDbLine
 10
123.3011159095
 20
227.228007207105
 30
0.0
 11
123.3011159095
 21
214.090433207105
 31
0.0
  0
CIRCLE
  5
4211
330
4200
100
AcDbEntity
  8
外形線
100
AcDbCircle
 10
128.3011159095
 20
220.674073777677
 30
0.0
 40
2.28479
  0
ARC
  5
4212
330
4200
100
AcDbEntity
  8
細線
100
AcDbCircle
 10
130.2525019095
 20
220.659219207105
 30
0.0
 40
6.951389999999999
100
AcDbArc
 50
143.43540034864
 51
216.564582051267
  0
LINE
  5
4213
330
4200
100
AcDbEntity
  8
中心線
 48
10.0
100
AcDbLine
 10
128.3011159095
 20
224.291901777677
 30
0.0
 11
128.3011159095
 21
217.056245777676
 31
0.0
  0
LINE
  5
4214
330
4200
100
AcDbEntity
  8
外形線
100
AcDbLine
 10
125.0147379095
 20
212.376811207105
 30
0.0
 11
123.3011159095
 21
214.090433207105
 31
0.0
  0
LINE
  5
4215
330
4200
100
AcDbEntity
  8
外形線
100
AcDbLine
 10
125.0147379095
 20
228.941629207105
 30
0.0
 11
153.3011159095
 21
228.941629207105
 31
0.0
  0
LINE
  5
4216
330
4200
100
AcDbEntity
  8
外形線
 48
10.0
100
AcDbLine
 10
138.3011159095
 20
228.941629207105
 30
0.0
 11
138.3011159095
 21
232.651761921811
 31
0.0
  0
ENDBLK
  5
4217
330
4200
100
AcDbEntity
  8
0
 48
10.0
100
AcDbBlockEnd
  0
BLOCK
  5
4219
330
4218
100
AcDbEntity
  8
0
 48
10.0
100
AcDbBlockBegin
  2
パドル_W1立面図
 70
     0
 10
0.0
 20
0.0
 30
0.0
  3
パドル_W1立面図
  1
パドル_W1立面図
  0
LINE
  5
421A
330
4218
100
AcDbEntity
  8
外形線
 48
10.0
100
AcDbLine
 10
-4.385455455444
 20
189.61846140322
 30
0.0
 11
-7.241459969979
 21
189.61846140322
 31
0.0
  0
LINE
  5
421B
330
4218
100
AcDbEntity
  8
外形線
 48
10.0
100
AcDbLine
 10
-4.385455455444
 20
269.61846140322
 30
0.0
 11
-7.241459969979
 21
269.61846140322
 31
0.0
  0
LINE
  5
421C
330
4218
100
AcDbEntity
  8
外形線
 48
10.0
100
AcDbLine
 10
-4.385455455444
 20
189.61846140322
 30
0.0
 11
-4.385455455444
 21
269.61846140322
 31
0.0
  0
LINE
  5
421D
330
4218
100
AcDbEntity
  8
外形線
 48
10.0
100
AcDbLine
 10
-7.241459969979
 20
269.61846140322
 30
0.0
 11
-7.241459969979
 21
189.61846140322
 31
0.0
  0
LINE
  5
421E
330
4218
100
AcDbEntity
  8
外形線
100
AcDbLine
 10
-4.385468503734
 20
237.376935973808
 30
0.0
 11
1.606659496266
 21
233.917433973808
 31
0.0
  0
ARC
  5
421F
330
4218
100
AcDbEntity
  8
細線
100
AcDbCircle
 10
-5.813446503734
 20
229.633375973808
 30
0.0
 40
8.568
100
AcDbArc
 50
279.594007516002
 51
80.406014579591
  0
LINE
  5
4220
330
4218
100
AcDbEntity
  8
外形線
100
AcDbLine
 10
1.606659496266
 20
233.917433973808
 30
0.0
 11
1.606659496266
 21
225.349439973808
 31
0.0
  0
LINE
  5
4221
330
4218
100
AcDbEntity
  8
外形線
100
AcDbLine
 10
-4.385468503734
 20
221.889815973808
 30
0.0
 11
1.606659496266
 21
225.349439973808
 31
0.0
  0
ARC
  5
4222
330
4218
100
AcDbEntity
  8
細線
100
AcDbCircle
 10
-5.813446503734
 20
229.633375973808
 30
0.0
 40
7.458525999999999
100
AcDbArc
 50
281.037746568172
 51
78.962275527419
  0
LINE
  5
4223
330
4218
100
AcDbEntity
  8
外形線
100
AcDbLine
 10
-7.241454503734
 20
221.889845973808
 30
0.0
 11
-13.233550503734
 21
225.349439973808
 31
0.0
  0
LINE
  5
4224
330
4218
100
AcDbEntity
  8
外形線
100
AcDbLine
 10
-13.233550503734
 20
225.349439973808
 30
0.0
 11
-13.233550503734
 21
233.917433973808
 31
0.0
  0
LINE
  5
4225
330
4218
100
AcDbEntity
  8
外形線
100
AcDbLine
 10
-7.241454503734
 20
237.376905973808
 30
0.0
 11
-13.233550503734
 21
233.917433973808
 31
0.0
  0
ARC
  5
4226
330
4218
100
AcDbEntity
  8
細線
100
AcDbCircle
 10
-5.813446503734
 20
229.633375973808
 30
0.0
 40
7.458525999999999
100
AcDbArc
 50
101.038013199227
 51
258.962026496458
  0
ARC
  5
4227
330
4218
100
AcDbEntity
  8
細線
100
AcDbCircle
 10
-5.813446503734
 20
229.633375973808
 30
0.0
 40
8.568
100
AcDbArc
 50
99.594159555498
 51
260.405880140189
  0
ENDBLK
  5
4228
330
4218
100
AcDbEntity
  8
0
 48
10.0
100
AcDbBlockEnd
  0
BLOCK
  5
42BE
330
42BD
100
AcDbEntity
  8
0
 48
10.0
100
AcDbBlockBegin
  2
ケース外形図_PRL-101
 70
     0
 10
0.0
 20
0.0
 30
0.0
  3
ケース外形図_PRL-101
  1
ケース外形図_PRL-101
  0
LINE
  5
42BF
330
42BD
100
AcDbEntity
  8
細線
100
AcDbLine
 10
-2665.991042960005
 20
861.623968537874
 30
0.0
 11
-2665.991042960005
 21
873.047918537874
 31
0.0
  0
LINE
  5
42C0
330
42BD
100
AcDbEntity
  8
外形線
100
AcDbLine
 10
-2631.433426960005
 20
830.779118537874
 30
0.0
 11
-2631.433426960005
 21
873.267522537874
 31
0.0
  0
LINE
  5
42C1
330
42BD
100
AcDbEntity
  8
細線
100
AcDbLine
 10
-2662.278274960006
 20
879.331120537874
 30
0.0
 11
-2662.278274960006
 21
782.227116537874
 31
0.0
  0
LINE
  5
42C2
330
42BD
100
AcDbEntity
  8
細線
100
AcDbLine
 10
-2690.838210960005
 20
876.475164537874
 30
0.0
 11
-2690.838210960005
 21
787.771428537874
 31
0.0
  0
LINE
  5
42C3
330
42BD
100
AcDbEntity
  8
外形線
100
AcDbLine
 10
-2681.699050960005
 20
779.779118537874
 30
0.0
 11
-2681.699050960005
 21
881.779118537874
 31
0.0
  0
LINE
  5
42C4
330
42BD
100
AcDbEntity
  8
外形線
100
AcDbLine
 10
-2683.698196960006
 20
881.779118537874
 30
0.0
 11
-2683.698196960006
 21
779.779118537874
 31
0.0
  0
LINE
  5
42C5
330
42BD
100
AcDbEntity
  8
細線
100
AcDbLine
 10
-2687.982254960006
 20
881.779118537874
 30
0.0
 11
-2687.982254960006
 21
779.779118537874
 31
0.0
  0
LWPOLYLINE
  5
42C6
330
42BD
100
AcDbEntity
  8
外形線
100
AcDbPolyline
 90
       67
 70
     0
 43
0.0
 10
-2727.912532980931
 20
874.395574537874
 10
-2727.953293836579
 20
874.383826783906
 10
-2728.068477575312
 20
874.349444977304
 10
-2728.247435954815
 20
874.293721301034
 10
-2728.479520732777
 20
874.21794793805
 10
-2728.754083666881
 20
874.123417071316
 10
-2729.060476514815
 20
874.011420883788
 10
-2729.388051034263
 20
873.88325155843
 10
-2729.726158982913
 20
873.7402012782
 10
-2730.064152118452
 20
873.583562226056
 10
-2730.391382198563
 20
873.414626584962
 10
-2730.697200980931
 20
873.234686537874
 10
-2731.041719305219
 20
872.992715407982
 10
-2731.339825881913
 20
872.736545218548
 10
-2731.596572968897
 20
872.467567585962
 10
-2731.817012824054
 20
872.187174126604
 10
-2732.006197705261
 20
871.89675645686
 10
-2732.169179870401
 20
871.597706193118
 10
-2732.311011577355
 20
871.29141495176
 10
-2732.436745084005
 20
870.979274349172
 10
-2732.551432648232
 20
870.662676001738
 10
-2732.660126527911
 20
870.343011525844
 10
-2732.767878980932
 20
870.021672537874
 10
-2732.995558529487
 20
869.37320130124
 10
-2733.238969065791
 20
868.724486172106
 10
-2733.497161102815
 20
868.07643116072
 10
-2733.769185153524
 20
867.429940277324
 10
-2734.054091730885
 20
866.785917532164
 10
-2734.350931347865
 20
866.145266935484
 10
-2734.658754517435
 20
865.508892497532
 10
-2734.976611752558
 20
864.87769822855
 10
-2735.303553566203
 20
864.252588138782
 10
-2735.63863047134
 20
863.634466238476
 10
-2735.980892980931
 20
863.024236537874
 10
-2736.239184000456
 20
862.576129792738
 10
-2736.499800442533
 20
862.13135252633
 10
-2736.761624540767
 20
861.688377507542
 10
-2737.023538528765
 20
861.245677505256
 10
-2737.284424640132
 20
860.801725288362
 10
-2737.543165108469
 20
860.354993625746
 10
-2737.798642167385
 20
859.903955286294
 10
-2738.049738050485
 20
859.447083038896
 10
-2738.295334991371
 20
858.982849652434
 10
-2738.534315223654
 20
858.509727895798
 10
-2738.765560980932
 20
858.026190537874
 10
-2738.926994170605
 20
857.672921160886
 10
-2739.088946663412
 20
857.318424143266
 10
-2739.256494321417
 20
856.967619238842
 10
-2739.434713006694
 20
856.625426201446
 10
-2739.628678581305
 20
856.2967647849
 10
-2739.843466907328
 20
855.986554743034
 10
-2740.084153846823
 20
855.699715829676
 10
-2740.355815261862
 20
855.441167798654
 10
-2740.663527014515
 20
855.215830403794
 10
-2741.012364966849
 20
855.028623398926
 10
-2741.407404980931
 20
854.884466537874
 10
-2741.846256471285
 20
854.786974295384
 10
-2742.319481250513
 20
854.73005829347
 10
-2742.811030401751
 20
854.707125389318
 10
-2743.304855008141
 20
854.711582440116
 10
-2743.784906152826
 20
854.736836303046
 10
-2744.235134918943
 20
854.776293835296
 10
-2744.639492389633
 20
854.823361894054
 10
-2744.981929648037
 20
854.871447336504
 10
-2745.246397777295
 20
854.913957019834
 10
-2745.416847860545
 20
854.944297801228
 10
-2745.477230980931
 20
854.955876537874
  0
LINE
  5
42C7
330
42BD
100
AcDbEntity
  8
細線
100
AcDbLine
 10
-2731.710140980931
 20
869.906346537874
 30
0.0
 11
-2731.710140980931
 21
791.651952537874
 31
0.0
  0
LINE
  5
42C8
330
42BD
100
AcDbEntity
  8
外形線
100
AcDbLine
 10
-2761.698196960006
 20
908.279118537874
 30
0.0
 11
-2761.698196960006
 21
753.279118537874
 31
0.0
  0
LINE
  5
42C9
330
42BD
100
AcDbEntity
  8
外形線
100
AcDbLine
 10
-2771.698196960006
 20
753.279118537874
 30
0.0
 11
-2771.698196960006
 21
908.279118537874
 31
0.0
  0
LINE
  5
42CA
330
42BD
100
AcDbEntity
  8
中心線
 48
10.0
100
AcDbLine
 10
-2781.983253975795
 20
765.779118537874
 30
0.0
 11
-2749.379418022688
 21
765.779118537874
 31
0.0
  0
LINE
  5
42CB
330
42BD
100
AcDbEntity
  8
中心線
 48
10.0
100
AcDbLine
 10
-2704.698196960006
 20
804.438298537874
 30
0.0
 11
-2704.698196960006
 21
748.836004537874
 31
0.0
  0
LINE
  5
42CC
330
42BD
100
AcDbEntity
  8
外形線
100
AcDbLine
 10
-2689.051423549413
 20
778.91101237705
 30
0.0
 11
-2690.659505049885
 21
766.825284453168
 31
0.0
  0
LINE
  5
42CD
330
42BD
100
AcDbEntity
  8
外形線
100
AcDbLine
 10
-2720.961012960005
 20
784.312322537874
 30
0.0
 11
-2718.725906960005
 21
766.839604537874
 31
0.0
  0
LINE
  5
42CE
330
42BD
100
AcDbEntity
  8
外形線
100
AcDbLine
 10
-2771.698196960006
 20
753.279118537874
 30
0.0
 11
-2761.698196960006
 21
753.279118537874
 31
0.0
  0
ARC
  5
42CF
330
42BD
100
AcDbEntity
  8
外形線
100
AcDbCircle
 10
-2693.490554960005
 20
767.201970537874
 30
0.0
 40
2.856
100
AcDbArc
 50
270.0
 51
352.421011277475
  0
ARC
  5
42D0
330
42BD
100
AcDbEntity
  8
細線
100
AcDbCircle
 10
-2691.275832960006
 20
773.224066537874
 30
0.0
 40
18.322924
100
AcDbArc
 50
247.068453993571
 51
267.322397459894
  0
LINE
  5
42D1
330
42BD
100
AcDbEntity
  8
外形線
100
AcDbLine
 10
-2717.264602960006
 20
754.921148537874
 30
0.0
 11
-2692.131788960005
 21
754.921148537874
 31
0.0
  0
LINE
  5
42D2
330
42BD
100
AcDbEntity
  8
外形線
100
AcDbLine
 10
-2718.692580960005
 20
760.061956537874
 30
0.0
 11
-2690.703688960005
 21
760.061956537874
 31
0.0
  0
LINE
  5
42D3
330
42BD
100
AcDbEntity
  8
細線
100
AcDbLine
 10
-2697.558180960005
 20
764.345952537874
 30
0.0
 11
-2697.558180960005
 21
760.061956537874
 31
0.0
  0
LINE
  5
42D4
330
42BD
100
AcDbEntity
  8
外形線
100
AcDbLine
 10
-2695.273390960006
 20
760.061956537874
 30
0.0
 11
-2695.273390960006
 21
764.345952537874
 31
0.0
  0
LINE
  5
42D5
330
42BD
100
AcDbEntity
  8
細線
100
AcDbLine
 10
-2698.414992960005
 20
756.349188537874
 30
0.0
 11
-2698.414992960005
 21
760.061956537874
 31
0.0
  0
LINE
  5
42D6
330
42BD
100
AcDbEntity
  8
細線
100
AcDbLine
 10
-2711.838210960005
 20
764.345952537874
 30
0.0
 11
-2711.838210960005
 21
760.061956537874
 31
0.0
  0
LINE
  5
42D7
330
42BD
100
AcDbEntity
  8
外形線
100
AcDbLine
 10
-2714.123000960005
 20
760.061956537874
 30
0.0
 11
-2714.123000960005
 21
764.345952537874
 31
0.0
  0
ARC
  5
42D8
330
42BD
100
AcDbEntity
  8
外形線
100
AcDbCircle
 10
-2715.893020960006
 20
767.201970537874
 30
0.0
 40
2.856
100
AcDbArc
 50
187.289418100615
 51
270.0
  0
ARC
  5
42D9
330
42BD
100
AcDbEntity
  8
細線
100
AcDbCircle
 10
-2718.120558960006
 20
773.224066537874
 30
0.0
 40
18.322924
100
AcDbArc
 50
272.67766208363
 51
292.93154825417
  0
LINE
  5
42DA
330
42BD
100
AcDbEntity
  8
外形線
100
AcDbLine
 10
-2718.692580960005
 20
756.349188537874
 30
0.0
 11
-2717.264602960006
 21
754.921148537874
 31
0.0
  0
LINE
  5
42DB
330
42BD
100
AcDbEntity
  8
細線
100
AcDbLine
 10
-2710.981398960005
 20
756.349188537874
 30
0.0
 11
-2710.981398960005
 21
760.061956537874
 31
0.0
  0
LINE
  5
42DC
330
42BD
100
AcDbEntity
  8
外形線
100
AcDbLine
 10
-2718.692580960005
 20
760.061956537874
 30
0.0
 11
-2718.692580960005
 21
756.349188537874
 31
0.0
  0
LINE
  5
42DD
330
42BD
100
AcDbEntity
  8
外形線
100
AcDbLine
 10
-2715.893020960006
 20
764.345982537874
 30
0.0
 11
-2693.490554960005
 21
764.345982537874
 31
0.0
  0
ARC
  5
42DE
330
42BD
100
AcDbEntity
  8
細線
100
AcDbCircle
 10
-2704.698196960006
 20
769.457830537874
 30
0.0
 40
14.53669
100
AcDbArc
 50
244.390793033801
 51
295.609209213941
  0
LINE
  5
42DF
330
42BD
100
AcDbEntity
  8
外形線
100
AcDbLine
 10
-2690.703688960005
 20
756.349188537874
 30
0.0
 11
-2692.131788960005
 21
754.921148537874
 31
0.0
  0
LINE
  5
42E0
330
42BD
100
AcDbEntity
  8
外形線
100
AcDbLine
 10
-2690.703688960005
 20
760.061956537874
 30
0.0
 11
-2690.703688960005
 21
756.349188537874
 31
0.0
  0
ARC
  5
42E1
330
42BD
100
AcDbEntity
  8
外形線
100
AcDbCircle
 10
-2666.317092960006
 20
857.629704537874
 30
0.0
 40
4.015794000000001
100
AcDbArc
 50
274.656944786914
 51
84.065438721313
  0
ARC
  5
42E2
330
42BD
100
AcDbEntity
  8
外形線
100
AcDbCircle
 10
-2667.278152960005
 20
830.196722537874
 30
0.0
 40
5.033766
100
AcDbArc
 50
6.644133183896
 51
75.184725088441
  0
ARC
  5
42E3
330
42BD
100
AcDbEntity
  8
外形線
100
AcDbCircle
 10
-2667.278152960005
 20
831.361638537874
 30
0.0
 40
5.033766
100
AcDbArc
 50
284.815257311477
 51
353.355849216014
  0
ARC
  5
42E4
330
42BD
100
AcDbEntity
  8
外形線
100
AcDbCircle
 10
-2666.317092960006
 20
803.928656537874
 30
0.0
 40
4.015794000000001
100
AcDbArc
 50
275.934583374273
 51
85.343077308664
  0
LINE
  5
42E5
330
42BD
100
AcDbEntity
  8
外形線
100
AcDbLine
 10
-2662.278274960006
 20
782.227116537874
 30
0.0
 11
-2665.991042960005
 21
779.779118537874
 31
0.0
  0
LINE
  5
42E6
330
42BD
100
AcDbEntity
  8
外形線
100
AcDbLine
 10
-2663.950942960006
 20
788.510320537874
 30
0.0
 11
-2681.699050960005
 21
788.510320537874
 31
0.0
  0
LINE
  5
42E7
330
42BD
100
AcDbEntity
  8
外形線
100
AcDbLine
 10
-2663.950942960006
 20
785.083196537874
 30
0.0
 11
-2681.699050960005
 21
785.083196537874
 31
0.0
  0
LINE
  5
42E8
330
42BD
100
AcDbEntity
  8
細線
100
AcDbLine
 10
-2665.991042960005
 20
826.495184537874
 30
0.0
 11
-2665.991042960005
 21
807.931096537874
 31
0.0
  0
LINE
  5
42E9
330
42BD
100
AcDbEntity
  8
細線
100
AcDbLine
 10
-2743.991024980932
 20
853.627142537874
 30
0.0
 11
-2743.991024980932
 21
807.931096537874
 31
0.0
  0
ARC
  5
42EA
330
42BD
100
AcDbEntity
  8
外形線
100
AcDbCircle
 10
-2723.793898960005
 20
783.949896537874
 30
0.0
 40
2.856
100
AcDbArc
 50
7.289398252773
 51
86.905894590757
  0
LWPOLYLINE
  5
42EB
330
42BD
100
AcDbEntity
  8
外形線
100
AcDbPolyline
 90
       67
 70
     0
 43
0.0
 10
-2727.912532980931
 20
787.162664537874
 10
-2727.953293899852
 20
787.174412216412
 10
-2728.068477803089
 20
787.208793826894
 10
-2728.247436410369
 20
787.264517231616
 10
-2728.479521441415
 20
787.340290292878
 10
-2728.754084615951
 20
787.434820872976
 10
-2729.060477653697
 20
787.546816834212
 10
-2729.388052274381
 20
787.674986038882
 10
-2729.726160197723
 20
787.818036349284
 10
-2730.064153143446
 20
787.974675627718
 10
-2730.391382831275
 20
788.143611736482
 10
-2730.697200980931
 20
788.323552537874
 10
-2731.041726713515
 20
788.565531765468
 10
-2731.339837921853
 20
788.821711229278
 10
-2731.596587295491
 20
789.09069912024
 10
-2731.817027523977
 20
789.371103629292
 10
-2732.006211296854
 20
789.66153294737
 10
-2732.169191303669
 20
789.960595265412
 10
-2732.311020233969
 20
790.266898774354
 10
-2732.436750777299
 20
790.579051665134
 10
-2732.551435623205
 20
790.89566212869
 10
-2732.660127461236
 20
791.215338355958
 10
-2732.767878980932
 20
791.536688537874
 10
-2732.995551300265
 20
792.185153437188
 10
-2733.238958623558
 20
792.833859637758
 10
-2733.497150606985
 20
793.48190367618
 10
-2733.769176906731
 20
794.128382089052
 10
-2734.054087178974
 20
794.77239141297
 10
-2734.350931079894
 20
795.413028184532
 10
-2734.658758265669
 20
796.049388940332
 10
-2734.976618392481
 20
796.680570216972
 10
-2735.30356111651
 20
797.305668551042
 10
-2735.638636093933
 20
797.923780479144
 10
-2735.980892980931
 20
798.534002537874
 10
-2736.239185655735
 20
798.982120060822
 10
-2736.499801955925
 20
799.426909071612
 10
-2736.761624603811
 20
799.869896500038
 10
-2737.0235363217
 20
800.312609275896
 10
-2737.284419831899
 20
800.756574328984
 10
-2737.543157856721
 20
801.203318589094
 10
-2737.798633118471
 20
801.654368986026
 10
-2738.049728339459
 20
802.111252449574
 10
-2738.295326241991
 20
802.575495909534
 10
-2738.534309548381
 20
803.048626295702
 10
-2738.765560980932
 20
803.532170537874
 10
-2738.926993461338
 20
803.885428916062
 10
-2739.088946755864
 20
804.239913758744
 10
-2739.256496270204
 20
804.590705697996
 10
-2739.434717410046
 20
804.932885365896
 10
-2739.628685581078
 20
805.261533394522
 10
-2739.843476188994
 20
805.571730415952
 10
-2740.084164639479
 20
805.858557062262
 10
-2740.355826338227
 20
806.117093965532
 10
-2740.663536690926
 20
806.34242175784
 10
-2741.012371103264
 20
806.52962107126
 10
-2741.407404980931
 20
806.673772537874
 10
-2741.846258080313
 20
806.771263661646
 10
-2742.319483857135
 20
806.828178969956
 10
-2742.811033491082
 20
806.851111538492
 10
-2743.304858161833
 20
806.846654442948
 10
-2743.784909049074
 20
806.821400759012
 10
-2744.235137332481
 20
806.781943562376
 10
-2744.639494191742
 20
806.73487592873
 10
-2744.981930806535
 20
806.686790933768
 10
-2745.246398356543
 20
806.644281653176
 10
-2745.416848021449
 20
806.613941162648
 10
-2745.477230980931
 20
806.602362537874
  0
LINE
  5
42EC
330
42BD
100
AcDbEntity
  8
外形線
100
AcDbLine
 10
-2727.912532980931
 20
787.162664537874
 30
0.0
 11
-2723.639743266303
 21
786.801733142958
 31
0.0
  0
LINE
  5
42ED
330
42BD
100
AcDbEntity
  8
外形線
100
AcDbLine
 10
-2745.477230980931
 20
806.602362537874
 30
0.0
 11
-2760.043024980931
 21
804.603094537874
 31
0.0
  0
ARC
  5
42EE
330
42BD
100
AcDbEntity
  8
外形線
100
AcDbCircle
 10
-2758.924616980931
 20
802.060124537874
 30
0.0
 40
2.778136
100
AcDbArc
 50
113.741117770862
 51
176.718232188895
  0
LINE
  5
42EF
330
42BD
100
AcDbEntity
  8
細線
100
AcDbLine
 10
-2665.991042960005
 20
799.934392537874
 30
0.0
 11
-2665.991042960005
 21
788.510320537874
 31
0.0
  0
ARC
  5
42F0
330
42BD
100
AcDbEntity
  8
細線
100
AcDbCircle
 10
-2704.082716960005
 20
753.578984537874
 30
0.0
 40
36.766532
100
AcDbArc
 50
68.885514212383
 51
115.211785839404
  0
LINE
  5
42F1
330
42BD
100
AcDbEntity
  8
細線
100
AcDbLine
 10
-2665.991042960005
 20
785.083196537874
 30
0.0
 11
-2665.991042960005
 21
779.779118537874
 31
0.0
  0
LINE
  5
42F2
330
42BD
100
AcDbEntity
  8
細線
100
AcDbLine
 10
-2687.982254960006
 20
779.779118537874
 30
0.0
 11
-2690.838210960005
 21
787.877103088648
 31
0.0
  0
ARC
  5
42F3
330
42BD
100
AcDbEntity
  8
外形線
100
AcDbCircle
 10
-2688.060159702001
 20
778.779118537874
 30
0.0
 40
1.0
100
AcDbArc
 50
90.0
 51
172.420956229591
  0
LINE
  5
42F4
330
42BD
100
AcDbEntity
  8
外形線
100
AcDbLine
 10
-2688.060159702001
 20
779.779118537874
 30
0.0
 11
-2665.991042960005
 21
779.779118537874
 31
0.0
  0
LINE
  5
42F5
330
42BD
100
AcDbEntity
  8
外形線
100
AcDbLine
 10
-2681.699050960005
 20
799.934392537874
 30
0.0
 11
-2665.901932960005
 21
799.934392537874
 31
0.0
  0
LINE
  5
42F6
330
42BD
100
AcDbEntity
  8
外形線
100
AcDbLine
 10
-2681.699050960005
 20
807.931096537874
 30
0.0
 11
-2665.991042960005
 21
807.931096537874
 31
0.0
  0
LINE
  5
42F7
330
42BD
100
AcDbEntity
  8
外形線
100
AcDbLine
 10
-2745.477230980931
 20
854.955876537874
 30
0.0
 11
-2760.043024980931
 21
856.955144537874
 31
0.0
  0
ARC
  5
42F8
330
42BD
100
AcDbEntity
  8
外形線
100
AcDbCircle
 10
-2758.924616980931
 20
859.498236537874
 30
0.0
 40
2.778136
100
AcDbArc
 50
183.281807506792
 51
246.258864629059
  0
LINE
  5
42F9
330
42BD
100
AcDbEntity
  8
細線
100
AcDbLine
 10
-2665.991042960005
 20
835.063176537874
 30
0.0
 11
-2665.991042960005
 21
853.627142537874
 31
0.0
  0
LINE
  5
42FA
330
42BD
100
AcDbEntity
  8
外形線
100
AcDbLine
 10
-2681.699050960005
 20
835.063176537874
 30
0.0
 11
-2665.991042960005
 21
835.063176537874
 31
0.0
  0
LINE
  5
42FB
330
42BD
100
AcDbEntity
  8
外形線
100
AcDbLine
 10
-2681.699050960005
 20
826.495184537874
 30
0.0
 11
-2665.991042960005
 21
826.495184537874
 31
0.0
  0
LINE
  5
42FC
330
42BD
100
AcDbEntity
  8
外形線
100
AcDbLine
 10
-2681.699050960005
 20
853.627142537874
 30
0.0
 11
-2665.991042960005
 21
853.627142537874
 31
0.0
  0
LINE
  5
42FD
330
42BD
100
AcDbEntity
  8
外形線
100
AcDbLine
 10
-2681.699050960005
 20
861.623968537874
 30
0.0
 11
-2665.901932960005
 21
861.623968537874
 31
0.0
  0
LINE
  5
42FE
330
42BD
100
AcDbEntity
  8
外形線
100
AcDbLine
 10
-2621.722976960005
 20
807.359930537874
 30
0.0
 11
-2621.722976960005
 21
824.781560537874
 31
0.0
  0
LINE
  5
42FF
330
42BD
100
AcDbEntity
  8
外形線
100
AcDbLine
 10
-2631.433426960005
 20
830.779118537874
 30
0.0
 11
-2631.433426960005
 21
788.290838537874
 31
0.0
  0
ARC
  5
4300
330
42BD
100
AcDbEntity
  8
外形線
100
AcDbCircle
 10
-2636.288650960006
 20
788.290838537874
 30
0.0
 40
4.8552
100
AcDbArc
 50
272.650733067261
 51
359.999982399901
  0
ARC
  5
4301
330
42BD
100
AcDbEntity
  8
外形線
100
AcDbCircle
 10
-2664.004958960005
 20
786.796698537874
 30
0.0
 40
1.714446
100
AcDbArc
 50
271.804703586974
 51
88.195318508605
  0
LINE
  5
4302
330
42BD
100
AcDbEntity
  8
外形線
100
AcDbLine
 10
-2662.278274960006
 20
782.227116537874
 30
0.0
 11
-2636.064040960006
 21
783.440802537874
 31
0.0
  0
ARC
  5
4303
330
42BD
100
AcDbEntity
  8
外形線
100
AcDbCircle
 10
-2623.585158960005
 20
799.511052537874
 30
0.0
 40
1.86215
100
AcDbArc
 50
268.482178628784
 51
83.815801009983
  0
ARC
  5
4304
330
42BD
100
AcDbEntity
  8
外形線
100
AcDbCircle
 10
-2623.722244960006
 20
807.359930537874
 30
0.0
 40
1.9992
100
AcDbArc
 50
270.0
 51
359.999982399901
  0
ARC
  5
4305
330
42BD
100
AcDbEntity
  8
外形線
100
AcDbCircle
 10
-2629.432936960005
 20
803.361608537874
 30
0.0
 40
2.000724
100
AcDbArc
 50
87.757023395436
 51
272.242959004484
  0
LINE
  5
4306
330
42BD
100
AcDbEntity
  8
外形線
100
AcDbLine
 10
-2629.354690960005
 20
801.362370537874
 30
0.0
 11
-2623.384598960006
 21
801.362370537874
 31
0.0
  0
LINE
  5
4307
330
42BD
100
AcDbEntity
  8
外形線
100
AcDbLine
 10
-2631.433426960005
 20
797.649602537874
 30
0.0
 11
-2623.634476960005
 21
797.649602537874
 31
0.0
  0
LINE
  5
4308
330
42BD
100
AcDbEntity
  8
外形線
100
AcDbLine
 10
-2629.354628960005
 20
805.360784537874
 30
0.0
 11
-2623.722244960006
 21
805.360784537874
 31
0.0
  0
LINE
  5
4309
330
42BD
100
AcDbEntity
  8
外形線
100
AcDbLine
 10
-2621.722976960005
 20
854.198308537874
 30
0.0
 11
-2621.722976960005
 21
836.776678537874
 31
0.0
  0
ARC
  5
430A
330
42BD
100
AcDbEntity
  8
外形線
100
AcDbCircle
 10
-2623.722244960006
 20
836.776678537874
 30
0.0
 40
1.9992
100
AcDbArc
 50
270.0
 51
359.999982399908
  0
ARC
  5
430B
330
42BD
100
AcDbEntity
  8
外形線
100
AcDbCircle
 10
-2629.279006960005
 20
832.632024537874
 30
0.0
 40
2.15556
100
AcDbArc
 50
95.512637406103
 51
178.08903371374
  0
LINE
  5
430C
330
42BD
100
AcDbEntity
  8
外形線
100
AcDbLine
 10
-2629.486038960005
 20
834.777532537874
 30
0.0
 11
-2623.722244960006
 21
834.777532537874
 31
0.0
  0
LINE
  5
430D
330
42BD
100
AcDbEntity
  8
外形線
100
AcDbLine
 10
-2629.486038960005
 20
826.780828537874
 30
0.0
 11
-2623.722244960006
 21
826.780828537874
 31
0.0
  0
ARC
  5
430E
330
42BD
100
AcDbEntity
  8
外形線
100
AcDbCircle
 10
-2623.722244960006
 20
824.781560537874
 30
0.0
 40
1.9992
100
AcDbArc
 50
0.0
 51
89.999981276021
  0
ARC
  5
430F
330
42BD
100
AcDbEntity
  8
外形線
100
AcDbCircle
 10
-2629.279006960005
 20
828.926336537874
 30
0.0
 40
2.15556
100
AcDbArc
 50
181.910948686163
 51
264.487402289583
  0
LINE
  5
4310
330
42BD
100
AcDbEntity
  8
外形線
100
AcDbLine
 10
-2631.433426960005
 20
863.908758537874
 30
0.0
 11
-2623.634476960005
 21
863.908758537874
 31
0.0
  0
ARC
  5
4311
330
42BD
100
AcDbEntity
  8
外形線
100
AcDbCircle
 10
-2623.722244960006
 20
854.198308537874
 30
0.0
 40
1.9992
100
AcDbArc
 50
0.0
 51
89.999981276021
  0
ARC
  5
4312
330
42BD
100
AcDbEntity
  8
外形線
100
AcDbCircle
 10
-2629.434218960006
 20
858.196722537874
 30
0.0
 40
2.000726
100
AcDbArc
 50
87.722187561485
 51
272.27785213419
  0
LINE
  5
4313
330
42BD
100
AcDbEntity
  8
外形線
100
AcDbLine
 10
-2629.354690960005
 20
856.197576537874
 30
0.0
 11
-2623.722244960006
 21
856.197576537874
 31
0.0
  0
LINE
  5
4314
330
42BD
100
AcDbEntity
  8
外形線
100
AcDbLine
 10
-2629.354690960005
 20
860.195866537874
 30
0.0
 11
-2623.384598960006
 21
860.195866537874
 31
0.0
  0
ARC
  5
4315
330
42BD
100
AcDbEntity
  8
外形線
100
AcDbCircle
 10
-2623.585158960005
 20
862.047308537874
 30
0.0
 40
1.86215
100
AcDbArc
 50
276.18422108563
 51
91.517843466792
  0
LINE
  5
4316
330
42BD
100
AcDbEntity
  8
中心線
 48
10.0
100
AcDbLine
 10
-2781.852691728484
 20
895.779118537874
 30
0.0
 11
-2749.248855775376
 21
895.779118537874
 31
0.0
  0
LINE
  5
4317
330
42BD
100
AcDbEntity
  8
外形線
100
AcDbLine
 10
-2663.950942960006
 20
873.047918537874
 30
0.0
 11
-2681.699050960005
 21
873.047918537874
 31
0.0
  0
LINE
  5
4318
330
42BD
100
AcDbEntity
  8
外形線
100
AcDbLine
 10
-2663.950942960006
 20
876.475164537874
 30
0.0
 11
-2681.699050960005
 21
876.475164537874
 31
0.0
  0
LINE
  5
4319
330
42BD
100
AcDbEntity
  8
外形線
100
AcDbLine
 10
-2665.991042960005
 20
881.779118537874
 30
0.0
 11
-2662.278274960006
 21
879.331120537874
 31
0.0
  0
LINE
  5
431A
330
42BD
100
AcDbEntity
  8
外形線
100
AcDbLine
 10
-2727.912532980931
 20
874.395574537874
 30
0.0
 11
-2690.838210960005
 21
876.475164537874
 31
0.0
  0
LINE
  5
431B
330
42BD
100
AcDbEntity
  8
外形線
100
AcDbLine
 10
-2771.698196960006
 20
908.279118537874
 30
0.0
 11
-2761.698196960006
 21
908.279118537874
 31
0.0
  0
LINE
  5
431C
330
42BD
100
AcDbEntity
  8
外形線
100
AcDbLine
 10
-2687.982254960006
 20
881.779118537874
 30
0.0
 11
-2665.991042960005
 21
881.779118537874
 31
0.0
  0
LINE
  5
431D
330
42BD
100
AcDbEntity
  8
外形線
100
AcDbLine
 10
-2690.838210960005
 20
876.475164537874
 30
0.0
 11
-2687.982254960006
 21
881.779118537874
 31
0.0
  0
LINE
  5
431E
330
42BD
100
AcDbEntity
  8
細線
100
AcDbLine
 10
-2665.991042960005
 20
876.475164537874
 30
0.0
 11
-2665.991042960005
 21
881.779118537874
 31
0.0
  0
ARC
  5
431F
330
42BD
100
AcDbEntity
  8
外形線
100
AcDbCircle
 10
-2636.288650960006
 20
873.267522537874
 30
0.0
 40
4.8552
100
AcDbArc
 50
0.0
 51
87.349306628423
  0
ARC
  5
4320
330
42BD
100
AcDbEntity
  8
外形線
100
AcDbCircle
 10
-2664.004958960005
 20
874.761540537874
 30
0.0
 40
1.714446
100
AcDbArc
 50
271.804703586974
 51
88.195318508605
  0
LINE
  5
4321
330
42BD
100
AcDbEntity
  8
外形線
100
AcDbLine
 10
-2662.278274960006
 20
879.331120537874
 30
0.0
 11
-2636.064040960006
 21
878.117498537874
 31
0.0
  0
ENDBLK
  5
4322
330
42BD
100
AcDbEntity
  8
0
 48
10.0
100
AcDbBlockEnd
  0
BLOCK
  5
4324
330
4323
100
AcDbEntity
  8
0
 48
10.0
100
AcDbBlockBegin
  2
A$C480F1F2B
 70
     0
 10
0.0
 20
0.0
 30
0.0
  3
A$C480F1F2B
  1
A$C480F1F2B
  0
LINE
  5
4325
330
4323
100
AcDbEntity
  8
外形線
100
AcDbLine
 10
8.500001501512
 20
2.385002184348
 30
0.0
 11
8.500001501512
 21
14.179664684348
 31
0.0
  0
ARC
  5
4326
330
4323
100
AcDbEntity
  8
細線
100
AcDbCircle
 10
1.216144001512
 20
8.282372184348
 30
0.0
 40
7.2838425
100
AcDbArc
 50
326.010120640452
 51
33.98932849733
  0
ARC
  5
4327
330
4323
100
AcDbEntity
  8
細線
100
AcDbCircle
 10
4.911364001511
 20
1.275229684348
 30
0.0
 40
3.7563025
100
AcDbArc
 50
17.184150191555
 51
51.38761061704
  0
LINE
  5
4328
330
4323
100
AcDbEntity
  8
細線
100
AcDbLine
 10
2.000001501511
 20
4.210487184348
 30
0.0
 11
7.255442473881
 21
4.210487184348
 31
0.0
  0
LINE
  5
4329
330
4323
100
AcDbEntity
  8
外形線
100
AcDbLine
 10
2.000001501511
 20
16.564818684348
 30
0.0
 11
2.000001501511
 21
0.000000684348
 31
0.0
  0
LINE
  5
432A
330
4323
100
AcDbEntity
  8
外形線
100
AcDbLine
 10
0.000001501512
 20
16.564818684348
 30
0.0
 11
0.000001501512
 21
0.000000684348
 31
0.0
  0
LINE
  5
432B
330
4323
100
AcDbEntity
  8
外形線
100
AcDbLine
 10
6.114929777464
 20
0.000000684348
 30
0.0
 11
8.499926501511
 21
2.385079684348
 31
0.0
  0
LINE
  5
432C
330
4323
100
AcDbEntity
  8
外形線
100
AcDbLine
 10
0.000001501512
 20
0.000000684348
 30
0.0
 11
6.114929777464
 21
0.000000684348
 31
0.0
  0
ARC
  5
432D
330
4323
100
AcDbEntity
  8
細線
100
AcDbCircle
 10
4.911364001511
 20
15.289437184348
 30
0.0
 40
3.7563025
100
AcDbArc
 50
308.612371782873
 51
342.81588950412
  0
LINE
  5
432E
330
4323
100
AcDbEntity
  8
細線
100
AcDbLine
 10
2.000001501511
 20
12.354369684348
 30
0.0
 11
7.25548242852
 21
12.354369684348
 31
0.0
  0
LINE
  5
432F
330
4323
100
AcDbEntity
  8
外形線
100
AcDbLine
 10
6.11493439904
 20
16.564818684348
 30
0.0
 11
8.499926501511
 21
14.179664684348
 31
0.0
  0
LINE
  5
4330
330
4323
100
AcDbEntity
  8
外形線
100
AcDbLine
 10
0.000001501512
 20
16.564818684348
 30
0.0
 11
6.11493439904
 21
16.564818684348
 31
0.0
  0
ENDBLK
  5
4331
330
4323
100
AcDbEntity
  8
0
 48
10.0
100
AcDbBlockEnd
  0
BLOCK
  5
4482
330
4478
100
AcDbEntity
  8
0
 48
10.0
100
AcDbBlockBegin
  2
*D10
 70
     1
 10
0.0
 20
0.0
 30
0.0
  3
*D10
  1
*D10
  0
LINE
  5
5A79
330
4478
100
AcDbEntity
  8
寸法線
 62
     0
 48
10.0
100
AcDbLine
 10
700.753856158754
 20
292.847757690546
 30
0.0
 11
700.753856158754
 21
270.298248727816
 31
0.0
  0
LINE
  5
5A7A
330
4478
100
AcDbEntity
  8
寸法線
 62
     0
 48
10.0
100
AcDbLine
 10
850.729044158754
 20
305.734366398714
 30
0.0
 11
850.729044158754
 21
270.298248727816
 31
0.0
  0
LINE
  5
5A7B
330
4478
100
AcDbEntity
  8
寸法線
 62
     0
 48
10.0
100
AcDbLine
 10
706.753856158754
 20
271.548248727816
 30
0.0
 11
844.729044158754
 21
271.548248727816
 31
0.0
  0
INSERT
  5
5A7C
330
4478
100
AcDbEntity
  8
寸法線
 62
     0
100
AcDbBlockReference
  2
_OPEN30
 10
700.753856158754
 20
271.548248727816
 30
0.0
 41
6.0
 42
6.0
 43
6.0
 50
180.0
  0
INSERT
  5
5A7D
330
4478
100
AcDbEntity
  8
寸法線
 62
     0
100
AcDbBlockReference
  2
_OPEN30
 10
850.729044158754
 20
271.548248727816
 30
0.0
 41
6.0
 42
6.0
 43
6.0
  0
MTEXT
  5
5A7E
330
4478
100
AcDbEntity
  8
寸法線
 62
     0
 48
10.0
100
AcDbMText
 10
775.741450158754
 20
277.173248727816
 30
0.0
 40
10.0
 41
0.0
 71
     5
 72
     1
  1
\A1;150
  0
POINT
  5
5A7F
330
4478
100
AcDbEntity
  8
DEFPOINTS
 62
     0
100
AcDbPoint
 10
700.753856158754
 20
293.472757690546
 30
0.0
  0
POINT
  5
5A80
330
4478
100
AcDbEntity
  8
DEFPOINTS
 62
     0
100
AcDbPoint
 10
850.729044158754
 20
306.359366398714
 30
0.0
  0
POINT
  5
5A81
330
4478
100
AcDbEntity
  8
DEFPOINTS
 62
     0
100
AcDbPoint
 10
850.729044158754
 20
271.548248727816
 30
0.0
  0
ENDBLK
  5
4483
330
4478
100
AcDbEntity
  8
0
 48
10.0
100
AcDbBlockEnd
  0
BLOCK
  5
4490
330
4484
100
AcDbEntity
  8
0
 48
10.0
100
AcDbBlockBegin
  2
*D11
 70
     1
 10
0.0
 20
0.0
 30
0.0
  3
*D11
  1
*D11
  0
LINE
  5
5A6E
330
4484
100
AcDbEntity
  8
寸法線
 62
     0
 48
10.0
100
AcDbLine
 10
700.753856158754
 20
328.95453953916
 30
0.0
 11
700.753856158754
 21
293.472757690546
 31
0.0
  0
LINE
  5
5A6F
330
4484
100
AcDbEntity
  8
寸法線
 62
     0
 48
10.0
100
AcDbLine
 10
710.753856158754
 20
328.95453953916
 30
0.0
 11
710.753856158754
 21
293.472757690546
 31
0.0
  0
LINE
  5
5A70
330
4484
100
AcDbEntity
  8
寸法線
 62
     0
 48
10.0
100
AcDbLine
 10
700.753856158754
 20
294.722757690546
 30
0.0
 11
710.753856158754
 21
294.722757690546
 31
0.0
  0
LINE
  5
5A71
330
4484
100
AcDbEntity
  8
寸法線
 62
     0
 48
10.0
100
AcDbLine
 10
694.753856158754
 20
294.722757690546
 30
0.0
 11
688.753856158754
 21
294.722757690546
 31
0.0
  0
LINE
  5
5A72
330
4484
100
AcDbEntity
  8
寸法線
 62
     0
 48
10.0
100
AcDbLine
 10
716.753856158754
 20
294.722757690546
 30
0.0
 11
722.753856158754
 21
294.722757690546
 31
0.0
  0
INSERT
  5
5A73
330
4484
100
AcDbEntity
  8
寸法線
 62
     0
100
AcDbBlockReference
  2
_OPEN30
 10
700.753856158754
 20
294.722757690546
 30
0.0
 41
6.0
 42
6.0
 43
6.0
  0
INSERT
  5
5A74
330
4484
100
AcDbEntity
  8
寸法線
 62
     0
100
AcDbBlockReference
  2
_OPEN30
 10
710.753856158754
 20
294.722757690546
 30
0.0
 41
6.0
 42
6.0
 43
6.0
 50
180.0
  0
MTEXT
  5
5A75
330
4484
100
AcDbEntity
  8
寸法線
 62
     0
 48
10.0
100
AcDbMText
 10
705.753856158754
 20
299.347757690546
 30
0.0
 40
8.0
 41
0.0
 71
     5
 72
     1
  1
\A1;10
  0
POINT
  5
5A76
330
4484
100
AcDbEntity
  8
DEFPOINTS
 62
     0
100
AcDbPoint
 10
700.753856158754
 20
329.57953953916
 30
0.0
  0
POINT
  5
5A77
330
4484
100
AcDbEntity
  8
DEFPOINTS
 62
     0
100
AcDbPoint
 10
710.753856158754
 20
329.57953953916
 30
0.0
  0
POINT
  5
5A78
330
4484
100
AcDbEntity
  8
DEFPOINTS
 62
     0
100
AcDbPoint
 10
710.753856158754
 20
294.722757690546
 30
0.0
  0
ENDBLK
  5
4491
330
4484
100
AcDbEntity
  8
0
 48
10.0
100
AcDbBlockEnd
  0
BLOCK
  5
449C
330
4492
100
AcDbEntity
  8
0
 48
10.0
100
AcDbBlockBegin
  2
*D12
 70
     1
 10
0.0
 20
0.0
 30
0.0
  3
*D12
  1
*D12
  0
LINE
  5
5A65
330
4492
100
AcDbEntity
  8
寸法線
 62
     0
 48
10.0
100
AcDbLine
 10
710.753856158754
 20
328.95453953916
 30
0.0
 11
710.753856158754
 21
293.472757690546
 31
0.0
  0
LINE
  5
5A66
330
4492
100
AcDbEntity
  8
寸法線
 62
     0
 48
10.0
100
AcDbLine
 10
767.753856158754
 20
324.51150303916
 30
0.0
 11
767.753856158754
 21
293.472757690546
 31
0.0
  0
LINE
  5
5A67
330
4492
100
AcDbEntity
  8
寸法線
 62
     0
 48
10.0
100
AcDbLine
 10
716.753856158754
 20
294.722757690546
 30
0.0
 11
761.753856158754
 21
294.722757690546
 31
0.0
  0
INSERT
  5
5A68
330
4492
100
AcDbEntity
  8
寸法線
 62
     0
100
AcDbBlockReference
  2
_OPEN30
 10
710.753856158754
 20
294.722757690546
 30
0.0
 41
6.0
 42
6.0
 43
6.0
 50
180.0
  0
INSERT
  5
5A69
330
4492
100
AcDbEntity
  8
寸法線
 62
     0
100
AcDbBlockReference
  2
_OPEN30
 10
767.753856158754
 20
294.722757690546
 30
0.0
 41
6.0
 42
6.0
 43
6.0
  0
MTEXT
  5
5A6A
330
4492
100
AcDbEntity
  8
寸法線
 62
     0
 48
10.0
100
AcDbMText
 10
739.253856158754
 20
300.347757690546
 30
0.0
 40
10.0
 41
0.0
 71
     5
 72
     1
  1
\A1;57
  0
POINT
  5
5A6B
330
4492
100
AcDbEntity
  8
DEFPOINTS
 62
     0
100
AcDbPoint
 10
710.753856158754
 20
329.57953953916
 30
0.0
  0
POINT
  5
5A6C
330
4492
100
AcDbEntity
  8
DEFPOINTS
 62
     0
100
AcDbPoint
 10
767.753856158754
 20
325.13650303916
 30
0.0
  0
POINT
  5
5A6D
330
4492
100
AcDbEntity
  8
DEFPOINTS
 62
     0
100
AcDbPoint
 10
767.753856158754
 20
294.722757690546
 30
0.0
  0
ENDBLK
  5
449D
330
4492
100
AcDbEntity
  8
0
 48
10.0
100
AcDbBlockEnd
  0
BLOCK
  5
44A8
330
449E
100
AcDbEntity
  8
0
 48
10.0
100
AcDbBlockBegin
  2
*D13
 70
     1
 10
0.0
 20
0.0
 30
0.0
  3
*D13
  1
*D13
  0
LINE
  5
5A5C
330
449E
100
AcDbEntity
  8
寸法線
 62
     0
 48
10.0
100
AcDbLine
 10
767.753856158754
 20
324.51150303916
 30
0.0
 11
767.753856158754
 21
293.472757690546
 31
0.0
  0
LINE
  5
5A5D
330
449E
100
AcDbEntity
  8
寸法線
 62
     0
 48
10.0
100
AcDbLine
 10
788.753856158754
 20
355.45461703916
 30
0.0
 11
788.753856158754
 21
293.472757690546
 31
0.0
  0
LINE
  5
5A5E
330
449E
100
AcDbEntity
  8
寸法線
 62
     0
 48
10.0
100
AcDbLine
 10
773.753856158754
 20
294.722757690546
 30
0.0
 11
782.753856158754
 21
294.722757690546
 31
0.0
  0
INSERT
  5
5A5F
330
449E
100
AcDbEntity
  8
寸法線
 62
     0
100
AcDbBlockReference
  2
_OPEN30
 10
767.753856158754
 20
294.722757690546
 30
0.0
 41
6.0
 42
6.0
 43
6.0
 50
180.0
  0
INSERT
  5
5A60
330
449E
100
AcDbEntity
  8
寸法線
 62
     0
100
AcDbBlockReference
  2
_OPEN30
 10
788.753856158754
 20
294.722757690546
 30
0.0
 41
6.0
 42
6.0
 43
6.0
  0
MTEXT
  5
5A61
330
449E
100
AcDbEntity
  8
寸法線
 62
     0
 48
10.0
100
AcDbMText
 10
778.253856158754
 20
300.352966023879
 30
0.0
 40
10.0
 41
0.0
 71
     5
 72
     1
  1
\A1;21
  0
POINT
  5
5A62
330
449E
100
AcDbEntity
  8
DEFPOINTS
 62
     0
100
AcDbPoint
 10
767.753856158754
 20
325.13650303916
 30
0.0
  0
POINT
  5
5A63
330
449E
100
AcDbEntity
  8
DEFPOINTS
 62
     0
100
AcDbPoint
 10
788.753856158754
 20
356.07961703916
 30
0.0
  0
POINT
  5
5A64
330
449E
100
AcDbEntity
  8
DEFPOINTS
 62
     0
100
AcDbPoint
 10
788.753856158754
 20
294.722757690546
 30
0.0
  0
ENDBLK
  5
44A9
330
449E
100
AcDbEntity
  8
0
 48
10.0
100
AcDbBlockEnd
  0
BLOCK
  5
44B4
330
44AA
100
AcDbEntity
  8
0
 48
10.0
100
AcDbBlockBegin
  2
*D14
 70
     1
 10
0.0
 20
0.0
 30
0.0
  3
*D14
  1
*D14
  0
LINE
  5
5A53
330
44AA
100
AcDbEntity
  8
寸法線
 62
     0
 48
10.0
100
AcDbLine
 10
850.729044158754
 20
332.389516608968
 30
0.0
 11
850.729044158754
 21
293.472757690546
 31
0.0
  0
LINE
  5
5A54
330
44AA
100
AcDbEntity
  8
寸法線
 62
     0
 48
10.0
100
AcDbLine
 10
788.753856158754
 20
355.45461703916
 30
0.0
 11
788.753856158754
 21
293.472757690546
 31
0.0
  0
LINE
  5
5A55
330
44AA
100
AcDbEntity
  8
寸法線
 62
     0
 48
10.0
100
AcDbLine
 10
844.729044158754
 20
294.722757690546
 30
0.0
 11
794.753856158754
 21
294.722757690546
 31
0.0
  0
INSERT
  5
5A56
330
44AA
100
AcDbEntity
  8
寸法線
 62
     0
100
AcDbBlockReference
  2
_OPEN30
 10
850.729044158754
 20
294.722757690546
 30
0.0
 41
6.0
 42
6.0
 43
6.0
  0
INSERT
  5
5A57
330
44AA
100
AcDbEntity
  8
寸法線
 62
     0
100
AcDbBlockReference
  2
_OPEN30
 10
788.753856158754
 20
294.722757690546
 30
0.0
 41
6.0
 42
6.0
 43
6.0
 50
180.0
  0
MTEXT
  5
5A58
330
44AA
100
AcDbEntity
  8
寸法線
 62
     0
 48
10.0
100
AcDbMText
 10
819.741450158754
 20
300.347757690546
 30
0.0
 40
10.0
 41
0.0
 71
     5
 72
     1
  1
\A1;62
  0
POINT
  5
5A59
330
44AA
100
AcDbEntity
  8
DEFPOINTS
 62
     0
100
AcDbPoint
 10
850.729044158754
 20
333.014516608968
 30
0.0
  0
POINT
  5
5A5A
330
44AA
100
AcDbEntity
  8
DEFPOINTS
 62
     0
100
AcDbPoint
 10
788.753856158754
 20
356.07961703916
 30
0.0
  0
POINT
  5
5A5B
330
44AA
100
AcDbEntity
  8
DEFPOINTS
 62
     0
100
AcDbPoint
 10
788.753856158754
 20
294.722757690546
 30
0.0
  0
ENDBLK
  5
44B5
330
44AA
100
AcDbEntity
  8
0
 48
10.0
100
AcDbBlockEnd
  0
BLOCK
  5
44C0
330
44B6
100
AcDbEntity
  8
0
 48
10.0
100
AcDbBlockBegin
  2
*D15
 70
     1
 10
0.0
 20
0.0
 30
0.0
  3
*D15
  1
*D15
  0
LINE
  5
5A4A
330
44B6
100
AcDbEntity
  8
寸法線
 62
     0
 48
10.0
100
AcDbLine
 10
807.086010158754
 20
458.07961703916
 30
0.0
 11
877.453775941635
 21
458.07961703916
 31
0.0
  0
LINE
  5
5A4B
330
44B6
100
AcDbEntity
  8
寸法線
 62
     0
 48
10.0
100
AcDbLine
 10
807.086010158754
 20
356.07961703916
 30
0.0
 11
877.453775941635
 21
356.07961703916
 31
0.0
  0
LINE
  5
5A4C
330
44B6
100
AcDbEntity
  8
寸法線
 62
     0
 48
10.0
100
AcDbLine
 10
876.203775941635
 20
452.07961703916
 30
0.0
 11
876.203775941635
 21
362.07961703916
 31
0.0
  0
INSERT
  5
5A4D
330
44B6
100
AcDbEntity
  8
寸法線
 62
     0
100
AcDbBlockReference
  2
_OPEN30
 10
876.203775941635
 20
458.07961703916
 30
0.0
 41
6.0
 42
6.0
 43
6.0
 50
90.0
  0
INSERT
  5
5A4E
330
44B6
100
AcDbEntity
  8
寸法線
 62
     0
100
AcDbBlockReference
  2
_OPEN30
 10
876.203775941635
 20
356.07961703916
 30
0.0
 41
6.0
 42
6.0
 43
6.0
 50
270.0
  0
MTEXT
  5
5A4F
330
44B6
100
AcDbEntity
  8
寸法線
 62
     0
 48
10.0
100
AcDbMText
 10
870.573567608301
 20
406.46761753916
 30
0.0
 40
10.0
 41
0.0
 71
     5
 72
     1
  1
\A1;φ102
 11
0.0
 21
1.0
 31
0.0
  0
POINT
  5
5A50
330
44B6
100
AcDbEntity
  8
DEFPOINTS
 62
     0
100
AcDbPoint
 10
806.461010158754
 20
458.07961703916
 30
0.0
  0
POINT
  5
5A51
330
44B6
100
AcDbEntity
  8
DEFPOINTS
 62
     0
100
AcDbPoint
 10
806.461010158754
 20
356.07961703916
 30
0.0
  0
POINT
  5
5A52
330
44B6
100
AcDbEntity
  8
DEFPOINTS
 62
     0
100
AcDbPoint
 10
876.203775941635
 20
356.07961703916
 30
0.0
  0
ENDBLK
  5
44C1
330
44B6
100
AcDbEntity
  8
0
 48
10.0
100
AcDbBlockEnd
  0
BLOCK
  5
497E
330
4974
100
AcDbEntity
  8
0
 48
10.0
100
AcDbBlockBegin
  2
*D16
 70
     1
 10
0.0
 20
0.0
 30
0.0
  3
*D16
  1
*D16
  0
LINE
  5
5A41
330
4974
100
AcDbEntity
  8
寸法線
 62
     0
 48
10.0
100
AcDbLine
 10
450.833419470336
 20
237.233180202385
 30
0.0
 11
450.833419470336
 21
210.907658107412
 31
0.0
  0
LINE
  5
5A42
330
4974
100
AcDbEntity
  8
寸法線
 62
     0
 48
10.0
100
AcDbLine
 10
700.753856158753
 20
275.899730717597
 30
0.0
 11
700.753856158753
 21
210.907658107412
 31
0.0
  0
LINE
  5
5A43
330
4974
100
AcDbEntity
  8
寸法線
 62
     0
 48
10.0
100
AcDbLine
 10
456.833419470336
 20
212.157658107412
 30
0.0
 11
694.753856158753
 21
212.157658107412
 31
0.0
  0
INSERT
  5
5A44
330
4974
100
AcDbEntity
  8
寸法線
 62
     0
100
AcDbBlockReference
  2
_OPEN30
 10
450.833419470336
 20
212.157658107412
 30
0.0
 41
6.0
 42
6.0
 43
6.0
 50
180.0
  0
INSERT
  5
5A45
330
4974
100
AcDbEntity
  8
寸法線
 62
     0
100
AcDbBlockReference
  2
_OPEN30
 10
700.753856158753
 20
212.157658107412
 30
0.0
 41
6.0
 42
6.0
 43
6.0
  0
MTEXT
  5
5A46
330
4974
100
AcDbEntity
  8
寸法線
 62
     0
 48
10.0
100
AcDbMText
 10
575.793637814544
 20
217.787866440746
 30
0.0
 40
10.0
 41
0.0
 71
     5
 72
     1
  1
\A1;350
  0
POINT
  5
5A47
330
4974
100
AcDbEntity
  8
DEFPOINTS
 62
     0
100
AcDbPoint
 10
450.833419470336
 20
237.858180202385
 30
0.0
  0
POINT
  5
5A48
330
4974
100
AcDbEntity
  8
DEFPOINTS
 62
     0
100
AcDbPoint
 10
700.753856158753
 20
276.524730717597
 30
0.0
  0
POINT
  5
5A49
330
4974
100
AcDbEntity
  8
DEFPOINTS
 62
     0
100
AcDbPoint
 10
700.753856158753
 20
212.157658107412
 30
0.0
  0
ENDBLK
  5
497F
330
4974
100
AcDbEntity
  8
0
 48
10.0
100
AcDbBlockEnd
  0
BLOCK
  5
500F
330
5003
100
AcDbEntity
  8
0
 48
10.0
100
AcDbBlockBegin
  2
*D17
 70
     1
 10
0.0
 20
0.0
 30
0.0
  3
*D17
  1
*D17
  0
LINE
  5
5A36
330
5003
100
AcDbEntity
  8
寸法線
 62
     0
 48
10.0
100
AcDbLine
 10
558.190083706173
 20
402.21999703916
 30
0.0
 11
554.196156202036
 21
402.21999703916
 31
0.0
  0
LINE
  5
5A37
330
5003
100
AcDbEntity
  8
寸法線
 62
     0
 48
10.0
100
AcDbLine
 10
554.821156202037
 20
411.93923453916
 30
0.0
 11
554.196156202036
 21
411.93923453916
 31
0.0
  0
LINE
  5
5A38
330
5003
100
AcDbEntity
  8
寸法線
 62
     0
 48
10.0
100
AcDbLine
 10
555.446156202036
 20
411.93923453916
 30
0.0
 11
555.446156202036
 21
445.500220713701
 31
0.0
  0
LINE
  5
5A39
330
5003
100
AcDbEntity
  8
寸法線
 62
     0
 48
10.0
100
AcDbLine
 10
555.446156202036
 20
402.21999703916
 30
0.0
 11
555.446156202036
 21
411.93923453916
 31
0.0
  0
LINE
  5
5A3A
330
5003
100
AcDbEntity
  8
寸法線
 62
     0
 48
10.0
100
AcDbLine
 10
555.446156202036
 20
396.21999703916
 30
0.0
 11
555.446156202036
 21
390.21999703916
 31
0.0
  0
LINE
  5
5A3B
330
5003
100
AcDbEntity
  8
寸法線
 62
     0
 48
10.0
100
AcDbLine
 10
555.446156202036
 20
417.93923453916
 30
0.0
 11
555.446156202036
 21
423.93923453916
 31
0.0
  0
INSERT
  5
5A3C
330
5003
100
AcDbEntity
  8
寸法線
 62
     0
100
AcDbBlockReference
  2
_OPEN30
 10
555.446156202036
 20
402.21999703916
 30
0.0
 41
6.0
 42
6.0
 43
6.0
 50
90.0
  0
INSERT
  5
5A3D
330
5003
100
AcDbEntity
  8
寸法線
 62
     0
100
AcDbBlockReference
  2
_OPEN30
 10
555.446156202036
 20
411.93923453916
 30
0.0
 41
6.0
 42
6.0
 43
6.0
 50
270.0
  0
MTEXT
  5
5A3E
330
5003
100
AcDbEntity
  8
寸法線
 62
     0
 48
10.0
100
AcDbMText
 10
549.821156202036
 20
434.958554047034
 30
0.0
 40
10.0
 41
0.0
 71
     5
 72
     1
  1
\A1;φ10
 11
0.0
 21
1.0
 31
0.0
  0
POINT
  5
5A3F
330
5003
100
AcDbEntity
  8
DEFPOINTS
 62
     0
100
AcDbPoint
 10
558.815083706173
 20
402.21999703916
 30
0.0
  0
POINT
  5
5A40
330
5003
100
AcDbEntity
  8
DEFPOINTS
 62
     0
100
AcDbPoint
 10
555.446156202037
 20
411.93923453916
 30
0.0
  0
POINT
  5
5FD8
330
5003
100
AcDbEntity
  8
DEFPOINTS
 62
     0
100
AcDbPoint
 10
555.446156202036
 20
411.93923453916
 30
0.0
  0
ENDBLK
  5
5010
330
5003
100
AcDbEntity
  8
0
 48
10.0
100
AcDbBlockEnd
  0
BLOCK
  5
5028
330
501E
100
AcDbEntity
  8
0
 48
10.0
100
AcDbBlockBegin
  2
*D18
 70
     1
 10
0.0
 20
0.0
 30
0.0
  3
*D18
  1
*D18
  0
LINE
  5
5A2D
330
501E
100
AcDbEntity
  8
寸法線
 62
     0
 48
10.0
100
AcDbLine
 10
570.833419470336
 20
388.95461703916
 30
0.0
 11
570.833419470336
 21
363.32961703916
 31
0.0
  0
LINE
  5
5A2E
330
501E
100
AcDbEntity
  8
寸法線
 62
     0
 48
10.0
100
AcDbLine
 10
550.833456970336
 20
398.32961703916
 30
0.0
 11
550.833456970336
 21
363.32961703916
 31
0.0
  0
LINE
  5
5A2F
330
501E
100
AcDbEntity
  8
寸法線
 62
     0
 48
10.0
100
AcDbLine
 10
564.833419470336
 20
364.57961703916
 30
0.0
 11
556.833456970336
 21
364.57961703916
 31
0.0
  0
INSERT
  5
5A30
330
501E
100
AcDbEntity
  8
寸法線
 62
     0
100
AcDbBlockReference
  2
_OPEN30
 10
570.833419470336
 20
364.57961703916
 30
0.0
 41
6.0
 42
6.0
 43
6.0
  0
INSERT
  5
5A31
330
501E
100
AcDbEntity
  8
寸法線
 62
     0
100
AcDbBlockReference
  2
_OPEN30
 10
550.833456970336
 20
364.57961703916
 30
0.0
 41
6.0
 42
6.0
 43
6.0
 50
180.0
  0
MTEXT
  5
5A32
330
501E
100
AcDbEntity
  8
寸法線
 62
     0
 48
10.0
100
AcDbMText
 10
560.833438220336
 20
370.209825372494
 30
0.0
 40
10.0
 41
0.0
 71
     5
 72
     1
  1
\A1;20
  0
POINT
  5
5A33
330
501E
100
AcDbEntity
  8
DEFPOINTS
 62
     0
100
AcDbPoint
 10
570.833419470336
 20
389.57961703916
 30
0.0
  0
POINT
  5
5A34
330
501E
100
AcDbEntity
  8
DEFPOINTS
 62
     0
100
AcDbPoint
 10
550.833456970336
 20
398.95461703916
 30
0.0
  0
POINT
  5
5A35
330
501E
100
AcDbEntity
  8
DEFPOINTS
 62
     0
100
AcDbPoint
 10
550.833456970336
 20
364.57961703916
 30
0.0
  0
ENDBLK
  5
5029
330
501E
100
AcDbEntity
  8
0
 48
10.0
100
AcDbBlockEnd
  0
BLOCK
  5
5034
330
502A
100
AcDbEntity
  8
0
 48
10.0
100
AcDbBlockBegin
  2
*D19
 70
     1
 10
0.0
 20
0.0
 30
0.0
  3
*D19
  1
*D19
  0
LINE
  5
5A24
330
502A
100
AcDbEntity
  8
寸法線
 62
     0
 48
10.0
100
AcDbLine
 10
500.833456970336
 20
398.95461703916
 30
0.0
 11
500.833456970336
 21
363.32961703916
 31
0.0
  0
LINE
  5
5A25
330
502A
100
AcDbEntity
  8
寸法線
 62
     0
 48
10.0
100
AcDbLine
 10
550.833456970336
 20
398.95461703916
 30
0.0
 11
550.833456970336
 21
363.32961703916
 31
0.0
  0
LINE
  5
5A26
330
502A
100
AcDbEntity
  8
寸法線
 62
     0
 48
10.0
100
AcDbLine
 10
506.833456970336
 20
364.57961703916
 30
0.0
 11
544.833456970336
 21
364.57961703916
 31
0.0
  0
INSERT
  5
5A27
330
502A
100
AcDbEntity
  8
寸法線
 62
     0
100
AcDbBlockReference
  2
_OPEN30
 10
500.833456970336
 20
364.57961703916
 30
0.0
 41
6.0
 42
6.0
 43
6.0
 50
180.0
  0
INSERT
  5
5A28
330
502A
100
AcDbEntity
  8
寸法線
 62
     0
100
AcDbBlockReference
  2
_OPEN30
 10
550.833456970336
 20
364.57961703916
 30
0.0
 41
6.0
 42
6.0
 43
6.0
  0
MTEXT
  5
5A29
330
502A
100
AcDbEntity
  8
寸法線
 62
     0
 48
10.0
100
AcDbMText
 10
525.833456970336
 20
370.20461703916
 30
0.0
 40
10.0
 41
0.0
 71
     5
 72
     1
  1
\A1;50
  0
POINT
  5
5A2A
330
502A
100
AcDbEntity
  8
DEFPOINTS
 62
     0
100
AcDbPoint
 10
500.833456970336
 20
399.57961703916
 30
0.0
  0
POINT
  5
5A2B
330
502A
100
AcDbEntity
  8
DEFPOINTS
 62
     0
100
AcDbPoint
 10
550.833456970336
 20
399.57961703916
 30
0.0
  0
POINT
  5
5A2C
330
502A
100
AcDbEntity
  8
DEFPOINTS
 62
     0
100
AcDbPoint
 10
550.833456970336
 20
364.57961703916
 30
0.0
  0
ENDBLK
  5
5035
330
502A
100
AcDbEntity
  8
0
 48
10.0
100
AcDbBlockEnd
  0
BLOCK
  5
5040
330
5036
100
AcDbEntity
  8
0
 48
10.0
100
AcDbBlockBegin
  2
*D20
 70
     1
 10
0.0
 20
0.0
 30
0.0
  3
*D20
  1
*D20
  0
LINE
  5
5A1B
330
5036
100
AcDbEntity
  8
寸法線
 62
     0
 48
10.0
100
AcDbLine
 10
450.208456970336
 20
257.07961703916
 30
0.0
 11
417.083456970336
 21
257.07961703916
 31
0.0
  0
LINE
  5
5A1C
330
5036
100
AcDbEntity
  8
寸法線
 62
     0
 48
10.0
100
AcDbLine
 10
435.975013333463
 20
407.07961703916
 30
0.0
 11
417.083456970336
 21
407.07961703916
 31
0.0
  0
LINE
  5
5A1D
330
5036
100
AcDbEntity
  8
寸法線
 62
     0
 48
10.0
100
AcDbLine
 10
418.333456970336
 20
263.07961703916
 30
0.0
 11
418.333456970336
 21
401.07961703916
 31
0.0
  0
INSERT
  5
5A1E
330
5036
100
AcDbEntity
  8
寸法線
 62
     0
100
AcDbBlockReference
  2
_OPEN30
 10
418.333456970336
 20
257.07961703916
 30
0.0
 41
6.0
 42
6.0
 43
6.0
 50
270.0
  0
INSERT
  5
5A1F
330
5036
100
AcDbEntity
  8
寸法線
 62
     0
100
AcDbBlockReference
  2
_OPEN30
 10
418.333456970336
 20
407.07961703916
 30
0.0
 41
6.0
 42
6.0
 43
6.0
 50
90.0
  0
MTEXT
  5
5A20
330
5036
100
AcDbEntity
  8
寸法線
 62
     0
 48
10.0
100
AcDbMText
 10
412.708456970336
 20
332.07961703916
 30
0.0
 40
10.0
 41
0.0
 71
     5
 72
     1
  1
\A1;150
 11
0.0
 21
1.0
 31
0.0
  0
POINT
  5
5A21
330
5036
100
AcDbEntity
  8
DEFPOINTS
 62
     0
100
AcDbPoint
 10
450.833456970336
 20
257.07961703916
 30
0.0
  0
POINT
  5
5A22
330
5036
100
AcDbEntity
  8
DEFPOINTS
 62
     0
100
AcDbPoint
 10
436.600013333463
 20
407.07961703916
 30
0.0
  0
POINT
  5
5A23
330
5036
100
AcDbEntity
  8
DEFPOINTS
 62
     0
100
AcDbPoint
 10
418.333456970336
 20
407.07961703916
 30
0.0
  0
ENDBLK
  5
5041
330
5036
100
AcDbEntity
  8
0
 48
10.0
100
AcDbBlockEnd
  0
BLOCK
  5
504C
330
5042
100
AcDbEntity
  8
0
 48
10.0
100
AcDbBlockBegin
  2
*D21
 70
     1
 10
0.0
 20
0.0
 30
0.0
  3
*D21
  1
*D21
  0
LINE
  5
5A12
330
5042
100
AcDbEntity
  8
寸法線
 62
     0
 48
10.0
100
AcDbLine
 10
450.833456970336
 20
256.45461703916
 30
0.0
 11
450.833456970336
 21
231.626740573099
 31
0.0
  0
LINE
  5
5A13
330
5042
100
AcDbEntity
  8
寸法線
 62
     0
 48
10.0
100
AcDbLine
 10
550.833456970336
 20
256.45461703916
 30
0.0
 11
550.833456970336
 21
231.626740573099
 31
0.0
  0
LINE
  5
5A14
330
5042
100
AcDbEntity
  8
寸法線
 62
     0
 48
10.0
100
AcDbLine
 10
456.833456970336
 20
232.876740573099
 30
0.0
 11
544.833456970336
 21
232.876740573099
 31
0.0
  0
INSERT
  5
5A15
330
5042
100
AcDbEntity
  8
寸法線
 62
     0
100
AcDbBlockReference
  2
_OPEN30
 10
450.833456970336
 20
232.876740573099
 30
0.0
 41
6.0
 42
6.0
 43
6.0
 50
180.0
  0
INSERT
  5
5A16
330
5042
100
AcDbEntity
  8
寸法線
 62
     0
100
AcDbBlockReference
  2
_OPEN30
 10
550.833456970336
 20
232.876740573099
 30
0.0
 41
6.0
 42
6.0
 43
6.0
  0
MTEXT
  5
5A17
330
5042
100
AcDbEntity
  8
寸法線
 62
     0
 48
10.0
100
AcDbMText
 10
500.833456970336
 20
238.501740573099
 30
0.0
 40
10.0
 41
0.0
 71
     5
 72
     1
  1
\A1;100
  0
POINT
  5
5A18
330
5042
100
AcDbEntity
  8
DEFPOINTS
 62
     0
100
AcDbPoint
 10
450.833456970336
 20
257.07961703916
 30
0.0
  0
POINT
  5
5A19
330
5042
100
AcDbEntity
  8
DEFPOINTS
 62
     0
100
AcDbPoint
 10
550.833456970336
 20
257.07961703916
 30
0.0
  0
POINT
  5
5A1A
330
5042
100
AcDbEntity
  8
DEFPOINTS
 62
     0
100
AcDbPoint
 10
550.833456970336
 20
232.876740573099
 30
0.0
  0
ENDBLK
  5
504D
330
5042
100
AcDbEntity
  8
0
 48
10.0
100
AcDbBlockEnd
  0
BLOCK
  5
544C
330
5442
100
AcDbEntity
  8
0
 48
10.0
100
AcDbBlockBegin
  2
*D22
 70
     1
 10
0.0
 20
0.0
 30
0.0
  3
*D22
  1
*D22
  0
LINE
  5
5A09
330
5442
100
AcDbEntity
  8
寸法線
 62
     0
 48
10.0
100
AcDbLine
 10
315.452640698953
 20
437.540292163805
 30
0.0
 11
315.750813427581
 21
436.99100351118
 31
0.0
  0
LINE
  5
5A0A
330
5442
100
AcDbEntity
  8
寸法線
 62
     0
 48
10.0
100
AcDbLine
 10
201.200600952918
 20
375.520364609266
 30
0.0
 11
201.498773681546
 21
374.971075956641
 31
0.0
  0
LINE
  5
5A0B
330
5442
100
AcDbEntity
  8
寸法線
 62
     0
 48
10.0
100
AcDbLine
 10
309.881296905124
 20
435.227122621606
 30
0.0
 11
206.175599289492
 21
378.932111456716
 31
0.0
  0
INSERT
  5
5A0C
330
5442
100
AcDbEntity
  8
寸法線
 62
     0
100
AcDbBlockReference
  2
_OPEN30
 10
315.154467970326
 20
438.089580816431
 30
0.0
 41
6.0
 42
6.0
 43
6.0
 50
28.494628308508
  0
INSERT
  5
5A0D
330
5442
100
AcDbEntity
  8
寸法線
 62
     0
100
AcDbBlockReference
  2
_OPEN30
 10
200.90242822429
 20
376.069653261891
 30
0.0
 41
6.0
 42
6.0
 43
6.0
 50
208.494628308508
  0
MTEXT
  5
5A0E
330
5442
100
AcDbEntity
  8
寸法線
 62
     0
 48
10.0
100
AcDbMText
 10
297.454230138417
 20
434.887533960086
 30
0.0
 40
10.0
 41
0.0
 71
     5
 72
     1
  1
\A1;φ130
 11
0.8788618442002722
 21
0.4770763658041513
 31
0.0
  0
POINT
  5
5A0F
330
5442
100
AcDbEntity
  8
DEFPOINTS
 62
     0
100
AcDbPoint
 10
315.154467970326
 20
438.08958081643
 30
0.0
  0
POINT
  5
5A10
330
5442
100
AcDbEntity
  8
DEFPOINTS
 62
     0
100
AcDbPoint
 10
200.90242822429
 20
376.069653261891
 30
0.0
  0
POINT
  5
5A11
330
5442
100
AcDbEntity
  8
DEFPOINTS
 62
     0
100
AcDbPoint
 10
200.90242822429
 20
376.069653261891
 30
0.0
  0
ENDBLK
  5
544D
330
5442
100
AcDbEntity
  8
0
 48
10.0
100
AcDbBlockEnd
  0
BLOCK
  5
5458
330
544E
100
AcDbEntity
  8
0
 48
10.0
100
AcDbBlockBegin
  2
*D23
 70
     1
 10
0.0
 20
0.0
 30
0.0
  3
*D23
  1
*D23
  0
LINE
  5
5A00
330
544E
100
AcDbEntity
  8
寸法線
 62
     0
 48
10.0
100
AcDbLine
 10
181.78003521161
 20
393.193647234635
 30
0.0
 11
181.66310026535
 21
393.807610766404
 31
0.0
  0
LINE
  5
5A01
330
544E
100
AcDbEntity
  8
寸法線
 62
     0
 48
10.0
100
AcDbLine
 10
334.042991090485
 20
422.193513907225
 30
0.0
 11
333.926056144224
 21
422.807477438994
 31
0.0
  0
LINE
  5
5A02
330
544E
100
AcDbEntity
  8
寸法線
 62
     0
 48
10.0
100
AcDbLine
 10
187.79102006286
 20
393.702259186965
 30
0.0
 11
328.265876131757
 21
420.456974891354
 31
0.0
  0
INSERT
  5
5A03
330
544E
100
AcDbEntity
  8
寸法線
 62
     0
100
AcDbBlockReference
  2
_OPEN30
 10
181.896970157871
 20
392.579683702865
 30
0.0
 41
6.0
 42
6.0
 43
6.0
 50
190.783353346836
  0
INSERT
  5
5A04
330
544E
100
AcDbEntity
  8
寸法線
 62
     0
100
AcDbBlockReference
  2
_OPEN30
 10
334.159926036745
 20
421.579550375455
 30
0.0
 41
6.0
 42
6.0
 43
6.0
 50
10.783353346836
  0
MTEXT
  5
5A05
330
544E
100
AcDbEntity
  8
寸法線
 62
     0
 48
10.0
100
AcDbMText
 10
304.140283604152
 20
421.588149787494
 30
0.0
 40
10.0
 41
0.0
 71
     5
 72
     1
  1
\A1;φ155
 11
0.9823416508314472
 21
0.1870959140167073
 31
0.0
  0
POINT
  5
5A06
330
544E
100
AcDbEntity
  8
DEFPOINTS
 62
     0
100
AcDbPoint
 10
181.896970157871
 20
392.579683702866
 30
0.0
  0
POINT
  5
5A07
330
544E
100
AcDbEntity
  8
DEFPOINTS
 62
     0
100
AcDbPoint
 10
334.159926036745
 20
421.579550375455
 30
0.0
  0
POINT
  5
5A08
330
544E
100
AcDbEntity
  8
DEFPOINTS
 62
     0
100
AcDbPoint
 10
334.159926036745
 20
421.579550375455
 30
0.0
  0
ENDBLK
  5
5459
330
544E
100
AcDbEntity
  8
0
 48
10.0
100
AcDbBlockEnd
  0
BLOCK
  5
5466
330
545A
100
AcDbEntity
  8
0
 48
10.0
100
AcDbBlockBegin
  2
*D24
 70
     1
 10
0.0
 20
0.0
 30
0.0
  3
*D24
  1
*D24
  0
LINE
  5
59F5
330
545A
100
AcDbEntity
  8
寸法線
 62
     0
 48
10.0
100
AcDbLine
 10
166.621835609649
 20
405.20461703916
 30
0.0
 11
164.389140469649
 21
405.20461703916
 31
0.0
  0
LINE
  5
59F6
330
545A
100
AcDbEntity
  8
寸法線
 62
     0
 48
10.0
100
AcDbLine
 10
166.621835609649
 20
408.95461703916
 30
0.0
 11
164.389140469649
 21
408.95461703916
 31
0.0
  0
LINE
  5
59F7
330
545A
100
AcDbEntity
  8
寸法線
 62
     0
 48
10.0
100
AcDbLine
 10
165.639140469649
 20
408.95461703916
 30
0.0
 11
165.639140469649
 21
434.411723820347
 31
0.0
  0
LINE
  5
59F8
330
545A
100
AcDbEntity
  8
寸法線
 62
     0
 48
10.0
100
AcDbLine
 10
165.639140469649
 20
405.20461703916
 30
0.0
 11
165.639140469649
 21
408.95461703916
 31
0.0
  0
LINE
  5
59F9
330
545A
100
AcDbEntity
  8
寸法線
 62
     0
 48
10.0
100
AcDbLine
 10
165.639140469649
 20
399.20461703916
 30
0.0
 11
165.639140469649
 21
393.20461703916
 31
0.0
  0
LINE
  5
59FA
330
545A
100
AcDbEntity
  8
寸法線
 62
     0
 48
10.0
100
AcDbLine
 10
165.639140469649
 20
414.95461703916
 30
0.0
 11
165.639140469649
 21
420.95461703916
 31
0.0
  0
INSERT
  5
59FB
330
545A
100
AcDbEntity
  8
寸法線
 62
     0
100
AcDbBlockReference
  2
_OPEN30
 10
165.639140469649
 20
405.20461703916
 30
0.0
 41
6.0
 42
6.0
 43
6.0
 50
90.0
  0
INSERT
  5
59FC
330
545A
100
AcDbEntity
  8
寸法線
 62
     0
100
AcDbBlockReference
  2
_OPEN30
 10
165.639140469649
 20
408.95461703916
 30
0.0
 41
6.0
 42
6.0
 43
6.0
 50
270.0
  0
MTEXT
  5
59FD
330
545A
100
AcDbEntity
  8
寸法線
 62
     0
 48
10.0
100
AcDbMText
 10
160.014140469649
 20
427.786723820347
 30
0.0
 40
10.0
 41
0.0
 71
     5
 72
     1
  1
\A1;1.5
 11
0.0
 21
1.0
 31
0.0
  0
POINT
  5
59FE
330
545A
100
AcDbEntity
  8
DEFPOINTS
 62
     0
100
AcDbPoint
 10
167.246835609649
 20
405.20461703916
 30
0.0
  0
POINT
  5
59FF
330
545A
100
AcDbEntity
  8
DEFPOINTS
 62
     0
100
AcDbPoint
 10
167.246835609649
 20
408.95461703916
 30
0.0
  0
POINT
  5
5FD5
330
545A
100
AcDbEntity
  8
DEFPOINTS
 62
     0
100
AcDbPoint
 10
165.639140469649
 20
408.95461703916
 30
0.0
  0
ENDBLK
  5
5467
330
545A
100
AcDbEntity
  8
0
 48
10.0
100
AcDbBlockEnd
  0
BLOCK
  5
5474
330
5468
100
AcDbEntity
  8
0
 48
10.0
100
AcDbBlockBegin
  2
*D25
 70
     1
 10
0.0
 20
0.0
 30
0.0
  3
*D25
  1
*D25
  0
LINE
  5
59EA
330
5468
100
AcDbEntity
  8
寸法線
 62
     0
 48
10.0
100
AcDbLine
 10
102.009728140004
 20
407.07961703916
 30
0.0
 11
32.890803010876
 21
407.07961703916
 31
0.0
  0
LINE
  5
59EB
330
5468
100
AcDbEntity
  8
寸法線
 62
     0
 48
10.0
100
AcDbLine
 10
50.708763636419
 20
331.621422917932
 30
0.0
 11
46.468264348472
 21
330.078007398692
 31
0.0
  0
ARC
  5
59EC
330
5468
100
AcDbEntity
  8
寸法線
 62
     0
 48
10.0
100
AcDbCircle
 10
258.028448097306
 20
407.07961703916
 30
0.0
 40
223.8876450864296
100
AcDbArc
 50
181.535524504532
 51
198.464475495469
  0
INSERT
  5
59ED
330
5468
100
AcDbEntity
  8
寸法線
 62
     0
100
AcDbBlockReference
  2
_OPEN30
 10
34.140803010876
 20
407.07961703916
 30
0.0
 41
6.0
 42
6.0
 43
6.0
 50
90.767762252266
  0
INSERT
  5
59EE
330
5468
100
AcDbEntity
  8
寸法線
 62
     0
100
AcDbBlockReference
  2
_OPEN30
 10
47.642880124455
 20
330.505532577849
 30
0.0
 41
6.0
 42
6.0
 43
6.0
 50
289.232237747735
  0
MTEXT
  5
59EF
330
5468
100
AcDbEntity
  8
寸法線
 62
     0
 48
10.0
100
AcDbMText
 10
43.091961437332
 20
369.18051530232
 30
0.0
 40
10.0
 41
0.0
 71
     5
 72
     1
  1
約\A1;20%%d
 11
0.1736481776669389
 21
-0.9848077530122066
 31
0.0
  0
POINT
  5
59F0
330
5468
100
AcDbEntity
  8
DEFPOINTS
 62
     0
100
AcDbPoint
 10
35.654651172949
 20
381.08784788444
 30
0.0
  0
POINT
  5
59F1
330
5468
100
AcDbEntity
  8
DEFPOINTS
 62
     0
100
AcDbPoint
 10
350.812436362545
 20
407.07961703916
 30
0.0
  0
POINT
  5
59F2
330
5468
100
AcDbEntity
  8
DEFPOINTS
 62
     0
100
AcDbPoint
 10
51.29607152441
 20
331.835185507511
 30
0.0
  0
POINT
  5
59F3
330
5468
100
AcDbEntity
  8
DEFPOINTS
 62
     0
100
AcDbPoint
 10
228.371656163587
 20
396.28542753146
 30
0.0
  0
POINT
  5
59F4
330
5468
100
AcDbEntity
  8
DEFPOINTS
 62
     0
100
AcDbPoint
 10
102.634728140004
 20
407.07961703916
 30
0.0
  0
ENDBLK
  5
5475
330
5468
100
AcDbEntity
  8
0
 48
10.0
100
AcDbBlockEnd
  0
BLOCK
  5
5482
330
5476
100
AcDbEntity
  8
0
 48
10.0
100
AcDbBlockBegin
  2
*D26
 70
     1
 10
0.0
 20
0.0
 30
0.0
  3
*D26
  1
*D26
  0
ARC
  5
59E1
330
5476
100
AcDbEntity
  8
寸法線
 62
     0
 48
10.0
100
AcDbCircle
 10
258.028448097322
 20
407.079617039166
 30
0.0
 40
154.4899581279913
100
AcDbArc
 50
197.225363320872
 51
197.77463667913
  0
INSERT
  5
59E2
330
5476
100
AcDbEntity
  8
寸法線
 62
     0
100
AcDbBlockReference
  2
_OPEN30
 10
108.802607639179
 20
367.094673598549
 30
0.0
 41
6.0
 42
6.0
 43
6.0
 50
106.112681660436
  0
INSERT
  5
59E3
330
5476
100
AcDbEntity
  8
寸法線
 62
     0
100
AcDbBlockReference
  2
_OPEN30
 10
112.855374458925
 20
354.240939417852
 30
0.0
 41
6.0
 42
6.0
 43
6.0
 50
288.887318339565
  0
MTEXT
  5
59E4
330
5476
100
AcDbEntity
  8
寸法線
 62
     0
 48
10.0
100
AcDbMText
 10
119.331033489287
 20
342.062686944121
 30
0.0
 40
10.0
 41
0.0
 71
     5
 72
     1
  1
約\A1;5%%d
 11
0.4244473477369911
 21
-0.9054526210680679
 31
0.0
  0
POINT
  5
59E5
330
5476
100
AcDbEntity
  8
DEFPOINTS
 62
     0
100
AcDbPoint
 10
110.028688452648
 20
362.771397626655
 30
0.0
  0
POINT
  5
59E6
330
5476
100
AcDbEntity
  8
DEFPOINTS
 62
     0
100
AcDbPoint
 10
81.746984799553
 20
359.84514130795
 30
0.0
  0
POINT
  5
59E7
330
5476
100
AcDbEntity
  8
DEFPOINTS
 62
     0
100
AcDbPoint
 10
51.29607152441
 20
331.835185507511
 30
0.0
  0
POINT
  5
59E8
330
5476
100
AcDbEntity
  8
DEFPOINTS
 62
     0
100
AcDbPoint
 10
228.371656163587
 20
396.28542753146
 30
0.0
  0
POINT
  5
59E9
330
5476
100
AcDbEntity
  8
DEFPOINTS
 62
     0
100
AcDbPoint
 10
122.913264173086
 20
370.875612621483
 30
0.0
  0
ENDBLK
  5
5483
330
5476
100
AcDbEntity
  8
0
 48
10.0
100
AcDbBlockEnd
  0
BLOCK
  5
6037
330
6036
100
AcDbEntity
  8
0
100
AcDbBlockBegin
  2
*D53
 70
     1
 10
0.0
 20
0.0
 30
0.0
  3
*D53
  1
*D53
  0
LINE
  5
6039
330
6036
100
AcDbEntity
  8
寸法線
 62
     0
 48
10.0
100
AcDbLine
 10
475.833456970336
 20
398.95461703916
 30
0.0
 11
475.833456970336
 21
363.32961703916
 31
0.0
  0
LINE
  5
603A
330
6036
100
AcDbEntity
  8
寸法線
 62
     0
 48
10.0
100
AcDbLine
 10
500.833456970336
 20
398.95461703916
 30
0.0
 11
500.833456970336
 21
363.32961703916
 31
0.0
  0
LINE
  5
603B
330
6036
100
AcDbEntity
  8
寸法線
 62
     0
 48
10.0
100
AcDbLine
 10
481.833456970336
 20
364.57961703916
 30
0.0
 11
494.833456970336
 21
364.57961703916
 31
0.0
  0
INSERT
  5
603C
330
6036
100
AcDbEntity
  8
寸法線
 62
     0
100
AcDbBlockReference
  2
_OPEN30
 10
475.833456970336
 20
364.57961703916
 30
0.0
 41
6.0
 42
6.0
 43
6.0
 50
180.0
  0
INSERT
  5
603D
330
6036
100
AcDbEntity
  8
寸法線
 62
     0
100
AcDbBlockReference
  2
_OPEN30
 10
500.833456970336
 20
364.57961703916
 30
0.0
 41
6.0
 42
6.0
 43
6.0
  0
MTEXT
  5
603E
330
6036
100
AcDbEntity
  8
寸法線
 62
     0
 48
10.0
100
AcDbMText
 10
488.333456970336
 20
370.209825372494
 30
0.0
 40
10.0
 41
0.0
 71
     5
 72
     1
  1
\A1;25
  0
POINT
  5
603F
330
6036
100
AcDbEntity
  8
DEFPOINTS
 62
     0
100
AcDbPoint
 10
475.833456970336
 20
399.57961703916
 30
0.0
  0
POINT
  5
6040
330
6036
100
AcDbEntity
  8
DEFPOINTS
 62
     0
100
AcDbPoint
 10
500.833456970336
 20
399.57961703916
 30
0.0
  0
POINT
  5
6041
330
6036
100
AcDbEntity
  8
DEFPOINTS
 62
     0
100
AcDbPoint
 10
500.833456970336
 20
364.57961703916
 30
0.0
  0
ENDBLK
  5
6038
330
6036
100
AcDbEntity
  8
0
100
AcDbBlockEnd
  0
ENDSEC
  0
SECTION
  2
ENTITIES
  0
TEXT
  5
3002
330
1A
100
AcDbEntity
  8
寸法線
100
AcDbText
 10
149.228613054609
 20
21.800369706131
 30
0.0
 40
11.25
  1
C-H間：ON
 41
0.933398427235
 72
     5
 11
212.758043508304
 21
21.800369706131
 31
0.0
100
AcDbText
  0
TEXT
  5
3003
330
1A
100
AcDbEntity
  8
寸法線
100
AcDbText
 10
123.933998643962
 20
34.19010336296
 30
0.0
 40
11.25
  1
端子C-L間：OFF
 41
0.951601117185
 72
     5
 11
219.748336130497
 21
34.19010336296
 31
0.0
100
AcDbText
  0
TEXT
  5
3004
330
1A
100
AcDbEntity
  8
寸法線
100
AcDbText
 10
150.117492210043
 20
52.062563840061
 30
0.0
 40
11.25
  1
C-H間：OFF
 41
0.917123965436
 72
     5
 11
218.729828874229
 21
52.062563840061
 31
0.0
100
AcDbText
  0
TEXT
  5
3005
330
1A
100
AcDbEntity
  8
寸法線
100
AcDbText
 10
123.933998643962
 20
64.94076086296
 30
0.0
 40
11.25
  1
端子C-L間：ON
 41
0.958083832335
 72
     5
 11
213.933998643962
 21
64.94076086296
 31
0.0
100
AcDbText
  0
LINE
  5
3008
102
{ACAD_REACTORS
330
36B7
102
}
330
1A
100
AcDbEntity
  8
寸法線
100
AcDbLine
 10
114.309027156256
 20
31.44018086296
 30
0.0
 11
114.685921143962
 21
31.817074850667
 31
0.0
  0
TEXT
  5
3081
330
1A
100
AcDbEntity
  8
寸法線
100
AcDbText
 10
323.606545428692
 20
25.114122570948
 30
0.0
 40
10.0
  1
H
100
AcDbText
  0
TEXT
  5
3082
330
1A
100
AcDbEntity
  8
寸法線
100
AcDbText
 10
297.856042928692
 20
25.364117570948
 30
0.0
 40
10.0
  1
C
100
AcDbText
  0
TEXT
  5
3083
330
1A
100
AcDbEntity
  8
寸法線
100
AcDbText
 10
271.980492928693
 20
25.114122570948
 30
0.0
 40
10.0
  1
L
100
AcDbText
  0
TEXT
  5
308A
330
1A
100
AcDbEntity
  8
寸法線
100
AcDbText
 10
264.600122928692
 20
75.175930070948
 30
0.0
 40
10.0
  1
キ
 41
1.071428571429
  7
EXCADSTD
 72
     5
 11
274.600122928692
 21
75.175930070948
 31
0.0
100
AcDbText
  0
TEXT
  5
308B
330
1A
100
AcDbEntity
  8
寸法線
100
AcDbText
 10
317.601220428692
 20
75.925975070948
 30
0.0
 40
10.0
  1
キ
 41
1.071428571429
  7
EXCADSTD
 72
     5
 11
327.601220428692
 21
75.925975070948
 31
0.0
100
AcDbText
  0
TEXT
  5
308C
330
1A
100
AcDbEntity
  8
寸法線
100
AcDbText
 10
291.100670428692
 20
75.925975070948
 30
0.0
 40
10.0
  1
キ
 41
1.071428571429
  7
EXCADSTD
 72
     5
 11
301.100670428692
 21
75.925975070948
 31
0.0
100
AcDbText
  0
CIRCLE
  5
308D
330
1A
100
AcDbEntity
  8
寸法線
100
AcDbCircle
 10
328.416345428693
 20
39.206310070948
 30
0.0
 40
1.9999975
  0
CIRCLE
  5
308E
330
1A
100
AcDbEntity
  8
寸法線
100
AcDbCircle
 10
302.533852928692
 20
39.206310070948
 30
0.0
 40
1.9999975
  0
CIRCLE
  5
308F
330
1A
100
AcDbEntity
  8
寸法線
100
AcDbCircle
 10
276.651360428693
 20
39.206310070948
 30
0.0
 40
1.9999975
  0
LINE
  5
3090
330
1A
100
AcDbEntity
  8
寸法線
100
AcDbLine
 10
328.416345428693
 20
146.455455070948
 30
0.0
 11
328.416345428693
 21
41.206355070948
 31
0.0
  0
LINE
  5
3091
330
1A
100
AcDbEntity
  8
寸法線
100
AcDbLine
 10
302.533852928692
 20
97.546460070948
 30
0.0
 11
302.533852928692
 21
41.206355070948
 31
0.0
  0
LINE
  5
3092
330
1A
100
AcDbEntity
  8
寸法線
100
AcDbLine
 10
276.651360428693
 20
146.455455070948
 30
0.0
 11
276.651360428693
 21
41.206355070948
 31
0.0
  0
LINE
  5
3093
330
1A
100
AcDbEntity
  8
寸法線
100
AcDbLine
 10
302.533852928692
 20
101.546475070948
 30
0.0
 11
294.716317928693
 21
119.822460070948
 31
0.0
  0
CIRCLE
  5
3094
330
1A
100
AcDbEntity
  8
寸法線
100
AcDbCircle
 10
312.351357928693
 20
119.822460070948
 30
0.0
 40
2.0000075
  0
LINE
  5
3095
330
1A
100
AcDbEntity
  8
寸法線
100
AcDbLine
 10
312.351357928693
 20
146.455455070948
 30
0.0
 11
312.351357928693
 21
121.822430070948
 31
0.0
  0
CIRCLE
  5
3096
330
1A
100
AcDbEntity
  8
寸法線
100
AcDbCircle
 10
292.716347928692
 20
119.822460070948
 30
0.0
 40
2.0000075
  0
CIRCLE
  5
3097
330
1A
100
AcDbEntity
  8
寸法線
100
AcDbCircle
 10
302.533852928692
 20
99.546505070948
 30
0.0
 40
2.0000075
  0
LINE
  5
3098
330
1A
100
AcDbEntity
  8
寸法線
100
AcDbLine
 10
312.351357928693
 20
146.455455070948
 30
0.0
 11
328.416345428693
 21
146.455455070948
 31
0.0
  0
LINE
  5
3099
330
1A
100
AcDbEntity
  8
寸法線
100
AcDbLine
 10
292.716347928692
 20
146.455455070948
 30
0.0
 11
292.716347928692
 21
121.822430070948
 31
0.0
  0
LINE
  5
309A
330
1A
100
AcDbEntity
  8
寸法線
100
AcDbLine
 10
276.651360428693
 20
146.455455070948
 30
0.0
 11
292.716347928692
 21
146.455455070948
 31
0.0
  0
LINE
  5
30BE
102
{ACAD_REACTORS
330
36B7
102
}
330
1A
100
AcDbEntity
  8
寸法線
100
AcDbLine
 10
77.185921143962
 20
43.94018086296
 30
0.0
 11
77.185921143962
 21
31.44018086296
 31
0.0
  0
LINE
  5
30BF
102
{ACAD_REACTORS
330
36B7
102
}
330
1A
100
AcDbEntity
  8
寸法線
100
AcDbLine
 10
114.685921143962
 20
43.94018086296
 30
0.0
 11
77.185921143962
 21
43.94018086296
 31
0.0
  0
LINE
  5
30C0
102
{ACAD_REACTORS
330
36B7
102
}
330
1A
100
AcDbEntity
  8
寸法線
100
AcDbLine
 10
114.685921143962
 20
31.44018086296
 30
0.0
 11
114.685921143962
 21
43.94018086296
 31
0.0
  0
LINE
  5
30C1
102
{ACAD_REACTORS
330
36B7
102
}
330
1A
100
AcDbEntity
  8
寸法線
100
AcDbLine
 10
77.185921143962
 20
31.44018086296
 30
0.0
 11
114.685921143962
 21
31.44018086296
 31
0.0
  0
LINE
  5
30C2
330
1A
100
AcDbEntity
  8
寸法線
100
AcDbLine
 10
76.935906143962
 20
74.94085086296
 30
0.0
 11
76.935906143962
 21
62.44085086296
 31
0.0
  0
LINE
  5
30C3
330
1A
100
AcDbEntity
  8
寸法線
100
AcDbLine
 10
114.435906143962
 20
74.94085086296
 30
0.0
 11
76.935906143962
 21
74.94085086296
 31
0.0
  0
LINE
  5
30C4
330
1A
100
AcDbEntity
  8
寸法線
100
AcDbLine
 10
114.435906143962
 20
62.44085086296
 30
0.0
 11
114.435906143962
 21
74.94085086296
 31
0.0
  0
LINE
  5
30C5
330
1A
100
AcDbEntity
  8
寸法線
100
AcDbLine
 10
76.935906143962
 20
62.44085086296
 30
0.0
 11
114.435906143962
 21
62.44085086296
 31
0.0
  0
LINE
  5
314D
330
1A
100
AcDbEntity
  8
下書線
100
AcDbLine
 10
270.022083204736
 20
502.58163078916
 30
0.0
 11
996.190303071704
 21
502.58163078916
 31
0.0
  0
MTEXT
  5
33D6
330
1A
100
AcDbEntity
  8
寸法線
 48
10.0
100
AcDbMText
 10
450.503542540003
 20
513.582902940821
 30
0.0
 40
10.0
 41
0.0
 71
     1
 72
     5
  1
SUS304
  0
MTEXT
  5
33E8
330
1A
100
AcDbEntity
  8
寸法線
 48
10.0
100
AcDbMText
 10
515.006395499416
 20
514.145098145388
 30
0.0
 40
10.0
 41
0.0
 71
     1
 72
     5
  1
SUS304
  0
MTEXT
  5
34A7
330
1A
100
AcDbEntity
  8
寸法線
 48
10.0
100
AcDbMText
 10
388.954438773629
 20
513.556936711432
 30
0.0
 40
10.0
 41
0.0
 71
     1
 72
     5
  1
SUS304
  0
HATCH
  5
36B7
330
1A
100
AcDbEntity
  8
細線
 48
10.0
100
AcDbHatch
 10
0.0
 20
0.0
 30
0.0
210
0.0
220
0.0
230
1.0
  2
ANSI31
 70
     0
 71
     1
 91
        1
 92
        7
 72
     0
 73
     1
 93
        5
 10
114.3090271562555
 20
31.44018086296029
 10
114.6859211439618
 20
31.81707485066654
 10
114.6859211439618
 20
43.94018086296029
 10
77.18592114396176
 20
43.94018086296029
 10
77.18592114396176
 20
31.44018086296029
 97
        5
330
3008
330
30C0
330
30BF
330
30BE
330
30C1
 75
     0
 76
     1
 52
0.0
 41
1.0
 77
     0
 78
     1
 53
45.0
 43
-74.70828751201554
 44
-14.86968647703361
 45
-2.245064030267288
 46
2.245064030267288
 79
     0
 47
0.103426171505
 98
        1
 10
106.4363917166687
 20
39.16767251085321
  0
LINE
  5
3B85
330
1A
100
AcDbEntity
  8
中心線
 48
10.0
100
AcDbLine
 10
438.811826940434
 20
407.07961703916
 30
0.0
 11
850.729076158754
 21
407.07961703916
 31
0.0
  0
LINE
  5
3FE4
330
1A
100
AcDbEntity
  8
外形線
 48
10.0
100
AcDbLine
 10
570.833419470336
 20
424.0796104957
 30
0.0
 11
629.333998026132
 21
424.079616875637
 31
0.0
  0
LINE
  5
3FE5
330
1A
100
AcDbEntity
  8
外形線
 48
10.0
100
AcDbLine
 10
570.833419470336
 20
390.079655455458
 30
0.0
 11
629.326054427454
 21
390.079618004283
 31
0.0
  0
MTEXT
  5
4006
330
1A
100
AcDbEntity
  8
寸法線
 48
10.0
100
AcDbMText
 10
578.714282744889
 20
514.305724472592
 30
0.0
 40
10.0
 41
0.0
 71
     1
 72
     5
  1
SUS304
  0
DIMENSION
  5
401E
330
1A
100
AcDbEntity
  8
寸法線
 48
10.0
100
AcDbDimension
  2
*D5
 10
670.056668754074
 20
390.07961703916
 30
0.0
 11
670.056668754074
 21
442.45461703916
 31
0.0
 70
   160
  1
φ<>
  3
ISO-25
100
AcDbAlignedDimension
 13
670.056668754075
 23
424.07961703916
 33
0.0
 14
670.056680497758
 24
390.07961703916
 34
0.0
 50
90.0
100
AcDbRotatedDimension
1001
ACAD
1000
DSTYLE
1002
{
1070
     5
1000
OPEN30
1070
    41
1040
6.0
1070
    47
1040
0.1
1070
    48
1040
0.1
1070
    73
1070
     0
1070
   140
1040
10.0
1070
   271
1070
     1
1070
   272
1070
     1
1070
   341
1005
2AEB
1002
}
  0
LINE
  5
41DD
330
1A
100
AcDbEntity
  8
外形線
 48
10.0
100
AcDbLine
 10
570.833419470336
 20
424.0796104957
 30
0.0
 11
570.833419470336
 21
390.079655455458
 31
0.0
  0
MTEXT
  5
43DC
330
1A
100
AcDbEntity
  8
寸法線
 48
10.0
100
AcDbMText
 10
798.930291789781
 20
347.309975624
 30
0.0
 40
10.0
 41
65.843230169923
 71
     1
 72
     5
  1
導線取出口\PG 1/2"
1001
ACAD
1000
MTEXTBEGIN
1070
    44
1040
0.8
1000
MTEXTEND
  0
DIMENSION
  5
43DD
330
1A
100
AcDbEntity
  8
寸法線
 48
10.0
100
AcDbDimension
  2
*D10
 10
850.729044158754
 20
271.548248727816
 30
0.0
 11
775.741450158754
 21
271.548248727816
 31
0.0
 70
   160
  3
ISO-25
100
AcDbAlignedDimension
 13
700.753856158754
 23
293.472757690546
 33
0.0
 14
850.729044158754
 24
306.359366398714
 34
0.0
100
AcDbRotatedDimension
1001
ACAD
1000
DSTYLE
1002
{
1070
     5
1000
OPEN30
1070
    41
1040
6.0
1070
    47
1040
0.1
1070
    48
1040
0.1
1070
    73
1070
     0
1070
   140
1040
10.0
1070
   271
1070
     1
1070
   272
1070
     1
1070
   341
1005
2AEB
1002
}
  0
DIMENSION
  5
43DE
330
1A
100
AcDbEntity
  8
寸法線
 48
10.0
100
AcDbDimension
  2
*D11
 10
710.753856158754
 20
294.722757690546
 30
0.0
 11
705.753856158754
 21
299.347757690546
 31
0.0
 70
    32
  3
ISO-25
100
AcDbAlignedDimension
 13
700.753856158754
 23
329.57953953916
 33
0.0
 14
710.753856158754
 24
329.57953953916
 34
0.0
100
AcDbRotatedDimension
1001
ACAD
1000
DSTYLE
1002
{
1070
     5
1000
OPEN30
1070
    41
1040
6.0
1070
    47
1040
0.1
1070
    48
1040
0.1
1070
    73
1070
     0
1070
   140
1040
8.0
1070
   271
1070
     1
1070
   272
1070
     1
1070
   341
1005
2AEB
1002
}
  0
DIMENSION
  5
43DF
330
1A
100
AcDbEntity
  8
寸法線
 48
10.0
100
AcDbDimension
  2
*D12
 10
767.753856158754
 20
294.722757690546
 30
0.0
 11
739.253856158754
 21
300.347757690546
 31
0.0
 70
    32
  3
ISO-25
100
AcDbAlignedDimension
 13
710.753856158754
 23
329.57953953916
 33
0.0
 14
767.753856158754
 24
325.13650303916
 34
0.0
100
AcDbRotatedDimension
1001
ACAD
1000
DSTYLE
1002
{
1070
     5
1000
OPEN30
1070
    41
1040
6.0
1070
    47
1040
0.1
1070
    48
1040
0.1
1070
    73
1070
     0
1070
   140
1040
10.0
1070
   271
1070
     1
1070
   272
1070
     1
1070
   341
1005
2AEB
1002
}
  0
DIMENSION
  5
43E0
330
1A
100
AcDbEntity
  8
寸法線
 48
10.0
100
AcDbDimension
  2
*D13
 10
788.753856158754
 20
294.722757690546
 30
0.0
 11
778.253856158754
 21
300.352966023879
 31
0.0
 70
    32
  3
ISO-25
100
AcDbAlignedDimension
 13
767.753856158754
 23
325.13650303916
 33
0.0
 14
788.753856158754
 24
356.07961703916
 34
0.0
100
AcDbRotatedDimension
1001
ACAD
1000
DSTYLE
1002
{
1070
     5
1000
OPEN30
1070
    41
1040
6.0
1070
    47
1040
0.1
1070
    48
1040
0.1
1070
    73
1070
     0
1070
   140
1040
10.0
1070
   271
1070
     1
1070
   272
1070
     1
1070
   341
1005
2AEB
1002
}
  0
DIMENSION
  5
43E1
330
1A
100
AcDbEntity
  8
寸法線
 48
10.0
100
AcDbDimension
  2
*D14
 10
788.753856158754
 20
294.722757690546
 30
0.0
 11
819.741450158754
 21
300.347757690546
 31
0.0
 70
    32
  3
ISO-25
100
AcDbAlignedDimension
 13
850.729044158754
 23
333.014516608968
 33
0.0
 14
788.753856158754
 24
356.07961703916
 34
0.0
100
AcDbRotatedDimension
1001
ACAD
1000
DSTYLE
1002
{
1070
     5
1000
OPEN30
1070
    41
1040
6.0
1070
    47
1040
0.1
1070
    48
1040
0.1
1070
    73
1070
     0
1070
   140
1040
10.0
1070
   271
1070
     1
1070
   272
1070
     1
1070
   341
1005
2AEB
1002
}
  0
DIMENSION
  5
43E2
330
1A
100
AcDbEntity
  8
寸法線
 48
10.0
100
AcDbDimension
  2
*D15
 10
876.203775941635
 20
356.07961703916
 30
0.0
 11
876.203775941635
 21
406.46761753916
 31
0.0
 70
   160
  1
φ102
  3
ISO-25
100
AcDbAlignedDimension
 13
806.461010158754
 23
458.07961703916
 33
0.0
 14
806.461010158754
 24
356.07961703916
 34
0.0
 50
90.0
100
AcDbRotatedDimension
1001
ACAD
1000
DSTYLE
1002
{
1070
     5
1000
OPEN30
1070
    41
1040
6.0
1070
    47
1040
0.1
1070
    48
1040
0.1
1070
    73
1070
     0
1070
   140
1040
10.0
1070
   271
1070
     1
1070
   272
1070
     1
1070
   341
1005
2AEB
1002
}
  0
MTEXT
  5
4435
102
{ACAD_XDICTIONARY
360
6042
102
}
330
1A
100
AcDbEntity
  8
寸法線
 48
10.0
100
AcDbMText
 10
647.906110440579
 20
503.876997060787
 30
0.0
 40
10.0
 41
0.0
 71
     7
 72
     1
  1
\A1;フランジ\Pアルミ鋳物
1001
ACADANNOTATIVE
1000
AnnotativeData
1002
{
1070
     1
1070
     0
1002
}
  0
MTEXT
  5
4436
330
1A
100
AcDbEntity
  8
寸法線
 48
10.0
100
AcDbMText
 10
722.689943103485
 20
503.754040508217
 30
0.0
 40
10.0
 41
0.0
 71
     7
 72
     1
  1
\A1;アルミ鋳物
  0
MTEXT
  5
4437
330
1A
100
AcDbEntity
  8
寸法線
 48
10.0
100
AcDbMText
 10
795.638090350042
 20
503.181641276503
 30
0.0
 40
10.0
 41
0.0
 71
     7
 72
     1
  1
\A1;Oリング
  0
MTEXT
  5
4438
330
1A
100
AcDbEntity
  8
寸法線
 48
10.0
100
AcDbMText
 10
853.417856429104
 20
502.895441660646
 30
0.0
 40
10.0
 41
0.0
 71
     7
 72
     1
  1
\A1;アルミ鋳物
  0
ARC
  5
4721
330
1A
100
AcDbEntity
  8
細線
100
AcDbCircle
 10
634.669235664806
 20
404.57961703916
 30
0.0
 40
5.0
100
AcDbArc
 50
329.999999999999
 51
30.0
  0
ARC
  5
4722
330
1A
100
AcDbEntity
  8
細線
100
AcDbCircle
 10
643.32948970265
 20
404.57961703916
 30
0.0
 40
5.0
100
AcDbArc
 50
150.0
 51
210.0
  0
LINE
  5
4723
330
1A
100
AcDbEntity
  8
外形線
100
AcDbLine
 10
647.801670683728
 20
402.07961703916
 30
0.0
 11
638.999362683728
 21
402.07961703916
 31
0.0
  0
ARC
  5
4724
330
1A
100
AcDbEntity
  8
細線
100
AcDbCircle
 10
661.374972683728
 20
398.86257703916
 30
0.0
 40
17.701182
100
AcDbArc
 50
169.528815071374
 51
209.004633127638
  0
ARC
  5
4725
330
1A
100
AcDbEntity
  8
細線
100
AcDbCircle
 10
631.385136683728
 20
398.67962303916
 30
0.0
 40
16.76491
100
AcDbArc
 50
329.93075624098
 51
30.069265854605
  0
ARC
  5
4726
330
1A
100
AcDbEntity
  8
細線
100
AcDbCircle
 10
630.869188530832
 20
404.57961553916
 30
0.0
 40
5.0
100
AcDbArc
 50
330.000019847838
 51
30.000019847843
  0
LINE
  5
4727
330
1A
100
AcDbEntity
  8
外形線
100
AcDbLine
 10
631.348850683728
 20
402.07961703916
 30
0.0
 11
635.199314683728
 21
402.07961703916
 31
0.0
  0
ARC
  5
4728
330
1A
100
AcDbEntity
  8
細線
100
AcDbCircle
 10
614.913242683728
 20
398.67962303916
 30
0.0
 40
16.7836
100
AcDbArc
 50
329.967712018777
 51
30.032310076827
  0
LINE
  5
4729
330
1A
100
AcDbEntity
  8
外形線
100
AcDbLine
 10
645.893834354713
 20
390.27962903916
 30
0.0
 11
700.753856158754
 21
390.27962903916
 31
0.0
  0
ARC
  5
472B
330
1A
100
AcDbEntity
  8
細線
100
AcDbCircle
 10
643.32948970265
 20
409.57961703916
 30
0.0
 40
5.0
100
AcDbArc
 50
150.0
 51
210.0
  0
LINE
  5
472C
330
1A
100
AcDbEntity
  8
外形線
100
AcDbLine
 10
638.999362683728
 20
412.07961703916
 30
0.0
 11
643.993594683728
 21
412.07961703916
 31
0.0
  0
ARC
  5
472D
330
1A
100
AcDbEntity
  8
細線
100
AcDbCircle
 10
660.468234683728
 20
415.47961103916
 30
0.0
 40
16.82178
100
AcDbArc
 50
150.042864233653
 51
209.957175462036
  0
ARC
  5
472E
330
1A
100
AcDbEntity
  8
細線
100
AcDbCircle
 10
639.529440836624
 20
409.57961853916
 30
0.0
 40
5.0
100
AcDbArc
 50
150.000019847839
 51
210.000019847843
  0
ARC
  5
472F
330
1A
100
AcDbEntity
  8
細線
100
AcDbCircle
 10
630.86918679878
 20
409.57961553916
 30
0.0
 40
5.0
100
AcDbArc
 50
330.000019847838
 51
30.000019847843
  0
LINE
  5
4730
330
1A
100
AcDbEntity
  8
外形線
100
AcDbLine
 10
627.565494683728
 20
412.07961703916
 30
0.0
 11
635.199314683728
 21
412.07961703916
 31
0.0
  0
ARC
  5
4731
330
1A
100
AcDbEntity
  8
細線
100
AcDbCircle
 10
613.208500683728
 20
415.11663503916
 30
0.0
 40
18.44903
100
AcDbArc
 50
350.525036637612
 51
28.358241991014
  0
ARC
  5
4732
330
1A
100
AcDbEntity
  8
細線
100
AcDbCircle
 10
644.212070683728
 20
415.47961103916
 30
0.0
 40
16.99026
100
AcDbArc
 50
150.369793951545
 51
209.630245744144
  0
LINE
  5
4733
330
1A
100
AcDbEntity
  8
外形線
100
AcDbLine
 10
645.893860488986
 20
423.87960503916
 30
0.0
 11
700.753856158754
 21
423.87960503916
 31
0.0
  0
DIMENSION
  5
4973
330
1A
100
AcDbEntity
  8
寸法線
 48
10.0
100
AcDbDimension
  2
*D16
 10
700.753856158753
 20
212.157658107412
 30
0.0
 11
575.793637814544
 21
212.157658107412
 31
0.0
 70
   160
  1
350
  3
ISO-25
100
AcDbAlignedDimension
 13
450.833419470336
 23
237.858180202385
 33
0.0
 14
700.753856158753
 24
276.524730717597
 34
0.0
100
AcDbRotatedDimension
1001
ACAD
1000
DSTYLE
1002
{
1070
     5
1000
OPEN30
1070
    41
1040
6.0
1070
    47
1040
0.1
1070
    48
1040
0.1
1070
    73
1070
     0
1070
   140
1040
10.0
1070
   271
1070
     1
1070
   272
1070
     1
1070
   341
1005
2AEB
1002
}
  0
LEADER
  5
4AB0
330
1A
100
AcDbEntity
  8
寸法線
 48
10.0
100
AcDbLeader
  3
ISO-25
 76
     3
 10
622.465935268519
 20
424.141636417519
 30
0.0
 10
622.298454752394
 20
502.628488464028
 30
0.0
 10
610.50647244647
 20
502.628488464028
 30
0.0
213
-23.70978319635606
223
0.0
233
0.0
1001
ACAD
1000
DSTYLE
1002
{
1070
     5
1000
OPEN30
1070
   147
1040
0.625
1070
    77
1070
     0
1070
    41
1040
6.0
1070
    47
1040
0.1
1070
    48
1040
0.1
1070
    73
1070
     0
1070
   140
1040
5.0
1070
   271
1070
     1
1070
   272
1070
     1
1070
   341
1005
2AEB
1070
   342
1005
2AEB
1002
}
  0
LEADER
  5
4AB1
330
1A
100
AcDbEntity
  8
寸法線
 48
10.0
100
AcDbLeader
  3
ISO-25
 76
     3
 10
706.310448314358
 20
484.576514003482
 30
0.0
 10
709.602198354847
 20
502.628488464028
 30
0.0
 10
697.2742168532
 20
502.628488464028
 30
0.0
213
-18.73634758323738
223
0.0
233
0.0
1001
ACAD
1000
DSTYLE
1002
{
1070
     5
1000
OPEN30
1070
   147
1040
0.625
1070
    77
1070
     0
1070
    41
1040
6.0
1070
    47
1040
0.1
1070
    48
1040
0.1
1070
    73
1070
     0
1070
   140
1040
5.0
1070
   271
1070
     1
1070
   272
1070
     1
1070
   341
1005
2AEB
1070
   342
1005
2AEB
1002
}
  0
LEADER
  5
4AB2
330
1A
100
AcDbEntity
  8
寸法線
 48
10.0
100
AcDbLeader
  3
ISO-25
 76
     3
 10
562.67178128235
 20
411.976176359095
 30
0.0
 10
558.242718064814
 20
502.628488464028
 30
0.0
 10
547.522734150338
 20
502.628488464028
 30
0.0
213
-18.71117700046898
223
0.0
233
0.0
1001
ACAD
1000
DSTYLE
1002
{
1070
     5
1000
OPEN30
1070
   147
1040
0.625
1070
    77
1070
     0
1070
    41
1040
6.0
1070
    47
1040
0.1
1070
    48
1040
0.1
1070
    73
1070
     0
1070
   140
1040
5.0
1070
   271
1070
     1
1070
   272
1070
     1
1070
   341
1005
2AEB
1070
   342
1005
2AEB
1002
}
  0
LEADER
  5
4AB3
330
1A
100
AcDbEntity
  8
寸法線
 48
10.0
100
AcDbLeader
  3
ISO-25
 76
     3
 10
488.839931300534
 20
414.508136128206
 30
0.0
 10
493.515065983287
 20
502.628488464028
 30
0.0
 10
484.13508005812
 20
502.628488464028
 30
0.0
213
-19.10169510414039
223
0.0
233
0.0
1001
ACAD
1000
DSTYLE
1002
{
1070
     5
1000
OPEN30
1070
   147
1040
0.625
1070
    77
1070
     0
1070
    41
1040
6.0
1070
    47
1040
0.1
1070
    48
1040
0.1
1070
    73
1070
     0
1070
   140
1040
5.0
1070
   271
1070
     1
1070
   272
1070
     1
1070
   341
1005
2AEB
1070
   342
1005
2AEB
1002
}
  0
LEADER
  5
4AB4
330
1A
100
AcDbEntity
  8
寸法線
 48
10.0
100
AcDbLeader
  3
ISO-25
 76
     3
 10
467.609722897835
 20
409.045100754166
 30
0.0
 10
434.355112954918
 20
502.617210770445
 30
0.0
 10
422.295131051133
 20
502.617210770445
 30
0.0
213
-19.39579090731144
223
0.0
233
0.0
1001
ACAD
1000
DSTYLE
1002
{
1070
     5
1000
OPEN30
1070
   147
1040
0.625
1070
    77
1070
     0
1070
    41
1040
6.0
1070
    47
1040
0.1
1070
    48
1040
0.1
1070
    73
1070
     0
1070
   140
1040
5.0
1070
   271
1070
     1
1070
   272
1070
     1
1070
   341
1005
2AEB
1070
   342
1005
2AEB
1002
}
  0
LEADER
  5
4ACA
330
1A
100
AcDbEntity
  8
寸法線
 48
10.0
100
AcDbLeader
  3
ISO-25
 76
     3
 10
789.647837289355
 20
458.260013179432
 30
0.0
 10
795.877971365733
 20
502.551661669671
 30
0.0
 10
806.597955280209
 20
502.551661669671
 30
0.0
213
-17.95917766912271
223
0.0
233
0.0
1001
ACAD
1000
DSTYLE
1002
{
1070
     5
1000
OPEN30
1070
   147
1040
0.625
1070
    77
1070
     0
1070
    41
1040
6.0
1070
    47
1040
0.1
1070
    48
1040
0.1
1070
    73
1070
     0
1070
   140
1040
5.0
1070
   271
1070
     1
1070
   272
1070
     1
1070
   341
1005
2AEB
1070
   342
1005
2AEB
1002
}
  0
LEADER
  5
4ACB
330
1A
100
AcDbEntity
  8
寸法線
 48
10.0
100
AcDbLeader
  3
ISO-25
 76
     3
 10
748.06366348033
 20
451.246490942581
 30
0.0
 10
723.552666722978
 20
502.551661669671
 30
0.0
 10
736.39980985097
 20
502.551661669671
 30
0.0
213
-55.083023377975
223
0.0
233
0.0
1001
ACAD
1000
DSTYLE
1002
{
1070
     5
1000
OPEN30
1070
   147
1040
0.625
1070
    77
1070
     0
1070
    41
1040
6.0
1070
    47
1040
0.1
1070
    48
1040
0.1
1070
    73
1070
     0
1070
   140
1040
5.0
1070
   271
1070
     1
1070
   272
1070
     1
1070
   341
1005
2AEB
1070
   342
1005
2AEB
1002
}
  0
LEADER
  5
4ACC
330
1A
100
AcDbEntity
  8
寸法線
 48
10.0
100
AcDbLeader
  3
ISO-25
 76
     3
 10
828.527349387225
 20
454.821219878026
 30
0.0
 10
853.705592001962
 20
502.551661669671
 30
0.0
 10
863.353577524991
 20
502.551661669671
 30
0.0
213
-19.50579305792633
223
0.0
233
0.0
1001
ACAD
1000
DSTYLE
1002
{
1070
     5
1000
OPEN30
1070
   147
1040
0.625
1070
    77
1070
     0
1070
    41
1040
6.0
1070
    47
1040
0.1
1070
    48
1040
0.1
1070
    73
1070
     0
1070
   140
1040
5.0
1070
   271
1070
     1
1070
   272
1070
     1
1070
   341
1005
2AEB
1070
   342
1005
2AEB
1002
}
  0
LEADER
  5
4AEF
330
1A
100
AcDbEntity
  8
寸法線
 48
10.0
100
AcDbLeader
  3
ISO-25
 73
     0
 74
     0
 76
     3
 10
777.341620623493
 20
338.967976643242
 30
0.0
 10
798.358205537357
 20
322.848720784635
 30
0.0
 10
842.96916004582
 20
322.848720784635
 30
0.0
340
4AF0
213
33.75234221426035
223
-2.5
233
0.0
1001
ACAD
1000
DSTYLE
1002
{
1070
     5
1000
OPEN30
1070
   147
1040
0.625
1070
    77
1070
     0
1070
    41
1040
6.0
1070
    47
1040
0.1
1070
    48
1040
0.1
1070
    73
1070
     0
1070
   140
1040
5.0
1070
   271
1070
     1
1070
   272
1070
     1
1070
   341
1005
2AEB
1070
   342
1005
2AEB
1002
}
  0
MTEXT
  5
4AF0
102
{ACAD_REACTORS
330
4AEF
102
}
330
1A
100
AcDbEntity
  8
寸法線
 48
10.0
100
AcDbMText
 10
759.259401025082
 20
358.99400612833
 30
0.0
 40
5.0
 41
0.0
 71
     1
 72
     1
  1
\A1;
  0
LINE
  5
4BF8
330
1A
100
AcDbEntity
  8
寸法線
 48
10.0
100
AcDbLine
 10
850.729076158754
 20
373.95010103916
 30
0.0
 11
850.729076158754
 21
348.4470941133
 31
0.0
  0
LINE
  5
4EFC
330
1A
100
AcDbEntity
  8
外形線
100
AcDbLine
 10
450.833456970336
 20
408.95461703916
 30
0.0
 11
472.833456970336
 21
408.95461703916
 31
0.0
  0
ARC
  5
4EFD
330
1A
100
AcDbEntity
  8
外形線
100
AcDbCircle
 10
495.833456970336
 20
399.57961703916
 30
0.0
 40
2.5
100
AcDbArc
 50
180.00001984784
 51
359.999982399908
  0
ARC
  5
4EFE
330
1A
100
AcDbEntity
  8
外形線
100
AcDbCircle
 10
480.833456970336
 20
399.57961703916
 30
0.0
 40
2.5
100
AcDbArc
 50
180.00001984784
 51
359.999982399908
  0
LINE
  5
4F00
330
1A
100
AcDbEntity
  8
外形線
100
AcDbLine
 10
475.833456970336
 20
399.57961703916
 30
0.0
 11
500.833456970336
 21
399.57961703916
 31
0.0
  0
LINE
  5
4F01
330
1A
100
AcDbEntity
  8
外形線
100
AcDbLine
 10
472.833456970336
 20
411.93923453916
 30
0.0
 11
472.833456970336
 21
402.21999703916
 31
0.0
  0
LINE
  5
4F02
330
1A
100
AcDbEntity
  8
外形線
100
AcDbLine
 10
475.833456970336
 20
402.21999703916
 30
0.0
 11
472.833456970336
 21
402.21999703916
 31
0.0
  0
LINE
  5
4F03
330
1A
100
AcDbEntity
  8
外形線
100
AcDbLine
 10
450.833456970336
 20
405.20461703916
 30
0.0
 11
472.833456970336
 21
405.20461703916
 31
0.0
  0
LINE
  5
4F04
330
1A
100
AcDbEntity
  8
外形線
100
AcDbLine
 10
499.739706970336
 20
420.82961703916
 30
0.0
 11
499.739706970336
 21
414.57961703916
 31
0.0
  0
LINE
  5
4F05
330
1A
100
AcDbEntity
  8
外形線
100
AcDbLine
 10
491.927206970336
 20
420.82961703916
 30
0.0
 11
491.927206970336
 21
414.57961703916
 31
0.0
  0
LINE
  5
4F06
330
1A
100
AcDbEntity
  8
外形線
100
AcDbLine
 10
491.927206970336
 20
420.82961703916
 30
0.0
 11
499.739706970336
 21
420.82961703916
 31
0.0
  0
LINE
  5
4F07
330
1A
100
AcDbEntity
  8
外形線
100
AcDbLine
 10
499.739706970336
 20
415.82961703916
 30
0.0
 11
491.927206970336
 21
415.82961703916
 31
0.0
  0
LINE
  5
4F08
330
1A
100
AcDbEntity
  8
細線
100
AcDbLine
 10
498.177206970336
 20
415.82961703916
 30
0.0
 11
498.177206970336
 21
420.82961703916
 31
0.0
  0
LINE
  5
4F09
330
1A
100
AcDbEntity
  8
細線
100
AcDbLine
 10
496.614706970336
 20
415.82961703916
 30
0.0
 11
496.614706970336
 21
420.82961703916
 31
0.0
  0
LINE
  5
4F0A
330
1A
100
AcDbEntity
  8
細線
100
AcDbLine
 10
495.052206970336
 20
415.82961703916
 30
0.0
 11
495.052206970336
 21
420.82961703916
 31
0.0
  0
LINE
  5
4F0B
330
1A
100
AcDbEntity
  8
細線
100
AcDbLine
 10
493.489706970336
 20
415.82961703916
 30
0.0
 11
493.489706970336
 21
420.82961703916
 31
0.0
  0
LINE
  5
4F0C
330
1A
100
AcDbEntity
  8
外形線
100
AcDbLine
 10
484.739706970336
 20
420.82961703916
 30
0.0
 11
484.739706970336
 21
414.57961703916
 31
0.0
  0
LINE
  5
4F0D
330
1A
100
AcDbEntity
  8
外形線
100
AcDbLine
 10
476.927206970336
 20
420.82961703916
 30
0.0
 11
476.927206970336
 21
414.57961703916
 31
0.0
  0
LINE
  5
4F0E
330
1A
100
AcDbEntity
  8
外形線
100
AcDbLine
 10
476.927206970336
 20
420.82961703916
 30
0.0
 11
484.739706970336
 21
420.82961703916
 31
0.0
  0
LINE
  5
4F0F
330
1A
100
AcDbEntity
  8
外形線
100
AcDbLine
 10
484.739706970336
 20
415.82961703916
 30
0.0
 11
476.927206970336
 21
415.82961703916
 31
0.0
  0
LINE
  5
4F10
330
1A
100
AcDbEntity
  8
細線
100
AcDbLine
 10
483.177206970336
 20
415.82961703916
 30
0.0
 11
483.177206970336
 21
420.82961703916
 31
0.0
  0
LINE
  5
4F11
330
1A
100
AcDbEntity
  8
細線
100
AcDbLine
 10
481.614706970336
 20
415.82961703916
 30
0.0
 11
481.614706970336
 21
420.82961703916
 31
0.0
  0
LINE
  5
4F12
330
1A
100
AcDbEntity
  8
細線
100
AcDbLine
 10
480.052206970336
 20
415.82961703916
 30
0.0
 11
480.052206970336
 21
420.82961703916
 31
0.0
  0
LINE
  5
4F13
330
1A
100
AcDbEntity
  8
細線
100
AcDbLine
 10
478.489706970336
 20
415.82961703916
 30
0.0
 11
478.489706970336
 21
420.82961703916
 31
0.0
  0
LINE
  5
4F14
330
1A
100
AcDbEntity
  8
中心線
  6
CONTINUOUS
100
AcDbLine
 10
495.833456970336
 20
392.28179453916
 30
0.0
 11
495.833456970336
 21
423.938709539161
 31
0.0
  0
LINE
  5
4F15
330
1A
100
AcDbEntity
  8
中心線
  6
CONTINUOUS
100
AcDbLine
 10
480.833456970336
 20
423.938709539161
 30
0.0
 11
480.833456970336
 21
392.28179453916
 31
0.0
  0
LINE
  5
4F17
330
1A
100
AcDbEntity
  8
外形線
100
AcDbLine
 10
500.833456970336
 20
414.57961703916
 30
0.0
 11
500.833456970336
 21
408.95461703916
 31
0.0
  0
LINE
  5
4F18
330
1A
100
AcDbEntity
  8
外形線
100
AcDbLine
 10
475.833456970336
 20
414.57961703916
 30
0.0
 11
475.833456970336
 21
408.95461703916
 31
0.0
  0
LINE
  5
4F19
330
1A
100
AcDbEntity
  8
外形線
100
AcDbLine
 10
475.833456970336
 20
414.57961703916
 30
0.0
 11
500.833456970336
 21
414.57961703916
 31
0.0
  0
LINE
  5
4F1A
330
1A
100
AcDbEntity
  8
外形線
100
AcDbLine
 10
475.833456970336
 20
411.93923453916
 30
0.0
 11
472.833456970336
 21
411.93923453916
 31
0.0
  0
LINE
  5
4F1B
330
1A
100
AcDbEntity
  8
隠れ線
 48
5.0
100
AcDbLine
 10
472.833456970336
 20
408.95461703916
 30
0.0
 11
475.833456970336
 21
408.95461703916
 31
0.0
  0
LINE
  5
4F1C
330
1A
100
AcDbEntity
  8
外形線
100
AcDbLine
 10
500.833456970336
 20
411.93923453916
 30
0.0
 11
570.833419470336
 21
411.93923453916
 31
0.0
  0
LINE
  5
4F1D
330
1A
100
AcDbEntity
  8
隠れ線
 48
5.0
100
AcDbLine
 10
472.833456970336
 20
405.20461703916
 30
0.0
 11
475.833456970336
 21
405.20461703916
 31
0.0
  0
LINE
  5
4F1E
330
1A
100
AcDbEntity
  8
外形線
100
AcDbLine
 10
500.833456970336
 20
402.21999703916
 30
0.0
 11
570.833419470336
 21
402.21999703916
 31
0.0
  0
DIMENSION
  5
4F2B
330
1A
100
AcDbEntity
  8
寸法線
 48
10.0
100
AcDbDimension
  2
*D17
 10
555.446156202036
 20
411.93923453916
 30
0.0
 11
555.446156202036
 21
434.958554047034
 31
0.0
 70
   160
  1
φ10
  3
ISO-25
100
AcDbAlignedDimension
 13
558.815083706173
 23
402.21999703916
 33
0.0
 14
555.446156202037
 24
411.93923453916
 34
0.0
 50
90.0
100
AcDbRotatedDimension
1001
ACAD
1000
DSTYLE
1002
{
1070
     5
1000
OPEN30
1070
    41
1040
6.0
1070
    47
1040
0.1
1070
    48
1040
0.1
1070
    73
1070
     0
1070
   140
1040
10.0
1070
   271
1070
     1
1070
   272
1070
     1
1070
   341
1005
2AEB
1002
}
  0
DIMENSION
  5
4F2D
330
1A
100
AcDbEntity
  8
寸法線
 48
10.0
100
AcDbDimension
  2
*D18
 10
550.833456970336
 20
364.57961703916
 30
0.0
 11
560.833438220336
 21
370.209825372494
 31
0.0
 70
    32
  3
ISO-25
100
AcDbAlignedDimension
 13
570.833419470336
 23
389.57961703916
 33
0.0
 14
550.833456970336
 24
398.95461703916
 34
0.0
100
AcDbRotatedDimension
1001
ACAD
1000
DSTYLE
1002
{
1070
     5
1000
OPEN30
1070
    41
1040
6.0
1070
    47
1040
0.1
1070
    48
1040
0.1
1070
    73
1070
     0
1070
   140
1040
10.0
1070
   271
1070
     1
1070
   272
1070
     1
1070
   341
1005
2AEB
1002
}
  0
DIMENSION
  5
4F2E
330
1A
100
AcDbEntity
  8
寸法線
 48
10.0
100
AcDbDimension
  2
*D19
 10
550.833456970336
 20
364.57961703916
 30
0.0
 11
525.833456970336
 21
370.20461703916
 31
0.0
 70
    32
  3
ISO-25
100
AcDbAlignedDimension
 13
500.833456970336
 23
399.57961703916
 33
0.0
 14
550.833456970336
 24
399.57961703916
 34
0.0
100
AcDbRotatedDimension
1001
ACAD
1000
DSTYLE
1002
{
1070
     5
1000
OPEN30
1070
    41
1040
6.0
1070
    47
1040
0.1
1070
    48
1040
0.1
1070
    73
1070
     0
1070
   140
1040
10.0
1070
   271
1070
     1
1070
   272
1070
     1
1070
   341
1005
2AEB
1002
}
  0
DIMENSION
  5
4F2F
330
1A
100
AcDbEntity
  8
寸法線
 48
10.0
100
AcDbDimension
  2
*D20
 10
418.333456970336
 20
407.07961703916
 30
0.0
 11
412.708456970336
 21
332.07961703916
 31
0.0
 70
    32
  3
ISO-25
100
AcDbAlignedDimension
 13
450.833456970336
 23
257.07961703916
 33
0.0
 14
436.600013333463
 24
407.07961703916
 34
0.0
 50
90.0
100
AcDbRotatedDimension
1001
ACAD
1000
DSTYLE
1002
{
1070
     5
1000
OPEN30
1070
    41
1040
6.0
1070
    47
1040
0.1
1070
    48
1040
0.1
1070
    73
1070
     0
1070
   140
1040
10.0
1070
   271
1070
     1
1070
   272
1070
     1
1070
   341
1005
2AEB
1002
}
  0
DIMENSION
  5
4F30
330
1A
100
AcDbEntity
  8
寸法線
 48
10.0
100
AcDbDimension
  2
*D21
 10
550.833456970336
 20
232.876740573099
 30
0.0
 11
500.833456970336
 21
238.501740573099
 31
0.0
 70
    32
  3
ISO-25
100
AcDbAlignedDimension
 13
450.833456970336
 23
257.07961703916
 33
0.0
 14
550.833456970336
 24
257.07961703916
 34
0.0
100
AcDbRotatedDimension
1001
ACAD
1000
DSTYLE
1002
{
1070
     5
1000
OPEN30
1070
    41
1040
6.0
1070
    47
1040
0.1
1070
    48
1040
0.1
1070
    73
1070
     0
1070
   140
1040
10.0
1070
   271
1070
     1
1070
   272
1070
     1
1070
   341
1005
2AEB
1002
}
  0
LINE
  5
4F44
330
1A
100
AcDbEntity
  8
外形線
100
AcDbLine
 10
450.833456970336
 20
408.95461703916
 30
0.0
 11
450.833456970336
 21
405.20461703916
 31
0.0
  0
LINE
  5
4F45
330
1A
100
AcDbEntity
  8
隠れ線
  6
DIVIDE
100
AcDbLine
 10
450.833456970336
 20
405.20461703916
 30
0.0
 11
450.833456970336
 21
257.07961703916
 31
0.0
  0
LINE
  5
4F46
330
1A
100
AcDbEntity
  8
隠れ線
  6
DIVIDE
100
AcDbLine
 10
450.833456970336
 20
257.07961703916
 30
0.0
 11
550.833456970336
 21
257.07961703916
 31
0.0
  0
LINE
  5
4F47
330
1A
100
AcDbEntity
  8
隠れ線
  6
DIVIDE
100
AcDbLine
 10
550.833456970336
 20
257.07961703916
 30
0.0
 11
550.833456970336
 21
400.31001703916
 31
0.0
  0
TEXT
  5
4FB4
330
1A
100
AcDbEntity
  8
寸法線
100
AcDbText
 10
63.390297278719
 20
94.903024650663
 30
0.0
 40
10.0
  1
接点容量 AC250V 10A 抵抗負荷
100
AcDbText
  0
LINE
  5
5178
330
1A
100
AcDbEntity
  8
隠れ線
 48
5.0
100
AcDbLine
 10
550.833456970336
 20
405.20461703916
 30
0.0
 11
550.833456970336
 21
408.95461703916
 31
0.0
  0
LINE
  5
53E3
330
1A
100
AcDbEntity
  8
下書線
 48
10.0
100
AcDbLine
 10
417.083456970336
 20
407.07961703916
 30
0.0
 11
350.812436362545
 21
407.07961703916
 31
0.0
  0
LEADER
  5
53E4
330
1A
100
AcDbEntity
  8
寸法線
 48
10.0
100
AcDbLeader
  3
ISO-25
 76
     3
 10
212.066507320182
 20
460.595039942198
 30
0.0
 10
199.175645016763
 20
502.984228551637
 30
0.0
 10
160.559654740447
 20
502.984228551637
 30
0.0
1001
ACAD
1000
DSTYLE
1002
{
1070
     5
1000
OPEN30
1070
   147
1040
0.625
1070
    77
1070
     0
1070
    41
1040
6.0
1070
    47
1040
0.1
1070
    48
1040
0.1
1070
    73
1070
     0
1070
   140
1040
5.0
1070
   271
1070
     1
1070
   272
1070
     1
1070
   341
1005
2AEB
1070
   342
1005
2AEB
1002
}
  0
MTEXT
  5
53E5
330
1A
100
AcDbEntity
  8
寸法線
 48
10.0
100
AcDbMText
 10
162.991070918481
 20
515.121268067068
 30
0.0
 40
10.0
 41
36.724945077364
 71
     1
 72
     5
  1
4-φ15
  0
DIMENSION
  5
53E6
330
1A
100
AcDbEntity
  8
寸法線
 48
10.0
100
AcDbDimension
  2
*D22
 10
200.90242822429
 20
376.069653261891
 30
0.0
 11
300.140269468804
 21
429.939358681021
 31
0.0
 70
   161
  1
φ130
  3
ISO-25
100
AcDbAlignedDimension
 13
315.154467970326
 23
438.08958081643
 33
0.0
 14
200.90242822429
 24
376.069653261891
 34
0.0
1001
ACAD
1000
DSTYLE
1002
{
1070
     5
1000
OPEN30
1070
    41
1040
6.0
1070
    47
1040
0.1
1070
    48
1040
0.1
1070
    73
1070
     0
1070
   140
1040
10.0
1070
   271
1070
     1
1070
   272
1070
     1
1070
   341
1005
2AEB
1002
}
  0
DIMENSION
  5
53E7
330
1A
100
AcDbEntity
  8
寸法線
 48
10.0
100
AcDbDimension
  2
*D23
 10
334.159926036745
 20
421.579550375455
 30
0.0
 11
305.192698120496
 21
416.062478001567
 31
0.0
 70
   161
  1
φ155
  3
ISO-25
100
AcDbAlignedDimension
 13
181.896970157871
 23
392.579683702866
 33
0.0
 14
334.159926036745
 24
421.579550375455
 34
0.0
1001
ACAD
1000
DSTYLE
1002
{
1070
     5
1000
OPEN30
1070
    41
1040
6.0
1070
    47
1040
0.1
1070
    48
1040
0.1
1070
    73
1070
     0
1070
   140
1040
10.0
1070
   271
1070
     1
1070
   272
1070
     1
1070
   341
1005
2AEB
1002
}
  0
MTEXT
  5
53E8
330
1A
100
AcDbEntity
  8
寸法線
 48
10.0
100
AcDbMText
 10
9.537729321417
 20
324.085403299258
 30
0.0
 40
10.0
 41
66.927899269888
 71
     1
 72
     5
  1
動作角度
  0
MTEXT
  5
53E9
330
1A
100
AcDbEntity
  8
寸法線
 48
10.0
100
AcDbMText
 10
10.997108801239
 20
421.659448708547
 30
0.0
 40
10.0
 41
108.130169302799
 71
     1
 72
     5
  1
羽根通常停止位置
  0
LINE
  5
53F5
330
1A
100
AcDbEntity
  8
外形線
100
AcDbLine
 10
247.131115597308
 20
405.20461703916
 30
0.0
 11
247.131115597308
 21
408.95461703916
 31
0.0
  0
LINE
  5
53F6
330
1A
100
AcDbEntity
  8
外形線
100
AcDbLine
 10
276.828105597308
 20
420.89961703916
 30
0.0
 11
268.948105597308
 21
420.89961703916
 31
0.0
  0
LINE
  5
53F7
330
1A
100
AcDbEntity
  8
外形線
100
AcDbLine
 10
268.643105597308
 20
420.67961703916
 30
0.0
 11
268.643105597308
 21
415.89961703916
 31
0.0
  0
LINE
  5
53F8
330
1A
100
AcDbEntity
  8
外形線
100
AcDbLine
 10
268.643105597308
 20
420.67961703916
 30
0.0
 11
268.948105597308
 21
420.89961703916
 31
0.0
  0
LINE
  5
53F9
330
1A
100
AcDbEntity
  8
細線
100
AcDbLine
 10
276.708605597309
 20
420.53961703916
 30
0.0
 11
276.708605597309
 21
416.45961703916
 31
0.0
  0
LINE
  5
53FA
330
1A
100
AcDbEntity
  8
細線
100
AcDbLine
 10
269.067605597308
 20
420.53961703916
 30
0.0
 11
269.067605597308
 21
416.45961703916
 31
0.0
  0
LINE
  5
53FB
330
1A
100
AcDbEntity
  8
細線
100
AcDbLine
 10
269.916605597309
 20
420.53961703916
 30
0.0
 11
269.916605597309
 21
416.45961703916
 31
0.0
  0
LINE
  5
53FC
330
1A
100
AcDbEntity
  8
細線
100
AcDbLine
 10
270.765605597309
 20
420.53961703916
 30
0.0
 11
270.765605597309
 21
416.45961703916
 31
0.0
  0
LINE
  5
53FD
330
1A
100
AcDbEntity
  8
細線
100
AcDbLine
 10
271.614605597308
 20
420.53961703916
 30
0.0
 11
271.614605597308
 21
416.45961703916
 31
0.0
  0
LINE
  5
53FE
330
1A
100
AcDbEntity
  8
細線
100
AcDbLine
 10
275.859605597309
 20
420.53961703916
 30
0.0
 11
275.859605597309
 21
416.45961703916
 31
0.0
  0
LINE
  5
53FF
330
1A
100
AcDbEntity
  8
細線
100
AcDbLine
 10
275.010605597309
 20
420.53961703916
 30
0.0
 11
275.010605597309
 21
416.45961703916
 31
0.0
  0
LINE
  5
5400
330
1A
100
AcDbEntity
  8
細線
100
AcDbLine
 10
273.312605597308
 20
420.53961703916
 30
0.0
 11
273.312605597308
 21
416.45961703916
 31
0.0
  0
LINE
  5
5401
330
1A
100
AcDbEntity
  8
細線
100
AcDbLine
 10
274.161605597308
 20
420.53961703916
 30
0.0
 11
274.161605597308
 21
416.45961703916
 31
0.0
  0
LINE
  5
5402
330
1A
100
AcDbEntity
  8
細線
100
AcDbLine
 10
272.463605597308
 20
420.53961703916
 30
0.0
 11
272.463605597308
 21
416.45961703916
 31
0.0
  0
LINE
  5
5403
330
1A
100
AcDbEntity
  8
外形線
100
AcDbLine
 10
277.133105597308
 20
420.67961703916
 30
0.0
 11
276.828105597308
 21
420.89961703916
 31
0.0
  0
LINE
  5
5404
330
1A
100
AcDbEntity
  8
外形線
100
AcDbLine
 10
277.133105597308
 20
420.67961703916
 30
0.0
 11
277.133105597308
 21
415.89961703916
 31
0.0
  0
LINE
  5
5405
330
1A
100
AcDbEntity
  8
外形線
100
AcDbLine
 10
268.538105597308
 20
415.89961703916
 30
0.0
 11
277.238105597309
 21
415.89961703916
 31
0.0
  0
LINE
  5
5406
330
1A
100
AcDbEntity
  8
外形線
100
AcDbLine
 10
277.238105597309
 20
415.89961703916
 30
0.0
 11
277.238105597309
 21
414.57961703916
 31
0.0
  0
LINE
  5
5407
330
1A
100
AcDbEntity
  8
外形線
100
AcDbLine
 10
268.538105597308
 20
415.89961703916
 30
0.0
 11
268.538105597308
 21
414.57961703916
 31
0.0
  0
LINE
  5
5408
330
1A
100
AcDbEntity
  8
外形線
100
AcDbLine
 10
270.448105597308
 20
405.20461703916
 30
0.0
 11
270.448105597308
 21
408.95461703916
 31
0.0
  0
LINE
  5
5409
330
1A
100
AcDbEntity
  8
外形線
100
AcDbLine
 10
275.328105597308
 20
405.20461703916
 30
0.0
 11
275.328105597308
 21
408.95461703916
 31
0.0
  0
LINE
  5
540A
330
1A
100
AcDbEntity
  8
細線
100
AcDbLine
 10
270.788105597308
 20
405.20461703916
 30
0.0
 11
270.788105597308
 21
408.95461703916
 31
0.0
  0
LINE
  5
540B
330
1A
100
AcDbEntity
  8
細線
100
AcDbLine
 10
274.988105597309
 20
405.20461703916
 30
0.0
 11
274.988105597309
 21
408.95461703916
 31
0.0
  0
LINE
  5
540C
330
1A
100
AcDbEntity
  8
外形線
100
AcDbLine
 10
232.888105597309
 20
414.57961703916
 30
0.0
 11
232.888105597309
 21
408.95461703916
 31
0.0
  0
LINE
  5
540D
330
1A
100
AcDbEntity
  8
外形線
100
AcDbLine
 10
232.888105597309
 20
399.57961703916
 30
0.0
 11
232.888105597309
 21
405.20461703916
 31
0.0
  0
LINE
  5
540E
330
1A
100
AcDbEntity
  8
外形線
100
AcDbLine
 10
262.663570597308
 20
408.95461703916
 30
0.0
 11
277.888105597309
 21
408.95461703916
 31
0.0
  0
LINE
  5
540F
330
1A
100
AcDbEntity
  8
外形線
100
AcDbLine
 10
262.663570597308
 20
405.20461703916
 30
0.0
 11
277.888105597309
 21
405.20461703916
 31
0.0
  0
ARC
  5
5410
330
1A
100
AcDbEntity
  8
外形線
100
AcDbCircle
 10
237.888105597309
 20
399.57961703916
 30
0.0
 40
2.5
100
AcDbArc
 50
180.0
 51
0.000018723966
  0
ARC
  5
5411
330
1A
100
AcDbEntity
  8
外形線
100
AcDbCircle
 10
237.888105597309
 20
414.57961703916
 30
0.0
 40
2.5
100
AcDbArc
 50
359.999979028286
 51
180.0
  0
CIRCLE
  5
5412
330
1A
100
AcDbEntity
  8
外形線
100
AcDbCircle
 10
258.028448097309
 20
407.07961703916
 30
0.0
 40
5.0
  0
LINE
  5
5413
330
1A
100
AcDbEntity
  8
外形線
100
AcDbLine
 10
277.888105597309
 20
408.95461703916
 30
0.0
 11
277.888105597309
 21
414.57961703916
 31
0.0
  0
LINE
  5
5414
330
1A
100
AcDbEntity
  8
外形線
100
AcDbLine
 10
277.888105597309
 20
405.20461703916
 30
0.0
 11
277.888105597309
 21
399.57961703916
 31
0.0
  0
LINE
  5
5415
330
1A
100
AcDbEntity
  8
外形線
100
AcDbLine
 10
277.888105597309
 20
414.57961703916
 30
0.0
 11
232.888105597309
 21
414.57961703916
 31
0.0
  0
LINE
  5
5416
330
1A
100
AcDbEntity
  8
外形線
100
AcDbLine
 10
277.888105597309
 20
399.57961703916
 30
0.0
 11
232.888105597309
 21
399.57961703916
 31
0.0
  0
LINE
  5
5418
330
1A
100
AcDbEntity
  8
寸法線
100
AcDbLine
 10
74.188260275136
 20
364.30874094913
 30
0.0
 11
70.729798627919
 21
370.963742304105
 31
0.0
  0
LINE
  5
5419
330
1A
100
AcDbEntity
  8
寸法線
100
AcDbLine
 10
74.520645308118
 20
371.801372008368
 30
0.0
 11
74.188260275136
 21
364.30874094913
 31
0.0
  0
LWPOLYLINE
  5
541A
330
1A
100
AcDbEntity
  8
寸法線
100
AcDbPolyline
 90
        2
 70
     0
 43
0.0
 10
74.188260275136
 20
364.30874094913
 10
73.282633770598
 20
368.40731960597
  0
LINE
  5
541B
330
1A
100
AcDbEntity
  8
寸法線
100
AcDbLine
 10
82.268168642853
 20
393.95000675966
 30
0.0
 11
84.802897913828
 21
386.89131371329
 31
0.0
  0
LINE
  5
541C
330
1A
100
AcDbEntity
  8
寸法線
100
AcDbLine
 10
80.933962060048
 20
386.5696346285
 30
0.0
 11
82.268168642853
 21
393.95000675966
 31
0.0
  0
LWPOLYLINE
  5
541D
330
1A
100
AcDbEntity
  8
寸法線
100
AcDbPolyline
 90
        2
 70
     0
 43
0.0
 10
82.268168642853
 20
393.95000675966
 10
82.513215529893
 20
391.002750528353
  0
ARC
  5
541E
330
1A
100
AcDbEntity
  8
寸法線
100
AcDbCircle
 10
258.028448097308
 20
407.07961703916
 30
0.0
 40
182.499999999999
100
AcDbArc
 50
180.0
 51
210.822058585002
  0
ARC
  5
541F
330
1A
100
AcDbEntity
  8
寸法線
100
AcDbCircle
 10
258.028448097308
 20
407.07961703916
 30
0.0
 40
194.9999999999995
100
AcDbArc
 50
180.0
 51
211.013275676349
  0
ARC
  5
5420
330
1A
100
AcDbEntity
  8
寸法線
100
AcDbCircle
 10
258.028448097304
 20
407.079617039159
 30
0.0
 40
188.7499999999955
100
AcDbArc
 50
184.367636849646
 51
191.822845818244
  0
ARC
  5
5421
330
1A
100
AcDbEntity
  8
寸法線
100
AcDbCircle
 10
258.028448097328
 20
407.079617039164
 30
0.0
 40
176.2500000000195
100
AcDbArc
 50
185.233581714995
 51
192.680063830273
  0
LINE
  5
5422
330
1A
100
AcDbEntity
  8
寸法線
100
AcDbLine
 10
81.746984799554
 20
359.84514130795
 30
0.0
 11
111.849160665134
 21
367.910995021552
 31
0.0
  0
ARC
  5
5424
330
1A
100
AcDbEntity
  8
寸法線
100
AcDbCircle
 10
258.028448097309
 20
407.07961703916
 30
0.0
 40
170.0
100
AcDbArc
 50
180.0
 51
211.013275676349
  0
LINE
  5
5425
330
1A
100
AcDbEntity
  8
外形線
100
AcDbLine
 10
108.028448097306
 20
405.20461703916
 30
0.0
 11
108.028448097306
 21
408.95461703916
 31
0.0
  0
LINE
  5
5426
330
1A
100
AcDbEntity
  8
外形線
100
AcDbLine
 10
108.028448097306
 20
405.20461703916
 30
0.0
 11
247.131115597308
 21
405.20461703916
 31
0.0
  0
LINE
  5
5427
330
1A
100
AcDbEntity
  8
外形線
100
AcDbLine
 10
108.028448097306
 20
408.95461703916
 30
0.0
 11
247.131115597308
 21
408.95461703916
 31
0.0
  0
CIRCLE
  5
5431
330
1A
100
AcDbEntity
  8
中心線
 48
10.0
100
AcDbCircle
 10
258.028448097309
 20
407.07961703916
 30
0.0
 40
65.0
  0
CIRCLE
  5
5432
330
1A
100
AcDbEntity
  8
外形線
 48
10.0
100
AcDbCircle
 10
303.990388874434
 20
361.117676262034
 30
0.0
 40
7.5
  0
CIRCLE
  5
5433
330
1A
100
AcDbEntity
  8
外形線
 48
10.0
100
AcDbCircle
 10
212.066507320183
 20
453.041557816285
 30
0.0
 40
7.5
  0
CIRCLE
  5
5434
330
1A
100
AcDbEntity
  8
外形線
 48
10.0
100
AcDbCircle
 10
303.990388874434
 20
453.041557816285
 30
0.0
 40
7.5
  0
CIRCLE
  5
5435
330
1A
100
AcDbEntity
  8
外形線
 48
10.0
100
AcDbCircle
 10
212.066507320183
 20
361.117676262034
 30
0.0
 40
7.5
  0
LINE
  5
5436
330
1A
100
AcDbEntity
  8
中心線
 48
10.0
100
AcDbLine
 10
312.338810515386
 20
461.389979457238
 30
0.0
 11
295.641967233482
 21
444.693136175334
 31
0.0
  0
LINE
  5
5437
330
1A
100
AcDbEntity
  8
中心線
 48
10.0
100
AcDbLine
 10
220.414928961135
 20
444.693136175334
 30
0.0
 11
203.718085679231
 21
461.389979457238
 31
0.0
  0
LINE
  5
5438
330
1A
100
AcDbEntity
  8
中心線
 48
10.0
100
AcDbLine
 10
220.414928961135
 20
369.466097902986
 30
0.0
 11
203.718085679231
 21
352.769254621082
 31
0.0
  0
LINE
  5
5439
330
1A
100
AcDbEntity
  8
中心線
 48
10.0
100
AcDbLine
 10
312.338810515386
 20
352.769254621082
 30
0.0
 11
295.641967233482
 21
369.466097902986
 31
0.0
  0
LINE
  5
543A
330
1A
100
AcDbEntity
  8
中心線
 48
10.0
100
AcDbLine
 10
258.028448097308
 20
499.863605304397
 30
0.0
 11
258.028448097308
 21
314.295628773923
 31
0.0
  0
LINE
  5
543B
330
1A
100
AcDbEntity
  8
中心線
 48
10.0
100
AcDbLine
 10
350.812436362545
 20
407.07961703916
 30
0.0
 11
104.002753287864
 21
407.07961703916
 31
0.0
  0
DIMENSION
  5
543C
330
1A
100
AcDbEntity
  8
寸法線
 48
10.0
100
AcDbDimension
  2
*D24
 10
165.639140469649
 20
408.95461703916
 30
0.0
 11
165.639140469649
 21
427.786723820347
 31
0.0
 70
   160
  1
1.5
  3
ISO-25
100
AcDbAlignedDimension
 13
167.246835609649
 23
405.20461703916
 33
0.0
 14
167.246835609649
 24
408.95461703916
 34
0.0
 50
-90.0
100
AcDbRotatedDimension
1001
ACAD
1000
DSTYLE
1002
{
1070
     5
1000
OPEN30
1070
    41
1040
6.0
1070
    47
1040
0.1
1070
    48
1040
0.1
1070
    73
1070
     0
1070
   140
1040
10.0
1070
   271
1070
     1
1070
   272
1070
     1
1070
   341
1005
2AEB
1002
}
  0
LINE
  5
543D
330
1A
100
AcDbEntity
  8
中心線
 48
10.0
100
AcDbLine
 10
237.888105597309
 20
417.92411453916
 30
0.0
 11
237.888105597309
 21
396.18924703916
 31
0.0
  0
LINE
  5
543E
330
1A
100
AcDbEntity
  8
中心線
 48
10.0
100
AcDbLine
 10
272.888105597308
 20
422.91729703916
 30
0.0
 11
272.888105597308
 21
391.24193703916
 31
0.0
  0
LINE
  5
543F
330
1A
100
AcDbEntity
  8
寸法線
 48
10.0
100
AcDbLine
 10
51.29607152441
 20
331.835185507511
 30
0.0
 11
228.371656163587
 21
396.28542753146
 31
0.0
  0
DIMENSION
  5
5440
330
1A
100
AcDbEntity
  8
寸法線
 48
10.0
100
AcDbDimension
  2
*D25
 10
102.634728140004
 20
407.07961703916
 30
0.0
 11
43.091961437332
 21
369.18051530232
 31
0.0
 70
    34
  1
約<>
  3
ISO-25
100
AcDb2LineAngularDimension
 13
51.29607152441
 23
331.835185507511
 33
0.0
 14
228.371656163587
 24
396.28542753146
 34
0.0
 15
350.812436362545
 25
407.07961703916
 35
0.0
 16
35.654651172949
 26
381.08784788444
 36
0.0
1001
ACAD
1000
DSTYLE
1002
{
1070
     5
1000
OPEN30
1070
    41
1040
6.0
1070
    47
1040
0.1
1070
    48
1040
0.1
1070
    73
1070
     0
1070
   140
1040
10.0
1070
   271
1070
     1
1070
   272
1070
     1
1070
   341
1005
2AEB
1002
}
  0
DIMENSION
  5
5441
330
1A
100
AcDbEntity
  8
寸法線
 48
10.0
100
AcDbDimension
  2
*D26
 10
122.913264173086
 20
370.875612621483
 30
0.0
 11
119.331033489287
 21
342.062686944121
 31
0.0
 70
   162
  1
約<>
  3
ISO-25
100
AcDb2LineAngularDimension
 13
51.29607152441
 23
331.835185507511
 33
0.0
 14
228.371656163587
 24
396.28542753146
 34
0.0
 15
81.746984799553
 25
359.84514130795
 35
0.0
 16
110.028688452648
 26
362.771397626655
 36
0.0
1001
ACAD
1000
DSTYLE
1002
{
1070
   287
1070
     5
1070
     5
1000
OPEN30
1070
   279
1070
     2
1070
    41
1040
6.0
1070
    47
1040
0.1
1070
    48
1040
0.1
1070
    73
1070
     0
1070
   140
1040
10.0
1070
   271
1070
     1
1070
   272
1070
     1
1070
   341
1005
2AEB
1002
}
  0
ARC
  5
54EA
330
1A
100
AcDbEntity
  8
外形線
 48
10.0
100
AcDbCircle
 10
258.028448097309
 20
407.07961703916
 30
0.0
 40
77.49999999999997
100
AcDbArc
 50
181.386323478736
 51
178.613676521263
  0
HATCH
  5
5516
330
1A
100
AcDbEntity
  8
細線
 48
10.0
100
AcDbHatch
 10
0.0
 20
0.0
 30
0.0
210
0.0
220
0.0
230
1.0
  2
LINE
 70
     0
 71
     0
 91
        2
 92
        7
 72
     1
 73
     1
 93
        5
 10
75.25550302691704
 20
340.5557054043635
 42
0.0
 10
74.86777438353357
 20
340.1679767609826
 42
0.047793725595791
 10
90.90409956790157
 20
306.6084663110963
 42
0.0
 10
112.3302980973127
 20
319.4893830711045
 42
-0.0480915043601774
 10
98.28070256370472
 20
348.9361926737947
 42
0.0
 97
        0
 92
        7
 72
     1
 73
     1
 93
        4
 10
93.8210576281669
 20
363.0803793717317
 42
0.0
 10
81.74698479955373
 20
359.8451413079501
 42
0.0218200776221524
 10
86.53454480388118
 20
344.6609408822237
 42
0.0
 10
98.28070256370475
 20
348.9361926737947
 42
-0.0218200776221523
 97
        0
 75
     0
 76
     1
 52
45.0
 41
1.0
 77
     0
 78
     1
 53
45.0
 43
-13.96710493179785
 44
-18.30663113055587
 45
-2.245064030267288
 46
2.245064030267288
 79
     0
 47
0.13552303347
 98
        2
 10
87.0868456407195
 20
334.3315287749639
 10
94.13911951782552
 20
355.8796911445331
  0
LINE
  5
552D
330
1A
100
AcDbEntity
  8
外形線
 48
10.0
100
AcDbLine
 10
500.833456970336
 20
408.95461703916
 30
0.0
 11
475.833456970336
 21
408.95461703916
 31
0.0
  0
LINE
  5
552E
330
1A
100
AcDbEntity
  8
外形線
 48
10.0
100
AcDbLine
 10
500.833456970336
 20
405.20461703916
 30
0.0
 11
475.833456970336
 21
405.20461703916
 31
0.0
  0
LINE
  5
5531
330
1A
100
AcDbEntity
  8
外形線
100
AcDbLine
 10
500.833456970336
 20
405.20461703916
 30
0.0
 11
500.833456970336
 21
399.57961703916
 31
0.0
  0
LINE
  5
5532
330
1A
100
AcDbEntity
  8
外形線
100
AcDbLine
 10
475.833456970336
 20
405.20461703916
 30
0.0
 11
475.833456970336
 21
399.57961703916
 31
0.0
  0
LINE
  5
5533
330
1A
100
AcDbEntity
  8
隠れ線
 48
5.0
100
AcDbLine
 10
550.833456970336
 20
408.95461703916
 30
0.0
 11
500.833456970336
 21
408.95461703916
 31
0.0
  0
LINE
  5
5534
330
1A
100
AcDbEntity
  8
隠れ線
 48
5.0
100
AcDbLine
 10
550.833456970336
 20
405.20461703916
 30
0.0
 11
500.833456970336
 21
405.20461703916
 31
0.0
  0
LINE
  5
557E
330
1A
100
AcDbEntity
  8
細線
100
AcDbLine
 10
478.733456970336
 20
405.20461703916
 30
0.0
 11
478.733456970336
 21
408.95461703916
 31
0.0
  0
LINE
  5
557F
330
1A
100
AcDbEntity
  8
外形線
100
AcDbLine
 10
478.393456970336
 20
405.20461703916
 30
0.0
 11
478.393456970336
 21
408.95461703916
 31
0.0
  0
LINE
  5
5580
330
1A
100
AcDbEntity
  8
細線
100
AcDbLine
 10
482.933456970336
 20
405.20461703916
 30
0.0
 11
482.933456970336
 21
408.95461703916
 31
0.0
  0
LINE
  5
5581
330
1A
100
AcDbEntity
  8
外形線
100
AcDbLine
 10
483.273456970336
 20
405.20461703916
 30
0.0
 11
483.273456970336
 21
408.95461703916
 31
0.0
  0
LINE
  5
5582
330
1A
100
AcDbEntity
  8
外形線
100
AcDbLine
 10
498.273456970336
 20
405.20461703916
 30
0.0
 11
498.273456970336
 21
408.95461703916
 31
0.0
  0
LINE
  5
5583
330
1A
100
AcDbEntity
  8
細線
100
AcDbLine
 10
497.933456970336
 20
405.20461703916
 30
0.0
 11
497.933456970336
 21
408.95461703916
 31
0.0
  0
LINE
  5
5584
330
1A
100
AcDbEntity
  8
細線
100
AcDbLine
 10
493.733456970336
 20
405.20461703916
 30
0.0
 11
493.733456970336
 21
408.95461703916
 31
0.0
  0
LINE
  5
5585
330
1A
100
AcDbEntity
  8
外形線
100
AcDbLine
 10
493.393456970336
 20
405.20461703916
 30
0.0
 11
493.393456970336
 21
408.95461703916
 31
0.0
  0
ARC
  5
5587
330
1A
100
AcDbEntity
  8
外形線
 48
10.0
100
AcDbCircle
 10
258.028448097308
 20
407.079617039161
 30
0.0
 40
16.99999999999997
100
AcDbArc
 50
51.362452274071
 51
153.821031295991
  0
ARC
  5
5588
330
1A
100
AcDbEntity
  8
外形線
 48
10.0
100
AcDbCircle
 10
258.028448097308
 20
407.079617039161
 30
0.0
 40
17.00000000000027
100
AcDbArc
 50
206.178968704017
 51
333.821031295983
  0
LINE
  5
570A
330
1A
100
AcDbEntity
  8
中心線
  6
CENTER
 48
10.0
100
AcDbLine
 10
695.751368716501
 20
472.07961703916
 30
0.0
 11
715.753856158754
 21
472.07961703916
 31
0.0
  0
LINE
  5
570B
330
1A
100
AcDbEntity
  8
外形線
100
AcDbLine
 10
700.753856158754
 20
330.079617039161
 30
0.0
 11
700.753856158754
 21
484.07961703916
 31
0.0
  0
LINE
  5
570C
330
1A
100
AcDbEntity
  8
外形線
100
AcDbLine
 10
731.100350097557
 20
382.07961703916
 30
0.0
 11
713.753856158754
 21
382.07961703916
 31
0.0
  0
ARC
  5
570D
330
1A
100
AcDbEntity
  8
外形線
100
AcDbCircle
 10
713.753856158754
 20
379.07961703916
 30
0.0
 40
3.0
100
AcDbArc
 50
90.0
 51
180.0
  0
LINE
  5
570E
330
1A
100
AcDbEntity
  8
外形線
100
AcDbLine
 10
709.753856158754
 20
329.579617039161
 30
0.0
 11
701.253856158754
 21
329.579617039161
 31
0.0
  0
LINE
  5
570F
330
1A
100
AcDbEntity
  8
外形線
100
AcDbLine
 10
709.753856158754
 20
329.579617039161
 30
0.0
 11
710.753856158754
 21
330.579617039161
 31
0.0
  0
LINE
  5
5710
330
1A
100
AcDbEntity
  8
外形線
100
AcDbLine
 10
701.253856158754
 20
329.579617039161
 30
0.0
 11
700.753856158754
 21
330.079617039161
 31
0.0
  0
LINE
  5
5711
330
1A
100
AcDbEntity
  8
外形線
100
AcDbLine
 10
701.253856158754
 20
484.57961703916
 30
0.0
 11
700.753856158754
 21
484.07961703916
 31
0.0
  0
LINE
  5
5712
330
1A
100
AcDbEntity
  8
外形線
100
AcDbLine
 10
709.753856158754
 20
484.57961703916
 30
0.0
 11
710.753856158754
 21
483.57961703916
 31
0.0
  0
LINE
  5
5713
330
1A
100
AcDbEntity
  8
外形線
100
AcDbLine
 10
709.753856158754
 20
484.57961703916
 30
0.0
 11
701.253856158754
 21
484.57961703916
 31
0.0
  0
ARC
  5
5714
330
1A
100
AcDbEntity
  8
外形線
100
AcDbCircle
 10
713.753856158754
 20
435.07961703916
 30
0.0
 40
3.0
100
AcDbArc
 50
180.0
 51
270.0
  0
LINE
  5
5715
330
1A
100
AcDbEntity
  8
外形線
100
AcDbLine
 10
710.753856158754
 20
330.579617039161
 30
0.0
 11
710.753856158754
 21
483.57961703916
 31
0.0
  0
LINE
  5
5716
330
1A
100
AcDbEntity
  8
外形線
100
AcDbLine
 10
788.253856158754
 20
458.07961703916
 30
0.0
 11
783.753856158754
 21
458.07961703916
 31
0.0
  0
LINE
  5
5717
330
1A
100
AcDbEntity
  8
外形線
100
AcDbLine
 10
783.753856158754
 20
458.07961703916
 30
0.0
 11
780.753856158754
 21
453.07961703916
 31
0.0
  0
LINE
  5
5718
330
1A
100
AcDbEntity
  8
外形線
100
AcDbLine
 10
780.753856158754
 20
453.07961703916
 30
0.0
 11
746.298051685782
 21
451.165405679551
 31
0.0
  0
LINE
  5
5719
330
1A
100
AcDbEntity
  8
外形線
100
AcDbLine
 10
788.253856158754
 20
356.07961703916
 30
0.0
 11
782.753856158754
 21
356.07961703916
 31
0.0
  0
LINE
  5
571A
330
1A
100
AcDbEntity
  8
外形線
100
AcDbLine
 10
755.635549878703
 20
341.07961703916
 30
0.0
 11
779.882749974971
 21
341.07961703916
 31
0.0
  0
LINE
  5
571B
330
1A
100
AcDbEntity
  8
外形線
100
AcDbLine
 10
782.753856158754
 20
356.07961703916
 30
0.0
 11
781.878320290684
 21
342.946579018113
 31
0.0
  0
LINE
  5
571C
330
1A
100
AcDbEntity
  8
外形線
100
AcDbLine
 10
752.491813448023
 20
361.764540381073
 30
0.0
 11
753.63926206554
 21
342.95781815978
 31
0.0
  0
LINE
  5
571D
330
1A
100
AcDbEntity
  8
外形線
100
AcDbLine
 10
751.549139561064
 20
362.702101294588
 30
0.0
 11
746.298051685782
 21
362.99382839877
 31
0.0
  0
LINE
  5
571E
330
1A
100
AcDbEntity
  8
中心線
  6
CENTER
 48
10.0
100
AcDbLine
 10
767.759149926837
 20
325.178426102522
 30
0.0
 11
767.759149926837
 21
370.801839261382
 31
0.0
  0
LINE
  5
571F
330
1A
100
AcDbEntity
  8
外形線
100
AcDbLine
 10
743.927995035557
 20
449.772003594099
 30
0.0
 11
733.63681680665
 21
433.477638064996
 31
0.0
  0
LINE
  5
5720
330
1A
100
AcDbEntity
  8
外形線
100
AcDbLine
 10
731.100350097557
 20
432.07961703916
 30
0.0
 11
713.753856158754
 21
432.07961703916
 31
0.0
  0
LINE
  5
5721
330
1A
100
AcDbEntity
  8
外形線
100
AcDbLine
 10
743.927995035557
 20
364.387230484222
 30
0.0
 11
733.63681680665
 21
380.681596013324
 31
0.0
  0
ARC
  5
5722
330
1A
100
AcDbEntity
  8
外形線
100
AcDbCircle
 10
731.100350097557
 20
435.07961703916
 30
0.0
 40
3.0
100
AcDbArc
 50
270.0
 51
327.724355685421
  0
ARC
  5
5723
330
1A
100
AcDbEntity
  8
外形線
100
AcDbCircle
 10
731.100350097557
 20
379.07961703916
 30
0.0
 40
3.0
100
AcDbArc
 50
32.275644314579
 51
90.0
  0
ARC
  5
5724
330
1A
100
AcDbEntity
  8
外形線
100
AcDbCircle
 10
746.46446174465
 20
448.170024619935
 30
0.0
 40
3.0
100
AcDbArc
 50
93.179830119866
 51
147.724355685421
  0
ARC
  5
5725
330
1A
100
AcDbEntity
  8
外形線
100
AcDbCircle
 10
746.46446174465
 20
365.989209458386
 30
0.0
 40
3.0
100
AcDbArc
 50
212.275644314579
 51
266.820169880134
  0
ARC
  5
5726
330
1A
100
AcDbEntity
  8
外形線
100
AcDbCircle
 10
751.493669541441
 20
361.703640941382
 30
0.0
 40
1.0
100
AcDbArc
 50
3.491441283454
 51
86.820169880132
  0
ARC
  5
5727
330
1A
100
AcDbEntity
  8
外形線
100
AcDbCircle
 10
779.882749974971
 20
343.07961703916
 30
0.0
 40
2.0
100
AcDbArc
 50
270.0
 51
356.185925165712
  0
ARC
  5
5728
330
1A
100
AcDbEntity
  8
外形線
100
AcDbCircle
 10
755.635549878703
 20
343.07961703916
 30
0.0
 40
2.0
100
AcDbArc
 50
183.491441283454
 51
270.0
  0
LINE
  5
5729
330
1A
100
AcDbEntity
  8
外形線
100
AcDbLine
 10
788.253856158754
 20
458.07961703916
 30
0.0
 11
788.753856158754
 21
457.57961703916
 31
0.0
  0
LINE
  5
572A
330
1A
100
AcDbEntity
  8
外形線
100
AcDbLine
 10
788.253856158754
 20
356.07961703916
 30
0.0
 11
788.753856158754
 21
356.57961703916
 31
0.0
  0
LINE
  5
572B
330
1A
100
AcDbEntity
  8
細線
 62
     6
 48
10.0
100
AcDbLine
 10
783.753856158754
 20
458.07961703916
 30
0.0
 11
783.753856158754
 21
356.07961703916
 31
0.0
  0
LINE
  5
572C
330
1A
100
AcDbEntity
  8
細線
 62
     6
 48
10.0
100
AcDbLine
 10
780.753856158754
 20
453.07961703916
 30
0.0
 11
780.753856158754
 21
364.932449096601
 31
0.0
  0
LINE
  5
572D
330
1A
100
AcDbEntity
  8
細線
 62
     6
 48
10.0
100
AcDbLine
 10
745.355878613735
 20
448.005239101291
 30
0.0
 11
745.355878613735
 21
366.028915592341
 31
0.0
  0
LINE
  5
572E
330
1A
100
AcDbEntity
  8
細線
 62
     6
 48
10.0
100
AcDbLine
 10
732.972999063709
 20
430.217922785419
 30
0.0
 11
732.972999063709
 21
383.429550276588
 31
0.0
  0
LINE
  5
572F
330
1A
100
AcDbEntity
  8
細線
100
AcDbLine
 10
806.461010158754
 20
437.92446703916
 30
0.0
 11
806.461010158754
 21
449.34841703916
 31
0.0
  0
LINE
  5
5730
330
1A
100
AcDbEntity
  8
外形線
100
AcDbLine
 10
841.018626158754
 20
407.07961703916
 30
0.0
 11
841.018626158754
 21
449.56802103916
 31
0.0
  0
LINE
  5
5731
330
1A
100
AcDbEntity
  8
細線
100
AcDbLine
 10
810.173778158754
 20
455.63161903916
 30
0.0
 11
810.173778158754
 21
358.52761503916
 31
0.0
  0
LINE
  5
5732
330
1A
100
AcDbEntity
  8
外形線
100
AcDbLine
 10
790.753002158754
 20
356.07961703916
 30
0.0
 11
790.753002158754
 21
458.07961703916
 31
0.0
  0
LINE
  5
5733
330
1A
100
AcDbEntity
  8
外形線
100
AcDbLine
 10
788.753856158754
 20
458.07961703916
 30
0.0
 11
788.753856158754
 21
356.07961703916
 31
0.0
  0
ARC
  5
5734
330
1A
100
AcDbEntity
  8
細線
100
AcDbCircle
 10
781.181513926837
 20
349.95770103916
 30
0.0
 40
18.322924
100
AcDbArc
 50
247.068453993571
 51
267.322397459894
  0
LINE
  5
5735
330
1A
100
AcDbEntity
  8
外形線
100
AcDbLine
 10
755.192743926837
 20
331.65478303916
 30
0.0
 11
780.325557926837
 21
331.65478303916
 31
0.0
  0
LINE
  5
5736
330
1A
100
AcDbEntity
  8
外形線
100
AcDbLine
 10
753.764765926837
 20
336.79559103916
 30
0.0
 11
781.753657926837
 21
336.79559103916
 31
0.0
  0
LINE
  5
5737
330
1A
100
AcDbEntity
  8
細線
100
AcDbLine
 10
774.899165926837
 20
341.07958703916
 30
0.0
 11
774.899165926837
 21
336.79559103916
 31
0.0
  0
LINE
  5
5738
330
1A
100
AcDbEntity
  8
外形線
100
AcDbLine
 10
777.183955926837
 20
336.79559103916
 30
0.0
 11
777.183955926837
 21
341.07958703916
 31
0.0
  0
LINE
  5
5739
330
1A
100
AcDbEntity
  8
細線
100
AcDbLine
 10
774.042353926837
 20
333.08282303916
 30
0.0
 11
774.042353926837
 21
336.79559103916
 31
0.0
  0
LINE
  5
573A
330
1A
100
AcDbEntity
  8
細線
100
AcDbLine
 10
760.619135926837
 20
341.07958703916
 30
0.0
 11
760.619135926837
 21
336.79559103916
 31
0.0
  0
LINE
  5
573B
330
1A
100
AcDbEntity
  8
外形線
100
AcDbLine
 10
758.334345926837
 20
336.79559103916
 30
0.0
 11
758.334345926837
 21
341.07958703916
 31
0.0
  0
ARC
  5
573C
330
1A
100
AcDbEntity
  8
細線
100
AcDbCircle
 10
754.336787926837
 20
349.95770103916
 30
0.0
 40
18.322924
100
AcDbArc
 50
272.67766208363
 51
292.93154825417
  0
LINE
  5
573D
330
1A
100
AcDbEntity
  8
外形線
100
AcDbLine
 10
753.764765926837
 20
333.08282303916
 30
0.0
 11
755.192743926837
 21
331.65478303916
 31
0.0
  0
LINE
  5
573E
330
1A
100
AcDbEntity
  8
細線
100
AcDbLine
 10
761.475947926837
 20
333.08282303916
 30
0.0
 11
761.475947926837
 21
336.79559103916
 31
0.0
  0
LINE
  5
573F
330
1A
100
AcDbEntity
  8
外形線
100
AcDbLine
 10
753.764765926837
 20
336.79559103916
 30
0.0
 11
753.764765926837
 21
333.08282303916
 31
0.0
  0
ARC
  5
5740
330
1A
100
AcDbEntity
  8
細線
100
AcDbCircle
 10
767.759149926837
 20
346.19146503916
 30
0.0
 40
14.53669
100
AcDbArc
 50
244.390793033803
 51
295.609209213938
  0
LINE
  5
5741
330
1A
100
AcDbEntity
  8
外形線
100
AcDbLine
 10
781.753657926837
 20
333.08282303916
 30
0.0
 11
780.325557926837
 21
331.65478303916
 31
0.0
  0
LINE
  5
5742
330
1A
100
AcDbEntity
  8
外形線
100
AcDbLine
 10
781.753657926837
 20
336.79559103916
 30
0.0
 11
781.753657926837
 21
333.08282303916
 31
0.0
  0
ARC
  5
5743
330
1A
100
AcDbEntity
  8
外形線
100
AcDbCircle
 10
806.134960158754
 20
433.93020303916
 30
0.0
 40
4.015794000000001
100
AcDbArc
 50
274.656944786914
 51
84.065438721313
  0
ARC
  5
5744
330
1A
100
AcDbEntity
  8
外形線
100
AcDbCircle
 10
805.173900158754
 20
406.49722103916
 30
0.0
 40
5.033766
100
AcDbArc
 50
6.644133183896
 51
75.184725088441
  0
ARC
  5
5745
330
1A
100
AcDbEntity
  8
外形線
100
AcDbCircle
 10
805.173900158754
 20
407.66213703916
 30
0.0
 40
5.033766
100
AcDbArc
 50
284.815257311476
 51
353.35584921602
  0
ARC
  5
5746
330
1A
100
AcDbEntity
  8
外形線
100
AcDbCircle
 10
806.134960158754
 20
380.22915503916
 30
0.0
 40
4.015794000000001
100
AcDbArc
 50
275.934583374273
 51
85.343077308665
  0
LINE
  5
5747
330
1A
100
AcDbEntity
  8
外形線
100
AcDbLine
 10
810.173778158754
 20
358.52761503916
 30
0.0
 11
806.461010158754
 21
356.07961703916
 31
0.0
  0
LINE
  5
5748
330
1A
100
AcDbEntity
  8
外形線
100
AcDbLine
 10
808.501110158754
 20
364.81081903916
 30
0.0
 11
790.753002158754
 21
364.81081903916
 31
0.0
  0
LINE
  5
5749
330
1A
100
AcDbEntity
  8
外形線
100
AcDbLine
 10
808.501110158754
 20
361.38369503916
 30
0.0
 11
790.753002158754
 21
361.38369503916
 31
0.0
  0
LINE
  5
574A
330
1A
100
AcDbEntity
  8
細線
100
AcDbLine
 10
806.461010158754
 20
402.79568303916
 30
0.0
 11
806.461010158754
 21
384.23159503916
 31
0.0
  0
LINE
  5
574B
330
1A
100
AcDbEntity
  8
細線
100
AcDbLine
 10
806.461010158754
 20
376.23489103916
 30
0.0
 11
806.461010158754
 21
364.81081903916
 31
0.0
  0
LINE
  5
574C
330
1A
100
AcDbEntity
  8
細線
100
AcDbLine
 10
806.461010158754
 20
361.38369503916
 30
0.0
 11
806.461010158754
 21
356.07961703916
 31
0.0
  0
LINE
  5
574D
330
1A
100
AcDbEntity
  8
外形線
100
AcDbLine
 10
788.753856158754
 20
356.07961703916
 30
0.0
 11
806.461010158754
 21
356.07961703916
 31
0.0
  0
LINE
  5
574E
330
1A
100
AcDbEntity
  8
外形線
100
AcDbLine
 10
790.753002158754
 20
376.23489103916
 30
0.0
 11
806.550120158754
 21
376.23489103916
 31
0.0
  0
LINE
  5
574F
330
1A
100
AcDbEntity
  8
外形線
100
AcDbLine
 10
790.753002158754
 20
384.23159503916
 30
0.0
 11
806.461010158754
 21
384.23159503916
 31
0.0
  0
LINE
  5
5750
330
1A
100
AcDbEntity
  8
細線
100
AcDbLine
 10
806.461010158754
 20
411.36367503916
 30
0.0
 11
806.461010158754
 21
429.92764103916
 31
0.0
  0
LINE
  5
5751
330
1A
100
AcDbEntity
  8
外形線
100
AcDbLine
 10
790.753002158754
 20
411.36367503916
 30
0.0
 11
806.461010158754
 21
411.36367503916
 31
0.0
  0
LINE
  5
5752
330
1A
100
AcDbEntity
  8
外形線
100
AcDbLine
 10
790.753002158754
 20
402.79568303916
 30
0.0
 11
806.461010158754
 21
402.79568303916
 31
0.0
  0
LINE
  5
5753
330
1A
100
AcDbEntity
  8
外形線
100
AcDbLine
 10
790.753002158754
 20
429.92764103916
 30
0.0
 11
806.461010158754
 21
429.92764103916
 31
0.0
  0
LINE
  5
5754
330
1A
100
AcDbEntity
  8
外形線
100
AcDbLine
 10
790.753002158754
 20
437.92446703916
 30
0.0
 11
806.550120158754
 21
437.92446703916
 31
0.0
  0
LINE
  5
5755
330
1A
100
AcDbEntity
  8
外形線
100
AcDbLine
 10
850.729076158754
 20
383.66042903916
 30
0.0
 11
850.729076158754
 21
401.08205903916
 31
0.0
  0
LINE
  5
5756
330
1A
100
AcDbEntity
  8
外形線
100
AcDbLine
 10
841.018626158754
 20
407.07961703916
 30
0.0
 11
841.018626158754
 21
364.59133703916
 31
0.0
  0
ARC
  5
5757
330
1A
100
AcDbEntity
  8
外形線
100
AcDbCircle
 10
836.163402158754
 20
364.59133703916
 30
0.0
 40
4.8552
100
AcDbArc
 50
272.650733067262
 51
359.999982399895
  0
ARC
  5
5758
330
1A
100
AcDbEntity
  8
外形線
100
AcDbCircle
 10
808.447094158754
 20
363.09719703916
 30
0.0
 40
1.714446
100
AcDbArc
 50
271.804703586974
 51
88.195318508604
  0
LINE
  5
5759
330
1A
100
AcDbEntity
  8
外形線
100
AcDbLine
 10
810.173778158754
 20
358.52761503916
 30
0.0
 11
836.388012158754
 21
359.74130103916
 31
0.0
  0
ARC
  5
575A
330
1A
100
AcDbEntity
  8
外形線
100
AcDbCircle
 10
848.866894158754
 20
375.81155103916
 30
0.0
 40
1.86215
100
AcDbArc
 50
268.482178628786
 51
83.815801009984
  0
ARC
  5
575B
330
1A
100
AcDbEntity
  8
外形線
100
AcDbCircle
 10
848.729808158753
 20
383.66042903916
 30
0.0
 40
1.9992
100
AcDbArc
 50
270.0
 51
359.999982399894
  0
ARC
  5
575C
330
1A
100
AcDbEntity
  8
外形線
100
AcDbCircle
 10
843.019116158754
 20
379.66210703916
 30
0.0
 40
2.000724
100
AcDbArc
 50
87.757023395436
 51
272.242959004483
  0
LINE
  5
575D
330
1A
100
AcDbEntity
  8
外形線
100
AcDbLine
 10
843.097362158754
 20
377.66286903916
 30
0.0
 11
849.067454158753
 21
377.66286903916
 31
0.0
  0
LINE
  5
575E
330
1A
100
AcDbEntity
  8
外形線
100
AcDbLine
 10
841.018626158754
 20
373.95010103916
 30
0.0
 11
848.817576158754
 21
373.95010103916
 31
0.0
  0
LINE
  5
575F
330
1A
100
AcDbEntity
  8
外形線
100
AcDbLine
 10
843.097424158754
 20
381.66128303916
 30
0.0
 11
848.729808158753
 21
381.66128303916
 31
0.0
  0
LINE
  5
5760
330
1A
100
AcDbEntity
  8
外形線
100
AcDbLine
 10
850.729076158754
 20
430.49880703916
 30
0.0
 11
850.729076158754
 21
413.07717703916
 31
0.0
  0
ARC
  5
5761
330
1A
100
AcDbEntity
  8
外形線
100
AcDbCircle
 10
848.729808158753
 20
413.07717703916
 30
0.0
 40
1.9992
100
AcDbArc
 50
270.0
 51
359.999982399907
  0
ARC
  5
5762
330
1A
100
AcDbEntity
  8
外形線
100
AcDbCircle
 10
843.173046158754
 20
408.93252303916
 30
0.0
 40
2.15556
100
AcDbArc
 50
95.512637406102
 51
178.089033713734
  0
LINE
  5
5763
330
1A
100
AcDbEntity
  8
外形線
100
AcDbLine
 10
842.966014158754
 20
411.07803103916
 30
0.0
 11
848.729808158753
 21
411.07803103916
 31
0.0
  0
LINE
  5
5764
330
1A
100
AcDbEntity
  8
外形線
100
AcDbLine
 10
842.966014158754
 20
403.08132703916
 30
0.0
 11
848.729808158753
 21
403.08132703916
 31
0.0
  0
ARC
  5
5765
330
1A
100
AcDbEntity
  8
外形線
100
AcDbCircle
 10
848.729808158753
 20
401.08205903916
 30
0.0
 40
1.9992
100
AcDbArc
 50
0.0
 51
89.999981276022
  0
ARC
  5
5766
330
1A
100
AcDbEntity
  8
外形線
100
AcDbCircle
 10
843.173046158754
 20
405.22683503916
 30
0.0
 40
2.15556
100
AcDbArc
 50
181.910948686156
 51
264.487402289584
  0
LINE
  5
5767
330
1A
100
AcDbEntity
  8
外形線
100
AcDbLine
 10
841.018626158754
 20
440.20925703916
 30
0.0
 11
848.817576158754
 21
440.20925703916
 31
0.0
  0
ARC
  5
5768
330
1A
100
AcDbEntity
  8
外形線
100
AcDbCircle
 10
848.729808158753
 20
430.49880703916
 30
0.0
 40
1.9992
100
AcDbArc
 50
0.0
 51
89.999981276022
  0
ARC
  5
5769
330
1A
100
AcDbEntity
  8
外形線
100
AcDbCircle
 10
843.017834158754
 20
434.49722103916
 30
0.0
 40
2.000726
100
AcDbArc
 50
87.722187561485
 51
272.277852134191
  0
LINE
  5
576A
330
1A
100
AcDbEntity
  8
外形線
100
AcDbLine
 10
843.097362158754
 20
432.49807503916
 30
0.0
 11
848.729808158753
 21
432.49807503916
 31
0.0
  0
LINE
  5
576B
330
1A
100
AcDbEntity
  8
外形線
100
AcDbLine
 10
843.097362158754
 20
436.49636503916
 30
0.0
 11
849.067454158753
 21
436.49636503916
 31
0.0
  0
ARC
  5
576C
330
1A
100
AcDbEntity
  8
外形線
100
AcDbCircle
 10
848.866894158754
 20
438.34780703916
 30
0.0
 40
1.86215
100
AcDbArc
 50
276.184221085629
 51
91.517843466791
  0
LINE
  5
576D
330
1A
100
AcDbEntity
  8
外形線
100
AcDbLine
 10
808.501110158754
 20
449.34841703916
 30
0.0
 11
790.753002158754
 21
449.34841703916
 31
0.0
  0
LINE
  5
576E
330
1A
100
AcDbEntity
  8
外形線
100
AcDbLine
 10
808.501110158754
 20
452.77566303916
 30
0.0
 11
790.753002158754
 21
452.77566303916
 31
0.0
  0
LINE
  5
576F
330
1A
100
AcDbEntity
  8
外形線
100
AcDbLine
 10
806.461010158754
 20
458.07961703916
 30
0.0
 11
810.173778158754
 21
455.63161903916
 31
0.0
  0
LINE
  5
5770
330
1A
100
AcDbEntity
  8
外形線
100
AcDbLine
 10
788.753856158754
 20
458.07961703916
 30
0.0
 11
806.461010158754
 21
458.07961703916
 31
0.0
  0
LINE
  5
5771
330
1A
100
AcDbEntity
  8
細線
100
AcDbLine
 10
806.461010158754
 20
452.77566303916
 30
0.0
 11
806.461010158754
 21
458.07961703916
 31
0.0
  0
ARC
  5
5772
330
1A
100
AcDbEntity
  8
外形線
100
AcDbCircle
 10
836.163402158754
 20
449.56802103916
 30
0.0
 40
4.8552
100
AcDbArc
 50
0.0
 51
87.349306628423
  0
ARC
  5
5773
330
1A
100
AcDbEntity
  8
外形線
100
AcDbCircle
 10
808.447094158754
 20
451.06203903916
 30
0.0
 40
1.714446
100
AcDbArc
 50
271.804703586974
 51
88.195318508604
  0
LINE
  5
5774
330
1A
100
AcDbEntity
  8
外形線
100
AcDbLine
 10
810.173778158754
 20
455.63161903916
 30
0.0
 11
836.388012158754
 21
454.41799703916
 31
0.0
  0
ARC
  5
5775
330
1A
100
AcDbEntity
  8
細線
100
AcDbCircle
 10
768.374629926837
 20
330.312619039158
 30
0.0
 40
36.76653200000171
100
AcDbArc
 50
70.324160459539
 51
115.211785839399
  0
LINE
  5
5776
330
1A
100
AcDbEntity
  8
細線
 62
     6
 48
10.0
100
AcDbLine
 10
780.753856158754
 20
364.932449096601
 30
0.0
 11
783.753856158754
 21
356.07961703916
 31
0.0
  0
LINE
  5
5777
330
1A
100
AcDbEntity
  8
中心線
  6
CENTER
 48
10.0
100
AcDbLine
 10
695.751368716501
 20
342.07961703916
 30
0.0
 11
715.753856158754
 21
342.07961703916
 31
0.0
  0
MTEXT
  5
5872
330
1A
100
AcDbEntity
  8
寸法線
 48
10.0
100
AcDbMText
 10
760.229235635178
 20
540.675998104421
 30
0.0
 40
10.0
 41
212.510156041579
 71
     1
 72
     5
  1
塗装色：10YR7.5/14
  0
DIMENSION
  5
6035
330
1A
100
AcDbEntity
  8
寸法線
 48
10.0
100
AcDbDimension
  2
*D53
 10
500.833456970336
 20
364.57961703916
 30
0.0
 11
488.333456970336
 21
370.209825372494
 31
0.0
 70
    32
  3
ISO-25
100
AcDbAlignedDimension
 13
475.833456970336
 23
399.57961703916
 33
0.0
 14
500.833456970336
 24
399.57961703916
 34
0.0
100
AcDbRotatedDimension
1001
ACAD
1000
DSTYLE
1002
{
1070
     5
1000
OPEN30
1070
    41
1040
6.0
1070
   271
1070
     1
1070
   341
1005
2AEB
1070
   272
1070
     1
1070
    73
1070
     0
1070
    48
1040
0.1
1070
    47
1040
0.1
1070
   140
1040
10.0
1002
}
  0
VIEWPORT
  5
2902
330
28FB
100
AcDbEntity
 67
     1
  8
0
 48
10.0
100
AcDbViewport
 10
218.024566321764
 20
139.390894835002
 30
0.0
 40
619.497490916871
 41
334.863508603714
 68
     1
 69
     1
1001
ACAD
1000
MVIEW
1002
{
1070
    16
1010
0.0
1020
0.0
1030
0.0
1010
0.0
1020
0.0
1030
1.0
1040
0.0
1040
334.863508603714
1040
218.024566321764
1040
139.390894835002
1040
50.0
1040
0.0
1040
0.0
1070
     0
1070
   100
1070
     0
1070
     1
1070
     0
1070
     0
1070
     0
1070
     0
1040
0.0
1040
0.0
1040
0.0
1040
10.0
1040
10.0
1040
10.0
1040
10.0
1070
     0
1002
{
1002
}
1002
}
  0
VIEWPORT
  5
2904
330
28FB
100
AcDbEntity
 67
     1
  8
図枠太線
 48
10.0
100
AcDbViewport
 10
204.746305129083
 20
163.457123274536
 30
0.0
 40
400.0
 41
240.0
 68
     2
 69
     2
1001
ACAD
1000
MVIEW
1002
{
1070
    16
1010
0.0
1020
0.0
1030
0.0
1010
0.0
1020
0.0
1030
1.0
1040
0.0
1040
600.000000380771
1040
453.709209614386
1040
287.634879862605
1040
50.0
1040
0.0
1040
0.0
1070
     0
1070
   100
1070
     0
1070
     0
1070
     0
1070
     0
1070
     0
1070
     0
1040
0.0
1040
0.0
1040
0.0
1040
1.0
1040
1.0
1040
0.0
1040
0.0
1070
     0
1002
{
1002
}
1002
}
  0
INSERT
  5
2A59
330
28FB
100
AcDbEntity
 67
     1
  8
図枠太線
100
AcDbBlockReference
  2
A3横用_タイトル
 10
-0.352109406709
 20
-0.068836478991
 30
0.0
  0
MTEXT
  5
31B1
330
28FB
100
AcDbEntity
 67
     1
  8
寸法線
 48
10.0
100
AcDbMText
 10
146.329636270656
 20
16.34448462304
 30
0.0
 40
7.0
 41
17.722495000522
 71
     1
 72
     5
  1
1:2.5
  0
MTEXT
  5
31B4
102
{ACAD_XDICTIONARY
360
602A
102
}
330
28FB
100
AcDbEntity
 67
     1
  8
寸法線
 48
10.0
100
AcDbMText
 10
343.41411075628
 20
17.345158694154
 30
0.0
 40
7.0
 41
36.987144228194
 71
     1
 72
     5
  1
\H1.143x;HY-5003
1001
ACADANNOTATIVE
1000
AnnotativeData
1002
{
1070
     1
1070
     0
1002
}
  0
MTEXT
  5
31B5
330
28FB
100
AcDbEntity
 67
     1
  8
寸法線
 48
10.0
100
AcDbMText
 10
320.165597342587
 20
35.989079454545
 30
0.0
 40
8.0
 41
24.128904612543
 71
     1
 72
     5
  1
PAF-1
  0
MTEXT
  5
31B6
330
28FB
100
AcDbEntity
 67
     1
  8
寸法線
 48
10.0
100
AcDbMText
 10
377.701941238986
 20
40.080736974002
 30
0.0
 40
5.0
 41
0.0
 71
     1
 72
     5
  1
通過警報\Pスイッチ
  0
MTEXT
  5
31B7
102
{ACAD_XDICTIONARY
360
5FE1
102
}
330
28FB
100
AcDbEntity
 67
     1
  8
寸法線
 48
10.0
100
AcDbMText
 10
371.884164254175
 20
53.091531849722
 30
0.0
 40
5.0
 41
52.347826086957
 71
     1
 72
     5
  1
台数   台
1001
ACADANNOTATIVE
1000
AnnotativeData
1002
{
1070
     1
1070
     0
1002
}
  0
MTEXT
  5
5932
102
{ACAD_XDICTIONARY
360
5FDB
102
}
330
28FB
100
AcDbEntity
 67
     1
  8
寸法線
 48
10.0
100
AcDbMText
 10
175.007862142054
 20
14.753678462948
 30
0.0
 40
4.0
 41
23.156665718806
 71
     1
 72
     5
  1
\H1.25x;2015.6.16
1001
ACADANNOTATIVE
1000
AnnotativeData
1002
{
1070
     1
1070
     0
1002
}
  0
MTEXT
  5
5933
102
{ACAD_XDICTIONARY
360
5FDE
102
}
330
28FB
100
AcDbEntity
 67
     1
  8
寸法線
 48
10.0
100
AcDbMText
 10
180.323592668084
 20
34.176191452949
 30
0.0
 40
4.5
 41
21.375384236178
 71
     1
 72
     5
  1
ohno
1001
ACADANNOTATIVE
1000
AnnotativeData
1002
{
1070
     1
1070
     0
1002
}
  0
MTEXT
  5
6045
330
28FB
100
AcDbEntity
 67
     1
  8
寸法線
 48
10.0
100
AcDbMText
 10
234.201547413731
 20
41.115734701303
 30
0.0
 40
4.5
 41
154.490169428284
 71
     1
 72
     1
  1
反時計方向動作
  0
ENDSEC
  0
SECTION
  2
OBJECTS
  0
DICTIONARY
  5
C
330
0
100
AcDbDictionary
  3
ACAD_COLOR
350
2948
  3
ACAD_GROUP
350
D
  3
ACAD_LAYOUT
350
2816
  3
ACAD_MATERIAL
350
2947
  3
ACAD_MLEADERSTYLE
350
5AEA
  3
ACAD_MLINESTYLE
350
E
  3
ACAD_PLOTSETTINGS
350
2817
  3
ACAD_SCALELIST
350
5AC3
  3
ACAD_VISUALSTYLE
350
5AAA
  3
ACADDIM
350
4AF1
  3
ACDBHEADERROUNDTRIPXREC
350
6046
  3
ACDBVARIABLEDICTIONARY
350
602D
  3
DWGPROPS
350
606B
  0
DICTIONARY
  5
606C
330
8
100
AcDbDictionary
280
     1
  3
ACAD_XREC_ROUNDTRIP
360
606D
  0
DICTIONARY
  5
29EA
330
2
100
AcDbDictionary
280
     1
  3
ACAD_LAYERFILTERS
360
2B03
  3
ACAD_LAYERSTATES
360
29EB
  0
DICTIONARY
  5
6042
330
4435
100
AcDbDictionary
280
     1
  3
ACDBCONTEXTDATAMANAGER
360
6043
  0
DICTIONARY
  5
602A
330
31B4
100
AcDbDictionary
280
     1
  3
ACDBCONTEXTDATAMANAGER
360
602B
  0
DICTIONARY
  5
5FE1
330
31B7
100
AcDbDictionary
280
     1
  3
ACDBCONTEXTDATAMANAGER
360
5FE2
  0
DICTIONARY
  5
5FDB
330
5932
100
AcDbDictionary
280
     1
  3
ACDBCONTEXTDATAMANAGER
360
5FDC
  0
DICTIONARY
  5
5FDE
330
5933
100
AcDbDictionary
280
     1
  3
ACDBCONTEXTDATAMANAGER
360
5FDF
  0
DICTIONARY
  5
2948
102
{ACAD_REACTORS
330
C
102
}
330
C
100
AcDbDictionary
  0
DICTIONARY
  5
D
102
{ACAD_REACTORS
330
C
102
}
330
C
100
AcDbDictionary
  0
DICTIONARY
  5
2816
102
{ACAD_REACTORS
330
C
102
}
330
C
100
AcDbDictionary
  0
DICTIONARY
  5
2947
102
{ACAD_REACTORS
330
C
102
}
330
C
100
AcDbDictionary
  3
BYBLOCK
350
5AE6
  3
BYLAYER
350
5AE5
  3
GLOBAL
350
5AE7
  0
DICTIONARY
  5
5AEA
102
{ACAD_REACTORS
330
C
102
}
330
C
100
AcDbDictionary
  3
STANDARD
350
5AEB
  0
DICTIONARY
  5
E
102
{ACAD_REACTORS
330
C
102
}
330
C
100
AcDbDictionary
  3
STANDARD
350
13
  0
DICTIONARY
  5
2817
102
{ACAD_REACTORS
330
C
102
}
330
C
100
AcDbDictionary
  0
DICTIONARY
  5
5AC3
102
{ACAD_REACTORS
330
C
102
}
330
C
100
AcDbDictionary
  3
A0
350
5AC4
  3
A1
350
5AC5
  3
A2
350
5AC6
  3
A3
350
5AC7
  3
A4
350
5AC8
  3
A5
350
5AC9
  3
A6
350
5ACA
  3
A7
350
5ACB
  3
A8
350
5ACC
  3
A9
350
5ACD
  3
B0
350
5ACE
  3
B1
350
5ACF
  3
B2
350
5AD0
  3
B3
350
5AD1
  3
B4
350
5AD2
  3
B5
350
5AD3
  3
B6
350
5AD4
  3
B7
350
5AD5
  3
B8
350
5AD6
  3
B9
350
5AD7
  3
C0
350
5AD8
  3
C1
350
5AD9
  3
C2
350
5ADA
  3
C3
350
5ADB
  3
C4
350
5ADC
  3
C5
350
5ADD
  3
C6
350
5ADE
  3
C7
350
5ADF
  3
C8
350
5AE0
  3
C9
350
5AE1
  3
D0
350
5AE2
  3
D1
350
5AE3
  3
D2
350
5AE4
  0
DICTIONARY
  5
5AAA
102
{ACAD_REACTORS
330
C
102
}
330
C
100
AcDbDictionary
  3
2DWIREFRAME
350
5AAF
  3
BASIC
350
5AB2
  3
BRIGHTEN
350
5AB6
  3
COLORCHANGE
350
5ABA
  3
CONCEPTUAL
350
5AB4
  3
DIM
350
5AB5
  3
EDGECOLOROFF
350
5ABD
  3
FACEPATTERN
350
5AB9
  3
FLAT
350
5AAB
  3
FLATWITHEDGES
350
5AAC
  3
GOURAUD
350
5AAD
  3
GOURAUDWITHEDGES
350
5AAE
  3
HIDDEN
350
5AB1
  3
JITTEROFF
350
5ABB
  3
LINEPATTERN
350
5AB8
  3
OVERHANGOFF
350
5ABC
  3
REALISTIC
350
5AB3
  3
SHADED
350
5AC2
  3
SHADED_WITH_EDGES
350
5AC1
  3
SHADES_OF_GRAY
350
5ABE
  3
SKETCHY
350
5ABF
  3
THICKEN
350
5AB7
  3
WIREFRAME
350
5AB0
  3
X-RAY
350
5AC0
  0
XRECORD
  5
4AF1
102
{ACAD_REACTORS
330
C
102
}
330
C
100
AcDbXrecord
 90
   990106
  3

 60
     0
 61
     0
 62
     1
 63
     3
 64
     0
 65
     0
 66
     0
 67
     3
 68
     1
 69
     0
 70
     0
 71
     0
 72
     0
 40
0.0
170
     0
  0
DICTIONARY
  5
6046
102
{ACAD_REACTORS
330
C
102
}
330
C
100
AcDbDictionary
  3
CEPSNID
350
6050
  3
CEPSNTYPE
350
604F
  3
COLORDICT
350
6069
  3
DIMSTYLEDATA
350
6066
  3
FINGERPRINTGUID
350
6051
  3
HYPERLINKBASE
350
6049
  3
INSUNITS
350
604E
  3
LAYOUTDICT
350
604B
  3
LWETCUNION
350
604D
  3
MATERIALDICT
350
606A
  3
PLOTSETDICT
350
604C
  3
PSVPSCALE
350
6053
  3
PUCSBASE
350
6056
  3
PUCSORGBACK
350
605C
  3
PUCSORGBOTTOM
350
6058
  3
PUCSORGFRONT
350
605B
  3
PUCSORGLEFT
350
6059
  3
PUCSORGRIGHT
350
605A
  3
PUCSORGTOP
350
6057
  3
PUCSORTHOREF
350
6054
  3
PUCSORTHOVIEW
350
6055
  3
STYLESHEET
350
604A
  3
TSTACKALIGN
350
6047
  3
TSTACKSIZE
350
6048
  3
UCSBASE
350
605F
  3
UCSORGBACK
350
6065
  3
UCSORGBOTTOM
350
6061
  3
UCSORGFRONT
350
6064
  3
UCSORGLEFT
350
6062
  3
UCSORGRIGHT
350
6063
  3
UCSORGTOP
350
6060
  3
UCSORTHOREF
350
605D
  3
UCSORTHOVIEW
350
605E
  3
VERSIONGUID
350
6052
  0
DICTIONARY
  5
602D
102
{ACAD_REACTORS
330
C
102
}
330
C
100
AcDbDictionary
  3
CANNOSCALE
350
602E
  3
CMLEADERSTYLE
350
6030
  3
CTABLESTYLE
350
602F
  3
DIMASSOC
350
6067
  3
HIDETEXT
350
6068
  3
MSLTSCALE
350
6031
  3
XCLIPFRAME
350
6032
  0
XRECORD
  5
606B
102
{ACAD_REACTORS
330
C
102
}
330
C
100
AcDbXrecord
  1
DWGPROPS COOKIE
  2

  3

  4

  6

  7

  8
y-ohno
  9

300
=
301
=
302
=
303
=
304
=
305
=
306
=
307
=
308
=
309
=
 40
0.0
 41
2450576.222302431
 42
2457191.295594896
  1

 90
        0
  0
XRECORD
  5
606D
102
{ACAD_REACTORS
330
606C
102
}
330
606C
100
AcDbXrecord
102
VTR_0.000_0.000_1.000_1.000_VISUALSTYLE
340
5AAF
102
VTR_0.000_0.000_1.000_1.000_GRIDDISPLAY
 70
     3
102
VTR_0.000_0.000_1.000_1.000_GRIDMAJOR
 70
     5
102
VTR_0.000_0.000_1.000_1.000_DEFAULTLIGHTING
280
     1
102
VTR_0.000_0.000_1.000_1.000_DEFAULTLIGHTINGTYPE
 70
     1
102
VTR_0.000_0.000_1.000_1.000_BRIGHTNESS
141
0.0
102
VTR_0.000_0.000_1.000_1.000_CONTRAST
142
0.0
  0
DICTIONARY
  5
2B03
102
{ACAD_REACTORS
330
29EA
102
}
330
29EA
100
AcDbDictionary
  0
DICTIONARY
  5
29EB
102
{ACAD_REACTORS
330
29EA
102
}
330
29EA
100
AcDbDictionary
  0
DICTIONARY
  5
6043
102
{ACAD_REACTORS
330
6042
102
}
330
6042
100
AcDbDictionary
  3
ACDB_ANNOTATIONSCALES
350
6044
  0
DICTIONARY
  5
602B
102
{ACAD_REACTORS
330
602A
102
}
330
602A
100
AcDbDictionary
  3
ACDB_ANNOTATIONSCALES
350
602C
  0
DICTIONARY
  5
5FE2
102
{ACAD_REACTORS
330
5FE1
102
}
330
5FE1
100
AcDbDictionary
  3
ACDB_ANNOTATIONSCALES
350
5FE3
  0
DICTIONARY
  5
5FDC
102
{ACAD_REACTORS
330
5FDB
102
}
330
5FDB
100
AcDbDictionary
  3
ACDB_ANNOTATIONSCALES
350
5FDD
  0
DICTIONARY
  5
5FDF
102
{ACAD_REACTORS
330
5FDE
102
}
330
5FDE
100
AcDbDictionary
  3
ACDB_ANNOTATIONSCALES
350
5FE0
  0
MATERIAL
  5
5AE6
102
{ACAD_REACTORS
330
2947
102
}
102
{ACAD_XDICTIONARY
360
6070
102
}
330
2947
100
AcDbMaterial
  1
BYBLOCK
  0
MATERIAL
  5
5AE5
102
{ACAD_REACTORS
330
2947
102
}
102
{ACAD_XDICTIONARY
360
606E
102
}
330
2947
100
AcDbMaterial
  1
BYLAYER
  0
MATERIAL
  5
5AE7
102
{ACAD_REACTORS
330
2947
102
}
102
{ACAD_XDICTIONARY
360
6072
102
}
330
2947
100
AcDbMaterial
  1
GLOBAL
  0
ACAD_PROXY_OBJECT
  5
5AEB
102
{ACAD_REACTORS
330
5AEA
102
}
330
5AEA
100
AcDbProxyObject
 90
      499
 91
      508
 93
      610
310
40901902A4063FBFFFFFE0000000000000020400000000000020404214DD185B99185C990000000000000104090141901A00000000000004100000000000000041025764000000000000039000
340
14
340
0
340
10
340
0
 94
        0
1001
ACAD_MLEADERVER
1070
     2
  0
MLINESTYLE
  5
13
102
{ACAD_REACTORS
330
E
102
}
330
E
100
AcDbMlineStyle
  2
STANDARD
 70
     0
  3

 62
     0
 51
90.0
 52
90.0
 71
     2
 49
0.5
 62
   256
  6
BYLAYER
 49
-0.5
 62
   256
  6
BYLAYER
  0
ACAD_PROXY_OBJECT
  5
5AC4
102
{ACAD_REACTORS
330
5AC3
102
}
330
5AC3
100
AcDbProxyObject
 90
      499
 91
      505
 93
       41
310
903313A31580
  0
ACAD_PROXY_OBJECT
  5
5AC5
102
{ACAD_REACTORS
330
5AC3
102
}
330
5AC3
100
AcDbProxyObject
 90
      499
 91
      505
 93
      105
310
903313A324000000000000004000
  0
ACAD_PROXY_OBJECT
  5
5AC6
102
{ACAD_REACTORS
330
5AC3
102
}
330
5AC3
100
AcDbProxyObject
 90
      499
 91
      505
 93
      105
310
903313A344000000000000104000
  0
ACAD_PROXY_OBJECT
  5
5AC7
102
{ACAD_REACTORS
330
5AC3
102
}
330
5AC3
100
AcDbProxyObject
 90
      499
 91
      505
 93
      105
310
903313A354000000000000144000
  0
ACAD_PROXY_OBJECT
  5
5AC8
102
{ACAD_REACTORS
330
5AC3
102
}
330
5AC3
100
AcDbProxyObject
 90
      499
 91
      505
 93
      105
310
903313A384000000000000204000
  0
ACAD_PROXY_OBJECT
  5
5AC9
102
{ACAD_REACTORS
330
5AC3
102
}
330
5AC3
100
AcDbProxyObject
 90
      499
 91
      505
 93
      113
310
904313A31304000000000000244000
  0
ACAD_PROXY_OBJECT
  5
5ACA
102
{ACAD_REACTORS
330
5AC3
102
}
330
5AC3
100
AcDbProxyObject
 90
      499
 91
      505
 93
      113
310
904313A31364000000000000304000
  0
ACAD_PROXY_OBJECT
  5
5ACB
102
{ACAD_REACTORS
330
5AC3
102
}
330
5AC3
100
AcDbProxyObject
 90
      499
 91
      505
 93
      113
310
904313A32304000000000000344000
  0
ACAD_PROXY_OBJECT
  5
5ACC
102
{ACAD_REACTORS
330
5AC3
102
}
330
5AC3
100
AcDbProxyObject
 90
      499
 91
      505
 93
      113
310
904313A333040000000000003E4000
  0
ACAD_PROXY_OBJECT
  5
5ACD
102
{ACAD_REACTORS
330
5AC3
102
}
330
5AC3
100
AcDbProxyObject
 90
      499
 91
      505
 93
      113
310
904313A34304000000000000444000
  0
ACAD_PROXY_OBJECT
  5
5ACE
102
{ACAD_REACTORS
330
5AC3
102
}
330
5AC3
100
AcDbProxyObject
 90
      499
 91
      505
 93
      113
310
904313A35304000000000000494000
  0
ACAD_PROXY_OBJECT
  5
5ACF
102
{ACAD_REACTORS
330
5AC3
102
}
330
5AC3
100
AcDbProxyObject
 90
      499
 91
      505
 93
      121
310
905313A3130304000000000000594000
  0
ACAD_PROXY_OBJECT
  5
5AD0
102
{ACAD_REACTORS
330
5AC3
102
}
330
5AC3
100
AcDbProxyObject
 90
      499
 91
      505
 93
      105
310
903323A310000000000000010100
  0
ACAD_PROXY_OBJECT
  5
5AD1
102
{ACAD_REACTORS
330
5AC3
102
}
330
5AC3
100
AcDbProxyObject
 90
      499
 91
      505
 93
      105
310
903343A310000000000000410100
  0
ACAD_PROXY_OBJECT
  5
5AD2
102
{ACAD_REACTORS
330
5AC3
102
}
330
5AC3
100
AcDbProxyObject
 90
      499
 91
      505
 93
      105
310
903383A310000000000000810100
  0
ACAD_PROXY_OBJECT
  5
5AD3
102
{ACAD_REACTORS
330
5AC3
102
}
330
5AC3
100
AcDbProxyObject
 90
      499
 91
      505
 93
      113
310
90431303A310000000000000910100
  0
ACAD_PROXY_OBJECT
  5
5AD4
102
{ACAD_REACTORS
330
5AC3
102
}
330
5AC3
100
AcDbProxyObject
 90
      499
 91
      505
 93
      121
310
9053130303A310000000000001650100
  0
ACAD_PROXY_OBJECT
  5
5AD5
102
{ACAD_REACTORS
330
5AC3
102
}
330
5AC3
100
AcDbProxyObject
 90
      499
 91
      505
 93
      257
310
90E312F31323822203D2031272D3022000000000000200FC000000000000284000
  0
ACAD_PROXY_OBJECT
  5
5AD6
102
{ACAD_REACTORS
330
5AC3
102
}
330
5AC3
100
AcDbProxyObject
 90
      499
 91
      505
 93
      249
310
90D312F363422203D2031272D3022000000000000240FC000000000000284000
  0
ACAD_PROXY_OBJECT
  5
5AD7
102
{ACAD_REACTORS
330
5AC3
102
}
330
5AC3
100
AcDbProxyObject
 90
      499
 91
      505
 93
      249
310
90D312F333222203D2031272D3022000000000000280FC000000000000284000
  0
ACAD_PROXY_OBJECT
  5
5AD8
102
{ACAD_REACTORS
330
5AC3
102
}
330
5AC3
100
AcDbProxyObject
 90
      499
 91
      505
 93
      249
310
90D312F313622203D2031272D30220000000000002C0FC000000000000284000
  0
ACAD_PROXY_OBJECT
  5
5AD9
102
{ACAD_REACTORS
330
5AC3
102
}
330
5AC3
100
AcDbProxyObject
 90
      499
 91
      505
 93
      249
310
90D332F333222203D2031272D30220000000000002E0FC000000000000284000
  0
ACAD_PROXY_OBJECT
  5
5ADA
102
{ACAD_REACTORS
330
5AC3
102
}
330
5AC3
100
AcDbProxyObject
 90
      499
 91
      505
 93
      241
310
90C312F3822203D2031272D3022000000000000300FC000000000000284000
  0
ACAD_PROXY_OBJECT
  5
5ADB
102
{ACAD_REACTORS
330
5AC3
102
}
330
5AC3
100
AcDbProxyObject
 90
      499
 91
      505
 93
      249
310
90D332F313622203D2031272D3022000000000000320FC000000000000284000
  0
ACAD_PROXY_OBJECT
  5
5ADC
102
{ACAD_REACTORS
330
5AC3
102
}
330
5AC3
100
AcDbProxyObject
 90
      499
 91
      505
 93
      241
310
90C312F3422203D2031272D3022000000000000340FC000000000000284000
  0
ACAD_PROXY_OBJECT
  5
5ADD
102
{ACAD_REACTORS
330
5AC3
102
}
330
5AC3
100
AcDbProxyObject
 90
      499
 91
      505
 93
      241
310
90C332F3822203D2031272D3022000000000000360FC000000000000284000
  0
ACAD_PROXY_OBJECT
  5
5ADE
102
{ACAD_REACTORS
330
5AC3
102
}
330
5AC3
100
AcDbProxyObject
 90
      499
 91
      505
 93
      241
310
90C312F3222203D2031272D3022000000000000380FC000000000000284000
  0
ACAD_PROXY_OBJECT
  5
5ADF
102
{ACAD_REACTORS
330
5AC3
102
}
330
5AC3
100
AcDbProxyObject
 90
      499
 91
      505
 93
      241
310
90C332F3422203D2031272D30220000000000003A0FC000000000000284000
  0
ACAD_PROXY_OBJECT
  5
5AE0
102
{ACAD_REACTORS
330
5AC3
102
}
330
5AC3
100
AcDbProxyObject
 90
      499
 91
      505
 93
      161
310
90A3122203D2031272D30224000000000000284000
  0
ACAD_PROXY_OBJECT
  5
5AE1
102
{ACAD_REACTORS
330
5AC3
102
}
330
5AC3
100
AcDbProxyObject
 90
      499
 91
      505
 93
      257
310
90E312D312F3222203D2031272D30220000000000003E0FC000000000000284000
  0
ACAD_PROXY_OBJECT
  5
5AE2
102
{ACAD_REACTORS
330
5AC3
102
}
330
5AC3
100
AcDbProxyObject
 90
      499
 91
      505
 93
      225
310
90A3322203D2031272D302200000000000002100000000000000284000
  0
ACAD_PROXY_OBJECT
  5
5AE3
102
{ACAD_REACTORS
330
5AC3
102
}
330
5AC3
100
AcDbProxyObject
 90
      499
 91
      505
 93
      225
310
90A3622203D2031272D302200000000000006100000000000000284000
  0
ACAD_PROXY_OBJECT
  5
5AE4
102
{ACAD_REACTORS
330
5AC3
102
}
330
5AC3
100
AcDbProxyObject
 90
      499
 91
      505
 93
      249
310
90D31272D3022203D2031272D30220000000000000A100000000000000284000
  0
ACAD_PROXY_OBJECT
  5
5AAF
102
{ACAD_REACTORS
330
5AAA
102
}
330
5AAA
100
AcDbProxyObject
 90
      499
 91
      504
 93
      436
310
42CC9915DA5C99599C985B595049028333333333333E33F0000000000000F90107901411070040501600405405064090741402480A0340
1001
ACAD
1000
AcDbSavedByObjectVersion
1070
     0
  0
ACAD_PROXY_OBJECT
  5
5AB2
102
{ACAD_REACTORS
330
5AAA
102
}
330
5AAA
100
AcDbProxyObject
 90
      499
 91
      504
 93
      388
310
4150985CDA58D07406404333333333333E33F0000000000000F90107A41107004050150841D405064090741402480A0350
1001
ACAD
1000
AcDbSavedByObjectVersion
1070
     0
  0
ACAD_PROXY_OBJECT
  5
5AB6
102
{ACAD_REACTORS
330
5AAA
102
}
330
5AAA
100
AcDbProxyObject
 90
      499
 91
      504
 93
      428
310
42109C9A59DA1D195B90C409028333333333333E33F0000000000000F9010790141107004050150841D405064090741402480A029950
1001
ACAD
1000
AcDbSavedByObjectVersion
1070
     0
  0
ACAD_PROXY_OBJECT
  5
5ABA
102
{ACAD_REACTORS
330
5AAA
102
}
330
5AAA
100
AcDbProxyObject
 90
      499
 91
      504
 93
      452
310
42D0DBDB1BDC90DA185B99D95104090240C333333333333E33F0000000000000F90108901411070040501508421405064090741402480A0350
1001
ACAD
1000
AcDbSavedByObjectVersion
1070
     0
  0
ACAD_PROXY_OBJECT
  5
5AB4
102
{ACAD_REACTORS
330
5AAA
102
}
330
5AAA
100
AcDbProxyObject
 90
      499
 91
      504
 93
      500
310
4290DBDB98D95C1D1D585B10940D028333333333333E33F0000000000000F90107902409070040501000000000018199010841D405064090740C02480A0340
1001
ACAD
1000
AcDbSavedByObjectVersion
1070
     0
  0
ACAD_PROXY_OBJECT
  5
5AB5
102
{ACAD_REACTORS
330
5AAA
102
}
330
5AAA
100
AcDbProxyObject
 90
      499
 91
      504
 93
      412
310
40D11A5B50B409028333333333333E33F0000000000000F9010790141107004050150841D405064090741402480A02677FFFFFD0
1001
ACAD
1000
AcDbSavedByObjectVersion
1070
     0
  0
ACAD_PROXY_OBJECT
  5
5ABD
102
{ACAD_REACTORS
330
5AAA
102
}
330
5AAA
100
AcDbProxyObject
 90
      499
 91
      504
 93
      452
310
43115919D950DBDB1BDC93D999916409028333333333333E33F0000000000000F9010790141107004050150841D405064090741402480A0350
1001
ACAD
1000
AcDbSavedByObjectVersion
1070
     0
  0
ACAD_PROXY_OBJECT
  5
5AB9
102
{ACAD_REACTORS
330
5AAA
102
}
330
5AAA
100
AcDbProxyObject
 90
      499
 91
      504
 93
      444
310
42D19858D95C185D1D195C9B90F409028333333333333E33F0000000000000F9010790141107004050150841D405064090741402480A0350
1001
ACAD
1000
AcDbSavedByObjectVersion
1070
     0
  0
ACAD_PROXY_OBJECT
  5
5AAB
102
{ACAD_REACTORS
330
5AAA
102
}
330
5AAA
100
AcDbProxyObject
 90
      499
 91
      504
 93
      380
310
41119B185D240901404333333333333E33F0000000000000F9010740A907004050150841D405064090741402480A1B50
1001
ACAD
1000
AcDbSavedByObjectVersion
1070
     0
  0
ACAD_PROXY_OBJECT
  5
5AAC
102
{ACAD_REACTORS
330
5AAA
102
}
330
5AAA
100
AcDbProxyObject
 90
      499
 91
      504
 93
      468
310
43519B185D15DA5D1A115919D95CD0140901404333333333333E33F0000000000000F90107409019070040501600405405064090741402480A1B50
1001
ACAD
1000
AcDbSavedByObjectVersion
1070
     0
  0
ACAD_PROXY_OBJECT
  5
5AAD
102
{ACAD_REACTORS
330
5AAA
102
}
330
5AAA
100
AcDbProxyObject
 90
      499
 91
      504
 93
      404
310
41D1DBDD5C985D5910240902404333333333333E33F0000000000000F9010740A9070040501641D405064090741402480A1B50
1001
ACAD
1000
AcDbSavedByObjectVersion
1070
     0
  0
ACAD_PROXY_OBJECT
  5
5AAE
102
{ACAD_REACTORS
330
5AAA
102
}
330
5AAA
100
AcDbProxyObject
 90
      499
 91
      504
 93
      492
310
4411DBDD5C985D5915DA5D1A115919D95CD0340902404333333333333E33F0000000000000F90107409019070040501600405405064090741402480A1B50
1001
ACAD
1000
AcDbSavedByObjectVersion
1070
     0
  0
ACAD_PROXY_OBJECT
  5
5AB1
102
{ACAD_REACTORS
330
5AAA
102
}
330
5AAA
100
AcDbProxyObject
 90
      499
 91
      504
 93
      476
310
41921A5919195B90640502408333333333333E33F0000000000000F901079024090700405020000000000001110200405405064090740C02480A0340
1001
ACAD
1000
AcDbSavedByObjectVersion
1070
     0
  0
ACAD_PROXY_OBJECT
  5
5ABB
102
{ACAD_REACTORS
330
5AAA
102
}
330
5AAA
100
AcDbProxyObject
 90
      499
 91
      504
 93
      428
310
42529A5D1D195C93D999914409028333333333333E33F0000000000000F9010790141107004050150A41D405064090741402480A0350
1001
ACAD
1000
AcDbSavedByObjectVersion
1070
     0
  0
ACAD_PROXY_OBJECT
  5
5AB8
102
{ACAD_REACTORS
330
5AAA
102
}
330
5AAA
100
AcDbProxyObject
 90
      499
 91
      504
 93
      444
310
42D31A5B995C185D1D195C9B90E409028333333333333E33F0000000000000F9010790141107004050750841D405064090741402483A0350
1001
ACAD
1000
AcDbSavedByObjectVersion
1070
     0
  0
ACAD_PROXY_OBJECT
  5
5ABC
102
{ACAD_REACTORS
330
5AAA
102
}
330
5AAA
100
AcDbProxyObject
 90
      499
 91
      504
 93
      444
310
42D3DD995C9A185B99D3D999915409028333333333333E33F0000000000000F9010790141107004050150941D405064090741402480A0350
1001
ACAD
1000
AcDbSavedByObjectVersion
1070
     0
  0
ACAD_PROXY_OBJECT
  5
5AB3
102
{ACAD_REACTORS
330
5AAA
102
}
330
5AAA
100
AcDbProxyObject
 90
      499
 91
      504
 93
      428
310
425499585B1A5CDD1A58D08409038333333333333E33F0000000000000F9010740A907004050150800405405064090740C02480A1B40
1001
ACAD
1000
AcDbSavedByObjectVersion
1070
     0
  0
ACAD_PROXY_OBJECT
  5
5AC2
102
{ACAD_REACTORS
330
5AAA
102
}
330
5AAA
100
AcDbProxyObject
 90
      499
 91
      504
 93
      420
310
4194DA1859195911B40902404333333333333E33F0000000000000F9010740A41107004050150800405405064090840C02480A0B40
1001
ACAD
1000
AcDbSavedByObjectVersion
1070
     0
  0
ACAD_PROXY_OBJECT
  5
5AC1
102
{ACAD_REACTORS
330
5AAA
102
}
330
5AAA
100
AcDbProxyObject
 90
      499
 91
      504
 93
      516
310
4454DA18591959081DDA5D1A08195919D95CD1A40902404333333333333E33F0000000000000F901074090142907004050250800405405064090740C02480A0B40
1001
ACAD
1000
AcDbSavedByObjectVersion
1070
     0
  0
ACAD_PROXY_OBJECT
  5
5ABE
102
{ACAD_REACTORS
330
5AAA
102
}
330
5AAA
100
AcDbProxyObject
 90
      499
 91
      504
 93
      532
310
4394DA1859195CC81BD98811DC985E5174090240C333333333333E33F0000000000000F901079024090741D01000000000000111010841D405064090740C02480A0340
1001
ACAD
1000
AcDbSavedByObjectVersion
1070
     0
  0
ACAD_PROXY_OBJECT
  5
5ABF
102
{ACAD_REACTORS
330
5AAA
102
}
330
5AAA
100
AcDbProxyObject
 90
      499
 91
      504
 93
      476
310
41D4DAD95D18DA1E51840502408333333333333E33F0000000000000F901079024090741D01000000000000111010B41D405064090741802480A0340
1001
ACAD
1000
AcDbSavedByObjectVersion
1070
     0
  0
ACAD_PROXY_OBJECT
  5
5AB7
102
{ACAD_REACTORS
330
5AAA
102
}
330
5AAA
100
AcDbProxyObject
 90
      499
 91
      504
 93
      412
310
41D51A1A58DAD95B90D409028333333333333E33F0000000000000F9010790141107004050150C41D405064090741402480A0350
1001
ACAD
1000
AcDbSavedByObjectVersion
1070
     0
  0
ACAD_PROXY_OBJECT
  5
5AB0
102
{ACAD_REACTORS
330
5AAA
102
}
330
5AAA
100
AcDbProxyObject
 90
      499
 91
      504
 93
      420
310
4255DA5C99599C985B595059028333333333333E33F0000000000000F90107901411070040501600405405064090740C02480A0340
1001
ACAD
1000
AcDbSavedByObjectVersion
1070
     0
  0
ACAD_PROXY_OBJECT
  5
5AC0
102
{ACAD_REACTORS
330
5AAA
102
}
330
5AAA
100
AcDbProxyObject
 90
      499
 91
      504
 93
      404
310
41560B54985E51940902404000000000000E03F0000000000000F9010740501907004050150841D405064090740C02480A1B40
1001
ACAD
1000
AcDbSavedByObjectVersion
1070
     0
  0
XRECORD
  5
6050
102
{ACAD_REACTORS
330
6046
102
}
330
6046
100
AcDbXrecord
340
0
  0
XRECORD
  5
604F
102
{ACAD_REACTORS
330
6046
102
}
330
6046
100
AcDbXrecord
 90
        0
  0
XRECORD
  5
6069
102
{ACAD_REACTORS
330
6046
102
}
330
6046
100
AcDbXrecord
340
2948
  0
XRECORD
  5
6066
102
{ACAD_REACTORS
330
6046
102
}
330
6046
100
AcDbXrecord
1000
DSTYLE
1002
{
1070
   171
 70
     2
1070
   143
 40
0.0394
1070
   274
 70
     2
1070
    41
 40
6.0
1070
   342
340
2AEB
1070
   271
 70
     1
1070
   278
 70
    46
1070
   341
340
2AEB
1070
   272
 70
     1
1070
    48
 40
0.1
1070
   283
 70
     1
1070
    47
 40
0.1
1070
   145
 40
1.0
1070
   340
340
10
1070
   140
 40
5.0
1070
   284
 70
     0
1002
}
  0
XRECORD
  5
6051
102
{ACAD_REACTORS
330
6046
102
}
330
6046
100
AcDbXrecord
  1
{23698909-1D67-4744-B0E2-8DE11E3ED422}
  0
XRECORD
  5
6049
102
{ACAD_REACTORS
330
6046
102
}
330
6046
100
AcDbXrecord
  1

  0
XRECORD
  5
604E
102
{ACAD_REACTORS
330
6046
102
}
330
6046
100
AcDbXrecord
 90
        0
  0
XRECORD
  5
604B
102
{ACAD_REACTORS
330
6046
102
}
330
6046
100
AcDbXrecord
340
2816
  0
XRECORD
  5
604D
102
{ACAD_REACTORS
330
6046
102
}
330
6046
100
AcDbXrecord
 90
    10781
  0
XRECORD
  5
606A
102
{ACAD_REACTORS
330
6046
102
}
330
6046
100
AcDbXrecord
340
2947
  0
XRECORD
  5
604C
102
{ACAD_REACTORS
330
6046
102
}
330
6046
100
AcDbXrecord
340
2817
  0
XRECORD
  5
6053
102
{ACAD_REACTORS
330
6046
102
}
330
6046
100
AcDbXrecord
 40
0.25
  0
XRECORD
  5
6056
102
{ACAD_REACTORS
330
6046
102
}
330
6046
100
AcDbXrecord
340
0
  0
XRECORD
  5
605C
102
{ACAD_REACTORS
330
6046
102
}
330
6046
100
AcDbXrecord
 10
0.0
 20
0.0
 30
0.0
  0
XRECORD
  5
6058
102
{ACAD_REACTORS
330
6046
102
}
330
6046
100
AcDbXrecord
 10
0.0
 20
0.0
 30
0.0
  0
XRECORD
  5
605B
102
{ACAD_REACTORS
330
6046
102
}
330
6046
100
AcDbXrecord
 10
0.0
 20
0.0
 30
0.0
  0
XRECORD
  5
6059
102
{ACAD_REACTORS
330
6046
102
}
330
6046
100
AcDbXrecord
 10
0.0
 20
0.0
 30
0.0
  0
XRECORD
  5
605A
102
{ACAD_REACTORS
330
6046
102
}
330
6046
100
AcDbXrecord
 10
0.0
 20
0.0
 30
0.0
  0
XRECORD
  5
6057
102
{ACAD_REACTORS
330
6046
102
}
330
6046
100
AcDbXrecord
 10
0.0
 20
0.0
 30
0.0
  0
XRECORD
  5
6054
102
{ACAD_REACTORS
330
6046
102
}
330
6046
100
AcDbXrecord
340
0
  0
XRECORD
  5
6055
102
{ACAD_REACTORS
330
6046
102
}
330
6046
100
AcDbXrecord
 70
     0
  0
XRECORD
  5
604A
102
{ACAD_REACTORS
330
6046
102
}
330
6046
100
AcDbXrecord
  1

  0
XRECORD
  5
6047
102
{ACAD_REACTORS
330
6046
102
}
330
6046
100
AcDbXrecord
 90
        1
  0
XRECORD
  5
6048
102
{ACAD_REACTORS
330
6046
102
}
330
6046
100
AcDbXrecord
 90
       70
  0
XRECORD
  5
605F
102
{ACAD_REACTORS
330
6046
102
}
330
6046
100
AcDbXrecord
340
0
  0
XRECORD
  5
6065
102
{ACAD_REACTORS
330
6046
102
}
330
6046
100
AcDbXrecord
 10
0.0
 20
0.0
 30
0.0
  0
XRECORD
  5
6061
102
{ACAD_REACTORS
330
6046
102
}
330
6046
100
AcDbXrecord
 10
0.0
 20
0.0
 30
0.0
  0
XRECORD
  5
6064
102
{ACAD_REACTORS
330
6046
102
}
330
6046
100
AcDbXrecord
 10
0.0
 20
0.0
 30
0.0
  0
XRECORD
  5
6062
102
{ACAD_REACTORS
330
6046
102
}
330
6046
100
AcDbXrecord
 10
0.0
 20
0.0
 30
0.0
  0
XRECORD
  5
6063
102
{ACAD_REACTORS
330
6046
102
}
330
6046
100
AcDbXrecord
 10
0.0
 20
0.0
 30
0.0
  0
XRECORD
  5
6060
102
{ACAD_REACTORS
330
6046
102
}
330
6046
100
AcDbXrecord
 10
0.0
 20
0.0
 30
0.0
  0
XRECORD
  5
605D
102
{ACAD_REACTORS
330
6046
102
}
330
6046
100
AcDbXrecord
340
0
  0
XRECORD
  5
605E
102
{ACAD_REACTORS
330
6046
102
}
330
6046
100
AcDbXrecord
 70
     0
  0
XRECORD
  5
6052
102
{ACAD_REACTORS
330
6046
102
}
330
6046
100
AcDbXrecord
  1
{D73BB0DD-3DC0-4965-92A0-36A63AB4268E}
  0
DICTIONARYVAR
  5
602E
102
{ACAD_REACTORS
330
602D
102
}
330
602D
100
DictionaryVariables
280
     0
  1
1:1
  0
DICTIONARYVAR
  5
6030
102
{ACAD_REACTORS
330
602D
102
}
330
602D
100
DictionaryVariables
280
     0
  1
Standard
  0
DICTIONARYVAR
  5
602F
102
{ACAD_REACTORS
330
602D
102
}
330
602D
100
DictionaryVariables
280
     0
  1
Standard
  0
DICTIONARYVAR
  5
6067
102
{ACAD_REACTORS
330
602D
102
}
330
602D
100
DictionaryVariables
280
     0
  1
1
  0
DICTIONARYVAR
  5
6068
102
{ACAD_REACTORS
330
602D
102
}
330
602D
100
DictionaryVariables
280
     0
  1
0
  0
DICTIONARYVAR
  5
6031
102
{ACAD_REACTORS
330
602D
102
}
330
602D
100
DictionaryVariables
280
     0
  1
0
  0
DICTIONARYVAR
  5
6032
102
{ACAD_REACTORS
330
602D
102
}
330
602D
100
DictionaryVariables
280
     0
  1
0
  0
DICTIONARY
  5
6044
102
{ACAD_REACTORS
330
6043
102
}
330
6043
100
AcDbDictionary
  0
DICTIONARY
  5
602C
102
{ACAD_REACTORS
330
602B
102
}
330
602B
100
AcDbDictionary
  0
DICTIONARY
  5
5FE3
102
{ACAD_REACTORS
330
5FE2
102
}
330
5FE2
100
AcDbDictionary
  0
DICTIONARY
  5
5FDD
102
{ACAD_REACTORS
330
5FDC
102
}
330
5FDC
100
AcDbDictionary
  0
DICTIONARY
  5
5FE0
102
{ACAD_REACTORS
330
5FDF
102
}
330
5FDF
100
AcDbDictionary
  0
DICTIONARY
  5
6070
330
5AE6
100
AcDbDictionary
280
     1
  3
ACAD_XREC_ROUNDTRIP
360
6071
  0
DICTIONARY
  5
606E
330
5AE5
100
AcDbDictionary
280
     1
  3
ACAD_XREC_ROUNDTRIP
360
606F
  0
DICTIONARY
  5
6072
330
5AE7
100
AcDbDictionary
280
     1
  3
ACAD_XREC_ROUNDTRIP
360
6073
  0
XRECORD
  5
6071
102
{ACAD_REACTORS
330
6070
102
}
330
6070
100
AcDbXrecord
102
MATERIAL
148
0.0
149
0.0
149
0.0
 93
        0
 94
      127
282
     0
 72
     1
 77
     1
171
     1
175
     1
179
     1
273
     0
  0
XRECORD
  5
606F
102
{ACAD_REACTORS
330
606E
102
}
330
606E
100
AcDbXrecord
102
MATERIAL
148
0.0
149
0.0
149
0.0
 93
        0
 94
      127
282
     0
 72
     1
 77
     1
171
     1
175
     1
179
     1
273
     0
  0
XRECORD
  5
6073
102
{ACAD_REACTORS
330
6072
102
}
330
6072
100
AcDbXrecord
102
MATERIAL
148
0.0
149
0.0
149
0.0
 93
        0
 94
      127
282
     0
 72
     1
 77
     1
171
     1
175
     1
179
     1
273
     0
  0
ENDSEC
  0
EOF
