  0
SECTION
  2
HEADER
  9
$ACADVER
  1
AC1014
  9
$ACADMAINTVER
 70
     9
  9
$DWGCODEPAGE
  3
ANSI_932
  9
$INSBASE
 10
0.0
 20
0.0
 30
0.0
  9
$EXTMIN
 10
-120.077674942193
 20
427.07375071168
 30
0.0
  9
$EXTMAX
 10
398.905089880156
 20
750.686532011055
 30
0.0
  9
$LIMMIN
 10
-360.747566795242
 20
4.457354754526
  9
$LIMMAX
 10
-162.153696144267
 20
287.675440264018
  9
$ORTHOMODE
 70
     1
  9
$REGENMODE
 70
     1
  9
$FILLMODE
 70
     1
  9
$QTEXTMODE
 70
     0
  9
$MIRRTEXT
 70
     1
  9
$DRAGMODE
 70
     2
  9
$LTSCALE
 40
1.0
  9
$OSMODE
 70
    32
  9
$ATTMODE
 70
     1
  9
$TEXTSIZE
 40
9.352052594262
  9
$TRACEWID
 40
1.0
  9
$TEXTSTYLE
  7
STANDARD
  9
$CLAYER
  8
寸法線
  9
$CELTYPE
  6
BYLAYER
  9
$CECOLOR
 62
   256
  9
$CELTSCALE
 40
10.0
  9
$DELOBJ
 70
     1
  9
$DISPSILH
 70
     0
  9
$DIMSCALE
 40
1.0
  9
$DIMASZ
 40
6.0
  9
$DIMEXO
 40
0.625
  9
$DIMDLI
 40
3.75
  9
$DIMRND
 40
0.0
  9
$DIMDLE
 40
0.0
  9
$DIMEXE
 40
1.25
  9
$DIMTP
 40
0.1
  9
$DIMTM
 40
0.1
  9
$DIMTXT
 40
5.0
  9
$DIMCEN
 40
2.5
  9
$DIMTSZ
 40
0.0
  9
$DIMTOL
 70
     0
  9
$DIMLIM
 70
     0
  9
$DIMTIH
 70
     0
  9
$DIMTOH
 70
     0
  9
$DIMSE1
 70
     0
  9
$DIMSE2
 70
     0
  9
$DIMTAD
 70
     1
  9
$DIMZIN
 70
     8
  9
$DIMBLK
  1
OPEN30
  9
$DIMASO
 70
     1
  9
$DIMSHO
 70
     1
  9
$DIMPOST
  1

  9
$DIMAPOST
  1

  9
$DIMALT
 70
     0
  9
$DIMALTD
 70
     2
  9
$DIMALTF
 40
0.0394
  9
$DIMLFAC
 40
1.0
  9
$DIMTOFL
 70
     1
  9
$DIMTVP
 40
1.0
  9
$DIMTIX
 70
     0
  9
$DIMSOXD
 70
     0
  9
$DIMSAH
 70
     0
  9
$DIMBLK1
  1

  9
$DIMBLK2
  1

  9
$DIMSTYLE
  2
ISO-25
  9
$DIMCLRD
 70
     0
  9
$DIMCLRE
 70
     0
  9
$DIMCLRT
 70
     0
  9
$DIMTFAC
 40
1.0
  9
$DIMGAP
 40
0.625
  9
$DIMJUST
 70
     0
  9
$DIMSD1
 70
     0
  9
$DIMSD2
 70
     0
  9
$DIMTOLJ
 70
     1
  9
$DIMTZIN
 70
     0
  9
$DIMALTZ
 70
     0
  9
$DIMALTTZ
 70
     0
  9
$DIMFIT
 70
     3
  9
$DIMUPT
 70
     0
  9
$DIMUNIT
 70
     2
  9
$DIMDEC
 70
     1
  9
$DIMTDEC
 70
     1
  9
$DIMALTU
 70
     2
  9
$DIMALTTD
 70
     2
  9
$DIMTXSTY
  7
STANDARD
  9
$DIMAUNIT
 70
     0
  9
$LUNITS
 70
     2
  9
$LUPREC
 70
     4
  9
$SKETCHINC
 40
1.0
  9
$FILLETRAD
 40
6.5
  9
$AUNITS
 70
     0
  9
$AUPREC
 70
     0
  9
$MENU
  1
.
  9
$ELEVATION
 40
0.0
  9
$PELEVATION
 40
0.0
  9
$THICKNESS
 40
0.0
  9
$LIMCHECK
 70
     0
  9
$CHAMFERA
 40
10.0
  9
$CHAMFERB
 40
10.0
  9
$CHAMFERC
 40
20.0
  9
$CHAMFERD
 40
0.0
  9
$SKPOLY
 70
     0
  9
$TDCREATE
 40
2450576.597302431
  9
$TDUPDATE
 40
2457191.665228947
  9
$TDINDWG
 40
1.1038761458
  9
$TDUSRTIMER
 40
1.1038761458
  9
$USRTIMER
 70
     1
  9
$ANGBASE
 50
0.0
  9
$ANGDIR
 70
     0
  9
$PDMODE
 70
     0
  9
$PDSIZE
 40
0.0
  9
$PLINEWID
 40
0.0
  9
$COORDS
 70
     1
  9
$SPLFRAME
 70
     0
  9
$SPLINETYPE
 70
     6
  9
$SPLINESEGS
 70
     8
  9
$ATTDIA
 70
     0
  9
$ATTREQ
 70
     1
  9
$HANDLING
 70
     1
  9
$HANDSEED
  5
3F32
  9
$SURFTAB1
 70
     6
  9
$SURFTAB2
 70
     6
  9
$SURFTYPE
 70
     6
  9
$SURFU
 70
     6
  9
$SURFV
 70
     6
  9
$UCSNAME
  2

  9
$UCSORG
 10
0.0
 20
0.0
 30
0.0
  9
$UCSXDIR
 10
1.0
 20
0.0
 30
0.0
  9
$UCSYDIR
 10
0.0
 20
1.0
 30
0.0
  9
$PUCSNAME
  2

  9
$PUCSORG
 10
0.0
 20
0.0
 30
0.0
  9
$PUCSXDIR
 10
1.0
 20
0.0
 30
0.0
  9
$PUCSYDIR
 10
0.0
 20
1.0
 30
0.0
  9
$USERI1
 70
     0
  9
$USERI2
 70
     0
  9
$USERI3
 70
     0
  9
$USERI4
 70
     0
  9
$USERI5
 70
     0
  9
$USERR1
 40
0.0
  9
$USERR2
 40
0.0
  9
$USERR3
 40
0.0
  9
$USERR4
 40
0.0
  9
$USERR5
 40
0.0
  9
$WORLDVIEW
 70
     1
  9
$SHADEDGE
 70
     3
  9
$SHADEDIF
 70
    70
  9
$TILEMODE
 70
     0
  9
$MAXACTVP
 70
    16
  9
$PINSBASE
 10
0.0
 20
0.0
 30
0.0
  9
$PLIMCHECK
 70
     0
  9
$PEXTMIN
 10
4.746305129083
 20
2.238639536169
 30
0.0
  9
$PEXTMAX
 10
404.746305129083
 20
282.238639536169
 30
0.0
  9
$PLIMMIN
 10
-7.007122192383
 20
-7.007118782997
  9
$PLIMMAX
 10
417.718108215332
 20
293.315290427208
  9
$UNITMODE
 70
     0
  9
$VISRETAIN
 70
     0
  9
$PLINEGEN
 70
     0
  9
$PSLTSCALE
 70
     1
  9
$TREEDEPTH
 70
  3020
  9
$PICKSTYLE
 70
     1
  9
$CMLSTYLE
  2
STANDARD
  9
$CMLJUST
 70
     0
  9
$CMLSCALE
 40
1.0
  9
$PROXYGRAPHICS
 70
     1
  9
$MEASUREMENT
 70
     1
  0
ENDSEC
  0
SECTION
  2
CLASSES
  0
CLASS
  1
ACDBDICTIONARYWDFLT
  2
AcDbDictionaryWithDefault
  3
ObjectDBX Classes
 90
        0
280
     0
281
     0
  0
CLASS
  1
ACDBPLACEHOLDER
  2
AcDbPlaceHolder
  3
ObjectDBX Classes
 90
        0
280
     0
281
     0
  0
CLASS
  1
LAYOUT
  2
AcDbLayout
  3
ObjectDBX Classes
 90
        0
280
     0
281
     0
  0
CLASS
  1
VISUALSTYLE
  2
AcDbVisualStyle
  3
ObjectDBX Classes
 90
     4095
280
     0
281
     0
  0
CLASS
  1
SCALE
  2
AcDbScale
  3
ObjectDBX Classes
 90
     1153
280
     0
281
     0
  0
CLASS
  1
MATERIAL
  2
AcDbMaterial
  3
ObjectDBX Classes
 90
     1153
280
     0
281
     0
  0
CLASS
  1
TABLESTYLE
  2
AcDbTableStyle
  3
ObjectDBX Classes
 90
     4095
280
     0
281
     0
  0
CLASS
  1
MLEADERSTYLE
  2
AcDbMLeaderStyle
  3
ACDB_MLEADERSTYLE_CLASS
 90
     4095
280
     0
281
     0
  0
CLASS
  1
SUN
  2
AcDbSun
  3
SCENEOE
 90
     1153
280
     0
281
     0
  0
CLASS
  1
DICTIONARYVAR
  2
AcDbDictionaryVar
  3
ObjectDBX Classes
 90
        0
280
     0
281
     0
  0
CLASS
  1
CELLSTYLEMAP
  2
AcDbCellStyleMap
  3
ObjectDBX Classes
 90
     1152
280
     0
281
     0
  0
CLASS
  1
XRECORD
  2
AcDbXrecord
  3
ObjectDBX Classes
 90
        0
280
     0
281
     0
  0
CLASS
  1
LWPOLYLINE
  2
AcDbPolyline
  3
ObjectDBX Classes
 90
        0
280
     0
281
     1
  0
CLASS
  1
HATCH
  2
AcDbHatch
  3
ObjectDBX Classes
 90
        0
280
     0
281
     1
  0
ENDSEC
  0
SECTION
  2
TABLES
  0
TABLE
  2
VPORT
  5
8
102
{ACAD_XDICTIONARY
360
3F2A
102
}
330
0
100
AcDbSymbolTable
 70
     2
  0
VPORT
  5
3A20
330
8
100
AcDbSymbolTableRecord
100
AcDbViewportTableRecord
  2
*ACTIVE
 70
     0
 10
0.0
 20
0.0
 11
1.0
 21
1.0
 12
98.203681014017
 22
562.7951333436
 13
0.0
 23
0.0
 14
1.0
 24
1.0
 15
0.0
 25
0.0
 16
0.0
 26
0.0
 36
1.0
 17
0.0
 27
0.0
 37
0.0
 40
265.751263357679
 41
1.884057971014
 42
50.0
 43
0.0
 44
0.0
 50
0.0
 51
0.0
 71
    16
 72
   100
 73
     1
 74
     0
 75
     0
 76
     0
 77
     0
 78
     0
  0
ENDTAB
  0
TABLE
  2
LTYPE
  5
5
330
0
100
AcDbSymbolTable
 70
     5
  0
LTYPE
  5
14
330
5
100
AcDbSymbolTableRecord
100
AcDbLinetypeTableRecord
  2
BYBLOCK
 70
     0
  3

 72
    65
 73
     0
 40
0.0
  0
LTYPE
  5
15
330
5
100
AcDbSymbolTableRecord
100
AcDbLinetypeTableRecord
  2
BYLAYER
 70
     0
  3

 72
    65
 73
     0
 40
0.0
  0
LTYPE
  5
16
330
5
100
AcDbSymbolTableRecord
100
AcDbLinetypeTableRecord
  2
CONTINUOUS
 70
     0
  3
Solid line
 72
    65
 73
     0
 40
0.0
  0
LTYPE
  5
1EC
330
5
100
AcDbSymbolTableRecord
100
AcDbLinetypeTableRecord
  2
CENTER
 70
     0
  3
____ _ ____ _ ____ _ ____ _ ____ _ ____ _ ____ 
 72
    65
 73
     4
 40
2.0
 49
1.25
 74
     0
 49
-0.25
 74
     0
 49
0.25
 74
     0
 49
-0.25
 74
     0
  0
LTYPE
  5
1ED
330
5
100
AcDbSymbolTableRecord
100
AcDbLinetypeTableRecord
  2
DASHED
 70
     0
  3
__ __ __ __ __ __ __ __ __ __ __ __ __ __ __ __
 72
    65
 73
     2
 40
0.75
 49
0.5
 74
     0
 49
-0.25
 74
     0
  0
LTYPE
  5
2B28
330
5
100
AcDbSymbolTableRecord
100
AcDbLinetypeTableRecord
  2
DASHDOT
 70
     0
  3
一点鎖線
 72
    65
 73
     4
 40
25.6
 49
20.0
 74
     0
 49
-2.0
 74
     0
 49
1.6
 74
     0
 49
-2.0
 74
     0
  0
LTYPE
  5
2B29
330
5
100
AcDbSymbolTableRecord
100
AcDbLinetypeTableRecord
  2
DIVIDE
 70
     0
  3
二点鎖線
 72
    65
 73
     6
 40
31.2
 49
20.0
 74
     0
 49
-2.4
 74
     0
 49
2.0
 74
     0
 49
-2.4
 74
     0
 49
2.0
 74
     0
 49
-2.4
 74
     0
  0
ENDTAB
  0
TABLE
  2
LAYER
  5
2
102
{ACAD_XDICTIONARY
360
29EA
102
}
330
0
100
AcDbSymbolTable
 70
    13
  0
LAYER
  5
F
330
2
100
AcDbSymbolTableRecord
100
AcDbLayerTableRecord
  2
0
 70
     0
 62
     7
  6
CONTINUOUS
  0
LAYER
  5
61
330
2
100
AcDbSymbolTableRecord
100
AcDbLayerTableRecord
  2
図枠太線
 70
     0
 62
   251
  6
CONTINUOUS
  0
LAYER
  5
62
330
2
100
AcDbSymbolTableRecord
100
AcDbLayerTableRecord
  2
図枠細線
 70
     0
 62
   252
  6
CONTINUOUS
  0
LAYER
  5
63
330
2
100
AcDbSymbolTableRecord
100
AcDbLayerTableRecord
  2
図枠ロゴマーク
 70
     0
 62
   253
  6
CONTINUOUS
  0
LAYER
  5
1EF
330
2
100
AcDbSymbolTableRecord
100
AcDbLayerTableRecord
  2
外形線
 70
     0
 62
     7
  6
CONTINUOUS
  0
LAYER
  5
1F0
330
2
100
AcDbSymbolTableRecord
100
AcDbLayerTableRecord
  2
寸法線
 70
     0
 62
     1
  6
CONTINUOUS
  0
LAYER
  5
1F1
330
2
100
AcDbSymbolTableRecord
100
AcDbLayerTableRecord
  2
中心線
 70
     0
 62
     4
  6
CENTER
  0
LAYER
  5
1F4
330
2
100
AcDbSymbolTableRecord
100
AcDbLayerTableRecord
  2
DEFPOINTS
 70
     0
 62
     7
  6
CONTINUOUS
  0
LAYER
  5
2AA2
330
2
100
AcDbSymbolTableRecord
100
AcDbLayerTableRecord
  2
下書線
 70
     0
 62
     2
  6
CONTINUOUS
  0
LAYER
  5
2AA3
330
2
100
AcDbSymbolTableRecord
100
AcDbLayerTableRecord
  2
隠れ線
 70
     0
 62
     3
  6
DASHED
  0
LAYER
  5
2AA4
330
2
100
AcDbSymbolTableRecord
100
AcDbLayerTableRecord
  2
細線
 70
     0
 62
     6
  6
CONTINUOUS
  0
LAYER
  5
2AA5
330
2
100
AcDbSymbolTableRecord
100
AcDbLayerTableRecord
  2
太線
 70
     0
 62
   190
  6
CONTINUOUS
  0
LAYER
  5
2B2A
330
2
100
AcDbSymbolTableRecord
100
AcDbLayerTableRecord
  2
LAY-1
 70
     0
 62
     7
  6
CONTINUOUS
  0
ENDTAB
  0
TABLE
  2
STYLE
  5
3
330
0
100
AcDbSymbolTable
 70
     3
  0
STYLE
  5
10
330
3
100
AcDbSymbolTableRecord
100
AcDbTextStyleTableRecord
  2
STANDARD
 70
     0
 40
0.0
 41
1.0
 50
0.0
 71
     0
 42
9.352052594262
  3
ISOCP
  4
bigfont.shx
  0
STYLE
  5
64
330
3
100
AcDbSymbolTableRecord
100
AcDbTextStyleTableRecord
  2
EXCADSTD
 70
     0
 40
0.0
 41
1.0
 50
0.0
 71
     0
 42
0.2
  3
monotxt
  4
bigfont
  0
STYLE
  5
2B2B
330
3
100
AcDbSymbolTableRecord
100
AcDbTextStyleTableRecord
  2
EXCADVERT
 70
     4
 40
0.0
 41
1.0
 50
0.0
 71
     0
 42
0.286885
  3
monotxt
  4
bigfont
  0
ENDTAB
  0
TABLE
  2
VIEW
  5
6
330
0
100
AcDbSymbolTable
 70
     0
  0
ENDTAB
  0
TABLE
  2
UCS
  5
7
330
0
100
AcDbSymbolTable
 70
     0
  0
ENDTAB
  0
TABLE
  2
APPID
  5
9
330
0
100
AcDbSymbolTable
 70
     3
  0
APPID
  5
11
330
9
100
AcDbSymbolTableRecord
100
AcDbRegAppTableRecord
  2
ACAD
 70
     0
  0
APPID
  5
3A6B
330
9
100
AcDbSymbolTableRecord
100
AcDbRegAppTableRecord
  2
ACADANNOTATIVE
 70
     0
  0
APPID
  5
3AD2
330
9
100
AcDbSymbolTableRecord
100
AcDbRegAppTableRecord
  2
ACAD_MLEADERVER
 70
     0
  0
ENDTAB
  0
TABLE
  2
DIMSTYLE
  5
A
330
0
100
AcDbSymbolTable
 70
     2
  0
DIMSTYLE
105
1D
330
A
100
AcDbSymbolTableRecord
100
AcDbDimStyleTableRecord
  2
STANDARD
 70
     0
  3

  4

  5

  6

  7

 40
1.0
 41
0.18
 42
0.0625
 43
0.38
 44
0.18
 45
0.0
 46
0.0
 47
0.0
 48
0.0
140
0.18
141
0.09
142
0.0
143
25.4
144
1.0
145
0.0
146
1.0
147
0.09
 71
     0
 72
     0
 73
     1
 74
     1
 75
     0
 76
     0
 77
     0
 78
     0
170
     0
171
     2
172
     0
173
     0
174
     0
175
     0
176
     0
177
     0
178
     0
270
     2
271
     4
272
     4
273
     2
274
     2
340
10
275
     0
280
     0
281
     0
282
     0
283
     1
284
     0
285
     0
286
     0
287
     3
288
     0
  0
DIMSTYLE
105
24
102
{ACAD_REACTORS
330
347D
330
34B8
330
34C5
330
372B
330
378A
330
37A4
330
37DA
330
387E
330
3DCB
330
3DCF
330
3DF9
330
3DFA
330
3DFC
330
3E3E
102
}
330
A
100
AcDbSymbolTableRecord
100
AcDbDimStyleTableRecord
  2
ISO-25
 70
     0
  3

  4

  5

  6

  7

 40
1.0
 41
2.5
 42
0.625
 43
3.75
 44
1.25
 45
0.0
 46
0.0
 47
0.0
 48
0.0
140
2.5
141
2.5
142
0.0
143
0.0394
144
1.0
145
1.0
146
1.0
147
0.625
 71
     0
 72
     0
 73
     1
 74
     0
 75
     0
 76
     0
 77
     1
 78
     8
170
     0
171
     2
172
     1
173
     0
174
     0
175
     0
176
     0
177
     0
178
     0
270
     2
271
     4
272
     4
273
     2
274
     2
340
10
275
     0
280
     0
281
     0
282
     0
283
     1
284
     0
285
     0
286
     0
287
     3
288
     0
  0
ENDTAB
  0
TABLE
  2
BLOCK_RECORD
  5
1
330
0
100
AcDbSymbolTable
 70
    40
  0
BLOCK_RECORD
  5
1A
330
1
100
AcDbSymbolTableRecord
100
AcDbBlockTableRecord
  2
*MODEL_SPACE
  0
BLOCK_RECORD
  5
28FB
330
1
100
AcDbSymbolTableRecord
100
AcDbBlockTableRecord
  2
*PAPER_SPACE
  0
BLOCK_RECORD
  5
65
330
1
100
AcDbSymbolTableRecord
100
AcDbBlockTableRecord
  2
A$C3392
  0
BLOCK_RECORD
  5
29BF
330
1
100
AcDbSymbolTableRecord
100
AcDbBlockTableRecord
  2
A4横用_タイトル
1001
ACAD
1000
DesignCenter Data
1002
{
1070
     1
1070
     4
1002
}
  0
BLOCK_RECORD
  5
29F4
330
1
100
AcDbSymbolTableRecord
100
AcDbBlockTableRecord
  2
A4縦用_タイトル
1001
ACAD
1000
DesignCenter Data
1002
{
1070
     1
1070
     4
1002
}
  0
BLOCK_RECORD
  5
2A32
330
1
100
AcDbSymbolTableRecord
100
AcDbBlockTableRecord
  2
A3横用_タイトル
1001
ACAD
1000
DesignCenter Data
1002
{
1070
     1
1070
     4
1002
}
  0
BLOCK_RECORD
  5
2A6C
330
1
100
AcDbSymbolTableRecord
100
AcDbBlockTableRecord
  2
A3縦用_タイトル
1001
ACAD
1000
DesignCenter Data
1002
{
1070
     1
1070
     4
1002
}
  0
BLOCK_RECORD
  5
2AF4
330
1
100
AcDbSymbolTableRecord
100
AcDbBlockTableRecord
  2
_OPEN30
  0
BLOCK_RECORD
  5
2F3F
330
1
100
AcDbSymbolTableRecord
100
AcDbBlockTableRecord
  2
ケース外形図_HL-400
  0
BLOCK_RECORD
  5
347E
330
1
100
AcDbSymbolTableRecord
100
AcDbBlockTableRecord
  2
*D9
  0
BLOCK_RECORD
  5
34B9
330
1
100
AcDbSymbolTableRecord
100
AcDbBlockTableRecord
  2
*D10
  0
BLOCK_RECORD
  5
34C6
330
1
100
AcDbSymbolTableRecord
100
AcDbBlockTableRecord
  2
*D11
  0
BLOCK_RECORD
  5
372C
330
1
100
AcDbSymbolTableRecord
100
AcDbBlockTableRecord
  2
*D16
  0
BLOCK_RECORD
  5
378B
330
1
100
AcDbSymbolTableRecord
100
AcDbBlockTableRecord
  2
*D17
  0
BLOCK_RECORD
  5
37A5
330
1
100
AcDbSymbolTableRecord
100
AcDbBlockTableRecord
  2
*D18
  0
BLOCK_RECORD
  5
37DB
330
1
100
AcDbSymbolTableRecord
100
AcDbBlockTableRecord
  2
*D19
  0
BLOCK_RECORD
  5
387F
330
1
100
AcDbSymbolTableRecord
100
AcDbBlockTableRecord
  2
*D20
  0
BLOCK_RECORD
  5
3E7F
330
1
100
AcDbSymbolTableRecord
100
AcDbBlockTableRecord
  2
*D31
  0
BLOCK_RECORD
  5
3EB3
330
1
100
AcDbSymbolTableRecord
100
AcDbBlockTableRecord
  2
*D35
  0
BLOCK_RECORD
  5
3EBF
330
1
100
AcDbSymbolTableRecord
100
AcDbBlockTableRecord
  2
*D36
  0
BLOCK_RECORD
  5
3ECD
330
1
100
AcDbSymbolTableRecord
100
AcDbBlockTableRecord
  2
*D37
  0
BLOCK_RECORD
  5
3ED9
330
1
100
AcDbSymbolTableRecord
100
AcDbBlockTableRecord
  2
*D38
  0
BLOCK_RECORD
  5
3EE7
330
1
100
AcDbSymbolTableRecord
100
AcDbBlockTableRecord
  2
*D39
  0
ENDTAB
  0
ENDSEC
  0
SECTION
  2
BLOCKS
  0
BLOCK
  5
1B
330
1A
100
AcDbEntity
  8
0
100
AcDbBlockBegin
  2
*MODEL_SPACE
 70
     0
 10
0.0
 20
0.0
 30
0.0
  3
*MODEL_SPACE
  1

  0
ENDBLK
  5
1C
330
1A
100
AcDbEntity
  8
0
100
AcDbBlockEnd
  0
BLOCK
  5
28FD
330
28FB
100
AcDbEntity
 67
     1
  8
0
 48
10.0
100
AcDbBlockBegin
  2
*PAPER_SPACE
 70
     0
 10
0.0
 20
0.0
 30
0.0
  3
*PAPER_SPACE
  1

  0
ENDBLK
  5
28FE
330
28FB
100
AcDbEntity
 67
     1
  8
0
 48
10.0
100
AcDbBlockEnd
  0
BLOCK
  5
93
330
65
100
AcDbEntity
  8
0
100
AcDbBlockBegin
  2
A$C3392
 70
     0
 10
0.0
 20
0.0
 30
0.0
  3
A$C3392
  1
A$C3392
  0
LINE
  5
66
330
65
100
AcDbEntity
  8
図枠太線
  6
CONTINUOUS
100
AcDbLine
 10
211.858584505185
 20
30.927375675439
 30
0.0
 11
211.858584505185
 21
0.927375675439
 31
0.0
  0
LINE
  5
67
330
65
100
AcDbEntity
  8
図枠細線
  6
CONTINUOUS
100
AcDbLine
 10
231.858592505185
 20
15.927377675439
 30
0.0
 11
287.858592505185
 21
15.927375675439
 31
0.0
  0
LINE
  5
68
330
65
100
AcDbEntity
  8
図枠細線
  6
CONTINUOUS
100
AcDbLine
 10
211.858592505185
 20
15.927377675439
 30
0.0
 11
231.858592505185
 21
15.927377675439
 31
0.0
  0
LINE
  5
69
330
65
100
AcDbEntity
  8
図枠太線
  6
CONTINUOUS
 62
   251
100
AcDbLine
 10
1.858584505185
 20
0.927375675439
 30
0.0
 11
1.858584505185
 21
275.927375675439
 31
0.0
  0
TEXT
  5
6A
330
65
100
AcDbEntity
  8
図枠細線
  6
CONTINUOUS
 62
   252
100
AcDbText
 10
351.358592505185
 20
28.427377675439
 30
0.0
 40
2.0
  1
ＴＩＴＬＥ
 41
0.903614457831
  7
EXCADSTD
 72
     5
 11
361.358592505185
 21
28.427377675439
 31
0.0
100
AcDbText
  0
TEXT
  5
6B
330
65
100
AcDbEntity
  8
図枠細線
  6
CONTINUOUS
 62
   252
100
AcDbText
 10
345.358592505185
 20
28.427377675439
 30
0.0
 40
2.0
  1
名称
 41
1.171875
  7
EXCADSTD
 72
     5
 11
350.358592505185
 21
28.427377675439
 31
0.0
100
AcDbText
  0
TEXT
  5
6C
330
65
100
AcDbEntity
  8
図枠細線
  6
CONTINUOUS
 62
   252
100
AcDbText
 10
274.358592505185
 20
25.927377675439
 30
0.0
 40
2.0
  1
ＤＲＡＷＮ
 41
0.882352941176
  7
EXCADSTD
 72
     5
 11
284.358592505185
 21
25.927377675439
 31
0.0
100
AcDbText
  0
TEXT
  5
6D
330
65
100
AcDbEntity
  8
図枠細線
  6
CONTINUOUS
 62
   252
100
AcDbText
 10
260.358592505185
 20
25.927377675439
 30
0.0
 40
2.0
  1
ＤＥＳＩＧＮＥＤ
 41
0.713043472041
  7
EXCADSTD
 72
     5
 11
273.478592390744
 21
25.927377675439
 31
0.0
100
AcDbText
  0
TEXT
  5
6E
330
65
100
AcDbEntity
  8
図枠細線
  6
CONTINUOUS
 62
   252
100
AcDbText
 10
246.358592505185
 20
25.927377675439
 30
0.0
 40
2.0
  1
ＣＨＥＣＫＥＤ
 41
0.831249989569
  7
EXCADSTD
 72
     5
 11
259.658592338292
 21
25.927377675439
 31
0.0
100
AcDbText
  0
TEXT
  5
6F
330
65
100
AcDbEntity
  8
図枠細線
  6
CONTINUOUS
 62
   252
100
AcDbText
 10
274.358592505185
 20
28.427377675439
 30
0.0
 40
2.0
  1
製図
 41
1.209677419355
  7
EXCADSTD
 72
     5
 11
279.358592505185
 21
28.427377675439
 31
0.0
100
AcDbText
  0
TEXT
  5
70
330
65
100
AcDbEntity
  8
図枠細線
  6
CONTINUOUS
 62
   252
100
AcDbText
 10
260.358592505185
 20
28.427377675439
 30
0.0
 40
2.0
  1
設計
 41
1.171875
  7
EXCADSTD
 72
     5
 11
265.358592505185
 21
28.427377675439
 31
0.0
100
AcDbText
  0
TEXT
  5
71
330
65
100
AcDbEntity
  8
図枠細線
  6
CONTINUOUS
 62
   252
100
AcDbText
 10
246.358592505185
 20
28.427377675439
 30
0.0
 40
2.0
  1
検図
 41
1.209677419355
  7
EXCADSTD
 72
     5
 11
251.358592505185
 21
28.427377675439
 31
0.0
100
AcDbText
  0
TEXT
  5
72
330
65
100
AcDbEntity
  8
図枠細線
  6
CONTINUOUS
 62
   252
100
AcDbText
 10
232.358592505185
 20
25.927377675439
 30
0.0
 40
2.0
  1
ＡＰＰＲＯＶＥＤ
 41
0.695652184279
  7
EXCADSTD
 72
     5
 11
245.15859269592
 21
25.927377675439
 31
0.0
100
AcDbText
  0
TEXT
  5
73
330
65
100
AcDbEntity
  8
図枠細線
  6
CONTINUOUS
 62
   252
100
AcDbText
 10
232.358592505185
 20
28.427377675439
 30
0.0
 40
2.0
  1
承認
 41
1.171875
  7
EXCADSTD
 72
     5
 11
237.358592505185
 21
28.427377675439
 31
0.0
100
AcDbText
  0
TEXT
  5
74
330
65
100
AcDbEntity
  8
図枠細線
  6
CONTINUOUS
 62
   252
100
AcDbText
 10
290.069888505185
 20
2.574868675439
 30
0.0
 40
3.5
  1
ＴＯＷＡ　ＳＥＩＤＥＮ　ＩＮＤＵＳＴＲＩＡＬ　ＣＯ．，ＬＴＤ．
 41
0.414568012377
  7
EXCADSTD
 72
     5
 11
342.692388209546
 21
2.574868675439
 31
0.0
100
AcDbText
  0
TEXT
  5
75
330
65
100
AcDbEntity
  8
図枠ロゴマーク
  6
CONTINUOUS
 62
   253
100
AcDbText
 10
290.107348505185
 20
7.519769675439
 30
0.0
 40
7.0
  1
東和制電工業株式会社
 41
0.639204545455
  7
EXCADSTD
 72
     5
 11
342.607348505185
 21
7.519769675439
 31
0.0
100
AcDbText
  0
TEXT
  5
76
330
65
100
AcDbEntity
  8
図枠細線
  6
CONTINUOUS
 62
   252
100
AcDbText
 10
232.499705505185
 20
5.759088675439
 30
0.0
 40
2.0
  1
ＰＲＯＪＥＣＴＩＯＮ
 41
0.754285710199
  7
EXCADSTD
 72
     5
 11
250.099705409817
 21
5.759088675439
 31
0.0
100
AcDbText
  0
TEXT
  5
77
330
65
100
AcDbEntity
  8
図枠細線
  6
CONTINUOUS
 62
   252
100
AcDbText
 10
232.574629505185
 20
8.681077675439
 30
0.0
 40
2.0
  1
ＴＨＩＲＤ　ＡＮＧＬＥ
 41
0.691099486738
  7
EXCADSTD
 72
     5
 11
250.174629767445
 21
8.681077675439
 31
0.0
100
AcDbText
  0
TEXT
  5
78
330
65
100
AcDbEntity
  8
図枠細線
  6
CONTINUOUS
 62
   252
100
AcDbText
 10
256.823999505185
 20
13.427377675439
 30
0.0
 40
2.0
  1
ＳＣＡＬＥ
 41
0.903614457831
  7
EXCADSTD
 72
     5
 11
266.823999505185
 21
13.427377675439
 31
0.0
100
AcDbText
  0
TEXT
  5
79
330
65
100
AcDbEntity
  8
図枠細線
  6
CONTINUOUS
 62
   252
100
AcDbText
 10
274.858592505185
 20
13.427377675439
 30
0.0
 40
2.0
  1
ＤＡＴＥ
 41
0.923076923077
  7
EXCADSTD
 72
     5
 11
282.858592505185
 21
13.427377675439
 31
0.0
100
AcDbText
  0
TEXT
  5
7A
330
65
100
AcDbEntity
  8
図枠細線
  6
CONTINUOUS
 62
   252
100
AcDbText
 10
356.358592505185
 20
13.427377675439
 30
0.0
 40
2.0
  1
ＤＲＧ．ＮＯ．
 41
0.9375
  7
EXCADSTD
 72
     5
 11
370.358592505185
 21
13.427377675439
 31
0.0
100
AcDbText
  0
TEXT
  5
7B
330
65
100
AcDbEntity
  8
図枠細線
  6
CONTINUOUS
 62
   252
100
AcDbText
 10
345.358592505185
 20
13.427377675439
 30
0.0
 40
2.0
  1
図面番号
 41
1.102941176471
  7
EXCADSTD
 72
     5
 11
355.358592505185
 21
13.427377675439
 31
0.0
100
AcDbText
  0
TEXT
  5
7C
330
65
100
AcDbEntity
  8
図枠細線
  6
CONTINUOUS
 62
   252
100
AcDbText
 10
269.358592505185
 20
13.427377675439
 30
0.0
 40
2.0
  1
日付
 41
1.171875
  7
EXCADSTD
 72
     5
 11
274.358592505185
 21
13.427377675439
 31
0.0
100
AcDbText
  0
TEXT
  5
7D
330
65
100
AcDbEntity
  8
図枠細線
  6
CONTINUOUS
 62
   252
100
AcDbText
 10
251.451512505185
 20
13.427377675439
 30
0.0
 40
2.0
  1
尺度
 41
1.171875
  7
EXCADSTD
 72
     5
 11
256.451512505185
 21
13.427377675439
 31
0.0
100
AcDbText
  0
TEXT
  5
7E
330
65
100
AcDbEntity
  8
図枠細線
  6
CONTINUOUS
 62
   252
100
AcDbText
 10
232.358592505185
 20
13.427377675439
 30
0.0
 40
2.0
  1
第三角法
 41
1.102941176471
  7
EXCADSTD
 72
     5
 11
242.358592505185
 21
13.427377675439
 31
0.0
100
AcDbText
  0
TEXT
  5
7F
330
65
100
AcDbEntity
  8
図枠細線
  6
CONTINUOUS
 62
   252
100
AcDbText
 10
212.358592505185
 20
28.427377675439
 30
0.0
 40
2.0
  1
ＮＯＴＥ
 41
0.923076923077
  7
EXCADSTD
 72
     5
 11
220.358592505185
 21
28.427377675439
 31
0.0
100
AcDbText
  0
LINE
  5
80
330
65
100
AcDbEntity
  8
図枠細線
  6
CONTINUOUS
 62
   252
100
AcDbLine
 10
287.858592505185
 20
23.427375675439
 30
0.0
 11
344.858592505185
 21
23.427375675439
 31
0.0
  0
LINE
  5
81
330
65
100
AcDbEntity
  8
図枠太線
  6
CONTINUOUS
 62
   251
100
AcDbLine
 10
287.858584505185
 20
15.927375675439
 30
0.0
 11
344.858592505185
 21
15.927375675439
 31
0.0
  0
LINE
  5
82
330
65
100
AcDbEntity
  8
図枠細線
  6
CONTINUOUS
 62
   252
100
AcDbLine
 10
344.858592505185
 20
15.927375675439
 30
0.0
 11
401.858584505185
 21
15.927375675439
 31
0.0
  0
LINE
  5
83
330
65
100
AcDbEntity
  8
図枠太線
  6
CONTINUOUS
 62
   251
100
AcDbLine
 10
344.858592505185
 20
0.927377675439
 30
0.0
 11
344.858592505185
 21
30.927375675439
 31
0.0
  0
LINE
  5
84
330
65
100
AcDbEntity
  8
図枠太線
  6
CONTINUOUS
 62
   251
100
AcDbLine
 10
287.858592505185
 20
0.927377675439
 30
0.0
 11
287.858592505185
 21
30.927375675439
 31
0.0
  0
LINE
  5
85
330
65
100
AcDbEntity
  8
図枠細線
  6
CONTINUOUS
 62
   252
100
AcDbLine
 10
268.858592505185
 20
0.927377675439
 30
0.0
 11
268.858592505185
 21
15.927375675439
 31
0.0
  0
LINE
  5
86
330
65
100
AcDbEntity
  8
図枠細線
  6
CONTINUOUS
 62
   252
100
AcDbLine
 10
250.858592505185
 20
0.927377675439
 30
0.0
 11
250.858592505185
 21
15.927375675439
 31
0.0
  0
LINE
  5
87
330
65
100
AcDbEntity
  8
図枠細線
  6
CONTINUOUS
 62
   252
100
AcDbLine
 10
273.858592505185
 20
30.927375675439
 30
0.0
 11
273.858592505185
 21
15.927375675439
 31
0.0
  0
LINE
  5
88
330
65
100
AcDbEntity
  8
図枠細線
  6
CONTINUOUS
 62
   252
100
AcDbLine
 10
259.858592505185
 20
30.927375675439
 30
0.0
 11
259.858592505185
 21
15.927375675439
 31
0.0
  0
LINE
  5
89
330
65
100
AcDbEntity
  8
図枠細線
  6
CONTINUOUS
 62
   252
100
AcDbLine
 10
245.858592505185
 20
30.927375675439
 30
0.0
 11
245.858592505185
 21
15.927375675439
 31
0.0
  0
LINE
  5
8A
330
65
100
AcDbEntity
  8
図枠太線
  6
CONTINUOUS
 62
   251
100
AcDbLine
 10
231.858592505185
 20
0.927377675439
 30
0.0
 11
231.858592505185
 21
30.927375675439
 31
0.0
  0
LINE
  5
8B
330
65
100
AcDbEntity
  8
図枠細線
  6
CONTINUOUS
 62
   252
100
AcDbLine
 10
211.858592505185
 20
25.927375675439
 30
0.0
 11
231.858592505185
 21
25.927375675439
 31
0.0
  0
LINE
  5
8C
330
65
100
AcDbEntity
  8
図枠細線
  6
CONTINUOUS
 62
   252
100
AcDbLine
 10
211.858592505185
 20
20.927375675439
 30
0.0
 11
231.858592505185
 21
20.927375675439
 31
0.0
  0
LINE
  5
8D
330
65
100
AcDbEntity
  8
図枠細線
  6
CONTINUOUS
 62
   252
100
AcDbLine
 10
211.858592505185
 20
10.927375675439
 30
0.0
 11
231.858592505185
 21
10.927375675439
 31
0.0
  0
LINE
  5
8E
330
65
100
AcDbEntity
  8
図枠細線
  6
CONTINUOUS
 62
   252
100
AcDbLine
 10
211.858592505185
 20
5.927377675439
 30
0.0
 11
231.858592505185
 21
5.927377675439
 31
0.0
  0
LINE
  5
8F
330
65
100
AcDbEntity
  8
図枠太線
  6
CONTINUOUS
 62
   251
100
AcDbLine
 10
211.858592505185
 20
30.927375675439
 30
0.0
 11
401.858584505185
 21
30.927375675439
 31
0.0
  0
LINE
  5
90
330
65
100
AcDbEntity
  8
図枠太線
  6
CONTINUOUS
 62
   251
100
AcDbLine
 10
1.858584505185
 20
275.927375675439
 30
0.0
 11
401.858584505185
 21
275.927375675439
 31
0.0
  0
LINE
  5
91
330
65
100
AcDbEntity
  8
図枠太線
  6
CONTINUOUS
 62
   251
100
AcDbLine
 10
401.858584505185
 20
0.927375675439
 30
0.0
 11
401.858584505185
 21
275.927375675439
 31
0.0
  0
LINE
  5
92
330
65
100
AcDbEntity
  8
図枠太線
  6
CONTINUOUS
 62
   251
100
AcDbLine
 10
1.858584505185
 20
0.927375675439
 30
0.0
 11
401.858584505185
 21
0.927375675439
 31
0.0
  0
ENDBLK
  5
94
330
65
100
AcDbEntity
  8
0
100
AcDbBlockEnd
  0
BLOCK
  5
29C0
330
29BF
100
AcDbEntity
  8
0
100
AcDbBlockBegin
  2
A4横用_タイトル
 70
     0
 10
0.0
 20
0.0
 30
0.0
  3
A4横用_タイトル
  1
A4横用_タイトル
  0
LINE
  5
29C1
330
29BF
100
AcDbEntity
  8
図枠細線
  6
CONTINUOUS
100
AcDbLine
 10
75.061011071051
 20
16.806607253358
 30
0.0
 11
144.061011071051
 21
16.806604789072
 31
0.0
  0
LINE
  5
29C2
330
29BF
100
AcDbEntity
  8
図枠細線
  6
CONTINUOUS
 62
   252
100
AcDbLine
 10
4.061011071051
 20
11.806606253358
 30
0.0
 11
75.061011071051
 21
11.806606253358
 31
0.0
  0
LINE
  5
29C3
330
29BF
100
AcDbEntity
  8
図枠細線
  6
CONTINUOUS
 62
   252
100
AcDbLine
 10
4.061011071051
 20
21.806606253358
 30
0.0
 11
75.061011071051
 21
21.806606253358
 31
0.0
  0
LINE
  5
29C4
330
29BF
100
AcDbEntity
  8
図枠細線
  6
CONTINUOUS
 62
   252
100
AcDbLine
 10
4.061011071051
 20
26.806606253358
 30
0.0
 11
75.061011071051
 21
26.806606253358
 31
0.0
  0
LINE
  5
29C5
330
29BF
100
AcDbEntity
  8
図枠細線
  6
CONTINUOUS
100
AcDbLine
 10
4.061011071051
 20
16.806608253358
 30
0.0
 11
75.061011071051
 21
16.806608253358
 31
0.0
  0
TEXT
  5
29C6
330
29BF
100
AcDbEntity
  8
図枠細線
  6
CONTINUOUS
 62
   252
100
AcDbText
 10
76.405475827713
 20
9.560308253358
 30
0.0
 40
2.0
  1
ＴＨＩＲＤ　ＡＮＧＬＥ
 41
0.691099486738
  7
EXCADSTD
 72
     5
 11
94.005476089973
 21
9.560308253358
 31
0.0
100
AcDbText
  0
TEXT
  5
29C7
330
29BF
100
AcDbEntity
  8
図枠細線
  6
CONTINUOUS
 62
   252
100
AcDbText
 10
76.705775880921
 20
14.306608253358
 30
0.0
 40
2.0
  1
第三角法
 41
1.102941176471
  7
EXCADSTD
 72
     5
 11
86.705775880921
 21
14.306608253358
 31
0.0
100
AcDbText
  0
TEXT
  5
29C8
330
29BF
100
AcDbEntity
  8
図枠細線
  6
CONTINUOUS
 62
   252
100
AcDbText
 10
76.705775880921
 20
26.806608253358
 30
0.0
 40
2.0
  1
ＡＰＰＲＯＶＥＤ
 41
0.695652184279
  7
EXCADSTD
 72
     5
 11
89.505776071656
 21
26.806608253358
 31
0.0
100
AcDbText
  0
TEXT
  5
29C9
330
29BF
100
AcDbEntity
  8
図枠細線
  6
CONTINUOUS
 62
   252
100
AcDbText
 10
76.705775880921
 20
29.306608253358
 30
0.0
 40
2.0
  1
承認
 41
1.171875
  7
EXCADSTD
 72
     5
 11
81.705775880921
 21
29.306608253358
 31
0.0
100
AcDbText
  0
LINE
  5
29CA
330
29BF
100
AcDbEntity
  8
図枠細線
  6
CONTINUOUS
 62
   252
100
AcDbLine
 10
98.061011071051
 20
31.806606253358
 30
0.0
 11
98.061011071051
 21
16.806606253358
 31
0.0
  0
TEXT
  5
29CB
330
29BF
100
AcDbEntity
  8
図枠細線
  6
CONTINUOUS
 62
   252
100
AcDbText
 10
104.216531119804
 20
14.306608253358
 30
0.0
 40
2.0
  1
ＳＣＡＬＥ
 41
0.903614457831
  7
EXCADSTD
 72
     5
 11
114.216531119804
 21
14.306608253358
 31
0.0
100
AcDbText
  0
TEXT
  5
29CC
330
29BF
100
AcDbEntity
  8
図枠細線
  6
CONTINUOUS
 62
   252
100
AcDbText
 10
98.844044119804
 20
14.306608253358
 30
0.0
 40
2.0
  1
尺度
 41
1.171875
  7
EXCADSTD
 72
     5
 11
103.844044119804
 21
14.306608253358
 31
0.0
100
AcDbText
  0
TEXT
  5
29CD
330
29BF
100
AcDbEntity
  8
図枠細線
  6
CONTINUOUS
 62
   252
100
AcDbText
 10
98.968727707497
 20
26.806608253358
 30
0.0
 40
2.0
  1
ＣＨＥＣＫＥＤ
 41
0.831249989569
  7
EXCADSTD
 72
     5
 11
112.268727540604
 21
26.806608253358
 31
0.0
100
AcDbText
  0
TEXT
  5
29CE
330
29BF
100
AcDbEntity
  8
図枠細線
  6
CONTINUOUS
 62
   252
100
AcDbText
 10
98.968727707497
 20
29.306608253358
 30
0.0
 40
2.0
  1
検図
 41
1.209677419355
  7
EXCADSTD
 72
     5
 11
103.968727707497
 21
29.306608253358
 31
0.0
100
AcDbText
  0
LINE
  5
29CF
330
29BF
100
AcDbEntity
  8
図枠細線
  6
CONTINUOUS
 62
   252
100
AcDbLine
 10
121.061011071051
 20
31.806606253358
 30
0.0
 11
121.061011071051
 21
16.806606253358
 31
0.0
  0
TEXT
  5
29D0
330
29BF
100
AcDbEntity
  8
図枠細線
  6
CONTINUOUS
 62
   252
100
AcDbText
 10
128.001465247253
 20
14.306608253358
 30
0.0
 40
2.0
  1
ＤＡＴＥ
 41
0.923076923077
  7
EXCADSTD
 72
     5
 11
136.001465247253
 21
14.306608253358
 31
0.0
100
AcDbText
  0
TEXT
  5
29D1
330
29BF
100
AcDbEntity
  8
図枠細線
  6
CONTINUOUS
 62
   252
100
AcDbText
 10
122.066415498841
 20
14.306608253358
 30
0.0
 40
2.0
  1
日付
 41
1.171875
  7
EXCADSTD
 72
     5
 11
127.066415498841
 21
14.306608253358
 31
0.0
100
AcDbText
  0
TEXT
  5
29D2
330
29BF
100
AcDbEntity
  8
図枠細線
  6
CONTINUOUS
 62
   252
100
AcDbText
 10
121.59429406571
 20
29.306608253358
 30
0.0
 40
2.0
  1
製図
 41
1.209677419355
  7
EXCADSTD
 72
     5
 11
126.59429406571
 21
29.306608253358
 31
0.0
100
AcDbText
  0
TEXT
  5
29D3
330
29BF
100
AcDbEntity
  8
図枠細線
  6
CONTINUOUS
 62
   252
100
AcDbText
 10
121.59429406571
 20
26.806608253358
 30
0.0
 40
2.0
  1
ＤＲＡＷＮ
 41
0.882352941176
  7
EXCADSTD
 72
     5
 11
131.59429406571
 21
26.806608253358
 31
0.0
100
AcDbText
  0
TEXT
  5
29D4
330
29BF
100
AcDbEntity
  8
図枠細線
  6
CONTINUOUS
 62
   252
100
AcDbText
 10
226.591229661348
 20
14.306608253358
 30
0.0
 40
2.0
  1
ＤＲＧ．ＮＯ．
 41
0.9375
  7
EXCADSTD
 72
     5
 11
240.591229661348
 21
14.306608253358
 31
0.0
100
AcDbText
  0
LINE
  5
29D5
330
29BF
100
AcDbEntity
  8
図枠太線
  6
CONTINUOUS
 62
   251
100
AcDbLine
 10
144.061003071051
 20
16.806606253358
 30
0.0
 11
214.061011071051
 21
16.806606253358
 31
0.0
  0
LINE
  5
29D6
330
29BF
100
AcDbEntity
  8
図枠細線
  6
CONTINUOUS
 62
   252
100
AcDbLine
 10
144.061011071051
 20
24.306606253358
 30
0.0
 11
214.061011071051
 21
24.306606253358
 31
0.0
  0
TEXT
  5
29D7
330
29BF
100
AcDbEntity
  8
図枠ロゴマーク
  6
CONTINUOUS
 62
   253
100
AcDbText
 10
146.433776781596
 20
8.399000253358
 30
0.0
 40
7.0
  1
東和制電工業株式会社
 41
0.80361088462
  7
EXCADSTD
 72
     5
 11
212.437017438349
 21
8.399000253358
 31
0.0
100
AcDbText
  0
TEXT
  5
29D8
330
29BF
100
AcDbEntity
  8
図枠細線
  6
CONTINUOUS
 62
   252
100
AcDbText
 10
215.156179912936
 20
14.306608253358
 30
0.0
 40
2.0
  1
図面番号
 41
1.102941176471
  7
EXCADSTD
 72
     5
 11
225.156179912936
 21
14.306608253358
 31
0.0
100
AcDbText
  0
TEXT
  5
29D9
330
29BF
100
AcDbEntity
  8
図枠細線
  6
CONTINUOUS
 62
   252
100
AcDbText
 10
221.591229661348
 20
29.306608253358
 30
0.0
 40
2.0
  1
ＴＩＴＬＥ
 41
0.903614457831
  7
EXCADSTD
 72
     5
 11
231.591229661348
 21
29.306608253358
 31
0.0
100
AcDbText
  0
TEXT
  5
29DA
330
29BF
100
AcDbEntity
  8
図枠細線
  6
CONTINUOUS
 62
   252
100
AcDbText
 10
215.156179912936
 20
29.306608253358
 30
0.0
 40
2.0
  1
名称
 41
1.171875
  7
EXCADSTD
 72
     5
 11
220.156179912936
 21
29.306608253358
 31
0.0
100
AcDbText
  0
LINE
  5
29DB
330
29BF
100
AcDbEntity
  8
図枠太線
  6
CONTINUOUS
 62
   251
100
AcDbLine
 10
4.061011071051
 20
1.806608253358
 30
0.0
 11
284.061011071051
 21
1.806608253358
 31
0.0
  0
LINE
  5
29DC
330
29BF
100
AcDbEntity
  8
図枠細線
  6
CONTINUOUS
 62
   252
100
AcDbLine
 10
4.061011071051
 20
6.806608253358
 30
0.0
 11
75.061011071051
 21
6.806608253358
 31
0.0
  0
LINE
  5
29DD
330
29BF
100
AcDbEntity
  8
図枠太線
  6
CONTINUOUS
 62
   251
100
AcDbLine
 10
75.061011071051
 20
1.806608253358
 30
0.0
 11
75.061011071051
 21
31.806606253358
 31
0.0
  0
TEXT
  5
29DE
330
29BF
100
AcDbEntity
  8
図枠細線
  6
CONTINUOUS
 62
   252
100
AcDbText
 10
76.330551827713
 20
6.638319253358
 30
0.0
 40
2.0
  1
ＰＲＯＪＥＣＴＩＯＮ
 41
0.754285710199
  7
EXCADSTD
 72
     5
 11
93.930551732346
 21
6.638319253358
 31
0.0
100
AcDbText
  0
LINE
  5
29DF
330
29BF
100
AcDbEntity
  8
図枠細線
  6
CONTINUOUS
 62
   252
100
AcDbLine
 10
98.061011071051
 20
1.806606931929
 30
0.0
 11
98.061011071051
 21
16.806604931929
 31
0.0
  0
LINE
  5
29E0
330
29BF
100
AcDbEntity
  8
図枠細線
  6
CONTINUOUS
 62
   252
100
AcDbLine
 10
121.061011071051
 20
1.806607574787
 30
0.0
 11
121.061011071051
 21
16.806605574787
 31
0.0
  0
LINE
  5
29E1
330
29BF
100
AcDbEntity
  8
図枠太線
  6
CONTINUOUS
 62
   251
100
AcDbLine
 10
284.061011071051
 20
1.806608253358
 30
0.0
 11
284.061011071051
 21
31.806606253358
 31
0.0
  0
LINE
  5
29E2
330
29BF
100
AcDbEntity
  8
図枠細線
  6
CONTINUOUS
 62
   252
100
AcDbLine
 10
214.061011071051
 20
16.806606253358
 30
0.0
 11
284.061011071051
 21
16.806606253358
 31
0.0
  0
TEXT
  5
29E3
330
29BF
100
AcDbEntity
  8
図枠細線
  6
CONTINUOUS
 62
   252
100
AcDbText
 10
146.199593676182
 20
3.454099253358
 30
0.0
 40
3.5
  1
ＴＯＷＡ　ＳＥＩＤＥＮ　ＩＮＤＵＳＴＲＩＡＬ　ＣＯ．，ＬＴＤ．
 41
0.528937826907
  7
EXCADSTD
 72
     5
 11
213.339435171588
 21
3.454099253358
 31
0.0
100
AcDbText
  0
LINE
  5
29E4
330
29BF
100
AcDbEntity
  8
図枠太線
  6
CONTINUOUS
 62
   251
100
AcDbLine
 10
144.061011071051
 20
1.806608253358
 30
0.0
 11
144.061011071051
 21
31.806606253358
 31
0.0
  0
LINE
  5
29E5
330
29BF
100
AcDbEntity
  8
図枠太線
  6
CONTINUOUS
 62
   251
100
AcDbLine
 10
214.061011071051
 20
1.806608253358
 30
0.0
 11
214.061011071051
 21
31.806606253358
 31
0.0
  0
MTEXT
  5
29E6
330
29BF
100
AcDbEntity
  8
図枠太線
100
AcDbMText
 10
5.064337346478
 20
31.010982137407
 30
0.0
 40
2.5
 41
8.67856098472
 71
     1
 72
     5
  1
{\Fmonotxt.shx,bigfont.shx|c128;図暦}
  0
LINE
  5
29E7
330
29BF
100
AcDbEntity
  8
図枠太線
  6
CONTINUOUS
 62
   251
100
AcDbLine
 10
4.061011071051
 20
1.806608253358
 30
0.0
 11
4.061011071051
 21
31.806606253358
 31
0.0
  0
TEXT
  5
29E8
330
29BF
100
AcDbEntity
  8
図枠細線
 48
10.0
100
AcDbText
 10
12.260817420402
 20
28.625419626495
 30
0.0
 40
2.0
  1
CHANGE NOTICE
100
AcDbText
  0
ENDBLK
  5
29E9
330
29BF
100
AcDbEntity
  8
0
100
AcDbBlockEnd
  0
BLOCK
  5
29F5
330
29F4
100
AcDbEntity
  8
0
100
AcDbBlockBegin
  2
A4縦用_タイトル
 70
     0
 10
0.0
 20
0.0
 30
0.0
  3
A4縦用_タイトル
  1
A4縦用_タイトル
  0
LINE
  5
29F6
330
29F4
100
AcDbEntity
  8
図枠太線
  6
CONTINUOUS
 62
   251
100
AcDbLine
 10
2.368253864267
 20
4.525433224584
 30
0.0
 11
192.368245864267
 21
4.525433224584
 31
0.0
  0
LINE
  5
29F7
330
29F4
100
AcDbEntity
  8
図枠太線
  6
CONTINUOUS
 62
   251
100
AcDbLine
 10
78.368245864267
 20
19.525431224584
 30
0.0
 11
135.368253864267
 21
19.525431224584
 31
0.0
  0
LINE
  5
29F8
330
29F4
100
AcDbEntity
  8
図枠細線
  6
CONTINUOUS
 62
   252
100
AcDbLine
 10
78.368253864267
 20
27.025431224584
 30
0.0
 11
135.368253864267
 21
27.025431224584
 31
0.0
  0
TEXT
  5
29F9
330
29F4
100
AcDbEntity
  8
図枠ロゴマーク
  6
CONTINUOUS
 62
   253
100
AcDbText
 10
80.617009864267
 20
11.117825224584
 30
0.0
 40
7.0
  1
東和制電工業株式会社
 41
0.639204545455
  7
EXCADSTD
 72
     5
 11
133.117009864267
 21
11.117825224584
 31
0.0
100
AcDbText
  0
TEXT
  5
29FA
330
29F4
100
AcDbEntity
  8
図枠細線
  6
CONTINUOUS
 62
   252
100
AcDbText
 10
80.579549864267
 20
6.172924224584
 30
0.0
 40
3.5
  1
ＴＯＷＡ　ＳＥＩＤＥＮ　ＩＮＤＵＳＴＲＩＡＬ　ＣＯ．，ＬＴＤ．
 41
0.414568012377
  7
EXCADSTD
 72
     5
 11
133.202049568628
 21
6.172924224584
 31
0.0
100
AcDbText
  0
LINE
  5
29FB
330
29F4
100
AcDbEntity
  8
図枠太線
  6
CONTINUOUS
 62
   251
100
AcDbLine
 10
2.368253864267
 20
4.525433224584
 30
0.0
 11
2.368253864267
 21
34.525431224584
 31
0.0
  0
TEXT
  5
29FC
330
29F4
100
AcDbEntity
  8
図枠細線
  6
CONTINUOUS
 62
   252
100
AcDbText
 10
22.504308136501
 20
12.279133224584
 30
0.0
 40
2.0
  1
ＴＨＩＲＤ　ＡＮＧＬＥ
 41
0.691099486738
  7
EXCADSTD
 72
     5
 11
40.104308398762
 21
12.279133224584
 31
0.0
100
AcDbText
  0
TEXT
  5
29FD
330
29F4
100
AcDbEntity
  8
図枠細線
  6
CONTINUOUS
 62
   252
100
AcDbText
 10
22.429384136501
 20
9.357144224584
 30
0.0
 40
2.0
  1
ＰＲＯＪＥＣＴＩＯＮ
 41
0.754285710199
  7
EXCADSTD
 72
     5
 11
40.029384041134
 21
9.357144224584
 31
0.0
100
AcDbText
  0
LINE
  5
29FE
330
29F4
100
AcDbEntity
  8
図枠細線
  6
CONTINUOUS
100
AcDbLine
 10
22.368253864267
 20
19.525433224584
 30
0.0
 11
78.368253864267
 21
19.525431224584
 31
0.0
  0
TEXT
  5
29FF
330
29F4
100
AcDbEntity
  8
図枠細線
  6
CONTINUOUS
 62
   252
100
AcDbText
 10
22.868253864267
 20
17.025433224584
 30
0.0
 40
2.0
  1
第三角法
 41
1.102941176471
  7
EXCADSTD
 72
     5
 11
32.868253864267
 21
17.025433224584
 31
0.0
100
AcDbText
  0
TEXT
  5
2A00
330
29F4
100
AcDbEntity
  8
図枠細線
  6
CONTINUOUS
 62
   252
100
AcDbText
 10
22.868253864267
 20
29.525433224584
 30
0.0
 40
2.0
  1
ＡＰＰＲＯＶＥＤ
 41
0.695652184279
  7
EXCADSTD
 72
     5
 11
35.668254055002
 21
29.525433224584
 31
0.0
100
AcDbText
  0
LINE
  5
2A01
330
29F4
100
AcDbEntity
  8
図枠細線
  6
CONTINUOUS
 62
   252
100
AcDbLine
 10
2.368253864267
 20
9.525433224584
 30
0.0
 11
22.368253864267
 21
9.525433224584
 31
0.0
  0
LINE
  5
2A02
330
29F4
100
AcDbEntity
  8
図枠細線
  6
CONTINUOUS
 62
   252
100
AcDbLine
 10
2.368253864267
 20
14.525431224584
 30
0.0
 11
22.368253864267
 21
14.525431224584
 31
0.0
  0
LINE
  5
2A03
330
29F4
100
AcDbEntity
  8
図枠細線
  6
CONTINUOUS
 62
   252
100
AcDbLine
 10
2.368253864267
 20
24.525431224584
 30
0.0
 11
22.368253864267
 21
24.525431224584
 31
0.0
  0
LINE
  5
2A04
330
29F4
100
AcDbEntity
  8
図枠細線
  6
CONTINUOUS
 62
   252
100
AcDbLine
 10
2.368253864267
 20
29.525431224584
 30
0.0
 11
22.368253864267
 21
29.525431224584
 31
0.0
  0
LINE
  5
2A05
330
29F4
100
AcDbEntity
  8
図枠細線
  6
CONTINUOUS
100
AcDbLine
 10
2.368253864267
 20
19.525433224584
 30
0.0
 11
22.368253864267
 21
19.525433224584
 31
0.0
  0
TEXT
  5
2A06
330
29F4
100
AcDbEntity
  8
図枠細線
  6
CONTINUOUS
 62
   252
100
AcDbText
 10
2.868253864267
 20
32.025433224584
 30
0.0
 40
2.0
  1
ＮＯＴＥ
 41
0.923076923077
  7
EXCADSTD
 72
     5
 11
10.868253864267
 21
32.025433224584
 31
0.0
100
AcDbText
  0
LINE
  5
2A07
330
29F4
100
AcDbEntity
  8
図枠太線
  6
CONTINUOUS
 62
   251
100
AcDbLine
 10
22.368253864267
 20
4.525433224584
 30
0.0
 11
22.368253864267
 21
34.525431224584
 31
0.0
  0
TEXT
  5
2A08
330
29F4
100
AcDbEntity
  8
図枠細線
  6
CONTINUOUS
 62
   252
100
AcDbText
 10
22.868253864267
 20
32.025433224584
 30
0.0
 40
2.0
  1
承認
 41
1.171875
  7
EXCADSTD
 72
     5
 11
27.868253864267
 21
32.025433224584
 31
0.0
100
AcDbText
  0
TEXT
  5
2A09
330
29F4
100
AcDbEntity
  8
図枠細線
  6
CONTINUOUS
 62
   252
100
AcDbText
 10
60.711709035982
 20
32.025433224584
 30
0.0
 40
2.0
  1
製図
 41
1.209677419355
  7
EXCADSTD
 72
     5
 11
65.711709035982
 21
32.025433224584
 31
0.0
100
AcDbText
  0
TEXT
  5
2A0A
330
29F4
100
AcDbEntity
  8
図枠細線
  6
CONTINUOUS
 62
   252
100
AcDbText
 10
60.711709035982
 20
29.525433224584
 30
0.0
 40
2.0
  1
ＤＲＡＷＮ
 41
0.882352941176
  7
EXCADSTD
 72
     5
 11
70.711709035982
 21
29.525433224584
 31
0.0
100
AcDbText
  0
TEXT
  5
2A0B
330
29F4
100
AcDbEntity
  8
図枠細線
  6
CONTINUOUS
 62
   252
100
AcDbText
 10
60.834891743877
 20
17.025433224584
 30
0.0
 40
2.0
  1
日付
 41
1.171875
  7
EXCADSTD
 72
     5
 11
65.834891743877
 21
17.025433224584
 31
0.0
100
AcDbText
  0
TEXT
  5
2A0C
330
29F4
100
AcDbEntity
  8
図枠細線
  6
CONTINUOUS
 62
   252
100
AcDbText
 10
47.333660864267
 20
17.025433224584
 30
0.0
 40
2.0
  1
ＳＣＡＬＥ
 41
0.903614457831
  7
EXCADSTD
 72
     5
 11
57.333660864267
 21
17.025433224584
 31
0.0
100
AcDbText
  0
TEXT
  5
2A0D
330
29F4
100
AcDbEntity
  8
図枠細線
  6
CONTINUOUS
 62
   252
100
AcDbText
 10
42.281425990082
 20
29.525433224584
 30
0.0
 40
2.0
  1
ＣＨＥＣＫＥＤ
 41
0.831249989569
  7
EXCADSTD
 72
     5
 11
55.581425823189
 21
29.525433224584
 31
0.0
100
AcDbText
  0
LINE
  5
2A0E
330
29F4
100
AcDbEntity
  8
図枠細線
  6
CONTINUOUS
 62
   252
100
AcDbLine
 10
40.968253864267
 20
34.525431224584
 30
0.0
 11
40.968253864267
 21
19.525431224584
 31
0.0
  0
LINE
  5
2A0F
330
29F4
100
AcDbEntity
  8
図枠細線
  6
CONTINUOUS
 62
   252
100
AcDbLine
 10
40.968253864267
 20
4.525433224584
 30
0.0
 11
40.968253864267
 21
19.525431224584
 31
0.0
  0
TEXT
  5
2A10
330
29F4
100
AcDbEntity
  8
図枠細線
  6
CONTINUOUS
 62
   252
100
AcDbText
 10
41.961173864267
 20
17.025433224584
 30
0.0
 40
2.0
  1
尺度
 41
1.171875
  7
EXCADSTD
 72
     5
 11
46.961173864267
 21
17.025433224584
 31
0.0
100
AcDbText
  0
TEXT
  5
2A11
330
29F4
100
AcDbEntity
  8
図枠細線
  6
CONTINUOUS
 62
   252
100
AcDbText
 10
42.281425990082
 20
32.025433224584
 30
0.0
 40
2.0
  1
検図
 41
1.209677419355
  7
EXCADSTD
 72
     5
 11
47.281425990082
 21
32.025433224584
 31
0.0
100
AcDbText
  0
LINE
  5
2A12
330
29F4
100
AcDbEntity
  8
図枠細線
  6
CONTINUOUS
 62
   252
100
AcDbLine
 10
59.768253864267
 20
34.525431224584
 30
0.0
 11
59.768253864267
 21
19.525431224584
 31
0.0
  0
LINE
  5
2A13
330
29F4
100
AcDbEntity
  8
図枠細線
  6
CONTINUOUS
 62
   252
100
AcDbLine
 10
59.768253864267
 20
4.525433224584
 30
0.0
 11
59.768253864267
 21
19.525431224584
 31
0.0
  0
LINE
  5
2A14
330
29F4
100
AcDbEntity
  8
図枠太線
  6
CONTINUOUS
 62
   251
100
AcDbLine
 10
78.368253864267
 20
4.525433224584
 30
0.0
 11
78.368253864267
 21
34.525431224584
 31
0.0
  0
TEXT
  5
2A15
330
29F4
100
AcDbEntity
  8
図枠細線
  6
CONTINUOUS
 62
   252
100
AcDbText
 10
66.334891743877
 20
17.025433224584
 30
0.0
 40
2.0
  1
ＤＡＴＥ
 41
0.923076923077
  7
EXCADSTD
 72
     5
 11
74.334891743877
 21
17.025433224584
 31
0.0
100
AcDbText
  0
LINE
  5
2A16
330
29F4
100
AcDbEntity
  8
図枠細線
  6
CONTINUOUS
 62
   252
100
AcDbLine
 10
135.368253864267
 20
19.525431224584
 30
0.0
 11
192.368245864267
 21
19.525431224584
 31
0.0
  0
TEXT
  5
2A17
330
29F4
100
AcDbEntity
  8
図枠細線
  6
CONTINUOUS
 62
   252
100
AcDbText
 10
141.868253864267
 20
32.025433224584
 30
0.0
 40
2.0
  1
ＴＩＴＬＥ
 41
0.903614457831
  7
EXCADSTD
 72
     5
 11
151.868253864267
 21
32.025433224584
 31
0.0
100
AcDbText
  0
LINE
  5
2A18
330
29F4
100
AcDbEntity
  8
図枠太線
  6
CONTINUOUS
 62
   251
100
AcDbLine
 10
135.368253864267
 20
4.525433224584
 30
0.0
 11
135.368253864267
 21
34.525431224584
 31
0.0
  0
TEXT
  5
2A19
330
29F4
100
AcDbEntity
  8
図枠細線
  6
CONTINUOUS
 62
   252
100
AcDbText
 10
135.868253864267
 20
17.025433224584
 30
0.0
 40
2.0
  1
図面番号
 41
1.102941176471
  7
EXCADSTD
 72
     5
 11
145.868253864267
 21
17.025433224584
 31
0.0
100
AcDbText
  0
TEXT
  5
2A1A
330
29F4
100
AcDbEntity
  8
図枠細線
  6
CONTINUOUS
 62
   252
100
AcDbText
 10
135.868253864267
 20
32.025433224584
 30
0.0
 40
2.0
  1
名称
 41
1.171875
  7
EXCADSTD
 72
     5
 11
140.868253864267
 21
32.025433224584
 31
0.0
100
AcDbText
  0
TEXT
  5
2A1B
330
29F4
100
AcDbEntity
  8
図枠細線
  6
CONTINUOUS
 62
   252
100
AcDbText
 10
146.868253864267
 20
17.025433224584
 30
0.0
 40
2.0
  1
ＤＲＧ．ＮＯ．
 41
0.9375
  7
EXCADSTD
 72
     5
 11
160.868253864267
 21
17.025433224584
 31
0.0
100
AcDbText
  0
LINE
  5
2A1C
330
29F4
100
AcDbEntity
  8
図枠太線
  6
CONTINUOUS
 62
   251
100
AcDbLine
 10
192.368245864267
 20
4.525433224584
 30
0.0
 11
192.368245864267
 21
34.525431224584
 31
0.0
  0
ENDBLK
  5
2A1D
330
29F4
100
AcDbEntity
  8
0
100
AcDbBlockEnd
  0
BLOCK
  5
2A33
330
2A32
100
AcDbEntity
  8
0
100
AcDbBlockBegin
  2
A3横用_タイトル
 70
     0
 10
0.0
 20
0.0
 30
0.0
  3
A3横用_タイトル
  1
A3横用_タイトル
  0
LINE
  5
2A34
330
2A32
100
AcDbEntity
  8
図枠細線
  6
CONTINUOUS
 62
   252
100
AcDbLine
 10
205.098414535793
 20
33.525959753527
 30
0.0
 11
305.098414535793
 21
33.525959753527
 31
0.0
  0
LINE
  5
2A35
330
2A32
100
AcDbEntity
  8
図枠太線
  6
CONTINUOUS
 62
   251
100
AcDbLine
 10
205.098414535793
 20
23.525959753527
 30
0.0
 11
305.098414535793
 21
23.525959753527
 31
0.0
  0
LINE
  5
2A36
330
2A32
100
AcDbEntity
  8
図枠細線
  6
CONTINUOUS
100
AcDbLine
 10
5.098414535793
 20
23.525959753527
 30
0.0
 11
105.098414535793
 21
23.525959753527
 31
0.0
  0
LINE
  5
2A37
330
2A32
100
AcDbEntity
  8
図枠細線
  6
CONTINUOUS
 62
   252
100
AcDbLine
 10
5.098414535793
 20
36.725957753527
 30
0.0
 11
105.098414535793
 21
36.725957753527
 31
0.0
  0
LINE
  5
2A38
330
2A32
100
AcDbEntity
  8
図枠細線
  6
CONTINUOUS
 62
   252
100
AcDbLine
 10
5.098414535793
 20
30.125957753527
 30
0.0
 11
105.098414535793
 21
30.125957753527
 31
0.0
  0
LINE
  5
2A39
330
2A32
100
AcDbEntity
  8
図枠細線
  6
CONTINUOUS
 62
   252
100
AcDbLine
 10
5.098414535793
 20
16.725959753527
 30
0.0
 11
105.098414535793
 21
16.725959753527
 31
0.0
  0
LINE
  5
2A3A
330
2A32
100
AcDbEntity
  8
図枠細線
  6
CONTINUOUS
 62
   252
100
AcDbLine
 10
5.098414535793
 20
10.125959753527
 30
0.0
 11
105.098414535793
 21
10.125959753527
 31
0.0
  0
LINE
  5
2A3B
330
2A32
100
AcDbEntity
  8
図枠細線
  6
CONTINUOUS
100
AcDbLine
 10
105.098414535793
 20
23.525961753527
 30
0.0
 11
205.098414535793
 21
23.525959753527
 31
0.0
  0
LINE
  5
2A3C
330
2A32
100
AcDbEntity
  8
図枠細線
  6
CONTINUOUS
 62
   252
100
AcDbLine
 10
138.398414535793
 20
43.525959753527
 30
0.0
 11
138.398414535793
 21
18.525957753527
 31
0.0
  0
LINE
  5
2A3D
330
2A32
100
AcDbEntity
  8
図枠細線
  6
CONTINUOUS
 62
   252
100
AcDbLine
 10
171.698414535793
 20
43.525959753527
 30
0.0
 11
171.698414535793
 21
18.525957753527
 31
0.0
  0
LINE
  5
2A3E
330
2A32
100
AcDbEntity
  8
図枠細線
  6
CONTINUOUS
 62
   252
100
AcDbLine
 10
305.098414535793
 20
23.525959753527
 30
0.0
 11
405.098414535793
 21
23.525959753527
 31
0.0
  0
TEXT
  5
2A3F
330
2A32
100
AcDbEntity
  8
図枠ロゴマーク
  6
CONTINUOUS
 62
   253
100
AcDbText
 10
206.102509212755
 20
13.294257570546
 30
0.0
 40
7.0
  1
東和制電工業株式会社
 50
0.016555220185
 41
1.186384129432
  7
EXCADSTD
 72
     5
 11
303.544188309143
 21
13.322412672217
 31
0.0
100
AcDbText
  0
MTEXT
  5
2A40
330
2A32
100
AcDbEntity
  8
図枠細線
100
AcDbMText
 10
6.356764112375
 20
41.976594175478
 30
0.0
 40
2.5
 41
49.938282706292
 71
     1
 72
     5
  1
{\Fmonotxt.shx,bigfont.shx|c128;図暦　CHANGE　NOTICE}
  0
MTEXT
  5
2A41
330
2A32
100
AcDbEntity
  8
図枠細線
 48
10.0
100
AcDbMText
 10
306.544114926828
 20
41.701835800934
 30
0.0
 40
2.5
 41
28.002809618823
 71
     1
 72
     5
  1
{\Fmonotxt.shx,bigfont.shx|c128;名称　TITLE}
  0
MTEXT
  5
2A42
330
2A32
100
AcDbEntity
  8
図枠細線
 48
10.0
100
AcDbMText
 10
307.329617114284
 20
21.606206797226
 30
0.0
 40
2.5
 41
24.385612216707
 71
     1
 72
     5
  1
{\Fmonotxt.shx,bigfont.shx|c128;図面番号\PDRG.　No.}
  0
MTEXT
  5
2A43
330
2A32
100
AcDbEntity
  8
図枠細線
 48
10.0
100
AcDbMText
 10
173.726349404609
 20
21.73680662198
 30
0.0
 40
2.5
 41
25.735090160813
 71
     1
 72
     5
  1
{\Fmonotxt.shx,bigfont.shx|c128;日付 DATE}
  0
MTEXT
  5
2A44
330
2A32
100
AcDbEntity
  8
図枠細線
 48
10.0
100
AcDbMText
 10
173.48708833982
 20
41.621592044998
 30
0.0
 40
2.5
 41
24.983741184205
 71
     1
 72
     5
  1
{\Fmonotxt.shx,bigfont.shx|c128;製図　DRAWN}
  0
MTEXT
  5
2A45
330
2A32
100
AcDbEntity
  8
図枠細線
 48
10.0
100
AcDbMText
 10
139.28009927741
 20
21.866713069868
 30
0.0
 40
2.5
 41
22.629632913243
 71
     1
 72
     5
  1
{\Fmonotxt.shx,bigfont.shx|c128;尺度　SCALE}
  0
MTEXT
  5
2A46
330
2A32
100
AcDbEntity
  8
図枠細線
 48
10.0
100
AcDbMText
 10
139.910091179835
 20
41.311840415554
 30
0.0
 40
2.5
 41
28.998753428368
 71
     1
 72
     5
  1
{\Fmonotxt.shx,bigfont.shx|c128;検図  CHECKED}
  0
MTEXT
  5
2A47
330
2A32
100
AcDbEntity
  8
図枠細線
 48
10.0
100
AcDbMText
 10
114.253294667728
 20
21.916124850174
 30
0.0
 40
3.0
 41
19.692400475383
 71
     1
 72
     5
  1
{\Fmonotxt.shx,bigfont.shx|c128;第三角法}
  0
MTEXT
  5
2A48
330
2A32
100
AcDbEntity
  8
図枠細線
 48
10.0
100
AcDbMText
 10
108.986959929915
 20
15.282880185837
 30
0.0
 40
2.5
 41
27.954882823547
 71
     1
 72
     5
  1
{\Fmonotxt.shx,bigfont.shx|c128;THIRD ANGLE\PPROJECTION}
  0
MTEXT
  5
2A49
330
2A32
100
AcDbEntity
  8
図枠細線
 48
10.0
100
AcDbMText
 10
106.319432640184
 20
41.511437145487
 30
0.0
 40
2.5
 41
28.233595265074
 71
     1
 72
     5
  1
{\Fmonotxt.shx,bigfont.shx|c128;承認 APPROVED}
  0
LINE
  5
2A4A
330
2A32
100
AcDbEntity
  8
図枠太線
  6
CONTINUOUS
 62
   251
100
AcDbLine
 10
5.098414535793
 20
3.525959753527
 30
0.0
 11
405.098414535793
 21
3.525959753527
 31
0.0
  0
LINE
  5
2A4B
330
2A32
100
AcDbEntity
  8
図枠太線
 48
10.0
100
AcDbLine
 10
5.098414535793
 20
3.525959753527
 30
0.0
 11
5.098414535793
 21
43.525959753527
 31
0.0
  0
LINE
  5
2A4C
330
2A32
100
AcDbEntity
  8
図枠太線
  6
CONTINUOUS
 62
   251
100
AcDbLine
 10
105.098414535793
 20
3.525959753527
 30
0.0
 11
105.098414535793
 21
43.525959753527
 31
0.0
  0
LINE
  5
2A4D
330
2A32
100
AcDbEntity
  8
図枠細線
  6
CONTINUOUS
 62
   252
100
AcDbLine
 10
138.398414535793
 20
3.525959753527
 30
0.0
 11
138.398414535793
 21
18.525957753527
 31
0.0
  0
LINE
  5
2A4E
330
2A32
100
AcDbEntity
  8
図枠細線
  6
CONTINUOUS
 62
   252
100
AcDbLine
 10
171.698414535793
 20
3.525959753527
 30
0.0
 11
171.698414535793
 21
18.525957753527
 31
0.0
  0
LINE
  5
2A4F
330
2A32
100
AcDbEntity
  8
図枠太線
  6
CONTINUOUS
 62
   251
100
AcDbLine
 10
205.098414535793
 20
3.525959753527
 30
0.0
 11
205.098414535793
 21
43.525959753527
 31
0.0
  0
LINE
  5
2A50
330
2A32
100
AcDbEntity
  8
図枠太線
 48
10.0
100
AcDbLine
 10
405.098414535793
 20
43.525959753527
 30
0.0
 11
405.098414535793
 21
3.525959753527
 31
0.0
  0
TEXT
  5
2A51
330
2A32
100
AcDbEntity
  8
図枠細線
  6
CONTINUOUS
 62
   252
100
AcDbText
 10
208.519754474572
 20
6.482358407285
 30
0.0
 40
3.5
  1
ＴＯＷＡ　ＳＥＩＤＥＮ　ＩＮＤＵＳＴＲＩＡＬ　ＣＯ．，ＬＴＤ．
 41
0.746656297509
  7
EXCADSTD
 72
     5
 11
303.295327171727
 21
6.482358407285
 31
0.0
100
AcDbText
  0
LINE
  5
2A52
330
2A32
100
AcDbEntity
  8
図枠太線
  6
CONTINUOUS
 62
   251
100
AcDbLine
 10
305.098414535793
 20
3.525959753527
 30
0.0
 11
305.098414535793
 21
43.525959753527
 31
0.0
  0
ENDBLK
  5
2A53
330
2A32
100
AcDbEntity
  8
0
100
AcDbBlockEnd
  0
BLOCK
  5
2A6D
330
2A6C
100
AcDbEntity
  8
0
100
AcDbBlockBegin
  2
A3縦用_タイトル
 70
     0
 10
0.0
 20
0.0
 30
0.0
  3
A3縦用_タイトル
  1
A3縦用_タイトル
  0
MTEXT
  5
2A6E
330
2A6C
100
AcDbEntity
  8
図枠細線
100
AcDbMText
 10
5.040804501593
 20
31.626098649005
 30
0.0
 40
2.5
 41
49.938282706292
 71
     1
 72
     5
  1
{\Fmonotxt.shx,bigfont.shx|c128;図暦　CHANGE　NOTICE}
  0
LINE
  5
2A6F
330
2A6C
100
AcDbEntity
  8
図枠太線
  6
CONTINUOUS
 62
   251
100
AcDbLine
 10
283.577871882961
 20
2.820844689254
 30
0.0
 11
283.577871882961
 21
32.820842689254
 31
0.0
  0
MTEXT
  5
2A70
330
2A6C
100
AcDbEntity
  8
図枠細線
 48
10.0
100
AcDbMText
 10
214.912458947454
 20
31.621488632308
 30
0.0
 40
2.5
 41
28.002809618823
 71
     1
 72
     5
  1
{\Fmonotxt.shx,bigfont.shx|c128;名称　TITLE}
  0
MTEXT
  5
2A71
330
2A6C
100
AcDbEntity
  8
図枠細線
 48
10.0
100
AcDbMText
 10
214.740030458938
 20
16.310225796722
 30
0.0
 40
2.5
 41
24.385612216707
 71
     1
 72
     5
  1
{\Fmonotxt.shx,bigfont.shx|c128;図面番号\PDRG.　No.}
  0
LINE
  5
2A72
330
2A6C
100
AcDbEntity
  8
図枠太線
  6
CONTINUOUS
 62
   251
100
AcDbLine
 10
213.577871882961
 20
2.820844689254
 30
0.0
 11
213.577871882961
 21
32.820842689254
 31
0.0
  0
LINE
  5
2A73
330
2A6C
100
AcDbEntity
  8
図枠太線
  6
CONTINUOUS
 62
   251
100
AcDbLine
 10
143.577871882961
 20
2.820844689254
 30
0.0
 11
143.577871882961
 21
32.820842689254
 31
0.0
  0
TEXT
  5
2A74
330
2A6C
100
AcDbEntity
  8
図枠細線
  6
CONTINUOUS
 62
   252
100
AcDbText
 10
145.716454488093
 20
4.468335689254
 30
0.0
 40
3.5
  1
ＴＯＷＡ　ＳＥＩＤＥＮ　ＩＮＤＵＳＴＲＩＡＬ　ＣＯ．，ＬＴＤ．
 41
0.528937826907
  7
EXCADSTD
 72
     5
 11
212.856295983498
 21
4.468335689254
 31
0.0
100
AcDbText
  0
TEXT
  5
2A75
330
2A6C
100
AcDbEntity
  8
図枠ロゴマーク
  6
CONTINUOUS
 62
   253
100
AcDbText
 10
145.950637593507
 20
9.413236689254
 30
0.0
 40
7.0
  1
東和制電工業株式会社
 41
0.80361088462
  7
EXCADSTD
 72
     5
 11
211.953878250259
 21
9.413236689254
 31
0.0
100
AcDbText
  0
LINE
  5
2A76
330
2A6C
100
AcDbEntity
  8
図枠細線
  6
CONTINUOUS
 62
   252
100
AcDbLine
 10
143.577871882961
 20
25.320842689254
 30
0.0
 11
213.577871882961
 21
25.320842689254
 31
0.0
  0
LINE
  5
2A77
330
2A6C
100
AcDbEntity
  8
図枠太線
  6
CONTINUOUS
 62
   251
100
AcDbLine
 10
143.577863882961
 20
17.820842689254
 30
0.0
 11
213.577871882961
 21
17.820842689254
 31
0.0
  0
LINE
  5
2A78
330
2A6C
100
AcDbEntity
  8
図枠細線
  6
CONTINUOUS
 62
   252
100
AcDbLine
 10
213.577871882961
 20
17.820842689254
 30
0.0
 11
283.577871882961
 21
17.820842689254
 31
0.0
  0
LINE
  5
2A79
330
2A6C
100
AcDbEntity
  8
図枠細線
  6
CONTINUOUS
 62
   252
100
AcDbLine
 10
120.577871882961
 20
32.820842689254
 30
0.0
 11
120.577871882961
 21
17.820842689254
 31
0.0
  0
MTEXT
  5
2A7A
330
2A6C
100
AcDbEntity
  8
図枠細線
 48
10.0
100
AcDbMText
 10
121.100885670352
 20
16.33785922638
 30
0.0
 40
2.0
 41
17.705978285068
 71
     1
 72
     5
  1
{\Fmonotxt.shx,bigfont.shx|c128;日付 DATE}
  0
MTEXT
  5
2A7B
330
2A6C
100
AcDbEntity
  8
図枠細線
 48
10.0
100
AcDbMText
 10
121.254842273491
 20
31.208993514037
 30
0.0
 40
2.0
 41
18.363799568758
 71
     1
 72
     5
  1
{\Fmonotxt.shx,bigfont.shx|c128;製図　DRAWN}
  0
LINE
  5
2A7C
330
2A6C
100
AcDbEntity
  8
図枠細線
  6
CONTINUOUS
 62
   252
100
AcDbLine
 10
97.577871882961
 20
32.820842689254
 30
0.0
 11
97.577871882961
 21
17.820842689254
 31
0.0
  0
MTEXT
  5
2A7D
330
2A6C
100
AcDbEntity
  8
図枠細線
 48
10.0
100
AcDbMText
 10
98.239734796872
 20
16.467764839281
 30
0.0
 40
2.0
 41
17.757791689903
 71
     1
 72
     5
  1
{\Fmonotxt.shx,bigfont.shx|c128;尺度　SCALE}
  0
MTEXT
  5
2A7E
330
2A6C
100
AcDbEntity
  8
図枠細線
 48
10.0
100
AcDbMText
 10
97.864744625154
 20
31.298433377664
 30
0.0
 40
2.0
 41
23.162655920976
 71
     1
 72
     5
  1
{\Fmonotxt.shx,bigfont.shx|c128;検図  CHECKED}
  0
LINE
  5
2A7F
330
2A6C
100
AcDbEntity
  8
図枠細線
  6
CONTINUOUS
 62
   252
100
AcDbLine
 10
97.577871882961
 20
2.820843367826
 30
0.0
 11
97.577871882961
 21
17.820841367826
 31
0.0
  0
LINE
  5
2A80
330
2A6C
100
AcDbEntity
  8
図枠細線
  6
CONTINUOUS
 62
   252
100
AcDbLine
 10
120.577871882961
 20
2.820844010683
 30
0.0
 11
120.577871882961
 21
17.820842010683
 31
0.0
  0
MTEXT
  5
2A81
330
2A6C
100
AcDbEntity
  8
図枠細線
 48
10.0
100
AcDbMText
 10
81.402399084102
 20
16.316484117426
 30
0.0
 40
2.0
 41
12.920322819369
 71
     1
 72
     5
  1
{\Fmonotxt.shx,bigfont.shx|c128;第三角法}
  0
MTEXT
  5
2A82
330
2A6C
100
AcDbEntity
  8
図枠細線
 48
10.0
100
AcDbMText
 10
75.736576535096
 20
11.080410931319
 30
0.0
 40
2.0
 41
21.072870671471
 71
     1
 72
     5
  1
{\Fmonotxt.shx,bigfont.shx|c128;THIRD ANGLE\PPROJECTION}
  0
LINE
  5
2A83
330
2A6C
100
AcDbEntity
  8
図枠太線
  6
CONTINUOUS
 62
   251
100
AcDbLine
 10
74.577871882961
 20
2.820844689254
 30
0.0
 11
74.577871882961
 21
32.820842689254
 31
0.0
  0
MTEXT
  5
2A84
330
2A6C
100
AcDbEntity
  8
図枠細線
 48
10.0
100
AcDbMText
 10
75.060214781573
 20
31.298434778555
 30
0.0
 40
2.0
 41
22.240928805967
 71
     1
 72
     5
  1
{\Fmonotxt.shx,bigfont.shx|c128;承認 APPROVED}
  0
LINE
  5
2A85
330
2A6C
100
AcDbEntity
  8
図枠細線
  6
CONTINUOUS
100
AcDbLine
 10
3.577871882961
 20
17.820844689254
 30
0.0
 11
74.577871882961
 21
17.820844689254
 31
0.0
  0
LINE
  5
2A86
330
2A6C
100
AcDbEntity
  8
図枠細線
  6
CONTINUOUS
 62
   252
100
AcDbLine
 10
3.577871882961
 20
27.820842689254
 30
0.0
 11
74.577871882961
 21
27.820842689254
 31
0.0
  0
LINE
  5
2A87
330
2A6C
100
AcDbEntity
  8
図枠細線
  6
CONTINUOUS
 62
   252
100
AcDbLine
 10
3.577871882961
 20
22.820842689254
 30
0.0
 11
74.577871882961
 21
22.820842689254
 31
0.0
  0
LINE
  5
2A88
330
2A6C
100
AcDbEntity
  8
図枠細線
  6
CONTINUOUS
 62
   252
100
AcDbLine
 10
3.577871882961
 20
12.820842689254
 30
0.0
 11
74.577871882961
 21
12.820842689254
 31
0.0
  0
LINE
  5
2A89
330
2A6C
100
AcDbEntity
  8
図枠細線
  6
CONTINUOUS
 62
   252
100
AcDbLine
 10
3.577871882961
 20
7.820844689254
 30
0.0
 11
74.577871882961
 21
7.820844689254
 31
0.0
  0
LINE
  5
2A8A
330
2A6C
100
AcDbEntity
  8
図枠細線
  6
CONTINUOUS
100
AcDbLine
 10
74.577871882961
 20
17.820843689254
 30
0.0
 11
143.577871882961
 21
17.820841224969
 31
0.0
  0
LINE
  5
2A8B
330
2A6C
100
AcDbEntity
  8
図枠太線
  6
CONTINUOUS
 62
   251
100
AcDbLine
 10
3.577871882961
 20
2.820844689254
 30
0.0
 11
283.577871882961
 21
2.820844689254
 31
0.0
  0
LINE
  5
2A8C
330
2A6C
100
AcDbEntity
  8
図枠太線
  6
CONTINUOUS
 62
   251
100
AcDbLine
 10
3.577871882961
 20
2.820844689254
 30
0.0
 11
3.577871882961
 21
32.820842689254
 31
0.0
  0
ENDBLK
  5
2A8D
330
2A6C
100
AcDbEntity
  8
0
100
AcDbBlockEnd
  0
BLOCK
  5
2AF8
330
2AF4
100
AcDbEntity
  8
0
 48
10.0
100
AcDbBlockBegin
  2
_OPEN30
 70
     0
 10
0.0
 20
0.0
 30
0.0
  3
_OPEN30
  1
_OPEN30
  0
LINE
  5
2AF5
330
2AF4
100
AcDbEntity
  8
0
  6
BYBLOCK
 62
     0
100
AcDbLine
 10
-1.0
 20
0.26794919
 30
0.0
 11
0.0
 21
0.0
 31
0.0
  0
LINE
  5
2AF6
330
2AF4
100
AcDbEntity
  8
0
  6
BYBLOCK
 62
     0
100
AcDbLine
 10
0.0
 20
0.0
 30
0.0
 11
-1.0
 21
-0.26794919
 31
0.0
  0
LINE
  5
2AF7
330
2AF4
100
AcDbEntity
  8
0
  6
BYBLOCK
 62
     0
100
AcDbLine
 10
0.0
 20
0.0
 30
0.0
 11
-1.0
 21
0.0
 31
0.0
  0
ENDBLK
  5
2AF9
330
2AF4
100
AcDbEntity
  8
0
 48
10.0
100
AcDbBlockEnd
  0
BLOCK
  5
2F40
330
2F3F
100
AcDbEntity
  8
0
 48
10.0
100
AcDbBlockBegin
  2
ケース外形図_HL-400
 70
     0
 10
0.0
 20
0.0
 30
0.0
  3
ケース外形図_HL-400
  1
ケース外形図_HL-400
  0
LINE
  5
2F41
330
2F3F
100
AcDbEntity
  8
外形線
100
AcDbLine
 10
-3016.68737612191
 20
-628.620502022639
 30
0.0
 11
-3004.68737612191
 21
-628.620502022639
 31
0.0
  0
LINE
  5
2F42
330
2F3F
100
AcDbEntity
  8
外形線
100
AcDbLine
 10
-3004.68737612191
 20
-556.620502022639
 30
0.0
 11
-3019.68737612191
 21
-556.620502022639
 31
0.0
  0
LINE
  5
2F43
330
2F3F
100
AcDbEntity
  8
中心線
 48
10.0
100
AcDbLine
 10
-3031.837385121911
 20
-613.830661022639
 30
0.0
 11
-3031.837385121911
 21
-669.264280022639
 31
0.0
  0
LINE
  5
2F44
330
2F3F
100
AcDbEntity
  8
外形線
100
AcDbLine
 10
-3036.074903121911
 20
-666.232883395172
 30
0.0
 11
-3036.074903121911
 21
-653.049280022639
 31
0.0
  0
LINE
  5
2F45
330
2F3F
100
AcDbEntity
  8
外形線
100
AcDbLine
 10
-3027.67493912191
 20
-666.232883395172
 30
0.0
 11
-3027.67493912191
 21
-653.049280022639
 31
0.0
  0
ARC
  5
2F46
330
2F3F
100
AcDbEntity
  8
細線
100
AcDbCircle
 10
-3033.974910933263
 20
-662.595590228936
 30
0.0
 40
4.199982
100
AcDbArc
 50
239.999981276042
 51
299.999981276021
  0
ARC
  5
2F47
330
2F3F
100
AcDbEntity
  8
細線
100
AcDbCircle
 10
-3029.774928933263
 20
-662.595591601467
 30
0.0
 40
4.199982
100
AcDbArc
 50
239.999981276042
 51
299.999981276021
  0
ARC
  5
2F48
330
2F3F
100
AcDbEntity
  8
細線
100
AcDbCircle
 10
-3029.774931310559
 20
-669.870173816342
 30
0.0
 40
4.199982
100
AcDbArc
 50
59.999981276042
 51
119.999981276021
  0
LINE
  5
2F49
330
2F3F
100
AcDbEntity
  8
外形線
100
AcDbLine
 10
-3015.18737612191
 20
-556.620502022639
 30
0.0
 11
-3015.18737612191
 21
-628.620502022639
 31
0.0
  0
LINE
  5
2F4A
330
2F3F
100
AcDbEntity
  8
外形線
100
AcDbLine
 10
-3016.68737612191
 20
-629.295475022639
 30
0.0
 11
-3016.68737612191
 21
-556.620502022639
 31
0.0
  0
LINE
  5
2F4B
330
2F3F
100
AcDbEntity
  8
外形線
100
AcDbLine
 10
-3019.68737612191
 20
-556.620502022639
 30
0.0
 11
-3019.68737612191
 21
-618.495502022639
 31
0.0
  0
LINE
  5
2F4C
330
2F3F
100
AcDbEntity
  8
外形線
100
AcDbLine
 10
-3046.687376121911
 20
-623.745502022639
 30
0.0
 11
-3046.687376121911
 21
-562.245502022639
 31
0.0
  0
LINE
  5
2F4D
330
2F3F
100
AcDbEntity
  8
外形線
100
AcDbLine
 10
-3038.779444758647
 20
-628.97627357689
 30
0.0
 11
-3045.721504395382
 21
-634.988273576889
 31
0.0
  0
LINE
  5
2F4E
330
2F3F
100
AcDbEntity
  8
外形線
100
AcDbLine
 10
-3024.895325485175
 20
-628.97627357689
 30
0.0
 11
-3017.953265848439
 21
-634.988273576889
 31
0.0
  0
LINE
  5
2F4F
330
2F3F
100
AcDbEntity
  8
外形線
100
AcDbLine
 10
-3024.895325485175
 20
-637.653848122809
 30
0.0
 11
-3024.895325485175
 21
-628.97627357689
 31
0.0
  0
LINE
  5
2F50
330
2F3F
100
AcDbEntity
  8
外形線
100
AcDbLine
 10
-3038.779444758647
 20
-637.653848122809
 30
0.0
 11
-3038.779444758647
 21
-628.97627357689
 31
0.0
  0
LWPOLYLINE
  5
2F51
330
2F3F
100
AcDbEntity
  8
外形線
100
AcDbPolyline
 90
       47
 70
     0
 43
0.0
 10
-3027.674940621911
 20
-654.14058768542
 10
-3027.215686831012
 20
-654.025717241066
 10
-3026.807069333743
 20
-653.89949762322
 10
-3026.45356502891
 20
-653.763311720429
 10
-3026.159046983652
 20
-653.618651613941
 10
-3025.926741999306
 20
-653.467102230155
 10
-3025.759195257892
 20
-653.310323975836
 10
-3025.658242436573
 20
-653.150034546342
 10
-3025.624989595581
 20
-652.98799010621
 10
-3025.659801060005
 20
-652.825966048232
 10
-3025.762295428152
 20
-652.665737541894
 10
-3025.931349750279
 20
-652.509060084243
 10
-3026.165111831855
 20
-652.357650266292
 10
-3026.461020526596
 20
-652.213166965689
 10
-3026.815833796919
 20
-652.077193171712
 10
-3027.225664234388
 20
-651.951218641701
 10
-3027.686021650964
 20
-651.836623578969
 10
-3028.191862274455
 20
-651.734663511005
 10
-3028.737644009139
 20
-651.646455533648
 10
-3029.317387156118
 20
-651.572966071958
 10
-3029.924739928152
 20
-651.515000291856
 10
-3030.553048041176
 20
-651.473193278559
 10
-3031.195427620021
 20
-651.448003078454
 10
-3031.844840619596
 20
-651.439705680642
 10
-3032.494171935177
 20
-651.448391993153
 10
-3033.136307356992
 20
-651.473966846927
 10
-3033.764211514982
 20
-651.516150038516
 10
-3034.371004959794
 20
-651.574479400044
 10
-3034.950039535468
 20
-651.648315862822
 10
-3035.494971218024
 20
-651.73685045911
 10
-3035.999829621911
 20
-651.839113185344
 10
-3036.459083412808
 20
-651.953983629698
 10
-3036.867700910077
 20
-652.080203247544
 10
-3037.221205214912
 20
-652.216389150335
 10
-3037.515723260169
 20
-652.361049256823
 10
-3037.748028244515
 20
-652.512598640609
 10
-3037.915574985928
 20
-652.669376894928
 10
-3038.016527807249
 20
-652.829666324421
 10
-3038.04978064824
 20
-652.991710764555
 10
-3038.014969183816
 20
-653.153734822532
 10
-3037.912474815669
 20
-653.313963328869
 10
-3037.743420493542
 20
-653.470640786521
 10
-3037.509658411966
 20
-653.622050604471
 10
-3037.213749717225
 20
-653.766533905074
 10
-3036.858936446901
 20
-653.902507699052
 10
-3036.449106009434
 20
-654.028482229064
 10
-3036.07490312191
 20
-654.123399110931
  0
ARC
  5
2F52
330
2F3F
100
AcDbEntity
  8
外形線
100
AcDbCircle
 10
-3031.837385121911
 20
-620.803069368681
 30
0.0
 40
34.15159996140045
100
AcDbArc
 50
255.26831657715
 51
262.87239111701
  0
LWPOLYLINE
  5
2F53
330
2F3F
100
AcDbEntity
  8
外形線
100
AcDbPolyline
 90
       34
 70
     0
 43
0.0
 10
-3020.164085121911
 20
-645.574914522911
 10
-3020.217826679511
 20
-645.015496411464
 10
-3020.378556521371
 20
-644.461229200047
 10
-3020.644794710875
 20
-643.917216361246
 10
-3021.014089832395
 20
-643.388466949451
 10
-3021.483041562971
 20
-642.879849479472
 10
-3022.047331981114
 20
-642.39604709919
 10
-3022.701765324525
 20
-641.941514468981
 10
-3023.440315830619
 20
-641.520436744971
 10
-3024.256183219338
 20
-641.136691043792
 10
-3025.141855307454
 20
-640.793810743611
 10
-3026.089177177755
 20
-640.494952950203
 10
-3027.089426266293
 20
-640.242869427561
 10
-3028.133392676296
 20
-640.039881260751
 10
-3029.211463979238
 20
-639.887857484282
 10
-3030.313713722268
 20
-639.788197872775
 10
-3031.429992827054
 20
-639.74182005239
 10
-3032.550023038462
 20
-639.749151051702
 10
-3033.663491562665
 20
-639.810123369776
 10
-3034.760146023239
 20
-639.924175597698
 10
-3035.829888860994
 20
-640.090257587801
 10
-3036.862870308282
 20
-640.30684012301
 10
-3037.849579081758
 20
-640.571928997268
 10
-3038.780929958494
 20
-640.88308337739
 10
-3039.64834742912
 20
-641.237438277289
 10
-3040.443844657696
 20
-641.631730937631
 10
-3041.160097021345
 20
-642.062330868031
 10
-3041.790509552464
 20
-642.525273275162
 10
-3042.329277662574
 20
-643.016295569004
 10
-3042.771440588665
 20
-643.530876611082
 10
-3043.112927069931
 20
-644.064278343314
 10
-3043.350592834335
 20
-644.611589414165
 10
-3043.482249549808
 20
-645.167770400432
 10
-3043.510685121911
 20
-645.574914522911
  0
ARC
  5
2F54
330
2F3F
100
AcDbEntity
  8
外形線
100
AcDbCircle
 10
-3031.837385121911
 20
-625.986454710612
 30
0.0
 40
13.57645981229912
100
AcDbArc
 50
239.247497502359
 51
300.752502497641
  0
LINE
  5
2F55
330
2F3F
100
AcDbEntity
  8
外形線
100
AcDbLine
 10
-3043.510685121911
 20
-645.574914522911
 30
0.0
 11
-3043.510685121911
 21
-649.955767263438
 31
0.0
  0
ARC
  5
2F56
330
2F3F
100
AcDbEntity
  8
外形線
100
AcDbCircle
 10
-3039.502685121911
 20
-649.955767263438
 30
0.0
 40
4.007999999999999
100
AcDbArc
 50
180.0
 51
255.26831657715
  0
ARC
  5
2F57
330
2F3F
100
AcDbEntity
  8
外形線
100
AcDbCircle
 10
-3046.230136312884
 20
-636.064530573833
 30
0.0
 40
7.618315752702329
100
AcDbArc
 50
273.828163206421
 51
347.958626091838
  0
LINE
  5
2F58
330
2F3F
100
AcDbEntity
  8
外形線
100
AcDbLine
 10
-3043.513436239113
 20
-645.578091239426
 30
0.0
 11
-3045.721504395382
 21
-643.665848122809
 31
0.0
  0
LINE
  5
2F59
330
2F3F
100
AcDbEntity
  8
外形線
100
AcDbLine
 10
-3045.721504395382
 20
-634.988273576889
 30
0.0
 11
-3045.721504395382
 21
-643.665848122809
 31
0.0
  0
LINE
  5
2F5A
330
2F3F
100
AcDbEntity
  8
外形線
100
AcDbLine
 10
-3020.164085121911
 20
-645.574914522911
 30
0.0
 11
-3020.164085121911
 21
-649.955767263438
 31
0.0
  0
LWPOLYLINE
  5
2F5B
330
2F3F
100
AcDbEntity
  8
外形線
100
AcDbPolyline
 90
       29
 70
     0
 43
0.0
 10
-3027.674940621911
 20
-653.049280022638
 10
-3027.701938707542
 20
-652.947308555312
 10
-3027.782585869251
 20
-652.846648062603
 10
-3027.915845283851
 20
-652.748592664861
 10
-3028.100003729843
 20
-652.654402990584
 10
-3028.332693613086
 20
-652.56528996941
 10
-3028.610923405278
 20
-652.482399264063
 10
-3028.9311161039
 20
-652.406796541377
 10
-3029.289155219196
 20
-652.339453771776
 10
-3029.680437696951
 20
-652.281236733347
 10
-3030.099933096692
 20
-652.232893881137
 10
-3030.542248264472
 20
-652.195046724809
 10
-3031.001696668819
 20
-652.16818183833
 10
-3031.472371508433
 20
-652.152644604435
 10
-3031.948221651714
 20
-652.148634774287
 10
-3032.423129431869
 20
-652.15620389942
 10
-3032.890989297393
 20
-652.175254668977
 10
-3033.345786306812
 20
-652.205542160767
 10
-3033.781673458494
 20
-652.246676990049
 10
-3034.193046861402
 20
-652.298130315587
 10
-3034.574617780326
 20
-652.359240638577
 10
-3034.921480629393
 20
-652.429222307066
 10
-3035.229176039693
 20
-652.507175616524
 10
-3035.493748190218
 20
-652.592098376703
 10
-3035.711795665032
 20
-652.682898796086
 10
-3035.88051518286
 20
-652.778409518273
 10
-3035.997737636882
 20
-652.877402629852
 10
-3036.061955981389
 20
-652.9786054468
 10
-3036.07490312191
 20
-653.049280022638
  0
ARC
  5
2F5C
330
2F3F
100
AcDbEntity
  8
外形線
100
AcDbCircle
 10
-3031.837385121911
 20
-620.803069368681
 30
0.0
 40
34.15159996140045
100
AcDbArc
 50
277.000695446903
 51
284.73168342285
  0
ARC
  5
2F5D
330
2F3F
100
AcDbEntity
  8
外形線
100
AcDbCircle
 10
-3024.172085121911
 20
-649.955767263438
 30
0.0
 40
4.007999999999999
100
AcDbArc
 50
284.73168342285
 51
0.0
  0
LINE
  5
2F5E
330
2F3F
100
AcDbEntity
  8
外形線
100
AcDbLine
 10
-3020.161334004708
 20
-645.578091239426
 30
0.0
 11
-3017.953265848439
 21
-643.665848122809
 31
0.0
  0
ARC
  5
2F5F
330
2F3F
100
AcDbEntity
  8
外形線
100
AcDbCircle
 10
-3017.444633930937
 20
-636.064530573833
 30
0.0
 40
7.618315752702329
100
AcDbArc
 50
192.041373908162
 51
266.171836793579
  0
LINE
  5
2F60
330
2F3F
100
AcDbEntity
  8
外形線
100
AcDbLine
 10
-3017.953265848439
 20
-643.665848122809
 30
0.0
 11
-3017.953265848439
 21
-634.988273576889
 31
0.0
  0
LWPOLYLINE
  5
2F61
330
2F3F
100
AcDbEntity
  8
外形線
100
AcDbPolyline
 90
       34
 70
     0
 43
0.0
 10
-3021.33893012191
 20
-629.269370629074
 10
-3021.387262926182
 20
-628.898532694609
 10
-3021.531816309708
 20
-628.531109288718
 10
-3021.771259282285
 20
-628.170483500357
 10
-3022.103387148015
 20
-627.819975828711
 10
-3022.525141805277
 20
-627.482813609361
 10
-3023.032639904511
 20
-627.162101298261
 10
-3023.621208604563
 20
-626.860791887133
 10
-3024.285428598347
 20
-626.581659713495
 10
-3025.019184011678
 20
-626.32727491566
 10
-3025.815718715819
 20
-626.099979767924
 10
-3026.667698535225
 20
-625.901867113831
 10
-3027.567278777729
 20
-625.734761096102
 10
-3028.506176465351
 20
-625.600200360651
 10
-3029.475746600679
 20
-625.499423889346
 10
-3030.467061766568
 20
-625.433359591953
 10
-3031.470994326257
 20
-625.402615762313
 10
-3032.478300467033
 20
-625.40747547741
 10
-3033.479705313585
 20
-625.44789399092
 10
-3034.465988327376
 20
-625.5234991452
 10
-3035.428068205709
 20
-625.633594797989
 10
-3036.357086498752
 20
-625.777167232194
 10
-3037.24448917464
 20
-625.952894489799
 10
-3038.082105381594
 20
-626.159158543935
 10
-3038.862222681892
 20
-626.394060197024
 10
-3039.577658064932
 20
-626.655436567837
 10
-3040.221824085545
 20
-626.940881006447
 10
-3040.788789518574
 20
-627.247765253711
 10
-3041.27333397125
 20
-627.57326364123
 10
-3041.670995950487
 20
-627.91437910899
 10
-3041.978113942544
 20
-628.267970801094
 10
-3042.191860126797
 20
-628.630782985528
 10
-3042.310266413181
 20
-628.99947503163
 10
-3042.335840121911
 20
-629.269370629074
  0
LINE
  5
2F62
330
2F3F
100
AcDbEntity
  8
外形線
100
AcDbLine
 10
-3038.779444758647
 20
-628.97627357689
 30
0.0
 11
-3024.895325485175
 21
-628.97627357689
 31
0.0
  0
LINE
  5
2F63
330
2F3F
100
AcDbEntity
  8
外形線
100
AcDbLine
 10
-3038.779444758647
 20
-620.298699030969
 30
0.0
 11
-3024.895325485175
 21
-620.298699030969
 31
0.0
  0
LINE
  5
2F64
330
2F3F
100
AcDbEntity
  8
外形線
100
AcDbLine
 10
-3038.779444758647
 20
-624.637486303929
 30
0.0
 11
-3024.895325485175
 21
-624.637486303929
 31
0.0
  0
LINE
  5
2F65
330
2F3F
100
AcDbEntity
  8
外形線
100
AcDbLine
 10
-3016.68737612191
 20
-618.495502022639
 30
0.0
 11
-3039.78736712191
 21
-618.495502022639
 31
0.0
  0
LINE
  5
2F66
330
2F3F
100
AcDbEntity
  8
外形線
100
AcDbLine
 10
-3039.468583886739
 20
-620.895511022639
 30
0.0
 11
-3042.187376121911
 21
-620.895511022639
 31
0.0
  0
LINE
  5
2F67
330
2F3F
100
AcDbEntity
  8
外形線
100
AcDbLine
 10
-3045.721504395382
 20
-626.310699030969
 30
0.0
 11
-3038.779444758647
 21
-620.298699030969
 31
0.0
  0
ARC
  5
2F68
330
2F3F
100
AcDbEntity
  8
外形線
100
AcDbCircle
 10
-3039.78736712191
 20
-623.895511022639
 30
0.0
 40
5.4
100
AcDbArc
 50
89.999981276021
 51
180.00001984784
  0
LINE
  5
2F69
330
2F3F
100
AcDbEntity
  8
外形線
100
AcDbLine
 10
-3038.779444758647
 20
-624.637486303929
 30
0.0
 11
-3045.721504395382
 21
-630.649486303929
 31
0.0
  0
ARC
  5
2F6A
330
2F3F
100
AcDbEntity
  8
外形線
100
AcDbCircle
 10
-3042.187376121911
 20
-623.895511022639
 30
0.0
 40
3.0
100
AcDbArc
 50
89.999981276021
 51
211.533239298809
  0
ARC
  5
2F6B
330
2F3F
100
AcDbEntity
  8
外形線
100
AcDbCircle
 10
-3043.687376121911
 20
-623.745502022639
 30
0.0
 40
3.0
100
AcDbArc
 50
180.00001984784
 51
232.575749003279
  0
LINE
  5
2F6C
330
2F3F
100
AcDbEntity
  8
外形線
100
AcDbLine
 10
-3043.216504395382
 20
-632.818879940409
 30
0.0
 11
-3045.721504395382
 21
-630.649486303929
 31
0.0
  0
LINE
  5
2F6D
330
2F3F
100
AcDbEntity
  8
外形線
100
AcDbLine
 10
-3042.335840121911
 20
-629.269370629074
 30
0.0
 11
-3042.335840121911
 21
-632.056202307377
 31
0.0
  0
LINE
  5
2F6E
330
2F3F
100
AcDbEntity
  8
外形線
100
AcDbLine
 10
-3045.721504395382
 20
-630.649486303929
 30
0.0
 11
-3045.721504395382
 21
-626.310699030969
 31
0.0
  0
LINE
  5
2F6F
330
2F3F
100
AcDbEntity
  8
細線
100
AcDbLine
 10
-3040.980635121911
 20
-630.882560350041
 30
0.0
 11
-3040.980635121911
 21
-627.331019140395
 31
0.0
  0
LINE
  5
2F70
330
2F3F
100
AcDbEntity
  8
外形線
100
AcDbLine
 10
-3038.779444758647
 20
-624.637486303929
 30
0.0
 11
-3038.779444758647
 21
-620.298699030969
 31
0.0
  0
LINE
  5
2F71
330
2F3F
100
AcDbEntity
  8
細線
100
AcDbLine
 10
-3022.694135121911
 20
-630.882560350041
 30
0.0
 11
-3022.694135121911
 21
-627.227614822548
 31
0.0
  0
LINE
  5
2F72
330
2F3F
100
AcDbEntity
  8
外形線
100
AcDbLine
 10
-3016.68737612191
 20
-620.895511022639
 30
0.0
 11
-3024.206186357083
 21
-620.895511022639
 31
0.0
  0
LINE
  5
2F73
330
2F3F
100
AcDbEntity
  8
外形線
100
AcDbLine
 10
-3017.953265848439
 20
-626.310699030969
 30
0.0
 11
-3024.895325485175
 21
-620.298699030969
 31
0.0
  0
LINE
  5
2F74
330
2F3F
100
AcDbEntity
  8
外形線
100
AcDbLine
 10
-3024.895325485175
 20
-624.637486303929
 30
0.0
 11
-3024.895325485175
 21
-620.298699030969
 31
0.0
  0
LINE
  5
2F75
330
2F3F
100
AcDbEntity
  8
外形線
100
AcDbLine
 10
-3016.68737612191
 20
-629.295497522639
 30
0.0
 11
-3017.953265848439
 21
-629.295497522639
 31
0.0
  0
LINE
  5
2F76
330
2F3F
100
AcDbEntity
  8
外形線
100
AcDbLine
 10
-3020.458265848439
 20
-632.818879940409
 30
0.0
 11
-3017.953265848439
 21
-630.649486303929
 31
0.0
  0
LINE
  5
2F77
330
2F3F
100
AcDbEntity
  8
外形線
100
AcDbLine
 10
-3024.895325485175
 20
-624.637486303929
 30
0.0
 11
-3017.953265848439
 21
-630.649486303929
 31
0.0
  0
LINE
  5
2F78
330
2F3F
100
AcDbEntity
  8
外形線
100
AcDbLine
 10
-3021.33893012191
 20
-629.269370629074
 30
0.0
 11
-3021.33893012191
 21
-632.056202307377
 31
0.0
  0
LINE
  5
2F79
330
2F3F
100
AcDbEntity
  8
外形線
100
AcDbLine
 10
-3017.953265848439
 20
-630.649486303929
 30
0.0
 11
-3017.953265848439
 21
-626.310699030969
 31
0.0
  0
LINE
  5
2F7A
330
2F3F
100
AcDbEntity
  8
外形線
100
AcDbLine
 10
-3048.487394121911
 20
-562.245502022639
 30
0.0
 11
-3048.487394121911
 21
-603.345493022639
 31
0.0
  0
LINE
  5
2F7B
330
2F3F
100
AcDbEntity
  8
外形線
100
AcDbLine
 10
-3048.487394121911
 20
-603.345493022639
 30
0.0
 11
-3046.687376121911
 21
-603.345493022639
 31
0.0
  0
LINE
  5
2F7C
330
2F3F
100
AcDbEntity
  8
外形線
100
AcDbLine
 10
-3043.687376121911
 20
-558.495502022639
 30
0.0
 11
-3019.68737612191
 21
-558.495502022639
 31
0.0
  0
LINE
  5
2F7D
330
2F3F
100
AcDbEntity
  8
外形線
100
AcDbLine
 10
-3048.487394121911
 20
-562.245502022639
 30
0.0
 11
-3046.687376121911
 21
-562.245502022639
 31
0.0
  0
ARC
  5
2F7E
330
2F3F
100
AcDbEntity
  8
外形線
100
AcDbCircle
 10
-3043.687376121911
 20
-561.495502022639
 30
0.0
 40
3.0
100
AcDbArc
 50
89.999981276021
 51
180.00001984784
  0
LINE
  5
2F7F
330
2F3F
100
AcDbEntity
  8
外形線
100
AcDbLine
 10
-3046.687376121911
 20
-562.245502022639
 30
0.0
 11
-3046.687376121911
 21
-561.495502022639
 31
0.0
  0
LINE
  5
2F80
330
2F3F
100
AcDbEntity
  8
外形線
100
AcDbLine
 10
-2963.887356621911
 20
-617.370502022639
 30
0.0
 11
-2963.887356621911
 21
-567.870502022639
 31
0.0
  0
LINE
  5
2F81
330
2F3F
100
AcDbEntity
  8
外形線
100
AcDbLine
 10
-2965.387356621911
 20
-620.580112022639
 30
0.0
 11
-2965.387356621911
 21
-564.660892022639
 31
0.0
  0
LINE
  5
2F82
330
2F3F
100
AcDbEntity
  8
外形線
100
AcDbLine
 10
-3004.68737612191
 20
-556.620502022639
 30
0.0
 11
-3004.68737612191
 21
-628.620502022639
 31
0.0
  0
LINE
  5
2F83
330
2F3F
100
AcDbEntity
  8
外形線
100
AcDbLine
 10
-3004.68737612191
 20
-626.745502022639
 30
0.0
 11
-2969.67289562191
 21
-625.074985022639
 31
0.0
  0
LINE
  5
2F84
330
2F3F
100
AcDbEntity
  8
外形線
100
AcDbLine
 10
-2963.887356621911
 20
-617.370502022639
 30
0.0
 11
-2965.387356621911
 21
-617.370502022639
 31
0.0
  0
ARC
  5
2F85
330
2F3F
100
AcDbEntity
  8
外形線
100
AcDbCircle
 10
-2969.887356621911
 20
-620.580112022639
 30
0.0
 40
4.5
100
AcDbArc
 50
272.731520116378
 51
359.999982399908
  0
LINE
  5
2F86
330
2F3F
100
AcDbEntity
  8
外形線
100
AcDbLine
 10
-3004.68737612191
 20
-558.495502022639
 30
0.0
 11
-2969.67289562191
 21
-560.166019022639
 31
0.0
  0
LINE
  5
2F87
330
2F3F
100
AcDbEntity
  8
外形線
100
AcDbLine
 10
-2963.887356621911
 20
-567.870502022639
 30
0.0
 11
-2965.387356621911
 21
-567.870502022639
 31
0.0
  0
ARC
  5
2F88
330
2F3F
100
AcDbEntity
  8
外形線
100
AcDbCircle
 10
-2969.887356621911
 20
-564.660892022639
 30
0.0
 40
4.5
100
AcDbArc
 50
0.0
 51
87.268519579302
  0
ENDBLK
  5
2F89
330
2F3F
100
AcDbEntity
  8
0
 48
10.0
100
AcDbBlockEnd
  0
BLOCK
  5
348A
330
347E
100
AcDbEntity
  8
0
 48
10.0
100
AcDbBlockBegin
  2
*D9
 70
     1
 10
0.0
 20
0.0
 30
0.0
  3
*D9
  1
*D9
  0
LINE
  5
38C0
330
347E
100
AcDbEntity
  8
寸法線
 62
     0
 48
10.0
100
AcDbLine
 10
186.509224298427
 20
658.51936369486
 30
0.0
 11
185.884224298427
 21
658.51936369486
 31
0.0
  0
LINE
  5
38C1
330
347E
100
AcDbEntity
  8
寸法線
 62
     0
 48
10.0
100
AcDbLine
 10
186.509224298427
 20
652.51936369486
 30
0.0
 11
185.884224298427
 21
652.51936369486
 31
0.0
  0
LINE
  5
38C2
330
347E
100
AcDbEntity
  8
寸法線
 62
     0
 48
10.0
100
AcDbLine
 10
187.134224298427
 20
658.51936369486
 30
0.0
 11
187.134224298427
 21
681.015057592498
 31
0.0
  0
LINE
  5
38C3
330
347E
100
AcDbEntity
  8
寸法線
 62
     0
 48
10.0
100
AcDbLine
 10
187.134224298427
 20
658.51936369486
 30
0.0
 11
187.134224298427
 21
652.51936369486
 31
0.0
  0
LINE
  5
38C4
330
347E
100
AcDbEntity
  8
寸法線
 62
     0
 48
10.0
100
AcDbLine
 10
187.134224298427
 20
664.51936369486
 30
0.0
 11
187.134224298427
 21
670.51936369486
 31
0.0
  0
LINE
  5
38C5
330
347E
100
AcDbEntity
  8
寸法線
 62
     0
 48
10.0
100
AcDbLine
 10
187.134224298427
 20
646.51936369486
 30
0.0
 11
187.134224298427
 21
640.51936369486
 31
0.0
  0
INSERT
  5
38C6
330
347E
100
AcDbEntity
  8
寸法線
 62
     0
100
AcDbBlockReference
  2
_OPEN30
 10
187.134224298427
 20
658.51936369486
 30
0.0
 41
6.0
 42
6.0
 43
6.0
 50
270.0
  0
INSERT
  5
38C7
330
347E
100
AcDbEntity
  8
寸法線
 62
     0
100
AcDbBlockReference
  2
_OPEN30
 10
187.134224298427
 20
652.51936369486
 30
0.0
 41
6.0
 42
6.0
 43
6.0
 50
90.0
  0
MTEXT
  5
38C8
330
347E
100
AcDbEntity
  8
寸法線
 62
     0
 48
10.0
100
AcDbMText
 10
183.509224298427
 20
675.943182592498
 30
0.0
 40
6.0
 41
0.0
 71
     5
 72
     1
  1
\A1;φ6
 11
0.0
 21
1.0
 31
0.0
  0
POINT
  5
38C9
330
347E
100
AcDbEntity
  8
DEFPOINTS
 62
     0
100
AcDbPoint
 10
187.134224298427
 20
658.51936369486
 30
0.0
  0
POINT
  5
38CA
330
347E
100
AcDbEntity
  8
DEFPOINTS
 62
     0
100
AcDbPoint
 10
187.134224298427
 20
652.51936369486
 30
0.0
  0
POINT
  5
3A72
330
347E
100
AcDbEntity
  8
DEFPOINTS
 62
     0
100
AcDbPoint
 10
187.134224298428
 20
652.51936369486
 30
0.0
  0
ENDBLK
  5
348B
330
347E
100
AcDbEntity
  8
0
 48
10.0
100
AcDbBlockEnd
  0
BLOCK
  5
34C3
330
34B9
100
AcDbEntity
  8
0
 48
10.0
100
AcDbBlockBegin
  2
*D10
 70
     1
 10
0.0
 20
0.0
 30
0.0
  3
*D10
  1
*D10
  0
LINE
  5
3902
330
34B9
100
AcDbEntity
  8
寸法線
 62
     0
 48
10.0
100
AcDbLine
 10
123.895173264574
 20
695.51921119486
 30
0.0
 11
103.898717092568
 21
695.51921119486
 31
0.0
  0
LINE
  5
3903
330
34B9
100
AcDbEntity
  8
寸法線
 62
     0
 48
10.0
100
AcDbLine
 10
123.895173264574
 20
615.51942619486
 30
0.0
 11
103.898717092568
 21
615.51942619486
 31
0.0
  0
LINE
  5
3904
330
34B9
100
AcDbEntity
  8
寸法線
 62
     0
 48
10.0
100
AcDbLine
 10
105.148717092568
 20
689.51921119486
 30
0.0
 11
105.148717092568
 21
621.51942619486
 31
0.0
  0
INSERT
  5
3905
330
34B9
100
AcDbEntity
  8
寸法線
 62
     0
100
AcDbBlockReference
  2
_OPEN30
 10
105.148717092568
 20
695.51921119486
 30
0.0
 41
6.0
 42
6.0
 43
6.0
 50
90.0
  0
INSERT
  5
3906
330
34B9
100
AcDbEntity
  8
寸法線
 62
     0
100
AcDbBlockReference
  2
_OPEN30
 10
105.148717092568
 20
615.51942619486
 30
0.0
 41
6.0
 42
6.0
 43
6.0
 50
270.0
  0
MTEXT
  5
3907
330
34B9
100
AcDbEntity
  8
寸法線
 62
     0
 48
10.0
100
AcDbMText
 10
101.517467092568
 20
655.51931869486
 30
0.0
 40
6.0
 41
0.0
 71
     5
 72
     1
  1
\A1;80
 11
0.0
 21
1.0
 31
0.0
  0
POINT
  5
3908
330
34B9
100
AcDbEntity
  8
DEFPOINTS
 62
     0
100
AcDbPoint
 10
124.520173264574
 20
695.51921119486
 30
0.0
  0
POINT
  5
3909
330
34B9
100
AcDbEntity
  8
DEFPOINTS
 62
     0
100
AcDbPoint
 10
124.520173264574
 20
615.51942619486
 30
0.0
  0
POINT
  5
390A
330
34B9
100
AcDbEntity
  8
DEFPOINTS
 62
     0
100
AcDbPoint
 10
105.148717092568
 20
615.51942619486
 30
0.0
  0
ENDBLK
  5
34C4
330
34B9
100
AcDbEntity
  8
0
 48
10.0
100
AcDbBlockEnd
  0
BLOCK
  5
34D0
330
34C6
100
AcDbEntity
  8
0
 48
10.0
100
AcDbBlockBegin
  2
*D11
 70
     1
 10
0.0
 20
0.0
 30
0.0
  3
*D11
  1
*D11
  0
LINE
  5
390B
330
34C6
100
AcDbEntity
  8
寸法線
 62
     0
 48
10.0
100
AcDbLine
 10
124.520173264574
 20
614.89442619486
 30
0.0
 11
124.520173264574
 21
595.280612684998
 31
0.0
  0
LINE
  5
390C
330
34C6
100
AcDbEntity
  8
寸法線
 62
     0
 48
10.0
100
AcDbLine
 10
159.520166764574
 20
614.89442619486
 30
0.0
 11
159.520166764574
 21
595.280612684998
 31
0.0
  0
LINE
  5
390D
330
34C6
100
AcDbEntity
  8
寸法線
 62
     0
 48
10.0
100
AcDbLine
 10
130.520173264574
 20
596.530612684998
 30
0.0
 11
153.520166764574
 21
596.530612684998
 31
0.0
  0
INSERT
  5
390E
330
34C6
100
AcDbEntity
  8
寸法線
 62
     0
100
AcDbBlockReference
  2
_OPEN30
 10
124.520173264574
 20
596.530612684998
 30
0.0
 41
6.0
 42
6.0
 43
6.0
 50
180.0
  0
INSERT
  5
390F
330
34C6
100
AcDbEntity
  8
寸法線
 62
     0
100
AcDbBlockReference
  2
_OPEN30
 10
159.520166764574
 20
596.530612684998
 30
0.0
 41
6.0
 42
6.0
 43
6.0
  0
MTEXT
  5
3910
330
34C6
100
AcDbEntity
  8
寸法線
 62
     0
 48
10.0
100
AcDbMText
 10
142.020170014574
 20
600.158737684998
 30
0.0
 40
6.0
 41
0.0
 71
     5
 72
     1
  1
\A1;35
  0
POINT
  5
3911
330
34C6
100
AcDbEntity
  8
DEFPOINTS
 62
     0
100
AcDbPoint
 10
124.520173264574
 20
615.51942619486
 30
0.0
  0
POINT
  5
3912
330
34C6
100
AcDbEntity
  8
DEFPOINTS
 62
     0
100
AcDbPoint
 10
159.520166764574
 20
615.51942619486
 30
0.0
  0
POINT
  5
3913
330
34C6
100
AcDbEntity
  8
DEFPOINTS
 62
     0
100
AcDbPoint
 10
159.520166764574
 20
596.530612684998
 30
0.0
  0
ENDBLK
  5
34D1
330
34C6
100
AcDbEntity
  8
0
 48
10.0
100
AcDbBlockEnd
  0
BLOCK
  5
3736
330
372C
100
AcDbEntity
  8
0
 48
10.0
100
AcDbBlockBegin
  2
*D16
 70
     1
 10
0.0
 20
0.0
 30
0.0
  3
*D16
  1
*D16
  0
LINE
  5
3A00
330
372C
100
AcDbEntity
  8
寸法線
 62
     0
 48
10.0
100
AcDbLine
 10
193.662229192505
 20
613.022562526784
 30
0.0
 11
193.662229192505
 21
559.258260870498
 31
0.0
  0
LINE
  5
3A01
330
372C
100
AcDbEntity
  8
寸法線
 62
     0
 48
10.0
100
AcDbLine
 10
218.662229192495
 20
634.344345917663
 30
0.0
 11
218.662229192495
 21
559.258260870498
 31
0.0
  0
LINE
  5
3A02
330
372C
100
AcDbEntity
  8
寸法線
 62
     0
 48
10.0
100
AcDbLine
 10
199.662229192505
 20
560.508260870498
 30
0.0
 11
212.662229192495
 21
560.508260870498
 31
0.0
  0
INSERT
  5
3A03
330
372C
100
AcDbEntity
  8
寸法線
 62
     0
100
AcDbBlockReference
  2
_OPEN30
 10
193.662229192505
 20
560.508260870498
 30
0.0
 41
6.0
 42
6.0
 43
6.0
 50
180.0
  0
INSERT
  5
3A04
330
372C
100
AcDbEntity
  8
寸法線
 62
     0
100
AcDbBlockReference
  2
_OPEN30
 10
218.662229192495
 20
560.508260870498
 30
0.0
 41
6.0
 42
6.0
 43
6.0
  0
MTEXT
  5
3A05
330
372C
100
AcDbEntity
  8
寸法線
 62
     0
 48
10.0
100
AcDbMText
 10
206.1622291925
 20
564.136385870498
 30
0.0
 40
6.0
 41
0.0
 71
     5
 72
     1
  1
\A1;25
  0
POINT
  5
3A06
330
372C
100
AcDbEntity
  8
DEFPOINTS
 62
     0
100
AcDbPoint
 10
193.662229192505
 20
613.647562526784
 30
0.0
  0
POINT
  5
3A07
330
372C
100
AcDbEntity
  8
DEFPOINTS
 62
     0
100
AcDbPoint
 10
218.662229192495
 20
634.969345917663
 30
0.0
  0
POINT
  5
3A08
330
372C
100
AcDbEntity
  8
DEFPOINTS
 62
     0
100
AcDbPoint
 10
218.662229192495
 20
560.508260870498
 30
0.0
  0
ENDBLK
  5
3737
330
372C
100
AcDbEntity
  8
0
 48
10.0
100
AcDbBlockEnd
  0
BLOCK
  5
3795
330
378B
100
AcDbEntity
  8
0
 48
10.0
100
AcDbBlockBegin
  2
*D17
 70
     1
 10
0.0
 20
0.0
 30
0.0
  3
*D17
  1
*D17
  0
LINE
  5
38E7
330
378B
100
AcDbEntity
  8
寸法線
 62
     0
 48
10.0
100
AcDbLine
 10
248.662229192495
 20
635.994341417663
 30
0.0
 11
248.662229192495
 21
559.258260870498
 31
0.0
  0
LINE
  5
38E8
330
378B
100
AcDbEntity
  8
寸法線
 62
     0
 48
10.0
100
AcDbLine
 10
218.662229192495
 20
634.344323640466
 30
0.0
 11
218.662229192495
 21
559.258260870498
 31
0.0
  0
LINE
  5
38E9
330
378B
100
AcDbEntity
  8
寸法線
 62
     0
 48
10.0
100
AcDbLine
 10
242.662229192495
 20
560.508260870498
 30
0.0
 11
224.662229192495
 21
560.508260870498
 31
0.0
  0
INSERT
  5
38EA
330
378B
100
AcDbEntity
  8
寸法線
 62
     0
100
AcDbBlockReference
  2
_OPEN30
 10
248.662229192495
 20
560.508260870498
 30
0.0
 41
6.0
 42
6.0
 43
6.0
  0
INSERT
  5
38EB
330
378B
100
AcDbEntity
  8
寸法線
 62
     0
100
AcDbBlockReference
  2
_OPEN30
 10
218.662229192495
 20
560.508260870498
 30
0.0
 41
6.0
 42
6.0
 43
6.0
 50
180.0
  0
MTEXT
  5
38EC
330
378B
100
AcDbEntity
  8
寸法線
 62
     0
 48
10.0
100
AcDbMText
 10
233.662229192495
 20
564.136385870498
 30
0.0
 40
6.0
 41
0.0
 71
     5
 72
     1
  1
\A1;30
  0
POINT
  5
38ED
330
378B
100
AcDbEntity
  8
DEFPOINTS
 62
     0
100
AcDbPoint
 10
248.662229192495
 20
636.619341417663
 30
0.0
  0
POINT
  5
38EE
330
378B
100
AcDbEntity
  8
DEFPOINTS
 62
     0
100
AcDbPoint
 10
218.662229192495
 20
634.969323640466
 30
0.0
  0
POINT
  5
38EF
330
378B
100
AcDbEntity
  8
DEFPOINTS
 62
     0
100
AcDbPoint
 10
218.662229192495
 20
560.508260870498
 30
0.0
  0
ENDBLK
  5
3796
330
378B
100
AcDbEntity
  8
0
 48
10.0
100
AcDbBlockEnd
  0
BLOCK
  5
37AF
330
37A5
100
AcDbEntity
  8
0
 48
10.0
100
AcDbBlockBegin
  2
*D18
 70
     1
 10
0.0
 20
0.0
 30
0.0
  3
*D18
  1
*D18
  0
LINE
  5
38F9
330
37A5
100
AcDbEntity
  8
寸法線
 62
     0
 48
10.0
100
AcDbLine
 10
218.662229192495
 20
558.633260870498
 30
0.0
 11
218.662229192495
 21
540.730902690335
 31
0.0
  0
LINE
  5
38FA
330
37A5
100
AcDbEntity
  8
寸法線
 62
     0
 48
10.0
100
AcDbLine
 10
331.662229192495
 20
559.883260647695
 30
0.0
 11
331.662229192495
 21
540.730902690335
 31
0.0
  0
LINE
  5
38FB
330
37A5
100
AcDbEntity
  8
寸法線
 62
     0
 48
10.0
100
AcDbLine
 10
224.662229192495
 20
541.980902690335
 30
0.0
 11
325.662229192495
 21
541.980902690335
 31
0.0
  0
INSERT
  5
38FC
330
37A5
100
AcDbEntity
  8
寸法線
 62
     0
100
AcDbBlockReference
  2
_OPEN30
 10
218.662229192495
 20
541.980902690335
 30
0.0
 41
6.0
 42
6.0
 43
6.0
 50
180.0
  0
INSERT
  5
38FD
330
37A5
100
AcDbEntity
  8
寸法線
 62
     0
100
AcDbBlockReference
  2
_OPEN30
 10
331.662229192495
 20
541.980902690335
 30
0.0
 41
6.0
 42
6.0
 43
6.0
  0
MTEXT
  5
38FE
330
37A5
100
AcDbEntity
  8
寸法線
 62
     0
 48
10.0
100
AcDbMText
 10
275.162229192495
 20
545.609027690335
 30
0.0
 40
6.0
 41
0.0
 71
     5
 72
     1
  1
\A1;113
  0
POINT
  5
38FF
330
37A5
100
AcDbEntity
  8
DEFPOINTS
 62
     0
100
AcDbPoint
 10
218.662229192495
 20
559.258260870498
 30
0.0
  0
POINT
  5
3900
330
37A5
100
AcDbEntity
  8
DEFPOINTS
 62
     0
100
AcDbPoint
 10
331.662229192495
 20
560.508260647695
 30
0.0
  0
POINT
  5
3901
330
37A5
100
AcDbEntity
  8
DEFPOINTS
 62
     0
100
AcDbPoint
 10
331.662229192495
 20
541.980902690335
 30
0.0
  0
ENDBLK
  5
37B0
330
37A5
100
AcDbEntity
  8
0
 48
10.0
100
AcDbBlockEnd
  0
BLOCK
  5
37E5
330
37DB
100
AcDbEntity
  8
0
 48
10.0
100
AcDbBlockBegin
  2
*D19
 70
     1
 10
0.0
 20
0.0
 30
0.0
  3
*D19
  1
*D19
  0
LINE
  5
392F
330
37DB
100
AcDbEntity
  8
寸法線
 62
     0
 48
10.0
100
AcDbLine
 10
233.612229192491
 20
673.019319140466
 30
0.0
 11
236.214947802587
 21
673.019319140466
 31
0.0
  0
LINE
  5
3930
330
37DB
100
AcDbEntity
  8
寸法線
 62
     0
 48
10.0
100
AcDbLine
 10
233.612229192491
 20
638.019319140466
 30
0.0
 11
236.214947802587
 21
638.019319140466
 31
0.0
  0
LINE
  5
3931
330
37DB
100
AcDbEntity
  8
寸法線
 62
     0
 48
10.0
100
AcDbLine
 10
234.964947802587
 20
644.019319140466
 30
0.0
 11
234.964947802587
 21
667.019319140466
 31
0.0
  0
LINE
  5
3932
330
37DB
100
AcDbEntity
  8
寸法線
 62
     0
 48
10.0
100
AcDbLine
 10
234.964947802587
 20
673.019319140466
 30
0.0
 11
234.964947802587
 21
694.01784727789
 31
0.0
  0
INSERT
  5
3933
330
37DB
100
AcDbEntity
  8
寸法線
 62
     0
 48
10.0
100
AcDbBlockReference
  2
_OPEN30
 10
234.964947802587
 20
638.019319140466
 30
0.0
 41
6.0
 42
6.0
 43
6.0
 50
270.0
  0
INSERT
  5
3934
330
37DB
100
AcDbEntity
  8
寸法線
 62
     0
 48
10.0
100
AcDbBlockReference
  2
_OPEN30
 10
234.964947802587
 20
673.019319140466
 30
0.0
 41
6.0
 42
6.0
 43
6.0
 50
90.0
  0
MTEXT
  5
3935
330
37DB
100
AcDbEntity
  8
寸法線
 62
     0
 48
10.0
100
AcDbMText
 10
231.339947802587
 20
686.518583209178
 30
0.0
 40
6.0
 41
0.0
 71
     5
 72
     1
  1
\A1;φ35
 11
6.123031769111886E-17
 21
1.0
 31
0.0
  0
POINT
  5
3936
330
37DB
100
AcDbEntity
  8
DEFPOINTS
 62
     0
 48
10.0
100
AcDbPoint
 10
232.987229192491
 20
673.019319140466
 30
0.0
  0
POINT
  5
3937
330
37DB
100
AcDbEntity
  8
DEFPOINTS
 62
     0
 48
10.0
100
AcDbPoint
 10
232.987229192491
 20
638.019319140466
 30
0.0
  0
POINT
  5
3938
330
37DB
100
AcDbEntity
  8
DEFPOINTS
 62
     0
 48
10.0
100
AcDbPoint
 10
234.964947802587
 20
638.019319140466
 30
0.0
  0
ENDBLK
  5
37E6
330
37DB
100
AcDbEntity
  8
0
 48
10.0
100
AcDbBlockEnd
  0
BLOCK
  5
3889
330
387F
100
AcDbEntity
  8
0
 48
10.0
100
AcDbBlockBegin
  2
*D20
 70
     1
 10
0.0
 20
0.0
 30
0.0
  3
*D20
  1
*D20
  0
LINE
  5
38A3
330
387F
100
AcDbEntity
  8
寸法線
 62
     0
 48
10.0
100
AcDbLine
 10
124.520173264574
 20
595.905612684998
 30
0.0
 11
124.520173264574
 21
540.730902690335
 31
0.0
  0
LINE
  5
38A4
330
387F
100
AcDbEntity
  8
寸法線
 62
     0
 48
10.0
100
AcDbLine
 10
218.662229192495
 20
634.344345917663
 30
0.0
 11
218.662229192495
 21
540.730902690335
 31
0.0
  0
LINE
  5
38A5
330
387F
100
AcDbEntity
  8
寸法線
 62
     0
 48
10.0
100
AcDbLine
 10
130.520173264574
 20
541.980902690335
 30
0.0
 11
212.662229192495
 21
541.980902690335
 31
0.0
  0
INSERT
  5
38A6
330
387F
100
AcDbEntity
  8
寸法線
 62
     0
100
AcDbBlockReference
  2
_OPEN30
 10
124.520173264574
 20
541.980902690335
 30
0.0
 41
6.0
 42
6.0
 43
6.0
 50
180.0
  0
INSERT
  5
38A7
330
387F
100
AcDbEntity
  8
寸法線
 62
     0
100
AcDbBlockReference
  2
_OPEN30
 10
218.662229192495
 20
541.980902690335
 30
0.0
 41
6.0
 42
6.0
 43
6.0
  0
POINT
  5
38A8
330
387F
100
AcDbEntity
  8
DEFPOINTS
 62
     0
100
AcDbPoint
 10
124.520173264574
 20
596.530612684998
 30
0.0
  0
POINT
  5
38A9
330
387F
100
AcDbEntity
  8
DEFPOINTS
 62
     0
100
AcDbPoint
 10
218.662229192495
 20
634.969345917663
 30
0.0
  0
POINT
  5
38AA
330
387F
100
AcDbEntity
  8
DEFPOINTS
 62
     0
100
AcDbPoint
 10
218.662229192495
 20
541.980902690335
 30
0.0
  0
ENDBLK
  5
388A
330
387F
100
AcDbEntity
  8
0
 48
10.0
100
AcDbBlockEnd
  0
BLOCK
  5
3E80
330
3E7F
100
AcDbEntity
  8
0
100
AcDbBlockBegin
  2
*D31
 70
     1
 10
0.0
 20
0.0
 30
0.0
  3
*D31
  1
*D31
  0
LINE
  5
3E82
330
3E7F
100
AcDbEntity
  8
寸法線
 62
     0
 48
10.0
100
AcDbLine
 10
195.087247192495
 20
668.739841417663
 30
0.0
 11
200.861213517781
 21
668.739841417663
 31
0.0
  0
LINE
  5
3E83
330
3E7F
100
AcDbEntity
  8
寸法線
 62
     0
 48
10.0
100
AcDbLine
 10
195.087247192495
 20
642.298841417663
 30
0.0
 11
200.861213517781
 21
642.298841417663
 31
0.0
  0
LINE
  5
3E84
330
3E7F
100
AcDbEntity
  8
寸法線
 62
     0
 48
10.0
100
AcDbLine
 10
199.611213517781
 20
668.739841417663
 30
0.0
 11
199.611213517781
 21
699.545171503553
 31
0.0
  0
LINE
  5
3E85
330
3E7F
100
AcDbEntity
  8
寸法線
 62
     0
 48
10.0
100
AcDbLine
 10
199.611213517781
 20
662.739841417663
 30
0.0
 11
199.611213517781
 21
648.298841417663
 31
0.0
  0
INSERT
  5
3E86
330
3E7F
100
AcDbEntity
  8
寸法線
 62
     0
100
AcDbBlockReference
  2
_OPEN30
 10
199.611213517781
 20
668.739841417663
 30
0.0
 41
6.0
 42
6.0
 43
6.0
 50
90.0
  0
INSERT
  5
3E87
330
3E7F
100
AcDbEntity
  8
寸法線
 62
     0
100
AcDbBlockReference
  2
_OPEN30
 10
199.611213517781
 20
642.298841417663
 30
0.0
 41
6.0
 42
6.0
 43
6.0
 50
270.0
  0
MTEXT
  5
3E88
330
3E7F
100
AcDbEntity
  8
寸法線
 62
     0
 48
10.0
100
AcDbMText
 10
195.983088517781
 20
687.220171503553
 30
0.0
 40
6.0
 41
0.0
 71
     5
 72
     1
  1
\A1;G 3/4"
 11
0.0
 21
1.0
 31
0.0
  0
POINT
  5
3E89
330
3E7F
100
AcDbEntity
  8
DEFPOINTS
 62
     0
100
AcDbPoint
 10
194.462247192495
 20
668.739841417663
 30
0.0
  0
POINT
  5
3E8A
330
3E7F
100
AcDbEntity
  8
DEFPOINTS
 62
     0
100
AcDbPoint
 10
194.462247192495
 20
642.298841417663
 30
0.0
  0
POINT
  5
3E8B
330
3E7F
100
AcDbEntity
  8
DEFPOINTS
 62
     0
100
AcDbPoint
 10
199.611213517781
 20
642.298841417663
 30
0.0
  0
ENDBLK
  5
3E81
330
3E7F
100
AcDbEntity
  8
0
100
AcDbBlockEnd
  0
BLOCK
  5
3EB4
330
3EB3
100
AcDbEntity
  8
0
100
AcDbBlockBegin
  2
*D35
 70
     1
 10
0.0
 20
0.0
 30
0.0
  3
*D35
  1
*D35
  0
LINE
  5
3EB6
330
3EB3
100
AcDbEntity
  8
寸法線
 62
     0
 48
10.0
100
AcDbLine
 10
248.662229192495
 20
634.344323640466
 30
0.0
 11
248.662229192495
 21
559.258260647695
 31
0.0
  0
LINE
  5
3EB7
330
3EB3
100
AcDbEntity
  8
寸法線
 62
     0
 48
10.0
100
AcDbLine
 10
331.662229192495
 20
580.067123093146
 30
0.0
 11
331.662229192495
 21
559.258260647695
 31
0.0
  0
LINE
  5
3EB8
330
3EB3
100
AcDbEntity
  8
寸法線
 62
     0
 48
10.0
100
AcDbLine
 10
254.662229192495
 20
560.508260647695
 30
0.0
 11
325.662229192495
 21
560.508260647695
 31
0.0
  0
INSERT
  5
3EB9
330
3EB3
100
AcDbEntity
  8
寸法線
 62
     0
100
AcDbBlockReference
  2
_OPEN30
 10
248.662229192495
 20
560.508260647695
 30
0.0
 41
6.0
 42
6.0
 43
6.0
 50
180.0
  0
INSERT
  5
3EBA
330
3EB3
100
AcDbEntity
  8
寸法線
 62
     0
100
AcDbBlockReference
  2
_OPEN30
 10
331.662229192495
 20
560.508260647695
 30
0.0
 41
6.0
 42
6.0
 43
6.0
  0
MTEXT
  5
3EBB
330
3EB3
100
AcDbEntity
  8
寸法線
 62
     0
 48
10.0
100
AcDbMText
 10
290.162229192495
 20
564.142635647695
 30
0.0
 40
6.0
 41
0.0
 71
     5
 72
     1
  1
\A1;83
  0
POINT
  5
3EBC
330
3EB3
100
AcDbEntity
  8
DEFPOINTS
 62
     0
100
AcDbPoint
 10
248.662229192495
 20
634.969323640466
 30
0.0
  0
POINT
  5
3EBD
330
3EB3
100
AcDbEntity
  8
DEFPOINTS
 62
     0
100
AcDbPoint
 10
331.662229192495
 20
580.692123093146
 30
0.0
  0
POINT
  5
3EBE
330
3EB3
100
AcDbEntity
  8
DEFPOINTS
 62
     0
100
AcDbPoint
 10
331.662229192495
 20
560.508260647695
 30
0.0
  0
ENDBLK
  5
3EB5
330
3EB3
100
AcDbEntity
  8
0
100
AcDbBlockEnd
  0
BLOCK
  5
3EC0
330
3EBF
100
AcDbEntity
  8
0
100
AcDbBlockBegin
  2
*D36
 70
     1
 10
0.0
 20
0.0
 30
0.0
  3
*D36
  1
*D36
  0
LINE
  5
3EC2
330
3EBF
100
AcDbEntity
  8
寸法線
 62
     0
 48
10.0
100
AcDbLine
 10
45.673334084975
 20
655.519341417663
 30
0.0
 11
51.686234331678
 21
655.519341417663
 31
0.0
  0
LINE
  5
3EC3
330
3EBF
100
AcDbEntity
  8
寸法線
 62
     0
 48
10.0
100
AcDbLine
 10
45.673334084975
 20
645.607877300896
 30
0.0
 11
51.686234331678
 21
645.607877300896
 31
0.0
  0
LINE
  5
3EC4
330
3EBF
100
AcDbEntity
  8
寸法線
 62
     0
 48
10.0
100
AcDbLine
 10
50.436234331678
 20
655.519341417663
 30
0.0
 11
50.436234331678
 21
645.607877300896
 31
0.0
  0
LINE
  5
3EC5
330
3EBF
100
AcDbEntity
  8
寸法線
 62
     0
 48
10.0
100
AcDbLine
 10
50.436234331678
 20
661.519341417663
 30
0.0
 11
50.436234331678
 21
667.519341417663
 31
0.0
  0
LINE
  5
3EC6
330
3EBF
100
AcDbEntity
  8
寸法線
 62
     0
 48
10.0
100
AcDbLine
 10
50.436234331678
 20
639.607877300896
 30
0.0
 11
50.436234331678
 21
633.607877300896
 31
0.0
  0
INSERT
  5
3EC7
330
3EBF
100
AcDbEntity
  8
寸法線
 62
     0
100
AcDbBlockReference
  2
_OPEN30
 10
50.436234331678
 20
655.519341417663
 30
0.0
 41
6.0
 42
6.0
 43
6.0
 50
270.0
  0
INSERT
  5
3EC8
330
3EBF
100
AcDbEntity
  8
寸法線
 62
     0
100
AcDbBlockReference
  2
_OPEN30
 10
50.436234331678
 20
645.607877300896
 30
0.0
 41
6.0
 42
6.0
 43
6.0
 50
90.0
  0
MTEXT
  5
3EC9
330
3EBF
100
AcDbEntity
  8
寸法線
 62
     0
 48
10.0
100
AcDbMText
 10
46.811234331678
 20
650.563609359279
 30
0.0
 40
6.0
 41
0.0
 71
     5
 72
     1
  1
\A1;10
 11
0.0
 21
1.0
 31
0.0
  0
POINT
  5
3ECA
330
3EBF
100
AcDbEntity
  8
DEFPOINTS
 62
     0
100
AcDbPoint
 10
45.048334084975
 20
655.519341417663
 30
0.0
  0
POINT
  5
3ECB
330
3EBF
100
AcDbEntity
  8
DEFPOINTS
 62
     0
100
AcDbPoint
 10
45.048334084975
 20
645.607877300896
 30
0.0
  0
POINT
  5
3ECC
330
3EBF
100
AcDbEntity
  8
DEFPOINTS
 62
     0
100
AcDbPoint
 10
50.436234331678
 20
645.607877300896
 30
0.0
  0
ENDBLK
  5
3EC1
330
3EBF
100
AcDbEntity
  8
0
100
AcDbBlockEnd
  0
BLOCK
  5
3ECE
330
3ECD
100
AcDbEntity
  8
0
100
AcDbBlockBegin
  2
*D37
 70
     1
 10
0.0
 20
0.0
 30
0.0
  3
*D37
  1
*D37
  0
LINE
  5
3ED0
330
3ECD
100
AcDbEntity
  8
寸法線
 62
     0
 48
10.0
100
AcDbLine
 10
-21.920754710165
 20
666.536646263076
 30
0.0
 11
-21.920754710165
 21
706.756458306382
 31
0.0
  0
LINE
  5
3ED1
330
3ECD
100
AcDbEntity
  8
寸法線
 62
     0
 48
10.0
100
AcDbLine
 10
14.079245289835
 20
666.536646263076
 30
0.0
 11
14.079245289835
 21
706.756458306382
 31
0.0
  0
LINE
  5
3ED2
330
3ECD
100
AcDbEntity
  8
寸法線
 62
     0
 48
10.0
100
AcDbLine
 10
-15.920754710165
 20
705.506458306382
 30
0.0
 11
8.079245289835
 21
705.506458306382
 31
0.0
  0
INSERT
  5
3ED3
330
3ECD
100
AcDbEntity
  8
寸法線
 62
     0
100
AcDbBlockReference
  2
_OPEN30
 10
-21.920754710165
 20
705.506458306382
 30
0.0
 41
6.0
 42
6.0
 43
6.0
 50
180.0
  0
INSERT
  5
3ED4
330
3ECD
100
AcDbEntity
  8
寸法線
 62
     0
100
AcDbBlockReference
  2
_OPEN30
 10
14.079245289835
 20
705.506458306382
 30
0.0
 41
6.0
 42
6.0
 43
6.0
  0
MTEXT
  5
3ED5
330
3ECD
100
AcDbEntity
  8
寸法線
 62
     0
 48
10.0
100
AcDbMText
 10
-3.920754710165
 20
709.134583306382
 30
0.0
 40
6.0
 41
0.0
 71
     5
 72
     1
  1
\A1;36
  0
POINT
  5
3ED6
330
3ECD
100
AcDbEntity
  8
DEFPOINTS
 62
     0
100
AcDbPoint
 10
-21.920754710165
 20
665.911646263076
 30
0.0
  0
POINT
  5
3ED7
330
3ECD
100
AcDbEntity
  8
DEFPOINTS
 62
     0
100
AcDbPoint
 10
14.079245289835
 20
665.911646263076
 30
0.0
  0
POINT
  5
3ED8
330
3ECD
100
AcDbEntity
  8
DEFPOINTS
 62
     0
100
AcDbPoint
 10
14.079245289835
 20
705.506458306382
 30
0.0
  0
ENDBLK
  5
3ECF
330
3ECD
100
AcDbEntity
  8
0
100
AcDbBlockEnd
  0
BLOCK
  5
3EDA
330
3ED9
100
AcDbEntity
  8
0
100
AcDbBlockBegin
  2
*D38
 70
     1
 10
0.0
 20
0.0
 30
0.0
  3
*D38
  1
*D38
  0
LINE
  5
3EDC
330
3ED9
100
AcDbEntity
  8
寸法線
 62
     0
 48
10.0
100
AcDbLine
 10
-4.820754710165
 20
625.065867540967
 30
0.0
 11
-4.820754710165
 21
625.690867540967
 31
0.0
  0
LINE
  5
3EDD
330
3ED9
100
AcDbEntity
  8
寸法線
 62
     0
 48
10.0
100
AcDbLine
 10
-3.020754710165
 20
625.065867540967
 30
0.0
 11
-3.020754710165
 21
625.690867540967
 31
0.0
  0
LINE
  5
3EDE
330
3ED9
100
AcDbEntity
  8
寸法線
 62
     0
 48
10.0
100
AcDbLine
 10
2.979245289835
 20
624.440867540967
 30
0.0
 11
11.429245289835
 21
624.440867540967
 31
0.0
  0
LINE
  5
3EDF
330
3ED9
100
AcDbEntity
  8
寸法線
 62
     0
 48
10.0
100
AcDbLine
 10
-4.820754710165
 20
624.440867540967
 30
0.0
 11
-3.020754710165
 21
624.440867540967
 31
0.0
  0
LINE
  5
3EE0
330
3ED9
100
AcDbEntity
  8
寸法線
 62
     0
 48
10.0
100
AcDbLine
 10
-10.820754710165
 20
624.440867540967
 30
0.0
 11
-16.820754710165
 21
624.440867540967
 31
0.0
  0
INSERT
  5
3EE1
330
3ED9
100
AcDbEntity
  8
寸法線
 62
     0
100
AcDbBlockReference
  2
_OPEN30
 10
-4.820754710165
 20
624.440867540967
 30
0.0
 41
6.0
 42
6.0
 43
6.0
  0
INSERT
  5
3EE2
330
3ED9
100
AcDbEntity
  8
寸法線
 62
     0
100
AcDbBlockReference
  2
_OPEN30
 10
-3.020754710165
 20
624.440867540967
 30
0.0
 41
6.0
 42
6.0
 43
6.0
 50
180.0
  0
MTEXT
  5
3EE3
330
3ED9
100
AcDbEntity
  8
寸法線
 62
     0
 48
10.0
100
AcDbMText
 10
10.204245289835
 20
628.065867540967
 30
0.0
 40
6.0
 41
0.0
 71
     5
 72
     1
  1
\A1;1
  0
POINT
  5
3EE4
330
3ED9
100
AcDbEntity
  8
DEFPOINTS
 62
     0
100
AcDbPoint
 10
-4.820754710165
 20
624.440867540967
 30
0.0
  0
POINT
  5
3EE5
330
3ED9
100
AcDbEntity
  8
DEFPOINTS
 62
     0
100
AcDbPoint
 10
-3.020754710165
 20
624.440867540967
 30
0.0
  0
POINT
  5
3EE6
330
3ED9
100
AcDbEntity
  8
DEFPOINTS
 62
     0
100
AcDbPoint
 10
-3.020754710165
 20
624.440867540967
 30
0.0
  0
ENDBLK
  5
3EDB
330
3ED9
100
AcDbEntity
  8
0
100
AcDbBlockEnd
  0
BLOCK
  5
3EE8
330
3EE7
100
AcDbEntity
  8
0
100
AcDbBlockBegin
  2
*D39
 70
     1
 10
0.0
 20
0.0
 30
0.0
  3
*D39
  1
*D39
  0
LINE
  5
3EEA
330
3EE7
100
AcDbEntity
  8
寸法線
 62
     0
 48
10.0
100
AcDbLine
 10
291.487209692495
 20
681.019341417663
 30
0.0
 11
350.86498711172
 21
681.019341417663
 31
0.0
  0
LINE
  5
3EEB
330
3EE7
100
AcDbEntity
  8
寸法線
 62
     0
 48
10.0
100
AcDbLine
 10
291.487209692495
 20
610.019341417663
 30
0.0
 11
350.86498711172
 21
610.019341417663
 31
0.0
  0
LINE
  5
3EEC
330
3EE7
100
AcDbEntity
  8
寸法線
 62
     0
 48
10.0
100
AcDbLine
 10
349.61498711172
 20
675.019341417663
 30
0.0
 11
349.61498711172
 21
616.019341417663
 31
0.0
  0
INSERT
  5
3EED
330
3EE7
100
AcDbEntity
  8
寸法線
 62
     0
100
AcDbBlockReference
  2
_OPEN30
 10
349.61498711172
 20
681.019341417663
 30
0.0
 41
6.0
 42
6.0
 43
6.0
 50
90.0
  0
INSERT
  5
3EEE
330
3EE7
100
AcDbEntity
  8
寸法線
 62
     0
100
AcDbBlockReference
  2
_OPEN30
 10
349.61498711172
 20
610.019341417663
 30
0.0
 41
6.0
 42
6.0
 43
6.0
 50
270.0
  0
MTEXT
  5
3EEF
330
3EE7
100
AcDbEntity
  8
寸法線
 62
     0
 48
10.0
100
AcDbMText
 10
345.98686211172
 20
645.694314417663
 30
0.0
 40
6.0
 41
0.0
 71
     5
 72
     1
  1
\A1;φ72
 11
0.0
 21
1.0
 31
0.0
  0
POINT
  5
3EF0
330
3EE7
100
AcDbEntity
  8
DEFPOINTS
 62
     0
100
AcDbPoint
 10
290.862209692495
 20
681.019341417663
 30
0.0
  0
POINT
  5
3EF1
330
3EE7
100
AcDbEntity
  8
DEFPOINTS
 62
     0
100
AcDbPoint
 10
290.862209692495
 20
610.019341417663
 30
0.0
  0
POINT
  5
3EF2
330
3EE7
100
AcDbEntity
  8
DEFPOINTS
 62
     0
100
AcDbPoint
 10
349.61498711172
 20
610.019341417663
 30
0.0
  0
ENDBLK
  5
3EE9
330
3EE7
100
AcDbEntity
  8
0
100
AcDbBlockEnd
  0
ENDSEC
  0
SECTION
  2
ENTITIES
  0
LINE
  5
3078
330
1A
100
AcDbEntity
  8
外形線
100
AcDbLine
 10
124.520173264574
 20
695.51921119486
 30
0.0
 11
159.520166764574
 21
695.51921119486
 31
0.0
  0
LINE
  5
3079
330
1A
100
AcDbEntity
  8
外形線
100
AcDbLine
 10
161.930039764574
 20
661.29936319486
 30
0.0
 11
159.520166764574
 21
695.51921119486
 31
0.0
  0
LINE
  5
307A
330
1A
100
AcDbEntity
  8
外形線
100
AcDbLine
 10
124.520173264574
 20
695.51921119486
 30
0.0
 11
124.520173264574
 21
615.51942619486
 31
0.0
  0
LINE
  5
307B
330
1A
100
AcDbEntity
  8
外形線
100
AcDbLine
 10
124.520173264574
 20
615.51942619486
 30
0.0
 11
159.520166764574
 21
615.51942619486
 31
0.0
  0
LINE
  5
307C
330
1A
100
AcDbEntity
  8
外形線
100
AcDbLine
 10
161.930039764574
 20
649.73936569486
 30
0.0
 11
159.520166764574
 21
615.51942619486
 31
0.0
  0
LINE
  5
307E
330
1A
100
AcDbEntity
  8
外形線
100
AcDbLine
 10
204.512290192505
 20
676.51934119486
 30
0.0
 11
210.962317192505
 21
676.51934119486
 31
0.0
  0
LINE
  5
307F
330
1A
100
AcDbEntity
  8
細線
 62
     6
100
AcDbLine
 10
204.512290192505
 20
666.01934119486
 30
0.0
 11
210.962317192505
 21
666.01934119486
 31
0.0
  0
LINE
  5
3080
330
1A
100
AcDbEntity
  8
外形線
100
AcDbLine
 10
210.962317192505
 20
678.01934119486
 30
0.0
 11
210.962317192505
 21
633.01934119486
 31
0.0
  0
LINE
  5
3081
330
1A
100
AcDbEntity
  8
外形線
100
AcDbLine
 10
210.962317192505
 20
678.01934119486
 30
0.0
 11
213.662299192505
 21
678.01934119486
 31
0.0
  0
LINE
  5
3082
330
1A
100
AcDbEntity
  8
外形線
100
AcDbLine
 10
201.512312692505
 20
637.51934119486
 30
0.0
 11
201.512312692505
 21
673.51934119486
 31
0.0
  0
LINE
  5
3083
330
1A
100
AcDbEntity
  8
外形線
100
AcDbLine
 10
201.512312692505
 20
673.51934119486
 30
0.0
 11
204.512290192505
 21
676.51934119486
 31
0.0
  0
LINE
  5
3085
330
1A
100
AcDbEntity
  8
外形線
100
AcDbLine
 10
204.512290192505
 20
634.51934119486
 30
0.0
 11
210.962317192505
 21
634.51934119486
 31
0.0
  0
LINE
  5
3086
330
1A
100
AcDbEntity
  8
細線
 62
     6
100
AcDbLine
 10
204.512290192505
 20
645.01934119486
 30
0.0
 11
210.962317192505
 21
645.01934119486
 31
0.0
  0
LINE
  5
3087
330
1A
100
AcDbEntity
  8
外形線
100
AcDbLine
 10
210.962317192505
 20
633.01934119486
 30
0.0
 11
213.662299192505
 21
633.01934119486
 31
0.0
  0
LINE
  5
3088
330
1A
100
AcDbEntity
  8
外形線
100
AcDbLine
 10
201.512312692505
 20
637.51934119486
 30
0.0
 11
204.512290192505
 21
634.51934119486
 31
0.0
  0
LINE
  5
308A
330
1A
100
AcDbEntity
  8
外形線
100
AcDbLine
 10
193.662229192505
 20
658.51936369486
 30
0.0
 11
185.258438890689
 21
658.51936369486
 31
0.0
  0
LINE
  5
308B
330
1A
100
AcDbEntity
  8
外形線
100
AcDbLine
 10
182.548901036117
 20
658.51936369486
 30
0.0
 11
174.020173264574
 21
658.51936369486
 31
0.0
  0
LINE
  5
308C
330
1A
100
AcDbEntity
  8
外形線
100
AcDbLine
 10
193.662229192505
 20
652.51936369486
 30
0.0
 11
185.283463152506
 21
652.51936369486
 31
0.0
  0
LINE
  5
308D
330
1A
100
AcDbEntity
  8
外形線
100
AcDbLine
 10
182.548901036117
 20
652.51936369486
 30
0.0
 11
174.020173264574
 21
652.51936369486
 31
0.0
  0
ARC
  5
308E
330
1A
100
AcDbEntity
  8
細線
100
AcDbCircle
 10
187.884540708241
 20
657.01936369486
 30
0.0
 40
3.0
100
AcDbArc
 50
150.0
 51
210.0
  0
ARC
  5
308F
330
1A
100
AcDbEntity
  8
細線
100
AcDbCircle
 10
187.884540708241
 20
654.01936369486
 30
0.0
 40
3.0
100
AcDbArc
 50
150.0
 51
210.0
  0
ARC
  5
3090
330
1A
100
AcDbEntity
  8
細線
100
AcDbCircle
 10
182.688388285534
 20
654.01936369486
 30
0.0
 40
3.0
100
AcDbArc
 50
330.0
 51
30.0
  0
ARC
  5
3091
330
1A
100
AcDbEntity
  8
細線
100
AcDbCircle
 10
179.95082430515
 20
654.01936279486
 30
0.0
 40
3.0
100
AcDbArc
 50
330.000019847839
 51
30.000019847843
  0
ARC
  5
3092
330
1A
100
AcDbEntity
  8
細線
100
AcDbCircle
 10
179.950823265919
 20
657.01936279486
 30
0.0
 40
3.0
100
AcDbArc
 50
330.000019847839
 51
30.000019847843
  0
ARC
  5
3093
330
1A
100
AcDbEntity
  8
細線
100
AcDbCircle
 10
185.146975688626
 20
657.01936459486
 30
0.0
 40
3.0
100
AcDbArc
 50
150.000019847839
 51
210.000019847843
  0
CIRCLE
  5
30B4
330
1A
100
AcDbEntity
  8
外形線
100
AcDbCircle
 10
148.019174764574
 20
655.51936369486
 30
0.0
 40
2.499
  0
LINE
  5
30B5
330
1A
100
AcDbEntity
  8
外形線
100
AcDbLine
 10
144.020173264574
 20
650.48936569486
 30
0.0
 11
144.020173264574
 21
660.54936319486
 31
0.0
  0
LINE
  5
30B6
330
1A
100
AcDbEntity
  8
外形線
100
AcDbLine
 10
145.220177764574
 20
661.29936319486
 30
0.0
 11
172.827864296235
 21
661.29936319486
 31
0.0
  0
LINE
  5
30B7
330
1A
100
AcDbEntity
  8
外形線
100
AcDbLine
 10
145.220177764574
 20
661.29936319486
 30
0.0
 11
144.020173264574
 21
660.54936319486
 31
0.0
  0
LINE
  5
30B8
330
1A
100
AcDbEntity
  8
細線
 62
     6
100
AcDbLine
 10
145.286737264574
 20
658.40931769486
 30
0.0
 11
172.753664402496
 21
658.40931769486
 31
0.0
  0
LINE
  5
30B9
330
1A
100
AcDbEntity
  8
外形線
100
AcDbLine
 10
145.220177764574
 20
649.73936569486
 30
0.0
 11
144.020173264574
 21
650.48936569486
 31
0.0
  0
LINE
  5
30BA
330
1A
100
AcDbEntity
  8
外形線
100
AcDbLine
 10
145.220177764574
 20
649.73936569486
 30
0.0
 11
172.820168764574
 21
649.73936569486
 31
0.0
  0
LINE
  5
30BB
330
1A
100
AcDbEntity
  8
細線
 62
     6
100
AcDbLine
 10
145.286737264574
 20
652.62931969486
 30
0.0
 11
172.760207342684
 21
652.62931969486
 31
0.0
  0
CIRCLE
  5
30BE
330
1A
100
AcDbEntity
  8
外形線
100
AcDbCircle
 10
166.520173264574
 20
655.51936369486
 30
0.0
 40
0.9999
  0
ARC
  5
30C5
330
1A
100
AcDbEntity
  8
細線
 62
     6
100
AcDbCircle
 10
221.387441692505
 20
655.51934119486
 30
0.0
 40
19.875129
100
AcDbArc
 50
148.109418153978
 51
211.890564245926
  0
ARC
  5
30C6
330
1A
100
AcDbEntity
  8
細線
 62
     6
100
AcDbCircle
 10
212.513953192505
 20
673.56994819486
 30
0.0
 40
11.0017755
100
AcDbArc
 50
180.263580433607
 51
223.338604767318
  0
ARC
  5
30C7
330
1A
100
AcDbEntity
  8
細線
 62
     6
100
AcDbCircle
 10
212.513953192505
 20
637.46873569486
 30
0.0
 40
11.0017755
100
AcDbArc
 50
136.66137763259
 51
179.736401966303
  0
ARC
  5
30C8
330
1A
100
AcDbEntity
  8
細線
 62
     6
100
AcDbCircle
 10
147.950600764574
 20
655.51931869486
 30
0.0
 40
3.9304305
100
AcDbArc
 50
132.668434758324
 51
227.331604937362
  0
ARC
  5
30C9
330
1A
100
AcDbEntity
  8
細線
 62
     6
100
AcDbCircle
 10
147.190415764574
 20
660.98080519486
 30
0.0
 40
3.1994565
100
AcDbArc
 50
187.749961576341
 51
233.487520784031
  0
ARC
  5
30CA
330
1A
100
AcDbEntity
  8
細線
 62
     6
100
AcDbCircle
 10
147.190415764574
 20
650.05792369486
 30
0.0
 40
3.1994565
100
AcDbArc
 50
126.512518911656
 51
172.250078119343
  0
LINE
  5
30CC
330
1A
100
AcDbEntity
  8
外形線
100
AcDbLine
 10
213.662299192505
 20
678.01934119486
 30
0.0
 11
213.662299192505
 21
633.01934119486
 31
0.0
  0
LINE
  5
30D3
330
1A
100
AcDbEntity
  8
外形線
100
AcDbLine
 10
174.020173264574
 20
660.554172884111
 30
0.0
 11
174.020173264574
 21
650.494175384111
 31
0.0
  0
LINE
  5
30D4
330
1A
100
AcDbEntity
  8
外形線
100
AcDbLine
 10
172.820168764574
 20
649.744175384111
 30
0.0
 11
174.020173264574
 21
650.494175384111
 31
0.0
  0
LINE
  5
30D5
330
1A
100
AcDbEntity
  8
外形線
100
AcDbLine
 10
172.820168764574
 20
661.304172884111
 30
0.0
 11
174.020173264574
 21
660.554172884111
 31
0.0
  0
ARC
  5
30D6
330
1A
100
AcDbEntity
  8
細線
 62
     6
100
AcDbCircle
 10
170.089745764574
 20
655.524219884111
 30
0.0
 40
3.9304305
100
AcDbArc
 50
312.668434758324
 51
47.331604937362
  0
ARC
  5
30D7
330
1A
100
AcDbEntity
  8
細線
 62
     6
100
AcDbCircle
 10
170.849930764574
 20
650.062733384111
 30
0.0
 40
3.1994565
100
AcDbArc
 50
7.749961576341
 51
53.487520784031
  0
ARC
  5
30D8
330
1A
100
AcDbEntity
  8
細線
 62
     6
100
AcDbCircle
 10
170.849930764574
 20
660.985614884111
 30
0.0
 40
3.1994565
100
AcDbArc
 50
306.512518911656
 51
352.250078119341
  0
LINE
  5
30DA
330
1A
100
AcDbEntity
  8
中心線
 48
10.0
100
AcDbLine
 10
148.019174764574
 20
658.40931769486
 30
0.0
 11
148.019174764574
 21
652.62931969486
 31
0.0
  0
LINE
  5
30DC
330
1A
100
AcDbEntity
  8
中心線
 48
10.0
100
AcDbLine
 10
166.520173264574
 20
657.58305469486
 30
0.0
 11
166.520173264574
 21
653.45567269486
 31
0.0
  0
LINE
  5
30DE
330
1A
100
AcDbEntity
  8
中心線
 48
10.0
100
AcDbLine
 10
117.129209055461
 20
655.519341417663
 30
0.0
 11
263.478725158046
 21
655.519341417663
 31
0.0
  0
DIMENSION
  5
347D
330
1A
100
AcDbEntity
  8
寸法線
 48
10.0
100
AcDbDimension
  2
*D9
 10
187.134224298427
 20
652.51936369486
 30
0.0
 11
187.134224298427
 21
675.943182592498
 31
0.0
 70
   160
  1
φ<>
  3
ISO-25
100
AcDbAlignedDimension
 13
187.134224298427
 23
658.51936369486
 33
0.0
 14
187.134224298427
 24
652.51936369486
 34
0.0
 50
90.0
100
AcDbRotatedDimension
1001
ACAD
1000
DSTYLE
1002
{
1070
     5
1000
OPEN30
1070
    41
1040
6.0
1070
    47
1040
0.1
1070
    48
1040
0.1
1070
    73
1070
     0
1070
   140
1040
6.0
1070
   271
1070
     1
1070
   272
1070
     1
1070
   341
1005
2AF4
1002
}
  0
DIMENSION
  5
34B8
330
1A
100
AcDbEntity
  8
寸法線
 48
10.0
100
AcDbDimension
  2
*D10
 10
105.148717092568
 20
615.51942619486
 30
0.0
 11
101.517467092568
 21
655.51931869486
 31
0.0
 70
    32
  3
ISO-25
100
AcDbAlignedDimension
 13
124.520173264574
 23
695.51921119486
 33
0.0
 14
124.520173264574
 24
615.51942619486
 34
0.0
 50
90.0
100
AcDbRotatedDimension
1001
ACAD
1000
DSTYLE
1002
{
1070
     5
1000
OPEN30
1070
    41
1040
6.0
1070
    47
1040
0.1
1070
    48
1040
0.1
1070
    73
1070
     0
1070
   140
1040
6.0
1070
   271
1070
     1
1070
   272
1070
     1
1070
   341
1005
2AF4
1002
}
  0
DIMENSION
  5
34C5
330
1A
100
AcDbEntity
  8
寸法線
 48
10.0
100
AcDbDimension
  2
*D11
 10
159.520166764574
 20
596.530612684998
 30
0.0
 11
142.020170014574
 21
600.158737684998
 31
0.0
 70
    32
  3
ISO-25
100
AcDbAlignedDimension
 13
124.520173264574
 23
615.51942619486
 33
0.0
 14
159.520166764574
 24
615.51942619486
 34
0.0
100
AcDbRotatedDimension
1001
ACAD
1000
DSTYLE
1002
{
1070
     5
1000
OPEN30
1070
    41
1040
6.0
1070
    47
1040
0.1
1070
    48
1040
0.1
1070
    73
1070
     0
1070
   140
1040
6.0
1070
   271
1070
     1
1070
   272
1070
     1
1070
   341
1005
2AF4
1002
}
  0
LINE
  5
34E6
330
1A
100
AcDbEntity
  8
外形線
 48
10.0
100
AcDbLine
 10
217.162229192495
 20
634.969345917663
 30
0.0
 11
217.162229192495
 21
676.069336917663
 31
0.0
  0
LINE
  5
34E7
330
1A
100
AcDbEntity
  8
外形線
 48
10.0
100
AcDbLine
 10
218.662229192495
 20
634.969345917663
 30
0.0
 11
217.162229192495
 21
634.969345917663
 31
0.0
  0
LINE
  5
34E8
330
1A
100
AcDbEntity
  8
外形線
 48
10.0
100
AcDbLine
 10
218.662229192495
 20
676.069336726693
 30
0.0
 11
217.162229192495
 21
676.069336917663
 31
0.0
  0
ARC
  5
35A4
330
1A
100
AcDbEntity
  8
寸法線
100
AcDbCircle
 10
174.931950701124
 20
549.05713455063
 30
0.0
 40
0.2017125
100
AcDbArc
 50
28.23094836902
 51
123.883845843379
  0
ARC
  5
35A5
330
1A
100
AcDbEntity
  8
寸法線
100
AcDbCircle
 10
176.734302701124
 20
546.32831355063
 30
0.0
 40
3.4720395
100
AcDbArc
 50
123.469024399698
 51
239.773899120646
  0
ARC
  5
35A6
330
1A
100
AcDbEntity
  8
寸法線
100
AcDbCircle
 10
176.734302701124
 20
546.32831355063
 30
0.0
 40
3.472035
100
AcDbArc
 50
123.469024399698
 51
239.774013712205
  0
ARC
  5
35A7
330
1A
100
AcDbEntity
  8
寸法線
100
AcDbCircle
 10
171.971318201124
 20
547.08197655063
 30
0.0
 40
3.7598535
100
AcDbArc
 50
273.280470979895
 51
33.415912335968
  0
ARC
  5
35A9
330
1A
100
AcDbEntity
  8
寸法線
100
AcDbCircle
 10
175.374608201124
 20
544.59036855063
 30
0.0
 40
1.3204425
100
AcDbArc
 50
252.903398883406
 51
337.412611017141
  0
ARC
  5
35AA
330
1A
100
AcDbEntity
  8
寸法線
100
AcDbCircle
 10
175.374608201124
 20
544.59041355063
 30
0.0
 40
1.3204605
100
AcDbArc
 50
252.904086432761
 51
337.411923467787
  0
LINE
  5
35B0
330
1A
100
AcDbEntity
  8
中心線
 48
10.0
100
AcDbLine
 10
338.098738476215
 20
645.694314417663
 30
0.0
 11
247.325825908795
 21
645.694314417663
 31
0.0
  0
LEADER
  5
35B1
330
1A
100
AcDbEntity
  8
寸法線
 48
10.0
100
AcDbLeader
  3
ISO-25
 76
     3
 10
166.520173264574
 20
654.51946369486
 30
0.0
 10
171.015127234405
 20
614.898784726901
 30
0.0
 10
180.258969167274
 20
614.898784726901
 30
0.0
213
-12.23356472404782
223
0.0
233
0.0
1001
ACAD
1000
DSTYLE
1002
{
1070
     5
1000
OPEN30
1070
   147
1040
0.625
1070
    77
1070
     0
1070
    41
1040
6.0
1070
    47
1040
0.1
1070
    48
1040
0.1
1070
    73
1070
     0
1070
   140
1040
5.0
1070
   271
1070
     1
1070
   272
1070
     1
1070
   341
1005
2AF4
1070
   342
1005
2AF4
1002
}
  0
LINE
  5
35B4
330
1A
100
AcDbEntity
  8
下書線
 48
10.0
100
AcDbLine
 10
169.928572074376
 20
716.827491467859
 30
0.0
 11
337.867460375023
 21
716.827491467859
 31
0.0
  0
LINE
  5
35B5
330
1A
100
AcDbEntity
  8
下書線
 48
10.0
100
AcDbLine
 10
133.829558364994
 20
735.969719401713
 30
0.0
 11
370.108468022763
 21
735.969719401713
 31
0.0
  0
LEADER
  5
35B6
330
1A
100
AcDbEntity
  8
寸法線
 48
10.0
100
AcDbLeader
  3
ISO-25
 76
     3
 10
142.628141478394
 20
695.51921119486
 30
0.0
 10
132.982024818743
 20
735.969719401713
 30
0.0
 10
124.373188851776
 20
735.969719401713
 30
0.0
1001
ACAD
1000
DSTYLE
1002
{
1070
     5
1000
OPEN30
1070
   147
1040
0.625
1070
    77
1070
     0
1070
    41
1040
6.0
1070
    47
1040
0.1
1070
    48
1040
0.1
1070
    73
1070
     0
1070
   140
1040
5.0
1070
   271
1070
     1
1070
   272
1070
     1
1070
   341
1005
2AF4
1070
   342
1005
2AF4
1002
}
  0
MTEXT
  5
35B7
330
1A
100
AcDbEntity
  8
寸法線
 48
10.0
100
AcDbMText
 10
107.641834610391
 20
742.172577790635
 30
0.0
 40
6.0
 41
21.514934650843
 71
     1
 72
     5
  1
SUS304
  0
LEADER
  5
35B9
330
1A
100
AcDbEntity
  8
寸法線
 48
10.0
100
AcDbLeader
  3
ISO-25
 76
     3
 10
179.195578788804
 20
658.519363694859
 30
0.0
 10
172.211805580037
 20
735.969741678909
 30
0.0
 10
163.933253623951
 20
735.969741678909
 30
0.0
1001
ACAD
1000
DSTYLE
1002
{
1070
     5
1000
OPEN30
1070
   147
1040
0.625
1070
    77
1070
     0
1070
    41
1040
6.0
1070
    47
1040
0.1
1070
    48
1040
0.1
1070
    73
1070
     0
1070
   140
1040
5.0
1070
   271
1070
     1
1070
   272
1070
     1
1070
   341
1005
2AF4
1070
   342
1005
2AF4
1002
}
  0
MTEXT
  5
35C0
330
1A
100
AcDbEntity
  8
寸法線
 48
10.0
100
AcDbMText
 10
145.335378763325
 20
742.315226629161
 30
0.0
 40
6.0
 41
21.514934650843
 71
     1
 72
     5
  1
SUS304
  0
MTEXT
  5
35C2
330
1A
100
AcDbEntity
  8
寸法線
 48
10.0
100
AcDbMText
 10
211.979822818393
 20
736.680282011055
 30
0.0
 40
6.0
 41
21.958515023009
 71
     9
 72
     5
  1
座金\PSUS304
1001
ACAD
1000
MTEXTBEGIN
1070
    44
1040
0.8
1000
MTEXTEND
  0
LEADER
  5
35C4
330
1A
100
AcDbEntity
  8
寸法線
 48
10.0
100
AcDbLeader
  3
ISO-25
 76
     3
 10
211.883929699069
 20
678.01934119486
 30
0.0
 10
211.294816694652
 20
735.969741678909
 30
0.0
 10
203.144111610191
 20
735.969719401713
 30
0.0
1001
ACAD
1000
DSTYLE
1002
{
1070
     5
1000
OPEN30
1070
   147
1040
0.625
1070
    77
1070
     0
1070
    41
1040
6.0
1070
    47
1040
0.1
1070
    48
1040
0.1
1070
    73
1070
     0
1070
   140
1040
5.0
1070
   271
1070
     1
1070
   272
1070
     1
1070
   341
1005
2AF4
1070
   342
1005
2AF4
1002
}
  0
MTEXT
  5
35C5
330
1A
100
AcDbEntity
  8
寸法線
 48
10.0
100
AcDbMText
 10
205.199278686601
 20
717.597373613297
 30
0.0
 40
6.0
 41
21.829737978125
 71
     9
 72
     5
  1
ナット\PSUS303
1001
ACAD
1000
MTEXTBEGIN
1070
    44
1040
0.8
1000
MTEXTEND
  0
LEADER
  5
35C7
330
1A
100
AcDbEntity
  8
寸法線
 48
10.0
100
AcDbLeader
  3
ISO-25
 76
     3
 10
207.487268692505
 20
676.51936369486
 30
0.0
 10
205.272144402263
 20
716.827513745056
 30
0.0
 10
197.481163838482
 20
716.827513745056
 30
0.0
1001
ACAD
1000
DSTYLE
1002
{
1070
     5
1000
OPEN30
1070
   147
1040
0.625
1070
    77
1070
     0
1070
    41
1040
6.0
1070
    47
1040
0.1
1070
    48
1040
0.1
1070
    73
1070
     0
1070
   140
1040
5.0
1070
   271
1070
     1
1070
   272
1070
     1
1070
   341
1005
2AF4
1070
   342
1005
2AF4
1002
}
  0
LEADER
  5
35C8
330
1A
100
AcDbEntity
  8
寸法線
 48
10.0
100
AcDbLeader
  3
ISO-25
 76
     3
 10
215.338948218085
 20
703.69854925471
 30
0.0
 10
225.252904756085
 20
735.969719401713
 30
0.0
 10
233.624848515177
 20
735.969719401713
 30
0.0
1001
ACAD
1000
DSTYLE
1002
{
1070
     5
1000
OPEN30
1070
   147
1040
0.625
1070
    77
1070
     0
1070
    41
1040
6.0
1070
    47
1040
0.1
1070
    48
1040
0.1
1070
    73
1070
     0
1070
   140
1040
5.0
1070
   271
1070
     1
1070
   272
1070
     1
1070
   341
1005
2AF4
1070
   342
1005
2AF4
1002
}
  0
MTEXT
  5
35C9
330
1A
100
AcDbEntity
  8
寸法線
 48
10.0
100
AcDbMText
 10
226.007689572144
 20
742.82597367928
 30
0.0
 40
6.0
 41
35.928823671305
 71
     1
 72
     5
  1
貴取付板
  0
LEADER
  5
35CB
330
1A
100
AcDbEntity
  8
寸法線
 48
10.0
100
AcDbLeader
  3
ISO-25
 76
     3
 10
217.912229192495
 20
676.069336917663
 30
0.0
 10
226.496877930133
 20
716.827513967859
 30
0.0
 10
233.724617359942
 20
716.827513967859
 30
0.0
1001
ACAD
1000
DSTYLE
1002
{
1070
     5
1000
OPEN30
1070
   147
1040
0.625
1070
    77
1070
     0
1070
    41
1040
6.0
1070
    47
1040
0.1
1070
    48
1040
0.1
1070
    73
1070
     0
1070
   140
1040
5.0
1070
   271
1070
     1
1070
   272
1070
     1
1070
   341
1005
2AF4
1070
   342
1005
2AF4
1002
}
  0
LEADER
  5
35D5
330
1A
100
AcDbEntity
  8
寸法線
 48
10.0
100
AcDbLeader
  3
ISO-25
 76
     3
 10
272.876007453162
 20
678.947968587352
 30
0.0
 10
297.567340338908
 20
735.969719401713
 30
0.0
 10
307.279399082906
 20
735.969719401713
 30
0.0
1001
ACAD
1000
DSTYLE
1002
{
1070
     5
1000
OPEN30
1070
   147
1040
0.625
1070
    77
1070
     0
1070
    41
1040
6.0
1070
    47
1040
0.1
1070
    48
1040
0.1
1070
    73
1070
     0
1070
   140
1040
5.0
1070
   271
1070
     1
1070
   272
1070
     1
1070
   341
1005
2AF4
1070
   342
1005
2AF4
1002
}
  0
LEADER
  5
35D8
330
1A
100
AcDbEntity
  8
寸法線
 48
10.0
100
AcDbLeader
  3
ISO-25
 76
     3
 10
308.091087567397
 20
679.162944523194
 30
0.0
 10
350.715061953399
 20
735.969719401713
 30
0.0
 10
358.757432939701
 20
735.969719401713
 30
0.0
1001
ACAD
1000
DSTYLE
1002
{
1070
     5
1000
OPEN30
1070
   147
1040
0.625
1070
    77
1070
     0
1070
    41
1040
6.0
1070
    47
1040
0.1
1070
    48
1040
0.1
1070
    73
1070
     0
1070
   140
1040
5.0
1070
   271
1070
     1
1070
   272
1070
     1
1070
   341
1005
2AF4
1070
   342
1005
2AF4
1002
}
  0
DIMENSION
  5
372B
330
1A
100
AcDbEntity
  8
寸法線
 48
10.0
100
AcDbDimension
  2
*D16
 10
218.662229192495
 20
560.508260870498
 30
0.0
 11
206.1622291925
 21
564.136385870498
 31
0.0
 70
    32
  3
ISO-25
100
AcDbAlignedDimension
 13
193.662229192505
 23
613.647562526784
 33
0.0
 14
218.662229192495
 24
634.969345917663
 34
0.0
100
AcDbRotatedDimension
1001
ACAD
1000
DSTYLE
1002
{
1070
     5
1000
OPEN30
1070
    41
1040
6.0
1070
    47
1040
0.1
1070
    48
1040
0.1
1070
    73
1070
     0
1070
   140
1040
6.0
1070
   271
1070
     1
1070
   272
1070
     1
1070
   341
1005
2AF4
1002
}
  0
LINE
  5
3779
330
1A
100
AcDbEntity
  8
外形線
 48
10.0
100
AcDbLine
 10
218.662229192495
 20
676.069336726693
 30
0.0
 11
218.662229192495
 21
634.969345917663
 31
0.0
  0
DIMENSION
  5
378A
330
1A
100
AcDbEntity
  8
寸法線
 48
10.0
100
AcDbDimension
  2
*D17
 10
218.662229192495
 20
560.508260870498
 30
0.0
 11
233.662229192495
 21
564.136385870498
 31
0.0
 70
    32
  1
30
  3
ISO-25
100
AcDbAlignedDimension
 13
248.662229192495
 23
636.619341417663
 33
0.0
 14
218.662229192495
 24
634.969323640466
 34
0.0
100
AcDbRotatedDimension
1001
ACAD
1000
DSTYLE
1002
{
1070
     5
1000
OPEN30
1070
    41
1040
6.0
1070
    47
1040
0.1
1070
    48
1040
0.1
1070
    73
1070
     0
1070
   140
1040
6.0
1070
   271
1070
     1
1070
   272
1070
     1
1070
   341
1005
2AF4
1002
}
  0
LINE
  5
37A2
330
1A
100
AcDbEntity
  8
外形線
 48
10.0
100
AcDbLine
 10
248.662229192495
 20
673.019319140466
 30
0.0
 11
218.662229192495
 21
673.019319140466
 31
0.0
  0
LINE
  5
37A3
330
1A
100
AcDbEntity
  8
外形線
 48
10.0
100
AcDbLine
 10
248.662229192495
 20
638.019319140466
 30
0.0
 11
218.662229192495
 21
638.019319140466
 31
0.0
  0
DIMENSION
  5
37A4
330
1A
100
AcDbEntity
  8
寸法線
 48
10.0
100
AcDbDimension
  2
*D18
 10
331.662229192495
 20
541.980902690335
 30
0.0
 11
275.162229192495
 21
545.609027690335
 31
0.0
 70
    32
  1
113
  3
ISO-25
100
AcDbAlignedDimension
 13
218.662229192495
 23
559.258260870498
 33
0.0
 14
331.662229192495
 24
560.508260647695
 34
0.0
100
AcDbRotatedDimension
1001
ACAD
1000
DSTYLE
1002
{
1070
     5
1000
OPEN30
1070
    41
1040
6.0
1070
    47
1040
0.1
1070
    48
1040
0.1
1070
    73
1070
     0
1070
   140
1040
6.0
1070
   271
1070
     1
1070
   272
1070
     1
1070
   341
1005
2AF4
1002
}
  0
DIMENSION
  5
37DA
330
1A
100
AcDbEntity
  8
寸法線
 48
10.0
100
AcDbDimension
  2
*D19
 10
234.964947802587
 20
638.019319140466
 30
0.0
 11
234.964947802587
 21
686.518583209178
 31
0.0
 70
   160
  1
φ<>
  3
ISO-25
100
AcDbAlignedDimension
 13
232.987229192491
 23
673.019319140466
 33
0.0
 14
232.987229192491
 24
638.019319140466
 34
0.0
 50
90.0
100
AcDbRotatedDimension
1001
ACAD
1000
DSTYLE
1002
{
1070
     5
1000
OPEN30
1070
    41
1040
6.0
1070
    47
1040
0.1
1070
    48
1040
0.1
1070
    73
1070
     0
1070
   140
1040
6.0
1070
   271
1070
     1
1070
   272
1070
     1
1070
   341
1005
2AF4
1002
}
  0
LINE
  5
383A
330
1A
100
AcDbEntity
  8
隠れ線
 48
10.0
100
AcDbLine
 10
213.662299192505
 20
702.23505425267
 30
0.0
 11
213.662299192505
 21
678.01934119486
 31
0.0
  0
LINE
  5
383B
330
1A
100
AcDbEntity
  8
隠れ線
 48
10.0
100
AcDbLine
 10
217.162229192495
 20
702.235076975473
 30
0.0
 11
217.162225861243
 21
676.069336917664
 31
0.0
  0
LINE
  5
383C
330
1A
100
AcDbEntity
  8
隠れ線
 48
10.0
100
AcDbLine
 10
213.662299192505
 20
604.200236422023
 30
0.0
 11
213.662299192505
 21
633.01936369486
 31
0.0
  0
LINE
  5
383D
330
1A
100
AcDbEntity
  8
隠れ線
 48
10.0
100
AcDbLine
 10
217.162229192495
 20
604.40074487019
 30
0.0
 11
217.162229192495
 21
634.969345917663
 31
0.0
  0
MTEXT
  5
3856
330
1A
100
AcDbEntity
  8
寸法線
 48
10.0
100
AcDbMText
 10
265.374140355569
 20
742.414941257736
 30
0.0
 40
6.0
 41
40.89587582674
 71
     1
 72
     5
  1
SUS303
  0
MTEXT
  5
3857
330
1A
100
AcDbEntity
  8
寸法線
 48
10.0
100
AcDbMText
 10
297.890442262304
 20
723.227160861482
 30
0.0
 40
6.0
 41
40.89587582674
 71
     1
 72
     5
  1
Oリング
  0
LEADER
  5
3858
330
1A
100
AcDbEntity
  8
寸法線
 48
10.0
100
AcDbLeader
  3
ISO-25
 76
     3
 10
242.82680504242
 20
673.019319140466
 30
0.0
 10
265.240392721162
 20
735.662073945694
 30
0.0
 10
273.324384692203
 20
735.662073945694
 30
0.0
1001
ACAD
1000
DSTYLE
1002
{
1070
     5
1000
OPEN30
1070
   147
1040
0.625
1070
    77
1070
     0
1070
    41
1040
6.0
1070
    47
1040
0.1
1070
    48
1040
0.1
1070
    73
1070
     0
1070
   140
1040
5.0
1070
   271
1070
     1
1070
   272
1070
     1
1070
   341
1005
2AF4
1070
   342
1005
2AF4
1002
}
  0
LEADER
  5
3859
330
1A
100
AcDbEntity
  8
寸法線
 48
10.0
100
AcDbLeader
  3
ISO-25
 76
     3
 10
281.947145191606
 20
681.026770985745
 30
0.0
 10
296.170672126673
 20
716.76204663777
 30
0.0
 10
303.686735973787
 20
716.76204663777
 30
0.0
1001
ACAD
1000
DSTYLE
1002
{
1070
     5
1000
OPEN30
1070
   147
1040
0.625
1070
    77
1070
     0
1070
    41
1040
6.0
1070
    47
1040
0.1
1070
    48
1040
0.1
1070
    73
1070
     0
1070
   140
1040
5.0
1070
   271
1070
     1
1070
   272
1070
     1
1070
   341
1005
2AF4
1070
   342
1005
2AF4
1002
}
  0
DIMENSION
  5
387E
330
1A
100
AcDbEntity
  8
寸法線
 48
10.0
100
AcDbDimension
  2
*D20
 10
218.662229192495
 20
541.980902690335
 30
0.0
 11
173.9622534425
 21
541.980902690335
 31
0.0
 70
    32
  1
 
  3
ISO-25
100
AcDbAlignedDimension
 13
124.520173264574
 23
596.530612684998
 33
0.0
 14
218.662229192495
 24
634.969345917663
 34
0.0
100
AcDbRotatedDimension
1001
ACAD
1000
DSTYLE
1002
{
1070
     5
1000
OPEN30
1070
    41
1040
6.0
1070
    47
1040
0.1
1070
    48
1040
0.1
1070
    73
1070
     0
1070
   140
1040
5.0
1070
   271
1070
     1
1070
   272
1070
     1
1070
   341
1005
2AF4
1002
}
  0
MTEXT
  5
3914
330
1A
100
AcDbEntity
  8
寸法線
 48
10.0
100
AcDbMText
 10
351.105089880156
 20
742.893880124729
 30
0.0
 40
6.0
 41
50.692592903288
 71
     1
 72
     5
  1
亜鉛ダイカスト
  0
MTEXT
  5
391B
330
1A
100
AcDbEntity
  8
寸法線
 48
10.0
100
AcDbMText
 10
297.303457867441
 20
742.814414970042
 30
0.0
 40
6.0
 41
50.692592903288
 71
     1
 72
     5
  1
亜鉛ダイカスト
  0
MTEXT
  5
3958
330
1A
100
AcDbEntity
  8
寸法線
 48
10.0
100
AcDbMText
 10
226.838113567476
 20
731.147169259802
 30
0.0
 40
6.0
 41
30.698068237869
 71
     1
 72
     5
  1
ゴム\Pパッキン
1001
ACAD
1000
MTEXTBEGIN
1070
    44
1040
0.8
1000
MTEXTEND
  0
LINE
  5
399D
330
1A
100
AcDbEntity
  8
外形線
100
AcDbLine
 10
248.662229192495
 20
674.419341417663
 30
0.0
 11
248.662229192495
 21
636.619341417663
 31
0.0
  0
ARC
  5
3D0B
330
1A
100
AcDbEntity
  8
外形線
 48
10.0
100
AcDbCircle
 10
-3.920754710165
 20
645.607877300896
 30
0.0
 40
36.0
100
AcDbArc
 50
91.432543737567
 51
88.567456262433
  0
ARC
  5
3D0C
330
1A
100
AcDbEntity
  8
細線
 48
10.0
100
AcDbCircle
 10
-3.920754710165
 20
645.607877300896
 30
0.0
 40
34.5
100
AcDbArc
 50
91.494842089047
 51
88.505157910953
  0
LINE
  5
3D0D
330
1A
100
AcDbEntity
  8
中心線
 48
10.0
100
AcDbLine
 10
11.711202277365
 20
618.764226869317
 30
0.0
 11
40.274679789836
 21
569.291075300896
 31
0.0
  0
LINE
  5
3D0E
330
1A
100
AcDbEntity
  8
外形線
100
AcDbLine
 10
3.271705411434
 20
606.38189894702
 30
0.0
 11
26.654387911434
 21
619.88189894702
 31
0.0
  0
LINE
  5
3D0F
330
1A
100
AcDbEntity
  8
外形線
100
AcDbLine
 10
3.871723483272
 20
605.342642586518
 30
0.0
 11
27.254391993939
 21
618.84268207207
 31
0.0
  0
LINE
  5
3D10
330
1A
100
AcDbEntity
  8
外形線
100
AcDbLine
 10
37.098336990921
 20
598.840440946748
 30
0.0
 11
16.272158080713
 21
586.816440946748
 31
0.0
  0
LINE
  5
3D11
330
1A
100
AcDbEntity
  8
外形線
100
AcDbLine
 10
7.654958080714
 20
601.74186916573
 30
0.0
 11
28.481136990921
 21
613.76586916573
 31
0.0
  0
LINE
  5
3D12
330
1A
100
AcDbEntity
  8
外形線
100
AcDbLine
 10
30.986136990921
 20
609.42708189277
 30
0.0
 11
10.159958080714
 21
597.40308189277
 31
0.0
  0
ARC
  5
3D13
330
1A
100
AcDbEntity
  8
外形線
100
AcDbCircle
 10
20.948703008189
 20
587.433827528482
 30
0.0
 40
4.007999999999999
100
AcDbArc
 50
210.000000000002
 51
300.000000000002
  0
LINE
  5
3D14
330
1A
100
AcDbEntity
  8
外形線
100
AcDbLine
 10
20.573047535817
 20
603.41508189277
 30
0.0
 11
25.583047535817
 21
594.73750734685
 31
0.0
  0
ARC
  5
3D15
330
1A
100
AcDbEntity
  8
外形線
100
AcDbCircle
 10
16.828511899175
 20
597.876807866188
 30
0.0
 40
9.30038181818205
100
AcDbArc
 50
259.727393143495
 51
340.272606856496
  0
LINE
  5
3D16
330
1A
100
AcDbEntity
  8
外形線
100
AcDbLine
 10
3.871708411434
 20
605.34265994702
 30
0.0
 11
1.208140411434
 21
609.95611694702
 31
0.0
  0
LINE
  5
3D17
330
1A
100
AcDbEntity
  8
外形線
100
AcDbLine
 10
16.575873189821
 20
586.991790946748
 30
0.0
 11
17.477673189821
 21
585.429827528482
 31
0.0
  0
LINE
  5
3D18
330
1A
100
AcDbEntity
  8
細線
100
AcDbLine
 10
12.654760762665
 20
598.84345689277
 30
0.0
 11
10.149760762665
 21
603.18224416573
 31
0.0
  0
LINE
  5
3D19
330
1A
100
AcDbEntity
  8
外形線
100
AcDbLine
 10
8.97611880533
 20
602.50464166573
 30
0.0
 11
11.48111880533
 21
598.16585439277
 31
0.0
  0
LINE
  5
3D1A
330
1A
100
AcDbEntity
  8
外形線
100
AcDbLine
 10
5.149958080713
 20
606.08065643869
 30
0.0
 11
7.654958080714
 21
601.74186916573
 31
0.0
  0
LINE
  5
3D1B
330
1A
100
AcDbEntity
  8
外形線
100
AcDbLine
 10
10.159958080714
 20
597.40308189277
 30
0.0
 11
16.272158080713
 21
586.816440946748
 31
0.0
  0
LINE
  5
3D1C
330
1A
100
AcDbEntity
  8
外形線
100
AcDbLine
 10
15.563047535817
 20
612.09265643869
 30
0.0
 11
18.068047535817
 21
607.75386916573
 31
0.0
  0
LINE
  5
3D1D
330
1A
100
AcDbEntity
  8
外形線
100
AcDbLine
 10
33.488222320137
 20
590.04548262092
 30
0.0
 11
41.585211789836
 21
576.021116300896
 31
0.0
  0
LINE
  5
3D1E
330
1A
100
AcDbEntity
  8
外形線
100
AcDbLine
 10
25.693995482172
 20
585.545461580105
 30
0.0
 11
33.791017840124
 21
571.521114248216
 31
0.0
  0
ARC
  5
3D1F
330
1A
100
AcDbEntity
  8
外形線
100
AcDbCircle
 10
33.790971703191
 20
576.021116699933
 30
0.0
 40
4.5
100
AcDbArc
 50
269.999994133302
 51
329.999994133297
  0
ARC
  5
3D20
330
1A
100
AcDbEntity
  8
外形線
100
AcDbCircle
 10
37.688086250605
 20
578.271116300896
 30
0.0
 40
4.5
100
AcDbArc
 50
269.999994133302
 51
329.999994133297
  0
ARC
  5
3D21
330
1A
100
AcDbEntity
  8
外形線
100
AcDbCircle
 10
41.585199876481
 20
571.521115901858
 30
0.0
 40
4.5
100
AcDbArc
 50
89.999994133303
 51
149.999994133297
  0
ARC
  5
3D22
330
1A
100
AcDbEntity
  8
外形線
100
AcDbCircle
 10
-3.786952588566
 20
645.60784994702
 30
0.0
 40
36.0
100
AcDbArc
 50
322.013338948965
 51
322.019297710041
  0
ARC
  5
3D23
330
1A
100
AcDbEntity
  8
外形線
100
AcDbCircle
 10
-3.786952588566
 20
645.60784994702
 30
0.0
 40
36.0
100
AcDbArc
 50
322.019297710041
 51
322.02995472503
  0
LINE
  5
3D24
330
1A
100
AcDbEntity
  8
外形線
100
AcDbLine
 10
27.254390911434
 20
618.84268394702
 30
0.0
 11
24.589232911434
 21
623.45886344702
 31
0.0
  0
LINE
  5
3D25
330
1A
100
AcDbEntity
  8
外形線
100
AcDbLine
 10
36.794621881815
 20
598.665090946748
 30
0.0
 11
37.696421881815
 21
597.103127528482
 31
0.0
  0
ARC
  5
3D26
330
1A
100
AcDbEntity
  8
外形線
100
AcDbCircle
 10
34.225392063447
 20
595.099127528482
 30
0.0
 40
4.007999999999999
100
AcDbArc
 50
300.000000000002
 51
29.999999999998
  0
LINE
  5
3D27
330
1A
100
AcDbEntity
  8
外形線
100
AcDbLine
 10
22.952703008188
 20
583.962797710114
 30
0.0
 11
36.229392063447
 21
591.628097710114
 31
0.0
  0
LINE
  5
3D28
330
1A
100
AcDbEntity
  8
外形線
100
AcDbLine
 10
27.159976266306
 20
613.00309666573
 30
0.0
 11
29.664976266306
 21
608.66430939277
 31
0.0
  0
LINE
  5
3D29
330
1A
100
AcDbEntity
  8
細線
100
AcDbLine
 10
28.491334308969
 20
607.98670689277
 30
0.0
 11
25.986334308969
 21
612.32549416573
 31
0.0
  0
LINE
  5
3D2A
330
1A
100
AcDbEntity
  8
外形線
100
AcDbLine
 10
25.976136990921
 20
618.10465643869
 30
0.0
 11
28.481136990921
 21
613.76586916573
 31
0.0
  0
LINE
  5
3D2B
330
1A
100
AcDbEntity
  8
外形線
100
AcDbLine
 10
30.986136990921
 20
609.42708189277
 30
0.0
 11
37.098336990921
 21
598.840440946748
 31
0.0
  0
ARC
  5
3D2C
330
1A
100
AcDbEntity
  8
外形線
100
AcDbCircle
 10
27.241601354278
 20
603.888807866188
 30
0.0
 40
9.30038181818205
100
AcDbArc
 50
259.727393143495
 51
340.272606856496
  0
ARC
  5
3D2D
330
1A
100
AcDbEntity
  8
外形線
 48
10.0
100
AcDbCircle
 10
-3.786905210155
 20
655.607907800903
 30
0.0
 40
22.5
100
AcDbArc
 50
92.633603408824
 51
267.366396591176
  0
LINE
  5
3D2E
330
1A
100
AcDbEntity
  8
外形線
 48
10.0
100
AcDbLine
 10
1.079245289835
 20
652.632590071715
 30
0.0
 11
1.079245289835
 21
658.406092763612
 31
0.0
  0
LINE
  5
3D2F
330
1A
100
AcDbEntity
  8
外形線
 48
10.0
100
AcDbLine
 10
-8.920754710165
 20
652.632590071715
 30
0.0
 11
-8.920754710165
 21
658.406092763611
 31
0.0
  0
LINE
  5
3D30
330
1A
100
AcDbEntity
  8
外形線
 48
10.0
100
AcDbLine
 10
-3.020754710165
 20
650.265453968037
 30
0.0
 11
1.079245289836
 21
652.632590071715
 31
0.0
  0
LINE
  5
3D31
330
1A
100
AcDbEntity
  8
外形線
 48
10.0
100
AcDbLine
 10
-8.920754710165
 20
658.406092763611
 30
0.0
 11
-4.820754710165
 21
660.773228867289
 31
0.0
  0
LINE
  5
3D32
330
1A
100
AcDbEntity
  8
外形線
 48
10.0
100
AcDbLine
 10
1.079245289835
 20
658.406092763612
 30
0.0
 11
-3.020754710165
 21
660.773228867289
 31
0.0
  0
LINE
  5
3D33
330
1A
100
AcDbEntity
  8
外形線
 48
10.0
100
AcDbLine
 10
-4.820754710165
 20
650.265453968038
 30
0.0
 11
-8.920754710165
 21
652.632590071715
 31
0.0
  0
ARC
  5
3D34
330
1A
100
AcDbEntity
  8
細線
 48
10.0
100
AcDbCircle
 10
-3.920754710165
 20
655.519341417663
 30
0.0
 40
5.0
100
AcDbArc
 50
100.369759805477
 51
259.630240194522
  0
LINE
  5
3D59
330
1A
100
AcDbEntity
  8
中心線
 48
10.0
100
AcDbLine
 10
-3.920754710165
 20
699.704907292828
 30
0.0
 11
-3.920754710165
 21
601.981411383848
 31
0.0
  0
LINE
  5
3D5A
330
1A
100
AcDbEntity
  8
外形線
 48
10.0
100
AcDbLine
 10
-4.820754710165
 20
695.519341417663
 30
0.0
 11
-3.020754710165
 21
695.519341417663
 31
0.0
  0
LINE
  5
3D5B
330
1A
100
AcDbEntity
  8
外形線
 48
10.0
100
AcDbLine
 10
-3.020754710165
 20
695.519341417663
 30
0.0
 11
-3.020754710165
 21
615.519341417663
 31
0.0
  0
LINE
  5
3D5C
330
1A
100
AcDbEntity
  8
外形線
 48
10.0
100
AcDbLine
 10
-4.820754710165
 20
695.519341417663
 30
0.0
 11
-4.820754710165
 21
615.519341417663
 31
0.0
  0
LINE
  5
3D5D
330
1A
100
AcDbEntity
  8
外形線
 48
10.0
100
AcDbLine
 10
-3.020754710165
 20
615.519341417663
 30
0.0
 11
-4.820754710165
 21
615.519341417663
 31
0.0
  0
ARC
  5
3D5E
330
1A
100
AcDbEntity
  8
細線
 48
10.0
100
AcDbCircle
 10
-3.920754710165
 20
655.519341417663
 30
0.0
 40
5.0
100
AcDbArc
 50
280.369759805478
 51
79.630240194523
  0
ARC
  5
3D5F
330
1A
100
AcDbEntity
  8
外形線
 48
10.0
100
AcDbCircle
 10
-3.786905210155
 20
655.607907800903
 30
0.0
 40
22.5
100
AcDbArc
 50
271.951363445946
 51
88.048636554054
  0
TEXT
  5
3D60
330
1A
100
AcDbEntity
  8
寸法線
100
AcDbText
 10
-58.743794184301
 20
485.84137771168
 30
0.0
 40
6.573033707865
  1
ク　ロ
  7
EXCADVERT
 72
     3
 11
-58.743794184301
 21
466.34137771168
 31
0.0
100
AcDbText
  0
TEXT
  5
3D61
330
1A
100
AcDbEntity
  8
寸法線
100
AcDbText
 10
-88.294452684301
 20
485.691368711681
 30
0.0
 40
6.030927835052
  1
ア　カ
  7
EXCADVERT
 72
     3
 11
-88.294452684301
 21
466.191368711681
 31
0.0
100
AcDbText
  0
TEXT
  5
3D62
330
1A
100
AcDbEntity
  8
寸法線
100
AcDbText
 10
-104.044727184301
 20
479.016190211681
 30
0.0
 40
6.428571428571
  1
キ
  7
EXCADVERT
 72
     3
 11
-104.044727184301
 21
473.016190211681
 31
0.0
100
AcDbText
  0
TEXT
  5
3D63
330
1A
100
AcDbEntity
  8
寸法線
100
AcDbText
 10
-119.420099184301
 20
485.84137771168
 30
0.0
 40
5.636363639073
  1
ミドリ
  7
EXCADVERT
 72
     3
 11
-119.420099184301
 21
467.24137770274
 31
0.0
100
AcDbText
  0
LINE
  5
3D64
330
1A
100
AcDbEntity
  8
寸法線
100
AcDbLine
 10
-115.677143184301
 20
529.85777971168
 30
0.0
 11
-115.677143184301
 21
436.857775211681
 31
0.0
  0
LINE
  5
3D65
330
1A
100
AcDbEntity
  8
寸法線
100
AcDbLine
 10
-84.618153684301
 20
529.85777971168
 30
0.0
 11
-84.618153684301
 21
445.857775211681
 31
0.0
  0
LINE
  5
3D66
330
1A
100
AcDbEntity
  8
寸法線
100
AcDbLine
 10
-115.677143184301
 20
436.857769211681
 30
0.0
 11
-40.435937184301
 21
436.857769211681
 31
0.0
  0
LINE
  5
3D67
330
1A
100
AcDbEntity
  8
寸法線
100
AcDbLine
 10
-100.147706184301
 20
500.51238271168
 30
0.0
 11
-100.147706184301
 21
441.357775211681
 31
0.0
  0
LINE
  5
3D68
330
1A
100
AcDbEntity
  8
寸法線
100
AcDbLine
 10
-100.147706184301
 20
441.357775211681
 30
0.0
 11
-40.073433684301
 21
441.357775211681
 31
0.0
  0
LINE
  5
3D69
330
1A
100
AcDbEntity
  8
寸法線
100
AcDbLine
 10
-69.838383684301
 20
500.51238271168
 30
0.0
 11
-69.838383684301
 21
450.357775211681
 31
0.0
  0
LINE
  5
3D6A
330
1A
100
AcDbEntity
  8
寸法線
100
AcDbLine
 10
-54.844380684301
 20
454.857775211681
 30
0.0
 11
-54.844380684301
 21
500.14466071168
 31
0.0
  0
LINE
  5
3D6B
330
1A
100
AcDbEntity
  8
寸法線
100
AcDbLine
 10
-84.618153684301
 20
445.857775211681
 30
0.0
 11
-34.368164184301
 21
445.857775211681
 31
0.0
  0
LINE
  5
3D6C
330
1A
100
AcDbEntity
  8
寸法線
100
AcDbLine
 10
-38.427750684301
 20
441.84944671168
 30
0.0
 11
-36.562100184301
 21
443.073484211681
 31
0.0
  0
LINE
  5
3D6D
330
1A
100
AcDbEntity
  8
寸法線
100
AcDbLine
 10
-38.295251184301
 20
437.755999211681
 30
0.0
 11
-36.338676684301
 21
439.748792711681
 31
0.0
  0
LINE
  5
3D6E
330
1A
100
AcDbEntity
  8
寸法線
100
AcDbLine
 10
-34.368164184301
 20
443.596913711681
 30
0.0
 11
-35.068737684301
 21
443.561288711681
 31
0.0
  0
LINE
  5
3D6F
330
1A
100
AcDbEntity
  8
寸法線
100
AcDbLine
 10
-34.368164184301
 20
440.645425211681
 30
0.0
 11
-34.506695184301
 21
440.631097211681
 31
0.0
  0
ARC
  5
3D70
330
1A
100
AcDbEntity
  8
寸法線
100
AcDbCircle
 10
-40.073433684301
 20
444.357775211681
 30
0.0
 40
3.0
100
AcDbArc
 50
270.0
 51
303.268623610808
  0
ARC
  5
3D71
330
1A
100
AcDbEntity
  8
寸法線
100
AcDbCircle
 10
-34.916405184301
 20
440.56516771168
 30
0.0
 40
3.0
100
AcDbArc
 50
92.910721466856
 51
123.268603762964
  0
ARC
  5
3D72
330
1A
100
AcDbEntity
  8
寸法線
100
AcDbCircle
 10
-34.197990684301
 20
437.647022711681
 30
0.0
 40
3.0
100
AcDbArc
 50
95.906259411359
 51
135.525546099523
  0
ARC
  5
3D73
330
1A
100
AcDbEntity
  8
寸法線
100
AcDbCircle
 10
-40.435937184301
 20
439.857775211681
 30
0.0
 40
3.0
100
AcDbArc
 50
270.0
 51
315.525565947365
  0
ARC
  5
3D74
330
1A
100
AcDbEntity
  8
寸法線
100
AcDbCircle
 10
-40.073433684301
 20
447.357775211681
 30
0.0
 40
3.0
100
AcDbArc
 50
56.731416084879
 51
89.999981276031
  0
LINE
  5
3D75
330
1A
100
AcDbEntity
  8
寸法線
100
AcDbLine
 10
-38.427750684301
 20
449.866102211681
 30
0.0
 11
-36.562100184301
 21
448.642064711681
 31
0.0
  0
LINE
  5
3D76
330
1A
100
AcDbEntity
  8
寸法線
100
AcDbLine
 10
-34.368164184301
 20
448.118635211681
 30
0.0
 11
-35.068737684301
 21
448.154260211681
 31
0.0
  0
ARC
  5
3D77
330
1A
100
AcDbEntity
  8
寸法線
100
AcDbCircle
 10
-34.916405184301
 20
451.15038121168
 30
0.0
 40
3.0
100
AcDbArc
 50
236.731435932721
 51
267.089318228831
  0
LINE
  5
3D78
330
1A
100
AcDbEntity
  8
寸法線
100
AcDbLine
 10
-34.368164184301
 20
451.07012371168
 30
0.0
 11
-34.506695184301
 21
451.08445171168
 31
0.0
  0
ARC
  5
3D79
330
1A
100
AcDbEntity
  8
寸法線
100
AcDbCircle
 10
-34.197990684301
 20
454.068521711681
 30
0.0
 40
3.0
100
AcDbArc
 50
224.474436300384
 51
264.093722988548
  0
LINE
  5
3D7A
330
1A
100
AcDbEntity
  8
寸法線
100
AcDbLine
 10
-38.295251184301
 20
453.95955121168
 30
0.0
 11
-36.338676684301
 21
451.966756211681
 31
0.0
  0
ARC
  5
3D7B
330
1A
100
AcDbEntity
  8
寸法線
100
AcDbCircle
 10
-40.435937184301
 20
451.857775211681
 30
0.0
 40
3.0
100
AcDbArc
 50
44.474473748322
 51
89.999981276031
  0
LINE
  5
3D7C
330
1A
100
AcDbEntity
  8
寸法線
100
AcDbLine
 10
-54.844380684301
 20
454.857775211681
 30
0.0
 11
-40.435937184301
 21
454.857775211681
 31
0.0
  0
LINE
  5
3D7D
330
1A
100
AcDbEntity
  8
寸法線
100
AcDbLine
 10
-69.838383684301
 20
450.357775211681
 30
0.0
 11
-40.073433684301
 21
450.357775211681
 31
0.0
  0
LINE
  5
3D7E
330
1A
100
AcDbEntity
  8
寸法線
100
AcDbLine
 10
-31.368164184301
 20
451.857775211681
 30
0.0
 11
21.131823815699
 21
451.857775211681
 31
0.0
  0
LINE
  5
3D7F
330
1A
100
AcDbEntity
  8
寸法線
100
AcDbLine
 10
-31.368164184301
 20
439.857775211681
 30
0.0
 11
21.131823815699
 21
439.857775211681
 31
0.0
  0
ARC
  5
3D80
330
1A
100
AcDbEntity
  8
寸法線
100
AcDbCircle
 10
15.935672432223
 20
442.85777341168
 30
0.0
 40
6.0
100
AcDbArc
 50
330.000019847844
 51
30.000019847843
  0
ARC
  5
3D81
330
1A
100
AcDbEntity
  8
寸法線
100
AcDbCircle
 10
15.935670353762
 20
448.85777341168
 30
0.0
 40
6.0
100
AcDbArc
 50
330.000019847844
 51
30.000019847843
  0
ARC
  5
3D82
330
1A
100
AcDbEntity
  8
寸法線
100
AcDbCircle
 10
26.327975199174
 20
448.857777011681
 30
0.0
 40
6.0
100
AcDbArc
 50
150.000019847843
 51
210.000019847843
  0
ARC
  5
3D83
330
1A
100
AcDbEntity
  8
寸法線
100
AcDbCircle
 10
-26.172011761594
 20
448.857775211681
 30
0.0
 40
6.0
100
AcDbArc
 50
150.0
 51
210.0
  0
ARC
  5
3D84
330
1A
100
AcDbEntity
  8
寸法線
100
AcDbCircle
 10
-26.172011761594
 20
442.857775211681
 30
0.0
 40
6.0
100
AcDbArc
 50
150.0
 51
209.999999999999
  0
ARC
  5
3D85
330
1A
100
AcDbEntity
  8
寸法線
100
AcDbCircle
 10
-36.564316607008
 20
442.857775211681
 30
0.0
 40
6.0
100
AcDbArc
 50
330.0
 51
30.0
  0
LINE
  5
3D86
330
1A
100
AcDbEntity
  8
寸法線
100
AcDbLine
 10
24.131823815699
 20
445.857775211681
 30
0.0
 11
58.631823815699
 21
445.857775211681
 31
0.0
  0
LINE
  5
3D87
330
1A
100
AcDbEntity
  8
寸法線
100
AcDbLine
 10
58.631823815699
 20
453.357775211681
 30
0.0
 11
30.614009315699
 21
453.357775211681
 31
0.0
  0
LINE
  5
3D88
330
1A
100
AcDbEntity
  8
寸法線
100
AcDbLine
 10
58.631823815699
 20
460.857775211681
 30
0.0
 11
30.763949315699
 21
460.857775211681
 31
0.0
  0
LINE
  5
3D89
330
1A
100
AcDbEntity
  8
寸法線
100
AcDbLine
 10
27.930758315699
 20
458.844209711681
 30
0.0
 11
25.596735815699
 21
452.14048921168
 31
0.0
  0
LINE
  5
3D8A
330
1A
100
AcDbEntity
  8
寸法線
100
AcDbLine
 10
24.180140315699
 20
451.133707211681
 30
0.0
 11
24.131823815699
 21
451.133707211681
 31
0.0
  0
LINE
  5
3D8B
330
1A
100
AcDbEntity
  8
寸法線
100
AcDbLine
 10
27.854403815699
 20
451.534421711681
 30
0.0
 11
27.179316815699
 21
449.95116571168
 31
0.0
  0
LINE
  5
3D8C
330
1A
100
AcDbEntity
  8
寸法線
100
AcDbLine
 10
25.109607815699
 20
448.583654711681
 30
0.0
 11
24.131823815699
 21
448.583654711681
 31
0.0
  0
ARC
  5
3D8D
330
1A
100
AcDbEntity
  8
寸法線
100
AcDbCircle
 10
30.763949315699
 20
457.857775211681
 30
0.0
 40
3.0
100
AcDbArc
 50
89.999981276032
 51
160.80341269666
  0
ARC
  5
3D8E
330
1A
100
AcDbEntity
  8
寸法線
100
AcDbCircle
 10
30.614009315699
 20
450.357775211681
 30
0.0
 40
3.0
100
AcDbArc
 50
89.999981276032
 51
156.907528872886
  0
ARC
  5
3D8F
330
1A
100
AcDbEntity
  8
寸法線
100
AcDbCircle
 10
24.180140315699
 20
452.633707211681
 30
0.0
 40
1.5
100
AcDbArc
 50
270.0
 51
340.803432544508
  0
ARC
  5
3D90
330
1A
100
AcDbEntity
  8
寸法線
100
AcDbCircle
 10
25.109607815699
 20
450.833654711681
 30
0.0
 40
2.25
100
AcDbArc
 50
270.0
 51
336.907491424954
  0
LINE
  5
3D91
330
1A
100
AcDbEntity
  8
寸法線
100
AcDbLine
 10
58.631823815699
 20
430.857775211681
 30
0.0
 11
30.763949315699
 21
430.857775211681
 31
0.0
  0
ARC
  5
3D92
330
1A
100
AcDbEntity
  8
寸法線
100
AcDbCircle
 10
30.763949315699
 20
433.857775211681
 30
0.0
 40
3.0
100
AcDbArc
 50
199.196626999025
 51
270.0
  0
LINE
  5
3D93
330
1A
100
AcDbEntity
  8
寸法線
100
AcDbLine
 10
58.631823815699
 20
438.357775211681
 30
0.0
 11
30.614009315699
 21
438.357775211681
 31
0.0
  0
ARC
  5
3D94
330
1A
100
AcDbEntity
  8
寸法線
100
AcDbCircle
 10
30.614009315699
 20
441.357775211681
 30
0.0
 40
3.0
100
AcDbArc
 50
203.092510822796
 51
270.0
  0
LINE
  5
3D95
330
1A
100
AcDbEntity
  8
寸法線
100
AcDbLine
 10
24.180140315699
 20
440.581841711681
 30
0.0
 11
24.131823815699
 21
440.581841711681
 31
0.0
  0
LINE
  5
3D96
330
1A
100
AcDbEntity
  8
寸法線
100
AcDbLine
 10
27.930758315699
 20
432.871339211681
 30
0.0
 11
25.596735815699
 21
439.575059711681
 31
0.0
  0
ARC
  5
3D97
330
1A
100
AcDbEntity
  8
寸法線
100
AcDbCircle
 10
24.180140315699
 20
439.081841711681
 30
0.0
 40
1.5
100
AcDbArc
 50
19.196607151181
 51
89.999981276032
  0
LINE
  5
3D98
330
1A
100
AcDbEntity
  8
寸法線
100
AcDbLine
 10
27.854403815699
 20
440.181127211681
 30
0.0
 11
27.179316815699
 21
441.764383211681
 31
0.0
  0
LINE
  5
3D99
330
1A
100
AcDbEntity
  8
寸法線
100
AcDbLine
 10
25.109607815699
 20
443.13189571168
 30
0.0
 11
24.131823815699
 21
443.13189571168
 31
0.0
  0
ARC
  5
3D9A
330
1A
100
AcDbEntity
  8
寸法線
100
AcDbCircle
 10
25.109607815699
 20
440.88189571168
 30
0.0
 40
2.25
100
AcDbArc
 50
23.092490974952
 51
89.999981276031
  0
TEXT
  5
3D9B
330
1A
100
AcDbEntity
  8
寸法線
100
AcDbText
 10
-18.472011684301
 20
442.710100211681
 30
0.0
 40
6.75
  1
リード線
 41
0.869565217391
  7
EXCADSTD
 72
     5
 11
8.527988315699
 21
442.710100211681
 31
0.0
100
AcDbText
  0
TEXT
  5
3D9C
330
1A
100
AcDbEntity
  8
寸法線
100
AcDbText
 10
42.579219815699
 20
461.98549321168
 30
0.0
 40
5.25
  1
ク　ロ
 41
0.918367346939
  7
EXCADSTD
 72
     5
 11
58.329219815699
 21
461.98549321168
 31
0.0
100
AcDbText
  0
TEXT
  5
3D9D
330
1A
100
AcDbEntity
  8
寸法線
100
AcDbText
 10
42.729228815699
 20
454.335334211681
 30
0.0
 40
5.25
  1
シ　ロ
 41
0.918367346939
  7
EXCADSTD
 72
     5
 11
58.479228815699
 21
454.335334211681
 31
0.0
100
AcDbText
  0
TEXT
  5
3D9E
330
1A
100
AcDbEntity
  8
寸法線
100
AcDbText
 10
42.729228815699
 20
446.68518271168
 30
0.0
 40
5.25
  1
ア　カ
 41
0.909090909091
  7
EXCADSTD
 72
     5
 11
58.479228815699
 21
446.68518271168
 31
0.0
100
AcDbText
  0
TEXT
  5
3D9F
330
1A
100
AcDbEntity
  8
寸法線
100
AcDbText
 10
47.979342815699
 20
439.18502221168
 30
0.0
 40
5.25
  1
キ
 41
1.071428571429
  7
EXCADSTD
 72
     5
 11
53.229342815699
 21
439.18502221168
 31
0.0
100
AcDbText
  0
TEXT
  5
3DA0
330
1A
100
AcDbEntity
  8
寸法線
100
AcDbText
 10
42.729228815699
 20
431.53486471168
 30
0.0
 40
5.25
  1
ミドリ
 41
0.947368421053
  7
EXCADSTD
 72
     5
 11
58.479228815699
 21
431.53486471168
 31
0.0
100
AcDbText
  0
TEXT
  5
3DA1
330
1A
100
AcDbEntity
  8
寸法線
100
AcDbText
 10
-73.607236256824
 20
485.499473711681
 30
0.0
 40
6.724137931034
  1
シ　ロ
  7
EXCADVERT
 72
     3
 11
-73.607236256824
 21
465.999473711681
 31
0.0
100
AcDbText
  0
TEXT
  5
3DA2
330
1A
100
AcDbEntity
  8
寸法線
100
AcDbText
 10
63.281214815699
 20
453.923971211681
 30
0.0
 40
7.5
  1
電源
 41
0.923076923077
  7
EXCADSTD
 72
     5
 11
78.281214815699
 21
453.923971211681
 31
0.0
100
AcDbText
  0
TEXT
  5
3DA3
330
1A
100
AcDbEntity
  8
寸法線
100
AcDbText
 10
66.356219315699
 20
449.573750711681
 30
0.0
 40
7.336956521739
  1
ＨＣＬ
  7
EXCADVERT
 72
     3
 11
66.356219315699
 21
427.073750711681
 31
0.0
100
AcDbText
  0
LINE
  5
3DA4
330
1A
100
AcDbEntity
  8
寸法線
100
AcDbLine
 10
-115.677143184301
 20
529.85777971168
 30
0.0
 11
-106.038150684301
 21
529.85777971168
 31
0.0
  0
LINE
  5
3DA5
330
1A
100
AcDbEntity
  8
寸法線
100
AcDbLine
 10
-106.038150684301
 20
529.85777971168
 30
0.0
 11
-106.038150684301
 21
515.077964711681
 31
0.0
  0
LINE
  5
3DA6
330
1A
100
AcDbEntity
  8
寸法線
100
AcDbLine
 10
-94.257146184301
 20
529.85777971168
 30
0.0
 11
-84.618153684301
 21
529.85777971168
 31
0.0
  0
LINE
  5
3DA7
330
1A
100
AcDbEntity
  8
寸法線
100
AcDbLine
 10
-69.838359684301
 20
529.85777971168
 30
0.0
 11
-54.844356684301
 21
529.85777971168
 31
0.0
  0
TEXT
  5
3DA8
330
1A
100
AcDbEntity
  8
寸法線
100
AcDbText
 10
-59.345318184301
 20
502.38262171168
 30
0.0
 40
9.0
  1
Ｍ
 41
1.25
  7
EXCADSTD
 72
     5
 11
-50.345318184301
 21
502.38262171168
 31
0.0
100
AcDbText
  0
LINE
  5
3DA9
330
1A
100
AcDbEntity
  8
寸法線
100
AcDbLine
 10
-54.844356684301
 20
529.85777971168
 30
0.0
 11
-54.844356684301
 21
513.93305221168
 31
0.0
  0
CIRCLE
  5
3DAA
330
1A
100
AcDbEntity
  8
寸法線
100
AcDbCircle
 10
-100.147649184301
 20
501.712387211681
 30
0.0
 40
1.2000045
  0
CIRCLE
  5
3DAB
330
1A
100
AcDbEntity
  8
寸法線
100
AcDbCircle
 10
-69.838359684301
 20
501.712387211681
 30
0.0
 40
1.2000045
  0
CIRCLE
  5
3DAC
330
1A
100
AcDbEntity
  8
寸法線
100
AcDbCircle
 10
-106.038150684301
 20
513.877960211681
 30
0.0
 40
1.2000045
  0
LINE
  5
3DAD
330
1A
100
AcDbEntity
  8
寸法線
100
AcDbLine
 10
-94.257146184301
 20
529.85777971168
 30
0.0
 11
-94.257146184301
 21
515.077964711681
 31
0.0
  0
CIRCLE
  5
3DAE
330
1A
100
AcDbEntity
  8
寸法線
100
AcDbCircle
 10
-94.257146184301
 20
513.877960211681
 30
0.0
 40
1.2000045
  0
LINE
  5
3DAF
330
1A
100
AcDbEntity
  8
寸法線
100
AcDbLine
 10
-69.838359684301
 20
529.85777971168
 30
0.0
 11
-69.838359684301
 21
515.077964711681
 31
0.0
  0
CIRCLE
  5
3DB0
330
1A
100
AcDbEntity
  8
寸法線
100
AcDbCircle
 10
-69.838359684301
 20
513.877960211681
 30
0.0
 40
1.2000045
  0
LINE
  5
3DB1
330
1A
100
AcDbEntity
  8
寸法線
100
AcDbLine
 10
-100.147649184301
 20
502.912379711681
 30
0.0
 11
-104.838146184301
 21
513.877960211681
 31
0.0
  0
LINE
  5
3DB2
330
1A
100
AcDbEntity
  8
寸法線
100
AcDbLine
 10
-69.838359684301
 20
502.912379711681
 30
0.0
 11
-68.638355184301
 21
513.877960211681
 31
0.0
  0
CIRCLE
  5
3DB3
330
1A
100
AcDbEntity
  8
寸法線
100
AcDbCircle
 10
-54.838680684301
 20
507.04970521168
 30
0.0
 40
6.883348499999999
  0
LINE
  5
3DB4
330
1A
100
AcDbEntity
  8
寸法線
100
AcDbLine
 10
314.524474796491
 20
486.075906380533
 30
0.0
 11
314.524474796491
 21
528.075861380533
 31
0.0
  0
LINE
  5
3DB5
330
1A
100
AcDbEntity
  8
寸法線
100
AcDbLine
 10
394.024474796491
 20
517.575861380533
 30
0.0
 11
242.524383296491
 21
517.575861380533
 31
0.0
  0
LINE
  5
3DB6
330
1A
100
AcDbEntity
  8
寸法線
100
AcDbLine
 10
394.024474796491
 20
507.075861380533
 30
0.0
 11
242.524383296491
 21
507.075861380533
 31
0.0
  0
LINE
  5
3DB7
330
1A
100
AcDbEntity
  8
寸法線
100
AcDbLine
 10
394.024474796491
 20
496.575861380533
 30
0.0
 11
242.524383296491
 21
496.575861380533
 31
0.0
  0
LINE
  5
3DB8
330
1A
100
AcDbEntity
  8
寸法線
100
AcDbLine
 10
242.524383296491
 20
528.075861380533
 30
0.0
 11
394.024474796491
 21
528.075861380533
 31
0.0
  0
LINE
  5
3DB9
330
1A
100
AcDbEntity
  8
寸法線
100
AcDbLine
 10
266.524405796491
 20
486.075906380533
 30
0.0
 11
266.524405796491
 21
528.075861380533
 31
0.0
  0
ARC
  5
3DBA
330
1A
100
AcDbEntity
  8
寸法線
100
AcDbCircle
 10
290.965621796491
 20
520.915795880533
 30
0.0
 40
1.3204605
100
AcDbArc
 50
252.904086432758
 51
337.411923467783
  0
ARC
  5
3DBB
330
1A
100
AcDbEntity
  8
寸法線
100
AcDbCircle
 10
290.965621796491
 20
520.915750880533
 30
0.0
 40
1.3204425
100
AcDbArc
 50
252.903398883403
 51
337.412611017143
  0
ARC
  5
3DBC
330
1A
100
AcDbEntity
  8
寸法線
100
AcDbCircle
 10
287.562331796491
 20
523.407358880533
 30
0.0
 40
3.7598535
100
AcDbArc
 50
273.280470979894
 51
33.415912335968
  0
ARC
  5
3DBD
330
1A
100
AcDbEntity
  8
寸法線
100
AcDbCircle
 10
292.325316296491
 20
522.653695880533
 30
0.0
 40
3.472035
100
AcDbArc
 50
123.4690243997
 51
239.774013712206
  0
ARC
  5
3DBE
330
1A
100
AcDbEntity
  8
寸法線
100
AcDbCircle
 10
292.325316296491
 20
522.653695880533
 30
0.0
 40
3.4720395
100
AcDbArc
 50
123.4690243997
 51
239.773899120645
  0
ARC
  5
3DBF
330
1A
100
AcDbEntity
  8
寸法線
100
AcDbCircle
 10
290.522964296491
 20
525.382516880533
 30
0.0
 40
0.2017125
100
AcDbArc
 50
28.230948369043
 51
123.883845843371
  0
LINE
  5
3DC0
330
1A
100
AcDbEntity
  8
寸法線
100
AcDbLine
 10
394.024474796491
 20
486.075906380533
 30
0.0
 11
242.524383296491
 21
486.075906380533
 31
0.0
  0
LINE
  5
3DC1
330
1A
100
AcDbEntity
  8
寸法線
100
AcDbLine
 10
242.524405796491
 20
486.075906380533
 30
0.0
 11
242.524405796491
 21
528.075861380533
 31
0.0
  0
TEXT
  5
3DC2
330
1A
100
AcDbEntity
  8
寸法線
100
AcDbText
 10
244.552710296491
 20
519.638040380533
 30
0.0
 40
6.75
  1
御仕様
 41
0.882352941176
  7
EXCADSTD
 72
     5
 11
264.802710296491
 21
519.638040380533
 31
0.0
100
AcDbText
  0
LINE
  5
3DC3
330
1A
100
AcDbEntity
  8
寸法線
100
AcDbLine
 10
394.024474796491
 20
486.075906380533
 30
0.0
 11
394.024474796491
 21
528.075861380533
 31
0.0
  0
LINE
  5
3DC4
330
1A
100
AcDbEntity
  8
寸法線
100
AcDbLine
 10
364.024474796491
 20
486.075906380533
 30
0.0
 11
364.024474796491
 21
528.075861380533
 31
0.0
  0
TEXT
  5
3DC5
330
1A
100
AcDbEntity
  8
寸法線
100
AcDbText
 10
372.280150796491
 20
519.487984880533
 30
0.0
 40
6.75
  1
台数
 41
0.909090909091
  7
EXCADSTD
 72
     5
 11
385.780150796491
 21
519.487984880533
 31
0.0
100
AcDbText
  0
TEXT
  5
3DC6
330
1A
100
AcDbEntity
  8
寸法線
100
AcDbText
 10
332.829253796491
 20
519.637995380533
 30
0.0
 40
6.75
  1
記事
 41
0.909090909091
  7
EXCADSTD
 72
     5
 11
346.329253796491
 21
519.637995380533
 31
0.0
100
AcDbText
  0
MTEXT
  5
3DC7
102
{ACAD_XDICTIONARY
360
3DC8
102
}
330
1A
100
AcDbEntity
  8
寸法線
 48
10.0
100
AcDbMText
 10
57.999851050985
 20
528.733833368691
 30
0.0
 40
7.0
 41
158.221086696158
 71
     1
 72
     5
  1
\H0.8571x;塗　装　色：7.5BG4/1.5\P接点　容量：AC250V5A\P静止トルク：約4.9N・cm（約500g・cm）\P回　転　数：1RPM
1001
ACADANNOTATIVE
1000
AnnotativeData
1002
{
1070
     1
1070
     0
1002
}
  0
DIMENSION
  5
3DCB
330
1A
100
AcDbEntity
  8
寸法線
 48
10.0
100
AcDbDimension
  2
*D31
 10
199.611213517781
 20
642.298841417663
 30
0.0
 11
199.611213517781
 21
687.220171503553
 31
0.0
 70
   160
  1
G 3/4"
  3
ISO-25
100
AcDbAlignedDimension
 13
194.462247192495
 23
668.739841417663
 33
0.0
 14
194.462247192495
 24
642.298841417663
 34
0.0
 50
90.0
100
AcDbRotatedDimension
1001
ACAD
1000
DSTYLE
1002
{
1070
     5
1000
OPEN30
1070
    41
1040
6.0
1070
    47
1040
0.1
1070
    48
1040
0.1
1070
    73
1070
     0
1070
   140
1040
6.0
1070
   271
1070
     1
1070
   272
1070
     1
1070
   341
1005
2AF4
1002
}
  0
DIMENSION
  5
3DCF
330
1A
100
AcDbEntity
  8
寸法線
 48
10.0
100
AcDbDimension
  2
*D35
 10
331.662229192495
 20
560.508260647695
 30
0.0
 11
290.162229192495
 21
564.142635647695
 31
0.0
 70
    32
  1
83
  3
ISO-25
100
AcDbAlignedDimension
 13
248.662229192495
 23
634.969323640466
 33
0.0
 14
331.662229192495
 24
580.692123093146
 34
0.0
100
AcDbRotatedDimension
1001
ACAD
1000
DSTYLE
1002
{
1070
     5
1000
OPEN30
1070
    41
1040
6.0
1070
    47
1040
0.1
1070
    48
1040
0.1
1070
    73
1070
     0
1070
   140
1040
6.0
1070
   271
1070
     1
1070
   272
1070
     1
1070
   341
1005
2AF4
1002
}
  0
MTEXT
  5
3DDC
330
1A
100
AcDbEntity
  8
寸法線
 48
10.0
100
AcDbMText
 10
284.686841498322
 20
588.616885942847
 30
0.0
 40
6.0
 41
51.077111820171
 71
     1
 72
     5
  1
リード線0.5m付
  0
LEADER
  5
3DDD
330
1A
100
AcDbEntity
  8
寸法線
 48
10.0
100
AcDbLeader
  3
ISO-25
 76
     2
 10
270.463820205437
 20
578.160999877728
 30
0.0
 10
283.860839802024
 20
583.179952490802
 30
0.0
1001
ACAD
1000
DSTYLE
1002
{
1070
     5
1000
OPEN30
1070
   147
1040
0.625
1070
    77
1070
     0
1070
    41
1040
6.0
1070
    47
1040
0.1
1070
    48
1040
0.1
1070
    73
1070
     0
1070
   140
1040
5.0
1070
   271
1070
     1
1070
   272
1070
     1
1070
   341
1005
2AF4
1070
   342
1005
2AF4
1002
}
  0
LINE
  5
3DF7
330
1A
100
AcDbEntity
  8
中心線
 48
10.0
100
AcDbLine
 10
-52.889843505304
 20
645.607877300896
 30
0.0
 11
45.048334084975
 21
645.607877300896
 31
0.0
  0
LINE
  5
3DF8
330
1A
100
AcDbEntity
  8
中心線
 48
10.0
100
AcDbLine
 10
45.048334084975
 20
655.519341417663
 30
0.0
 11
-52.889843505304
 21
655.519341417663
 31
0.0
  0
DIMENSION
  5
3DF9
330
1A
100
AcDbEntity
  8
寸法線
 48
10.0
100
AcDbDimension
  2
*D36
 10
50.436234331678
 20
645.607877300896
 30
0.0
 11
50.436234331678
 21
650.563609359279
 31
0.0
 70
   160
  1
10
  3
ISO-25
100
AcDbAlignedDimension
 13
45.048334084975
 23
655.519341417663
 33
0.0
 14
45.048334084975
 24
645.607877300896
 34
0.0
 50
90.0
100
AcDbRotatedDimension
1001
ACAD
1000
DSTYLE
1002
{
1070
     5
1000
OPEN30
1070
    41
1040
6.0
1070
    47
1040
0.1
1070
    48
1040
0.1
1070
    73
1070
     0
1070
   140
1040
6.0
1070
   271
1070
     1
1070
   272
1070
     1
1070
   341
1005
2AF4
1002
}
  0
DIMENSION
  5
3DFA
330
1A
100
AcDbEntity
  8
寸法線
 48
10.0
100
AcDbDimension
  2
*D37
 10
14.079245289835
 20
705.506458306382
 30
0.0
 11
-3.920754710165
 21
709.134583306382
 31
0.0
 70
    32
  3
ISO-25
100
AcDbAlignedDimension
 13
-21.920754710165
 23
665.911646263076
 33
0.0
 14
14.079245289835
 24
665.911646263076
 34
0.0
100
AcDbRotatedDimension
1001
ACAD
1000
DSTYLE
1002
{
1070
     5
1000
OPEN30
1070
    41
1040
6.0
1070
    47
1040
0.1
1070
    48
1040
0.1
1070
    73
1070
     0
1070
   140
1040
6.0
1070
   271
1070
     1
1070
   272
1070
     1
1070
   341
1005
2AF4
1002
}
  0
MTEXT
  5
3DFB
330
1A
100
AcDbEntity
  8
寸法線
 48
10.0
100
AcDbMText
 10
-9.8962824508
 20
722.089547464651
 30
0.0
 40
6.0
 41
18.538303897182
 71
     1
 72
     5
  1
平径
  0
DIMENSION
  5
3DFC
330
1A
100
AcDbEntity
  8
寸法線
 48
10.0
100
AcDbDimension
  2
*D38
 10
-3.020754710165
 20
624.440867540967
 30
0.0
 11
10.204245289835
 21
628.065867540967
 31
0.0
 70
    32
  1
1
  3
ISO-25
100
AcDbAlignedDimension
 13
-4.820754710165
 23
624.440867540967
 33
0.0
 14
-3.020754710165
 24
624.440867540967
 34
0.0
100
AcDbRotatedDimension
1001
ACAD
1000
DSTYLE
1002
{
1070
     5
1000
OPEN30
1070
    41
1040
6.0
1070
    47
1040
0.1
1070
    48
1040
0.1
1070
    73
1070
     0
1070
   140
1040
6.0
1070
   271
1070
     1
1070
   272
1070
     1
1070
   341
1005
2AF4
1002
}
  0
LEADER
  5
3DFD
330
1A
100
AcDbEntity
  8
寸法線
 48
10.0
100
AcDbLeader
  3
ISO-25
 76
     3
 10
13.216058080713
 20
592.109761419759
 30
0.0
 10
-2.440844691714
 20
571.837331965943
 30
0.0
 10
-17.482714107827
 20
571.837331965943
 30
0.0
1001
ACAD
1000
DSTYLE
1002
{
1070
     5
1000
OPEN30
1070
   147
1040
0.625
1070
    77
1070
     0
1070
    41
1040
6.0
1070
    47
1040
0.1
1070
    48
1040
0.1
1070
    73
1070
     0
1070
   140
1040
5.0
1070
   271
1070
     1
1070
   272
1070
     1
1070
   341
1005
2AF4
1070
   342
1005
2AF4
1002
}
  0
MTEXT
  5
3DFE
330
1A
100
AcDbEntity
  8
寸法線
 48
10.0
100
AcDbMText
 10
-66.535463078228
 20
587.441317318323
 30
0.0
 40
6.0
 41
75.272292791406
 71
     1
 72
     5
  1
コードロック\PビメットBMS050B
1001
ACAD
1000
MTEXTBEGIN
1070
    44
1040
0.8
1000
MTEXTEND
  0
MTEXT
  5
3DFF
102
{ACAD_XDICTIONARY
360
3E00
102
}
330
1A
100
AcDbEntity
  8
隠れ線
 48
10.0
100
AcDbMText
 10
289.420369247243
 20
514.503868258161
 30
0.0
 40
6.0
 41
19.035286317203
 71
     2
 72
     5
  1
\C1;85\P100\P135
1001
ACADANNOTATIVE
1000
AnnotativeData
1002
{
1070
     1
1070
     0
1002
}
  0
MTEXT
  5
3E03
330
1A
100
AcDbEntity
  8
隠れ線
 48
10.0
100
AcDbMText
 10
293.308541114942
 20
482.077149522121
 30
0.0
 40
6.0
 41
102.645465564322
 71
     1
 72
     5
  1
{\C1;○印が今回の貴社の御仕様です。}
  0
ARC
  5
3E04
330
1A
100
AcDbEntity
  8
細線
 48
10.0
100
AcDbCircle
 10
-3.920754710165
 20
655.519341417663
 30
0.0
 40
18.0
100
AcDbArc
 50
272.865983982599
 51
87.134016017401
  0
LINE
  5
3E05
330
1A
100
AcDbEntity
  8
外形線
 48
10.0
100
AcDbLine
 10
-4.820754710165
 20
635.254346969107
 30
0.0
 11
-21.920754710165
 21
645.12703657225
 31
0.0
  0
LINE
  5
3E06
330
1A
100
AcDbEntity
  8
外形線
 48
10.0
100
AcDbLine
 10
14.079245289835
 20
665.911646263076
 30
0.0
 11
-3.020754710165
 21
675.784335866219
 31
0.0
  0
LINE
  5
3E07
330
1A
100
AcDbEntity
  8
外形線
 48
10.0
100
AcDbLine
 10
-21.920754710165
 20
665.911646263076
 30
0.0
 11
-4.820754710165
 21
675.784335866219
 31
0.0
  0
LINE
  5
3E08
330
1A
100
AcDbEntity
  8
外形線
 48
10.0
100
AcDbLine
 10
-3.020754710165
 20
635.254346969107
 30
0.0
 11
14.079245289835
 21
645.12703657225
 31
0.0
  0
LINE
  5
3E09
330
1A
100
AcDbEntity
  8
外形線
 48
10.0
100
AcDbLine
 10
-21.920754710165
 20
665.911646263076
 30
0.0
 11
-21.920754710165
 21
645.12703657225
 31
0.0
  0
LINE
  5
3E0A
330
1A
100
AcDbEntity
  8
外形線
 48
10.0
100
AcDbLine
 10
14.079245289835
 20
665.911646263076
 30
0.0
 11
14.079245289835
 21
645.12703657225
 31
0.0
  0
ARC
  5
3E0B
330
1A
100
AcDbEntity
  8
細線
 48
10.0
100
AcDbCircle
 10
-3.920754710165
 20
655.519341417663
 30
0.0
 40
18.0
100
AcDbArc
 50
92.865983982599
 51
267.134016017401
  0
MTEXT
  5
3E0C
102
{ACAD_XDICTIONARY
360
3E0D
102
}
330
1A
100
AcDbEntity
  8
寸法線
 48
10.0
100
AcDbMText
 10
-32.61003097021
 20
526.856570413885
 30
0.0
 40
6.0
 41
168.503621648242
 71
     1
 72
     5
  1
御仕様   電源電圧\P       AC100/110V\P       AC200/220V
1001
ACADANNOTATIVE
1000
AnnotativeData
1002
{
1070
     1
1070
     0
1002
}
  0
MTEXT
  5
3E10
102
{ACAD_XDICTIONARY
360
3E11
102
}
330
1A
100
AcDbEntity
  8
寸法線
 48
10.0
100
AcDbMText
 10
-31.429309377398
 20
497.309396691322
 30
0.0
 40
6.0
 41
161.650793650794
 71
     1
 72
     5
  1
\W0.7;○印が今回の貴社の御仕様です。
1001
ACADANNOTATIVE
1000
AnnotativeData
1002
{
1070
     1
1070
     0
1002
}
  0
LINE
  5
3E14
330
1A
100
AcDbEntity
  8
寸法線
 48
10.0
100
AcDbLine
 10
-9.343092963674
 20
528.96603107415
 30
0.0
 11
-9.343092963674
 21
499.523902117531
 31
0.0
  0
LINE
  5
3E15
330
1A
100
AcDbEntity
  8
寸法線
 48
10.0
100
AcDbLine
 10
-34.960315456682
 20
518.662546254763
 30
0.0
 11
38.487525531684
 21
518.662546254763
 31
0.0
  0
LINE
  5
3E16
330
1A
100
AcDbEntity
  8
寸法線
 48
10.0
100
AcDbLine
 10
-34.960315456682
 20
528.96603107415
 30
0.0
 11
38.487525531684
 21
528.96603107415
 31
0.0
  0
LINE
  5
3E17
330
1A
100
AcDbEntity
  8
寸法線
 48
10.0
100
AcDbLine
 10
38.487525531684
 20
528.96603107415
 30
0.0
 11
38.487525531684
 21
499.523902117531
 31
0.0
  0
LINE
  5
3E18
330
1A
100
AcDbEntity
  8
寸法線
 48
10.0
100
AcDbLine
 10
-34.960315456682
 20
508.776567033077
 30
0.0
 11
38.487525531684
 21
508.776567033077
 31
0.0
  0
LINE
  5
3E19
330
1A
100
AcDbEntity
  8
寸法線
 48
10.0
100
AcDbLine
 10
-34.960315456682
 20
499.523902117531
 30
0.0
 11
38.487525531684
 21
499.523902117531
 31
0.0
  0
LINE
  5
3E1A
330
1A
100
AcDbEntity
  8
寸法線
 48
10.0
100
AcDbLine
 10
-34.960315456682
 20
528.96603107415
 30
0.0
 11
-34.960315456682
 21
499.523902117531
 31
0.0
  0
LINE
  5
3E1B
330
1A
100
AcDbEntity
  8
外形線
100
AcDbLine
 10
278.662229192495
 20
619.819314417663
 30
0.0
 11
278.662229192495
 21
681.019341417663
 31
0.0
  0
LINE
  5
3E1C
330
1A
100
AcDbEntity
  8
外形線
100
AcDbLine
 10
278.662229192495
 20
681.019341417663
 30
0.0
 11
290.862209692495
 21
681.019341417663
 31
0.0
  0
LINE
  5
3E1D
330
1A
100
AcDbEntity
  8
外形線
100
AcDbLine
 10
281.162229192495
 20
610.019341417663
 30
0.0
 11
281.162229192495
 21
681.019341417663
 31
0.0
  0
LINE
  5
3E1E
330
1A
100
AcDbEntity
  8
外形線
100
AcDbLine
 10
279.896339465966
 20
610.019341417663
 30
0.0
 11
290.862209692495
 21
610.019341417663
 31
0.0
  0
LINE
  5
3E1F
330
1A
100
AcDbEntity
  8
外形線
100
AcDbLine
 10
278.662229192495
 20
678.919341417663
 30
0.0
 11
252.862229192495
 21
678.619341417663
 31
0.0
  0
LINE
  5
3E20
330
1A
100
AcDbEntity
  8
外形線
100
AcDbLine
 10
248.662229192495
 20
674.419341417663
 30
0.0
 11
250.662229192495
 21
674.419341417663
 31
0.0
  0
LINE
  5
3E21
330
1A
100
AcDbEntity
  8
外形線
100
AcDbLine
 10
250.662229192495
 20
674.419341417663
 30
0.0
 11
250.662229192495
 21
674.419341417663
 31
0.0
  0
LINE
  5
3E22
330
1A
100
AcDbEntity
  8
外形線
100
AcDbLine
 10
248.662229192495
 20
636.619341417663
 30
0.0
 11
250.662229192495
 21
636.619341417663
 31
0.0
  0
LINE
  5
3E23
330
1A
100
AcDbEntity
  8
外形線
100
AcDbLine
 10
248.662229192495
 20
636.619341417663
 30
0.0
 11
248.662229192495
 21
674.419341417663
 31
0.0
  0
LINE
  5
3E24
330
1A
100
AcDbEntity
  8
外形線
100
AcDbLine
 10
250.662229192495
 20
676.419341417663
 30
0.0
 11
250.662229192495
 21
614.619341417663
 31
0.0
  0
ARC
  5
3E25
330
1A
100
AcDbEntity
  8
外形線
100
AcDbCircle
 10
252.862229192495
 20
676.419341417663
 30
0.0
 40
2.2
100
AcDbArc
 50
90.0
 51
180.0
  0
ARC
  5
3E26
330
1A
100
AcDbEntity
  8
外形線
100
AcDbCircle
 10
252.862229192495
 20
614.619341417663
 30
0.0
 40
2.2
100
AcDbArc
 50
180.0
 51
263.748538621028
  0
LWPOLYLINE
  5
3E27
330
1A
100
AcDbEntity
  8
細線
100
AcDbPolyline
 90
        2
 70
     0
 43
0.0
 10
193.662229192505
 20
643.460841417663
 10
201.512312692505
 20
643.460841417663
  0
LWPOLYLINE
  5
3E28
330
1A
100
AcDbEntity
  8
細線
100
AcDbPolyline
 90
        2
 70
     0
 43
0.0
 10
201.512312692505
 20
667.577841417663
 10
193.662229192505
 20
667.577841417663
  0
LWPOLYLINE
  5
3E29
330
1A
100
AcDbEntity
  8
外形線
100
AcDbPolyline
 90
        6
 70
     0
 43
0.0
 10
201.512312692505
 20
668.739841417663
 10
194.162229192505
 20
668.739841417663
 10
193.662229192505
 20
668.239841417663
 10
193.662229192505
 20
642.798841417663
 10
194.162229192505
 20
642.298841417663
 10
201.512312692505
 20
642.298841417663
  0
DIMENSION
  5
3E3E
330
1A
100
AcDbEntity
  8
寸法線
 48
10.0
100
AcDbDimension
  2
*D39
 10
349.61498711172
 20
610.019341417663
 30
0.0
 11
349.61498711172
 21
645.694314417663
 31
0.0
 70
   160
  1
φ72
  3
ISO-25
100
AcDbAlignedDimension
 13
290.862209692495
 23
681.019341417663
 33
0.0
 14
290.862209692495
 24
610.019341417663
 34
0.0
 50
90.0
100
AcDbRotatedDimension
1001
ACAD
1000
DSTYLE
1002
{
1070
     5
1000
OPEN30
1070
    41
1040
6.0
1070
    47
1040
0.1
1070
    48
1040
0.1
1070
    73
1070
     0
1070
   140
1040
6.0
1070
   271
1070
     1
1070
   272
1070
     1
1070
   341
1005
2AF4
1002
}
  0
LINE
  5
3E3F
330
1A
100
AcDbEntity
  8
外形線
100
AcDbLine
 10
331.662229192495
 20
620.944314417663
 30
0.0
 11
331.662229192495
 21
670.444314417663
 31
0.0
  0
LINE
  5
3E40
330
1A
100
AcDbEntity
  8
外形線
100
AcDbLine
 10
330.162229192495
 20
617.734704417663
 30
0.0
 11
330.162229192495
 21
673.653924417663
 31
0.0
  0
LINE
  5
3E41
330
1A
100
AcDbEntity
  8
外形線
100
AcDbLine
 10
290.862209692495
 20
681.019341417663
 30
0.0
 11
290.862209692495
 21
610.019341417663
 31
0.0
  0
LINE
  5
3E42
330
1A
100
AcDbEntity
  8
外形線
100
AcDbLine
 10
290.862209692495
 20
611.569314417663
 30
0.0
 11
325.876690192495
 21
613.239831417663
 31
0.0
  0
LINE
  5
3E43
330
1A
100
AcDbEntity
  8
外形線
100
AcDbLine
 10
331.662229192495
 20
620.944314417663
 30
0.0
 11
330.162229192495
 21
620.944314417663
 31
0.0
  0
ARC
  5
3E44
330
1A
100
AcDbEntity
  8
外形線
100
AcDbCircle
 10
325.662229192495
 20
617.734704417663
 30
0.0
 40
4.5
100
AcDbArc
 50
272.731520116378
 51
359.999982399908
  0
LINE
  5
3E45
330
1A
100
AcDbEntity
  8
外形線
100
AcDbLine
 10
290.862209692495
 20
679.819314417663
 30
0.0
 11
325.876690192495
 21
678.148797417663
 31
0.0
  0
LINE
  5
3E46
330
1A
100
AcDbEntity
  8
外形線
100
AcDbLine
 10
331.662229192495
 20
670.444314417663
 30
0.0
 11
330.162229192495
 21
670.444314417663
 31
0.0
  0
ARC
  5
3E47
330
1A
100
AcDbEntity
  8
外形線
100
AcDbCircle
 10
325.662229192495
 20
673.653924417663
 30
0.0
 40
4.5
100
AcDbArc
 50
0.0
 51
87.268519579299
  0
LINE
  5
3E48
330
1A
100
AcDbEntity
  8
外形線
100
AcDbLine
 10
282.662229192495
 20
610.019341417663
 30
0.0
 11
282.662229192495
 21
681.019341417663
 31
0.0
  0
LINE
  5
3E49
330
1A
100
AcDbEntity
  8
中心線
 48
10.0
100
AcDbLine
 10
266.012220192494
 20
624.484155417663
 30
0.0
 11
266.012220192494
 21
569.050536417663
 31
0.0
  0
LINE
  5
3E4A
330
1A
100
AcDbEntity
  8
外形線
100
AcDbLine
 10
261.774702192494
 20
572.08193304513
 30
0.0
 11
261.774702192494
 21
585.265536417663
 31
0.0
  0
LINE
  5
3E4B
330
1A
100
AcDbEntity
  8
外形線
100
AcDbLine
 10
270.174666192495
 20
572.08193304513
 30
0.0
 11
270.174666192495
 21
585.265536417663
 31
0.0
  0
ARC
  5
3E4C
330
1A
100
AcDbEntity
  8
細線
100
AcDbCircle
 10
263.874694381142
 20
575.719226211366
 30
0.0
 40
4.199982
100
AcDbArc
 50
239.999981276044
 51
299.999981276019
  0
ARC
  5
3E4D
330
1A
100
AcDbEntity
  8
細線
100
AcDbCircle
 10
268.074676381142
 20
575.719224838835
 30
0.0
 40
4.199982
100
AcDbArc
 50
239.999981276044
 51
299.999981276019
  0
ARC
  5
3E4E
330
1A
100
AcDbEntity
  8
細線
100
AcDbCircle
 10
268.074674003846
 20
568.44464262396
 30
0.0
 40
4.199982
100
AcDbArc
 50
59.999981276043
 51
119.999981276019
  0
LINE
  5
3E4F
330
1A
100
AcDbEntity
  8
外形線
100
AcDbLine
 10
259.070160555758
 20
609.338542863412
 30
0.0
 11
252.128100919023
 21
603.326542863413
 31
0.0
  0
LINE
  5
3E50
330
1A
100
AcDbEntity
  8
外形線
100
AcDbLine
 10
272.95427982923
 20
609.338542863412
 30
0.0
 11
279.896339465966
 21
603.326542863413
 31
0.0
  0
LINE
  5
3E51
330
1A
100
AcDbEntity
  8
外形線
100
AcDbLine
 10
272.95427982923
 20
600.660968317493
 30
0.0
 11
272.95427982923
 21
609.338542863412
 31
0.0
  0
LINE
  5
3E52
330
1A
100
AcDbEntity
  8
外形線
100
AcDbLine
 10
259.070160555758
 20
600.660968317493
 30
0.0
 11
259.070160555758
 21
609.338542863412
 31
0.0
  0
LWPOLYLINE
  5
3E53
330
1A
100
AcDbEntity
  8
外形線
100
AcDbPolyline
 90
       47
 70
     0
 43
0.0
 10
270.174664692494
 20
584.174228754882
 10
270.633918483393
 20
584.289099199236
 10
271.042535980662
 20
584.415318817082
 10
271.396040285495
 20
584.551504719873
 10
271.690558330753
 20
584.696164826361
 10
271.922863315099
 20
584.847714210147
 10
272.090410056513
 20
585.004492464466
 10
272.191362877832
 20
585.16478189396
 10
272.224615718824
 20
585.326826334092
 10
272.1898042544
 20
585.48885039207
 10
272.087309886253
 20
585.649078898408
 10
271.918255564126
 20
585.805756356059
 10
271.68449348255
 20
585.95716617401
 10
271.388584787809
 20
586.101649474613
 10
271.033771517486
 20
586.23762326859
 10
270.623941080017
 20
586.363597798601
 10
270.163583663441
 20
586.478192861333
 10
269.65774303995
 20
586.580152929297
 10
269.111961305266
 20
586.668360906654
 10
268.532218158287
 20
586.741850368344
 10
267.924865386253
 20
586.799816148446
 10
267.296557273229
 20
586.841623161743
 10
266.654177694384
 20
586.866813361848
 10
266.004764694809
 20
586.87511075966
 10
265.355433379228
 20
586.866424447149
 10
264.713297957413
 20
586.840849593375
 10
264.085393799423
 20
586.798666401786
 10
263.478600354611
 20
586.740337040258
 10
262.899565778937
 20
586.66650057748
 10
262.354634096381
 20
586.577965981193
 10
261.849775692495
 20
586.475703254958
 10
261.390521901597
 20
586.360832810604
 10
260.981904404328
 20
586.234613192759
 10
260.628400099493
 20
586.098427289967
 10
260.333882054236
 20
585.953767183479
 10
260.10157706989
 20
585.802217799693
 10
259.934030328477
 20
585.645439545374
 10
259.833077507156
 20
585.485150115881
 10
259.799824666165
 20
585.323105675747
 10
259.834636130589
 20
585.16108161777
 10
259.937130498736
 20
585.000853111433
 10
260.106184820863
 20
584.844175653781
 10
260.339946902439
 20
584.692765835831
 10
260.63585559718
 20
584.548282535228
 10
260.990668867504
 20
584.41230874125
 10
261.400499304971
 20
584.286334211238
 10
261.774702192495
 20
584.191417329371
  0
ARC
  5
3E54
330
1A
100
AcDbEntity
  8
外形線
100
AcDbCircle
 10
266.012220192494
 20
617.511747071621
 30
0.0
 40
34.15159996140045
100
AcDbArc
 50
255.26831657715
 51
262.87239111701
  0
LWPOLYLINE
  5
3E55
330
1A
100
AcDbEntity
  8
外形線
100
AcDbPolyline
 90
       34
 70
     0
 43
0.0
 10
277.685520192494
 20
592.739901917391
 10
277.631778634894
 20
593.299320028838
 10
277.471048793034
 20
593.853587240255
 10
277.204810603531
 20
594.397600079056
 10
276.83551548201
 20
594.926349490851
 10
276.366563751434
 20
595.43496696083
 10
275.802273333292
 20
595.918769341112
 10
275.14783998988
 20
596.373301971321
 10
274.409289483786
 20
596.794379695331
 10
273.593422095067
 20
597.17812539651
 10
272.707750006951
 20
597.521005696691
 10
271.76042813665
 20
597.819863490099
 10
270.760179048112
 20
598.071947012741
 10
269.716212638109
 20
598.274935179551
 10
268.638141335167
 20
598.42695895602
 10
267.535891592137
 20
598.526618567527
 10
266.419612487351
 20
598.572996387912
 10
265.299582275943
 20
598.5656653886
 10
264.18611375174
 20
598.504693070526
 10
263.089459291166
 20
598.390640842604
 10
262.019716453411
 20
598.224558852501
 10
260.986735006123
 20
598.007976317292
 10
260.000026232647
 20
597.742887443034
 10
259.068675355911
 20
597.431733062912
 10
258.201257885285
 20
597.077378163013
 10
257.405760656709
 20
596.683085502671
 10
256.68950829306
 20
596.252485572271
 10
256.059095761941
 20
595.78954316514
 10
255.520327651831
 20
595.298520871298
 10
255.078164725741
 20
594.78393982922
 10
254.736678244474
 20
594.250538096988
 10
254.49901248007
 20
593.703227026137
 10
254.367355764597
 20
593.14704603987
 10
254.338920192494
 20
592.739901917391
  0
ARC
  5
3E56
330
1A
100
AcDbEntity
  8
外形線
100
AcDbCircle
 10
266.012220192494
 20
612.32836172969
 30
0.0
 40
13.57645981229912
100
AcDbArc
 50
239.247497502359
 51
300.75250249764
  0
LINE
  5
3E57
330
1A
100
AcDbEntity
  8
外形線
100
AcDbLine
 10
254.338920192494
 20
592.739901917391
 30
0.0
 11
254.338920192494
 21
588.359049176864
 31
0.0
  0
ARC
  5
3E58
330
1A
100
AcDbEntity
  8
外形線
100
AcDbCircle
 10
258.346920192494
 20
588.359049176864
 30
0.0
 40
4.007999999999999
100
AcDbArc
 50
180.0
 51
255.26831657715
  0
ARC
  5
3E59
330
1A
100
AcDbEntity
  8
外形線
100
AcDbCircle
 10
251.619469001521
 20
602.250285866469
 30
0.0
 40
7.618315752702329
100
AcDbArc
 50
273.828163206422
 51
347.958626091838
  0
LINE
  5
3E5A
330
1A
100
AcDbEntity
  8
外形線
100
AcDbLine
 10
254.336169075292
 20
592.736725200876
 30
0.0
 11
252.128100919023
 21
594.648968317493
 31
0.0
  0
LINE
  5
3E5B
330
1A
100
AcDbEntity
  8
外形線
100
AcDbLine
 10
252.128100919023
 20
603.326542863413
 30
0.0
 11
252.128100919023
 21
594.648968317493
 31
0.0
  0
LINE
  5
3E5C
330
1A
100
AcDbEntity
  8
外形線
100
AcDbLine
 10
277.685520192494
 20
592.739901917391
 30
0.0
 11
277.685520192494
 21
588.359049176864
 31
0.0
  0
LWPOLYLINE
  5
3E5D
330
1A
100
AcDbEntity
  8
外形線
100
AcDbPolyline
 90
       29
 70
     0
 43
0.0
 10
270.174664692494
 20
585.265536417664
 10
270.147666606863
 20
585.36750788499
 10
270.067019445154
 20
585.468168377699
 10
269.933760030554
 20
585.566223775441
 10
269.749601584562
 20
585.660413449718
 10
269.516911701319
 20
585.749526470892
 10
269.238681909127
 20
585.832417176239
 10
268.918489210506
 20
585.908019898925
 10
268.560450095209
 20
585.975362668526
 10
268.169167617454
 20
586.033579706955
 10
267.749672217713
 20
586.081922559165
 10
267.307357049933
 20
586.119769715493
 10
266.847908645586
 20
586.146634601972
 10
266.377233805972
 20
586.162171835867
 10
265.901383662691
 20
586.166181666015
 10
265.426475882536
 20
586.158612540882
 10
264.958616017012
 20
586.139561771325
 10
264.503819007594
 20
586.109274279535
 10
264.067931855911
 20
586.068139450253
 10
263.656558453003
 20
586.016686124715
 10
263.274987534079
 20
585.955575801725
 10
262.928124685012
 20
585.885594133236
 10
262.620429274712
 20
585.807640823778
 10
262.355857124187
 20
585.722718063599
 10
262.137809649373
 20
585.631917644216
 10
261.969090131545
 20
585.536406922029
 10
261.851867677524
 20
585.43741381045
 10
261.787649333016
 20
585.336210993502
 10
261.774702192495
 20
585.265536417664
  0
ARC
  5
3E5E
330
1A
100
AcDbEntity
  8
外形線
100
AcDbCircle
 10
266.012220192494
 20
617.511747071621
 30
0.0
 40
34.15159996140045
100
AcDbArc
 50
277.000695446903
 51
284.73168342285
  0
ARC
  5
3E5F
330
1A
100
AcDbEntity
  8
外形線
100
AcDbCircle
 10
273.677520192494
 20
588.359049176864
 30
0.0
 40
4.007999999999999
100
AcDbArc
 50
284.73168342285
 51
0.0
  0
LINE
  5
3E60
330
1A
100
AcDbEntity
  8
外形線
100
AcDbLine
 10
277.688271309697
 20
592.736725200876
 30
0.0
 11
279.896339465966
 21
594.648968317493
 31
0.0
  0
ARC
  5
3E61
330
1A
100
AcDbEntity
  8
外形線
100
AcDbCircle
 10
280.404971383468
 20
602.250285866469
 30
0.0
 40
7.618315752702329
100
AcDbArc
 50
192.041373908162
 51
266.171836793578
  0
LINE
  5
3E62
330
1A
100
AcDbEntity
  8
外形線
100
AcDbLine
 10
279.896339465966
 20
594.648968317493
 30
0.0
 11
279.896339465966
 21
603.326542863413
 31
0.0
  0
LWPOLYLINE
  5
3E63
330
1A
100
AcDbEntity
  8
外形線
100
AcDbPolyline
 90
       34
 70
     0
 43
0.0
 10
276.510675192495
 20
609.045445811228
 10
276.462342388223
 20
609.416283745693
 10
276.317789004697
 20
609.783707151584
 10
276.07834603212
 20
610.144332939945
 10
275.74621816639
 20
610.494840611591
 10
275.324463509128
 20
610.832002830941
 10
274.816965409894
 20
611.152715142041
 10
274.228396709842
 20
611.454024553169
 10
273.564176716058
 20
611.733156726807
 10
272.830421302727
 20
611.987541524642
 10
272.033886598586
 20
612.214836672378
 10
271.18190677918
 20
612.412949326471
 10
270.282326536676
 20
612.5800553442
 10
269.343428849054
 20
612.714616079651
 10
268.373858713726
 20
612.815392550957
 10
267.382543547837
 20
612.881456848349
 10
266.378610988148
 20
612.912200677989
 10
265.371304847372
 20
612.907340962892
 10
264.36990000082
 20
612.866922449382
 10
263.383616987029
 20
612.791317295102
 10
262.421537108696
 20
612.681221642313
 10
261.492518815653
 20
612.537649208108
 10
260.605116139765
 20
612.361921950503
 10
259.767499932811
 20
612.155657896367
 10
258.987382632513
 20
611.920756243278
 10
258.271947249473
 20
611.659379872465
 10
257.62778122886
 20
611.373935433855
 10
257.060815795831
 20
611.067051186591
 10
256.576271343155
 20
610.741552799072
 10
256.178609363918
 20
610.400437331312
 10
255.871491371861
 20
610.046845639208
 10
255.657745187608
 20
609.684033454774
 10
255.539338901224
 20
609.315341408672
 10
255.513765192494
 20
609.045445811228
  0
LINE
  5
3E64
330
1A
100
AcDbEntity
  8
外形線
100
AcDbLine
 10
259.070160555758
 20
609.338542863412
 30
0.0
 11
272.95427982923
 21
609.338542863412
 31
0.0
  0
LINE
  5
3E65
330
1A
100
AcDbEntity
  8
外形線
100
AcDbLine
 10
259.070160555758
 20
618.016117409333
 30
0.0
 11
272.95427982923
 21
618.016117409333
 31
0.0
  0
LINE
  5
3E66
330
1A
100
AcDbEntity
  8
外形線
100
AcDbLine
 10
259.070160555758
 20
613.677330136373
 30
0.0
 11
272.95427982923
 21
613.677330136373
 31
0.0
  0
LINE
  5
3E67
330
1A
100
AcDbEntity
  8
外形線
100
AcDbLine
 10
281.162229192495
 20
619.819314417663
 30
0.0
 11
258.062238192495
 21
619.819314417663
 31
0.0
  0
LINE
  5
3E68
330
1A
100
AcDbEntity
  8
外形線
100
AcDbLine
 10
258.381021427666
 20
617.419305417663
 30
0.0
 11
255.662229192494
 21
617.419305417663
 31
0.0
  0
LINE
  5
3E69
330
1A
100
AcDbEntity
  8
外形線
100
AcDbLine
 10
252.128100919023
 20
612.004117409333
 30
0.0
 11
259.070160555758
 21
618.016117409333
 31
0.0
  0
ARC
  5
3E6A
330
1A
100
AcDbEntity
  8
外形線
100
AcDbCircle
 10
258.062238192495
 20
614.419305417663
 30
0.0
 40
5.4
100
AcDbArc
 50
89.999981276021
 51
180.00001984784
  0
LINE
  5
3E6B
330
1A
100
AcDbEntity
  8
外形線
100
AcDbLine
 10
259.070160555758
 20
613.677330136373
 30
0.0
 11
252.128100919023
 21
607.665330136373
 31
0.0
  0
ARC
  5
3E6C
330
1A
100
AcDbEntity
  8
外形線
100
AcDbCircle
 10
255.662229192494
 20
614.419305417663
 30
0.0
 40
3.0
100
AcDbArc
 50
89.999981276021
 51
211.533239298813
  0
LINE
  5
3E6D
330
1A
100
AcDbEntity
  8
外形線
100
AcDbLine
 10
254.633100919023
 20
605.495936499893
 30
0.0
 11
252.128100919023
 21
607.665330136373
 31
0.0
  0
LINE
  5
3E6E
330
1A
100
AcDbEntity
  8
外形線
100
AcDbLine
 10
255.513765192494
 20
609.045445811228
 30
0.0
 11
255.513765192494
 21
606.258614132925
 31
0.0
  0
LINE
  5
3E6F
330
1A
100
AcDbEntity
  8
外形線
100
AcDbLine
 10
252.128100919023
 20
607.665330136373
 30
0.0
 11
252.128100919023
 21
612.004117409333
 31
0.0
  0
LINE
  5
3E70
330
1A
100
AcDbEntity
  8
細線
100
AcDbLine
 10
256.868970192494
 20
607.432256090261
 30
0.0
 11
256.868970192494
 21
610.983797299907
 31
0.0
  0
LINE
  5
3E71
330
1A
100
AcDbEntity
  8
外形線
100
AcDbLine
 10
259.070160555758
 20
613.677330136373
 30
0.0
 11
259.070160555758
 21
618.016117409333
 31
0.0
  0
LINE
  5
3E72
330
1A
100
AcDbEntity
  8
細線
100
AcDbLine
 10
275.155470192494
 20
607.432256090261
 30
0.0
 11
275.155470192494
 21
611.087201617754
 31
0.0
  0
LINE
  5
3E73
330
1A
100
AcDbEntity
  8
外形線
100
AcDbLine
 10
281.162229192495
 20
617.419305417663
 30
0.0
 11
273.643418957323
 21
617.419305417663
 31
0.0
  0
LINE
  5
3E74
330
1A
100
AcDbEntity
  8
外形線
100
AcDbLine
 10
279.896339465966
 20
612.004117409333
 30
0.0
 11
272.95427982923
 21
618.016117409333
 31
0.0
  0
LINE
  5
3E75
330
1A
100
AcDbEntity
  8
外形線
100
AcDbLine
 10
272.95427982923
 20
613.677330136373
 30
0.0
 11
272.95427982923
 21
618.016117409333
 31
0.0
  0
LINE
  5
3E76
330
1A
100
AcDbEntity
  8
外形線
100
AcDbLine
 10
277.391339465966
 20
605.495936499893
 30
0.0
 11
279.896339465966
 21
607.665330136373
 31
0.0
  0
LINE
  5
3E77
330
1A
100
AcDbEntity
  8
外形線
100
AcDbLine
 10
272.95427982923
 20
613.677330136373
 30
0.0
 11
279.896339465966
 21
607.665330136373
 31
0.0
  0
LINE
  5
3E78
330
1A
100
AcDbEntity
  8
外形線
100
AcDbLine
 10
276.510675192495
 20
609.045445811228
 30
0.0
 11
276.510675192495
 21
606.258614132925
 31
0.0
  0
LINE
  5
3E79
330
1A
100
AcDbEntity
  8
外形線
100
AcDbLine
 10
279.896339465966
 20
607.665330136373
 30
0.0
 11
279.896339465966
 21
612.004117409333
 31
0.0
  0
ARC
  5
3E7A
330
1A
100
AcDbEntity
  8
外形線
 48
10.0
100
AcDbCircle
 10
-3.920754710165
 20
655.519341417663
 30
0.0
 40
13.2204999999999
100
AcDbArc
 50
93.903491864735
 51
266.096508135265
  0
ARC
  5
3E7B
330
1A
100
AcDbEntity
  8
細線
 48
10.0
100
AcDbCircle
 10
-3.920754710165
 20
655.519341417663
 30
0.0
 40
12.05849999999998
100
AcDbArc
 50
94.280316570382
 51
265.719683429618
  0
ARC
  5
3E7C
330
1A
100
AcDbEntity
  8
細線
 48
10.0
100
AcDbCircle
 10
-3.920754710165
 20
655.519341417663
 30
0.0
 40
12.05849999999998
100
AcDbArc
 50
274.280316570382
 51
85.719683429618
  0
ARC
  5
3E7D
330
1A
100
AcDbEntity
  8
外形線
 48
10.0
100
AcDbCircle
 10
-3.920754710165
 20
655.519341417663
 30
0.0
 40
13.2204999999999
100
AcDbArc
 50
273.903491864735
 51
86.096508135265
  0
LINE
  5
3E7E
330
1A
100
AcDbEntity
  8
寸法線
 48
10.0
100
AcDbLine
 10
331.662229192495
 20
619.220874431022
 30
0.0
 11
331.662229192495
 21
589.845581856032
 31
0.0
  0
MTEXT
  5
3F02
330
1A
100
AcDbEntity
  8
寸法線
 48
10.0
100
AcDbMText
 10
172.234028501282
 20
621.583620530523
 30
0.0
 40
6.0
 41
33.824373019361
 71
     1
 72
     5
  1
φ2割ピン
  0
LINE
  5
3F03
330
1A
100
AcDbEntity
  8
寸法線
 48
10.0
100
AcDbLine
 10
193.662229192505
 20
640.128069018261
 30
0.0
 11
193.662229192505
 21
622.870766436447
 31
0.0
  0
VIEWPORT
  5
2902
330
28FB
100
AcDbEntity
 67
     1
  8
0
 48
10.0
100
AcDbViewport
 10
0.0
 20
0.0
 30
0.0
 40
882.021415183723
 41
468.149828059053
 68
     1
 69
     1
1001
ACAD
1000
MVIEW
1002
{
1070
    16
1010
0.0
1020
0.0
1030
0.0
1010
0.0
1020
0.0
1030
1.0
1040
0.0
1040
468.149828059053
1040
230.616792054705
1040
75.729443727401
1040
50.0
1040
0.0
1040
0.0
1070
    16
1070
   100
1070
     0
1070
     1
1070
     0
1070
     0
1070
     0
1070
     0
1040
0.0
1040
0.0
1040
0.0
1040
10.0
1040
10.0
1040
10.0
1040
10.0
1070
     0
1002
{
1002
}
1002
}
  0
VIEWPORT
  5
2904
330
28FB
100
AcDbEntity
 67
     1
  8
図枠太線
 48
10.0
100
AcDbViewport
 10
204.746305129083
 20
162.238639536169
 30
0.0
 40
400.0
 41
240.0
 68
     2
 69
     2
1001
ACAD
1000
MVIEW
1002
{
1070
    16
1010
0.0
1020
0.0
1030
0.0
1010
0.0
1020
0.0
1030
1.0
1040
0.0
1040
360.00000187774
1040
154.250884924191
1040
592.361274596294
1040
50.0
1040
0.0
1040
0.0
1070
     0
1070
   100
1070
     0
1070
     0
1070
     0
1070
     0
1070
     0
1070
     0
1040
0.0
1040
0.0
1040
0.0
1040
1.0
1040
1.0
1040
0.0
1040
0.0
1070
     0
1002
{
1002
}
1002
}
  0
INSERT
  5
2A59
330
28FB
100
AcDbEntity
 67
     1
  8
図枠太線
100
AcDbBlockReference
  2
A3横用_タイトル
 10
-0.352109406709
 20
-1.287320217358
 30
0.0
  0
MTEXT
  5
322B
330
28FB
100
AcDbEntity
 67
     1
  8
寸法線
 48
10.0
100
AcDbMText
 10
146.778370616794
 20
14.655691960406
 30
0.0
 40
7.0
 41
20.13579853524
 71
     1
 72
     5
  1
1:1.5
  0
MTEXT
  5
322C
102
{ACAD_XDICTIONARY
360
3EF7
102
}
330
28FB
100
AcDbEntity
 67
     1
  8
寸法線
 48
10.0
100
AcDbMText
 10
175.322824279557
 20
13.415027357785
 30
0.0
 40
5.0
 41
27.082042865391
 71
     1
 72
     5
  1
2015.6.15
1001
ACADANNOTATIVE
1000
AnnotativeData
1002
{
1070
     1
1070
     0
1002
}
  0
MTEXT
  5
322D
102
{ACAD_XDICTIONARY
360
3EFA
102
}
330
28FB
100
AcDbEntity
 67
     1
  8
寸法線
 48
10.0
100
AcDbMText
 10
179.508422111266
 20
33.290187324391
 30
0.0
 40
5.0
 41
33.4
 71
     1
 72
     5
  1
ohno
1001
ACADANNOTATIVE
1000
AnnotativeData
1002
{
1070
     1
1070
     0
1002
}
  0
MTEXT
  5
322F
330
28FB
100
AcDbEntity
 67
     1
  8
寸法線
 48
10.0
100
AcDbMText
 10
317.01527991415
 20
33.738495510224
 30
0.0
 40
7.0
 41
37.345612043362
 71
     1
 72
     5
  1
HL-400S
  0
MTEXT
  5
3230
330
28FB
100
AcDbEntity
 67
     1
  8
寸法線
 48
10.0
100
AcDbMText
 10
361.819918635276
 20
39.009958202674
 30
0.0
 40
5.0
 41
42.043281739348
 71
     1
 72
     5
  1
パドル式\Pレベルスイッチ
  0
MTEXT
  5
3231
102
{ACAD_XDICTIONARY
360
3EFD
102
}
330
28FB
100
AcDbEntity
 67
     1
  8
寸法線
 48
10.0
100
AcDbMText
 10
347.266472765904
 20
15.344790988678
 30
0.0
 40
7.0
 41
36.545313751788
 71
     1
 72
     5
  1
\H1.143x;HB-6006
1001
ACADANNOTATIVE
1000
AnnotativeData
1002
{
1070
     1
1070
     0
1002
}
  0
MTEXT
  5
3234
102
{ACAD_XDICTIONARY
360
3A6C
102
}
330
28FB
100
AcDbEntity
 67
     1
  8
寸法線
 48
10.0
100
AcDbMText
 10
373.486813801897
 20
52.520458933109
 30
0.0
 40
5.0
 41
34.334449052711
 71
     1
 72
     5
  1
台数 1 台
1001
ACADANNOTATIVE
1000
AnnotativeData
1002
{
1070
     1
1070
     0
1002
}
  0
ENDSEC
  0
SECTION
  2
OBJECTS
  0
DICTIONARY
  5
C
330
0
100
AcDbDictionary
  3
ACAD_COLOR
350
2948
  3
ACAD_GROUP
350
D
  3
ACAD_LAYOUT
350
2816
  3
ACAD_MATERIAL
350
2947
  3
ACAD_MLEADERSTYLE
350
3A67
  3
ACAD_MLINESTYLE
350
E
  3
ACAD_PLOTSETTINGS
350
2817
  3
ACAD_SCALELIST
350
3A40
  3
ACAD_VISUALSTYLE
350
3A27
  3
ACDBHEADERROUNDTRIPXREC
350
3F04
  3
ACDBVARIABLEDICTIONARY
350
3A97
  3
DWGPROPS
350
3F29
  0
DICTIONARY
  5
3F2A
330
8
100
AcDbDictionary
280
     1
  3
ACAD_XREC_ROUNDTRIP
360
3F2B
  0
DICTIONARY
  5
29EA
330
2
100
AcDbDictionary
280
     1
  3
ACAD_LAYERFILTERS
360
2B0C
  3
ACAD_LAYERSTATES
360
29EB
  0
DICTIONARY
  5
3DC8
330
3DC7
100
AcDbDictionary
280
     1
  3
ACDBCONTEXTDATAMANAGER
360
3DC9
  0
DICTIONARY
  5
3E00
330
3DFF
100
AcDbDictionary
280
     1
  3
ACDBCONTEXTDATAMANAGER
360
3E01
  0
DICTIONARY
  5
3E0D
330
3E0C
100
AcDbDictionary
280
     1
  3
ACDBCONTEXTDATAMANAGER
360
3E0E
  0
DICTIONARY
  5
3E11
330
3E10
100
AcDbDictionary
280
     1
  3
ACDBCONTEXTDATAMANAGER
360
3E12
  0
DICTIONARY
  5
3EF7
330
322C
100
AcDbDictionary
280
     1
  3
ACDBCONTEXTDATAMANAGER
360
3EF8
  0
DICTIONARY
  5
3EFA
330
322D
100
AcDbDictionary
280
     1
  3
ACDBCONTEXTDATAMANAGER
360
3EFB
  0
DICTIONARY
  5
3EFD
330
3231
100
AcDbDictionary
280
     1
  3
ACDBCONTEXTDATAMANAGER
360
3EFE
  0
DICTIONARY
  5
3A6C
330
3234
100
AcDbDictionary
280
     1
  3
ACDBCONTEXTDATAMANAGER
360
3A6D
  0
DICTIONARY
  5
2948
102
{ACAD_REACTORS
330
C
102
}
330
C
100
AcDbDictionary
  0
DICTIONARY
  5
D
102
{ACAD_REACTORS
330
C
102
}
330
C
100
AcDbDictionary
  0
DICTIONARY
  5
2816
102
{ACAD_REACTORS
330
C
102
}
330
C
100
AcDbDictionary
  0
DICTIONARY
  5
2947
102
{ACAD_REACTORS
330
C
102
}
330
C
100
AcDbDictionary
  3
BYBLOCK
350
3A63
  3
BYLAYER
350
3A62
  3
GLOBAL
350
3A64
  0
DICTIONARY
  5
3A67
102
{ACAD_REACTORS
330
C
102
}
330
C
100
AcDbDictionary
  3
STANDARD
350
3A68
  0
DICTIONARY
  5
E
102
{ACAD_REACTORS
330
C
102
}
330
C
100
AcDbDictionary
  3
STANDARD
350
13
  0
DICTIONARY
  5
2817
102
{ACAD_REACTORS
330
C
102
}
330
C
100
AcDbDictionary
  0
DICTIONARY
  5
3A40
102
{ACAD_REACTORS
330
C
102
}
330
C
100
AcDbDictionary
  3
A0
350
3A41
  3
A1
350
3A42
  3
A2
350
3A43
  3
A3
350
3A44
  3
A4
350
3A45
  3
A5
350
3A46
  3
A6
350
3A47
  3
A7
350
3A48
  3
A8
350
3A49
  3
A9
350
3A4A
  3
B0
350
3A4B
  3
B1
350
3A4C
  3
B2
350
3A4D
  3
B3
350
3A4E
  3
B4
350
3A4F
  3
B5
350
3A50
  3
B6
350
3A51
  3
B7
350
3A52
  3
B8
350
3A53
  3
B9
350
3A54
  3
C0
350
3A55
  3
C1
350
3A56
  3
C2
350
3A57
  3
C3
350
3A58
  3
C4
350
3A59
  3
C5
350
3A5A
  3
C6
350
3A5B
  3
C7
350
3A5C
  3
C8
350
3A5D
  3
C9
350
3A5E
  3
D0
350
3A5F
  3
D1
350
3A60
  3
D2
350
3A61
  0
DICTIONARY
  5
3A27
102
{ACAD_REACTORS
330
C
102
}
330
C
100
AcDbDictionary
  3
2DWIREFRAME
350
3A2C
  3
BASIC
350
3A2F
  3
BRIGHTEN
350
3A33
  3
COLORCHANGE
350
3A37
  3
CONCEPTUAL
350
3A31
  3
DIM
350
3A32
  3
EDGECOLOROFF
350
3A3A
  3
FACEPATTERN
350
3A36
  3
FLAT
350
3A28
  3
FLATWITHEDGES
350
3A29
  3
GOURAUD
350
3A2A
  3
GOURAUDWITHEDGES
350
3A2B
  3
HIDDEN
350
3A2E
  3
JITTEROFF
350
3A38
  3
LINEPATTERN
350
3A35
  3
OVERHANGOFF
350
3A39
  3
REALISTIC
350
3A30
  3
SHADED
350
3A3F
  3
SHADED_WITH_EDGES
350
3A3E
  3
SHADES_OF_GRAY
350
3A3B
  3
SKETCHY
350
3A3C
  3
THICKEN
350
3A34
  3
WIREFRAME
350
3A2D
  3
X-RAY
350
3A3D
  0
DICTIONARY
  5
3F04
102
{ACAD_REACTORS
330
C
102
}
330
C
100
AcDbDictionary
  3
CEPSNID
350
3F0E
  3
CEPSNTYPE
350
3F0D
  3
COLORDICT
350
3F27
  3
DIMSTYLEDATA
350
3F24
  3
FINGERPRINTGUID
350
3F0F
  3
HYPERLINKBASE
350
3F07
  3
INSUNITS
350
3F0C
  3
LAYOUTDICT
350
3F09
  3
LWETCUNION
350
3F0B
  3
MATERIALDICT
350
3F28
  3
PLOTSETDICT
350
3F0A
  3
PSVPSCALE
350
3F11
  3
PUCSBASE
350
3F14
  3
PUCSORGBACK
350
3F1A
  3
PUCSORGBOTTOM
350
3F16
  3
PUCSORGFRONT
350
3F19
  3
PUCSORGLEFT
350
3F17
  3
PUCSORGRIGHT
350
3F18
  3
PUCSORGTOP
350
3F15
  3
PUCSORTHOREF
350
3F12
  3
PUCSORTHOVIEW
350
3F13
  3
STYLESHEET
350
3F08
  3
TSTACKALIGN
350
3F05
  3
TSTACKSIZE
350
3F06
  3
UCSBASE
350
3F1D
  3
UCSORGBACK
350
3F23
  3
UCSORGBOTTOM
350
3F1F
  3
UCSORGFRONT
350
3F22
  3
UCSORGLEFT
350
3F20
  3
UCSORGRIGHT
350
3F21
  3
UCSORGTOP
350
3F1E
  3
UCSORTHOREF
350
3F1B
  3
UCSORTHOVIEW
350
3F1C
  3
VERSIONGUID
350
3F10
  0
DICTIONARY
  5
3A97
102
{ACAD_REACTORS
330
C
102
}
330
C
100
AcDbDictionary
  3
CANNOSCALE
350
3A98
  3
CMLEADERSTYLE
350
3AD7
  3
CTABLESTYLE
350
3AD6
  3
DIMASSOC
350
3F25
  3
HIDETEXT
350
3F26
  3
MSLTSCALE
350
3AD8
  3
XCLIPFRAME
350
3AD9
  0
XRECORD
  5
3F29
102
{ACAD_REACTORS
330
C
102
}
330
C
100
AcDbXrecord
  1
DWGPROPS COOKIE
  2

  3

  4

  6

  7

  8
y-ohno
  9

300
=
301
=
302
=
303
=
304
=
305
=
306
=
307
=
308
=
309
=
 40
0.0
 41
2450576.222302431
 42
2457191.290228947
  1

 90
        0
  0
XRECORD
  5
3F2B
102
{ACAD_REACTORS
330
3F2A
102
}
330
3F2A
100
AcDbXrecord
102
VTR_0.000_0.000_1.000_1.000_VISUALSTYLE
340
3A2C
102
VTR_0.000_0.000_1.000_1.000_GRIDDISPLAY
 70
     3
102
VTR_0.000_0.000_1.000_1.000_GRIDMAJOR
 70
     5
102
VTR_0.000_0.000_1.000_1.000_DEFAULTLIGHTING
280
     1
102
VTR_0.000_0.000_1.000_1.000_DEFAULTLIGHTINGTYPE
 70
     1
102
VTR_0.000_0.000_1.000_1.000_BRIGHTNESS
141
0.0
102
VTR_0.000_0.000_1.000_1.000_CONTRAST
142
0.0
  0
DICTIONARY
  5
2B0C
102
{ACAD_REACTORS
330
29EA
102
}
330
29EA
100
AcDbDictionary
  0
DICTIONARY
  5
29EB
102
{ACAD_REACTORS
330
29EA
102
}
330
29EA
100
AcDbDictionary
  0
DICTIONARY
  5
3DC9
102
{ACAD_REACTORS
330
3DC8
102
}
330
3DC8
100
AcDbDictionary
  3
ACDB_ANNOTATIONSCALES
350
3DCA
  0
DICTIONARY
  5
3E01
102
{ACAD_REACTORS
330
3E00
102
}
330
3E00
100
AcDbDictionary
  3
ACDB_ANNOTATIONSCALES
350
3E02
  0
DICTIONARY
  5
3E0E
102
{ACAD_REACTORS
330
3E0D
102
}
330
3E0D
100
AcDbDictionary
  3
ACDB_ANNOTATIONSCALES
350
3E0F
  0
DICTIONARY
  5
3E12
102
{ACAD_REACTORS
330
3E11
102
}
330
3E11
100
AcDbDictionary
  3
ACDB_ANNOTATIONSCALES
350
3E13
  0
DICTIONARY
  5
3EF8
102
{ACAD_REACTORS
330
3EF7
102
}
330
3EF7
100
AcDbDictionary
  3
ACDB_ANNOTATIONSCALES
350
3EF9
  0
DICTIONARY
  5
3EFB
102
{ACAD_REACTORS
330
3EFA
102
}
330
3EFA
100
AcDbDictionary
  3
ACDB_ANNOTATIONSCALES
350
3EFC
  0
DICTIONARY
  5
3EFE
102
{ACAD_REACTORS
330
3EFD
102
}
330
3EFD
100
AcDbDictionary
  3
ACDB_ANNOTATIONSCALES
350
3EFF
  0
DICTIONARY
  5
3A6D
102
{ACAD_REACTORS
330
3A6C
102
}
330
3A6C
100
AcDbDictionary
  3
ACDB_ANNOTATIONSCALES
350
3A6E
  0
MATERIAL
  5
3A63
102
{ACAD_REACTORS
330
2947
102
}
102
{ACAD_XDICTIONARY
360
3F2E
102
}
330
2947
100
AcDbMaterial
  1
BYBLOCK
  0
MATERIAL
  5
3A62
102
{ACAD_REACTORS
330
2947
102
}
102
{ACAD_XDICTIONARY
360
3F2C
102
}
330
2947
100
AcDbMaterial
  1
BYLAYER
  0
MATERIAL
  5
3A64
102
{ACAD_REACTORS
330
2947
102
}
102
{ACAD_XDICTIONARY
360
3F30
102
}
330
2947
100
AcDbMaterial
  1
GLOBAL
  0
ACAD_PROXY_OBJECT
  5
3A68
102
{ACAD_REACTORS
330
3A67
102
}
330
3A67
100
AcDbProxyObject
 90
      499
 91
      507
 93
      610
310
40901902A4063FBFFFFFE0000000000000020400000000000020404214DD185B99185C990000000000000104090141901A00000000000004100000000000000041025764000000000000039000
340
14
340
0
340
10
340
0
 94
        0
1001
ACAD_MLEADERVER
1070
     2
  0
MLINESTYLE
  5
13
102
{ACAD_REACTORS
330
E
102
}
330
E
100
AcDbMlineStyle
  2
STANDARD
 70
     0
  3

 62
     0
 51
90.0
 52
90.0
 71
     2
 49
0.5
 62
   256
  6
BYLAYER
 49
-0.5
 62
   256
  6
BYLAYER
  0
ACAD_PROXY_OBJECT
  5
3A41
102
{ACAD_REACTORS
330
3A40
102
}
330
3A40
100
AcDbProxyObject
 90
      499
 91
      504
 93
       41
310
903313A31580
  0
ACAD_PROXY_OBJECT
  5
3A42
102
{ACAD_REACTORS
330
3A40
102
}
330
3A40
100
AcDbProxyObject
 90
      499
 91
      504
 93
      105
310
903313A324000000000000004000
  0
ACAD_PROXY_OBJECT
  5
3A43
102
{ACAD_REACTORS
330
3A40
102
}
330
3A40
100
AcDbProxyObject
 90
      499
 91
      504
 93
      105
310
903313A344000000000000104000
  0
ACAD_PROXY_OBJECT
  5
3A44
102
{ACAD_REACTORS
330
3A40
102
}
330
3A40
100
AcDbProxyObject
 90
      499
 91
      504
 93
      105
310
903313A354000000000000144000
  0
ACAD_PROXY_OBJECT
  5
3A45
102
{ACAD_REACTORS
330
3A40
102
}
330
3A40
100
AcDbProxyObject
 90
      499
 91
      504
 93
      105
310
903313A384000000000000204000
  0
ACAD_PROXY_OBJECT
  5
3A46
102
{ACAD_REACTORS
330
3A40
102
}
330
3A40
100
AcDbProxyObject
 90
      499
 91
      504
 93
      113
310
904313A31304000000000000244000
  0
ACAD_PROXY_OBJECT
  5
3A47
102
{ACAD_REACTORS
330
3A40
102
}
330
3A40
100
AcDbProxyObject
 90
      499
 91
      504
 93
      113
310
904313A31364000000000000304000
  0
ACAD_PROXY_OBJECT
  5
3A48
102
{ACAD_REACTORS
330
3A40
102
}
330
3A40
100
AcDbProxyObject
 90
      499
 91
      504
 93
      113
310
904313A32304000000000000344000
  0
ACAD_PROXY_OBJECT
  5
3A49
102
{ACAD_REACTORS
330
3A40
102
}
330
3A40
100
AcDbProxyObject
 90
      499
 91
      504
 93
      113
310
904313A333040000000000003E4000
  0
ACAD_PROXY_OBJECT
  5
3A4A
102
{ACAD_REACTORS
330
3A40
102
}
330
3A40
100
AcDbProxyObject
 90
      499
 91
      504
 93
      113
310
904313A34304000000000000444000
  0
ACAD_PROXY_OBJECT
  5
3A4B
102
{ACAD_REACTORS
330
3A40
102
}
330
3A40
100
AcDbProxyObject
 90
      499
 91
      504
 93
      113
310
904313A35304000000000000494000
  0
ACAD_PROXY_OBJECT
  5
3A4C
102
{ACAD_REACTORS
330
3A40
102
}
330
3A40
100
AcDbProxyObject
 90
      499
 91
      504
 93
      121
310
905313A3130304000000000000594000
  0
ACAD_PROXY_OBJECT
  5
3A4D
102
{ACAD_REACTORS
330
3A40
102
}
330
3A40
100
AcDbProxyObject
 90
      499
 91
      504
 93
      105
310
903323A310000000000000010100
  0
ACAD_PROXY_OBJECT
  5
3A4E
102
{ACAD_REACTORS
330
3A40
102
}
330
3A40
100
AcDbProxyObject
 90
      499
 91
      504
 93
      105
310
903343A310000000000000410100
  0
ACAD_PROXY_OBJECT
  5
3A4F
102
{ACAD_REACTORS
330
3A40
102
}
330
3A40
100
AcDbProxyObject
 90
      499
 91
      504
 93
      105
310
903383A310000000000000810100
  0
ACAD_PROXY_OBJECT
  5
3A50
102
{ACAD_REACTORS
330
3A40
102
}
330
3A40
100
AcDbProxyObject
 90
      499
 91
      504
 93
      113
310
90431303A310000000000000910100
  0
ACAD_PROXY_OBJECT
  5
3A51
102
{ACAD_REACTORS
330
3A40
102
}
330
3A40
100
AcDbProxyObject
 90
      499
 91
      504
 93
      121
310
9053130303A310000000000001650100
  0
ACAD_PROXY_OBJECT
  5
3A52
102
{ACAD_REACTORS
330
3A40
102
}
330
3A40
100
AcDbProxyObject
 90
      499
 91
      504
 93
      257
310
90E312F31323822203D2031272D3022000000000000200FC000000000000284000
  0
ACAD_PROXY_OBJECT
  5
3A53
102
{ACAD_REACTORS
330
3A40
102
}
330
3A40
100
AcDbProxyObject
 90
      499
 91
      504
 93
      249
310
90D312F363422203D2031272D3022000000000000240FC000000000000284000
  0
ACAD_PROXY_OBJECT
  5
3A54
102
{ACAD_REACTORS
330
3A40
102
}
330
3A40
100
AcDbProxyObject
 90
      499
 91
      504
 93
      249
310
90D312F333222203D2031272D3022000000000000280FC000000000000284000
  0
ACAD_PROXY_OBJECT
  5
3A55
102
{ACAD_REACTORS
330
3A40
102
}
330
3A40
100
AcDbProxyObject
 90
      499
 91
      504
 93
      249
310
90D312F313622203D2031272D30220000000000002C0FC000000000000284000
  0
ACAD_PROXY_OBJECT
  5
3A56
102
{ACAD_REACTORS
330
3A40
102
}
330
3A40
100
AcDbProxyObject
 90
      499
 91
      504
 93
      249
310
90D332F333222203D2031272D30220000000000002E0FC000000000000284000
  0
ACAD_PROXY_OBJECT
  5
3A57
102
{ACAD_REACTORS
330
3A40
102
}
330
3A40
100
AcDbProxyObject
 90
      499
 91
      504
 93
      241
310
90C312F3822203D2031272D3022000000000000300FC000000000000284000
  0
ACAD_PROXY_OBJECT
  5
3A58
102
{ACAD_REACTORS
330
3A40
102
}
330
3A40
100
AcDbProxyObject
 90
      499
 91
      504
 93
      249
310
90D332F313622203D2031272D3022000000000000320FC000000000000284000
  0
ACAD_PROXY_OBJECT
  5
3A59
102
{ACAD_REACTORS
330
3A40
102
}
330
3A40
100
AcDbProxyObject
 90
      499
 91
      504
 93
      241
310
90C312F3422203D2031272D3022000000000000340FC000000000000284000
  0
ACAD_PROXY_OBJECT
  5
3A5A
102
{ACAD_REACTORS
330
3A40
102
}
330
3A40
100
AcDbProxyObject
 90
      499
 91
      504
 93
      241
310
90C332F3822203D2031272D3022000000000000360FC000000000000284000
  0
ACAD_PROXY_OBJECT
  5
3A5B
102
{ACAD_REACTORS
330
3A40
102
}
330
3A40
100
AcDbProxyObject
 90
      499
 91
      504
 93
      241
310
90C312F3222203D2031272D3022000000000000380FC000000000000284000
  0
ACAD_PROXY_OBJECT
  5
3A5C
102
{ACAD_REACTORS
330
3A40
102
}
330
3A40
100
AcDbProxyObject
 90
      499
 91
      504
 93
      241
310
90C332F3422203D2031272D30220000000000003A0FC000000000000284000
  0
ACAD_PROXY_OBJECT
  5
3A5D
102
{ACAD_REACTORS
330
3A40
102
}
330
3A40
100
AcDbProxyObject
 90
      499
 91
      504
 93
      161
310
90A3122203D2031272D30224000000000000284000
  0
ACAD_PROXY_OBJECT
  5
3A5E
102
{ACAD_REACTORS
330
3A40
102
}
330
3A40
100
AcDbProxyObject
 90
      499
 91
      504
 93
      257
310
90E312D312F3222203D2031272D30220000000000003E0FC000000000000284000
  0
ACAD_PROXY_OBJECT
  5
3A5F
102
{ACAD_REACTORS
330
3A40
102
}
330
3A40
100
AcDbProxyObject
 90
      499
 91
      504
 93
      225
310
90A3322203D2031272D302200000000000002100000000000000284000
  0
ACAD_PROXY_OBJECT
  5
3A60
102
{ACAD_REACTORS
330
3A40
102
}
330
3A40
100
AcDbProxyObject
 90
      499
 91
      504
 93
      225
310
90A3622203D2031272D302200000000000006100000000000000284000
  0
ACAD_PROXY_OBJECT
  5
3A61
102
{ACAD_REACTORS
330
3A40
102
}
330
3A40
100
AcDbProxyObject
 90
      499
 91
      504
 93
      249
310
90D31272D3022203D2031272D30220000000000000A100000000000000284000
  0
ACAD_PROXY_OBJECT
  5
3A2C
102
{ACAD_REACTORS
330
3A27
102
}
330
3A27
100
AcDbProxyObject
 90
      499
 91
      503
 93
      436
310
42CC9915DA5C99599C985B595049028333333333333E33F0000000000000F90107901411070040501600405405064090741402480A0340
1001
ACAD
1000
AcDbSavedByObjectVersion
1070
     0
  0
ACAD_PROXY_OBJECT
  5
3A2F
102
{ACAD_REACTORS
330
3A27
102
}
330
3A27
100
AcDbProxyObject
 90
      499
 91
      503
 93
      388
310
4150985CDA58D07406404333333333333E33F0000000000000F90107A41107004050150841D405064090741402480A0350
1001
ACAD
1000
AcDbSavedByObjectVersion
1070
     0
  0
ACAD_PROXY_OBJECT
  5
3A33
102
{ACAD_REACTORS
330
3A27
102
}
330
3A27
100
AcDbProxyObject
 90
      499
 91
      503
 93
      428
310
42109C9A59DA1D195B90C409028333333333333E33F0000000000000F9010790141107004050150841D405064090741402480A029950
1001
ACAD
1000
AcDbSavedByObjectVersion
1070
     0
  0
ACAD_PROXY_OBJECT
  5
3A37
102
{ACAD_REACTORS
330
3A27
102
}
330
3A27
100
AcDbProxyObject
 90
      499
 91
      503
 93
      452
310
42D0DBDB1BDC90DA185B99D95104090240C333333333333E33F0000000000000F90108901411070040501508421405064090741402480A0350
1001
ACAD
1000
AcDbSavedByObjectVersion
1070
     0
  0
ACAD_PROXY_OBJECT
  5
3A31
102
{ACAD_REACTORS
330
3A27
102
}
330
3A27
100
AcDbProxyObject
 90
      499
 91
      503
 93
      500
310
4290DBDB98D95C1D1D585B10940D028333333333333E33F0000000000000F90107902409070040501000000000018199010841D405064090740C02480A0340
1001
ACAD
1000
AcDbSavedByObjectVersion
1070
     0
  0
ACAD_PROXY_OBJECT
  5
3A32
102
{ACAD_REACTORS
330
3A27
102
}
330
3A27
100
AcDbProxyObject
 90
      499
 91
      503
 93
      412
310
40D11A5B50B409028333333333333E33F0000000000000F9010790141107004050150841D405064090741402480A02677FFFFFD0
1001
ACAD
1000
AcDbSavedByObjectVersion
1070
     0
  0
ACAD_PROXY_OBJECT
  5
3A3A
102
{ACAD_REACTORS
330
3A27
102
}
330
3A27
100
AcDbProxyObject
 90
      499
 91
      503
 93
      452
310
43115919D950DBDB1BDC93D999916409028333333333333E33F0000000000000F9010790141107004050150841D405064090741402480A0350
1001
ACAD
1000
AcDbSavedByObjectVersion
1070
     0
  0
ACAD_PROXY_OBJECT
  5
3A36
102
{ACAD_REACTORS
330
3A27
102
}
330
3A27
100
AcDbProxyObject
 90
      499
 91
      503
 93
      444
310
42D19858D95C185D1D195C9B90F409028333333333333E33F0000000000000F9010790141107004050150841D405064090741402480A0350
1001
ACAD
1000
AcDbSavedByObjectVersion
1070
     0
  0
ACAD_PROXY_OBJECT
  5
3A28
102
{ACAD_REACTORS
330
3A27
102
}
330
3A27
100
AcDbProxyObject
 90
      499
 91
      503
 93
      380
310
41119B185D240901404333333333333E33F0000000000000F9010740A907004050150841D405064090741402480A1B50
1001
ACAD
1000
AcDbSavedByObjectVersion
1070
     0
  0
ACAD_PROXY_OBJECT
  5
3A29
102
{ACAD_REACTORS
330
3A27
102
}
330
3A27
100
AcDbProxyObject
 90
      499
 91
      503
 93
      468
310
43519B185D15DA5D1A115919D95CD0140901404333333333333E33F0000000000000F90107409019070040501600405405064090741402480A1B50
1001
ACAD
1000
AcDbSavedByObjectVersion
1070
     0
  0
ACAD_PROXY_OBJECT
  5
3A2A
102
{ACAD_REACTORS
330
3A27
102
}
330
3A27
100
AcDbProxyObject
 90
      499
 91
      503
 93
      404
310
41D1DBDD5C985D5910240902404333333333333E33F0000000000000F9010740A9070040501641D405064090741402480A1B50
1001
ACAD
1000
AcDbSavedByObjectVersion
1070
     0
  0
ACAD_PROXY_OBJECT
  5
3A2B
102
{ACAD_REACTORS
330
3A27
102
}
330
3A27
100
AcDbProxyObject
 90
      499
 91
      503
 93
      492
310
4411DBDD5C985D5915DA5D1A115919D95CD0340902404333333333333E33F0000000000000F90107409019070040501600405405064090741402480A1B50
1001
ACAD
1000
AcDbSavedByObjectVersion
1070
     0
  0
ACAD_PROXY_OBJECT
  5
3A2E
102
{ACAD_REACTORS
330
3A27
102
}
330
3A27
100
AcDbProxyObject
 90
      499
 91
      503
 93
      476
310
41921A5919195B90640502408333333333333E33F0000000000000F901079024090700405020000000000001110200405405064090740C02480A0340
1001
ACAD
1000
AcDbSavedByObjectVersion
1070
     0
  0
ACAD_PROXY_OBJECT
  5
3A38
102
{ACAD_REACTORS
330
3A27
102
}
330
3A27
100
AcDbProxyObject
 90
      499
 91
      503
 93
      428
310
42529A5D1D195C93D999914409028333333333333E33F0000000000000F9010790141107004050150A41D405064090741402480A0350
1001
ACAD
1000
AcDbSavedByObjectVersion
1070
     0
  0
ACAD_PROXY_OBJECT
  5
3A35
102
{ACAD_REACTORS
330
3A27
102
}
330
3A27
100
AcDbProxyObject
 90
      499
 91
      503
 93
      444
310
42D31A5B995C185D1D195C9B90E409028333333333333E33F0000000000000F9010790141107004050750841D405064090741402483A0350
1001
ACAD
1000
AcDbSavedByObjectVersion
1070
     0
  0
ACAD_PROXY_OBJECT
  5
3A39
102
{ACAD_REACTORS
330
3A27
102
}
330
3A27
100
AcDbProxyObject
 90
      499
 91
      503
 93
      444
310
42D3DD995C9A185B99D3D999915409028333333333333E33F0000000000000F9010790141107004050150941D405064090741402480A0350
1001
ACAD
1000
AcDbSavedByObjectVersion
1070
     0
  0
ACAD_PROXY_OBJECT
  5
3A30
102
{ACAD_REACTORS
330
3A27
102
}
330
3A27
100
AcDbProxyObject
 90
      499
 91
      503
 93
      428
310
425499585B1A5CDD1A58D08409038333333333333E33F0000000000000F9010740A907004050150800405405064090740C02480A1B40
1001
ACAD
1000
AcDbSavedByObjectVersion
1070
     0
  0
ACAD_PROXY_OBJECT
  5
3A3F
102
{ACAD_REACTORS
330
3A27
102
}
330
3A27
100
AcDbProxyObject
 90
      499
 91
      503
 93
      420
310
4194DA1859195911B40902404333333333333E33F0000000000000F9010740A41107004050150800405405064090840C02480A0B40
1001
ACAD
1000
AcDbSavedByObjectVersion
1070
     0
  0
ACAD_PROXY_OBJECT
  5
3A3E
102
{ACAD_REACTORS
330
3A27
102
}
330
3A27
100
AcDbProxyObject
 90
      499
 91
      503
 93
      516
310
4454DA18591959081DDA5D1A08195919D95CD1A40902404333333333333E33F0000000000000F901074090142907004050250800405405064090740C02480A0B40
1001
ACAD
1000
AcDbSavedByObjectVersion
1070
     0
  0
ACAD_PROXY_OBJECT
  5
3A3B
102
{ACAD_REACTORS
330
3A27
102
}
330
3A27
100
AcDbProxyObject
 90
      499
 91
      503
 93
      532
310
4394DA1859195CC81BD98811DC985E5174090240C333333333333E33F0000000000000F901079024090741D01000000000000111010841D405064090740C02480A0340
1001
ACAD
1000
AcDbSavedByObjectVersion
1070
     0
  0
ACAD_PROXY_OBJECT
  5
3A3C
102
{ACAD_REACTORS
330
3A27
102
}
330
3A27
100
AcDbProxyObject
 90
      499
 91
      503
 93
      476
310
41D4DAD95D18DA1E51840502408333333333333E33F0000000000000F901079024090741D01000000000000111010B41D405064090741802480A0340
1001
ACAD
1000
AcDbSavedByObjectVersion
1070
     0
  0
ACAD_PROXY_OBJECT
  5
3A34
102
{ACAD_REACTORS
330
3A27
102
}
330
3A27
100
AcDbProxyObject
 90
      499
 91
      503
 93
      412
310
41D51A1A58DAD95B90D409028333333333333E33F0000000000000F9010790141107004050150C41D405064090741402480A0350
1001
ACAD
1000
AcDbSavedByObjectVersion
1070
     0
  0
ACAD_PROXY_OBJECT
  5
3A2D
102
{ACAD_REACTORS
330
3A27
102
}
330
3A27
100
AcDbProxyObject
 90
      499
 91
      503
 93
      420
310
4255DA5C99599C985B595059028333333333333E33F0000000000000F90107901411070040501600405405064090740C02480A0340
1001
ACAD
1000
AcDbSavedByObjectVersion
1070
     0
  0
ACAD_PROXY_OBJECT
  5
3A3D
102
{ACAD_REACTORS
330
3A27
102
}
330
3A27
100
AcDbProxyObject
 90
      499
 91
      503
 93
      404
310
41560B54985E51940902404000000000000E03F0000000000000F9010740501907004050150841D405064090740C02480A1B40
1001
ACAD
1000
AcDbSavedByObjectVersion
1070
     0
  0
XRECORD
  5
3F0E
102
{ACAD_REACTORS
330
3F04
102
}
330
3F04
100
AcDbXrecord
340
0
  0
XRECORD
  5
3F0D
102
{ACAD_REACTORS
330
3F04
102
}
330
3F04
100
AcDbXrecord
 90
        0
  0
XRECORD
  5
3F27
102
{ACAD_REACTORS
330
3F04
102
}
330
3F04
100
AcDbXrecord
340
2948
  0
XRECORD
  5
3F24
102
{ACAD_REACTORS
330
3F04
102
}
330
3F04
100
AcDbXrecord
1000
DSTYLE
1002
{
1070
   171
 70
     2
1070
   143
 40
0.0394
1070
   274
 70
     2
1070
    41
 40
6.0
1070
   342
340
2AF4
1070
   271
 70
     1
1070
   278
 70
    46
1070
   341
340
2AF4
1070
   272
 70
     1
1070
    48
 40
0.1
1070
   283
 70
     1
1070
    47
 40
0.1
1070
   145
 40
1.0
1070
   340
340
10
1070
   140
 40
5.0
1070
   284
 70
     0
1002
}
  0
XRECORD
  5
3F0F
102
{ACAD_REACTORS
330
3F04
102
}
330
3F04
100
AcDbXrecord
  1
{23698909-1D67-4744-B0E2-8DE11E3ED422}
  0
XRECORD
  5
3F07
102
{ACAD_REACTORS
330
3F04
102
}
330
3F04
100
AcDbXrecord
  1

  0
XRECORD
  5
3F0C
102
{ACAD_REACTORS
330
3F04
102
}
330
3F04
100
AcDbXrecord
 90
        0
  0
XRECORD
  5
3F09
102
{ACAD_REACTORS
330
3F04
102
}
330
3F04
100
AcDbXrecord
340
2816
  0
XRECORD
  5
3F0B
102
{ACAD_REACTORS
330
3F04
102
}
330
3F04
100
AcDbXrecord
 90
    10781
  0
XRECORD
  5
3F28
102
{ACAD_REACTORS
330
3F04
102
}
330
3F04
100
AcDbXrecord
340
2947
  0
XRECORD
  5
3F0A
102
{ACAD_REACTORS
330
3F04
102
}
330
3F04
100
AcDbXrecord
340
2817
  0
XRECORD
  5
3F11
102
{ACAD_REACTORS
330
3F04
102
}
330
3F04
100
AcDbXrecord
 40
0.25
  0
XRECORD
  5
3F14
102
{ACAD_REACTORS
330
3F04
102
}
330
3F04
100
AcDbXrecord
340
0
  0
XRECORD
  5
3F1A
102
{ACAD_REACTORS
330
3F04
102
}
330
3F04
100
AcDbXrecord
 10
0.0
 20
0.0
 30
0.0
  0
XRECORD
  5
3F16
102
{ACAD_REACTORS
330
3F04
102
}
330
3F04
100
AcDbXrecord
 10
0.0
 20
0.0
 30
0.0
  0
XRECORD
  5
3F19
102
{ACAD_REACTORS
330
3F04
102
}
330
3F04
100
AcDbXrecord
 10
0.0
 20
0.0
 30
0.0
  0
XRECORD
  5
3F17
102
{ACAD_REACTORS
330
3F04
102
}
330
3F04
100
AcDbXrecord
 10
0.0
 20
0.0
 30
0.0
  0
XRECORD
  5
3F18
102
{ACAD_REACTORS
330
3F04
102
}
330
3F04
100
AcDbXrecord
 10
0.0
 20
0.0
 30
0.0
  0
XRECORD
  5
3F15
102
{ACAD_REACTORS
330
3F04
102
}
330
3F04
100
AcDbXrecord
 10
0.0
 20
0.0
 30
0.0
  0
XRECORD
  5
3F12
102
{ACAD_REACTORS
330
3F04
102
}
330
3F04
100
AcDbXrecord
340
0
  0
XRECORD
  5
3F13
102
{ACAD_REACTORS
330
3F04
102
}
330
3F04
100
AcDbXrecord
 70
     0
  0
XRECORD
  5
3F08
102
{ACAD_REACTORS
330
3F04
102
}
330
3F04
100
AcDbXrecord
  1

  0
XRECORD
  5
3F05
102
{ACAD_REACTORS
330
3F04
102
}
330
3F04
100
AcDbXrecord
 90
        1
  0
XRECORD
  5
3F06
102
{ACAD_REACTORS
330
3F04
102
}
330
3F04
100
AcDbXrecord
 90
       70
  0
XRECORD
  5
3F1D
102
{ACAD_REACTORS
330
3F04
102
}
330
3F04
100
AcDbXrecord
340
0
  0
XRECORD
  5
3F23
102
{ACAD_REACTORS
330
3F04
102
}
330
3F04
100
AcDbXrecord
 10
0.0
 20
0.0
 30
0.0
  0
XRECORD
  5
3F1F
102
{ACAD_REACTORS
330
3F04
102
}
330
3F04
100
AcDbXrecord
 10
0.0
 20
0.0
 30
0.0
  0
XRECORD
  5
3F22
102
{ACAD_REACTORS
330
3F04
102
}
330
3F04
100
AcDbXrecord
 10
0.0
 20
0.0
 30
0.0
  0
XRECORD
  5
3F20
102
{ACAD_REACTORS
330
3F04
102
}
330
3F04
100
AcDbXrecord
 10
0.0
 20
0.0
 30
0.0
  0
XRECORD
  5
3F21
102
{ACAD_REACTORS
330
3F04
102
}
330
3F04
100
AcDbXrecord
 10
0.0
 20
0.0
 30
0.0
  0
XRECORD
  5
3F1E
102
{ACAD_REACTORS
330
3F04
102
}
330
3F04
100
AcDbXrecord
 10
0.0
 20
0.0
 30
0.0
  0
XRECORD
  5
3F1B
102
{ACAD_REACTORS
330
3F04
102
}
330
3F04
100
AcDbXrecord
340
0
  0
XRECORD
  5
3F1C
102
{ACAD_REACTORS
330
3F04
102
}
330
3F04
100
AcDbXrecord
 70
     0
  0
XRECORD
  5
3F10
102
{ACAD_REACTORS
330
3F04
102
}
330
3F04
100
AcDbXrecord
  1
{864F03E2-7E4D-48DB-9F53-6463E1EB6A58}
  0
DICTIONARYVAR
  5
3A98
102
{ACAD_REACTORS
330
3A97
102
}
330
3A97
100
DictionaryVariables
280
     0
  1
1:1
  0
DICTIONARYVAR
  5
3AD7
102
{ACAD_REACTORS
330
3A97
102
}
330
3A97
100
DictionaryVariables
280
     0
  1
Standard
  0
DICTIONARYVAR
  5
3AD6
102
{ACAD_REACTORS
330
3A97
102
}
330
3A97
100
DictionaryVariables
280
     0
  1
Standard
  0
DICTIONARYVAR
  5
3F25
102
{ACAD_REACTORS
330
3A97
102
}
330
3A97
100
DictionaryVariables
280
     0
  1
1
  0
DICTIONARYVAR
  5
3F26
102
{ACAD_REACTORS
330
3A97
102
}
330
3A97
100
DictionaryVariables
280
     0
  1
0
  0
DICTIONARYVAR
  5
3AD8
102
{ACAD_REACTORS
330
3A97
102
}
330
3A97
100
DictionaryVariables
280
     0
  1
0
  0
DICTIONARYVAR
  5
3AD9
102
{ACAD_REACTORS
330
3A97
102
}
330
3A97
100
DictionaryVariables
280
     0
  1
0
  0
DICTIONARY
  5
3DCA
102
{ACAD_REACTORS
330
3DC9
102
}
330
3DC9
100
AcDbDictionary
  0
DICTIONARY
  5
3E02
102
{ACAD_REACTORS
330
3E01
102
}
330
3E01
100
AcDbDictionary
  0
DICTIONARY
  5
3E0F
102
{ACAD_REACTORS
330
3E0E
102
}
330
3E0E
100
AcDbDictionary
  0
DICTIONARY
  5
3E13
102
{ACAD_REACTORS
330
3E12
102
}
330
3E12
100
AcDbDictionary
  0
DICTIONARY
  5
3EF9
102
{ACAD_REACTORS
330
3EF8
102
}
330
3EF8
100
AcDbDictionary
  0
DICTIONARY
  5
3EFC
102
{ACAD_REACTORS
330
3EFB
102
}
330
3EFB
100
AcDbDictionary
  0
DICTIONARY
  5
3EFF
102
{ACAD_REACTORS
330
3EFE
102
}
330
3EFE
100
AcDbDictionary
  0
DICTIONARY
  5
3A6E
102
{ACAD_REACTORS
330
3A6D
102
}
330
3A6D
100
AcDbDictionary
  0
DICTIONARY
  5
3F2E
330
3A63
100
AcDbDictionary
280
     1
  3
ACAD_XREC_ROUNDTRIP
360
3F2F
  0
DICTIONARY
  5
3F2C
330
3A62
100
AcDbDictionary
280
     1
  3
ACAD_XREC_ROUNDTRIP
360
3F2D
  0
DICTIONARY
  5
3F30
330
3A64
100
AcDbDictionary
280
     1
  3
ACAD_XREC_ROUNDTRIP
360
3F31
  0
XRECORD
  5
3F2F
102
{ACAD_REACTORS
330
3F2E
102
}
330
3F2E
100
AcDbXrecord
102
MATERIAL
148
0.0
149
0.0
149
0.0
 93
        0
 94
      127
282
     0
 72
     1
 77
     1
171
     1
175
     1
179
     1
273
     0
  0
XRECORD
  5
3F2D
102
{ACAD_REACTORS
330
3F2C
102
}
330
3F2C
100
AcDbXrecord
102
MATERIAL
148
0.0
149
0.0
149
0.0
 93
        0
 94
      127
282
     0
 72
     1
 77
     1
171
     1
175
     1
179
     1
273
     0
  0
XRECORD
  5
3F31
102
{ACAD_REACTORS
330
3F30
102
}
330
3F30
100
AcDbXrecord
102
MATERIAL
148
0.0
149
0.0
149
0.0
 93
        0
 94
      127
282
     0
 72
     1
 77
     1
171
     1
175
     1
179
     1
273
     0
  0
ENDSEC
  0
EOF
