  0
SECTION
  2
HEADER
  9
$ACADVER
  1
AC1014
  9
$ACADMAINTVER
 70
     9
  9
$DWGCODEPAGE
  3
ANSI_932
  9
$INSBASE
 10
0.0
 20
0.0
 30
0.0
  9
$EXTMIN
 10
-70.111794675587
 20
431.272139098837
 30
0.0
  9
$EXTMAX
 10
439.306278616781
 20
755.542913626223
 30
0.0
  9
$LIMMIN
 10
-360.747566795242
 20
4.457354754526
  9
$LIMMAX
 10
-162.153696144267
 20
287.675440264018
  9
$ORTHOMODE
 70
     0
  9
$REGENMODE
 70
     1
  9
$FILLMODE
 70
     1
  9
$QTEXTMODE
 70
     0
  9
$MIRRTEXT
 70
     1
  9
$DRAGMODE
 70
     2
  9
$LTSCALE
 40
1.0
  9
$OSMODE
 70
    32
  9
$ATTMODE
 70
     1
  9
$TEXTSIZE
 40
5.0
  9
$TRACEWID
 40
1.0
  9
$TEXTSTYLE
  7
STANDARD
  9
$CLAYER
  8
寸法線
  9
$CELTYPE
  6
BYLAYER
  9
$CECOLOR
 62
   256
  9
$CELTSCALE
 40
10.0
  9
$DELOBJ
 70
     1
  9
$DISPSILH
 70
     0
  9
$DIMSCALE
 40
1.0
  9
$DIMASZ
 40
6.0
  9
$DIMEXO
 40
0.625
  9
$DIMDLI
 40
3.75
  9
$DIMRND
 40
0.0
  9
$DIMDLE
 40
0.0
  9
$DIMEXE
 40
1.25
  9
$DIMTP
 40
0.1
  9
$DIMTM
 40
0.1
  9
$DIMTXT
 40
5.0
  9
$DIMCEN
 40
2.5
  9
$DIMTSZ
 40
0.0
  9
$DIMTOL
 70
     0
  9
$DIMLIM
 70
     0
  9
$DIMTIH
 70
     0
  9
$DIMTOH
 70
     0
  9
$DIMSE1
 70
     0
  9
$DIMSE2
 70
     0
  9
$DIMTAD
 70
     1
  9
$DIMZIN
 70
     8
  9
$DIMBLK
  1
OPEN30
  9
$DIMASO
 70
     1
  9
$DIMSHO
 70
     1
  9
$DIMPOST
  1

  9
$DIMAPOST
  1

  9
$DIMALT
 70
     0
  9
$DIMALTD
 70
     2
  9
$DIMALTF
 40
0.0394
  9
$DIMLFAC
 40
1.0
  9
$DIMTOFL
 70
     1
  9
$DIMTVP
 40
1.0
  9
$DIMTIX
 70
     0
  9
$DIMSOXD
 70
     0
  9
$DIMSAH
 70
     0
  9
$DIMBLK1
  1

  9
$DIMBLK2
  1

  9
$DIMSTYLE
  2
ISO-25
  9
$DIMCLRD
 70
     0
  9
$DIMCLRE
 70
     0
  9
$DIMCLRT
 70
     0
  9
$DIMTFAC
 40
1.0
  9
$DIMGAP
 40
0.625
  9
$DIMJUST
 70
     0
  9
$DIMSD1
 70
     0
  9
$DIMSD2
 70
     0
  9
$DIMTOLJ
 70
     1
  9
$DIMTZIN
 70
     0
  9
$DIMALTZ
 70
     0
  9
$DIMALTTZ
 70
     0
  9
$DIMFIT
 70
     3
  9
$DIMUPT
 70
     0
  9
$DIMUNIT
 70
     2
  9
$DIMDEC
 70
     1
  9
$DIMTDEC
 70
     1
  9
$DIMALTU
 70
     2
  9
$DIMALTTD
 70
     2
  9
$DIMTXSTY
  7
STANDARD
  9
$DIMAUNIT
 70
     0
  9
$LUNITS
 70
     2
  9
$LUPREC
 70
     4
  9
$SKETCHINC
 40
1.0
  9
$FILLETRAD
 40
0.75
  9
$AUNITS
 70
     0
  9
$AUPREC
 70
     0
  9
$MENU
  1
.
  9
$ELEVATION
 40
0.0
  9
$PELEVATION
 40
0.0
  9
$THICKNESS
 40
0.0
  9
$LIMCHECK
 70
     0
  9
$CHAMFERA
 40
1.0
  9
$CHAMFERB
 40
1.0
  9
$CHAMFERC
 40
20.0
  9
$CHAMFERD
 40
0.0
  9
$SKPOLY
 70
     0
  9
$TDCREATE
 40
2450576.597302431
  9
$TDUPDATE
 40
2457191.665053981
  9
$TDINDWG
 40
1.2244486343
  9
$TDUSRTIMER
 40
1.2244486343
  9
$USRTIMER
 70
     1
  9
$ANGBASE
 50
0.0
  9
$ANGDIR
 70
     0
  9
$PDMODE
 70
     0
  9
$PDSIZE
 40
0.0
  9
$PLINEWID
 40
0.0
  9
$COORDS
 70
     1
  9
$SPLFRAME
 70
     0
  9
$SPLINETYPE
 70
     6
  9
$SPLINESEGS
 70
     8
  9
$ATTDIA
 70
     0
  9
$ATTREQ
 70
     1
  9
$HANDLING
 70
     1
  9
$HANDSEED
  5
4DCF
  9
$SURFTAB1
 70
     6
  9
$SURFTAB2
 70
     6
  9
$SURFTYPE
 70
     6
  9
$SURFU
 70
     6
  9
$SURFV
 70
     6
  9
$UCSNAME
  2

  9
$UCSORG
 10
0.0
 20
0.0
 30
0.0
  9
$UCSXDIR
 10
1.0
 20
0.0
 30
0.0
  9
$UCSYDIR
 10
0.0
 20
1.0
 30
0.0
  9
$PUCSNAME
  2

  9
$PUCSORG
 10
0.0
 20
0.0
 30
0.0
  9
$PUCSXDIR
 10
1.0
 20
0.0
 30
0.0
  9
$PUCSYDIR
 10
0.0
 20
1.0
 30
0.0
  9
$USERI1
 70
     0
  9
$USERI2
 70
     0
  9
$USERI3
 70
     0
  9
$USERI4
 70
     0
  9
$USERI5
 70
     0
  9
$USERR1
 40
0.0
  9
$USERR2
 40
0.0
  9
$USERR3
 40
0.0
  9
$USERR4
 40
0.0
  9
$USERR5
 40
0.0
  9
$WORLDVIEW
 70
     1
  9
$SHADEDGE
 70
     3
  9
$SHADEDIF
 70
    70
  9
$TILEMODE
 70
     0
  9
$MAXACTVP
 70
    16
  9
$PINSBASE
 10
0.0
 20
0.0
 30
0.0
  9
$PLIMCHECK
 70
     0
  9
$PEXTMIN
 10
4.746305129083
 20
3.0947651127
 30
0.0
  9
$PEXTMAX
 10
404.746305129083
 20
283.0947651127
 30
0.0
  9
$PLIMMIN
 10
-7.007122192383
 20
-7.007118782997
  9
$PLIMMAX
 10
417.718108215332
 20
293.315290427208
  9
$UNITMODE
 70
     0
  9
$VISRETAIN
 70
     0
  9
$PLINEGEN
 70
     0
  9
$PSLTSCALE
 70
     1
  9
$TREEDEPTH
 70
  3020
  9
$PICKSTYLE
 70
     1
  9
$CMLSTYLE
  2
STANDARD
  9
$CMLJUST
 70
     0
  9
$CMLSCALE
 40
1.0
  9
$PROXYGRAPHICS
 70
     1
  9
$MEASUREMENT
 70
     1
  0
ENDSEC
  0
SECTION
  2
CLASSES
  0
CLASS
  1
ACDBDICTIONARYWDFLT
  2
AcDbDictionaryWithDefault
  3
ObjectDBX Classes
 90
        0
280
     0
281
     0
  0
CLASS
  1
ACDBPLACEHOLDER
  2
AcDbPlaceHolder
  3
ObjectDBX Classes
 90
        0
280
     0
281
     0
  0
CLASS
  1
LAYOUT
  2
AcDbLayout
  3
ObjectDBX Classes
 90
        0
280
     0
281
     0
  0
CLASS
  1
SORTENTSTABLE
  2
AcDbSortentsTable
  3
ObjectDBX Classes
 90
        0
280
     0
281
     0
  0
CLASS
  1
VISUALSTYLE
  2
AcDbVisualStyle
  3
ObjectDBX Classes
 90
     4095
280
     0
281
     0
  0
CLASS
  1
SCALE
  2
AcDbScale
  3
ObjectDBX Classes
 90
     1153
280
     0
281
     0
  0
CLASS
  1
MATERIAL
  2
AcDbMaterial
  3
ObjectDBX Classes
 90
     1153
280
     0
281
     0
  0
CLASS
  1
TABLESTYLE
  2
AcDbTableStyle
  3
ObjectDBX Classes
 90
     4095
280
     0
281
     0
  0
CLASS
  1
MLEADERSTYLE
  2
AcDbMLeaderStyle
  3
ACDB_MLEADERSTYLE_CLASS
 90
     4095
280
     0
281
     0
  0
CLASS
  1
SUN
  2
AcDbSun
  3
SCENEOE
 90
     1153
280
     0
281
     0
  0
CLASS
  1
DICTIONARYVAR
  2
AcDbDictionaryVar
  3
ObjectDBX Classes
 90
        0
280
     0
281
     0
  0
CLASS
  1
XRECORD
  2
AcDbXrecord
  3
ObjectDBX Classes
 90
        0
280
     0
281
     0
  0
CLASS
  1
LWPOLYLINE
  2
AcDbPolyline
  3
ObjectDBX Classes
 90
        0
280
     0
281
     1
  0
CLASS
  1
HATCH
  2
AcDbHatch
  3
ObjectDBX Classes
 90
        0
280
     0
281
     1
  0
ENDSEC
  0
SECTION
  2
TABLES
  0
TABLE
  2
VPORT
  5
8
102
{ACAD_XDICTIONARY
360
4DC6
102
}
330
0
100
AcDbSymbolTable
 70
     2
  0
VPORT
  5
487A
330
8
100
AcDbSymbolTableRecord
100
AcDbViewportTableRecord
  2
*ACTIVE
 70
     0
 10
0.0
 20
0.0
 11
1.0
 21
1.0
 12
263.048457454542
 22
674.590504919827
 13
0.0
 23
0.0
 14
1.0
 24
1.0
 15
0.0
 25
0.0
 16
0.0
 26
0.0
 36
1.0
 17
0.0
 27
0.0
 37
0.0
 40
259.898261331337
 41
1.56746031746
 42
50.0
 43
0.0
 44
0.0
 50
0.0
 51
0.0
 71
    16
 72
   100
 73
     1
 74
     0
 75
     0
 76
     0
 77
     0
 78
     0
  0
ENDTAB
  0
TABLE
  2
LTYPE
  5
5
330
0
100
AcDbSymbolTable
 70
     5
  0
LTYPE
  5
14
330
5
100
AcDbSymbolTableRecord
100
AcDbLinetypeTableRecord
  2
BYBLOCK
 70
     0
  3

 72
    65
 73
     0
 40
0.0
  0
LTYPE
  5
15
330
5
100
AcDbSymbolTableRecord
100
AcDbLinetypeTableRecord
  2
BYLAYER
 70
     0
  3

 72
    65
 73
     0
 40
0.0
  0
LTYPE
  5
16
330
5
100
AcDbSymbolTableRecord
100
AcDbLinetypeTableRecord
  2
CONTINUOUS
 70
     0
  3
Solid line
 72
    65
 73
     0
 40
0.0
  0
LTYPE
  5
1EC
330
5
100
AcDbSymbolTableRecord
100
AcDbLinetypeTableRecord
  2
CENTER
 70
     0
  3
____ _ ____ _ ____ _ ____ _ ____ _ ____ _ ____ 
 72
    65
 73
     4
 40
2.0
 49
1.25
 74
     0
 49
-0.25
 74
     0
 49
0.25
 74
     0
 49
-0.25
 74
     0
  0
LTYPE
  5
1ED
330
5
100
AcDbSymbolTableRecord
100
AcDbLinetypeTableRecord
  2
DASHED
 70
     0
  3
__ __ __ __ __ __ __ __ __ __ __ __ __ __ __ __
 72
    65
 73
     2
 40
0.75
 49
0.5
 74
     0
 49
-0.25
 74
     0
  0
LTYPE
  5
2B28
330
5
100
AcDbSymbolTableRecord
100
AcDbLinetypeTableRecord
  2
DASHDOT
 70
     0
  3
一点鎖線
 72
    65
 73
     4
 40
25.6
 49
20.0
 74
     0
 49
-2.0
 74
     0
 49
1.6
 74
     0
 49
-2.0
 74
     0
  0
LTYPE
  5
2B29
330
5
100
AcDbSymbolTableRecord
100
AcDbLinetypeTableRecord
  2
DIVIDE
 70
     0
  3
二点鎖線
 72
    65
 73
     6
 40
31.2
 49
20.0
 74
     0
 49
-2.4
 74
     0
 49
2.0
 74
     0
 49
-2.4
 74
     0
 49
2.0
 74
     0
 49
-2.4
 74
     0
  0
ENDTAB
  0
TABLE
  2
LAYER
  5
2
102
{ACAD_XDICTIONARY
360
29EA
102
}
330
0
100
AcDbSymbolTable
 70
    13
  0
LAYER
  5
F
330
2
100
AcDbSymbolTableRecord
100
AcDbLayerTableRecord
  2
0
 70
     0
 62
     7
  6
CONTINUOUS
  0
LAYER
  5
61
330
2
100
AcDbSymbolTableRecord
100
AcDbLayerTableRecord
  2
図枠太線
 70
     0
 62
   251
  6
CONTINUOUS
  0
LAYER
  5
62
330
2
100
AcDbSymbolTableRecord
100
AcDbLayerTableRecord
  2
図枠細線
 70
     0
 62
   252
  6
CONTINUOUS
  0
LAYER
  5
63
330
2
100
AcDbSymbolTableRecord
100
AcDbLayerTableRecord
  2
図枠ロゴマーク
 70
     0
 62
   253
  6
CONTINUOUS
  0
LAYER
  5
1EF
330
2
100
AcDbSymbolTableRecord
100
AcDbLayerTableRecord
  2
外形線
 70
     0
 62
     7
  6
CONTINUOUS
  0
LAYER
  5
1F0
330
2
100
AcDbSymbolTableRecord
100
AcDbLayerTableRecord
  2
寸法線
 70
     0
 62
     1
  6
CONTINUOUS
  0
LAYER
  5
1F1
330
2
100
AcDbSymbolTableRecord
100
AcDbLayerTableRecord
  2
中心線
 70
     0
 62
     4
  6
CENTER
  0
LAYER
  5
1F4
330
2
100
AcDbSymbolTableRecord
100
AcDbLayerTableRecord
  2
DEFPOINTS
 70
     0
 62
     7
  6
CONTINUOUS
  0
LAYER
  5
2AA2
330
2
100
AcDbSymbolTableRecord
100
AcDbLayerTableRecord
  2
下書線
 70
     0
 62
     2
  6
CONTINUOUS
  0
LAYER
  5
2AA3
330
2
100
AcDbSymbolTableRecord
100
AcDbLayerTableRecord
  2
隠れ線
 70
     0
 62
     3
  6
DASHED
  0
LAYER
  5
2AA4
330
2
100
AcDbSymbolTableRecord
100
AcDbLayerTableRecord
  2
細線
 70
     0
 62
     6
  6
CONTINUOUS
  0
LAYER
  5
2AA5
330
2
100
AcDbSymbolTableRecord
100
AcDbLayerTableRecord
  2
太線
 70
     0
 62
   190
  6
CONTINUOUS
  0
LAYER
  5
2B2A
330
2
100
AcDbSymbolTableRecord
100
AcDbLayerTableRecord
  2
LAY-1
 70
     0
 62
     7
  6
CONTINUOUS
  0
ENDTAB
  0
TABLE
  2
STYLE
  5
3
330
0
100
AcDbSymbolTable
 70
     3
  0
STYLE
  5
10
330
3
100
AcDbSymbolTableRecord
100
AcDbTextStyleTableRecord
  2
STANDARD
 70
     0
 40
0.0
 41
1.0
 50
0.0
 71
     0
 42
5.0
  3
ISOCP
  4
bigfont.shx
  0
STYLE
  5
64
330
3
100
AcDbSymbolTableRecord
100
AcDbTextStyleTableRecord
  2
EXCADSTD
 70
     0
 40
0.0
 41
1.0
 50
0.0
 71
     0
 42
0.2
  3
monotxt
  4
bigfont
  0
STYLE
  5
2B2B
330
3
100
AcDbSymbolTableRecord
100
AcDbTextStyleTableRecord
  2
EXCADVERT
 70
     4
 40
0.0
 41
1.0
 50
0.0
 71
     0
 42
0.286885
  3
monotxt
  4
bigfont
  0
ENDTAB
  0
TABLE
  2
VIEW
  5
6
330
0
100
AcDbSymbolTable
 70
     0
  0
ENDTAB
  0
TABLE
  2
UCS
  5
7
330
0
100
AcDbSymbolTable
 70
     0
  0
ENDTAB
  0
TABLE
  2
APPID
  5
9
330
0
100
AcDbSymbolTable
 70
     3
  0
APPID
  5
11
330
9
100
AcDbSymbolTableRecord
100
AcDbRegAppTableRecord
  2
ACAD
 70
     0
  0
APPID
  5
48CA
330
9
100
AcDbSymbolTableRecord
100
AcDbRegAppTableRecord
  2
ACADANNOTATIVE
 70
     0
  0
APPID
  5
4DCE
330
9
100
AcDbSymbolTableRecord
100
AcDbRegAppTableRecord
  2
ACAD_MLEADERVER
 70
     0
  0
ENDTAB
  0
TABLE
  2
DIMSTYLE
  5
A
330
0
100
AcDbSymbolTable
 70
     2
  0
DIMSTYLE
105
1D
330
A
100
AcDbSymbolTableRecord
100
AcDbDimStyleTableRecord
  2
STANDARD
 70
     0
  3

  4

  5

  6

  7

 40
1.0
 41
0.18
 42
0.0625
 43
0.38
 44
0.18
 45
0.0
 46
0.0
 47
0.0
 48
0.0
140
0.18
141
0.09
142
0.0
143
25.4
144
1.0
145
0.0
146
1.0
147
0.09
 71
     0
 72
     0
 73
     1
 74
     1
 75
     0
 76
     0
 77
     0
 78
     0
170
     0
171
     2
172
     0
173
     0
174
     0
175
     0
176
     0
177
     0
178
     0
270
     2
271
     4
272
     4
273
     2
274
     2
340
10
275
     0
280
     0
281
     0
282
     0
283
     1
284
     0
285
     0
286
     0
287
     3
288
     0
  0
DIMSTYLE
105
24
102
{ACAD_REACTORS
330
427E
330
4B75
330
4B76
330
4B77
330
4B78
330
4B83
330
4B84
330
4B86
330
4C6C
330
4C9B
330
4D75
330
4D88
102
}
330
A
100
AcDbSymbolTableRecord
100
AcDbDimStyleTableRecord
  2
ISO-25
 70
     0
  3

  4

  5

  6

  7

 40
1.0
 41
2.5
 42
0.625
 43
3.75
 44
1.25
 45
0.0
 46
0.0
 47
0.0
 48
0.0
140
2.5
141
2.5
142
0.0
143
0.0394
144
1.0
145
1.0
146
1.0
147
0.625
 71
     0
 72
     0
 73
     1
 74
     0
 75
     0
 76
     0
 77
     1
 78
     8
170
     0
171
     2
172
     1
173
     0
174
     0
175
     0
176
     0
177
     0
178
     0
270
     2
271
     4
272
     4
273
     2
274
     2
340
10
275
     0
280
     0
281
     0
282
     0
283
     1
284
     0
285
     0
286
     0
287
     3
288
     0
  0
ENDTAB
  0
TABLE
  2
BLOCK_RECORD
  5
1
330
0
100
AcDbSymbolTable
 70
    42
  0
BLOCK_RECORD
  5
1A
102
{ACAD_XDICTIONARY
360
4464
102
}
330
1
100
AcDbSymbolTableRecord
100
AcDbBlockTableRecord
  2
*MODEL_SPACE
  0
BLOCK_RECORD
  5
28FB
330
1
100
AcDbSymbolTableRecord
100
AcDbBlockTableRecord
  2
*PAPER_SPACE
  0
BLOCK_RECORD
  5
65
330
1
100
AcDbSymbolTableRecord
100
AcDbBlockTableRecord
  2
A$C3392
  0
BLOCK_RECORD
  5
29BF
330
1
100
AcDbSymbolTableRecord
100
AcDbBlockTableRecord
  2
A4横用_タイトル
1001
ACAD
1000
DesignCenter Data
1002
{
1070
     1
1070
     4
1002
}
  0
BLOCK_RECORD
  5
29F4
330
1
100
AcDbSymbolTableRecord
100
AcDbBlockTableRecord
  2
A4縦用_タイトル
1001
ACAD
1000
DesignCenter Data
1002
{
1070
     1
1070
     4
1002
}
  0
BLOCK_RECORD
  5
2A32
330
1
100
AcDbSymbolTableRecord
100
AcDbBlockTableRecord
  2
A3横用_タイトル
1001
ACAD
1000
DesignCenter Data
1002
{
1070
     1
1070
     4
1002
}
  0
BLOCK_RECORD
  5
2A6C
330
1
100
AcDbSymbolTableRecord
100
AcDbBlockTableRecord
  2
A3縦用_タイトル
1001
ACAD
1000
DesignCenter Data
1002
{
1070
     1
1070
     4
1002
}
  0
BLOCK_RECORD
  5
2AF4
330
1
100
AcDbSymbolTableRecord
100
AcDbBlockTableRecord
  2
_OPEN30
  0
BLOCK_RECORD
  5
2F3F
330
1
100
AcDbSymbolTableRecord
100
AcDbBlockTableRecord
  2
ケース外形図_HL-400
  0
BLOCK_RECORD
  5
427F
330
1
100
AcDbSymbolTableRecord
100
AcDbBlockTableRecord
  2
*D11
  0
BLOCK_RECORD
  5
4CD8
330
1
100
AcDbSymbolTableRecord
100
AcDbBlockTableRecord
  2
*D29
  0
BLOCK_RECORD
  5
4CE7
330
1
100
AcDbSymbolTableRecord
100
AcDbBlockTableRecord
  2
*D30
  0
BLOCK_RECORD
  5
4CF3
330
1
100
AcDbSymbolTableRecord
100
AcDbBlockTableRecord
  2
*D31
  0
BLOCK_RECORD
  5
4CFF
330
1
100
AcDbSymbolTableRecord
100
AcDbBlockTableRecord
  2
*D32
  0
BLOCK_RECORD
  5
4D0B
330
1
100
AcDbSymbolTableRecord
100
AcDbBlockTableRecord
  2
*D33
  0
BLOCK_RECORD
  5
4D19
330
1
100
AcDbSymbolTableRecord
100
AcDbBlockTableRecord
  2
*D34
  0
BLOCK_RECORD
  5
4D25
330
1
100
AcDbSymbolTableRecord
100
AcDbBlockTableRecord
  2
*D35
  0
BLOCK_RECORD
  5
4D4A
330
1
100
AcDbSymbolTableRecord
100
AcDbBlockTableRecord
  2
*D38
  0
BLOCK_RECORD
  5
4D57
330
1
100
AcDbSymbolTableRecord
100
AcDbBlockTableRecord
  2
*D39
  0
BLOCK_RECORD
  5
4D76
330
1
100
AcDbSymbolTableRecord
100
AcDbBlockTableRecord
  2
*D40
  0
BLOCK_RECORD
  5
4D89
330
1
100
AcDbSymbolTableRecord
100
AcDbBlockTableRecord
  2
*D41
  0
ENDTAB
  0
ENDSEC
  0
SECTION
  2
BLOCKS
  0
BLOCK
  5
1B
330
1A
100
AcDbEntity
  8
0
100
AcDbBlockBegin
  2
*MODEL_SPACE
 70
     0
 10
0.0
 20
0.0
 30
0.0
  3
*MODEL_SPACE
  1

  0
ENDBLK
  5
1C
330
1A
100
AcDbEntity
  8
0
100
AcDbBlockEnd
  0
BLOCK
  5
28FD
330
28FB
100
AcDbEntity
 67
     1
  8
0
 48
10.0
100
AcDbBlockBegin
  2
*PAPER_SPACE
 70
     0
 10
0.0
 20
0.0
 30
0.0
  3
*PAPER_SPACE
  1

  0
ENDBLK
  5
28FE
330
28FB
100
AcDbEntity
 67
     1
  8
0
 48
10.0
100
AcDbBlockEnd
  0
BLOCK
  5
93
330
65
100
AcDbEntity
  8
0
100
AcDbBlockBegin
  2
A$C3392
 70
     0
 10
0.0
 20
0.0
 30
0.0
  3
A$C3392
  1
A$C3392
  0
LINE
  5
66
330
65
100
AcDbEntity
  8
図枠太線
  6
CONTINUOUS
100
AcDbLine
 10
211.858584505185
 20
30.927375675439
 30
0.0
 11
211.858584505185
 21
0.927375675439
 31
0.0
  0
LINE
  5
67
330
65
100
AcDbEntity
  8
図枠細線
  6
CONTINUOUS
100
AcDbLine
 10
231.858592505185
 20
15.927377675439
 30
0.0
 11
287.858592505185
 21
15.927375675439
 31
0.0
  0
LINE
  5
68
330
65
100
AcDbEntity
  8
図枠細線
  6
CONTINUOUS
100
AcDbLine
 10
211.858592505185
 20
15.927377675439
 30
0.0
 11
231.858592505185
 21
15.927377675439
 31
0.0
  0
LINE
  5
69
330
65
100
AcDbEntity
  8
図枠太線
  6
CONTINUOUS
 62
   251
100
AcDbLine
 10
1.858584505185
 20
0.927375675439
 30
0.0
 11
1.858584505185
 21
275.927375675439
 31
0.0
  0
TEXT
  5
6A
330
65
100
AcDbEntity
  8
図枠細線
  6
CONTINUOUS
 62
   252
100
AcDbText
 10
351.358592505185
 20
28.427377675439
 30
0.0
 40
2.0
  1
ＴＩＴＬＥ
 41
0.903614457831
  7
EXCADSTD
 72
     5
 11
361.358592505185
 21
28.427377675439
 31
0.0
100
AcDbText
  0
TEXT
  5
6B
330
65
100
AcDbEntity
  8
図枠細線
  6
CONTINUOUS
 62
   252
100
AcDbText
 10
345.358592505185
 20
28.427377675439
 30
0.0
 40
2.0
  1
名称
 41
1.171875
  7
EXCADSTD
 72
     5
 11
350.358592505185
 21
28.427377675439
 31
0.0
100
AcDbText
  0
TEXT
  5
6C
330
65
100
AcDbEntity
  8
図枠細線
  6
CONTINUOUS
 62
   252
100
AcDbText
 10
274.358592505185
 20
25.927377675439
 30
0.0
 40
2.0
  1
ＤＲＡＷＮ
 41
0.882352941176
  7
EXCADSTD
 72
     5
 11
284.358592505185
 21
25.927377675439
 31
0.0
100
AcDbText
  0
TEXT
  5
6D
330
65
100
AcDbEntity
  8
図枠細線
  6
CONTINUOUS
 62
   252
100
AcDbText
 10
260.358592505185
 20
25.927377675439
 30
0.0
 40
2.0
  1
ＤＥＳＩＧＮＥＤ
 41
0.713043472041
  7
EXCADSTD
 72
     5
 11
273.478592390744
 21
25.927377675439
 31
0.0
100
AcDbText
  0
TEXT
  5
6E
330
65
100
AcDbEntity
  8
図枠細線
  6
CONTINUOUS
 62
   252
100
AcDbText
 10
246.358592505185
 20
25.927377675439
 30
0.0
 40
2.0
  1
ＣＨＥＣＫＥＤ
 41
0.831249989569
  7
EXCADSTD
 72
     5
 11
259.658592338292
 21
25.927377675439
 31
0.0
100
AcDbText
  0
TEXT
  5
6F
330
65
100
AcDbEntity
  8
図枠細線
  6
CONTINUOUS
 62
   252
100
AcDbText
 10
274.358592505185
 20
28.427377675439
 30
0.0
 40
2.0
  1
製図
 41
1.209677419355
  7
EXCADSTD
 72
     5
 11
279.358592505185
 21
28.427377675439
 31
0.0
100
AcDbText
  0
TEXT
  5
70
330
65
100
AcDbEntity
  8
図枠細線
  6
CONTINUOUS
 62
   252
100
AcDbText
 10
260.358592505185
 20
28.427377675439
 30
0.0
 40
2.0
  1
設計
 41
1.171875
  7
EXCADSTD
 72
     5
 11
265.358592505185
 21
28.427377675439
 31
0.0
100
AcDbText
  0
TEXT
  5
71
330
65
100
AcDbEntity
  8
図枠細線
  6
CONTINUOUS
 62
   252
100
AcDbText
 10
246.358592505185
 20
28.427377675439
 30
0.0
 40
2.0
  1
検図
 41
1.209677419355
  7
EXCADSTD
 72
     5
 11
251.358592505185
 21
28.427377675439
 31
0.0
100
AcDbText
  0
TEXT
  5
72
330
65
100
AcDbEntity
  8
図枠細線
  6
CONTINUOUS
 62
   252
100
AcDbText
 10
232.358592505185
 20
25.927377675439
 30
0.0
 40
2.0
  1
ＡＰＰＲＯＶＥＤ
 41
0.695652184279
  7
EXCADSTD
 72
     5
 11
245.15859269592
 21
25.927377675439
 31
0.0
100
AcDbText
  0
TEXT
  5
73
330
65
100
AcDbEntity
  8
図枠細線
  6
CONTINUOUS
 62
   252
100
AcDbText
 10
232.358592505185
 20
28.427377675439
 30
0.0
 40
2.0
  1
承認
 41
1.171875
  7
EXCADSTD
 72
     5
 11
237.358592505185
 21
28.427377675439
 31
0.0
100
AcDbText
  0
TEXT
  5
74
330
65
100
AcDbEntity
  8
図枠細線
  6
CONTINUOUS
 62
   252
100
AcDbText
 10
290.069888505185
 20
2.574868675439
 30
0.0
 40
3.5
  1
ＴＯＷＡ　ＳＥＩＤＥＮ　ＩＮＤＵＳＴＲＩＡＬ　ＣＯ．，ＬＴＤ．
 41
0.414568012377
  7
EXCADSTD
 72
     5
 11
342.692388209546
 21
2.574868675439
 31
0.0
100
AcDbText
  0
TEXT
  5
75
330
65
100
AcDbEntity
  8
図枠ロゴマーク
  6
CONTINUOUS
 62
   253
100
AcDbText
 10
290.107348505185
 20
7.519769675439
 30
0.0
 40
7.0
  1
東和制電工業株式会社
 41
0.639204545455
  7
EXCADSTD
 72
     5
 11
342.607348505185
 21
7.519769675439
 31
0.0
100
AcDbText
  0
TEXT
  5
76
330
65
100
AcDbEntity
  8
図枠細線
  6
CONTINUOUS
 62
   252
100
AcDbText
 10
232.499705505185
 20
5.759088675439
 30
0.0
 40
2.0
  1
ＰＲＯＪＥＣＴＩＯＮ
 41
0.754285710199
  7
EXCADSTD
 72
     5
 11
250.099705409817
 21
5.759088675439
 31
0.0
100
AcDbText
  0
TEXT
  5
77
330
65
100
AcDbEntity
  8
図枠細線
  6
CONTINUOUS
 62
   252
100
AcDbText
 10
232.574629505185
 20
8.681077675439
 30
0.0
 40
2.0
  1
ＴＨＩＲＤ　ＡＮＧＬＥ
 41
0.691099486738
  7
EXCADSTD
 72
     5
 11
250.174629767445
 21
8.681077675439
 31
0.0
100
AcDbText
  0
TEXT
  5
78
330
65
100
AcDbEntity
  8
図枠細線
  6
CONTINUOUS
 62
   252
100
AcDbText
 10
256.823999505185
 20
13.427377675439
 30
0.0
 40
2.0
  1
ＳＣＡＬＥ
 41
0.903614457831
  7
EXCADSTD
 72
     5
 11
266.823999505185
 21
13.427377675439
 31
0.0
100
AcDbText
  0
TEXT
  5
79
330
65
100
AcDbEntity
  8
図枠細線
  6
CONTINUOUS
 62
   252
100
AcDbText
 10
274.858592505185
 20
13.427377675439
 30
0.0
 40
2.0
  1
ＤＡＴＥ
 41
0.923076923077
  7
EXCADSTD
 72
     5
 11
282.858592505185
 21
13.427377675439
 31
0.0
100
AcDbText
  0
TEXT
  5
7A
330
65
100
AcDbEntity
  8
図枠細線
  6
CONTINUOUS
 62
   252
100
AcDbText
 10
356.358592505185
 20
13.427377675439
 30
0.0
 40
2.0
  1
ＤＲＧ．ＮＯ．
 41
0.9375
  7
EXCADSTD
 72
     5
 11
370.358592505185
 21
13.427377675439
 31
0.0
100
AcDbText
  0
TEXT
  5
7B
330
65
100
AcDbEntity
  8
図枠細線
  6
CONTINUOUS
 62
   252
100
AcDbText
 10
345.358592505185
 20
13.427377675439
 30
0.0
 40
2.0
  1
図面番号
 41
1.102941176471
  7
EXCADSTD
 72
     5
 11
355.358592505185
 21
13.427377675439
 31
0.0
100
AcDbText
  0
TEXT
  5
7C
330
65
100
AcDbEntity
  8
図枠細線
  6
CONTINUOUS
 62
   252
100
AcDbText
 10
269.358592505185
 20
13.427377675439
 30
0.0
 40
2.0
  1
日付
 41
1.171875
  7
EXCADSTD
 72
     5
 11
274.358592505185
 21
13.427377675439
 31
0.0
100
AcDbText
  0
TEXT
  5
7D
330
65
100
AcDbEntity
  8
図枠細線
  6
CONTINUOUS
 62
   252
100
AcDbText
 10
251.451512505185
 20
13.427377675439
 30
0.0
 40
2.0
  1
尺度
 41
1.171875
  7
EXCADSTD
 72
     5
 11
256.451512505185
 21
13.427377675439
 31
0.0
100
AcDbText
  0
TEXT
  5
7E
330
65
100
AcDbEntity
  8
図枠細線
  6
CONTINUOUS
 62
   252
100
AcDbText
 10
232.358592505185
 20
13.427377675439
 30
0.0
 40
2.0
  1
第三角法
 41
1.102941176471
  7
EXCADSTD
 72
     5
 11
242.358592505185
 21
13.427377675439
 31
0.0
100
AcDbText
  0
TEXT
  5
7F
330
65
100
AcDbEntity
  8
図枠細線
  6
CONTINUOUS
 62
   252
100
AcDbText
 10
212.358592505185
 20
28.427377675439
 30
0.0
 40
2.0
  1
ＮＯＴＥ
 41
0.923076923077
  7
EXCADSTD
 72
     5
 11
220.358592505185
 21
28.427377675439
 31
0.0
100
AcDbText
  0
LINE
  5
80
330
65
100
AcDbEntity
  8
図枠細線
  6
CONTINUOUS
 62
   252
100
AcDbLine
 10
287.858592505185
 20
23.427375675439
 30
0.0
 11
344.858592505185
 21
23.427375675439
 31
0.0
  0
LINE
  5
81
330
65
100
AcDbEntity
  8
図枠太線
  6
CONTINUOUS
 62
   251
100
AcDbLine
 10
287.858584505185
 20
15.927375675439
 30
0.0
 11
344.858592505185
 21
15.927375675439
 31
0.0
  0
LINE
  5
82
330
65
100
AcDbEntity
  8
図枠細線
  6
CONTINUOUS
 62
   252
100
AcDbLine
 10
344.858592505185
 20
15.927375675439
 30
0.0
 11
401.858584505185
 21
15.927375675439
 31
0.0
  0
LINE
  5
83
330
65
100
AcDbEntity
  8
図枠太線
  6
CONTINUOUS
 62
   251
100
AcDbLine
 10
344.858592505185
 20
0.927377675439
 30
0.0
 11
344.858592505185
 21
30.927375675439
 31
0.0
  0
LINE
  5
84
330
65
100
AcDbEntity
  8
図枠太線
  6
CONTINUOUS
 62
   251
100
AcDbLine
 10
287.858592505185
 20
0.927377675439
 30
0.0
 11
287.858592505185
 21
30.927375675439
 31
0.0
  0
LINE
  5
85
330
65
100
AcDbEntity
  8
図枠細線
  6
CONTINUOUS
 62
   252
100
AcDbLine
 10
268.858592505185
 20
0.927377675439
 30
0.0
 11
268.858592505185
 21
15.927375675439
 31
0.0
  0
LINE
  5
86
330
65
100
AcDbEntity
  8
図枠細線
  6
CONTINUOUS
 62
   252
100
AcDbLine
 10
250.858592505185
 20
0.927377675439
 30
0.0
 11
250.858592505185
 21
15.927375675439
 31
0.0
  0
LINE
  5
87
330
65
100
AcDbEntity
  8
図枠細線
  6
CONTINUOUS
 62
   252
100
AcDbLine
 10
273.858592505185
 20
30.927375675439
 30
0.0
 11
273.858592505185
 21
15.927375675439
 31
0.0
  0
LINE
  5
88
330
65
100
AcDbEntity
  8
図枠細線
  6
CONTINUOUS
 62
   252
100
AcDbLine
 10
259.858592505185
 20
30.927375675439
 30
0.0
 11
259.858592505185
 21
15.927375675439
 31
0.0
  0
LINE
  5
89
330
65
100
AcDbEntity
  8
図枠細線
  6
CONTINUOUS
 62
   252
100
AcDbLine
 10
245.858592505185
 20
30.927375675439
 30
0.0
 11
245.858592505185
 21
15.927375675439
 31
0.0
  0
LINE
  5
8A
330
65
100
AcDbEntity
  8
図枠太線
  6
CONTINUOUS
 62
   251
100
AcDbLine
 10
231.858592505185
 20
0.927377675439
 30
0.0
 11
231.858592505185
 21
30.927375675439
 31
0.0
  0
LINE
  5
8B
330
65
100
AcDbEntity
  8
図枠細線
  6
CONTINUOUS
 62
   252
100
AcDbLine
 10
211.858592505185
 20
25.927375675439
 30
0.0
 11
231.858592505185
 21
25.927375675439
 31
0.0
  0
LINE
  5
8C
330
65
100
AcDbEntity
  8
図枠細線
  6
CONTINUOUS
 62
   252
100
AcDbLine
 10
211.858592505185
 20
20.927375675439
 30
0.0
 11
231.858592505185
 21
20.927375675439
 31
0.0
  0
LINE
  5
8D
330
65
100
AcDbEntity
  8
図枠細線
  6
CONTINUOUS
 62
   252
100
AcDbLine
 10
211.858592505185
 20
10.927375675439
 30
0.0
 11
231.858592505185
 21
10.927375675439
 31
0.0
  0
LINE
  5
8E
330
65
100
AcDbEntity
  8
図枠細線
  6
CONTINUOUS
 62
   252
100
AcDbLine
 10
211.858592505185
 20
5.927377675439
 30
0.0
 11
231.858592505185
 21
5.927377675439
 31
0.0
  0
LINE
  5
8F
330
65
100
AcDbEntity
  8
図枠太線
  6
CONTINUOUS
 62
   251
100
AcDbLine
 10
211.858592505185
 20
30.927375675439
 30
0.0
 11
401.858584505185
 21
30.927375675439
 31
0.0
  0
LINE
  5
90
330
65
100
AcDbEntity
  8
図枠太線
  6
CONTINUOUS
 62
   251
100
AcDbLine
 10
1.858584505185
 20
275.927375675439
 30
0.0
 11
401.858584505185
 21
275.927375675439
 31
0.0
  0
LINE
  5
91
330
65
100
AcDbEntity
  8
図枠太線
  6
CONTINUOUS
 62
   251
100
AcDbLine
 10
401.858584505185
 20
0.927375675439
 30
0.0
 11
401.858584505185
 21
275.927375675439
 31
0.0
  0
LINE
  5
92
330
65
100
AcDbEntity
  8
図枠太線
  6
CONTINUOUS
 62
   251
100
AcDbLine
 10
1.858584505185
 20
0.927375675439
 30
0.0
 11
401.858584505185
 21
0.927375675439
 31
0.0
  0
ENDBLK
  5
94
330
65
100
AcDbEntity
  8
0
100
AcDbBlockEnd
  0
BLOCK
  5
29C0
330
29BF
100
AcDbEntity
  8
0
100
AcDbBlockBegin
  2
A4横用_タイトル
 70
     0
 10
0.0
 20
0.0
 30
0.0
  3
A4横用_タイトル
  1
A4横用_タイトル
  0
LINE
  5
29C1
330
29BF
100
AcDbEntity
  8
図枠細線
  6
CONTINUOUS
100
AcDbLine
 10
75.061011071051
 20
16.806607253358
 30
0.0
 11
144.061011071051
 21
16.806604789072
 31
0.0
  0
LINE
  5
29C2
330
29BF
100
AcDbEntity
  8
図枠細線
  6
CONTINUOUS
 62
   252
100
AcDbLine
 10
4.061011071051
 20
11.806606253358
 30
0.0
 11
75.061011071051
 21
11.806606253358
 31
0.0
  0
LINE
  5
29C3
330
29BF
100
AcDbEntity
  8
図枠細線
  6
CONTINUOUS
 62
   252
100
AcDbLine
 10
4.061011071051
 20
21.806606253358
 30
0.0
 11
75.061011071051
 21
21.806606253358
 31
0.0
  0
LINE
  5
29C4
330
29BF
100
AcDbEntity
  8
図枠細線
  6
CONTINUOUS
 62
   252
100
AcDbLine
 10
4.061011071051
 20
26.806606253358
 30
0.0
 11
75.061011071051
 21
26.806606253358
 31
0.0
  0
LINE
  5
29C5
330
29BF
100
AcDbEntity
  8
図枠細線
  6
CONTINUOUS
100
AcDbLine
 10
4.061011071051
 20
16.806608253358
 30
0.0
 11
75.061011071051
 21
16.806608253358
 31
0.0
  0
TEXT
  5
29C6
330
29BF
100
AcDbEntity
  8
図枠細線
  6
CONTINUOUS
 62
   252
100
AcDbText
 10
76.405475827713
 20
9.560308253358
 30
0.0
 40
2.0
  1
ＴＨＩＲＤ　ＡＮＧＬＥ
 41
0.691099486738
  7
EXCADSTD
 72
     5
 11
94.005476089973
 21
9.560308253358
 31
0.0
100
AcDbText
  0
TEXT
  5
29C7
330
29BF
100
AcDbEntity
  8
図枠細線
  6
CONTINUOUS
 62
   252
100
AcDbText
 10
76.705775880921
 20
14.306608253358
 30
0.0
 40
2.0
  1
第三角法
 41
1.102941176471
  7
EXCADSTD
 72
     5
 11
86.705775880921
 21
14.306608253358
 31
0.0
100
AcDbText
  0
TEXT
  5
29C8
330
29BF
100
AcDbEntity
  8
図枠細線
  6
CONTINUOUS
 62
   252
100
AcDbText
 10
76.705775880921
 20
26.806608253358
 30
0.0
 40
2.0
  1
ＡＰＰＲＯＶＥＤ
 41
0.695652184279
  7
EXCADSTD
 72
     5
 11
89.505776071656
 21
26.806608253358
 31
0.0
100
AcDbText
  0
TEXT
  5
29C9
330
29BF
100
AcDbEntity
  8
図枠細線
  6
CONTINUOUS
 62
   252
100
AcDbText
 10
76.705775880921
 20
29.306608253358
 30
0.0
 40
2.0
  1
承認
 41
1.171875
  7
EXCADSTD
 72
     5
 11
81.705775880921
 21
29.306608253358
 31
0.0
100
AcDbText
  0
LINE
  5
29CA
330
29BF
100
AcDbEntity
  8
図枠細線
  6
CONTINUOUS
 62
   252
100
AcDbLine
 10
98.061011071051
 20
31.806606253358
 30
0.0
 11
98.061011071051
 21
16.806606253358
 31
0.0
  0
TEXT
  5
29CB
330
29BF
100
AcDbEntity
  8
図枠細線
  6
CONTINUOUS
 62
   252
100
AcDbText
 10
104.216531119804
 20
14.306608253358
 30
0.0
 40
2.0
  1
ＳＣＡＬＥ
 41
0.903614457831
  7
EXCADSTD
 72
     5
 11
114.216531119804
 21
14.306608253358
 31
0.0
100
AcDbText
  0
TEXT
  5
29CC
330
29BF
100
AcDbEntity
  8
図枠細線
  6
CONTINUOUS
 62
   252
100
AcDbText
 10
98.844044119804
 20
14.306608253358
 30
0.0
 40
2.0
  1
尺度
 41
1.171875
  7
EXCADSTD
 72
     5
 11
103.844044119804
 21
14.306608253358
 31
0.0
100
AcDbText
  0
TEXT
  5
29CD
330
29BF
100
AcDbEntity
  8
図枠細線
  6
CONTINUOUS
 62
   252
100
AcDbText
 10
98.968727707497
 20
26.806608253358
 30
0.0
 40
2.0
  1
ＣＨＥＣＫＥＤ
 41
0.831249989569
  7
EXCADSTD
 72
     5
 11
112.268727540604
 21
26.806608253358
 31
0.0
100
AcDbText
  0
TEXT
  5
29CE
330
29BF
100
AcDbEntity
  8
図枠細線
  6
CONTINUOUS
 62
   252
100
AcDbText
 10
98.968727707497
 20
29.306608253358
 30
0.0
 40
2.0
  1
検図
 41
1.209677419355
  7
EXCADSTD
 72
     5
 11
103.968727707497
 21
29.306608253358
 31
0.0
100
AcDbText
  0
LINE
  5
29CF
330
29BF
100
AcDbEntity
  8
図枠細線
  6
CONTINUOUS
 62
   252
100
AcDbLine
 10
121.061011071051
 20
31.806606253358
 30
0.0
 11
121.061011071051
 21
16.806606253358
 31
0.0
  0
TEXT
  5
29D0
330
29BF
100
AcDbEntity
  8
図枠細線
  6
CONTINUOUS
 62
   252
100
AcDbText
 10
128.001465247253
 20
14.306608253358
 30
0.0
 40
2.0
  1
ＤＡＴＥ
 41
0.923076923077
  7
EXCADSTD
 72
     5
 11
136.001465247253
 21
14.306608253358
 31
0.0
100
AcDbText
  0
TEXT
  5
29D1
330
29BF
100
AcDbEntity
  8
図枠細線
  6
CONTINUOUS
 62
   252
100
AcDbText
 10
122.066415498841
 20
14.306608253358
 30
0.0
 40
2.0
  1
日付
 41
1.171875
  7
EXCADSTD
 72
     5
 11
127.066415498841
 21
14.306608253358
 31
0.0
100
AcDbText
  0
TEXT
  5
29D2
330
29BF
100
AcDbEntity
  8
図枠細線
  6
CONTINUOUS
 62
   252
100
AcDbText
 10
121.59429406571
 20
29.306608253358
 30
0.0
 40
2.0
  1
製図
 41
1.209677419355
  7
EXCADSTD
 72
     5
 11
126.59429406571
 21
29.306608253358
 31
0.0
100
AcDbText
  0
TEXT
  5
29D3
330
29BF
100
AcDbEntity
  8
図枠細線
  6
CONTINUOUS
 62
   252
100
AcDbText
 10
121.59429406571
 20
26.806608253358
 30
0.0
 40
2.0
  1
ＤＲＡＷＮ
 41
0.882352941176
  7
EXCADSTD
 72
     5
 11
131.59429406571
 21
26.806608253358
 31
0.0
100
AcDbText
  0
TEXT
  5
29D4
330
29BF
100
AcDbEntity
  8
図枠細線
  6
CONTINUOUS
 62
   252
100
AcDbText
 10
226.591229661348
 20
14.306608253358
 30
0.0
 40
2.0
  1
ＤＲＧ．ＮＯ．
 41
0.9375
  7
EXCADSTD
 72
     5
 11
240.591229661348
 21
14.306608253358
 31
0.0
100
AcDbText
  0
LINE
  5
29D5
330
29BF
100
AcDbEntity
  8
図枠太線
  6
CONTINUOUS
 62
   251
100
AcDbLine
 10
144.061003071051
 20
16.806606253358
 30
0.0
 11
214.061011071051
 21
16.806606253358
 31
0.0
  0
LINE
  5
29D6
330
29BF
100
AcDbEntity
  8
図枠細線
  6
CONTINUOUS
 62
   252
100
AcDbLine
 10
144.061011071051
 20
24.306606253358
 30
0.0
 11
214.061011071051
 21
24.306606253358
 31
0.0
  0
TEXT
  5
29D7
330
29BF
100
AcDbEntity
  8
図枠ロゴマーク
  6
CONTINUOUS
 62
   253
100
AcDbText
 10
146.433776781596
 20
8.399000253358
 30
0.0
 40
7.0
  1
東和制電工業株式会社
 41
0.80361088462
  7
EXCADSTD
 72
     5
 11
212.437017438349
 21
8.399000253358
 31
0.0
100
AcDbText
  0
TEXT
  5
29D8
330
29BF
100
AcDbEntity
  8
図枠細線
  6
CONTINUOUS
 62
   252
100
AcDbText
 10
215.156179912936
 20
14.306608253358
 30
0.0
 40
2.0
  1
図面番号
 41
1.102941176471
  7
EXCADSTD
 72
     5
 11
225.156179912936
 21
14.306608253358
 31
0.0
100
AcDbText
  0
TEXT
  5
29D9
330
29BF
100
AcDbEntity
  8
図枠細線
  6
CONTINUOUS
 62
   252
100
AcDbText
 10
221.591229661348
 20
29.306608253358
 30
0.0
 40
2.0
  1
ＴＩＴＬＥ
 41
0.903614457831
  7
EXCADSTD
 72
     5
 11
231.591229661348
 21
29.306608253358
 31
0.0
100
AcDbText
  0
TEXT
  5
29DA
330
29BF
100
AcDbEntity
  8
図枠細線
  6
CONTINUOUS
 62
   252
100
AcDbText
 10
215.156179912936
 20
29.306608253358
 30
0.0
 40
2.0
  1
名称
 41
1.171875
  7
EXCADSTD
 72
     5
 11
220.156179912936
 21
29.306608253358
 31
0.0
100
AcDbText
  0
LINE
  5
29DB
330
29BF
100
AcDbEntity
  8
図枠太線
  6
CONTINUOUS
 62
   251
100
AcDbLine
 10
4.061011071051
 20
1.806608253358
 30
0.0
 11
284.061011071051
 21
1.806608253358
 31
0.0
  0
LINE
  5
29DC
330
29BF
100
AcDbEntity
  8
図枠細線
  6
CONTINUOUS
 62
   252
100
AcDbLine
 10
4.061011071051
 20
6.806608253358
 30
0.0
 11
75.061011071051
 21
6.806608253358
 31
0.0
  0
LINE
  5
29DD
330
29BF
100
AcDbEntity
  8
図枠太線
  6
CONTINUOUS
 62
   251
100
AcDbLine
 10
75.061011071051
 20
1.806608253358
 30
0.0
 11
75.061011071051
 21
31.806606253358
 31
0.0
  0
TEXT
  5
29DE
330
29BF
100
AcDbEntity
  8
図枠細線
  6
CONTINUOUS
 62
   252
100
AcDbText
 10
76.330551827713
 20
6.638319253358
 30
0.0
 40
2.0
  1
ＰＲＯＪＥＣＴＩＯＮ
 41
0.754285710199
  7
EXCADSTD
 72
     5
 11
93.930551732346
 21
6.638319253358
 31
0.0
100
AcDbText
  0
LINE
  5
29DF
330
29BF
100
AcDbEntity
  8
図枠細線
  6
CONTINUOUS
 62
   252
100
AcDbLine
 10
98.061011071051
 20
1.806606931929
 30
0.0
 11
98.061011071051
 21
16.806604931929
 31
0.0
  0
LINE
  5
29E0
330
29BF
100
AcDbEntity
  8
図枠細線
  6
CONTINUOUS
 62
   252
100
AcDbLine
 10
121.061011071051
 20
1.806607574787
 30
0.0
 11
121.061011071051
 21
16.806605574787
 31
0.0
  0
LINE
  5
29E1
330
29BF
100
AcDbEntity
  8
図枠太線
  6
CONTINUOUS
 62
   251
100
AcDbLine
 10
284.061011071051
 20
1.806608253358
 30
0.0
 11
284.061011071051
 21
31.806606253358
 31
0.0
  0
LINE
  5
29E2
330
29BF
100
AcDbEntity
  8
図枠細線
  6
CONTINUOUS
 62
   252
100
AcDbLine
 10
214.061011071051
 20
16.806606253358
 30
0.0
 11
284.061011071051
 21
16.806606253358
 31
0.0
  0
TEXT
  5
29E3
330
29BF
100
AcDbEntity
  8
図枠細線
  6
CONTINUOUS
 62
   252
100
AcDbText
 10
146.199593676182
 20
3.454099253358
 30
0.0
 40
3.5
  1
ＴＯＷＡ　ＳＥＩＤＥＮ　ＩＮＤＵＳＴＲＩＡＬ　ＣＯ．，ＬＴＤ．
 41
0.528937826907
  7
EXCADSTD
 72
     5
 11
213.339435171588
 21
3.454099253358
 31
0.0
100
AcDbText
  0
LINE
  5
29E4
330
29BF
100
AcDbEntity
  8
図枠太線
  6
CONTINUOUS
 62
   251
100
AcDbLine
 10
144.061011071051
 20
1.806608253358
 30
0.0
 11
144.061011071051
 21
31.806606253358
 31
0.0
  0
LINE
  5
29E5
330
29BF
100
AcDbEntity
  8
図枠太線
  6
CONTINUOUS
 62
   251
100
AcDbLine
 10
214.061011071051
 20
1.806608253358
 30
0.0
 11
214.061011071051
 21
31.806606253358
 31
0.0
  0
MTEXT
  5
29E6
330
29BF
100
AcDbEntity
  8
図枠太線
100
AcDbMText
 10
5.064337346478
 20
31.010982137407
 30
0.0
 40
2.5
 41
8.67856098472
 71
     1
 72
     5
  1
{\Fmonotxt.shx,bigfont.shx|c128;図暦}
  0
LINE
  5
29E7
330
29BF
100
AcDbEntity
  8
図枠太線
  6
CONTINUOUS
 62
   251
100
AcDbLine
 10
4.061011071051
 20
1.806608253358
 30
0.0
 11
4.061011071051
 21
31.806606253358
 31
0.0
  0
TEXT
  5
29E8
330
29BF
100
AcDbEntity
  8
図枠細線
 48
10.0
100
AcDbText
 10
12.260817420402
 20
28.625419626495
 30
0.0
 40
2.0
  1
CHANGE NOTICE
100
AcDbText
  0
ENDBLK
  5
29E9
330
29BF
100
AcDbEntity
  8
0
100
AcDbBlockEnd
  0
BLOCK
  5
29F5
330
29F4
100
AcDbEntity
  8
0
100
AcDbBlockBegin
  2
A4縦用_タイトル
 70
     0
 10
0.0
 20
0.0
 30
0.0
  3
A4縦用_タイトル
  1
A4縦用_タイトル
  0
LINE
  5
29F6
330
29F4
100
AcDbEntity
  8
図枠太線
  6
CONTINUOUS
 62
   251
100
AcDbLine
 10
2.368253864267
 20
4.525433224584
 30
0.0
 11
192.368245864267
 21
4.525433224584
 31
0.0
  0
LINE
  5
29F7
330
29F4
100
AcDbEntity
  8
図枠太線
  6
CONTINUOUS
 62
   251
100
AcDbLine
 10
78.368245864267
 20
19.525431224584
 30
0.0
 11
135.368253864267
 21
19.525431224584
 31
0.0
  0
LINE
  5
29F8
330
29F4
100
AcDbEntity
  8
図枠細線
  6
CONTINUOUS
 62
   252
100
AcDbLine
 10
78.368253864267
 20
27.025431224584
 30
0.0
 11
135.368253864267
 21
27.025431224584
 31
0.0
  0
TEXT
  5
29F9
330
29F4
100
AcDbEntity
  8
図枠ロゴマーク
  6
CONTINUOUS
 62
   253
100
AcDbText
 10
80.617009864267
 20
11.117825224584
 30
0.0
 40
7.0
  1
東和制電工業株式会社
 41
0.639204545455
  7
EXCADSTD
 72
     5
 11
133.117009864267
 21
11.117825224584
 31
0.0
100
AcDbText
  0
TEXT
  5
29FA
330
29F4
100
AcDbEntity
  8
図枠細線
  6
CONTINUOUS
 62
   252
100
AcDbText
 10
80.579549864267
 20
6.172924224584
 30
0.0
 40
3.5
  1
ＴＯＷＡ　ＳＥＩＤＥＮ　ＩＮＤＵＳＴＲＩＡＬ　ＣＯ．，ＬＴＤ．
 41
0.414568012377
  7
EXCADSTD
 72
     5
 11
133.202049568628
 21
6.172924224584
 31
0.0
100
AcDbText
  0
LINE
  5
29FB
330
29F4
100
AcDbEntity
  8
図枠太線
  6
CONTINUOUS
 62
   251
100
AcDbLine
 10
2.368253864267
 20
4.525433224584
 30
0.0
 11
2.368253864267
 21
34.525431224584
 31
0.0
  0
TEXT
  5
29FC
330
29F4
100
AcDbEntity
  8
図枠細線
  6
CONTINUOUS
 62
   252
100
AcDbText
 10
22.504308136501
 20
12.279133224584
 30
0.0
 40
2.0
  1
ＴＨＩＲＤ　ＡＮＧＬＥ
 41
0.691099486738
  7
EXCADSTD
 72
     5
 11
40.104308398762
 21
12.279133224584
 31
0.0
100
AcDbText
  0
TEXT
  5
29FD
330
29F4
100
AcDbEntity
  8
図枠細線
  6
CONTINUOUS
 62
   252
100
AcDbText
 10
22.429384136501
 20
9.357144224584
 30
0.0
 40
2.0
  1
ＰＲＯＪＥＣＴＩＯＮ
 41
0.754285710199
  7
EXCADSTD
 72
     5
 11
40.029384041134
 21
9.357144224584
 31
0.0
100
AcDbText
  0
LINE
  5
29FE
330
29F4
100
AcDbEntity
  8
図枠細線
  6
CONTINUOUS
100
AcDbLine
 10
22.368253864267
 20
19.525433224584
 30
0.0
 11
78.368253864267
 21
19.525431224584
 31
0.0
  0
TEXT
  5
29FF
330
29F4
100
AcDbEntity
  8
図枠細線
  6
CONTINUOUS
 62
   252
100
AcDbText
 10
22.868253864267
 20
17.025433224584
 30
0.0
 40
2.0
  1
第三角法
 41
1.102941176471
  7
EXCADSTD
 72
     5
 11
32.868253864267
 21
17.025433224584
 31
0.0
100
AcDbText
  0
TEXT
  5
2A00
330
29F4
100
AcDbEntity
  8
図枠細線
  6
CONTINUOUS
 62
   252
100
AcDbText
 10
22.868253864267
 20
29.525433224584
 30
0.0
 40
2.0
  1
ＡＰＰＲＯＶＥＤ
 41
0.695652184279
  7
EXCADSTD
 72
     5
 11
35.668254055002
 21
29.525433224584
 31
0.0
100
AcDbText
  0
LINE
  5
2A01
330
29F4
100
AcDbEntity
  8
図枠細線
  6
CONTINUOUS
 62
   252
100
AcDbLine
 10
2.368253864267
 20
9.525433224584
 30
0.0
 11
22.368253864267
 21
9.525433224584
 31
0.0
  0
LINE
  5
2A02
330
29F4
100
AcDbEntity
  8
図枠細線
  6
CONTINUOUS
 62
   252
100
AcDbLine
 10
2.368253864267
 20
14.525431224584
 30
0.0
 11
22.368253864267
 21
14.525431224584
 31
0.0
  0
LINE
  5
2A03
330
29F4
100
AcDbEntity
  8
図枠細線
  6
CONTINUOUS
 62
   252
100
AcDbLine
 10
2.368253864267
 20
24.525431224584
 30
0.0
 11
22.368253864267
 21
24.525431224584
 31
0.0
  0
LINE
  5
2A04
330
29F4
100
AcDbEntity
  8
図枠細線
  6
CONTINUOUS
 62
   252
100
AcDbLine
 10
2.368253864267
 20
29.525431224584
 30
0.0
 11
22.368253864267
 21
29.525431224584
 31
0.0
  0
LINE
  5
2A05
330
29F4
100
AcDbEntity
  8
図枠細線
  6
CONTINUOUS
100
AcDbLine
 10
2.368253864267
 20
19.525433224584
 30
0.0
 11
22.368253864267
 21
19.525433224584
 31
0.0
  0
TEXT
  5
2A06
330
29F4
100
AcDbEntity
  8
図枠細線
  6
CONTINUOUS
 62
   252
100
AcDbText
 10
2.868253864267
 20
32.025433224584
 30
0.0
 40
2.0
  1
ＮＯＴＥ
 41
0.923076923077
  7
EXCADSTD
 72
     5
 11
10.868253864267
 21
32.025433224584
 31
0.0
100
AcDbText
  0
LINE
  5
2A07
330
29F4
100
AcDbEntity
  8
図枠太線
  6
CONTINUOUS
 62
   251
100
AcDbLine
 10
22.368253864267
 20
4.525433224584
 30
0.0
 11
22.368253864267
 21
34.525431224584
 31
0.0
  0
TEXT
  5
2A08
330
29F4
100
AcDbEntity
  8
図枠細線
  6
CONTINUOUS
 62
   252
100
AcDbText
 10
22.868253864267
 20
32.025433224584
 30
0.0
 40
2.0
  1
承認
 41
1.171875
  7
EXCADSTD
 72
     5
 11
27.868253864267
 21
32.025433224584
 31
0.0
100
AcDbText
  0
TEXT
  5
2A09
330
29F4
100
AcDbEntity
  8
図枠細線
  6
CONTINUOUS
 62
   252
100
AcDbText
 10
60.711709035982
 20
32.025433224584
 30
0.0
 40
2.0
  1
製図
 41
1.209677419355
  7
EXCADSTD
 72
     5
 11
65.711709035982
 21
32.025433224584
 31
0.0
100
AcDbText
  0
TEXT
  5
2A0A
330
29F4
100
AcDbEntity
  8
図枠細線
  6
CONTINUOUS
 62
   252
100
AcDbText
 10
60.711709035982
 20
29.525433224584
 30
0.0
 40
2.0
  1
ＤＲＡＷＮ
 41
0.882352941176
  7
EXCADSTD
 72
     5
 11
70.711709035982
 21
29.525433224584
 31
0.0
100
AcDbText
  0
TEXT
  5
2A0B
330
29F4
100
AcDbEntity
  8
図枠細線
  6
CONTINUOUS
 62
   252
100
AcDbText
 10
60.834891743877
 20
17.025433224584
 30
0.0
 40
2.0
  1
日付
 41
1.171875
  7
EXCADSTD
 72
     5
 11
65.834891743877
 21
17.025433224584
 31
0.0
100
AcDbText
  0
TEXT
  5
2A0C
330
29F4
100
AcDbEntity
  8
図枠細線
  6
CONTINUOUS
 62
   252
100
AcDbText
 10
47.333660864267
 20
17.025433224584
 30
0.0
 40
2.0
  1
ＳＣＡＬＥ
 41
0.903614457831
  7
EXCADSTD
 72
     5
 11
57.333660864267
 21
17.025433224584
 31
0.0
100
AcDbText
  0
TEXT
  5
2A0D
330
29F4
100
AcDbEntity
  8
図枠細線
  6
CONTINUOUS
 62
   252
100
AcDbText
 10
42.281425990082
 20
29.525433224584
 30
0.0
 40
2.0
  1
ＣＨＥＣＫＥＤ
 41
0.831249989569
  7
EXCADSTD
 72
     5
 11
55.581425823189
 21
29.525433224584
 31
0.0
100
AcDbText
  0
LINE
  5
2A0E
330
29F4
100
AcDbEntity
  8
図枠細線
  6
CONTINUOUS
 62
   252
100
AcDbLine
 10
40.968253864267
 20
34.525431224584
 30
0.0
 11
40.968253864267
 21
19.525431224584
 31
0.0
  0
LINE
  5
2A0F
330
29F4
100
AcDbEntity
  8
図枠細線
  6
CONTINUOUS
 62
   252
100
AcDbLine
 10
40.968253864267
 20
4.525433224584
 30
0.0
 11
40.968253864267
 21
19.525431224584
 31
0.0
  0
TEXT
  5
2A10
330
29F4
100
AcDbEntity
  8
図枠細線
  6
CONTINUOUS
 62
   252
100
AcDbText
 10
41.961173864267
 20
17.025433224584
 30
0.0
 40
2.0
  1
尺度
 41
1.171875
  7
EXCADSTD
 72
     5
 11
46.961173864267
 21
17.025433224584
 31
0.0
100
AcDbText
  0
TEXT
  5
2A11
330
29F4
100
AcDbEntity
  8
図枠細線
  6
CONTINUOUS
 62
   252
100
AcDbText
 10
42.281425990082
 20
32.025433224584
 30
0.0
 40
2.0
  1
検図
 41
1.209677419355
  7
EXCADSTD
 72
     5
 11
47.281425990082
 21
32.025433224584
 31
0.0
100
AcDbText
  0
LINE
  5
2A12
330
29F4
100
AcDbEntity
  8
図枠細線
  6
CONTINUOUS
 62
   252
100
AcDbLine
 10
59.768253864267
 20
34.525431224584
 30
0.0
 11
59.768253864267
 21
19.525431224584
 31
0.0
  0
LINE
  5
2A13
330
29F4
100
AcDbEntity
  8
図枠細線
  6
CONTINUOUS
 62
   252
100
AcDbLine
 10
59.768253864267
 20
4.525433224584
 30
0.0
 11
59.768253864267
 21
19.525431224584
 31
0.0
  0
LINE
  5
2A14
330
29F4
100
AcDbEntity
  8
図枠太線
  6
CONTINUOUS
 62
   251
100
AcDbLine
 10
78.368253864267
 20
4.525433224584
 30
0.0
 11
78.368253864267
 21
34.525431224584
 31
0.0
  0
TEXT
  5
2A15
330
29F4
100
AcDbEntity
  8
図枠細線
  6
CONTINUOUS
 62
   252
100
AcDbText
 10
66.334891743877
 20
17.025433224584
 30
0.0
 40
2.0
  1
ＤＡＴＥ
 41
0.923076923077
  7
EXCADSTD
 72
     5
 11
74.334891743877
 21
17.025433224584
 31
0.0
100
AcDbText
  0
LINE
  5
2A16
330
29F4
100
AcDbEntity
  8
図枠細線
  6
CONTINUOUS
 62
   252
100
AcDbLine
 10
135.368253864267
 20
19.525431224584
 30
0.0
 11
192.368245864267
 21
19.525431224584
 31
0.0
  0
TEXT
  5
2A17
330
29F4
100
AcDbEntity
  8
図枠細線
  6
CONTINUOUS
 62
   252
100
AcDbText
 10
141.868253864267
 20
32.025433224584
 30
0.0
 40
2.0
  1
ＴＩＴＬＥ
 41
0.903614457831
  7
EXCADSTD
 72
     5
 11
151.868253864267
 21
32.025433224584
 31
0.0
100
AcDbText
  0
LINE
  5
2A18
330
29F4
100
AcDbEntity
  8
図枠太線
  6
CONTINUOUS
 62
   251
100
AcDbLine
 10
135.368253864267
 20
4.525433224584
 30
0.0
 11
135.368253864267
 21
34.525431224584
 31
0.0
  0
TEXT
  5
2A19
330
29F4
100
AcDbEntity
  8
図枠細線
  6
CONTINUOUS
 62
   252
100
AcDbText
 10
135.868253864267
 20
17.025433224584
 30
0.0
 40
2.0
  1
図面番号
 41
1.102941176471
  7
EXCADSTD
 72
     5
 11
145.868253864267
 21
17.025433224584
 31
0.0
100
AcDbText
  0
TEXT
  5
2A1A
330
29F4
100
AcDbEntity
  8
図枠細線
  6
CONTINUOUS
 62
   252
100
AcDbText
 10
135.868253864267
 20
32.025433224584
 30
0.0
 40
2.0
  1
名称
 41
1.171875
  7
EXCADSTD
 72
     5
 11
140.868253864267
 21
32.025433224584
 31
0.0
100
AcDbText
  0
TEXT
  5
2A1B
330
29F4
100
AcDbEntity
  8
図枠細線
  6
CONTINUOUS
 62
   252
100
AcDbText
 10
146.868253864267
 20
17.025433224584
 30
0.0
 40
2.0
  1
ＤＲＧ．ＮＯ．
 41
0.9375
  7
EXCADSTD
 72
     5
 11
160.868253864267
 21
17.025433224584
 31
0.0
100
AcDbText
  0
LINE
  5
2A1C
330
29F4
100
AcDbEntity
  8
図枠太線
  6
CONTINUOUS
 62
   251
100
AcDbLine
 10
192.368245864267
 20
4.525433224584
 30
0.0
 11
192.368245864267
 21
34.525431224584
 31
0.0
  0
ENDBLK
  5
2A1D
330
29F4
100
AcDbEntity
  8
0
100
AcDbBlockEnd
  0
BLOCK
  5
2A33
330
2A32
100
AcDbEntity
  8
0
100
AcDbBlockBegin
  2
A3横用_タイトル
 70
     0
 10
0.0
 20
0.0
 30
0.0
  3
A3横用_タイトル
  1
A3横用_タイトル
  0
LINE
  5
2A34
330
2A32
100
AcDbEntity
  8
図枠細線
  6
CONTINUOUS
 62
   252
100
AcDbLine
 10
205.098414535793
 20
33.525959753527
 30
0.0
 11
305.098414535793
 21
33.525959753527
 31
0.0
  0
LINE
  5
2A35
330
2A32
100
AcDbEntity
  8
図枠太線
  6
CONTINUOUS
 62
   251
100
AcDbLine
 10
205.098414535793
 20
23.525959753527
 30
0.0
 11
305.098414535793
 21
23.525959753527
 31
0.0
  0
LINE
  5
2A36
330
2A32
100
AcDbEntity
  8
図枠細線
  6
CONTINUOUS
100
AcDbLine
 10
5.098414535793
 20
23.525959753527
 30
0.0
 11
105.098414535793
 21
23.525959753527
 31
0.0
  0
LINE
  5
2A37
330
2A32
100
AcDbEntity
  8
図枠細線
  6
CONTINUOUS
 62
   252
100
AcDbLine
 10
5.098414535793
 20
36.725957753527
 30
0.0
 11
105.098414535793
 21
36.725957753527
 31
0.0
  0
LINE
  5
2A38
330
2A32
100
AcDbEntity
  8
図枠細線
  6
CONTINUOUS
 62
   252
100
AcDbLine
 10
5.098414535793
 20
30.125957753527
 30
0.0
 11
105.098414535793
 21
30.125957753527
 31
0.0
  0
LINE
  5
2A39
330
2A32
100
AcDbEntity
  8
図枠細線
  6
CONTINUOUS
 62
   252
100
AcDbLine
 10
5.098414535793
 20
16.725959753527
 30
0.0
 11
105.098414535793
 21
16.725959753527
 31
0.0
  0
LINE
  5
2A3A
330
2A32
100
AcDbEntity
  8
図枠細線
  6
CONTINUOUS
 62
   252
100
AcDbLine
 10
5.098414535793
 20
10.125959753527
 30
0.0
 11
105.098414535793
 21
10.125959753527
 31
0.0
  0
LINE
  5
2A3B
330
2A32
100
AcDbEntity
  8
図枠細線
  6
CONTINUOUS
100
AcDbLine
 10
105.098414535793
 20
23.525961753527
 30
0.0
 11
205.098414535793
 21
23.525959753527
 31
0.0
  0
LINE
  5
2A3C
330
2A32
100
AcDbEntity
  8
図枠細線
  6
CONTINUOUS
 62
   252
100
AcDbLine
 10
138.398414535793
 20
43.525959753527
 30
0.0
 11
138.398414535793
 21
18.525957753527
 31
0.0
  0
LINE
  5
2A3D
330
2A32
100
AcDbEntity
  8
図枠細線
  6
CONTINUOUS
 62
   252
100
AcDbLine
 10
171.698414535793
 20
43.525959753527
 30
0.0
 11
171.698414535793
 21
18.525957753527
 31
0.0
  0
LINE
  5
2A3E
330
2A32
100
AcDbEntity
  8
図枠細線
  6
CONTINUOUS
 62
   252
100
AcDbLine
 10
305.098414535793
 20
23.525959753527
 30
0.0
 11
405.098414535793
 21
23.525959753527
 31
0.0
  0
TEXT
  5
2A3F
330
2A32
100
AcDbEntity
  8
図枠ロゴマーク
  6
CONTINUOUS
 62
   253
100
AcDbText
 10
206.102509212755
 20
13.294257570546
 30
0.0
 40
7.0
  1
東和制電工業株式会社
 50
0.016555220185
 41
1.186384129432
  7
EXCADSTD
 72
     5
 11
303.544188309143
 21
13.322412672217
 31
0.0
100
AcDbText
  0
MTEXT
  5
2A40
330
2A32
100
AcDbEntity
  8
図枠細線
100
AcDbMText
 10
6.356764112375
 20
41.976594175478
 30
0.0
 40
2.5
 41
49.938282706292
 71
     1
 72
     5
  1
{\Fmonotxt.shx,bigfont.shx|c128;図暦　CHANGE　NOTICE}
  0
MTEXT
  5
2A41
330
2A32
100
AcDbEntity
  8
図枠細線
 48
10.0
100
AcDbMText
 10
306.544114926828
 20
41.701835800934
 30
0.0
 40
2.5
 41
28.002809618823
 71
     1
 72
     5
  1
{\Fmonotxt.shx,bigfont.shx|c128;名称　TITLE}
  0
MTEXT
  5
2A42
330
2A32
100
AcDbEntity
  8
図枠細線
 48
10.0
100
AcDbMText
 10
307.329617114284
 20
21.606206797226
 30
0.0
 40
2.5
 41
24.385612216707
 71
     1
 72
     5
  1
{\Fmonotxt.shx,bigfont.shx|c128;図面番号\PDRG.　No.}
  0
MTEXT
  5
2A43
330
2A32
100
AcDbEntity
  8
図枠細線
 48
10.0
100
AcDbMText
 10
173.726349404609
 20
21.73680662198
 30
0.0
 40
2.5
 41
25.735090160813
 71
     1
 72
     5
  1
{\Fmonotxt.shx,bigfont.shx|c128;日付 DATE}
  0
MTEXT
  5
2A44
330
2A32
100
AcDbEntity
  8
図枠細線
 48
10.0
100
AcDbMText
 10
173.48708833982
 20
41.621592044998
 30
0.0
 40
2.5
 41
24.983741184205
 71
     1
 72
     5
  1
{\Fmonotxt.shx,bigfont.shx|c128;製図　DRAWN}
  0
MTEXT
  5
2A45
330
2A32
100
AcDbEntity
  8
図枠細線
 48
10.0
100
AcDbMText
 10
139.28009927741
 20
21.866713069868
 30
0.0
 40
2.5
 41
22.629632913243
 71
     1
 72
     5
  1
{\Fmonotxt.shx,bigfont.shx|c128;尺度　SCALE}
  0
MTEXT
  5
2A46
330
2A32
100
AcDbEntity
  8
図枠細線
 48
10.0
100
AcDbMText
 10
139.910091179835
 20
41.311840415554
 30
0.0
 40
2.5
 41
28.998753428368
 71
     1
 72
     5
  1
{\Fmonotxt.shx,bigfont.shx|c128;検図  CHECKED}
  0
MTEXT
  5
2A47
330
2A32
100
AcDbEntity
  8
図枠細線
 48
10.0
100
AcDbMText
 10
114.253294667728
 20
21.916124850174
 30
0.0
 40
3.0
 41
19.692400475383
 71
     1
 72
     5
  1
{\Fmonotxt.shx,bigfont.shx|c128;第三角法}
  0
MTEXT
  5
2A48
330
2A32
100
AcDbEntity
  8
図枠細線
 48
10.0
100
AcDbMText
 10
108.986959929915
 20
15.282880185837
 30
0.0
 40
2.5
 41
27.954882823547
 71
     1
 72
     5
  1
{\Fmonotxt.shx,bigfont.shx|c128;THIRD ANGLE\PPROJECTION}
  0
MTEXT
  5
2A49
330
2A32
100
AcDbEntity
  8
図枠細線
 48
10.0
100
AcDbMText
 10
106.319432640184
 20
41.511437145487
 30
0.0
 40
2.5
 41
28.233595265074
 71
     1
 72
     5
  1
{\Fmonotxt.shx,bigfont.shx|c128;承認 APPROVED}
  0
LINE
  5
2A4A
330
2A32
100
AcDbEntity
  8
図枠太線
  6
CONTINUOUS
 62
   251
100
AcDbLine
 10
5.098414535793
 20
3.525959753527
 30
0.0
 11
405.098414535793
 21
3.525959753527
 31
0.0
  0
LINE
  5
2A4B
330
2A32
100
AcDbEntity
  8
図枠太線
 48
10.0
100
AcDbLine
 10
5.098414535793
 20
3.525959753527
 30
0.0
 11
5.098414535793
 21
43.525959753527
 31
0.0
  0
LINE
  5
2A4C
330
2A32
100
AcDbEntity
  8
図枠太線
  6
CONTINUOUS
 62
   251
100
AcDbLine
 10
105.098414535793
 20
3.525959753527
 30
0.0
 11
105.098414535793
 21
43.525959753527
 31
0.0
  0
LINE
  5
2A4D
330
2A32
100
AcDbEntity
  8
図枠細線
  6
CONTINUOUS
 62
   252
100
AcDbLine
 10
138.398414535793
 20
3.525959753527
 30
0.0
 11
138.398414535793
 21
18.525957753527
 31
0.0
  0
LINE
  5
2A4E
330
2A32
100
AcDbEntity
  8
図枠細線
  6
CONTINUOUS
 62
   252
100
AcDbLine
 10
171.698414535793
 20
3.525959753527
 30
0.0
 11
171.698414535793
 21
18.525957753527
 31
0.0
  0
LINE
  5
2A4F
330
2A32
100
AcDbEntity
  8
図枠太線
  6
CONTINUOUS
 62
   251
100
AcDbLine
 10
205.098414535793
 20
3.525959753527
 30
0.0
 11
205.098414535793
 21
43.525959753527
 31
0.0
  0
LINE
  5
2A50
330
2A32
100
AcDbEntity
  8
図枠太線
 48
10.0
100
AcDbLine
 10
405.098414535793
 20
43.525959753527
 30
0.0
 11
405.098414535793
 21
3.525959753527
 31
0.0
  0
TEXT
  5
2A51
330
2A32
100
AcDbEntity
  8
図枠細線
  6
CONTINUOUS
 62
   252
100
AcDbText
 10
208.519754474572
 20
6.482358407285
 30
0.0
 40
3.5
  1
ＴＯＷＡ　ＳＥＩＤＥＮ　ＩＮＤＵＳＴＲＩＡＬ　ＣＯ．，ＬＴＤ．
 41
0.746656297509
  7
EXCADSTD
 72
     5
 11
303.295327171727
 21
6.482358407285
 31
0.0
100
AcDbText
  0
LINE
  5
2A52
330
2A32
100
AcDbEntity
  8
図枠太線
  6
CONTINUOUS
 62
   251
100
AcDbLine
 10
305.098414535793
 20
3.525959753527
 30
0.0
 11
305.098414535793
 21
43.525959753527
 31
0.0
  0
ENDBLK
  5
2A53
330
2A32
100
AcDbEntity
  8
0
100
AcDbBlockEnd
  0
BLOCK
  5
2A6D
330
2A6C
100
AcDbEntity
  8
0
100
AcDbBlockBegin
  2
A3縦用_タイトル
 70
     0
 10
0.0
 20
0.0
 30
0.0
  3
A3縦用_タイトル
  1
A3縦用_タイトル
  0
MTEXT
  5
2A6E
330
2A6C
100
AcDbEntity
  8
図枠細線
100
AcDbMText
 10
5.040804501593
 20
31.626098649005
 30
0.0
 40
2.5
 41
49.938282706292
 71
     1
 72
     5
  1
{\Fmonotxt.shx,bigfont.shx|c128;図暦　CHANGE　NOTICE}
  0
LINE
  5
2A6F
330
2A6C
100
AcDbEntity
  8
図枠太線
  6
CONTINUOUS
 62
   251
100
AcDbLine
 10
283.577871882961
 20
2.820844689254
 30
0.0
 11
283.577871882961
 21
32.820842689254
 31
0.0
  0
MTEXT
  5
2A70
330
2A6C
100
AcDbEntity
  8
図枠細線
 48
10.0
100
AcDbMText
 10
214.912458947454
 20
31.621488632308
 30
0.0
 40
2.5
 41
28.002809618823
 71
     1
 72
     5
  1
{\Fmonotxt.shx,bigfont.shx|c128;名称　TITLE}
  0
MTEXT
  5
2A71
330
2A6C
100
AcDbEntity
  8
図枠細線
 48
10.0
100
AcDbMText
 10
214.740030458938
 20
16.310225796722
 30
0.0
 40
2.5
 41
24.385612216707
 71
     1
 72
     5
  1
{\Fmonotxt.shx,bigfont.shx|c128;図面番号\PDRG.　No.}
  0
LINE
  5
2A72
330
2A6C
100
AcDbEntity
  8
図枠太線
  6
CONTINUOUS
 62
   251
100
AcDbLine
 10
213.577871882961
 20
2.820844689254
 30
0.0
 11
213.577871882961
 21
32.820842689254
 31
0.0
  0
LINE
  5
2A73
330
2A6C
100
AcDbEntity
  8
図枠太線
  6
CONTINUOUS
 62
   251
100
AcDbLine
 10
143.577871882961
 20
2.820844689254
 30
0.0
 11
143.577871882961
 21
32.820842689254
 31
0.0
  0
TEXT
  5
2A74
330
2A6C
100
AcDbEntity
  8
図枠細線
  6
CONTINUOUS
 62
   252
100
AcDbText
 10
145.716454488093
 20
4.468335689254
 30
0.0
 40
3.5
  1
ＴＯＷＡ　ＳＥＩＤＥＮ　ＩＮＤＵＳＴＲＩＡＬ　ＣＯ．，ＬＴＤ．
 41
0.528937826907
  7
EXCADSTD
 72
     5
 11
212.856295983498
 21
4.468335689254
 31
0.0
100
AcDbText
  0
TEXT
  5
2A75
330
2A6C
100
AcDbEntity
  8
図枠ロゴマーク
  6
CONTINUOUS
 62
   253
100
AcDbText
 10
145.950637593507
 20
9.413236689254
 30
0.0
 40
7.0
  1
東和制電工業株式会社
 41
0.80361088462
  7
EXCADSTD
 72
     5
 11
211.953878250259
 21
9.413236689254
 31
0.0
100
AcDbText
  0
LINE
  5
2A76
330
2A6C
100
AcDbEntity
  8
図枠細線
  6
CONTINUOUS
 62
   252
100
AcDbLine
 10
143.577871882961
 20
25.320842689254
 30
0.0
 11
213.577871882961
 21
25.320842689254
 31
0.0
  0
LINE
  5
2A77
330
2A6C
100
AcDbEntity
  8
図枠太線
  6
CONTINUOUS
 62
   251
100
AcDbLine
 10
143.577863882961
 20
17.820842689254
 30
0.0
 11
213.577871882961
 21
17.820842689254
 31
0.0
  0
LINE
  5
2A78
330
2A6C
100
AcDbEntity
  8
図枠細線
  6
CONTINUOUS
 62
   252
100
AcDbLine
 10
213.577871882961
 20
17.820842689254
 30
0.0
 11
283.577871882961
 21
17.820842689254
 31
0.0
  0
LINE
  5
2A79
330
2A6C
100
AcDbEntity
  8
図枠細線
  6
CONTINUOUS
 62
   252
100
AcDbLine
 10
120.577871882961
 20
32.820842689254
 30
0.0
 11
120.577871882961
 21
17.820842689254
 31
0.0
  0
MTEXT
  5
2A7A
330
2A6C
100
AcDbEntity
  8
図枠細線
 48
10.0
100
AcDbMText
 10
121.100885670352
 20
16.33785922638
 30
0.0
 40
2.0
 41
17.705978285068
 71
     1
 72
     5
  1
{\Fmonotxt.shx,bigfont.shx|c128;日付 DATE}
  0
MTEXT
  5
2A7B
330
2A6C
100
AcDbEntity
  8
図枠細線
 48
10.0
100
AcDbMText
 10
121.254842273491
 20
31.208993514037
 30
0.0
 40
2.0
 41
18.363799568758
 71
     1
 72
     5
  1
{\Fmonotxt.shx,bigfont.shx|c128;製図　DRAWN}
  0
LINE
  5
2A7C
330
2A6C
100
AcDbEntity
  8
図枠細線
  6
CONTINUOUS
 62
   252
100
AcDbLine
 10
97.577871882961
 20
32.820842689254
 30
0.0
 11
97.577871882961
 21
17.820842689254
 31
0.0
  0
MTEXT
  5
2A7D
330
2A6C
100
AcDbEntity
  8
図枠細線
 48
10.0
100
AcDbMText
 10
98.239734796872
 20
16.467764839281
 30
0.0
 40
2.0
 41
17.757791689903
 71
     1
 72
     5
  1
{\Fmonotxt.shx,bigfont.shx|c128;尺度　SCALE}
  0
MTEXT
  5
2A7E
330
2A6C
100
AcDbEntity
  8
図枠細線
 48
10.0
100
AcDbMText
 10
97.864744625154
 20
31.298433377664
 30
0.0
 40
2.0
 41
23.162655920976
 71
     1
 72
     5
  1
{\Fmonotxt.shx,bigfont.shx|c128;検図  CHECKED}
  0
LINE
  5
2A7F
330
2A6C
100
AcDbEntity
  8
図枠細線
  6
CONTINUOUS
 62
   252
100
AcDbLine
 10
97.577871882961
 20
2.820843367826
 30
0.0
 11
97.577871882961
 21
17.820841367826
 31
0.0
  0
LINE
  5
2A80
330
2A6C
100
AcDbEntity
  8
図枠細線
  6
CONTINUOUS
 62
   252
100
AcDbLine
 10
120.577871882961
 20
2.820844010683
 30
0.0
 11
120.577871882961
 21
17.820842010683
 31
0.0
  0
MTEXT
  5
2A81
330
2A6C
100
AcDbEntity
  8
図枠細線
 48
10.0
100
AcDbMText
 10
81.402399084102
 20
16.316484117426
 30
0.0
 40
2.0
 41
12.920322819369
 71
     1
 72
     5
  1
{\Fmonotxt.shx,bigfont.shx|c128;第三角法}
  0
MTEXT
  5
2A82
330
2A6C
100
AcDbEntity
  8
図枠細線
 48
10.0
100
AcDbMText
 10
75.736576535096
 20
11.080410931319
 30
0.0
 40
2.0
 41
21.072870671471
 71
     1
 72
     5
  1
{\Fmonotxt.shx,bigfont.shx|c128;THIRD ANGLE\PPROJECTION}
  0
LINE
  5
2A83
330
2A6C
100
AcDbEntity
  8
図枠太線
  6
CONTINUOUS
 62
   251
100
AcDbLine
 10
74.577871882961
 20
2.820844689254
 30
0.0
 11
74.577871882961
 21
32.820842689254
 31
0.0
  0
MTEXT
  5
2A84
330
2A6C
100
AcDbEntity
  8
図枠細線
 48
10.0
100
AcDbMText
 10
75.060214781573
 20
31.298434778555
 30
0.0
 40
2.0
 41
22.240928805967
 71
     1
 72
     5
  1
{\Fmonotxt.shx,bigfont.shx|c128;承認 APPROVED}
  0
LINE
  5
2A85
330
2A6C
100
AcDbEntity
  8
図枠細線
  6
CONTINUOUS
100
AcDbLine
 10
3.577871882961
 20
17.820844689254
 30
0.0
 11
74.577871882961
 21
17.820844689254
 31
0.0
  0
LINE
  5
2A86
330
2A6C
100
AcDbEntity
  8
図枠細線
  6
CONTINUOUS
 62
   252
100
AcDbLine
 10
3.577871882961
 20
27.820842689254
 30
0.0
 11
74.577871882961
 21
27.820842689254
 31
0.0
  0
LINE
  5
2A87
330
2A6C
100
AcDbEntity
  8
図枠細線
  6
CONTINUOUS
 62
   252
100
AcDbLine
 10
3.577871882961
 20
22.820842689254
 30
0.0
 11
74.577871882961
 21
22.820842689254
 31
0.0
  0
LINE
  5
2A88
330
2A6C
100
AcDbEntity
  8
図枠細線
  6
CONTINUOUS
 62
   252
100
AcDbLine
 10
3.577871882961
 20
12.820842689254
 30
0.0
 11
74.577871882961
 21
12.820842689254
 31
0.0
  0
LINE
  5
2A89
330
2A6C
100
AcDbEntity
  8
図枠細線
  6
CONTINUOUS
 62
   252
100
AcDbLine
 10
3.577871882961
 20
7.820844689254
 30
0.0
 11
74.577871882961
 21
7.820844689254
 31
0.0
  0
LINE
  5
2A8A
330
2A6C
100
AcDbEntity
  8
図枠細線
  6
CONTINUOUS
100
AcDbLine
 10
74.577871882961
 20
17.820843689254
 30
0.0
 11
143.577871882961
 21
17.820841224969
 31
0.0
  0
LINE
  5
2A8B
330
2A6C
100
AcDbEntity
  8
図枠太線
  6
CONTINUOUS
 62
   251
100
AcDbLine
 10
3.577871882961
 20
2.820844689254
 30
0.0
 11
283.577871882961
 21
2.820844689254
 31
0.0
  0
LINE
  5
2A8C
330
2A6C
100
AcDbEntity
  8
図枠太線
  6
CONTINUOUS
 62
   251
100
AcDbLine
 10
3.577871882961
 20
2.820844689254
 30
0.0
 11
3.577871882961
 21
32.820842689254
 31
0.0
  0
ENDBLK
  5
2A8D
330
2A6C
100
AcDbEntity
  8
0
100
AcDbBlockEnd
  0
BLOCK
  5
2AF8
330
2AF4
100
AcDbEntity
  8
0
 48
10.0
100
AcDbBlockBegin
  2
_OPEN30
 70
     0
 10
0.0
 20
0.0
 30
0.0
  3
_OPEN30
  1
_OPEN30
  0
LINE
  5
2AF5
330
2AF4
100
AcDbEntity
  8
0
  6
BYBLOCK
 62
     0
100
AcDbLine
 10
-1.0
 20
0.26794919
 30
0.0
 11
0.0
 21
0.0
 31
0.0
  0
LINE
  5
2AF6
330
2AF4
100
AcDbEntity
  8
0
  6
BYBLOCK
 62
     0
100
AcDbLine
 10
0.0
 20
0.0
 30
0.0
 11
-1.0
 21
-0.26794919
 31
0.0
  0
LINE
  5
2AF7
330
2AF4
100
AcDbEntity
  8
0
  6
BYBLOCK
 62
     0
100
AcDbLine
 10
0.0
 20
0.0
 30
0.0
 11
-1.0
 21
0.0
 31
0.0
  0
ENDBLK
  5
2AF9
330
2AF4
100
AcDbEntity
  8
0
 48
10.0
100
AcDbBlockEnd
  0
BLOCK
  5
2F40
330
2F3F
100
AcDbEntity
  8
0
 48
10.0
100
AcDbBlockBegin
  2
ケース外形図_HL-400
 70
     0
 10
0.0
 20
0.0
 30
0.0
  3
ケース外形図_HL-400
  1
ケース外形図_HL-400
  0
LINE
  5
2F41
330
2F3F
100
AcDbEntity
  8
外形線
100
AcDbLine
 10
-3016.68737612191
 20
-628.620502022639
 30
0.0
 11
-3004.68737612191
 21
-628.620502022639
 31
0.0
  0
LINE
  5
2F42
330
2F3F
100
AcDbEntity
  8
外形線
100
AcDbLine
 10
-3004.68737612191
 20
-556.620502022639
 30
0.0
 11
-3019.68737612191
 21
-556.620502022639
 31
0.0
  0
LINE
  5
2F43
330
2F3F
100
AcDbEntity
  8
中心線
 48
10.0
100
AcDbLine
 10
-3031.837385121911
 20
-613.830661022639
 30
0.0
 11
-3031.837385121911
 21
-669.264280022639
 31
0.0
  0
LINE
  5
2F44
330
2F3F
100
AcDbEntity
  8
外形線
100
AcDbLine
 10
-3036.074903121911
 20
-666.232883395172
 30
0.0
 11
-3036.074903121911
 21
-653.049280022639
 31
0.0
  0
LINE
  5
2F45
330
2F3F
100
AcDbEntity
  8
外形線
100
AcDbLine
 10
-3027.67493912191
 20
-666.232883395172
 30
0.0
 11
-3027.67493912191
 21
-653.049280022639
 31
0.0
  0
ARC
  5
2F46
330
2F3F
100
AcDbEntity
  8
細線
100
AcDbCircle
 10
-3033.974910933263
 20
-662.595590228936
 30
0.0
 40
4.199982
100
AcDbArc
 50
239.999981276042
 51
299.999981276021
  0
ARC
  5
2F47
330
2F3F
100
AcDbEntity
  8
細線
100
AcDbCircle
 10
-3029.774928933263
 20
-662.595591601467
 30
0.0
 40
4.199982
100
AcDbArc
 50
239.999981276042
 51
299.999981276021
  0
ARC
  5
2F48
330
2F3F
100
AcDbEntity
  8
細線
100
AcDbCircle
 10
-3029.774931310559
 20
-669.870173816342
 30
0.0
 40
4.199982
100
AcDbArc
 50
59.999981276042
 51
119.999981276021
  0
LINE
  5
2F49
330
2F3F
100
AcDbEntity
  8
外形線
100
AcDbLine
 10
-3015.18737612191
 20
-556.620502022639
 30
0.0
 11
-3015.18737612191
 21
-628.620502022639
 31
0.0
  0
LINE
  5
2F4A
330
2F3F
100
AcDbEntity
  8
外形線
100
AcDbLine
 10
-3016.68737612191
 20
-629.295475022639
 30
0.0
 11
-3016.68737612191
 21
-556.620502022639
 31
0.0
  0
LINE
  5
2F4B
330
2F3F
100
AcDbEntity
  8
外形線
100
AcDbLine
 10
-3019.68737612191
 20
-556.620502022639
 30
0.0
 11
-3019.68737612191
 21
-618.495502022639
 31
0.0
  0
LINE
  5
2F4C
330
2F3F
100
AcDbEntity
  8
外形線
100
AcDbLine
 10
-3046.687376121911
 20
-623.745502022639
 30
0.0
 11
-3046.687376121911
 21
-562.245502022639
 31
0.0
  0
LINE
  5
2F4D
330
2F3F
100
AcDbEntity
  8
外形線
100
AcDbLine
 10
-3038.779444758647
 20
-628.97627357689
 30
0.0
 11
-3045.721504395382
 21
-634.988273576889
 31
0.0
  0
LINE
  5
2F4E
330
2F3F
100
AcDbEntity
  8
外形線
100
AcDbLine
 10
-3024.895325485175
 20
-628.97627357689
 30
0.0
 11
-3017.953265848439
 21
-634.988273576889
 31
0.0
  0
LINE
  5
2F4F
330
2F3F
100
AcDbEntity
  8
外形線
100
AcDbLine
 10
-3024.895325485175
 20
-637.653848122809
 30
0.0
 11
-3024.895325485175
 21
-628.97627357689
 31
0.0
  0
LINE
  5
2F50
330
2F3F
100
AcDbEntity
  8
外形線
100
AcDbLine
 10
-3038.779444758647
 20
-637.653848122809
 30
0.0
 11
-3038.779444758647
 21
-628.97627357689
 31
0.0
  0
LWPOLYLINE
  5
2F51
330
2F3F
100
AcDbEntity
  8
外形線
100
AcDbPolyline
 90
       47
 70
     0
 43
0.0
 10
-3027.674940621911
 20
-654.14058768542
 10
-3027.215686831012
 20
-654.025717241066
 10
-3026.807069333743
 20
-653.89949762322
 10
-3026.45356502891
 20
-653.763311720429
 10
-3026.159046983652
 20
-653.618651613941
 10
-3025.926741999306
 20
-653.467102230155
 10
-3025.759195257892
 20
-653.310323975836
 10
-3025.658242436573
 20
-653.150034546342
 10
-3025.624989595581
 20
-652.98799010621
 10
-3025.659801060005
 20
-652.825966048232
 10
-3025.762295428152
 20
-652.665737541894
 10
-3025.931349750279
 20
-652.509060084243
 10
-3026.165111831855
 20
-652.357650266292
 10
-3026.461020526596
 20
-652.213166965689
 10
-3026.815833796919
 20
-652.077193171712
 10
-3027.225664234388
 20
-651.951218641701
 10
-3027.686021650964
 20
-651.836623578969
 10
-3028.191862274455
 20
-651.734663511005
 10
-3028.737644009139
 20
-651.646455533648
 10
-3029.317387156118
 20
-651.572966071958
 10
-3029.924739928152
 20
-651.515000291856
 10
-3030.553048041176
 20
-651.473193278559
 10
-3031.195427620021
 20
-651.448003078454
 10
-3031.844840619596
 20
-651.439705680642
 10
-3032.494171935177
 20
-651.448391993153
 10
-3033.136307356992
 20
-651.473966846927
 10
-3033.764211514982
 20
-651.516150038516
 10
-3034.371004959794
 20
-651.574479400044
 10
-3034.950039535468
 20
-651.648315862822
 10
-3035.494971218024
 20
-651.73685045911
 10
-3035.999829621911
 20
-651.839113185344
 10
-3036.459083412808
 20
-651.953983629698
 10
-3036.867700910077
 20
-652.080203247544
 10
-3037.221205214912
 20
-652.216389150335
 10
-3037.515723260169
 20
-652.361049256823
 10
-3037.748028244515
 20
-652.512598640609
 10
-3037.915574985928
 20
-652.669376894928
 10
-3038.016527807249
 20
-652.829666324421
 10
-3038.04978064824
 20
-652.991710764555
 10
-3038.014969183816
 20
-653.153734822532
 10
-3037.912474815669
 20
-653.313963328869
 10
-3037.743420493542
 20
-653.470640786521
 10
-3037.509658411966
 20
-653.622050604471
 10
-3037.213749717225
 20
-653.766533905074
 10
-3036.858936446901
 20
-653.902507699052
 10
-3036.449106009434
 20
-654.028482229064
 10
-3036.07490312191
 20
-654.123399110931
  0
ARC
  5
2F52
330
2F3F
100
AcDbEntity
  8
外形線
100
AcDbCircle
 10
-3031.837385121911
 20
-620.803069368681
 30
0.0
 40
34.15159996140045
100
AcDbArc
 50
255.26831657715
 51
262.87239111701
  0
LWPOLYLINE
  5
2F53
330
2F3F
100
AcDbEntity
  8
外形線
100
AcDbPolyline
 90
       34
 70
     0
 43
0.0
 10
-3020.164085121911
 20
-645.574914522911
 10
-3020.217826679511
 20
-645.015496411464
 10
-3020.378556521371
 20
-644.461229200047
 10
-3020.644794710875
 20
-643.917216361246
 10
-3021.014089832395
 20
-643.388466949451
 10
-3021.483041562971
 20
-642.879849479472
 10
-3022.047331981114
 20
-642.39604709919
 10
-3022.701765324525
 20
-641.941514468981
 10
-3023.440315830619
 20
-641.520436744971
 10
-3024.256183219338
 20
-641.136691043792
 10
-3025.141855307454
 20
-640.793810743611
 10
-3026.089177177755
 20
-640.494952950203
 10
-3027.089426266293
 20
-640.242869427561
 10
-3028.133392676296
 20
-640.039881260751
 10
-3029.211463979238
 20
-639.887857484282
 10
-3030.313713722268
 20
-639.788197872775
 10
-3031.429992827054
 20
-639.74182005239
 10
-3032.550023038462
 20
-639.749151051702
 10
-3033.663491562665
 20
-639.810123369776
 10
-3034.760146023239
 20
-639.924175597698
 10
-3035.829888860994
 20
-640.090257587801
 10
-3036.862870308282
 20
-640.30684012301
 10
-3037.849579081758
 20
-640.571928997268
 10
-3038.780929958494
 20
-640.88308337739
 10
-3039.64834742912
 20
-641.237438277289
 10
-3040.443844657696
 20
-641.631730937631
 10
-3041.160097021345
 20
-642.062330868031
 10
-3041.790509552464
 20
-642.525273275162
 10
-3042.329277662574
 20
-643.016295569004
 10
-3042.771440588665
 20
-643.530876611082
 10
-3043.112927069931
 20
-644.064278343314
 10
-3043.350592834335
 20
-644.611589414165
 10
-3043.482249549808
 20
-645.167770400432
 10
-3043.510685121911
 20
-645.574914522911
  0
ARC
  5
2F54
330
2F3F
100
AcDbEntity
  8
外形線
100
AcDbCircle
 10
-3031.837385121911
 20
-625.986454710612
 30
0.0
 40
13.57645981229912
100
AcDbArc
 50
239.247497502359
 51
300.752502497641
  0
LINE
  5
2F55
330
2F3F
100
AcDbEntity
  8
外形線
100
AcDbLine
 10
-3043.510685121911
 20
-645.574914522911
 30
0.0
 11
-3043.510685121911
 21
-649.955767263438
 31
0.0
  0
ARC
  5
2F56
330
2F3F
100
AcDbEntity
  8
外形線
100
AcDbCircle
 10
-3039.502685121911
 20
-649.955767263438
 30
0.0
 40
4.007999999999999
100
AcDbArc
 50
180.0
 51
255.26831657715
  0
ARC
  5
2F57
330
2F3F
100
AcDbEntity
  8
外形線
100
AcDbCircle
 10
-3046.230136312884
 20
-636.064530573833
 30
0.0
 40
7.618315752702329
100
AcDbArc
 50
273.828163206421
 51
347.958626091838
  0
LINE
  5
2F58
330
2F3F
100
AcDbEntity
  8
外形線
100
AcDbLine
 10
-3043.513436239113
 20
-645.578091239426
 30
0.0
 11
-3045.721504395382
 21
-643.665848122809
 31
0.0
  0
LINE
  5
2F59
330
2F3F
100
AcDbEntity
  8
外形線
100
AcDbLine
 10
-3045.721504395382
 20
-634.988273576889
 30
0.0
 11
-3045.721504395382
 21
-643.665848122809
 31
0.0
  0
LINE
  5
2F5A
330
2F3F
100
AcDbEntity
  8
外形線
100
AcDbLine
 10
-3020.164085121911
 20
-645.574914522911
 30
0.0
 11
-3020.164085121911
 21
-649.955767263438
 31
0.0
  0
LWPOLYLINE
  5
2F5B
330
2F3F
100
AcDbEntity
  8
外形線
100
AcDbPolyline
 90
       29
 70
     0
 43
0.0
 10
-3027.674940621911
 20
-653.049280022638
 10
-3027.701938707542
 20
-652.947308555312
 10
-3027.782585869251
 20
-652.846648062603
 10
-3027.915845283851
 20
-652.748592664861
 10
-3028.100003729843
 20
-652.654402990584
 10
-3028.332693613086
 20
-652.56528996941
 10
-3028.610923405278
 20
-652.482399264063
 10
-3028.9311161039
 20
-652.406796541377
 10
-3029.289155219196
 20
-652.339453771776
 10
-3029.680437696951
 20
-652.281236733347
 10
-3030.099933096692
 20
-652.232893881137
 10
-3030.542248264472
 20
-652.195046724809
 10
-3031.001696668819
 20
-652.16818183833
 10
-3031.472371508433
 20
-652.152644604435
 10
-3031.948221651714
 20
-652.148634774287
 10
-3032.423129431869
 20
-652.15620389942
 10
-3032.890989297393
 20
-652.175254668977
 10
-3033.345786306812
 20
-652.205542160767
 10
-3033.781673458494
 20
-652.246676990049
 10
-3034.193046861402
 20
-652.298130315587
 10
-3034.574617780326
 20
-652.359240638577
 10
-3034.921480629393
 20
-652.429222307066
 10
-3035.229176039693
 20
-652.507175616524
 10
-3035.493748190218
 20
-652.592098376703
 10
-3035.711795665032
 20
-652.682898796086
 10
-3035.88051518286
 20
-652.778409518273
 10
-3035.997737636882
 20
-652.877402629852
 10
-3036.061955981389
 20
-652.9786054468
 10
-3036.07490312191
 20
-653.049280022638
  0
ARC
  5
2F5C
330
2F3F
100
AcDbEntity
  8
外形線
100
AcDbCircle
 10
-3031.837385121911
 20
-620.803069368681
 30
0.0
 40
34.15159996140045
100
AcDbArc
 50
277.000695446903
 51
284.73168342285
  0
ARC
  5
2F5D
330
2F3F
100
AcDbEntity
  8
外形線
100
AcDbCircle
 10
-3024.172085121911
 20
-649.955767263438
 30
0.0
 40
4.007999999999999
100
AcDbArc
 50
284.73168342285
 51
0.0
  0
LINE
  5
2F5E
330
2F3F
100
AcDbEntity
  8
外形線
100
AcDbLine
 10
-3020.161334004708
 20
-645.578091239426
 30
0.0
 11
-3017.953265848439
 21
-643.665848122809
 31
0.0
  0
ARC
  5
2F5F
330
2F3F
100
AcDbEntity
  8
外形線
100
AcDbCircle
 10
-3017.444633930937
 20
-636.064530573833
 30
0.0
 40
7.618315752702329
100
AcDbArc
 50
192.041373908162
 51
266.171836793579
  0
LINE
  5
2F60
330
2F3F
100
AcDbEntity
  8
外形線
100
AcDbLine
 10
-3017.953265848439
 20
-643.665848122809
 30
0.0
 11
-3017.953265848439
 21
-634.988273576889
 31
0.0
  0
LWPOLYLINE
  5
2F61
330
2F3F
100
AcDbEntity
  8
外形線
100
AcDbPolyline
 90
       34
 70
     0
 43
0.0
 10
-3021.33893012191
 20
-629.269370629074
 10
-3021.387262926182
 20
-628.898532694609
 10
-3021.531816309708
 20
-628.531109288718
 10
-3021.771259282285
 20
-628.170483500357
 10
-3022.103387148015
 20
-627.819975828711
 10
-3022.525141805277
 20
-627.482813609361
 10
-3023.032639904511
 20
-627.162101298261
 10
-3023.621208604563
 20
-626.860791887133
 10
-3024.285428598347
 20
-626.581659713495
 10
-3025.019184011678
 20
-626.32727491566
 10
-3025.815718715819
 20
-626.099979767924
 10
-3026.667698535225
 20
-625.901867113831
 10
-3027.567278777729
 20
-625.734761096102
 10
-3028.506176465351
 20
-625.600200360651
 10
-3029.475746600679
 20
-625.499423889346
 10
-3030.467061766568
 20
-625.433359591953
 10
-3031.470994326257
 20
-625.402615762313
 10
-3032.478300467033
 20
-625.40747547741
 10
-3033.479705313585
 20
-625.44789399092
 10
-3034.465988327376
 20
-625.5234991452
 10
-3035.428068205709
 20
-625.633594797989
 10
-3036.357086498752
 20
-625.777167232194
 10
-3037.24448917464
 20
-625.952894489799
 10
-3038.082105381594
 20
-626.159158543935
 10
-3038.862222681892
 20
-626.394060197024
 10
-3039.577658064932
 20
-626.655436567837
 10
-3040.221824085545
 20
-626.940881006447
 10
-3040.788789518574
 20
-627.247765253711
 10
-3041.27333397125
 20
-627.57326364123
 10
-3041.670995950487
 20
-627.91437910899
 10
-3041.978113942544
 20
-628.267970801094
 10
-3042.191860126797
 20
-628.630782985528
 10
-3042.310266413181
 20
-628.99947503163
 10
-3042.335840121911
 20
-629.269370629074
  0
LINE
  5
2F62
330
2F3F
100
AcDbEntity
  8
外形線
100
AcDbLine
 10
-3038.779444758647
 20
-628.97627357689
 30
0.0
 11
-3024.895325485175
 21
-628.97627357689
 31
0.0
  0
LINE
  5
2F63
330
2F3F
100
AcDbEntity
  8
外形線
100
AcDbLine
 10
-3038.779444758647
 20
-620.298699030969
 30
0.0
 11
-3024.895325485175
 21
-620.298699030969
 31
0.0
  0
LINE
  5
2F64
330
2F3F
100
AcDbEntity
  8
外形線
100
AcDbLine
 10
-3038.779444758647
 20
-624.637486303929
 30
0.0
 11
-3024.895325485175
 21
-624.637486303929
 31
0.0
  0
LINE
  5
2F65
330
2F3F
100
AcDbEntity
  8
外形線
100
AcDbLine
 10
-3016.68737612191
 20
-618.495502022639
 30
0.0
 11
-3039.78736712191
 21
-618.495502022639
 31
0.0
  0
LINE
  5
2F66
330
2F3F
100
AcDbEntity
  8
外形線
100
AcDbLine
 10
-3039.468583886739
 20
-620.895511022639
 30
0.0
 11
-3042.187376121911
 21
-620.895511022639
 31
0.0
  0
LINE
  5
2F67
330
2F3F
100
AcDbEntity
  8
外形線
100
AcDbLine
 10
-3045.721504395382
 20
-626.310699030969
 30
0.0
 11
-3038.779444758647
 21
-620.298699030969
 31
0.0
  0
ARC
  5
2F68
330
2F3F
100
AcDbEntity
  8
外形線
100
AcDbCircle
 10
-3039.78736712191
 20
-623.895511022639
 30
0.0
 40
5.4
100
AcDbArc
 50
89.999981276021
 51
180.00001984784
  0
LINE
  5
2F69
330
2F3F
100
AcDbEntity
  8
外形線
100
AcDbLine
 10
-3038.779444758647
 20
-624.637486303929
 30
0.0
 11
-3045.721504395382
 21
-630.649486303929
 31
0.0
  0
ARC
  5
2F6A
330
2F3F
100
AcDbEntity
  8
外形線
100
AcDbCircle
 10
-3042.187376121911
 20
-623.895511022639
 30
0.0
 40
3.0
100
AcDbArc
 50
89.999981276021
 51
211.533239298809
  0
ARC
  5
2F6B
330
2F3F
100
AcDbEntity
  8
外形線
100
AcDbCircle
 10
-3043.687376121911
 20
-623.745502022639
 30
0.0
 40
3.0
100
AcDbArc
 50
180.00001984784
 51
232.575749003279
  0
LINE
  5
2F6C
330
2F3F
100
AcDbEntity
  8
外形線
100
AcDbLine
 10
-3043.216504395382
 20
-632.818879940409
 30
0.0
 11
-3045.721504395382
 21
-630.649486303929
 31
0.0
  0
LINE
  5
2F6D
330
2F3F
100
AcDbEntity
  8
外形線
100
AcDbLine
 10
-3042.335840121911
 20
-629.269370629074
 30
0.0
 11
-3042.335840121911
 21
-632.056202307377
 31
0.0
  0
LINE
  5
2F6E
330
2F3F
100
AcDbEntity
  8
外形線
100
AcDbLine
 10
-3045.721504395382
 20
-630.649486303929
 30
0.0
 11
-3045.721504395382
 21
-626.310699030969
 31
0.0
  0
LINE
  5
2F6F
330
2F3F
100
AcDbEntity
  8
細線
100
AcDbLine
 10
-3040.980635121911
 20
-630.882560350041
 30
0.0
 11
-3040.980635121911
 21
-627.331019140395
 31
0.0
  0
LINE
  5
2F70
330
2F3F
100
AcDbEntity
  8
外形線
100
AcDbLine
 10
-3038.779444758647
 20
-624.637486303929
 30
0.0
 11
-3038.779444758647
 21
-620.298699030969
 31
0.0
  0
LINE
  5
2F71
330
2F3F
100
AcDbEntity
  8
細線
100
AcDbLine
 10
-3022.694135121911
 20
-630.882560350041
 30
0.0
 11
-3022.694135121911
 21
-627.227614822548
 31
0.0
  0
LINE
  5
2F72
330
2F3F
100
AcDbEntity
  8
外形線
100
AcDbLine
 10
-3016.68737612191
 20
-620.895511022639
 30
0.0
 11
-3024.206186357083
 21
-620.895511022639
 31
0.0
  0
LINE
  5
2F73
330
2F3F
100
AcDbEntity
  8
外形線
100
AcDbLine
 10
-3017.953265848439
 20
-626.310699030969
 30
0.0
 11
-3024.895325485175
 21
-620.298699030969
 31
0.0
  0
LINE
  5
2F74
330
2F3F
100
AcDbEntity
  8
外形線
100
AcDbLine
 10
-3024.895325485175
 20
-624.637486303929
 30
0.0
 11
-3024.895325485175
 21
-620.298699030969
 31
0.0
  0
LINE
  5
2F75
330
2F3F
100
AcDbEntity
  8
外形線
100
AcDbLine
 10
-3016.68737612191
 20
-629.295497522639
 30
0.0
 11
-3017.953265848439
 21
-629.295497522639
 31
0.0
  0
LINE
  5
2F76
330
2F3F
100
AcDbEntity
  8
外形線
100
AcDbLine
 10
-3020.458265848439
 20
-632.818879940409
 30
0.0
 11
-3017.953265848439
 21
-630.649486303929
 31
0.0
  0
LINE
  5
2F77
330
2F3F
100
AcDbEntity
  8
外形線
100
AcDbLine
 10
-3024.895325485175
 20
-624.637486303929
 30
0.0
 11
-3017.953265848439
 21
-630.649486303929
 31
0.0
  0
LINE
  5
2F78
330
2F3F
100
AcDbEntity
  8
外形線
100
AcDbLine
 10
-3021.33893012191
 20
-629.269370629074
 30
0.0
 11
-3021.33893012191
 21
-632.056202307377
 31
0.0
  0
LINE
  5
2F79
330
2F3F
100
AcDbEntity
  8
外形線
100
AcDbLine
 10
-3017.953265848439
 20
-630.649486303929
 30
0.0
 11
-3017.953265848439
 21
-626.310699030969
 31
0.0
  0
LINE
  5
2F7A
330
2F3F
100
AcDbEntity
  8
外形線
100
AcDbLine
 10
-3048.487394121911
 20
-562.245502022639
 30
0.0
 11
-3048.487394121911
 21
-603.345493022639
 31
0.0
  0
LINE
  5
2F7B
330
2F3F
100
AcDbEntity
  8
外形線
100
AcDbLine
 10
-3048.487394121911
 20
-603.345493022639
 30
0.0
 11
-3046.687376121911
 21
-603.345493022639
 31
0.0
  0
LINE
  5
2F7C
330
2F3F
100
AcDbEntity
  8
外形線
100
AcDbLine
 10
-3043.687376121911
 20
-558.495502022639
 30
0.0
 11
-3019.68737612191
 21
-558.495502022639
 31
0.0
  0
LINE
  5
2F7D
330
2F3F
100
AcDbEntity
  8
外形線
100
AcDbLine
 10
-3048.487394121911
 20
-562.245502022639
 30
0.0
 11
-3046.687376121911
 21
-562.245502022639
 31
0.0
  0
ARC
  5
2F7E
330
2F3F
100
AcDbEntity
  8
外形線
100
AcDbCircle
 10
-3043.687376121911
 20
-561.495502022639
 30
0.0
 40
3.0
100
AcDbArc
 50
89.999981276021
 51
180.00001984784
  0
LINE
  5
2F7F
330
2F3F
100
AcDbEntity
  8
外形線
100
AcDbLine
 10
-3046.687376121911
 20
-562.245502022639
 30
0.0
 11
-3046.687376121911
 21
-561.495502022639
 31
0.0
  0
LINE
  5
2F80
330
2F3F
100
AcDbEntity
  8
外形線
100
AcDbLine
 10
-2963.887356621911
 20
-617.370502022639
 30
0.0
 11
-2963.887356621911
 21
-567.870502022639
 31
0.0
  0
LINE
  5
2F81
330
2F3F
100
AcDbEntity
  8
外形線
100
AcDbLine
 10
-2965.387356621911
 20
-620.580112022639
 30
0.0
 11
-2965.387356621911
 21
-564.660892022639
 31
0.0
  0
LINE
  5
2F82
330
2F3F
100
AcDbEntity
  8
外形線
100
AcDbLine
 10
-3004.68737612191
 20
-556.620502022639
 30
0.0
 11
-3004.68737612191
 21
-628.620502022639
 31
0.0
  0
LINE
  5
2F83
330
2F3F
100
AcDbEntity
  8
外形線
100
AcDbLine
 10
-3004.68737612191
 20
-626.745502022639
 30
0.0
 11
-2969.67289562191
 21
-625.074985022639
 31
0.0
  0
LINE
  5
2F84
330
2F3F
100
AcDbEntity
  8
外形線
100
AcDbLine
 10
-2963.887356621911
 20
-617.370502022639
 30
0.0
 11
-2965.387356621911
 21
-617.370502022639
 31
0.0
  0
ARC
  5
2F85
330
2F3F
100
AcDbEntity
  8
外形線
100
AcDbCircle
 10
-2969.887356621911
 20
-620.580112022639
 30
0.0
 40
4.5
100
AcDbArc
 50
272.731520116378
 51
359.999982399908
  0
LINE
  5
2F86
330
2F3F
100
AcDbEntity
  8
外形線
100
AcDbLine
 10
-3004.68737612191
 20
-558.495502022639
 30
0.0
 11
-2969.67289562191
 21
-560.166019022639
 31
0.0
  0
LINE
  5
2F87
330
2F3F
100
AcDbEntity
  8
外形線
100
AcDbLine
 10
-2963.887356621911
 20
-567.870502022639
 30
0.0
 11
-2965.387356621911
 21
-567.870502022639
 31
0.0
  0
ARC
  5
2F88
330
2F3F
100
AcDbEntity
  8
外形線
100
AcDbCircle
 10
-2969.887356621911
 20
-564.660892022639
 30
0.0
 40
4.5
100
AcDbArc
 50
0.0
 51
87.268519579302
  0
ENDBLK
  5
2F89
330
2F3F
100
AcDbEntity
  8
0
 48
10.0
100
AcDbBlockEnd
  0
BLOCK
  5
4289
330
427F
100
AcDbEntity
  8
0
 48
10.0
100
AcDbBlockBegin
  2
*D11
 70
     1
 10
0.0
 20
0.0
 30
0.0
  3
*D11
  1
*D11
  0
LINE
  5
47DF
330
427F
100
AcDbEntity
  8
寸法線
 62
     0
 48
10.0
100
AcDbLine
 10
227.158256478347
 20
631.393010633239
 30
0.0
 11
227.158256478347
 21
556.664197633239
 31
0.0
  0
LINE
  5
47E0
330
427F
100
AcDbEntity
  8
寸法線
 62
     0
 48
10.0
100
AcDbLine
 10
312.158238478347
 20
631.393010633239
 30
0.0
 11
312.158238478347
 21
556.664197633239
 31
0.0
  0
LINE
  5
47E1
330
427F
100
AcDbEntity
  8
寸法線
 62
     0
 48
10.0
100
AcDbLine
 10
233.158256478347
 20
557.914197633239
 30
0.0
 11
306.158238478347
 21
557.914197633239
 31
0.0
  0
INSERT
  5
47E2
330
427F
100
AcDbEntity
  8
寸法線
 62
     0
 48
10.0
100
AcDbBlockReference
  2
_OPEN30
 10
227.158256478347
 20
557.914197633239
 30
0.0
 41
6.0
 42
6.0
 43
6.0
 50
180.0
  0
INSERT
  5
47E3
330
427F
100
AcDbEntity
  8
寸法線
 62
     0
 48
10.0
100
AcDbBlockReference
  2
_OPEN30
 10
312.158238478347
 20
557.914197633239
 30
0.0
 41
6.0
 42
6.0
 43
6.0
  0
MTEXT
  5
47E4
330
427F
100
AcDbEntity
  8
寸法線
 62
     0
 48
10.0
100
AcDbMText
 10
269.658247478347
 20
561.539197633239
 30
0.0
 40
6.0
 41
0.0
 71
     5
 72
     1
  1
\A1;85
  0
POINT
  5
47E5
330
427F
100
AcDbEntity
  8
DEFPOINTS
 62
     0
 48
10.0
100
AcDbPoint
 10
227.158256478347
 20
632.018010633239
 30
0.0
  0
POINT
  5
47E6
330
427F
100
AcDbEntity
  8
DEFPOINTS
 62
     0
 48
10.0
100
AcDbPoint
 10
312.158238478347
 20
632.018010633239
 30
0.0
  0
POINT
  5
47E7
330
427F
100
AcDbEntity
  8
DEFPOINTS
 62
     0
 48
10.0
100
AcDbPoint
 10
312.158238478347
 20
557.914197633239
 30
0.0
  0
ENDBLK
  5
428A
330
427F
100
AcDbEntity
  8
0
 48
10.0
100
AcDbBlockEnd
  0
BLOCK
  5
4CD9
330
4CD8
100
AcDbEntity
  8
0
100
AcDbBlockBegin
  2
*D29
 70
     1
 10
0.0
 20
0.0
 30
0.0
  3
*D29
  1
*D29
  0
LINE
  5
4CDB
330
4CD8
100
AcDbEntity
  8
寸法線
 62
     0
 48
10.0
100
AcDbLine
 10
196.750336096039
 20
655.568051133239
 30
0.0
 11
196.125336096039
 21
655.568051133239
 31
0.0
  0
LINE
  5
4CDC
330
4CD8
100
AcDbEntity
  8
寸法線
 62
     0
 48
10.0
100
AcDbLine
 10
196.345197354454
 20
649.568006133239
 30
0.0
 11
198.625336096039
 21
649.568006133239
 31
0.0
  0
LINE
  5
4CDD
330
4CD8
100
AcDbEntity
  8
寸法線
 62
     0
 48
10.0
100
AcDbLine
 10
197.375336096039
 20
655.568051133239
 30
0.0
 11
197.375336096039
 21
679.743479523832
 31
0.0
  0
LINE
  5
4CDE
330
4CD8
100
AcDbEntity
  8
寸法線
 62
     0
 48
10.0
100
AcDbLine
 10
197.375336096039
 20
655.568051133239
 30
0.0
 11
197.375336096039
 21
649.568006133239
 31
0.0
  0
LINE
  5
4CDF
330
4CD8
100
AcDbEntity
  8
寸法線
 62
     0
 48
10.0
100
AcDbLine
 10
197.375336096039
 20
661.568051133239
 30
0.0
 11
197.375336096039
 21
667.568051133239
 31
0.0
  0
LINE
  5
4CE0
330
4CD8
100
AcDbEntity
  8
寸法線
 62
     0
 48
10.0
100
AcDbLine
 10
197.375336096039
 20
643.568006133239
 30
0.0
 11
197.375336096039
 21
637.568006133239
 31
0.0
  0
INSERT
  5
4CE1
330
4CD8
100
AcDbEntity
  8
寸法線
 62
     0
100
AcDbBlockReference
  2
_OPEN30
 10
197.375336096039
 20
655.568051133239
 30
0.0
 41
6.0
 42
6.0
 43
6.0
 50
270.0
  0
INSERT
  5
4CE2
330
4CD8
100
AcDbEntity
  8
寸法線
 62
     0
100
AcDbBlockReference
  2
_OPEN30
 10
197.375336096039
 20
649.568006133239
 30
0.0
 41
6.0
 42
6.0
 43
6.0
 50
90.0
  0
MTEXT
  5
4CE3
330
4CD8
100
AcDbEntity
  8
寸法線
 62
     0
 48
10.0
100
AcDbMText
 10
193.750336096039
 20
674.671604523832
 30
0.0
 40
6.0
 41
0.0
 71
     5
 72
     1
  1
\A1;φ6
 11
0.0
 21
1.0
 31
0.0
  0
POINT
  5
4CE4
330
4CD8
100
AcDbEntity
  8
DEFPOINTS
 62
     0
100
AcDbPoint
 10
197.375336096039
 20
655.568051133239
 30
0.0
  0
POINT
  5
4CE5
330
4CD8
100
AcDbEntity
  8
DEFPOINTS
 62
     0
100
AcDbPoint
 10
195.720197354454
 20
649.568006133239
 30
0.0
  0
POINT
  5
4CE6
330
4CD8
100
AcDbEntity
  8
DEFPOINTS
 62
     0
100
AcDbPoint
 10
197.375336096039
 20
649.568006133239
 30
0.0
  0
ENDBLK
  5
4CDA
330
4CD8
100
AcDbEntity
  8
0
100
AcDbBlockEnd
  0
BLOCK
  5
4CE8
330
4CE7
100
AcDbEntity
  8
0
100
AcDbBlockBegin
  2
*D30
 70
     1
 10
0.0
 20
0.0
 30
0.0
  3
*D30
  1
*D30
  0
LINE
  5
4CEA
330
4CE7
100
AcDbEntity
  8
寸法線
 62
     0
 48
10.0
100
AcDbLine
 10
136.172117697531
 20
692.567808633239
 30
0.0
 11
116.175661525525
 21
692.567808633239
 31
0.0
  0
LINE
  5
4CEB
330
4CE7
100
AcDbEntity
  8
寸法線
 62
     0
 48
10.0
100
AcDbLine
 10
136.172117697531
 20
612.568023633239
 30
0.0
 11
116.175661525525
 21
612.568023633239
 31
0.0
  0
LINE
  5
4CEC
330
4CE7
100
AcDbEntity
  8
寸法線
 62
     0
 48
10.0
100
AcDbLine
 10
117.425661525525
 20
686.567808633239
 30
0.0
 11
117.425661525525
 21
618.568023633239
 31
0.0
  0
INSERT
  5
4CED
330
4CE7
100
AcDbEntity
  8
寸法線
 62
     0
100
AcDbBlockReference
  2
_OPEN30
 10
117.425661525525
 20
692.567808633239
 30
0.0
 41
6.0
 42
6.0
 43
6.0
 50
90.0
  0
INSERT
  5
4CEE
330
4CE7
100
AcDbEntity
  8
寸法線
 62
     0
100
AcDbBlockReference
  2
_OPEN30
 10
117.425661525525
 20
612.568023633239
 30
0.0
 41
6.0
 42
6.0
 43
6.0
 50
270.0
  0
MTEXT
  5
4CEF
330
4CE7
100
AcDbEntity
  8
寸法線
 62
     0
 48
10.0
100
AcDbMText
 10
113.794411525525
 20
652.567916133239
 30
0.0
 40
6.0
 41
0.0
 71
     5
 72
     1
  1
\A1;80
 11
0.0
 21
1.0
 31
0.0
  0
POINT
  5
4CF0
330
4CE7
100
AcDbEntity
  8
DEFPOINTS
 62
     0
100
AcDbPoint
 10
136.797117697531
 20
692.567808633239
 30
0.0
  0
POINT
  5
4CF1
330
4CE7
100
AcDbEntity
  8
DEFPOINTS
 62
     0
100
AcDbPoint
 10
136.797117697531
 20
612.568023633239
 30
0.0
  0
POINT
  5
4CF2
330
4CE7
100
AcDbEntity
  8
DEFPOINTS
 62
     0
100
AcDbPoint
 10
117.425661525525
 20
612.568023633239
 30
0.0
  0
ENDBLK
  5
4CE9
330
4CE7
100
AcDbEntity
  8
0
100
AcDbBlockEnd
  0
BLOCK
  5
4CF4
330
4CF3
100
AcDbEntity
  8
0
100
AcDbBlockBegin
  2
*D31
 70
     1
 10
0.0
 20
0.0
 30
0.0
  3
*D31
  1
*D31
  0
LINE
  5
4CF6
330
4CF3
100
AcDbEntity
  8
寸法線
 62
     0
 48
10.0
100
AcDbLine
 10
136.797117697531
 20
611.943023633239
 30
0.0
 11
136.797117697531
 21
592.329210123377
 31
0.0
  0
LINE
  5
4CF7
330
4CF3
100
AcDbEntity
  8
寸法線
 62
     0
 48
10.0
100
AcDbLine
 10
171.797111197531
 20
611.943023633239
 30
0.0
 11
171.797111197531
 21
592.329210123377
 31
0.0
  0
LINE
  5
4CF8
330
4CF3
100
AcDbEntity
  8
寸法線
 62
     0
 48
10.0
100
AcDbLine
 10
142.797117697531
 20
593.579210123377
 30
0.0
 11
165.797111197531
 21
593.579210123377
 31
0.0
  0
INSERT
  5
4CF9
330
4CF3
100
AcDbEntity
  8
寸法線
 62
     0
100
AcDbBlockReference
  2
_OPEN30
 10
136.797117697531
 20
593.579210123377
 30
0.0
 41
6.0
 42
6.0
 43
6.0
 50
180.0
  0
INSERT
  5
4CFA
330
4CF3
100
AcDbEntity
  8
寸法線
 62
     0
100
AcDbBlockReference
  2
_OPEN30
 10
171.797111197531
 20
593.579210123377
 30
0.0
 41
6.0
 42
6.0
 43
6.0
  0
MTEXT
  5
4CFB
330
4CF3
100
AcDbEntity
  8
寸法線
 62
     0
 48
10.0
100
AcDbMText
 10
154.297114447531
 20
597.207335123377
 30
0.0
 40
6.0
 41
0.0
 71
     5
 72
     1
  1
\A1;35
  0
POINT
  5
4CFC
330
4CF3
100
AcDbEntity
  8
DEFPOINTS
 62
     0
100
AcDbPoint
 10
136.797117697531
 20
612.568023633239
 30
0.0
  0
POINT
  5
4CFD
330
4CF3
100
AcDbEntity
  8
DEFPOINTS
 62
     0
100
AcDbPoint
 10
171.797111197531
 20
612.568023633239
 30
0.0
  0
POINT
  5
4CFE
330
4CF3
100
AcDbEntity
  8
DEFPOINTS
 62
     0
100
AcDbPoint
 10
171.797111197531
 20
593.579210123377
 30
0.0
  0
ENDBLK
  5
4CF5
330
4CF3
100
AcDbEntity
  8
0
100
AcDbBlockEnd
  0
BLOCK
  5
4D00
330
4CFF
100
AcDbEntity
  8
0
100
AcDbBlockBegin
  2
*D32
 70
     1
 10
0.0
 20
0.0
 30
0.0
  3
*D32
  1
*D32
  0
LINE
  5
4D02
330
4CFF
100
AcDbEntity
  8
寸法線
 62
     0
 48
10.0
100
AcDbLine
 10
312.158238478347
 20
631.392988133239
 30
0.0
 11
312.158238478347
 21
556.664197633239
 31
0.0
  0
LINE
  5
4D03
330
4CFF
100
AcDbEntity
  8
寸法線
 62
     0
 48
10.0
100
AcDbLine
 10
395.158238478347
 20
576.699873497236
 30
0.0
 11
395.158238478347
 21
556.664197633239
 31
0.0
  0
LINE
  5
4D04
330
4CFF
100
AcDbEntity
  8
寸法線
 62
     0
 48
10.0
100
AcDbLine
 10
318.158238478347
 20
557.914197633239
 30
0.0
 11
389.158238478347
 21
557.914197633239
 31
0.0
  0
INSERT
  5
4D05
330
4CFF
100
AcDbEntity
  8
寸法線
 62
     0
100
AcDbBlockReference
  2
_OPEN30
 10
312.158238478347
 20
557.914197633239
 30
0.0
 41
6.0
 42
6.0
 43
6.0
 50
180.0
  0
INSERT
  5
4D06
330
4CFF
100
AcDbEntity
  8
寸法線
 62
     0
100
AcDbBlockReference
  2
_OPEN30
 10
395.158238478347
 20
557.914197633239
 30
0.0
 41
6.0
 42
6.0
 43
6.0
  0
MTEXT
  5
4D07
330
4CFF
100
AcDbEntity
  8
寸法線
 62
     0
 48
10.0
100
AcDbMText
 10
353.658238478347
 20
561.548572633239
 30
0.0
 40
6.0
 41
0.0
 71
     5
 72
     1
  1
\A1;83
  0
POINT
  5
4D08
330
4CFF
100
AcDbEntity
  8
DEFPOINTS
 62
     0
100
AcDbPoint
 10
312.158238478347
 20
632.017988133239
 30
0.0
  0
POINT
  5
4D09
330
4CFF
100
AcDbEntity
  8
DEFPOINTS
 62
     0
100
AcDbPoint
 10
395.158238478347
 20
577.324873497236
 30
0.0
  0
POINT
  5
4D0A
330
4CFF
100
AcDbEntity
  8
DEFPOINTS
 62
     0
100
AcDbPoint
 10
395.158238478347
 20
557.914197633239
 30
0.0
  0
ENDBLK
  5
4D01
330
4CFF
100
AcDbEntity
  8
0
100
AcDbBlockEnd
  0
BLOCK
  5
4D0C
330
4D0B
100
AcDbEntity
  8
0
100
AcDbBlockBegin
  2
*D33
 70
     1
 10
0.0
 20
0.0
 30
0.0
  3
*D33
  1
*D33
  0
LINE
  5
4D0E
330
4D0B
100
AcDbEntity
  8
寸法線
 62
     0
 48
10.0
100
AcDbLine
 10
53.265428680252
 20
652.568006133239
 30
0.0
 11
62.968718713745
 21
652.568006133239
 31
0.0
  0
LINE
  5
4D0F
330
4D0B
100
AcDbEntity
  8
寸法線
 62
     0
 48
10.0
100
AcDbLine
 10
53.265428680252
 20
642.656542016472
 30
0.0
 11
62.968718713745
 21
642.656542016472
 31
0.0
  0
LINE
  5
4D10
330
4D0B
100
AcDbEntity
  8
寸法線
 62
     0
 48
10.0
100
AcDbLine
 10
61.718718713745
 20
652.568006133239
 30
0.0
 11
61.718718713745
 21
642.656542016472
 31
0.0
  0
LINE
  5
4D11
330
4D0B
100
AcDbEntity
  8
寸法線
 62
     0
 48
10.0
100
AcDbLine
 10
61.718718713745
 20
658.568006133239
 30
0.0
 11
61.718718713745
 21
664.568006133239
 31
0.0
  0
LINE
  5
4D12
330
4D0B
100
AcDbEntity
  8
寸法線
 62
     0
 48
10.0
100
AcDbLine
 10
61.718718713745
 20
636.656542016472
 30
0.0
 11
61.718718713745
 21
630.656542016472
 31
0.0
  0
INSERT
  5
4D13
330
4D0B
100
AcDbEntity
  8
寸法線
 62
     0
100
AcDbBlockReference
  2
_OPEN30
 10
61.718718713745
 20
652.568006133239
 30
0.0
 41
6.0
 42
6.0
 43
6.0
 50
270.0
  0
INSERT
  5
4D14
330
4D0B
100
AcDbEntity
  8
寸法線
 62
     0
100
AcDbBlockReference
  2
_OPEN30
 10
61.718718713745
 20
642.656542016472
 30
0.0
 41
6.0
 42
6.0
 43
6.0
 50
90.0
  0
MTEXT
  5
4D15
330
4D0B
100
AcDbEntity
  8
寸法線
 62
     0
 48
10.0
100
AcDbMText
 10
58.093718713745
 20
647.612274074855
 30
0.0
 40
6.0
 41
0.0
 71
     5
 72
     1
  1
\A1;10
 11
0.0
 21
1.0
 31
0.0
  0
POINT
  5
4D16
330
4D0B
100
AcDbEntity
  8
DEFPOINTS
 62
     0
100
AcDbPoint
 10
52.640428680252
 20
652.568006133239
 30
0.0
  0
POINT
  5
4D17
330
4D0B
100
AcDbEntity
  8
DEFPOINTS
 62
     0
100
AcDbPoint
 10
52.640428680252
 20
642.656542016472
 30
0.0
  0
POINT
  5
4D18
330
4D0B
100
AcDbEntity
  8
DEFPOINTS
 62
     0
100
AcDbPoint
 10
61.718718713745
 20
642.656542016472
 30
0.0
  0
ENDBLK
  5
4D0D
330
4D0B
100
AcDbEntity
  8
0
100
AcDbBlockEnd
  0
BLOCK
  5
4D1A
330
4D19
100
AcDbEntity
  8
0
100
AcDbBlockBegin
  2
*D34
 70
     1
 10
0.0
 20
0.0
 30
0.0
  3
*D34
  1
*D34
  0
LINE
  5
4D1C
330
4D19
100
AcDbEntity
  8
寸法線
 62
     0
 48
10.0
100
AcDbLine
 10
-14.328660114888
 20
663.585310978652
 30
0.0
 11
-14.328660114888
 21
708.706003191525
 31
0.0
  0
LINE
  5
4D1D
330
4D19
100
AcDbEntity
  8
寸法線
 62
     0
 48
10.0
100
AcDbLine
 10
21.671339885112
 20
663.585310978652
 30
0.0
 11
21.671339885112
 21
708.706003191525
 31
0.0
  0
LINE
  5
4D1E
330
4D19
100
AcDbEntity
  8
寸法線
 62
     0
 48
10.0
100
AcDbLine
 10
-8.328660114888
 20
707.456003191525
 30
0.0
 11
15.671339885112
 21
707.456003191525
 31
0.0
  0
INSERT
  5
4D1F
330
4D19
100
AcDbEntity
  8
寸法線
 62
     0
100
AcDbBlockReference
  2
_OPEN30
 10
-14.328660114888
 20
707.456003191525
 30
0.0
 41
6.0
 42
6.0
 43
6.0
 50
180.0
  0
INSERT
  5
4D20
330
4D19
100
AcDbEntity
  8
寸法線
 62
     0
100
AcDbBlockReference
  2
_OPEN30
 10
21.671339885112
 20
707.456003191525
 30
0.0
 41
6.0
 42
6.0
 43
6.0
  0
MTEXT
  5
4D21
330
4D19
100
AcDbEntity
  8
寸法線
 62
     0
 48
10.0
100
AcDbMText
 10
3.225364509768
 20
711.084128191525
 30
0.0
 40
6.0
 41
0.0
 71
     5
 72
     1
  1
\A1;36
  0
POINT
  5
4D22
330
4D19
100
AcDbEntity
  8
DEFPOINTS
 62
     0
100
AcDbPoint
 10
-14.328660114888
 20
662.960310978652
 30
0.0
  0
POINT
  5
4D23
330
4D19
100
AcDbEntity
  8
DEFPOINTS
 62
     0
100
AcDbPoint
 10
21.671339885112
 20
662.960310978652
 30
0.0
  0
POINT
  5
4D24
330
4D19
100
AcDbEntity
  8
DEFPOINTS
 62
     0
100
AcDbPoint
 10
21.671339885112
 20
707.456003191525
 30
0.0
  0
ENDBLK
  5
4D1B
330
4D19
100
AcDbEntity
  8
0
100
AcDbBlockEnd
  0
BLOCK
  5
4D26
330
4D25
100
AcDbEntity
  8
0
100
AcDbBlockBegin
  2
*D35
 70
     1
 10
0.0
 20
0.0
 30
0.0
  3
*D35
  1
*D35
  0
LINE
  5
4D28
330
4D25
100
AcDbEntity
  8
寸法線
 62
     0
 48
10.0
100
AcDbLine
 10
2.771339885112
 20
622.114532256543
 30
0.0
 11
2.771339885112
 21
622.739532256543
 31
0.0
  0
LINE
  5
4D29
330
4D25
100
AcDbEntity
  8
寸法線
 62
     0
 48
10.0
100
AcDbLine
 10
4.571339885112
 20
622.114532256543
 30
0.0
 11
4.571339885112
 21
622.739532256543
 31
0.0
  0
LINE
  5
4D2A
330
4D25
100
AcDbEntity
  8
寸法線
 62
     0
 48
10.0
100
AcDbLine
 10
10.571339885112
 20
621.489532256543
 30
0.0
 11
19.021339885112
 21
621.489532256543
 31
0.0
  0
LINE
  5
4D2B
330
4D25
100
AcDbEntity
  8
寸法線
 62
     0
 48
10.0
100
AcDbLine
 10
2.771339885112
 20
621.489532256543
 30
0.0
 11
4.571339885112
 21
621.489532256543
 31
0.0
  0
LINE
  5
4D2C
330
4D25
100
AcDbEntity
  8
寸法線
 62
     0
 48
10.0
100
AcDbLine
 10
-3.228660114888
 20
621.489532256543
 30
0.0
 11
-9.228660114888
 21
621.489532256543
 31
0.0
  0
INSERT
  5
4D2D
330
4D25
100
AcDbEntity
  8
寸法線
 62
     0
100
AcDbBlockReference
  2
_OPEN30
 10
2.771339885112
 20
621.489532256543
 30
0.0
 41
6.0
 42
6.0
 43
6.0
  0
INSERT
  5
4D2E
330
4D25
100
AcDbEntity
  8
寸法線
 62
     0
100
AcDbBlockReference
  2
_OPEN30
 10
4.571339885112
 20
621.489532256543
 30
0.0
 41
6.0
 42
6.0
 43
6.0
 50
180.0
  0
MTEXT
  5
4D2F
330
4D25
100
AcDbEntity
  8
寸法線
 62
     0
 48
10.0
100
AcDbMText
 10
17.796339885112
 20
625.114532256543
 30
0.0
 40
6.0
 41
0.0
 71
     5
 72
     1
  1
\A1;1
  0
POINT
  5
4D30
330
4D25
100
AcDbEntity
  8
DEFPOINTS
 62
     0
100
AcDbPoint
 10
2.771339885112
 20
621.489532256543
 30
0.0
  0
POINT
  5
4D31
330
4D25
100
AcDbEntity
  8
DEFPOINTS
 62
     0
100
AcDbPoint
 10
4.571339885112
 20
621.489532256543
 30
0.0
  0
POINT
  5
4D32
330
4D25
100
AcDbEntity
  8
DEFPOINTS
 62
     0
100
AcDbPoint
 10
4.571339885112
 20
621.489532256543
 30
0.0
  0
ENDBLK
  5
4D27
330
4D25
100
AcDbEntity
  8
0
100
AcDbBlockEnd
  0
BLOCK
  5
4D4B
330
4D4A
100
AcDbEntity
  8
0
100
AcDbBlockBegin
  2
*D38
 70
     1
 10
0.0
 20
0.0
 30
0.0
  3
*D38
  1
*D38
  0
LINE
  5
4D4D
330
4D4A
100
AcDbEntity
  8
寸法線
 62
     0
 48
10.0
100
AcDbLine
 10
203.583274478347
 20
665.788506133239
 30
0.0
 11
209.357240803633
 21
665.788506133239
 31
0.0
  0
LINE
  5
4D4E
330
4D4A
100
AcDbEntity
  8
寸法線
 62
     0
 48
10.0
100
AcDbLine
 10
203.583274478347
 20
639.347506133239
 30
0.0
 11
209.357240803633
 21
639.347506133239
 31
0.0
  0
LINE
  5
4D4F
330
4D4A
100
AcDbEntity
  8
寸法線
 62
     0
 48
10.0
100
AcDbLine
 10
208.107240803633
 20
665.788506133239
 30
0.0
 11
208.107240803633
 21
696.593836219129
 31
0.0
  0
LINE
  5
4D50
330
4D4A
100
AcDbEntity
  8
寸法線
 62
     0
 48
10.0
100
AcDbLine
 10
208.107240803633
 20
659.788506133239
 30
0.0
 11
208.107240803633
 21
645.347506133239
 31
0.0
  0
INSERT
  5
4D51
330
4D4A
100
AcDbEntity
  8
寸法線
 62
     0
100
AcDbBlockReference
  2
_OPEN30
 10
208.107240803633
 20
665.788506133239
 30
0.0
 41
6.0
 42
6.0
 43
6.0
 50
90.0
  0
INSERT
  5
4D52
330
4D4A
100
AcDbEntity
  8
寸法線
 62
     0
100
AcDbBlockReference
  2
_OPEN30
 10
208.107240803633
 20
639.347506133239
 30
0.0
 41
6.0
 42
6.0
 43
6.0
 50
270.0
  0
MTEXT
  5
4D53
330
4D4A
100
AcDbEntity
  8
寸法線
 62
     0
 48
10.0
100
AcDbMText
 10
204.479115803633
 20
684.268836219129
 30
0.0
 40
6.0
 41
0.0
 71
     5
 72
     1
  1
\A1;G 3/4"
 11
0.0
 21
1.0
 31
0.0
  0
POINT
  5
4D54
330
4D4A
100
AcDbEntity
  8
DEFPOINTS
 62
     0
100
AcDbPoint
 10
202.958274478347
 20
665.788506133239
 30
0.0
  0
POINT
  5
4D55
330
4D4A
100
AcDbEntity
  8
DEFPOINTS
 62
     0
100
AcDbPoint
 10
202.958274478347
 20
639.347506133239
 30
0.0
  0
POINT
  5
4D56
330
4D4A
100
AcDbEntity
  8
DEFPOINTS
 62
     0
100
AcDbPoint
 10
208.107240803633
 20
639.347506133239
 30
0.0
  0
ENDBLK
  5
4D4C
330
4D4A
100
AcDbEntity
  8
0
100
AcDbBlockEnd
  0
BLOCK
  5
4D58
330
4D57
100
AcDbEntity
  8
0
100
AcDbBlockBegin
  2
*D39
 70
     1
 10
0.0
 20
0.0
 30
0.0
  3
*D39
  1
*D39
  0
LINE
  5
4D5A
330
4D57
100
AcDbEntity
  8
寸法線
 62
     0
 48
10.0
100
AcDbLine
 10
354.983218978347
 20
678.068006133239
 30
0.0
 11
414.360996397573
 21
678.068006133239
 31
0.0
  0
LINE
  5
4D5B
330
4D57
100
AcDbEntity
  8
寸法線
 62
     0
 48
10.0
100
AcDbLine
 10
354.983218978347
 20
607.068006133239
 30
0.0
 11
414.360996397573
 21
607.068006133239
 31
0.0
  0
LINE
  5
4D5C
330
4D57
100
AcDbEntity
  8
寸法線
 62
     0
 48
10.0
100
AcDbLine
 10
413.110996397573
 20
672.068006133239
 30
0.0
 11
413.110996397573
 21
613.068006133239
 31
0.0
  0
INSERT
  5
4D5D
330
4D57
100
AcDbEntity
  8
寸法線
 62
     0
100
AcDbBlockReference
  2
_OPEN30
 10
413.110996397573
 20
678.068006133239
 30
0.0
 41
6.0
 42
6.0
 43
6.0
 50
90.0
  0
INSERT
  5
4D5E
330
4D57
100
AcDbEntity
  8
寸法線
 62
     0
100
AcDbBlockReference
  2
_OPEN30
 10
413.110996397573
 20
607.068006133239
 30
0.0
 41
6.0
 42
6.0
 43
6.0
 50
270.0
  0
MTEXT
  5
4D5F
330
4D57
100
AcDbEntity
  8
寸法線
 62
     0
 48
10.0
100
AcDbMText
 10
409.482871397573
 20
642.742979133239
 30
0.0
 40
6.0
 41
0.0
 71
     5
 72
     1
  1
\A1;φ72
 11
0.0
 21
1.0
 31
0.0
  0
POINT
  5
4D60
330
4D57
100
AcDbEntity
  8
DEFPOINTS
 62
     0
100
AcDbPoint
 10
354.358218978347
 20
678.068006133239
 30
0.0
  0
POINT
  5
4D61
330
4D57
100
AcDbEntity
  8
DEFPOINTS
 62
     0
100
AcDbPoint
 10
354.358218978347
 20
607.068006133239
 30
0.0
  0
POINT
  5
4D62
330
4D57
100
AcDbEntity
  8
DEFPOINTS
 62
     0
100
AcDbPoint
 10
413.110996397573
 20
607.068006133239
 30
0.0
  0
ENDBLK
  5
4D59
330
4D57
100
AcDbEntity
  8
0
100
AcDbBlockEnd
  0
BLOCK
  5
4D77
330
4D76
100
AcDbEntity
  8
0
100
AcDbBlockBegin
  2
*D40
 70
     1
 10
0.0
 20
0.0
 30
0.0
  3
*D40
  1
*D40
  0
LINE
  5
4D79
330
4D76
100
AcDbEntity
  8
寸法線
 62
     0
 48
10.0
100
AcDbLine
 10
296.533238478347
 20
635.068006133239
 30
0.0
 11
265.289936532489
 21
635.068006133239
 31
0.0
  0
LINE
  5
4D7A
330
4D76
100
AcDbEntity
  8
寸法線
 62
     0
 48
10.0
100
AcDbLine
 10
296.533238478347
 20
670.068006133239
 30
0.0
 11
265.289936532489
 21
670.068006133239
 31
0.0
  0
LINE
  5
4D7B
330
4D76
100
AcDbEntity
  8
寸法線
 62
     0
 48
10.0
100
AcDbLine
 10
266.539936532489
 20
641.068006133239
 30
0.0
 11
266.539936532489
 21
664.068006133239
 31
0.0
  0
INSERT
  5
4D7C
330
4D76
100
AcDbEntity
  8
寸法線
 62
     0
100
AcDbBlockReference
  2
_OPEN30
 10
266.539936532489
 20
635.068006133239
 30
0.0
 41
6.0
 42
6.0
 43
6.0
 50
270.0
  0
INSERT
  5
4D7D
330
4D76
100
AcDbEntity
  8
寸法線
 62
     0
100
AcDbBlockReference
  2
_OPEN30
 10
266.539936532489
 20
670.068006133239
 30
0.0
 41
6.0
 42
6.0
 43
6.0
 50
90.0
  0
MTEXT
  5
4D7E
330
4D76
100
AcDbEntity
  8
寸法線
 62
     0
 48
10.0
100
AcDbMText
 10
265.222747513831
 20
679.468299674821
 30
0.0
 40
6.0
 41
0.0
 71
     5
 72
     1
  1
\A1;φ35
 11
0.0
 21
1.0
 31
0.0
  0
POINT
  5
4D7F
330
4D76
100
AcDbEntity
  8
DEFPOINTS
 62
     0
100
AcDbPoint
 10
297.158238478347
 20
635.068006133239
 30
0.0
  0
POINT
  5
4D80
330
4D76
100
AcDbEntity
  8
DEFPOINTS
 62
     0
100
AcDbPoint
 10
297.158238478347
 20
670.068006133239
 30
0.0
  0
POINT
  5
4D81
330
4D76
100
AcDbEntity
  8
DEFPOINTS
 62
     0
100
AcDbPoint
 10
266.539936532489
 20
670.068006133239
 30
0.0
  0
ENDBLK
  5
4D78
330
4D76
100
AcDbEntity
  8
0
100
AcDbBlockEnd
  0
BLOCK
  5
4D8A
330
4D89
100
AcDbEntity
  8
0
100
AcDbBlockBegin
  2
*D41
 70
     1
 10
0.0
 20
0.0
 30
0.0
  3
*D41
  1
*D41
  0
LINE
  5
4D8C
330
4D89
100
AcDbEntity
  8
寸法線
 62
     0
 48
10.0
100
AcDbLine
 10
136.797117697531
 20
592.954210123377
 30
0.0
 11
136.797117697531
 21
556.664197633239
 31
0.0
  0
LINE
  5
4D8D
330
4D89
100
AcDbEntity
  8
寸法線
 62
     0
 48
10.0
100
AcDbLine
 10
227.158256478347
 20
631.393010633239
 30
0.0
 11
227.158256478347
 21
556.664197633239
 31
0.0
  0
LINE
  5
4D8E
330
4D89
100
AcDbEntity
  8
寸法線
 62
     0
 48
10.0
100
AcDbLine
 10
142.797117697531
 20
557.914197633239
 30
0.0
 11
221.158256478347
 21
557.914197633239
 31
0.0
  0
INSERT
  5
4D8F
330
4D89
100
AcDbEntity
  8
寸法線
 62
     0
100
AcDbBlockReference
  2
_OPEN30
 10
136.797117697531
 20
557.914197633239
 30
0.0
 41
6.0
 42
6.0
 43
6.0
 50
180.0
  0
INSERT
  5
4D90
330
4D89
100
AcDbEntity
  8
寸法線
 62
     0
100
AcDbBlockReference
  2
_OPEN30
 10
227.158256478347
 20
557.914197633239
 30
0.0
 41
6.0
 42
6.0
 43
6.0
  0
MTEXT
  5
4D91
330
4D89
100
AcDbEntity
  8
寸法線
 62
     0
 48
10.0
100
AcDbMText
 10
181.977687087939
 20
561.039197633239
 30
0.0
 40
5.0
 41
0.0
 71
     5
 72
     1
  1
\A1;　
  0
POINT
  5
4D92
330
4D89
100
AcDbEntity
  8
DEFPOINTS
 62
     0
100
AcDbPoint
 10
136.797117697531
 20
593.579210123377
 30
0.0
  0
POINT
  5
4D93
330
4D89
100
AcDbEntity
  8
DEFPOINTS
 62
     0
100
AcDbPoint
 10
227.158256478347
 20
632.018010633239
 30
0.0
  0
POINT
  5
4D94
330
4D89
100
AcDbEntity
  8
DEFPOINTS
 62
     0
100
AcDbPoint
 10
227.158256478347
 20
557.914197633239
 30
0.0
  0
ENDBLK
  5
4D8B
330
4D89
100
AcDbEntity
  8
0
100
AcDbBlockEnd
  0
ENDSEC
  0
SECTION
  2
ENTITIES
  0
LINE
  5
4220
330
1A
100
AcDbEntity
  8
中心線
 48
10.0
100
AcDbLine
 10
129.356142478347
 20
652.568006133239
 30
0.0
 11
335.006142478347
 21
652.568006133239
 31
0.0
  0
LWPOLYLINE
  5
4221
330
1A
100
AcDbEntity
  8
外形線
 48
10.0
100
AcDbPolyline
 90
        4
 70
     1
 43
0.0
 10
225.658256478347
 20
673.118001633239
 10
227.158256478347
 20
673.118001633239
 10
227.158256478347
 20
632.018010633239
 10
225.658256478347
 20
632.018010633239
  0
DIMENSION
  5
427E
330
1A
100
AcDbEntity
  8
寸法線
 48
10.0
100
AcDbDimension
  2
*D11
 10
312.158238478347
 20
557.914197633239
 30
0.0
 11
269.658247478347
 21
561.539197633239
 31
0.0
 70
    32
  3
ISO-25
100
AcDbAlignedDimension
 13
227.158256478347
 23
632.018010633239
 33
0.0
 14
312.158238478347
 24
632.018010633239
 34
0.0
100
AcDbRotatedDimension
1001
ACAD
1000
DSTYLE
1002
{
1070
     5
1000
OPEN30
1070
    41
1040
6.0
1070
    47
1040
0.1
1070
    48
1040
0.1
1070
    73
1070
     0
1070
   140
1040
6.0
1070
   271
1070
     1
1070
   272
1070
     1
1070
   341
1005
2AF4
1002
}
  0
LINE
  5
436E
330
1A
100
AcDbEntity
  8
下書線
 48
10.0
100
AcDbLine
 10
185.906142478347
 20
717.591848133239
 30
0.0
 11
378.806142478347
 21
717.591848133239
 31
0.0
  0
LINE
  5
436F
330
1A
100
AcDbEntity
  8
下書線
 48
10.0
100
AcDbLine
 10
99.167575978347
 20
738.869711133239
 30
0.0
 11
428.756142478347
 21
738.869711133239
 31
0.0
  0
MTEXT
  5
4371
330
1A
100
AcDbEntity
  8
寸法線
 48
10.0
100
AcDbMText
 10
391.506278616781
 20
739.811806410919
 30
0.0
 40
6.0
 41
0.0
 71
     7
 72
     1
  1
\A1;亜鉛ダイカスト
  0
MTEXT
  5
4375
330
1A
100
AcDbEntity
  8
寸法線
 48
10.0
100
AcDbMText
 10
332.15968573914
 20
739.811806410919
 30
0.0
 40
6.0
 41
0.0
 71
     7
 72
     1
  1
\A1;亜鉛ダイカスト
  0
MTEXT
  5
4379
330
1A
100
AcDbEntity
  8
寸法線
 48
10.0
100
AcDbMText
 10
284.390724989396
 20
739.655113664057
 30
0.0
 40
6.0
 41
0.0
 71
     7
 72
     1
  1
SUS303
  0
MTEXT
  5
437C
330
1A
100
AcDbEntity
  8
寸法線
 48
10.0
100
AcDbMText
 10
234.981142478347
 20
718.377250664057
 30
0.0
 40
6.0
 41
0.0
 71
     7
 72
     1
  1
シリコンゴム
  0
MTEXT
  5
437F
330
1A
100
AcDbEntity
  8
寸法線
 48
10.0
100
AcDbMText
 10
226.360448133339
 20
739.979085364281
 30
0.0
 40
6.0
 41
0.0
 71
     7
 72
     1
  1
\A1;貴取付板
  0
MTEXT
  5
4381
330
1A
100
AcDbEntity
  8
寸法線
 48
10.0
100
AcDbMText
 10
204.890895978347
 20
739.542913626223
 30
0.0
 40
6.0
 41
0.0
 71
     9
 72
     1
  1
座金\PSS400
  0
MTEXT
  5
4383
330
1A
100
AcDbEntity
  8
寸法線
 48
10.0
100
AcDbMText
 10
203.617419978347
 20
718.265050626223
 30
0.0
 40
6.0
 41
0.0
 71
     9
 72
     1
  1
ナット\PSS400
  0
MTEXT
  5
4385
330
1A
100
AcDbEntity
  8
寸法線
 48
10.0
100
AcDbMText
 10
167.632908173125
 20
739.362950188785
 30
0.0
 40
6.0
 41
0.0
 71
     9
 72
     1
  1
\A1;SUS304
  0
MTEXT
  5
4387
330
1A
100
AcDbEntity
  8
寸法線
 48
10.0
100
AcDbMText
 10
130.163623854452
 20
739.362950188785
 30
0.0
 40
6.0
 41
0.0
 71
     9
 72
     1
  1
\A1;SUS304
  0
LEADER
  5
4764
330
1A
100
AcDbEntity
  8
寸法線
 62
     1
 48
10.0
100
AcDbLeader
  3
ISO-25
 76
     3
 10
145.338659382171
 20
692.73122871562
 30
0.0
 10
130.112605929316
 20
738.88117273946
 30
0.0
 10
121.102671913131
 20
738.88117273946
 30
0.0
1001
ACAD
1000
DSTYLE
1002
{
1070
     5
1000
OPEN30
1070
   147
1040
0.625
1070
    77
1070
     0
1070
    41
1040
6.0
1070
    47
1040
0.1
1070
    48
1040
0.1
1070
    73
1070
     0
1070
   140
1040
5.0
1070
   271
1070
     1
1070
   272
1070
     1
1070
   341
1005
2AF4
1070
   342
1005
2AF4
1002
}
  0
LEADER
  5
4765
330
1A
100
AcDbEntity
  8
寸法線
 62
     1
 48
10.0
100
AcDbLeader
  3
ISO-25
 76
     3
 10
189.139417497308
 20
655.559004576585
 30
0.0
 10
167.530923767694
 20
738.895249767331
 30
0.0
 10
157.882665997603
 20
738.895249767331
 30
0.0
1001
ACAD
1000
DSTYLE
1002
{
1070
     5
1000
OPEN30
1070
   147
1040
0.625
1070
    77
1070
     0
1070
    41
1040
6.0
1070
    47
1040
0.1
1070
    48
1040
0.1
1070
    73
1070
     0
1070
   140
1040
5.0
1070
   271
1070
     1
1070
   272
1070
     1
1070
   341
1005
2AF4
1070
   342
1005
2AF4
1002
}
  0
LEADER
  5
4766
330
1A
100
AcDbEntity
  8
寸法線
 62
     1
 48
10.0
100
AcDbLeader
  3
ISO-25
 76
     3
 10
216.97488728039
 20
673.588543431798
 30
0.0
 10
205.139477378449
 20
717.545463709253
 30
0.0
 10
195.77922782616
 20
717.545463709253
 30
0.0
1001
ACAD
1000
DSTYLE
1002
{
1070
     5
1000
OPEN30
1070
   147
1040
0.625
1070
    77
1070
     0
1070
    41
1040
6.0
1070
    47
1040
0.1
1070
    48
1040
0.1
1070
    73
1070
     0
1070
   140
1040
5.0
1070
   271
1070
     1
1070
   272
1070
     1
1070
   341
1005
2AF4
1070
   342
1005
2AF4
1002
}
  0
LEADER
  5
4767
330
1A
100
AcDbEntity
  8
寸法線
 62
     1
 48
10.0
100
AcDbLeader
  3
ISO-25
 76
     3
 10
220.403884610278
 20
675.088220108619
 30
0.0
 10
206.579515771108
 20
738.989970029504
 30
0.0
 10
196.49924702249
 20
738.989970029504
 30
0.0
1001
ACAD
1000
DSTYLE
1002
{
1070
     5
1000
OPEN30
1070
   147
1040
0.625
1070
    77
1070
     0
1070
    41
1040
6.0
1070
    47
1040
0.1
1070
    48
1040
0.1
1070
    73
1070
     0
1070
   140
1040
5.0
1070
   271
1070
     1
1070
   272
1070
     1
1070
   341
1005
2AF4
1070
   342
1005
2AF4
1002
}
  0
LEADER
  5
4768
330
1A
100
AcDbEntity
  8
寸法線
 62
     1
 48
10.0
100
AcDbLeader
  3
ISO-25
 76
     3
 10
226.305244823887
 20
673.006406170238
 30
0.0
 10
234.878175564512
 20
717.560574779682
 30
0.0
 10
242.13995087541
 20
717.560574779682
 30
0.0
1001
ACAD
1000
DSTYLE
1002
{
1070
     5
1000
OPEN30
1070
   147
1040
0.625
1070
    77
1070
     0
1070
    41
1040
6.0
1070
    47
1040
0.1
1070
    48
1040
0.1
1070
    73
1070
     0
1070
   140
1040
5.0
1070
   271
1070
     1
1070
   272
1070
     1
1070
   341
1005
2AF4
1070
   342
1005
2AF4
1002
}
  0
LEADER
  5
4769
330
1A
100
AcDbEntity
  8
寸法線
 62
     1
 48
10.0
100
AcDbLeader
  3
ISO-25
 76
     3
 10
275.684414738381
 20
670.113677778876
 30
0.0
 10
285.14288972335
 20
738.845690501907
 30
0.0
 10
292.740836852239
 20
738.845690501907
 30
0.0
1001
ACAD
1000
DSTYLE
1002
{
1070
     5
1000
OPEN30
1070
   147
1040
0.625
1070
    77
1070
     0
1070
    41
1040
6.0
1070
    47
1040
0.1
1070
    48
1040
0.1
1070
    73
1070
     0
1070
   140
1040
5.0
1070
   271
1070
     1
1070
   272
1070
     1
1070
   341
1005
2AF4
1070
   342
1005
2AF4
1002
}
  0
LEADER
  5
476E
330
1A
100
AcDbEntity
  8
寸法線
 62
     1
 48
10.0
100
AcDbLeader
  3
ISO-25
 76
     3
 10
327.377429947432
 20
675.87865058983
 30
0.0
 10
332.021466916593
 20
738.779942314534
 30
0.0
 10
342.957311049308
 20
738.779942314534
 30
0.0
1001
ACAD
1000
DSTYLE
1002
{
1070
     5
1000
OPEN30
1070
   147
1040
0.625
1070
    77
1070
     0
1070
    41
1040
6.0
1070
    47
1040
0.1
1070
    48
1040
0.1
1070
    73
1070
     0
1070
   140
1040
5.0
1070
   271
1070
     1
1070
   272
1070
     1
1070
   341
1005
2AF4
1070
   342
1005
2AF4
1002
}
  0
LEADER
  5
4770
330
1A
100
AcDbEntity
  8
寸法線
 62
     1
 48
10.0
100
AcDbLeader
  3
ISO-25
 76
     3
 10
384.505993152305
 20
675.436206020163
 30
0.0
 10
391.775301519136
 20
738.782274764073
 30
0.0
 10
403.788107534229
 20
738.782274764073
 30
0.0
1001
ACAD
1000
DSTYLE
1002
{
1070
     5
1000
OPEN30
1070
   147
1040
0.625
1070
    77
1070
     0
1070
    41
1040
6.0
1070
    47
1040
0.1
1070
    48
1040
0.1
1070
    73
1070
     0
1070
   140
1040
5.0
1070
   271
1070
     1
1070
   272
1070
     1
1070
   341
1005
2AF4
1070
   342
1005
2AF4
1002
}
  0
LEADER
  5
4775
330
1A
100
AcDbEntity
  8
寸法線
 62
     1
 48
10.0
100
AcDbLeader
  3
ISO-25
 76
     3
 10
223.479430788573
 20
699.56101863046
 30
0.0
 10
226.685200017097
 20
738.809607024123
 30
0.0
 10
235.821641509482
 20
738.809607024123
 30
0.0
1001
ACAD
1000
DSTYLE
1002
{
1070
     5
1000
OPEN30
1070
   147
1040
0.625
1070
    77
1070
     0
1070
    41
1040
6.0
1070
    47
1040
0.1
1070
    48
1040
0.1
1070
    73
1070
     0
1070
   140
1040
5.0
1070
   271
1070
     1
1070
   272
1070
     1
1070
   341
1005
2AF4
1070
   342
1005
2AF4
1002
}
  0
ARC
  5
4B36
330
1A
100
AcDbEntity
  8
隠れ線
 48
10.0
100
AcDbCircle
 10
3.671339885112
 20
642.656542016472
 30
0.0
 40
36.0
100
AcDbArc
 50
91.432543737567
 51
88.567456262433
  0
ARC
  5
4B37
330
1A
100
AcDbEntity
  8
隠れ線
 48
10.0
100
AcDbCircle
 10
3.671339885112
 20
642.656542016472
 30
0.0
 40
34.5
100
AcDbArc
 50
91.494842089047
 51
88.505157910953
  0
LINE
  5
4B38
330
1A
100
AcDbEntity
  8
中心線
 48
10.0
100
AcDbLine
 10
19.303296872642
 20
615.812891584893
 30
0.0
 11
47.866774385113
 21
566.339740016472
 31
0.0
  0
LINE
  5
4B39
330
1A
100
AcDbEntity
  8
外形線
100
AcDbLine
 10
10.863800006711
 20
603.430563662596
 30
0.0
 11
19.042805912447
 21
608.15271561105
 31
0.0
  0
LINE
  5
4B3A
330
1A
100
AcDbEntity
  8
外形線
100
AcDbLine
 10
11.463818078549
 20
602.391307302094
 30
0.0
 11
34.846486589216
 21
615.891346787646
 31
0.0
  0
LINE
  5
4B3B
330
1A
100
AcDbEntity
  8
外形線
100
AcDbLine
 10
44.690431586198
 20
595.889105662324
 30
0.0
 11
23.86425267599
 21
583.865105662324
 31
0.0
  0
LINE
  5
4B3C
330
1A
100
AcDbEntity
  8
外形線
100
AcDbLine
 10
15.24705267599
 20
598.790533881306
 30
0.0
 11
36.073231586198
 21
610.814533881306
 31
0.0
  0
LINE
  5
4B3D
330
1A
100
AcDbEntity
  8
外形線
100
AcDbLine
 10
38.578231586198
 20
606.475746608346
 30
0.0
 11
17.752052675991
 21
594.451746608346
 31
0.0
  0
ARC
  5
4B3E
330
1A
100
AcDbEntity
  8
外形線
100
AcDbCircle
 10
28.237082494358
 20
584.307142244058
 30
0.0
 40
4.007999999999999
100
AcDbArc
 50
210.000000000002
 51
300.000000000002
  0
LINE
  5
4B3F
330
1A
100
AcDbEntity
  8
外形線
100
AcDbLine
 10
28.165142131094
 20
600.463746608346
 30
0.0
 11
33.175142131094
 21
591.786172062426
 31
0.0
  0
ARC
  5
4B40
330
1A
100
AcDbEntity
  8
外形線
100
AcDbCircle
 10
24.420606494452
 20
594.925472581764
 30
0.0
 40
9.30038181818205
100
AcDbArc
 50
259.727393143495
 51
340.272606856496
  0
LINE
  5
4B41
330
1A
100
AcDbEntity
  8
外形線
100
AcDbLine
 10
11.463803006711
 20
602.391324662596
 30
0.0
 11
9.425614206163
 21
605.92158797452
 31
0.0
  0
LINE
  5
4B42
330
1A
100
AcDbEntity
  8
外形線
100
AcDbLine
 10
23.86425267599
 20
583.865105662324
 30
0.0
 11
24.76605267599
 21
582.303142244058
 31
0.0
  0
LINE
  5
4B43
330
1A
100
AcDbEntity
  8
細線
100
AcDbLine
 10
20.246855357942
 20
595.892121608346
 30
0.0
 11
17.741855357942
 21
600.230908881306
 31
0.0
  0
LINE
  5
4B44
330
1A
100
AcDbEntity
  8
外形線
100
AcDbLine
 10
16.568213400607
 20
599.553306381306
 30
0.0
 11
19.073213400607
 21
595.214519108346
 31
0.0
  0
LINE
  5
4B45
330
1A
100
AcDbEntity
  8
外形線
100
AcDbLine
 10
12.74205267599
 20
603.129321154266
 30
0.0
 11
15.24705267599
 21
598.790533881306
 31
0.0
  0
LINE
  5
4B46
330
1A
100
AcDbEntity
  8
外形線
100
AcDbLine
 10
17.752052675991
 20
594.451746608346
 30
0.0
 11
23.86425267599
 21
583.865105662324
 31
0.0
  0
LINE
  5
4B47
330
1A
100
AcDbEntity
  8
外形線
100
AcDbLine
 10
23.155142131094
 20
609.141321154266
 30
0.0
 11
25.660142131094
 21
604.802533881306
 31
0.0
  0
LINE
  5
4B48
330
1A
100
AcDbEntity
  8
外形線
100
AcDbLine
 10
41.080316915414
 20
587.094147336496
 30
0.0
 11
49.177306385113
 21
573.069781016472
 31
0.0
  0
LINE
  5
4B49
330
1A
100
AcDbEntity
  8
外形線
100
AcDbLine
 10
32.982374968342
 20
582.418776295681
 30
0.0
 11
41.079397326293
 21
568.394428963792
 31
0.0
  0
ARC
  5
4B4A
330
1A
100
AcDbEntity
  8
細線
100
AcDbCircle
 10
41.07935118936
 20
572.894431415509
 30
0.0
 40
4.5
100
AcDbArc
 50
269.999994133302
 51
329.999994133297
  0
ARC
  5
4B4B
330
1A
100
AcDbEntity
  8
細線
100
AcDbCircle
 10
44.976465736775
 20
575.144431016472
 30
0.0
 40
4.5
100
AcDbArc
 50
269.999994133302
 51
329.999994133297
  0
ARC
  5
4B4C
330
1A
100
AcDbEntity
  8
細線
100
AcDbCircle
 10
48.873579362651
 20
568.394430617434
 30
0.0
 40
4.5
100
AcDbArc
 50
89.999994133303
 51
149.999994133297
  0
LINE
  5
4B4D
330
1A
100
AcDbEntity
  8
外形線
100
AcDbLine
 10
34.846485506711
 20
615.891348662596
 30
0.0
 11
34.268869429092
 21
616.891806983032
 31
0.0
  0
LINE
  5
4B4E
330
1A
100
AcDbEntity
  8
外形線
100
AcDbLine
 10
44.386716477092
 20
595.713755662324
 30
0.0
 11
45.288516477092
 21
594.151792244058
 31
0.0
  0
ARC
  5
4B4F
330
1A
100
AcDbEntity
  8
外形線
100
AcDbCircle
 10
41.817486658724
 20
592.147792244058
 30
0.0
 40
4.007999999999999
100
AcDbArc
 50
300.000000000002
 51
29.999999999998
  0
LINE
  5
4B50
330
1A
100
AcDbEntity
  8
外形線
100
AcDbLine
 10
30.544797603465
 20
581.01146242569
 30
0.0
 11
43.821486658724
 21
588.67676242569
 31
0.0
  0
LINE
  5
4B51
330
1A
100
AcDbEntity
  8
外形線
100
AcDbLine
 10
34.752070861583
 20
610.051761381306
 30
0.0
 11
37.257070861583
 21
605.712974108346
 31
0.0
  0
LINE
  5
4B52
330
1A
100
AcDbEntity
  8
細線
100
AcDbLine
 10
36.083428904246
 20
605.035371608346
 30
0.0
 11
33.578428904246
 21
609.374158881306
 31
0.0
  0
LINE
  5
4B53
330
1A
100
AcDbEntity
  8
外形線
100
AcDbLine
 10
33.568231586198
 20
615.153321154266
 30
0.0
 11
36.073231586198
 21
610.814533881306
 31
0.0
  0
LINE
  5
4B54
330
1A
100
AcDbEntity
  8
外形線
100
AcDbLine
 10
38.578231586198
 20
606.475746608346
 30
0.0
 11
44.690431586198
 21
595.889105662324
 31
0.0
  0
ARC
  5
4B55
330
1A
100
AcDbEntity
  8
外形線
100
AcDbCircle
 10
34.833695949555
 20
600.937472581764
 30
0.0
 40
9.30038181818205
100
AcDbArc
 50
259.727393143495
 51
340.272606856496
  0
LINE
  5
4B56
330
1A
100
AcDbEntity
  8
外形線
100
AcDbLine
 10
136.797117697531
 20
692.567808633239
 30
0.0
 11
171.797111197531
 21
692.567808633239
 31
0.0
  0
LINE
  5
4B57
330
1A
100
AcDbEntity
  8
外形線
100
AcDbLine
 10
174.206984197531
 20
658.347960633239
 30
0.0
 11
171.797111197531
 21
692.567808633239
 31
0.0
  0
LINE
  5
4B58
330
1A
100
AcDbEntity
  8
外形線
100
AcDbLine
 10
136.797117697531
 20
692.567808633239
 30
0.0
 11
136.797117697531
 21
612.568023633239
 31
0.0
  0
LINE
  5
4B59
330
1A
100
AcDbEntity
  8
外形線
100
AcDbLine
 10
136.797117697531
 20
612.568023633239
 30
0.0
 11
171.797111197531
 21
612.568023633239
 31
0.0
  0
LINE
  5
4B5A
330
1A
100
AcDbEntity
  8
外形線
100
AcDbLine
 10
174.206984197531
 20
646.787963133239
 30
0.0
 11
171.797111197531
 21
612.568023633239
 31
0.0
  0
CIRCLE
  5
4B5B
330
1A
100
AcDbEntity
  8
外形線
100
AcDbCircle
 10
160.296119197531
 20
652.567961133239
 30
0.0
 40
2.499
  0
LINE
  5
4B5C
330
1A
100
AcDbEntity
  8
外形線
100
AcDbLine
 10
156.297117697531
 20
647.537963133239
 30
0.0
 11
156.297117697531
 21
657.597960633239
 31
0.0
  0
LINE
  5
4B5D
330
1A
100
AcDbEntity
  8
外形線
100
AcDbLine
 10
157.497122197531
 20
658.347960633239
 30
0.0
 11
185.104808729193
 21
658.347960633239
 31
0.0
  0
LINE
  5
4B5E
330
1A
100
AcDbEntity
  8
外形線
100
AcDbLine
 10
157.497122197531
 20
658.347960633239
 30
0.0
 11
156.297117697531
 21
657.597960633239
 31
0.0
  0
LINE
  5
4B5F
330
1A
100
AcDbEntity
  8
細線
 62
     6
100
AcDbLine
 10
157.563681697531
 20
655.457915133239
 30
0.0
 11
185.030608835454
 21
655.457915133239
 31
0.0
  0
LINE
  5
4B60
330
1A
100
AcDbEntity
  8
外形線
100
AcDbLine
 10
157.497122197531
 20
646.787963133239
 30
0.0
 11
156.297117697531
 21
647.537963133239
 31
0.0
  0
LINE
  5
4B61
330
1A
100
AcDbEntity
  8
外形線
100
AcDbLine
 10
157.497122197531
 20
646.787963133239
 30
0.0
 11
185.097113197531
 21
646.787963133239
 31
0.0
  0
LINE
  5
4B62
330
1A
100
AcDbEntity
  8
細線
 62
     6
100
AcDbLine
 10
157.563681697531
 20
649.677917133239
 30
0.0
 11
185.037151775641
 21
649.677917133239
 31
0.0
  0
CIRCLE
  5
4B63
330
1A
100
AcDbEntity
  8
外形線
100
AcDbCircle
 10
178.797117697531
 20
652.567961133239
 30
0.0
 40
0.9999
  0
ARC
  5
4B64
330
1A
100
AcDbEntity
  8
細線
 62
     6
100
AcDbCircle
 10
160.227545197531
 20
652.567916133239
 30
0.0
 40
3.9304305
100
AcDbArc
 50
132.668434758324
 51
227.331604937362
  0
ARC
  5
4B65
330
1A
100
AcDbEntity
  8
細線
 62
     6
100
AcDbCircle
 10
159.467360197531
 20
658.029402633239
 30
0.0
 40
3.1994565
100
AcDbArc
 50
187.749961576341
 51
233.487520784031
  0
ARC
  5
4B66
330
1A
100
AcDbEntity
  8
細線
 62
     6
100
AcDbCircle
 10
159.467360197531
 20
647.106521133239
 30
0.0
 40
3.1994565
100
AcDbArc
 50
126.512518911657
 51
172.250078119341
  0
LINE
  5
4B67
330
1A
100
AcDbEntity
  8
外形線
100
AcDbLine
 10
186.297117697531
 20
657.602770322491
 30
0.0
 11
186.297117697531
 21
647.542772822491
 31
0.0
  0
LINE
  5
4B68
330
1A
100
AcDbEntity
  8
外形線
100
AcDbLine
 10
185.097113197531
 20
646.792772822491
 30
0.0
 11
186.297117697531
 21
647.542772822491
 31
0.0
  0
LINE
  5
4B69
330
1A
100
AcDbEntity
  8
外形線
100
AcDbLine
 10
185.104808729193
 20
658.347960633239
 30
0.0
 11
186.304813229193
 21
657.597960633239
 31
0.0
  0
ARC
  5
4B6A
330
1A
100
AcDbEntity
  8
細線
 62
     6
100
AcDbCircle
 10
182.366690197531
 20
652.572817322491
 30
0.0
 40
3.9304305
100
AcDbArc
 50
312.668434758323
 51
47.331604937362
  0
ARC
  5
4B6B
330
1A
100
AcDbEntity
  8
細線
 62
     6
100
AcDbCircle
 10
183.126875197531
 20
647.111330822491
 30
0.0
 40
3.1994565
100
AcDbArc
 50
7.749961576341
 51
53.487520784032
  0
ARC
  5
4B6C
330
1A
100
AcDbEntity
  8
細線
 62
     6
100
AcDbCircle
 10
183.126875197531
 20
658.034212322491
 30
0.0
 40
3.1994565
100
AcDbArc
 50
306.512518911657
 51
352.250078119341
  0
LINE
  5
4B6D
330
1A
100
AcDbEntity
  8
中心線
 48
10.0
100
AcDbLine
 10
160.296119197531
 20
655.457915133239
 30
0.0
 11
160.296119197531
 21
649.677917133239
 31
0.0
  0
LINE
  5
4B6E
330
1A
100
AcDbEntity
  8
中心線
 48
10.0
100
AcDbLine
 10
178.797117697531
 20
654.631652133239
 30
0.0
 11
178.797117697531
 21
650.504270133239
 31
0.0
  0
LINE
  5
4B70
330
1A
100
AcDbEntity
  8
中心線
 48
10.0
100
AcDbLine
 10
3.671339885112
 20
703.694683042249
 30
0.0
 11
3.671339885112
 21
598.377723235509
 31
0.0
  0
LINE
  5
4B71
330
1A
100
AcDbEntity
  8
外形線
 48
10.0
100
AcDbLine
 10
2.771339885112
 20
692.568006133239
 30
0.0
 11
4.571339885112
 21
692.568006133239
 31
0.0
  0
LINE
  5
4B72
330
1A
100
AcDbEntity
  8
外形線
 48
10.0
100
AcDbLine
 10
4.571339885112
 20
692.568006133239
 30
0.0
 11
4.571339885112
 21
612.568006133239
 31
0.0
  0
LINE
  5
4B73
330
1A
100
AcDbEntity
  8
外形線
 48
10.0
100
AcDbLine
 10
2.771339885112
 20
692.568006133239
 30
0.0
 11
2.771339885112
 21
612.568006133239
 31
0.0
  0
LINE
  5
4B74
330
1A
100
AcDbEntity
  8
外形線
 48
10.0
100
AcDbLine
 10
4.571339885112
 20
612.568006133239
 30
0.0
 11
2.771339885112
 21
612.568006133239
 31
0.0
  0
DIMENSION
  5
4B75
330
1A
100
AcDbEntity
  8
寸法線
 48
10.0
100
AcDbDimension
  2
*D29
 10
197.375336096039
 20
649.568006133239
 30
0.0
 11
197.375336096039
 21
674.671604523832
 31
0.0
 70
   160
  1
φ<>
  3
ISO-25
100
AcDbAlignedDimension
 13
197.375336096039
 23
655.568051133239
 33
0.0
 14
195.720197354454
 24
649.568006133239
 34
0.0
 50
90.0
100
AcDbRotatedDimension
1001
ACAD
1000
DSTYLE
1002
{
1070
     5
1000
OPEN30
1070
    41
1040
6.0
1070
    47
1040
0.1
1070
    48
1040
0.1
1070
    73
1070
     0
1070
   140
1040
6.0
1070
   271
1070
     1
1070
   272
1070
     1
1070
   341
1005
2AF4
1002
}
  0
DIMENSION
  5
4B76
330
1A
100
AcDbEntity
  8
寸法線
 48
10.0
100
AcDbDimension
  2
*D30
 10
117.425661525525
 20
612.568023633239
 30
0.0
 11
113.794411525525
 21
652.567916133239
 31
0.0
 70
    32
  3
ISO-25
100
AcDbAlignedDimension
 13
136.797117697531
 23
692.567808633239
 33
0.0
 14
136.797117697531
 24
612.568023633239
 34
0.0
 50
90.0
100
AcDbRotatedDimension
1001
ACAD
1000
DSTYLE
1002
{
1070
     5
1000
OPEN30
1070
    41
1040
6.0
1070
    47
1040
0.1
1070
    48
1040
0.1
1070
    73
1070
     0
1070
   140
1040
6.0
1070
   271
1070
     1
1070
   272
1070
     1
1070
   341
1005
2AF4
1002
}
  0
DIMENSION
  5
4B77
330
1A
100
AcDbEntity
  8
寸法線
 48
10.0
100
AcDbDimension
  2
*D31
 10
171.797111197531
 20
593.579210123377
 30
0.0
 11
154.297114447531
 21
597.207335123377
 31
0.0
 70
    32
  3
ISO-25
100
AcDbAlignedDimension
 13
136.797117697531
 23
612.568023633239
 33
0.0
 14
171.797111197531
 24
612.568023633239
 34
0.0
100
AcDbRotatedDimension
1001
ACAD
1000
DSTYLE
1002
{
1070
     5
1000
OPEN30
1070
    41
1040
6.0
1070
    47
1040
0.1
1070
    48
1040
0.1
1070
    73
1070
     0
1070
   140
1040
6.0
1070
   271
1070
     1
1070
   272
1070
     1
1070
   341
1005
2AF4
1002
}
  0
DIMENSION
  5
4B78
330
1A
100
AcDbEntity
  8
寸法線
 48
10.0
100
AcDbDimension
  2
*D32
 10
395.158238478347
 20
557.914197633239
 30
0.0
 11
353.658238478347
 21
561.548572633239
 31
0.0
 70
    32
  1
83
  3
ISO-25
100
AcDbAlignedDimension
 13
312.158238478347
 23
632.017988133239
 33
0.0
 14
395.158238478347
 24
577.324873497236
 34
0.0
100
AcDbRotatedDimension
1001
ACAD
1000
DSTYLE
1002
{
1070
     5
1000
OPEN30
1070
    41
1040
6.0
1070
    47
1040
0.1
1070
    48
1040
0.1
1070
    73
1070
     0
1070
   140
1040
6.0
1070
   271
1070
     1
1070
   272
1070
     1
1070
   341
1005
2AF4
1002
}
  0
LINE
  5
4B81
330
1A
100
AcDbEntity
  8
中心線
 48
10.0
100
AcDbLine
 10
-51.787166969496
 20
642.656542016472
 30
0.0
 11
52.640428680252
 21
642.656542016472
 31
0.0
  0
LINE
  5
4B82
330
1A
100
AcDbEntity
  8
中心線
 48
10.0
100
AcDbLine
 10
52.640428680252
 20
652.568006133239
 30
0.0
 11
-51.787166969496
 21
652.568006133239
 31
0.0
  0
DIMENSION
  5
4B83
330
1A
100
AcDbEntity
  8
寸法線
 48
10.0
100
AcDbDimension
  2
*D33
 10
61.718718713745
 20
642.656542016472
 30
0.0
 11
61.718718713745
 21
647.612274074855
 31
0.0
 70
   160
  1
10
  3
ISO-25
100
AcDbAlignedDimension
 13
52.640428680252
 23
652.568006133239
 33
0.0
 14
52.640428680252
 24
642.656542016472
 34
0.0
 50
90.0
100
AcDbRotatedDimension
1001
ACAD
1000
DSTYLE
1002
{
1070
     5
1000
OPEN30
1070
    41
1040
6.0
1070
    47
1040
0.1
1070
    48
1040
0.1
1070
    73
1070
     0
1070
   140
1040
6.0
1070
   271
1070
     1
1070
   272
1070
     1
1070
   341
1005
2AF4
1002
}
  0
DIMENSION
  5
4B84
330
1A
100
AcDbEntity
  8
寸法線
 48
10.0
100
AcDbDimension
  2
*D34
 10
21.671339885112
 20
707.456003191525
 30
0.0
 11
3.225364509768
 21
707.456003191525
 31
0.0
 70
   160
  3
ISO-25
100
AcDbAlignedDimension
 13
-14.328660114888
 23
662.960310978652
 33
0.0
 14
21.671339885112
 24
662.960310978652
 34
0.0
100
AcDbRotatedDimension
1001
ACAD
1000
DSTYLE
1002
{
1070
     5
1000
OPEN30
1070
    41
1040
6.0
1070
    47
1040
0.1
1070
    48
1040
0.1
1070
    73
1070
     0
1070
   140
1040
6.0
1070
   271
1070
     1
1070
   272
1070
     1
1070
   341
1005
2AF4
1002
}
  0
MTEXT
  5
4B85
330
1A
100
AcDbEntity
  8
寸法線
 48
10.0
100
AcDbMText
 10
-2.304187855523
 20
720.79045781092
 30
0.0
 40
6.0
 41
19.187492735629
 71
     1
 72
     5
  1
平径
  0
DIMENSION
  5
4B86
330
1A
100
AcDbEntity
  8
寸法線
 48
10.0
100
AcDbDimension
  2
*D35
 10
4.571339885112
 20
621.489532256543
 30
0.0
 11
17.796339885112
 21
625.114532256543
 31
0.0
 70
    32
  1
1
  3
ISO-25
100
AcDbAlignedDimension
 13
2.771339885112
 23
621.489532256543
 33
0.0
 14
4.571339885112
 24
621.489532256543
 34
0.0
100
AcDbRotatedDimension
1001
ACAD
1000
DSTYLE
1002
{
1070
     5
1000
OPEN30
1070
    41
1040
6.0
1070
    47
1040
0.1
1070
    48
1040
0.1
1070
    73
1070
     0
1070
   140
1040
6.0
1070
   271
1070
     1
1070
   272
1070
     1
1070
   341
1005
2AF4
1002
}
  0
ARC
  5
4B87
330
1A
100
AcDbEntity
  8
細線
100
AcDbCircle
 10
189.554186286608
 20
651.068005233239
 30
0.0
 40
3.0
100
AcDbArc
 50
330.000019847839
 51
30.000019847843
  0
ARC
  5
4B88
330
1A
100
AcDbEntity
  8
細線
100
AcDbCircle
 10
192.091768266993
 20
651.068006133239
 30
0.0
 40
3.0
100
AcDbArc
 50
330.0
 51
30.0
  0
ARC
  5
4B89
330
1A
100
AcDbEntity
  8
細線
100
AcDbCircle
 10
197.2879206897
 20
651.068006133239
 30
0.0
 40
3.0
100
AcDbArc
 50
150.0
 51
210.0
  0
LINE
  5
4B8A
330
1A
100
AcDbEntity
  8
外形線
100
AcDbLine
 10
192.152263017577
 20
649.568006133239
 30
0.0
 11
186.297117697531
 21
649.568006133239
 31
0.0
  0
LINE
  5
4B8B
330
1A
100
AcDbEntity
  8
外形線
100
AcDbLine
 10
202.458274478347
 20
649.568006133239
 30
0.0
 11
194.689844478347
 21
649.568006133239
 31
0.0
  0
ARC
  5
4B8C
330
1A
100
AcDbEntity
  8
細線
100
AcDbCircle
 10
194.750337670085
 20
654.068007033239
 30
0.0
 40
3.0
100
AcDbArc
 50
150.000019847839
 51
210.000019847843
  0
ARC
  5
4B8D
330
1A
100
AcDbEntity
  8
細線
100
AcDbCircle
 10
189.554185247378
 20
654.068005233239
 30
0.0
 40
3.0
100
AcDbArc
 50
330.000019847839
 51
30.000019847843
  0
ARC
  5
4B8E
330
1A
100
AcDbEntity
  8
細線
100
AcDbCircle
 10
197.2879206897
 20
654.068006133239
 30
0.0
 40
3.0
100
AcDbArc
 50
150.0
 51
210.0
  0
LINE
  5
4B8F
330
1A
100
AcDbEntity
  8
外形線
100
AcDbLine
 10
192.152263017577
 20
655.568006133239
 30
0.0
 11
186.297117697531
 21
655.568006133239
 31
0.0
  0
LINE
  5
4B90
330
1A
100
AcDbEntity
  8
外形線
100
AcDbLine
 10
202.458274478347
 20
655.568006133239
 30
0.0
 11
194.689844478347
 21
655.568006133239
 31
0.0
  0
MTEXT
  5
4B99
330
1A
100
AcDbEntity
  8
寸法線
 48
10.0
100
AcDbMText
 10
298.220712258416
 20
724.400449459049
 30
0.0
 40
6.0
 41
0.0
 71
     1
 72
     1
  1
\A1;アルミ
1001
ACAD
1000
MTEXTBEGIN
1070
    44
1040
0.8
1000
MTEXTEND
  0
MTEXT
  5
4B9B
330
1A
100
AcDbEntity
  8
寸法線
 48
10.0
100
AcDbMText
 10
348.685185456341
 20
724.400449459049
 30
0.0
 40
6.0
 41
0.0
 71
     1
 72
     1
  1
\A1;Oリング
1001
ACAD
1000
MTEXTBEGIN
1070
    44
1040
0.8
1000
MTEXTEND
  0
MTEXT
  5
4B9D
102
{ACAD_REACTORS
330
4B9E
102
}
330
1A
100
AcDbEntity
  8
寸法線
 48
10.0
100
AcDbMText
 10
193.624144332967
 20
627.12275364937
 30
0.0
 40
6.0
 41
0.0
 71
     1
 72
     1
  1
\A1;φ2\P割ピン
1001
ACAD
1000
MTEXTBEGIN
1070
    44
1040
0.8
1000
MTEXTEND
  0
LEADER
  5
4B9E
330
1A
100
AcDbEntity
  8
寸法線
 48
10.0
100
AcDbLeader
  3
ISO-25
 73
     0
 74
     0
 75
     1
 40
14.2
 41
20.0
 76
     3
 10
179.277513274678
 20
651.568061133239
 30
0.0
 10
191.765918673815
 20
612.34344350194
 30
0.0
 10
197.765918673815
 20
612.34344350194
 30
0.0
340
4B9D
213
4.766774340847405
223
-14.77931014742921
233
0.0
1001
ACAD
1000
DSTYLE
1002
{
1070
     5
1000
OPEN30
1070
   147
1040
0.625
1070
    77
1070
     0
1070
    41
1040
6.0
1070
    47
1040
0.1
1070
    48
1040
0.1
1070
    73
1070
     0
1070
   140
1040
5.0
1070
   271
1070
     1
1070
   272
1070
     1
1070
   341
1005
2AF4
1070
   342
1005
2AF4
1002
}
  0
MTEXT
  5
4BA2
330
1A
100
AcDbEntity
  8
寸法線
 48
10.0
100
AcDbMText
 10
178.593376967755
 20
1098.314976173982
 30
0.0
 40
5.0
 41
0.0
 71
     9
 72
     1
  1
\A1;
  0
LEADER
  5
4BA8
330
1A
100
AcDbEntity
  8
寸法線
 48
10.0
100
AcDbLeader
  3
ISO-25
 76
     3
 10
297.868031364947
 20
699.632497907801
 30
0.0
 10
299.213677965722
 20
717.551043003775
 30
0.0
 10
306.949026858548
 20
717.551043003775
 30
0.0
1001
ACAD
1000
DSTYLE
1002
{
1070
     5
1000
OPEN30
1070
   147
1040
0.625
1070
    77
1070
     0
1070
    41
1040
6.0
1070
    47
1040
0.1
1070
    48
1040
0.1
1070
    73
1070
     0
1070
   140
1040
5.0
1070
   271
1070
     1
1070
   272
1070
     1
1070
   341
1005
2AF4
1070
   342
1005
2AF4
1002
}
  0
LEADER
  5
4BA9
330
1A
100
AcDbEntity
  8
寸法線
 48
10.0
100
AcDbLeader
  3
ISO-25
 76
     3
 10
345.281889418922
 20
678.137921507689
 30
0.0
 10
348.011965949205
 20
717.551043003775
 30
0.0
 10
355.973093584501
 20
717.551043003775
 30
0.0
1001
ACAD
1000
DSTYLE
1002
{
1070
     5
1000
OPEN30
1070
   147
1040
0.625
1070
    77
1070
     0
1070
    41
1040
6.0
1070
    47
1040
0.1
1070
    48
1040
0.1
1070
    73
1070
     0
1070
   140
1040
5.0
1070
   271
1070
     1
1070
   272
1070
     1
1070
   341
1005
2AF4
1070
   342
1005
2AF4
1002
}
  0
MTEXT
  5
4BAC
330
1A
100
AcDbEntity
  8
寸法線
 48
10.0
100
AcDbMText
 10
-52.255429150665
 20
587.241509190553
 30
0.0
 40
5.0
 41
63.804781576954
 71
     1
 72
     5
  1
{\H1.2x;コードロック\PビメットBMS050B}
  0
LEADER
  5
4BAD
330
1A
100
AcDbEntity
  8
寸法線
 48
10.0
100
AcDbLeader
  3
ISO-25
 76
     3
 10
21.246359591314
 20
588.135836438017
 30
0.0
 10
11.565158386037
 20
569.607962688897
 30
0.0
 10
-7.981416602183
 20
569.607962688897
 30
0.0
1001
ACAD
1000
DSTYLE
1002
{
1070
     5
1000
OPEN30
1070
   147
1040
0.625
1070
    77
1070
     0
1070
    41
1040
6.0
1070
    47
1040
0.1
1070
    48
1040
0.1
1070
    73
1070
     0
1070
   140
1040
5.0
1070
   271
1070
     1
1070
   272
1070
     1
1070
   341
1005
2AF4
1070
   342
1005
2AF4
1002
}
  0
LINE
  5
4BAF
330
1A
100
AcDbEntity
  8
中心線
 48
10.0
100
AcDbLine
 10
401.344712762057
 20
642.742979133239
 30
0.0
 11
310.571800194637
 21
642.742979133239
 31
0.0
  0
LINE
  5
4BB1
330
1A
100
AcDbEntity
  8
寸法線
100
AcDbLine
 10
338.322421189408
 20
496.364431998574
 30
0.0
 11
338.322421189408
 21
538.364386998574
 31
0.0
  0
LINE
  5
4BB2
330
1A
100
AcDbEntity
  8
寸法線
100
AcDbLine
 10
414.224304607956
 20
527.864386998575
 30
0.0
 11
283.889628253245
 21
527.864386998575
 31
0.0
  0
LINE
  5
4BB3
330
1A
100
AcDbEntity
  8
寸法線
100
AcDbLine
 10
414.224304607956
 20
517.364386998574
 30
0.0
 11
283.889628253245
 21
517.364386998574
 31
0.0
  0
LINE
  5
4BB4
330
1A
100
AcDbEntity
  8
寸法線
100
AcDbLine
 10
414.224304607956
 20
506.864386998574
 30
0.0
 11
283.889628253245
 21
506.864386998574
 31
0.0
  0
LINE
  5
4BB5
330
1A
100
AcDbEntity
  8
寸法線
100
AcDbLine
 10
283.889628253245
 20
538.364386998574
 30
0.0
 11
414.224304607956
 21
538.364386998574
 31
0.0
  0
LINE
  5
4BB6
330
1A
100
AcDbEntity
  8
寸法線
100
AcDbLine
 10
307.889650753246
 20
496.364431998574
 30
0.0
 11
307.889650753246
 21
538.364386998574
 31
0.0
  0
ARC
  5
4BB7
330
1A
100
AcDbEntity
  8
寸法線
100
AcDbCircle
 10
323.864697367423
 20
531.204321498574
 30
0.0
 40
1.3204605
100
AcDbArc
 50
252.904086432756
 51
337.411923467761
  0
ARC
  5
4BB8
330
1A
100
AcDbEntity
  8
寸法線
100
AcDbCircle
 10
323.864697367423
 20
531.204276498574
 30
0.0
 40
1.3204425
100
AcDbArc
 50
252.903398883386
 51
337.412611017143
  0
ARC
  5
4BB9
330
1A
100
AcDbEntity
  8
寸法線
100
AcDbCircle
 10
320.461407367424
 20
533.695884498575
 30
0.0
 40
3.7598535
100
AcDbArc
 50
273.280470979894
 51
33.415912335964
  0
ARC
  5
4BBA
330
1A
100
AcDbEntity
  8
寸法線
100
AcDbCircle
 10
325.224391867423
 20
532.942221498575
 30
0.0
 40
3.472035
100
AcDbArc
 50
123.469024399709
 51
239.77401371222
  0
ARC
  5
4BBB
330
1A
100
AcDbEntity
  8
寸法線
100
AcDbCircle
 10
325.224391867423
 20
532.942221498575
 30
0.0
 40
3.4720395
100
AcDbArc
 50
123.469024399708
 51
239.773899120653
  0
ARC
  5
4BBC
330
1A
100
AcDbEntity
  8
寸法線
100
AcDbCircle
 10
323.422039867423
 20
535.671042498575
 30
0.0
 40
0.2017125
100
AcDbArc
 50
28.230948368971
 51
123.883845843384
  0
LINE
  5
4BBD
330
1A
100
AcDbEntity
  8
寸法線
100
AcDbLine
 10
414.224304607956
 20
496.364431998574
 30
0.0
 11
283.889628253245
 21
496.364431998574
 31
0.0
  0
LINE
  5
4BBE
330
1A
100
AcDbEntity
  8
寸法線
100
AcDbLine
 10
283.889650753246
 20
496.364431998574
 30
0.0
 11
283.889650753246
 21
538.364386998574
 31
0.0
  0
TEXT
  5
4BBF
330
1A
100
AcDbEntity
  8
寸法線
100
AcDbText
 10
285.917955253245
 20
529.926565998575
 30
0.0
 40
6.75
  1
御仕様
 41
0.882352941176
  7
EXCADSTD
 72
     5
 11
306.167955253245
 21
529.926565998575
 31
0.0
100
AcDbText
  0
LINE
  5
4BC0
330
1A
100
AcDbEntity
  8
寸法線
100
AcDbLine
 10
414.224304607956
 20
496.364431998574
 30
0.0
 11
414.224304607956
 21
538.364386998574
 31
0.0
  0
LINE
  5
4BC1
330
1A
100
AcDbEntity
  8
寸法線
100
AcDbLine
 10
390.362276996718
 20
496.364431998574
 30
0.0
 11
390.362276996718
 21
538.364386998574
 31
0.0
  0
TEXT
  5
4BC2
330
1A
100
AcDbEntity
  8
寸法線
100
AcDbText
 10
395.231461948433
 20
529.776510498574
 30
0.0
 40
6.75
  1
台数
 41
0.909090909091
  7
EXCADSTD
 72
     5
 11
408.731461948433
 21
529.776510498574
 31
0.0
100
AcDbText
  0
TEXT
  5
4BC3
330
1A
100
AcDbEntity
  8
寸法線
100
AcDbText
 10
356.627200189408
 20
529.926520998574
 30
0.0
 40
6.75
  1
記事
 41
0.909090909091
  7
EXCADSTD
 72
     5
 11
370.127200189408
 21
529.926520998574
 31
0.0
100
AcDbText
  0
MTEXT
  5
4BC4
102
{ACAD_XDICTIONARY
360
4BC5
102
}
330
1A
100
AcDbEntity
  8
隠れ線
 48
10.0
100
AcDbMText
 10
322.319444818175
 20
524.792393876202
 30
0.0
 40
6.0
 41
19.035286317203
 71
     2
 72
     5
  1
\C1;85\P100\P135
1001
ACADANNOTATIVE
1000
AnnotativeData
1002
{
1070
     1
1070
     0
1002
}
  0
MTEXT
  5
4BC8
330
1A
100
AcDbEntity
  8
隠れ線
 48
10.0
100
AcDbMText
 10
311.603474911294
 20
492.365675140162
 30
0.0
 40
6.0
 41
102.645465564322
 71
     1
 72
     5
  1
{\C1;○印が今回の貴社の御仕様です。}
  0
ARC
  5
4BC9
330
1A
100
AcDbEntity
  8
外形線
 48
10.0
100
AcDbCircle
 10
3.805189385122
 20
652.656572516479
 30
0.0
 40
22.5
100
AcDbArc
 50
92.633603408824
 51
267.366396591176
  0
LINE
  5
4BCA
330
1A
100
AcDbEntity
  8
外形線
 48
10.0
100
AcDbLine
 10
8.671339885112
 20
649.681254787291
 30
0.0
 11
8.671339885112
 21
655.454757479188
 31
0.0
  0
LINE
  5
4BCB
330
1A
100
AcDbEntity
  8
外形線
 48
10.0
100
AcDbLine
 10
-1.328660114888
 20
649.681254787291
 30
0.0
 11
-1.328660114888
 21
655.454757479187
 31
0.0
  0
LINE
  5
4BCC
330
1A
100
AcDbEntity
  8
外形線
 48
10.0
100
AcDbLine
 10
4.571339885112
 20
647.314118683613
 30
0.0
 11
8.671339885113
 21
649.681254787291
 31
0.0
  0
LINE
  5
4BCD
330
1A
100
AcDbEntity
  8
外形線
 48
10.0
100
AcDbLine
 10
-1.328660114888
 20
655.454757479187
 30
0.0
 11
2.771339885112
 21
657.821893582865
 31
0.0
  0
LINE
  5
4BCE
330
1A
100
AcDbEntity
  8
外形線
 48
10.0
100
AcDbLine
 10
8.671339885112
 20
655.454757479188
 30
0.0
 11
4.571339885112
 21
657.821893582865
 31
0.0
  0
LINE
  5
4BCF
330
1A
100
AcDbEntity
  8
外形線
 48
10.0
100
AcDbLine
 10
2.771339885112
 20
647.314118683614
 30
0.0
 11
-1.328660114888
 21
649.681254787291
 31
0.0
  0
ARC
  5
4BD0
330
1A
100
AcDbEntity
  8
細線
 48
10.0
100
AcDbCircle
 10
3.671339885112
 20
652.568006133239
 30
0.0
 40
5.0
100
AcDbArc
 50
100.369759805477
 51
259.630240194522
  0
ARC
  5
4BD1
330
1A
100
AcDbEntity
  8
細線
 48
10.0
100
AcDbCircle
 10
3.671339885112
 20
652.568006133239
 30
0.0
 40
5.0
100
AcDbArc
 50
280.369759805478
 51
79.630240194523
  0
ARC
  5
4BD2
330
1A
100
AcDbEntity
  8
外形線
 48
10.0
100
AcDbCircle
 10
3.805189385122
 20
652.656572516479
 30
0.0
 40
22.5
100
AcDbArc
 50
271.951363445946
 51
88.048636554054
  0
LINE
  5
4BD3
330
1A
100
AcDbEntity
  8
外形線
100
AcDbLine
 10
297.158238478347
 20
605.568006133239
 30
0.0
 11
297.158238478347
 21
699.568006133239
 31
0.0
  0
LINE
  5
4BD4
330
1A
100
AcDbEntity
  8
外形線
100
AcDbLine
 10
298.658238478347
 20
699.568006133239
 30
0.0
 11
298.658238478347
 21
605.568006133239
 31
0.0
  0
LINE
  5
4BD5
330
1A
100
AcDbEntity
  8
外形線
100
AcDbLine
 10
306.658238478347
 20
636.568006133239
 30
0.0
 11
298.658238478347
 21
636.568006133239
 31
0.0
  0
LINE
  5
4BD6
330
1A
100
AcDbEntity
  8
外形線
100
AcDbLine
 10
306.658238478347
 20
699.568006133239
 30
0.0
 11
306.658238478347
 21
605.568006133239
 31
0.0
  0
LINE
  5
4BD7
330
1A
100
AcDbEntity
  8
外形線
100
AcDbLine
 10
308.158238478347
 20
699.568006133239
 30
0.0
 11
308.158238478347
 21
605.568006133239
 31
0.0
  0
LINE
  5
4BD8
330
1A
100
AcDbEntity
  8
外形線
100
AcDbLine
 10
312.158238478347
 20
636.568006133239
 30
0.0
 11
308.158238478347
 21
636.568006133239
 31
0.0
  0
LINE
  5
4BD9
330
1A
100
AcDbEntity
  8
外形線
100
AcDbLine
 10
306.658238478347
 20
668.568006133239
 30
0.0
 11
298.658238478347
 21
668.568006133239
 31
0.0
  0
LINE
  5
4BDA
330
1A
100
AcDbEntity
  8
外形線
100
AcDbLine
 10
312.158238478347
 20
668.568006133239
 30
0.0
 11
308.158238478347
 21
668.568006133239
 31
0.0
  0
LINE
  5
4BDB
330
1A
100
AcDbEntity
  8
外形線
 48
10.0
100
AcDbLine
 10
297.158238478347
 20
699.568006133239
 30
0.0
 11
298.658238478347
 21
699.568006133239
 31
0.0
  0
LINE
  5
4BDD
330
1A
100
AcDbEntity
  8
隠れ線
 48
10.0
100
AcDbLine
 10
225.658256478347
 20
632.017988133239
 30
0.0
 11
225.658256478347
 21
601.449387085766
 31
0.0
  0
LINE
  5
4BDE
330
1A
100
AcDbEntity
  8
隠れ線
 48
10.0
100
AcDbLine
 10
221.658256478347
 20
630.068006133239
 30
0.0
 11
221.658256478347
 21
601.248878860402
 31
0.0
  0
LINE
  5
4BDF
330
1A
100
AcDbEntity
  8
隠れ線
 48
10.0
100
AcDbLine
 10
225.658256478347
 20
699.283719191049
 30
0.0
 11
225.658256478347
 21
673.117979133239
 31
0.0
  0
LINE
  5
4BE0
330
1A
100
AcDbEntity
  8
隠れ線
 48
10.0
100
AcDbLine
 10
221.658256478347
 20
699.283719191049
 30
0.0
 11
221.658256478347
 21
675.068006133239
 31
0.0
  0
ARC
  5
4C04
330
1A
100
AcDbEntity
  8
外形線
 48
10.0
100
AcDbCircle
 10
3.671339885112
 20
652.568006133239
 30
0.0
 40
13.22050000000002
100
AcDbArc
 50
93.903491864735
 51
266.096508135265
  0
ARC
  5
4C05
330
1A
100
AcDbEntity
  8
細線
 48
10.0
100
AcDbCircle
 10
3.671339885112
 20
652.568006133239
 30
0.0
 40
12.05849999999998
100
AcDbArc
 50
94.280316570382
 51
265.719683429618
  0
ARC
  5
4C06
330
1A
100
AcDbEntity
  8
外形線
 48
10.0
100
AcDbCircle
 10
3.671339885112
 20
652.568006133239
 30
0.0
 40
13.22050000000002
100
AcDbArc
 50
273.903491864735
 51
86.096508135265
  0
ARC
  5
4C07
330
1A
100
AcDbEntity
  8
細線
 48
10.0
100
AcDbCircle
 10
3.671339885112
 20
652.568006133239
 30
0.0
 40
12.05849999999998
100
AcDbArc
 50
274.280316570382
 51
85.719683429618
  0
ARC
  5
4C08
330
1A
100
AcDbEntity
  8
細線
 48
10.0
100
AcDbCircle
 10
3.671339885112
 20
652.568006133239
 30
0.0
 40
18.0
100
AcDbArc
 50
272.865983982599
 51
87.134016017401
  0
LINE
  5
4C09
330
1A
100
AcDbEntity
  8
外形線
 48
10.0
100
AcDbLine
 10
-14.328660114888
 20
642.175701287826
 30
0.0
 11
2.771339885112
 21
632.303011684683
 31
0.0
  0
LINE
  5
4C0A
330
1A
100
AcDbEntity
  8
外形線
 48
10.0
100
AcDbLine
 10
21.671339885112
 20
642.175701287826
 30
0.0
 11
4.571339885112
 21
632.303011684683
 31
0.0
  0
LINE
  5
4C0B
330
1A
100
AcDbEntity
  8
外形線
 48
10.0
100
AcDbLine
 10
-14.328660114888
 20
662.960310978652
 30
0.0
 11
-14.328660114888
 21
642.175701287826
 31
0.0
  0
LINE
  5
4C0C
330
1A
100
AcDbEntity
  8
外形線
 48
10.0
100
AcDbLine
 10
21.671339885112
 20
662.960310978652
 30
0.0
 11
21.671339885112
 21
642.175701287826
 31
0.0
  0
ARC
  5
4C0D
330
1A
100
AcDbEntity
  8
細線
 48
10.0
100
AcDbCircle
 10
3.671339885112
 20
652.568006133239
 30
0.0
 40
18.0
100
AcDbArc
 50
92.865983982599
 51
267.134016017401
  0
LINE
  5
4C0E
330
1A
100
AcDbEntity
  8
外形線
 48
10.0
100
AcDbLine
 10
4.571339885112
 20
672.833000581795
 30
0.0
 11
21.671339885112
 21
662.960310978652
 31
0.0
  0
LINE
  5
4C0F
330
1A
100
AcDbEntity
  8
外形線
 48
10.0
100
AcDbLine
 10
2.771339885112
 20
672.833000581795
 30
0.0
 11
-14.328660114888
 21
662.960310978652
 31
0.0
  0
LINE
  5
4C10
330
1A
100
AcDbEntity
  8
外形線
 48
10.0
100
AcDbLine
 10
306.658238478347
 20
699.568006133239
 30
0.0
 11
308.158238478347
 21
699.568006133239
 31
0.0
  0
LINE
  5
4C11
330
1A
100
AcDbEntity
  8
外形線
 48
10.0
100
AcDbLine
 10
306.658238478347
 20
605.568006133239
 30
0.0
 11
308.158238478347
 21
605.568006133239
 31
0.0
  0
LINE
  5
4C12
330
1A
100
AcDbEntity
  8
外形線
 48
10.0
100
AcDbLine
 10
297.158238478347
 20
605.568006133239
 30
0.0
 11
298.658238478347
 21
605.568006133239
 31
0.0
  0
CIRCLE
  5
4C13
330
1A
100
AcDbEntity
  8
外形線
 48
10.0
100
AcDbCircle
 10
3.671339885112
 20
652.568006133239
 30
0.0
 40
47.0
  0
TEXT
  5
4C14
330
1A
100
AcDbEntity
  8
寸法線
100
AcDbText
 10
-8.777913917695
 20
490.039766098837
 30
0.0
 40
6.573033707865
  1
ク　ロ
  7
EXCADVERT
 72
     3
 11
-8.777913917695
 21
470.539766098837
 31
0.0
100
AcDbText
  0
TEXT
  5
4C15
330
1A
100
AcDbEntity
  8
寸法線
100
AcDbText
 10
-38.328572417695
 20
489.889757098837
 30
0.0
 40
6.030927835052
  1
ア　カ
  7
EXCADVERT
 72
     3
 11
-38.328572417695
 21
470.389757098837
 31
0.0
100
AcDbText
  0
TEXT
  5
4C16
330
1A
100
AcDbEntity
  8
寸法線
100
AcDbText
 10
-54.078846917695
 20
483.214578598837
 30
0.0
 40
6.428571428571
  1
キ
  7
EXCADVERT
 72
     3
 11
-54.078846917695
 21
477.214578598837
 31
0.0
100
AcDbText
  0
TEXT
  5
4C17
330
1A
100
AcDbEntity
  8
寸法線
100
AcDbText
 10
-69.454218917695
 20
490.039766098837
 30
0.0
 40
5.636363639073
  1
ミドリ
  7
EXCADVERT
 72
     3
 11
-69.454218917695
 21
471.439766089896
 31
0.0
100
AcDbText
  0
LINE
  5
4C18
330
1A
100
AcDbEntity
  8
寸法線
100
AcDbLine
 10
-65.711262917695
 20
534.056168098837
 30
0.0
 11
-65.711262917695
 21
441.056163598837
 31
0.0
  0
LINE
  5
4C19
330
1A
100
AcDbEntity
  8
寸法線
100
AcDbLine
 10
-34.652273417695
 20
534.056168098837
 30
0.0
 11
-34.652273417695
 21
450.056163598837
 31
0.0
  0
LINE
  5
4C1A
330
1A
100
AcDbEntity
  8
寸法線
100
AcDbLine
 10
-65.711262917695
 20
441.056157598837
 30
0.0
 11
9.529943082305
 21
441.056157598837
 31
0.0
  0
LINE
  5
4C1B
330
1A
100
AcDbEntity
  8
寸法線
100
AcDbLine
 10
-50.181825917695
 20
504.710771098837
 30
0.0
 11
-50.181825917695
 21
445.556163598837
 31
0.0
  0
LINE
  5
4C1C
330
1A
100
AcDbEntity
  8
寸法線
100
AcDbLine
 10
-50.181825917695
 20
445.556163598837
 30
0.0
 11
9.892446582305
 21
445.556163598837
 31
0.0
  0
LINE
  5
4C1D
330
1A
100
AcDbEntity
  8
寸法線
100
AcDbLine
 10
-19.872503417695
 20
504.710771098837
 30
0.0
 11
-19.872503417695
 21
454.556163598837
 31
0.0
  0
LINE
  5
4C1E
330
1A
100
AcDbEntity
  8
寸法線
100
AcDbLine
 10
-4.878500417695
 20
459.056163598837
 30
0.0
 11
-4.878500417695
 21
504.343049098837
 31
0.0
  0
LINE
  5
4C1F
330
1A
100
AcDbEntity
  8
寸法線
100
AcDbLine
 10
-34.652273417695
 20
450.056163598837
 30
0.0
 11
15.597716082305
 21
450.056163598837
 31
0.0
  0
LINE
  5
4C20
330
1A
100
AcDbEntity
  8
寸法線
100
AcDbLine
 10
11.538129582305
 20
446.047835098837
 30
0.0
 11
13.403780082305
 21
447.271872598837
 31
0.0
  0
LINE
  5
4C21
330
1A
100
AcDbEntity
  8
寸法線
100
AcDbLine
 10
11.670629082305
 20
441.954387598837
 30
0.0
 11
13.627203582305
 21
443.947181098837
 31
0.0
  0
LINE
  5
4C22
330
1A
100
AcDbEntity
  8
寸法線
100
AcDbLine
 10
15.597716082305
 20
447.795302098837
 30
0.0
 11
14.897142582305
 21
447.759677098837
 31
0.0
  0
LINE
  5
4C23
330
1A
100
AcDbEntity
  8
寸法線
100
AcDbLine
 10
15.597716082305
 20
444.843813598837
 30
0.0
 11
15.459185082305
 21
444.829485598837
 31
0.0
  0
ARC
  5
4C24
330
1A
100
AcDbEntity
  8
寸法線
100
AcDbCircle
 10
9.892446582305
 20
448.556163598837
 30
0.0
 40
3.0
100
AcDbArc
 50
270.0
 51
303.268623610808
  0
ARC
  5
4C25
330
1A
100
AcDbEntity
  8
寸法線
100
AcDbCircle
 10
15.049475082305
 20
444.763556098837
 30
0.0
 40
3.0
100
AcDbArc
 50
92.910721466856
 51
123.268603762964
  0
ARC
  5
4C26
330
1A
100
AcDbEntity
  8
寸法線
100
AcDbCircle
 10
15.767889582305
 20
441.845411098837
 30
0.0
 40
3.0
100
AcDbArc
 50
95.906259411359
 51
135.525546099523
  0
ARC
  5
4C27
330
1A
100
AcDbEntity
  8
寸法線
100
AcDbCircle
 10
9.529943082305
 20
444.056163598837
 30
0.0
 40
3.0
100
AcDbArc
 50
270.0
 51
315.525565947365
  0
ARC
  5
4C28
330
1A
100
AcDbEntity
  8
寸法線
100
AcDbCircle
 10
9.892446582305
 20
451.556163598837
 30
0.0
 40
3.0
100
AcDbArc
 50
56.73141608488
 51
89.999981276031
  0
LINE
  5
4C29
330
1A
100
AcDbEntity
  8
寸法線
100
AcDbLine
 10
11.538129582305
 20
454.064490598837
 30
0.0
 11
13.403780082305
 21
452.840453098837
 31
0.0
  0
LINE
  5
4C2A
330
1A
100
AcDbEntity
  8
寸法線
100
AcDbLine
 10
15.597716082305
 20
452.317023598837
 30
0.0
 11
14.897142582305
 21
452.352648598837
 31
0.0
  0
ARC
  5
4C2B
330
1A
100
AcDbEntity
  8
寸法線
100
AcDbCircle
 10
15.049475082305
 20
455.348769598837
 30
0.0
 40
3.0
100
AcDbArc
 50
236.731435932722
 51
267.089318228831
  0
LINE
  5
4C2C
330
1A
100
AcDbEntity
  8
寸法線
100
AcDbLine
 10
15.597716082305
 20
455.268512098837
 30
0.0
 11
15.459185082305
 21
455.282840098837
 31
0.0
  0
ARC
  5
4C2D
330
1A
100
AcDbEntity
  8
寸法線
100
AcDbCircle
 10
15.767889582305
 20
458.266910098837
 30
0.0
 40
3.0
100
AcDbArc
 50
224.474436300384
 51
264.093722988548
  0
LINE
  5
4C2E
330
1A
100
AcDbEntity
  8
寸法線
100
AcDbLine
 10
11.670629082305
 20
458.157939598837
 30
0.0
 11
13.627203582305
 21
456.165144598837
 31
0.0
  0
ARC
  5
4C2F
330
1A
100
AcDbEntity
  8
寸法線
100
AcDbCircle
 10
9.529943082305
 20
456.056163598837
 30
0.0
 40
3.0
100
AcDbArc
 50
44.474473748323
 51
89.999981276031
  0
LINE
  5
4C30
330
1A
100
AcDbEntity
  8
寸法線
100
AcDbLine
 10
-4.878500417695
 20
459.056163598837
 30
0.0
 11
9.529943082305
 21
459.056163598837
 31
0.0
  0
LINE
  5
4C31
330
1A
100
AcDbEntity
  8
寸法線
100
AcDbLine
 10
-19.872503417695
 20
454.556163598837
 30
0.0
 11
9.892446582305
 21
454.556163598837
 31
0.0
  0
LINE
  5
4C32
330
1A
100
AcDbEntity
  8
寸法線
100
AcDbLine
 10
18.597716082305
 20
456.056163598837
 30
0.0
 11
71.097704082305
 21
456.056163598837
 31
0.0
  0
LINE
  5
4C33
330
1A
100
AcDbEntity
  8
寸法線
100
AcDbLine
 10
18.597716082305
 20
444.056163598837
 30
0.0
 11
71.097704082305
 21
444.056163598837
 31
0.0
  0
ARC
  5
4C34
330
1A
100
AcDbEntity
  8
寸法線
100
AcDbCircle
 10
65.901552698829
 20
447.056161798837
 30
0.0
 40
6.0
100
AcDbArc
 50
330.000019847844
 51
30.000019847843
  0
ARC
  5
4C35
330
1A
100
AcDbEntity
  8
寸法線
100
AcDbCircle
 10
65.901550620368
 20
453.056161798836
 30
0.0
 40
6.0
100
AcDbArc
 50
330.000019847844
 51
30.000019847843
  0
ARC
  5
4C36
330
1A
100
AcDbEntity
  8
寸法線
100
AcDbCircle
 10
76.29385546578
 20
453.056165398837
 30
0.0
 40
6.0
100
AcDbArc
 50
150.000019847843
 51
210.000019847843
  0
ARC
  5
4C37
330
1A
100
AcDbEntity
  8
寸法線
100
AcDbCircle
 10
23.793868505012
 20
453.056163598837
 30
0.0
 40
6.0
100
AcDbArc
 50
150.0
 51
210.0
  0
ARC
  5
4C38
330
1A
100
AcDbEntity
  8
寸法線
100
AcDbCircle
 10
23.793868505012
 20
447.056163598837
 30
0.0
 40
6.0
100
AcDbArc
 50
150.0
 51
209.999999999999
  0
ARC
  5
4C39
330
1A
100
AcDbEntity
  8
寸法線
100
AcDbCircle
 10
13.401563659598
 20
447.056163598837
 30
0.0
 40
6.0
100
AcDbArc
 50
330.0
 51
30.0
  0
LINE
  5
4C3A
330
1A
100
AcDbEntity
  8
寸法線
100
AcDbLine
 10
74.097704082305
 20
450.056163598837
 30
0.0
 11
108.597704082305
 21
450.056163598837
 31
0.0
  0
LINE
  5
4C3B
330
1A
100
AcDbEntity
  8
寸法線
100
AcDbLine
 10
108.597704082305
 20
457.556163598837
 30
0.0
 11
80.579889582305
 21
457.556163598837
 31
0.0
  0
LINE
  5
4C3C
330
1A
100
AcDbEntity
  8
寸法線
100
AcDbLine
 10
108.597704082305
 20
465.056163598837
 30
0.0
 11
80.729829582305
 21
465.056163598837
 31
0.0
  0
LINE
  5
4C3D
330
1A
100
AcDbEntity
  8
寸法線
100
AcDbLine
 10
77.896638582305
 20
463.042598098837
 30
0.0
 11
75.562616082305
 21
456.338877598837
 31
0.0
  0
LINE
  5
4C3E
330
1A
100
AcDbEntity
  8
寸法線
100
AcDbLine
 10
74.146020582305
 20
455.332095598837
 30
0.0
 11
74.097704082305
 21
455.332095598837
 31
0.0
  0
LINE
  5
4C3F
330
1A
100
AcDbEntity
  8
寸法線
100
AcDbLine
 10
77.820284082305
 20
455.732810098837
 30
0.0
 11
77.145197082305
 21
454.149554098837
 31
0.0
  0
LINE
  5
4C40
330
1A
100
AcDbEntity
  8
寸法線
100
AcDbLine
 10
75.075488082305
 20
452.782043098837
 30
0.0
 11
74.097704082305
 21
452.782043098837
 31
0.0
  0
ARC
  5
4C41
330
1A
100
AcDbEntity
  8
寸法線
100
AcDbCircle
 10
80.729829582305
 20
462.056163598837
 30
0.0
 40
3.0
100
AcDbArc
 50
89.999981276032
 51
160.80341269666
  0
ARC
  5
4C42
330
1A
100
AcDbEntity
  8
寸法線
100
AcDbCircle
 10
80.579889582305
 20
454.556163598837
 30
0.0
 40
3.0
100
AcDbArc
 50
89.999981276032
 51
156.907528872886
  0
ARC
  5
4C43
330
1A
100
AcDbEntity
  8
寸法線
100
AcDbCircle
 10
74.146020582305
 20
456.832095598837
 30
0.0
 40
1.5
100
AcDbArc
 50
270.0
 51
340.803432544508
  0
ARC
  5
4C44
330
1A
100
AcDbEntity
  8
寸法線
100
AcDbCircle
 10
75.075488082305
 20
455.032043098837
 30
0.0
 40
2.25
100
AcDbArc
 50
270.0
 51
336.907491424954
  0
LINE
  5
4C45
330
1A
100
AcDbEntity
  8
寸法線
100
AcDbLine
 10
108.597704082305
 20
435.056163598837
 30
0.0
 11
80.729829582305
 21
435.056163598837
 31
0.0
  0
ARC
  5
4C46
330
1A
100
AcDbEntity
  8
寸法線
100
AcDbCircle
 10
80.729829582305
 20
438.056163598837
 30
0.0
 40
3.0
100
AcDbArc
 50
199.196626999025
 51
270.0
  0
LINE
  5
4C47
330
1A
100
AcDbEntity
  8
寸法線
100
AcDbLine
 10
108.597704082305
 20
442.556163598837
 30
0.0
 11
80.579889582305
 21
442.556163598837
 31
0.0
  0
ARC
  5
4C48
330
1A
100
AcDbEntity
  8
寸法線
100
AcDbCircle
 10
80.579889582305
 20
445.556163598837
 30
0.0
 40
3.0
100
AcDbArc
 50
203.092510822795
 51
270.0
  0
LINE
  5
4C49
330
1A
100
AcDbEntity
  8
寸法線
100
AcDbLine
 10
74.146020582305
 20
444.780230098837
 30
0.0
 11
74.097704082305
 21
444.780230098837
 31
0.0
  0
LINE
  5
4C4A
330
1A
100
AcDbEntity
  8
寸法線
100
AcDbLine
 10
77.896638582305
 20
437.069727598837
 30
0.0
 11
75.562616082305
 21
443.773448098837
 31
0.0
  0
ARC
  5
4C4B
330
1A
100
AcDbEntity
  8
寸法線
100
AcDbCircle
 10
74.146020582305
 20
443.280230098837
 30
0.0
 40
1.5
100
AcDbArc
 50
19.196607151182
 51
89.999981276032
  0
LINE
  5
4C4C
330
1A
100
AcDbEntity
  8
寸法線
100
AcDbLine
 10
77.820284082305
 20
444.379515598837
 30
0.0
 11
77.145197082305
 21
445.962771598837
 31
0.0
  0
LINE
  5
4C4D
330
1A
100
AcDbEntity
  8
寸法線
100
AcDbLine
 10
75.075488082305
 20
447.330284098837
 30
0.0
 11
74.097704082305
 21
447.330284098837
 31
0.0
  0
ARC
  5
4C4E
330
1A
100
AcDbEntity
  8
寸法線
100
AcDbCircle
 10
75.075488082305
 20
445.080284098837
 30
0.0
 40
2.25
100
AcDbArc
 50
23.092490974952
 51
89.999981276031
  0
TEXT
  5
4C4F
330
1A
100
AcDbEntity
  8
寸法線
100
AcDbText
 10
31.493868582305
 20
446.908488598837
 30
0.0
 40
6.75
  1
リード線
 41
0.869565217391
  7
EXCADSTD
 72
     5
 11
58.493868582305
 21
446.908488598837
 31
0.0
100
AcDbText
  0
TEXT
  5
4C50
330
1A
100
AcDbEntity
  8
寸法線
100
AcDbText
 10
92.545100082305
 20
466.183881598837
 30
0.0
 40
5.25
  1
ク　ロ
 41
0.918367346939
  7
EXCADSTD
 72
     5
 11
108.295100082305
 21
466.183881598837
 31
0.0
100
AcDbText
  0
TEXT
  5
4C51
330
1A
100
AcDbEntity
  8
寸法線
100
AcDbText
 10
92.695109082305
 20
458.533722598837
 30
0.0
 40
5.25
  1
シ　ロ
 41
0.918367346939
  7
EXCADSTD
 72
     5
 11
108.445109082305
 21
458.533722598837
 31
0.0
100
AcDbText
  0
TEXT
  5
4C52
330
1A
100
AcDbEntity
  8
寸法線
100
AcDbText
 10
92.695109082305
 20
450.883571098837
 30
0.0
 40
5.25
  1
ア　カ
 41
0.909090909091
  7
EXCADSTD
 72
     5
 11
108.445109082305
 21
450.883571098837
 31
0.0
100
AcDbText
  0
TEXT
  5
4C53
330
1A
100
AcDbEntity
  8
寸法線
100
AcDbText
 10
97.945223082305
 20
443.383410598837
 30
0.0
 40
5.25
  1
キ
 41
1.071428571429
  7
EXCADSTD
 72
     5
 11
103.195223082305
 21
443.383410598837
 31
0.0
100
AcDbText
  0
TEXT
  5
4C54
330
1A
100
AcDbEntity
  8
寸法線
100
AcDbText
 10
92.695109082305
 20
435.733253098837
 30
0.0
 40
5.25
  1
ミドリ
 41
0.947368421053
  7
EXCADSTD
 72
     5
 11
108.445109082305
 21
435.733253098837
 31
0.0
100
AcDbText
  0
TEXT
  5
4C55
330
1A
100
AcDbEntity
  8
寸法線
100
AcDbText
 10
-23.641355990218
 20
489.697862098837
 30
0.0
 40
6.724137931034
  1
シ　ロ
  7
EXCADVERT
 72
     3
 11
-23.641355990218
 21
470.197862098837
 31
0.0
100
AcDbText
  0
TEXT
  5
4C56
330
1A
100
AcDbEntity
  8
寸法線
100
AcDbText
 10
113.247095082305
 20
458.122359598837
 30
0.0
 40
7.5
  1
電源
 41
0.923076923077
  7
EXCADSTD
 72
     5
 11
128.247095082305
 21
458.122359598837
 31
0.0
100
AcDbText
  0
TEXT
  5
4C57
330
1A
100
AcDbEntity
  8
寸法線
100
AcDbText
 10
116.322099582305
 20
453.772139098837
 30
0.0
 40
7.336956521739
  1
ＨＣＬ
  7
EXCADVERT
 72
     3
 11
116.322099582305
 21
431.272139098837
 31
0.0
100
AcDbText
  0
LINE
  5
4C58
330
1A
100
AcDbEntity
  8
寸法線
100
AcDbLine
 10
-65.711262917695
 20
534.056168098837
 30
0.0
 11
-56.072270417695
 21
534.056168098837
 31
0.0
  0
LINE
  5
4C59
330
1A
100
AcDbEntity
  8
寸法線
100
AcDbLine
 10
-56.072270417695
 20
534.056168098837
 30
0.0
 11
-56.072270417695
 21
519.276353098837
 31
0.0
  0
LINE
  5
4C5A
330
1A
100
AcDbEntity
  8
寸法線
100
AcDbLine
 10
-44.291265917695
 20
534.056168098837
 30
0.0
 11
-34.652273417695
 21
534.056168098837
 31
0.0
  0
LINE
  5
4C5B
330
1A
100
AcDbEntity
  8
寸法線
100
AcDbLine
 10
-19.872479417695
 20
534.056168098837
 30
0.0
 11
-4.878476417695
 21
534.056168098837
 31
0.0
  0
TEXT
  5
4C5C
330
1A
100
AcDbEntity
  8
寸法線
100
AcDbText
 10
-9.379437917695
 20
506.581010098837
 30
0.0
 40
9.0
  1
Ｍ
 41
1.25
  7
EXCADSTD
 72
     5
 11
-0.379437917695
 21
506.581010098837
 31
0.0
100
AcDbText
  0
LINE
  5
4C5D
330
1A
100
AcDbEntity
  8
寸法線
100
AcDbLine
 10
-4.878476417695
 20
534.056168098837
 30
0.0
 11
-4.878476417695
 21
518.131440598837
 31
0.0
  0
CIRCLE
  5
4C5E
330
1A
100
AcDbEntity
  8
寸法線
100
AcDbCircle
 10
-50.181768917695
 20
505.910775598837
 30
0.0
 40
1.2000045
  0
CIRCLE
  5
4C5F
330
1A
100
AcDbEntity
  8
寸法線
100
AcDbCircle
 10
-19.872479417695
 20
505.910775598837
 30
0.0
 40
1.2000045
  0
CIRCLE
  5
4C60
330
1A
100
AcDbEntity
  8
寸法線
100
AcDbCircle
 10
-56.072270417695
 20
518.076348598837
 30
0.0
 40
1.2000045
  0
LINE
  5
4C61
330
1A
100
AcDbEntity
  8
寸法線
100
AcDbLine
 10
-44.291265917695
 20
534.056168098837
 30
0.0
 11
-44.291265917695
 21
519.276353098837
 31
0.0
  0
CIRCLE
  5
4C62
330
1A
100
AcDbEntity
  8
寸法線
100
AcDbCircle
 10
-44.291265917695
 20
518.076348598837
 30
0.0
 40
1.2000045
  0
LINE
  5
4C63
330
1A
100
AcDbEntity
  8
寸法線
100
AcDbLine
 10
-19.872479417695
 20
534.056168098837
 30
0.0
 11
-19.872479417695
 21
519.276353098837
 31
0.0
  0
CIRCLE
  5
4C64
330
1A
100
AcDbEntity
  8
寸法線
100
AcDbCircle
 10
-19.872479417695
 20
518.076348598837
 30
0.0
 40
1.2000045
  0
LINE
  5
4C65
330
1A
100
AcDbEntity
  8
寸法線
100
AcDbLine
 10
-50.181768917695
 20
507.110768098837
 30
0.0
 11
-54.872265917695
 21
518.076348598837
 31
0.0
  0
LINE
  5
4C66
330
1A
100
AcDbEntity
  8
寸法線
100
AcDbLine
 10
-19.872479417695
 20
507.110768098837
 30
0.0
 11
-18.672474917695
 21
518.076348598837
 31
0.0
  0
CIRCLE
  5
4C67
330
1A
100
AcDbEntity
  8
寸法線
100
AcDbCircle
 10
-4.872800417695
 20
511.248093598837
 30
0.0
 40
6.883348499999999
  0
MTEXT
  5
4C68
102
{ACAD_XDICTIONARY
360
4C69
102
}
330
1A
100
AcDbEntity
  8
寸法線
 48
10.0
100
AcDbMText
 10
107.965731317591
 20
532.932221755847
 30
0.0
 40
7.0
 41
158.221086696158
 71
     1
 72
     5
  1
\H0.8571x;塗　装　色：7.5BG4/1.5\P接点　容量：AC250V5A\P静止トルク：約4.9N・cm（約500g・cm）\P回　転　数：1RPM
1001
ACADANNOTATIVE
1000
AnnotativeData
1002
{
1070
     1
1070
     0
1002
}
  0
DIMENSION
  5
4C6C
330
1A
100
AcDbEntity
  8
寸法線
 48
10.0
100
AcDbDimension
  2
*D38
 10
208.107240803633
 20
639.347506133239
 30
0.0
 11
208.107240803633
 21
684.268836219129
 31
0.0
 70
   160
  1
G 3/4"
  3
ISO-25
100
AcDbAlignedDimension
 13
202.958274478347
 23
665.788506133239
 33
0.0
 14
202.958274478347
 24
639.347506133239
 34
0.0
 50
90.0
100
AcDbRotatedDimension
1001
ACAD
1000
DSTYLE
1002
{
1070
     5
1000
OPEN30
1070
    41
1040
6.0
1070
    47
1040
0.1
1070
    48
1040
0.1
1070
    73
1070
     0
1070
   140
1040
6.0
1070
   271
1070
     1
1070
   272
1070
     1
1070
   341
1005
2AF4
1002
}
  0
MTEXT
  5
4C6D
330
1A
100
AcDbEntity
  8
寸法線
 48
10.0
100
AcDbMText
 10
348.182850784174
 20
585.665550658423
 30
0.0
 40
6.0
 41
51.077111820171
 71
     1
 72
     5
  1
リード線0.5m付
  0
LEADER
  5
4C6E
330
1A
100
AcDbEntity
  8
寸法線
 48
10.0
100
AcDbLeader
  3
ISO-25
 76
     2
 10
333.959829491289
 20
575.209664593304
 30
0.0
 10
347.356849087877
 20
580.228617206378
 30
0.0
1001
ACAD
1000
DSTYLE
1002
{
1070
     5
1000
OPEN30
1070
   147
1040
0.625
1070
    77
1070
     0
1070
    41
1040
6.0
1070
    47
1040
0.1
1070
    48
1040
0.1
1070
    73
1070
     0
1070
   140
1040
5.0
1070
   271
1070
     1
1070
   272
1070
     1
1070
   341
1005
2AF4
1070
   342
1005
2AF4
1002
}
  0
MTEXT
  5
4C6F
102
{ACAD_XDICTIONARY
360
4C70
102
}
330
1A
100
AcDbEntity
  8
寸法線
 48
10.0
100
AcDbMText
 10
17.355849296396
 20
531.054958801042
 30
0.0
 40
6.0
 41
168.503621648242
 71
     1
 72
     5
  1
御仕様   電源電圧\P       AC100/110V\P       AC200/220V
1001
ACADANNOTATIVE
1000
AnnotativeData
1002
{
1070
     1
1070
     0
1002
}
  0
MTEXT
  5
4C73
102
{ACAD_XDICTIONARY
360
4C74
102
}
330
1A
100
AcDbEntity
  8
寸法線
 48
10.0
100
AcDbMText
 10
18.536570889208
 20
501.507785078478
 30
0.0
 40
6.0
 41
161.650793650794
 71
     1
 72
     5
  1
\W0.7;○印が今回の貴社の御仕様です。
1001
ACADANNOTATIVE
1000
AnnotativeData
1002
{
1070
     1
1070
     0
1002
}
  0
LINE
  5
4C77
330
1A
100
AcDbEntity
  8
寸法線
 48
10.0
100
AcDbLine
 10
40.622787302932
 20
533.164419461306
 30
0.0
 11
40.622787302932
 21
503.722290504687
 31
0.0
  0
LINE
  5
4C78
330
1A
100
AcDbEntity
  8
寸法線
 48
10.0
100
AcDbLine
 10
15.005564809924
 20
522.86093464192
 30
0.0
 11
88.45340579829
 21
522.86093464192
 31
0.0
  0
LINE
  5
4C79
330
1A
100
AcDbEntity
  8
寸法線
 48
10.0
100
AcDbLine
 10
15.005564809924
 20
533.164419461306
 30
0.0
 11
88.45340579829
 21
533.164419461306
 31
0.0
  0
LINE
  5
4C7A
330
1A
100
AcDbEntity
  8
寸法線
 48
10.0
100
AcDbLine
 10
88.45340579829
 20
533.164419461306
 30
0.0
 11
88.45340579829
 21
503.722290504687
 31
0.0
  0
LINE
  5
4C7B
330
1A
100
AcDbEntity
  8
寸法線
 48
10.0
100
AcDbLine
 10
15.005564809924
 20
512.974955420233
 30
0.0
 11
88.45340579829
 21
512.974955420233
 31
0.0
  0
LINE
  5
4C7C
330
1A
100
AcDbEntity
  8
寸法線
 48
10.0
100
AcDbLine
 10
15.005564809924
 20
503.722290504687
 30
0.0
 11
88.45340579829
 21
503.722290504687
 31
0.0
  0
LINE
  5
4C7D
330
1A
100
AcDbEntity
  8
寸法線
 48
10.0
100
AcDbLine
 10
15.005564809924
 20
533.164419461306
 30
0.0
 11
15.005564809924
 21
503.722290504687
 31
0.0
  0
LINE
  5
4C7E
330
1A
100
AcDbEntity
  8
外形線
100
AcDbLine
 10
342.158238478347
 20
616.867979133239
 30
0.0
 11
342.158238478347
 21
678.068006133239
 31
0.0
  0
LINE
  5
4C7F
330
1A
100
AcDbEntity
  8
外形線
100
AcDbLine
 10
342.158238478347
 20
678.068006133239
 30
0.0
 11
354.358218978347
 21
678.068006133239
 31
0.0
  0
LINE
  5
4C80
330
1A
100
AcDbEntity
  8
外形線
100
AcDbLine
 10
344.658238478347
 20
607.068006133239
 30
0.0
 11
344.658238478347
 21
678.068006133239
 31
0.0
  0
LINE
  5
4C81
330
1A
100
AcDbEntity
  8
外形線
100
AcDbLine
 10
343.392348751819
 20
607.068006133239
 30
0.0
 11
354.358218978347
 21
607.068006133239
 31
0.0
  0
LINE
  5
4C82
330
1A
100
AcDbEntity
  8
外形線
100
AcDbLine
 10
342.158238478347
 20
675.968006133239
 30
0.0
 11
316.358238478347
 21
675.668006133239
 31
0.0
  0
LINE
  5
4C83
330
1A
100
AcDbEntity
  8
外形線
100
AcDbLine
 10
312.158238478347
 20
671.468006133239
 30
0.0
 11
314.158238478347
 21
671.468006133239
 31
0.0
  0
LINE
  5
4C84
330
1A
100
AcDbEntity
  8
外形線
100
AcDbLine
 10
314.158238478347
 20
671.468006133239
 30
0.0
 11
314.158238478347
 21
671.468006133239
 31
0.0
  0
LINE
  5
4C85
330
1A
100
AcDbEntity
  8
外形線
100
AcDbLine
 10
312.158238478347
 20
633.668006133239
 30
0.0
 11
314.158238478347
 21
633.668006133239
 31
0.0
  0
LINE
  5
4C86
330
1A
100
AcDbEntity
  8
外形線
100
AcDbLine
 10
312.158238478347
 20
633.668006133239
 30
0.0
 11
312.158238478347
 21
671.468006133239
 31
0.0
  0
LINE
  5
4C87
330
1A
100
AcDbEntity
  8
外形線
100
AcDbLine
 10
314.158238478347
 20
673.468006133239
 30
0.0
 11
314.158238478347
 21
611.668006133239
 31
0.0
  0
ARC
  5
4C88
330
1A
100
AcDbEntity
  8
外形線
100
AcDbCircle
 10
316.358238478347
 20
673.468006133239
 30
0.0
 40
2.2
100
AcDbArc
 50
90.0
 51
180.0
  0
ARC
  5
4C89
330
1A
100
AcDbEntity
  8
外形線
100
AcDbCircle
 10
316.358238478347
 20
611.668006133239
 30
0.0
 40
2.2
100
AcDbArc
 50
180.0
 51
263.74853862103
  0
LWPOLYLINE
  5
4C8A
330
1A
100
AcDbEntity
  8
細線
100
AcDbPolyline
 90
        2
 70
     0
 43
0.0
 10
202.458274478347
 20
640.509506133239
 10
213.058256478347
 20
640.509506133239
  0
LWPOLYLINE
  5
4C8B
330
1A
100
AcDbEntity
  8
細線
100
AcDbPolyline
 90
        2
 70
     0
 43
0.0
 10
213.058256478347
 20
664.626506133239
 10
202.458274478347
 20
664.626506133239
  0
LWPOLYLINE
  5
4C8C
330
1A
100
AcDbEntity
  8
外形線
100
AcDbPolyline
 90
        6
 70
     0
 43
0.0
 10
213.058256478347
 20
665.788506133239
 10
202.958274478347
 20
665.788506133239
 10
202.458274478347
 20
665.288506133239
 10
202.458274478347
 20
639.847506133239
 10
202.958274478347
 20
639.347506133239
 10
213.058256478347
 20
639.347506133239
  0
LINE
  5
4C8D
330
1A
100
AcDbEntity
  8
外形線
100
AcDbLine
 10
216.058223973494
 20
663.044847207508
 30
0.0
 11
220.058256478347
 21
663.068006133239
 31
0.0
  0
LINE
  5
4C8E
330
1A
100
AcDbEntity
  8
外形線
100
AcDbLine
 10
220.058256478347
 20
675.068006133239
 30
0.0
 11
220.058256478347
 21
630.068006133239
 31
0.0
  0
LINE
  5
4C8F
330
1A
100
AcDbEntity
  8
外形線
100
AcDbLine
 10
220.058256478347
 20
675.068006133239
 30
0.0
 11
221.658256478347
 21
675.068006133239
 31
0.0
  0
LINE
  5
4C90
330
1A
100
AcDbEntity
  8
外形線
100
AcDbLine
 10
213.058256478347
 20
634.544840894131
 30
0.0
 11
213.058256478347
 21
670.544840894131
 31
0.0
  0
LINE
  5
4C91
330
1A
100
AcDbEntity
  8
外形線
100
AcDbLine
 10
213.058256478347
 20
670.544840894131
 30
0.0
 11
216.081399043716
 21
673.568006133239
 31
0.0
  0
LINE
  5
4C92
330
1A
100
AcDbEntity
  8
外形線
100
AcDbLine
 10
216.035068912978
 20
631.568006133239
 30
0.0
 11
220.058256478347
 21
631.568006133239
 31
0.0
  0
LINE
  5
4C93
330
1A
100
AcDbEntity
  8
外形線
100
AcDbLine
 10
216.043828285292
 20
642.068006133239
 30
0.0
 11
220.058256478347
 21
642.068006133239
 31
0.0
  0
LINE
  5
4C94
330
1A
100
AcDbEntity
  8
外形線
100
AcDbLine
 10
220.058256478347
 20
630.068006133239
 30
0.0
 11
221.658256478347
 21
630.068006133239
 31
0.0
  0
LINE
  5
4C95
330
1A
100
AcDbEntity
  8
外形線
100
AcDbLine
 10
213.058256478347
 20
634.544840894131
 30
0.0
 11
216.035068912978
 21
631.568006133239
 31
0.0
  0
ARC
  5
4C96
330
1A
100
AcDbEntity
  8
外形線
100
AcDbCircle
 10
232.933371978347
 20
652.544840894131
 30
0.0
 40
19.875129
100
AcDbArc
 50
148.109418153978
 51
211.890564245926
  0
ARC
  5
4C97
330
1A
100
AcDbEntity
  8
外形線
100
AcDbCircle
 10
224.059896978347
 20
670.595447894131
 30
0.0
 40
11.0017755
100
AcDbArc
 50
180.263580433607
 51
223.338604767318
  0
ARC
  5
4C98
330
1A
100
AcDbEntity
  8
外形線
100
AcDbCircle
 10
224.059896978347
 20
634.494235394131
 30
0.0
 40
11.0017755
100
AcDbArc
 50
136.66137763259
 51
179.736401966304
  0
LINE
  5
4C99
330
1A
100
AcDbEntity
  8
外形線
100
AcDbLine
 10
221.658256478347
 20
675.068006133239
 30
0.0
 11
221.658256478347
 21
630.068006133239
 31
0.0
  0
LINE
  5
4C9A
330
1A
100
AcDbEntity
  8
外形線
 48
10.0
100
AcDbLine
 10
220.058256478347
 20
673.568006133239
 30
0.0
 11
216.081399043716
 21
673.568006133239
 31
0.0
  0
DIMENSION
  5
4C9B
330
1A
100
AcDbEntity
  8
寸法線
 48
10.0
100
AcDbDimension
  2
*D39
 10
413.110996397573
 20
607.068006133239
 30
0.0
 11
413.110996397573
 21
642.742979133239
 31
0.0
 70
   160
  1
φ72
  3
ISO-25
100
AcDbAlignedDimension
 13
354.358218978347
 23
678.068006133239
 33
0.0
 14
354.358218978347
 24
607.068006133239
 34
0.0
 50
90.0
100
AcDbRotatedDimension
1001
ACAD
1000
DSTYLE
1002
{
1070
     5
1000
OPEN30
1070
    41
1040
6.0
1070
    47
1040
0.1
1070
    48
1040
0.1
1070
    73
1070
     0
1070
   140
1040
6.0
1070
   271
1070
     1
1070
   272
1070
     1
1070
   341
1005
2AF4
1002
}
  0
LINE
  5
4C9C
330
1A
100
AcDbEntity
  8
外形線
100
AcDbLine
 10
395.158238478347
 20
617.992979133239
 30
0.0
 11
395.158238478347
 21
667.492979133239
 31
0.0
  0
LINE
  5
4C9D
330
1A
100
AcDbEntity
  8
外形線
100
AcDbLine
 10
393.658238478347
 20
614.783369133239
 30
0.0
 11
393.658238478347
 21
670.702589133239
 31
0.0
  0
LINE
  5
4C9E
330
1A
100
AcDbEntity
  8
外形線
100
AcDbLine
 10
354.358218978347
 20
678.068006133239
 30
0.0
 11
354.358218978347
 21
607.068006133239
 31
0.0
  0
LINE
  5
4C9F
330
1A
100
AcDbEntity
  8
外形線
100
AcDbLine
 10
354.358218978347
 20
608.617979133239
 30
0.0
 11
389.372699478347
 21
610.288496133239
 31
0.0
  0
LINE
  5
4CA0
330
1A
100
AcDbEntity
  8
外形線
100
AcDbLine
 10
395.158238478347
 20
617.992979133239
 30
0.0
 11
393.658238478347
 21
617.992979133239
 31
0.0
  0
ARC
  5
4CA1
330
1A
100
AcDbEntity
  8
外形線
100
AcDbCircle
 10
389.158238478347
 20
614.783369133239
 30
0.0
 40
4.5
100
AcDbArc
 50
272.731520116378
 51
359.999982399908
  0
LINE
  5
4CA2
330
1A
100
AcDbEntity
  8
外形線
100
AcDbLine
 10
354.358218978347
 20
676.867979133239
 30
0.0
 11
389.372699478347
 21
675.197462133239
 31
0.0
  0
LINE
  5
4CA3
330
1A
100
AcDbEntity
  8
外形線
100
AcDbLine
 10
395.158238478347
 20
667.492979133239
 30
0.0
 11
393.658238478347
 21
667.492979133239
 31
0.0
  0
ARC
  5
4CA4
330
1A
100
AcDbEntity
  8
外形線
100
AcDbCircle
 10
389.158238478347
 20
670.702589133239
 30
0.0
 40
4.5
100
AcDbArc
 50
0.0
 51
87.268519579299
  0
LINE
  5
4CA5
330
1A
100
AcDbEntity
  8
外形線
100
AcDbLine
 10
346.158238478347
 20
607.068006133239
 30
0.0
 11
346.158238478347
 21
678.068006133239
 31
0.0
  0
LINE
  5
4CA6
330
1A
100
AcDbEntity
  8
中心線
 48
10.0
100
AcDbLine
 10
329.508229478346
 20
621.532820133239
 30
0.0
 11
329.508229478346
 21
566.099201133239
 31
0.0
  0
LINE
  5
4CA7
330
1A
100
AcDbEntity
  8
外形線
100
AcDbLine
 10
325.270711478347
 20
569.130597760706
 30
0.0
 11
325.270711478347
 21
582.314201133239
 31
0.0
  0
LINE
  5
4CA8
330
1A
100
AcDbEntity
  8
外形線
100
AcDbLine
 10
333.670675478347
 20
569.130597760706
 30
0.0
 11
333.670675478347
 21
582.314201133239
 31
0.0
  0
ARC
  5
4CA9
330
1A
100
AcDbEntity
  8
細線
100
AcDbCircle
 10
327.370703666994
 20
572.767890926942
 30
0.0
 40
4.199982
100
AcDbArc
 50
239.999981276043
 51
299.999981276019
  0
ARC
  5
4CAA
330
1A
100
AcDbEntity
  8
細線
100
AcDbCircle
 10
331.570685666994
 20
572.767889554411
 30
0.0
 40
4.199982
100
AcDbArc
 50
239.999981276043
 51
299.999981276019
  0
ARC
  5
4CAB
330
1A
100
AcDbEntity
  8
細線
100
AcDbCircle
 10
331.570683289699
 20
565.493307339536
 30
0.0
 40
4.199982
100
AcDbArc
 50
59.999981276044
 51
119.999981276019
  0
LINE
  5
4CAC
330
1A
100
AcDbEntity
  8
外形線
100
AcDbLine
 10
322.566169841611
 20
606.387207578989
 30
0.0
 11
315.624110204875
 21
600.375207578989
 31
0.0
  0
LINE
  5
4CAD
330
1A
100
AcDbEntity
  8
外形線
100
AcDbLine
 10
336.450289115082
 20
606.387207578989
 30
0.0
 11
343.392348751819
 21
600.375207578989
 31
0.0
  0
LINE
  5
4CAE
330
1A
100
AcDbEntity
  8
外形線
100
AcDbLine
 10
336.450289115082
 20
597.709633033069
 30
0.0
 11
336.450289115082
 21
606.387207578989
 31
0.0
  0
LINE
  5
4CAF
330
1A
100
AcDbEntity
  8
外形線
100
AcDbLine
 10
322.566169841611
 20
597.709633033069
 30
0.0
 11
322.566169841611
 21
606.387207578989
 31
0.0
  0
LWPOLYLINE
  5
4CB0
330
1A
100
AcDbEntity
  8
外形線
100
AcDbPolyline
 90
       47
 70
     0
 43
0.0
 10
333.670673978346
 20
581.222893470458
 10
334.129927769245
 20
581.337763914812
 10
334.538545266514
 20
581.463983532658
 10
334.892049571347
 20
581.600169435449
 10
335.186567616605
 20
581.744829541938
 10
335.418872600951
 20
581.896378925723
 10
335.586419342365
 20
582.053157180042
 10
335.687372163684
 20
582.213446609536
 10
335.720625004676
 20
582.375491049668
 10
335.685813540253
 20
582.537515107646
 10
335.583319172105
 20
582.697743613984
 10
335.414264849978
 20
582.854421071635
 10
335.180502768402
 20
583.005830889586
 10
334.884594073661
 20
583.150314190189
 10
334.529780803338
 20
583.286287984166
 10
334.119950365869
 20
583.412262514177
 10
333.659592949294
 20
583.526857576909
 10
333.153752325802
 20
583.628817644873
 10
332.607970591118
 20
583.71702562223
 10
332.028227444139
 20
583.79051508392
 10
331.420874672105
 20
583.848480864022
 10
330.792566559081
 20
583.890287877319
 10
330.150186980236
 20
583.915478077424
 10
329.500773980662
 20
583.923775475236
 10
328.85144266508
 20
583.915089162725
 10
328.209307243265
 20
583.889514308951
 10
327.581403085275
 20
583.847331117362
 10
326.974609640463
 20
583.789001755834
 10
326.395575064789
 20
583.715165293056
 10
325.850643382234
 20
583.626630696769
 10
325.345784978347
 20
583.524367970534
 10
324.886531187449
 20
583.40949752618
 10
324.47791369018
 20
583.283277908335
 10
324.124409385346
 20
583.147092005543
 10
323.829891340089
 20
583.002431899055
 10
323.597586355742
 20
582.850882515269
 10
323.430039614329
 20
582.69410426095
 10
323.329086793009
 20
582.533814831457
 10
323.295833952017
 20
582.371770391323
 10
323.330645416441
 20
582.209746333346
 10
323.433139784588
 20
582.049517827009
 10
323.602194106715
 20
581.892840369357
 10
323.835956188291
 20
581.741430551407
 10
324.131864883032
 20
581.596947250804
 10
324.486678153356
 20
581.460973456826
 10
324.896508590823
 20
581.334998926814
 10
325.270711478347
 20
581.240082044947
  0
ARC
  5
4CB1
330
1A
100
AcDbEntity
  8
外形線
100
AcDbCircle
 10
329.508229478346
 20
614.560411787197
 30
0.0
 40
34.15159996140045
100
AcDbArc
 50
255.26831657715
 51
262.87239111701
  0
LWPOLYLINE
  5
4CB2
330
1A
100
AcDbEntity
  8
外形線
100
AcDbPolyline
 90
       34
 70
     0
 43
0.0
 10
341.181529478346
 20
589.788566632967
 10
341.127787920746
 20
590.347984744414
 10
340.967058078886
 20
590.902251955831
 10
340.700819889383
 20
591.446264794632
 10
340.331524767862
 20
591.975014206427
 10
339.862573037286
 20
592.483631676406
 10
339.298282619144
 20
592.967434056688
 10
338.643849275732
 20
593.421966686897
 10
337.905298769639
 20
593.843044410907
 10
337.089431380919
 20
594.226790112086
 10
336.203759292803
 20
594.569670412267
 10
335.256437422502
 20
594.868528205675
 10
334.256188333964
 20
595.120611728317
 10
333.212221923961
 20
595.323599895127
 10
332.134150621019
 20
595.475623671597
 10
331.031900877989
 20
595.575283283103
 10
329.915621773203
 20
595.621661103488
 10
328.795591561795
 20
595.614330104176
 10
327.682123037593
 20
595.553357786102
 10
326.585468577018
 20
595.43930555818
 10
325.515725739263
 20
595.273223568077
 10
324.482744291975
 20
595.056641032868
 10
323.496035518499
 20
594.79155215861
 10
322.564684641763
 20
594.480397778488
 10
321.697267171137
 20
594.126042878589
 10
320.901769942561
 20
593.731750218247
 10
320.185517578912
 20
593.301150287847
 10
319.555105047793
 20
592.838207880716
 10
319.016336937683
 20
592.347185586874
 10
318.574174011593
 20
591.832604544796
 10
318.232687530326
 20
591.299202812564
 10
317.995021765922
 20
590.751891741713
 10
317.863365050449
 20
590.195710755446
 10
317.834929478347
 20
589.788566632967
  0
ARC
  5
4CB3
330
1A
100
AcDbEntity
  8
外形線
100
AcDbCircle
 10
329.508229478346
 20
609.377026445266
 30
0.0
 40
13.57645981229912
100
AcDbArc
 50
239.247497502359
 51
300.75250249764
  0
LINE
  5
4CB4
330
1A
100
AcDbEntity
  8
外形線
100
AcDbLine
 10
317.834929478346
 20
589.788566632967
 30
0.0
 11
317.834929478346
 21
585.40771389244
 31
0.0
  0
ARC
  5
4CB5
330
1A
100
AcDbEntity
  8
外形線
100
AcDbCircle
 10
321.842929478346
 20
585.40771389244
 30
0.0
 40
4.007999999999999
100
AcDbArc
 50
180.0
 51
255.26831657715
  0
ARC
  5
4CB6
330
1A
100
AcDbEntity
  8
外形線
100
AcDbCircle
 10
315.115478287373
 20
599.298950582045
 30
0.0
 40
7.618315752702329
100
AcDbArc
 50
273.828163206422
 51
347.958626091838
  0
LINE
  5
4CB7
330
1A
100
AcDbEntity
  8
外形線
100
AcDbLine
 10
317.832178361144
 20
589.785389916452
 30
0.0
 11
315.624110204875
 21
591.697633033069
 31
0.0
  0
LINE
  5
4CB8
330
1A
100
AcDbEntity
  8
外形線
100
AcDbLine
 10
315.624110204875
 20
600.375207578989
 30
0.0
 11
315.624110204875
 21
591.697633033069
 31
0.0
  0
LINE
  5
4CB9
330
1A
100
AcDbEntity
  8
外形線
100
AcDbLine
 10
341.181529478346
 20
589.788566632967
 30
0.0
 11
341.181529478346
 21
585.40771389244
 31
0.0
  0
LWPOLYLINE
  5
4CBA
330
1A
100
AcDbEntity
  8
外形線
100
AcDbPolyline
 90
       29
 70
     0
 43
0.0
 10
333.670673978346
 20
582.31420113324
 10
333.643675892716
 20
582.416172600566
 10
333.563028731006
 20
582.516833093275
 10
333.429769316406
 20
582.614888491017
 10
333.245610870415
 20
582.709078165294
 10
333.012920987171
 20
582.798191186468
 10
332.734691194979
 20
582.881081891815
 10
332.414498496358
 20
582.956684614501
 10
332.056459381061
 20
583.024027384102
 10
331.665176903306
 20
583.082244422531
 10
331.245681503565
 20
583.130587274741
 10
330.803366335786
 20
583.168434431069
 10
330.343917931438
 20
583.195299317548
 10
329.873243091824
 20
583.210836551443
 10
329.397392948543
 20
583.214846381591
 10
328.922485168388
 20
583.207277256458
 10
328.454625302864
 20
583.188226486901
 10
327.999828293446
 20
583.157938995112
 10
327.563941141763
 20
583.116804165829
 10
327.152567738855
 20
583.065350840291
 10
326.770996819931
 20
583.004240517301
 10
326.424133970864
 20
582.934258848812
 10
326.116438560564
 20
582.856305539354
 10
325.851866410039
 20
582.771382779175
 10
325.633818935225
 20
582.680582359792
 10
325.465099417397
 20
582.585071637605
 10
325.347876963376
 20
582.486078526027
 10
325.283658618868
 20
582.384875709078
 10
325.270711478347
 20
582.31420113324
  0
ARC
  5
4CBB
330
1A
100
AcDbEntity
  8
外形線
100
AcDbCircle
 10
329.508229478346
 20
614.560411787197
 30
0.0
 40
34.15159996140045
100
AcDbArc
 50
277.000695446903
 51
284.73168342285
  0
ARC
  5
4CBC
330
1A
100
AcDbEntity
  8
外形線
100
AcDbCircle
 10
337.173529478347
 20
585.40771389244
 30
0.0
 40
4.007999999999999
100
AcDbArc
 50
284.731683422849
 51
0.0
  0
LINE
  5
4CBD
330
1A
100
AcDbEntity
  8
外形線
100
AcDbLine
 10
341.184280595549
 20
589.785389916452
 30
0.0
 11
343.392348751819
 21
591.697633033069
 31
0.0
  0
ARC
  5
4CBE
330
1A
100
AcDbEntity
  8
外形線
100
AcDbCircle
 10
343.90098066932
 20
599.298950582045
 30
0.0
 40
7.618315752702329
100
AcDbArc
 50
192.041373908162
 51
266.171836793578
  0
LINE
  5
4CBF
330
1A
100
AcDbEntity
  8
外形線
100
AcDbLine
 10
343.392348751819
 20
591.697633033069
 30
0.0
 11
343.392348751819
 21
600.375207578989
 31
0.0
  0
LWPOLYLINE
  5
4CC0
330
1A
100
AcDbEntity
  8
外形線
100
AcDbPolyline
 90
       34
 70
     0
 43
0.0
 10
340.006684478347
 20
606.094110526804
 10
339.958351674075
 20
606.46494846127
 10
339.813798290549
 20
606.83237186716
 10
339.574355317972
 20
607.192997655521
 10
339.242227452242
 20
607.543505327167
 10
338.82047279498
 20
607.880667546517
 10
338.312974695746
 20
608.201379857617
 10
337.724405995694
 20
608.502689268745
 10
337.060186001911
 20
608.781821442383
 10
336.32643058858
 20
609.036206240218
 10
335.529895884438
 20
609.263501387954
 10
334.677916065032
 20
609.461614042047
 10
333.778335822528
 20
609.628720059776
 10
332.839438134906
 20
609.763280795227
 10
331.869867999578
 20
609.864057266533
 10
330.878552833689
 20
609.930121563925
 10
329.874620274
 20
609.960865393565
 10
328.867314133225
 20
609.956005678468
 10
327.865909286672
 20
609.915587164958
 10
326.879626272881
 20
609.839982010678
 10
325.917546394548
 20
609.729886357889
 10
324.988528101505
 20
609.586313923684
 10
324.101125425617
 20
609.410586666079
 10
323.263509218663
 20
609.204322611943
 10
322.483391918366
 20
608.969420958854
 10
321.767956535326
 20
608.708044588041
 10
321.123790514713
 20
608.422600149431
 10
320.556825081683
 20
608.115715902167
 10
320.072280629007
 20
607.790217514648
 10
319.67461864977
 20
607.449102046888
 10
319.367500657713
 20
607.095510354784
 10
319.15375447346
 20
606.73269817035
 10
319.035348187076
 20
606.364006124248
 10
319.009774478346
 20
606.094110526804
  0
LINE
  5
4CC1
330
1A
100
AcDbEntity
  8
外形線
100
AcDbLine
 10
322.566169841611
 20
606.387207578989
 30
0.0
 11
336.450289115082
 21
606.387207578989
 31
0.0
  0
LINE
  5
4CC2
330
1A
100
AcDbEntity
  8
外形線
100
AcDbLine
 10
322.566169841611
 20
615.064782124909
 30
0.0
 11
336.450289115082
 21
615.064782124909
 31
0.0
  0
LINE
  5
4CC3
330
1A
100
AcDbEntity
  8
外形線
100
AcDbLine
 10
322.566169841611
 20
610.725994851949
 30
0.0
 11
336.450289115082
 21
610.725994851949
 31
0.0
  0
LINE
  5
4CC4
330
1A
100
AcDbEntity
  8
外形線
100
AcDbLine
 10
344.658238478347
 20
616.867979133239
 30
0.0
 11
321.558247478347
 21
616.867979133239
 31
0.0
  0
LINE
  5
4CC5
330
1A
100
AcDbEntity
  8
外形線
100
AcDbLine
 10
321.877030713518
 20
614.467970133239
 30
0.0
 11
319.158238478346
 21
614.467970133239
 31
0.0
  0
LINE
  5
4CC6
330
1A
100
AcDbEntity
  8
外形線
100
AcDbLine
 10
315.624110204875
 20
609.052782124909
 30
0.0
 11
322.566169841611
 21
615.064782124909
 31
0.0
  0
ARC
  5
4CC7
330
1A
100
AcDbEntity
  8
外形線
100
AcDbCircle
 10
321.558247478347
 20
611.467970133239
 30
0.0
 40
5.4
100
AcDbArc
 50
89.999981276021
 51
180.00001984784
  0
LINE
  5
4CC8
330
1A
100
AcDbEntity
  8
外形線
100
AcDbLine
 10
322.566169841611
 20
610.725994851949
 30
0.0
 11
315.624110204875
 21
604.713994851949
 31
0.0
  0
ARC
  5
4CC9
330
1A
100
AcDbEntity
  8
外形線
100
AcDbCircle
 10
319.158238478346
 20
611.467970133239
 30
0.0
 40
3.0
100
AcDbArc
 50
89.999981276021
 51
211.533239298811
  0
LINE
  5
4CCA
330
1A
100
AcDbEntity
  8
外形線
100
AcDbLine
 10
318.129110204875
 20
602.544601215469
 30
0.0
 11
315.624110204875
 21
604.713994851949
 31
0.0
  0
LINE
  5
4CCB
330
1A
100
AcDbEntity
  8
外形線
100
AcDbLine
 10
319.009774478347
 20
606.094110526804
 30
0.0
 11
319.009774478347
 21
603.307278848501
 31
0.0
  0
LINE
  5
4CCC
330
1A
100
AcDbEntity
  8
外形線
100
AcDbLine
 10
315.624110204875
 20
604.713994851949
 30
0.0
 11
315.624110204875
 21
609.052782124909
 31
0.0
  0
LINE
  5
4CCD
330
1A
100
AcDbEntity
  8
細線
100
AcDbLine
 10
320.364979478346
 20
604.480920805837
 30
0.0
 11
320.364979478346
 21
608.032462015483
 31
0.0
  0
LINE
  5
4CCE
330
1A
100
AcDbEntity
  8
外形線
100
AcDbLine
 10
322.566169841611
 20
610.725994851949
 30
0.0
 11
322.566169841611
 21
615.064782124909
 31
0.0
  0
LINE
  5
4CCF
330
1A
100
AcDbEntity
  8
細線
100
AcDbLine
 10
338.651479478346
 20
604.480920805837
 30
0.0
 11
338.651479478346
 21
608.13586633333
 31
0.0
  0
LINE
  5
4CD0
330
1A
100
AcDbEntity
  8
外形線
100
AcDbLine
 10
344.658238478347
 20
614.467970133239
 30
0.0
 11
337.139428243175
 21
614.467970133239
 31
0.0
  0
LINE
  5
4CD1
330
1A
100
AcDbEntity
  8
外形線
100
AcDbLine
 10
343.392348751819
 20
609.052782124909
 30
0.0
 11
336.450289115082
 21
615.064782124909
 31
0.0
  0
LINE
  5
4CD2
330
1A
100
AcDbEntity
  8
外形線
100
AcDbLine
 10
336.450289115082
 20
610.725994851949
 30
0.0
 11
336.450289115082
 21
615.064782124909
 31
0.0
  0
LINE
  5
4CD3
330
1A
100
AcDbEntity
  8
外形線
100
AcDbLine
 10
340.887348751819
 20
602.544601215469
 30
0.0
 11
343.392348751819
 21
604.713994851949
 31
0.0
  0
LINE
  5
4CD4
330
1A
100
AcDbEntity
  8
外形線
100
AcDbLine
 10
336.450289115082
 20
610.725994851949
 30
0.0
 11
343.392348751819
 21
604.713994851949
 31
0.0
  0
LINE
  5
4CD5
330
1A
100
AcDbEntity
  8
外形線
100
AcDbLine
 10
340.006684478347
 20
606.094110526804
 30
0.0
 11
340.006684478347
 21
603.307278848501
 31
0.0
  0
LINE
  5
4CD6
330
1A
100
AcDbEntity
  8
外形線
100
AcDbLine
 10
343.392348751819
 20
604.713994851949
 30
0.0
 11
343.392348751819
 21
609.052782124909
 31
0.0
  0
LINE
  5
4CD7
330
1A
100
AcDbEntity
  8
寸法線
 48
10.0
100
AcDbLine
 10
395.158238478347
 20
616.269539146598
 30
0.0
 11
395.158238478347
 21
586.894246571608
 31
0.0
  0
LINE
  5
4D71
330
1A
100
AcDbEntity
  8
外形線
 48
10.0
100
AcDbLine
 10
297.158238478347
 20
670.068006133239
 30
0.0
 11
227.158256478347
 21
670.068006133239
 31
0.0
  0
LINE
  5
4D72
330
1A
100
AcDbEntity
  8
外形線
 48
10.0
100
AcDbLine
 10
297.158238478347
 20
635.068006133239
 30
0.0
 11
227.158256478347
 21
635.068006133239
 31
0.0
  0
DIMENSION
  5
4D75
330
1A
100
AcDbEntity
  8
寸法線
 48
10.0
100
AcDbDimension
  2
*D40
 10
266.539936532489
 20
670.068006133239
 30
0.0
 11
268.850872513831
 21
679.468299674821
 31
0.0
 70
   160
  1
φ35
  3
ISO-25
100
AcDbAlignedDimension
 13
297.158238478347
 23
635.068006133239
 33
0.0
 14
297.158238478347
 24
670.068006133239
 34
0.0
 50
90.0
100
AcDbRotatedDimension
1001
ACAD
1000
DSTYLE
1002
{
1070
   287
1070
     4
1070
     5
1000
OPEN30
1070
   279
1070
     1
1070
    41
1040
6.0
1070
   271
1070
     1
1070
   341
1005
2AF4
1070
   272
1070
     1
1070
    73
1070
     0
1070
    48
1040
0.1
1070
    47
1040
0.1
1070
   140
1040
6.0
1002
}
  0
ARC
  5
4D82
330
1A
100
AcDbEntity
  8
寸法線
100
AcDbCircle
 10
183.411130440874
 20
560.221638276803
 30
0.0
 40
1.3204605
100
AcDbArc
 50
252.904086432756
 51
337.411923467761
  0
ARC
  5
4D83
330
1A
100
AcDbEntity
  8
寸法線
100
AcDbCircle
 10
183.411130440874
 20
560.221593276802
 30
0.0
 40
1.3204425
100
AcDbArc
 50
252.903398883386
 51
337.412611017143
  0
ARC
  5
4D84
330
1A
100
AcDbEntity
  8
寸法線
100
AcDbCircle
 10
180.007840440875
 20
562.713201276803
 30
0.0
 40
3.7598535
100
AcDbArc
 50
273.280470979894
 51
33.415912335964
  0
ARC
  5
4D85
330
1A
100
AcDbEntity
  8
寸法線
100
AcDbCircle
 10
184.770824940874
 20
561.959538276803
 30
0.0
 40
3.472035
100
AcDbArc
 50
123.469024399709
 51
239.774013712221
  0
ARC
  5
4D86
330
1A
100
AcDbEntity
  8
寸法線
100
AcDbCircle
 10
184.770824940874
 20
561.959538276803
 30
0.0
 40
3.4720395
100
AcDbArc
 50
123.469024399709
 51
239.773899120652
  0
ARC
  5
4D87
330
1A
100
AcDbEntity
  8
寸法線
100
AcDbCircle
 10
182.968472940875
 20
564.688359276803
 30
0.0
 40
0.2017125
100
AcDbArc
 50
28.230948368971
 51
123.883845843384
  0
DIMENSION
  5
4D88
330
1A
100
AcDbEntity
  8
寸法線
 48
10.0
100
AcDbDimension
  2
*D41
 10
227.158256478347
 20
557.914197633239
 30
0.0
 11
181.977687087939
 21
561.039197633239
 31
0.0
 70
    32
  1
　
  3
ISO-25
100
AcDbAlignedDimension
 13
136.797117697531
 23
593.579210123377
 33
0.0
 14
227.158256478347
 24
632.018010633239
 34
0.0
100
AcDbRotatedDimension
1001
ACAD
1000
DSTYLE
1002
{
1070
     5
1000
OPEN30
1070
    41
1040
6.0
1070
   271
1070
     1
1070
   341
1005
2AF4
1070
   272
1070
     1
1070
    73
1070
     0
1070
    48
1040
0.1
1070
    47
1040
0.1
1070
   140
1040
5.0
1002
}
  0
VIEWPORT
  5
2902
330
28FB
100
AcDbEntity
 67
     1
  8
0
 48
10.0
100
AcDbViewport
 10
0.0
 20
0.0
 30
0.0
 40
466.178842042336
 41
297.410299227009
 68
     1
 69
     1
1001
ACAD
1000
MVIEW
1002
{
1070
    16
1010
0.0
1020
0.0
1030
0.0
1010
0.0
1020
0.0
1030
1.0
1040
0.0
1040
297.410299227009
1040
198.531137891096
1040
141.485444064328
1040
50.0
1040
0.0
1040
0.0
1070
    16
1070
   100
1070
     0
1070
     1
1070
     0
1070
     0
1070
     0
1070
     0
1040
0.0
1040
0.0
1040
0.0
1040
10.0
1040
10.0
1040
10.0
1040
10.0
1070
     0
1002
{
1002
}
1002
}
  0
VIEWPORT
  5
2904
330
28FB
100
AcDbEntity
 67
     1
  8
図枠太線
 48
10.0
100
AcDbViewport
 10
204.746305129083
 20
163.0947651127
 30
0.0
 40
400.0
 41
240.0
 68
     2
 69
     2
1001
ACAD
1000
MVIEW
1002
{
1070
    16
1010
0.0
1020
0.0
1030
0.0
1010
0.0
1020
0.0
1030
1.0
1040
0.0
1040
360.000001746544
1040
167.566438974735
1040
595.048741645807
1040
50.0
1040
0.0
1040
0.0
1070
     0
1070
   100
1070
     0
1070
     0
1070
     0
1070
     0
1070
     0
1070
     0
1040
0.0
1040
0.0
1040
0.0
1040
1.0
1040
1.0
1040
0.0
1040
0.0
1070
     0
1002
{
1002
}
1002
}
  0
INSERT
  5
2A59
330
28FB
100
AcDbEntity
 67
     1
  8
図枠太線
100
AcDbBlockReference
  2
A3横用_タイトル
 10
-0.352109406709
 20
-0.431194640827
 30
0.0
  0
MTEXT
  5
322B
330
28FB
100
AcDbEntity
 67
     1
  8
寸法線
 48
10.0
100
AcDbMText
 10
146.778370616794
 20
15.511817536936
 30
0.0
 40
7.0
 41
20.13579853524
 71
     1
 72
     5
  1
1:1.5
  0
MTEXT
  5
322C
102
{ACAD_XDICTIONARY
360
4D67
102
}
330
28FB
100
AcDbEntity
 67
     1
  8
寸法線
 48
10.0
100
AcDbMText
 10
174.451162308023
 20
14.14221733945
 30
0.0
 40
5.0
 41
26.738494989229
 71
     1
 72
     5
  1
2015.6.15
1001
ACADANNOTATIVE
1000
AnnotativeData
1002
{
1070
     1
1070
     0
1002
}
  0
MTEXT
  5
322D
102
{ACAD_XDICTIONARY
360
4D6A
102
}
330
28FB
100
AcDbEntity
 67
     1
  8
寸法線
 48
10.0
100
AcDbMText
 10
177.449846298124
 20
33.524219461173
 30
0.0
 40
5.0
 41
24.255700999508
 71
     1
 72
     5
  1
ohno
1001
ACADANNOTATIVE
1000
AnnotativeData
1002
{
1070
     1
1070
     0
1002
}
  0
MTEXT
  5
322F
330
28FB
100
AcDbEntity
 67
     1
  8
寸法線
 48
10.0
100
AcDbMText
 10
312.69419655457
 20
35.354842385458
 30
0.0
 40
6.5
 41
37.345612043362
 71
     1
 72
     5
  1
HL-400HH
  0
MTEXT
  5
3230
330
28FB
100
AcDbEntity
 67
     1
  8
寸法線
 48
10.0
100
AcDbMText
 10
361.819918635276
 20
39.866083779204
 30
0.0
 40
5.0
 41
42.043281739348
 71
     1
 72
     5
  1
パドル式\Pレベルスイッチ
  0
MTEXT
  5
3231
102
{ACAD_XDICTIONARY
360
4D64
102
}
330
28FB
100
AcDbEntity
 67
     1
  8
寸法線
 48
10.0
100
AcDbMText
 10
342.507899996779
 20
16.200916565209
 30
0.0
 40
7.0
 41
36.545313751788
 71
     1
 72
     5
  1
\H1.143x;HB-6005
1001
ACADANNOTATIVE
1000
AnnotativeData
1002
{
1070
     1
1070
     0
1002
}
  0
MTEXT
  5
3234
102
{ACAD_XDICTIONARY
360
4D95
102
}
330
28FB
100
AcDbEntity
 67
     1
  8
寸法線
 48
10.0
100
AcDbMText
 10
373.097108500481
 20
52.804315348797
 30
0.0
 40
5.0
 41
42.606060606061
 71
     1
 72
     5
  1
台数 　 台
1001
ACADANNOTATIVE
1000
AnnotativeData
1002
{
1070
     1
1070
     0
1002
}
  0
MTEXT
  5
4538
330
28FB
100
AcDbEntity
 67
     1
  8
寸法線
 48
10.0
100
AcDbMText
 10
218.708927350109
 20
40.057242117743
 30
0.0
 40
5.0
 41
73.211318756775
 71
     1
 72
     5
  1
タンク内温度：max.150℃
  0
ENDSEC
  0
SECTION
  2
OBJECTS
  0
DICTIONARY
  5
C
330
0
100
AcDbDictionary
  3
ACAD_COLOR
350
2948
  3
ACAD_GROUP
350
D
  3
ACAD_LAYOUT
350
2816
  3
ACAD_MATERIAL
350
2947
  3
ACAD_MLEADERSTYLE
350
48BB
  3
ACAD_MLINESTYLE
350
E
  3
ACAD_PLOTSETTINGS
350
2817
  3
ACAD_SCALELIST
350
4894
  3
ACAD_VISUALSTYLE
350
487B
  3
ACADDIM
350
476C
  3
ACDBHEADERROUNDTRIPXREC
350
4DA0
  3
ACDBVARIABLEDICTIONARY
350
4D98
  3
DWGPROPS
350
4DC5
  0
DICTIONARY
  5
4DC6
330
8
100
AcDbDictionary
280
     1
  3
ACAD_XREC_ROUNDTRIP
360
4DC7
  0
DICTIONARY
  5
29EA
330
2
100
AcDbDictionary
280
     1
  3
ACAD_LAYERFILTERS
360
2B0C
  3
ACAD_LAYERSTATES
360
29EB
  0
DICTIONARY
  5
4464
330
1A
100
AcDbDictionary
280
     1
  3
ACAD_SORTENTS
360
4465
  0
DICTIONARY
  5
4BC5
330
4BC4
100
AcDbDictionary
280
     1
  3
ACDBCONTEXTDATAMANAGER
360
4BC6
  0
DICTIONARY
  5
4C69
330
4C68
100
AcDbDictionary
280
     1
  3
ACDBCONTEXTDATAMANAGER
360
4C6A
  0
DICTIONARY
  5
4C70
330
4C6F
100
AcDbDictionary
280
     1
  3
ACDBCONTEXTDATAMANAGER
360
4C71
  0
DICTIONARY
  5
4C74
330
4C73
100
AcDbDictionary
280
     1
  3
ACDBCONTEXTDATAMANAGER
360
4C75
  0
DICTIONARY
  5
4D67
330
322C
100
AcDbDictionary
280
     1
  3
ACDBCONTEXTDATAMANAGER
360
4D68
  0
DICTIONARY
  5
4D6A
330
322D
100
AcDbDictionary
280
     1
  3
ACDBCONTEXTDATAMANAGER
360
4D6B
  0
DICTIONARY
  5
4D64
330
3231
100
AcDbDictionary
280
     1
  3
ACDBCONTEXTDATAMANAGER
360
4D65
  0
DICTIONARY
  5
4D95
330
3234
100
AcDbDictionary
280
     1
  3
ACDBCONTEXTDATAMANAGER
360
4D96
  0
DICTIONARY
  5
2948
102
{ACAD_REACTORS
330
C
102
}
330
C
100
AcDbDictionary
  0
DICTIONARY
  5
D
102
{ACAD_REACTORS
330
C
102
}
330
C
100
AcDbDictionary
  0
DICTIONARY
  5
2816
102
{ACAD_REACTORS
330
C
102
}
330
C
100
AcDbDictionary
  0
DICTIONARY
  5
2947
102
{ACAD_REACTORS
330
C
102
}
330
C
100
AcDbDictionary
  3
BYBLOCK
350
48B7
  3
BYLAYER
350
48B6
  3
GLOBAL
350
48B8
  0
DICTIONARY
  5
48BB
102
{ACAD_REACTORS
330
C
102
}
330
C
100
AcDbDictionary
  3
STANDARD
350
48BC
  0
DICTIONARY
  5
E
102
{ACAD_REACTORS
330
C
102
}
330
C
100
AcDbDictionary
  3
STANDARD
350
13
  0
DICTIONARY
  5
2817
102
{ACAD_REACTORS
330
C
102
}
330
C
100
AcDbDictionary
  0
DICTIONARY
  5
4894
102
{ACAD_REACTORS
330
C
102
}
330
C
100
AcDbDictionary
  3
A0
350
4895
  3
A1
350
4896
  3
A2
350
4897
  3
A3
350
4898
  3
A4
350
4899
  3
A5
350
489A
  3
A6
350
489B
  3
A7
350
489C
  3
A8
350
489D
  3
A9
350
489E
  3
B0
350
489F
  3
B1
350
48A0
  3
B2
350
48A1
  3
B3
350
48A2
  3
B4
350
48A3
  3
B5
350
48A4
  3
B6
350
48A5
  3
B7
350
48A6
  3
B8
350
48A7
  3
B9
350
48A8
  3
C0
350
48A9
  3
C1
350
48AA
  3
C2
350
48AB
  3
C3
350
48AC
  3
C4
350
48AD
  3
C5
350
48AE
  3
C6
350
48AF
  3
C7
350
48B0
  3
C8
350
48B1
  3
C9
350
48B2
  3
D0
350
48B3
  3
D1
350
48B4
  3
D2
350
48B5
  0
DICTIONARY
  5
487B
102
{ACAD_REACTORS
330
C
102
}
330
C
100
AcDbDictionary
  3
2DWIREFRAME
350
4880
  3
BASIC
350
4883
  3
BRIGHTEN
350
4887
  3
COLORCHANGE
350
488B
  3
CONCEPTUAL
350
4885
  3
DIM
350
4886
  3
EDGECOLOROFF
350
488E
  3
FACEPATTERN
350
488A
  3
FLAT
350
487C
  3
FLATWITHEDGES
350
487D
  3
GOURAUD
350
487E
  3
GOURAUDWITHEDGES
350
487F
  3
HIDDEN
350
4882
  3
JITTEROFF
350
488C
  3
LINEPATTERN
350
4889
  3
OVERHANGOFF
350
488D
  3
REALISTIC
350
4884
  3
SHADED
350
4893
  3
SHADED_WITH_EDGES
350
4892
  3
SHADES_OF_GRAY
350
488F
  3
SKETCHY
350
4890
  3
THICKEN
350
4888
  3
WIREFRAME
350
4881
  3
X-RAY
350
4891
  0
XRECORD
  5
476C
102
{ACAD_REACTORS
330
C
102
}
330
C
100
AcDbXrecord
 90
   990106
  3

 60
     0
 61
     0
 62
     4
 63
     4
 64
     0
 65
     0
 66
     0
 67
     3
 68
     1
 69
     0
 70
     0
 71
     0
 72
     0
 40
0.0
170
     2
340
4387
  0
DICTIONARY
  5
4DA0
102
{ACAD_REACTORS
330
C
102
}
330
C
100
AcDbDictionary
  3
CEPSNID
350
4DAA
  3
CEPSNTYPE
350
4DA9
  3
COLORDICT
350
4DC3
  3
DIMSTYLEDATA
350
4DC0
  3
FINGERPRINTGUID
350
4DAB
  3
HYPERLINKBASE
350
4DA3
  3
INSUNITS
350
4DA8
  3
LAYOUTDICT
350
4DA5
  3
LWETCUNION
350
4DA7
  3
MATERIALDICT
350
4DC4
  3
PLOTSETDICT
350
4DA6
  3
PSVPSCALE
350
4DAD
  3
PUCSBASE
350
4DB0
  3
PUCSORGBACK
350
4DB6
  3
PUCSORGBOTTOM
350
4DB2
  3
PUCSORGFRONT
350
4DB5
  3
PUCSORGLEFT
350
4DB3
  3
PUCSORGRIGHT
350
4DB4
  3
PUCSORGTOP
350
4DB1
  3
PUCSORTHOREF
350
4DAE
  3
PUCSORTHOVIEW
350
4DAF
  3
STYLESHEET
350
4DA4
  3
TSTACKALIGN
350
4DA1
  3
TSTACKSIZE
350
4DA2
  3
UCSBASE
350
4DB9
  3
UCSORGBACK
350
4DBF
  3
UCSORGBOTTOM
350
4DBB
  3
UCSORGFRONT
350
4DBE
  3
UCSORGLEFT
350
4DBC
  3
UCSORGRIGHT
350
4DBD
  3
UCSORGTOP
350
4DBA
  3
UCSORTHOREF
350
4DB7
  3
UCSORTHOVIEW
350
4DB8
  3
VERSIONGUID
350
4DAC
  0
DICTIONARY
  5
4D98
102
{ACAD_REACTORS
330
C
102
}
330
C
100
AcDbDictionary
  3
CANNOSCALE
350
4D99
  3
CMLEADERSTYLE
350
4D9B
  3
CTABLESTYLE
350
4D9A
  3
DIMASSOC
350
4DC1
  3
HIDETEXT
350
4DC2
  3
MSLTSCALE
350
4D9C
  3
XCLIPFRAME
350
4D9D
  0
XRECORD
  5
4DC5
102
{ACAD_REACTORS
330
C
102
}
330
C
100
AcDbXrecord
  1
DWGPROPS COOKIE
  2

  3

  4

  6

  7

  8
y-ohno
  9

300
=
301
=
302
=
303
=
304
=
305
=
306
=
307
=
308
=
309
=
 40
0.0
 41
2450576.222302431
 42
2457191.290053981
  1

 90
        0
  0
XRECORD
  5
4DC7
102
{ACAD_REACTORS
330
4DC6
102
}
330
4DC6
100
AcDbXrecord
102
VTR_0.000_0.000_1.000_1.000_VISUALSTYLE
340
4880
102
VTR_0.000_0.000_1.000_1.000_GRIDDISPLAY
 70
     3
102
VTR_0.000_0.000_1.000_1.000_GRIDMAJOR
 70
     5
102
VTR_0.000_0.000_1.000_1.000_DEFAULTLIGHTING
280
     1
102
VTR_0.000_0.000_1.000_1.000_DEFAULTLIGHTINGTYPE
 70
     1
102
VTR_0.000_0.000_1.000_1.000_BRIGHTNESS
141
0.0
102
VTR_0.000_0.000_1.000_1.000_CONTRAST
142
0.0
  0
DICTIONARY
  5
2B0C
102
{ACAD_REACTORS
330
29EA
102
}
330
29EA
100
AcDbDictionary
  0
DICTIONARY
  5
29EB
102
{ACAD_REACTORS
330
29EA
102
}
330
29EA
100
AcDbDictionary
  0
SORTENTSTABLE
  5
4465
102
{ACAD_REACTORS
330
4464
102
}
330
4464
100
AcDbSortentsTable
330
1A
331
0
  5
2FCB
331
4220
  5
4221
331
4221
  5
4222
331
427E
  5
428B
331
436E
  5
436F
331
436F
  5
4370
331
4371
  5
4372
331
4375
  5
4376
331
4379
  5
437B
331
437C
  5
437D
331
437F
  5
4380
331
4381
  5
4382
331
4383
  5
4384
331
4385
  5
4386
331
4387
  5
445C
  0
DICTIONARY
  5
4BC6
102
{ACAD_REACTORS
330
4BC5
102
}
330
4BC5
100
AcDbDictionary
  3
ACDB_ANNOTATIONSCALES
350
4BC7
  0
DICTIONARY
  5
4C6A
102
{ACAD_REACTORS
330
4C69
102
}
330
4C69
100
AcDbDictionary
  3
ACDB_ANNOTATIONSCALES
350
4C6B
  0
DICTIONARY
  5
4C71
102
{ACAD_REACTORS
330
4C70
102
}
330
4C70
100
AcDbDictionary
  3
ACDB_ANNOTATIONSCALES
350
4C72
  0
DICTIONARY
  5
4C75
102
{ACAD_REACTORS
330
4C74
102
}
330
4C74
100
AcDbDictionary
  3
ACDB_ANNOTATIONSCALES
350
4C76
  0
DICTIONARY
  5
4D68
102
{ACAD_REACTORS
330
4D67
102
}
330
4D67
100
AcDbDictionary
  3
ACDB_ANNOTATIONSCALES
350
4D69
  0
DICTIONARY
  5
4D6B
102
{ACAD_REACTORS
330
4D6A
102
}
330
4D6A
100
AcDbDictionary
  3
ACDB_ANNOTATIONSCALES
350
4D6C
  0
DICTIONARY
  5
4D65
102
{ACAD_REACTORS
330
4D64
102
}
330
4D64
100
AcDbDictionary
  3
ACDB_ANNOTATIONSCALES
350
4D66
  0
DICTIONARY
  5
4D96
102
{ACAD_REACTORS
330
4D95
102
}
330
4D95
100
AcDbDictionary
  3
ACDB_ANNOTATIONSCALES
350
4D97
  0
MATERIAL
  5
48B7
102
{ACAD_REACTORS
330
2947
102
}
102
{ACAD_XDICTIONARY
360
4DCA
102
}
330
2947
100
AcDbMaterial
  1
BYBLOCK
  0
MATERIAL
  5
48B6
102
{ACAD_REACTORS
330
2947
102
}
102
{ACAD_XDICTIONARY
360
4DC8
102
}
330
2947
100
AcDbMaterial
  1
BYLAYER
  0
MATERIAL
  5
48B8
102
{ACAD_REACTORS
330
2947
102
}
102
{ACAD_XDICTIONARY
360
4DCC
102
}
330
2947
100
AcDbMaterial
  1
GLOBAL
  0
ACAD_PROXY_OBJECT
  5
48BC
102
{ACAD_REACTORS
330
48BB
102
}
330
48BB
100
AcDbProxyObject
 90
      499
 91
      508
 93
      610
310
40901902A4063FBFFFFFE0000000000000020400000000000020404214DD185B99185C990000000000000104090141901A00000000000004100000000000000041025764000000000000039000
340
14
340
0
340
10
340
0
 94
        0
1001
ACAD_MLEADERVER
1070
     2
  0
MLINESTYLE
  5
13
102
{ACAD_REACTORS
330
E
102
}
330
E
100
AcDbMlineStyle
  2
STANDARD
 70
     0
  3

 62
     0
 51
90.0
 52
90.0
 71
     2
 49
0.5
 62
   256
  6
BYLAYER
 49
-0.5
 62
   256
  6
BYLAYER
  0
ACAD_PROXY_OBJECT
  5
4895
102
{ACAD_REACTORS
330
4894
102
}
330
4894
100
AcDbProxyObject
 90
      499
 91
      505
 93
       41
310
903313A31580
  0
ACAD_PROXY_OBJECT
  5
4896
102
{ACAD_REACTORS
330
4894
102
}
330
4894
100
AcDbProxyObject
 90
      499
 91
      505
 93
      105
310
903313A324000000000000004000
  0
ACAD_PROXY_OBJECT
  5
4897
102
{ACAD_REACTORS
330
4894
102
}
330
4894
100
AcDbProxyObject
 90
      499
 91
      505
 93
      105
310
903313A344000000000000104000
  0
ACAD_PROXY_OBJECT
  5
4898
102
{ACAD_REACTORS
330
4894
102
}
330
4894
100
AcDbProxyObject
 90
      499
 91
      505
 93
      105
310
903313A354000000000000144000
  0
ACAD_PROXY_OBJECT
  5
4899
102
{ACAD_REACTORS
330
4894
102
}
330
4894
100
AcDbProxyObject
 90
      499
 91
      505
 93
      105
310
903313A384000000000000204000
  0
ACAD_PROXY_OBJECT
  5
489A
102
{ACAD_REACTORS
330
4894
102
}
330
4894
100
AcDbProxyObject
 90
      499
 91
      505
 93
      113
310
904313A31304000000000000244000
  0
ACAD_PROXY_OBJECT
  5
489B
102
{ACAD_REACTORS
330
4894
102
}
330
4894
100
AcDbProxyObject
 90
      499
 91
      505
 93
      113
310
904313A31364000000000000304000
  0
ACAD_PROXY_OBJECT
  5
489C
102
{ACAD_REACTORS
330
4894
102
}
330
4894
100
AcDbProxyObject
 90
      499
 91
      505
 93
      113
310
904313A32304000000000000344000
  0
ACAD_PROXY_OBJECT
  5
489D
102
{ACAD_REACTORS
330
4894
102
}
330
4894
100
AcDbProxyObject
 90
      499
 91
      505
 93
      113
310
904313A333040000000000003E4000
  0
ACAD_PROXY_OBJECT
  5
489E
102
{ACAD_REACTORS
330
4894
102
}
330
4894
100
AcDbProxyObject
 90
      499
 91
      505
 93
      113
310
904313A34304000000000000444000
  0
ACAD_PROXY_OBJECT
  5
489F
102
{ACAD_REACTORS
330
4894
102
}
330
4894
100
AcDbProxyObject
 90
      499
 91
      505
 93
      113
310
904313A35304000000000000494000
  0
ACAD_PROXY_OBJECT
  5
48A0
102
{ACAD_REACTORS
330
4894
102
}
330
4894
100
AcDbProxyObject
 90
      499
 91
      505
 93
      121
310
905313A3130304000000000000594000
  0
ACAD_PROXY_OBJECT
  5
48A1
102
{ACAD_REACTORS
330
4894
102
}
330
4894
100
AcDbProxyObject
 90
      499
 91
      505
 93
      105
310
903323A310000000000000010100
  0
ACAD_PROXY_OBJECT
  5
48A2
102
{ACAD_REACTORS
330
4894
102
}
330
4894
100
AcDbProxyObject
 90
      499
 91
      505
 93
      105
310
903343A310000000000000410100
  0
ACAD_PROXY_OBJECT
  5
48A3
102
{ACAD_REACTORS
330
4894
102
}
330
4894
100
AcDbProxyObject
 90
      499
 91
      505
 93
      105
310
903383A310000000000000810100
  0
ACAD_PROXY_OBJECT
  5
48A4
102
{ACAD_REACTORS
330
4894
102
}
330
4894
100
AcDbProxyObject
 90
      499
 91
      505
 93
      113
310
90431303A310000000000000910100
  0
ACAD_PROXY_OBJECT
  5
48A5
102
{ACAD_REACTORS
330
4894
102
}
330
4894
100
AcDbProxyObject
 90
      499
 91
      505
 93
      121
310
9053130303A310000000000001650100
  0
ACAD_PROXY_OBJECT
  5
48A6
102
{ACAD_REACTORS
330
4894
102
}
330
4894
100
AcDbProxyObject
 90
      499
 91
      505
 93
      257
310
90E312F31323822203D2031272D3022000000000000200FC000000000000284000
  0
ACAD_PROXY_OBJECT
  5
48A7
102
{ACAD_REACTORS
330
4894
102
}
330
4894
100
AcDbProxyObject
 90
      499
 91
      505
 93
      249
310
90D312F363422203D2031272D3022000000000000240FC000000000000284000
  0
ACAD_PROXY_OBJECT
  5
48A8
102
{ACAD_REACTORS
330
4894
102
}
330
4894
100
AcDbProxyObject
 90
      499
 91
      505
 93
      249
310
90D312F333222203D2031272D3022000000000000280FC000000000000284000
  0
ACAD_PROXY_OBJECT
  5
48A9
102
{ACAD_REACTORS
330
4894
102
}
330
4894
100
AcDbProxyObject
 90
      499
 91
      505
 93
      249
310
90D312F313622203D2031272D30220000000000002C0FC000000000000284000
  0
ACAD_PROXY_OBJECT
  5
48AA
102
{ACAD_REACTORS
330
4894
102
}
330
4894
100
AcDbProxyObject
 90
      499
 91
      505
 93
      249
310
90D332F333222203D2031272D30220000000000002E0FC000000000000284000
  0
ACAD_PROXY_OBJECT
  5
48AB
102
{ACAD_REACTORS
330
4894
102
}
330
4894
100
AcDbProxyObject
 90
      499
 91
      505
 93
      241
310
90C312F3822203D2031272D3022000000000000300FC000000000000284000
  0
ACAD_PROXY_OBJECT
  5
48AC
102
{ACAD_REACTORS
330
4894
102
}
330
4894
100
AcDbProxyObject
 90
      499
 91
      505
 93
      249
310
90D332F313622203D2031272D3022000000000000320FC000000000000284000
  0
ACAD_PROXY_OBJECT
  5
48AD
102
{ACAD_REACTORS
330
4894
102
}
330
4894
100
AcDbProxyObject
 90
      499
 91
      505
 93
      241
310
90C312F3422203D2031272D3022000000000000340FC000000000000284000
  0
ACAD_PROXY_OBJECT
  5
48AE
102
{ACAD_REACTORS
330
4894
102
}
330
4894
100
AcDbProxyObject
 90
      499
 91
      505
 93
      241
310
90C332F3822203D2031272D3022000000000000360FC000000000000284000
  0
ACAD_PROXY_OBJECT
  5
48AF
102
{ACAD_REACTORS
330
4894
102
}
330
4894
100
AcDbProxyObject
 90
      499
 91
      505
 93
      241
310
90C312F3222203D2031272D3022000000000000380FC000000000000284000
  0
ACAD_PROXY_OBJECT
  5
48B0
102
{ACAD_REACTORS
330
4894
102
}
330
4894
100
AcDbProxyObject
 90
      499
 91
      505
 93
      241
310
90C332F3422203D2031272D30220000000000003A0FC000000000000284000
  0
ACAD_PROXY_OBJECT
  5
48B1
102
{ACAD_REACTORS
330
4894
102
}
330
4894
100
AcDbProxyObject
 90
      499
 91
      505
 93
      161
310
90A3122203D2031272D30224000000000000284000
  0
ACAD_PROXY_OBJECT
  5
48B2
102
{ACAD_REACTORS
330
4894
102
}
330
4894
100
AcDbProxyObject
 90
      499
 91
      505
 93
      257
310
90E312D312F3222203D2031272D30220000000000003E0FC000000000000284000
  0
ACAD_PROXY_OBJECT
  5
48B3
102
{ACAD_REACTORS
330
4894
102
}
330
4894
100
AcDbProxyObject
 90
      499
 91
      505
 93
      225
310
90A3322203D2031272D302200000000000002100000000000000284000
  0
ACAD_PROXY_OBJECT
  5
48B4
102
{ACAD_REACTORS
330
4894
102
}
330
4894
100
AcDbProxyObject
 90
      499
 91
      505
 93
      225
310
90A3622203D2031272D302200000000000006100000000000000284000
  0
ACAD_PROXY_OBJECT
  5
48B5
102
{ACAD_REACTORS
330
4894
102
}
330
4894
100
AcDbProxyObject
 90
      499
 91
      505
 93
      249
310
90D31272D3022203D2031272D30220000000000000A100000000000000284000
  0
ACAD_PROXY_OBJECT
  5
4880
102
{ACAD_REACTORS
330
487B
102
}
330
487B
100
AcDbProxyObject
 90
      499
 91
      504
 93
      436
310
42CC9915DA5C99599C985B595049028333333333333E33F0000000000000F90107901411070040501600405405064090741402480A0340
1001
ACAD
1000
AcDbSavedByObjectVersion
1070
     0
  0
ACAD_PROXY_OBJECT
  5
4883
102
{ACAD_REACTORS
330
487B
102
}
330
487B
100
AcDbProxyObject
 90
      499
 91
      504
 93
      388
310
4150985CDA58D07406404333333333333E33F0000000000000F90107A41107004050150841D405064090741402480A0350
1001
ACAD
1000
AcDbSavedByObjectVersion
1070
     0
  0
ACAD_PROXY_OBJECT
  5
4887
102
{ACAD_REACTORS
330
487B
102
}
330
487B
100
AcDbProxyObject
 90
      499
 91
      504
 93
      428
310
42109C9A59DA1D195B90C409028333333333333E33F0000000000000F9010790141107004050150841D405064090741402480A029950
1001
ACAD
1000
AcDbSavedByObjectVersion
1070
     0
  0
ACAD_PROXY_OBJECT
  5
488B
102
{ACAD_REACTORS
330
487B
102
}
330
487B
100
AcDbProxyObject
 90
      499
 91
      504
 93
      452
310
42D0DBDB1BDC90DA185B99D95104090240C333333333333E33F0000000000000F90108901411070040501508421405064090741402480A0350
1001
ACAD
1000
AcDbSavedByObjectVersion
1070
     0
  0
ACAD_PROXY_OBJECT
  5
4885
102
{ACAD_REACTORS
330
487B
102
}
330
487B
100
AcDbProxyObject
 90
      499
 91
      504
 93
      500
310
4290DBDB98D95C1D1D585B10940D028333333333333E33F0000000000000F90107902409070040501000000000018199010841D405064090740C02480A0340
1001
ACAD
1000
AcDbSavedByObjectVersion
1070
     0
  0
ACAD_PROXY_OBJECT
  5
4886
102
{ACAD_REACTORS
330
487B
102
}
330
487B
100
AcDbProxyObject
 90
      499
 91
      504
 93
      412
310
40D11A5B50B409028333333333333E33F0000000000000F9010790141107004050150841D405064090741402480A02677FFFFFD0
1001
ACAD
1000
AcDbSavedByObjectVersion
1070
     0
  0
ACAD_PROXY_OBJECT
  5
488E
102
{ACAD_REACTORS
330
487B
102
}
330
487B
100
AcDbProxyObject
 90
      499
 91
      504
 93
      452
310
43115919D950DBDB1BDC93D999916409028333333333333E33F0000000000000F9010790141107004050150841D405064090741402480A0350
1001
ACAD
1000
AcDbSavedByObjectVersion
1070
     0
  0
ACAD_PROXY_OBJECT
  5
488A
102
{ACAD_REACTORS
330
487B
102
}
330
487B
100
AcDbProxyObject
 90
      499
 91
      504
 93
      444
310
42D19858D95C185D1D195C9B90F409028333333333333E33F0000000000000F9010790141107004050150841D405064090741402480A0350
1001
ACAD
1000
AcDbSavedByObjectVersion
1070
     0
  0
ACAD_PROXY_OBJECT
  5
487C
102
{ACAD_REACTORS
330
487B
102
}
330
487B
100
AcDbProxyObject
 90
      499
 91
      504
 93
      380
310
41119B185D240901404333333333333E33F0000000000000F9010740A907004050150841D405064090741402480A1B50
1001
ACAD
1000
AcDbSavedByObjectVersion
1070
     0
  0
ACAD_PROXY_OBJECT
  5
487D
102
{ACAD_REACTORS
330
487B
102
}
330
487B
100
AcDbProxyObject
 90
      499
 91
      504
 93
      468
310
43519B185D15DA5D1A115919D95CD0140901404333333333333E33F0000000000000F90107409019070040501600405405064090741402480A1B50
1001
ACAD
1000
AcDbSavedByObjectVersion
1070
     0
  0
ACAD_PROXY_OBJECT
  5
487E
102
{ACAD_REACTORS
330
487B
102
}
330
487B
100
AcDbProxyObject
 90
      499
 91
      504
 93
      404
310
41D1DBDD5C985D5910240902404333333333333E33F0000000000000F9010740A9070040501641D405064090741402480A1B50
1001
ACAD
1000
AcDbSavedByObjectVersion
1070
     0
  0
ACAD_PROXY_OBJECT
  5
487F
102
{ACAD_REACTORS
330
487B
102
}
330
487B
100
AcDbProxyObject
 90
      499
 91
      504
 93
      492
310
4411DBDD5C985D5915DA5D1A115919D95CD0340902404333333333333E33F0000000000000F90107409019070040501600405405064090741402480A1B50
1001
ACAD
1000
AcDbSavedByObjectVersion
1070
     0
  0
ACAD_PROXY_OBJECT
  5
4882
102
{ACAD_REACTORS
330
487B
102
}
330
487B
100
AcDbProxyObject
 90
      499
 91
      504
 93
      476
310
41921A5919195B90640502408333333333333E33F0000000000000F901079024090700405020000000000001110200405405064090740C02480A0340
1001
ACAD
1000
AcDbSavedByObjectVersion
1070
     0
  0
ACAD_PROXY_OBJECT
  5
488C
102
{ACAD_REACTORS
330
487B
102
}
330
487B
100
AcDbProxyObject
 90
      499
 91
      504
 93
      428
310
42529A5D1D195C93D999914409028333333333333E33F0000000000000F9010790141107004050150A41D405064090741402480A0350
1001
ACAD
1000
AcDbSavedByObjectVersion
1070
     0
  0
ACAD_PROXY_OBJECT
  5
4889
102
{ACAD_REACTORS
330
487B
102
}
330
487B
100
AcDbProxyObject
 90
      499
 91
      504
 93
      444
310
42D31A5B995C185D1D195C9B90E409028333333333333E33F0000000000000F9010790141107004050750841D405064090741402483A0350
1001
ACAD
1000
AcDbSavedByObjectVersion
1070
     0
  0
ACAD_PROXY_OBJECT
  5
488D
102
{ACAD_REACTORS
330
487B
102
}
330
487B
100
AcDbProxyObject
 90
      499
 91
      504
 93
      444
310
42D3DD995C9A185B99D3D999915409028333333333333E33F0000000000000F9010790141107004050150941D405064090741402480A0350
1001
ACAD
1000
AcDbSavedByObjectVersion
1070
     0
  0
ACAD_PROXY_OBJECT
  5
4884
102
{ACAD_REACTORS
330
487B
102
}
330
487B
100
AcDbProxyObject
 90
      499
 91
      504
 93
      428
310
425499585B1A5CDD1A58D08409038333333333333E33F0000000000000F9010740A907004050150800405405064090740C02480A1B40
1001
ACAD
1000
AcDbSavedByObjectVersion
1070
     0
  0
ACAD_PROXY_OBJECT
  5
4893
102
{ACAD_REACTORS
330
487B
102
}
330
487B
100
AcDbProxyObject
 90
      499
 91
      504
 93
      420
310
4194DA1859195911B40902404333333333333E33F0000000000000F9010740A41107004050150800405405064090840C02480A0B40
1001
ACAD
1000
AcDbSavedByObjectVersion
1070
     0
  0
ACAD_PROXY_OBJECT
  5
4892
102
{ACAD_REACTORS
330
487B
102
}
330
487B
100
AcDbProxyObject
 90
      499
 91
      504
 93
      516
310
4454DA18591959081DDA5D1A08195919D95CD1A40902404333333333333E33F0000000000000F901074090142907004050250800405405064090740C02480A0B40
1001
ACAD
1000
AcDbSavedByObjectVersion
1070
     0
  0
ACAD_PROXY_OBJECT
  5
488F
102
{ACAD_REACTORS
330
487B
102
}
330
487B
100
AcDbProxyObject
 90
      499
 91
      504
 93
      532
310
4394DA1859195CC81BD98811DC985E5174090240C333333333333E33F0000000000000F901079024090741D01000000000000111010841D405064090740C02480A0340
1001
ACAD
1000
AcDbSavedByObjectVersion
1070
     0
  0
ACAD_PROXY_OBJECT
  5
4890
102
{ACAD_REACTORS
330
487B
102
}
330
487B
100
AcDbProxyObject
 90
      499
 91
      504
 93
      476
310
41D4DAD95D18DA1E51840502408333333333333E33F0000000000000F901079024090741D01000000000000111010B41D405064090741802480A0340
1001
ACAD
1000
AcDbSavedByObjectVersion
1070
     0
  0
ACAD_PROXY_OBJECT
  5
4888
102
{ACAD_REACTORS
330
487B
102
}
330
487B
100
AcDbProxyObject
 90
      499
 91
      504
 93
      412
310
41D51A1A58DAD95B90D409028333333333333E33F0000000000000F9010790141107004050150C41D405064090741402480A0350
1001
ACAD
1000
AcDbSavedByObjectVersion
1070
     0
  0
ACAD_PROXY_OBJECT
  5
4881
102
{ACAD_REACTORS
330
487B
102
}
330
487B
100
AcDbProxyObject
 90
      499
 91
      504
 93
      420
310
4255DA5C99599C985B595059028333333333333E33F0000000000000F90107901411070040501600405405064090740C02480A0340
1001
ACAD
1000
AcDbSavedByObjectVersion
1070
     0
  0
ACAD_PROXY_OBJECT
  5
4891
102
{ACAD_REACTORS
330
487B
102
}
330
487B
100
AcDbProxyObject
 90
      499
 91
      504
 93
      404
310
41560B54985E51940902404000000000000E03F0000000000000F9010740501907004050150841D405064090740C02480A1B40
1001
ACAD
1000
AcDbSavedByObjectVersion
1070
     0
  0
XRECORD
  5
4DAA
102
{ACAD_REACTORS
330
4DA0
102
}
330
4DA0
100
AcDbXrecord
340
0
  0
XRECORD
  5
4DA9
102
{ACAD_REACTORS
330
4DA0
102
}
330
4DA0
100
AcDbXrecord
 90
        0
  0
XRECORD
  5
4DC3
102
{ACAD_REACTORS
330
4DA0
102
}
330
4DA0
100
AcDbXrecord
340
2948
  0
XRECORD
  5
4DC0
102
{ACAD_REACTORS
330
4DA0
102
}
330
4DA0
100
AcDbXrecord
1000
DSTYLE
1002
{
1070
   171
 70
     2
1070
   143
 40
0.0394
1070
   274
 70
     2
1070
    41
 40
6.0
1070
   342
340
2AF4
1070
   271
 70
     1
1070
   278
 70
    46
1070
   341
340
2AF4
1070
   272
 70
     1
1070
    48
 40
0.1
1070
   283
 70
     1
1070
    47
 40
0.1
1070
   145
 40
1.0
1070
   340
340
10
1070
   140
 40
5.0
1070
   284
 70
     0
1002
}
  0
XRECORD
  5
4DAB
102
{ACAD_REACTORS
330
4DA0
102
}
330
4DA0
100
AcDbXrecord
  1
{23698909-1D67-4744-B0E2-8DE11E3ED422}
  0
XRECORD
  5
4DA3
102
{ACAD_REACTORS
330
4DA0
102
}
330
4DA0
100
AcDbXrecord
  1

  0
XRECORD
  5
4DA8
102
{ACAD_REACTORS
330
4DA0
102
}
330
4DA0
100
AcDbXrecord
 90
        0
  0
XRECORD
  5
4DA5
102
{ACAD_REACTORS
330
4DA0
102
}
330
4DA0
100
AcDbXrecord
340
2816
  0
XRECORD
  5
4DA7
102
{ACAD_REACTORS
330
4DA0
102
}
330
4DA0
100
AcDbXrecord
 90
    10781
  0
XRECORD
  5
4DC4
102
{ACAD_REACTORS
330
4DA0
102
}
330
4DA0
100
AcDbXrecord
340
2947
  0
XRECORD
  5
4DA6
102
{ACAD_REACTORS
330
4DA0
102
}
330
4DA0
100
AcDbXrecord
340
2817
  0
XRECORD
  5
4DAD
102
{ACAD_REACTORS
330
4DA0
102
}
330
4DA0
100
AcDbXrecord
 40
0.25
  0
XRECORD
  5
4DB0
102
{ACAD_REACTORS
330
4DA0
102
}
330
4DA0
100
AcDbXrecord
340
0
  0
XRECORD
  5
4DB6
102
{ACAD_REACTORS
330
4DA0
102
}
330
4DA0
100
AcDbXrecord
 10
0.0
 20
0.0
 30
0.0
  0
XRECORD
  5
4DB2
102
{ACAD_REACTORS
330
4DA0
102
}
330
4DA0
100
AcDbXrecord
 10
0.0
 20
0.0
 30
0.0
  0
XRECORD
  5
4DB5
102
{ACAD_REACTORS
330
4DA0
102
}
330
4DA0
100
AcDbXrecord
 10
0.0
 20
0.0
 30
0.0
  0
XRECORD
  5
4DB3
102
{ACAD_REACTORS
330
4DA0
102
}
330
4DA0
100
AcDbXrecord
 10
0.0
 20
0.0
 30
0.0
  0
XRECORD
  5
4DB4
102
{ACAD_REACTORS
330
4DA0
102
}
330
4DA0
100
AcDbXrecord
 10
0.0
 20
0.0
 30
0.0
  0
XRECORD
  5
4DB1
102
{ACAD_REACTORS
330
4DA0
102
}
330
4DA0
100
AcDbXrecord
 10
0.0
 20
0.0
 30
0.0
  0
XRECORD
  5
4DAE
102
{ACAD_REACTORS
330
4DA0
102
}
330
4DA0
100
AcDbXrecord
340
0
  0
XRECORD
  5
4DAF
102
{ACAD_REACTORS
330
4DA0
102
}
330
4DA0
100
AcDbXrecord
 70
     0
  0
XRECORD
  5
4DA4
102
{ACAD_REACTORS
330
4DA0
102
}
330
4DA0
100
AcDbXrecord
  1

  0
XRECORD
  5
4DA1
102
{ACAD_REACTORS
330
4DA0
102
}
330
4DA0
100
AcDbXrecord
 90
        1
  0
XRECORD
  5
4DA2
102
{ACAD_REACTORS
330
4DA0
102
}
330
4DA0
100
AcDbXrecord
 90
       70
  0
XRECORD
  5
4DB9
102
{ACAD_REACTORS
330
4DA0
102
}
330
4DA0
100
AcDbXrecord
340
0
  0
XRECORD
  5
4DBF
102
{ACAD_REACTORS
330
4DA0
102
}
330
4DA0
100
AcDbXrecord
 10
0.0
 20
0.0
 30
0.0
  0
XRECORD
  5
4DBB
102
{ACAD_REACTORS
330
4DA0
102
}
330
4DA0
100
AcDbXrecord
 10
0.0
 20
0.0
 30
0.0
  0
XRECORD
  5
4DBE
102
{ACAD_REACTORS
330
4DA0
102
}
330
4DA0
100
AcDbXrecord
 10
0.0
 20
0.0
 30
0.0
  0
XRECORD
  5
4DBC
102
{ACAD_REACTORS
330
4DA0
102
}
330
4DA0
100
AcDbXrecord
 10
0.0
 20
0.0
 30
0.0
  0
XRECORD
  5
4DBD
102
{ACAD_REACTORS
330
4DA0
102
}
330
4DA0
100
AcDbXrecord
 10
0.0
 20
0.0
 30
0.0
  0
XRECORD
  5
4DBA
102
{ACAD_REACTORS
330
4DA0
102
}
330
4DA0
100
AcDbXrecord
 10
0.0
 20
0.0
 30
0.0
  0
XRECORD
  5
4DB7
102
{ACAD_REACTORS
330
4DA0
102
}
330
4DA0
100
AcDbXrecord
340
0
  0
XRECORD
  5
4DB8
102
{ACAD_REACTORS
330
4DA0
102
}
330
4DA0
100
AcDbXrecord
 70
     0
  0
XRECORD
  5
4DAC
102
{ACAD_REACTORS
330
4DA0
102
}
330
4DA0
100
AcDbXrecord
  1
{E7F8CC98-7180-40FC-AE71-D255A55810BE}
  0
DICTIONARYVAR
  5
4D99
102
{ACAD_REACTORS
330
4D98
102
}
330
4D98
100
DictionaryVariables
280
     0
  1
1:1
  0
DICTIONARYVAR
  5
4D9B
102
{ACAD_REACTORS
330
4D98
102
}
330
4D98
100
DictionaryVariables
280
     0
  1
Standard
  0
DICTIONARYVAR
  5
4D9A
102
{ACAD_REACTORS
330
4D98
102
}
330
4D98
100
DictionaryVariables
280
     0
  1
Standard
  0
DICTIONARYVAR
  5
4DC1
102
{ACAD_REACTORS
330
4D98
102
}
330
4D98
100
DictionaryVariables
280
     0
  1
1
  0
DICTIONARYVAR
  5
4DC2
102
{ACAD_REACTORS
330
4D98
102
}
330
4D98
100
DictionaryVariables
280
     0
  1
0
  0
DICTIONARYVAR
  5
4D9C
102
{ACAD_REACTORS
330
4D98
102
}
330
4D98
100
DictionaryVariables
280
     0
  1
0
  0
DICTIONARYVAR
  5
4D9D
102
{ACAD_REACTORS
330
4D98
102
}
330
4D98
100
DictionaryVariables
280
     0
  1
0
  0
DICTIONARY
  5
4BC7
102
{ACAD_REACTORS
330
4BC6
102
}
330
4BC6
100
AcDbDictionary
  0
DICTIONARY
  5
4C6B
102
{ACAD_REACTORS
330
4C6A
102
}
330
4C6A
100
AcDbDictionary
  0
DICTIONARY
  5
4C72
102
{ACAD_REACTORS
330
4C71
102
}
330
4C71
100
AcDbDictionary
  0
DICTIONARY
  5
4C76
102
{ACAD_REACTORS
330
4C75
102
}
330
4C75
100
AcDbDictionary
  0
DICTIONARY
  5
4D69
102
{ACAD_REACTORS
330
4D68
102
}
330
4D68
100
AcDbDictionary
  0
DICTIONARY
  5
4D6C
102
{ACAD_REACTORS
330
4D6B
102
}
330
4D6B
100
AcDbDictionary
  0
DICTIONARY
  5
4D66
102
{ACAD_REACTORS
330
4D65
102
}
330
4D65
100
AcDbDictionary
  0
DICTIONARY
  5
4D97
102
{ACAD_REACTORS
330
4D96
102
}
330
4D96
100
AcDbDictionary
  0
DICTIONARY
  5
4DCA
330
48B7
100
AcDbDictionary
280
     1
  3
ACAD_XREC_ROUNDTRIP
360
4DCB
  0
DICTIONARY
  5
4DC8
330
48B6
100
AcDbDictionary
280
     1
  3
ACAD_XREC_ROUNDTRIP
360
4DC9
  0
DICTIONARY
  5
4DCC
330
48B8
100
AcDbDictionary
280
     1
  3
ACAD_XREC_ROUNDTRIP
360
4DCD
  0
XRECORD
  5
4DCB
102
{ACAD_REACTORS
330
4DCA
102
}
330
4DCA
100
AcDbXrecord
102
MATERIAL
148
0.0
149
0.0
149
0.0
 93
        0
 94
      127
282
     0
 72
     1
 77
     1
171
     1
175
     1
179
     1
273
     0
  0
XRECORD
  5
4DC9
102
{ACAD_REACTORS
330
4DC8
102
}
330
4DC8
100
AcDbXrecord
102
MATERIAL
148
0.0
149
0.0
149
0.0
 93
        0
 94
      127
282
     0
 72
     1
 77
     1
171
     1
175
     1
179
     1
273
     0
  0
XRECORD
  5
4DCD
102
{ACAD_REACTORS
330
4DCC
102
}
330
4DCC
100
AcDbXrecord
102
MATERIAL
148
0.0
149
0.0
149
0.0
 93
        0
 94
      127
282
     0
 72
     1
 77
     1
171
     1
175
     1
179
     1
273
     0
  0
ENDSEC
  0
EOF
