  0
SECTION
  2
HEADER
  9
$ACADVER
  1
AC1014
  9
$ACADMAINTVER
 70
     9
  9
$DWGCODEPAGE
  3
ANSI_932
  9
$INSBASE
 10
0.0
 20
0.0
 30
0.0
  9
$EXTMIN
 10
204.830846407597
 20
912.372728561274
 30
0.0
  9
$EXTMAX
 10
736.018970143567
 20
1226.753491141319
 30
0.0
  9
$LIMMIN
 10
-360.747566795242
 20
4.457354754526
  9
$LIMMAX
 10
-162.153696144267
 20
287.675440264018
  9
$ORTHOMODE
 70
     1
  9
$REGENMODE
 70
     1
  9
$FILLMODE
 70
     1
  9
$QTEXTMODE
 70
     0
  9
$MIRRTEXT
 70
     1
  9
$DRAGMODE
 70
     2
  9
$LTSCALE
 40
1.0
  9
$OSMODE
 70
    32
  9
$ATTMODE
 70
     1
  9
$TEXTSIZE
 40
2.333873885063
  9
$TRACEWID
 40
1.0
  9
$TEXTSTYLE
  7
STANDARD
  9
$CLAYER
  8
寸法線
  9
$CELTYPE
  6
BYLAYER
  9
$CECOLOR
 62
   256
  9
$CELTSCALE
 40
10.0
  9
$DELOBJ
 70
     1
  9
$DISPSILH
 70
     0
  9
$DIMSCALE
 40
1.0
  9
$DIMASZ
 40
6.0
  9
$DIMEXO
 40
0.625
  9
$DIMDLI
 40
3.75
  9
$DIMRND
 40
0.0
  9
$DIMDLE
 40
0.0
  9
$DIMEXE
 40
1.25
  9
$DIMTP
 40
0.1
  9
$DIMTM
 40
0.1
  9
$DIMTXT
 40
5.0
  9
$DIMCEN
 40
2.5
  9
$DIMTSZ
 40
0.0
  9
$DIMTOL
 70
     0
  9
$DIMLIM
 70
     0
  9
$DIMTIH
 70
     0
  9
$DIMTOH
 70
     0
  9
$DIMSE1
 70
     0
  9
$DIMSE2
 70
     0
  9
$DIMTAD
 70
     1
  9
$DIMZIN
 70
     8
  9
$DIMBLK
  1
OPEN30
  9
$DIMASO
 70
     1
  9
$DIMSHO
 70
     1
  9
$DIMPOST
  1

  9
$DIMAPOST
  1

  9
$DIMALT
 70
     0
  9
$DIMALTD
 70
     2
  9
$DIMALTF
 40
0.0394
  9
$DIMLFAC
 40
1.0
  9
$DIMTOFL
 70
     1
  9
$DIMTVP
 40
1.0
  9
$DIMTIX
 70
     0
  9
$DIMSOXD
 70
     0
  9
$DIMSAH
 70
     0
  9
$DIMBLK1
  1

  9
$DIMBLK2
  1

  9
$DIMSTYLE
  2
ISO-25
  9
$DIMCLRD
 70
     0
  9
$DIMCLRE
 70
     0
  9
$DIMCLRT
 70
     0
  9
$DIMTFAC
 40
1.0
  9
$DIMGAP
 40
0.625
  9
$DIMJUST
 70
     0
  9
$DIMSD1
 70
     0
  9
$DIMSD2
 70
     0
  9
$DIMTOLJ
 70
     1
  9
$DIMTZIN
 70
     0
  9
$DIMALTZ
 70
     0
  9
$DIMALTTZ
 70
     0
  9
$DIMFIT
 70
     3
  9
$DIMUPT
 70
     0
  9
$DIMUNIT
 70
     2
  9
$DIMDEC
 70
     1
  9
$DIMTDEC
 70
     1
  9
$DIMALTU
 70
     2
  9
$DIMALTTD
 70
     2
  9
$DIMTXSTY
  7
STANDARD
  9
$DIMAUNIT
 70
     0
  9
$LUNITS
 70
     2
  9
$LUPREC
 70
     4
  9
$SKETCHINC
 40
1.0
  9
$FILLETRAD
 40
6.5
  9
$AUNITS
 70
     0
  9
$AUPREC
 70
     0
  9
$MENU
  1
.
  9
$ELEVATION
 40
0.0
  9
$PELEVATION
 40
0.0
  9
$THICKNESS
 40
0.0
  9
$LIMCHECK
 70
     0
  9
$CHAMFERA
 40
10.0
  9
$CHAMFERB
 40
10.0
  9
$CHAMFERC
 40
20.0
  9
$CHAMFERD
 40
0.0
  9
$SKPOLY
 70
     0
  9
$TDCREATE
 40
2450576.597302431
  9
$TDUPDATE
 40
2457191.665502847
  9
$TDINDWG
 40
1.1677258218
  9
$TDUSRTIMER
 40
1.1677258218
  9
$USRTIMER
 70
     1
  9
$ANGBASE
 50
0.0
  9
$ANGDIR
 70
     0
  9
$PDMODE
 70
     0
  9
$PDSIZE
 40
0.0
  9
$PLINEWID
 40
0.0
  9
$COORDS
 70
     1
  9
$SPLFRAME
 70
     0
  9
$SPLINETYPE
 70
     6
  9
$SPLINESEGS
 70
     8
  9
$ATTDIA
 70
     0
  9
$ATTREQ
 70
     1
  9
$HANDLING
 70
     1
  9
$HANDSEED
  5
4CC5
  9
$SURFTAB1
 70
     6
  9
$SURFTAB2
 70
     6
  9
$SURFTYPE
 70
     6
  9
$SURFU
 70
     6
  9
$SURFV
 70
     6
  9
$UCSNAME
  2

  9
$UCSORG
 10
0.0
 20
0.0
 30
0.0
  9
$UCSXDIR
 10
1.0
 20
0.0
 30
0.0
  9
$UCSYDIR
 10
0.0
 20
1.0
 30
0.0
  9
$PUCSNAME
  2

  9
$PUCSORG
 10
0.0
 20
0.0
 30
0.0
  9
$PUCSXDIR
 10
1.0
 20
0.0
 30
0.0
  9
$PUCSYDIR
 10
0.0
 20
1.0
 30
0.0
  9
$USERI1
 70
     0
  9
$USERI2
 70
     0
  9
$USERI3
 70
     0
  9
$USERI4
 70
     0
  9
$USERI5
 70
     0
  9
$USERR1
 40
0.0
  9
$USERR2
 40
0.0
  9
$USERR3
 40
0.0
  9
$USERR4
 40
0.0
  9
$USERR5
 40
0.0
  9
$WORLDVIEW
 70
     1
  9
$SHADEDGE
 70
     3
  9
$SHADEDIF
 70
    70
  9
$TILEMODE
 70
     0
  9
$MAXACTVP
 70
    16
  9
$PINSBASE
 10
0.0
 20
0.0
 30
0.0
  9
$PLIMCHECK
 70
     0
  9
$PEXTMIN
 10
4.746305129083
 20
1.396645458131
 30
0.0
  9
$PEXTMAX
 10
404.746305129083
 20
281.396645458131
 30
0.0
  9
$PLIMMIN
 10
-7.007122192383
 20
-7.007118782997
  9
$PLIMMAX
 10
417.718108215332
 20
293.315290427208
  9
$UNITMODE
 70
     0
  9
$VISRETAIN
 70
     0
  9
$PLINEGEN
 70
     0
  9
$PSLTSCALE
 70
     1
  9
$TREEDEPTH
 70
  3020
  9
$PICKSTYLE
 70
     1
  9
$CMLSTYLE
  2
STANDARD
  9
$CMLJUST
 70
     0
  9
$CMLSCALE
 40
1.0
  9
$PROXYGRAPHICS
 70
     1
  9
$MEASUREMENT
 70
     1
  0
ENDSEC
  0
SECTION
  2
CLASSES
  0
CLASS
  1
ACDBDICTIONARYWDFLT
  2
AcDbDictionaryWithDefault
  3
ObjectDBX Classes
 90
        0
280
     0
281
     0
  0
CLASS
  1
ACDBPLACEHOLDER
  2
AcDbPlaceHolder
  3
ObjectDBX Classes
 90
        0
280
     0
281
     0
  0
CLASS
  1
LAYOUT
  2
AcDbLayout
  3
ObjectDBX Classes
 90
        0
280
     0
281
     0
  0
CLASS
  1
VISUALSTYLE
  2
AcDbVisualStyle
  3
ObjectDBX Classes
 90
     4095
280
     0
281
     0
  0
CLASS
  1
SCALE
  2
AcDbScale
  3
ObjectDBX Classes
 90
     1153
280
     0
281
     0
  0
CLASS
  1
MATERIAL
  2
AcDbMaterial
  3
ObjectDBX Classes
 90
     1153
280
     0
281
     0
  0
CLASS
  1
TABLESTYLE
  2
AcDbTableStyle
  3
ObjectDBX Classes
 90
     4095
280
     0
281
     0
  0
CLASS
  1
MLEADERSTYLE
  2
AcDbMLeaderStyle
  3
ACDB_MLEADERSTYLE_CLASS
 90
     4095
280
     0
281
     0
  0
CLASS
  1
SUN
  2
AcDbSun
  3
SCENEOE
 90
     1153
280
     0
281
     0
  0
CLASS
  1
DICTIONARYVAR
  2
AcDbDictionaryVar
  3
ObjectDBX Classes
 90
        0
280
     0
281
     0
  0
CLASS
  1
XRECORD
  2
AcDbXrecord
  3
ObjectDBX Classes
 90
        0
280
     0
281
     0
  0
CLASS
  1
LWPOLYLINE
  2
AcDbPolyline
  3
ObjectDBX Classes
 90
        0
280
     0
281
     1
  0
CLASS
  1
HATCH
  2
AcDbHatch
  3
ObjectDBX Classes
 90
        0
280
     0
281
     1
  0
ENDSEC
  0
SECTION
  2
TABLES
  0
TABLE
  2
VPORT
  5
8
102
{ACAD_XDICTIONARY
360
4CBC
102
}
330
0
100
AcDbSymbolTable
 70
     2
  0
VPORT
  5
43D4
330
8
100
AcDbSymbolTableRecord
100
AcDbViewportTableRecord
  2
*ACTIVE
 70
     0
 10
0.0
 20
0.0
 11
1.0
 21
1.0
 12
474.564655144144
 22
1042.400937287742
 13
0.0
 23
0.0
 14
1.0
 24
1.0
 15
0.0
 25
0.0
 16
0.0
 26
0.0
 36
1.0
 17
0.0
 27
0.0
 37
0.0
 40
282.100485582052
 41
1.56746031746
 42
50.0
 43
0.0
 44
0.0
 50
0.0
 51
0.0
 71
    16
 72
   100
 73
     1
 74
     0
 75
     0
 76
     0
 77
     0
 78
     0
  0
ENDTAB
  0
TABLE
  2
LTYPE
  5
5
330
0
100
AcDbSymbolTable
 70
     5
  0
LTYPE
  5
14
330
5
100
AcDbSymbolTableRecord
100
AcDbLinetypeTableRecord
  2
BYBLOCK
 70
     0
  3

 72
    65
 73
     0
 40
0.0
  0
LTYPE
  5
15
330
5
100
AcDbSymbolTableRecord
100
AcDbLinetypeTableRecord
  2
BYLAYER
 70
     0
  3

 72
    65
 73
     0
 40
0.0
  0
LTYPE
  5
16
330
5
100
AcDbSymbolTableRecord
100
AcDbLinetypeTableRecord
  2
CONTINUOUS
 70
     0
  3
Solid line
 72
    65
 73
     0
 40
0.0
  0
LTYPE
  5
1EC
330
5
100
AcDbSymbolTableRecord
100
AcDbLinetypeTableRecord
  2
CENTER
 70
     0
  3
____ _ ____ _ ____ _ ____ _ ____ _ ____ _ ____ 
 72
    65
 73
     4
 40
2.0
 49
1.25
 74
     0
 49
-0.25
 74
     0
 49
0.25
 74
     0
 49
-0.25
 74
     0
  0
LTYPE
  5
1ED
330
5
100
AcDbSymbolTableRecord
100
AcDbLinetypeTableRecord
  2
DASHED
 70
     0
  3
__ __ __ __ __ __ __ __ __ __ __ __ __ __ __ __
 72
    65
 73
     2
 40
0.75
 49
0.5
 74
     0
 49
-0.25
 74
     0
  0
LTYPE
  5
2B28
330
5
100
AcDbSymbolTableRecord
100
AcDbLinetypeTableRecord
  2
DASHDOT
 70
     0
  3
一点鎖線
 72
    65
 73
     4
 40
25.6
 49
20.0
 74
     0
 49
-2.0
 74
     0
 49
1.6
 74
     0
 49
-2.0
 74
     0
  0
LTYPE
  5
2B29
330
5
100
AcDbSymbolTableRecord
100
AcDbLinetypeTableRecord
  2
DIVIDE
 70
     0
  3
二点鎖線
 72
    65
 73
     6
 40
31.2
 49
20.0
 74
     0
 49
-2.4
 74
     0
 49
2.0
 74
     0
 49
-2.4
 74
     0
 49
2.0
 74
     0
 49
-2.4
 74
     0
  0
ENDTAB
  0
TABLE
  2
LAYER
  5
2
102
{ACAD_XDICTIONARY
360
29EA
102
}
330
0
100
AcDbSymbolTable
 70
    13
  0
LAYER
  5
F
330
2
100
AcDbSymbolTableRecord
100
AcDbLayerTableRecord
  2
0
 70
     0
 62
     7
  6
CONTINUOUS
  0
LAYER
  5
61
330
2
100
AcDbSymbolTableRecord
100
AcDbLayerTableRecord
  2
図枠太線
 70
     0
 62
   251
  6
CONTINUOUS
  0
LAYER
  5
62
330
2
100
AcDbSymbolTableRecord
100
AcDbLayerTableRecord
  2
図枠細線
 70
     0
 62
   252
  6
CONTINUOUS
  0
LAYER
  5
63
330
2
100
AcDbSymbolTableRecord
100
AcDbLayerTableRecord
  2
図枠ロゴマーク
 70
     0
 62
   253
  6
CONTINUOUS
  0
LAYER
  5
1EF
330
2
100
AcDbSymbolTableRecord
100
AcDbLayerTableRecord
  2
外形線
 70
     0
 62
     7
  6
CONTINUOUS
  0
LAYER
  5
1F0
330
2
100
AcDbSymbolTableRecord
100
AcDbLayerTableRecord
  2
寸法線
 70
     0
 62
     1
  6
CONTINUOUS
  0
LAYER
  5
1F1
330
2
100
AcDbSymbolTableRecord
100
AcDbLayerTableRecord
  2
中心線
 70
     0
 62
     4
  6
CENTER
  0
LAYER
  5
1F4
330
2
100
AcDbSymbolTableRecord
100
AcDbLayerTableRecord
  2
DEFPOINTS
 70
     0
 62
     7
  6
CONTINUOUS
  0
LAYER
  5
2AA2
330
2
100
AcDbSymbolTableRecord
100
AcDbLayerTableRecord
  2
下書線
 70
     0
 62
     2
  6
CONTINUOUS
  0
LAYER
  5
2AA3
330
2
100
AcDbSymbolTableRecord
100
AcDbLayerTableRecord
  2
隠れ線
 70
     0
 62
     3
  6
DASHED
  0
LAYER
  5
2AA4
330
2
100
AcDbSymbolTableRecord
100
AcDbLayerTableRecord
  2
細線
 70
     0
 62
     6
  6
CONTINUOUS
  0
LAYER
  5
2AA5
330
2
100
AcDbSymbolTableRecord
100
AcDbLayerTableRecord
  2
太線
 70
     0
 62
   190
  6
CONTINUOUS
  0
LAYER
  5
2B2A
330
2
100
AcDbSymbolTableRecord
100
AcDbLayerTableRecord
  2
LAY-1
 70
     0
 62
     7
  6
CONTINUOUS
  0
ENDTAB
  0
TABLE
  2
STYLE
  5
3
330
0
100
AcDbSymbolTable
 70
     3
  0
STYLE
  5
10
330
3
100
AcDbSymbolTableRecord
100
AcDbTextStyleTableRecord
  2
STANDARD
 70
     0
 40
0.0
 41
1.0
 50
0.0
 71
     0
 42
2.333873885063
  3
ISOCP
  4
bigfont.shx
  0
STYLE
  5
64
330
3
100
AcDbSymbolTableRecord
100
AcDbTextStyleTableRecord
  2
EXCADSTD
 70
     0
 40
0.0
 41
1.0
 50
0.0
 71
     0
 42
0.2
  3
monotxt
  4
bigfont
  0
STYLE
  5
2B2B
330
3
100
AcDbSymbolTableRecord
100
AcDbTextStyleTableRecord
  2
EXCADVERT
 70
     4
 40
0.0
 41
1.0
 50
0.0
 71
     0
 42
0.286885
  3
monotxt
  4
bigfont
  0
ENDTAB
  0
TABLE
  2
VIEW
  5
6
330
0
100
AcDbSymbolTable
 70
     0
  0
ENDTAB
  0
TABLE
  2
UCS
  5
7
330
0
100
AcDbSymbolTable
 70
     0
  0
ENDTAB
  0
TABLE
  2
APPID
  5
9
330
0
100
AcDbSymbolTable
 70
     3
  0
APPID
  5
11
330
9
100
AcDbSymbolTableRecord
100
AcDbRegAppTableRecord
  2
ACAD
 70
     0
  0
APPID
  5
4418
330
9
100
AcDbSymbolTableRecord
100
AcDbRegAppTableRecord
  2
ACADANNOTATIVE
 70
     0
  0
APPID
  5
4CC4
330
9
100
AcDbSymbolTableRecord
100
AcDbRegAppTableRecord
  2
ACAD_MLEADERVER
 70
     0
  0
ENDTAB
  0
TABLE
  2
DIMSTYLE
  5
A
330
0
100
AcDbSymbolTable
 70
     2
  0
DIMSTYLE
105
1D
330
A
100
AcDbSymbolTableRecord
100
AcDbDimStyleTableRecord
  2
STANDARD
 70
     0
  3

  4

  5

  6

  7

 40
1.0
 41
0.18
 42
0.0625
 43
0.38
 44
0.18
 45
0.0
 46
0.0
 47
0.0
 48
0.0
140
0.18
141
0.09
142
0.0
143
25.4
144
1.0
145
0.0
146
1.0
147
0.09
 71
     0
 72
     0
 73
     1
 74
     1
 75
     0
 76
     0
 77
     0
 78
     0
170
     0
171
     2
172
     0
173
     0
174
     0
175
     0
176
     0
177
     0
178
     0
270
     2
271
     4
272
     4
273
     2
274
     2
340
10
275
     0
280
     0
281
     0
282
     0
283
     1
284
     0
285
     0
286
     0
287
     3
288
     0
  0
DIMSTYLE
105
24
102
{ACAD_REACTORS
330
3C6C
330
3EC0
330
46A6
330
46A7
330
46A8
330
46DC
330
47A0
330
47E1
330
47F4
330
48AB
330
4B28
330
4B29
330
4B2B
102
}
330
A
100
AcDbSymbolTableRecord
100
AcDbDimStyleTableRecord
  2
ISO-25
 70
     0
  3

  4

  5

  6

  7

 40
1.0
 41
2.5
 42
0.625
 43
3.75
 44
1.25
 45
0.0
 46
0.0
 47
0.0
 48
0.0
140
2.5
141
2.5
142
0.0
143
0.0394
144
1.0
145
1.0
146
1.0
147
0.625
 71
     0
 72
     0
 73
     1
 74
     0
 75
     0
 76
     0
 77
     1
 78
     8
170
     0
171
     2
172
     1
173
     0
174
     0
175
     0
176
     0
177
     0
178
     0
270
     2
271
     4
272
     4
273
     2
274
     2
340
10
275
     0
280
     0
281
     0
282
     0
283
     1
284
     0
285
     0
286
     0
287
     3
288
     0
  0
ENDTAB
  0
TABLE
  2
BLOCK_RECORD
  5
1
330
0
100
AcDbSymbolTable
 70
    71
  0
BLOCK_RECORD
  5
1A
330
1
100
AcDbSymbolTableRecord
100
AcDbBlockTableRecord
  2
*MODEL_SPACE
  0
BLOCK_RECORD
  5
28FB
330
1
100
AcDbSymbolTableRecord
100
AcDbBlockTableRecord
  2
*PAPER_SPACE
  0
BLOCK_RECORD
  5
65
330
1
100
AcDbSymbolTableRecord
100
AcDbBlockTableRecord
  2
A$C3392
  0
BLOCK_RECORD
  5
29BF
330
1
100
AcDbSymbolTableRecord
100
AcDbBlockTableRecord
  2
A4横用_タイトル
1001
ACAD
1000
DesignCenter Data
1002
{
1070
     1
1070
     4
1002
}
  0
BLOCK_RECORD
  5
29F4
330
1
100
AcDbSymbolTableRecord
100
AcDbBlockTableRecord
  2
A4縦用_タイトル
1001
ACAD
1000
DesignCenter Data
1002
{
1070
     1
1070
     4
1002
}
  0
BLOCK_RECORD
  5
2A32
330
1
100
AcDbSymbolTableRecord
100
AcDbBlockTableRecord
  2
A3横用_タイトル
1001
ACAD
1000
DesignCenter Data
1002
{
1070
     1
1070
     4
1002
}
  0
BLOCK_RECORD
  5
2A6C
330
1
100
AcDbSymbolTableRecord
100
AcDbBlockTableRecord
  2
A3縦用_タイトル
1001
ACAD
1000
DesignCenter Data
1002
{
1070
     1
1070
     4
1002
}
  0
BLOCK_RECORD
  5
2AF4
330
1
100
AcDbSymbolTableRecord
100
AcDbBlockTableRecord
  2
_OPEN30
  0
BLOCK_RECORD
  5
2F3F
330
1
100
AcDbSymbolTableRecord
100
AcDbBlockTableRecord
  2
ケース外形図_HL-400
  0
BLOCK_RECORD
  5
3CE0
330
1
100
AcDbSymbolTableRecord
100
AcDbBlockTableRecord
  2
*D14
  0
BLOCK_RECORD
  5
3EC1
330
1
100
AcDbSymbolTableRecord
100
AcDbBlockTableRecord
  2
*D16
  0
BLOCK_RECORD
  5
4813
330
1
100
AcDbSymbolTableRecord
100
AcDbBlockTableRecord
  2
*D33
  0
BLOCK_RECORD
  5
4822
330
1
100
AcDbSymbolTableRecord
100
AcDbBlockTableRecord
  2
*D34
  0
BLOCK_RECORD
  5
482E
330
1
100
AcDbSymbolTableRecord
100
AcDbBlockTableRecord
  2
*D35
  0
BLOCK_RECORD
  5
4846
330
1
100
AcDbSymbolTableRecord
100
AcDbBlockTableRecord
  2
*D37
  0
BLOCK_RECORD
  5
4886
330
1
100
AcDbSymbolTableRecord
100
AcDbBlockTableRecord
  2
*D42
  0
BLOCK_RECORD
  5
4892
330
1
100
AcDbSymbolTableRecord
100
AcDbBlockTableRecord
  2
*D43
  0
BLOCK_RECORD
  5
489E
330
1
100
AcDbSymbolTableRecord
100
AcDbBlockTableRecord
  2
*D44
  0
BLOCK_RECORD
  5
48AC
330
1
100
AcDbSymbolTableRecord
100
AcDbBlockTableRecord
  2
*D45
  0
BLOCK_RECORD
  5
4C34
330
1
100
AcDbSymbolTableRecord
100
AcDbBlockTableRecord
  2
*D64
  0
BLOCK_RECORD
  5
4C42
330
1
100
AcDbSymbolTableRecord
100
AcDbBlockTableRecord
  2
*D65
  0
BLOCK_RECORD
  5
4C4E
330
1
100
AcDbSymbolTableRecord
100
AcDbBlockTableRecord
  2
*D66
  0
ENDTAB
  0
ENDSEC
  0
SECTION
  2
BLOCKS
  0
BLOCK
  5
1B
330
1A
100
AcDbEntity
  8
0
100
AcDbBlockBegin
  2
*MODEL_SPACE
 70
     0
 10
0.0
 20
0.0
 30
0.0
  3
*MODEL_SPACE
  1

  0
ENDBLK
  5
1C
330
1A
100
AcDbEntity
  8
0
100
AcDbBlockEnd
  0
BLOCK
  5
28FD
330
28FB
100
AcDbEntity
 67
     1
  8
0
 48
10.0
100
AcDbBlockBegin
  2
*PAPER_SPACE
 70
     0
 10
0.0
 20
0.0
 30
0.0
  3
*PAPER_SPACE
  1

  0
ENDBLK
  5
28FE
330
28FB
100
AcDbEntity
 67
     1
  8
0
 48
10.0
100
AcDbBlockEnd
  0
BLOCK
  5
93
330
65
100
AcDbEntity
  8
0
100
AcDbBlockBegin
  2
A$C3392
 70
     0
 10
0.0
 20
0.0
 30
0.0
  3
A$C3392
  1
A$C3392
  0
LINE
  5
66
330
65
100
AcDbEntity
  8
図枠太線
  6
CONTINUOUS
100
AcDbLine
 10
211.858584505185
 20
30.927375675439
 30
0.0
 11
211.858584505185
 21
0.927375675439
 31
0.0
  0
LINE
  5
67
330
65
100
AcDbEntity
  8
図枠細線
  6
CONTINUOUS
100
AcDbLine
 10
231.858592505185
 20
15.927377675439
 30
0.0
 11
287.858592505185
 21
15.927375675439
 31
0.0
  0
LINE
  5
68
330
65
100
AcDbEntity
  8
図枠細線
  6
CONTINUOUS
100
AcDbLine
 10
211.858592505185
 20
15.927377675439
 30
0.0
 11
231.858592505185
 21
15.927377675439
 31
0.0
  0
LINE
  5
69
330
65
100
AcDbEntity
  8
図枠太線
  6
CONTINUOUS
 62
   251
100
AcDbLine
 10
1.858584505185
 20
0.927375675439
 30
0.0
 11
1.858584505185
 21
275.927375675439
 31
0.0
  0
TEXT
  5
6A
330
65
100
AcDbEntity
  8
図枠細線
  6
CONTINUOUS
 62
   252
100
AcDbText
 10
351.358592505185
 20
28.427377675439
 30
0.0
 40
2.0
  1
ＴＩＴＬＥ
 41
0.903614457831
  7
EXCADSTD
 72
     5
 11
361.358592505185
 21
28.427377675439
 31
0.0
100
AcDbText
  0
TEXT
  5
6B
330
65
100
AcDbEntity
  8
図枠細線
  6
CONTINUOUS
 62
   252
100
AcDbText
 10
345.358592505185
 20
28.427377675439
 30
0.0
 40
2.0
  1
名称
 41
1.171875
  7
EXCADSTD
 72
     5
 11
350.358592505185
 21
28.427377675439
 31
0.0
100
AcDbText
  0
TEXT
  5
6C
330
65
100
AcDbEntity
  8
図枠細線
  6
CONTINUOUS
 62
   252
100
AcDbText
 10
274.358592505185
 20
25.927377675439
 30
0.0
 40
2.0
  1
ＤＲＡＷＮ
 41
0.882352941176
  7
EXCADSTD
 72
     5
 11
284.358592505185
 21
25.927377675439
 31
0.0
100
AcDbText
  0
TEXT
  5
6D
330
65
100
AcDbEntity
  8
図枠細線
  6
CONTINUOUS
 62
   252
100
AcDbText
 10
260.358592505185
 20
25.927377675439
 30
0.0
 40
2.0
  1
ＤＥＳＩＧＮＥＤ
 41
0.713043472041
  7
EXCADSTD
 72
     5
 11
273.478592390744
 21
25.927377675439
 31
0.0
100
AcDbText
  0
TEXT
  5
6E
330
65
100
AcDbEntity
  8
図枠細線
  6
CONTINUOUS
 62
   252
100
AcDbText
 10
246.358592505185
 20
25.927377675439
 30
0.0
 40
2.0
  1
ＣＨＥＣＫＥＤ
 41
0.831249989569
  7
EXCADSTD
 72
     5
 11
259.658592338292
 21
25.927377675439
 31
0.0
100
AcDbText
  0
TEXT
  5
6F
330
65
100
AcDbEntity
  8
図枠細線
  6
CONTINUOUS
 62
   252
100
AcDbText
 10
274.358592505185
 20
28.427377675439
 30
0.0
 40
2.0
  1
製図
 41
1.209677419355
  7
EXCADSTD
 72
     5
 11
279.358592505185
 21
28.427377675439
 31
0.0
100
AcDbText
  0
TEXT
  5
70
330
65
100
AcDbEntity
  8
図枠細線
  6
CONTINUOUS
 62
   252
100
AcDbText
 10
260.358592505185
 20
28.427377675439
 30
0.0
 40
2.0
  1
設計
 41
1.171875
  7
EXCADSTD
 72
     5
 11
265.358592505185
 21
28.427377675439
 31
0.0
100
AcDbText
  0
TEXT
  5
71
330
65
100
AcDbEntity
  8
図枠細線
  6
CONTINUOUS
 62
   252
100
AcDbText
 10
246.358592505185
 20
28.427377675439
 30
0.0
 40
2.0
  1
検図
 41
1.209677419355
  7
EXCADSTD
 72
     5
 11
251.358592505185
 21
28.427377675439
 31
0.0
100
AcDbText
  0
TEXT
  5
72
330
65
100
AcDbEntity
  8
図枠細線
  6
CONTINUOUS
 62
   252
100
AcDbText
 10
232.358592505185
 20
25.927377675439
 30
0.0
 40
2.0
  1
ＡＰＰＲＯＶＥＤ
 41
0.695652184279
  7
EXCADSTD
 72
     5
 11
245.15859269592
 21
25.927377675439
 31
0.0
100
AcDbText
  0
TEXT
  5
73
330
65
100
AcDbEntity
  8
図枠細線
  6
CONTINUOUS
 62
   252
100
AcDbText
 10
232.358592505185
 20
28.427377675439
 30
0.0
 40
2.0
  1
承認
 41
1.171875
  7
EXCADSTD
 72
     5
 11
237.358592505185
 21
28.427377675439
 31
0.0
100
AcDbText
  0
TEXT
  5
74
330
65
100
AcDbEntity
  8
図枠細線
  6
CONTINUOUS
 62
   252
100
AcDbText
 10
290.069888505185
 20
2.574868675439
 30
0.0
 40
3.5
  1
ＴＯＷＡ　ＳＥＩＤＥＮ　ＩＮＤＵＳＴＲＩＡＬ　ＣＯ．，ＬＴＤ．
 41
0.414568012377
  7
EXCADSTD
 72
     5
 11
342.692388209546
 21
2.574868675439
 31
0.0
100
AcDbText
  0
TEXT
  5
75
330
65
100
AcDbEntity
  8
図枠ロゴマーク
  6
CONTINUOUS
 62
   253
100
AcDbText
 10
290.107348505185
 20
7.519769675439
 30
0.0
 40
7.0
  1
東和制電工業株式会社
 41
0.639204545455
  7
EXCADSTD
 72
     5
 11
342.607348505185
 21
7.519769675439
 31
0.0
100
AcDbText
  0
TEXT
  5
76
330
65
100
AcDbEntity
  8
図枠細線
  6
CONTINUOUS
 62
   252
100
AcDbText
 10
232.499705505185
 20
5.759088675439
 30
0.0
 40
2.0
  1
ＰＲＯＪＥＣＴＩＯＮ
 41
0.754285710199
  7
EXCADSTD
 72
     5
 11
250.099705409817
 21
5.759088675439
 31
0.0
100
AcDbText
  0
TEXT
  5
77
330
65
100
AcDbEntity
  8
図枠細線
  6
CONTINUOUS
 62
   252
100
AcDbText
 10
232.574629505185
 20
8.681077675439
 30
0.0
 40
2.0
  1
ＴＨＩＲＤ　ＡＮＧＬＥ
 41
0.691099486738
  7
EXCADSTD
 72
     5
 11
250.174629767445
 21
8.681077675439
 31
0.0
100
AcDbText
  0
TEXT
  5
78
330
65
100
AcDbEntity
  8
図枠細線
  6
CONTINUOUS
 62
   252
100
AcDbText
 10
256.823999505185
 20
13.427377675439
 30
0.0
 40
2.0
  1
ＳＣＡＬＥ
 41
0.903614457831
  7
EXCADSTD
 72
     5
 11
266.823999505185
 21
13.427377675439
 31
0.0
100
AcDbText
  0
TEXT
  5
79
330
65
100
AcDbEntity
  8
図枠細線
  6
CONTINUOUS
 62
   252
100
AcDbText
 10
274.858592505185
 20
13.427377675439
 30
0.0
 40
2.0
  1
ＤＡＴＥ
 41
0.923076923077
  7
EXCADSTD
 72
     5
 11
282.858592505185
 21
13.427377675439
 31
0.0
100
AcDbText
  0
TEXT
  5
7A
330
65
100
AcDbEntity
  8
図枠細線
  6
CONTINUOUS
 62
   252
100
AcDbText
 10
356.358592505185
 20
13.427377675439
 30
0.0
 40
2.0
  1
ＤＲＧ．ＮＯ．
 41
0.9375
  7
EXCADSTD
 72
     5
 11
370.358592505185
 21
13.427377675439
 31
0.0
100
AcDbText
  0
TEXT
  5
7B
330
65
100
AcDbEntity
  8
図枠細線
  6
CONTINUOUS
 62
   252
100
AcDbText
 10
345.358592505185
 20
13.427377675439
 30
0.0
 40
2.0
  1
図面番号
 41
1.102941176471
  7
EXCADSTD
 72
     5
 11
355.358592505185
 21
13.427377675439
 31
0.0
100
AcDbText
  0
TEXT
  5
7C
330
65
100
AcDbEntity
  8
図枠細線
  6
CONTINUOUS
 62
   252
100
AcDbText
 10
269.358592505185
 20
13.427377675439
 30
0.0
 40
2.0
  1
日付
 41
1.171875
  7
EXCADSTD
 72
     5
 11
274.358592505185
 21
13.427377675439
 31
0.0
100
AcDbText
  0
TEXT
  5
7D
330
65
100
AcDbEntity
  8
図枠細線
  6
CONTINUOUS
 62
   252
100
AcDbText
 10
251.451512505185
 20
13.427377675439
 30
0.0
 40
2.0
  1
尺度
 41
1.171875
  7
EXCADSTD
 72
     5
 11
256.451512505185
 21
13.427377675439
 31
0.0
100
AcDbText
  0
TEXT
  5
7E
330
65
100
AcDbEntity
  8
図枠細線
  6
CONTINUOUS
 62
   252
100
AcDbText
 10
232.358592505185
 20
13.427377675439
 30
0.0
 40
2.0
  1
第三角法
 41
1.102941176471
  7
EXCADSTD
 72
     5
 11
242.358592505185
 21
13.427377675439
 31
0.0
100
AcDbText
  0
TEXT
  5
7F
330
65
100
AcDbEntity
  8
図枠細線
  6
CONTINUOUS
 62
   252
100
AcDbText
 10
212.358592505185
 20
28.427377675439
 30
0.0
 40
2.0
  1
ＮＯＴＥ
 41
0.923076923077
  7
EXCADSTD
 72
     5
 11
220.358592505185
 21
28.427377675439
 31
0.0
100
AcDbText
  0
LINE
  5
80
330
65
100
AcDbEntity
  8
図枠細線
  6
CONTINUOUS
 62
   252
100
AcDbLine
 10
287.858592505185
 20
23.427375675439
 30
0.0
 11
344.858592505185
 21
23.427375675439
 31
0.0
  0
LINE
  5
81
330
65
100
AcDbEntity
  8
図枠太線
  6
CONTINUOUS
 62
   251
100
AcDbLine
 10
287.858584505185
 20
15.927375675439
 30
0.0
 11
344.858592505185
 21
15.927375675439
 31
0.0
  0
LINE
  5
82
330
65
100
AcDbEntity
  8
図枠細線
  6
CONTINUOUS
 62
   252
100
AcDbLine
 10
344.858592505185
 20
15.927375675439
 30
0.0
 11
401.858584505185
 21
15.927375675439
 31
0.0
  0
LINE
  5
83
330
65
100
AcDbEntity
  8
図枠太線
  6
CONTINUOUS
 62
   251
100
AcDbLine
 10
344.858592505185
 20
0.927377675439
 30
0.0
 11
344.858592505185
 21
30.927375675439
 31
0.0
  0
LINE
  5
84
330
65
100
AcDbEntity
  8
図枠太線
  6
CONTINUOUS
 62
   251
100
AcDbLine
 10
287.858592505185
 20
0.927377675439
 30
0.0
 11
287.858592505185
 21
30.927375675439
 31
0.0
  0
LINE
  5
85
330
65
100
AcDbEntity
  8
図枠細線
  6
CONTINUOUS
 62
   252
100
AcDbLine
 10
268.858592505185
 20
0.927377675439
 30
0.0
 11
268.858592505185
 21
15.927375675439
 31
0.0
  0
LINE
  5
86
330
65
100
AcDbEntity
  8
図枠細線
  6
CONTINUOUS
 62
   252
100
AcDbLine
 10
250.858592505185
 20
0.927377675439
 30
0.0
 11
250.858592505185
 21
15.927375675439
 31
0.0
  0
LINE
  5
87
330
65
100
AcDbEntity
  8
図枠細線
  6
CONTINUOUS
 62
   252
100
AcDbLine
 10
273.858592505185
 20
30.927375675439
 30
0.0
 11
273.858592505185
 21
15.927375675439
 31
0.0
  0
LINE
  5
88
330
65
100
AcDbEntity
  8
図枠細線
  6
CONTINUOUS
 62
   252
100
AcDbLine
 10
259.858592505185
 20
30.927375675439
 30
0.0
 11
259.858592505185
 21
15.927375675439
 31
0.0
  0
LINE
  5
89
330
65
100
AcDbEntity
  8
図枠細線
  6
CONTINUOUS
 62
   252
100
AcDbLine
 10
245.858592505185
 20
30.927375675439
 30
0.0
 11
245.858592505185
 21
15.927375675439
 31
0.0
  0
LINE
  5
8A
330
65
100
AcDbEntity
  8
図枠太線
  6
CONTINUOUS
 62
   251
100
AcDbLine
 10
231.858592505185
 20
0.927377675439
 30
0.0
 11
231.858592505185
 21
30.927375675439
 31
0.0
  0
LINE
  5
8B
330
65
100
AcDbEntity
  8
図枠細線
  6
CONTINUOUS
 62
   252
100
AcDbLine
 10
211.858592505185
 20
25.927375675439
 30
0.0
 11
231.858592505185
 21
25.927375675439
 31
0.0
  0
LINE
  5
8C
330
65
100
AcDbEntity
  8
図枠細線
  6
CONTINUOUS
 62
   252
100
AcDbLine
 10
211.858592505185
 20
20.927375675439
 30
0.0
 11
231.858592505185
 21
20.927375675439
 31
0.0
  0
LINE
  5
8D
330
65
100
AcDbEntity
  8
図枠細線
  6
CONTINUOUS
 62
   252
100
AcDbLine
 10
211.858592505185
 20
10.927375675439
 30
0.0
 11
231.858592505185
 21
10.927375675439
 31
0.0
  0
LINE
  5
8E
330
65
100
AcDbEntity
  8
図枠細線
  6
CONTINUOUS
 62
   252
100
AcDbLine
 10
211.858592505185
 20
5.927377675439
 30
0.0
 11
231.858592505185
 21
5.927377675439
 31
0.0
  0
LINE
  5
8F
330
65
100
AcDbEntity
  8
図枠太線
  6
CONTINUOUS
 62
   251
100
AcDbLine
 10
211.858592505185
 20
30.927375675439
 30
0.0
 11
401.858584505185
 21
30.927375675439
 31
0.0
  0
LINE
  5
90
330
65
100
AcDbEntity
  8
図枠太線
  6
CONTINUOUS
 62
   251
100
AcDbLine
 10
1.858584505185
 20
275.927375675439
 30
0.0
 11
401.858584505185
 21
275.927375675439
 31
0.0
  0
LINE
  5
91
330
65
100
AcDbEntity
  8
図枠太線
  6
CONTINUOUS
 62
   251
100
AcDbLine
 10
401.858584505185
 20
0.927375675439
 30
0.0
 11
401.858584505185
 21
275.927375675439
 31
0.0
  0
LINE
  5
92
330
65
100
AcDbEntity
  8
図枠太線
  6
CONTINUOUS
 62
   251
100
AcDbLine
 10
1.858584505185
 20
0.927375675439
 30
0.0
 11
401.858584505185
 21
0.927375675439
 31
0.0
  0
ENDBLK
  5
94
330
65
100
AcDbEntity
  8
0
100
AcDbBlockEnd
  0
BLOCK
  5
29C0
330
29BF
100
AcDbEntity
  8
0
100
AcDbBlockBegin
  2
A4横用_タイトル
 70
     0
 10
0.0
 20
0.0
 30
0.0
  3
A4横用_タイトル
  1
A4横用_タイトル
  0
LINE
  5
29C1
330
29BF
100
AcDbEntity
  8
図枠細線
  6
CONTINUOUS
100
AcDbLine
 10
75.061011071051
 20
16.806607253358
 30
0.0
 11
144.061011071051
 21
16.806604789072
 31
0.0
  0
LINE
  5
29C2
330
29BF
100
AcDbEntity
  8
図枠細線
  6
CONTINUOUS
 62
   252
100
AcDbLine
 10
4.061011071051
 20
11.806606253358
 30
0.0
 11
75.061011071051
 21
11.806606253358
 31
0.0
  0
LINE
  5
29C3
330
29BF
100
AcDbEntity
  8
図枠細線
  6
CONTINUOUS
 62
   252
100
AcDbLine
 10
4.061011071051
 20
21.806606253358
 30
0.0
 11
75.061011071051
 21
21.806606253358
 31
0.0
  0
LINE
  5
29C4
330
29BF
100
AcDbEntity
  8
図枠細線
  6
CONTINUOUS
 62
   252
100
AcDbLine
 10
4.061011071051
 20
26.806606253358
 30
0.0
 11
75.061011071051
 21
26.806606253358
 31
0.0
  0
LINE
  5
29C5
330
29BF
100
AcDbEntity
  8
図枠細線
  6
CONTINUOUS
100
AcDbLine
 10
4.061011071051
 20
16.806608253358
 30
0.0
 11
75.061011071051
 21
16.806608253358
 31
0.0
  0
TEXT
  5
29C6
330
29BF
100
AcDbEntity
  8
図枠細線
  6
CONTINUOUS
 62
   252
100
AcDbText
 10
76.405475827713
 20
9.560308253358
 30
0.0
 40
2.0
  1
ＴＨＩＲＤ　ＡＮＧＬＥ
 41
0.691099486738
  7
EXCADSTD
 72
     5
 11
94.005476089973
 21
9.560308253358
 31
0.0
100
AcDbText
  0
TEXT
  5
29C7
330
29BF
100
AcDbEntity
  8
図枠細線
  6
CONTINUOUS
 62
   252
100
AcDbText
 10
76.705775880921
 20
14.306608253358
 30
0.0
 40
2.0
  1
第三角法
 41
1.102941176471
  7
EXCADSTD
 72
     5
 11
86.705775880921
 21
14.306608253358
 31
0.0
100
AcDbText
  0
TEXT
  5
29C8
330
29BF
100
AcDbEntity
  8
図枠細線
  6
CONTINUOUS
 62
   252
100
AcDbText
 10
76.705775880921
 20
26.806608253358
 30
0.0
 40
2.0
  1
ＡＰＰＲＯＶＥＤ
 41
0.695652184279
  7
EXCADSTD
 72
     5
 11
89.505776071656
 21
26.806608253358
 31
0.0
100
AcDbText
  0
TEXT
  5
29C9
330
29BF
100
AcDbEntity
  8
図枠細線
  6
CONTINUOUS
 62
   252
100
AcDbText
 10
76.705775880921
 20
29.306608253358
 30
0.0
 40
2.0
  1
承認
 41
1.171875
  7
EXCADSTD
 72
     5
 11
81.705775880921
 21
29.306608253358
 31
0.0
100
AcDbText
  0
LINE
  5
29CA
330
29BF
100
AcDbEntity
  8
図枠細線
  6
CONTINUOUS
 62
   252
100
AcDbLine
 10
98.061011071051
 20
31.806606253358
 30
0.0
 11
98.061011071051
 21
16.806606253358
 31
0.0
  0
TEXT
  5
29CB
330
29BF
100
AcDbEntity
  8
図枠細線
  6
CONTINUOUS
 62
   252
100
AcDbText
 10
104.216531119804
 20
14.306608253358
 30
0.0
 40
2.0
  1
ＳＣＡＬＥ
 41
0.903614457831
  7
EXCADSTD
 72
     5
 11
114.216531119804
 21
14.306608253358
 31
0.0
100
AcDbText
  0
TEXT
  5
29CC
330
29BF
100
AcDbEntity
  8
図枠細線
  6
CONTINUOUS
 62
   252
100
AcDbText
 10
98.844044119804
 20
14.306608253358
 30
0.0
 40
2.0
  1
尺度
 41
1.171875
  7
EXCADSTD
 72
     5
 11
103.844044119804
 21
14.306608253358
 31
0.0
100
AcDbText
  0
TEXT
  5
29CD
330
29BF
100
AcDbEntity
  8
図枠細線
  6
CONTINUOUS
 62
   252
100
AcDbText
 10
98.968727707497
 20
26.806608253358
 30
0.0
 40
2.0
  1
ＣＨＥＣＫＥＤ
 41
0.831249989569
  7
EXCADSTD
 72
     5
 11
112.268727540604
 21
26.806608253358
 31
0.0
100
AcDbText
  0
TEXT
  5
29CE
330
29BF
100
AcDbEntity
  8
図枠細線
  6
CONTINUOUS
 62
   252
100
AcDbText
 10
98.968727707497
 20
29.306608253358
 30
0.0
 40
2.0
  1
検図
 41
1.209677419355
  7
EXCADSTD
 72
     5
 11
103.968727707497
 21
29.306608253358
 31
0.0
100
AcDbText
  0
LINE
  5
29CF
330
29BF
100
AcDbEntity
  8
図枠細線
  6
CONTINUOUS
 62
   252
100
AcDbLine
 10
121.061011071051
 20
31.806606253358
 30
0.0
 11
121.061011071051
 21
16.806606253358
 31
0.0
  0
TEXT
  5
29D0
330
29BF
100
AcDbEntity
  8
図枠細線
  6
CONTINUOUS
 62
   252
100
AcDbText
 10
128.001465247253
 20
14.306608253358
 30
0.0
 40
2.0
  1
ＤＡＴＥ
 41
0.923076923077
  7
EXCADSTD
 72
     5
 11
136.001465247253
 21
14.306608253358
 31
0.0
100
AcDbText
  0
TEXT
  5
29D1
330
29BF
100
AcDbEntity
  8
図枠細線
  6
CONTINUOUS
 62
   252
100
AcDbText
 10
122.066415498841
 20
14.306608253358
 30
0.0
 40
2.0
  1
日付
 41
1.171875
  7
EXCADSTD
 72
     5
 11
127.066415498841
 21
14.306608253358
 31
0.0
100
AcDbText
  0
TEXT
  5
29D2
330
29BF
100
AcDbEntity
  8
図枠細線
  6
CONTINUOUS
 62
   252
100
AcDbText
 10
121.59429406571
 20
29.306608253358
 30
0.0
 40
2.0
  1
製図
 41
1.209677419355
  7
EXCADSTD
 72
     5
 11
126.59429406571
 21
29.306608253358
 31
0.0
100
AcDbText
  0
TEXT
  5
29D3
330
29BF
100
AcDbEntity
  8
図枠細線
  6
CONTINUOUS
 62
   252
100
AcDbText
 10
121.59429406571
 20
26.806608253358
 30
0.0
 40
2.0
  1
ＤＲＡＷＮ
 41
0.882352941176
  7
EXCADSTD
 72
     5
 11
131.59429406571
 21
26.806608253358
 31
0.0
100
AcDbText
  0
TEXT
  5
29D4
330
29BF
100
AcDbEntity
  8
図枠細線
  6
CONTINUOUS
 62
   252
100
AcDbText
 10
226.591229661348
 20
14.306608253358
 30
0.0
 40
2.0
  1
ＤＲＧ．ＮＯ．
 41
0.9375
  7
EXCADSTD
 72
     5
 11
240.591229661348
 21
14.306608253358
 31
0.0
100
AcDbText
  0
LINE
  5
29D5
330
29BF
100
AcDbEntity
  8
図枠太線
  6
CONTINUOUS
 62
   251
100
AcDbLine
 10
144.061003071051
 20
16.806606253358
 30
0.0
 11
214.061011071051
 21
16.806606253358
 31
0.0
  0
LINE
  5
29D6
330
29BF
100
AcDbEntity
  8
図枠細線
  6
CONTINUOUS
 62
   252
100
AcDbLine
 10
144.061011071051
 20
24.306606253358
 30
0.0
 11
214.061011071051
 21
24.306606253358
 31
0.0
  0
TEXT
  5
29D7
330
29BF
100
AcDbEntity
  8
図枠ロゴマーク
  6
CONTINUOUS
 62
   253
100
AcDbText
 10
146.433776781596
 20
8.399000253358
 30
0.0
 40
7.0
  1
東和制電工業株式会社
 41
0.80361088462
  7
EXCADSTD
 72
     5
 11
212.437017438349
 21
8.399000253358
 31
0.0
100
AcDbText
  0
TEXT
  5
29D8
330
29BF
100
AcDbEntity
  8
図枠細線
  6
CONTINUOUS
 62
   252
100
AcDbText
 10
215.156179912936
 20
14.306608253358
 30
0.0
 40
2.0
  1
図面番号
 41
1.102941176471
  7
EXCADSTD
 72
     5
 11
225.156179912936
 21
14.306608253358
 31
0.0
100
AcDbText
  0
TEXT
  5
29D9
330
29BF
100
AcDbEntity
  8
図枠細線
  6
CONTINUOUS
 62
   252
100
AcDbText
 10
221.591229661348
 20
29.306608253358
 30
0.0
 40
2.0
  1
ＴＩＴＬＥ
 41
0.903614457831
  7
EXCADSTD
 72
     5
 11
231.591229661348
 21
29.306608253358
 31
0.0
100
AcDbText
  0
TEXT
  5
29DA
330
29BF
100
AcDbEntity
  8
図枠細線
  6
CONTINUOUS
 62
   252
100
AcDbText
 10
215.156179912936
 20
29.306608253358
 30
0.0
 40
2.0
  1
名称
 41
1.171875
  7
EXCADSTD
 72
     5
 11
220.156179912936
 21
29.306608253358
 31
0.0
100
AcDbText
  0
LINE
  5
29DB
330
29BF
100
AcDbEntity
  8
図枠太線
  6
CONTINUOUS
 62
   251
100
AcDbLine
 10
4.061011071051
 20
1.806608253358
 30
0.0
 11
284.061011071051
 21
1.806608253358
 31
0.0
  0
LINE
  5
29DC
330
29BF
100
AcDbEntity
  8
図枠細線
  6
CONTINUOUS
 62
   252
100
AcDbLine
 10
4.061011071051
 20
6.806608253358
 30
0.0
 11
75.061011071051
 21
6.806608253358
 31
0.0
  0
LINE
  5
29DD
330
29BF
100
AcDbEntity
  8
図枠太線
  6
CONTINUOUS
 62
   251
100
AcDbLine
 10
75.061011071051
 20
1.806608253358
 30
0.0
 11
75.061011071051
 21
31.806606253358
 31
0.0
  0
TEXT
  5
29DE
330
29BF
100
AcDbEntity
  8
図枠細線
  6
CONTINUOUS
 62
   252
100
AcDbText
 10
76.330551827713
 20
6.638319253358
 30
0.0
 40
2.0
  1
ＰＲＯＪＥＣＴＩＯＮ
 41
0.754285710199
  7
EXCADSTD
 72
     5
 11
93.930551732346
 21
6.638319253358
 31
0.0
100
AcDbText
  0
LINE
  5
29DF
330
29BF
100
AcDbEntity
  8
図枠細線
  6
CONTINUOUS
 62
   252
100
AcDbLine
 10
98.061011071051
 20
1.806606931929
 30
0.0
 11
98.061011071051
 21
16.806604931929
 31
0.0
  0
LINE
  5
29E0
330
29BF
100
AcDbEntity
  8
図枠細線
  6
CONTINUOUS
 62
   252
100
AcDbLine
 10
121.061011071051
 20
1.806607574787
 30
0.0
 11
121.061011071051
 21
16.806605574787
 31
0.0
  0
LINE
  5
29E1
330
29BF
100
AcDbEntity
  8
図枠太線
  6
CONTINUOUS
 62
   251
100
AcDbLine
 10
284.061011071051
 20
1.806608253358
 30
0.0
 11
284.061011071051
 21
31.806606253358
 31
0.0
  0
LINE
  5
29E2
330
29BF
100
AcDbEntity
  8
図枠細線
  6
CONTINUOUS
 62
   252
100
AcDbLine
 10
214.061011071051
 20
16.806606253358
 30
0.0
 11
284.061011071051
 21
16.806606253358
 31
0.0
  0
TEXT
  5
29E3
330
29BF
100
AcDbEntity
  8
図枠細線
  6
CONTINUOUS
 62
   252
100
AcDbText
 10
146.199593676182
 20
3.454099253358
 30
0.0
 40
3.5
  1
ＴＯＷＡ　ＳＥＩＤＥＮ　ＩＮＤＵＳＴＲＩＡＬ　ＣＯ．，ＬＴＤ．
 41
0.528937826907
  7
EXCADSTD
 72
     5
 11
213.339435171588
 21
3.454099253358
 31
0.0
100
AcDbText
  0
LINE
  5
29E4
330
29BF
100
AcDbEntity
  8
図枠太線
  6
CONTINUOUS
 62
   251
100
AcDbLine
 10
144.061011071051
 20
1.806608253358
 30
0.0
 11
144.061011071051
 21
31.806606253358
 31
0.0
  0
LINE
  5
29E5
330
29BF
100
AcDbEntity
  8
図枠太線
  6
CONTINUOUS
 62
   251
100
AcDbLine
 10
214.061011071051
 20
1.806608253358
 30
0.0
 11
214.061011071051
 21
31.806606253358
 31
0.0
  0
MTEXT
  5
29E6
330
29BF
100
AcDbEntity
  8
図枠太線
100
AcDbMText
 10
5.064337346478
 20
31.010982137407
 30
0.0
 40
2.5
 41
8.67856098472
 71
     1
 72
     5
  1
{\Fmonotxt.shx,bigfont.shx|c128;図暦}
  0
LINE
  5
29E7
330
29BF
100
AcDbEntity
  8
図枠太線
  6
CONTINUOUS
 62
   251
100
AcDbLine
 10
4.061011071051
 20
1.806608253358
 30
0.0
 11
4.061011071051
 21
31.806606253358
 31
0.0
  0
TEXT
  5
29E8
330
29BF
100
AcDbEntity
  8
図枠細線
 48
10.0
100
AcDbText
 10
12.260817420402
 20
28.625419626495
 30
0.0
 40
2.0
  1
CHANGE NOTICE
100
AcDbText
  0
ENDBLK
  5
29E9
330
29BF
100
AcDbEntity
  8
0
100
AcDbBlockEnd
  0
BLOCK
  5
29F5
330
29F4
100
AcDbEntity
  8
0
100
AcDbBlockBegin
  2
A4縦用_タイトル
 70
     0
 10
0.0
 20
0.0
 30
0.0
  3
A4縦用_タイトル
  1
A4縦用_タイトル
  0
LINE
  5
29F6
330
29F4
100
AcDbEntity
  8
図枠太線
  6
CONTINUOUS
 62
   251
100
AcDbLine
 10
2.368253864267
 20
4.525433224584
 30
0.0
 11
192.368245864267
 21
4.525433224584
 31
0.0
  0
LINE
  5
29F7
330
29F4
100
AcDbEntity
  8
図枠太線
  6
CONTINUOUS
 62
   251
100
AcDbLine
 10
78.368245864267
 20
19.525431224584
 30
0.0
 11
135.368253864267
 21
19.525431224584
 31
0.0
  0
LINE
  5
29F8
330
29F4
100
AcDbEntity
  8
図枠細線
  6
CONTINUOUS
 62
   252
100
AcDbLine
 10
78.368253864267
 20
27.025431224584
 30
0.0
 11
135.368253864267
 21
27.025431224584
 31
0.0
  0
TEXT
  5
29F9
330
29F4
100
AcDbEntity
  8
図枠ロゴマーク
  6
CONTINUOUS
 62
   253
100
AcDbText
 10
80.617009864267
 20
11.117825224584
 30
0.0
 40
7.0
  1
東和制電工業株式会社
 41
0.639204545455
  7
EXCADSTD
 72
     5
 11
133.117009864267
 21
11.117825224584
 31
0.0
100
AcDbText
  0
TEXT
  5
29FA
330
29F4
100
AcDbEntity
  8
図枠細線
  6
CONTINUOUS
 62
   252
100
AcDbText
 10
80.579549864267
 20
6.172924224584
 30
0.0
 40
3.5
  1
ＴＯＷＡ　ＳＥＩＤＥＮ　ＩＮＤＵＳＴＲＩＡＬ　ＣＯ．，ＬＴＤ．
 41
0.414568012377
  7
EXCADSTD
 72
     5
 11
133.202049568628
 21
6.172924224584
 31
0.0
100
AcDbText
  0
LINE
  5
29FB
330
29F4
100
AcDbEntity
  8
図枠太線
  6
CONTINUOUS
 62
   251
100
AcDbLine
 10
2.368253864267
 20
4.525433224584
 30
0.0
 11
2.368253864267
 21
34.525431224584
 31
0.0
  0
TEXT
  5
29FC
330
29F4
100
AcDbEntity
  8
図枠細線
  6
CONTINUOUS
 62
   252
100
AcDbText
 10
22.504308136501
 20
12.279133224584
 30
0.0
 40
2.0
  1
ＴＨＩＲＤ　ＡＮＧＬＥ
 41
0.691099486738
  7
EXCADSTD
 72
     5
 11
40.104308398762
 21
12.279133224584
 31
0.0
100
AcDbText
  0
TEXT
  5
29FD
330
29F4
100
AcDbEntity
  8
図枠細線
  6
CONTINUOUS
 62
   252
100
AcDbText
 10
22.429384136501
 20
9.357144224584
 30
0.0
 40
2.0
  1
ＰＲＯＪＥＣＴＩＯＮ
 41
0.754285710199
  7
EXCADSTD
 72
     5
 11
40.029384041134
 21
9.357144224584
 31
0.0
100
AcDbText
  0
LINE
  5
29FE
330
29F4
100
AcDbEntity
  8
図枠細線
  6
CONTINUOUS
100
AcDbLine
 10
22.368253864267
 20
19.525433224584
 30
0.0
 11
78.368253864267
 21
19.525431224584
 31
0.0
  0
TEXT
  5
29FF
330
29F4
100
AcDbEntity
  8
図枠細線
  6
CONTINUOUS
 62
   252
100
AcDbText
 10
22.868253864267
 20
17.025433224584
 30
0.0
 40
2.0
  1
第三角法
 41
1.102941176471
  7
EXCADSTD
 72
     5
 11
32.868253864267
 21
17.025433224584
 31
0.0
100
AcDbText
  0
TEXT
  5
2A00
330
29F4
100
AcDbEntity
  8
図枠細線
  6
CONTINUOUS
 62
   252
100
AcDbText
 10
22.868253864267
 20
29.525433224584
 30
0.0
 40
2.0
  1
ＡＰＰＲＯＶＥＤ
 41
0.695652184279
  7
EXCADSTD
 72
     5
 11
35.668254055002
 21
29.525433224584
 31
0.0
100
AcDbText
  0
LINE
  5
2A01
330
29F4
100
AcDbEntity
  8
図枠細線
  6
CONTINUOUS
 62
   252
100
AcDbLine
 10
2.368253864267
 20
9.525433224584
 30
0.0
 11
22.368253864267
 21
9.525433224584
 31
0.0
  0
LINE
  5
2A02
330
29F4
100
AcDbEntity
  8
図枠細線
  6
CONTINUOUS
 62
   252
100
AcDbLine
 10
2.368253864267
 20
14.525431224584
 30
0.0
 11
22.368253864267
 21
14.525431224584
 31
0.0
  0
LINE
  5
2A03
330
29F4
100
AcDbEntity
  8
図枠細線
  6
CONTINUOUS
 62
   252
100
AcDbLine
 10
2.368253864267
 20
24.525431224584
 30
0.0
 11
22.368253864267
 21
24.525431224584
 31
0.0
  0
LINE
  5
2A04
330
29F4
100
AcDbEntity
  8
図枠細線
  6
CONTINUOUS
 62
   252
100
AcDbLine
 10
2.368253864267
 20
29.525431224584
 30
0.0
 11
22.368253864267
 21
29.525431224584
 31
0.0
  0
LINE
  5
2A05
330
29F4
100
AcDbEntity
  8
図枠細線
  6
CONTINUOUS
100
AcDbLine
 10
2.368253864267
 20
19.525433224584
 30
0.0
 11
22.368253864267
 21
19.525433224584
 31
0.0
  0
TEXT
  5
2A06
330
29F4
100
AcDbEntity
  8
図枠細線
  6
CONTINUOUS
 62
   252
100
AcDbText
 10
2.868253864267
 20
32.025433224584
 30
0.0
 40
2.0
  1
ＮＯＴＥ
 41
0.923076923077
  7
EXCADSTD
 72
     5
 11
10.868253864267
 21
32.025433224584
 31
0.0
100
AcDbText
  0
LINE
  5
2A07
330
29F4
100
AcDbEntity
  8
図枠太線
  6
CONTINUOUS
 62
   251
100
AcDbLine
 10
22.368253864267
 20
4.525433224584
 30
0.0
 11
22.368253864267
 21
34.525431224584
 31
0.0
  0
TEXT
  5
2A08
330
29F4
100
AcDbEntity
  8
図枠細線
  6
CONTINUOUS
 62
   252
100
AcDbText
 10
22.868253864267
 20
32.025433224584
 30
0.0
 40
2.0
  1
承認
 41
1.171875
  7
EXCADSTD
 72
     5
 11
27.868253864267
 21
32.025433224584
 31
0.0
100
AcDbText
  0
TEXT
  5
2A09
330
29F4
100
AcDbEntity
  8
図枠細線
  6
CONTINUOUS
 62
   252
100
AcDbText
 10
60.711709035982
 20
32.025433224584
 30
0.0
 40
2.0
  1
製図
 41
1.209677419355
  7
EXCADSTD
 72
     5
 11
65.711709035982
 21
32.025433224584
 31
0.0
100
AcDbText
  0
TEXT
  5
2A0A
330
29F4
100
AcDbEntity
  8
図枠細線
  6
CONTINUOUS
 62
   252
100
AcDbText
 10
60.711709035982
 20
29.525433224584
 30
0.0
 40
2.0
  1
ＤＲＡＷＮ
 41
0.882352941176
  7
EXCADSTD
 72
     5
 11
70.711709035982
 21
29.525433224584
 31
0.0
100
AcDbText
  0
TEXT
  5
2A0B
330
29F4
100
AcDbEntity
  8
図枠細線
  6
CONTINUOUS
 62
   252
100
AcDbText
 10
60.834891743877
 20
17.025433224584
 30
0.0
 40
2.0
  1
日付
 41
1.171875
  7
EXCADSTD
 72
     5
 11
65.834891743877
 21
17.025433224584
 31
0.0
100
AcDbText
  0
TEXT
  5
2A0C
330
29F4
100
AcDbEntity
  8
図枠細線
  6
CONTINUOUS
 62
   252
100
AcDbText
 10
47.333660864267
 20
17.025433224584
 30
0.0
 40
2.0
  1
ＳＣＡＬＥ
 41
0.903614457831
  7
EXCADSTD
 72
     5
 11
57.333660864267
 21
17.025433224584
 31
0.0
100
AcDbText
  0
TEXT
  5
2A0D
330
29F4
100
AcDbEntity
  8
図枠細線
  6
CONTINUOUS
 62
   252
100
AcDbText
 10
42.281425990082
 20
29.525433224584
 30
0.0
 40
2.0
  1
ＣＨＥＣＫＥＤ
 41
0.831249989569
  7
EXCADSTD
 72
     5
 11
55.581425823189
 21
29.525433224584
 31
0.0
100
AcDbText
  0
LINE
  5
2A0E
330
29F4
100
AcDbEntity
  8
図枠細線
  6
CONTINUOUS
 62
   252
100
AcDbLine
 10
40.968253864267
 20
34.525431224584
 30
0.0
 11
40.968253864267
 21
19.525431224584
 31
0.0
  0
LINE
  5
2A0F
330
29F4
100
AcDbEntity
  8
図枠細線
  6
CONTINUOUS
 62
   252
100
AcDbLine
 10
40.968253864267
 20
4.525433224584
 30
0.0
 11
40.968253864267
 21
19.525431224584
 31
0.0
  0
TEXT
  5
2A10
330
29F4
100
AcDbEntity
  8
図枠細線
  6
CONTINUOUS
 62
   252
100
AcDbText
 10
41.961173864267
 20
17.025433224584
 30
0.0
 40
2.0
  1
尺度
 41
1.171875
  7
EXCADSTD
 72
     5
 11
46.961173864267
 21
17.025433224584
 31
0.0
100
AcDbText
  0
TEXT
  5
2A11
330
29F4
100
AcDbEntity
  8
図枠細線
  6
CONTINUOUS
 62
   252
100
AcDbText
 10
42.281425990082
 20
32.025433224584
 30
0.0
 40
2.0
  1
検図
 41
1.209677419355
  7
EXCADSTD
 72
     5
 11
47.281425990082
 21
32.025433224584
 31
0.0
100
AcDbText
  0
LINE
  5
2A12
330
29F4
100
AcDbEntity
  8
図枠細線
  6
CONTINUOUS
 62
   252
100
AcDbLine
 10
59.768253864267
 20
34.525431224584
 30
0.0
 11
59.768253864267
 21
19.525431224584
 31
0.0
  0
LINE
  5
2A13
330
29F4
100
AcDbEntity
  8
図枠細線
  6
CONTINUOUS
 62
   252
100
AcDbLine
 10
59.768253864267
 20
4.525433224584
 30
0.0
 11
59.768253864267
 21
19.525431224584
 31
0.0
  0
LINE
  5
2A14
330
29F4
100
AcDbEntity
  8
図枠太線
  6
CONTINUOUS
 62
   251
100
AcDbLine
 10
78.368253864267
 20
4.525433224584
 30
0.0
 11
78.368253864267
 21
34.525431224584
 31
0.0
  0
TEXT
  5
2A15
330
29F4
100
AcDbEntity
  8
図枠細線
  6
CONTINUOUS
 62
   252
100
AcDbText
 10
66.334891743877
 20
17.025433224584
 30
0.0
 40
2.0
  1
ＤＡＴＥ
 41
0.923076923077
  7
EXCADSTD
 72
     5
 11
74.334891743877
 21
17.025433224584
 31
0.0
100
AcDbText
  0
LINE
  5
2A16
330
29F4
100
AcDbEntity
  8
図枠細線
  6
CONTINUOUS
 62
   252
100
AcDbLine
 10
135.368253864267
 20
19.525431224584
 30
0.0
 11
192.368245864267
 21
19.525431224584
 31
0.0
  0
TEXT
  5
2A17
330
29F4
100
AcDbEntity
  8
図枠細線
  6
CONTINUOUS
 62
   252
100
AcDbText
 10
141.868253864267
 20
32.025433224584
 30
0.0
 40
2.0
  1
ＴＩＴＬＥ
 41
0.903614457831
  7
EXCADSTD
 72
     5
 11
151.868253864267
 21
32.025433224584
 31
0.0
100
AcDbText
  0
LINE
  5
2A18
330
29F4
100
AcDbEntity
  8
図枠太線
  6
CONTINUOUS
 62
   251
100
AcDbLine
 10
135.368253864267
 20
4.525433224584
 30
0.0
 11
135.368253864267
 21
34.525431224584
 31
0.0
  0
TEXT
  5
2A19
330
29F4
100
AcDbEntity
  8
図枠細線
  6
CONTINUOUS
 62
   252
100
AcDbText
 10
135.868253864267
 20
17.025433224584
 30
0.0
 40
2.0
  1
図面番号
 41
1.102941176471
  7
EXCADSTD
 72
     5
 11
145.868253864267
 21
17.025433224584
 31
0.0
100
AcDbText
  0
TEXT
  5
2A1A
330
29F4
100
AcDbEntity
  8
図枠細線
  6
CONTINUOUS
 62
   252
100
AcDbText
 10
135.868253864267
 20
32.025433224584
 30
0.0
 40
2.0
  1
名称
 41
1.171875
  7
EXCADSTD
 72
     5
 11
140.868253864267
 21
32.025433224584
 31
0.0
100
AcDbText
  0
TEXT
  5
2A1B
330
29F4
100
AcDbEntity
  8
図枠細線
  6
CONTINUOUS
 62
   252
100
AcDbText
 10
146.868253864267
 20
17.025433224584
 30
0.0
 40
2.0
  1
ＤＲＧ．ＮＯ．
 41
0.9375
  7
EXCADSTD
 72
     5
 11
160.868253864267
 21
17.025433224584
 31
0.0
100
AcDbText
  0
LINE
  5
2A1C
330
29F4
100
AcDbEntity
  8
図枠太線
  6
CONTINUOUS
 62
   251
100
AcDbLine
 10
192.368245864267
 20
4.525433224584
 30
0.0
 11
192.368245864267
 21
34.525431224584
 31
0.0
  0
ENDBLK
  5
2A1D
330
29F4
100
AcDbEntity
  8
0
100
AcDbBlockEnd
  0
BLOCK
  5
2A33
330
2A32
100
AcDbEntity
  8
0
100
AcDbBlockBegin
  2
A3横用_タイトル
 70
     0
 10
0.0
 20
0.0
 30
0.0
  3
A3横用_タイトル
  1
A3横用_タイトル
  0
LINE
  5
2A34
330
2A32
100
AcDbEntity
  8
図枠細線
  6
CONTINUOUS
 62
   252
100
AcDbLine
 10
205.098414535793
 20
33.525959753527
 30
0.0
 11
305.098414535793
 21
33.525959753527
 31
0.0
  0
LINE
  5
2A35
330
2A32
100
AcDbEntity
  8
図枠太線
  6
CONTINUOUS
 62
   251
100
AcDbLine
 10
205.098414535793
 20
23.525959753527
 30
0.0
 11
305.098414535793
 21
23.525959753527
 31
0.0
  0
LINE
  5
2A36
330
2A32
100
AcDbEntity
  8
図枠細線
  6
CONTINUOUS
100
AcDbLine
 10
5.098414535793
 20
23.525959753527
 30
0.0
 11
105.098414535793
 21
23.525959753527
 31
0.0
  0
LINE
  5
2A37
330
2A32
100
AcDbEntity
  8
図枠細線
  6
CONTINUOUS
 62
   252
100
AcDbLine
 10
5.098414535793
 20
36.725957753527
 30
0.0
 11
105.098414535793
 21
36.725957753527
 31
0.0
  0
LINE
  5
2A38
330
2A32
100
AcDbEntity
  8
図枠細線
  6
CONTINUOUS
 62
   252
100
AcDbLine
 10
5.098414535793
 20
30.125957753527
 30
0.0
 11
105.098414535793
 21
30.125957753527
 31
0.0
  0
LINE
  5
2A39
330
2A32
100
AcDbEntity
  8
図枠細線
  6
CONTINUOUS
 62
   252
100
AcDbLine
 10
5.098414535793
 20
16.725959753527
 30
0.0
 11
105.098414535793
 21
16.725959753527
 31
0.0
  0
LINE
  5
2A3A
330
2A32
100
AcDbEntity
  8
図枠細線
  6
CONTINUOUS
 62
   252
100
AcDbLine
 10
5.098414535793
 20
10.125959753527
 30
0.0
 11
105.098414535793
 21
10.125959753527
 31
0.0
  0
LINE
  5
2A3B
330
2A32
100
AcDbEntity
  8
図枠細線
  6
CONTINUOUS
100
AcDbLine
 10
105.098414535793
 20
23.525961753527
 30
0.0
 11
205.098414535793
 21
23.525959753527
 31
0.0
  0
LINE
  5
2A3C
330
2A32
100
AcDbEntity
  8
図枠細線
  6
CONTINUOUS
 62
   252
100
AcDbLine
 10
138.398414535793
 20
43.525959753527
 30
0.0
 11
138.398414535793
 21
18.525957753527
 31
0.0
  0
LINE
  5
2A3D
330
2A32
100
AcDbEntity
  8
図枠細線
  6
CONTINUOUS
 62
   252
100
AcDbLine
 10
171.698414535793
 20
43.525959753527
 30
0.0
 11
171.698414535793
 21
18.525957753527
 31
0.0
  0
LINE
  5
2A3E
330
2A32
100
AcDbEntity
  8
図枠細線
  6
CONTINUOUS
 62
   252
100
AcDbLine
 10
305.098414535793
 20
23.525959753527
 30
0.0
 11
405.098414535793
 21
23.525959753527
 31
0.0
  0
TEXT
  5
2A3F
330
2A32
100
AcDbEntity
  8
図枠ロゴマーク
  6
CONTINUOUS
 62
   253
100
AcDbText
 10
206.102509212755
 20
13.294257570546
 30
0.0
 40
7.0
  1
東和制電工業株式会社
 50
0.016555220185
 41
1.186384129432
  7
EXCADSTD
 72
     5
 11
303.544188309143
 21
13.322412672217
 31
0.0
100
AcDbText
  0
MTEXT
  5
2A40
330
2A32
100
AcDbEntity
  8
図枠細線
100
AcDbMText
 10
6.356764112375
 20
41.976594175478
 30
0.0
 40
2.5
 41
49.938282706292
 71
     1
 72
     5
  1
{\Fmonotxt.shx,bigfont.shx|c128;図暦　CHANGE　NOTICE}
  0
MTEXT
  5
2A41
330
2A32
100
AcDbEntity
  8
図枠細線
 48
10.0
100
AcDbMText
 10
306.544114926828
 20
41.701835800934
 30
0.0
 40
2.5
 41
28.002809618823
 71
     1
 72
     5
  1
{\Fmonotxt.shx,bigfont.shx|c128;名称　TITLE}
  0
MTEXT
  5
2A42
330
2A32
100
AcDbEntity
  8
図枠細線
 48
10.0
100
AcDbMText
 10
307.329617114284
 20
21.606206797226
 30
0.0
 40
2.5
 41
24.385612216707
 71
     1
 72
     5
  1
{\Fmonotxt.shx,bigfont.shx|c128;図面番号\PDRG.　No.}
  0
MTEXT
  5
2A43
330
2A32
100
AcDbEntity
  8
図枠細線
 48
10.0
100
AcDbMText
 10
173.726349404609
 20
21.73680662198
 30
0.0
 40
2.5
 41
25.735090160813
 71
     1
 72
     5
  1
{\Fmonotxt.shx,bigfont.shx|c128;日付 DATE}
  0
MTEXT
  5
2A44
330
2A32
100
AcDbEntity
  8
図枠細線
 48
10.0
100
AcDbMText
 10
173.48708833982
 20
41.621592044998
 30
0.0
 40
2.5
 41
24.983741184205
 71
     1
 72
     5
  1
{\Fmonotxt.shx,bigfont.shx|c128;製図　DRAWN}
  0
MTEXT
  5
2A45
330
2A32
100
AcDbEntity
  8
図枠細線
 48
10.0
100
AcDbMText
 10
139.28009927741
 20
21.866713069868
 30
0.0
 40
2.5
 41
22.629632913243
 71
     1
 72
     5
  1
{\Fmonotxt.shx,bigfont.shx|c128;尺度　SCALE}
  0
MTEXT
  5
2A46
330
2A32
100
AcDbEntity
  8
図枠細線
 48
10.0
100
AcDbMText
 10
139.910091179835
 20
41.311840415554
 30
0.0
 40
2.5
 41
28.998753428368
 71
     1
 72
     5
  1
{\Fmonotxt.shx,bigfont.shx|c128;検図  CHECKED}
  0
MTEXT
  5
2A47
330
2A32
100
AcDbEntity
  8
図枠細線
 48
10.0
100
AcDbMText
 10
114.253294667728
 20
21.916124850174
 30
0.0
 40
3.0
 41
19.692400475383
 71
     1
 72
     5
  1
{\Fmonotxt.shx,bigfont.shx|c128;第三角法}
  0
MTEXT
  5
2A48
330
2A32
100
AcDbEntity
  8
図枠細線
 48
10.0
100
AcDbMText
 10
108.986959929915
 20
15.282880185837
 30
0.0
 40
2.5
 41
27.954882823547
 71
     1
 72
     5
  1
{\Fmonotxt.shx,bigfont.shx|c128;THIRD ANGLE\PPROJECTION}
  0
MTEXT
  5
2A49
330
2A32
100
AcDbEntity
  8
図枠細線
 48
10.0
100
AcDbMText
 10
106.319432640184
 20
41.511437145487
 30
0.0
 40
2.5
 41
28.233595265074
 71
     1
 72
     5
  1
{\Fmonotxt.shx,bigfont.shx|c128;承認 APPROVED}
  0
LINE
  5
2A4A
330
2A32
100
AcDbEntity
  8
図枠太線
  6
CONTINUOUS
 62
   251
100
AcDbLine
 10
5.098414535793
 20
3.525959753527
 30
0.0
 11
405.098414535793
 21
3.525959753527
 31
0.0
  0
LINE
  5
2A4B
330
2A32
100
AcDbEntity
  8
図枠太線
 48
10.0
100
AcDbLine
 10
5.098414535793
 20
3.525959753527
 30
0.0
 11
5.098414535793
 21
43.525959753527
 31
0.0
  0
LINE
  5
2A4C
330
2A32
100
AcDbEntity
  8
図枠太線
  6
CONTINUOUS
 62
   251
100
AcDbLine
 10
105.098414535793
 20
3.525959753527
 30
0.0
 11
105.098414535793
 21
43.525959753527
 31
0.0
  0
LINE
  5
2A4D
330
2A32
100
AcDbEntity
  8
図枠細線
  6
CONTINUOUS
 62
   252
100
AcDbLine
 10
138.398414535793
 20
3.525959753527
 30
0.0
 11
138.398414535793
 21
18.525957753527
 31
0.0
  0
LINE
  5
2A4E
330
2A32
100
AcDbEntity
  8
図枠細線
  6
CONTINUOUS
 62
   252
100
AcDbLine
 10
171.698414535793
 20
3.525959753527
 30
0.0
 11
171.698414535793
 21
18.525957753527
 31
0.0
  0
LINE
  5
2A4F
330
2A32
100
AcDbEntity
  8
図枠太線
  6
CONTINUOUS
 62
   251
100
AcDbLine
 10
205.098414535793
 20
3.525959753527
 30
0.0
 11
205.098414535793
 21
43.525959753527
 31
0.0
  0
LINE
  5
2A50
330
2A32
100
AcDbEntity
  8
図枠太線
 48
10.0
100
AcDbLine
 10
405.098414535793
 20
43.525959753527
 30
0.0
 11
405.098414535793
 21
3.525959753527
 31
0.0
  0
TEXT
  5
2A51
330
2A32
100
AcDbEntity
  8
図枠細線
  6
CONTINUOUS
 62
   252
100
AcDbText
 10
208.519754474572
 20
6.482358407285
 30
0.0
 40
3.5
  1
ＴＯＷＡ　ＳＥＩＤＥＮ　ＩＮＤＵＳＴＲＩＡＬ　ＣＯ．，ＬＴＤ．
 41
0.746656297509
  7
EXCADSTD
 72
     5
 11
303.295327171727
 21
6.482358407285
 31
0.0
100
AcDbText
  0
LINE
  5
2A52
330
2A32
100
AcDbEntity
  8
図枠太線
  6
CONTINUOUS
 62
   251
100
AcDbLine
 10
305.098414535793
 20
3.525959753527
 30
0.0
 11
305.098414535793
 21
43.525959753527
 31
0.0
  0
ENDBLK
  5
2A53
330
2A32
100
AcDbEntity
  8
0
100
AcDbBlockEnd
  0
BLOCK
  5
2A6D
330
2A6C
100
AcDbEntity
  8
0
100
AcDbBlockBegin
  2
A3縦用_タイトル
 70
     0
 10
0.0
 20
0.0
 30
0.0
  3
A3縦用_タイトル
  1
A3縦用_タイトル
  0
MTEXT
  5
2A6E
330
2A6C
100
AcDbEntity
  8
図枠細線
100
AcDbMText
 10
5.040804501593
 20
31.626098649005
 30
0.0
 40
2.5
 41
49.938282706292
 71
     1
 72
     5
  1
{\Fmonotxt.shx,bigfont.shx|c128;図暦　CHANGE　NOTICE}
  0
LINE
  5
2A6F
330
2A6C
100
AcDbEntity
  8
図枠太線
  6
CONTINUOUS
 62
   251
100
AcDbLine
 10
283.577871882961
 20
2.820844689254
 30
0.0
 11
283.577871882961
 21
32.820842689254
 31
0.0
  0
MTEXT
  5
2A70
330
2A6C
100
AcDbEntity
  8
図枠細線
 48
10.0
100
AcDbMText
 10
214.912458947454
 20
31.621488632308
 30
0.0
 40
2.5
 41
28.002809618823
 71
     1
 72
     5
  1
{\Fmonotxt.shx,bigfont.shx|c128;名称　TITLE}
  0
MTEXT
  5
2A71
330
2A6C
100
AcDbEntity
  8
図枠細線
 48
10.0
100
AcDbMText
 10
214.740030458938
 20
16.310225796722
 30
0.0
 40
2.5
 41
24.385612216707
 71
     1
 72
     5
  1
{\Fmonotxt.shx,bigfont.shx|c128;図面番号\PDRG.　No.}
  0
LINE
  5
2A72
330
2A6C
100
AcDbEntity
  8
図枠太線
  6
CONTINUOUS
 62
   251
100
AcDbLine
 10
213.577871882961
 20
2.820844689254
 30
0.0
 11
213.577871882961
 21
32.820842689254
 31
0.0
  0
LINE
  5
2A73
330
2A6C
100
AcDbEntity
  8
図枠太線
  6
CONTINUOUS
 62
   251
100
AcDbLine
 10
143.577871882961
 20
2.820844689254
 30
0.0
 11
143.577871882961
 21
32.820842689254
 31
0.0
  0
TEXT
  5
2A74
330
2A6C
100
AcDbEntity
  8
図枠細線
  6
CONTINUOUS
 62
   252
100
AcDbText
 10
145.716454488093
 20
4.468335689254
 30
0.0
 40
3.5
  1
ＴＯＷＡ　ＳＥＩＤＥＮ　ＩＮＤＵＳＴＲＩＡＬ　ＣＯ．，ＬＴＤ．
 41
0.528937826907
  7
EXCADSTD
 72
     5
 11
212.856295983498
 21
4.468335689254
 31
0.0
100
AcDbText
  0
TEXT
  5
2A75
330
2A6C
100
AcDbEntity
  8
図枠ロゴマーク
  6
CONTINUOUS
 62
   253
100
AcDbText
 10
145.950637593507
 20
9.413236689254
 30
0.0
 40
7.0
  1
東和制電工業株式会社
 41
0.80361088462
  7
EXCADSTD
 72
     5
 11
211.953878250259
 21
9.413236689254
 31
0.0
100
AcDbText
  0
LINE
  5
2A76
330
2A6C
100
AcDbEntity
  8
図枠細線
  6
CONTINUOUS
 62
   252
100
AcDbLine
 10
143.577871882961
 20
25.320842689254
 30
0.0
 11
213.577871882961
 21
25.320842689254
 31
0.0
  0
LINE
  5
2A77
330
2A6C
100
AcDbEntity
  8
図枠太線
  6
CONTINUOUS
 62
   251
100
AcDbLine
 10
143.577863882961
 20
17.820842689254
 30
0.0
 11
213.577871882961
 21
17.820842689254
 31
0.0
  0
LINE
  5
2A78
330
2A6C
100
AcDbEntity
  8
図枠細線
  6
CONTINUOUS
 62
   252
100
AcDbLine
 10
213.577871882961
 20
17.820842689254
 30
0.0
 11
283.577871882961
 21
17.820842689254
 31
0.0
  0
LINE
  5
2A79
330
2A6C
100
AcDbEntity
  8
図枠細線
  6
CONTINUOUS
 62
   252
100
AcDbLine
 10
120.577871882961
 20
32.820842689254
 30
0.0
 11
120.577871882961
 21
17.820842689254
 31
0.0
  0
MTEXT
  5
2A7A
330
2A6C
100
AcDbEntity
  8
図枠細線
 48
10.0
100
AcDbMText
 10
121.100885670352
 20
16.33785922638
 30
0.0
 40
2.0
 41
17.705978285068
 71
     1
 72
     5
  1
{\Fmonotxt.shx,bigfont.shx|c128;日付 DATE}
  0
MTEXT
  5
2A7B
330
2A6C
100
AcDbEntity
  8
図枠細線
 48
10.0
100
AcDbMText
 10
121.254842273491
 20
31.208993514037
 30
0.0
 40
2.0
 41
18.363799568758
 71
     1
 72
     5
  1
{\Fmonotxt.shx,bigfont.shx|c128;製図　DRAWN}
  0
LINE
  5
2A7C
330
2A6C
100
AcDbEntity
  8
図枠細線
  6
CONTINUOUS
 62
   252
100
AcDbLine
 10
97.577871882961
 20
32.820842689254
 30
0.0
 11
97.577871882961
 21
17.820842689254
 31
0.0
  0
MTEXT
  5
2A7D
330
2A6C
100
AcDbEntity
  8
図枠細線
 48
10.0
100
AcDbMText
 10
98.239734796872
 20
16.467764839281
 30
0.0
 40
2.0
 41
17.757791689903
 71
     1
 72
     5
  1
{\Fmonotxt.shx,bigfont.shx|c128;尺度　SCALE}
  0
MTEXT
  5
2A7E
330
2A6C
100
AcDbEntity
  8
図枠細線
 48
10.0
100
AcDbMText
 10
97.864744625154
 20
31.298433377664
 30
0.0
 40
2.0
 41
23.162655920976
 71
     1
 72
     5
  1
{\Fmonotxt.shx,bigfont.shx|c128;検図  CHECKED}
  0
LINE
  5
2A7F
330
2A6C
100
AcDbEntity
  8
図枠細線
  6
CONTINUOUS
 62
   252
100
AcDbLine
 10
97.577871882961
 20
2.820843367826
 30
0.0
 11
97.577871882961
 21
17.820841367826
 31
0.0
  0
LINE
  5
2A80
330
2A6C
100
AcDbEntity
  8
図枠細線
  6
CONTINUOUS
 62
   252
100
AcDbLine
 10
120.577871882961
 20
2.820844010683
 30
0.0
 11
120.577871882961
 21
17.820842010683
 31
0.0
  0
MTEXT
  5
2A81
330
2A6C
100
AcDbEntity
  8
図枠細線
 48
10.0
100
AcDbMText
 10
81.402399084102
 20
16.316484117426
 30
0.0
 40
2.0
 41
12.920322819369
 71
     1
 72
     5
  1
{\Fmonotxt.shx,bigfont.shx|c128;第三角法}
  0
MTEXT
  5
2A82
330
2A6C
100
AcDbEntity
  8
図枠細線
 48
10.0
100
AcDbMText
 10
75.736576535096
 20
11.080410931319
 30
0.0
 40
2.0
 41
21.072870671471
 71
     1
 72
     5
  1
{\Fmonotxt.shx,bigfont.shx|c128;THIRD ANGLE\PPROJECTION}
  0
LINE
  5
2A83
330
2A6C
100
AcDbEntity
  8
図枠太線
  6
CONTINUOUS
 62
   251
100
AcDbLine
 10
74.577871882961
 20
2.820844689254
 30
0.0
 11
74.577871882961
 21
32.820842689254
 31
0.0
  0
MTEXT
  5
2A84
330
2A6C
100
AcDbEntity
  8
図枠細線
 48
10.0
100
AcDbMText
 10
75.060214781573
 20
31.298434778555
 30
0.0
 40
2.0
 41
22.240928805967
 71
     1
 72
     5
  1
{\Fmonotxt.shx,bigfont.shx|c128;承認 APPROVED}
  0
LINE
  5
2A85
330
2A6C
100
AcDbEntity
  8
図枠細線
  6
CONTINUOUS
100
AcDbLine
 10
3.577871882961
 20
17.820844689254
 30
0.0
 11
74.577871882961
 21
17.820844689254
 31
0.0
  0
LINE
  5
2A86
330
2A6C
100
AcDbEntity
  8
図枠細線
  6
CONTINUOUS
 62
   252
100
AcDbLine
 10
3.577871882961
 20
27.820842689254
 30
0.0
 11
74.577871882961
 21
27.820842689254
 31
0.0
  0
LINE
  5
2A87
330
2A6C
100
AcDbEntity
  8
図枠細線
  6
CONTINUOUS
 62
   252
100
AcDbLine
 10
3.577871882961
 20
22.820842689254
 30
0.0
 11
74.577871882961
 21
22.820842689254
 31
0.0
  0
LINE
  5
2A88
330
2A6C
100
AcDbEntity
  8
図枠細線
  6
CONTINUOUS
 62
   252
100
AcDbLine
 10
3.577871882961
 20
12.820842689254
 30
0.0
 11
74.577871882961
 21
12.820842689254
 31
0.0
  0
LINE
  5
2A89
330
2A6C
100
AcDbEntity
  8
図枠細線
  6
CONTINUOUS
 62
   252
100
AcDbLine
 10
3.577871882961
 20
7.820844689254
 30
0.0
 11
74.577871882961
 21
7.820844689254
 31
0.0
  0
LINE
  5
2A8A
330
2A6C
100
AcDbEntity
  8
図枠細線
  6
CONTINUOUS
100
AcDbLine
 10
74.577871882961
 20
17.820843689254
 30
0.0
 11
143.577871882961
 21
17.820841224969
 31
0.0
  0
LINE
  5
2A8B
330
2A6C
100
AcDbEntity
  8
図枠太線
  6
CONTINUOUS
 62
   251
100
AcDbLine
 10
3.577871882961
 20
2.820844689254
 30
0.0
 11
283.577871882961
 21
2.820844689254
 31
0.0
  0
LINE
  5
2A8C
330
2A6C
100
AcDbEntity
  8
図枠太線
  6
CONTINUOUS
 62
   251
100
AcDbLine
 10
3.577871882961
 20
2.820844689254
 30
0.0
 11
3.577871882961
 21
32.820842689254
 31
0.0
  0
ENDBLK
  5
2A8D
330
2A6C
100
AcDbEntity
  8
0
100
AcDbBlockEnd
  0
BLOCK
  5
2AF8
330
2AF4
100
AcDbEntity
  8
0
 48
10.0
100
AcDbBlockBegin
  2
_OPEN30
 70
     0
 10
0.0
 20
0.0
 30
0.0
  3
_OPEN30
  1
_OPEN30
  0
LINE
  5
2AF5
330
2AF4
100
AcDbEntity
  8
0
  6
BYBLOCK
 62
     0
100
AcDbLine
 10
-1.0
 20
0.26794919
 30
0.0
 11
0.0
 21
0.0
 31
0.0
  0
LINE
  5
2AF6
330
2AF4
100
AcDbEntity
  8
0
  6
BYBLOCK
 62
     0
100
AcDbLine
 10
0.0
 20
0.0
 30
0.0
 11
-1.0
 21
-0.26794919
 31
0.0
  0
LINE
  5
2AF7
330
2AF4
100
AcDbEntity
  8
0
  6
BYBLOCK
 62
     0
100
AcDbLine
 10
0.0
 20
0.0
 30
0.0
 11
-1.0
 21
0.0
 31
0.0
  0
ENDBLK
  5
2AF9
330
2AF4
100
AcDbEntity
  8
0
 48
10.0
100
AcDbBlockEnd
  0
BLOCK
  5
2F40
330
2F3F
100
AcDbEntity
  8
0
 48
10.0
100
AcDbBlockBegin
  2
ケース外形図_HL-400
 70
     0
 10
0.0
 20
0.0
 30
0.0
  3
ケース外形図_HL-400
  1
ケース外形図_HL-400
  0
LINE
  5
2F41
330
2F3F
100
AcDbEntity
  8
外形線
100
AcDbLine
 10
-3016.68737612191
 20
-628.620502022639
 30
0.0
 11
-3004.68737612191
 21
-628.620502022639
 31
0.0
  0
LINE
  5
2F42
330
2F3F
100
AcDbEntity
  8
外形線
100
AcDbLine
 10
-3004.68737612191
 20
-556.620502022639
 30
0.0
 11
-3019.68737612191
 21
-556.620502022639
 31
0.0
  0
LINE
  5
2F43
330
2F3F
100
AcDbEntity
  8
中心線
 48
10.0
100
AcDbLine
 10
-3031.837385121911
 20
-613.830661022639
 30
0.0
 11
-3031.837385121911
 21
-669.264280022639
 31
0.0
  0
LINE
  5
2F44
330
2F3F
100
AcDbEntity
  8
外形線
100
AcDbLine
 10
-3036.074903121911
 20
-666.232883395172
 30
0.0
 11
-3036.074903121911
 21
-653.049280022639
 31
0.0
  0
LINE
  5
2F45
330
2F3F
100
AcDbEntity
  8
外形線
100
AcDbLine
 10
-3027.67493912191
 20
-666.232883395172
 30
0.0
 11
-3027.67493912191
 21
-653.049280022639
 31
0.0
  0
ARC
  5
2F46
330
2F3F
100
AcDbEntity
  8
細線
100
AcDbCircle
 10
-3033.974910933263
 20
-662.595590228936
 30
0.0
 40
4.199982
100
AcDbArc
 50
239.999981276042
 51
299.999981276021
  0
ARC
  5
2F47
330
2F3F
100
AcDbEntity
  8
細線
100
AcDbCircle
 10
-3029.774928933263
 20
-662.595591601467
 30
0.0
 40
4.199982
100
AcDbArc
 50
239.999981276042
 51
299.999981276021
  0
ARC
  5
2F48
330
2F3F
100
AcDbEntity
  8
細線
100
AcDbCircle
 10
-3029.774931310559
 20
-669.870173816342
 30
0.0
 40
4.199982
100
AcDbArc
 50
59.999981276042
 51
119.999981276021
  0
LINE
  5
2F49
330
2F3F
100
AcDbEntity
  8
外形線
100
AcDbLine
 10
-3015.18737612191
 20
-556.620502022639
 30
0.0
 11
-3015.18737612191
 21
-628.620502022639
 31
0.0
  0
LINE
  5
2F4A
330
2F3F
100
AcDbEntity
  8
外形線
100
AcDbLine
 10
-3016.68737612191
 20
-629.295475022639
 30
0.0
 11
-3016.68737612191
 21
-556.620502022639
 31
0.0
  0
LINE
  5
2F4B
330
2F3F
100
AcDbEntity
  8
外形線
100
AcDbLine
 10
-3019.68737612191
 20
-556.620502022639
 30
0.0
 11
-3019.68737612191
 21
-618.495502022639
 31
0.0
  0
LINE
  5
2F4C
330
2F3F
100
AcDbEntity
  8
外形線
100
AcDbLine
 10
-3046.687376121911
 20
-623.745502022639
 30
0.0
 11
-3046.687376121911
 21
-562.245502022639
 31
0.0
  0
LINE
  5
2F4D
330
2F3F
100
AcDbEntity
  8
外形線
100
AcDbLine
 10
-3038.779444758647
 20
-628.97627357689
 30
0.0
 11
-3045.721504395382
 21
-634.988273576889
 31
0.0
  0
LINE
  5
2F4E
330
2F3F
100
AcDbEntity
  8
外形線
100
AcDbLine
 10
-3024.895325485175
 20
-628.97627357689
 30
0.0
 11
-3017.953265848439
 21
-634.988273576889
 31
0.0
  0
LINE
  5
2F4F
330
2F3F
100
AcDbEntity
  8
外形線
100
AcDbLine
 10
-3024.895325485175
 20
-637.653848122809
 30
0.0
 11
-3024.895325485175
 21
-628.97627357689
 31
0.0
  0
LINE
  5
2F50
330
2F3F
100
AcDbEntity
  8
外形線
100
AcDbLine
 10
-3038.779444758647
 20
-637.653848122809
 30
0.0
 11
-3038.779444758647
 21
-628.97627357689
 31
0.0
  0
LWPOLYLINE
  5
2F51
330
2F3F
100
AcDbEntity
  8
外形線
100
AcDbPolyline
 90
       47
 70
     0
 43
0.0
 10
-3027.674940621911
 20
-654.14058768542
 10
-3027.215686831012
 20
-654.025717241066
 10
-3026.807069333743
 20
-653.89949762322
 10
-3026.45356502891
 20
-653.763311720429
 10
-3026.159046983652
 20
-653.618651613941
 10
-3025.926741999306
 20
-653.467102230155
 10
-3025.759195257892
 20
-653.310323975836
 10
-3025.658242436573
 20
-653.150034546342
 10
-3025.624989595581
 20
-652.98799010621
 10
-3025.659801060005
 20
-652.825966048232
 10
-3025.762295428152
 20
-652.665737541894
 10
-3025.931349750279
 20
-652.509060084243
 10
-3026.165111831855
 20
-652.357650266292
 10
-3026.461020526596
 20
-652.213166965689
 10
-3026.815833796919
 20
-652.077193171712
 10
-3027.225664234388
 20
-651.951218641701
 10
-3027.686021650964
 20
-651.836623578969
 10
-3028.191862274455
 20
-651.734663511005
 10
-3028.737644009139
 20
-651.646455533648
 10
-3029.317387156118
 20
-651.572966071958
 10
-3029.924739928152
 20
-651.515000291856
 10
-3030.553048041176
 20
-651.473193278559
 10
-3031.195427620021
 20
-651.448003078454
 10
-3031.844840619596
 20
-651.439705680642
 10
-3032.494171935177
 20
-651.448391993153
 10
-3033.136307356992
 20
-651.473966846927
 10
-3033.764211514982
 20
-651.516150038516
 10
-3034.371004959794
 20
-651.574479400044
 10
-3034.950039535468
 20
-651.648315862822
 10
-3035.494971218024
 20
-651.73685045911
 10
-3035.999829621911
 20
-651.839113185344
 10
-3036.459083412808
 20
-651.953983629698
 10
-3036.867700910077
 20
-652.080203247544
 10
-3037.221205214912
 20
-652.216389150335
 10
-3037.515723260169
 20
-652.361049256823
 10
-3037.748028244515
 20
-652.512598640609
 10
-3037.915574985928
 20
-652.669376894928
 10
-3038.016527807249
 20
-652.829666324421
 10
-3038.04978064824
 20
-652.991710764555
 10
-3038.014969183816
 20
-653.153734822532
 10
-3037.912474815669
 20
-653.313963328869
 10
-3037.743420493542
 20
-653.470640786521
 10
-3037.509658411966
 20
-653.622050604471
 10
-3037.213749717225
 20
-653.766533905074
 10
-3036.858936446901
 20
-653.902507699052
 10
-3036.449106009434
 20
-654.028482229064
 10
-3036.07490312191
 20
-654.123399110931
  0
ARC
  5
2F52
330
2F3F
100
AcDbEntity
  8
外形線
100
AcDbCircle
 10
-3031.837385121911
 20
-620.803069368681
 30
0.0
 40
34.15159996140045
100
AcDbArc
 50
255.26831657715
 51
262.87239111701
  0
LWPOLYLINE
  5
2F53
330
2F3F
100
AcDbEntity
  8
外形線
100
AcDbPolyline
 90
       34
 70
     0
 43
0.0
 10
-3020.164085121911
 20
-645.574914522911
 10
-3020.217826679511
 20
-645.015496411464
 10
-3020.378556521371
 20
-644.461229200047
 10
-3020.644794710875
 20
-643.917216361246
 10
-3021.014089832395
 20
-643.388466949451
 10
-3021.483041562971
 20
-642.879849479472
 10
-3022.047331981114
 20
-642.39604709919
 10
-3022.701765324525
 20
-641.941514468981
 10
-3023.440315830619
 20
-641.520436744971
 10
-3024.256183219338
 20
-641.136691043792
 10
-3025.141855307454
 20
-640.793810743611
 10
-3026.089177177755
 20
-640.494952950203
 10
-3027.089426266293
 20
-640.242869427561
 10
-3028.133392676296
 20
-640.039881260751
 10
-3029.211463979238
 20
-639.887857484282
 10
-3030.313713722268
 20
-639.788197872775
 10
-3031.429992827054
 20
-639.74182005239
 10
-3032.550023038462
 20
-639.749151051702
 10
-3033.663491562665
 20
-639.810123369776
 10
-3034.760146023239
 20
-639.924175597698
 10
-3035.829888860994
 20
-640.090257587801
 10
-3036.862870308282
 20
-640.30684012301
 10
-3037.849579081758
 20
-640.571928997268
 10
-3038.780929958494
 20
-640.88308337739
 10
-3039.64834742912
 20
-641.237438277289
 10
-3040.443844657696
 20
-641.631730937631
 10
-3041.160097021345
 20
-642.062330868031
 10
-3041.790509552464
 20
-642.525273275162
 10
-3042.329277662574
 20
-643.016295569004
 10
-3042.771440588665
 20
-643.530876611082
 10
-3043.112927069931
 20
-644.064278343314
 10
-3043.350592834335
 20
-644.611589414165
 10
-3043.482249549808
 20
-645.167770400432
 10
-3043.510685121911
 20
-645.574914522911
  0
ARC
  5
2F54
330
2F3F
100
AcDbEntity
  8
外形線
100
AcDbCircle
 10
-3031.837385121911
 20
-625.986454710612
 30
0.0
 40
13.57645981229912
100
AcDbArc
 50
239.247497502359
 51
300.752502497641
  0
LINE
  5
2F55
330
2F3F
100
AcDbEntity
  8
外形線
100
AcDbLine
 10
-3043.510685121911
 20
-645.574914522911
 30
0.0
 11
-3043.510685121911
 21
-649.955767263438
 31
0.0
  0
ARC
  5
2F56
330
2F3F
100
AcDbEntity
  8
外形線
100
AcDbCircle
 10
-3039.502685121911
 20
-649.955767263438
 30
0.0
 40
4.007999999999999
100
AcDbArc
 50
180.0
 51
255.26831657715
  0
ARC
  5
2F57
330
2F3F
100
AcDbEntity
  8
外形線
100
AcDbCircle
 10
-3046.230136312884
 20
-636.064530573833
 30
0.0
 40
7.618315752702329
100
AcDbArc
 50
273.828163206421
 51
347.958626091838
  0
LINE
  5
2F58
330
2F3F
100
AcDbEntity
  8
外形線
100
AcDbLine
 10
-3043.513436239113
 20
-645.578091239426
 30
0.0
 11
-3045.721504395382
 21
-643.665848122809
 31
0.0
  0
LINE
  5
2F59
330
2F3F
100
AcDbEntity
  8
外形線
100
AcDbLine
 10
-3045.721504395382
 20
-634.988273576889
 30
0.0
 11
-3045.721504395382
 21
-643.665848122809
 31
0.0
  0
LINE
  5
2F5A
330
2F3F
100
AcDbEntity
  8
外形線
100
AcDbLine
 10
-3020.164085121911
 20
-645.574914522911
 30
0.0
 11
-3020.164085121911
 21
-649.955767263438
 31
0.0
  0
LWPOLYLINE
  5
2F5B
330
2F3F
100
AcDbEntity
  8
外形線
100
AcDbPolyline
 90
       29
 70
     0
 43
0.0
 10
-3027.674940621911
 20
-653.049280022638
 10
-3027.701938707542
 20
-652.947308555312
 10
-3027.782585869251
 20
-652.846648062603
 10
-3027.915845283851
 20
-652.748592664861
 10
-3028.100003729843
 20
-652.654402990584
 10
-3028.332693613086
 20
-652.56528996941
 10
-3028.610923405278
 20
-652.482399264063
 10
-3028.9311161039
 20
-652.406796541377
 10
-3029.289155219196
 20
-652.339453771776
 10
-3029.680437696951
 20
-652.281236733347
 10
-3030.099933096692
 20
-652.232893881137
 10
-3030.542248264472
 20
-652.195046724809
 10
-3031.001696668819
 20
-652.16818183833
 10
-3031.472371508433
 20
-652.152644604435
 10
-3031.948221651714
 20
-652.148634774287
 10
-3032.423129431869
 20
-652.15620389942
 10
-3032.890989297393
 20
-652.175254668977
 10
-3033.345786306812
 20
-652.205542160767
 10
-3033.781673458494
 20
-652.246676990049
 10
-3034.193046861402
 20
-652.298130315587
 10
-3034.574617780326
 20
-652.359240638577
 10
-3034.921480629393
 20
-652.429222307066
 10
-3035.229176039693
 20
-652.507175616524
 10
-3035.493748190218
 20
-652.592098376703
 10
-3035.711795665032
 20
-652.682898796086
 10
-3035.88051518286
 20
-652.778409518273
 10
-3035.997737636882
 20
-652.877402629852
 10
-3036.061955981389
 20
-652.9786054468
 10
-3036.07490312191
 20
-653.049280022638
  0
ARC
  5
2F5C
330
2F3F
100
AcDbEntity
  8
外形線
100
AcDbCircle
 10
-3031.837385121911
 20
-620.803069368681
 30
0.0
 40
34.15159996140045
100
AcDbArc
 50
277.000695446903
 51
284.73168342285
  0
ARC
  5
2F5D
330
2F3F
100
AcDbEntity
  8
外形線
100
AcDbCircle
 10
-3024.172085121911
 20
-649.955767263438
 30
0.0
 40
4.007999999999999
100
AcDbArc
 50
284.73168342285
 51
0.0
  0
LINE
  5
2F5E
330
2F3F
100
AcDbEntity
  8
外形線
100
AcDbLine
 10
-3020.161334004708
 20
-645.578091239426
 30
0.0
 11
-3017.953265848439
 21
-643.665848122809
 31
0.0
  0
ARC
  5
2F5F
330
2F3F
100
AcDbEntity
  8
外形線
100
AcDbCircle
 10
-3017.444633930937
 20
-636.064530573833
 30
0.0
 40
7.618315752702329
100
AcDbArc
 50
192.041373908162
 51
266.171836793579
  0
LINE
  5
2F60
330
2F3F
100
AcDbEntity
  8
外形線
100
AcDbLine
 10
-3017.953265848439
 20
-643.665848122809
 30
0.0
 11
-3017.953265848439
 21
-634.988273576889
 31
0.0
  0
LWPOLYLINE
  5
2F61
330
2F3F
100
AcDbEntity
  8
外形線
100
AcDbPolyline
 90
       34
 70
     0
 43
0.0
 10
-3021.33893012191
 20
-629.269370629074
 10
-3021.387262926182
 20
-628.898532694609
 10
-3021.531816309708
 20
-628.531109288718
 10
-3021.771259282285
 20
-628.170483500357
 10
-3022.103387148015
 20
-627.819975828711
 10
-3022.525141805277
 20
-627.482813609361
 10
-3023.032639904511
 20
-627.162101298261
 10
-3023.621208604563
 20
-626.860791887133
 10
-3024.285428598347
 20
-626.581659713495
 10
-3025.019184011678
 20
-626.32727491566
 10
-3025.815718715819
 20
-626.099979767924
 10
-3026.667698535225
 20
-625.901867113831
 10
-3027.567278777729
 20
-625.734761096102
 10
-3028.506176465351
 20
-625.600200360651
 10
-3029.475746600679
 20
-625.499423889346
 10
-3030.467061766568
 20
-625.433359591953
 10
-3031.470994326257
 20
-625.402615762313
 10
-3032.478300467033
 20
-625.40747547741
 10
-3033.479705313585
 20
-625.44789399092
 10
-3034.465988327376
 20
-625.5234991452
 10
-3035.428068205709
 20
-625.633594797989
 10
-3036.357086498752
 20
-625.777167232194
 10
-3037.24448917464
 20
-625.952894489799
 10
-3038.082105381594
 20
-626.159158543935
 10
-3038.862222681892
 20
-626.394060197024
 10
-3039.577658064932
 20
-626.655436567837
 10
-3040.221824085545
 20
-626.940881006447
 10
-3040.788789518574
 20
-627.247765253711
 10
-3041.27333397125
 20
-627.57326364123
 10
-3041.670995950487
 20
-627.91437910899
 10
-3041.978113942544
 20
-628.267970801094
 10
-3042.191860126797
 20
-628.630782985528
 10
-3042.310266413181
 20
-628.99947503163
 10
-3042.335840121911
 20
-629.269370629074
  0
LINE
  5
2F62
330
2F3F
100
AcDbEntity
  8
外形線
100
AcDbLine
 10
-3038.779444758647
 20
-628.97627357689
 30
0.0
 11
-3024.895325485175
 21
-628.97627357689
 31
0.0
  0
LINE
  5
2F63
330
2F3F
100
AcDbEntity
  8
外形線
100
AcDbLine
 10
-3038.779444758647
 20
-620.298699030969
 30
0.0
 11
-3024.895325485175
 21
-620.298699030969
 31
0.0
  0
LINE
  5
2F64
330
2F3F
100
AcDbEntity
  8
外形線
100
AcDbLine
 10
-3038.779444758647
 20
-624.637486303929
 30
0.0
 11
-3024.895325485175
 21
-624.637486303929
 31
0.0
  0
LINE
  5
2F65
330
2F3F
100
AcDbEntity
  8
外形線
100
AcDbLine
 10
-3016.68737612191
 20
-618.495502022639
 30
0.0
 11
-3039.78736712191
 21
-618.495502022639
 31
0.0
  0
LINE
  5
2F66
330
2F3F
100
AcDbEntity
  8
外形線
100
AcDbLine
 10
-3039.468583886739
 20
-620.895511022639
 30
0.0
 11
-3042.187376121911
 21
-620.895511022639
 31
0.0
  0
LINE
  5
2F67
330
2F3F
100
AcDbEntity
  8
外形線
100
AcDbLine
 10
-3045.721504395382
 20
-626.310699030969
 30
0.0
 11
-3038.779444758647
 21
-620.298699030969
 31
0.0
  0
ARC
  5
2F68
330
2F3F
100
AcDbEntity
  8
外形線
100
AcDbCircle
 10
-3039.78736712191
 20
-623.895511022639
 30
0.0
 40
5.4
100
AcDbArc
 50
89.999981276021
 51
180.00001984784
  0
LINE
  5
2F69
330
2F3F
100
AcDbEntity
  8
外形線
100
AcDbLine
 10
-3038.779444758647
 20
-624.637486303929
 30
0.0
 11
-3045.721504395382
 21
-630.649486303929
 31
0.0
  0
ARC
  5
2F6A
330
2F3F
100
AcDbEntity
  8
外形線
100
AcDbCircle
 10
-3042.187376121911
 20
-623.895511022639
 30
0.0
 40
3.0
100
AcDbArc
 50
89.999981276021
 51
211.533239298809
  0
ARC
  5
2F6B
330
2F3F
100
AcDbEntity
  8
外形線
100
AcDbCircle
 10
-3043.687376121911
 20
-623.745502022639
 30
0.0
 40
3.0
100
AcDbArc
 50
180.00001984784
 51
232.575749003279
  0
LINE
  5
2F6C
330
2F3F
100
AcDbEntity
  8
外形線
100
AcDbLine
 10
-3043.216504395382
 20
-632.818879940409
 30
0.0
 11
-3045.721504395382
 21
-630.649486303929
 31
0.0
  0
LINE
  5
2F6D
330
2F3F
100
AcDbEntity
  8
外形線
100
AcDbLine
 10
-3042.335840121911
 20
-629.269370629074
 30
0.0
 11
-3042.335840121911
 21
-632.056202307377
 31
0.0
  0
LINE
  5
2F6E
330
2F3F
100
AcDbEntity
  8
外形線
100
AcDbLine
 10
-3045.721504395382
 20
-630.649486303929
 30
0.0
 11
-3045.721504395382
 21
-626.310699030969
 31
0.0
  0
LINE
  5
2F6F
330
2F3F
100
AcDbEntity
  8
細線
100
AcDbLine
 10
-3040.980635121911
 20
-630.882560350041
 30
0.0
 11
-3040.980635121911
 21
-627.331019140395
 31
0.0
  0
LINE
  5
2F70
330
2F3F
100
AcDbEntity
  8
外形線
100
AcDbLine
 10
-3038.779444758647
 20
-624.637486303929
 30
0.0
 11
-3038.779444758647
 21
-620.298699030969
 31
0.0
  0
LINE
  5
2F71
330
2F3F
100
AcDbEntity
  8
細線
100
AcDbLine
 10
-3022.694135121911
 20
-630.882560350041
 30
0.0
 11
-3022.694135121911
 21
-627.227614822548
 31
0.0
  0
LINE
  5
2F72
330
2F3F
100
AcDbEntity
  8
外形線
100
AcDbLine
 10
-3016.68737612191
 20
-620.895511022639
 30
0.0
 11
-3024.206186357083
 21
-620.895511022639
 31
0.0
  0
LINE
  5
2F73
330
2F3F
100
AcDbEntity
  8
外形線
100
AcDbLine
 10
-3017.953265848439
 20
-626.310699030969
 30
0.0
 11
-3024.895325485175
 21
-620.298699030969
 31
0.0
  0
LINE
  5
2F74
330
2F3F
100
AcDbEntity
  8
外形線
100
AcDbLine
 10
-3024.895325485175
 20
-624.637486303929
 30
0.0
 11
-3024.895325485175
 21
-620.298699030969
 31
0.0
  0
LINE
  5
2F75
330
2F3F
100
AcDbEntity
  8
外形線
100
AcDbLine
 10
-3016.68737612191
 20
-629.295497522639
 30
0.0
 11
-3017.953265848439
 21
-629.295497522639
 31
0.0
  0
LINE
  5
2F76
330
2F3F
100
AcDbEntity
  8
外形線
100
AcDbLine
 10
-3020.458265848439
 20
-632.818879940409
 30
0.0
 11
-3017.953265848439
 21
-630.649486303929
 31
0.0
  0
LINE
  5
2F77
330
2F3F
100
AcDbEntity
  8
外形線
100
AcDbLine
 10
-3024.895325485175
 20
-624.637486303929
 30
0.0
 11
-3017.953265848439
 21
-630.649486303929
 31
0.0
  0
LINE
  5
2F78
330
2F3F
100
AcDbEntity
  8
外形線
100
AcDbLine
 10
-3021.33893012191
 20
-629.269370629074
 30
0.0
 11
-3021.33893012191
 21
-632.056202307377
 31
0.0
  0
LINE
  5
2F79
330
2F3F
100
AcDbEntity
  8
外形線
100
AcDbLine
 10
-3017.953265848439
 20
-630.649486303929
 30
0.0
 11
-3017.953265848439
 21
-626.310699030969
 31
0.0
  0
LINE
  5
2F7A
330
2F3F
100
AcDbEntity
  8
外形線
100
AcDbLine
 10
-3048.487394121911
 20
-562.245502022639
 30
0.0
 11
-3048.487394121911
 21
-603.345493022639
 31
0.0
  0
LINE
  5
2F7B
330
2F3F
100
AcDbEntity
  8
外形線
100
AcDbLine
 10
-3048.487394121911
 20
-603.345493022639
 30
0.0
 11
-3046.687376121911
 21
-603.345493022639
 31
0.0
  0
LINE
  5
2F7C
330
2F3F
100
AcDbEntity
  8
外形線
100
AcDbLine
 10
-3043.687376121911
 20
-558.495502022639
 30
0.0
 11
-3019.68737612191
 21
-558.495502022639
 31
0.0
  0
LINE
  5
2F7D
330
2F3F
100
AcDbEntity
  8
外形線
100
AcDbLine
 10
-3048.487394121911
 20
-562.245502022639
 30
0.0
 11
-3046.687376121911
 21
-562.245502022639
 31
0.0
  0
ARC
  5
2F7E
330
2F3F
100
AcDbEntity
  8
外形線
100
AcDbCircle
 10
-3043.687376121911
 20
-561.495502022639
 30
0.0
 40
3.0
100
AcDbArc
 50
89.999981276021
 51
180.00001984784
  0
LINE
  5
2F7F
330
2F3F
100
AcDbEntity
  8
外形線
100
AcDbLine
 10
-3046.687376121911
 20
-562.245502022639
 30
0.0
 11
-3046.687376121911
 21
-561.495502022639
 31
0.0
  0
LINE
  5
2F80
330
2F3F
100
AcDbEntity
  8
外形線
100
AcDbLine
 10
-2963.887356621911
 20
-617.370502022639
 30
0.0
 11
-2963.887356621911
 21
-567.870502022639
 31
0.0
  0
LINE
  5
2F81
330
2F3F
100
AcDbEntity
  8
外形線
100
AcDbLine
 10
-2965.387356621911
 20
-620.580112022639
 30
0.0
 11
-2965.387356621911
 21
-564.660892022639
 31
0.0
  0
LINE
  5
2F82
330
2F3F
100
AcDbEntity
  8
外形線
100
AcDbLine
 10
-3004.68737612191
 20
-556.620502022639
 30
0.0
 11
-3004.68737612191
 21
-628.620502022639
 31
0.0
  0
LINE
  5
2F83
330
2F3F
100
AcDbEntity
  8
外形線
100
AcDbLine
 10
-3004.68737612191
 20
-626.745502022639
 30
0.0
 11
-2969.67289562191
 21
-625.074985022639
 31
0.0
  0
LINE
  5
2F84
330
2F3F
100
AcDbEntity
  8
外形線
100
AcDbLine
 10
-2963.887356621911
 20
-617.370502022639
 30
0.0
 11
-2965.387356621911
 21
-617.370502022639
 31
0.0
  0
ARC
  5
2F85
330
2F3F
100
AcDbEntity
  8
外形線
100
AcDbCircle
 10
-2969.887356621911
 20
-620.580112022639
 30
0.0
 40
4.5
100
AcDbArc
 50
272.731520116378
 51
359.999982399908
  0
LINE
  5
2F86
330
2F3F
100
AcDbEntity
  8
外形線
100
AcDbLine
 10
-3004.68737612191
 20
-558.495502022639
 30
0.0
 11
-2969.67289562191
 21
-560.166019022639
 31
0.0
  0
LINE
  5
2F87
330
2F3F
100
AcDbEntity
  8
外形線
100
AcDbLine
 10
-2963.887356621911
 20
-567.870502022639
 30
0.0
 11
-2965.387356621911
 21
-567.870502022639
 31
0.0
  0
ARC
  5
2F88
330
2F3F
100
AcDbEntity
  8
外形線
100
AcDbCircle
 10
-2969.887356621911
 20
-564.660892022639
 30
0.0
 40
4.5
100
AcDbArc
 50
0.0
 51
87.268519579302
  0
ENDBLK
  5
2F89
330
2F3F
100
AcDbEntity
  8
0
 48
10.0
100
AcDbBlockEnd
  0
BLOCK
  5
3CEA
330
3CE0
100
AcDbEntity
  8
0
 48
10.0
100
AcDbBlockBegin
  2
*D14
 70
     1
 10
0.0
 20
0.0
 30
0.0
  3
*D14
  1
*D14
  0
LINE
  5
3D5C
330
3CE0
100
AcDbEntity
  8
寸法線
 62
     0
 48
10.0
100
AcDbLine
 10
537.219456735351
 20
1109.61280924634
 30
0.0
 11
537.219456735351
 21
1034.526701476371
 31
0.0
  0
LINE
  5
3D5D
330
3CE0
100
AcDbEntity
  8
寸法線
 62
     0
 48
10.0
100
AcDbLine
 10
623.169438735352
 20
1109.61280924634
 30
0.0
 11
623.169438735352
 21
1034.526701476371
 31
0.0
  0
LINE
  5
3D5E
330
3CE0
100
AcDbEntity
  8
寸法線
 62
     0
 48
10.0
100
AcDbLine
 10
543.219456735351
 20
1035.776701476371
 30
0.0
 11
617.169438735352
 21
1035.776701476371
 31
0.0
  0
INSERT
  5
3D5F
330
3CE0
100
AcDbEntity
  8
寸法線
 62
     0
100
AcDbBlockReference
  2
_OPEN30
 10
537.219456735351
 20
1035.776701476371
 30
0.0
 41
6.0
 42
6.0
 43
6.0
 50
180.0
  0
INSERT
  5
3D60
330
3CE0
100
AcDbEntity
  8
寸法線
 62
     0
100
AcDbBlockReference
  2
_OPEN30
 10
623.169438735352
 20
1035.776701476371
 30
0.0
 41
6.0
 42
6.0
 43
6.0
  0
MTEXT
  5
3D61
330
3CE0
100
AcDbEntity
  8
寸法線
 62
     0
 48
10.0
100
AcDbMText
 10
580.194447735351
 20
1039.407951476371
 30
0.0
 40
6.0
 41
0.0
 71
     5
 72
     1
  1
\A1;85
  0
POINT
  5
3D62
330
3CE0
100
AcDbEntity
  8
DEFPOINTS
 62
     0
100
AcDbPoint
 10
537.219456735351
 20
1110.23780924634
 30
0.0
  0
POINT
  5
3D63
330
3CE0
100
AcDbEntity
  8
DEFPOINTS
 62
     0
100
AcDbPoint
 10
623.169438735352
 20
1110.23780924634
 30
0.0
  0
POINT
  5
3D64
330
3CE0
100
AcDbEntity
  8
DEFPOINTS
 62
     0
100
AcDbPoint
 10
623.169438735352
 20
1035.776701476371
 30
0.0
  0
ENDBLK
  5
3CEB
330
3CE0
100
AcDbEntity
  8
0
 48
10.0
100
AcDbBlockEnd
  0
BLOCK
  5
3ECB
330
3EC1
100
AcDbEntity
  8
0
 48
10.0
100
AcDbBlockBegin
  2
*D16
 70
     1
 10
0.0
 20
0.0
 30
0.0
  3
*D16
  1
*D16
  0
LINE
  5
42DE
330
3EC1
100
AcDbEntity
  8
寸法線
 62
     0
 48
10.0
100
AcDbLine
 10
537.219456735354
 20
1109.61280924634
 30
0.0
 11
537.219456735354
 21
1034.526701476371
 31
0.0
  0
LINE
  5
42DF
330
3EC1
100
AcDbEntity
  8
寸法線
 62
     0
 48
10.0
100
AcDbLine
 10
373.918379735351
 20
1071.174076236478
 30
0.0
 11
373.918379735351
 21
1034.526701476371
 31
0.0
  0
LINE
  5
42E0
330
3EC1
100
AcDbEntity
  8
寸法線
 62
     0
 48
10.0
100
AcDbLine
 10
531.219456735354
 20
1035.776701476371
 30
0.0
 11
379.918379735351
 21
1035.776701476371
 31
0.0
  0
INSERT
  5
42E1
330
3EC1
100
AcDbEntity
  8
寸法線
 62
     0
100
AcDbBlockReference
  2
_OPEN30
 10
537.219456735354
 20
1035.776701476371
 30
0.0
 41
6.0
 42
6.0
 43
6.0
  0
INSERT
  5
42E2
330
3EC1
100
AcDbEntity
  8
寸法線
 62
     0
100
AcDbBlockReference
  2
_OPEN30
 10
373.918379735351
 20
1035.776701476371
 30
0.0
 41
6.0
 42
6.0
 43
6.0
 50
180.0
  0
POINT
  5
42E3
330
3EC1
100
AcDbEntity
  8
DEFPOINTS
 62
     0
100
AcDbPoint
 10
537.219456735354
 20
1110.23780924634
 30
0.0
  0
POINT
  5
42E4
330
3EC1
100
AcDbEntity
  8
DEFPOINTS
 62
     0
100
AcDbPoint
 10
373.918379735351
 20
1071.799076236478
 30
0.0
  0
POINT
  5
42E5
330
3EC1
100
AcDbEntity
  8
DEFPOINTS
 62
     0
100
AcDbPoint
 10
373.918379735351
 20
1035.776701476371
 30
0.0
  0
ENDBLK
  5
3ECC
330
3EC1
100
AcDbEntity
  8
0
 48
10.0
100
AcDbBlockEnd
  0
BLOCK
  5
4814
330
4813
100
AcDbEntity
  8
0
100
AcDbBlockBegin
  2
*D33
 70
     1
 10
0.0
 20
0.0
 30
0.0
  3
*D33
  1
*D33
  0
LINE
  5
4816
330
4813
100
AcDbEntity
  8
寸法線
 62
     0
 48
10.0
100
AcDbLine
 10
424.454093703035
 20
1133.78787224634
 30
0.0
 11
423.829093703035
 21
1133.78787224634
 31
0.0
  0
LINE
  5
4817
330
4813
100
AcDbEntity
  8
寸法線
 62
     0
 48
10.0
100
AcDbLine
 10
424.04895496145
 20
1127.78782724634
 30
0.0
 11
426.329093703035
 21
1127.78782724634
 31
0.0
  0
LINE
  5
4818
330
4813
100
AcDbEntity
  8
寸法線
 62
     0
 48
10.0
100
AcDbLine
 10
425.079093703035
 20
1133.78787224634
 30
0.0
 11
425.079093703035
 21
1157.963300636933
 31
0.0
  0
LINE
  5
4819
330
4813
100
AcDbEntity
  8
寸法線
 62
     0
 48
10.0
100
AcDbLine
 10
425.079093703035
 20
1133.78787224634
 30
0.0
 11
425.079093703035
 21
1127.78782724634
 31
0.0
  0
LINE
  5
481A
330
4813
100
AcDbEntity
  8
寸法線
 62
     0
 48
10.0
100
AcDbLine
 10
425.079093703035
 20
1139.78787224634
 30
0.0
 11
425.079093703035
 21
1145.78787224634
 31
0.0
  0
LINE
  5
481B
330
4813
100
AcDbEntity
  8
寸法線
 62
     0
 48
10.0
100
AcDbLine
 10
425.079093703035
 20
1121.78782724634
 30
0.0
 11
425.079093703035
 21
1115.78782724634
 31
0.0
  0
INSERT
  5
481C
330
4813
100
AcDbEntity
  8
寸法線
 62
     0
100
AcDbBlockReference
  2
_OPEN30
 10
425.079093703035
 20
1133.78787224634
 30
0.0
 41
6.0
 42
6.0
 43
6.0
 50
270.0
  0
INSERT
  5
481D
330
4813
100
AcDbEntity
  8
寸法線
 62
     0
100
AcDbBlockReference
  2
_OPEN30
 10
425.079093703035
 20
1127.78782724634
 30
0.0
 41
6.0
 42
6.0
 43
6.0
 50
90.0
  0
MTEXT
  5
481E
330
4813
100
AcDbEntity
  8
寸法線
 62
     0
 48
10.0
100
AcDbMText
 10
421.454093703035
 20
1152.891425636933
 30
0.0
 40
6.0
 41
0.0
 71
     5
 72
     1
  1
\A1;φ6
 11
0.0
 21
1.0
 31
0.0
  0
POINT
  5
481F
330
4813
100
AcDbEntity
  8
DEFPOINTS
 62
     0
100
AcDbPoint
 10
425.079093703035
 20
1133.78787224634
 30
0.0
  0
POINT
  5
4820
330
4813
100
AcDbEntity
  8
DEFPOINTS
 62
     0
100
AcDbPoint
 10
423.42395496145
 20
1127.78782724634
 30
0.0
  0
POINT
  5
4821
330
4813
100
AcDbEntity
  8
DEFPOINTS
 62
     0
100
AcDbPoint
 10
425.079093703035
 20
1127.78782724634
 30
0.0
  0
ENDBLK
  5
4815
330
4813
100
AcDbEntity
  8
0
100
AcDbBlockEnd
  0
BLOCK
  5
4823
330
4822
100
AcDbEntity
  8
0
100
AcDbBlockBegin
  2
*D34
 70
     1
 10
0.0
 20
0.0
 30
0.0
  3
*D34
  1
*D34
  0
LINE
  5
4825
330
4822
100
AcDbEntity
  8
寸法線
 62
     0
 48
10.0
100
AcDbLine
 10
373.293379735351
 20
1170.78767474634
 30
0.0
 11
353.296923563345
 21
1170.78767474634
 31
0.0
  0
LINE
  5
4826
330
4822
100
AcDbEntity
  8
寸法線
 62
     0
 48
10.0
100
AcDbLine
 10
373.293379735351
 20
1090.78788974634
 30
0.0
 11
353.296923563345
 21
1090.78788974634
 31
0.0
  0
LINE
  5
4827
330
4822
100
AcDbEntity
  8
寸法線
 62
     0
 48
10.0
100
AcDbLine
 10
354.546923563345
 20
1164.78767474634
 30
0.0
 11
354.546923563345
 21
1096.78788974634
 31
0.0
  0
INSERT
  5
4828
330
4822
100
AcDbEntity
  8
寸法線
 62
     0
100
AcDbBlockReference
  2
_OPEN30
 10
354.546923563345
 20
1170.78767474634
 30
0.0
 41
6.0
 42
6.0
 43
6.0
 50
90.0
  0
INSERT
  5
4829
330
4822
100
AcDbEntity
  8
寸法線
 62
     0
100
AcDbBlockReference
  2
_OPEN30
 10
354.546923563345
 20
1090.78788974634
 30
0.0
 41
6.0
 42
6.0
 43
6.0
 50
270.0
  0
MTEXT
  5
482A
330
4822
100
AcDbEntity
  8
寸法線
 62
     0
 48
10.0
100
AcDbMText
 10
350.915673563345
 20
1130.78778224634
 30
0.0
 40
6.0
 41
0.0
 71
     5
 72
     1
  1
\A1;80
 11
0.0
 21
1.0
 31
0.0
  0
POINT
  5
482B
330
4822
100
AcDbEntity
  8
DEFPOINTS
 62
     0
100
AcDbPoint
 10
373.918379735351
 20
1170.78767474634
 30
0.0
  0
POINT
  5
482C
330
4822
100
AcDbEntity
  8
DEFPOINTS
 62
     0
100
AcDbPoint
 10
373.918379735351
 20
1090.78788974634
 30
0.0
  0
POINT
  5
482D
330
4822
100
AcDbEntity
  8
DEFPOINTS
 62
     0
100
AcDbPoint
 10
354.546923563345
 20
1090.78788974634
 30
0.0
  0
ENDBLK
  5
4824
330
4822
100
AcDbEntity
  8
0
100
AcDbBlockEnd
  0
BLOCK
  5
482F
330
482E
100
AcDbEntity
  8
0
100
AcDbBlockBegin
  2
*D35
 70
     1
 10
0.0
 20
0.0
 30
0.0
  3
*D35
  1
*D35
  0
LINE
  5
4831
330
482E
100
AcDbEntity
  8
寸法線
 62
     0
 48
10.0
100
AcDbLine
 10
373.918379735351
 20
1090.16288974634
 30
0.0
 11
373.918379735351
 21
1070.549076236478
 31
0.0
  0
LINE
  5
4832
330
482E
100
AcDbEntity
  8
寸法線
 62
     0
 48
10.0
100
AcDbLine
 10
408.918373235351
 20
1090.16288974634
 30
0.0
 11
408.918373235351
 21
1070.549076236478
 31
0.0
  0
LINE
  5
4833
330
482E
100
AcDbEntity
  8
寸法線
 62
     0
 48
10.0
100
AcDbLine
 10
379.918379735351
 20
1071.799076236478
 30
0.0
 11
402.918373235351
 21
1071.799076236478
 31
0.0
  0
INSERT
  5
4834
330
482E
100
AcDbEntity
  8
寸法線
 62
     0
100
AcDbBlockReference
  2
_OPEN30
 10
373.918379735351
 20
1071.799076236478
 30
0.0
 41
6.0
 42
6.0
 43
6.0
 50
180.0
  0
INSERT
  5
4835
330
482E
100
AcDbEntity
  8
寸法線
 62
     0
100
AcDbBlockReference
  2
_OPEN30
 10
408.918373235351
 20
1071.799076236478
 30
0.0
 41
6.0
 42
6.0
 43
6.0
  0
MTEXT
  5
4836
330
482E
100
AcDbEntity
  8
寸法線
 62
     0
 48
10.0
100
AcDbMText
 10
391.418376485351
 20
1075.427201236478
 30
0.0
 40
6.0
 41
0.0
 71
     5
 72
     1
  1
\A1;35
  0
POINT
  5
4837
330
482E
100
AcDbEntity
  8
DEFPOINTS
 62
     0
100
AcDbPoint
 10
373.918379735351
 20
1090.78788974634
 30
0.0
  0
POINT
  5
4838
330
482E
100
AcDbEntity
  8
DEFPOINTS
 62
     0
100
AcDbPoint
 10
408.918373235351
 20
1090.78788974634
 30
0.0
  0
POINT
  5
4839
330
482E
100
AcDbEntity
  8
DEFPOINTS
 62
     0
100
AcDbPoint
 10
408.918373235351
 20
1071.799076236478
 30
0.0
  0
ENDBLK
  5
4830
330
482E
100
AcDbEntity
  8
0
100
AcDbBlockEnd
  0
BLOCK
  5
4847
330
4846
100
AcDbEntity
  8
0
100
AcDbBlockBegin
  2
*D37
 70
     1
 10
0.0
 20
0.0
 30
0.0
  3
*D37
  1
*D37
  0
LINE
  5
4849
330
4846
100
AcDbEntity
  8
寸法線
 62
     0
 48
10.0
100
AcDbLine
 10
492.356613732477
 20
1140.787606992441
 30
0.0
 11
490.47119217154
 21
1140.787606992441
 31
0.0
  0
LINE
  5
484A
330
4846
100
AcDbEntity
  8
寸法線
 62
     0
 48
10.0
100
AcDbLine
 10
492.356613732477
 20
1120.787892621932
 30
0.0
 11
490.47119217154
 21
1120.787892621932
 31
0.0
  0
LINE
  5
484B
330
4846
100
AcDbEntity
  8
寸法線
 62
     0
 48
10.0
100
AcDbLine
 10
491.72119217154
 20
1140.787606992441
 30
0.0
 11
491.72119217154
 21
1161.137606992441
 31
0.0
  0
LINE
  5
484C
330
4846
100
AcDbEntity
  8
寸法線
 62
     0
 48
10.0
100
AcDbLine
 10
491.72119217154
 20
1134.787606992441
 30
0.0
 11
491.72119217154
 21
1126.787892621932
 31
0.0
  0
INSERT
  5
484D
330
4846
100
AcDbEntity
  8
寸法線
 62
     0
100
AcDbBlockReference
  2
_OPEN30
 10
491.72119217154
 20
1140.787606992441
 30
0.0
 41
6.0
 42
6.0
 43
6.0
 50
90.0
  0
INSERT
  5
484E
330
4846
100
AcDbEntity
  8
寸法線
 62
     0
100
AcDbBlockReference
  2
_OPEN30
 10
491.72119217154
 20
1120.787892621932
 30
0.0
 41
6.0
 42
6.0
 43
6.0
 50
270.0
  0
MTEXT
  5
484F
330
4846
100
AcDbEntity
  8
寸法線
 62
     0
 48
10.0
100
AcDbMText
 10
488.09306717154
 20
1153.962606992441
 30
0.0
 40
6.0
 41
0.0
 71
     5
 72
     1
  1
\A1;φ20
 11
0.0
 21
1.0
 31
0.0
  0
POINT
  5
4850
330
4846
100
AcDbEntity
  8
DEFPOINTS
 62
     0
100
AcDbPoint
 10
492.981613732477
 20
1140.787606992441
 30
0.0
  0
POINT
  5
4851
330
4846
100
AcDbEntity
  8
DEFPOINTS
 62
     0
100
AcDbPoint
 10
492.981613732477
 20
1120.787892621932
 30
0.0
  0
POINT
  5
4852
330
4846
100
AcDbEntity
  8
DEFPOINTS
 62
     0
100
AcDbPoint
 10
491.72119217154
 20
1120.787892621932
 30
0.0
  0
ENDBLK
  5
4848
330
4846
100
AcDbEntity
  8
0
100
AcDbBlockEnd
  0
BLOCK
  5
4887
330
4886
100
AcDbEntity
  8
0
100
AcDbBlockBegin
  2
*D42
 70
     1
 10
0.0
 20
0.0
 30
0.0
  3
*D42
  1
*D42
  0
LINE
  5
4889
330
4886
100
AcDbEntity
  8
寸法線
 62
     0
 48
10.0
100
AcDbLine
 10
665.994419235352
 20
1156.28782724634
 30
0.0
 11
725.372196654577
 21
1156.28782724634
 31
0.0
  0
LINE
  5
488A
330
4886
100
AcDbEntity
  8
寸法線
 62
     0
 48
10.0
100
AcDbLine
 10
665.994419235352
 20
1085.28782724634
 30
0.0
 11
725.372196654577
 21
1085.28782724634
 31
0.0
  0
LINE
  5
488B
330
4886
100
AcDbEntity
  8
寸法線
 62
     0
 48
10.0
100
AcDbLine
 10
724.122196654577
 20
1150.28782724634
 30
0.0
 11
724.122196654577
 21
1091.28782724634
 31
0.0
  0
INSERT
  5
488C
330
4886
100
AcDbEntity
  8
寸法線
 62
     0
100
AcDbBlockReference
  2
_OPEN30
 10
724.122196654577
 20
1156.28782724634
 30
0.0
 41
6.0
 42
6.0
 43
6.0
 50
90.0
  0
INSERT
  5
488D
330
4886
100
AcDbEntity
  8
寸法線
 62
     0
100
AcDbBlockReference
  2
_OPEN30
 10
724.122196654577
 20
1085.28782724634
 30
0.0
 41
6.0
 42
6.0
 43
6.0
 50
270.0
  0
MTEXT
  5
488E
330
4886
100
AcDbEntity
  8
寸法線
 62
     0
 48
10.0
100
AcDbMText
 10
720.494071654578
 20
1120.96280024634
 30
0.0
 40
6.0
 41
0.0
 71
     5
 72
     1
  1
\A1;φ72
 11
0.0
 21
1.0
 31
0.0
  0
POINT
  5
488F
330
4886
100
AcDbEntity
  8
DEFPOINTS
 62
     0
100
AcDbPoint
 10
665.369419235352
 20
1156.28782724634
 30
0.0
  0
POINT
  5
4890
330
4886
100
AcDbEntity
  8
DEFPOINTS
 62
     0
100
AcDbPoint
 10
665.369419235352
 20
1085.28782724634
 30
0.0
  0
POINT
  5
4891
330
4886
100
AcDbEntity
  8
DEFPOINTS
 62
     0
100
AcDbPoint
 10
724.122196654577
 20
1085.28782724634
 30
0.0
  0
ENDBLK
  5
4888
330
4886
100
AcDbEntity
  8
0
100
AcDbBlockEnd
  0
BLOCK
  5
4893
330
4892
100
AcDbEntity
  8
0
100
AcDbBlockBegin
  2
*D43
 70
     1
 10
0.0
 20
0.0
 30
0.0
  3
*D43
  1
*D43
  0
LINE
  5
4895
330
4892
100
AcDbEntity
  8
寸法線
 62
     0
 48
10.0
100
AcDbLine
 10
623.169438735352
 20
1111.26282724634
 30
0.0
 11
623.169438735352
 21
1034.526746476371
 31
0.0
  0
LINE
  5
4896
330
4892
100
AcDbEntity
  8
寸法線
 62
     0
 48
10.0
100
AcDbLine
 10
706.169438735352
 20
1054.609555485989
 30
0.0
 11
706.169438735352
 21
1034.526746476371
 31
0.0
  0
LINE
  5
4897
330
4892
100
AcDbEntity
  8
寸法線
 62
     0
 48
10.0
100
AcDbLine
 10
629.169438735352
 20
1035.776746476371
 30
0.0
 11
700.169438735352
 21
1035.776746476371
 31
0.0
  0
INSERT
  5
4898
330
4892
100
AcDbEntity
  8
寸法線
 62
     0
100
AcDbBlockReference
  2
_OPEN30
 10
623.169438735352
 20
1035.776746476371
 30
0.0
 41
6.0
 42
6.0
 43
6.0
 50
180.0
  0
INSERT
  5
4899
330
4892
100
AcDbEntity
  8
寸法線
 62
     0
100
AcDbBlockReference
  2
_OPEN30
 10
706.169438735352
 20
1035.776746476371
 30
0.0
 41
6.0
 42
6.0
 43
6.0
  0
MTEXT
  5
489A
330
4892
100
AcDbEntity
  8
寸法線
 62
     0
 48
10.0
100
AcDbMText
 10
664.669438735352
 20
1039.411121476371
 30
0.0
 40
6.0
 41
0.0
 71
     5
 72
     1
  1
\A1;83
  0
POINT
  5
489B
330
4892
100
AcDbEntity
  8
DEFPOINTS
 62
     0
100
AcDbPoint
 10
623.169438735352
 20
1111.88782724634
 30
0.0
  0
POINT
  5
489C
330
4892
100
AcDbEntity
  8
DEFPOINTS
 62
     0
100
AcDbPoint
 10
706.169438735352
 20
1055.234555485989
 30
0.0
  0
POINT
  5
489D
330
4892
100
AcDbEntity
  8
DEFPOINTS
 62
     0
100
AcDbPoint
 10
706.169438735352
 20
1035.776746476371
 30
0.0
  0
ENDBLK
  5
4894
330
4892
100
AcDbEntity
  8
0
100
AcDbBlockEnd
  0
BLOCK
  5
489F
330
489E
100
AcDbEntity
  8
0
100
AcDbBlockBegin
  2
*D44
 70
     1
 10
0.0
 20
0.0
 30
0.0
  3
*D44
  1
*D44
  0
LINE
  5
48A1
330
489E
100
AcDbEntity
  8
寸法線
 62
     0
 48
10.0
100
AcDbLine
 10
514.565327733387
 20
1144.00832724634
 30
0.0
 11
516.85328980877
 21
1144.00832724634
 31
0.0
  0
LINE
  5
48A2
330
489E
100
AcDbEntity
  8
寸法線
 62
     0
 48
10.0
100
AcDbLine
 10
514.642405595523
 20
1117.56732724634
 30
0.0
 11
516.85328980877
 21
1117.56732724634
 31
0.0
  0
LINE
  5
48A3
330
489E
100
AcDbEntity
  8
寸法線
 62
     0
 48
10.0
100
AcDbLine
 10
515.60328980877
 20
1144.00832724634
 30
0.0
 11
515.60328980877
 21
1174.81365733223
 31
0.0
  0
LINE
  5
48A4
330
489E
100
AcDbEntity
  8
寸法線
 62
     0
 48
10.0
100
AcDbLine
 10
515.60328980877
 20
1138.00832724634
 30
0.0
 11
515.60328980877
 21
1123.56732724634
 31
0.0
  0
INSERT
  5
48A5
330
489E
100
AcDbEntity
  8
寸法線
 62
     0
100
AcDbBlockReference
  2
_OPEN30
 10
515.60328980877
 20
1144.00832724634
 30
0.0
 41
6.0
 42
6.0
 43
6.0
 50
90.0
  0
INSERT
  5
48A6
330
489E
100
AcDbEntity
  8
寸法線
 62
     0
100
AcDbBlockReference
  2
_OPEN30
 10
515.60328980877
 20
1117.56732724634
 30
0.0
 41
6.0
 42
6.0
 43
6.0
 50
270.0
  0
MTEXT
  5
48A7
330
489E
100
AcDbEntity
  8
寸法線
 62
     0
 48
10.0
100
AcDbMText
 10
511.97516480877
 20
1162.48865733223
 30
0.0
 40
6.0
 41
0.0
 71
     5
 72
     1
  1
\A1;G 3/4"
 11
0.0
 21
1.0
 31
0.0
  0
POINT
  5
48A8
330
489E
100
AcDbEntity
  8
DEFPOINTS
 62
     0
100
AcDbPoint
 10
513.940327733387
 20
1144.00832724634
 30
0.0
  0
POINT
  5
48A9
330
489E
100
AcDbEntity
  8
DEFPOINTS
 62
     0
100
AcDbPoint
 10
514.017405595523
 20
1117.56732724634
 30
0.0
  0
POINT
  5
48AA
330
489E
100
AcDbEntity
  8
DEFPOINTS
 62
     0
100
AcDbPoint
 10
515.60328980877
 20
1117.56732724634
 30
0.0
  0
ENDBLK
  5
48A0
330
489E
100
AcDbEntity
  8
0
100
AcDbBlockEnd
  0
BLOCK
  5
48AD
330
48AC
100
AcDbEntity
  8
0
100
AcDbBlockBegin
  2
*D45
 70
     1
 10
0.0
 20
0.0
 30
0.0
  3
*D45
  1
*D45
  0
LINE
  5
48AF
330
48AC
100
AcDbEntity
  8
寸法線
 62
     0
 48
10.0
100
AcDbLine
 10
556.015189191288
 20
1148.27783249634
 30
0.0
 11
556.015189191288
 21
1168.952096565052
 31
0.0
  0
LINE
  5
48B0
330
48AC
100
AcDbEntity
  8
寸法線
 62
     0
 48
10.0
100
AcDbLine
 10
556.015189191288
 20
1119.27783249634
 30
0.0
 11
556.015189191288
 21
1142.27783249634
 31
0.0
  0
INSERT
  5
48B1
330
48AC
100
AcDbEntity
  8
寸法線
 62
     0
100
AcDbBlockReference
  2
_OPEN30
 10
556.015189191288
 20
1113.27783249634
 30
0.0
 41
6.0
 42
6.0
 43
6.0
 50
270.0
  0
INSERT
  5
48B2
330
48AC
100
AcDbEntity
  8
寸法線
 62
     0
100
AcDbBlockReference
  2
_OPEN30
 10
556.015189191288
 20
1148.27783249634
 30
0.0
 41
6.0
 42
6.0
 43
6.0
 50
90.0
  0
MTEXT
  5
48B3
330
48AC
100
AcDbEntity
  8
寸法線
 62
     0
 48
10.0
100
AcDbMText
 10
552.387064191288
 20
1161.777096565052
 30
0.0
 40
6.0
 41
0.0
 71
     5
 72
     1
  1
\A1;φ35
 11
0.0
 21
1.0
 31
0.0
  0
POINT
  5
48B4
330
48AC
100
AcDbEntity
  8
DEFPOINTS
 62
     0
100
AcDbPoint
 10
567.219456735353
 20
1113.27783249634
 30
0.0
  0
POINT
  5
48B5
330
48AC
100
AcDbEntity
  8
DEFPOINTS
 62
     0
100
AcDbPoint
 10
567.219456735353
 20
1148.27783249634
 30
0.0
  0
POINT
  5
48B6
330
48AC
100
AcDbEntity
  8
DEFPOINTS
 62
     0
100
AcDbPoint
 10
556.015189191288
 20
1148.27783249634
 30
0.0
  0
ENDBLK
  5
48AE
330
48AC
100
AcDbEntity
  8
0
100
AcDbBlockEnd
  0
BLOCK
  5
4C35
330
4C34
100
AcDbEntity
  8
0
100
AcDbBlockBegin
  2
*D64
 70
     1
 10
0.0
 20
0.0
 30
0.0
  3
*D64
  1
*D64
  0
LINE
  5
4C37
330
4C34
100
AcDbEntity
  8
寸法線
 62
     0
 48
10.0
100
AcDbLine
 10
322.85783775704
 20
1130.78782724634
 30
0.0
 11
332.561127790534
 21
1130.78782724634
 31
0.0
  0
LINE
  5
4C38
330
4C34
100
AcDbEntity
  8
寸法線
 62
     0
 48
10.0
100
AcDbLine
 10
322.85783775704
 20
1120.876363129573
 30
0.0
 11
332.561127790534
 21
1120.876363129573
 31
0.0
  0
LINE
  5
4C39
330
4C34
100
AcDbEntity
  8
寸法線
 62
     0
 48
10.0
100
AcDbLine
 10
331.311127790534
 20
1130.78782724634
 30
0.0
 11
331.311127790534
 21
1120.876363129573
 31
0.0
  0
LINE
  5
4C3A
330
4C34
100
AcDbEntity
  8
寸法線
 62
     0
 48
10.0
100
AcDbLine
 10
331.311127790534
 20
1136.78782724634
 30
0.0
 11
331.311127790534
 21
1142.78782724634
 31
0.0
  0
LINE
  5
4C3B
330
4C34
100
AcDbEntity
  8
寸法線
 62
     0
 48
10.0
100
AcDbLine
 10
331.311127790534
 20
1114.876363129573
 30
0.0
 11
331.311127790534
 21
1108.876363129573
 31
0.0
  0
INSERT
  5
4C3C
330
4C34
100
AcDbEntity
  8
寸法線
 62
     0
100
AcDbBlockReference
  2
_OPEN30
 10
331.311127790534
 20
1130.78782724634
 30
0.0
 41
6.0
 42
6.0
 43
6.0
 50
270.0
  0
INSERT
  5
4C3D
330
4C34
100
AcDbEntity
  8
寸法線
 62
     0
100
AcDbBlockReference
  2
_OPEN30
 10
331.311127790534
 20
1120.876363129573
 30
0.0
 41
6.0
 42
6.0
 43
6.0
 50
90.0
  0
MTEXT
  5
4C3E
330
4C34
100
AcDbEntity
  8
寸法線
 62
     0
 48
10.0
100
AcDbMText
 10
327.686127790534
 20
1125.832095187956
 30
0.0
 40
6.0
 41
0.0
 71
     5
 72
     1
  1
\A1;10
 11
0.0
 21
1.0
 31
0.0
  0
POINT
  5
4C3F
330
4C34
100
AcDbEntity
  8
DEFPOINTS
 62
     0
100
AcDbPoint
 10
322.23283775704
 20
1130.78782724634
 30
0.0
  0
POINT
  5
4C40
330
4C34
100
AcDbEntity
  8
DEFPOINTS
 62
     0
100
AcDbPoint
 10
322.23283775704
 20
1120.876363129573
 30
0.0
  0
POINT
  5
4C41
330
4C34
100
AcDbEntity
  8
DEFPOINTS
 62
     0
100
AcDbPoint
 10
331.311127790534
 20
1120.876363129573
 30
0.0
  0
ENDBLK
  5
4C36
330
4C34
100
AcDbEntity
  8
0
100
AcDbBlockEnd
  0
BLOCK
  5
4C43
330
4C42
100
AcDbEntity
  8
0
100
AcDbBlockBegin
  2
*D65
 70
     1
 10
0.0
 20
0.0
 30
0.0
  3
*D65
  1
*D65
  0
LINE
  5
4C45
330
4C42
100
AcDbEntity
  8
寸法線
 62
     0
 48
10.0
100
AcDbLine
 10
255.2637489619
 20
1141.805132091753
 30
0.0
 11
255.2637489619
 21
1186.925824304625
 31
0.0
  0
LINE
  5
4C46
330
4C42
100
AcDbEntity
  8
寸法線
 62
     0
 48
10.0
100
AcDbLine
 10
291.2637489619
 20
1141.805132091753
 30
0.0
 11
291.2637489619
 21
1186.925824304625
 31
0.0
  0
LINE
  5
4C47
330
4C42
100
AcDbEntity
  8
寸法線
 62
     0
 48
10.0
100
AcDbLine
 10
261.2637489619
 20
1185.675824304625
 30
0.0
 11
285.2637489619
 21
1185.675824304625
 31
0.0
  0
INSERT
  5
4C48
330
4C42
100
AcDbEntity
  8
寸法線
 62
     0
100
AcDbBlockReference
  2
_OPEN30
 10
255.2637489619
 20
1185.675824304625
 30
0.0
 41
6.0
 42
6.0
 43
6.0
 50
180.0
  0
INSERT
  5
4C49
330
4C42
100
AcDbEntity
  8
寸法線
 62
     0
100
AcDbBlockReference
  2
_OPEN30
 10
291.2637489619
 20
1185.675824304625
 30
0.0
 41
6.0
 42
6.0
 43
6.0
  0
MTEXT
  5
4C4A
330
4C42
100
AcDbEntity
  8
寸法線
 62
     0
 48
10.0
100
AcDbMText
 10
272.817773586556
 20
1189.303949304625
 30
0.0
 40
6.0
 41
0.0
 71
     5
 72
     1
  1
\A1;36
  0
POINT
  5
4C4B
330
4C42
100
AcDbEntity
  8
DEFPOINTS
 62
     0
100
AcDbPoint
 10
255.2637489619
 20
1141.180132091753
 30
0.0
  0
POINT
  5
4C4C
330
4C42
100
AcDbEntity
  8
DEFPOINTS
 62
     0
100
AcDbPoint
 10
291.2637489619
 20
1141.180132091753
 30
0.0
  0
POINT
  5
4C4D
330
4C42
100
AcDbEntity
  8
DEFPOINTS
 62
     0
100
AcDbPoint
 10
291.2637489619
 20
1185.675824304625
 30
0.0
  0
ENDBLK
  5
4C44
330
4C42
100
AcDbEntity
  8
0
100
AcDbBlockEnd
  0
BLOCK
  5
4C4F
330
4C4E
100
AcDbEntity
  8
0
100
AcDbBlockBegin
  2
*D66
 70
     1
 10
0.0
 20
0.0
 30
0.0
  3
*D66
  1
*D66
  0
LINE
  5
4C51
330
4C4E
100
AcDbEntity
  8
寸法線
 62
     0
 48
10.0
100
AcDbLine
 10
272.3637489619
 20
1100.334353369644
 30
0.0
 11
272.3637489619
 21
1100.959353369644
 31
0.0
  0
LINE
  5
4C52
330
4C4E
100
AcDbEntity
  8
寸法線
 62
     0
 48
10.0
100
AcDbLine
 10
274.1637489619
 20
1100.334353369644
 30
0.0
 11
274.1637489619
 21
1100.959353369644
 31
0.0
  0
LINE
  5
4C53
330
4C4E
100
AcDbEntity
  8
寸法線
 62
     0
 48
10.0
100
AcDbLine
 10
280.1637489619
 20
1099.709353369644
 30
0.0
 11
288.6137489619
 21
1099.709353369644
 31
0.0
  0
LINE
  5
4C54
330
4C4E
100
AcDbEntity
  8
寸法線
 62
     0
 48
10.0
100
AcDbLine
 10
272.3637489619
 20
1099.709353369644
 30
0.0
 11
274.1637489619
 21
1099.709353369644
 31
0.0
  0
LINE
  5
4C55
330
4C4E
100
AcDbEntity
  8
寸法線
 62
     0
 48
10.0
100
AcDbLine
 10
266.3637489619
 20
1099.709353369644
 30
0.0
 11
260.3637489619
 21
1099.709353369644
 31
0.0
  0
INSERT
  5
4C56
330
4C4E
100
AcDbEntity
  8
寸法線
 62
     0
100
AcDbBlockReference
  2
_OPEN30
 10
272.3637489619
 20
1099.709353369644
 30
0.0
 41
6.0
 42
6.0
 43
6.0
  0
INSERT
  5
4C57
330
4C4E
100
AcDbEntity
  8
寸法線
 62
     0
100
AcDbBlockReference
  2
_OPEN30
 10
274.1637489619
 20
1099.709353369644
 30
0.0
 41
6.0
 42
6.0
 43
6.0
 50
180.0
  0
MTEXT
  5
4C58
330
4C4E
100
AcDbEntity
  8
寸法線
 62
     0
 48
10.0
100
AcDbMText
 10
287.3887489619
 20
1103.334353369644
 30
0.0
 40
6.0
 41
0.0
 71
     5
 72
     1
  1
\A1;1
  0
POINT
  5
4C59
330
4C4E
100
AcDbEntity
  8
DEFPOINTS
 62
     0
100
AcDbPoint
 10
272.3637489619
 20
1099.709353369644
 30
0.0
  0
POINT
  5
4C5A
330
4C4E
100
AcDbEntity
  8
DEFPOINTS
 62
     0
100
AcDbPoint
 10
274.1637489619
 20
1099.709353369644
 30
0.0
  0
POINT
  5
4C5B
330
4C4E
100
AcDbEntity
  8
DEFPOINTS
 62
     0
100
AcDbPoint
 10
274.1637489619
 20
1099.709353369644
 30
0.0
  0
ENDBLK
  5
4C50
330
4C4E
100
AcDbEntity
  8
0
100
AcDbBlockEnd
  0
ENDSEC
  0
SECTION
  2
ENTITIES
  0
LINE
  5
3BBD
330
1A
100
AcDbEntity
  8
中心線
 48
10.0
100
AcDbLine
 10
363.848425822088
 20
1130.78782724634
 30
0.0
 11
639.085899700901
 21
1130.78782724634
 31
0.0
  0
LINE
  5
3C21
330
1A
100
AcDbEntity
  8
外形線
 48
10.0
100
AcDbLine
 10
535.719456735351
 20
1110.23780924634
 30
0.0
 11
535.719456735351
 21
1151.33780024634
 31
0.0
  0
LINE
  5
3C22
330
1A
100
AcDbEntity
  8
外形線
 48
10.0
100
AcDbLine
 10
537.219456735351
 20
1110.23780924634
 30
0.0
 11
535.719456735351
 21
1110.23780924634
 31
0.0
  0
LINE
  5
3C23
330
1A
100
AcDbEntity
  8
外形線
 48
10.0
100
AcDbLine
 10
537.219456735351
 20
1151.33780024634
 30
0.0
 11
535.719456735351
 21
1151.33780024634
 31
0.0
  0
LINE
  5
3C27
330
1A
100
AcDbEntity
  8
中心線
 48
10.0
100
AcDbLine
 10
712.355913019062
 20
1120.96280024634
 30
0.0
 11
621.583000451642
 21
1120.96280024634
 31
0.0
  0
LINE
  5
3C43
330
1A
100
AcDbEntity
  8
外形線
100
AcDbLine
 10
606.969456735352
 20
1113.28780474634
 30
0.0
 11
537.219456735352
 21
1113.28780474634
 31
0.0
  0
LINE
  5
3C44
330
1A
100
AcDbEntity
  8
外形線
100
AcDbLine
 10
606.969456735352
 20
1084.28780474634
 30
0.0
 11
606.969456735352
 21
1177.28780474634
 31
0.0
  0
LINE
  5
3C45
330
1A
100
AcDbEntity
  8
外形線
100
AcDbLine
 10
608.469456735352
 20
1177.28780474634
 30
0.0
 11
608.469456735352
 21
1084.28780474634
 31
0.0
  0
LINE
  5
3C46
330
1A
100
AcDbEntity
  8
外形線
100
AcDbLine
 10
608.469456735352
 20
1084.28780474634
 30
0.0
 11
606.969456735352
 21
1084.28780474634
 31
0.0
  0
LINE
  5
3C47
330
1A
100
AcDbEntity
  8
外形線
100
AcDbLine
 10
617.169438735352
 20
1114.28780474634
 30
0.0
 11
608.469456735352
 21
1114.28780474634
 31
0.0
  0
LINE
  5
3C48
330
1A
100
AcDbEntity
  8
外形線
100
AcDbLine
 10
617.169438735352
 20
1177.28780474634
 30
0.0
 11
617.169438735352
 21
1084.28780474634
 31
0.0
  0
LINE
  5
3C49
330
1A
100
AcDbEntity
  8
外形線
100
AcDbLine
 10
618.669438735352
 20
1177.28780474634
 30
0.0
 11
618.669438735352
 21
1084.28780474634
 31
0.0
  0
LINE
  5
3C4A
330
1A
100
AcDbEntity
  8
外形線
100
AcDbLine
 10
618.669438735352
 20
1084.28780474634
 30
0.0
 11
617.169438735352
 21
1084.28780474634
 31
0.0
  0
LINE
  5
3C4B
330
1A
100
AcDbEntity
  8
外形線
100
AcDbLine
 10
623.169438735352
 20
1114.28780474634
 30
0.0
 11
618.669438735352
 21
1114.28780474634
 31
0.0
  0
LINE
  5
3C4C
330
1A
100
AcDbEntity
  8
外形線
100
AcDbLine
 10
606.969456735352
 20
1148.28780474634
 30
0.0
 11
537.219456735352
 21
1148.28780474634
 31
0.0
  0
LINE
  5
3C4D
330
1A
100
AcDbEntity
  8
外形線
100
AcDbLine
 10
617.169438735352
 20
1147.28780474634
 30
0.0
 11
608.469456735352
 21
1147.28780474634
 31
0.0
  0
LINE
  5
3C4E
330
1A
100
AcDbEntity
  8
外形線
100
AcDbLine
 10
623.169438735352
 20
1147.28780474634
 30
0.0
 11
618.669438735352
 21
1147.28780474634
 31
0.0
  0
LINE
  5
3C4F
330
1A
100
AcDbEntity
  8
外形線
 48
10.0
100
AcDbLine
 10
606.969456735352
 20
1177.28780474634
 30
0.0
 11
608.469456735352
 21
1177.28780474634
 31
0.0
  0
LINE
  5
3C50
330
1A
100
AcDbEntity
  8
外形線
 48
10.0
100
AcDbLine
 10
617.169438735352
 20
1177.28780474634
 30
0.0
 11
618.669438735352
 21
1177.28780474634
 31
0.0
  0
LINE
  5
3C51
330
1A
100
AcDbEntity
  8
外形線
 48
10.0
100
AcDbLine
 10
537.219456735351
 20
1151.33780024634
 30
0.0
 11
537.219456735354
 21
1110.23780924634
 31
0.0
  0
LINE
  5
3C69
330
1A
100
AcDbEntity
  8
隠れ線
 48
10.0
100
AcDbLine
 10
535.719456735351
 20
1151.33780024634
 30
0.0
 11
535.719456735351
 21
1177.772991825741
 31
0.0
  0
LINE
  5
3C6B
330
1A
100
AcDbEntity
  8
隠れ線
 48
10.0
100
AcDbLine
 10
535.719456735351
 20
1110.23780924634
 30
0.0
 11
535.719456735351
 21
1079.215429777103
 31
0.0
  0
DIMENSION
  5
3C6C
330
1A
100
AcDbEntity
  8
寸法線
 48
10.0
100
AcDbDimension
  2
*D14
 10
623.169438735352
 20
1035.776701476371
 30
0.0
 11
580.194447735351
 21
1039.407951476371
 31
0.0
 70
    32
  1
85
  3
ISO-25
100
AcDbAlignedDimension
 13
537.219456735351
 23
1110.23780924634
 33
0.0
 14
623.169438735352
 24
1110.23780924634
 34
0.0
100
AcDbRotatedDimension
1001
ACAD
1000
DSTYLE
1002
{
1070
     5
1000
OPEN30
1070
    41
1040
6.0
1070
    47
1040
0.1
1070
    48
1040
0.1
1070
    73
1070
     0
1070
   140
1040
6.0
1070
   271
1070
     1
1070
   272
1070
     1
1070
   341
1005
2AF4
1002
}
  0
MTEXT
  5
3DD6
330
1A
100
AcDbEntity
  8
寸法線
 48
10.0
100
AcDbMText
 10
543.32605844018
 20
1192.720977296536
 30
0.0
 40
6.0
 41
0.0
 71
     7
 72
     1
  1
\A1;シリコンゴム
  0
MTEXT
  5
3DE8
330
1A
100
AcDbEntity
  8
寸法線
 48
10.0
100
AcDbMText
 10
427.141254650336
 20
1102.975777338665
 30
0.0
 40
6.0
 41
0.0
 71
     7
 72
     1
  1
シール\Pシリコンゴム
1001
ACAD
1000
MTEXTBEGIN
1070
    44
1040
0.8
1000
MTEXTEND
  0
DIMENSION
  5
3EC0
330
1A
100
AcDbEntity
  8
寸法線
 48
10.0
100
AcDbDimension
  2
*D16
 10
373.918379735351
 20
1035.776701476371
 30
0.0
 11
450.048020484721
 21
1035.776701476371
 31
0.0
 70
    32
  1
 
  3
ISO-25
100
AcDbAlignedDimension
 13
537.219456735354
 23
1110.23780924634
 33
0.0
 14
373.918379735351
 24
1071.799076236478
 34
0.0
100
AcDbRotatedDimension
1001
ACAD
1000
DSTYLE
1002
{
1070
     5
1000
OPEN30
1070
    41
1040
6.0
1070
    47
1040
0.1
1070
    48
1040
0.1
1070
    73
1070
     0
1070
   140
1040
5.0
1070
   271
1070
     1
1070
   272
1070
     1
1070
   341
1005
2AF4
1002
}
  0
ARC
  5
42E6
330
1A
100
AcDbEntity
  8
寸法線
100
AcDbCircle
 10
453.417377004233
 20
1038.904331476507
 30
0.0
 40
1.3204605
100
AcDbArc
 50
252.904086432757
 51
337.411923467787
  0
ARC
  5
42E7
330
1A
100
AcDbEntity
  8
寸法線
100
AcDbCircle
 10
453.417377004233
 20
1038.904286476507
 30
0.0
 40
1.3204425
100
AcDbArc
 50
252.903398883406
 51
337.412611017141
  0
ARC
  5
42E8
330
1A
100
AcDbEntity
  8
寸法線
100
AcDbCircle
 10
450.014087004233
 20
1041.395894476507
 30
0.0
 40
3.7598535
100
AcDbArc
 50
273.280470979894
 51
33.415912335968
  0
ARC
  5
42E9
330
1A
100
AcDbEntity
  8
寸法線
100
AcDbCircle
 10
454.777071504233
 20
1040.642231476507
 30
0.0
 40
3.472035
100
AcDbArc
 50
123.4690243997
 51
239.774013712203
  0
ARC
  5
42EA
330
1A
100
AcDbEntity
  8
寸法線
100
AcDbCircle
 10
454.777071504233
 20
1040.642231476507
 30
0.0
 40
3.4720395
100
AcDbArc
 50
123.4690243997
 51
239.773899120646
  0
ARC
  5
42EB
330
1A
100
AcDbEntity
  8
寸法線
100
AcDbCircle
 10
452.974719504233
 20
1043.371052476507
 30
0.0
 40
0.2017125
100
AcDbArc
 50
28.230948369025
 51
123.88384584338
  0
LEADER
  5
42F6
330
1A
100
AcDbEntity
  8
寸法線
 48
10.0
100
AcDbLeader
  3
ISO-25
 76
     3
 10
536.851331242246
 20
1151.721734786284
 30
0.0
 10
541.599903099443
 20
1192.319462217037
 30
0.0
 10
549.250380481883
 20
1192.319462217037
 30
0.0
1001
ACAD
1000
DSTYLE
1002
{
1070
     5
1000
OPEN30
1070
   147
1040
0.625
1070
    77
1070
     1
1070
    41
1040
6.0
1070
    47
1040
0.1
1070
    48
1040
0.1
1070
    73
1070
     0
1070
   140
1040
5.0
1070
   271
1070
     1
1070
   272
1070
     1
1070
   341
1005
2AF4
1070
   342
1005
2AF4
1002
}
  0
LEADER
  5
4310
330
1A
100
AcDbEntity
  8
寸法線
 48
10.0
100
AcDbLeader
  3
ISO-25
 76
     3
 10
431.285814246388
 20
1127.298427519292
 30
0.0
 10
420.548662267613
 20
1102.8716872549
 30
0.0
 10
432.085390263729
 20
1102.8716872549
 30
0.0
1001
ACAD
1000
DSTYLE
1002
{
1070
     5
1000
OPEN30
1070
   147
1040
0.625
1070
    77
1070
     1
1070
    41
1040
6.0
1070
    47
1040
0.1
1070
    48
1040
0.1
1070
    73
1070
     0
1070
   140
1040
5.0
1070
   271
1070
     1
1070
   272
1070
     1
1070
   341
1005
2AF4
1070
   342
1005
2AF4
1002
}
  0
LINE
  5
468C
330
1A
100
AcDbEntity
  8
外形線
100
AcDbLine
 10
373.918379735351
 20
1170.78767474634
 30
0.0
 11
408.918373235351
 21
1170.78767474634
 31
0.0
  0
LINE
  5
468D
330
1A
100
AcDbEntity
  8
外形線
100
AcDbLine
 10
411.328246235351
 20
1136.56782674634
 30
0.0
 11
408.918373235351
 21
1170.78767474634
 31
0.0
  0
LINE
  5
468E
330
1A
100
AcDbEntity
  8
外形線
100
AcDbLine
 10
373.918379735351
 20
1170.78767474634
 30
0.0
 11
373.918379735351
 21
1090.78788974634
 31
0.0
  0
LINE
  5
468F
330
1A
100
AcDbEntity
  8
外形線
100
AcDbLine
 10
373.918379735351
 20
1090.78788974634
 30
0.0
 11
408.918373235351
 21
1090.78788974634
 31
0.0
  0
LINE
  5
4690
330
1A
100
AcDbEntity
  8
外形線
100
AcDbLine
 10
411.328246235351
 20
1125.00782924634
 30
0.0
 11
408.918373235351
 21
1090.78788974634
 31
0.0
  0
CIRCLE
  5
4691
330
1A
100
AcDbEntity
  8
外形線
 62
     0
100
AcDbCircle
 10
397.417381235351
 20
1130.78782724634
 30
0.0
 40
2.499
  0
LINE
  5
4692
330
1A
100
AcDbEntity
  8
外形線
100
AcDbLine
 10
393.418379735351
 20
1125.75782924634
 30
0.0
 11
393.418379735351
 21
1135.81782674634
 31
0.0
  0
LINE
  5
4693
330
1A
100
AcDbEntity
  8
外形線
100
AcDbLine
 10
394.618384235351
 20
1136.56782674634
 30
0.0
 11
422.226070767013
 21
1136.56782674634
 31
0.0
  0
LINE
  5
4694
330
1A
100
AcDbEntity
  8
外形線
100
AcDbLine
 10
394.618384235351
 20
1136.56782674634
 30
0.0
 11
393.418379735351
 21
1135.81782674634
 31
0.0
  0
LINE
  5
4695
330
1A
100
AcDbEntity
  8
細線
100
AcDbLine
 10
394.684943735351
 20
1133.67778124634
 30
0.0
 11
422.151870873274
 21
1133.67778124634
 31
0.0
  0
LINE
  5
4696
330
1A
100
AcDbEntity
  8
外形線
100
AcDbLine
 10
394.618384235351
 20
1125.00782924634
 30
0.0
 11
393.418379735351
 21
1125.75782924634
 31
0.0
  0
LINE
  5
4697
330
1A
100
AcDbEntity
  8
外形線
100
AcDbLine
 10
394.618384235351
 20
1125.00782924634
 30
0.0
 11
422.218375235351
 21
1125.00782924634
 31
0.0
  0
LINE
  5
4698
330
1A
100
AcDbEntity
  8
細線
100
AcDbLine
 10
394.684943735351
 20
1127.89778324634
 30
0.0
 11
422.158413813461
 21
1127.89778324634
 31
0.0
  0
CIRCLE
  5
4699
330
1A
100
AcDbEntity
  8
外形線
 62
     0
100
AcDbCircle
 10
415.918379735351
 20
1130.78782724634
 30
0.0
 40
0.9999
  0
ARC
  5
469A
330
1A
100
AcDbEntity
  8
細線
100
AcDbCircle
 10
397.348807235351
 20
1130.78778224634
 30
0.0
 40
3.9304305
100
AcDbArc
 50
132.668434758324
 51
227.331604937362
  0
ARC
  5
469B
330
1A
100
AcDbEntity
  8
細線
100
AcDbCircle
 10
396.588622235351
 20
1136.24926874634
 30
0.0
 40
3.1994565
100
AcDbArc
 50
187.749961576341
 51
233.48752078403
  0
ARC
  5
469C
330
1A
100
AcDbEntity
  8
細線
100
AcDbCircle
 10
396.588622235351
 20
1125.32638724634
 30
0.0
 40
3.1994565
100
AcDbArc
 50
126.512518911657
 51
172.250078119341
  0
LINE
  5
469D
330
1A
100
AcDbEntity
  8
外形線
100
AcDbLine
 10
423.418379735351
 20
1135.822636435591
 30
0.0
 11
423.418379735351
 21
1125.762638935591
 31
0.0
  0
LINE
  5
469E
330
1A
100
AcDbEntity
  8
外形線
100
AcDbLine
 10
422.218375235351
 20
1125.012638935591
 30
0.0
 11
423.418379735351
 21
1125.762638935591
 31
0.0
  0
LINE
  5
469F
330
1A
100
AcDbEntity
  8
外形線
100
AcDbLine
 10
422.226070767013
 20
1136.56782674634
 30
0.0
 11
423.426075267013
 21
1135.81782674634
 31
0.0
  0
ARC
  5
46A0
330
1A
100
AcDbEntity
  8
細線
100
AcDbCircle
 10
419.487952235351
 20
1130.792683435591
 30
0.0
 40
3.9304305
100
AcDbArc
 50
312.668434758323
 51
47.331604937362
  0
ARC
  5
46A1
330
1A
100
AcDbEntity
  8
細線
100
AcDbCircle
 10
420.248137235351
 20
1125.331196935591
 30
0.0
 40
3.1994565
100
AcDbArc
 50
7.749961576341
 51
53.487520784032
  0
ARC
  5
46A2
330
1A
100
AcDbEntity
  8
細線
100
AcDbCircle
 10
420.248137235351
 20
1136.254078435591
 30
0.0
 40
3.1994565
100
AcDbArc
 50
306.512518911657
 51
352.250078119341
  0
LINE
  5
46A3
330
1A
100
AcDbEntity
  8
中心線
 48
10.0
100
AcDbLine
 10
397.417381235351
 20
1133.67778124634
 30
0.0
 11
397.417381235351
 21
1127.89778324634
 31
0.0
  0
LINE
  5
46A4
330
1A
100
AcDbEntity
  8
中心線
 48
10.0
100
AcDbLine
 10
415.918379735351
 20
1132.85151824634
 30
0.0
 11
415.918379735351
 21
1128.72413624634
 31
0.0
  0
DIMENSION
  5
46A6
330
1A
100
AcDbEntity
  8
寸法線
 48
10.0
100
AcDbDimension
  2
*D33
 10
425.079093703035
 20
1127.78782724634
 30
0.0
 11
425.079093703035
 21
1152.891425636933
 31
0.0
 70
   160
  1
φ<>
  3
ISO-25
100
AcDbAlignedDimension
 13
425.079093703035
 23
1133.78787224634
 33
0.0
 14
423.42395496145
 24
1127.78782724634
 34
0.0
 50
90.0
100
AcDbRotatedDimension
1001
ACAD
1000
DSTYLE
1002
{
1070
     5
1000
OPEN30
1070
    41
1040
6.0
1070
    47
1040
0.1
1070
    48
1040
0.1
1070
    73
1070
     0
1070
   140
1040
6.0
1070
   271
1070
     1
1070
   272
1070
     1
1070
   341
1005
2AF4
1002
}
  0
DIMENSION
  5
46A7
330
1A
100
AcDbEntity
  8
寸法線
 48
10.0
100
AcDbDimension
  2
*D34
 10
354.546923563345
 20
1090.78788974634
 30
0.0
 11
350.915673563345
 21
1130.78778224634
 31
0.0
 70
    32
  3
ISO-25
100
AcDbAlignedDimension
 13
373.918379735351
 23
1170.78767474634
 33
0.0
 14
373.918379735351
 24
1090.78788974634
 34
0.0
 50
90.0
100
AcDbRotatedDimension
1001
ACAD
1000
DSTYLE
1002
{
1070
     5
1000
OPEN30
1070
    41
1040
6.0
1070
    47
1040
0.1
1070
    48
1040
0.1
1070
    73
1070
     0
1070
   140
1040
6.0
1070
   271
1070
     1
1070
   272
1070
     1
1070
   341
1005
2AF4
1002
}
  0
DIMENSION
  5
46A8
330
1A
100
AcDbEntity
  8
寸法線
 48
10.0
100
AcDbDimension
  2
*D35
 10
408.918373235351
 20
1071.799076236478
 30
0.0
 11
391.418376485351
 21
1075.427201236478
 31
0.0
 70
    32
  3
ISO-25
100
AcDbAlignedDimension
 13
373.918379735351
 23
1090.78788974634
 33
0.0
 14
408.918373235351
 24
1090.78788974634
 34
0.0
100
AcDbRotatedDimension
1001
ACAD
1000
DSTYLE
1002
{
1070
     5
1000
OPEN30
1070
    41
1040
6.0
1070
    47
1040
0.1
1070
    48
1040
0.1
1070
    73
1070
     0
1070
   140
1040
6.0
1070
   271
1070
     1
1070
   272
1070
     1
1070
   341
1005
2AF4
1002
}
  0
LINE
  5
46AB
330
1A
100
AcDbEntity
  8
外形線
100
AcDbLine
 10
431.818388735351
 20
1127.78787224634
 30
0.0
 11
423.418379735351
 21
1127.78787224634
 31
0.0
  0
LINE
  5
46AC
330
1A
100
AcDbEntity
  8
外形線
100
AcDbLine
 10
431.818388735351
 20
1133.78787224634
 30
0.0
 11
423.418379735351
 21
1133.78787224634
 31
0.0
  0
LINE
  5
46B4
330
1A
100
AcDbEntity
  8
外形線
100
AcDbLine
 10
469.327727444429
 20
1140.787681585668
 30
0.0
 11
431.818388735351
 21
1140.78767399634
 31
0.0
  0
LINE
  5
46B5
330
1A
100
AcDbEntity
  8
外形線
100
AcDbLine
 10
469.327722237942
 20
1120.78784183673
 30
0.0
 11
431.818388735351
 21
1120.78788899634
 31
0.0
  0
LINE
  5
46B6
330
1A
100
AcDbEntity
  8
外形線
100
AcDbLine
 10
431.818388735351
 20
1140.78767399634
 30
0.0
 11
431.818388735351
 21
1120.78788899634
 31
0.0
  0
LINE
  5
46B9
330
1A
100
AcDbEntity
  8
外形線
100
AcDbLine
 10
472.381557603443
 20
1133.787759492441
 30
0.0
 11
468.198926103443
 21
1133.787759492441
 31
0.0
  0
ARC
  5
46BA
330
1A
100
AcDbEntity
  8
細線
100
AcDbCircle
 10
478.065083103443
 20
1135.787728992442
 30
0.0
 40
10.0668165
100
AcDbArc
 50
150.219679009224
 51
209.780303390683
  0
ARC
  5
46BB
330
1A
100
AcDbEntity
  8
細線
100
AcDbCircle
 10
461.001302103443
 20
1135.862436492441
 30
0.0
 40
9.674058
100
AcDbArc
 50
347.616416390626
 51
30.605153280394
  0
ARC
  5
46BC
330
1A
100
AcDbEntity
  8
細線
100
AcDbCircle
 10
486.150449103443
 20
1135.787728992442
 30
0.0
 40
9.910074000000002
100
AcDbArc
 50
149.699719810143
 51
210.300262589758
  0
LINE
  5
46BD
330
1A
100
AcDbEntity
  8
外形線
100
AcDbLine
 10
474.387845103443
 20
1133.787759492441
 30
0.0
 11
476.444279103443
 21
1133.787759492441
 31
0.0
  0
ARC
  5
46BE
330
1A
100
AcDbEntity
  8
細線
100
AcDbCircle
 10
469.783480872475
 20
1132.287758592441
 30
0.0
 40
3.0
100
AcDbArc
 50
330.000019847839
 51
30.000019847843
  0
ARC
  5
46BF
330
1A
100
AcDbEntity
  8
細線
100
AcDbCircle
 10
474.979633295182
 20
1132.287760392441
 30
0.0
 40
3.0
100
AcDbArc
 50
150.000019847839
 51
210.000019847843
  0
ARC
  5
46C0
330
1A
100
AcDbEntity
  8
細線
100
AcDbCircle
 10
476.985921314797
 20
1132.287759492441
 30
0.0
 40
3.0
100
AcDbArc
 50
150.0
 51
210.0
  0
LINE
  5
46C1
330
1A
100
AcDbEntity
  8
外形線
100
AcDbLine
 10
472.381557603443
 20
1127.787759492441
 30
0.0
 11
470.473760103443
 21
1127.787759492441
 31
0.0
  0
ARC
  5
46C2
330
1A
100
AcDbEntity
  8
細線
100
AcDbCircle
 10
460.738865103443
 20
1125.787789992442
 30
0.0
 40
9.938206500000001
100
AcDbArc
 50
329.794449581514
 51
30.205515218283
  0
ARC
  5
46C3
330
1A
100
AcDbEntity
  8
細線
100
AcDbCircle
 10
468.761906103443
 20
1125.787789992442
 30
0.0
 40
10.1493
100
AcDbArc
 50
330.485780457128
 51
29.514241638454
  0
ARC
  5
46C4
330
1A
100
AcDbEntity
  8
細線
100
AcDbCircle
 10
486.298055103443
 20
1125.882822492442
 30
0.0
 40
10.08543
100
AcDbArc
 50
169.112389345874
 51
210.343119832838
  0
LINE
  5
46C5
330
1A
100
AcDbEntity
  8
外形線
100
AcDbLine
 10
474.387845103443
 20
1127.787759492441
 30
0.0
 11
478.712201103443
 21
1127.787759492441
 31
0.0
  0
ARC
  5
46C6
330
1A
100
AcDbEntity
  8
細線
100
AcDbCircle
 10
469.783481911706
 20
1129.287758592441
 30
0.0
 40
3.0
100
AcDbArc
 50
330.000019847839
 51
30.000019847843
  0
ARC
  5
46C7
330
1A
100
AcDbEntity
  8
細線
100
AcDbCircle
 10
476.985921314797
 20
1129.287759492441
 30
0.0
 40
3.0
100
AcDbArc
 50
150.0
 51
210.0
  0
ARC
  5
46C8
330
1A
100
AcDbEntity
  8
細線
100
AcDbCircle
 10
471.78976889209
 20
1129.287759492441
 30
0.0
 40
3.0
100
AcDbArc
 50
330.0
 51
30.0
  0
LINE
  5
46C9
330
1A
100
AcDbEntity
  8
外形線
100
AcDbLine
 10
477.594118892974
 20
1140.787606992442
 30
0.0
 11
512.219456735361
 21
1140.787606992441
 31
0.0
  0
LINE
  5
46CA
330
1A
100
AcDbEntity
  8
外形線
100
AcDbLine
 10
477.594171608159
 20
1120.787892621932
 30
0.0
 11
512.219456735361
 21
1120.787892621932
 31
0.0
  0
MTEXT
  5
46CB
330
1A
100
AcDbEntity
  8
寸法線
 48
10.0
100
AcDbMText
 10
688.218970143567
 20
1212.26739420419
 30
0.0
 40
6.0
 41
0.0
 71
     7
 72
     1
  1
\A1;亜鉛ダイカスト
  0
MTEXT
  5
46CC
330
1A
100
AcDbEntity
  8
寸法線
 48
10.0
100
AcDbMText
 10
659.128193122184
 20
1192.720977296536
 30
0.0
 40
6.0
 41
0.0
 71
     7
 72
     1
  1
\A1;Oリング
  0
MTEXT
  5
46CD
330
1A
100
AcDbEntity
  8
寸法線
 48
10.0
100
AcDbMText
 10
629.580375667426
 20
1212.747241141319
 30
0.0
 40
6.0
 41
0.0
 71
     7
 72
     1
  1
\A1;亜鉛ダイカスト
  0
MTEXT
  5
46CF
330
1A
100
AcDbEntity
  8
寸法線
 48
10.0
100
AcDbMText
 10
533.297488981435
 20
1212.747241141319
 30
0.0
 40
6.0
 41
0.0
 71
     7
 72
     1
  1
\A1;貴取付板
  0
MTEXT
  5
46D0
330
1A
100
AcDbEntity
  8
寸法線
 48
10.0
100
AcDbMText
 10
520.459303370687
 20
1212.747241141319
 30
0.0
 40
6.0
 41
0.0
 71
     9
 72
     1
  1
\A1;座金\PSUS304
1001
ACAD
1000
MTEXTBEGIN
1070
    44
1040
0.8
1000
MTEXTEND
  0
MTEXT
  5
46D1
330
1A
100
AcDbEntity
  8
寸法線
 48
10.0
100
AcDbMText
 10
510.312355833315
 20
1192.720977296536
 30
0.0
 40
6.0
 41
0.0
 71
     9
 72
     1
  1
\A1;ナット\PSUS304
1001
ACAD
1000
MTEXTBEGIN
1070
    44
1040
0.8
1000
MTEXTEND
  0
MTEXT
  5
46D2
330
1A
100
AcDbEntity
  8
寸法線
 48
10.0
100
AcDbMText
 10
469.626574471828
 20
1212.747241141319
 30
0.0
 40
6.0
 41
0.0
 71
     9
 72
     1
  1
\A1;SUS304
  0
MTEXT
  5
46D3
330
1A
100
AcDbEntity
  8
寸法線
 48
10.0
100
AcDbMText
 10
431.885949030578
 20
1212.747241141319
 30
0.0
 40
6.0
 41
0.0
 71
     9
 72
     1
  1
\A1;SUS304
  0
MTEXT
  5
46D4
330
1A
100
AcDbEntity
  8
寸法線
 48
10.0
100
AcDbMText
 10
378.500822681365
 20
1212.747241141319
 30
0.0
 40
6.0
 41
0.0
 71
     9
 72
     1
  1
\A1;SUS304
  0
MTEXT
  5
46D5
330
1A
100
AcDbEntity
  8
寸法線
 48
10.0
100
AcDbMText
 10
419.028317524943
 20
1088.545251461245
 30
0.0
 40
6.0
 41
0.0
 71
     7
 72
     1
  1
\A1;φ2割ピン
  0
DIMENSION
  5
46DC
330
1A
100
AcDbEntity
  8
寸法線
 62
     1
 48
10.0
100
AcDbDimension
  2
*D37
 10
491.72119217154
 20
1120.787892621932
 30
0.0
 11
491.72119217154
 21
1153.962606992441
 31
0.0
 70
   160
  1
φ<>
  3
ISO-25
100
AcDbAlignedDimension
 13
492.981613732477
 23
1140.787606992441
 33
0.0
 14
492.981613732477
 24
1120.787892621932
 34
0.0
 50
90.0
100
AcDbRotatedDimension
1001
ACAD
1000
DSTYLE
1002
{
1070
     5
1000
OPEN30
1070
    41
1040
6.0
1070
    47
1040
0.1
1070
    48
1040
0.1
1070
    73
1070
     0
1070
   140
1040
6.0
1070
   271
1070
     1
1070
   272
1070
     1
1070
   341
1005
2AF4
1002
}
  0
LEADER
  5
46DD
330
1A
100
AcDbEntity
  8
寸法線
 62
     1
 48
10.0
100
AcDbLeader
  3
ISO-25
 76
     3
 10
390.717743348904
 20
1170.772038529812
 30
0.0
 10
378.551303407728
 20
1212.082100189515
 30
0.0
 10
372.440423151911
 20
1212.082100189515
 30
0.0
1001
ACAD
1000
DSTYLE
1002
{
1070
     5
1000
OPEN30
1070
   147
1040
0.625
1070
    77
1070
     1
1070
    41
1040
6.0
1070
    47
1040
0.1
1070
    48
1040
0.1
1070
    73
1070
     0
1070
   140
1040
5.0
1070
   271
1070
     1
1070
   272
1070
     1
1070
   341
1005
2AF4
1070
   342
1005
2AF4
1002
}
  0
LEADER
  5
46DE
330
1A
100
AcDbEntity
  8
寸法線
 62
     1
 48
10.0
100
AcDbLeader
  3
ISO-25
 76
     3
 10
429.444381970993
 20
1133.796890197873
 30
0.0
 10
431.325254268115
 20
1212.017910530035
 30
0.0
 10
424.750465442873
 20
1212.017910530035
 30
0.0
1001
ACAD
1000
DSTYLE
1002
{
1070
     5
1000
OPEN30
1070
   147
1040
0.625
1070
    77
1070
     1
1070
    41
1040
6.0
1070
    47
1040
0.1
1070
    48
1040
0.1
1070
    73
1070
     0
1070
   140
1040
5.0
1070
   271
1070
     1
1070
   272
1070
     1
1070
   341
1005
2AF4
1070
   342
1005
2AF4
1002
}
  0
LEADER
  5
46DF
330
1A
100
AcDbEntity
  8
寸法線
 62
     1
 48
10.0
100
AcDbLeader
  3
ISO-25
 76
     3
 10
479.826345698033
 20
1140.734149996694
 30
0.0
 10
469.040081696955
 20
1212.148328042988
 30
0.0
 10
462.00618317971
 20
1212.148328042988
 30
0.0
1001
ACAD
1000
DSTYLE
1002
{
1070
     5
1000
OPEN30
1070
   147
1040
0.625
1070
    77
1070
     1
1070
    41
1040
6.0
1070
    47
1040
0.1
1070
    48
1040
0.1
1070
    73
1070
     0
1070
   140
1040
5.0
1070
   271
1070
     1
1070
   272
1070
     1
1070
   341
1005
2AF4
1070
   342
1005
2AF4
1002
}
  0
LEADER
  5
46E0
330
1A
100
AcDbEntity
  8
寸法線
 62
     1
 48
10.0
100
AcDbLeader
  3
ISO-25
 76
     3
 10
524.944275452978
 20
1151.873897439748
 30
0.0
 10
509.935563142024
 20
1192.118205660124
 30
0.0
 10
502.07565971752
 20
1192.118205660124
 30
0.0
1001
ACAD
1000
DSTYLE
1002
{
1070
     5
1000
OPEN30
1070
   147
1040
0.625
1070
    77
1070
     1
1070
    41
1040
6.0
1070
    47
1040
0.1
1070
    48
1040
0.1
1070
    73
1070
     0
1070
   140
1040
5.0
1070
   271
1070
     1
1070
   272
1070
     1
1070
   341
1005
2AF4
1070
   342
1005
2AF4
1002
}
  0
LEADER
  5
46E1
330
1A
100
AcDbEntity
  8
寸法線
 62
     1
 48
10.0
100
AcDbLeader
  3
ISO-25
 76
     3
 10
530.454245092727
 20
1153.285638239904
 30
0.0
 10
520.884394427572
 20
1212.110873185801
 30
0.0
 10
514.140429689569
 20
1212.110873185801
 30
0.0
1001
ACAD
1000
DSTYLE
1002
{
1070
     5
1000
OPEN30
1070
   147
1040
0.625
1070
    77
1070
     1
1070
    41
1040
6.0
1070
    47
1040
0.1
1070
    48
1040
0.1
1070
    73
1070
     0
1070
   140
1040
5.0
1070
   271
1070
     1
1070
   272
1070
     1
1070
   341
1005
2AF4
1070
   342
1005
2AF4
1002
}
  0
LEADER
  5
46E2
330
1A
100
AcDbEntity
  8
寸法線
 62
     1
 48
10.0
100
AcDbLeader
  3
ISO-25
 76
     3
 10
534.058738274583
 20
1179.689696145215
 30
0.0
 10
534.058738274583
 20
1212.110873185801
 30
0.0
 10
540.173503335931
 20
1212.110873185801
 30
0.0
1001
ACAD
1000
DSTYLE
1002
{
1070
     5
1000
OPEN30
1070
   147
1040
0.625
1070
    77
1070
     1
1070
    41
1040
6.0
1070
    47
1040
0.1
1070
    48
1040
0.1
1070
    73
1070
     0
1070
   140
1040
5.0
1070
   271
1070
     1
1070
   272
1070
     1
1070
   341
1005
2AF4
1070
   342
1005
2AF4
1002
}
  0
LEADER
  5
46E4
330
1A
100
AcDbEntity
  8
寸法線
 62
     1
 48
10.0
100
AcDbLeader
  3
ISO-25
 76
     3
 10
630.282601557985
 20
1154.076762155576
 30
0.0
 10
629.341852068973
 20
1212.050695860443
 30
0.0
 10
637.577101375713
 20
1212.050695860443
 30
0.0
1001
ACAD
1000
DSTYLE
1002
{
1070
     5
1000
OPEN30
1070
   147
1040
0.625
1070
    77
1070
     1
1070
    41
1040
6.0
1070
    47
1040
0.1
1070
    48
1040
0.1
1070
    73
1070
     0
1070
   140
1040
5.0
1070
   271
1070
     1
1070
   272
1070
     1
1070
   341
1005
2AF4
1070
   342
1005
2AF4
1002
}
  0
LEADER
  5
46E5
330
1A
100
AcDbEntity
  8
寸法線
 62
     1
 48
10.0
100
AcDbLeader
  3
ISO-25
 76
     3
 10
656.27553757545
 20
1156.286253612438
 30
0.0
 10
659.303502261513
 20
1192.096590042744
 30
0.0
 10
666.730134643771
 20
1192.096590042744
 30
0.0
1001
ACAD
1000
DSTYLE
1002
{
1070
     5
1000
OPEN30
1070
   147
1040
0.625
1070
    77
1070
     1
1070
    41
1040
6.0
1070
    47
1040
0.1
1070
    48
1040
0.1
1070
    73
1070
     0
1070
   140
1040
5.0
1070
   271
1070
     1
1070
   272
1070
     1
1070
   341
1005
2AF4
1070
   342
1005
2AF4
1002
}
  0
LEADER
  5
46E6
330
1A
100
AcDbEntity
  8
寸法線
 62
     1
 48
10.0
100
AcDbLeader
  3
ISO-25
 76
     3
 10
684.135570585051
 20
1153.993148827444
 30
0.0
 10
687.622225792321
 20
1212.116616255362
 30
0.0
 10
694.772809265718
 20
1212.116616255362
 30
0.0
1001
ACAD
1000
DSTYLE
1002
{
1070
     5
1000
OPEN30
1070
   147
1040
0.625
1070
    77
1070
     1
1070
    41
1040
6.0
1070
    47
1040
0.1
1070
    48
1040
0.1
1070
    73
1070
     0
1070
   140
1040
5.0
1070
   271
1070
     1
1070
   272
1070
     1
1070
   341
1005
2AF4
1070
   342
1005
2AF4
1002
}
  0
LEADER
  5
46E7
330
1A
100
AcDbEntity
  8
寸法線
 62
     1
 48
10.0
100
AcDbLeader
  3
ISO-25
 76
     3
 10
415.901575077928
 20
1128.933995014866
 30
0.0
 10
417.239459822972
 20
1087.998861913496
 30
0.0
 10
426.102115189398
 20
1087.998861913496
 30
0.0
213
-32.08185023273671
223
0.0
233
0.0
1001
ACAD
1000
DSTYLE
1002
{
1070
     5
1000
OPEN30
1070
   147
1040
0.625
1070
    77
1070
     1
1070
    41
1040
6.0
1070
    47
1040
0.1
1070
    48
1040
0.1
1070
    73
1070
     0
1070
   140
1040
5.0
1070
   271
1070
     1
1070
   272
1070
     1
1070
   341
1005
2AF4
1070
   342
1005
2AF4
1002
}
  0
MTEXT
  5
46E8
330
1A
100
AcDbEntity
  8
寸法線
 48
10.0
100
AcDbMText
 10
589.083308238686
 20
1218.053146364319
 30
0.0
 40
6.0
 41
21.514934650843
 71
     1
 72
     5
  1
SUS303
  0
LEADER
  5
46E9
330
1A
100
AcDbEntity
  8
寸法線
 48
10.0
100
AcDbLeader
  3
ISO-25
 76
     3
 10
577.111478993525
 20
1148.116865055768
 30
0.0
 10
588.984751318371
 20
1211.766513919477
 30
0.0
 10
596.145275090979
 20
1211.766513919477
 30
0.0
1001
ACAD
1000
DSTYLE
1002
{
1070
     5
1000
OPEN30
1070
   147
1040
0.625
1070
    77
1070
     1
1070
    41
1040
6.0
1070
    47
1040
0.1
1070
    48
1040
0.1
1070
    73
1070
     0
1070
   140
1040
6.0
1070
   271
1070
     1
1070
   272
1070
     1
1070
   341
1005
2AF4
1070
   342
1005
2AF4
1002
}
  0
TEXT
  5
471C
330
1A
100
AcDbEntity
  8
寸法線
100
AcDbText
 10
266.164727165489
 20
971.140355561274
 30
0.0
 40
6.573033707865
  1
ク　ロ
  7
EXCADVERT
 72
     3
 11
266.164727165489
 21
951.640355561274
 31
0.0
100
AcDbText
  0
TEXT
  5
471D
330
1A
100
AcDbEntity
  8
寸法線
100
AcDbText
 10
236.614068665489
 20
970.990346561274
 30
0.0
 40
6.030927835052
  1
ア　カ
  7
EXCADVERT
 72
     3
 11
236.614068665489
 21
951.490346561274
 31
0.0
100
AcDbText
  0
TEXT
  5
471E
330
1A
100
AcDbEntity
  8
寸法線
100
AcDbText
 10
220.863794165489
 20
964.315168061274
 30
0.0
 40
6.428571428571
  1
キ
  7
EXCADVERT
 72
     3
 11
220.863794165489
 21
958.315168061274
 31
0.0
100
AcDbText
  0
TEXT
  5
471F
330
1A
100
AcDbEntity
  8
寸法線
100
AcDbText
 10
205.488422165489
 20
971.140355561274
 30
0.0
 40
5.636363639073
  1
ミドリ
  7
EXCADVERT
 72
     3
 11
205.488422165489
 21
952.540355552333
 31
0.0
100
AcDbText
  0
LINE
  5
4720
330
1A
100
AcDbEntity
  8
寸法線
100
AcDbLine
 10
209.231378165489
 20
1015.156757561274
 30
0.0
 11
209.231378165489
 21
922.156753061274
 31
0.0
  0
LINE
  5
4721
330
1A
100
AcDbEntity
  8
寸法線
100
AcDbLine
 10
240.290367665489
 20
1015.156757561274
 30
0.0
 11
240.290367665489
 21
931.156753061274
 31
0.0
  0
LINE
  5
4722
330
1A
100
AcDbEntity
  8
寸法線
100
AcDbLine
 10
209.231378165489
 20
922.156747061274
 30
0.0
 11
284.472584165489
 21
922.156747061274
 31
0.0
  0
LINE
  5
4723
330
1A
100
AcDbEntity
  8
寸法線
100
AcDbLine
 10
224.760815165489
 20
985.811360561274
 30
0.0
 11
224.760815165489
 21
926.656753061274
 31
0.0
  0
LINE
  5
4724
330
1A
100
AcDbEntity
  8
寸法線
100
AcDbLine
 10
224.760815165489
 20
926.656753061274
 30
0.0
 11
284.835087665489
 21
926.656753061274
 31
0.0
  0
LINE
  5
4725
330
1A
100
AcDbEntity
  8
寸法線
100
AcDbLine
 10
255.070137665489
 20
985.811360561274
 30
0.0
 11
255.070137665489
 21
935.656753061274
 31
0.0
  0
LINE
  5
4726
330
1A
100
AcDbEntity
  8
寸法線
100
AcDbLine
 10
270.064140665489
 20
940.156753061274
 30
0.0
 11
270.064140665489
 21
985.443638561274
 31
0.0
  0
LINE
  5
4727
330
1A
100
AcDbEntity
  8
寸法線
100
AcDbLine
 10
240.290367665489
 20
931.156753061274
 30
0.0
 11
290.540357165489
 21
931.156753061274
 31
0.0
  0
LINE
  5
4728
330
1A
100
AcDbEntity
  8
寸法線
100
AcDbLine
 10
286.480770665489
 20
927.148424561274
 30
0.0
 11
288.346421165489
 21
928.372462061274
 31
0.0
  0
LINE
  5
4729
330
1A
100
AcDbEntity
  8
寸法線
100
AcDbLine
 10
286.613270165489
 20
923.054977061274
 30
0.0
 11
288.569844665489
 21
925.047770561274
 31
0.0
  0
LINE
  5
472A
330
1A
100
AcDbEntity
  8
寸法線
100
AcDbLine
 10
290.540357165489
 20
928.895891561274
 30
0.0
 11
289.839783665489
 21
928.860266561274
 31
0.0
  0
LINE
  5
472B
330
1A
100
AcDbEntity
  8
寸法線
100
AcDbLine
 10
290.540357165489
 20
925.944403061274
 30
0.0
 11
290.401826165489
 21
925.930075061274
 31
0.0
  0
ARC
  5
472C
330
1A
100
AcDbEntity
  8
寸法線
100
AcDbCircle
 10
284.835087665489
 20
929.656753061274
 30
0.0
 40
3.0
100
AcDbArc
 50
270.0
 51
303.268623610808
  0
ARC
  5
472D
330
1A
100
AcDbEntity
  8
寸法線
100
AcDbCircle
 10
289.992116165489
 20
925.864145561274
 30
0.0
 40
3.0
100
AcDbArc
 50
92.910721466856
 51
123.268603762966
  0
ARC
  5
472E
330
1A
100
AcDbEntity
  8
寸法線
100
AcDbCircle
 10
290.710530665489
 20
922.946000561274
 30
0.0
 40
3.0
100
AcDbArc
 50
95.906259411358
 51
135.525546099523
  0
ARC
  5
472F
330
1A
100
AcDbEntity
  8
寸法線
100
AcDbCircle
 10
284.472584165489
 20
925.156753061274
 30
0.0
 40
3.0
100
AcDbArc
 50
270.0
 51
315.525565947365
  0
ARC
  5
4730
330
1A
100
AcDbEntity
  8
寸法線
100
AcDbCircle
 10
284.835087665489
 20
932.656753061274
 30
0.0
 40
3.0
100
AcDbArc
 50
56.731416084877
 51
89.99998127603
  0
LINE
  5
4731
330
1A
100
AcDbEntity
  8
寸法線
100
AcDbLine
 10
286.480770665489
 20
935.165080061274
 30
0.0
 11
288.346421165489
 21
933.941042561274
 31
0.0
  0
LINE
  5
4732
330
1A
100
AcDbEntity
  8
寸法線
100
AcDbLine
 10
290.540357165489
 20
933.417613061274
 30
0.0
 11
289.839783665489
 21
933.453238061274
 31
0.0
  0
ARC
  5
4733
330
1A
100
AcDbEntity
  8
寸法線
100
AcDbCircle
 10
289.992116165489
 20
936.449359061274
 30
0.0
 40
3.0
100
AcDbArc
 50
236.731435932722
 51
267.089318228831
  0
LINE
  5
4734
330
1A
100
AcDbEntity
  8
寸法線
100
AcDbLine
 10
290.540357165489
 20
936.369101561274
 30
0.0
 11
290.401826165489
 21
936.383429561274
 31
0.0
  0
ARC
  5
4735
330
1A
100
AcDbEntity
  8
寸法線
100
AcDbCircle
 10
290.710530665489
 20
939.367499561274
 30
0.0
 40
3.0
100
AcDbArc
 50
224.474436300387
 51
264.093722988548
  0
LINE
  5
4736
330
1A
100
AcDbEntity
  8
寸法線
100
AcDbLine
 10
286.613270165489
 20
939.258529061274
 30
0.0
 11
288.569844665489
 21
937.265734061274
 31
0.0
  0
ARC
  5
4737
330
1A
100
AcDbEntity
  8
寸法線
100
AcDbCircle
 10
284.472584165489
 20
937.156753061274
 30
0.0
 40
3.0
100
AcDbArc
 50
44.474473748321
 51
89.99998127603
  0
LINE
  5
4738
330
1A
100
AcDbEntity
  8
寸法線
100
AcDbLine
 10
270.064140665489
 20
940.156753061274
 30
0.0
 11
284.472584165489
 21
940.156753061274
 31
0.0
  0
LINE
  5
4739
330
1A
100
AcDbEntity
  8
寸法線
100
AcDbLine
 10
255.070137665489
 20
935.656753061274
 30
0.0
 11
284.835087665489
 21
935.656753061274
 31
0.0
  0
LINE
  5
473A
330
1A
100
AcDbEntity
  8
寸法線
100
AcDbLine
 10
293.540357165489
 20
937.156753061274
 30
0.0
 11
346.040345165489
 21
937.156753061274
 31
0.0
  0
LINE
  5
473B
330
1A
100
AcDbEntity
  8
寸法線
100
AcDbLine
 10
293.540357165489
 20
925.156753061274
 30
0.0
 11
346.040345165489
 21
925.156753061274
 31
0.0
  0
ARC
  5
473C
330
1A
100
AcDbEntity
  8
寸法線
100
AcDbCircle
 10
340.844193782013
 20
928.156751261274
 30
0.0
 40
6.0
100
AcDbArc
 50
330.000019847844
 51
30.000019847843
  0
ARC
  5
473D
330
1A
100
AcDbEntity
  8
寸法線
100
AcDbCircle
 10
340.844191703552
 20
934.156751261273
 30
0.0
 40
6.0
100
AcDbArc
 50
330.000019847844
 51
30.000019847843
  0
ARC
  5
473E
330
1A
100
AcDbEntity
  8
寸法線
100
AcDbCircle
 10
351.236496548964
 20
934.156754861274
 30
0.0
 40
6.0
100
AcDbArc
 50
150.000019847844
 51
210.000019847843
  0
ARC
  5
473F
330
1A
100
AcDbEntity
  8
寸法線
100
AcDbCircle
 10
298.736509588196
 20
934.156753061274
 30
0.0
 40
6.0
100
AcDbArc
 50
150.0
 51
210.0
  0
ARC
  5
4740
330
1A
100
AcDbEntity
  8
寸法線
100
AcDbCircle
 10
298.736509588196
 20
928.156753061274
 30
0.0
 40
6.0
100
AcDbArc
 50
150.0
 51
210.0
  0
ARC
  5
4741
330
1A
100
AcDbEntity
  8
寸法線
100
AcDbCircle
 10
288.344204742782
 20
928.156753061274
 30
0.0
 40
6.0
100
AcDbArc
 50
330.0
 51
30.0
  0
LINE
  5
4742
330
1A
100
AcDbEntity
  8
寸法線
100
AcDbLine
 10
349.040345165489
 20
931.156753061274
 30
0.0
 11
383.540345165489
 21
931.156753061274
 31
0.0
  0
LINE
  5
4743
330
1A
100
AcDbEntity
  8
寸法線
100
AcDbLine
 10
383.540345165489
 20
938.656753061274
 30
0.0
 11
355.522530665489
 21
938.656753061274
 31
0.0
  0
LINE
  5
4744
330
1A
100
AcDbEntity
  8
寸法線
100
AcDbLine
 10
383.540345165489
 20
946.156753061274
 30
0.0
 11
355.672470665489
 21
946.156753061274
 31
0.0
  0
LINE
  5
4745
330
1A
100
AcDbEntity
  8
寸法線
100
AcDbLine
 10
352.839279665489
 20
944.143187561274
 30
0.0
 11
350.505257165489
 21
937.439467061274
 31
0.0
  0
LINE
  5
4746
330
1A
100
AcDbEntity
  8
寸法線
100
AcDbLine
 10
349.088661665489
 20
936.432685061274
 30
0.0
 11
349.040345165489
 21
936.432685061274
 31
0.0
  0
LINE
  5
4747
330
1A
100
AcDbEntity
  8
寸法線
100
AcDbLine
 10
352.762925165489
 20
936.833399561274
 30
0.0
 11
352.087838165489
 21
935.250143561274
 31
0.0
  0
LINE
  5
4748
330
1A
100
AcDbEntity
  8
寸法線
100
AcDbLine
 10
350.018129165489
 20
933.882632561274
 30
0.0
 11
349.040345165489
 21
933.882632561274
 31
0.0
  0
ARC
  5
4749
330
1A
100
AcDbEntity
  8
寸法線
100
AcDbCircle
 10
355.672470665489
 20
943.156753061274
 30
0.0
 40
3.0
100
AcDbArc
 50
89.999981276032
 51
160.80341269666
  0
ARC
  5
474A
330
1A
100
AcDbEntity
  8
寸法線
100
AcDbCircle
 10
355.522530665489
 20
935.656753061274
 30
0.0
 40
3.0
100
AcDbArc
 50
89.999981276032
 51
156.907528872884
  0
ARC
  5
474B
330
1A
100
AcDbEntity
  8
寸法線
100
AcDbCircle
 10
349.088661665489
 20
937.932685061274
 30
0.0
 40
1.5
100
AcDbArc
 50
270.0
 51
340.803432544508
  0
ARC
  5
474C
330
1A
100
AcDbEntity
  8
寸法線
100
AcDbCircle
 10
350.018129165489
 20
936.132632561274
 30
0.0
 40
2.25
100
AcDbArc
 50
270.0
 51
336.907491424955
  0
LINE
  5
474D
330
1A
100
AcDbEntity
  8
寸法線
100
AcDbLine
 10
383.540345165489
 20
916.156753061274
 30
0.0
 11
355.672470665489
 21
916.156753061274
 31
0.0
  0
ARC
  5
474E
330
1A
100
AcDbEntity
  8
寸法線
100
AcDbCircle
 10
355.672470665489
 20
919.156753061274
 30
0.0
 40
3.0
100
AcDbArc
 50
199.196626999025
 51
270.0
  0
LINE
  5
474F
330
1A
100
AcDbEntity
  8
寸法線
100
AcDbLine
 10
383.540345165489
 20
923.656753061274
 30
0.0
 11
355.522530665489
 21
923.656753061274
 31
0.0
  0
ARC
  5
4750
330
1A
100
AcDbEntity
  8
寸法線
100
AcDbCircle
 10
355.522530665489
 20
926.656753061274
 30
0.0
 40
3.0
100
AcDbArc
 50
203.092510822793
 51
270.0
  0
LINE
  5
4751
330
1A
100
AcDbEntity
  8
寸法線
100
AcDbLine
 10
349.088661665489
 20
925.880819561274
 30
0.0
 11
349.040345165489
 21
925.880819561274
 31
0.0
  0
LINE
  5
4752
330
1A
100
AcDbEntity
  8
寸法線
100
AcDbLine
 10
352.839279665489
 20
918.170317061274
 30
0.0
 11
350.505257165489
 21
924.874037561274
 31
0.0
  0
ARC
  5
4753
330
1A
100
AcDbEntity
  8
寸法線
100
AcDbCircle
 10
349.088661665489
 20
924.380819561274
 30
0.0
 40
1.5
100
AcDbArc
 50
19.196607151181
 51
89.999981276032
  0
LINE
  5
4754
330
1A
100
AcDbEntity
  8
寸法線
100
AcDbLine
 10
352.762925165489
 20
925.480105061274
 30
0.0
 11
352.087838165489
 21
927.063361061274
 31
0.0
  0
LINE
  5
4755
330
1A
100
AcDbEntity
  8
寸法線
100
AcDbLine
 10
350.018129165489
 20
928.430873561274
 30
0.0
 11
349.040345165489
 21
928.430873561274
 31
0.0
  0
ARC
  5
4756
330
1A
100
AcDbEntity
  8
寸法線
100
AcDbCircle
 10
350.018129165489
 20
926.180873561274
 30
0.0
 40
2.25
100
AcDbArc
 50
23.092490974952
 51
89.999981276031
  0
TEXT
  5
4757
330
1A
100
AcDbEntity
  8
寸法線
100
AcDbText
 10
306.436509665489
 20
928.009078061274
 30
0.0
 40
6.75
  1
リード線
 41
0.869565217391
  7
EXCADSTD
 72
     5
 11
333.436509665489
 21
928.009078061274
 31
0.0
100
AcDbText
  0
TEXT
  5
4758
330
1A
100
AcDbEntity
  8
寸法線
100
AcDbText
 10
367.487741165489
 20
947.284471061274
 30
0.0
 40
5.25
  1
ク　ロ
 41
0.918367346939
  7
EXCADSTD
 72
     5
 11
383.237741165489
 21
947.284471061274
 31
0.0
100
AcDbText
  0
TEXT
  5
4759
330
1A
100
AcDbEntity
  8
寸法線
100
AcDbText
 10
367.637750165489
 20
939.634312061274
 30
0.0
 40
5.25
  1
シ　ロ
 41
0.918367346939
  7
EXCADSTD
 72
     5
 11
383.387750165489
 21
939.634312061274
 31
0.0
100
AcDbText
  0
TEXT
  5
475A
330
1A
100
AcDbEntity
  8
寸法線
100
AcDbText
 10
367.637750165489
 20
931.984160561274
 30
0.0
 40
5.25
  1
ア　カ
 41
0.909090909091
  7
EXCADSTD
 72
     5
 11
383.387750165489
 21
931.984160561274
 31
0.0
100
AcDbText
  0
TEXT
  5
475B
330
1A
100
AcDbEntity
  8
寸法線
100
AcDbText
 10
372.887864165489
 20
924.484000061274
 30
0.0
 40
5.25
  1
キ
 41
1.071428571429
  7
EXCADSTD
 72
     5
 11
378.137864165489
 21
924.484000061274
 31
0.0
100
AcDbText
  0
TEXT
  5
475C
330
1A
100
AcDbEntity
  8
寸法線
100
AcDbText
 10
367.637750165489
 20
916.833842561274
 30
0.0
 40
5.25
  1
ミドリ
 41
0.947368421053
  7
EXCADSTD
 72
     5
 11
383.387750165489
 21
916.833842561274
 31
0.0
100
AcDbText
  0
TEXT
  5
475D
330
1A
100
AcDbEntity
  8
寸法線
100
AcDbText
 10
251.301285092966
 20
970.798451561274
 30
0.0
 40
6.724137931034
  1
シ　ロ
  7
EXCADVERT
 72
     3
 11
251.301285092966
 21
951.298451561274
 31
0.0
100
AcDbText
  0
TEXT
  5
475E
330
1A
100
AcDbEntity
  8
寸法線
100
AcDbText
 10
388.189736165489
 20
939.222949061274
 30
0.0
 40
7.5
  1
電源
 41
0.923076923077
  7
EXCADSTD
 72
     5
 11
403.189736165489
 21
939.222949061274
 31
0.0
100
AcDbText
  0
TEXT
  5
475F
330
1A
100
AcDbEntity
  8
寸法線
100
AcDbText
 10
391.264740665489
 20
934.872728561274
 30
0.0
 40
7.336956521739
  1
ＨＣＬ
  7
EXCADVERT
 72
     3
 11
391.264740665489
 21
912.372728561274
 31
0.0
100
AcDbText
  0
LINE
  5
4760
330
1A
100
AcDbEntity
  8
寸法線
100
AcDbLine
 10
209.231378165489
 20
1015.156757561274
 30
0.0
 11
218.870370665489
 21
1015.156757561274
 31
0.0
  0
LINE
  5
4761
330
1A
100
AcDbEntity
  8
寸法線
100
AcDbLine
 10
218.870370665489
 20
1015.156757561274
 30
0.0
 11
218.870370665489
 21
1000.376942561274
 31
0.0
  0
LINE
  5
4762
330
1A
100
AcDbEntity
  8
寸法線
100
AcDbLine
 10
230.651375165489
 20
1015.156757561274
 30
0.0
 11
240.290367665489
 21
1015.156757561274
 31
0.0
  0
LINE
  5
4763
330
1A
100
AcDbEntity
  8
寸法線
100
AcDbLine
 10
255.070161665489
 20
1015.156757561274
 30
0.0
 11
270.064164665489
 21
1015.156757561274
 31
0.0
  0
TEXT
  5
4764
330
1A
100
AcDbEntity
  8
寸法線
100
AcDbText
 10
265.563203165489
 20
987.681599561274
 30
0.0
 40
9.0
  1
Ｍ
 41
1.25
  7
EXCADSTD
 72
     5
 11
274.563203165489
 21
987.681599561274
 31
0.0
100
AcDbText
  0
LINE
  5
4765
330
1A
100
AcDbEntity
  8
寸法線
100
AcDbLine
 10
270.064164665489
 20
1015.156757561274
 30
0.0
 11
270.064164665489
 21
999.232030061274
 31
0.0
  0
CIRCLE
  5
4766
330
1A
100
AcDbEntity
  8
寸法線
100
AcDbCircle
 10
224.760872165489
 20
987.011365061274
 30
0.0
 40
1.2000045
  0
CIRCLE
  5
4767
330
1A
100
AcDbEntity
  8
寸法線
100
AcDbCircle
 10
255.070161665489
 20
987.011365061274
 30
0.0
 40
1.2000045
  0
CIRCLE
  5
4768
330
1A
100
AcDbEntity
  8
寸法線
100
AcDbCircle
 10
218.870370665489
 20
999.176938061274
 30
0.0
 40
1.2000045
  0
LINE
  5
4769
330
1A
100
AcDbEntity
  8
寸法線
100
AcDbLine
 10
230.651375165489
 20
1015.156757561274
 30
0.0
 11
230.651375165489
 21
1000.376942561274
 31
0.0
  0
CIRCLE
  5
476A
330
1A
100
AcDbEntity
  8
寸法線
100
AcDbCircle
 10
230.651375165489
 20
999.176938061274
 30
0.0
 40
1.2000045
  0
LINE
  5
476B
330
1A
100
AcDbEntity
  8
寸法線
100
AcDbLine
 10
255.070161665489
 20
1015.156757561274
 30
0.0
 11
255.070161665489
 21
1000.376942561274
 31
0.0
  0
CIRCLE
  5
476C
330
1A
100
AcDbEntity
  8
寸法線
100
AcDbCircle
 10
255.070161665489
 20
999.176938061274
 30
0.0
 40
1.2000045
  0
LINE
  5
476D
330
1A
100
AcDbEntity
  8
寸法線
100
AcDbLine
 10
224.760872165489
 20
988.211357561274
 30
0.0
 11
220.070375165489
 21
999.176938061274
 31
0.0
  0
LINE
  5
476E
330
1A
100
AcDbEntity
  8
寸法線
100
AcDbLine
 10
255.070161665489
 20
988.211357561274
 30
0.0
 11
256.270166165489
 21
999.176938061274
 31
0.0
  0
CIRCLE
  5
476F
330
1A
100
AcDbEntity
  8
寸法線
100
AcDbCircle
 10
270.069840665489
 20
992.348683061274
 30
0.0
 40
6.883348499999999
  0
MTEXT
  5
4770
102
{ACAD_XDICTIONARY
360
4771
102
}
330
1A
100
AcDbEntity
  8
寸法線
 48
10.0
100
AcDbMText
 10
382.908372400775
 20
1014.032811218284
 30
0.0
 40
7.0
 41
158.221086696158
 71
     1
 72
     5
  1
\H0.8571x;塗　装　色：7.5BG4/1.5\P接点　容量：AC250V5A\P静止トルク：約4.9N・cm（約500g・cm）\P回　転　数：1RPM
1001
ACADANNOTATIVE
1000
AnnotativeData
1002
{
1070
     1
1070
     0
1002
}
  0
MTEXT
  5
4774
330
1A
100
AcDbEntity
  8
寸法線
 48
10.0
100
AcDbMText
 10
659.194051041179
 20
1063.885371771524
 30
0.0
 40
6.0
 41
51.077111820171
 71
     1
 72
     5
  1
リード線0.5m付
  0
LEADER
  5
4775
330
1A
100
AcDbEntity
  8
寸法線
 48
10.0
100
AcDbLeader
  3
ISO-25
 76
     2
 10
644.971029748294
 20
1053.429485706404
 30
0.0
 10
658.368049344881
 20
1058.448438319479
 30
0.0
1001
ACAD
1000
DSTYLE
1002
{
1070
     5
1000
OPEN30
1070
   147
1040
0.625
1070
    77
1070
     0
1070
    41
1040
6.0
1070
    47
1040
0.1
1070
    48
1040
0.1
1070
    73
1070
     0
1070
   140
1040
5.0
1070
   271
1070
     1
1070
   272
1070
     1
1070
   341
1005
2AF4
1070
   342
1005
2AF4
1002
}
  0
MTEXT
  5
4786
102
{ACAD_XDICTIONARY
360
4787
102
}
330
1A
100
AcDbEntity
  8
寸法線
 48
10.0
100
AcDbMText
 10
292.29849037958
 20
1012.155548263479
 30
0.0
 40
6.0
 41
168.503621648242
 71
     1
 72
     5
  1
御仕様   電源電圧\P       AC100/110V\P       AC200/220V
1001
ACADANNOTATIVE
1000
AnnotativeData
1002
{
1070
     1
1070
     0
1002
}
  0
MTEXT
  5
478A
102
{ACAD_XDICTIONARY
360
478B
102
}
330
1A
100
AcDbEntity
  8
寸法線
 48
10.0
100
AcDbMText
 10
293.479211972392
 20
982.608374540916
 30
0.0
 40
6.0
 41
161.650793650794
 71
     1
 72
     5
  1
\W0.7;○印が今回の貴社の御仕様です。
1001
ACADANNOTATIVE
1000
AnnotativeData
1002
{
1070
     1
1070
     0
1002
}
  0
LINE
  5
478E
330
1A
100
AcDbEntity
  8
寸法線
 48
10.0
100
AcDbLine
 10
315.565428386116
 20
1014.265008923743
 30
0.0
 11
315.565428386116
 21
984.822879967125
 31
0.0
  0
LINE
  5
478F
330
1A
100
AcDbEntity
  8
寸法線
 48
10.0
100
AcDbLine
 10
289.948205893108
 20
1003.961524104357
 30
0.0
 11
363.396046881474
 21
1003.961524104357
 31
0.0
  0
LINE
  5
4790
330
1A
100
AcDbEntity
  8
寸法線
 48
10.0
100
AcDbLine
 10
289.948205893108
 20
1014.265008923743
 30
0.0
 11
363.396046881474
 21
1014.265008923743
 31
0.0
  0
LINE
  5
4791
330
1A
100
AcDbEntity
  8
寸法線
 48
10.0
100
AcDbLine
 10
363.396046881474
 20
1014.265008923743
 30
0.0
 11
363.396046881474
 21
984.822879967125
 31
0.0
  0
LINE
  5
4792
330
1A
100
AcDbEntity
  8
寸法線
 48
10.0
100
AcDbLine
 10
289.948205893108
 20
994.075544882671
 30
0.0
 11
363.396046881474
 21
994.075544882671
 31
0.0
  0
LINE
  5
4793
330
1A
100
AcDbEntity
  8
寸法線
 48
10.0
100
AcDbLine
 10
289.948205893108
 20
984.822879967125
 30
0.0
 11
363.396046881474
 21
984.822879967125
 31
0.0
  0
LINE
  5
4794
330
1A
100
AcDbEntity
  8
寸法線
 48
10.0
100
AcDbLine
 10
289.948205893108
 20
1014.265008923743
 30
0.0
 11
289.948205893108
 21
984.822879967125
 31
0.0
  0
LINE
  5
4795
330
1A
100
AcDbEntity
  8
外形線
100
AcDbLine
 10
653.169438735352
 20
1095.08780024634
 30
0.0
 11
653.169438735352
 21
1156.28782724634
 31
0.0
  0
LINE
  5
4796
330
1A
100
AcDbEntity
  8
外形線
100
AcDbLine
 10
653.169438735352
 20
1156.28782724634
 30
0.0
 11
665.369419235352
 21
1156.28782724634
 31
0.0
  0
LINE
  5
4797
330
1A
100
AcDbEntity
  8
外形線
100
AcDbLine
 10
655.669438735352
 20
1085.28782724634
 30
0.0
 11
655.669438735352
 21
1156.28782724634
 31
0.0
  0
LINE
  5
4798
330
1A
100
AcDbEntity
  8
外形線
100
AcDbLine
 10
654.403549008824
 20
1085.28782724634
 30
0.0
 11
665.369419235352
 21
1085.28782724634
 31
0.0
  0
LINE
  5
4799
330
1A
100
AcDbEntity
  8
外形線
100
AcDbLine
 10
653.169438735352
 20
1154.18782724634
 30
0.0
 11
627.369438735352
 21
1153.88782724634
 31
0.0
  0
LINE
  5
479A
330
1A
100
AcDbEntity
  8
外形線
100
AcDbLine
 10
623.169438735352
 20
1149.68782724634
 30
0.0
 11
625.169438735352
 21
1149.68782724634
 31
0.0
  0
LINE
  5
479B
330
1A
100
AcDbEntity
  8
外形線
100
AcDbLine
 10
625.169438735352
 20
1149.68782724634
 30
0.0
 11
625.169438735352
 21
1149.68782724634
 31
0.0
  0
LINE
  5
479C
330
1A
100
AcDbEntity
  8
外形線
100
AcDbLine
 10
623.169438735352
 20
1111.88782724634
 30
0.0
 11
625.169438735352
 21
1111.88782724634
 31
0.0
  0
LINE
  5
479D
330
1A
100
AcDbEntity
  8
外形線
100
AcDbLine
 10
625.169438735352
 20
1151.68782724634
 30
0.0
 11
625.169438735352
 21
1089.88782724634
 31
0.0
  0
ARC
  5
479E
330
1A
100
AcDbEntity
  8
外形線
100
AcDbCircle
 10
627.369438735352
 20
1151.68782724634
 30
0.0
 40
2.2
100
AcDbArc
 50
90.0
 51
180.0
  0
ARC
  5
479F
330
1A
100
AcDbEntity
  8
外形線
100
AcDbCircle
 10
627.369438735352
 20
1089.88782724634
 30
0.0
 40
2.2
100
AcDbArc
 50
180.0
 51
263.748538621027
  0
DIMENSION
  5
47A0
330
1A
100
AcDbEntity
  8
寸法線
 48
10.0
100
AcDbDimension
  2
*D42
 10
724.122196654577
 20
1085.28782724634
 30
0.0
 11
724.122196654577
 21
1120.96280024634
 31
0.0
 70
   160
  1
φ72
  3
ISO-25
100
AcDbAlignedDimension
 13
665.369419235352
 23
1156.28782724634
 33
0.0
 14
665.369419235352
 24
1085.28782724634
 34
0.0
 50
90.0
100
AcDbRotatedDimension
1001
ACAD
1000
DSTYLE
1002
{
1070
     5
1000
OPEN30
1070
    41
1040
6.0
1070
    47
1040
0.1
1070
    48
1040
0.1
1070
    73
1070
     0
1070
   140
1040
6.0
1070
   271
1070
     1
1070
   272
1070
     1
1070
   341
1005
2AF4
1002
}
  0
LINE
  5
47A1
330
1A
100
AcDbEntity
  8
外形線
100
AcDbLine
 10
706.169438735352
 20
1096.21280024634
 30
0.0
 11
706.169438735352
 21
1145.71280024634
 31
0.0
  0
LINE
  5
47A2
330
1A
100
AcDbEntity
  8
外形線
100
AcDbLine
 10
704.669438735352
 20
1093.00319024634
 30
0.0
 11
704.669438735352
 21
1148.92241024634
 31
0.0
  0
LINE
  5
47A3
330
1A
100
AcDbEntity
  8
外形線
100
AcDbLine
 10
665.369419235352
 20
1156.28782724634
 30
0.0
 11
665.369419235352
 21
1085.28782724634
 31
0.0
  0
LINE
  5
47A4
330
1A
100
AcDbEntity
  8
外形線
100
AcDbLine
 10
665.369419235352
 20
1086.83780024634
 30
0.0
 11
700.383899735352
 21
1088.50831724634
 31
0.0
  0
LINE
  5
47A5
330
1A
100
AcDbEntity
  8
外形線
100
AcDbLine
 10
706.169438735352
 20
1096.21280024634
 30
0.0
 11
704.669438735352
 21
1096.21280024634
 31
0.0
  0
ARC
  5
47A6
330
1A
100
AcDbEntity
  8
外形線
100
AcDbCircle
 10
700.169438735352
 20
1093.00319024634
 30
0.0
 40
4.5
100
AcDbArc
 50
272.731520116378
 51
359.99998239991
  0
LINE
  5
47A7
330
1A
100
AcDbEntity
  8
外形線
100
AcDbLine
 10
665.369419235352
 20
1155.08780024634
 30
0.0
 11
700.383899735352
 21
1153.41728324634
 31
0.0
  0
LINE
  5
47A8
330
1A
100
AcDbEntity
  8
外形線
100
AcDbLine
 10
706.169438735352
 20
1145.71280024634
 30
0.0
 11
704.669438735352
 21
1145.71280024634
 31
0.0
  0
ARC
  5
47A9
330
1A
100
AcDbEntity
  8
外形線
100
AcDbCircle
 10
700.169438735352
 20
1148.92241024634
 30
0.0
 40
4.5
100
AcDbArc
 50
0.0
 51
87.268519579299
  0
LINE
  5
47AA
330
1A
100
AcDbEntity
  8
外形線
100
AcDbLine
 10
657.169438735352
 20
1085.28782724634
 30
0.0
 11
657.169438735352
 21
1156.28782724634
 31
0.0
  0
LINE
  5
47AB
330
1A
100
AcDbEntity
  8
中心線
 48
10.0
100
AcDbLine
 10
640.519429735351
 20
1099.75264124634
 30
0.0
 11
640.519429735351
 21
1044.31902224634
 31
0.0
  0
LINE
  5
47AC
330
1A
100
AcDbEntity
  8
外形線
100
AcDbLine
 10
636.281911735352
 20
1047.350418873807
 30
0.0
 11
636.281911735352
 21
1060.53402224634
 31
0.0
  0
LINE
  5
47AD
330
1A
100
AcDbEntity
  8
外形線
100
AcDbLine
 10
644.681875735352
 20
1047.350418873807
 30
0.0
 11
644.681875735352
 21
1060.53402224634
 31
0.0
  0
ARC
  5
47AE
330
1A
100
AcDbEntity
  8
細線
100
AcDbCircle
 10
638.381903923999
 20
1050.987712040043
 30
0.0
 40
4.199982
100
AcDbArc
 50
239.999981276043
 51
299.999981276018
  0
ARC
  5
47AF
330
1A
100
AcDbEntity
  8
細線
100
AcDbCircle
 10
642.581885923999
 20
1050.987710667511
 30
0.0
 40
4.199982
100
AcDbArc
 50
239.999981276043
 51
299.999981276021
  0
ARC
  5
47B0
330
1A
100
AcDbEntity
  8
細線
100
AcDbCircle
 10
642.581883546703
 20
1043.713128452637
 30
0.0
 40
4.199982
100
AcDbArc
 50
59.999981276044
 51
119.999981276018
  0
LINE
  5
47B1
330
1A
100
AcDbEntity
  8
外形線
100
AcDbLine
 10
633.577370098616
 20
1084.607028692089
 30
0.0
 11
626.63531046188
 21
1078.595028692089
 31
0.0
  0
LINE
  5
47B2
330
1A
100
AcDbEntity
  8
外形線
100
AcDbLine
 10
647.461489372087
 20
1084.607028692089
 30
0.0
 11
654.403549008824
 21
1078.595028692089
 31
0.0
  0
LINE
  5
47B3
330
1A
100
AcDbEntity
  8
外形線
100
AcDbLine
 10
647.461489372087
 20
1075.92945414617
 30
0.0
 11
647.461489372087
 21
1084.607028692089
 31
0.0
  0
LINE
  5
47B4
330
1A
100
AcDbEntity
  8
外形線
100
AcDbLine
 10
633.577370098616
 20
1075.92945414617
 30
0.0
 11
633.577370098616
 21
1084.607028692089
 31
0.0
  0
LWPOLYLINE
  5
47B5
330
1A
100
AcDbEntity
  8
外形線
100
AcDbPolyline
 90
       47
 70
     0
 43
0.0
 10
644.681874235351
 20
1059.442714583559
 10
645.14112802625
 20
1059.557585027913
 10
645.549745523519
 20
1059.683804645759
 10
645.903249828352
 20
1059.81999054855
 10
646.19776787361
 20
1059.964650655038
 10
646.430072857956
 20
1060.116200038824
 10
646.59761959937
 20
1060.272978293143
 10
646.698572420689
 20
1060.433267722636
 10
646.731825261681
 20
1060.595312162769
 10
646.697013797258
 20
1060.757336220747
 10
646.59451942911
 20
1060.917564727084
 10
646.425465106983
 20
1061.074242184736
 10
646.191703025407
 20
1061.225652002687
 10
645.895794330666
 20
1061.37013530329
 10
645.540981060343
 20
1061.506109097267
 10
645.131150622874
 20
1061.632083627277
 10
644.670793206299
 20
1061.746678690009
 10
644.164952582807
 20
1061.848638757974
 10
643.619170848123
 20
1061.936846735331
 10
643.039427701144
 20
1062.010336197021
 10
642.43207492911
 20
1062.068301977122
 10
641.803766816086
 20
1062.110108990419
 10
641.161387237241
 20
1062.135299190525
 10
640.511974237666
 20
1062.143596588336
 10
639.862642922085
 20
1062.134910275826
 10
639.22050750027
 20
1062.109335422052
 10
638.59260334228
 20
1062.067152230463
 10
637.985809897468
 20
1062.008822868934
 10
637.406775321794
 20
1061.934986406157
 10
636.861843639238
 20
1061.846451809869
 10
636.356985235352
 20
1061.744189083635
 10
635.897731444454
 20
1061.629318639281
 10
635.489113947185
 20
1061.503099021435
 10
635.135609642351
 20
1061.366913118644
 10
634.841091597094
 20
1061.222253012156
 10
634.608786612747
 20
1061.07070362837
 10
634.441239871334
 20
1060.913925374051
 10
634.340287050014
 20
1060.753635944558
 10
634.307034209022
 20
1060.591591504424
 10
634.341845673446
 20
1060.429567446447
 10
634.444340041593
 20
1060.269338940109
 10
634.61339436372
 20
1060.112661482458
 10
634.847156445296
 20
1059.961251664508
 10
635.143065140037
 20
1059.816768363905
 10
635.497878410361
 20
1059.680794569927
 10
635.907708847828
 20
1059.554820039915
 10
636.281911735352
 20
1059.459903158048
  0
ARC
  5
47B6
330
1A
100
AcDbEntity
  8
外形線
100
AcDbCircle
 10
640.519429735351
 20
1092.780232900297
 30
0.0
 40
34.15159996140045
100
AcDbArc
 50
255.26831657715
 51
262.87239111701
  0
LWPOLYLINE
  5
47B7
330
1A
100
AcDbEntity
  8
外形線
100
AcDbPolyline
 90
       34
 70
     0
 43
0.0
 10
652.192729735351
 20
1068.008387746068
 10
652.138988177751
 20
1068.567805857515
 10
651.978258335891
 20
1069.122073068931
 10
651.712020146388
 20
1069.666085907733
 10
651.342725024867
 20
1070.194835319528
 10
650.873773294291
 20
1070.703452789507
 10
650.309482876149
 20
1071.187255169789
 10
649.655049532737
 20
1071.641787799998
 10
648.916499026644
 20
1072.062865524007
 10
648.100631637924
 20
1072.446611225187
 10
647.214959549808
 20
1072.789491525368
 10
646.267637679507
 20
1073.088349318776
 10
645.267388590969
 20
1073.340432841417
 10
644.223422180966
 20
1073.543421008228
 10
643.145350878024
 20
1073.695444784697
 10
642.043101134994
 20
1073.795104396204
 10
640.926822030208
 20
1073.841482216589
 10
639.8067918188
 20
1073.834151217277
 10
638.693323294598
 20
1073.773178899203
 10
637.596668834023
 20
1073.659126671281
 10
636.526925996268
 20
1073.493044681178
 10
635.49394454898
 20
1073.276462145969
 10
634.507235775504
 20
1073.011373271711
 10
633.575884898768
 20
1072.700218891588
 10
632.708467428142
 20
1072.34586399169
 10
631.912970199566
 20
1071.951571331348
 10
631.196717835917
 20
1071.520971400948
 10
630.566305304798
 20
1071.058028993817
 10
630.027537194688
 20
1070.567006699974
 10
629.585374268598
 20
1070.052425657896
 10
629.243887787331
 20
1069.519023925665
 10
629.006222022927
 20
1068.971712854814
 10
628.874565307454
 20
1068.415531868547
 10
628.846129735351
 20
1068.008387746068
  0
ARC
  5
47B8
330
1A
100
AcDbEntity
  8
外形線
100
AcDbCircle
 10
640.519429735351
 20
1087.596847558367
 30
0.0
 40
13.57645981229912
100
AcDbArc
 50
239.247497502359
 51
300.75250249764
  0
LINE
  5
47B9
330
1A
100
AcDbEntity
  8
外形線
100
AcDbLine
 10
628.846129735351
 20
1068.008387746068
 30
0.0
 11
628.846129735351
 21
1063.62753500554
 31
0.0
  0
ARC
  5
47BA
330
1A
100
AcDbEntity
  8
外形線
100
AcDbCircle
 10
632.854129735351
 20
1063.62753500554
 30
0.0
 40
4.007999999999999
100
AcDbArc
 50
180.0
 51
255.268316577149
  0
ARC
  5
47BB
330
1A
100
AcDbEntity
  8
外形線
100
AcDbCircle
 10
626.126678544378
 20
1077.518771695146
 30
0.0
 40
7.618315752702329
100
AcDbArc
 50
273.828163206422
 51
347.958626091837
  0
LINE
  5
47BC
330
1A
100
AcDbEntity
  8
外形線
100
AcDbLine
 10
628.843378618149
 20
1068.005211029553
 30
0.0
 11
626.63531046188
 21
1069.91745414617
 31
0.0
  0
LINE
  5
47BD
330
1A
100
AcDbEntity
  8
外形線
100
AcDbLine
 10
626.63531046188
 20
1078.595028692089
 30
0.0
 11
626.63531046188
 21
1069.91745414617
 31
0.0
  0
LINE
  5
47BE
330
1A
100
AcDbEntity
  8
外形線
100
AcDbLine
 10
652.192729735351
 20
1068.008387746068
 30
0.0
 11
652.192729735351
 21
1063.62753500554
 31
0.0
  0
LWPOLYLINE
  5
47BF
330
1A
100
AcDbEntity
  8
外形線
100
AcDbPolyline
 90
       29
 70
     0
 43
0.0
 10
644.681874235351
 20
1060.53402224634
 10
644.654876149721
 20
1060.635993713667
 10
644.574228988011
 20
1060.736654206375
 10
644.440969573411
 20
1060.834709604117
 10
644.256811127419
 20
1060.928899278394
 10
644.024121244176
 20
1061.018012299569
 10
643.745891451984
 20
1061.100903004916
 10
643.425698753363
 20
1061.176505727601
 10
643.067659638066
 20
1061.243848497202
 10
642.676377160311
 20
1061.302065535632
 10
642.25688176057
 20
1061.350408387842
 10
641.81456659279
 20
1061.38825554417
 10
641.355118188443
 20
1061.415120430648
 10
640.884443348829
 20
1061.430657664543
 10
640.408593205548
 20
1061.434667494692
 10
639.933685425393
 20
1061.427098369559
 10
639.465825559869
 20
1061.408047600002
 10
639.011028550451
 20
1061.377760108212
 10
638.575141398768
 20
1061.336625278929
 10
638.16376799586
 20
1061.285171953392
 10
637.782197076936
 20
1061.224061630401
 10
637.435334227869
 20
1061.154079961913
 10
637.127638817569
 20
1061.076126652455
 10
636.863066667044
 20
1060.991203892276
 10
636.64501919223
 20
1060.900403472893
 10
636.476299674402
 20
1060.804892750706
 10
636.359077220381
 20
1060.705899639127
 10
636.294858875873
 20
1060.604696822178
 10
636.281911735352
 20
1060.53402224634
  0
ARC
  5
47C0
330
1A
100
AcDbEntity
  8
外形線
100
AcDbCircle
 10
640.519429735351
 20
1092.780232900297
 30
0.0
 40
34.15159996140045
100
AcDbArc
 50
277.000695446903
 51
284.73168342285
  0
ARC
  5
47C1
330
1A
100
AcDbEntity
  8
外形線
100
AcDbCircle
 10
648.184729735352
 20
1063.62753500554
 30
0.0
 40
4.007999999999999
100
AcDbArc
 50
284.731683422848
 51
0.0
  0
LINE
  5
47C2
330
1A
100
AcDbEntity
  8
外形線
100
AcDbLine
 10
652.195480852554
 20
1068.005211029553
 30
0.0
 11
654.403549008824
 21
1069.91745414617
 31
0.0
  0
ARC
  5
47C3
330
1A
100
AcDbEntity
  8
外形線
100
AcDbCircle
 10
654.912180926325
 20
1077.518771695146
 30
0.0
 40
7.618315752702329
100
AcDbArc
 50
192.041373908163
 51
266.171836793578
  0
LINE
  5
47C4
330
1A
100
AcDbEntity
  8
外形線
100
AcDbLine
 10
654.403549008824
 20
1069.91745414617
 30
0.0
 11
654.403549008824
 21
1078.595028692089
 31
0.0
  0
LWPOLYLINE
  5
47C5
330
1A
100
AcDbEntity
  8
外形線
100
AcDbPolyline
 90
       34
 70
     0
 43
0.0
 10
651.017884735352
 20
1084.313931639904
 10
650.96955193108
 20
1084.68476957437
 10
650.824998547554
 20
1085.052192980261
 10
650.585555574977
 20
1085.412818768622
 10
650.253427709247
 20
1085.763326440267
 10
649.831673051985
 20
1086.100488659618
 10
649.324174952751
 20
1086.421200970717
 10
648.735606252699
 20
1086.722510381845
 10
648.071386258915
 20
1087.001642555484
 10
647.337630845584
 20
1087.256027353318
 10
646.541096141443
 20
1087.483322501055
 10
645.689116322037
 20
1087.681435155148
 10
644.789536079533
 20
1087.848541172877
 10
643.850638391911
 20
1087.983101908327
 10
642.881068256583
 20
1088.083878379633
 10
641.889753090694
 20
1088.149942677025
 10
640.885820531005
 20
1088.180686506666
 10
639.87851439023
 20
1088.175826791569
 10
638.877109543677
 20
1088.135408278059
 10
637.890826529886
 20
1088.059803123778
 10
636.928746651553
 20
1087.94970747099
 10
635.99972835851
 20
1087.806135036785
 10
635.112325682622
 20
1087.630407779179
 10
634.274709475668
 20
1087.424143725044
 10
633.494592175371
 20
1087.189242071955
 10
632.77915679233
 20
1086.927865701142
 10
632.134990771718
 20
1086.642421262532
 10
631.568025338688
 20
1086.335537015268
 10
631.083480886012
 20
1086.010038627748
 10
630.685818906775
 20
1085.668923159989
 10
630.378700914718
 20
1085.315331467885
 10
630.164954730465
 20
1084.952519283451
 10
630.046548444081
 20
1084.583827237349
 10
630.020974735351
 20
1084.313931639904
  0
LINE
  5
47C6
330
1A
100
AcDbEntity
  8
外形線
100
AcDbLine
 10
633.577370098616
 20
1084.607028692089
 30
0.0
 11
647.461489372087
 21
1084.607028692089
 31
0.0
  0
LINE
  5
47C7
330
1A
100
AcDbEntity
  8
外形線
100
AcDbLine
 10
633.577370098616
 20
1093.28460323801
 30
0.0
 11
647.461489372087
 21
1093.28460323801
 31
0.0
  0
LINE
  5
47C8
330
1A
100
AcDbEntity
  8
外形線
100
AcDbLine
 10
633.577370098616
 20
1088.94581596505
 30
0.0
 11
647.461489372087
 21
1088.94581596505
 31
0.0
  0
LINE
  5
47C9
330
1A
100
AcDbEntity
  8
外形線
100
AcDbLine
 10
655.669438735352
 20
1095.08780024634
 30
0.0
 11
632.569447735352
 21
1095.08780024634
 31
0.0
  0
LINE
  5
47CA
330
1A
100
AcDbEntity
  8
外形線
100
AcDbLine
 10
632.888230970523
 20
1092.68779124634
 30
0.0
 11
630.169438735351
 21
1092.68779124634
 31
0.0
  0
LINE
  5
47CB
330
1A
100
AcDbEntity
  8
外形線
100
AcDbLine
 10
626.63531046188
 20
1087.272603238009
 30
0.0
 11
633.577370098616
 21
1093.28460323801
 31
0.0
  0
ARC
  5
47CC
330
1A
100
AcDbEntity
  8
外形線
100
AcDbCircle
 10
632.569447735352
 20
1089.68779124634
 30
0.0
 40
5.4
100
AcDbArc
 50
89.999981276021
 51
180.000019847837
  0
LINE
  5
47CD
330
1A
100
AcDbEntity
  8
外形線
100
AcDbLine
 10
633.577370098616
 20
1088.94581596505
 30
0.0
 11
626.63531046188
 21
1082.933815965049
 31
0.0
  0
ARC
  5
47CE
330
1A
100
AcDbEntity
  8
外形線
100
AcDbCircle
 10
630.169438735351
 20
1089.68779124634
 30
0.0
 40
3.0
100
AcDbArc
 50
89.999981276021
 51
211.533239298809
  0
LINE
  5
47CF
330
1A
100
AcDbEntity
  8
外形線
100
AcDbLine
 10
629.14031046188
 20
1080.764422328569
 30
0.0
 11
626.63531046188
 21
1082.933815965049
 31
0.0
  0
LINE
  5
47D0
330
1A
100
AcDbEntity
  8
外形線
100
AcDbLine
 10
630.020974735352
 20
1084.313931639904
 30
0.0
 11
630.020974735352
 21
1081.527099961602
 31
0.0
  0
LINE
  5
47D1
330
1A
100
AcDbEntity
  8
外形線
100
AcDbLine
 10
626.63531046188
 20
1082.933815965049
 30
0.0
 11
626.63531046188
 21
1087.272603238009
 31
0.0
  0
LINE
  5
47D2
330
1A
100
AcDbEntity
  8
細線
100
AcDbLine
 10
631.376179735351
 20
1082.700741918937
 30
0.0
 11
631.376179735351
 21
1086.252283128583
 31
0.0
  0
LINE
  5
47D3
330
1A
100
AcDbEntity
  8
外形線
100
AcDbLine
 10
633.577370098616
 20
1088.94581596505
 30
0.0
 11
633.577370098616
 21
1093.28460323801
 31
0.0
  0
LINE
  5
47D4
330
1A
100
AcDbEntity
  8
細線
100
AcDbLine
 10
649.662679735351
 20
1082.700741918937
 30
0.0
 11
649.662679735351
 21
1086.35568744643
 31
0.0
  0
LINE
  5
47D5
330
1A
100
AcDbEntity
  8
外形線
100
AcDbLine
 10
655.669438735352
 20
1092.68779124634
 30
0.0
 11
648.15062850018
 21
1092.68779124634
 31
0.0
  0
LINE
  5
47D6
330
1A
100
AcDbEntity
  8
外形線
100
AcDbLine
 10
654.403549008824
 20
1087.272603238009
 30
0.0
 11
647.461489372087
 21
1093.28460323801
 31
0.0
  0
LINE
  5
47D7
330
1A
100
AcDbEntity
  8
外形線
100
AcDbLine
 10
647.461489372087
 20
1088.94581596505
 30
0.0
 11
647.461489372087
 21
1093.28460323801
 31
0.0
  0
LINE
  5
47D8
330
1A
100
AcDbEntity
  8
外形線
100
AcDbLine
 10
651.898549008823
 20
1080.764422328569
 30
0.0
 11
654.403549008824
 21
1082.933815965049
 31
0.0
  0
LINE
  5
47D9
330
1A
100
AcDbEntity
  8
外形線
100
AcDbLine
 10
647.461489372087
 20
1088.94581596505
 30
0.0
 11
654.403549008824
 21
1082.933815965049
 31
0.0
  0
LINE
  5
47DA
330
1A
100
AcDbEntity
  8
外形線
100
AcDbLine
 10
651.017884735352
 20
1084.313931639904
 30
0.0
 11
651.017884735352
 21
1081.527099961602
 31
0.0
  0
LINE
  5
47DB
330
1A
100
AcDbEntity
  8
外形線
100
AcDbLine
 10
654.403549008824
 20
1082.933815965049
 30
0.0
 11
654.403549008824
 21
1087.272603238009
 31
0.0
  0
LINE
  5
47E0
330
1A
100
AcDbEntity
  8
寸法線
 48
10.0
100
AcDbLine
 10
706.169438735352
 20
1094.489360259698
 30
0.0
 11
706.169438735352
 21
1065.114067684709
 31
0.0
  0
DIMENSION
  5
47E1
330
1A
100
AcDbEntity
  8
寸法線
 48
10.0
100
AcDbDimension
  2
*D43
 10
706.169438735352
 20
1035.776746476371
 30
0.0
 11
664.669438735352
 21
1039.411121476371
 31
0.0
 70
    32
  1
83
  3
ISO-25
100
AcDbAlignedDimension
 13
623.169438735352
 23
1111.88782724634
 33
0.0
 14
706.169438735352
 24
1055.234555485989
 34
0.0
100
AcDbRotatedDimension
1001
ACAD
1000
DSTYLE
1002
{
1070
     5
1000
OPEN30
1070
    41
1040
6.0
1070
    47
1040
0.1
1070
    48
1040
0.1
1070
    73
1070
     0
1070
   140
1040
6.0
1070
   271
1070
     1
1070
   272
1070
     1
1070
   341
1005
2AF4
1002
}
  0
LINE
  5
47E3
330
1A
100
AcDbEntity
  8
外形線
 48
10.0
100
AcDbLine
 10
623.169438735352
 20
1111.88782724634
 30
0.0
 11
623.169438735352
 21
1149.68782724634
 31
0.0
  0
LINE
  5
47E4
330
1A
100
AcDbEntity
  8
外形線
100
AcDbLine
 10
523.069517735361
 20
1151.787827023537
 30
0.0
 11
529.519544735361
 21
1151.787827023537
 31
0.0
  0
LINE
  5
47E5
330
1A
100
AcDbEntity
  8
細線
 62
     6
100
AcDbLine
 10
523.069517735361
 20
1141.287827023537
 30
0.0
 11
529.519544735361
 21
1141.287827023537
 31
0.0
  0
LINE
  5
47E6
330
1A
100
AcDbEntity
  8
外形線
100
AcDbLine
 10
529.519544735361
 20
1153.287827023537
 30
0.0
 11
529.519544735361
 21
1108.287827023537
 31
0.0
  0
LINE
  5
47E7
330
1A
100
AcDbEntity
  8
外形線
100
AcDbLine
 10
529.519544735361
 20
1153.287827023537
 30
0.0
 11
532.219526735361
 21
1153.287827023537
 31
0.0
  0
LINE
  5
47E8
330
1A
100
AcDbEntity
  8
外形線
100
AcDbLine
 10
520.069540235361
 20
1112.787827023537
 30
0.0
 11
520.069540235361
 21
1148.787827023537
 31
0.0
  0
LINE
  5
47E9
330
1A
100
AcDbEntity
  8
外形線
100
AcDbLine
 10
520.069540235361
 20
1148.787827023537
 30
0.0
 11
523.069517735361
 21
1151.787827023537
 31
0.0
  0
LINE
  5
47EA
330
1A
100
AcDbEntity
  8
外形線
100
AcDbLine
 10
523.069517735361
 20
1109.787827023537
 30
0.0
 11
529.519544735361
 21
1109.787827023537
 31
0.0
  0
LINE
  5
47EB
330
1A
100
AcDbEntity
  8
細線
 62
     6
100
AcDbLine
 10
523.069517735361
 20
1120.287827023537
 30
0.0
 11
529.519544735361
 21
1120.287827023537
 31
0.0
  0
LINE
  5
47EC
330
1A
100
AcDbEntity
  8
外形線
100
AcDbLine
 10
529.519544735361
 20
1108.287827023537
 30
0.0
 11
532.219526735361
 21
1108.287827023537
 31
0.0
  0
LINE
  5
47ED
330
1A
100
AcDbEntity
  8
外形線
100
AcDbLine
 10
520.069540235361
 20
1112.787827023537
 30
0.0
 11
523.069517735361
 21
1109.787827023537
 31
0.0
  0
ARC
  5
47EE
330
1A
100
AcDbEntity
  8
細線
 62
     6
100
AcDbCircle
 10
539.944669235361
 20
1130.787827023537
 30
0.0
 40
19.875129
100
AcDbArc
 50
148.109418153978
 51
211.890564245926
  0
ARC
  5
47EF
330
1A
100
AcDbEntity
  8
細線
 62
     6
100
AcDbCircle
 10
531.071180735361
 20
1148.838434023537
 30
0.0
 40
11.0017755
100
AcDbArc
 50
180.263580433607
 51
223.338604767318
  0
ARC
  5
47F0
330
1A
100
AcDbEntity
  8
細線
 62
     6
100
AcDbCircle
 10
531.071180735361
 20
1112.737221523537
 30
0.0
 40
11.0017755
100
AcDbArc
 50
136.66137763259
 51
179.736401966304
  0
LINE
  5
47F1
330
1A
100
AcDbEntity
  8
外形線
100
AcDbLine
 10
532.219526735361
 20
1153.287827023537
 30
0.0
 11
532.219526735361
 21
1108.287827023537
 31
0.0
  0
LINE
  5
47F2
330
1A
100
AcDbEntity
  8
隠れ線
 48
10.0
100
AcDbLine
 10
532.219526735361
 20
1177.503540081347
 30
0.0
 11
532.219526735361
 21
1153.287827023537
 31
0.0
  0
LINE
  5
47F3
330
1A
100
AcDbEntity
  8
隠れ線
 48
10.0
100
AcDbLine
 10
532.219526735361
 20
1079.4687222507
 30
0.0
 11
532.219526735361
 21
1108.287849523537
 31
0.0
  0
DIMENSION
  5
47F4
330
1A
100
AcDbEntity
  8
寸法線
 48
10.0
100
AcDbDimension
  2
*D44
 10
515.60328980877
 20
1117.56732724634
 30
0.0
 11
515.60328980877
 21
1162.48865733223
 31
0.0
 70
   160
  1
G 3/4"
  3
ISO-25
100
AcDbAlignedDimension
 13
513.940327733387
 23
1144.00832724634
 33
0.0
 14
514.017405595523
 24
1117.56732724634
 34
0.0
 50
90.0
100
AcDbRotatedDimension
1001
ACAD
1000
DSTYLE
1002
{
1070
     5
1000
OPEN30
1070
    41
1040
6.0
1070
    47
1040
0.1
1070
    48
1040
0.1
1070
    73
1070
     0
1070
   140
1040
6.0
1070
   271
1070
     1
1070
   272
1070
     1
1070
   341
1005
2AF4
1002
}
  0
LWPOLYLINE
  5
47F5
330
1A
100
AcDbEntity
  8
細線
100
AcDbPolyline
 90
        2
 70
     0
 43
0.0
 10
512.219456735361
 20
1118.72932724634
 10
520.069540235361
 20
1118.72932724634
  0
LWPOLYLINE
  5
47F6
330
1A
100
AcDbEntity
  8
細線
100
AcDbPolyline
 90
        2
 70
     0
 43
0.0
 10
520.069540235361
 20
1142.84632724634
 10
512.219456735361
 20
1142.84632724634
  0
LWPOLYLINE
  5
47F7
330
1A
100
AcDbEntity
  8
外形線
100
AcDbPolyline
 90
        6
 70
     0
 43
0.0
 10
520.069540235361
 20
1144.00832724634
 10
512.719456735361
 20
1144.00832724634
 10
512.219456735361
 20
1143.50832724634
 10
512.219456735361
 20
1118.06732724634
 10
512.719456735361
 20
1117.56732724634
 10
520.069540235361
 20
1117.56732724634
  0
LINE
  5
47FA
330
1A
100
AcDbEntity
  8
寸法線
100
AcDbLine
 10
623.578709875299
 20
964.374068189965
 30
0.0
 11
623.578709875299
 21
1016.150751796754
 31
0.0
  0
LINE
  5
47FB
330
1A
100
AcDbEntity
  8
寸法線
100
AcDbLine
 10
699.480593293847
 20
1005.650751796754
 30
0.0
 11
569.145916939137
 21
1005.650751796754
 31
0.0
  0
LINE
  5
47FC
330
1A
100
AcDbEntity
  8
寸法線
100
AcDbLine
 10
699.480593293847
 20
995.150751796754
 30
0.0
 11
569.145916939137
 21
995.150751796754
 31
0.0
  0
LINE
  5
47FD
330
1A
100
AcDbEntity
  8
寸法線
100
AcDbLine
 10
699.480593293847
 20
984.650751796754
 30
0.0
 11
569.145916939137
 21
984.650751796754
 31
0.0
  0
LINE
  5
47FE
330
1A
100
AcDbEntity
  8
寸法線
100
AcDbLine
 10
569.145916939137
 20
1016.150751796754
 30
0.0
 11
699.480593293847
 21
1016.150751796754
 31
0.0
  0
LINE
  5
47FF
330
1A
100
AcDbEntity
  8
寸法線
100
AcDbLine
 10
593.145939439137
 20
964.374068189965
 30
0.0
 11
593.145939439137
 21
1016.150751796754
 31
0.0
  0
ARC
  5
4800
330
1A
100
AcDbEntity
  8
寸法線
100
AcDbCircle
 10
609.120986053315
 20
1008.990686296754
 30
0.0
 40
1.3204605
100
AcDbArc
 50
252.904086432758
 51
337.411923467762
  0
ARC
  5
4801
330
1A
100
AcDbEntity
  8
寸法線
100
AcDbCircle
 10
609.120986053315
 20
1008.990641296754
 30
0.0
 40
1.3204425
100
AcDbArc
 50
252.903398883386
 51
337.412611017145
  0
ARC
  5
4802
330
1A
100
AcDbEntity
  8
寸法線
100
AcDbCircle
 10
605.717696053315
 20
1011.482249296754
 30
0.0
 40
3.7598535
100
AcDbArc
 50
273.280470979893
 51
33.415912335964
  0
ARC
  5
4803
330
1A
100
AcDbEntity
  8
寸法線
100
AcDbCircle
 10
610.480680553315
 20
1010.728586296754
 30
0.0
 40
3.472035
100
AcDbArc
 50
123.469024399709
 51
239.774013712219
  0
ARC
  5
4804
330
1A
100
AcDbEntity
  8
寸法線
100
AcDbCircle
 10
610.480680553315
 20
1010.728586296754
 30
0.0
 40
3.4720395
100
AcDbArc
 50
123.469024399707
 51
239.773899120651
  0
ARC
  5
4805
330
1A
100
AcDbEntity
  8
寸法線
100
AcDbCircle
 10
608.678328553315
 20
1013.457407296754
 30
0.0
 40
0.2017125
100
AcDbArc
 50
28.230948368964
 51
123.883845843398
  0
LINE
  5
4806
330
1A
100
AcDbEntity
  8
寸法線
100
AcDbLine
 10
699.480593293847
 20
974.150796796754
 30
0.0
 11
569.145916939137
 21
974.150796796754
 31
0.0
  0
LINE
  5
4807
330
1A
100
AcDbEntity
  8
寸法線
100
AcDbLine
 10
569.145939439137
 20
964.374068189965
 30
0.0
 11
569.145939439137
 21
1016.150751796754
 31
0.0
  0
TEXT
  5
4808
330
1A
100
AcDbEntity
  8
寸法線
100
AcDbText
 10
571.174243939137
 20
1007.712930796754
 30
0.0
 40
6.75
  1
御仕様
 41
0.882352941176
  7
EXCADSTD
 72
     5
 11
591.424243939137
 21
1007.712930796754
 31
0.0
100
AcDbText
  0
LINE
  5
4809
330
1A
100
AcDbEntity
  8
寸法線
100
AcDbLine
 10
699.480593293847
 20
964.374068189965
 30
0.0
 11
699.480593293847
 21
1016.150751796754
 31
0.0
  0
LINE
  5
480A
330
1A
100
AcDbEntity
  8
寸法線
100
AcDbLine
 10
675.618565682609
 20
964.374068189965
 30
0.0
 11
675.618565682609
 21
1016.150751796754
 31
0.0
  0
TEXT
  5
480B
330
1A
100
AcDbEntity
  8
寸法線
100
AcDbText
 10
680.487750634325
 20
1007.562875296754
 30
0.0
 40
6.75
  1
台数
 41
0.909090909091
  7
EXCADSTD
 72
     5
 11
693.987750634325
 21
1007.562875296754
 31
0.0
100
AcDbText
  0
TEXT
  5
480C
330
1A
100
AcDbEntity
  8
寸法線
100
AcDbText
 10
641.883488875299
 20
1007.712885796754
 30
0.0
 40
6.75
  1
記事
 41
0.909090909091
  7
EXCADSTD
 72
     5
 11
655.383488875299
 21
1007.712885796754
 31
0.0
100
AcDbText
  0
MTEXT
  5
480D
102
{ACAD_XDICTIONARY
360
480E
102
}
330
1A
100
AcDbEntity
  8
隠れ線
 48
10.0
100
AcDbMText
 10
607.575733504066
 20
1002.578758674382
 30
0.0
 40
6.0
 41
19.035286317203
 71
     2
 72
     5
  1
\C1;150\P200\P250\P300
1001
ACADANNOTATIVE
1000
AnnotativeData
1002
{
1070
     1
1070
     0
1002
}
  0
MTEXT
  5
4811
330
1A
100
AcDbEntity
  8
隠れ線
 48
10.0
100
AcDbMText
 10
598.217642570351
 20
961.733190304717
 30
0.0
 40
6.0
 41
102.645465564322
 71
     1
 72
     5
  1
{\C1;○印が今回の貴社の御仕様です。}
  0
LINE
  5
4812
330
1A
100
AcDbEntity
  8
寸法線
100
AcDbLine
 10
699.480593293847
 20
964.374068189965
 30
0.0
 11
569.145916939137
 21
964.374068189965
 31
0.0
  0
DIMENSION
  5
48AB
330
1A
100
AcDbEntity
  8
寸法線
 48
10.0
100
AcDbDimension
  2
*D45
 10
556.015189191288
 20
1148.27783249634
 30
0.0
 11
556.015189191288
 21
1161.777096565052
 31
0.0
 70
   160
  1
φ<>
  3
ISO-25
100
AcDbAlignedDimension
 13
567.219456735353
 23
1113.27783249634
 33
0.0
 14
567.219456735353
 24
1148.27783249634
 34
0.0
 50
90.0
100
AcDbRotatedDimension
1001
ACAD
1000
DSTYLE
1002
{
1070
     5
1000
OPEN30
1070
    76
1070
     1
1070
    75
1070
     1
1070
    41
1040
6.0
1070
    47
1040
0.1
1070
    48
1040
0.1
1070
    73
1070
     0
1070
   140
1040
6.0
1070
   271
1070
     1
1070
   272
1070
     1
1070
   341
1005
2AF4
1002
}
  0
ARC
  5
4B00
330
1A
100
AcDbEntity
  8
隠れ線
 48
10.0
100
AcDbCircle
 10
273.2637489619
 20
1120.876363129573
 30
0.0
 40
36.0
100
AcDbArc
 50
91.432543737566
 51
88.567456262434
  0
ARC
  5
4B01
330
1A
100
AcDbEntity
  8
隠れ線
 48
10.0
100
AcDbCircle
 10
273.2637489619
 20
1120.876363129573
 30
0.0
 40
34.5
100
AcDbArc
 50
91.494842089047
 51
88.505157910953
  0
LINE
  5
4B02
330
1A
100
AcDbEntity
  8
中心線
 48
10.0
100
AcDbLine
 10
288.89570594943
 20
1094.032712697993
 30
0.0
 11
317.459183461901
 21
1044.559561129573
 31
0.0
  0
LINE
  5
4B03
330
1A
100
AcDbEntity
  8
外形線
100
AcDbLine
 10
280.456209083499
 20
1081.650384775697
 30
0.0
 11
288.635214989236
 21
1086.37253672415
 31
0.0
  0
LINE
  5
4B04
330
1A
100
AcDbEntity
  8
外形線
100
AcDbLine
 10
281.056227155337
 20
1080.611128415195
 30
0.0
 11
304.438895666004
 21
1094.111167900747
 31
0.0
  0
LINE
  5
4B05
330
1A
100
AcDbEntity
  8
外形線
100
AcDbLine
 10
314.282840662986
 20
1074.108926775425
 30
0.0
 11
293.456661752778
 21
1062.084926775425
 31
0.0
  0
LINE
  5
4B06
330
1A
100
AcDbEntity
  8
外形線
100
AcDbLine
 10
284.839461752779
 20
1077.010354994407
 30
0.0
 11
305.665640662986
 21
1089.034354994407
 31
0.0
  0
LINE
  5
4B07
330
1A
100
AcDbEntity
  8
外形線
100
AcDbLine
 10
308.170640662986
 20
1084.695567721446
 30
0.0
 11
287.344461752779
 21
1072.671567721447
 31
0.0
  0
ARC
  5
4B08
330
1A
100
AcDbEntity
  8
外形線
100
AcDbCircle
 10
297.829491571146
 20
1062.526963357158
 30
0.0
 40
4.007999999999999
100
AcDbArc
 50
210.000000000002
 51
300.000000000002
  0
LINE
  5
4B09
330
1A
100
AcDbEntity
  8
外形線
100
AcDbLine
 10
297.757551207882
 20
1078.683567721447
 30
0.0
 11
302.767551207882
 21
1070.005993175527
 31
0.0
  0
ARC
  5
4B0A
330
1A
100
AcDbEntity
  8
外形線
100
AcDbCircle
 10
294.01301557124
 20
1073.145293694864
 30
0.0
 40
9.30038181818205
100
AcDbArc
 50
259.727393143495
 51
340.272606856496
  0
LINE
  5
4B0B
330
1A
100
AcDbEntity
  8
外形線
100
AcDbLine
 10
281.0562120835
 20
1080.611145775697
 30
0.0
 11
279.018023282951
 21
1084.14140908762
 31
0.0
  0
LINE
  5
4B0C
330
1A
100
AcDbEntity
  8
外形線
100
AcDbLine
 10
293.456661752778
 20
1062.084926775425
 30
0.0
 11
294.358461752778
 21
1060.522963357158
 31
0.0
  0
LINE
  5
4B0D
330
1A
100
AcDbEntity
  8
細線
100
AcDbLine
 10
289.83926443473
 20
1074.111942721446
 30
0.0
 11
287.33426443473
 21
1078.450729994407
 31
0.0
  0
LINE
  5
4B0E
330
1A
100
AcDbEntity
  8
外形線
100
AcDbLine
 10
286.160622477395
 20
1077.773127494407
 30
0.0
 11
288.665622477395
 21
1073.434340221447
 31
0.0
  0
LINE
  5
4B0F
330
1A
100
AcDbEntity
  8
外形線
100
AcDbLine
 10
282.334461752778
 20
1081.349142267366
 30
0.0
 11
284.839461752779
 21
1077.010354994407
 31
0.0
  0
LINE
  5
4B10
330
1A
100
AcDbEntity
  8
外形線
100
AcDbLine
 10
287.344461752779
 20
1072.671567721447
 30
0.0
 11
293.456661752778
 21
1062.084926775425
 31
0.0
  0
LINE
  5
4B11
330
1A
100
AcDbEntity
  8
外形線
100
AcDbLine
 10
292.747551207882
 20
1087.361142267367
 30
0.0
 11
295.252551207882
 21
1083.022354994407
 31
0.0
  0
LINE
  5
4B12
330
1A
100
AcDbEntity
  8
外形線
100
AcDbLine
 10
310.672725992202
 20
1065.313968449597
 30
0.0
 11
318.769715461901
 21
1051.289602129573
 31
0.0
  0
LINE
  5
4B13
330
1A
100
AcDbEntity
  8
外形線
100
AcDbLine
 10
302.57478404513
 20
1060.638597408782
 30
0.0
 11
310.671806403081
 21
1046.614250076893
 31
0.0
  0
ARC
  5
4B14
330
1A
100
AcDbEntity
  8
細線
100
AcDbCircle
 10
310.671760266149
 20
1051.11425252861
 30
0.0
 40
4.5
100
AcDbArc
 50
269.999994133302
 51
329.999994133297
  0
ARC
  5
4B15
330
1A
100
AcDbEntity
  8
細線
100
AcDbCircle
 10
314.568874813563
 20
1053.364252129572
 30
0.0
 40
4.5
100
AcDbArc
 50
269.999994133302
 51
329.999994133297
  0
ARC
  5
4B16
330
1A
100
AcDbEntity
  8
細線
100
AcDbCircle
 10
318.465988439439
 20
1046.614251730535
 30
0.0
 40
4.5
100
AcDbArc
 50
89.999994133303
 51
149.999994133297
  0
LINE
  5
4B17
330
1A
100
AcDbEntity
  8
外形線
100
AcDbLine
 10
304.438894583499
 20
1094.111169775697
 30
0.0
 11
303.86127850588
 21
1095.111628096132
 31
0.0
  0
LINE
  5
4B18
330
1A
100
AcDbEntity
  8
外形線
100
AcDbLine
 10
313.979125553881
 20
1073.933576775425
 30
0.0
 11
314.88092555388
 21
1072.371613357159
 31
0.0
  0
ARC
  5
4B19
330
1A
100
AcDbEntity
  8
外形線
100
AcDbCircle
 10
311.409895735512
 20
1070.367613357159
 30
0.0
 40
4.007999999999999
100
AcDbArc
 50
300.000000000002
 51
29.999999999998
  0
LINE
  5
4B1A
330
1A
100
AcDbEntity
  8
外形線
100
AcDbLine
 10
300.137206680253
 20
1059.231283538791
 30
0.0
 11
313.413895735512
 21
1066.896583538791
 31
0.0
  0
LINE
  5
4B1B
330
1A
100
AcDbEntity
  8
外形線
100
AcDbLine
 10
304.344479938371
 20
1088.271582494407
 30
0.0
 11
306.849479938371
 21
1083.932795221446
 31
0.0
  0
LINE
  5
4B1C
330
1A
100
AcDbEntity
  8
細線
100
AcDbLine
 10
305.675837981034
 20
1083.255192721447
 30
0.0
 11
303.170837981034
 21
1087.593979994407
 31
0.0
  0
LINE
  5
4B1D
330
1A
100
AcDbEntity
  8
外形線
100
AcDbLine
 10
303.160640662986
 20
1093.373142267367
 30
0.0
 11
305.665640662986
 21
1089.034354994407
 31
0.0
  0
LINE
  5
4B1E
330
1A
100
AcDbEntity
  8
外形線
100
AcDbLine
 10
308.170640662986
 20
1084.695567721446
 30
0.0
 11
314.282840662986
 21
1074.108926775425
 31
0.0
  0
ARC
  5
4B1F
330
1A
100
AcDbEntity
  8
外形線
100
AcDbCircle
 10
304.426105026343
 20
1079.157293694865
 30
0.0
 40
9.30038181818205
100
AcDbArc
 50
259.727393143495
 51
340.272606856496
  0
LINE
  5
4B20
330
1A
100
AcDbEntity
  8
中心線
 48
10.0
100
AcDbLine
 10
273.2637489619
 20
1181.91450415535
 30
0.0
 11
273.2637489619
 21
1076.59754434861
 31
0.0
  0
LINE
  5
4B21
330
1A
100
AcDbEntity
  8
外形線
 48
10.0
100
AcDbLine
 10
272.3637489619
 20
1170.78782724634
 30
0.0
 11
274.1637489619
 21
1170.78782724634
 31
0.0
  0
LINE
  5
4B22
330
1A
100
AcDbEntity
  8
外形線
 48
10.0
100
AcDbLine
 10
274.1637489619
 20
1170.78782724634
 30
0.0
 11
274.1637489619
 21
1090.78782724634
 31
0.0
  0
LINE
  5
4B23
330
1A
100
AcDbEntity
  8
外形線
 48
10.0
100
AcDbLine
 10
272.3637489619
 20
1170.78782724634
 30
0.0
 11
272.3637489619
 21
1090.78782724634
 31
0.0
  0
LINE
  5
4B24
330
1A
100
AcDbEntity
  8
外形線
 48
10.0
100
AcDbLine
 10
274.1637489619
 20
1090.78782724634
 30
0.0
 11
272.3637489619
 21
1090.78782724634
 31
0.0
  0
LINE
  5
4B26
330
1A
100
AcDbEntity
  8
中心線
 48
10.0
100
AcDbLine
 10
217.805242107292
 20
1120.876363129572
 30
0.0
 11
322.23283775704
 21
1120.876363129573
 31
0.0
  0
LINE
  5
4B27
330
1A
100
AcDbEntity
  8
中心線
 48
10.0
100
AcDbLine
 10
322.23283775704
 20
1130.78782724634
 30
0.0
 11
217.805242107292
 21
1130.78782724634
 31
0.0
  0
DIMENSION
  5
4B28
330
1A
100
AcDbEntity
  8
寸法線
 48
10.0
100
AcDbDimension
  2
*D64
 10
331.311127790534
 20
1120.876363129573
 30
0.0
 11
331.311127790534
 21
1125.832095187956
 31
0.0
 70
   160
  1
10
  3
ISO-25
100
AcDbAlignedDimension
 13
322.23283775704
 23
1130.78782724634
 33
0.0
 14
322.23283775704
 24
1120.876363129573
 34
0.0
 50
90.0
100
AcDbRotatedDimension
1001
ACAD
1000
DSTYLE
1002
{
1070
     5
1000
OPEN30
1070
    41
1040
6.0
1070
    47
1040
0.1
1070
    48
1040
0.1
1070
    73
1070
     0
1070
   140
1040
6.0
1070
   271
1070
     1
1070
   272
1070
     1
1070
   341
1005
2AF4
1002
}
  0
DIMENSION
  5
4B29
330
1A
100
AcDbEntity
  8
寸法線
 48
10.0
100
AcDbDimension
  2
*D65
 10
291.2637489619
 20
1185.675824304625
 30
0.0
 11
272.817773586556
 21
1185.675824304625
 31
0.0
 70
   160
  3
ISO-25
100
AcDbAlignedDimension
 13
255.2637489619
 23
1141.180132091753
 33
0.0
 14
291.2637489619
 24
1141.180132091753
 34
0.0
100
AcDbRotatedDimension
1001
ACAD
1000
DSTYLE
1002
{
1070
     5
1000
OPEN30
1070
    41
1040
6.0
1070
    47
1040
0.1
1070
    48
1040
0.1
1070
    73
1070
     0
1070
   140
1040
6.0
1070
   271
1070
     1
1070
   272
1070
     1
1070
   341
1005
2AF4
1002
}
  0
MTEXT
  5
4B2A
330
1A
100
AcDbEntity
  8
寸法線
 48
10.0
100
AcDbMText
 10
267.288221221265
 20
1199.01027892402
 30
0.0
 40
6.0
 41
19.187492735629
 71
     1
 72
     5
  1
平径
  0
DIMENSION
  5
4B2B
330
1A
100
AcDbEntity
  8
寸法線
 48
10.0
100
AcDbDimension
  2
*D66
 10
274.1637489619
 20
1099.709353369644
 30
0.0
 11
287.3887489619
 21
1103.334353369644
 31
0.0
 70
    32
  1
1
  3
ISO-25
100
AcDbAlignedDimension
 13
272.3637489619
 23
1099.709353369644
 33
0.0
 14
274.1637489619
 24
1099.709353369644
 34
0.0
100
AcDbRotatedDimension
1001
ACAD
1000
DSTYLE
1002
{
1070
     5
1000
OPEN30
1070
    41
1040
6.0
1070
    47
1040
0.1
1070
    48
1040
0.1
1070
    73
1070
     0
1070
   140
1040
6.0
1070
   271
1070
     1
1070
   272
1070
     1
1070
   341
1005
2AF4
1002
}
  0
MTEXT
  5
4B34
330
1A
100
AcDbEntity
  8
寸法線
 48
10.0
100
AcDbMText
 10
607.406469240291
 20
1198.084149343686
 30
0.0
 40
6.0
 41
0.0
 71
     1
 72
     1
  1
\A1;アルミ
1001
ACAD
1000
MTEXTBEGIN
1070
    44
1040
0.8
1000
MTEXTEND
  0
MTEXT
  5
4B3A
330
1A
100
AcDbEntity
  8
寸法線
 48
10.0
100
AcDbMText
 10
402.622627770454
 20
1814.611190561174
 30
0.0
 40
5.0
 41
0.0
 71
     9
 72
     1
  1
\A1;
  0
LEADER
  5
4B40
330
1A
100
AcDbEntity
  8
寸法線
 48
10.0
100
AcDbLeader
  3
ISO-25
 76
     3
 10
607.395793830814
 20
1177.495275007087
 30
0.0
 10
608.399434947597
 20
1191.798648323251
 30
0.0
 10
616.134783840423
 20
1191.798648323251
 30
0.0
1001
ACAD
1000
DSTYLE
1002
{
1070
     5
1000
OPEN30
1070
   147
1040
0.625
1070
    77
1070
     0
1070
    41
1040
6.0
1070
    47
1040
0.1
1070
    48
1040
0.1
1070
    73
1070
     0
1070
   140
1040
5.0
1070
   271
1070
     1
1070
   272
1070
     1
1070
   341
1005
2AF4
1070
   342
1005
2AF4
1002
}
  0
MTEXT
  5
4B44
330
1A
100
AcDbEntity
  8
寸法線
 48
10.0
100
AcDbMText
 10
217.336979926123
 20
1065.461330303654
 30
0.0
 40
5.0
 41
63.804781576954
 71
     1
 72
     5
  1
{\H1.2x;コードロック\PビメットBMS050B}
  0
LEADER
  5
4B45
330
1A
100
AcDbEntity
  8
寸法線
 48
10.0
100
AcDbLeader
  3
ISO-25
 76
     3
 10
290.838768668102
 20
1066.355657551118
 30
0.0
 10
281.157567462825
 20
1047.827783801998
 30
0.0
 10
261.610992474605
 20
1047.827783801998
 30
0.0
1001
ACAD
1000
DSTYLE
1002
{
1070
     5
1000
OPEN30
1070
   147
1040
0.625
1070
    77
1070
     0
1070
    41
1040
6.0
1070
    47
1040
0.1
1070
    48
1040
0.1
1070
    73
1070
     0
1070
   140
1040
5.0
1070
   271
1070
     1
1070
   272
1070
     1
1070
   341
1005
2AF4
1070
   342
1005
2AF4
1002
}
  0
ARC
  5
4B48
330
1A
100
AcDbEntity
  8
外形線
 48
10.0
100
AcDbCircle
 10
273.39759846191
 20
1130.87639362958
 30
0.0
 40
22.5
100
AcDbArc
 50
92.633603408823
 51
267.366396591177
  0
LINE
  5
4B49
330
1A
100
AcDbEntity
  8
外形線
 48
10.0
100
AcDbLine
 10
278.2637489619
 20
1127.901075900392
 30
0.0
 11
278.2637489619
 21
1133.674578592288
 31
0.0
  0
LINE
  5
4B4A
330
1A
100
AcDbEntity
  8
外形線
 48
10.0
100
AcDbLine
 10
268.2637489619
 20
1127.901075900392
 30
0.0
 11
268.2637489619
 21
1133.674578592288
 31
0.0
  0
LINE
  5
4B4B
330
1A
100
AcDbEntity
  8
外形線
 48
10.0
100
AcDbLine
 10
274.1637489619
 20
1125.533939796714
 30
0.0
 11
278.263748961901
 21
1127.901075900392
 31
0.0
  0
LINE
  5
4B4C
330
1A
100
AcDbEntity
  8
外形線
 48
10.0
100
AcDbLine
 10
268.2637489619
 20
1133.674578592288
 30
0.0
 11
272.3637489619
 21
1136.041714695966
 31
0.0
  0
LINE
  5
4B4D
330
1A
100
AcDbEntity
  8
外形線
 48
10.0
100
AcDbLine
 10
278.2637489619
 20
1133.674578592288
 30
0.0
 11
274.1637489619
 21
1136.041714695966
 31
0.0
  0
LINE
  5
4B4E
330
1A
100
AcDbEntity
  8
外形線
 48
10.0
100
AcDbLine
 10
272.3637489619
 20
1125.533939796714
 30
0.0
 11
268.2637489619
 21
1127.901075900392
 31
0.0
  0
ARC
  5
4B4F
330
1A
100
AcDbEntity
  8
細線
 48
10.0
100
AcDbCircle
 10
273.2637489619
 20
1130.78782724634
 30
0.0
 40
5.0
100
AcDbArc
 50
100.369759805477
 51
259.630240194522
  0
ARC
  5
4B50
330
1A
100
AcDbEntity
  8
細線
 48
10.0
100
AcDbCircle
 10
273.2637489619
 20
1130.78782724634
 30
0.0
 40
5.0
100
AcDbArc
 50
280.369759805477
 51
79.630240194523
  0
ARC
  5
4B51
330
1A
100
AcDbEntity
  8
外形線
 48
10.0
100
AcDbCircle
 10
273.39759846191
 20
1130.87639362958
 30
0.0
 40
22.5
100
AcDbArc
 50
271.951363445946
 51
88.048636554054
  0
ARC
  5
4B83
330
1A
100
AcDbEntity
  8
外形線
 48
10.0
100
AcDbCircle
 10
273.2637489619
 20
1130.78782724634
 30
0.0
 40
13.22050000000002
100
AcDbArc
 50
93.903491864735
 51
266.096508135265
  0
ARC
  5
4B84
330
1A
100
AcDbEntity
  8
細線
 48
10.0
100
AcDbCircle
 10
273.2637489619
 20
1130.78782724634
 30
0.0
 40
12.05849999999998
100
AcDbArc
 50
94.280316570382
 51
265.719683429618
  0
ARC
  5
4B85
330
1A
100
AcDbEntity
  8
外形線
 48
10.0
100
AcDbCircle
 10
273.2637489619
 20
1130.78782724634
 30
0.0
 40
13.22050000000002
100
AcDbArc
 50
273.903491864735
 51
86.096508135265
  0
ARC
  5
4B86
330
1A
100
AcDbEntity
  8
細線
 48
10.0
100
AcDbCircle
 10
273.2637489619
 20
1130.78782724634
 30
0.0
 40
12.05849999999998
100
AcDbArc
 50
274.280316570382
 51
85.719683429618
  0
ARC
  5
4B87
330
1A
100
AcDbEntity
  8
細線
 48
10.0
100
AcDbCircle
 10
273.2637489619
 20
1130.78782724634
 30
0.0
 40
18.0
100
AcDbArc
 50
272.865983982599
 51
87.134016017401
  0
LINE
  5
4B88
330
1A
100
AcDbEntity
  8
外形線
 48
10.0
100
AcDbLine
 10
255.2637489619
 20
1120.395522400927
 30
0.0
 11
272.3637489619
 21
1110.522832797784
 31
0.0
  0
LINE
  5
4B89
330
1A
100
AcDbEntity
  8
外形線
 48
10.0
100
AcDbLine
 10
291.2637489619
 20
1120.395522400927
 30
0.0
 11
274.1637489619
 21
1110.522832797784
 31
0.0
  0
LINE
  5
4B8A
330
1A
100
AcDbEntity
  8
外形線
 48
10.0
100
AcDbLine
 10
255.2637489619
 20
1141.180132091753
 30
0.0
 11
255.2637489619
 21
1120.395522400927
 31
0.0
  0
LINE
  5
4B8B
330
1A
100
AcDbEntity
  8
外形線
 48
10.0
100
AcDbLine
 10
291.2637489619
 20
1141.180132091753
 30
0.0
 11
291.2637489619
 21
1120.395522400927
 31
0.0
  0
ARC
  5
4B8C
330
1A
100
AcDbEntity
  8
細線
 48
10.0
100
AcDbCircle
 10
273.2637489619
 20
1130.78782724634
 30
0.0
 40
18.0
100
AcDbArc
 50
92.865983982599
 51
267.134016017401
  0
LINE
  5
4B8D
330
1A
100
AcDbEntity
  8
外形線
 48
10.0
100
AcDbLine
 10
274.1637489619
 20
1151.052821694896
 30
0.0
 11
291.2637489619
 21
1141.180132091753
 31
0.0
  0
LINE
  5
4B8E
330
1A
100
AcDbEntity
  8
外形線
 48
10.0
100
AcDbLine
 10
272.3637489619
 20
1151.052821694896
 30
0.0
 11
255.2637489619
 21
1141.180132091753
 31
0.0
  0
CIRCLE
  5
4B92
330
1A
100
AcDbEntity
  8
外形線
 48
10.0
100
AcDbCircle
 10
273.2637489619
 20
1130.78782724634
 30
0.0
 40
47.0
  0
ARC
  5
4BF4
330
1A
100
AcDbEntity
  8
外形線
 48
10.0
100
AcDbCircle
 10
273.2637489619
 20
1130.78782724634
 30
0.0
 40
10.0
100
AcDbArc
 50
95.163607090846
 51
264.836392909154
  0
ARC
  5
4BF5
330
1A
100
AcDbEntity
  8
外形線
 48
10.0
100
AcDbCircle
 10
273.2637489619
 20
1130.78782724634
 30
0.0
 40
10.0
100
AcDbArc
 50
275.163607090846
 51
84.836392909154
  0
LINE
  5
4C8C
330
1A
100
AcDbEntity
  8
下書線
 48
10.0
100
AcDbLine
 10
730.956638839683
 20
1212.194587238063
 30
0.0
 11
369.335361586522
 21
1212.194587238063
 31
0.0
  0
LINE
  5
4C8D
330
1A
100
AcDbEntity
  8
下書線
 48
10.0
100
AcDbLine
 10
669.24282805097
 20
1191.984216453455
 30
0.0
 11
413.725997417
 21
1191.984216453455
 31
0.0
  0
VIEWPORT
  5
2902
330
28FB
100
AcDbEntity
 67
     1
  8
0
 48
10.0
100
AcDbViewport
 10
0.0
 20
0.0
 30
0.0
 40
445.5504332153
 41
284.249896633559
 68
     1
 69
     1
1001
ACAD
1000
MVIEW
1002
{
1070
    16
1010
0.0
1020
0.0
1030
0.0
1010
0.0
1020
0.0
1030
1.0
1040
0.0
1040
284.249896633559
1040
245.414876063073
1040
132.718053902845
1040
50.0
1040
0.0
1040
0.0
1070
    16
1070
   100
1070
     0
1070
     1
1070
     0
1070
     0
1070
     0
1070
     0
1040
0.0
1040
0.0
1040
0.0
1040
10.0
1040
10.0
1040
10.0
1040
10.0
1070
     0
1002
{
1002
}
1002
}
  0
VIEWPORT
  5
2904
330
28FB
100
AcDbEntity
 67
     1
  8
図枠太線
 48
10.0
100
AcDbViewport
 10
204.746305129083
 20
161.396645458131
 30
0.0
 40
400.0
 41
240.0
 68
     2
 69
     2
1001
ACAD
1000
MVIEW
1002
{
1070
    16
1010
0.0
1020
0.0
1030
0.0
1010
0.0
1020
0.0
1030
1.0
1040
0.0
1040
355.328654467658
1040
469.283419535406
1040
1078.161098728123
1040
50.0
1040
0.0
1040
0.0
1070
     0
1070
   100
1070
     0
1070
     0
1070
     0
1070
     0
1070
     0
1070
     0
1040
0.0
1040
0.0
1040
0.0
1040
1.0
1040
1.0
1040
0.0
1040
0.0
1070
     0
1002
{
1002
}
1002
}
  0
INSERT
  5
2A59
330
28FB
100
AcDbEntity
 67
     1
  8
図枠太線
100
AcDbBlockReference
  2
A3横用_タイトル
 10
-0.352109406709
 20
-2.129314295396
 30
0.0
  0
MTEXT
  5
322B
330
28FB
100
AcDbEntity
 67
     1
  8
寸法線
 48
10.0
100
AcDbMText
 10
146.778370616794
 20
13.813697882368
 30
0.0
 40
7.0
 41
20.13579853524
 71
     1
 72
     5
  1
1:1.5
  0
MTEXT
  5
322C
102
{ACAD_XDICTIONARY
360
4419
102
}
330
28FB
100
AcDbEntity
 67
     1
  8
寸法線
 48
10.0
100
AcDbMText
 10
175.322824279557
 20
12.573033279747
 30
0.0
 40
5.0
 41
27.082042865391
 71
     1
 72
     5
  1
\H0.9x;2015.6.15
1001
ACADANNOTATIVE
1000
AnnotativeData
1002
{
1070
     1
1070
     0
1002
}
  0
MTEXT
  5
322D
330
28FB
100
AcDbEntity
 67
     1
  8
寸法線
 48
10.0
100
AcDbMText
 10
182.046995654336
 20
31.322490327891
 30
0.0
 40
4.5
 41
33.4
 71
     1
 72
     5
  1
ohno
  0
MTEXT
  5
322F
330
28FB
100
AcDbEntity
 67
     1
  8
寸法線
 48
10.0
100
AcDbMText
 10
309.209049845506
 20
33.656722730889
 30
0.0
 40
7.0
 41
47.382256863417
 71
     1
 72
     5
  1
HL-400HGS
  0
MTEXT
  5
3230
330
28FB
100
AcDbEntity
 67
     1
  8
寸法線
 48
10.0
100
AcDbMText
 10
361.819918635276
 20
38.167964124636
 30
0.0
 40
5.0
 41
42.043281739348
 71
     1
 72
     5
  1
パドル式\Pレベルスイッチ
  0
MTEXT
  5
3231
102
{ACAD_XDICTIONARY
360
441C
102
}
330
28FB
100
AcDbEntity
 67
     1
  8
寸法線
 48
10.0
100
AcDbMText
 10
347.266472765904
 20
14.50279691064
 30
0.0
 40
7.0
 41
36.545313751788
 71
     1
 72
     5
  1
\H1.143x;HB-6008
1001
ACADANNOTATIVE
1000
AnnotativeData
1002
{
1070
     1
1070
     0
1002
}
  0
MTEXT
  5
3234
330
28FB
100
AcDbEntity
 67
     1
  8
寸法線
 48
10.0
100
AcDbMText
 10
373.486813801897
 20
49.017687915091
 30
0.0
 40
5.0
 41
34.334449052711
 71
     1
 72
     5
  1
台数   台
  0
MTEXT
  5
3976
330
28FB
100
AcDbEntity
 67
     1
  8
寸法線
 48
10.0
100
AcDbMText
 10
218.182009379739
 20
39.176017082566
 30
0.0
 40
5.0
 41
77.824588815005
 71
     1
 72
     5
  1
タンク内温度：max. 100℃
  0
ENDSEC
  0
SECTION
  2
OBJECTS
  0
DICTIONARY
  5
C
330
0
100
AcDbDictionary
  3
ACAD_COLOR
350
2948
  3
ACAD_GROUP
350
D
  3
ACAD_LAYOUT
350
2816
  3
ACAD_MATERIAL
350
2947
  3
ACAD_MLEADERSTYLE
350
4415
  3
ACAD_MLINESTYLE
350
E
  3
ACAD_PLOTSETTINGS
350
2817
  3
ACAD_SCALELIST
350
43EE
  3
ACAD_VISUALSTYLE
350
43D5
  3
ACADDIM
350
3DCA
  3
ACDBHEADERROUNDTRIPXREC
350
4C96
  3
ACDBVARIABLEDICTIONARY
350
4C8E
  3
DWGPROPS
350
4CBB
  0
DICTIONARY
  5
4CBC
330
8
100
AcDbDictionary
280
     1
  3
ACAD_XREC_ROUNDTRIP
360
4CBD
  0
DICTIONARY
  5
29EA
330
2
100
AcDbDictionary
280
     1
  3
ACAD_LAYERFILTERS
360
2B0C
  3
ACAD_LAYERSTATES
360
29EB
  0
DICTIONARY
  5
4771
330
4770
100
AcDbDictionary
280
     1
  3
ACDBCONTEXTDATAMANAGER
360
4772
  0
DICTIONARY
  5
4787
330
4786
100
AcDbDictionary
280
     1
  3
ACDBCONTEXTDATAMANAGER
360
4788
  0
DICTIONARY
  5
478B
330
478A
100
AcDbDictionary
280
     1
  3
ACDBCONTEXTDATAMANAGER
360
478C
  0
DICTIONARY
  5
480E
330
480D
100
AcDbDictionary
280
     1
  3
ACDBCONTEXTDATAMANAGER
360
480F
  0
DICTIONARY
  5
4419
330
322C
100
AcDbDictionary
280
     1
  3
ACDBCONTEXTDATAMANAGER
360
441A
  0
DICTIONARY
  5
441C
330
3231
100
AcDbDictionary
280
     1
  3
ACDBCONTEXTDATAMANAGER
360
441D
  0
DICTIONARY
  5
2948
102
{ACAD_REACTORS
330
C
102
}
330
C
100
AcDbDictionary
  0
DICTIONARY
  5
D
102
{ACAD_REACTORS
330
C
102
}
330
C
100
AcDbDictionary
  0
DICTIONARY
  5
2816
102
{ACAD_REACTORS
330
C
102
}
330
C
100
AcDbDictionary
  0
DICTIONARY
  5
2947
102
{ACAD_REACTORS
330
C
102
}
330
C
100
AcDbDictionary
  3
BYBLOCK
350
4411
  3
BYLAYER
350
4410
  3
GLOBAL
350
4412
  0
DICTIONARY
  5
4415
102
{ACAD_REACTORS
330
C
102
}
330
C
100
AcDbDictionary
  3
STANDARD
350
4416
  0
DICTIONARY
  5
E
102
{ACAD_REACTORS
330
C
102
}
330
C
100
AcDbDictionary
  3
STANDARD
350
13
  0
DICTIONARY
  5
2817
102
{ACAD_REACTORS
330
C
102
}
330
C
100
AcDbDictionary
  0
DICTIONARY
  5
43EE
102
{ACAD_REACTORS
330
C
102
}
330
C
100
AcDbDictionary
  3
A0
350
43EF
  3
A1
350
43F0
  3
A2
350
43F1
  3
A3
350
43F2
  3
A4
350
43F3
  3
A5
350
43F4
  3
A6
350
43F5
  3
A7
350
43F6
  3
A8
350
43F7
  3
A9
350
43F8
  3
B0
350
43F9
  3
B1
350
43FA
  3
B2
350
43FB
  3
B3
350
43FC
  3
B4
350
43FD
  3
B5
350
43FE
  3
B6
350
43FF
  3
B7
350
4400
  3
B8
350
4401
  3
B9
350
4402
  3
C0
350
4403
  3
C1
350
4404
  3
C2
350
4405
  3
C3
350
4406
  3
C4
350
4407
  3
C5
350
4408
  3
C6
350
4409
  3
C7
350
440A
  3
C8
350
440B
  3
C9
350
440C
  3
D0
350
440D
  3
D1
350
440E
  3
D2
350
440F
  0
DICTIONARY
  5
43D5
102
{ACAD_REACTORS
330
C
102
}
330
C
100
AcDbDictionary
  3
2DWIREFRAME
350
43DA
  3
BASIC
350
43DD
  3
BRIGHTEN
350
43E1
  3
COLORCHANGE
350
43E5
  3
CONCEPTUAL
350
43DF
  3
DIM
350
43E0
  3
EDGECOLOROFF
350
43E8
  3
FACEPATTERN
350
43E4
  3
FLAT
350
43D6
  3
FLATWITHEDGES
350
43D7
  3
GOURAUD
350
43D8
  3
GOURAUDWITHEDGES
350
43D9
  3
HIDDEN
350
43DC
  3
JITTEROFF
350
43E6
  3
LINEPATTERN
350
43E3
  3
OVERHANGOFF
350
43E7
  3
REALISTIC
350
43DE
  3
SHADED
350
43ED
  3
SHADED_WITH_EDGES
350
43EC
  3
SHADES_OF_GRAY
350
43E9
  3
SKETCHY
350
43EA
  3
THICKEN
350
43E2
  3
WIREFRAME
350
43DB
  3
X-RAY
350
43EB
  0
XRECORD
  5
3DCA
102
{ACAD_REACTORS
330
C
102
}
330
C
100
AcDbXrecord
 90
   990106
  3

 60
     0
 61
     0
 62
     1
 63
     3
 64
     1
 65
     0
 66
     0
 67
     3
 68
     1
 69
     0
 70
     0
 71
     0
 72
     0
 40
0.0
170
     2
340
0
  0
DICTIONARY
  5
4C96
102
{ACAD_REACTORS
330
C
102
}
330
C
100
AcDbDictionary
  3
CEPSNID
350
4CA0
  3
CEPSNTYPE
350
4C9F
  3
COLORDICT
350
4CB9
  3
DIMSTYLEDATA
350
4CB6
  3
FINGERPRINTGUID
350
4CA1
  3
HYPERLINKBASE
350
4C99
  3
INSUNITS
350
4C9E
  3
LAYOUTDICT
350
4C9B
  3
LWETCUNION
350
4C9D
  3
MATERIALDICT
350
4CBA
  3
PLOTSETDICT
350
4C9C
  3
PSVPSCALE
350
4CA3
  3
PUCSBASE
350
4CA6
  3
PUCSORGBACK
350
4CAC
  3
PUCSORGBOTTOM
350
4CA8
  3
PUCSORGFRONT
350
4CAB
  3
PUCSORGLEFT
350
4CA9
  3
PUCSORGRIGHT
350
4CAA
  3
PUCSORGTOP
350
4CA7
  3
PUCSORTHOREF
350
4CA4
  3
PUCSORTHOVIEW
350
4CA5
  3
STYLESHEET
350
4C9A
  3
TSTACKALIGN
350
4C97
  3
TSTACKSIZE
350
4C98
  3
UCSBASE
350
4CAF
  3
UCSORGBACK
350
4CB5
  3
UCSORGBOTTOM
350
4CB1
  3
UCSORGFRONT
350
4CB4
  3
UCSORGLEFT
350
4CB2
  3
UCSORGRIGHT
350
4CB3
  3
UCSORGTOP
350
4CB0
  3
UCSORTHOREF
350
4CAD
  3
UCSORTHOVIEW
350
4CAE
  3
VERSIONGUID
350
4CA2
  0
DICTIONARY
  5
4C8E
102
{ACAD_REACTORS
330
C
102
}
330
C
100
AcDbDictionary
  3
CANNOSCALE
350
4C8F
  3
CMLEADERSTYLE
350
4C91
  3
CTABLESTYLE
350
4C90
  3
DIMASSOC
350
4CB7
  3
HIDETEXT
350
4CB8
  3
MSLTSCALE
350
4C92
  3
XCLIPFRAME
350
4C93
  0
XRECORD
  5
4CBB
102
{ACAD_REACTORS
330
C
102
}
330
C
100
AcDbXrecord
  1
DWGPROPS COOKIE
  2

  3

  4

  6

  7

  8
y-ohno
  9

300
=
301
=
302
=
303
=
304
=
305
=
306
=
307
=
308
=
309
=
 40
0.0
 41
2450576.222302431
 42
2457191.290502847
  1

 90
        0
  0
XRECORD
  5
4CBD
102
{ACAD_REACTORS
330
4CBC
102
}
330
4CBC
100
AcDbXrecord
102
VTR_0.000_0.000_1.000_1.000_VISUALSTYLE
340
43DA
102
VTR_0.000_0.000_1.000_1.000_GRIDDISPLAY
 70
     3
102
VTR_0.000_0.000_1.000_1.000_GRIDMAJOR
 70
     5
102
VTR_0.000_0.000_1.000_1.000_DEFAULTLIGHTING
280
     1
102
VTR_0.000_0.000_1.000_1.000_DEFAULTLIGHTINGTYPE
 70
     1
102
VTR_0.000_0.000_1.000_1.000_BRIGHTNESS
141
0.0
102
VTR_0.000_0.000_1.000_1.000_CONTRAST
142
0.0
  0
DICTIONARY
  5
2B0C
102
{ACAD_REACTORS
330
29EA
102
}
330
29EA
100
AcDbDictionary
  0
DICTIONARY
  5
29EB
102
{ACAD_REACTORS
330
29EA
102
}
330
29EA
100
AcDbDictionary
  0
DICTIONARY
  5
4772
102
{ACAD_REACTORS
330
4771
102
}
330
4771
100
AcDbDictionary
  3
ACDB_ANNOTATIONSCALES
350
4773
  0
DICTIONARY
  5
4788
102
{ACAD_REACTORS
330
4787
102
}
330
4787
100
AcDbDictionary
  3
ACDB_ANNOTATIONSCALES
350
4789
  0
DICTIONARY
  5
478C
102
{ACAD_REACTORS
330
478B
102
}
330
478B
100
AcDbDictionary
  3
ACDB_ANNOTATIONSCALES
350
478D
  0
DICTIONARY
  5
480F
102
{ACAD_REACTORS
330
480E
102
}
330
480E
100
AcDbDictionary
  3
ACDB_ANNOTATIONSCALES
350
4810
  0
DICTIONARY
  5
441A
102
{ACAD_REACTORS
330
4419
102
}
330
4419
100
AcDbDictionary
  3
ACDB_ANNOTATIONSCALES
350
441B
  0
DICTIONARY
  5
441D
102
{ACAD_REACTORS
330
441C
102
}
330
441C
100
AcDbDictionary
  3
ACDB_ANNOTATIONSCALES
350
441E
  0
MATERIAL
  5
4411
102
{ACAD_REACTORS
330
2947
102
}
102
{ACAD_XDICTIONARY
360
4CC0
102
}
330
2947
100
AcDbMaterial
  1
BYBLOCK
  0
MATERIAL
  5
4410
102
{ACAD_REACTORS
330
2947
102
}
102
{ACAD_XDICTIONARY
360
4CBE
102
}
330
2947
100
AcDbMaterial
  1
BYLAYER
  0
MATERIAL
  5
4412
102
{ACAD_REACTORS
330
2947
102
}
102
{ACAD_XDICTIONARY
360
4CC2
102
}
330
2947
100
AcDbMaterial
  1
GLOBAL
  0
ACAD_PROXY_OBJECT
  5
4416
102
{ACAD_REACTORS
330
4415
102
}
330
4415
100
AcDbProxyObject
 90
      499
 91
      507
 93
      610
310
40901902A4063FBFFFFFE0000000000000020400000000000020404214DD185B99185C990000000000000104090141901A00000000000004100000000000000041025764000000000000039000
340
14
340
0
340
10
340
0
 94
        0
1001
ACAD_MLEADERVER
1070
     2
  0
MLINESTYLE
  5
13
102
{ACAD_REACTORS
330
E
102
}
330
E
100
AcDbMlineStyle
  2
STANDARD
 70
     0
  3

 62
     0
 51
90.0
 52
90.0
 71
     2
 49
0.5
 62
   256
  6
BYLAYER
 49
-0.5
 62
   256
  6
BYLAYER
  0
ACAD_PROXY_OBJECT
  5
43EF
102
{ACAD_REACTORS
330
43EE
102
}
330
43EE
100
AcDbProxyObject
 90
      499
 91
      504
 93
       41
310
903313A31580
  0
ACAD_PROXY_OBJECT
  5
43F0
102
{ACAD_REACTORS
330
43EE
102
}
330
43EE
100
AcDbProxyObject
 90
      499
 91
      504
 93
      105
310
903313A324000000000000004000
  0
ACAD_PROXY_OBJECT
  5
43F1
102
{ACAD_REACTORS
330
43EE
102
}
330
43EE
100
AcDbProxyObject
 90
      499
 91
      504
 93
      105
310
903313A344000000000000104000
  0
ACAD_PROXY_OBJECT
  5
43F2
102
{ACAD_REACTORS
330
43EE
102
}
330
43EE
100
AcDbProxyObject
 90
      499
 91
      504
 93
      105
310
903313A354000000000000144000
  0
ACAD_PROXY_OBJECT
  5
43F3
102
{ACAD_REACTORS
330
43EE
102
}
330
43EE
100
AcDbProxyObject
 90
      499
 91
      504
 93
      105
310
903313A384000000000000204000
  0
ACAD_PROXY_OBJECT
  5
43F4
102
{ACAD_REACTORS
330
43EE
102
}
330
43EE
100
AcDbProxyObject
 90
      499
 91
      504
 93
      113
310
904313A31304000000000000244000
  0
ACAD_PROXY_OBJECT
  5
43F5
102
{ACAD_REACTORS
330
43EE
102
}
330
43EE
100
AcDbProxyObject
 90
      499
 91
      504
 93
      113
310
904313A31364000000000000304000
  0
ACAD_PROXY_OBJECT
  5
43F6
102
{ACAD_REACTORS
330
43EE
102
}
330
43EE
100
AcDbProxyObject
 90
      499
 91
      504
 93
      113
310
904313A32304000000000000344000
  0
ACAD_PROXY_OBJECT
  5
43F7
102
{ACAD_REACTORS
330
43EE
102
}
330
43EE
100
AcDbProxyObject
 90
      499
 91
      504
 93
      113
310
904313A333040000000000003E4000
  0
ACAD_PROXY_OBJECT
  5
43F8
102
{ACAD_REACTORS
330
43EE
102
}
330
43EE
100
AcDbProxyObject
 90
      499
 91
      504
 93
      113
310
904313A34304000000000000444000
  0
ACAD_PROXY_OBJECT
  5
43F9
102
{ACAD_REACTORS
330
43EE
102
}
330
43EE
100
AcDbProxyObject
 90
      499
 91
      504
 93
      113
310
904313A35304000000000000494000
  0
ACAD_PROXY_OBJECT
  5
43FA
102
{ACAD_REACTORS
330
43EE
102
}
330
43EE
100
AcDbProxyObject
 90
      499
 91
      504
 93
      121
310
905313A3130304000000000000594000
  0
ACAD_PROXY_OBJECT
  5
43FB
102
{ACAD_REACTORS
330
43EE
102
}
330
43EE
100
AcDbProxyObject
 90
      499
 91
      504
 93
      105
310
903323A310000000000000010100
  0
ACAD_PROXY_OBJECT
  5
43FC
102
{ACAD_REACTORS
330
43EE
102
}
330
43EE
100
AcDbProxyObject
 90
      499
 91
      504
 93
      105
310
903343A310000000000000410100
  0
ACAD_PROXY_OBJECT
  5
43FD
102
{ACAD_REACTORS
330
43EE
102
}
330
43EE
100
AcDbProxyObject
 90
      499
 91
      504
 93
      105
310
903383A310000000000000810100
  0
ACAD_PROXY_OBJECT
  5
43FE
102
{ACAD_REACTORS
330
43EE
102
}
330
43EE
100
AcDbProxyObject
 90
      499
 91
      504
 93
      113
310
90431303A310000000000000910100
  0
ACAD_PROXY_OBJECT
  5
43FF
102
{ACAD_REACTORS
330
43EE
102
}
330
43EE
100
AcDbProxyObject
 90
      499
 91
      504
 93
      121
310
9053130303A310000000000001650100
  0
ACAD_PROXY_OBJECT
  5
4400
102
{ACAD_REACTORS
330
43EE
102
}
330
43EE
100
AcDbProxyObject
 90
      499
 91
      504
 93
      257
310
90E312F31323822203D2031272D3022000000000000200FC000000000000284000
  0
ACAD_PROXY_OBJECT
  5
4401
102
{ACAD_REACTORS
330
43EE
102
}
330
43EE
100
AcDbProxyObject
 90
      499
 91
      504
 93
      249
310
90D312F363422203D2031272D3022000000000000240FC000000000000284000
  0
ACAD_PROXY_OBJECT
  5
4402
102
{ACAD_REACTORS
330
43EE
102
}
330
43EE
100
AcDbProxyObject
 90
      499
 91
      504
 93
      249
310
90D312F333222203D2031272D3022000000000000280FC000000000000284000
  0
ACAD_PROXY_OBJECT
  5
4403
102
{ACAD_REACTORS
330
43EE
102
}
330
43EE
100
AcDbProxyObject
 90
      499
 91
      504
 93
      249
310
90D312F313622203D2031272D30220000000000002C0FC000000000000284000
  0
ACAD_PROXY_OBJECT
  5
4404
102
{ACAD_REACTORS
330
43EE
102
}
330
43EE
100
AcDbProxyObject
 90
      499
 91
      504
 93
      249
310
90D332F333222203D2031272D30220000000000002E0FC000000000000284000
  0
ACAD_PROXY_OBJECT
  5
4405
102
{ACAD_REACTORS
330
43EE
102
}
330
43EE
100
AcDbProxyObject
 90
      499
 91
      504
 93
      241
310
90C312F3822203D2031272D3022000000000000300FC000000000000284000
  0
ACAD_PROXY_OBJECT
  5
4406
102
{ACAD_REACTORS
330
43EE
102
}
330
43EE
100
AcDbProxyObject
 90
      499
 91
      504
 93
      249
310
90D332F313622203D2031272D3022000000000000320FC000000000000284000
  0
ACAD_PROXY_OBJECT
  5
4407
102
{ACAD_REACTORS
330
43EE
102
}
330
43EE
100
AcDbProxyObject
 90
      499
 91
      504
 93
      241
310
90C312F3422203D2031272D3022000000000000340FC000000000000284000
  0
ACAD_PROXY_OBJECT
  5
4408
102
{ACAD_REACTORS
330
43EE
102
}
330
43EE
100
AcDbProxyObject
 90
      499
 91
      504
 93
      241
310
90C332F3822203D2031272D3022000000000000360FC000000000000284000
  0
ACAD_PROXY_OBJECT
  5
4409
102
{ACAD_REACTORS
330
43EE
102
}
330
43EE
100
AcDbProxyObject
 90
      499
 91
      504
 93
      241
310
90C312F3222203D2031272D3022000000000000380FC000000000000284000
  0
ACAD_PROXY_OBJECT
  5
440A
102
{ACAD_REACTORS
330
43EE
102
}
330
43EE
100
AcDbProxyObject
 90
      499
 91
      504
 93
      241
310
90C332F3422203D2031272D30220000000000003A0FC000000000000284000
  0
ACAD_PROXY_OBJECT
  5
440B
102
{ACAD_REACTORS
330
43EE
102
}
330
43EE
100
AcDbProxyObject
 90
      499
 91
      504
 93
      161
310
90A3122203D2031272D30224000000000000284000
  0
ACAD_PROXY_OBJECT
  5
440C
102
{ACAD_REACTORS
330
43EE
102
}
330
43EE
100
AcDbProxyObject
 90
      499
 91
      504
 93
      257
310
90E312D312F3222203D2031272D30220000000000003E0FC000000000000284000
  0
ACAD_PROXY_OBJECT
  5
440D
102
{ACAD_REACTORS
330
43EE
102
}
330
43EE
100
AcDbProxyObject
 90
      499
 91
      504
 93
      225
310
90A3322203D2031272D302200000000000002100000000000000284000
  0
ACAD_PROXY_OBJECT
  5
440E
102
{ACAD_REACTORS
330
43EE
102
}
330
43EE
100
AcDbProxyObject
 90
      499
 91
      504
 93
      225
310
90A3622203D2031272D302200000000000006100000000000000284000
  0
ACAD_PROXY_OBJECT
  5
440F
102
{ACAD_REACTORS
330
43EE
102
}
330
43EE
100
AcDbProxyObject
 90
      499
 91
      504
 93
      249
310
90D31272D3022203D2031272D30220000000000000A100000000000000284000
  0
ACAD_PROXY_OBJECT
  5
43DA
102
{ACAD_REACTORS
330
43D5
102
}
330
43D5
100
AcDbProxyObject
 90
      499
 91
      503
 93
      436
310
42CC9915DA5C99599C985B595049028333333333333E33F0000000000000F90107901411070040501600405405064090741402480A0340
1001
ACAD
1000
AcDbSavedByObjectVersion
1070
     0
  0
ACAD_PROXY_OBJECT
  5
43DD
102
{ACAD_REACTORS
330
43D5
102
}
330
43D5
100
AcDbProxyObject
 90
      499
 91
      503
 93
      388
310
4150985CDA58D07406404333333333333E33F0000000000000F90107A41107004050150841D405064090741402480A0350
1001
ACAD
1000
AcDbSavedByObjectVersion
1070
     0
  0
ACAD_PROXY_OBJECT
  5
43E1
102
{ACAD_REACTORS
330
43D5
102
}
330
43D5
100
AcDbProxyObject
 90
      499
 91
      503
 93
      428
310
42109C9A59DA1D195B90C409028333333333333E33F0000000000000F9010790141107004050150841D405064090741402480A029950
1001
ACAD
1000
AcDbSavedByObjectVersion
1070
     0
  0
ACAD_PROXY_OBJECT
  5
43E5
102
{ACAD_REACTORS
330
43D5
102
}
330
43D5
100
AcDbProxyObject
 90
      499
 91
      503
 93
      452
310
42D0DBDB1BDC90DA185B99D95104090240C333333333333E33F0000000000000F90108901411070040501508421405064090741402480A0350
1001
ACAD
1000
AcDbSavedByObjectVersion
1070
     0
  0
ACAD_PROXY_OBJECT
  5
43DF
102
{ACAD_REACTORS
330
43D5
102
}
330
43D5
100
AcDbProxyObject
 90
      499
 91
      503
 93
      500
310
4290DBDB98D95C1D1D585B10940D028333333333333E33F0000000000000F90107902409070040501000000000018199010841D405064090740C02480A0340
1001
ACAD
1000
AcDbSavedByObjectVersion
1070
     0
  0
ACAD_PROXY_OBJECT
  5
43E0
102
{ACAD_REACTORS
330
43D5
102
}
330
43D5
100
AcDbProxyObject
 90
      499
 91
      503
 93
      412
310
40D11A5B50B409028333333333333E33F0000000000000F9010790141107004050150841D405064090741402480A02677FFFFFD0
1001
ACAD
1000
AcDbSavedByObjectVersion
1070
     0
  0
ACAD_PROXY_OBJECT
  5
43E8
102
{ACAD_REACTORS
330
43D5
102
}
330
43D5
100
AcDbProxyObject
 90
      499
 91
      503
 93
      452
310
43115919D950DBDB1BDC93D999916409028333333333333E33F0000000000000F9010790141107004050150841D405064090741402480A0350
1001
ACAD
1000
AcDbSavedByObjectVersion
1070
     0
  0
ACAD_PROXY_OBJECT
  5
43E4
102
{ACAD_REACTORS
330
43D5
102
}
330
43D5
100
AcDbProxyObject
 90
      499
 91
      503
 93
      444
310
42D19858D95C185D1D195C9B90F409028333333333333E33F0000000000000F9010790141107004050150841D405064090741402480A0350
1001
ACAD
1000
AcDbSavedByObjectVersion
1070
     0
  0
ACAD_PROXY_OBJECT
  5
43D6
102
{ACAD_REACTORS
330
43D5
102
}
330
43D5
100
AcDbProxyObject
 90
      499
 91
      503
 93
      380
310
41119B185D240901404333333333333E33F0000000000000F9010740A907004050150841D405064090741402480A1B50
1001
ACAD
1000
AcDbSavedByObjectVersion
1070
     0
  0
ACAD_PROXY_OBJECT
  5
43D7
102
{ACAD_REACTORS
330
43D5
102
}
330
43D5
100
AcDbProxyObject
 90
      499
 91
      503
 93
      468
310
43519B185D15DA5D1A115919D95CD0140901404333333333333E33F0000000000000F90107409019070040501600405405064090741402480A1B50
1001
ACAD
1000
AcDbSavedByObjectVersion
1070
     0
  0
ACAD_PROXY_OBJECT
  5
43D8
102
{ACAD_REACTORS
330
43D5
102
}
330
43D5
100
AcDbProxyObject
 90
      499
 91
      503
 93
      404
310
41D1DBDD5C985D5910240902404333333333333E33F0000000000000F9010740A9070040501641D405064090741402480A1B50
1001
ACAD
1000
AcDbSavedByObjectVersion
1070
     0
  0
ACAD_PROXY_OBJECT
  5
43D9
102
{ACAD_REACTORS
330
43D5
102
}
330
43D5
100
AcDbProxyObject
 90
      499
 91
      503
 93
      492
310
4411DBDD5C985D5915DA5D1A115919D95CD0340902404333333333333E33F0000000000000F90107409019070040501600405405064090741402480A1B50
1001
ACAD
1000
AcDbSavedByObjectVersion
1070
     0
  0
ACAD_PROXY_OBJECT
  5
43DC
102
{ACAD_REACTORS
330
43D5
102
}
330
43D5
100
AcDbProxyObject
 90
      499
 91
      503
 93
      476
310
41921A5919195B90640502408333333333333E33F0000000000000F901079024090700405020000000000001110200405405064090740C02480A0340
1001
ACAD
1000
AcDbSavedByObjectVersion
1070
     0
  0
ACAD_PROXY_OBJECT
  5
43E6
102
{ACAD_REACTORS
330
43D5
102
}
330
43D5
100
AcDbProxyObject
 90
      499
 91
      503
 93
      428
310
42529A5D1D195C93D999914409028333333333333E33F0000000000000F9010790141107004050150A41D405064090741402480A0350
1001
ACAD
1000
AcDbSavedByObjectVersion
1070
     0
  0
ACAD_PROXY_OBJECT
  5
43E3
102
{ACAD_REACTORS
330
43D5
102
}
330
43D5
100
AcDbProxyObject
 90
      499
 91
      503
 93
      444
310
42D31A5B995C185D1D195C9B90E409028333333333333E33F0000000000000F9010790141107004050750841D405064090741402483A0350
1001
ACAD
1000
AcDbSavedByObjectVersion
1070
     0
  0
ACAD_PROXY_OBJECT
  5
43E7
102
{ACAD_REACTORS
330
43D5
102
}
330
43D5
100
AcDbProxyObject
 90
      499
 91
      503
 93
      444
310
42D3DD995C9A185B99D3D999915409028333333333333E33F0000000000000F9010790141107004050150941D405064090741402480A0350
1001
ACAD
1000
AcDbSavedByObjectVersion
1070
     0
  0
ACAD_PROXY_OBJECT
  5
43DE
102
{ACAD_REACTORS
330
43D5
102
}
330
43D5
100
AcDbProxyObject
 90
      499
 91
      503
 93
      428
310
425499585B1A5CDD1A58D08409038333333333333E33F0000000000000F9010740A907004050150800405405064090740C02480A1B40
1001
ACAD
1000
AcDbSavedByObjectVersion
1070
     0
  0
ACAD_PROXY_OBJECT
  5
43ED
102
{ACAD_REACTORS
330
43D5
102
}
330
43D5
100
AcDbProxyObject
 90
      499
 91
      503
 93
      420
310
4194DA1859195911B40902404333333333333E33F0000000000000F9010740A41107004050150800405405064090840C02480A0B40
1001
ACAD
1000
AcDbSavedByObjectVersion
1070
     0
  0
ACAD_PROXY_OBJECT
  5
43EC
102
{ACAD_REACTORS
330
43D5
102
}
330
43D5
100
AcDbProxyObject
 90
      499
 91
      503
 93
      516
310
4454DA18591959081DDA5D1A08195919D95CD1A40902404333333333333E33F0000000000000F901074090142907004050250800405405064090740C02480A0B40
1001
ACAD
1000
AcDbSavedByObjectVersion
1070
     0
  0
ACAD_PROXY_OBJECT
  5
43E9
102
{ACAD_REACTORS
330
43D5
102
}
330
43D5
100
AcDbProxyObject
 90
      499
 91
      503
 93
      532
310
4394DA1859195CC81BD98811DC985E5174090240C333333333333E33F0000000000000F901079024090741D01000000000000111010841D405064090740C02480A0340
1001
ACAD
1000
AcDbSavedByObjectVersion
1070
     0
  0
ACAD_PROXY_OBJECT
  5
43EA
102
{ACAD_REACTORS
330
43D5
102
}
330
43D5
100
AcDbProxyObject
 90
      499
 91
      503
 93
      476
310
41D4DAD95D18DA1E51840502408333333333333E33F0000000000000F901079024090741D01000000000000111010B41D405064090741802480A0340
1001
ACAD
1000
AcDbSavedByObjectVersion
1070
     0
  0
ACAD_PROXY_OBJECT
  5
43E2
102
{ACAD_REACTORS
330
43D5
102
}
330
43D5
100
AcDbProxyObject
 90
      499
 91
      503
 93
      412
310
41D51A1A58DAD95B90D409028333333333333E33F0000000000000F9010790141107004050150C41D405064090741402480A0350
1001
ACAD
1000
AcDbSavedByObjectVersion
1070
     0
  0
ACAD_PROXY_OBJECT
  5
43DB
102
{ACAD_REACTORS
330
43D5
102
}
330
43D5
100
AcDbProxyObject
 90
      499
 91
      503
 93
      420
310
4255DA5C99599C985B595059028333333333333E33F0000000000000F90107901411070040501600405405064090740C02480A0340
1001
ACAD
1000
AcDbSavedByObjectVersion
1070
     0
  0
ACAD_PROXY_OBJECT
  5
43EB
102
{ACAD_REACTORS
330
43D5
102
}
330
43D5
100
AcDbProxyObject
 90
      499
 91
      503
 93
      404
310
41560B54985E51940902404000000000000E03F0000000000000F9010740501907004050150841D405064090740C02480A1B40
1001
ACAD
1000
AcDbSavedByObjectVersion
1070
     0
  0
XRECORD
  5
4CA0
102
{ACAD_REACTORS
330
4C96
102
}
330
4C96
100
AcDbXrecord
340
0
  0
XRECORD
  5
4C9F
102
{ACAD_REACTORS
330
4C96
102
}
330
4C96
100
AcDbXrecord
 90
        0
  0
XRECORD
  5
4CB9
102
{ACAD_REACTORS
330
4C96
102
}
330
4C96
100
AcDbXrecord
340
2948
  0
XRECORD
  5
4CB6
102
{ACAD_REACTORS
330
4C96
102
}
330
4C96
100
AcDbXrecord
1000
DSTYLE
1002
{
1070
   171
 70
     2
1070
   143
 40
0.0394
1070
   274
 70
     2
1070
    41
 40
6.0
1070
   342
340
2AF4
1070
   271
 70
     1
1070
   278
 70
    46
1070
   341
340
2AF4
1070
   272
 70
     1
1070
    48
 40
0.1
1070
   283
 70
     1
1070
    47
 40
0.1
1070
   145
 40
1.0
1070
   340
340
10
1070
   140
 40
5.0
1070
   284
 70
     0
1002
}
  0
XRECORD
  5
4CA1
102
{ACAD_REACTORS
330
4C96
102
}
330
4C96
100
AcDbXrecord
  1
{23698909-1D67-4744-B0E2-8DE11E3ED422}
  0
XRECORD
  5
4C99
102
{ACAD_REACTORS
330
4C96
102
}
330
4C96
100
AcDbXrecord
  1

  0
XRECORD
  5
4C9E
102
{ACAD_REACTORS
330
4C96
102
}
330
4C96
100
AcDbXrecord
 90
        0
  0
XRECORD
  5
4C9B
102
{ACAD_REACTORS
330
4C96
102
}
330
4C96
100
AcDbXrecord
340
2816
  0
XRECORD
  5
4C9D
102
{ACAD_REACTORS
330
4C96
102
}
330
4C96
100
AcDbXrecord
 90
    10781
  0
XRECORD
  5
4CBA
102
{ACAD_REACTORS
330
4C96
102
}
330
4C96
100
AcDbXrecord
340
2947
  0
XRECORD
  5
4C9C
102
{ACAD_REACTORS
330
4C96
102
}
330
4C96
100
AcDbXrecord
340
2817
  0
XRECORD
  5
4CA3
102
{ACAD_REACTORS
330
4C96
102
}
330
4C96
100
AcDbXrecord
 40
0.25
  0
XRECORD
  5
4CA6
102
{ACAD_REACTORS
330
4C96
102
}
330
4C96
100
AcDbXrecord
340
0
  0
XRECORD
  5
4CAC
102
{ACAD_REACTORS
330
4C96
102
}
330
4C96
100
AcDbXrecord
 10
0.0
 20
0.0
 30
0.0
  0
XRECORD
  5
4CA8
102
{ACAD_REACTORS
330
4C96
102
}
330
4C96
100
AcDbXrecord
 10
0.0
 20
0.0
 30
0.0
  0
XRECORD
  5
4CAB
102
{ACAD_REACTORS
330
4C96
102
}
330
4C96
100
AcDbXrecord
 10
0.0
 20
0.0
 30
0.0
  0
XRECORD
  5
4CA9
102
{ACAD_REACTORS
330
4C96
102
}
330
4C96
100
AcDbXrecord
 10
0.0
 20
0.0
 30
0.0
  0
XRECORD
  5
4CAA
102
{ACAD_REACTORS
330
4C96
102
}
330
4C96
100
AcDbXrecord
 10
0.0
 20
0.0
 30
0.0
  0
XRECORD
  5
4CA7
102
{ACAD_REACTORS
330
4C96
102
}
330
4C96
100
AcDbXrecord
 10
0.0
 20
0.0
 30
0.0
  0
XRECORD
  5
4CA4
102
{ACAD_REACTORS
330
4C96
102
}
330
4C96
100
AcDbXrecord
340
0
  0
XRECORD
  5
4CA5
102
{ACAD_REACTORS
330
4C96
102
}
330
4C96
100
AcDbXrecord
 70
     0
  0
XRECORD
  5
4C9A
102
{ACAD_REACTORS
330
4C96
102
}
330
4C96
100
AcDbXrecord
  1

  0
XRECORD
  5
4C97
102
{ACAD_REACTORS
330
4C96
102
}
330
4C96
100
AcDbXrecord
 90
        1
  0
XRECORD
  5
4C98
102
{ACAD_REACTORS
330
4C96
102
}
330
4C96
100
AcDbXrecord
 90
       70
  0
XRECORD
  5
4CAF
102
{ACAD_REACTORS
330
4C96
102
}
330
4C96
100
AcDbXrecord
340
0
  0
XRECORD
  5
4CB5
102
{ACAD_REACTORS
330
4C96
102
}
330
4C96
100
AcDbXrecord
 10
0.0
 20
0.0
 30
0.0
  0
XRECORD
  5
4CB1
102
{ACAD_REACTORS
330
4C96
102
}
330
4C96
100
AcDbXrecord
 10
0.0
 20
0.0
 30
0.0
  0
XRECORD
  5
4CB4
102
{ACAD_REACTORS
330
4C96
102
}
330
4C96
100
AcDbXrecord
 10
0.0
 20
0.0
 30
0.0
  0
XRECORD
  5
4CB2
102
{ACAD_REACTORS
330
4C96
102
}
330
4C96
100
AcDbXrecord
 10
0.0
 20
0.0
 30
0.0
  0
XRECORD
  5
4CB3
102
{ACAD_REACTORS
330
4C96
102
}
330
4C96
100
AcDbXrecord
 10
0.0
 20
0.0
 30
0.0
  0
XRECORD
  5
4CB0
102
{ACAD_REACTORS
330
4C96
102
}
330
4C96
100
AcDbXrecord
 10
0.0
 20
0.0
 30
0.0
  0
XRECORD
  5
4CAD
102
{ACAD_REACTORS
330
4C96
102
}
330
4C96
100
AcDbXrecord
340
0
  0
XRECORD
  5
4CAE
102
{ACAD_REACTORS
330
4C96
102
}
330
4C96
100
AcDbXrecord
 70
     0
  0
XRECORD
  5
4CA2
102
{ACAD_REACTORS
330
4C96
102
}
330
4C96
100
AcDbXrecord
  1
{E3178B84-10D7-4D19-BCAB-C4DEF31BA45D}
  0
DICTIONARYVAR
  5
4C8F
102
{ACAD_REACTORS
330
4C8E
102
}
330
4C8E
100
DictionaryVariables
280
     0
  1
1:1
  0
DICTIONARYVAR
  5
4C91
102
{ACAD_REACTORS
330
4C8E
102
}
330
4C8E
100
DictionaryVariables
280
     0
  1
Standard
  0
DICTIONARYVAR
  5
4C90
102
{ACAD_REACTORS
330
4C8E
102
}
330
4C8E
100
DictionaryVariables
280
     0
  1
Standard
  0
DICTIONARYVAR
  5
4CB7
102
{ACAD_REACTORS
330
4C8E
102
}
330
4C8E
100
DictionaryVariables
280
     0
  1
1
  0
DICTIONARYVAR
  5
4CB8
102
{ACAD_REACTORS
330
4C8E
102
}
330
4C8E
100
DictionaryVariables
280
     0
  1
0
  0
DICTIONARYVAR
  5
4C92
102
{ACAD_REACTORS
330
4C8E
102
}
330
4C8E
100
DictionaryVariables
280
     0
  1
0
  0
DICTIONARYVAR
  5
4C93
102
{ACAD_REACTORS
330
4C8E
102
}
330
4C8E
100
DictionaryVariables
280
     0
  1
0
  0
DICTIONARY
  5
4773
102
{ACAD_REACTORS
330
4772
102
}
330
4772
100
AcDbDictionary
  0
DICTIONARY
  5
4789
102
{ACAD_REACTORS
330
4788
102
}
330
4788
100
AcDbDictionary
  0
DICTIONARY
  5
478D
102
{ACAD_REACTORS
330
478C
102
}
330
478C
100
AcDbDictionary
  0
DICTIONARY
  5
4810
102
{ACAD_REACTORS
330
480F
102
}
330
480F
100
AcDbDictionary
  0
DICTIONARY
  5
441B
102
{ACAD_REACTORS
330
441A
102
}
330
441A
100
AcDbDictionary
  0
DICTIONARY
  5
441E
102
{ACAD_REACTORS
330
441D
102
}
330
441D
100
AcDbDictionary
  0
DICTIONARY
  5
4CC0
330
4411
100
AcDbDictionary
280
     1
  3
ACAD_XREC_ROUNDTRIP
360
4CC1
  0
DICTIONARY
  5
4CBE
330
4410
100
AcDbDictionary
280
     1
  3
ACAD_XREC_ROUNDTRIP
360
4CBF
  0
DICTIONARY
  5
4CC2
330
4412
100
AcDbDictionary
280
     1
  3
ACAD_XREC_ROUNDTRIP
360
4CC3
  0
XRECORD
  5
4CC1
102
{ACAD_REACTORS
330
4CC0
102
}
330
4CC0
100
AcDbXrecord
102
MATERIAL
148
0.0
149
0.0
149
0.0
 93
        0
 94
      127
282
     0
 72
     1
 77
     1
171
     1
175
     1
179
     1
273
     0
  0
XRECORD
  5
4CBF
102
{ACAD_REACTORS
330
4CBE
102
}
330
4CBE
100
AcDbXrecord
102
MATERIAL
148
0.0
149
0.0
149
0.0
 93
        0
 94
      127
282
     0
 72
     1
 77
     1
171
     1
175
     1
179
     1
273
     0
  0
XRECORD
  5
4CC3
102
{ACAD_REACTORS
330
4CC2
102
}
330
4CC2
100
AcDbXrecord
102
MATERIAL
148
0.0
149
0.0
149
0.0
 93
        0
 94
      127
282
     0
 72
     1
 77
     1
171
     1
175
     1
179
     1
273
     0
  0
ENDSEC
  0
EOF
