  0
SECTION
  2
HEADER
  9
$ACADVER
  1
AC1014
  9
$ACADMAINTVER
 70
     9
  9
$DWGCODEPAGE
  3
ANSI_932
  9
$INSBASE
 10
0.0
 20
0.0
 30
0.0
  9
$EXTMIN
 10
-2.519173971595
 20
431.3106638317
 30
0.0
  9
$EXTMAX
 10
511.772194112652
 20
751.047221751213
 30
0.0
  9
$LIMMIN
 10
-360.747566795242
 20
4.457354754526
  9
$LIMMAX
 10
-162.153696144267
 20
287.675440264018
  9
$ORTHOMODE
 70
     0
  9
$REGENMODE
 70
     1
  9
$FILLMODE
 70
     1
  9
$QTEXTMODE
 70
     0
  9
$MIRRTEXT
 70
     1
  9
$DRAGMODE
 70
     2
  9
$LTSCALE
 40
1.0
  9
$OSMODE
 70
    32
  9
$ATTMODE
 70
     1
  9
$TEXTSIZE
 40
2.333873885063
  9
$TRACEWID
 40
1.0
  9
$TEXTSTYLE
  7
STANDARD
  9
$CLAYER
  8
寸法線
  9
$CELTYPE
  6
BYLAYER
  9
$CECOLOR
 62
   256
  9
$CELTSCALE
 40
10.0
  9
$DELOBJ
 70
     1
  9
$DISPSILH
 70
     0
  9
$DIMSCALE
 40
1.0
  9
$DIMASZ
 40
6.0
  9
$DIMEXO
 40
0.625
  9
$DIMDLI
 40
3.75
  9
$DIMRND
 40
0.0
  9
$DIMDLE
 40
0.0
  9
$DIMEXE
 40
1.25
  9
$DIMTP
 40
0.1
  9
$DIMTM
 40
0.1
  9
$DIMTXT
 40
5.0
  9
$DIMCEN
 40
2.5
  9
$DIMTSZ
 40
0.0
  9
$DIMTOL
 70
     0
  9
$DIMLIM
 70
     0
  9
$DIMTIH
 70
     0
  9
$DIMTOH
 70
     0
  9
$DIMSE1
 70
     0
  9
$DIMSE2
 70
     0
  9
$DIMTAD
 70
     1
  9
$DIMZIN
 70
     8
  9
$DIMBLK
  1
OPEN30
  9
$DIMASO
 70
     1
  9
$DIMSHO
 70
     1
  9
$DIMPOST
  1

  9
$DIMAPOST
  1

  9
$DIMALT
 70
     0
  9
$DIMALTD
 70
     2
  9
$DIMALTF
 40
0.0394
  9
$DIMLFAC
 40
1.0
  9
$DIMTOFL
 70
     1
  9
$DIMTVP
 40
1.0
  9
$DIMTIX
 70
     0
  9
$DIMSOXD
 70
     0
  9
$DIMSAH
 70
     0
  9
$DIMBLK1
  1

  9
$DIMBLK2
  1

  9
$DIMSTYLE
  2
ISO-25
  9
$DIMCLRD
 70
     0
  9
$DIMCLRE
 70
     0
  9
$DIMCLRT
 70
     0
  9
$DIMTFAC
 40
1.0
  9
$DIMGAP
 40
0.625
  9
$DIMJUST
 70
     0
  9
$DIMSD1
 70
     0
  9
$DIMSD2
 70
     0
  9
$DIMTOLJ
 70
     1
  9
$DIMTZIN
 70
     0
  9
$DIMALTZ
 70
     0
  9
$DIMALTTZ
 70
     0
  9
$DIMFIT
 70
     3
  9
$DIMUPT
 70
     0
  9
$DIMUNIT
 70
     2
  9
$DIMDEC
 70
     1
  9
$DIMTDEC
 70
     1
  9
$DIMALTU
 70
     2
  9
$DIMALTTD
 70
     2
  9
$DIMTXSTY
  7
STANDARD
  9
$DIMAUNIT
 70
     0
  9
$LUNITS
 70
     2
  9
$LUPREC
 70
     4
  9
$SKETCHINC
 40
1.0
  9
$FILLETRAD
 40
6.5
  9
$AUNITS
 70
     0
  9
$AUPREC
 70
     0
  9
$MENU
  1
.
  9
$ELEVATION
 40
0.0
  9
$PELEVATION
 40
0.0
  9
$THICKNESS
 40
0.0
  9
$LIMCHECK
 70
     0
  9
$CHAMFERA
 40
10.0
  9
$CHAMFERB
 40
10.0
  9
$CHAMFERC
 40
20.0
  9
$CHAMFERD
 40
0.0
  9
$SKPOLY
 70
     0
  9
$TDCREATE
 40
2450576.597302431
  9
$TDUPDATE
 40
2457191.664557998
  9
$TDINDWG
 40
1.1369453935
  9
$TDUSRTIMER
 40
1.1369453935
  9
$USRTIMER
 70
     1
  9
$ANGBASE
 50
0.0
  9
$ANGDIR
 70
     0
  9
$PDMODE
 70
     0
  9
$PDSIZE
 40
0.0
  9
$PLINEWID
 40
0.0
  9
$COORDS
 70
     1
  9
$SPLFRAME
 70
     0
  9
$SPLINETYPE
 70
     6
  9
$SPLINESEGS
 70
     8
  9
$ATTDIA
 70
     0
  9
$ATTREQ
 70
     1
  9
$HANDLING
 70
     1
  9
$HANDSEED
  5
4CF5
  9
$SURFTAB1
 70
     6
  9
$SURFTAB2
 70
     6
  9
$SURFTYPE
 70
     6
  9
$SURFU
 70
     6
  9
$SURFV
 70
     6
  9
$UCSNAME
  2

  9
$UCSORG
 10
0.0
 20
0.0
 30
0.0
  9
$UCSXDIR
 10
1.0
 20
0.0
 30
0.0
  9
$UCSYDIR
 10
0.0
 20
1.0
 30
0.0
  9
$PUCSNAME
  2

  9
$PUCSORG
 10
0.0
 20
0.0
 30
0.0
  9
$PUCSXDIR
 10
1.0
 20
0.0
 30
0.0
  9
$PUCSYDIR
 10
0.0
 20
1.0
 30
0.0
  9
$USERI1
 70
     0
  9
$USERI2
 70
     0
  9
$USERI3
 70
     0
  9
$USERI4
 70
     0
  9
$USERI5
 70
     0
  9
$USERR1
 40
0.0
  9
$USERR2
 40
0.0
  9
$USERR3
 40
0.0
  9
$USERR4
 40
0.0
  9
$USERR5
 40
0.0
  9
$WORLDVIEW
 70
     1
  9
$SHADEDGE
 70
     3
  9
$SHADEDIF
 70
    70
  9
$TILEMODE
 70
     0
  9
$MAXACTVP
 70
    16
  9
$PINSBASE
 10
0.0
 20
0.0
 30
0.0
  9
$PLIMCHECK
 70
     0
  9
$PEXTMIN
 10
4.746305129083
 20
2.645277781685
 30
0.0
  9
$PEXTMAX
 10
404.746305129083
 20
282.645277781685
 30
0.0
  9
$PLIMMIN
 10
-7.007122192383
 20
-7.007118782997
  9
$PLIMMAX
 10
417.718108215332
 20
293.315290427208
  9
$UNITMODE
 70
     0
  9
$VISRETAIN
 70
     0
  9
$PLINEGEN
 70
     0
  9
$PSLTSCALE
 70
     1
  9
$TREEDEPTH
 70
  3020
  9
$PICKSTYLE
 70
     1
  9
$CMLSTYLE
  2
STANDARD
  9
$CMLJUST
 70
     0
  9
$CMLSCALE
 40
1.0
  9
$PROXYGRAPHICS
 70
     1
  9
$MEASUREMENT
 70
     1
  0
ENDSEC
  0
SECTION
  2
CLASSES
  0
CLASS
  1
ACDBDICTIONARYWDFLT
  2
AcDbDictionaryWithDefault
  3
ObjectDBX Classes
 90
        0
280
     0
281
     0
  0
CLASS
  1
ACDBPLACEHOLDER
  2
AcDbPlaceHolder
  3
ObjectDBX Classes
 90
        0
280
     0
281
     0
  0
CLASS
  1
LAYOUT
  2
AcDbLayout
  3
ObjectDBX Classes
 90
        0
280
     0
281
     0
  0
CLASS
  1
VISUALSTYLE
  2
AcDbVisualStyle
  3
ObjectDBX Classes
 90
     4095
280
     0
281
     0
  0
CLASS
  1
SCALE
  2
AcDbScale
  3
ObjectDBX Classes
 90
     1153
280
     0
281
     0
  0
CLASS
  1
MATERIAL
  2
AcDbMaterial
  3
ObjectDBX Classes
 90
     1153
280
     0
281
     0
  0
CLASS
  1
TABLESTYLE
  2
AcDbTableStyle
  3
ObjectDBX Classes
 90
     4095
280
     0
281
     0
  0
CLASS
  1
MLEADERSTYLE
  2
AcDbMLeaderStyle
  3
ACDB_MLEADERSTYLE_CLASS
 90
     4095
280
     0
281
     0
  0
CLASS
  1
SUN
  2
AcDbSun
  3
SCENEOE
 90
     1153
280
     0
281
     0
  0
CLASS
  1
DICTIONARYVAR
  2
AcDbDictionaryVar
  3
ObjectDBX Classes
 90
        0
280
     0
281
     0
  0
CLASS
  1
CELLSTYLEMAP
  2
AcDbCellStyleMap
  3
ObjectDBX Classes
 90
     1152
280
     0
281
     0
  0
CLASS
  1
XRECORD
  2
AcDbXrecord
  3
ObjectDBX Classes
 90
        0
280
     0
281
     0
  0
CLASS
  1
LWPOLYLINE
  2
AcDbPolyline
  3
ObjectDBX Classes
 90
        0
280
     0
281
     1
  0
CLASS
  1
HATCH
  2
AcDbHatch
  3
ObjectDBX Classes
 90
        0
280
     0
281
     1
  0
ENDSEC
  0
SECTION
  2
TABLES
  0
TABLE
  2
VPORT
  5
8
102
{ACAD_XDICTIONARY
360
4CED
102
}
330
0
100
AcDbSymbolTable
 70
     1
  0
VPORT
  5
4292
330
8
100
AcDbSymbolTableRecord
100
AcDbViewportTableRecord
  2
*ACTIVE
 70
     0
 10
0.0
 20
0.0
 11
1.0
 21
1.0
 12
274.92396423292
 22
593.804141416404
 13
0.0
 23
0.0
 14
1.0
 24
1.0
 15
0.0
 25
0.0
 16
0.0
 26
0.0
 36
1.0
 17
0.0
 27
0.0
 37
0.0
 40
148.942108727356
 41
1.56746031746
 42
50.0
 43
0.0
 44
0.0
 50
0.0
 51
0.0
 71
    16
 72
   100
 73
     1
 74
     0
 75
     0
 76
     0
 77
     0
 78
     0
  0
ENDTAB
  0
TABLE
  2
LTYPE
  5
5
330
0
100
AcDbSymbolTable
 70
     5
  0
LTYPE
  5
14
330
5
100
AcDbSymbolTableRecord
100
AcDbLinetypeTableRecord
  2
BYBLOCK
 70
     0
  3

 72
    65
 73
     0
 40
0.0
  0
LTYPE
  5
15
330
5
100
AcDbSymbolTableRecord
100
AcDbLinetypeTableRecord
  2
BYLAYER
 70
     0
  3

 72
    65
 73
     0
 40
0.0
  0
LTYPE
  5
16
330
5
100
AcDbSymbolTableRecord
100
AcDbLinetypeTableRecord
  2
CONTINUOUS
 70
     0
  3
Solid line
 72
    65
 73
     0
 40
0.0
  0
LTYPE
  5
1EC
330
5
100
AcDbSymbolTableRecord
100
AcDbLinetypeTableRecord
  2
CENTER
 70
     0
  3
____ _ ____ _ ____ _ ____ _ ____ _ ____ _ ____ 
 72
    65
 73
     4
 40
2.0
 49
1.25
 74
     0
 49
-0.25
 74
     0
 49
0.25
 74
     0
 49
-0.25
 74
     0
  0
LTYPE
  5
1ED
330
5
100
AcDbSymbolTableRecord
100
AcDbLinetypeTableRecord
  2
DASHED
 70
     0
  3
__ __ __ __ __ __ __ __ __ __ __ __ __ __ __ __
 72
    65
 73
     2
 40
0.75
 49
0.5
 74
     0
 49
-0.25
 74
     0
  0
LTYPE
  5
2B28
330
5
100
AcDbSymbolTableRecord
100
AcDbLinetypeTableRecord
  2
DASHDOT
 70
     0
  3
一点鎖線
 72
    65
 73
     4
 40
25.6
 49
20.0
 74
     0
 49
-2.0
 74
     0
 49
1.6
 74
     0
 49
-2.0
 74
     0
  0
LTYPE
  5
2B29
330
5
100
AcDbSymbolTableRecord
100
AcDbLinetypeTableRecord
  2
DIVIDE
 70
     0
  3
二点鎖線
 72
    65
 73
     6
 40
31.2
 49
20.0
 74
     0
 49
-2.4
 74
     0
 49
2.0
 74
     0
 49
-2.4
 74
     0
 49
2.0
 74
     0
 49
-2.4
 74
     0
  0
ENDTAB
  0
TABLE
  2
LAYER
  5
2
102
{ACAD_XDICTIONARY
360
29EA
102
}
330
0
100
AcDbSymbolTable
 70
    14
  0
LAYER
  5
F
330
2
100
AcDbSymbolTableRecord
100
AcDbLayerTableRecord
  2
0
 70
     0
 62
     7
  6
CONTINUOUS
  0
LAYER
  5
61
330
2
100
AcDbSymbolTableRecord
100
AcDbLayerTableRecord
  2
図枠太線
 70
     0
 62
   251
  6
CONTINUOUS
  0
LAYER
  5
62
330
2
100
AcDbSymbolTableRecord
100
AcDbLayerTableRecord
  2
図枠細線
 70
     0
 62
   252
  6
CONTINUOUS
  0
LAYER
  5
63
330
2
100
AcDbSymbolTableRecord
100
AcDbLayerTableRecord
  2
図枠ロゴマーク
 70
     0
 62
   253
  6
CONTINUOUS
  0
LAYER
  5
1EF
330
2
100
AcDbSymbolTableRecord
100
AcDbLayerTableRecord
  2
外形線
 70
     0
 62
     7
  6
CONTINUOUS
  0
LAYER
  5
1F0
330
2
100
AcDbSymbolTableRecord
100
AcDbLayerTableRecord
  2
寸法線
 70
     0
 62
     1
  6
CONTINUOUS
  0
LAYER
  5
1F1
330
2
100
AcDbSymbolTableRecord
100
AcDbLayerTableRecord
  2
中心線
 70
     0
 62
     4
  6
CENTER
  0
LAYER
  5
1F4
330
2
100
AcDbSymbolTableRecord
100
AcDbLayerTableRecord
  2
DEFPOINTS
 70
     0
 62
     7
  6
CONTINUOUS
  0
LAYER
  5
2AA2
330
2
100
AcDbSymbolTableRecord
100
AcDbLayerTableRecord
  2
下書線
 70
     0
 62
     2
  6
CONTINUOUS
  0
LAYER
  5
2AA3
330
2
100
AcDbSymbolTableRecord
100
AcDbLayerTableRecord
  2
隠れ線
 70
     0
 62
     3
  6
DASHED
  0
LAYER
  5
2AA4
330
2
100
AcDbSymbolTableRecord
100
AcDbLayerTableRecord
  2
細線
 70
     0
 62
     6
  6
CONTINUOUS
  0
LAYER
  5
2AA5
330
2
100
AcDbSymbolTableRecord
100
AcDbLayerTableRecord
  2
太線
 70
     0
 62
   190
  6
CONTINUOUS
  0
LAYER
  5
2B2A
330
2
100
AcDbSymbolTableRecord
100
AcDbLayerTableRecord
  2
LAY-1
 70
     0
 62
     7
  6
CONTINUOUS
  0
LAYER
  5
42ED
330
2
100
AcDbSymbolTableRecord
100
AcDbLayerTableRecord
  2
寸法線_文字
 70
     0
 62
     1
  6
CONTINUOUS
  0
ENDTAB
  0
TABLE
  2
STYLE
  5
3
330
0
100
AcDbSymbolTable
 70
     3
  0
STYLE
  5
10
330
3
100
AcDbSymbolTableRecord
100
AcDbTextStyleTableRecord
  2
STANDARD
 70
     0
 40
0.0
 41
1.0
 50
0.0
 71
     0
 42
2.333873885063
  3
ISOCP
  4
bigfont.shx
  0
STYLE
  5
64
330
3
100
AcDbSymbolTableRecord
100
AcDbTextStyleTableRecord
  2
EXCADSTD
 70
     0
 40
0.0
 41
1.0
 50
0.0
 71
     0
 42
0.2
  3
monotxt
  4
bigfont
  0
STYLE
  5
2B2B
330
3
100
AcDbSymbolTableRecord
100
AcDbTextStyleTableRecord
  2
EXCADVERT
 70
     4
 40
0.0
 41
1.0
 50
0.0
 71
     0
 42
0.286885
  3
monotxt
  4
bigfont
  0
ENDTAB
  0
TABLE
  2
VIEW
  5
6
330
0
100
AcDbSymbolTable
 70
     0
  0
ENDTAB
  0
TABLE
  2
UCS
  5
7
330
0
100
AcDbSymbolTable
 70
     0
  0
ENDTAB
  0
TABLE
  2
APPID
  5
9
330
0
100
AcDbSymbolTable
 70
     3
  0
APPID
  5
11
330
9
100
AcDbSymbolTableRecord
100
AcDbRegAppTableRecord
  2
ACAD
 70
     0
  0
APPID
  5
4452
330
9
100
AcDbSymbolTableRecord
100
AcDbRegAppTableRecord
  2
ACAD_MLEADERVER
 70
     0
  0
APPID
  5
4461
330
9
100
AcDbSymbolTableRecord
100
AcDbRegAppTableRecord
  2
ACADANNOTATIVE
 70
     0
  0
ENDTAB
  0
TABLE
  2
DIMSTYLE
  5
A
330
0
100
AcDbSymbolTable
 70
     3
  0
DIMSTYLE
105
1D
330
A
100
AcDbSymbolTableRecord
100
AcDbDimStyleTableRecord
  2
STANDARD
 70
     0
  3

  4

  5

  6

  7

 40
1.0
 41
0.18
 42
0.0625
 43
0.38
 44
0.18
 45
0.0
 46
0.0
 47
0.0
 48
0.0
140
0.18
141
0.09
142
0.0
143
25.4
144
1.0
145
0.0
146
1.0
147
0.09
 71
     0
 72
     0
 73
     1
 74
     1
 75
     0
 76
     0
 77
     0
 78
     0
170
     0
171
     2
172
     0
173
     0
174
     0
175
     0
176
     0
177
     0
178
     0
270
     2
271
     4
272
     4
273
     2
274
     2
340
10
275
     0
280
     0
281
     0
282
     0
283
     1
284
     0
285
     0
286
     0
287
     3
288
     0
  0
DIMSTYLE
105
24
102
{ACAD_REACTORS
330
347D
330
34B8
330
34C5
330
34ED
330
36AC
330
36DC
330
36EB
330
394D
330
3E2E
330
4B9E
330
4C11
102
}
330
A
100
AcDbSymbolTableRecord
100
AcDbDimStyleTableRecord
  2
ISO-25
 70
     0
  3

  4

  5

  6

  7

 40
1.0
 41
2.5
 42
0.625
 43
3.75
 44
1.25
 45
0.0
 46
0.0
 47
0.0
 48
0.0
140
2.5
141
2.5
142
0.0
143
0.0394
144
1.0
145
1.0
146
1.0
147
0.625
 71
     0
 72
     0
 73
     1
 74
     0
 75
     0
 76
     0
 77
     1
 78
     8
170
     0
171
     2
172
     1
173
     0
174
     0
175
     0
176
     0
177
     0
178
     0
270
     2
271
     4
272
     4
273
     2
274
     2
340
10
275
     0
280
     0
281
     0
282
     0
283
     1
284
     0
285
     0
286
     0
287
     3
288
     0
  0
DIMSTYLE
105
42F0
330
A
100
AcDbSymbolTableRecord
100
AcDbDimStyleTableRecord
  2
ISO-25$7
 70
     0
  3

  4

  5
OPEN30
  6

  7

 40
1.0
 41
1.683501683502
 42
0.420875420875
 43
2.525252525253
 44
0.841750841751
 45
0.0
 46
0.0
 47
0.03
 48
0.000000001
140
8.0
141
1.683501683502
142
0.0
143
0.0394
144
1.0
145
1.0
146
0.5
147
0.4209
 71
     0
 72
     0
 73
     0
 74
     0
 75
     0
 76
     0
 77
     1
 78
     8
170
     0
171
     2
172
     1
173
     0
174
     0
175
     0
176
     0
177
     0
178
     0
270
     2
271
     1
272
     1
273
     2
274
     2
340
64
275
     0
280
     0
281
     0
282
     0
283
     2
284
     8
285
     0
286
     0
287
     3
288
     0
  0
ENDTAB
  0
TABLE
  2
BLOCK_RECORD
  5
1
330
0
100
AcDbSymbolTable
 70
    66
  0
BLOCK_RECORD
  5
1A
330
1
100
AcDbSymbolTableRecord
100
AcDbBlockTableRecord
  2
*MODEL_SPACE
  0
BLOCK_RECORD
  5
28FB
330
1
100
AcDbSymbolTableRecord
100
AcDbBlockTableRecord
  2
*PAPER_SPACE
  0
BLOCK_RECORD
  5
65
330
1
100
AcDbSymbolTableRecord
100
AcDbBlockTableRecord
  2
A$C3392
  0
BLOCK_RECORD
  5
29BF
330
1
100
AcDbSymbolTableRecord
100
AcDbBlockTableRecord
  2
A4横用_タイトル
1001
ACAD
1000
DesignCenter Data
1002
{
1070
     1
1070
     4
1002
}
  0
BLOCK_RECORD
  5
29F4
330
1
100
AcDbSymbolTableRecord
100
AcDbBlockTableRecord
  2
A4縦用_タイトル
1001
ACAD
1000
DesignCenter Data
1002
{
1070
     1
1070
     4
1002
}
  0
BLOCK_RECORD
  5
2A32
330
1
100
AcDbSymbolTableRecord
100
AcDbBlockTableRecord
  2
A3横用_タイトル
1001
ACAD
1000
DesignCenter Data
1002
{
1070
     1
1070
     4
1002
}
  0
BLOCK_RECORD
  5
2A6C
330
1
100
AcDbSymbolTableRecord
100
AcDbBlockTableRecord
  2
A3縦用_タイトル
1001
ACAD
1000
DesignCenter Data
1002
{
1070
     1
1070
     4
1002
}
  0
BLOCK_RECORD
  5
2AF4
330
1
100
AcDbSymbolTableRecord
100
AcDbBlockTableRecord
  2
_OPEN30
  0
BLOCK_RECORD
  5
2F3F
330
1
100
AcDbSymbolTableRecord
100
AcDbBlockTableRecord
  2
ケース外形図_HL-400
  0
BLOCK_RECORD
  5
347E
330
1
100
AcDbSymbolTableRecord
100
AcDbBlockTableRecord
  2
*D8
  0
BLOCK_RECORD
  5
34B9
330
1
100
AcDbSymbolTableRecord
100
AcDbBlockTableRecord
  2
*D9
  0
BLOCK_RECORD
  5
34C6
330
1
100
AcDbSymbolTableRecord
100
AcDbBlockTableRecord
  2
*D10
  0
BLOCK_RECORD
  5
34EE
330
1
100
AcDbSymbolTableRecord
100
AcDbBlockTableRecord
  2
*D11
  0
BLOCK_RECORD
  5
36AD
330
1
100
AcDbSymbolTableRecord
100
AcDbBlockTableRecord
  2
*D12
  0
BLOCK_RECORD
  5
36DD
330
1
100
AcDbSymbolTableRecord
100
AcDbBlockTableRecord
  2
*D13
  0
BLOCK_RECORD
  5
36EC
330
1
100
AcDbSymbolTableRecord
100
AcDbBlockTableRecord
  2
*D14
  0
BLOCK_RECORD
  5
394E
330
1
100
AcDbSymbolTableRecord
100
AcDbBlockTableRecord
  2
*D16
  0
BLOCK_RECORD
  5
3E2F
330
1
100
AcDbSymbolTableRecord
100
AcDbBlockTableRecord
  2
*D17
  0
BLOCK_RECORD
  5
4C52
330
1
100
AcDbSymbolTableRecord
100
AcDbBlockTableRecord
  2
*D57
  0
BLOCK_RECORD
  5
4CBA
330
1
100
AcDbSymbolTableRecord
100
AcDbBlockTableRecord
  2
*D65
  0
ENDTAB
  0
ENDSEC
  0
SECTION
  2
BLOCKS
  0
BLOCK
  5
1B
330
1A
100
AcDbEntity
  8
0
100
AcDbBlockBegin
  2
*MODEL_SPACE
 70
     0
 10
0.0
 20
0.0
 30
0.0
  3
*MODEL_SPACE
  1

  0
ENDBLK
  5
1C
330
1A
100
AcDbEntity
  8
0
100
AcDbBlockEnd
  0
BLOCK
  5
28FD
330
28FB
100
AcDbEntity
 67
     1
  8
0
 48
10.0
100
AcDbBlockBegin
  2
*PAPER_SPACE
 70
     0
 10
0.0
 20
0.0
 30
0.0
  3
*PAPER_SPACE
  1

  0
ENDBLK
  5
28FE
330
28FB
100
AcDbEntity
 67
     1
  8
0
 48
10.0
100
AcDbBlockEnd
  0
BLOCK
  5
93
330
65
100
AcDbEntity
  8
0
100
AcDbBlockBegin
  2
A$C3392
 70
     0
 10
0.0
 20
0.0
 30
0.0
  3
A$C3392
  1
A$C3392
  0
LINE
  5
66
330
65
100
AcDbEntity
  8
図枠太線
  6
CONTINUOUS
100
AcDbLine
 10
211.858584505185
 20
30.927375675439
 30
0.0
 11
211.858584505185
 21
0.927375675439
 31
0.0
  0
LINE
  5
67
330
65
100
AcDbEntity
  8
図枠細線
  6
CONTINUOUS
100
AcDbLine
 10
231.858592505185
 20
15.927377675439
 30
0.0
 11
287.858592505185
 21
15.927375675439
 31
0.0
  0
LINE
  5
68
330
65
100
AcDbEntity
  8
図枠細線
  6
CONTINUOUS
100
AcDbLine
 10
211.858592505185
 20
15.927377675439
 30
0.0
 11
231.858592505185
 21
15.927377675439
 31
0.0
  0
LINE
  5
69
330
65
100
AcDbEntity
  8
図枠太線
  6
CONTINUOUS
 62
   251
100
AcDbLine
 10
1.858584505185
 20
0.927375675439
 30
0.0
 11
1.858584505185
 21
275.927375675439
 31
0.0
  0
TEXT
  5
6A
330
65
100
AcDbEntity
  8
図枠細線
  6
CONTINUOUS
 62
   252
100
AcDbText
 10
351.358592505185
 20
28.427377675439
 30
0.0
 40
2.0
  1
ＴＩＴＬＥ
 41
0.903614457831
  7
EXCADSTD
 72
     5
 11
361.358592505185
 21
28.427377675439
 31
0.0
100
AcDbText
  0
TEXT
  5
6B
330
65
100
AcDbEntity
  8
図枠細線
  6
CONTINUOUS
 62
   252
100
AcDbText
 10
345.358592505185
 20
28.427377675439
 30
0.0
 40
2.0
  1
名称
 41
1.171875
  7
EXCADSTD
 72
     5
 11
350.358592505185
 21
28.427377675439
 31
0.0
100
AcDbText
  0
TEXT
  5
6C
330
65
100
AcDbEntity
  8
図枠細線
  6
CONTINUOUS
 62
   252
100
AcDbText
 10
274.358592505185
 20
25.927377675439
 30
0.0
 40
2.0
  1
ＤＲＡＷＮ
 41
0.882352941176
  7
EXCADSTD
 72
     5
 11
284.358592505185
 21
25.927377675439
 31
0.0
100
AcDbText
  0
TEXT
  5
6D
330
65
100
AcDbEntity
  8
図枠細線
  6
CONTINUOUS
 62
   252
100
AcDbText
 10
260.358592505185
 20
25.927377675439
 30
0.0
 40
2.0
  1
ＤＥＳＩＧＮＥＤ
 41
0.713043472041
  7
EXCADSTD
 72
     5
 11
273.478592390744
 21
25.927377675439
 31
0.0
100
AcDbText
  0
TEXT
  5
6E
330
65
100
AcDbEntity
  8
図枠細線
  6
CONTINUOUS
 62
   252
100
AcDbText
 10
246.358592505185
 20
25.927377675439
 30
0.0
 40
2.0
  1
ＣＨＥＣＫＥＤ
 41
0.831249989569
  7
EXCADSTD
 72
     5
 11
259.658592338292
 21
25.927377675439
 31
0.0
100
AcDbText
  0
TEXT
  5
6F
330
65
100
AcDbEntity
  8
図枠細線
  6
CONTINUOUS
 62
   252
100
AcDbText
 10
274.358592505185
 20
28.427377675439
 30
0.0
 40
2.0
  1
製図
 41
1.209677419355
  7
EXCADSTD
 72
     5
 11
279.358592505185
 21
28.427377675439
 31
0.0
100
AcDbText
  0
TEXT
  5
70
330
65
100
AcDbEntity
  8
図枠細線
  6
CONTINUOUS
 62
   252
100
AcDbText
 10
260.358592505185
 20
28.427377675439
 30
0.0
 40
2.0
  1
設計
 41
1.171875
  7
EXCADSTD
 72
     5
 11
265.358592505185
 21
28.427377675439
 31
0.0
100
AcDbText
  0
TEXT
  5
71
330
65
100
AcDbEntity
  8
図枠細線
  6
CONTINUOUS
 62
   252
100
AcDbText
 10
246.358592505185
 20
28.427377675439
 30
0.0
 40
2.0
  1
検図
 41
1.209677419355
  7
EXCADSTD
 72
     5
 11
251.358592505185
 21
28.427377675439
 31
0.0
100
AcDbText
  0
TEXT
  5
72
330
65
100
AcDbEntity
  8
図枠細線
  6
CONTINUOUS
 62
   252
100
AcDbText
 10
232.358592505185
 20
25.927377675439
 30
0.0
 40
2.0
  1
ＡＰＰＲＯＶＥＤ
 41
0.695652184279
  7
EXCADSTD
 72
     5
 11
245.15859269592
 21
25.927377675439
 31
0.0
100
AcDbText
  0
TEXT
  5
73
330
65
100
AcDbEntity
  8
図枠細線
  6
CONTINUOUS
 62
   252
100
AcDbText
 10
232.358592505185
 20
28.427377675439
 30
0.0
 40
2.0
  1
承認
 41
1.171875
  7
EXCADSTD
 72
     5
 11
237.358592505185
 21
28.427377675439
 31
0.0
100
AcDbText
  0
TEXT
  5
74
330
65
100
AcDbEntity
  8
図枠細線
  6
CONTINUOUS
 62
   252
100
AcDbText
 10
290.069888505185
 20
2.574868675439
 30
0.0
 40
3.5
  1
ＴＯＷＡ　ＳＥＩＤＥＮ　ＩＮＤＵＳＴＲＩＡＬ　ＣＯ．，ＬＴＤ．
 41
0.414568012377
  7
EXCADSTD
 72
     5
 11
342.692388209546
 21
2.574868675439
 31
0.0
100
AcDbText
  0
TEXT
  5
75
330
65
100
AcDbEntity
  8
図枠ロゴマーク
  6
CONTINUOUS
 62
   253
100
AcDbText
 10
290.107348505185
 20
7.519769675439
 30
0.0
 40
7.0
  1
東和制電工業株式会社
 41
0.639204545455
  7
EXCADSTD
 72
     5
 11
342.607348505185
 21
7.519769675439
 31
0.0
100
AcDbText
  0
TEXT
  5
76
330
65
100
AcDbEntity
  8
図枠細線
  6
CONTINUOUS
 62
   252
100
AcDbText
 10
232.499705505185
 20
5.759088675439
 30
0.0
 40
2.0
  1
ＰＲＯＪＥＣＴＩＯＮ
 41
0.754285710199
  7
EXCADSTD
 72
     5
 11
250.099705409817
 21
5.759088675439
 31
0.0
100
AcDbText
  0
TEXT
  5
77
330
65
100
AcDbEntity
  8
図枠細線
  6
CONTINUOUS
 62
   252
100
AcDbText
 10
232.574629505185
 20
8.681077675439
 30
0.0
 40
2.0
  1
ＴＨＩＲＤ　ＡＮＧＬＥ
 41
0.691099486738
  7
EXCADSTD
 72
     5
 11
250.174629767445
 21
8.681077675439
 31
0.0
100
AcDbText
  0
TEXT
  5
78
330
65
100
AcDbEntity
  8
図枠細線
  6
CONTINUOUS
 62
   252
100
AcDbText
 10
256.823999505185
 20
13.427377675439
 30
0.0
 40
2.0
  1
ＳＣＡＬＥ
 41
0.903614457831
  7
EXCADSTD
 72
     5
 11
266.823999505185
 21
13.427377675439
 31
0.0
100
AcDbText
  0
TEXT
  5
79
330
65
100
AcDbEntity
  8
図枠細線
  6
CONTINUOUS
 62
   252
100
AcDbText
 10
274.858592505185
 20
13.427377675439
 30
0.0
 40
2.0
  1
ＤＡＴＥ
 41
0.923076923077
  7
EXCADSTD
 72
     5
 11
282.858592505185
 21
13.427377675439
 31
0.0
100
AcDbText
  0
TEXT
  5
7A
330
65
100
AcDbEntity
  8
図枠細線
  6
CONTINUOUS
 62
   252
100
AcDbText
 10
356.358592505185
 20
13.427377675439
 30
0.0
 40
2.0
  1
ＤＲＧ．ＮＯ．
 41
0.9375
  7
EXCADSTD
 72
     5
 11
370.358592505185
 21
13.427377675439
 31
0.0
100
AcDbText
  0
TEXT
  5
7B
330
65
100
AcDbEntity
  8
図枠細線
  6
CONTINUOUS
 62
   252
100
AcDbText
 10
345.358592505185
 20
13.427377675439
 30
0.0
 40
2.0
  1
図面番号
 41
1.102941176471
  7
EXCADSTD
 72
     5
 11
355.358592505185
 21
13.427377675439
 31
0.0
100
AcDbText
  0
TEXT
  5
7C
330
65
100
AcDbEntity
  8
図枠細線
  6
CONTINUOUS
 62
   252
100
AcDbText
 10
269.358592505185
 20
13.427377675439
 30
0.0
 40
2.0
  1
日付
 41
1.171875
  7
EXCADSTD
 72
     5
 11
274.358592505185
 21
13.427377675439
 31
0.0
100
AcDbText
  0
TEXT
  5
7D
330
65
100
AcDbEntity
  8
図枠細線
  6
CONTINUOUS
 62
   252
100
AcDbText
 10
251.451512505185
 20
13.427377675439
 30
0.0
 40
2.0
  1
尺度
 41
1.171875
  7
EXCADSTD
 72
     5
 11
256.451512505185
 21
13.427377675439
 31
0.0
100
AcDbText
  0
TEXT
  5
7E
330
65
100
AcDbEntity
  8
図枠細線
  6
CONTINUOUS
 62
   252
100
AcDbText
 10
232.358592505185
 20
13.427377675439
 30
0.0
 40
2.0
  1
第三角法
 41
1.102941176471
  7
EXCADSTD
 72
     5
 11
242.358592505185
 21
13.427377675439
 31
0.0
100
AcDbText
  0
TEXT
  5
7F
330
65
100
AcDbEntity
  8
図枠細線
  6
CONTINUOUS
 62
   252
100
AcDbText
 10
212.358592505185
 20
28.427377675439
 30
0.0
 40
2.0
  1
ＮＯＴＥ
 41
0.923076923077
  7
EXCADSTD
 72
     5
 11
220.358592505185
 21
28.427377675439
 31
0.0
100
AcDbText
  0
LINE
  5
80
330
65
100
AcDbEntity
  8
図枠細線
  6
CONTINUOUS
 62
   252
100
AcDbLine
 10
287.858592505185
 20
23.427375675439
 30
0.0
 11
344.858592505185
 21
23.427375675439
 31
0.0
  0
LINE
  5
81
330
65
100
AcDbEntity
  8
図枠太線
  6
CONTINUOUS
 62
   251
100
AcDbLine
 10
287.858584505185
 20
15.927375675439
 30
0.0
 11
344.858592505185
 21
15.927375675439
 31
0.0
  0
LINE
  5
82
330
65
100
AcDbEntity
  8
図枠細線
  6
CONTINUOUS
 62
   252
100
AcDbLine
 10
344.858592505185
 20
15.927375675439
 30
0.0
 11
401.858584505185
 21
15.927375675439
 31
0.0
  0
LINE
  5
83
330
65
100
AcDbEntity
  8
図枠太線
  6
CONTINUOUS
 62
   251
100
AcDbLine
 10
344.858592505185
 20
0.927377675439
 30
0.0
 11
344.858592505185
 21
30.927375675439
 31
0.0
  0
LINE
  5
84
330
65
100
AcDbEntity
  8
図枠太線
  6
CONTINUOUS
 62
   251
100
AcDbLine
 10
287.858592505185
 20
0.927377675439
 30
0.0
 11
287.858592505185
 21
30.927375675439
 31
0.0
  0
LINE
  5
85
330
65
100
AcDbEntity
  8
図枠細線
  6
CONTINUOUS
 62
   252
100
AcDbLine
 10
268.858592505185
 20
0.927377675439
 30
0.0
 11
268.858592505185
 21
15.927375675439
 31
0.0
  0
LINE
  5
86
330
65
100
AcDbEntity
  8
図枠細線
  6
CONTINUOUS
 62
   252
100
AcDbLine
 10
250.858592505185
 20
0.927377675439
 30
0.0
 11
250.858592505185
 21
15.927375675439
 31
0.0
  0
LINE
  5
87
330
65
100
AcDbEntity
  8
図枠細線
  6
CONTINUOUS
 62
   252
100
AcDbLine
 10
273.858592505185
 20
30.927375675439
 30
0.0
 11
273.858592505185
 21
15.927375675439
 31
0.0
  0
LINE
  5
88
330
65
100
AcDbEntity
  8
図枠細線
  6
CONTINUOUS
 62
   252
100
AcDbLine
 10
259.858592505185
 20
30.927375675439
 30
0.0
 11
259.858592505185
 21
15.927375675439
 31
0.0
  0
LINE
  5
89
330
65
100
AcDbEntity
  8
図枠細線
  6
CONTINUOUS
 62
   252
100
AcDbLine
 10
245.858592505185
 20
30.927375675439
 30
0.0
 11
245.858592505185
 21
15.927375675439
 31
0.0
  0
LINE
  5
8A
330
65
100
AcDbEntity
  8
図枠太線
  6
CONTINUOUS
 62
   251
100
AcDbLine
 10
231.858592505185
 20
0.927377675439
 30
0.0
 11
231.858592505185
 21
30.927375675439
 31
0.0
  0
LINE
  5
8B
330
65
100
AcDbEntity
  8
図枠細線
  6
CONTINUOUS
 62
   252
100
AcDbLine
 10
211.858592505185
 20
25.927375675439
 30
0.0
 11
231.858592505185
 21
25.927375675439
 31
0.0
  0
LINE
  5
8C
330
65
100
AcDbEntity
  8
図枠細線
  6
CONTINUOUS
 62
   252
100
AcDbLine
 10
211.858592505185
 20
20.927375675439
 30
0.0
 11
231.858592505185
 21
20.927375675439
 31
0.0
  0
LINE
  5
8D
330
65
100
AcDbEntity
  8
図枠細線
  6
CONTINUOUS
 62
   252
100
AcDbLine
 10
211.858592505185
 20
10.927375675439
 30
0.0
 11
231.858592505185
 21
10.927375675439
 31
0.0
  0
LINE
  5
8E
330
65
100
AcDbEntity
  8
図枠細線
  6
CONTINUOUS
 62
   252
100
AcDbLine
 10
211.858592505185
 20
5.927377675439
 30
0.0
 11
231.858592505185
 21
5.927377675439
 31
0.0
  0
LINE
  5
8F
330
65
100
AcDbEntity
  8
図枠太線
  6
CONTINUOUS
 62
   251
100
AcDbLine
 10
211.858592505185
 20
30.927375675439
 30
0.0
 11
401.858584505185
 21
30.927375675439
 31
0.0
  0
LINE
  5
90
330
65
100
AcDbEntity
  8
図枠太線
  6
CONTINUOUS
 62
   251
100
AcDbLine
 10
1.858584505185
 20
275.927375675439
 30
0.0
 11
401.858584505185
 21
275.927375675439
 31
0.0
  0
LINE
  5
91
330
65
100
AcDbEntity
  8
図枠太線
  6
CONTINUOUS
 62
   251
100
AcDbLine
 10
401.858584505185
 20
0.927375675439
 30
0.0
 11
401.858584505185
 21
275.927375675439
 31
0.0
  0
LINE
  5
92
330
65
100
AcDbEntity
  8
図枠太線
  6
CONTINUOUS
 62
   251
100
AcDbLine
 10
1.858584505185
 20
0.927375675439
 30
0.0
 11
401.858584505185
 21
0.927375675439
 31
0.0
  0
ENDBLK
  5
94
330
65
100
AcDbEntity
  8
0
100
AcDbBlockEnd
  0
BLOCK
  5
29C0
330
29BF
100
AcDbEntity
  8
0
100
AcDbBlockBegin
  2
A4横用_タイトル
 70
     0
 10
0.0
 20
0.0
 30
0.0
  3
A4横用_タイトル
  1
A4横用_タイトル
  0
LINE
  5
29C1
330
29BF
100
AcDbEntity
  8
図枠細線
  6
CONTINUOUS
100
AcDbLine
 10
75.061011071051
 20
16.806607253358
 30
0.0
 11
144.061011071051
 21
16.806604789072
 31
0.0
  0
LINE
  5
29C2
330
29BF
100
AcDbEntity
  8
図枠細線
  6
CONTINUOUS
 62
   252
100
AcDbLine
 10
4.061011071051
 20
11.806606253358
 30
0.0
 11
75.061011071051
 21
11.806606253358
 31
0.0
  0
LINE
  5
29C3
330
29BF
100
AcDbEntity
  8
図枠細線
  6
CONTINUOUS
 62
   252
100
AcDbLine
 10
4.061011071051
 20
21.806606253358
 30
0.0
 11
75.061011071051
 21
21.806606253358
 31
0.0
  0
LINE
  5
29C4
330
29BF
100
AcDbEntity
  8
図枠細線
  6
CONTINUOUS
 62
   252
100
AcDbLine
 10
4.061011071051
 20
26.806606253358
 30
0.0
 11
75.061011071051
 21
26.806606253358
 31
0.0
  0
LINE
  5
29C5
330
29BF
100
AcDbEntity
  8
図枠細線
  6
CONTINUOUS
100
AcDbLine
 10
4.061011071051
 20
16.806608253358
 30
0.0
 11
75.061011071051
 21
16.806608253358
 31
0.0
  0
TEXT
  5
29C6
330
29BF
100
AcDbEntity
  8
図枠細線
  6
CONTINUOUS
 62
   252
100
AcDbText
 10
76.405475827713
 20
9.560308253358
 30
0.0
 40
2.0
  1
ＴＨＩＲＤ　ＡＮＧＬＥ
 41
0.691099486738
  7
EXCADSTD
 72
     5
 11
94.005476089973
 21
9.560308253358
 31
0.0
100
AcDbText
  0
TEXT
  5
29C7
330
29BF
100
AcDbEntity
  8
図枠細線
  6
CONTINUOUS
 62
   252
100
AcDbText
 10
76.705775880921
 20
14.306608253358
 30
0.0
 40
2.0
  1
第三角法
 41
1.102941176471
  7
EXCADSTD
 72
     5
 11
86.705775880921
 21
14.306608253358
 31
0.0
100
AcDbText
  0
TEXT
  5
29C8
330
29BF
100
AcDbEntity
  8
図枠細線
  6
CONTINUOUS
 62
   252
100
AcDbText
 10
76.705775880921
 20
26.806608253358
 30
0.0
 40
2.0
  1
ＡＰＰＲＯＶＥＤ
 41
0.695652184279
  7
EXCADSTD
 72
     5
 11
89.505776071656
 21
26.806608253358
 31
0.0
100
AcDbText
  0
TEXT
  5
29C9
330
29BF
100
AcDbEntity
  8
図枠細線
  6
CONTINUOUS
 62
   252
100
AcDbText
 10
76.705775880921
 20
29.306608253358
 30
0.0
 40
2.0
  1
承認
 41
1.171875
  7
EXCADSTD
 72
     5
 11
81.705775880921
 21
29.306608253358
 31
0.0
100
AcDbText
  0
LINE
  5
29CA
330
29BF
100
AcDbEntity
  8
図枠細線
  6
CONTINUOUS
 62
   252
100
AcDbLine
 10
98.061011071051
 20
31.806606253358
 30
0.0
 11
98.061011071051
 21
16.806606253358
 31
0.0
  0
TEXT
  5
29CB
330
29BF
100
AcDbEntity
  8
図枠細線
  6
CONTINUOUS
 62
   252
100
AcDbText
 10
104.216531119804
 20
14.306608253358
 30
0.0
 40
2.0
  1
ＳＣＡＬＥ
 41
0.903614457831
  7
EXCADSTD
 72
     5
 11
114.216531119804
 21
14.306608253358
 31
0.0
100
AcDbText
  0
TEXT
  5
29CC
330
29BF
100
AcDbEntity
  8
図枠細線
  6
CONTINUOUS
 62
   252
100
AcDbText
 10
98.844044119804
 20
14.306608253358
 30
0.0
 40
2.0
  1
尺度
 41
1.171875
  7
EXCADSTD
 72
     5
 11
103.844044119804
 21
14.306608253358
 31
0.0
100
AcDbText
  0
TEXT
  5
29CD
330
29BF
100
AcDbEntity
  8
図枠細線
  6
CONTINUOUS
 62
   252
100
AcDbText
 10
98.968727707497
 20
26.806608253358
 30
0.0
 40
2.0
  1
ＣＨＥＣＫＥＤ
 41
0.831249989569
  7
EXCADSTD
 72
     5
 11
112.268727540604
 21
26.806608253358
 31
0.0
100
AcDbText
  0
TEXT
  5
29CE
330
29BF
100
AcDbEntity
  8
図枠細線
  6
CONTINUOUS
 62
   252
100
AcDbText
 10
98.968727707497
 20
29.306608253358
 30
0.0
 40
2.0
  1
検図
 41
1.209677419355
  7
EXCADSTD
 72
     5
 11
103.968727707497
 21
29.306608253358
 31
0.0
100
AcDbText
  0
LINE
  5
29CF
330
29BF
100
AcDbEntity
  8
図枠細線
  6
CONTINUOUS
 62
   252
100
AcDbLine
 10
121.061011071051
 20
31.806606253358
 30
0.0
 11
121.061011071051
 21
16.806606253358
 31
0.0
  0
TEXT
  5
29D0
330
29BF
100
AcDbEntity
  8
図枠細線
  6
CONTINUOUS
 62
   252
100
AcDbText
 10
128.001465247253
 20
14.306608253358
 30
0.0
 40
2.0
  1
ＤＡＴＥ
 41
0.923076923077
  7
EXCADSTD
 72
     5
 11
136.001465247253
 21
14.306608253358
 31
0.0
100
AcDbText
  0
TEXT
  5
29D1
330
29BF
100
AcDbEntity
  8
図枠細線
  6
CONTINUOUS
 62
   252
100
AcDbText
 10
122.066415498841
 20
14.306608253358
 30
0.0
 40
2.0
  1
日付
 41
1.171875
  7
EXCADSTD
 72
     5
 11
127.066415498841
 21
14.306608253358
 31
0.0
100
AcDbText
  0
TEXT
  5
29D2
330
29BF
100
AcDbEntity
  8
図枠細線
  6
CONTINUOUS
 62
   252
100
AcDbText
 10
121.59429406571
 20
29.306608253358
 30
0.0
 40
2.0
  1
製図
 41
1.209677419355
  7
EXCADSTD
 72
     5
 11
126.59429406571
 21
29.306608253358
 31
0.0
100
AcDbText
  0
TEXT
  5
29D3
330
29BF
100
AcDbEntity
  8
図枠細線
  6
CONTINUOUS
 62
   252
100
AcDbText
 10
121.59429406571
 20
26.806608253358
 30
0.0
 40
2.0
  1
ＤＲＡＷＮ
 41
0.882352941176
  7
EXCADSTD
 72
     5
 11
131.59429406571
 21
26.806608253358
 31
0.0
100
AcDbText
  0
TEXT
  5
29D4
330
29BF
100
AcDbEntity
  8
図枠細線
  6
CONTINUOUS
 62
   252
100
AcDbText
 10
226.591229661348
 20
14.306608253358
 30
0.0
 40
2.0
  1
ＤＲＧ．ＮＯ．
 41
0.9375
  7
EXCADSTD
 72
     5
 11
240.591229661348
 21
14.306608253358
 31
0.0
100
AcDbText
  0
LINE
  5
29D5
330
29BF
100
AcDbEntity
  8
図枠太線
  6
CONTINUOUS
 62
   251
100
AcDbLine
 10
144.061003071051
 20
16.806606253358
 30
0.0
 11
214.061011071051
 21
16.806606253358
 31
0.0
  0
LINE
  5
29D6
330
29BF
100
AcDbEntity
  8
図枠細線
  6
CONTINUOUS
 62
   252
100
AcDbLine
 10
144.061011071051
 20
24.306606253358
 30
0.0
 11
214.061011071051
 21
24.306606253358
 31
0.0
  0
TEXT
  5
29D7
330
29BF
100
AcDbEntity
  8
図枠ロゴマーク
  6
CONTINUOUS
 62
   253
100
AcDbText
 10
146.433776781596
 20
8.399000253358
 30
0.0
 40
7.0
  1
東和制電工業株式会社
 41
0.80361088462
  7
EXCADSTD
 72
     5
 11
212.437017438349
 21
8.399000253358
 31
0.0
100
AcDbText
  0
TEXT
  5
29D8
330
29BF
100
AcDbEntity
  8
図枠細線
  6
CONTINUOUS
 62
   252
100
AcDbText
 10
215.156179912936
 20
14.306608253358
 30
0.0
 40
2.0
  1
図面番号
 41
1.102941176471
  7
EXCADSTD
 72
     5
 11
225.156179912936
 21
14.306608253358
 31
0.0
100
AcDbText
  0
TEXT
  5
29D9
330
29BF
100
AcDbEntity
  8
図枠細線
  6
CONTINUOUS
 62
   252
100
AcDbText
 10
221.591229661348
 20
29.306608253358
 30
0.0
 40
2.0
  1
ＴＩＴＬＥ
 41
0.903614457831
  7
EXCADSTD
 72
     5
 11
231.591229661348
 21
29.306608253358
 31
0.0
100
AcDbText
  0
TEXT
  5
29DA
330
29BF
100
AcDbEntity
  8
図枠細線
  6
CONTINUOUS
 62
   252
100
AcDbText
 10
215.156179912936
 20
29.306608253358
 30
0.0
 40
2.0
  1
名称
 41
1.171875
  7
EXCADSTD
 72
     5
 11
220.156179912936
 21
29.306608253358
 31
0.0
100
AcDbText
  0
LINE
  5
29DB
330
29BF
100
AcDbEntity
  8
図枠太線
  6
CONTINUOUS
 62
   251
100
AcDbLine
 10
4.061011071051
 20
1.806608253358
 30
0.0
 11
284.061011071051
 21
1.806608253358
 31
0.0
  0
LINE
  5
29DC
330
29BF
100
AcDbEntity
  8
図枠細線
  6
CONTINUOUS
 62
   252
100
AcDbLine
 10
4.061011071051
 20
6.806608253358
 30
0.0
 11
75.061011071051
 21
6.806608253358
 31
0.0
  0
LINE
  5
29DD
330
29BF
100
AcDbEntity
  8
図枠太線
  6
CONTINUOUS
 62
   251
100
AcDbLine
 10
75.061011071051
 20
1.806608253358
 30
0.0
 11
75.061011071051
 21
31.806606253358
 31
0.0
  0
TEXT
  5
29DE
330
29BF
100
AcDbEntity
  8
図枠細線
  6
CONTINUOUS
 62
   252
100
AcDbText
 10
76.330551827713
 20
6.638319253358
 30
0.0
 40
2.0
  1
ＰＲＯＪＥＣＴＩＯＮ
 41
0.754285710199
  7
EXCADSTD
 72
     5
 11
93.930551732346
 21
6.638319253358
 31
0.0
100
AcDbText
  0
LINE
  5
29DF
330
29BF
100
AcDbEntity
  8
図枠細線
  6
CONTINUOUS
 62
   252
100
AcDbLine
 10
98.061011071051
 20
1.806606931929
 30
0.0
 11
98.061011071051
 21
16.806604931929
 31
0.0
  0
LINE
  5
29E0
330
29BF
100
AcDbEntity
  8
図枠細線
  6
CONTINUOUS
 62
   252
100
AcDbLine
 10
121.061011071051
 20
1.806607574787
 30
0.0
 11
121.061011071051
 21
16.806605574787
 31
0.0
  0
LINE
  5
29E1
330
29BF
100
AcDbEntity
  8
図枠太線
  6
CONTINUOUS
 62
   251
100
AcDbLine
 10
284.061011071051
 20
1.806608253358
 30
0.0
 11
284.061011071051
 21
31.806606253358
 31
0.0
  0
LINE
  5
29E2
330
29BF
100
AcDbEntity
  8
図枠細線
  6
CONTINUOUS
 62
   252
100
AcDbLine
 10
214.061011071051
 20
16.806606253358
 30
0.0
 11
284.061011071051
 21
16.806606253358
 31
0.0
  0
TEXT
  5
29E3
330
29BF
100
AcDbEntity
  8
図枠細線
  6
CONTINUOUS
 62
   252
100
AcDbText
 10
146.199593676182
 20
3.454099253358
 30
0.0
 40
3.5
  1
ＴＯＷＡ　ＳＥＩＤＥＮ　ＩＮＤＵＳＴＲＩＡＬ　ＣＯ．，ＬＴＤ．
 41
0.528937826907
  7
EXCADSTD
 72
     5
 11
213.339435171588
 21
3.454099253358
 31
0.0
100
AcDbText
  0
LINE
  5
29E4
330
29BF
100
AcDbEntity
  8
図枠太線
  6
CONTINUOUS
 62
   251
100
AcDbLine
 10
144.061011071051
 20
1.806608253358
 30
0.0
 11
144.061011071051
 21
31.806606253358
 31
0.0
  0
LINE
  5
29E5
330
29BF
100
AcDbEntity
  8
図枠太線
  6
CONTINUOUS
 62
   251
100
AcDbLine
 10
214.061011071051
 20
1.806608253358
 30
0.0
 11
214.061011071051
 21
31.806606253358
 31
0.0
  0
MTEXT
  5
29E6
330
29BF
100
AcDbEntity
  8
図枠太線
100
AcDbMText
 10
5.064337346478
 20
31.010982137407
 30
0.0
 40
2.5
 41
8.67856098472
 71
     1
 72
     5
  1
{\Fmonotxt.shx,bigfont.shx|c128;図暦}
  0
LINE
  5
29E7
330
29BF
100
AcDbEntity
  8
図枠太線
  6
CONTINUOUS
 62
   251
100
AcDbLine
 10
4.061011071051
 20
1.806608253358
 30
0.0
 11
4.061011071051
 21
31.806606253358
 31
0.0
  0
TEXT
  5
29E8
330
29BF
100
AcDbEntity
  8
図枠細線
 48
10.0
100
AcDbText
 10
12.260817420402
 20
28.625419626495
 30
0.0
 40
2.0
  1
CHANGE NOTICE
100
AcDbText
  0
ENDBLK
  5
29E9
330
29BF
100
AcDbEntity
  8
0
100
AcDbBlockEnd
  0
BLOCK
  5
29F5
330
29F4
100
AcDbEntity
  8
0
100
AcDbBlockBegin
  2
A4縦用_タイトル
 70
     0
 10
0.0
 20
0.0
 30
0.0
  3
A4縦用_タイトル
  1
A4縦用_タイトル
  0
LINE
  5
29F6
330
29F4
100
AcDbEntity
  8
図枠太線
  6
CONTINUOUS
 62
   251
100
AcDbLine
 10
2.368253864267
 20
4.525433224584
 30
0.0
 11
192.368245864267
 21
4.525433224584
 31
0.0
  0
LINE
  5
29F7
330
29F4
100
AcDbEntity
  8
図枠太線
  6
CONTINUOUS
 62
   251
100
AcDbLine
 10
78.368245864267
 20
19.525431224584
 30
0.0
 11
135.368253864267
 21
19.525431224584
 31
0.0
  0
LINE
  5
29F8
330
29F4
100
AcDbEntity
  8
図枠細線
  6
CONTINUOUS
 62
   252
100
AcDbLine
 10
78.368253864267
 20
27.025431224584
 30
0.0
 11
135.368253864267
 21
27.025431224584
 31
0.0
  0
TEXT
  5
29F9
330
29F4
100
AcDbEntity
  8
図枠ロゴマーク
  6
CONTINUOUS
 62
   253
100
AcDbText
 10
80.617009864267
 20
11.117825224584
 30
0.0
 40
7.0
  1
東和制電工業株式会社
 41
0.639204545455
  7
EXCADSTD
 72
     5
 11
133.117009864267
 21
11.117825224584
 31
0.0
100
AcDbText
  0
TEXT
  5
29FA
330
29F4
100
AcDbEntity
  8
図枠細線
  6
CONTINUOUS
 62
   252
100
AcDbText
 10
80.579549864267
 20
6.172924224584
 30
0.0
 40
3.5
  1
ＴＯＷＡ　ＳＥＩＤＥＮ　ＩＮＤＵＳＴＲＩＡＬ　ＣＯ．，ＬＴＤ．
 41
0.414568012377
  7
EXCADSTD
 72
     5
 11
133.202049568628
 21
6.172924224584
 31
0.0
100
AcDbText
  0
LINE
  5
29FB
330
29F4
100
AcDbEntity
  8
図枠太線
  6
CONTINUOUS
 62
   251
100
AcDbLine
 10
2.368253864267
 20
4.525433224584
 30
0.0
 11
2.368253864267
 21
34.525431224584
 31
0.0
  0
TEXT
  5
29FC
330
29F4
100
AcDbEntity
  8
図枠細線
  6
CONTINUOUS
 62
   252
100
AcDbText
 10
22.504308136501
 20
12.279133224584
 30
0.0
 40
2.0
  1
ＴＨＩＲＤ　ＡＮＧＬＥ
 41
0.691099486738
  7
EXCADSTD
 72
     5
 11
40.104308398762
 21
12.279133224584
 31
0.0
100
AcDbText
  0
TEXT
  5
29FD
330
29F4
100
AcDbEntity
  8
図枠細線
  6
CONTINUOUS
 62
   252
100
AcDbText
 10
22.429384136501
 20
9.357144224584
 30
0.0
 40
2.0
  1
ＰＲＯＪＥＣＴＩＯＮ
 41
0.754285710199
  7
EXCADSTD
 72
     5
 11
40.029384041134
 21
9.357144224584
 31
0.0
100
AcDbText
  0
LINE
  5
29FE
330
29F4
100
AcDbEntity
  8
図枠細線
  6
CONTINUOUS
100
AcDbLine
 10
22.368253864267
 20
19.525433224584
 30
0.0
 11
78.368253864267
 21
19.525431224584
 31
0.0
  0
TEXT
  5
29FF
330
29F4
100
AcDbEntity
  8
図枠細線
  6
CONTINUOUS
 62
   252
100
AcDbText
 10
22.868253864267
 20
17.025433224584
 30
0.0
 40
2.0
  1
第三角法
 41
1.102941176471
  7
EXCADSTD
 72
     5
 11
32.868253864267
 21
17.025433224584
 31
0.0
100
AcDbText
  0
TEXT
  5
2A00
330
29F4
100
AcDbEntity
  8
図枠細線
  6
CONTINUOUS
 62
   252
100
AcDbText
 10
22.868253864267
 20
29.525433224584
 30
0.0
 40
2.0
  1
ＡＰＰＲＯＶＥＤ
 41
0.695652184279
  7
EXCADSTD
 72
     5
 11
35.668254055002
 21
29.525433224584
 31
0.0
100
AcDbText
  0
LINE
  5
2A01
330
29F4
100
AcDbEntity
  8
図枠細線
  6
CONTINUOUS
 62
   252
100
AcDbLine
 10
2.368253864267
 20
9.525433224584
 30
0.0
 11
22.368253864267
 21
9.525433224584
 31
0.0
  0
LINE
  5
2A02
330
29F4
100
AcDbEntity
  8
図枠細線
  6
CONTINUOUS
 62
   252
100
AcDbLine
 10
2.368253864267
 20
14.525431224584
 30
0.0
 11
22.368253864267
 21
14.525431224584
 31
0.0
  0
LINE
  5
2A03
330
29F4
100
AcDbEntity
  8
図枠細線
  6
CONTINUOUS
 62
   252
100
AcDbLine
 10
2.368253864267
 20
24.525431224584
 30
0.0
 11
22.368253864267
 21
24.525431224584
 31
0.0
  0
LINE
  5
2A04
330
29F4
100
AcDbEntity
  8
図枠細線
  6
CONTINUOUS
 62
   252
100
AcDbLine
 10
2.368253864267
 20
29.525431224584
 30
0.0
 11
22.368253864267
 21
29.525431224584
 31
0.0
  0
LINE
  5
2A05
330
29F4
100
AcDbEntity
  8
図枠細線
  6
CONTINUOUS
100
AcDbLine
 10
2.368253864267
 20
19.525433224584
 30
0.0
 11
22.368253864267
 21
19.525433224584
 31
0.0
  0
TEXT
  5
2A06
330
29F4
100
AcDbEntity
  8
図枠細線
  6
CONTINUOUS
 62
   252
100
AcDbText
 10
2.868253864267
 20
32.025433224584
 30
0.0
 40
2.0
  1
ＮＯＴＥ
 41
0.923076923077
  7
EXCADSTD
 72
     5
 11
10.868253864267
 21
32.025433224584
 31
0.0
100
AcDbText
  0
LINE
  5
2A07
330
29F4
100
AcDbEntity
  8
図枠太線
  6
CONTINUOUS
 62
   251
100
AcDbLine
 10
22.368253864267
 20
4.525433224584
 30
0.0
 11
22.368253864267
 21
34.525431224584
 31
0.0
  0
TEXT
  5
2A08
330
29F4
100
AcDbEntity
  8
図枠細線
  6
CONTINUOUS
 62
   252
100
AcDbText
 10
22.868253864267
 20
32.025433224584
 30
0.0
 40
2.0
  1
承認
 41
1.171875
  7
EXCADSTD
 72
     5
 11
27.868253864267
 21
32.025433224584
 31
0.0
100
AcDbText
  0
TEXT
  5
2A09
330
29F4
100
AcDbEntity
  8
図枠細線
  6
CONTINUOUS
 62
   252
100
AcDbText
 10
60.711709035982
 20
32.025433224584
 30
0.0
 40
2.0
  1
製図
 41
1.209677419355
  7
EXCADSTD
 72
     5
 11
65.711709035982
 21
32.025433224584
 31
0.0
100
AcDbText
  0
TEXT
  5
2A0A
330
29F4
100
AcDbEntity
  8
図枠細線
  6
CONTINUOUS
 62
   252
100
AcDbText
 10
60.711709035982
 20
29.525433224584
 30
0.0
 40
2.0
  1
ＤＲＡＷＮ
 41
0.882352941176
  7
EXCADSTD
 72
     5
 11
70.711709035982
 21
29.525433224584
 31
0.0
100
AcDbText
  0
TEXT
  5
2A0B
330
29F4
100
AcDbEntity
  8
図枠細線
  6
CONTINUOUS
 62
   252
100
AcDbText
 10
60.834891743877
 20
17.025433224584
 30
0.0
 40
2.0
  1
日付
 41
1.171875
  7
EXCADSTD
 72
     5
 11
65.834891743877
 21
17.025433224584
 31
0.0
100
AcDbText
  0
TEXT
  5
2A0C
330
29F4
100
AcDbEntity
  8
図枠細線
  6
CONTINUOUS
 62
   252
100
AcDbText
 10
47.333660864267
 20
17.025433224584
 30
0.0
 40
2.0
  1
ＳＣＡＬＥ
 41
0.903614457831
  7
EXCADSTD
 72
     5
 11
57.333660864267
 21
17.025433224584
 31
0.0
100
AcDbText
  0
TEXT
  5
2A0D
330
29F4
100
AcDbEntity
  8
図枠細線
  6
CONTINUOUS
 62
   252
100
AcDbText
 10
42.281425990082
 20
29.525433224584
 30
0.0
 40
2.0
  1
ＣＨＥＣＫＥＤ
 41
0.831249989569
  7
EXCADSTD
 72
     5
 11
55.581425823189
 21
29.525433224584
 31
0.0
100
AcDbText
  0
LINE
  5
2A0E
330
29F4
100
AcDbEntity
  8
図枠細線
  6
CONTINUOUS
 62
   252
100
AcDbLine
 10
40.968253864267
 20
34.525431224584
 30
0.0
 11
40.968253864267
 21
19.525431224584
 31
0.0
  0
LINE
  5
2A0F
330
29F4
100
AcDbEntity
  8
図枠細線
  6
CONTINUOUS
 62
   252
100
AcDbLine
 10
40.968253864267
 20
4.525433224584
 30
0.0
 11
40.968253864267
 21
19.525431224584
 31
0.0
  0
TEXT
  5
2A10
330
29F4
100
AcDbEntity
  8
図枠細線
  6
CONTINUOUS
 62
   252
100
AcDbText
 10
41.961173864267
 20
17.025433224584
 30
0.0
 40
2.0
  1
尺度
 41
1.171875
  7
EXCADSTD
 72
     5
 11
46.961173864267
 21
17.025433224584
 31
0.0
100
AcDbText
  0
TEXT
  5
2A11
330
29F4
100
AcDbEntity
  8
図枠細線
  6
CONTINUOUS
 62
   252
100
AcDbText
 10
42.281425990082
 20
32.025433224584
 30
0.0
 40
2.0
  1
検図
 41
1.209677419355
  7
EXCADSTD
 72
     5
 11
47.281425990082
 21
32.025433224584
 31
0.0
100
AcDbText
  0
LINE
  5
2A12
330
29F4
100
AcDbEntity
  8
図枠細線
  6
CONTINUOUS
 62
   252
100
AcDbLine
 10
59.768253864267
 20
34.525431224584
 30
0.0
 11
59.768253864267
 21
19.525431224584
 31
0.0
  0
LINE
  5
2A13
330
29F4
100
AcDbEntity
  8
図枠細線
  6
CONTINUOUS
 62
   252
100
AcDbLine
 10
59.768253864267
 20
4.525433224584
 30
0.0
 11
59.768253864267
 21
19.525431224584
 31
0.0
  0
LINE
  5
2A14
330
29F4
100
AcDbEntity
  8
図枠太線
  6
CONTINUOUS
 62
   251
100
AcDbLine
 10
78.368253864267
 20
4.525433224584
 30
0.0
 11
78.368253864267
 21
34.525431224584
 31
0.0
  0
TEXT
  5
2A15
330
29F4
100
AcDbEntity
  8
図枠細線
  6
CONTINUOUS
 62
   252
100
AcDbText
 10
66.334891743877
 20
17.025433224584
 30
0.0
 40
2.0
  1
ＤＡＴＥ
 41
0.923076923077
  7
EXCADSTD
 72
     5
 11
74.334891743877
 21
17.025433224584
 31
0.0
100
AcDbText
  0
LINE
  5
2A16
330
29F4
100
AcDbEntity
  8
図枠細線
  6
CONTINUOUS
 62
   252
100
AcDbLine
 10
135.368253864267
 20
19.525431224584
 30
0.0
 11
192.368245864267
 21
19.525431224584
 31
0.0
  0
TEXT
  5
2A17
330
29F4
100
AcDbEntity
  8
図枠細線
  6
CONTINUOUS
 62
   252
100
AcDbText
 10
141.868253864267
 20
32.025433224584
 30
0.0
 40
2.0
  1
ＴＩＴＬＥ
 41
0.903614457831
  7
EXCADSTD
 72
     5
 11
151.868253864267
 21
32.025433224584
 31
0.0
100
AcDbText
  0
LINE
  5
2A18
330
29F4
100
AcDbEntity
  8
図枠太線
  6
CONTINUOUS
 62
   251
100
AcDbLine
 10
135.368253864267
 20
4.525433224584
 30
0.0
 11
135.368253864267
 21
34.525431224584
 31
0.0
  0
TEXT
  5
2A19
330
29F4
100
AcDbEntity
  8
図枠細線
  6
CONTINUOUS
 62
   252
100
AcDbText
 10
135.868253864267
 20
17.025433224584
 30
0.0
 40
2.0
  1
図面番号
 41
1.102941176471
  7
EXCADSTD
 72
     5
 11
145.868253864267
 21
17.025433224584
 31
0.0
100
AcDbText
  0
TEXT
  5
2A1A
330
29F4
100
AcDbEntity
  8
図枠細線
  6
CONTINUOUS
 62
   252
100
AcDbText
 10
135.868253864267
 20
32.025433224584
 30
0.0
 40
2.0
  1
名称
 41
1.171875
  7
EXCADSTD
 72
     5
 11
140.868253864267
 21
32.025433224584
 31
0.0
100
AcDbText
  0
TEXT
  5
2A1B
330
29F4
100
AcDbEntity
  8
図枠細線
  6
CONTINUOUS
 62
   252
100
AcDbText
 10
146.868253864267
 20
17.025433224584
 30
0.0
 40
2.0
  1
ＤＲＧ．ＮＯ．
 41
0.9375
  7
EXCADSTD
 72
     5
 11
160.868253864267
 21
17.025433224584
 31
0.0
100
AcDbText
  0
LINE
  5
2A1C
330
29F4
100
AcDbEntity
  8
図枠太線
  6
CONTINUOUS
 62
   251
100
AcDbLine
 10
192.368245864267
 20
4.525433224584
 30
0.0
 11
192.368245864267
 21
34.525431224584
 31
0.0
  0
ENDBLK
  5
2A1D
330
29F4
100
AcDbEntity
  8
0
100
AcDbBlockEnd
  0
BLOCK
  5
2A33
330
2A32
100
AcDbEntity
  8
0
100
AcDbBlockBegin
  2
A3横用_タイトル
 70
     0
 10
0.0
 20
0.0
 30
0.0
  3
A3横用_タイトル
  1
A3横用_タイトル
  0
LINE
  5
2A34
330
2A32
100
AcDbEntity
  8
図枠細線
  6
CONTINUOUS
 62
   252
100
AcDbLine
 10
205.098414535793
 20
33.525959753527
 30
0.0
 11
305.098414535793
 21
33.525959753527
 31
0.0
  0
LINE
  5
2A35
330
2A32
100
AcDbEntity
  8
図枠太線
  6
CONTINUOUS
 62
   251
100
AcDbLine
 10
205.098414535793
 20
23.525959753527
 30
0.0
 11
305.098414535793
 21
23.525959753527
 31
0.0
  0
LINE
  5
2A36
330
2A32
100
AcDbEntity
  8
図枠細線
  6
CONTINUOUS
100
AcDbLine
 10
5.098414535793
 20
23.525959753527
 30
0.0
 11
105.098414535793
 21
23.525959753527
 31
0.0
  0
LINE
  5
2A37
330
2A32
100
AcDbEntity
  8
図枠細線
  6
CONTINUOUS
 62
   252
100
AcDbLine
 10
5.098414535793
 20
36.725957753527
 30
0.0
 11
105.098414535793
 21
36.725957753527
 31
0.0
  0
LINE
  5
2A38
330
2A32
100
AcDbEntity
  8
図枠細線
  6
CONTINUOUS
 62
   252
100
AcDbLine
 10
5.098414535793
 20
30.125957753527
 30
0.0
 11
105.098414535793
 21
30.125957753527
 31
0.0
  0
LINE
  5
2A39
330
2A32
100
AcDbEntity
  8
図枠細線
  6
CONTINUOUS
 62
   252
100
AcDbLine
 10
5.098414535793
 20
16.725959753527
 30
0.0
 11
105.098414535793
 21
16.725959753527
 31
0.0
  0
LINE
  5
2A3A
330
2A32
100
AcDbEntity
  8
図枠細線
  6
CONTINUOUS
 62
   252
100
AcDbLine
 10
5.098414535793
 20
10.125959753527
 30
0.0
 11
105.098414535793
 21
10.125959753527
 31
0.0
  0
LINE
  5
2A3B
330
2A32
100
AcDbEntity
  8
図枠細線
  6
CONTINUOUS
100
AcDbLine
 10
105.098414535793
 20
23.525961753527
 30
0.0
 11
205.098414535793
 21
23.525959753527
 31
0.0
  0
LINE
  5
2A3C
330
2A32
100
AcDbEntity
  8
図枠細線
  6
CONTINUOUS
 62
   252
100
AcDbLine
 10
138.398414535793
 20
43.525959753527
 30
0.0
 11
138.398414535793
 21
18.525957753527
 31
0.0
  0
LINE
  5
2A3D
330
2A32
100
AcDbEntity
  8
図枠細線
  6
CONTINUOUS
 62
   252
100
AcDbLine
 10
171.698414535793
 20
43.525959753527
 30
0.0
 11
171.698414535793
 21
18.525957753527
 31
0.0
  0
LINE
  5
2A3E
330
2A32
100
AcDbEntity
  8
図枠細線
  6
CONTINUOUS
 62
   252
100
AcDbLine
 10
305.098414535793
 20
23.525959753527
 30
0.0
 11
405.098414535793
 21
23.525959753527
 31
0.0
  0
TEXT
  5
2A3F
330
2A32
100
AcDbEntity
  8
図枠ロゴマーク
  6
CONTINUOUS
 62
   253
100
AcDbText
 10
206.102509212755
 20
13.294257570546
 30
0.0
 40
7.0
  1
東和制電工業株式会社
 50
0.016555220185
 41
1.186384129432
  7
EXCADSTD
 72
     5
 11
303.544188309143
 21
13.322412672217
 31
0.0
100
AcDbText
  0
MTEXT
  5
2A40
330
2A32
100
AcDbEntity
  8
図枠細線
100
AcDbMText
 10
6.356764112375
 20
41.976594175478
 30
0.0
 40
2.5
 41
49.938282706292
 71
     1
 72
     5
  1
{\Fmonotxt.shx,bigfont.shx|c128;図暦　CHANGE　NOTICE}
  0
MTEXT
  5
2A41
330
2A32
100
AcDbEntity
  8
図枠細線
 48
10.0
100
AcDbMText
 10
306.544114926828
 20
41.701835800934
 30
0.0
 40
2.5
 41
28.002809618823
 71
     1
 72
     5
  1
{\Fmonotxt.shx,bigfont.shx|c128;名称　TITLE}
  0
MTEXT
  5
2A42
330
2A32
100
AcDbEntity
  8
図枠細線
 48
10.0
100
AcDbMText
 10
307.329617114284
 20
21.606206797226
 30
0.0
 40
2.5
 41
24.385612216707
 71
     1
 72
     5
  1
{\Fmonotxt.shx,bigfont.shx|c128;図面番号\PDRG.　No.}
  0
MTEXT
  5
2A43
330
2A32
100
AcDbEntity
  8
図枠細線
 48
10.0
100
AcDbMText
 10
173.726349404609
 20
21.73680662198
 30
0.0
 40
2.5
 41
25.735090160813
 71
     1
 72
     5
  1
{\Fmonotxt.shx,bigfont.shx|c128;日付 DATE}
  0
MTEXT
  5
2A44
330
2A32
100
AcDbEntity
  8
図枠細線
 48
10.0
100
AcDbMText
 10
173.48708833982
 20
41.621592044998
 30
0.0
 40
2.5
 41
24.983741184205
 71
     1
 72
     5
  1
{\Fmonotxt.shx,bigfont.shx|c128;製図　DRAWN}
  0
MTEXT
  5
2A45
330
2A32
100
AcDbEntity
  8
図枠細線
 48
10.0
100
AcDbMText
 10
139.28009927741
 20
21.866713069868
 30
0.0
 40
2.5
 41
22.629632913243
 71
     1
 72
     5
  1
{\Fmonotxt.shx,bigfont.shx|c128;尺度　SCALE}
  0
MTEXT
  5
2A46
330
2A32
100
AcDbEntity
  8
図枠細線
 48
10.0
100
AcDbMText
 10
139.910091179835
 20
41.311840415554
 30
0.0
 40
2.5
 41
28.998753428368
 71
     1
 72
     5
  1
{\Fmonotxt.shx,bigfont.shx|c128;検図  CHECKED}
  0
MTEXT
  5
2A47
330
2A32
100
AcDbEntity
  8
図枠細線
 48
10.0
100
AcDbMText
 10
114.253294667728
 20
21.916124850174
 30
0.0
 40
3.0
 41
19.692400475383
 71
     1
 72
     5
  1
{\Fmonotxt.shx,bigfont.shx|c128;第三角法}
  0
MTEXT
  5
2A48
330
2A32
100
AcDbEntity
  8
図枠細線
 48
10.0
100
AcDbMText
 10
108.986959929915
 20
15.282880185837
 30
0.0
 40
2.5
 41
27.954882823547
 71
     1
 72
     5
  1
{\Fmonotxt.shx,bigfont.shx|c128;THIRD ANGLE\PPROJECTION}
  0
MTEXT
  5
2A49
330
2A32
100
AcDbEntity
  8
図枠細線
 48
10.0
100
AcDbMText
 10
106.319432640184
 20
41.511437145487
 30
0.0
 40
2.5
 41
28.233595265074
 71
     1
 72
     5
  1
{\Fmonotxt.shx,bigfont.shx|c128;承認 APPROVED}
  0
LINE
  5
2A4A
330
2A32
100
AcDbEntity
  8
図枠太線
  6
CONTINUOUS
 62
   251
100
AcDbLine
 10
5.098414535793
 20
3.525959753527
 30
0.0
 11
405.098414535793
 21
3.525959753527
 31
0.0
  0
LINE
  5
2A4B
330
2A32
100
AcDbEntity
  8
図枠太線
 48
10.0
100
AcDbLine
 10
5.098414535793
 20
3.525959753527
 30
0.0
 11
5.098414535793
 21
43.525959753527
 31
0.0
  0
LINE
  5
2A4C
330
2A32
100
AcDbEntity
  8
図枠太線
  6
CONTINUOUS
 62
   251
100
AcDbLine
 10
105.098414535793
 20
3.525959753527
 30
0.0
 11
105.098414535793
 21
43.525959753527
 31
0.0
  0
LINE
  5
2A4D
330
2A32
100
AcDbEntity
  8
図枠細線
  6
CONTINUOUS
 62
   252
100
AcDbLine
 10
138.398414535793
 20
3.525959753527
 30
0.0
 11
138.398414535793
 21
18.525957753527
 31
0.0
  0
LINE
  5
2A4E
330
2A32
100
AcDbEntity
  8
図枠細線
  6
CONTINUOUS
 62
   252
100
AcDbLine
 10
171.698414535793
 20
3.525959753527
 30
0.0
 11
171.698414535793
 21
18.525957753527
 31
0.0
  0
LINE
  5
2A4F
330
2A32
100
AcDbEntity
  8
図枠太線
  6
CONTINUOUS
 62
   251
100
AcDbLine
 10
205.098414535793
 20
3.525959753527
 30
0.0
 11
205.098414535793
 21
43.525959753527
 31
0.0
  0
LINE
  5
2A50
330
2A32
100
AcDbEntity
  8
図枠太線
 48
10.0
100
AcDbLine
 10
405.098414535793
 20
43.525959753527
 30
0.0
 11
405.098414535793
 21
3.525959753527
 31
0.0
  0
TEXT
  5
2A51
330
2A32
100
AcDbEntity
  8
図枠細線
  6
CONTINUOUS
 62
   252
100
AcDbText
 10
208.519754474572
 20
6.482358407285
 30
0.0
 40
3.5
  1
ＴＯＷＡ　ＳＥＩＤＥＮ　ＩＮＤＵＳＴＲＩＡＬ　ＣＯ．，ＬＴＤ．
 41
0.746656297509
  7
EXCADSTD
 72
     5
 11
303.295327171727
 21
6.482358407285
 31
0.0
100
AcDbText
  0
LINE
  5
2A52
330
2A32
100
AcDbEntity
  8
図枠太線
  6
CONTINUOUS
 62
   251
100
AcDbLine
 10
305.098414535793
 20
3.525959753527
 30
0.0
 11
305.098414535793
 21
43.525959753527
 31
0.0
  0
ENDBLK
  5
2A53
330
2A32
100
AcDbEntity
  8
0
100
AcDbBlockEnd
  0
BLOCK
  5
2A6D
330
2A6C
100
AcDbEntity
  8
0
100
AcDbBlockBegin
  2
A3縦用_タイトル
 70
     0
 10
0.0
 20
0.0
 30
0.0
  3
A3縦用_タイトル
  1
A3縦用_タイトル
  0
MTEXT
  5
2A6E
330
2A6C
100
AcDbEntity
  8
図枠細線
100
AcDbMText
 10
5.040804501593
 20
31.626098649005
 30
0.0
 40
2.5
 41
49.938282706292
 71
     1
 72
     5
  1
{\Fmonotxt.shx,bigfont.shx|c128;図暦　CHANGE　NOTICE}
  0
LINE
  5
2A6F
330
2A6C
100
AcDbEntity
  8
図枠太線
  6
CONTINUOUS
 62
   251
100
AcDbLine
 10
283.577871882961
 20
2.820844689254
 30
0.0
 11
283.577871882961
 21
32.820842689254
 31
0.0
  0
MTEXT
  5
2A70
330
2A6C
100
AcDbEntity
  8
図枠細線
 48
10.0
100
AcDbMText
 10
214.912458947454
 20
31.621488632308
 30
0.0
 40
2.5
 41
28.002809618823
 71
     1
 72
     5
  1
{\Fmonotxt.shx,bigfont.shx|c128;名称　TITLE}
  0
MTEXT
  5
2A71
330
2A6C
100
AcDbEntity
  8
図枠細線
 48
10.0
100
AcDbMText
 10
214.740030458938
 20
16.310225796722
 30
0.0
 40
2.5
 41
24.385612216707
 71
     1
 72
     5
  1
{\Fmonotxt.shx,bigfont.shx|c128;図面番号\PDRG.　No.}
  0
LINE
  5
2A72
330
2A6C
100
AcDbEntity
  8
図枠太線
  6
CONTINUOUS
 62
   251
100
AcDbLine
 10
213.577871882961
 20
2.820844689254
 30
0.0
 11
213.577871882961
 21
32.820842689254
 31
0.0
  0
LINE
  5
2A73
330
2A6C
100
AcDbEntity
  8
図枠太線
  6
CONTINUOUS
 62
   251
100
AcDbLine
 10
143.577871882961
 20
2.820844689254
 30
0.0
 11
143.577871882961
 21
32.820842689254
 31
0.0
  0
TEXT
  5
2A74
330
2A6C
100
AcDbEntity
  8
図枠細線
  6
CONTINUOUS
 62
   252
100
AcDbText
 10
145.716454488093
 20
4.468335689254
 30
0.0
 40
3.5
  1
ＴＯＷＡ　ＳＥＩＤＥＮ　ＩＮＤＵＳＴＲＩＡＬ　ＣＯ．，ＬＴＤ．
 41
0.528937826907
  7
EXCADSTD
 72
     5
 11
212.856295983498
 21
4.468335689254
 31
0.0
100
AcDbText
  0
TEXT
  5
2A75
330
2A6C
100
AcDbEntity
  8
図枠ロゴマーク
  6
CONTINUOUS
 62
   253
100
AcDbText
 10
145.950637593507
 20
9.413236689254
 30
0.0
 40
7.0
  1
東和制電工業株式会社
 41
0.80361088462
  7
EXCADSTD
 72
     5
 11
211.953878250259
 21
9.413236689254
 31
0.0
100
AcDbText
  0
LINE
  5
2A76
330
2A6C
100
AcDbEntity
  8
図枠細線
  6
CONTINUOUS
 62
   252
100
AcDbLine
 10
143.577871882961
 20
25.320842689254
 30
0.0
 11
213.577871882961
 21
25.320842689254
 31
0.0
  0
LINE
  5
2A77
330
2A6C
100
AcDbEntity
  8
図枠太線
  6
CONTINUOUS
 62
   251
100
AcDbLine
 10
143.577863882961
 20
17.820842689254
 30
0.0
 11
213.577871882961
 21
17.820842689254
 31
0.0
  0
LINE
  5
2A78
330
2A6C
100
AcDbEntity
  8
図枠細線
  6
CONTINUOUS
 62
   252
100
AcDbLine
 10
213.577871882961
 20
17.820842689254
 30
0.0
 11
283.577871882961
 21
17.820842689254
 31
0.0
  0
LINE
  5
2A79
330
2A6C
100
AcDbEntity
  8
図枠細線
  6
CONTINUOUS
 62
   252
100
AcDbLine
 10
120.577871882961
 20
32.820842689254
 30
0.0
 11
120.577871882961
 21
17.820842689254
 31
0.0
  0
MTEXT
  5
2A7A
330
2A6C
100
AcDbEntity
  8
図枠細線
 48
10.0
100
AcDbMText
 10
121.100885670352
 20
16.33785922638
 30
0.0
 40
2.0
 41
17.705978285068
 71
     1
 72
     5
  1
{\Fmonotxt.shx,bigfont.shx|c128;日付 DATE}
  0
MTEXT
  5
2A7B
330
2A6C
100
AcDbEntity
  8
図枠細線
 48
10.0
100
AcDbMText
 10
121.254842273491
 20
31.208993514037
 30
0.0
 40
2.0
 41
18.363799568758
 71
     1
 72
     5
  1
{\Fmonotxt.shx,bigfont.shx|c128;製図　DRAWN}
  0
LINE
  5
2A7C
330
2A6C
100
AcDbEntity
  8
図枠細線
  6
CONTINUOUS
 62
   252
100
AcDbLine
 10
97.577871882961
 20
32.820842689254
 30
0.0
 11
97.577871882961
 21
17.820842689254
 31
0.0
  0
MTEXT
  5
2A7D
330
2A6C
100
AcDbEntity
  8
図枠細線
 48
10.0
100
AcDbMText
 10
98.239734796872
 20
16.467764839281
 30
0.0
 40
2.0
 41
17.757791689903
 71
     1
 72
     5
  1
{\Fmonotxt.shx,bigfont.shx|c128;尺度　SCALE}
  0
MTEXT
  5
2A7E
330
2A6C
100
AcDbEntity
  8
図枠細線
 48
10.0
100
AcDbMText
 10
97.864744625154
 20
31.298433377664
 30
0.0
 40
2.0
 41
23.162655920976
 71
     1
 72
     5
  1
{\Fmonotxt.shx,bigfont.shx|c128;検図  CHECKED}
  0
LINE
  5
2A7F
330
2A6C
100
AcDbEntity
  8
図枠細線
  6
CONTINUOUS
 62
   252
100
AcDbLine
 10
97.577871882961
 20
2.820843367826
 30
0.0
 11
97.577871882961
 21
17.820841367826
 31
0.0
  0
LINE
  5
2A80
330
2A6C
100
AcDbEntity
  8
図枠細線
  6
CONTINUOUS
 62
   252
100
AcDbLine
 10
120.577871882961
 20
2.820844010683
 30
0.0
 11
120.577871882961
 21
17.820842010683
 31
0.0
  0
MTEXT
  5
2A81
330
2A6C
100
AcDbEntity
  8
図枠細線
 48
10.0
100
AcDbMText
 10
81.402399084102
 20
16.316484117426
 30
0.0
 40
2.0
 41
12.920322819369
 71
     1
 72
     5
  1
{\Fmonotxt.shx,bigfont.shx|c128;第三角法}
  0
MTEXT
  5
2A82
330
2A6C
100
AcDbEntity
  8
図枠細線
 48
10.0
100
AcDbMText
 10
75.736576535096
 20
11.080410931319
 30
0.0
 40
2.0
 41
21.072870671471
 71
     1
 72
     5
  1
{\Fmonotxt.shx,bigfont.shx|c128;THIRD ANGLE\PPROJECTION}
  0
LINE
  5
2A83
330
2A6C
100
AcDbEntity
  8
図枠太線
  6
CONTINUOUS
 62
   251
100
AcDbLine
 10
74.577871882961
 20
2.820844689254
 30
0.0
 11
74.577871882961
 21
32.820842689254
 31
0.0
  0
MTEXT
  5
2A84
330
2A6C
100
AcDbEntity
  8
図枠細線
 48
10.0
100
AcDbMText
 10
75.060214781573
 20
31.298434778555
 30
0.0
 40
2.0
 41
22.240928805967
 71
     1
 72
     5
  1
{\Fmonotxt.shx,bigfont.shx|c128;承認 APPROVED}
  0
LINE
  5
2A85
330
2A6C
100
AcDbEntity
  8
図枠細線
  6
CONTINUOUS
100
AcDbLine
 10
3.577871882961
 20
17.820844689254
 30
0.0
 11
74.577871882961
 21
17.820844689254
 31
0.0
  0
LINE
  5
2A86
330
2A6C
100
AcDbEntity
  8
図枠細線
  6
CONTINUOUS
 62
   252
100
AcDbLine
 10
3.577871882961
 20
27.820842689254
 30
0.0
 11
74.577871882961
 21
27.820842689254
 31
0.0
  0
LINE
  5
2A87
330
2A6C
100
AcDbEntity
  8
図枠細線
  6
CONTINUOUS
 62
   252
100
AcDbLine
 10
3.577871882961
 20
22.820842689254
 30
0.0
 11
74.577871882961
 21
22.820842689254
 31
0.0
  0
LINE
  5
2A88
330
2A6C
100
AcDbEntity
  8
図枠細線
  6
CONTINUOUS
 62
   252
100
AcDbLine
 10
3.577871882961
 20
12.820842689254
 30
0.0
 11
74.577871882961
 21
12.820842689254
 31
0.0
  0
LINE
  5
2A89
330
2A6C
100
AcDbEntity
  8
図枠細線
  6
CONTINUOUS
 62
   252
100
AcDbLine
 10
3.577871882961
 20
7.820844689254
 30
0.0
 11
74.577871882961
 21
7.820844689254
 31
0.0
  0
LINE
  5
2A8A
330
2A6C
100
AcDbEntity
  8
図枠細線
  6
CONTINUOUS
100
AcDbLine
 10
74.577871882961
 20
17.820843689254
 30
0.0
 11
143.577871882961
 21
17.820841224969
 31
0.0
  0
LINE
  5
2A8B
330
2A6C
100
AcDbEntity
  8
図枠太線
  6
CONTINUOUS
 62
   251
100
AcDbLine
 10
3.577871882961
 20
2.820844689254
 30
0.0
 11
283.577871882961
 21
2.820844689254
 31
0.0
  0
LINE
  5
2A8C
330
2A6C
100
AcDbEntity
  8
図枠太線
  6
CONTINUOUS
 62
   251
100
AcDbLine
 10
3.577871882961
 20
2.820844689254
 30
0.0
 11
3.577871882961
 21
32.820842689254
 31
0.0
  0
ENDBLK
  5
2A8D
330
2A6C
100
AcDbEntity
  8
0
100
AcDbBlockEnd
  0
BLOCK
  5
2AF8
330
2AF4
100
AcDbEntity
  8
0
 48
10.0
100
AcDbBlockBegin
  2
_OPEN30
 70
     0
 10
0.0
 20
0.0
 30
0.0
  3
_OPEN30
  1
_OPEN30
  0
LINE
  5
2AF5
330
2AF4
100
AcDbEntity
  8
0
  6
BYBLOCK
 62
     0
100
AcDbLine
 10
-1.0
 20
0.26794919
 30
0.0
 11
0.0
 21
0.0
 31
0.0
  0
LINE
  5
2AF6
330
2AF4
100
AcDbEntity
  8
0
  6
BYBLOCK
 62
     0
100
AcDbLine
 10
0.0
 20
0.0
 30
0.0
 11
-1.0
 21
-0.26794919
 31
0.0
  0
LINE
  5
2AF7
330
2AF4
100
AcDbEntity
  8
0
  6
BYBLOCK
 62
     0
100
AcDbLine
 10
0.0
 20
0.0
 30
0.0
 11
-1.0
 21
0.0
 31
0.0
  0
ENDBLK
  5
2AF9
330
2AF4
100
AcDbEntity
  8
0
 48
10.0
100
AcDbBlockEnd
  0
BLOCK
  5
2F40
330
2F3F
100
AcDbEntity
  8
0
 48
10.0
100
AcDbBlockBegin
  2
ケース外形図_HL-400
 70
     0
 10
0.0
 20
0.0
 30
0.0
  3
ケース外形図_HL-400
  1
ケース外形図_HL-400
  0
LINE
  5
2F41
330
2F3F
100
AcDbEntity
  8
外形線
100
AcDbLine
 10
-3016.68737612191
 20
-628.620502022639
 30
0.0
 11
-3004.68737612191
 21
-628.620502022639
 31
0.0
  0
LINE
  5
2F42
330
2F3F
100
AcDbEntity
  8
外形線
100
AcDbLine
 10
-3004.68737612191
 20
-556.620502022639
 30
0.0
 11
-3019.68737612191
 21
-556.620502022639
 31
0.0
  0
LINE
  5
2F43
330
2F3F
100
AcDbEntity
  8
中心線
 48
10.0
100
AcDbLine
 10
-3031.837385121911
 20
-613.830661022639
 30
0.0
 11
-3031.837385121911
 21
-669.264280022639
 31
0.0
  0
LINE
  5
2F44
330
2F3F
100
AcDbEntity
  8
外形線
100
AcDbLine
 10
-3036.074903121911
 20
-666.232883395172
 30
0.0
 11
-3036.074903121911
 21
-653.049280022639
 31
0.0
  0
LINE
  5
2F45
330
2F3F
100
AcDbEntity
  8
外形線
100
AcDbLine
 10
-3027.67493912191
 20
-666.232883395172
 30
0.0
 11
-3027.67493912191
 21
-653.049280022639
 31
0.0
  0
ARC
  5
2F46
330
2F3F
100
AcDbEntity
  8
細線
100
AcDbCircle
 10
-3033.974910933263
 20
-662.595590228936
 30
0.0
 40
4.199982
100
AcDbArc
 50
239.999981276042
 51
299.999981276021
  0
ARC
  5
2F47
330
2F3F
100
AcDbEntity
  8
細線
100
AcDbCircle
 10
-3029.774928933263
 20
-662.595591601467
 30
0.0
 40
4.199982
100
AcDbArc
 50
239.999981276042
 51
299.999981276021
  0
ARC
  5
2F48
330
2F3F
100
AcDbEntity
  8
細線
100
AcDbCircle
 10
-3029.774931310559
 20
-669.870173816342
 30
0.0
 40
4.199982
100
AcDbArc
 50
59.999981276042
 51
119.999981276021
  0
LINE
  5
2F49
330
2F3F
100
AcDbEntity
  8
外形線
100
AcDbLine
 10
-3015.18737612191
 20
-556.620502022639
 30
0.0
 11
-3015.18737612191
 21
-628.620502022639
 31
0.0
  0
LINE
  5
2F4A
330
2F3F
100
AcDbEntity
  8
外形線
100
AcDbLine
 10
-3016.68737612191
 20
-629.295475022639
 30
0.0
 11
-3016.68737612191
 21
-556.620502022639
 31
0.0
  0
LINE
  5
2F4B
330
2F3F
100
AcDbEntity
  8
外形線
100
AcDbLine
 10
-3019.68737612191
 20
-556.620502022639
 30
0.0
 11
-3019.68737612191
 21
-618.495502022639
 31
0.0
  0
LINE
  5
2F4C
330
2F3F
100
AcDbEntity
  8
外形線
100
AcDbLine
 10
-3046.687376121911
 20
-623.745502022639
 30
0.0
 11
-3046.687376121911
 21
-562.245502022639
 31
0.0
  0
LINE
  5
2F4D
330
2F3F
100
AcDbEntity
  8
外形線
100
AcDbLine
 10
-3038.779444758647
 20
-628.97627357689
 30
0.0
 11
-3045.721504395382
 21
-634.988273576889
 31
0.0
  0
LINE
  5
2F4E
330
2F3F
100
AcDbEntity
  8
外形線
100
AcDbLine
 10
-3024.895325485175
 20
-628.97627357689
 30
0.0
 11
-3017.953265848439
 21
-634.988273576889
 31
0.0
  0
LINE
  5
2F4F
330
2F3F
100
AcDbEntity
  8
外形線
100
AcDbLine
 10
-3024.895325485175
 20
-637.653848122809
 30
0.0
 11
-3024.895325485175
 21
-628.97627357689
 31
0.0
  0
LINE
  5
2F50
330
2F3F
100
AcDbEntity
  8
外形線
100
AcDbLine
 10
-3038.779444758647
 20
-637.653848122809
 30
0.0
 11
-3038.779444758647
 21
-628.97627357689
 31
0.0
  0
LWPOLYLINE
  5
2F51
330
2F3F
100
AcDbEntity
  8
外形線
100
AcDbPolyline
 90
       47
 70
     0
 43
0.0
 10
-3027.674940621911
 20
-654.14058768542
 10
-3027.215686831012
 20
-654.025717241066
 10
-3026.807069333743
 20
-653.89949762322
 10
-3026.45356502891
 20
-653.763311720429
 10
-3026.159046983652
 20
-653.618651613941
 10
-3025.926741999306
 20
-653.467102230155
 10
-3025.759195257892
 20
-653.310323975836
 10
-3025.658242436573
 20
-653.150034546342
 10
-3025.624989595581
 20
-652.98799010621
 10
-3025.659801060005
 20
-652.825966048232
 10
-3025.762295428152
 20
-652.665737541894
 10
-3025.931349750279
 20
-652.509060084243
 10
-3026.165111831855
 20
-652.357650266292
 10
-3026.461020526596
 20
-652.213166965689
 10
-3026.815833796919
 20
-652.077193171712
 10
-3027.225664234388
 20
-651.951218641701
 10
-3027.686021650964
 20
-651.836623578969
 10
-3028.191862274455
 20
-651.734663511005
 10
-3028.737644009139
 20
-651.646455533648
 10
-3029.317387156118
 20
-651.572966071958
 10
-3029.924739928152
 20
-651.515000291856
 10
-3030.553048041176
 20
-651.473193278559
 10
-3031.195427620021
 20
-651.448003078454
 10
-3031.844840619596
 20
-651.439705680642
 10
-3032.494171935177
 20
-651.448391993153
 10
-3033.136307356992
 20
-651.473966846927
 10
-3033.764211514982
 20
-651.516150038516
 10
-3034.371004959794
 20
-651.574479400044
 10
-3034.950039535468
 20
-651.648315862822
 10
-3035.494971218024
 20
-651.73685045911
 10
-3035.999829621911
 20
-651.839113185344
 10
-3036.459083412808
 20
-651.953983629698
 10
-3036.867700910077
 20
-652.080203247544
 10
-3037.221205214912
 20
-652.216389150335
 10
-3037.515723260169
 20
-652.361049256823
 10
-3037.748028244515
 20
-652.512598640609
 10
-3037.915574985928
 20
-652.669376894928
 10
-3038.016527807249
 20
-652.829666324421
 10
-3038.04978064824
 20
-652.991710764555
 10
-3038.014969183816
 20
-653.153734822532
 10
-3037.912474815669
 20
-653.313963328869
 10
-3037.743420493542
 20
-653.470640786521
 10
-3037.509658411966
 20
-653.622050604471
 10
-3037.213749717225
 20
-653.766533905074
 10
-3036.858936446901
 20
-653.902507699052
 10
-3036.449106009434
 20
-654.028482229064
 10
-3036.07490312191
 20
-654.123399110931
  0
ARC
  5
2F52
330
2F3F
100
AcDbEntity
  8
外形線
100
AcDbCircle
 10
-3031.837385121911
 20
-620.803069368681
 30
0.0
 40
34.15159996140045
100
AcDbArc
 50
255.26831657715
 51
262.87239111701
  0
LWPOLYLINE
  5
2F53
330
2F3F
100
AcDbEntity
  8
外形線
100
AcDbPolyline
 90
       34
 70
     0
 43
0.0
 10
-3020.164085121911
 20
-645.574914522911
 10
-3020.217826679511
 20
-645.015496411464
 10
-3020.378556521371
 20
-644.461229200047
 10
-3020.644794710875
 20
-643.917216361246
 10
-3021.014089832395
 20
-643.388466949451
 10
-3021.483041562971
 20
-642.879849479472
 10
-3022.047331981114
 20
-642.39604709919
 10
-3022.701765324525
 20
-641.941514468981
 10
-3023.440315830619
 20
-641.520436744971
 10
-3024.256183219338
 20
-641.136691043792
 10
-3025.141855307454
 20
-640.793810743611
 10
-3026.089177177755
 20
-640.494952950203
 10
-3027.089426266293
 20
-640.242869427561
 10
-3028.133392676296
 20
-640.039881260751
 10
-3029.211463979238
 20
-639.887857484282
 10
-3030.313713722268
 20
-639.788197872775
 10
-3031.429992827054
 20
-639.74182005239
 10
-3032.550023038462
 20
-639.749151051702
 10
-3033.663491562665
 20
-639.810123369776
 10
-3034.760146023239
 20
-639.924175597698
 10
-3035.829888860994
 20
-640.090257587801
 10
-3036.862870308282
 20
-640.30684012301
 10
-3037.849579081758
 20
-640.571928997268
 10
-3038.780929958494
 20
-640.88308337739
 10
-3039.64834742912
 20
-641.237438277289
 10
-3040.443844657696
 20
-641.631730937631
 10
-3041.160097021345
 20
-642.062330868031
 10
-3041.790509552464
 20
-642.525273275162
 10
-3042.329277662574
 20
-643.016295569004
 10
-3042.771440588665
 20
-643.530876611082
 10
-3043.112927069931
 20
-644.064278343314
 10
-3043.350592834335
 20
-644.611589414165
 10
-3043.482249549808
 20
-645.167770400432
 10
-3043.510685121911
 20
-645.574914522911
  0
ARC
  5
2F54
330
2F3F
100
AcDbEntity
  8
外形線
100
AcDbCircle
 10
-3031.837385121911
 20
-625.986454710612
 30
0.0
 40
13.57645981229912
100
AcDbArc
 50
239.247497502359
 51
300.752502497641
  0
LINE
  5
2F55
330
2F3F
100
AcDbEntity
  8
外形線
100
AcDbLine
 10
-3043.510685121911
 20
-645.574914522911
 30
0.0
 11
-3043.510685121911
 21
-649.955767263438
 31
0.0
  0
ARC
  5
2F56
330
2F3F
100
AcDbEntity
  8
外形線
100
AcDbCircle
 10
-3039.502685121911
 20
-649.955767263438
 30
0.0
 40
4.007999999999999
100
AcDbArc
 50
180.0
 51
255.26831657715
  0
ARC
  5
2F57
330
2F3F
100
AcDbEntity
  8
外形線
100
AcDbCircle
 10
-3046.230136312884
 20
-636.064530573833
 30
0.0
 40
7.618315752702329
100
AcDbArc
 50
273.828163206421
 51
347.958626091838
  0
LINE
  5
2F58
330
2F3F
100
AcDbEntity
  8
外形線
100
AcDbLine
 10
-3043.513436239113
 20
-645.578091239426
 30
0.0
 11
-3045.721504395382
 21
-643.665848122809
 31
0.0
  0
LINE
  5
2F59
330
2F3F
100
AcDbEntity
  8
外形線
100
AcDbLine
 10
-3045.721504395382
 20
-634.988273576889
 30
0.0
 11
-3045.721504395382
 21
-643.665848122809
 31
0.0
  0
LINE
  5
2F5A
330
2F3F
100
AcDbEntity
  8
外形線
100
AcDbLine
 10
-3020.164085121911
 20
-645.574914522911
 30
0.0
 11
-3020.164085121911
 21
-649.955767263438
 31
0.0
  0
LWPOLYLINE
  5
2F5B
330
2F3F
100
AcDbEntity
  8
外形線
100
AcDbPolyline
 90
       29
 70
     0
 43
0.0
 10
-3027.674940621911
 20
-653.049280022638
 10
-3027.701938707542
 20
-652.947308555312
 10
-3027.782585869251
 20
-652.846648062603
 10
-3027.915845283851
 20
-652.748592664861
 10
-3028.100003729843
 20
-652.654402990584
 10
-3028.332693613086
 20
-652.56528996941
 10
-3028.610923405278
 20
-652.482399264063
 10
-3028.9311161039
 20
-652.406796541377
 10
-3029.289155219196
 20
-652.339453771776
 10
-3029.680437696951
 20
-652.281236733347
 10
-3030.099933096692
 20
-652.232893881137
 10
-3030.542248264472
 20
-652.195046724809
 10
-3031.001696668819
 20
-652.16818183833
 10
-3031.472371508433
 20
-652.152644604435
 10
-3031.948221651714
 20
-652.148634774287
 10
-3032.423129431869
 20
-652.15620389942
 10
-3032.890989297393
 20
-652.175254668977
 10
-3033.345786306812
 20
-652.205542160767
 10
-3033.781673458494
 20
-652.246676990049
 10
-3034.193046861402
 20
-652.298130315587
 10
-3034.574617780326
 20
-652.359240638577
 10
-3034.921480629393
 20
-652.429222307066
 10
-3035.229176039693
 20
-652.507175616524
 10
-3035.493748190218
 20
-652.592098376703
 10
-3035.711795665032
 20
-652.682898796086
 10
-3035.88051518286
 20
-652.778409518273
 10
-3035.997737636882
 20
-652.877402629852
 10
-3036.061955981389
 20
-652.9786054468
 10
-3036.07490312191
 20
-653.049280022638
  0
ARC
  5
2F5C
330
2F3F
100
AcDbEntity
  8
外形線
100
AcDbCircle
 10
-3031.837385121911
 20
-620.803069368681
 30
0.0
 40
34.15159996140045
100
AcDbArc
 50
277.000695446903
 51
284.73168342285
  0
ARC
  5
2F5D
330
2F3F
100
AcDbEntity
  8
外形線
100
AcDbCircle
 10
-3024.172085121911
 20
-649.955767263438
 30
0.0
 40
4.007999999999999
100
AcDbArc
 50
284.73168342285
 51
0.0
  0
LINE
  5
2F5E
330
2F3F
100
AcDbEntity
  8
外形線
100
AcDbLine
 10
-3020.161334004708
 20
-645.578091239426
 30
0.0
 11
-3017.953265848439
 21
-643.665848122809
 31
0.0
  0
ARC
  5
2F5F
330
2F3F
100
AcDbEntity
  8
外形線
100
AcDbCircle
 10
-3017.444633930937
 20
-636.064530573833
 30
0.0
 40
7.618315752702329
100
AcDbArc
 50
192.041373908162
 51
266.171836793579
  0
LINE
  5
2F60
330
2F3F
100
AcDbEntity
  8
外形線
100
AcDbLine
 10
-3017.953265848439
 20
-643.665848122809
 30
0.0
 11
-3017.953265848439
 21
-634.988273576889
 31
0.0
  0
LWPOLYLINE
  5
2F61
330
2F3F
100
AcDbEntity
  8
外形線
100
AcDbPolyline
 90
       34
 70
     0
 43
0.0
 10
-3021.33893012191
 20
-629.269370629074
 10
-3021.387262926182
 20
-628.898532694609
 10
-3021.531816309708
 20
-628.531109288718
 10
-3021.771259282285
 20
-628.170483500357
 10
-3022.103387148015
 20
-627.819975828711
 10
-3022.525141805277
 20
-627.482813609361
 10
-3023.032639904511
 20
-627.162101298261
 10
-3023.621208604563
 20
-626.860791887133
 10
-3024.285428598347
 20
-626.581659713495
 10
-3025.019184011678
 20
-626.32727491566
 10
-3025.815718715819
 20
-626.099979767924
 10
-3026.667698535225
 20
-625.901867113831
 10
-3027.567278777729
 20
-625.734761096102
 10
-3028.506176465351
 20
-625.600200360651
 10
-3029.475746600679
 20
-625.499423889346
 10
-3030.467061766568
 20
-625.433359591953
 10
-3031.470994326257
 20
-625.402615762313
 10
-3032.478300467033
 20
-625.40747547741
 10
-3033.479705313585
 20
-625.44789399092
 10
-3034.465988327376
 20
-625.5234991452
 10
-3035.428068205709
 20
-625.633594797989
 10
-3036.357086498752
 20
-625.777167232194
 10
-3037.24448917464
 20
-625.952894489799
 10
-3038.082105381594
 20
-626.159158543935
 10
-3038.862222681892
 20
-626.394060197024
 10
-3039.577658064932
 20
-626.655436567837
 10
-3040.221824085545
 20
-626.940881006447
 10
-3040.788789518574
 20
-627.247765253711
 10
-3041.27333397125
 20
-627.57326364123
 10
-3041.670995950487
 20
-627.91437910899
 10
-3041.978113942544
 20
-628.267970801094
 10
-3042.191860126797
 20
-628.630782985528
 10
-3042.310266413181
 20
-628.99947503163
 10
-3042.335840121911
 20
-629.269370629074
  0
LINE
  5
2F62
330
2F3F
100
AcDbEntity
  8
外形線
100
AcDbLine
 10
-3038.779444758647
 20
-628.97627357689
 30
0.0
 11
-3024.895325485175
 21
-628.97627357689
 31
0.0
  0
LINE
  5
2F63
330
2F3F
100
AcDbEntity
  8
外形線
100
AcDbLine
 10
-3038.779444758647
 20
-620.298699030969
 30
0.0
 11
-3024.895325485175
 21
-620.298699030969
 31
0.0
  0
LINE
  5
2F64
330
2F3F
100
AcDbEntity
  8
外形線
100
AcDbLine
 10
-3038.779444758647
 20
-624.637486303929
 30
0.0
 11
-3024.895325485175
 21
-624.637486303929
 31
0.0
  0
LINE
  5
2F65
330
2F3F
100
AcDbEntity
  8
外形線
100
AcDbLine
 10
-3016.68737612191
 20
-618.495502022639
 30
0.0
 11
-3039.78736712191
 21
-618.495502022639
 31
0.0
  0
LINE
  5
2F66
330
2F3F
100
AcDbEntity
  8
外形線
100
AcDbLine
 10
-3039.468583886739
 20
-620.895511022639
 30
0.0
 11
-3042.187376121911
 21
-620.895511022639
 31
0.0
  0
LINE
  5
2F67
330
2F3F
100
AcDbEntity
  8
外形線
100
AcDbLine
 10
-3045.721504395382
 20
-626.310699030969
 30
0.0
 11
-3038.779444758647
 21
-620.298699030969
 31
0.0
  0
ARC
  5
2F68
330
2F3F
100
AcDbEntity
  8
外形線
100
AcDbCircle
 10
-3039.78736712191
 20
-623.895511022639
 30
0.0
 40
5.4
100
AcDbArc
 50
89.999981276021
 51
180.00001984784
  0
LINE
  5
2F69
330
2F3F
100
AcDbEntity
  8
外形線
100
AcDbLine
 10
-3038.779444758647
 20
-624.637486303929
 30
0.0
 11
-3045.721504395382
 21
-630.649486303929
 31
0.0
  0
ARC
  5
2F6A
330
2F3F
100
AcDbEntity
  8
外形線
100
AcDbCircle
 10
-3042.187376121911
 20
-623.895511022639
 30
0.0
 40
3.0
100
AcDbArc
 50
89.999981276021
 51
211.533239298809
  0
ARC
  5
2F6B
330
2F3F
100
AcDbEntity
  8
外形線
100
AcDbCircle
 10
-3043.687376121911
 20
-623.745502022639
 30
0.0
 40
3.0
100
AcDbArc
 50
180.00001984784
 51
232.575749003279
  0
LINE
  5
2F6C
330
2F3F
100
AcDbEntity
  8
外形線
100
AcDbLine
 10
-3043.216504395382
 20
-632.818879940409
 30
0.0
 11
-3045.721504395382
 21
-630.649486303929
 31
0.0
  0
LINE
  5
2F6D
330
2F3F
100
AcDbEntity
  8
外形線
100
AcDbLine
 10
-3042.335840121911
 20
-629.269370629074
 30
0.0
 11
-3042.335840121911
 21
-632.056202307377
 31
0.0
  0
LINE
  5
2F6E
330
2F3F
100
AcDbEntity
  8
外形線
100
AcDbLine
 10
-3045.721504395382
 20
-630.649486303929
 30
0.0
 11
-3045.721504395382
 21
-626.310699030969
 31
0.0
  0
LINE
  5
2F6F
330
2F3F
100
AcDbEntity
  8
細線
100
AcDbLine
 10
-3040.980635121911
 20
-630.882560350041
 30
0.0
 11
-3040.980635121911
 21
-627.331019140395
 31
0.0
  0
LINE
  5
2F70
330
2F3F
100
AcDbEntity
  8
外形線
100
AcDbLine
 10
-3038.779444758647
 20
-624.637486303929
 30
0.0
 11
-3038.779444758647
 21
-620.298699030969
 31
0.0
  0
LINE
  5
2F71
330
2F3F
100
AcDbEntity
  8
細線
100
AcDbLine
 10
-3022.694135121911
 20
-630.882560350041
 30
0.0
 11
-3022.694135121911
 21
-627.227614822548
 31
0.0
  0
LINE
  5
2F72
330
2F3F
100
AcDbEntity
  8
外形線
100
AcDbLine
 10
-3016.68737612191
 20
-620.895511022639
 30
0.0
 11
-3024.206186357083
 21
-620.895511022639
 31
0.0
  0
LINE
  5
2F73
330
2F3F
100
AcDbEntity
  8
外形線
100
AcDbLine
 10
-3017.953265848439
 20
-626.310699030969
 30
0.0
 11
-3024.895325485175
 21
-620.298699030969
 31
0.0
  0
LINE
  5
2F74
330
2F3F
100
AcDbEntity
  8
外形線
100
AcDbLine
 10
-3024.895325485175
 20
-624.637486303929
 30
0.0
 11
-3024.895325485175
 21
-620.298699030969
 31
0.0
  0
LINE
  5
2F75
330
2F3F
100
AcDbEntity
  8
外形線
100
AcDbLine
 10
-3016.68737612191
 20
-629.295497522639
 30
0.0
 11
-3017.953265848439
 21
-629.295497522639
 31
0.0
  0
LINE
  5
2F76
330
2F3F
100
AcDbEntity
  8
外形線
100
AcDbLine
 10
-3020.458265848439
 20
-632.818879940409
 30
0.0
 11
-3017.953265848439
 21
-630.649486303929
 31
0.0
  0
LINE
  5
2F77
330
2F3F
100
AcDbEntity
  8
外形線
100
AcDbLine
 10
-3024.895325485175
 20
-624.637486303929
 30
0.0
 11
-3017.953265848439
 21
-630.649486303929
 31
0.0
  0
LINE
  5
2F78
330
2F3F
100
AcDbEntity
  8
外形線
100
AcDbLine
 10
-3021.33893012191
 20
-629.269370629074
 30
0.0
 11
-3021.33893012191
 21
-632.056202307377
 31
0.0
  0
LINE
  5
2F79
330
2F3F
100
AcDbEntity
  8
外形線
100
AcDbLine
 10
-3017.953265848439
 20
-630.649486303929
 30
0.0
 11
-3017.953265848439
 21
-626.310699030969
 31
0.0
  0
LINE
  5
2F7A
330
2F3F
100
AcDbEntity
  8
外形線
100
AcDbLine
 10
-3048.487394121911
 20
-562.245502022639
 30
0.0
 11
-3048.487394121911
 21
-603.345493022639
 31
0.0
  0
LINE
  5
2F7B
330
2F3F
100
AcDbEntity
  8
外形線
100
AcDbLine
 10
-3048.487394121911
 20
-603.345493022639
 30
0.0
 11
-3046.687376121911
 21
-603.345493022639
 31
0.0
  0
LINE
  5
2F7C
330
2F3F
100
AcDbEntity
  8
外形線
100
AcDbLine
 10
-3043.687376121911
 20
-558.495502022639
 30
0.0
 11
-3019.68737612191
 21
-558.495502022639
 31
0.0
  0
LINE
  5
2F7D
330
2F3F
100
AcDbEntity
  8
外形線
100
AcDbLine
 10
-3048.487394121911
 20
-562.245502022639
 30
0.0
 11
-3046.687376121911
 21
-562.245502022639
 31
0.0
  0
ARC
  5
2F7E
330
2F3F
100
AcDbEntity
  8
外形線
100
AcDbCircle
 10
-3043.687376121911
 20
-561.495502022639
 30
0.0
 40
3.0
100
AcDbArc
 50
89.999981276021
 51
180.00001984784
  0
LINE
  5
2F7F
330
2F3F
100
AcDbEntity
  8
外形線
100
AcDbLine
 10
-3046.687376121911
 20
-562.245502022639
 30
0.0
 11
-3046.687376121911
 21
-561.495502022639
 31
0.0
  0
LINE
  5
2F80
330
2F3F
100
AcDbEntity
  8
外形線
100
AcDbLine
 10
-2963.887356621911
 20
-617.370502022639
 30
0.0
 11
-2963.887356621911
 21
-567.870502022639
 31
0.0
  0
LINE
  5
2F81
330
2F3F
100
AcDbEntity
  8
外形線
100
AcDbLine
 10
-2965.387356621911
 20
-620.580112022639
 30
0.0
 11
-2965.387356621911
 21
-564.660892022639
 31
0.0
  0
LINE
  5
2F82
330
2F3F
100
AcDbEntity
  8
外形線
100
AcDbLine
 10
-3004.68737612191
 20
-556.620502022639
 30
0.0
 11
-3004.68737612191
 21
-628.620502022639
 31
0.0
  0
LINE
  5
2F83
330
2F3F
100
AcDbEntity
  8
外形線
100
AcDbLine
 10
-3004.68737612191
 20
-626.745502022639
 30
0.0
 11
-2969.67289562191
 21
-625.074985022639
 31
0.0
  0
LINE
  5
2F84
330
2F3F
100
AcDbEntity
  8
外形線
100
AcDbLine
 10
-2963.887356621911
 20
-617.370502022639
 30
0.0
 11
-2965.387356621911
 21
-617.370502022639
 31
0.0
  0
ARC
  5
2F85
330
2F3F
100
AcDbEntity
  8
外形線
100
AcDbCircle
 10
-2969.887356621911
 20
-620.580112022639
 30
0.0
 40
4.5
100
AcDbArc
 50
272.731520116378
 51
359.999982399908
  0
LINE
  5
2F86
330
2F3F
100
AcDbEntity
  8
外形線
100
AcDbLine
 10
-3004.68737612191
 20
-558.495502022639
 30
0.0
 11
-2969.67289562191
 21
-560.166019022639
 31
0.0
  0
LINE
  5
2F87
330
2F3F
100
AcDbEntity
  8
外形線
100
AcDbLine
 10
-2963.887356621911
 20
-567.870502022639
 30
0.0
 11
-2965.387356621911
 21
-567.870502022639
 31
0.0
  0
ARC
  5
2F88
330
2F3F
100
AcDbEntity
  8
外形線
100
AcDbCircle
 10
-2969.887356621911
 20
-564.660892022639
 30
0.0
 40
4.5
100
AcDbArc
 50
0.0
 51
87.268519579302
  0
ENDBLK
  5
2F89
330
2F3F
100
AcDbEntity
  8
0
 48
10.0
100
AcDbBlockEnd
  0
BLOCK
  5
348A
330
347E
100
AcDbEntity
  8
0
 48
10.0
100
AcDbBlockBegin
  2
*D8
 70
     1
 10
0.0
 20
0.0
 30
0.0
  3
*D8
  1
*D8
  0
LINE
  5
4258
330
347E
100
AcDbEntity
  8
寸法線
 62
     0
 48
10.0
100
AcDbLine
 10
266.843094522177
 20
653.256650744987
 30
0.0
 11
267.468094522177
 21
653.256650744987
 31
0.0
  0
LINE
  5
4259
330
347E
100
AcDbEntity
  8
寸法線
 62
     0
 48
10.0
100
AcDbLine
 10
265.187955780592
 20
647.256605744987
 30
0.0
 11
267.468094522177
 21
647.256605744987
 31
0.0
  0
LINE
  5
425A
330
347E
100
AcDbEntity
  8
寸法線
 62
     0
 48
10.0
100
AcDbLine
 10
266.218094522177
 20
641.256605744987
 30
0.0
 11
266.218094522177
 21
635.256605744987
 31
0.0
  0
LINE
  5
425B
330
347E
100
AcDbEntity
  8
寸法線
 62
     0
 48
10.0
100
AcDbLine
 10
266.218094522177
 20
659.256650744987
 30
0.0
 11
266.218094522177
 21
677.784023033218
 31
0.0
  0
LINE
  5
425C
330
347E
100
AcDbEntity
  8
寸法線
 62
     0
 48
10.0
100
AcDbLine
 10
266.218094522177
 20
647.256605744987
 30
0.0
 11
266.218094522177
 21
653.256650744987
 31
0.0
  0
INSERT
  5
425D
330
347E
100
AcDbEntity
  8
寸法線
 62
     0
 48
10.0
100
AcDbBlockReference
  2
_OPEN30
 10
266.218094522177
 20
647.256605744987
 30
0.0
 41
6.0
 42
6.0
 43
6.0
 50
90.0
  0
INSERT
  5
425E
330
347E
100
AcDbEntity
  8
寸法線
 62
     0
 48
10.0
100
AcDbBlockReference
  2
_OPEN30
 10
266.218094522177
 20
653.256650744987
 30
0.0
 41
6.0
 42
6.0
 43
6.0
 50
270.0
  0
MTEXT
  5
425F
330
347E
100
AcDbEntity
  8
寸法線
 62
     0
 48
10.0
100
AcDbMText
 10
262.593094522177
 20
672.360204135581
 30
0.0
 40
6.0
 41
0.0
 71
     5
 72
     1
  1
\A1;φ6
 11
6.123031769111886E-17
 21
1.0
 31
0.0
  0
POINT
  5
4260
330
347E
100
AcDbEntity
  8
DEFPOINTS
 62
     0
 48
10.0
100
AcDbPoint
 10
266.218094522177
 20
653.256650744987
 30
0.0
  0
POINT
  5
4261
330
347E
100
AcDbEntity
  8
DEFPOINTS
 62
     0
 48
10.0
100
AcDbPoint
 10
264.562955780592
 20
647.256605744987
 30
0.0
  0
POINT
  5
4262
330
347E
100
AcDbEntity
  8
DEFPOINTS
 62
     0
 48
10.0
100
AcDbPoint
 10
266.218094522177
 20
647.256605744987
 30
0.0
  0
ENDBLK
  5
348B
330
347E
100
AcDbEntity
  8
0
 48
10.0
100
AcDbBlockEnd
  0
BLOCK
  5
34C3
330
34B9
100
AcDbEntity
  8
0
 48
10.0
100
AcDbBlockBegin
  2
*D9
 70
     1
 10
0.0
 20
0.0
 30
0.0
  3
*D9
  1
*D9
  0
LINE
  5
424F
330
34B9
100
AcDbEntity
  8
寸法線
 62
     0
 48
10.0
100
AcDbLine
 10
205.014876123669
 20
690.256408244988
 30
0.0
 11
185.018419951663
 21
690.256408244988
 31
0.0
  0
LINE
  5
4250
330
34B9
100
AcDbEntity
  8
寸法線
 62
     0
 48
10.0
100
AcDbLine
 10
205.014876123669
 20
610.256623244988
 30
0.0
 11
185.018419951663
 21
610.256623244988
 31
0.0
  0
LINE
  5
4251
330
34B9
100
AcDbEntity
  8
寸法線
 62
     0
 48
10.0
100
AcDbLine
 10
186.268419951663
 20
684.256408244988
 30
0.0
 11
186.268419951663
 21
616.256623244988
 31
0.0
  0
INSERT
  5
4252
330
34B9
100
AcDbEntity
  8
寸法線
 62
     0
 48
10.0
100
AcDbBlockReference
  2
_OPEN30
 10
186.268419951663
 20
690.256408244988
 30
0.0
 41
6.0
 42
6.0
 43
6.0
 50
90.0
  0
INSERT
  5
4253
330
34B9
100
AcDbEntity
  8
寸法線
 62
     0
 48
10.0
100
AcDbBlockReference
  2
_OPEN30
 10
186.268419951663
 20
610.256623244988
 30
0.0
 41
6.0
 42
6.0
 43
6.0
 50
270.0
  0
MTEXT
  5
4254
330
34B9
100
AcDbEntity
  8
寸法線
 62
     0
 48
10.0
100
AcDbMText
 10
182.643419951663
 20
650.256515744988
 30
0.0
 40
6.0
 41
0.0
 71
     5
 72
     1
  1
\A1;80
 11
6.123031769111886E-17
 21
1.0
 31
0.0
  0
POINT
  5
4255
330
34B9
100
AcDbEntity
  8
DEFPOINTS
 62
     0
 48
10.0
100
AcDbPoint
 10
205.639876123669
 20
690.256408244988
 30
0.0
  0
POINT
  5
4256
330
34B9
100
AcDbEntity
  8
DEFPOINTS
 62
     0
 48
10.0
100
AcDbPoint
 10
205.639876123669
 20
610.256623244988
 30
0.0
  0
POINT
  5
4257
330
34B9
100
AcDbEntity
  8
DEFPOINTS
 62
     0
 48
10.0
100
AcDbPoint
 10
186.268419951663
 20
610.256623244988
 30
0.0
  0
ENDBLK
  5
34C4
330
34B9
100
AcDbEntity
  8
0
 48
10.0
100
AcDbBlockEnd
  0
BLOCK
  5
34D0
330
34C6
100
AcDbEntity
  8
0
 48
10.0
100
AcDbBlockBegin
  2
*D10
 70
     1
 10
0.0
 20
0.0
 30
0.0
  3
*D10
  1
*D10
  0
LINE
  5
4246
330
34C6
100
AcDbEntity
  8
寸法線
 62
     0
 48
10.0
100
AcDbLine
 10
205.639876123669
 20
609.631623244988
 30
0.0
 11
205.639876123669
 21
590.017809735126
 31
0.0
  0
LINE
  5
4247
330
34C6
100
AcDbEntity
  8
寸法線
 62
     0
 48
10.0
100
AcDbLine
 10
240.639869623669
 20
609.631623244988
 30
0.0
 11
240.639869623669
 21
590.017809735126
 31
0.0
  0
LINE
  5
4248
330
34C6
100
AcDbEntity
  8
寸法線
 62
     0
 48
10.0
100
AcDbLine
 10
211.639876123669
 20
591.267809735126
 30
0.0
 11
234.639869623669
 21
591.267809735126
 31
0.0
  0
INSERT
  5
4249
330
34C6
100
AcDbEntity
  8
寸法線
 62
     0
 48
10.0
100
AcDbBlockReference
  2
_OPEN30
 10
205.639876123669
 20
591.267809735126
 30
0.0
 41
6.0
 42
6.0
 43
6.0
 50
180.0
  0
INSERT
  5
424A
330
34C6
100
AcDbEntity
  8
寸法線
 62
     0
 48
10.0
100
AcDbBlockReference
  2
_OPEN30
 10
240.639869623669
 20
591.267809735126
 30
0.0
 41
6.0
 42
6.0
 43
6.0
  0
MTEXT
  5
424B
330
34C6
100
AcDbEntity
  8
寸法線
 62
     0
 48
10.0
100
AcDbMText
 10
223.139872873669
 20
594.892809735126
 30
0.0
 40
6.0
 41
0.0
 71
     5
 72
     1
  1
\A1;35
  0
POINT
  5
424C
330
34C6
100
AcDbEntity
  8
DEFPOINTS
 62
     0
 48
10.0
100
AcDbPoint
 10
205.639876123669
 20
610.256623244988
 30
0.0
  0
POINT
  5
424D
330
34C6
100
AcDbEntity
  8
DEFPOINTS
 62
     0
 48
10.0
100
AcDbPoint
 10
240.639869623669
 20
610.256623244988
 30
0.0
  0
POINT
  5
424E
330
34C6
100
AcDbEntity
  8
DEFPOINTS
 62
     0
 48
10.0
100
AcDbPoint
 10
240.639869623669
 20
591.267809735126
 30
0.0
  0
ENDBLK
  5
34D1
330
34C6
100
AcDbEntity
  8
0
 48
10.0
100
AcDbBlockEnd
  0
BLOCK
  5
34F8
330
34EE
100
AcDbEntity
  8
0
 48
10.0
100
AcDbBlockBegin
  2
*D11
 70
     1
 10
0.0
 20
0.0
 30
0.0
  3
*D11
  1
*D11
  0
LINE
  5
427D
330
34EE
100
AcDbEntity
  8
寸法線
 62
     0
 48
10.0
100
AcDbLine
 10
381.501014904485
 20
629.081587744987
 30
0.0
 11
381.501014904485
 21
548.130231770226
 31
0.0
  0
LINE
  5
427E
330
34EE
100
AcDbEntity
  8
寸法線
 62
     0
 48
10.0
100
AcDbLine
 10
464.501014904485
 20
574.388473108985
 30
0.0
 11
464.501014904485
 21
548.130231770226
 31
0.0
  0
LINE
  5
427F
330
34EE
100
AcDbEntity
  8
寸法線
 62
     0
 48
10.0
100
AcDbLine
 10
387.501014904485
 20
549.380231770226
 30
0.0
 11
458.501014904485
 21
549.380231770226
 31
0.0
  0
INSERT
  5
4280
330
34EE
100
AcDbEntity
  8
寸法線
 62
     0
100
AcDbBlockReference
  2
_OPEN30
 10
381.501014904485
 20
549.380231770226
 30
0.0
 41
6.0
 42
6.0
 43
6.0
 50
180.0
  0
INSERT
  5
4281
330
34EE
100
AcDbEntity
  8
寸法線
 62
     0
100
AcDbBlockReference
  2
_OPEN30
 10
464.501014904485
 20
549.380231770226
 30
0.0
 41
6.0
 42
6.0
 43
6.0
  0
MTEXT
  5
4282
330
34EE
100
AcDbEntity
  8
寸法線
 62
     0
 48
10.0
100
AcDbMText
 10
423.001014904485
 20
553.014606770226
 30
0.0
 40
6.0
 41
0.0
 71
     5
 72
     1
  1
\A1;83
  0
POINT
  5
4283
330
34EE
100
AcDbEntity
  8
DEFPOINTS
 62
     0
100
AcDbPoint
 10
381.501014904485
 20
629.706587744987
 30
0.0
  0
POINT
  5
4284
330
34EE
100
AcDbEntity
  8
DEFPOINTS
 62
     0
100
AcDbPoint
 10
464.501014904485
 20
575.013473108985
 30
0.0
  0
POINT
  5
4285
330
34EE
100
AcDbEntity
  8
DEFPOINTS
 62
     0
100
AcDbPoint
 10
464.501014904485
 20
549.380231770226
 30
0.0
  0
ENDBLK
  5
34F9
330
34EE
100
AcDbEntity
  8
0
 48
10.0
100
AcDbBlockEnd
  0
BLOCK
  5
36B9
330
36AD
100
AcDbEntity
  8
0
 48
10.0
100
AcDbBlockBegin
  2
*D12
 70
     1
 10
0.0
 20
0.0
 30
0.0
  3
*D12
  1
*D12
  0
LINE
  5
423B
330
36AD
100
AcDbEntity
  8
寸法線
 62
     0
 48
10.0
100
AcDbLine
 10
122.097034825574
 20
650.256605744987
 30
0.0
 11
131.800324859068
 21
650.256605744987
 31
0.0
  0
LINE
  5
423C
330
36AD
100
AcDbEntity
  8
寸法線
 62
     0
 48
10.0
100
AcDbLine
 10
122.097034825574
 20
640.34514162822
 30
0.0
 11
131.800324859068
 21
640.34514162822
 31
0.0
  0
LINE
  5
423D
330
36AD
100
AcDbEntity
  8
寸法線
 62
     0
 48
10.0
100
AcDbLine
 10
130.550324859068
 20
656.256605744987
 30
0.0
 11
130.550324859068
 21
662.256605744987
 31
0.0
  0
LINE
  5
423E
330
36AD
100
AcDbEntity
  8
寸法線
 62
     0
 48
10.0
100
AcDbLine
 10
130.550324859068
 20
634.34514162822
 30
0.0
 11
130.550324859068
 21
628.34514162822
 31
0.0
  0
LINE
  5
423F
330
36AD
100
AcDbEntity
  8
寸法線
 62
     0
 48
10.0
100
AcDbLine
 10
130.550324859068
 20
650.256605744987
 30
0.0
 11
130.550324859068
 21
640.34514162822
 31
0.0
  0
INSERT
  5
4240
330
36AD
100
AcDbEntity
  8
寸法線
 62
     0
 48
10.0
100
AcDbBlockReference
  2
_OPEN30
 10
130.550324859068
 20
650.256605744987
 30
0.0
 41
6.0
 42
6.0
 43
6.0
 50
270.0
  0
INSERT
  5
4241
330
36AD
100
AcDbEntity
  8
寸法線
 62
     0
 48
10.0
100
AcDbBlockReference
  2
_OPEN30
 10
130.550324859068
 20
640.34514162822
 30
0.0
 41
6.0
 42
6.0
 43
6.0
 50
90.0
  0
MTEXT
  5
4242
330
36AD
100
AcDbEntity
  8
寸法線
 62
     0
 48
10.0
100
AcDbMText
 10
126.925324859068
 20
645.300873686604
 30
0.0
 40
6.0
 41
0.0
 71
     5
 72
     1
  1
\A1;10
 11
6.123031769111886E-17
 21
1.0
 31
0.0
  0
POINT
  5
4243
330
36AD
100
AcDbEntity
  8
DEFPOINTS
 62
     0
 48
10.0
100
AcDbPoint
 10
121.472034825574
 20
650.256605744987
 30
0.0
  0
POINT
  5
4244
330
36AD
100
AcDbEntity
  8
DEFPOINTS
 62
     0
 48
10.0
100
AcDbPoint
 10
121.472034825574
 20
640.34514162822
 30
0.0
  0
POINT
  5
4245
330
36AD
100
AcDbEntity
  8
DEFPOINTS
 62
     0
 48
10.0
100
AcDbPoint
 10
130.550324859068
 20
640.34514162822
 30
0.0
  0
ENDBLK
  5
36BA
330
36AD
100
AcDbEntity
  8
0
 48
10.0
100
AcDbBlockEnd
  0
BLOCK
  5
36E7
330
36DD
100
AcDbEntity
  8
0
 48
10.0
100
AcDbBlockBegin
  2
*D13
 70
     1
 10
0.0
 20
0.0
 30
0.0
  3
*D13
  1
*D13
  0
LINE
  5
4232
330
36DD
100
AcDbEntity
  8
寸法線
 62
     0
 48
10.0
100
AcDbLine
 10
54.502946030434
 20
661.273910590401
 30
0.0
 11
54.502946030434
 21
706.394602803273
 31
0.0
  0
LINE
  5
4233
330
36DD
100
AcDbEntity
  8
寸法線
 62
     0
 48
10.0
100
AcDbLine
 10
90.502946030434
 20
661.273910590401
 30
0.0
 11
90.502946030434
 21
706.394602803273
 31
0.0
  0
LINE
  5
4234
330
36DD
100
AcDbEntity
  8
寸法線
 62
     0
 48
10.0
100
AcDbLine
 10
60.502946030434
 20
705.144602803273
 30
0.0
 11
84.502946030434
 21
705.144602803273
 31
0.0
  0
INSERT
  5
4235
330
36DD
100
AcDbEntity
  8
寸法線
 62
     0
100
AcDbBlockReference
  2
_OPEN30
 10
54.502946030434
 20
705.144602803273
 30
0.0
 41
6.0
 42
6.0
 43
6.0
 50
180.0
  0
INSERT
  5
4236
330
36DD
100
AcDbEntity
  8
寸法線
 62
     0
100
AcDbBlockReference
  2
_OPEN30
 10
90.502946030434
 20
705.144602803273
 30
0.0
 41
6.0
 42
6.0
 43
6.0
  0
MTEXT
  5
4237
330
36DD
100
AcDbEntity
  8
寸法線
 62
     0
 48
10.0
100
AcDbMText
 10
72.05697065509
 20
708.772727803273
 30
0.0
 40
6.0
 41
0.0
 71
     5
 72
     1
  1
\A1;36
  0
POINT
  5
4238
330
36DD
100
AcDbEntity
  8
DEFPOINTS
 62
     0
100
AcDbPoint
 10
54.502946030434
 20
660.648910590401
 30
0.0
  0
POINT
  5
4239
330
36DD
100
AcDbEntity
  8
DEFPOINTS
 62
     0
100
AcDbPoint
 10
90.502946030434
 20
660.648910590401
 30
0.0
  0
POINT
  5
423A
330
36DD
100
AcDbEntity
  8
DEFPOINTS
 62
     0
100
AcDbPoint
 10
90.502946030434
 20
705.144602803273
 30
0.0
  0
ENDBLK
  5
36E8
330
36DD
100
AcDbEntity
  8
0
 48
10.0
100
AcDbBlockEnd
  0
BLOCK
  5
36F8
330
36EC
100
AcDbEntity
  8
0
 48
10.0
100
AcDbBlockBegin
  2
*D14
 70
     1
 10
0.0
 20
0.0
 30
0.0
  3
*D14
  1
*D14
  0
LINE
  5
4227
330
36EC
100
AcDbEntity
  8
寸法線
 62
     0
 48
10.0
100
AcDbLine
 10
71.602946030434
 20
619.803131868291
 30
0.0
 11
71.602946030434
 21
620.428131868291
 31
0.0
  0
LINE
  5
4228
330
36EC
100
AcDbEntity
  8
寸法線
 62
     0
 48
10.0
100
AcDbLine
 10
73.402946030434
 20
619.803131868291
 30
0.0
 11
73.402946030434
 21
620.428131868291
 31
0.0
  0
LINE
  5
4229
330
36EC
100
AcDbEntity
  8
寸法線
 62
     0
 48
10.0
100
AcDbLine
 10
65.602946030434
 20
619.178131868291
 30
0.0
 11
59.602946030434
 21
619.178131868291
 31
0.0
  0
LINE
  5
422A
330
36EC
100
AcDbEntity
  8
寸法線
 62
     0
 48
10.0
100
AcDbLine
 10
79.402946030434
 20
619.178131868291
 30
0.0
 11
87.852946030434
 21
619.178131868291
 31
0.0
  0
LINE
  5
422B
330
36EC
100
AcDbEntity
  8
寸法線
 62
     0
 48
10.0
100
AcDbLine
 10
71.602946030434
 20
619.178131868291
 30
0.0
 11
73.402946030434
 21
619.178131868291
 31
0.0
  0
INSERT
  5
422C
330
36EC
100
AcDbEntity
  8
寸法線
 62
     0
 48
10.0
100
AcDbBlockReference
  2
_OPEN30
 10
71.602946030434
 20
619.178131868291
 30
0.0
 41
6.0
 42
6.0
 43
6.0
  0
INSERT
  5
422D
330
36EC
100
AcDbEntity
  8
寸法線
 62
     0
 48
10.0
100
AcDbBlockReference
  2
_OPEN30
 10
73.402946030434
 20
619.178131868291
 30
0.0
 41
6.0
 42
6.0
 43
6.0
 50
180.0
  0
MTEXT
  5
422E
330
36EC
100
AcDbEntity
  8
寸法線
 62
     0
 48
10.0
100
AcDbMText
 10
86.627946030434
 20
622.803131868291
 30
0.0
 40
6.0
 41
0.0
 71
     5
 72
     1
  1
\A1;1
  0
POINT
  5
422F
330
36EC
100
AcDbEntity
  8
DEFPOINTS
 62
     0
 48
10.0
100
AcDbPoint
 10
71.602946030434
 20
619.178131868291
 30
0.0
  0
POINT
  5
4230
330
36EC
100
AcDbEntity
  8
DEFPOINTS
 62
     0
 48
10.0
100
AcDbPoint
 10
73.402946030434
 20
619.178131868291
 30
0.0
  0
POINT
  5
4231
330
36EC
100
AcDbEntity
  8
DEFPOINTS
 62
     0
 48
10.0
100
AcDbPoint
 10
73.402946030434
 20
619.178131868291
 30
0.0
  0
ENDBLK
  5
36F9
330
36EC
100
AcDbEntity
  8
0
 48
10.0
100
AcDbBlockEnd
  0
BLOCK
  5
3958
330
394E
100
AcDbEntity
  8
0
 48
10.0
100
AcDbBlockBegin
  2
*D16
 70
     1
 10
0.0
 20
0.0
 30
0.0
  3
*D16
  1
*D16
  0
LINE
  5
4274
330
394E
100
AcDbEntity
  8
寸法線
 62
     0
 48
10.0
100
AcDbLine
 10
296.501014904483
 20
629.081587744987
 30
0.0
 11
296.501014904483
 21
548.130231770226
 31
0.0
  0
LINE
  5
4275
330
394E
100
AcDbEntity
  8
寸法線
 62
     0
 48
10.0
100
AcDbLine
 10
381.501014904485
 20
629.081587744987
 30
0.0
 11
381.501014904485
 21
548.130231770226
 31
0.0
  0
LINE
  5
4276
330
394E
100
AcDbEntity
  8
寸法線
 62
     0
 48
10.0
100
AcDbLine
 10
302.501014904483
 20
549.380231770226
 30
0.0
 11
375.501014904485
 21
549.380231770226
 31
0.0
  0
INSERT
  5
4277
330
394E
100
AcDbEntity
  8
寸法線
 62
     0
100
AcDbBlockReference
  2
_OPEN30
 10
296.501014904483
 20
549.380231770226
 30
0.0
 41
6.0
 42
6.0
 43
6.0
 50
180.0
  0
INSERT
  5
4278
330
394E
100
AcDbEntity
  8
寸法線
 62
     0
100
AcDbBlockReference
  2
_OPEN30
 10
381.501014904485
 20
549.380231770226
 30
0.0
 41
6.0
 42
6.0
 43
6.0
  0
MTEXT
  5
4279
330
394E
100
AcDbEntity
  8
寸法線
 62
     0
 48
10.0
100
AcDbMText
 10
338.526023904485
 20
553.011481770226
 30
0.0
 40
6.0
 41
0.0
 71
     5
 72
     1
  1
\A1;85
  0
POINT
  5
427A
330
394E
100
AcDbEntity
  8
DEFPOINTS
 62
     0
100
AcDbPoint
 10
296.501014904483
 20
629.706587744987
 30
0.0
  0
POINT
  5
427B
330
394E
100
AcDbEntity
  8
DEFPOINTS
 62
     0
100
AcDbPoint
 10
381.501014904485
 20
629.706587744987
 30
0.0
  0
POINT
  5
427C
330
394E
100
AcDbEntity
  8
DEFPOINTS
 62
     0
100
AcDbPoint
 10
381.501014904485
 20
549.380231770226
 30
0.0
  0
ENDBLK
  5
3959
330
394E
100
AcDbEntity
  8
0
 48
10.0
100
AcDbBlockEnd
  0
BLOCK
  5
3E39
330
3E2F
100
AcDbEntity
  8
0
 48
10.0
100
AcDbBlockBegin
  2
*D17
 70
     1
 10
0.0
 20
0.0
 30
0.0
  3
*D17
  1
*D17
  0
LINE
  5
426C
330
3E2F
100
AcDbEntity
  8
寸法線
 62
     0
 48
10.0
100
AcDbLine
 10
205.639876123669
 20
589.392809735126
 30
0.0
 11
205.639876123669
 21
548.130231770227
 31
0.0
  0
LINE
  5
426D
330
3E2F
100
AcDbEntity
  8
寸法線
 62
     0
 48
10.0
100
AcDbLine
 10
296.501014904486
 20
629.081587744987
 30
0.0
 11
296.501014904486
 21
548.130231770227
 31
0.0
  0
LINE
  5
426E
330
3E2F
100
AcDbEntity
  8
寸法線
 62
     0
 48
10.0
100
AcDbLine
 10
211.639876123669
 20
549.380231770227
 30
0.0
 11
290.501014904486
 21
549.380231770227
 31
0.0
  0
INSERT
  5
426F
330
3E2F
100
AcDbEntity
  8
寸法線
 62
     0
100
AcDbBlockReference
  2
_OPEN30
 10
205.639876123669
 20
549.380231770227
 30
0.0
 41
6.0
 42
6.0
 43
6.0
 50
180.0
  0
INSERT
  5
4270
330
3E2F
100
AcDbEntity
  8
寸法線
 62
     0
100
AcDbBlockReference
  2
_OPEN30
 10
296.501014904486
 20
549.380231770227
 30
0.0
 41
6.0
 42
6.0
 43
6.0
  0
POINT
  5
4271
330
3E2F
100
AcDbEntity
  8
DEFPOINTS
 62
     0
100
AcDbPoint
 10
205.639876123669
 20
590.017809735126
 30
0.0
  0
POINT
  5
4272
330
3E2F
100
AcDbEntity
  8
DEFPOINTS
 62
     0
100
AcDbPoint
 10
296.501014904486
 20
629.706587744987
 30
0.0
  0
POINT
  5
4273
330
3E2F
100
AcDbEntity
  8
DEFPOINTS
 62
     0
100
AcDbPoint
 10
296.501014904486
 20
549.380231770227
 30
0.0
  0
ENDBLK
  5
3E3A
330
3E2F
100
AcDbEntity
  8
0
 48
10.0
100
AcDbBlockEnd
  0
BLOCK
  5
4C53
330
4C52
100
AcDbEntity
  8
0
100
AcDbBlockBegin
  2
*D57
 70
     1
 10
0.0
 20
0.0
 30
0.0
  3
*D57
  1
*D57
  0
LINE
  5
4C55
330
4C52
100
AcDbEntity
  8
寸法線
 62
     0
 48
10.0
100
AcDbLine
 10
272.426032904485
 20
663.477105744987
 30
0.0
 11
278.199999229771
 21
663.477105744987
 31
0.0
  0
LINE
  5
4C56
330
4C52
100
AcDbEntity
  8
寸法線
 62
     0
 48
10.0
100
AcDbLine
 10
272.426032904485
 20
637.036105744987
 30
0.0
 11
278.199999229771
 21
637.036105744987
 31
0.0
  0
LINE
  5
4C57
330
4C52
100
AcDbEntity
  8
寸法線
 62
     0
 48
10.0
100
AcDbLine
 10
276.949999229771
 20
663.477105744987
 30
0.0
 11
276.949999229771
 21
694.282435830877
 31
0.0
  0
LINE
  5
4C58
330
4C52
100
AcDbEntity
  8
寸法線
 62
     0
 48
10.0
100
AcDbLine
 10
276.949999229771
 20
657.477105744987
 30
0.0
 11
276.949999229771
 21
643.036105744987
 31
0.0
  0
INSERT
  5
4C59
330
4C52
100
AcDbEntity
  8
寸法線
 62
     0
100
AcDbBlockReference
  2
_OPEN30
 10
276.949999229771
 20
663.477105744987
 30
0.0
 41
6.0
 42
6.0
 43
6.0
 50
90.0
  0
INSERT
  5
4C5A
330
4C52
100
AcDbEntity
  8
寸法線
 62
     0
100
AcDbBlockReference
  2
_OPEN30
 10
276.949999229771
 20
637.036105744987
 30
0.0
 41
6.0
 42
6.0
 43
6.0
 50
270.0
  0
MTEXT
  5
4C5B
330
4C52
100
AcDbEntity
  8
寸法線
 62
     0
 48
10.0
100
AcDbMText
 10
273.321874229771
 20
681.957435830877
 30
0.0
 40
6.0
 41
0.0
 71
     5
 72
     1
  1
\A1;G 3/4"
 11
0.0
 21
1.0
 31
0.0
  0
POINT
  5
4C5C
330
4C52
100
AcDbEntity
  8
DEFPOINTS
 62
     0
100
AcDbPoint
 10
271.801032904485
 20
663.477105744987
 30
0.0
  0
POINT
  5
4C5D
330
4C52
100
AcDbEntity
  8
DEFPOINTS
 62
     0
100
AcDbPoint
 10
271.801032904485
 20
637.036105744987
 30
0.0
  0
POINT
  5
4C5E
330
4C52
100
AcDbEntity
  8
DEFPOINTS
 62
     0
100
AcDbPoint
 10
276.949999229771
 20
637.036105744987
 30
0.0
  0
ENDBLK
  5
4C54
330
4C52
100
AcDbEntity
  8
0
100
AcDbBlockEnd
  0
BLOCK
  5
4CBB
330
4CBA
100
AcDbEntity
  8
0
100
AcDbBlockBegin
  2
*D65
 70
     1
 10
0.0
 20
0.0
 30
0.0
  3
*D65
  1
*D65
  0
LINE
  5
4CBD
330
4CBA
100
AcDbEntity
  8
寸法線
 62
     0
 48
10.0
100
AcDbLine
 10
424.325995404485
 20
675.756605744987
 30
0.0
 11
483.70377282371
 21
675.756605744987
 31
0.0
  0
LINE
  5
4CBE
330
4CBA
100
AcDbEntity
  8
寸法線
 62
     0
 48
10.0
100
AcDbLine
 10
424.325995404485
 20
604.756605744987
 30
0.0
 11
483.70377282371
 21
604.756605744987
 31
0.0
  0
LINE
  5
4CBF
330
4CBA
100
AcDbEntity
  8
寸法線
 62
     0
 48
10.0
100
AcDbLine
 10
482.45377282371
 20
669.756605744987
 30
0.0
 11
482.45377282371
 21
610.756605744987
 31
0.0
  0
INSERT
  5
4CC0
330
4CBA
100
AcDbEntity
  8
寸法線
 62
     0
100
AcDbBlockReference
  2
_OPEN30
 10
482.45377282371
 20
675.756605744987
 30
0.0
 41
6.0
 42
6.0
 43
6.0
 50
90.0
  0
INSERT
  5
4CC1
330
4CBA
100
AcDbEntity
  8
寸法線
 62
     0
100
AcDbBlockReference
  2
_OPEN30
 10
482.45377282371
 20
604.756605744987
 30
0.0
 41
6.0
 42
6.0
 43
6.0
 50
270.0
  0
MTEXT
  5
4CC2
330
4CBA
100
AcDbEntity
  8
寸法線
 62
     0
 48
10.0
100
AcDbMText
 10
478.82564782371
 20
640.431578744988
 30
0.0
 40
6.0
 41
0.0
 71
     5
 72
     1
  1
\A1;φ72
 11
0.0
 21
1.0
 31
0.0
  0
POINT
  5
4CC3
330
4CBA
100
AcDbEntity
  8
DEFPOINTS
 62
     0
100
AcDbPoint
 10
423.700995404485
 20
675.756605744987
 30
0.0
  0
POINT
  5
4CC4
330
4CBA
100
AcDbEntity
  8
DEFPOINTS
 62
     0
100
AcDbPoint
 10
423.700995404485
 20
604.756605744987
 30
0.0
  0
POINT
  5
4CC5
330
4CBA
100
AcDbEntity
  8
DEFPOINTS
 62
     0
100
AcDbPoint
 10
482.45377282371
 20
604.756605744987
 30
0.0
  0
ENDBLK
  5
4CBC
330
4CBA
100
AcDbEntity
  8
0
100
AcDbBlockEnd
  0
ENDSEC
  0
SECTION
  2
ENTITIES
  0
ARC
  5
2FCA
330
1A
100
AcDbEntity
  8
隠れ線
 48
10.0
100
AcDbCircle
 10
72.502946030434
 20
640.34514162822
 30
0.0
 40
36.0
100
AcDbArc
 50
91.432543737567
 51
88.567456262433
  0
ARC
  5
2FCB
330
1A
100
AcDbEntity
  8
隠れ線
 48
10.0
100
AcDbCircle
 10
72.502946030434
 20
640.34514162822
 30
0.0
 40
34.5
100
AcDbArc
 50
91.494842089047
 51
88.505157910953
  0
LINE
  5
2FCC
330
1A
100
AcDbEntity
  8
中心線
 48
10.0
100
AcDbLine
 10
88.134903017964
 20
613.501491196641
 30
0.0
 11
116.698380530435
 21
564.02833962822
 31
0.0
  0
LINE
  5
2FCD
330
1A
100
AcDbEntity
  8
外形線
100
AcDbLine
 10
79.695406152033
 20
601.119163274345
 30
0.0
 11
87.87441205777
 21
605.841315222798
 31
0.0
  0
LINE
  5
2FCE
330
1A
100
AcDbEntity
  8
外形線
100
AcDbLine
 10
80.295424223871
 20
600.079906913843
 30
0.0
 11
103.678092734538
 21
613.579946399394
 31
0.0
  0
LINE
  5
2FCF
330
1A
100
AcDbEntity
  8
外形線
100
AcDbLine
 10
113.52203773152
 20
593.577705274073
 30
0.0
 11
92.695858821312
 21
581.553705274073
 31
0.0
  0
LINE
  5
2FD0
330
1A
100
AcDbEntity
  8
外形線
100
AcDbLine
 10
84.078658821313
 20
596.479133493054
 30
0.0
 11
104.90483773152
 21
608.503133493054
 31
0.0
  0
LINE
  5
2FD1
330
1A
100
AcDbEntity
  8
外形線
100
AcDbLine
 10
107.40983773152
 20
604.164346220094
 30
0.0
 11
86.583658821313
 21
592.140346220094
 31
0.0
  0
ARC
  5
2FD2
330
1A
100
AcDbEntity
  8
外形線
100
AcDbCircle
 10
97.06868863968
 20
581.995741855806
 30
0.0
 40
4.007999999999999
100
AcDbArc
 50
210.0
 51
300.000000000002
  0
LINE
  5
2FD3
330
1A
100
AcDbEntity
  8
外形線
100
AcDbLine
 10
96.996748276416
 20
598.152346220094
 30
0.0
 11
102.006748276416
 21
589.474771674174
 31
0.0
  0
ARC
  5
2FD4
330
1A
100
AcDbEntity
  8
外形線
100
AcDbCircle
 10
93.252212639774
 20
592.614072193512
 30
0.0
 40
9.30038181818205
100
AcDbArc
 50
259.727393143495
 51
340.272606856496
  0
LINE
  5
2FD5
330
1A
100
AcDbEntity
  8
外形線
100
AcDbLine
 10
80.295409152034
 20
600.079924274345
 30
0.0
 11
78.257220351485
 21
603.610187586268
 31
0.0
  0
LINE
  5
2FD6
330
1A
100
AcDbEntity
  8
外形線
100
AcDbLine
 10
92.695858821312
 20
581.553705274073
 30
0.0
 11
93.597658821312
 21
579.991741855806
 31
0.0
  0
LINE
  5
2FD7
330
1A
100
AcDbEntity
  8
細線
100
AcDbLine
 10
89.078461503264
 20
593.580721220094
 30
0.0
 11
86.573461503264
 21
597.919508493054
 31
0.0
  0
LINE
  5
2FD8
330
1A
100
AcDbEntity
  8
外形線
100
AcDbLine
 10
85.399819545929
 20
597.241905993054
 30
0.0
 11
87.904819545929
 21
592.903118720094
 31
0.0
  0
LINE
  5
2FD9
330
1A
100
AcDbEntity
  8
外形線
100
AcDbLine
 10
81.573658821313
 20
600.817920766014
 30
0.0
 11
84.078658821313
 21
596.479133493054
 31
0.0
  0
LINE
  5
2FDA
330
1A
100
AcDbEntity
  8
外形線
100
AcDbLine
 10
86.583658821313
 20
592.140346220094
 30
0.0
 11
92.695858821312
 21
581.553705274073
 31
0.0
  0
LINE
  5
2FDB
330
1A
100
AcDbEntity
  8
外形線
100
AcDbLine
 10
91.986748276416
 20
606.829920766014
 30
0.0
 11
94.491748276416
 21
602.491133493054
 31
0.0
  0
LINE
  5
2FDC
330
1A
100
AcDbEntity
  8
外形線
100
AcDbLine
 10
109.911923060737
 20
584.782746948245
 30
0.0
 11
118.008912530435
 21
570.75838062822
 31
0.0
  0
LINE
  5
2FDD
330
1A
100
AcDbEntity
  8
外形線
100
AcDbLine
 10
101.813981113664
 20
580.10737590743
 30
0.0
 11
109.911003471615
 21
566.083028575541
 31
0.0
  0
ARC
  5
2FDE
330
1A
100
AcDbEntity
  8
細線
100
AcDbCircle
 10
109.910957334683
 20
570.583031027258
 30
0.0
 40
4.5
100
AcDbArc
 50
269.999994133302
 51
329.999994133297
  0
ARC
  5
2FDF
330
1A
100
AcDbEntity
  8
細線
100
AcDbCircle
 10
113.808071882097
 20
572.83303062822
 30
0.0
 40
4.5
100
AcDbArc
 50
269.999994133302
 51
329.999994133297
  0
ARC
  5
2FE0
330
1A
100
AcDbEntity
  8
細線
100
AcDbCircle
 10
117.705185507973
 20
566.083030229183
 30
0.0
 40
4.5
100
AcDbArc
 50
89.999994133303
 51
149.999994133298
  0
LINE
  5
2FE3
330
1A
100
AcDbEntity
  8
外形線
100
AcDbLine
 10
103.678091652033
 20
613.579948274345
 30
0.0
 11
103.100475574415
 21
614.58040659478
 31
0.0
  0
LINE
  5
2FE4
330
1A
100
AcDbEntity
  8
外形線
100
AcDbLine
 10
113.218322622415
 20
593.402355274073
 30
0.0
 11
114.120122622414
 21
591.840391855806
 31
0.0
  0
ARC
  5
2FE5
330
1A
100
AcDbEntity
  8
外形線
100
AcDbCircle
 10
110.649092804047
 20
589.836391855806
 30
0.0
 40
4.007999999999999
100
AcDbArc
 50
300.000000000002
 51
29.999999999999
  0
LINE
  5
2FE6
330
1A
100
AcDbEntity
  8
外形線
100
AcDbLine
 10
99.376403748788
 20
578.700062037438
 30
0.0
 11
112.653092804046
 21
586.365362037438
 31
0.0
  0
LINE
  5
2FE7
330
1A
100
AcDbEntity
  8
外形線
100
AcDbLine
 10
103.583677006905
 20
607.740360993054
 30
0.0
 11
106.088677006905
 21
603.401573720094
 31
0.0
  0
LINE
  5
2FE8
330
1A
100
AcDbEntity
  8
細線
100
AcDbLine
 10
104.915035049568
 20
602.723971220094
 30
0.0
 11
102.410035049568
 21
607.062758493054
 31
0.0
  0
LINE
  5
2FE9
330
1A
100
AcDbEntity
  8
外形線
100
AcDbLine
 10
102.399837731521
 20
612.841920766014
 30
0.0
 11
104.90483773152
 21
608.503133493054
 31
0.0
  0
LINE
  5
2FEA
330
1A
100
AcDbEntity
  8
外形線
100
AcDbLine
 10
107.40983773152
 20
604.164346220094
 30
0.0
 11
113.52203773152
 21
593.577705274073
 31
0.0
  0
ARC
  5
2FEB
330
1A
100
AcDbEntity
  8
外形線
100
AcDbCircle
 10
103.665302094877
 20
598.626072193512
 30
0.0
 40
9.30038181818205
100
AcDbArc
 50
259.727393143495
 51
340.272606856496
  0
LINE
  5
3078
330
1A
100
AcDbEntity
  8
外形線
100
AcDbLine
 10
205.639876123669
 20
690.256408244988
 30
0.0
 11
240.639869623669
 21
690.256408244988
 31
0.0
  0
LINE
  5
3079
330
1A
100
AcDbEntity
  8
外形線
100
AcDbLine
 10
243.049742623669
 20
656.036560244988
 30
0.0
 11
240.639869623669
 21
690.256408244988
 31
0.0
  0
LINE
  5
307A
330
1A
100
AcDbEntity
  8
外形線
100
AcDbLine
 10
205.639876123669
 20
690.256408244988
 30
0.0
 11
205.639876123669
 21
610.256623244988
 31
0.0
  0
LINE
  5
307B
330
1A
100
AcDbEntity
  8
外形線
100
AcDbLine
 10
205.639876123669
 20
610.256623244988
 30
0.0
 11
240.639869623669
 21
610.256623244988
 31
0.0
  0
LINE
  5
307C
330
1A
100
AcDbEntity
  8
外形線
100
AcDbLine
 10
243.049742623669
 20
644.476562744988
 30
0.0
 11
240.639869623669
 21
610.256623244988
 31
0.0
  0
CIRCLE
  5
30B4
330
1A
100
AcDbEntity
  8
外形線
100
AcDbCircle
 10
229.138877623669
 20
650.256560744988
 30
0.0
 40
2.499
  0
LINE
  5
30B5
330
1A
100
AcDbEntity
  8
外形線
100
AcDbLine
 10
225.139876123669
 20
645.226562744988
 30
0.0
 11
225.139876123669
 21
655.286560244988
 31
0.0
  0
LINE
  5
30B6
330
1A
100
AcDbEntity
  8
外形線
100
AcDbLine
 10
226.339880623669
 20
656.036560244988
 30
0.0
 11
253.947567155331
 21
656.036560244988
 31
0.0
  0
LINE
  5
30B7
330
1A
100
AcDbEntity
  8
外形線
100
AcDbLine
 10
226.339880623669
 20
656.036560244988
 30
0.0
 11
225.139876123669
 21
655.286560244988
 31
0.0
  0
LINE
  5
30B8
330
1A
100
AcDbEntity
  8
細線
 62
     6
100
AcDbLine
 10
226.406440123669
 20
653.146514744988
 30
0.0
 11
253.873367261592
 21
653.146514744988
 31
0.0
  0
LINE
  5
30B9
330
1A
100
AcDbEntity
  8
外形線
100
AcDbLine
 10
226.339880623669
 20
644.476562744988
 30
0.0
 11
225.139876123669
 21
645.226562744988
 31
0.0
  0
LINE
  5
30BA
330
1A
100
AcDbEntity
  8
外形線
100
AcDbLine
 10
226.339880623669
 20
644.476562744988
 30
0.0
 11
253.939871623669
 21
644.476562744988
 31
0.0
  0
LINE
  5
30BB
330
1A
100
AcDbEntity
  8
細線
 62
     6
100
AcDbLine
 10
226.406440123669
 20
647.366516744988
 30
0.0
 11
253.879910201779
 21
647.366516744988
 31
0.0
  0
CIRCLE
  5
30BE
330
1A
100
AcDbEntity
  8
外形線
100
AcDbCircle
 10
247.639876123669
 20
650.256560744988
 30
0.0
 40
0.9999
  0
ARC
  5
30C8
330
1A
100
AcDbEntity
  8
細線
 62
     6
100
AcDbCircle
 10
229.070303623669
 20
650.256515744988
 30
0.0
 40
3.9304305
100
AcDbArc
 50
132.668434758324
 51
227.331604937362
  0
ARC
  5
30C9
330
1A
100
AcDbEntity
  8
細線
 62
     6
100
AcDbCircle
 10
228.310118623669
 20
655.718002244988
 30
0.0
 40
3.1994565
100
AcDbArc
 50
187.749961576341
 51
233.487520784031
  0
ARC
  5
30CA
330
1A
100
AcDbEntity
  8
細線
 62
     6
100
AcDbCircle
 10
228.310118623669
 20
644.795120744988
 30
0.0
 40
3.1994565
100
AcDbArc
 50
126.512518911656
 51
172.250078119342
  0
LINE
  5
30D3
330
1A
100
AcDbEntity
  8
外形線
100
AcDbLine
 10
255.139876123669
 20
655.291369934239
 30
0.0
 11
255.139876123669
 21
645.231372434239
 31
0.0
  0
LINE
  5
30D4
330
1A
100
AcDbEntity
  8
外形線
100
AcDbLine
 10
253.939871623669
 20
644.481372434239
 30
0.0
 11
255.139876123669
 21
645.231372434239
 31
0.0
  0
LINE
  5
30D5
330
1A
100
AcDbEntity
  8
外形線
100
AcDbLine
 10
253.947567155331
 20
656.036560244988
 30
0.0
 11
255.147571655331
 21
655.286560244988
 31
0.0
  0
ARC
  5
30D6
330
1A
100
AcDbEntity
  8
細線
 62
     6
100
AcDbCircle
 10
251.209448623669
 20
650.261416934239
 30
0.0
 40
3.9304305
100
AcDbArc
 50
312.668434758324
 51
47.331604937362
  0
ARC
  5
30D7
330
1A
100
AcDbEntity
  8
細線
 62
     6
100
AcDbCircle
 10
251.969633623669
 20
644.799930434239
 30
0.0
 40
3.1994565
100
AcDbArc
 50
7.749961576341
 51
53.487520784031
  0
ARC
  5
30D8
330
1A
100
AcDbEntity
  8
細線
 62
     6
100
AcDbCircle
 10
251.969633623669
 20
655.722811934239
 30
0.0
 40
3.1994565
100
AcDbArc
 50
306.512518911656
 51
352.250078119342
  0
LINE
  5
30DA
330
1A
100
AcDbEntity
  8
中心線
 48
10.0
100
AcDbLine
 10
229.138877623669
 20
653.146514744988
 30
0.0
 11
229.138877623669
 21
647.366516744988
 31
0.0
  0
LINE
  5
30DC
330
1A
100
AcDbEntity
  8
中心線
 48
10.0
100
AcDbLine
 10
247.639876123669
 20
652.320251744988
 30
0.0
 11
247.639876123669
 21
648.192869744988
 31
0.0
  0
LINE
  5
30DE
330
1A
100
AcDbEntity
  8
中心線
 48
10.0
100
AcDbLine
 10
196.83217431101
 20
650.256605744987
 30
0.0
 11
397.417475870034
 21
650.256605744987
 31
0.0
  0
LINE
  5
310D
330
1A
100
AcDbEntity
  8
中心線
 48
10.0
100
AcDbLine
 10
72.502946030434
 20
701.383282653997
 30
0.0
 11
72.502946030434
 21
596.066322847257
 31
0.0
  0
LINE
  5
310E
330
1A
100
AcDbEntity
  8
外形線
 48
10.0
100
AcDbLine
 10
71.602946030434
 20
690.256605744987
 30
0.0
 11
73.402946030434
 21
690.256605744987
 31
0.0
  0
LINE
  5
310F
330
1A
100
AcDbEntity
  8
外形線
 48
10.0
100
AcDbLine
 10
73.402946030434
 20
690.256605744987
 30
0.0
 11
73.402946030434
 21
610.256605744987
 31
0.0
  0
LINE
  5
3110
330
1A
100
AcDbEntity
  8
外形線
 48
10.0
100
AcDbLine
 10
71.602946030434
 20
690.256605744987
 30
0.0
 11
71.602946030434
 21
610.256605744987
 31
0.0
  0
LINE
  5
3111
330
1A
100
AcDbEntity
  8
外形線
 48
10.0
100
AcDbLine
 10
73.402946030434
 20
610.256605744987
 30
0.0
 11
71.602946030434
 21
610.256605744987
 31
0.0
  0
DIMENSION
  5
347D
330
1A
100
AcDbEntity
  8
寸法線
 48
10.0
100
AcDbDimension
  2
*D8
 10
266.218094522177
 20
647.256605744987
 30
0.0
 11
266.218094522177
 21
672.360204135581
 31
0.0
 70
   160
  1
φ<>
  3
ISO-25
100
AcDbAlignedDimension
 13
266.218094522177
 23
653.256650744987
 33
0.0
 14
264.562955780592
 24
647.256605744987
 34
0.0
 50
90.0
100
AcDbRotatedDimension
1001
ACAD
1000
DSTYLE
1002
{
1070
     5
1000
OPEN30
1070
    41
1040
6.0
1070
    47
1040
0.1
1070
    48
1040
0.1
1070
    73
1070
     0
1070
   140
1040
6.0
1070
   271
1070
     1
1070
   272
1070
     1
1070
   341
1005
2AF4
1002
}
  0
DIMENSION
  5
34B8
330
1A
100
AcDbEntity
  8
寸法線
 48
10.0
100
AcDbDimension
  2
*D9
 10
186.268419951663
 20
610.256623244988
 30
0.0
 11
182.643419951663
 21
650.256515744988
 31
0.0
 70
    32
  3
ISO-25
100
AcDbAlignedDimension
 13
205.639876123669
 23
690.256408244988
 33
0.0
 14
205.639876123669
 24
610.256623244988
 34
0.0
 50
90.0
100
AcDbRotatedDimension
1001
ACAD
1000
DSTYLE
1002
{
1070
     5
1000
OPEN30
1070
    41
1040
6.0
1070
    47
1040
0.1
1070
    48
1040
0.1
1070
    73
1070
     0
1070
   140
1040
6.0
1070
   271
1070
     1
1070
   272
1070
     1
1070
   341
1005
2AF4
1002
}
  0
DIMENSION
  5
34C5
330
1A
100
AcDbEntity
  8
寸法線
 48
10.0
100
AcDbDimension
  2
*D10
 10
240.639869623669
 20
591.267809735126
 30
0.0
 11
223.139872873669
 21
594.892809735126
 31
0.0
 70
    32
  3
ISO-25
100
AcDbAlignedDimension
 13
205.639876123669
 23
610.256623244988
 33
0.0
 14
240.639869623669
 24
610.256623244988
 34
0.0
100
AcDbRotatedDimension
1001
ACAD
1000
DSTYLE
1002
{
1070
     5
1000
OPEN30
1070
    41
1040
6.0
1070
    47
1040
0.1
1070
    48
1040
0.1
1070
    73
1070
     0
1070
   140
1040
6.0
1070
   271
1070
     1
1070
   272
1070
     1
1070
   341
1005
2AF4
1002
}
  0
DIMENSION
  5
34ED
330
1A
100
AcDbEntity
  8
寸法線
 48
10.0
100
AcDbDimension
  2
*D11
 10
464.501014904485
 20
549.380231770226
 30
0.0
 11
423.001014904485
 21
553.014606770226
 31
0.0
 70
    32
  1
83
  3
ISO-25
100
AcDbAlignedDimension
 13
381.501014904485
 23
629.706587744987
 33
0.0
 14
464.501014904485
 24
575.013473108985
 34
0.0
100
AcDbRotatedDimension
1001
ACAD
1000
DSTYLE
1002
{
1070
     5
1000
OPEN30
1070
    41
1040
6.0
1070
    47
1040
0.1
1070
    48
1040
0.1
1070
    73
1070
     0
1070
   140
1040
6.0
1070
   271
1070
     1
1070
   272
1070
     1
1070
   341
1005
2AF4
1002
}
  0
ARC
  5
35A4
330
1A
100
AcDbEntity
  8
寸法線
100
AcDbCircle
 10
251.690329089053
 20
555.888509889474
 30
0.0
 40
0.2017125
100
AcDbArc
 50
28.23094836902
 51
123.883845843379
  0
ARC
  5
35A5
330
1A
100
AcDbEntity
  8
寸法線
100
AcDbCircle
 10
253.492681089053
 20
553.159688889474
 30
0.0
 40
3.4720395
100
AcDbArc
 50
123.469024399698
 51
239.773899120646
  0
ARC
  5
35A6
330
1A
100
AcDbEntity
  8
寸法線
100
AcDbCircle
 10
253.492681089053
 20
553.159688889474
 30
0.0
 40
3.472035
100
AcDbArc
 50
123.469024399698
 51
239.774013712205
  0
ARC
  5
35A7
330
1A
100
AcDbEntity
  8
寸法線
100
AcDbCircle
 10
248.729696589053
 20
553.913351889474
 30
0.0
 40
3.7598535
100
AcDbArc
 50
273.280470979895
 51
33.415912335968
  0
ARC
  5
35A8
330
1A
100
AcDbEntity
  8
寸法線
100
AcDbCircle
 10
248.723470089053
 20
553.912664889474
 30
0.0
 40
3.7652925
100
AcDbArc
 50
274.628927150736
 51
33.374029121142
  0
ARC
  5
35A9
330
1A
100
AcDbEntity
  8
寸法線
100
AcDbCircle
 10
252.132986589053
 20
551.421743889474
 30
0.0
 40
1.3204425
100
AcDbArc
 50
252.903398883406
 51
337.412611017141
  0
ARC
  5
35AA
330
1A
100
AcDbEntity
  8
寸法線
100
AcDbCircle
 10
252.132986589053
 20
551.421788889474
 30
0.0
 40
1.3204605
100
AcDbArc
 50
252.904086432761
 51
337.411923467787
  0
LINE
  5
35B4
330
1A
100
AcDbEntity
  8
下書線
 48
10.0
100
AcDbLine
 10
242.921041755378
 20
711.564755795184
 30
0.0
 11
471.806211087011
 21
711.564755795184
 31
0.0
  0
LINE
  5
36A7
330
1A
100
AcDbEntity
  8
中心線
 48
10.0
100
AcDbLine
 10
17.044439175826
 20
640.34514162822
 30
0.0
 11
121.472034825574
 21
640.34514162822
 31
0.0
  0
LINE
  5
36AB
330
1A
100
AcDbEntity
  8
中心線
 48
10.0
100
AcDbLine
 10
121.472034825574
 20
650.256605744987
 30
0.0
 11
17.044439175826
 21
650.256605744987
 31
0.0
  0
DIMENSION
  5
36AC
330
1A
100
AcDbEntity
  8
寸法線
 48
10.0
100
AcDbDimension
  2
*D12
 10
130.550324859068
 20
640.34514162822
 30
0.0
 11
130.550324859068
 21
645.300873686604
 31
0.0
 70
   160
  1
10
  3
ISO-25
100
AcDbAlignedDimension
 13
121.472034825574
 23
650.256605744987
 33
0.0
 14
121.472034825574
 24
640.34514162822
 34
0.0
 50
90.0
100
AcDbRotatedDimension
1001
ACAD
1000
DSTYLE
1002
{
1070
     5
1000
OPEN30
1070
    41
1040
6.0
1070
    47
1040
0.1
1070
    48
1040
0.1
1070
    73
1070
     0
1070
   140
1040
6.0
1070
   271
1070
     1
1070
   272
1070
     1
1070
   341
1005
2AF4
1002
}
  0
DIMENSION
  5
36DC
330
1A
100
AcDbEntity
  8
寸法線
 48
10.0
100
AcDbDimension
  2
*D13
 10
90.502946030434
 20
705.144602803273
 30
0.0
 11
72.05697065509
 21
705.144602803273
 31
0.0
 70
   160
  3
ISO-25
100
AcDbAlignedDimension
 13
54.502946030434
 23
660.648910590401
 33
0.0
 14
90.502946030434
 24
660.648910590401
 34
0.0
100
AcDbRotatedDimension
1001
ACAD
1000
DSTYLE
1002
{
1070
     5
1000
OPEN30
1070
    41
1040
6.0
1070
    47
1040
0.1
1070
    48
1040
0.1
1070
    73
1070
     0
1070
   140
1040
6.0
1070
   271
1070
     1
1070
   272
1070
     1
1070
   341
1005
2AF4
1002
}
  0
MTEXT
  5
36E9
330
1A
100
AcDbEntity
  8
寸法線
 48
10.0
100
AcDbMText
 10
66.527418289799
 20
718.479057422668
 30
0.0
 40
6.0
 41
19.187492735629
 71
     1
 72
     5
  1
平径
  0
DIMENSION
  5
36EB
330
1A
100
AcDbEntity
  8
寸法線
 48
10.0
100
AcDbDimension
  2
*D14
 10
73.402946030434
 20
619.178131868291
 30
0.0
 11
86.627946030434
 21
622.803131868291
 31
0.0
 70
    32
  1
1
  3
ISO-25
100
AcDbAlignedDimension
 13
71.602946030434
 23
619.178131868291
 33
0.0
 14
73.402946030434
 24
619.178131868291
 34
0.0
100
AcDbRotatedDimension
1001
ACAD
1000
DSTYLE
1002
{
1070
     5
1000
OPEN30
1070
    41
1040
6.0
1070
    47
1040
0.1
1070
    48
1040
0.1
1070
    73
1070
     0
1070
   140
1040
6.0
1070
   271
1070
     1
1070
   272
1070
     1
1070
   341
1005
2AF4
1002
}
  0
ARC
  5
3914
330
1A
100
AcDbEntity
  8
細線
100
AcDbCircle
 10
258.396944712746
 20
648.756604844988
 30
0.0
 40
3.0
100
AcDbArc
 50
330.00001984784
 51
30.000019847843
  0
ARC
  5
3915
330
1A
100
AcDbEntity
  8
細線
100
AcDbCircle
 10
260.934526693131
 20
648.756605744987
 30
0.0
 40
3.0
100
AcDbArc
 50
330.0
 51
30.0
  0
ARC
  5
3916
330
1A
100
AcDbEntity
  8
細線
100
AcDbCircle
 10
266.130679115838
 20
648.756605744987
 30
0.0
 40
3.0
100
AcDbArc
 50
150.0
 51
210.0
  0
LINE
  5
3917
330
1A
100
AcDbEntity
  8
外形線
100
AcDbLine
 10
260.995021443714
 20
647.256605744987
 30
0.0
 11
255.139876123669
 21
647.256605744987
 31
0.0
  0
LINE
  5
3918
330
1A
100
AcDbEntity
  8
外形線
100
AcDbLine
 10
271.301032904485
 20
647.256605744987
 30
0.0
 11
263.532602904485
 21
647.256605744987
 31
0.0
  0
ARC
  5
391C
330
1A
100
AcDbEntity
  8
細線
100
AcDbCircle
 10
263.593096096223
 20
651.756606644988
 30
0.0
 40
3.0
100
AcDbArc
 50
150.00001984784
 51
210.000019847843
  0
ARC
  5
391D
330
1A
100
AcDbEntity
  8
細線
100
AcDbCircle
 10
258.396943673516
 20
651.756604844988
 30
0.0
 40
3.0
100
AcDbArc
 50
330.00001984784
 51
30.000019847843
  0
ARC
  5
391E
330
1A
100
AcDbEntity
  8
細線
100
AcDbCircle
 10
266.130679115838
 20
651.756605744987
 30
0.0
 40
3.0
100
AcDbArc
 50
150.0
 51
210.0
  0
LINE
  5
391F
330
1A
100
AcDbEntity
  8
外形線
100
AcDbLine
 10
260.995021443714
 20
653.256605744987
 30
0.0
 11
255.139876123669
 21
653.256605744988
 31
0.0
  0
LINE
  5
3920
330
1A
100
AcDbEntity
  8
外形線
100
AcDbLine
 10
271.301032904485
 20
653.256605744987
 30
0.0
 11
263.532602904485
 21
653.256605744987
 31
0.0
  0
DIMENSION
  5
394D
330
1A
100
AcDbEntity
  8
寸法線
 48
10.0
100
AcDbDimension
  2
*D16
 10
381.501014904485
 20
549.380231770226
 30
0.0
 11
338.526023904485
 21
549.380231770226
 31
0.0
 70
   160
  1
85
  3
ISO-25
100
AcDbAlignedDimension
 13
296.501014904483
 23
629.706587744987
 33
0.0
 14
381.501014904485
 24
629.706587744987
 34
0.0
100
AcDbRotatedDimension
1001
ACAD
1000
DSTYLE
1002
{
1070
     5
1000
OPEN30
1070
    41
1040
6.0
1070
    47
1040
0.1
1070
    48
1040
0.1
1070
    73
1070
     0
1070
   140
1040
6.0
1070
   271
1070
     1
1070
   272
1070
     1
1070
   341
1005
2AF4
1002
}
  0
MTEXT
  5
3DFD
330
1A
100
AcDbEntity
  8
寸法線
 48
10.0
100
AcDbMText
 10
241.955386247383
 20
743.00261286818
 30
0.0
 40
6.0
 41
0.0
 71
     3
 72
     1
  1
\A1;SUS304
1001
ACAD
1000
MTEXTBEGIN
1070
    44
1040
0.8
1000
MTEXTEND
  0
MTEXT
  5
3DFF
330
1A
100
AcDbEntity
  8
寸法線
 48
10.0
100
AcDbMText
 10
208.428437389107
 20
750.379311369145
 30
0.0
 40
5.0
 41
0.0
 71
     9
 72
     1
  1
\A1;
  0
MTEXT
  5
3E01
330
1A
100
AcDbEntity
  8
寸法線
 48
10.0
100
AcDbMText
 10
203.72940688198
 20
736.966866918919
 30
0.0
 40
6.0
 41
0.0
 71
     9
 72
     1
  1
\A1;SUS304
1001
ACAD
1000
MTEXTBEGIN
1070
    44
1040
0.8
1000
MTEXTEND
  0
MTEXT
  5
3E03
330
1A
100
AcDbEntity
  8
寸法線
 48
10.0
100
AcDbMText
 10
274.028860946767
 20
719.327491467859
 30
0.0
 40
5.0
 41
0.0
 71
     1
 72
     1
  1
\A1;
  0
MTEXT
  5
3E05
330
1A
100
AcDbEntity
  8
寸法線
 48
10.0
100
AcDbMText
 10
274.781586052757
 20
727.246760917089
 30
0.0
 40
6.0
 41
0.0
 71
     3
 72
     1
  1
\A1;ナット\PSS400
1001
ACAD
1000
MTEXTBEGIN
1070
    44
1040
0.8
1000
MTEXTEND
  0
MTEXT
  5
3E08
330
1A
100
AcDbEntity
  8
寸法線
 48
10.0
100
AcDbMText
 10
283.126738546287
 20
751.047221751213
 30
0.0
 40
6.0
 41
0.0
 71
     3
 72
     1
  1
\A1;座金\PSS400
1001
ACAD
1000
MTEXTBEGIN
1070
    44
1040
0.8
1000
MTEXTEND
  0
MTEXT
  5
3E0A
330
1A
100
AcDbEntity
  8
寸法線
 48
10.0
100
AcDbMText
 10
306.115318830966
 20
742.92130131463
 30
0.0
 40
6.0
 41
0.0
 71
     1
 72
     1
  1
\A1;貴取付板
1001
ACAD
1000
MTEXTBEGIN
1070
    44
1040
0.8
1000
MTEXTEND
  0
MTEXT
  5
3E0C
330
1A
100
AcDbEntity
  8
寸法線
 48
10.0
100
AcDbMText
 10
308.74915915295
 20
725.47386123986
 30
0.0
 40
6.0
 41
0.0
 71
     1
 72
     1
  1
ゴム\Pパッキン
1001
ACAD
1000
MTEXTBEGIN
1070
    44
1040
0.8
1000
MTEXTEND
  0
MTEXT
  5
3E0E
330
1A
100
AcDbEntity
  8
寸法線
 48
10.0
100
AcDbMText
 10
352.627660227443
 20
742.547557350726
 30
0.0
 40
6.0
 41
0.0
 71
     1
 72
     1
  1
\A1;アルミ鋳物
1001
ACAD
1000
MTEXTBEGIN
1070
    44
1040
0.8
1000
MTEXTEND
  0
MTEXT
  5
3E10
330
1A
100
AcDbEntity
  8
寸法線
 48
10.0
100
AcDbMText
 10
367.335396759588
 20
718.439578271338
 30
0.0
 40
6.0
 41
0.0
 71
     1
 72
     1
  1
\A1;アルミ
1001
ACAD
1000
MTEXTBEGIN
1070
    44
1040
0.8
1000
MTEXTEND
  0
MTEXT
  5
3E12
330
1A
100
AcDbEntity
  8
寸法線
 48
10.0
100
AcDbMText
 10
398.926032904485
 20
742.547557350726
 30
0.0
 40
6.0
 41
0.0
 71
     1
 72
     1
  1
\A1;亜鉛ダイカスト
1001
ACAD
1000
MTEXTBEGIN
1070
    44
1040
0.8
1000
MTEXTEND
  0
MTEXT
  5
3E14
330
1A
100
AcDbEntity
  8
寸法線
 48
10.0
100
AcDbMText
 10
417.799869957512
 20
718.439578271338
 30
0.0
 40
6.0
 41
0.0
 71
     1
 72
     1
  1
\A1;Oリング
1001
ACAD
1000
MTEXTBEGIN
1070
    44
1040
0.8
1000
MTEXTEND
  0
MTEXT
  5
3E16
330
1A
100
AcDbEntity
  8
寸法線
 48
10.0
100
AcDbMText
 10
463.972194112652
 20
743.287766330602
 30
0.0
 40
6.0
 41
0.0
 71
     1
 72
     1
  1
\A1;亜鉛ダイカスト
1001
ACAD
1000
MTEXTBEGIN
1070
    44
1040
0.8
1000
MTEXTEND
  0
LEADER
  5
3E18
330
1A
100
AcDbEntity
  8
寸法線
 48
10.0
100
AcDbLeader
  3
ISO-25
 73
     0
 74
     0
 75
     1
 40
14.2
 41
20.0
 76
     3
 10
248.120271700816
 20
649.256660744988
 30
0.0
 10
260.608677099952
 20
610.032043113689
 30
0.0
 10
266.608677099952
 20
610.032043113689
 30
0.0
340
3E19
213
4.766774340847405
223
-14.77931014742921
233
0.0
1001
ACAD
1000
DSTYLE
1002
{
1070
     5
1000
OPEN30
1070
   147
1040
0.625
1070
    77
1070
     0
1070
    41
1040
6.0
1070
    47
1040
0.1
1070
    48
1040
0.1
1070
    73
1070
     0
1070
   140
1040
5.0
1070
   271
1070
     1
1070
   272
1070
     1
1070
   341
1005
2AF4
1070
   342
1005
2AF4
1002
}
  0
MTEXT
  5
3E19
102
{ACAD_REACTORS
330
3E18
102
}
330
1A
100
AcDbEntity
  8
寸法線
 48
10.0
100
AcDbMText
 10
262.466902759105
 20
624.811353261118
 30
0.0
 40
6.0
 41
0.0
 71
     1
 72
     1
  1
\A1;φ2\P割ピン
1001
ACAD
1000
MTEXTBEGIN
1070
    44
1040
0.8
1000
MTEXTEND
  0
DIMENSION
  5
3E2E
330
1A
100
AcDbEntity
  8
寸法線
 48
10.0
100
AcDbDimension
  2
*D17
 10
296.501014904486
 20
549.380231770227
 30
0.0
 11
250.595454514078
 21
549.380231770227
 31
0.0
 70
    32
  1
 
  3
ISO-25
100
AcDbAlignedDimension
 13
205.639876123669
 23
590.017809735126
 33
0.0
 14
296.501014904486
 24
629.706587744987
 34
0.0
100
AcDbRotatedDimension
1001
ACAD
1000
DSTYLE
1002
{
1070
     5
1000
OPEN30
1070
    41
1040
6.0
1070
    47
1040
0.1
1070
    48
1040
0.1
1070
    73
1070
     0
1070
   140
1040
5.0
1070
   271
1070
     1
1070
   272
1070
     1
1070
   341
1005
2AF4
1002
}
  0
LEADER
  5
3EAB
330
1A
100
AcDbEntity
  8
寸法線
 48
10.0
100
AcDbLeader
  3
ISO-25
 76
     3
 10
258.065587650564
 20
653.339425005697
 30
0.0
 10
241.769060030635
 20
735.681171815385
 30
0.0
 10
232.565682137093
 20
735.681171815385
 30
0.0
1001
ACAD
1000
DSTYLE
1002
{
1070
     5
1000
OPEN30
1070
   147
1040
0.625
1070
    77
1070
     0
1070
    41
1040
6.0
1070
    47
1040
0.1
1070
    48
1040
0.1
1070
    73
1070
     0
1070
   140
1040
5.0
1070
   271
1070
     1
1070
   272
1070
     1
1070
   341
1005
2AF4
1070
   342
1005
2AF4
1002
}
  0
LEADER
  5
3EAC
330
1A
100
AcDbEntity
  8
寸法線
 48
10.0
100
AcDbLeader
  3
ISO-25
 76
     3
 10
215.143746329958
 20
690.26706086633
 30
0.0
 10
203.437791128333
 20
735.681171815385
 30
0.0
 10
197.470047728713
 20
735.681171815385
 30
0.0
1001
ACAD
1000
DSTYLE
1002
{
1070
     5
1000
OPEN30
1070
   147
1040
0.625
1070
    77
1070
     0
1070
    41
1040
6.0
1070
    47
1040
0.1
1070
    48
1040
0.1
1070
    73
1070
     0
1070
   140
1040
5.0
1070
   271
1070
     1
1070
   272
1070
     1
1070
   341
1005
2AF4
1070
   342
1005
2AF4
1002
}
  0
LEADER
  5
3EAD
330
1A
100
AcDbEntity
  8
寸法線
 48
10.0
100
AcDbLeader
  3
ISO-25
 73
     0
 76
     3
 10
289.610771479014
 20
672.773138614443
 30
0.0
 10
284.231843737323
 20
735.681171815385
 30
0.0
 10
274.591643147234
 20
735.681171815385
 30
0.0
340
3EAE
213
0.0
223
2.5
233
0.0
1001
ACAD
1000
DSTYLE
1002
{
1070
     5
1000
OPEN30
1070
   147
1040
0.625
1070
    77
1070
     0
1070
    41
1040
6.0
1070
    47
1040
0.1
1070
    48
1040
0.1
1070
    73
1070
     0
1070
   140
1040
5.0
1070
   271
1070
     1
1070
   272
1070
     1
1070
   341
1005
2AF4
1070
   342
1005
2AF4
1002
}
  0
MTEXT
  5
3EAE
102
{ACAD_REACTORS
330
3EAD
102
}
330
1A
100
AcDbEntity
  8
寸法線
 48
10.0
100
AcDbMText
 10
263.244466689516
 20
738.443907488061
 30
0.0
 40
5.0
 41
0.0
 71
     9
 72
     1
  1
\A1;
  0
LEADER
  5
3EAF
330
1A
100
AcDbEntity
  8
寸法線
 48
10.0
100
AcDbLeader
  3
ISO-25
 76
     3
 10
286.526238362439
 20
671.252594120357
 30
0.0
 10
275.73928625181
 20
711.597931226841
 30
0.0
 10
268.394371870873
 20
711.597931226841
 30
0.0
1001
ACAD
1000
DSTYLE
1002
{
1070
     5
1000
OPEN30
1070
   147
1040
0.625
1070
    77
1070
     0
1070
    41
1040
6.0
1070
    47
1040
0.1
1070
    48
1040
0.1
1070
    73
1070
     0
1070
   140
1040
5.0
1070
   271
1070
     1
1070
   272
1070
     1
1070
   341
1005
2AF4
1070
   342
1005
2AF4
1002
}
  0
LEADER
  5
3EB0
330
1A
100
AcDbEntity
  8
寸法線
 48
10.0
100
AcDbLeader
  3
ISO-25
 76
     3
 10
291.904193052726
 20
697.095041295648
 30
0.0
 10
304.845292532053
 20
735.681171815385
 30
0.0
 10
316.136313486524
 20
735.681171815385
 30
0.0
1001
ACAD
1000
DSTYLE
1002
{
1070
     5
1000
OPEN30
1070
   147
1040
0.625
1070
    77
1070
     0
1070
    41
1040
6.0
1070
    47
1040
0.1
1070
    48
1040
0.1
1070
    73
1070
     0
1070
   140
1040
5.0
1070
   271
1070
     1
1070
   272
1070
     1
1070
   341
1005
2AF4
1070
   342
1005
2AF4
1002
}
  0
LEADER
  5
3EB1
330
1A
100
AcDbEntity
  8
寸法線
 48
10.0
100
AcDbLeader
  3
ISO-25
 76
     3
 10
295.38434787473
 20
670.771103991176
 30
0.0
 10
308.252648739652
 20
711.368566822522
 30
0.0
 10
319.283482213696
 20
711.368566822522
 30
0.0
1001
ACAD
1000
DSTYLE
1002
{
1070
     5
1000
OPEN30
1070
   147
1040
0.625
1070
    77
1070
     0
1070
    41
1040
6.0
1070
    47
1040
0.1
1070
    48
1040
0.1
1070
    73
1070
     0
1070
   140
1040
5.0
1070
   271
1070
     1
1070
   272
1070
     1
1070
   341
1005
2AF4
1070
   342
1005
2AF4
1002
}
  0
LEADER
  5
3EB2
330
1A
100
AcDbEntity
  8
寸法線
 48
10.0
100
AcDbLeader
  3
ISO-25
 76
     3
 10
335.220377830406
 20
667.756605744988
 30
0.0
 10
352.552244038647
 20
735.451187322897
 30
0.0
 10
363.43598608511
 20
735.451187322897
 30
0.0
1001
ACAD
1000
DSTYLE
1002
{
1070
     5
1000
OPEN30
1070
   147
1040
0.625
1070
    77
1070
     0
1070
    41
1040
6.0
1070
    47
1040
0.1
1070
    48
1040
0.1
1070
    73
1070
     0
1070
   140
1040
5.0
1070
   271
1070
     1
1070
   272
1070
     1
1070
   341
1005
2AF4
1070
   342
1005
2AF4
1002
}
  0
LEADER
  5
3EB3
330
1A
100
AcDbEntity
  8
寸法線
 48
10.0
100
AcDbLeader
  3
ISO-25
 76
     3
 10
367.32472135011
 20
697.2867984999
 30
0.0
 10
368.328362466893
 20
711.590171816064
 30
0.0
 10
376.063711359719
 20
711.590171816064
 30
0.0
1001
ACAD
1000
DSTYLE
1002
{
1070
     5
1000
OPEN30
1070
   147
1040
0.625
1070
    77
1070
     0
1070
    41
1040
6.0
1070
    47
1040
0.1
1070
    48
1040
0.1
1070
    73
1070
     0
1070
   140
1040
5.0
1070
   271
1070
     1
1070
   272
1070
     1
1070
   341
1005
2AF4
1070
   342
1005
2AF4
1002
}
  0
LEADER
  5
3EB4
330
1A
100
AcDbEntity
  8
寸法線
 48
10.0
100
AcDbLeader
  3
ISO-25
 76
     3
 10
414.800289148846
 20
675.764238639513
 30
0.0
 10
417.126650450377
 20
711.590171816064
 30
0.0
 10
425.087778085672
 20
711.590171816064
 30
0.0
1001
ACAD
1000
DSTYLE
1002
{
1070
     5
1000
OPEN30
1070
   147
1040
0.625
1070
    77
1070
     0
1070
    41
1040
6.0
1070
    47
1040
0.1
1070
    48
1040
0.1
1070
    73
1070
     0
1070
   140
1040
5.0
1070
   271
1070
     1
1070
   272
1070
     1
1070
   341
1005
2AF4
1070
   342
1005
2AF4
1002
}
  0
LEADER
  5
3EB6
330
1A
100
AcDbEntity
  8
寸法線
 48
10.0
100
AcDbLeader
  3
ISO-25
 76
     3
 10
395.75883769123
 20
673.43359631369
 30
0.0
 10
399.471481464283
 20
735.444048874885
 30
0.0
 10
409.369148014879
 20
735.444048874885
 30
0.0
1001
ACAD
1000
DSTYLE
1002
{
1070
     5
1000
OPEN30
1070
   147
1040
0.625
1070
    77
1070
     0
1070
    41
1040
6.0
1070
    47
1040
0.1
1070
    48
1040
0.1
1070
    73
1070
     0
1070
   140
1040
5.0
1070
   271
1070
     1
1070
   272
1070
     1
1070
   341
1005
2AF4
1070
   342
1005
2AF4
1002
}
  0
LEADER
  5
3EB7
330
1A
100
AcDbEntity
  8
寸法線
 48
10.0
100
AcDbLeader
  3
ISO-25
 76
     3
 10
442.880316622135
 20
673.745079212752
 30
0.0
 10
463.308359046451
 20
735.673412404608
 30
0.0
 10
473.63714326676
 20
735.673412404608
 30
0.0
1001
ACAD
1000
DSTYLE
1002
{
1070
     5
1000
OPEN30
1070
   147
1040
0.625
1070
    77
1070
     0
1070
    41
1040
6.0
1070
    47
1040
0.1
1070
    48
1040
0.1
1070
    73
1070
     0
1070
   140
1040
5.0
1070
   271
1070
     1
1070
   272
1070
     1
1070
   341
1005
2AF4
1070
   342
1005
2AF4
1002
}
  0
MTEXT
  5
401D
330
1A
100
AcDbEntity
  8
寸法線
 48
10.0
100
AcDbMText
 10
16.576176994658
 20
584.930108802302
 30
0.0
 40
5.0
 41
63.804781576954
 71
     1
 72
     5
  1
{\H1.2x;コードロック\PビメットBMS050B}
  0
LEADER
  5
401E
330
1A
100
AcDbEntity
  8
寸法線
 48
10.0
100
AcDbLeader
  3
ISO-25
 76
     3
 10
90.077965736636
 20
585.824436049766
 30
0.0
 10
80.396764531359
 20
567.296562300646
 30
0.0
 10
60.850189543139
 20
567.296562300646
 30
0.0
1001
ACAD
1000
DSTYLE
1002
{
1070
     5
1000
OPEN30
1070
   147
1040
0.625
1070
    77
1070
     0
1070
    41
1040
6.0
1070
    47
1040
0.1
1070
    48
1040
0.1
1070
    73
1070
     0
1070
   140
1040
5.0
1070
   271
1070
     1
1070
   272
1070
     1
1070
   341
1005
2AF4
1070
   342
1005
2AF4
1002
}
  0
LINE
  5
40C5
330
1A
100
AcDbEntity
  8
中心線
 48
10.0
100
AcDbLine
 10
367.263769207316
 20
650.256605744987
 30
0.0
 11
397.417475870034
 21
650.256605744987
 31
0.0
  0
LINE
  5
40C6
330
1A
100
AcDbEntity
  8
中心線
 48
10.0
100
AcDbLine
 10
470.687489188195
 20
640.431578744988
 30
0.0
 11
379.914576620775
 21
640.431578744988
 31
0.0
  0
LINE
  5
410E
330
1A
100
AcDbEntity
  8
下書線
 48
10.0
100
AcDbLine
 10
191.648192636135
 20
735.62564389525
 30
0.0
 11
501.16671835661
 21
735.62564389525
 31
0.0
  0
LINE
  5
4196
330
1A
100
AcDbEntity
  8
寸法線
100
AcDbLine
 10
419.336693621115
 20
480.432369886318
 30
0.0
 11
419.336693621115
 21
522.432324886318
 31
0.0
  0
LINE
  5
4197
330
1A
100
AcDbEntity
  8
寸法線
100
AcDbLine
 10
495.238577039663
 20
511.932324886318
 30
0.0
 11
364.903900684952
 21
511.932324886318
 31
0.0
  0
LINE
  5
4198
330
1A
100
AcDbEntity
  8
寸法線
100
AcDbLine
 10
495.238577039663
 20
501.432324886318
 30
0.0
 11
364.903900684952
 21
501.432324886318
 31
0.0
  0
LINE
  5
4199
330
1A
100
AcDbEntity
  8
寸法線
100
AcDbLine
 10
495.238577039663
 20
490.932324886318
 30
0.0
 11
364.903900684952
 21
490.932324886318
 31
0.0
  0
LINE
  5
419A
330
1A
100
AcDbEntity
  8
寸法線
100
AcDbLine
 10
364.903900684952
 20
522.432324886318
 30
0.0
 11
495.238577039663
 21
522.432324886318
 31
0.0
  0
LINE
  5
419B
330
1A
100
AcDbEntity
  8
寸法線
100
AcDbLine
 10
388.903923184953
 20
480.432369886318
 30
0.0
 11
388.903923184953
 21
522.432324886318
 31
0.0
  0
ARC
  5
419C
330
1A
100
AcDbEntity
  8
寸法線
100
AcDbCircle
 10
404.87896979913
 20
515.272259386318
 30
0.0
 40
1.3204605
100
AcDbArc
 50
252.904086432755
 51
337.411923467769
  0
ARC
  5
419D
330
1A
100
AcDbEntity
  8
寸法線
100
AcDbCircle
 10
404.87896979913
 20
515.272214386318
 30
0.0
 40
1.3204425
100
AcDbArc
 50
252.903398883387
 51
337.412611017145
  0
ARC
  5
419E
330
1A
100
AcDbEntity
  8
寸法線
100
AcDbCircle
 10
401.475679799131
 20
517.763822386318
 30
0.0
 40
3.7598535
100
AcDbArc
 50
273.280470979895
 51
33.415912335964
  0
ARC
  5
419F
330
1A
100
AcDbEntity
  8
寸法線
100
AcDbCircle
 10
406.23866429913
 20
517.010159386318
 30
0.0
 40
3.472035
100
AcDbArc
 50
123.469024399707
 51
239.77401371222
  0
ARC
  5
41A0
330
1A
100
AcDbEntity
  8
寸法線
100
AcDbCircle
 10
406.23866429913
 20
517.010159386318
 30
0.0
 40
3.4720395
100
AcDbArc
 50
123.469024399707
 51
239.773899120651
  0
ARC
  5
41A1
330
1A
100
AcDbEntity
  8
寸法線
100
AcDbCircle
 10
404.436312299131
 20
519.738980386318
 30
0.0
 40
0.2017125
100
AcDbArc
 50
28.230948369023
 51
123.883845843382
  0
LINE
  5
41A2
330
1A
100
AcDbEntity
  8
寸法線
100
AcDbLine
 10
495.238577039663
 20
480.432369886318
 30
0.0
 11
364.903900684952
 21
480.432369886318
 31
0.0
  0
LINE
  5
41A3
330
1A
100
AcDbEntity
  8
寸法線
100
AcDbLine
 10
364.903923184953
 20
480.432369886318
 30
0.0
 11
364.903923184953
 21
522.432324886318
 31
0.0
  0
TEXT
  5
41A4
330
1A
100
AcDbEntity
  8
寸法線
100
AcDbText
 10
366.932227684952
 20
513.994503886318
 30
0.0
 40
6.75
  1
御仕様
 41
0.9
  7
EXCADSTD
 72
     5
 11
387.182227684952
 21
513.994503886318
 31
0.0
100
AcDbText
  0
LINE
  5
41A5
330
1A
100
AcDbEntity
  8
寸法線
100
AcDbLine
 10
495.238577039663
 20
480.432369886318
 30
0.0
 11
495.238577039663
 21
522.432324886318
 31
0.0
  0
LINE
  5
41A6
330
1A
100
AcDbEntity
  8
寸法線
100
AcDbLine
 10
471.376549428425
 20
480.432369886318
 30
0.0
 11
471.376549428425
 21
522.432324886318
 31
0.0
  0
TEXT
  5
41A7
330
1A
100
AcDbEntity
  8
寸法線
100
AcDbText
 10
476.24573438014
 20
513.844448386318
 30
0.0
 40
6.75
  1
台数
 41
0.9375
  7
EXCADSTD
 72
     5
 11
489.74573438014
 21
513.844448386318
 31
0.0
100
AcDbText
  0
TEXT
  5
41A8
330
1A
100
AcDbEntity
  8
寸法線
100
AcDbText
 10
437.641472621115
 20
513.994458886318
 30
0.0
 40
6.75
  1
記事
 41
0.9375
  7
EXCADSTD
 72
     5
 11
451.141472621115
 21
513.994458886318
 31
0.0
100
AcDbText
  0
MTEXT
  5
41A9
102
{ACAD_XDICTIONARY
360
48AC
102
}
330
1A
100
AcDbEntity
  8
隠れ線
 48
10.0
100
AcDbMText
 10
403.333717249882
 20
508.860331763946
 30
0.0
 40
6.0
 41
19.035286317203
 71
     2
 72
     5
  1
\C1;85\P100\P135
1001
ACADANNOTATIVE
1000
AnnotativeData
1002
{
1070
     1
1070
     0
1002
}
  0
MTEXT
  5
41AA
330
1A
100
AcDbEntity
  8
隠れ線
 48
10.0
100
AcDbMText
 10
392.617747343001
 20
476.433613027906
 30
0.0
 40
6.0
 41
102.645465564322
 71
     1
 72
     5
  1
{\C1;○印が今回の貴社の御仕様です。}
  0
ARC
  5
46B0
330
1A
100
AcDbEntity
  8
外形線
 48
10.0
100
AcDbCircle
 10
72.636795530444
 20
650.345172128228
 30
0.0
 40
22.5
100
AcDbArc
 50
92.633603408824
 51
267.366396591176
  0
LINE
  5
46B1
330
1A
100
AcDbEntity
  8
外形線
 48
10.0
100
AcDbLine
 10
77.502946030434
 20
647.36985439904
 30
0.0
 11
77.502946030434
 21
653.143357090936
 31
0.0
  0
LINE
  5
46B2
330
1A
100
AcDbEntity
  8
外形線
 48
10.0
100
AcDbLine
 10
67.502946030434
 20
647.36985439904
 30
0.0
 11
67.502946030434
 21
653.143357090936
 31
0.0
  0
LINE
  5
46B3
330
1A
100
AcDbEntity
  8
外形線
 48
10.0
100
AcDbLine
 10
73.402946030434
 20
645.002718295362
 30
0.0
 11
77.502946030435
 21
647.36985439904
 31
0.0
  0
LINE
  5
46B4
330
1A
100
AcDbEntity
  8
外形線
 48
10.0
100
AcDbLine
 10
67.502946030434
 20
653.143357090936
 30
0.0
 11
71.602946030434
 21
655.510493194613
 31
0.0
  0
LINE
  5
46B5
330
1A
100
AcDbEntity
  8
外形線
 48
10.0
100
AcDbLine
 10
77.502946030434
 20
653.143357090936
 30
0.0
 11
73.402946030434
 21
655.510493194614
 31
0.0
  0
LINE
  5
46B6
330
1A
100
AcDbEntity
  8
外形線
 48
10.0
100
AcDbLine
 10
71.602946030434
 20
645.002718295362
 30
0.0
 11
67.502946030434
 21
647.369854399039
 31
0.0
  0
ARC
  5
46B7
330
1A
100
AcDbEntity
  8
細線
 48
10.0
100
AcDbCircle
 10
72.502946030434
 20
650.256605744987
 30
0.0
 40
5.0
100
AcDbArc
 50
100.369759805478
 51
259.630240194522
  0
ARC
  5
46D7
330
1A
100
AcDbEntity
  8
細線
 48
10.0
100
AcDbCircle
 10
72.502946030434
 20
650.256605744987
 30
0.0
 40
5.0
100
AcDbArc
 50
280.369759805478
 51
79.630240194522
  0
ARC
  5
46D8
330
1A
100
AcDbEntity
  8
外形線
 48
10.0
100
AcDbCircle
 10
72.636795530444
 20
650.345172128228
 30
0.0
 40
22.5
100
AcDbArc
 50
271.951363445946
 51
88.048636554054
  0
LINE
  5
46EE
330
1A
100
AcDbEntity
  8
外形線
100
AcDbLine
 10
366.501014904485
 20
603.256605744987
 30
0.0
 11
366.501014904485
 21
697.256605744987
 31
0.0
  0
LINE
  5
46EF
330
1A
100
AcDbEntity
  8
外形線
100
AcDbLine
 10
368.001014904485
 20
697.256605744987
 30
0.0
 11
368.001014904485
 21
603.256605744987
 31
0.0
  0
LINE
  5
46F0
330
1A
100
AcDbEntity
  8
外形線
100
AcDbLine
 10
376.001014904485
 20
634.256605744988
 30
0.0
 11
368.001014904485
 21
634.256605744987
 31
0.0
  0
LINE
  5
46F1
330
1A
100
AcDbEntity
  8
外形線
100
AcDbLine
 10
376.001014904485
 20
697.256605744987
 30
0.0
 11
376.001014904485
 21
603.256605744987
 31
0.0
  0
LINE
  5
46F2
330
1A
100
AcDbEntity
  8
外形線
100
AcDbLine
 10
377.501014904485
 20
697.256605744987
 30
0.0
 11
377.501014904485
 21
603.256605744987
 31
0.0
  0
LINE
  5
46F3
330
1A
100
AcDbEntity
  8
外形線
100
AcDbLine
 10
381.501014904485
 20
634.256605744988
 30
0.0
 11
377.501014904485
 21
634.256605744988
 31
0.0
  0
LINE
  5
46F4
330
1A
100
AcDbEntity
  8
外形線
100
AcDbLine
 10
376.001014904485
 20
666.256605744987
 30
0.0
 11
368.001014904485
 21
666.256605744987
 31
0.0
  0
LINE
  5
46F5
330
1A
100
AcDbEntity
  8
外形線
100
AcDbLine
 10
381.501014904485
 20
666.256605744987
 30
0.0
 11
377.501014904485
 21
666.256605744987
 31
0.0
  0
LINE
  5
46F6
330
1A
100
AcDbEntity
  8
外形線
 48
10.0
100
AcDbLine
 10
366.501014904485
 20
697.256605744987
 30
0.0
 11
368.001014904485
 21
697.256605744987
 31
0.0
  0
LINE
  5
46F7
330
1A
100
AcDbEntity
  8
外形線
 48
10.0
100
AcDbLine
 10
296.501014904483
 20
670.806578744988
 30
0.0
 11
296.501014904486
 21
629.706587744987
 31
0.0
  0
MTEXT
  5
4714
330
1A
100
AcDbEntity
  8
寸法線
 48
10.0
100
AcDbMText
 10
288.332669539464
 20
950.125928509937
 30
0.0
 40
5.0
 41
0.0
 71
     9
 72
     1
  1
\A1;
  0
LINE
  5
471F
330
1A
100
AcDbEntity
  8
隠れ線
 48
10.0
100
AcDbLine
 10
294.501014904485
 20
629.706587744987
 30
0.0
 11
294.501014904485
 21
599.137986697515
 31
0.0
  0
LINE
  5
4720
330
1A
100
AcDbEntity
  8
隠れ線
 48
10.0
100
AcDbLine
 10
290.501014904485
 20
627.756605744987
 30
0.0
 11
290.501014904485
 21
598.937478472151
 31
0.0
  0
LINE
  5
4721
330
1A
100
AcDbEntity
  8
隠れ線
 48
10.0
100
AcDbLine
 10
294.501014904485
 20
696.972318802797
 30
0.0
 11
294.501014904485
 21
670.806578744988
 31
0.0
  0
LINE
  5
4722
330
1A
100
AcDbEntity
  8
隠れ線
 48
10.0
100
AcDbLine
 10
290.501014904485
 20
696.972318802797
 30
0.0
 11
290.501014904485
 21
672.756605744987
 31
0.0
  0
LINE
  5
4723
330
1A
100
AcDbEntity
  8
外形線
 48
10.0
100
AcDbLine
 10
296.501014904485
 20
670.806578744988
 30
0.0
 11
294.501014904485
 21
670.806578744988
 31
0.0
  0
LINE
  5
4724
330
1A
100
AcDbEntity
  8
外形線
 48
10.0
100
AcDbLine
 10
296.501014904485
 20
629.706587744987
 30
0.0
 11
294.501014904485
 21
629.706587744987
 31
0.0
  0
LINE
  5
4725
330
1A
100
AcDbEntity
  8
外形線
 48
10.0
100
AcDbLine
 10
294.501014904485
 20
629.706587744987
 30
0.0
 11
294.501014904485
 21
670.806578744988
 31
0.0
  0
LINE
  5
4788
330
1A
100
AcDbEntity
  8
外形線
 48
10.0
100
AcDbLine
 10
296.801014904485
 20
667.756605744987
 30
0.0
 11
366.201014904485
 21
667.756605744987
 31
0.0
  0
LINE
  5
4789
330
1A
100
AcDbEntity
  8
外形線
 48
10.0
100
AcDbLine
 10
366.501014904485
 20
633.056605744988
 30
0.0
 11
366.501014904485
 21
667.456605744987
 31
0.0
  0
LINE
  5
478A
330
1A
100
AcDbEntity
  8
外形線
 48
10.0
100
AcDbLine
 10
296.501014904485
 20
667.456605744987
 30
0.0
 11
296.501014904485
 21
633.056605744987
 31
0.0
  0
ARC
  5
478B
330
1A
100
AcDbEntity
  8
外形線
 48
10.0
100
AcDbCircle
 10
296.801014904485
 20
667.456605744987
 30
0.0
 40
0.3
100
AcDbArc
 50
90.0
 51
180.0
  0
ARC
  5
478C
330
1A
100
AcDbEntity
  8
外形線
 48
10.0
100
AcDbCircle
 10
296.801014904485
 20
633.056605744987
 30
0.0
 40
0.3
100
AcDbArc
 50
180.0
 51
270.0
  0
ARC
  5
478D
330
1A
100
AcDbEntity
  8
外形線
 48
10.0
100
AcDbCircle
 10
366.201014904485
 20
667.456605744987
 30
0.0
 40
0.3
100
AcDbArc
 50
0.0
 51
90.0
  0
ARC
  5
478E
330
1A
100
AcDbEntity
  8
外形線
 48
10.0
100
AcDbCircle
 10
366.201014904485
 20
633.056605744988
 30
0.0
 40
0.3
100
AcDbArc
 50
270.0
 51
0.0
  0
LINE
  5
478F
330
1A
100
AcDbEntity
  8
細線
 48
10.0
100
AcDbLine
 10
341.501014904485
 20
667.482721562648
 30
0.0
 11
307.501014904485
 21
667.482721562648
 31
0.0
  0
LINE
  5
4790
330
1A
100
AcDbEntity
  8
細線
 48
10.0
100
AcDbLine
 10
339.001014904485
 20
660.720342881196
 30
0.0
 11
310.001014904485
 21
660.720342881196
 31
0.0
  0
LINE
  5
4791
330
1A
100
AcDbEntity
  8
細線
 48
10.0
100
AcDbLine
 10
339.001014904485
 20
660.720342881196
 30
0.0
 11
339.001014904485
 21
653.649275069331
 31
0.0
  0
LINE
  5
4792
330
1A
100
AcDbEntity
  8
細線
 48
10.0
100
AcDbLine
 10
310.001014904485
 20
660.720342881196
 30
0.0
 11
310.001014904485
 21
653.649275069331
 31
0.0
  0
LINE
  5
4793
330
1A
100
AcDbEntity
  8
細線
 48
10.0
100
AcDbLine
 10
339.001014904485
 20
660.720342881196
 30
0.0
 11
341.501014904485
 21
667.482721562648
 31
0.0
  0
LINE
  5
4794
330
1A
100
AcDbEntity
  8
細線
 48
10.0
100
AcDbLine
 10
310.001014904485
 20
660.720342881196
 30
0.0
 11
307.501014904485
 21
667.482721562648
 31
0.0
  0
LINE
  5
4795
330
1A
100
AcDbEntity
  8
細線
 48
10.0
100
AcDbLine
 10
341.501014904485
 20
653.340585938917
 30
0.0
 11
307.501014904485
 21
653.340585938917
 31
0.0
  0
LINE
  5
4796
330
1A
100
AcDbEntity
  8
細線
 48
10.0
100
AcDbLine
 10
310.001014904485
 20
653.649275069331
 30
0.0
 11
307.501014904485
 21
653.340585938917
 31
0.0
  0
LINE
  5
4797
330
1A
100
AcDbEntity
  8
細線
 48
10.0
100
AcDbLine
 10
339.001014904485
 20
653.649275069331
 30
0.0
 11
341.501014904485
 21
653.340585938917
 31
0.0
  0
LINE
  5
4798
330
1A
100
AcDbEntity
  8
細線
 48
10.0
100
AcDbLine
 10
339.001014904485
 20
653.649275069331
 30
0.0
 11
310.001014904485
 21
653.649275069331
 31
0.0
  0
LINE
  5
4799
330
1A
100
AcDbEntity
  8
細線
 48
10.0
100
AcDbLine
 10
341.501014904485
 20
653.340585938917
 30
0.0
 11
341.501014904485
 21
667.482721562648
 31
0.0
  0
LINE
  5
479A
330
1A
100
AcDbEntity
  8
細線
 48
10.0
100
AcDbLine
 10
307.501014904485
 20
653.340585938917
 30
0.0
 11
307.501014904485
 21
667.482721562648
 31
0.0
  0
LINE
  5
479B
330
1A
100
AcDbEntity
  8
細線
 48
10.0
100
AcDbLine
 10
307.501014904485
 20
647.172625551058
 30
0.0
 11
307.501014904485
 21
633.030489927327
 31
0.0
  0
LINE
  5
479C
330
1A
100
AcDbEntity
  8
細線
 48
10.0
100
AcDbLine
 10
341.501014904485
 20
647.172625551058
 30
0.0
 11
341.501014904485
 21
633.030489927327
 31
0.0
  0
LINE
  5
479D
330
1A
100
AcDbEntity
  8
細線
 48
10.0
100
AcDbLine
 10
339.001014904485
 20
646.863936420644
 30
0.0
 11
310.001014904485
 21
646.863936420644
 31
0.0
  0
LINE
  5
479E
330
1A
100
AcDbEntity
  8
細線
 48
10.0
100
AcDbLine
 10
339.001014904485
 20
646.863936420644
 30
0.0
 11
341.501014904485
 21
647.172625551058
 31
0.0
  0
LINE
  5
479F
330
1A
100
AcDbEntity
  8
細線
 48
10.0
100
AcDbLine
 10
310.001014904485
 20
646.863936420644
 30
0.0
 11
307.501014904485
 21
647.172625551058
 31
0.0
  0
LINE
  5
47A0
330
1A
100
AcDbEntity
  8
細線
 48
10.0
100
AcDbLine
 10
341.501014904485
 20
647.172625551058
 30
0.0
 11
307.501014904485
 21
647.172625551058
 31
0.0
  0
LINE
  5
47A1
330
1A
100
AcDbEntity
  8
細線
 48
10.0
100
AcDbLine
 10
310.001014904485
 20
639.792868608779
 30
0.0
 11
307.501014904485
 21
633.030489927327
 31
0.0
  0
LINE
  5
47A2
330
1A
100
AcDbEntity
  8
細線
 48
10.0
100
AcDbLine
 10
339.001014904485
 20
639.792868608779
 30
0.0
 11
341.501014904485
 21
633.030489927327
 31
0.0
  0
LINE
  5
47A3
330
1A
100
AcDbEntity
  8
細線
 48
10.0
100
AcDbLine
 10
310.001014904485
 20
639.792868608779
 30
0.0
 11
310.001014904485
 21
646.863936420644
 31
0.0
  0
LINE
  5
47A4
330
1A
100
AcDbEntity
  8
細線
 48
10.0
100
AcDbLine
 10
339.001014904485
 20
639.792868608779
 30
0.0
 11
339.001014904485
 21
646.863936420644
 31
0.0
  0
LINE
  5
47A5
330
1A
100
AcDbEntity
  8
細線
 48
10.0
100
AcDbLine
 10
339.001014904485
 20
639.792868608779
 30
0.0
 11
310.001014904485
 21
639.792868608779
 31
0.0
  0
LINE
  5
47A6
330
1A
100
AcDbEntity
  8
細線
 48
10.0
100
AcDbLine
 10
341.501014904485
 20
633.030489927327
 30
0.0
 11
307.501014904485
 21
633.030489927327
 31
0.0
  0
LINE
  5
47A7
330
1A
100
AcDbEntity
  8
外形線
 48
10.0
100
AcDbLine
 10
296.801014904485
 20
632.756605744987
 30
0.0
 11
366.201014904485
 21
632.756605744987
 31
0.0
  0
ARC
  5
47A8
330
1A
100
AcDbEntity
  8
外形線
 48
10.0
100
AcDbCircle
 10
72.502946030434
 20
650.256605744987
 30
0.0
 40
13.22050000000002
100
AcDbArc
 50
93.903491864735
 51
266.096508135265
  0
ARC
  5
47A9
330
1A
100
AcDbEntity
  8
細線
 48
10.0
100
AcDbCircle
 10
72.502946030434
 20
650.256605744987
 30
0.0
 40
12.05849999999998
100
AcDbArc
 50
94.280316570382
 51
265.719683429618
  0
ARC
  5
47AA
330
1A
100
AcDbEntity
  8
外形線
 48
10.0
100
AcDbCircle
 10
72.502946030434
 20
650.256605744987
 30
0.0
 40
13.22050000000002
100
AcDbArc
 50
273.903491864735
 51
86.096508135265
  0
ARC
  5
47AB
330
1A
100
AcDbEntity
  8
細線
 48
10.0
100
AcDbCircle
 10
72.502946030434
 20
650.256605744987
 30
0.0
 40
12.05849999999998
100
AcDbArc
 50
274.280316570382
 51
85.719683429618
  0
ARC
  5
47B0
330
1A
100
AcDbEntity
  8
細線
 48
10.0
100
AcDbCircle
 10
72.502946030434
 20
650.256605744987
 30
0.0
 40
18.0
100
AcDbArc
 50
272.865983982599
 51
87.134016017401
  0
LINE
  5
47B1
330
1A
100
AcDbEntity
  8
外形線
 48
10.0
100
AcDbLine
 10
54.502946030434
 20
639.864300899574
 30
0.0
 11
71.602946030434
 21
629.991611296432
 31
0.0
  0
LINE
  5
47B2
330
1A
100
AcDbEntity
  8
外形線
 48
10.0
100
AcDbLine
 10
90.502946030434
 20
639.864300899574
 30
0.0
 11
73.402946030434
 21
629.991611296432
 31
0.0
  0
LINE
  5
47B3
330
1A
100
AcDbEntity
  8
外形線
 48
10.0
100
AcDbLine
 10
54.502946030434
 20
660.648910590401
 30
0.0
 11
54.502946030434
 21
639.864300899574
 31
0.0
  0
LINE
  5
47B4
330
1A
100
AcDbEntity
  8
外形線
 48
10.0
100
AcDbLine
 10
90.502946030434
 20
660.648910590401
 30
0.0
 11
90.502946030434
 21
639.864300899574
 31
0.0
  0
ARC
  5
47B5
330
1A
100
AcDbEntity
  8
細線
 48
10.0
100
AcDbCircle
 10
72.502946030434
 20
650.256605744987
 30
0.0
 40
18.0
100
AcDbArc
 50
92.865983982599
 51
267.134016017401
  0
LINE
  5
47B6
330
1A
100
AcDbEntity
  8
外形線
 48
10.0
100
AcDbLine
 10
73.402946030434
 20
670.521600193543
 30
0.0
 11
90.502946030434
 21
660.648910590401
 31
0.0
  0
LINE
  5
47B7
330
1A
100
AcDbEntity
  8
外形線
 48
10.0
100
AcDbLine
 10
71.602946030434
 20
670.521600193543
 30
0.0
 11
54.502946030434
 21
660.648910590401
 31
0.0
  0
LINE
  5
47B8
330
1A
100
AcDbEntity
  8
外形線
 48
10.0
100
AcDbLine
 10
376.001014904485
 20
697.256605744987
 30
0.0
 11
377.501014904485
 21
697.256605744987
 31
0.0
  0
LINE
  5
47B9
330
1A
100
AcDbEntity
  8
外形線
 48
10.0
100
AcDbLine
 10
376.001014904485
 20
603.256605744987
 30
0.0
 11
377.501014904485
 21
603.256605744987
 31
0.0
  0
LINE
  5
47BA
330
1A
100
AcDbEntity
  8
外形線
 48
10.0
100
AcDbLine
 10
366.501014904485
 20
603.256605744987
 30
0.0
 11
368.001014904485
 21
603.256605744987
 31
0.0
  0
CIRCLE
  5
47BB
330
1A
100
AcDbEntity
  8
外形線
 48
10.0
100
AcDbCircle
 10
72.502946030434
 20
650.256605744987
 30
0.0
 40
47.0
  0
TEXT
  5
4B33
330
1A
100
AcDbEntity
  8
寸法線
100
AcDbText
 10
58.814706786297
 20
490.0782908317
 30
0.0
 40
6.573033707865
  1
ク　ロ
  7
EXCADVERT
 72
     3
 11
58.814706786297
 21
470.5782908317
 31
0.0
100
AcDbText
  0
TEXT
  5
4B34
330
1A
100
AcDbEntity
  8
寸法線
100
AcDbText
 10
29.264048286297
 20
489.9282818317
 30
0.0
 40
6.030927835052
  1
ア　カ
  7
EXCADVERT
 72
     3
 11
29.264048286297
 21
470.4282818317
 31
0.0
100
AcDbText
  0
TEXT
  5
4B35
330
1A
100
AcDbEntity
  8
寸法線
100
AcDbText
 10
13.513773786297
 20
483.253103331701
 30
0.0
 40
6.428571428571
  1
キ
  7
EXCADVERT
 72
     3
 11
13.513773786297
 21
477.253103331701
 31
0.0
100
AcDbText
  0
TEXT
  5
4B36
330
1A
100
AcDbEntity
  8
寸法線
100
AcDbText
 10
-1.861598213703
 20
490.0782908317
 30
0.0
 40
5.636363639073
  1
ミドリ
  7
EXCADVERT
 72
     3
 11
-1.861598213703
 21
471.47829082276
 31
0.0
100
AcDbText
  0
LINE
  5
4B37
330
1A
100
AcDbEntity
  8
寸法線
100
AcDbLine
 10
1.881357786297
 20
534.0946928317
 30
0.0
 11
1.881357786297
 21
441.0946883317
 31
0.0
  0
LINE
  5
4B38
330
1A
100
AcDbEntity
  8
寸法線
100
AcDbLine
 10
32.940347286297
 20
534.0946928317
 30
0.0
 11
32.940347286297
 21
450.0946883317
 31
0.0
  0
LINE
  5
4B39
330
1A
100
AcDbEntity
  8
寸法線
100
AcDbLine
 10
1.881357786297
 20
441.0946823317
 30
0.0
 11
77.122563786297
 21
441.0946823317
 31
0.0
  0
LINE
  5
4B3A
330
1A
100
AcDbEntity
  8
寸法線
100
AcDbLine
 10
17.410794786297
 20
504.7492958317
 30
0.0
 11
17.410794786297
 21
445.5946883317
 31
0.0
  0
LINE
  5
4B3B
330
1A
100
AcDbEntity
  8
寸法線
100
AcDbLine
 10
17.410794786297
 20
445.5946883317
 30
0.0
 11
77.485067286297
 21
445.5946883317
 31
0.0
  0
LINE
  5
4B3C
330
1A
100
AcDbEntity
  8
寸法線
100
AcDbLine
 10
47.720117286297
 20
504.7492958317
 30
0.0
 11
47.720117286297
 21
454.5946883317
 31
0.0
  0
LINE
  5
4B3D
330
1A
100
AcDbEntity
  8
寸法線
100
AcDbLine
 10
62.714120286297
 20
459.0946883317
 30
0.0
 11
62.714120286297
 21
504.3815738317
 31
0.0
  0
LINE
  5
4B3E
330
1A
100
AcDbEntity
  8
寸法線
100
AcDbLine
 10
32.940347286297
 20
450.0946883317
 30
0.0
 11
83.190336786297
 21
450.0946883317
 31
0.0
  0
LINE
  5
4B3F
330
1A
100
AcDbEntity
  8
寸法線
100
AcDbLine
 10
79.130750286297
 20
446.0863598317
 30
0.0
 11
80.996400786297
 21
447.3103973317
 31
0.0
  0
LINE
  5
4B40
330
1A
100
AcDbEntity
  8
寸法線
100
AcDbLine
 10
79.263249786297
 20
441.9929123317
 30
0.0
 11
81.219824286297
 21
443.9857058317
 31
0.0
  0
LINE
  5
4B41
330
1A
100
AcDbEntity
  8
寸法線
100
AcDbLine
 10
83.190336786297
 20
447.8338268317
 30
0.0
 11
82.489763286297
 21
447.798201831701
 31
0.0
  0
LINE
  5
4B42
330
1A
100
AcDbEntity
  8
寸法線
100
AcDbLine
 10
83.190336786297
 20
444.8823383317
 30
0.0
 11
83.051805786297
 21
444.8680103317
 31
0.0
  0
ARC
  5
4B43
330
1A
100
AcDbEntity
  8
寸法線
100
AcDbCircle
 10
77.485067286297
 20
448.5946883317
 30
0.0
 40
3.0
100
AcDbArc
 50
270.0
 51
303.268623610808
  0
ARC
  5
4B44
330
1A
100
AcDbEntity
  8
寸法線
100
AcDbCircle
 10
82.642095786297
 20
444.8020808317
 30
0.0
 40
3.0
100
AcDbArc
 50
92.910721466856
 51
123.268603762964
  0
ARC
  5
4B45
330
1A
100
AcDbEntity
  8
寸法線
100
AcDbCircle
 10
83.360510286297
 20
441.883935831701
 30
0.0
 40
3.0
100
AcDbArc
 50
95.906259411359
 51
135.525546099523
  0
ARC
  5
4B46
330
1A
100
AcDbEntity
  8
寸法線
100
AcDbCircle
 10
77.122563786297
 20
444.0946883317
 30
0.0
 40
3.0
100
AcDbArc
 50
270.0
 51
315.525565947365
  0
ARC
  5
4B47
330
1A
100
AcDbEntity
  8
寸法線
100
AcDbCircle
 10
77.485067286297
 20
451.5946883317
 30
0.0
 40
3.0
100
AcDbArc
 50
56.731416084879
 51
89.999981276031
  0
LINE
  5
4B48
330
1A
100
AcDbEntity
  8
寸法線
100
AcDbLine
 10
79.130750286297
 20
454.1030153317
 30
0.0
 11
80.996400786297
 21
452.8789778317
 31
0.0
  0
LINE
  5
4B49
330
1A
100
AcDbEntity
  8
寸法線
100
AcDbLine
 10
83.190336786297
 20
452.355548331701
 30
0.0
 11
82.489763286297
 21
452.3911733317
 31
0.0
  0
ARC
  5
4B4A
330
1A
100
AcDbEntity
  8
寸法線
100
AcDbCircle
 10
82.642095786297
 20
455.3872943317
 30
0.0
 40
3.0
100
AcDbArc
 50
236.731435932721
 51
267.089318228831
  0
LINE
  5
4B4B
330
1A
100
AcDbEntity
  8
寸法線
100
AcDbLine
 10
83.190336786297
 20
455.3070368317
 30
0.0
 11
83.051805786297
 21
455.3213648317
 31
0.0
  0
ARC
  5
4B4C
330
1A
100
AcDbEntity
  8
寸法線
100
AcDbCircle
 10
83.360510286297
 20
458.3054348317
 30
0.0
 40
3.0
100
AcDbArc
 50
224.474436300384
 51
264.093722988548
  0
LINE
  5
4B4D
330
1A
100
AcDbEntity
  8
寸法線
100
AcDbLine
 10
79.263249786297
 20
458.1964643317
 30
0.0
 11
81.219824286297
 21
456.2036693317
 31
0.0
  0
ARC
  5
4B4E
330
1A
100
AcDbEntity
  8
寸法線
100
AcDbCircle
 10
77.122563786297
 20
456.0946883317
 30
0.0
 40
3.0
100
AcDbArc
 50
44.474473748322
 51
89.999981276031
  0
LINE
  5
4B4F
330
1A
100
AcDbEntity
  8
寸法線
100
AcDbLine
 10
62.714120286297
 20
459.0946883317
 30
0.0
 11
77.122563786297
 21
459.0946883317
 31
0.0
  0
LINE
  5
4B50
330
1A
100
AcDbEntity
  8
寸法線
100
AcDbLine
 10
47.720117286297
 20
454.5946883317
 30
0.0
 11
77.485067286297
 21
454.5946883317
 31
0.0
  0
LINE
  5
4B51
330
1A
100
AcDbEntity
  8
寸法線
100
AcDbLine
 10
86.190336786297
 20
456.0946883317
 30
0.0
 11
138.690324786297
 21
456.0946883317
 31
0.0
  0
LINE
  5
4B52
330
1A
100
AcDbEntity
  8
寸法線
100
AcDbLine
 10
86.190336786297
 20
444.0946883317
 30
0.0
 11
138.690324786297
 21
444.0946883317
 31
0.0
  0
ARC
  5
4B53
330
1A
100
AcDbEntity
  8
寸法線
100
AcDbCircle
 10
133.494173402822
 20
447.0946865317
 30
0.0
 40
6.0
100
AcDbArc
 50
330.000019847844
 51
30.000019847843
  0
ARC
  5
4B54
330
1A
100
AcDbEntity
  8
寸法線
100
AcDbCircle
 10
133.49417132436
 20
453.0946865317
 30
0.0
 40
6.0
100
AcDbArc
 50
330.000019847844
 51
30.000019847843
  0
ARC
  5
4B55
330
1A
100
AcDbEntity
  8
寸法線
100
AcDbCircle
 10
143.886476169773
 20
453.0946901317
 30
0.0
 40
6.0
100
AcDbArc
 50
150.000019847843
 51
210.000019847843
  0
ARC
  5
4B56
330
1A
100
AcDbEntity
  8
寸法線
100
AcDbCircle
 10
91.386489209004
 20
453.0946883317
 30
0.0
 40
6.0
100
AcDbArc
 50
150.0
 51
210.0
  0
ARC
  5
4B57
330
1A
100
AcDbEntity
  8
寸法線
100
AcDbCircle
 10
91.386489209004
 20
447.0946883317
 30
0.0
 40
6.0
100
AcDbArc
 50
150.0
 51
209.999999999999
  0
ARC
  5
4B58
330
1A
100
AcDbEntity
  8
寸法線
100
AcDbCircle
 10
80.99418436359
 20
447.0946883317
 30
0.0
 40
6.0
100
AcDbArc
 50
330.0
 51
30.0
  0
LINE
  5
4B59
330
1A
100
AcDbEntity
  8
寸法線
100
AcDbLine
 10
141.690324786297
 20
450.0946883317
 30
0.0
 11
176.190324786297
 21
450.0946883317
 31
0.0
  0
LINE
  5
4B5A
330
1A
100
AcDbEntity
  8
寸法線
100
AcDbLine
 10
176.190324786297
 20
457.5946883317
 30
0.0
 11
148.172510286297
 21
457.5946883317
 31
0.0
  0
LINE
  5
4B5B
330
1A
100
AcDbEntity
  8
寸法線
100
AcDbLine
 10
176.190324786297
 20
465.0946883317
 30
0.0
 11
148.322450286297
 21
465.0946883317
 31
0.0
  0
LINE
  5
4B5C
330
1A
100
AcDbEntity
  8
寸法線
100
AcDbLine
 10
145.489259286297
 20
463.0811228317
 30
0.0
 11
143.155236786297
 21
456.3774023317
 31
0.0
  0
LINE
  5
4B5D
330
1A
100
AcDbEntity
  8
寸法線
100
AcDbLine
 10
141.738641286297
 20
455.3706203317
 30
0.0
 11
141.690324786297
 21
455.3706203317
 31
0.0
  0
LINE
  5
4B5E
330
1A
100
AcDbEntity
  8
寸法線
100
AcDbLine
 10
145.412904786297
 20
455.7713348317
 30
0.0
 11
144.737817786297
 21
454.1880788317
 31
0.0
  0
LINE
  5
4B5F
330
1A
100
AcDbEntity
  8
寸法線
100
AcDbLine
 10
142.668108786297
 20
452.8205678317
 30
0.0
 11
141.690324786297
 21
452.8205678317
 31
0.0
  0
ARC
  5
4B60
330
1A
100
AcDbEntity
  8
寸法線
100
AcDbCircle
 10
148.322450286297
 20
462.0946883317
 30
0.0
 40
3.0
100
AcDbArc
 50
89.999981276032
 51
160.80341269666
  0
ARC
  5
4B61
330
1A
100
AcDbEntity
  8
寸法線
100
AcDbCircle
 10
148.172510286297
 20
454.5946883317
 30
0.0
 40
3.0
100
AcDbArc
 50
89.999981276032
 51
156.907528872886
  0
ARC
  5
4B62
330
1A
100
AcDbEntity
  8
寸法線
100
AcDbCircle
 10
141.738641286297
 20
456.8706203317
 30
0.0
 40
1.5
100
AcDbArc
 50
270.0
 51
340.803432544508
  0
ARC
  5
4B63
330
1A
100
AcDbEntity
  8
寸法線
100
AcDbCircle
 10
142.668108786297
 20
455.0705678317
 30
0.0
 40
2.25
100
AcDbArc
 50
270.0
 51
336.907491424954
  0
LINE
  5
4B64
330
1A
100
AcDbEntity
  8
寸法線
100
AcDbLine
 10
176.190324786297
 20
435.0946883317
 30
0.0
 11
148.322450286297
 21
435.0946883317
 31
0.0
  0
ARC
  5
4B65
330
1A
100
AcDbEntity
  8
寸法線
100
AcDbCircle
 10
148.322450286297
 20
438.0946883317
 30
0.0
 40
3.0
100
AcDbArc
 50
199.196626999025
 51
270.0
  0
LINE
  5
4B66
330
1A
100
AcDbEntity
  8
寸法線
100
AcDbLine
 10
176.190324786297
 20
442.5946883317
 30
0.0
 11
148.172510286297
 21
442.5946883317
 31
0.0
  0
ARC
  5
4B67
330
1A
100
AcDbEntity
  8
寸法線
100
AcDbCircle
 10
148.172510286297
 20
445.5946883317
 30
0.0
 40
3.0
100
AcDbArc
 50
203.092510822796
 51
270.0
  0
LINE
  5
4B68
330
1A
100
AcDbEntity
  8
寸法線
100
AcDbLine
 10
141.738641286297
 20
444.8187548317
 30
0.0
 11
141.690324786297
 21
444.8187548317
 31
0.0
  0
LINE
  5
4B69
330
1A
100
AcDbEntity
  8
寸法線
100
AcDbLine
 10
145.489259286297
 20
437.1082523317
 30
0.0
 11
143.155236786297
 21
443.8119728317
 31
0.0
  0
ARC
  5
4B6A
330
1A
100
AcDbEntity
  8
寸法線
100
AcDbCircle
 10
141.738641286297
 20
443.3187548317
 30
0.0
 40
1.5
100
AcDbArc
 50
19.196607151182
 51
89.999981276032
  0
LINE
  5
4B6B
330
1A
100
AcDbEntity
  8
寸法線
100
AcDbLine
 10
145.412904786297
 20
444.4180403317
 30
0.0
 11
144.737817786297
 21
446.0012963317
 31
0.0
  0
LINE
  5
4B6C
330
1A
100
AcDbEntity
  8
寸法線
100
AcDbLine
 10
142.668108786297
 20
447.3688088317
 30
0.0
 11
141.690324786297
 21
447.3688088317
 31
0.0
  0
ARC
  5
4B6D
330
1A
100
AcDbEntity
  8
寸法線
100
AcDbCircle
 10
142.668108786297
 20
445.1188088317
 30
0.0
 40
2.25
100
AcDbArc
 50
23.092490974952
 51
89.999981276031
  0
TEXT
  5
4B6E
330
1A
100
AcDbEntity
  8
寸法線
100
AcDbText
 10
99.086489286297
 20
446.9470133317
 30
0.0
 40
6.75
  1
リード線
 41
0.869565217391
  7
EXCADSTD
 72
     5
 11
126.086489286297
 21
446.9470133317
 31
0.0
100
AcDbText
  0
TEXT
  5
4B6F
330
1A
100
AcDbEntity
  8
寸法線
100
AcDbText
 10
160.137720786297
 20
466.2224063317
 30
0.0
 40
5.25
  1
ク　ロ
 41
0.918367346939
  7
EXCADSTD
 72
     5
 11
175.887720786297
 21
466.2224063317
 31
0.0
100
AcDbText
  0
TEXT
  5
4B70
330
1A
100
AcDbEntity
  8
寸法線
100
AcDbText
 10
160.287729786297
 20
458.5722473317
 30
0.0
 40
5.25
  1
シ　ロ
 41
0.918367346939
  7
EXCADSTD
 72
     5
 11
176.037729786297
 21
458.5722473317
 31
0.0
100
AcDbText
  0
TEXT
  5
4B71
330
1A
100
AcDbEntity
  8
寸法線
100
AcDbText
 10
160.287729786297
 20
450.9220958317
 30
0.0
 40
5.25
  1
ア　カ
 41
0.909090909091
  7
EXCADSTD
 72
     5
 11
176.037729786297
 21
450.9220958317
 31
0.0
100
AcDbText
  0
TEXT
  5
4B72
330
1A
100
AcDbEntity
  8
寸法線
100
AcDbText
 10
165.537843786297
 20
443.4219353317
 30
0.0
 40
5.25
  1
キ
 41
1.071428571429
  7
EXCADSTD
 72
     5
 11
170.787843786297
 21
443.4219353317
 31
0.0
100
AcDbText
  0
TEXT
  5
4B73
330
1A
100
AcDbEntity
  8
寸法線
100
AcDbText
 10
160.287729786297
 20
435.7717778317
 30
0.0
 40
5.25
  1
ミドリ
 41
0.947368421053
  7
EXCADSTD
 72
     5
 11
176.037729786297
 21
435.7717778317
 31
0.0
100
AcDbText
  0
TEXT
  5
4B74
330
1A
100
AcDbEntity
  8
寸法線
100
AcDbText
 10
43.951264713775
 20
489.7363868317
 30
0.0
 40
6.724137931034
  1
シ　ロ
  7
EXCADVERT
 72
     3
 11
43.951264713775
 21
470.2363868317
 31
0.0
100
AcDbText
  0
TEXT
  5
4B75
330
1A
100
AcDbEntity
  8
寸法線
100
AcDbText
 10
180.839715786297
 20
458.1608843317
 30
0.0
 40
7.5
  1
電源
 41
0.923076923077
  7
EXCADSTD
 72
     5
 11
195.839715786297
 21
458.1608843317
 31
0.0
100
AcDbText
  0
TEXT
  5
4B76
330
1A
100
AcDbEntity
  8
寸法線
100
AcDbText
 10
183.914720286297
 20
453.8106638317
 30
0.0
 40
7.336956521739
  1
ＨＣＬ
  7
EXCADVERT
 72
     3
 11
183.914720286297
 21
431.3106638317
 31
0.0
100
AcDbText
  0
LINE
  5
4B77
330
1A
100
AcDbEntity
  8
寸法線
100
AcDbLine
 10
1.881357786297
 20
534.0946928317
 30
0.0
 11
11.520350286297
 21
534.0946928317
 31
0.0
  0
LINE
  5
4B78
330
1A
100
AcDbEntity
  8
寸法線
100
AcDbLine
 10
11.520350286297
 20
534.0946928317
 30
0.0
 11
11.520350286297
 21
519.3148778317
 31
0.0
  0
LINE
  5
4B79
330
1A
100
AcDbEntity
  8
寸法線
100
AcDbLine
 10
23.301354786297
 20
534.0946928317
 30
0.0
 11
32.940347286297
 21
534.0946928317
 31
0.0
  0
LINE
  5
4B7A
330
1A
100
AcDbEntity
  8
寸法線
100
AcDbLine
 10
47.720141286297
 20
534.0946928317
 30
0.0
 11
62.714144286297
 21
534.0946928317
 31
0.0
  0
TEXT
  5
4B7B
330
1A
100
AcDbEntity
  8
寸法線
100
AcDbText
 10
58.213182786297
 20
506.6195348317
 30
0.0
 40
9.0
  1
Ｍ
 41
1.25
  7
EXCADSTD
 72
     5
 11
67.213182786297
 21
506.6195348317
 31
0.0
100
AcDbText
  0
LINE
  5
4B7C
330
1A
100
AcDbEntity
  8
寸法線
100
AcDbLine
 10
62.714144286297
 20
534.0946928317
 30
0.0
 11
62.714144286297
 21
518.1699653317
 31
0.0
  0
CIRCLE
  5
4B7D
330
1A
100
AcDbEntity
  8
寸法線
100
AcDbCircle
 10
17.410851786297
 20
505.9493003317
 30
0.0
 40
1.2000045
  0
CIRCLE
  5
4B7E
330
1A
100
AcDbEntity
  8
寸法線
100
AcDbCircle
 10
47.720141286297
 20
505.9493003317
 30
0.0
 40
1.2000045
  0
CIRCLE
  5
4B7F
330
1A
100
AcDbEntity
  8
寸法線
100
AcDbCircle
 10
11.520350286297
 20
518.1148733317
 30
0.0
 40
1.2000045
  0
LINE
  5
4B80
330
1A
100
AcDbEntity
  8
寸法線
100
AcDbLine
 10
23.301354786297
 20
534.0946928317
 30
0.0
 11
23.301354786297
 21
519.3148778317
 31
0.0
  0
CIRCLE
  5
4B81
330
1A
100
AcDbEntity
  8
寸法線
100
AcDbCircle
 10
23.301354786297
 20
518.1148733317
 30
0.0
 40
1.2000045
  0
LINE
  5
4B82
330
1A
100
AcDbEntity
  8
寸法線
100
AcDbLine
 10
47.720141286297
 20
534.0946928317
 30
0.0
 11
47.720141286297
 21
519.3148778317
 31
0.0
  0
CIRCLE
  5
4B83
330
1A
100
AcDbEntity
  8
寸法線
100
AcDbCircle
 10
47.720141286297
 20
518.1148733317
 30
0.0
 40
1.2000045
  0
LINE
  5
4B84
330
1A
100
AcDbEntity
  8
寸法線
100
AcDbLine
 10
17.410851786297
 20
507.149292831701
 30
0.0
 11
12.720354786297
 21
518.1148733317
 31
0.0
  0
LINE
  5
4B85
330
1A
100
AcDbEntity
  8
寸法線
100
AcDbLine
 10
47.720141286297
 20
507.149292831701
 30
0.0
 11
48.920145786297
 21
518.1148733317
 31
0.0
  0
CIRCLE
  5
4B86
330
1A
100
AcDbEntity
  8
寸法線
100
AcDbCircle
 10
62.719820286297
 20
511.2866183317
 30
0.0
 40
6.883348499999999
  0
MTEXT
  5
4B9A
102
{ACAD_XDICTIONARY
360
4B9B
102
}
330
1A
100
AcDbEntity
  8
寸法線
 48
10.0
100
AcDbMText
 10
175.558352021583
 20
532.970746488711
 30
0.0
 40
7.0
 41
158.221086696158
 71
     1
 72
     5
  1
\H0.8571x;塗　装　色：7.5BG4/1.5\P接点　容量：AC250V5A\P静止トルク：約4.9N・cm（約500g・cm）\P回　転　数：1RPM
1001
ACADANNOTATIVE
1000
AnnotativeData
1002
{
1070
     1
1070
     0
1002
}
  0
DIMENSION
  5
4B9E
330
1A
100
AcDbEntity
  8
寸法線
 48
10.0
100
AcDbDimension
  2
*D57
 10
276.949999229771
 20
637.036105744987
 30
0.0
 11
276.949999229771
 21
681.957435830877
 31
0.0
 70
   160
  1
G 3/4"
  3
ISO-25
100
AcDbAlignedDimension
 13
271.801032904485
 23
663.477105744987
 33
0.0
 14
271.801032904485
 24
637.036105744987
 34
0.0
 50
90.0
100
AcDbRotatedDimension
1001
ACAD
1000
DSTYLE
1002
{
1070
     5
1000
OPEN30
1070
    41
1040
6.0
1070
    47
1040
0.1
1070
    48
1040
0.1
1070
    73
1070
     0
1070
   140
1040
6.0
1070
   271
1070
     1
1070
   272
1070
     1
1070
   341
1005
2AF4
1002
}
  0
MTEXT
  5
4BAF
330
1A
100
AcDbEntity
  8
寸法線
 48
10.0
100
AcDbMText
 10
417.525627210312
 20
583.354150270171
 30
0.0
 40
6.0
 41
51.077111820171
 71
     1
 72
     5
  1
リード線0.5m付
  0
LEADER
  5
4BB0
330
1A
100
AcDbEntity
  8
寸法線
 48
10.0
100
AcDbLeader
  3
ISO-25
 76
     2
 10
403.302605917427
 20
572.898264205052
 30
0.0
 10
416.699625514014
 20
577.917216818126
 30
0.0
1001
ACAD
1000
DSTYLE
1002
{
1070
     5
1000
OPEN30
1070
   147
1040
0.625
1070
    77
1070
     0
1070
    41
1040
6.0
1070
    47
1040
0.1
1070
    48
1040
0.1
1070
    73
1070
     0
1070
   140
1040
5.0
1070
   271
1070
     1
1070
   272
1070
     1
1070
   341
1005
2AF4
1070
   342
1005
2AF4
1002
}
  0
MTEXT
  5
4BDF
102
{ACAD_XDICTIONARY
360
4BE0
102
}
330
1A
100
AcDbEntity
  8
寸法線
 48
10.0
100
AcDbMText
 10
84.948470000388
 20
531.093483533905
 30
0.0
 40
6.0
 41
168.503621648242
 71
     1
 72
     5
  1
御仕様   電源電圧\P       AC100/110V\P       AC200/220V
1001
ACADANNOTATIVE
1000
AnnotativeData
1002
{
1070
     1
1070
     0
1002
}
  0
MTEXT
  5
4BE3
102
{ACAD_XDICTIONARY
360
4BE4
102
}
330
1A
100
AcDbEntity
  8
寸法線
 48
10.0
100
AcDbMText
 10
86.1291915932
 20
501.546309811342
 30
0.0
 40
6.0
 41
161.650793650794
 71
     1
 72
     5
  1
\W0.7;○印が今回の貴社の御仕様です。
1001
ACADANNOTATIVE
1000
AnnotativeData
1002
{
1070
     1
1070
     0
1002
}
  0
LINE
  5
4BE7
330
1A
100
AcDbEntity
  8
寸法線
 48
10.0
100
AcDbLine
 10
108.215408006924
 20
533.20294419417
 30
0.0
 11
108.215408006924
 21
503.760815237551
 31
0.0
  0
LINE
  5
4BE8
330
1A
100
AcDbEntity
  8
寸法線
 48
10.0
100
AcDbLine
 10
82.598185513916
 20
522.899459374783
 30
0.0
 11
156.046026502283
 21
522.899459374783
 31
0.0
  0
LINE
  5
4BE9
330
1A
100
AcDbEntity
  8
寸法線
 48
10.0
100
AcDbLine
 10
82.598185513916
 20
533.20294419417
 30
0.0
 11
156.046026502283
 21
533.20294419417
 31
0.0
  0
LINE
  5
4BEA
330
1A
100
AcDbEntity
  8
寸法線
 48
10.0
100
AcDbLine
 10
156.046026502283
 20
533.20294419417
 30
0.0
 11
156.046026502283
 21
503.760815237551
 31
0.0
  0
LINE
  5
4BEB
330
1A
100
AcDbEntity
  8
寸法線
 48
10.0
100
AcDbLine
 10
82.598185513916
 20
513.013480153097
 30
0.0
 11
156.046026502283
 21
513.013480153097
 31
0.0
  0
LINE
  5
4BEC
330
1A
100
AcDbEntity
  8
寸法線
 48
10.0
100
AcDbLine
 10
82.598185513916
 20
503.760815237551
 30
0.0
 11
156.046026502283
 21
503.760815237551
 31
0.0
  0
LINE
  5
4BED
330
1A
100
AcDbEntity
  8
寸法線
 48
10.0
100
AcDbLine
 10
82.598185513916
 20
533.20294419417
 30
0.0
 11
82.598185513916
 21
503.760815237551
 31
0.0
  0
LINE
  5
4BEE
330
1A
100
AcDbEntity
  8
外形線
100
AcDbLine
 10
411.501014904485
 20
614.556578744988
 30
0.0
 11
411.501014904485
 21
675.756605744987
 31
0.0
  0
LINE
  5
4BEF
330
1A
100
AcDbEntity
  8
外形線
100
AcDbLine
 10
411.501014904485
 20
675.756605744987
 30
0.0
 11
423.700995404485
 21
675.756605744987
 31
0.0
  0
LINE
  5
4BF0
330
1A
100
AcDbEntity
  8
外形線
100
AcDbLine
 10
414.001014904485
 20
604.756605744987
 30
0.0
 11
414.001014904485
 21
675.756605744987
 31
0.0
  0
LINE
  5
4BF1
330
1A
100
AcDbEntity
  8
外形線
100
AcDbLine
 10
412.735125177956
 20
604.756605744987
 30
0.0
 11
423.700995404485
 21
604.756605744987
 31
0.0
  0
LINE
  5
4BF2
330
1A
100
AcDbEntity
  8
外形線
100
AcDbLine
 10
411.501014904485
 20
673.656605744987
 30
0.0
 11
385.701014904485
 21
673.356605744987
 31
0.0
  0
LINE
  5
4BF3
330
1A
100
AcDbEntity
  8
外形線
100
AcDbLine
 10
381.501014904485
 20
669.156605744987
 30
0.0
 11
383.501014904485
 21
669.156605744987
 31
0.0
  0
LINE
  5
4BF4
330
1A
100
AcDbEntity
  8
外形線
100
AcDbLine
 10
383.501014904485
 20
669.156605744987
 30
0.0
 11
383.501014904485
 21
669.156605744987
 31
0.0
  0
LINE
  5
4BF5
330
1A
100
AcDbEntity
  8
外形線
100
AcDbLine
 10
381.501014904485
 20
631.356605744987
 30
0.0
 11
383.501014904485
 21
631.356605744987
 31
0.0
  0
LINE
  5
4BF6
330
1A
100
AcDbEntity
  8
外形線
100
AcDbLine
 10
381.501014904485
 20
631.356605744987
 30
0.0
 11
381.501014904485
 21
669.156605744987
 31
0.0
  0
LINE
  5
4BF7
330
1A
100
AcDbEntity
  8
外形線
100
AcDbLine
 10
383.501014904485
 20
671.156605744987
 30
0.0
 11
383.501014904485
 21
609.356605744987
 31
0.0
  0
ARC
  5
4BF8
330
1A
100
AcDbEntity
  8
外形線
100
AcDbCircle
 10
385.701014904485
 20
671.156605744987
 30
0.0
 40
2.2
100
AcDbArc
 50
90.0
 51
180.0
  0
ARC
  5
4BF9
330
1A
100
AcDbEntity
  8
外形線
100
AcDbCircle
 10
385.701014904485
 20
609.356605744987
 30
0.0
 40
2.2
100
AcDbArc
 50
180.0
 51
263.74853862103
  0
LWPOLYLINE
  5
4BFA
330
1A
100
AcDbEntity
  8
細線
100
AcDbPolyline
 90
        2
 70
     0
 43
0.0
 10
271.301032904485
 20
638.198105744987
 10
281.901014904485
 20
638.198105744987
  0
LWPOLYLINE
  5
4BFB
330
1A
100
AcDbEntity
  8
細線
100
AcDbPolyline
 90
        2
 70
     0
 43
0.0
 10
281.901014904485
 20
662.315105744988
 10
271.301032904485
 20
662.315105744988
  0
LWPOLYLINE
  5
4BFC
330
1A
100
AcDbEntity
  8
外形線
100
AcDbPolyline
 90
        6
 70
     0
 43
0.0
 10
281.901014904485
 20
663.477105744987
 10
271.801032904485
 20
663.477105744987
 10
271.301032904485
 20
662.977105744987
 10
271.301032904485
 20
637.536105744987
 10
271.801032904485
 20
637.036105744987
 10
281.901014904485
 20
637.036105744987
  0
LINE
  5
4BFD
330
1A
100
AcDbEntity
  8
外形線
100
AcDbLine
 10
284.900982399632
 20
660.733446819257
 30
0.0
 11
288.901014904485
 21
660.756605744987
 31
0.0
  0
LINE
  5
4BFE
330
1A
100
AcDbEntity
  8
外形線
100
AcDbLine
 10
288.901014904485
 20
672.756605744987
 30
0.0
 11
288.901014904485
 21
627.756605744987
 31
0.0
  0
LINE
  5
4BFF
330
1A
100
AcDbEntity
  8
外形線
100
AcDbLine
 10
288.901014904485
 20
672.756605744987
 30
0.0
 11
290.501014904485
 21
672.756605744987
 31
0.0
  0
LINE
  5
4C00
330
1A
100
AcDbEntity
  8
外形線
100
AcDbLine
 10
281.901014904485
 20
632.233440505879
 30
0.0
 11
281.901014904485
 21
668.233440505879
 31
0.0
  0
LINE
  5
4C01
330
1A
100
AcDbEntity
  8
外形線
100
AcDbLine
 10
281.901014904485
 20
668.233440505879
 30
0.0
 11
284.924157469854
 21
671.256605744988
 31
0.0
  0
LINE
  5
4C02
330
1A
100
AcDbEntity
  8
外形線
100
AcDbLine
 10
284.877827339116
 20
629.256605744987
 30
0.0
 11
288.901014904485
 21
629.256605744987
 31
0.0
  0
LINE
  5
4C03
330
1A
100
AcDbEntity
  8
外形線
100
AcDbLine
 10
284.88658671143
 20
639.756605744987
 30
0.0
 11
288.901014904485
 21
639.756605744987
 31
0.0
  0
LINE
  5
4C04
330
1A
100
AcDbEntity
  8
外形線
100
AcDbLine
 10
288.901014904485
 20
627.756605744987
 30
0.0
 11
290.501014904485
 21
627.756605744987
 31
0.0
  0
LINE
  5
4C05
330
1A
100
AcDbEntity
  8
外形線
100
AcDbLine
 10
281.901014904485
 20
632.233440505879
 30
0.0
 11
284.877827339116
 21
629.256605744988
 31
0.0
  0
ARC
  5
4C06
330
1A
100
AcDbEntity
  8
外形線
100
AcDbCircle
 10
301.776130404485
 20
650.233440505879
 30
0.0
 40
19.875129
100
AcDbArc
 50
148.109418153979
 51
211.890564245926
  0
ARC
  5
4C07
330
1A
100
AcDbEntity
  8
外形線
100
AcDbCircle
 10
292.902655404485
 20
668.284047505879
 30
0.0
 40
11.0017755
100
AcDbArc
 50
180.263580433607
 51
223.338604767318
  0
ARC
  5
4C08
330
1A
100
AcDbEntity
  8
外形線
100
AcDbCircle
 10
292.902655404485
 20
632.182835005879
 30
0.0
 40
11.0017755
100
AcDbArc
 50
136.66137763259
 51
179.736401966304
  0
LINE
  5
4C09
330
1A
100
AcDbEntity
  8
外形線
100
AcDbLine
 10
290.501014904485
 20
672.756605744987
 30
0.0
 11
290.501014904485
 21
627.756605744987
 31
0.0
  0
LINE
  5
4C0F
330
1A
100
AcDbEntity
  8
外形線
 48
10.0
100
AcDbLine
 10
288.901014904485
 20
671.256605744987
 30
0.0
 11
284.924157469854
 21
671.256605744988
 31
0.0
  0
DIMENSION
  5
4C11
330
1A
100
AcDbEntity
  8
寸法線
 48
10.0
100
AcDbDimension
  2
*D65
 10
482.45377282371
 20
604.756605744987
 30
0.0
 11
482.45377282371
 21
640.431578744988
 31
0.0
 70
   160
  1
φ72
  3
ISO-25
100
AcDbAlignedDimension
 13
423.700995404485
 23
675.756605744987
 33
0.0
 14
423.700995404485
 24
604.756605744987
 34
0.0
 50
90.0
100
AcDbRotatedDimension
1001
ACAD
1000
DSTYLE
1002
{
1070
     5
1000
OPEN30
1070
    41
1040
6.0
1070
    47
1040
0.1
1070
    48
1040
0.1
1070
    73
1070
     0
1070
   140
1040
6.0
1070
   271
1070
     1
1070
   272
1070
     1
1070
   341
1005
2AF4
1002
}
  0
LINE
  5
4C12
330
1A
100
AcDbEntity
  8
外形線
100
AcDbLine
 10
464.501014904485
 20
615.681578744988
 30
0.0
 11
464.501014904485
 21
665.181578744988
 31
0.0
  0
LINE
  5
4C13
330
1A
100
AcDbEntity
  8
外形線
100
AcDbLine
 10
463.001014904485
 20
612.471968744988
 30
0.0
 11
463.001014904485
 21
668.391188744988
 31
0.0
  0
LINE
  5
4C14
330
1A
100
AcDbEntity
  8
外形線
100
AcDbLine
 10
423.700995404485
 20
675.756605744987
 30
0.0
 11
423.700995404485
 21
604.756605744987
 31
0.0
  0
LINE
  5
4C15
330
1A
100
AcDbEntity
  8
外形線
100
AcDbLine
 10
423.700995404485
 20
606.306578744988
 30
0.0
 11
458.715475904485
 21
607.977095744988
 31
0.0
  0
LINE
  5
4C16
330
1A
100
AcDbEntity
  8
外形線
100
AcDbLine
 10
464.501014904485
 20
615.681578744988
 30
0.0
 11
463.001014904485
 21
615.681578744988
 31
0.0
  0
ARC
  5
4C17
330
1A
100
AcDbEntity
  8
外形線
100
AcDbCircle
 10
458.501014904485
 20
612.471968744988
 30
0.0
 40
4.5
100
AcDbArc
 50
272.731520116378
 51
359.999982399908
  0
LINE
  5
4C18
330
1A
100
AcDbEntity
  8
外形線
100
AcDbLine
 10
423.700995404485
 20
674.556578744988
 30
0.0
 11
458.715475904485
 21
672.886061744988
 31
0.0
  0
LINE
  5
4C19
330
1A
100
AcDbEntity
  8
外形線
100
AcDbLine
 10
464.501014904485
 20
665.181578744988
 30
0.0
 11
463.001014904485
 21
665.181578744988
 31
0.0
  0
ARC
  5
4C1A
330
1A
100
AcDbEntity
  8
外形線
100
AcDbCircle
 10
458.501014904485
 20
668.391188744988
 30
0.0
 40
4.5
100
AcDbArc
 50
0.0
 51
87.268519579299
  0
LINE
  5
4C1B
330
1A
100
AcDbEntity
  8
外形線
100
AcDbLine
 10
415.501014904485
 20
604.756605744987
 30
0.0
 11
415.501014904485
 21
675.756605744987
 31
0.0
  0
LINE
  5
4C1C
330
1A
100
AcDbEntity
  8
中心線
 48
10.0
100
AcDbLine
 10
398.851005904484
 20
619.221419744988
 30
0.0
 11
398.851005904484
 21
563.787800744988
 31
0.0
  0
LINE
  5
4C1D
330
1A
100
AcDbEntity
  8
外形線
100
AcDbLine
 10
394.613487904484
 20
566.819197372455
 30
0.0
 11
394.613487904484
 21
580.002800744988
 31
0.0
  0
LINE
  5
4C1E
330
1A
100
AcDbEntity
  8
外形線
100
AcDbLine
 10
403.013451904485
 20
566.819197372455
 30
0.0
 11
403.013451904485
 21
580.002800744988
 31
0.0
  0
ARC
  5
4C1F
330
1A
100
AcDbEntity
  8
細線
100
AcDbCircle
 10
396.713480093132
 20
570.456490538691
 30
0.0
 40
4.199982
100
AcDbArc
 50
239.999981276044
 51
299.999981276019
  0
ARC
  5
4C20
330
1A
100
AcDbEntity
  8
細線
100
AcDbCircle
 10
400.913462093132
 20
570.456489166159
 30
0.0
 40
4.199982
100
AcDbArc
 50
239.999981276044
 51
299.999981276019
  0
ARC
  5
4C21
330
1A
100
AcDbEntity
  8
細線
100
AcDbCircle
 10
400.913459715836
 20
563.181906951285
 30
0.0
 40
4.199982
100
AcDbArc
 50
59.999981276043
 51
119.999981276019
  0
LINE
  5
4C22
330
1A
100
AcDbEntity
  8
外形線
100
AcDbLine
 10
391.908946267748
 20
604.075807190737
 30
0.0
 11
384.966886631013
 21
598.063807190737
 31
0.0
  0
LINE
  5
4C23
330
1A
100
AcDbEntity
  8
外形線
100
AcDbLine
 10
405.79306554122
 20
604.075807190737
 30
0.0
 11
412.735125177956
 21
598.063807190737
 31
0.0
  0
LINE
  5
4C24
330
1A
100
AcDbEntity
  8
外形線
100
AcDbLine
 10
405.79306554122
 20
595.398232644817
 30
0.0
 11
405.79306554122
 21
604.075807190737
 31
0.0
  0
LINE
  5
4C25
330
1A
100
AcDbEntity
  8
外形線
100
AcDbLine
 10
391.908946267748
 20
595.398232644817
 30
0.0
 11
391.908946267748
 21
604.075807190737
 31
0.0
  0
LWPOLYLINE
  5
4C26
330
1A
100
AcDbEntity
  8
外形線
100
AcDbPolyline
 90
       47
 70
     0
 43
0.0
 10
403.013450404484
 20
578.911493082207
 10
403.472704195383
 20
579.026363526561
 10
403.881321692652
 20
579.152583144406
 10
404.234825997485
 20
579.288769047198
 10
404.529344042743
 20
579.433429153686
 10
404.761649027089
 20
579.584978537472
 10
404.929195768503
 20
579.741756791791
 10
405.030148589822
 20
579.902046221284
 10
405.063401430814
 20
580.064090661417
 10
405.02858996639
 20
580.226114719395
 10
404.926095598243
 20
580.386343225732
 10
404.757041276116
 20
580.543020683383
 10
404.52327919454
 20
580.694430501334
 10
404.227370499799
 20
580.838913801937
 10
403.872557229476
 20
580.974887595915
 10
403.462726792007
 20
581.100862125925
 10
403.002369375431
 20
581.215457188657
 10
402.49652875194
 20
581.317417256622
 10
401.950747017256
 20
581.405625233979
 10
401.371003870277
 20
581.479114695668
 10
400.763651098243
 20
581.53708047577
 10
400.135342985219
 20
581.578887489067
 10
399.492963406374
 20
581.604077689173
 10
398.843550406799
 20
581.612375086984
 10
398.194219091218
 20
581.603688774474
 10
397.552083669403
 20
581.5781139207
 10
396.924179511413
 20
581.535930729111
 10
396.317386066601
 20
581.477601367582
 10
395.738351490927
 20
581.403764904805
 10
395.193419808371
 20
581.315230308517
 10
394.688561404485
 20
581.212967582283
 10
394.229307613587
 20
581.098097137929
 10
393.820690116318
 20
580.971877520083
 10
393.467185811483
 20
580.835691617292
 10
393.172667766226
 20
580.691031510803
 10
392.94036278188
 20
580.539482127018
 10
392.772816040467
 20
580.382703872698
 10
392.671863219146
 20
580.222414443206
 10
392.638610378155
 20
580.060370003071
 10
392.673421842579
 20
579.898345945095
 10
392.775916210726
 20
579.738117438757
 10
392.944970532853
 20
579.581439981106
 10
393.178732614429
 20
579.430030163155
 10
393.47464130917
 20
579.285546862552
 10
393.829454579494
 20
579.149573068575
 10
394.239285016961
 20
579.023598538562
 10
394.613487904485
 20
578.928681656695
  0
ARC
  5
4C27
330
1A
100
AcDbEntity
  8
外形線
100
AcDbCircle
 10
398.851005904484
 20
612.249011398945
 30
0.0
 40
34.15159996140045
100
AcDbArc
 50
255.26831657715
 51
262.87239111701
  0
LWPOLYLINE
  5
4C28
330
1A
100
AcDbEntity
  8
外形線
100
AcDbPolyline
 90
       34
 70
     0
 43
0.0
 10
410.524305904484
 20
587.477166244716
 10
410.470564346884
 20
588.036584356163
 10
410.309834505024
 20
588.590851567579
 10
410.043596315521
 20
589.134864406381
 10
409.674301194
 20
589.663613818176
 10
409.205349463424
 20
590.172231288155
 10
408.641059045282
 20
590.656033668436
 10
407.98662570187
 20
591.110566298645
 10
407.248075195776
 20
591.531644022655
 10
406.432207807057
 20
591.915389723835
 10
405.546535718941
 20
592.258270024015
 10
404.59921384864
 20
592.557127817424
 10
403.598964760102
 20
592.809211340065
 10
402.554998350099
 20
593.012199506876
 10
401.476927047157
 20
593.164223283345
 10
400.374677304127
 20
593.263882894852
 10
399.258398199341
 20
593.310260715237
 10
398.138367987933
 20
593.302929715925
 10
397.02489946373
 20
593.241957397851
 10
395.928245003156
 20
593.127905169928
 10
394.858502165401
 20
592.961823179826
 10
393.825520718113
 20
592.745240644617
 10
392.838811944637
 20
592.480151770359
 10
391.907461067901
 20
592.168997390236
 10
391.040043597275
 20
591.814642490338
 10
390.244546368699
 20
591.420349829996
 10
389.52829400505
 20
590.989749899596
 10
388.897881473931
 20
590.526807492465
 10
388.359113363821
 20
590.035785198622
 10
387.916950437731
 20
589.521204156544
 10
387.575463956464
 20
588.987802424313
 10
387.33779819206
 20
588.440491353462
 10
387.206141476587
 20
587.884310367195
 10
387.177705904484
 20
587.477166244716
  0
ARC
  5
4C29
330
1A
100
AcDbEntity
  8
外形線
100
AcDbCircle
 10
398.851005904484
 20
607.065626057014
 30
0.0
 40
13.57645981229912
100
AcDbArc
 50
239.247497502359
 51
300.75250249764
  0
LINE
  5
4C2A
330
1A
100
AcDbEntity
  8
外形線
100
AcDbLine
 10
387.177705904484
 20
587.477166244716
 30
0.0
 11
387.177705904484
 21
583.096313504188
 31
0.0
  0
ARC
  5
4C2B
330
1A
100
AcDbEntity
  8
外形線
100
AcDbCircle
 10
391.185705904484
 20
583.096313504188
 30
0.0
 40
4.007999999999999
100
AcDbArc
 50
180.0
 51
255.26831657715
  0
ARC
  5
4C2C
330
1A
100
AcDbEntity
  8
外形線
100
AcDbCircle
 10
384.458254713511
 20
596.987550193794
 30
0.0
 40
7.618315752702329
100
AcDbArc
 50
273.828163206422
 51
347.958626091838
  0
LINE
  5
4C2D
330
1A
100
AcDbEntity
  8
外形線
100
AcDbLine
 10
387.174954787282
 20
587.473989528201
 30
0.0
 11
384.966886631013
 21
589.386232644817
 31
0.0
  0
LINE
  5
4C2E
330
1A
100
AcDbEntity
  8
外形線
100
AcDbLine
 10
384.966886631013
 20
598.063807190737
 30
0.0
 11
384.966886631013
 21
589.386232644817
 31
0.0
  0
LINE
  5
4C2F
330
1A
100
AcDbEntity
  8
外形線
100
AcDbLine
 10
410.524305904484
 20
587.477166244716
 30
0.0
 11
410.524305904484
 21
583.096313504188
 31
0.0
  0
LWPOLYLINE
  5
4C30
330
1A
100
AcDbEntity
  8
外形線
100
AcDbPolyline
 90
       29
 70
     0
 43
0.0
 10
403.013450404484
 20
580.002800744988
 10
402.986452318853
 20
580.104772212315
 10
402.905805157144
 20
580.205432705023
 10
402.772545742544
 20
580.303488102765
 10
402.588387296552
 20
580.397677777042
 10
402.355697413309
 20
580.486790798216
 10
402.077467621117
 20
580.569681503563
 10
401.757274922496
 20
580.645284226249
 10
401.399235807199
 20
580.71262699585
 10
401.007953329444
 20
580.77084403428
 10
400.588457929703
 20
580.81918688649
 10
400.146142761923
 20
580.857034042818
 10
399.686694357576
 20
580.883898929296
 10
399.216019517962
 20
580.899436163191
 10
398.740169374681
 20
580.90344599334
 10
398.265261594526
 20
580.895876868207
 10
397.797401729002
 20
580.87682609865
 10
397.342604719584
 20
580.84653860686
 10
396.906717567901
 20
580.805403777577
 10
396.495344164993
 20
580.75395045204
 10
396.113773246069
 20
580.692840129049
 10
395.766910397002
 20
580.622858460561
 10
395.459214986702
 20
580.544905151103
 10
395.194642836177
 20
580.459982390923
 10
394.976595361363
 20
580.36918197154
 10
394.807875843535
 20
580.273671249354
 10
394.690653389513
 20
580.174678137775
 10
394.626435045006
 20
580.073475320826
 10
394.613487904485
 20
580.002800744988
  0
ARC
  5
4C31
330
1A
100
AcDbEntity
  8
外形線
100
AcDbCircle
 10
398.851005904484
 20
612.249011398945
 30
0.0
 40
34.15159996140045
100
AcDbArc
 50
277.000695446903
 51
284.73168342285
  0
ARC
  5
4C32
330
1A
100
AcDbEntity
  8
外形線
100
AcDbCircle
 10
406.516305904484
 20
583.096313504188
 30
0.0
 40
4.007999999999999
100
AcDbArc
 50
284.731683422849
 51
0.0
  0
LINE
  5
4C33
330
1A
100
AcDbEntity
  8
外形線
100
AcDbLine
 10
410.527057021687
 20
587.473989528201
 30
0.0
 11
412.735125177956
 21
589.386232644817
 31
0.0
  0
ARC
  5
4C34
330
1A
100
AcDbEntity
  8
外形線
100
AcDbCircle
 10
413.243757095458
 20
596.987550193794
 30
0.0
 40
7.618315752702329
100
AcDbArc
 50
192.041373908162
 51
266.171836793578
  0
LINE
  5
4C35
330
1A
100
AcDbEntity
  8
外形線
100
AcDbLine
 10
412.735125177956
 20
589.386232644817
 30
0.0
 11
412.735125177956
 21
598.063807190737
 31
0.0
  0
LWPOLYLINE
  5
4C36
330
1A
100
AcDbEntity
  8
外形線
100
AcDbPolyline
 90
       34
 70
     0
 43
0.0
 10
409.349460904485
 20
603.782710138552
 10
409.301128100213
 20
604.153548073018
 10
409.156574716687
 20
604.520971478908
 10
408.91713174411
 20
604.88159726727
 10
408.58500387838
 20
605.232104938915
 10
408.163249221118
 20
605.569267158265
 10
407.655751121884
 20
605.889979469365
 10
407.067182421832
 20
606.191288880493
 10
406.402962428048
 20
606.470421054132
 10
405.669207014717
 20
606.724805851966
 10
404.872672310576
 20
606.952100999703
 10
404.02069249117
 20
607.150213653796
 10
403.121112248666
 20
607.317319671525
 10
402.182214561044
 20
607.451880406975
 10
401.212644425716
 20
607.552656878281
 10
400.221329259827
 20
607.618721175673
 10
399.217396700138
 20
607.649465005314
 10
398.210090559362
 20
607.644605290216
 10
397.20868571281
 20
607.604186776707
 10
396.222402699019
 20
607.528581622426
 10
395.260322820686
 20
607.418485969638
 10
394.331304527643
 20
607.274913535432
 10
393.443901851755
 20
607.099186277827
 10
392.606285644801
 20
606.892922223691
 10
391.826168344503
 20
606.658020570603
 10
391.110732961463
 20
606.39664419979
 10
390.46656694085
 20
606.11119976118
 10
389.899601507821
 20
605.804315513916
 10
389.415057055145
 20
605.478817126396
 10
389.017395075908
 20
605.137701658637
 10
388.710277083851
 20
604.784109966532
 10
388.496530899598
 20
604.421297782099
 10
388.378124613214
 20
604.052605735997
 10
388.352550904484
 20
603.782710138552
  0
LINE
  5
4C37
330
1A
100
AcDbEntity
  8
外形線
100
AcDbLine
 10
391.908946267748
 20
604.075807190737
 30
0.0
 11
405.79306554122
 21
604.075807190737
 31
0.0
  0
LINE
  5
4C38
330
1A
100
AcDbEntity
  8
外形線
100
AcDbLine
 10
391.908946267748
 20
612.753381736657
 30
0.0
 11
405.79306554122
 21
612.753381736657
 31
0.0
  0
LINE
  5
4C39
330
1A
100
AcDbEntity
  8
外形線
100
AcDbLine
 10
391.908946267748
 20
608.414594463697
 30
0.0
 11
405.79306554122
 21
608.414594463697
 31
0.0
  0
LINE
  5
4C3A
330
1A
100
AcDbEntity
  8
外形線
100
AcDbLine
 10
414.001014904485
 20
614.556578744988
 30
0.0
 11
390.901023904485
 21
614.556578744988
 31
0.0
  0
LINE
  5
4C3B
330
1A
100
AcDbEntity
  8
外形線
100
AcDbLine
 10
391.219807139656
 20
612.156569744988
 30
0.0
 11
388.501014904484
 21
612.156569744988
 31
0.0
  0
LINE
  5
4C3C
330
1A
100
AcDbEntity
  8
外形線
100
AcDbLine
 10
384.966886631013
 20
606.741381736657
 30
0.0
 11
391.908946267748
 21
612.753381736657
 31
0.0
  0
ARC
  5
4C3D
330
1A
100
AcDbEntity
  8
外形線
100
AcDbCircle
 10
390.901023904485
 20
609.156569744988
 30
0.0
 40
5.4
100
AcDbArc
 50
89.999981276021
 51
180.00001984784
  0
LINE
  5
4C3E
330
1A
100
AcDbEntity
  8
外形線
100
AcDbLine
 10
391.908946267748
 20
608.414594463697
 30
0.0
 11
384.966886631013
 21
602.402594463697
 31
0.0
  0
ARC
  5
4C3F
330
1A
100
AcDbEntity
  8
外形線
100
AcDbCircle
 10
388.501014904484
 20
609.156569744988
 30
0.0
 40
3.0
100
AcDbArc
 50
89.999981276021
 51
211.533239298813
  0
LINE
  5
4C40
330
1A
100
AcDbEntity
  8
外形線
100
AcDbLine
 10
387.471886631013
 20
600.233200827217
 30
0.0
 11
384.966886631013
 21
602.402594463697
 31
0.0
  0
LINE
  5
4C41
330
1A
100
AcDbEntity
  8
外形線
100
AcDbLine
 10
388.352550904484
 20
603.782710138552
 30
0.0
 11
388.352550904484
 21
600.99587846025
 31
0.0
  0
LINE
  5
4C42
330
1A
100
AcDbEntity
  8
外形線
100
AcDbLine
 10
384.966886631013
 20
602.402594463697
 30
0.0
 11
384.966886631013
 21
606.741381736657
 31
0.0
  0
LINE
  5
4C43
330
1A
100
AcDbEntity
  8
細線
100
AcDbLine
 10
389.707755904484
 20
602.169520417585
 30
0.0
 11
389.707755904484
 21
605.721061627231
 31
0.0
  0
LINE
  5
4C44
330
1A
100
AcDbEntity
  8
外形線
100
AcDbLine
 10
391.908946267748
 20
608.414594463697
 30
0.0
 11
391.908946267748
 21
612.753381736657
 31
0.0
  0
LINE
  5
4C45
330
1A
100
AcDbEntity
  8
細線
100
AcDbLine
 10
407.994255904484
 20
602.169520417585
 30
0.0
 11
407.994255904484
 21
605.824465945078
 31
0.0
  0
LINE
  5
4C46
330
1A
100
AcDbEntity
  8
外形線
100
AcDbLine
 10
414.001014904485
 20
612.156569744988
 30
0.0
 11
406.482204669313
 21
612.156569744988
 31
0.0
  0
LINE
  5
4C47
330
1A
100
AcDbEntity
  8
外形線
100
AcDbLine
 10
412.735125177956
 20
606.741381736657
 30
0.0
 11
405.79306554122
 21
612.753381736657
 31
0.0
  0
LINE
  5
4C48
330
1A
100
AcDbEntity
  8
外形線
100
AcDbLine
 10
405.79306554122
 20
608.414594463697
 30
0.0
 11
405.79306554122
 21
612.753381736657
 31
0.0
  0
LINE
  5
4C49
330
1A
100
AcDbEntity
  8
外形線
100
AcDbLine
 10
410.230125177956
 20
600.233200827217
 30
0.0
 11
412.735125177956
 21
602.402594463697
 31
0.0
  0
LINE
  5
4C4A
330
1A
100
AcDbEntity
  8
外形線
100
AcDbLine
 10
405.79306554122
 20
608.414594463697
 30
0.0
 11
412.735125177956
 21
602.402594463697
 31
0.0
  0
LINE
  5
4C4B
330
1A
100
AcDbEntity
  8
外形線
100
AcDbLine
 10
409.349460904485
 20
603.782710138552
 30
0.0
 11
409.349460904485
 21
600.99587846025
 31
0.0
  0
LINE
  5
4C4C
330
1A
100
AcDbEntity
  8
外形線
100
AcDbLine
 10
412.735125177956
 20
602.402594463697
 30
0.0
 11
412.735125177956
 21
606.741381736657
 31
0.0
  0
LINE
  5
4C51
330
1A
100
AcDbEntity
  8
寸法線
 48
10.0
100
AcDbLine
 10
464.501014904485
 20
613.958138758346
 30
0.0
 11
464.501014904485
 21
584.582846183356
 31
0.0
  0
VIEWPORT
  5
2902
330
28FB
100
AcDbEntity
 67
     1
  8
0
 48
10.0
100
AcDbViewport
 10
0.0
 20
0.0
 30
0.0
 40
423.388640448517
 41
270.111233906396
 68
     1
 69
     1
1001
ACAD
1000
MVIEW
1002
{
1070
    16
1010
0.0
1020
0.0
1030
0.0
1010
0.0
1020
0.0
1030
1.0
1040
0.0
1040
270.111233906396
1040
205.472311151778
1040
114.76352612481
1040
50.0
1040
0.0
1040
0.0
1070
    16
1070
   100
1070
     0
1070
     1
1070
     0
1070
     0
1070
     0
1070
     0
1040
0.0
1040
0.0
1040
0.0
1040
10.0
1040
10.0
1040
10.0
1040
10.0
1070
     0
1002
{
1002
}
1002
}
  0
VIEWPORT
  5
2904
330
28FB
100
AcDbEntity
 67
     1
  8
図枠太線
 48
10.0
100
AcDbViewport
 10
204.746305129083
 20
162.645277781685
 30
0.0
 40
400.0
 41
240.0
 68
     2
 69
     2
1001
ACAD
1000
MVIEW
1002
{
1070
    16
1010
0.0
1020
0.0
1030
0.0
1010
0.0
1020
0.0
1030
1.0
1040
0.0
1040
359.999999667086
1040
259.290123234727
1040
595.278380319629
1040
50.0
1040
0.0
1040
0.0
1070
     0
1070
   100
1070
     0
1070
     0
1070
     0
1070
     0
1070
     0
1070
     0
1040
0.0
1040
0.0
1040
0.0
1040
1.0
1040
1.0
1040
0.0
1040
0.0
1070
     0
1002
{
1002
}
1002
}
  0
INSERT
  5
2A59
330
28FB
100
AcDbEntity
 67
     1
  8
図枠太線
100
AcDbBlockReference
  2
A3横用_タイトル
 10
-0.352109406709
 20
-0.880681971842
 30
0.0
  0
MTEXT
  5
322B
330
28FB
100
AcDbEntity
 67
     1
  8
寸法線
 48
10.0
100
AcDbMText
 10
146.778370616794
 20
15.062330205921
 30
0.0
 40
7.0
 41
20.13579853524
 71
     1
 72
     5
  1
1:1.5
  0
MTEXT
  5
322C
102
{ACAD_XDICTIONARY
360
48A3
102
}
330
28FB
100
AcDbEntity
 67
     1
  8
寸法線
 48
10.0
100
AcDbMText
 10
175.322824279557
 20
13.821665603301
 30
0.0
 40
5.0
 41
27.082042865391
 71
     1
 72
     5
  1
2015.6.15
1001
ACADANNOTATIVE
1000
AnnotativeData
1002
{
1070
     1
1070
     0
1002
}
  0
MTEXT
  5
322D
102
{ACAD_XDICTIONARY
360
48A6
102
}
330
28FB
100
AcDbEntity
 67
     1
  8
寸法線
 48
10.0
100
AcDbMText
 10
180.195403605016
 20
32.982245586027
 30
0.0
 40
5.0
 41
33.4
 71
     1
 72
     5
  1
ohno
1001
ACADANNOTATIVE
1000
AnnotativeData
1002
{
1070
     1
1070
     0
1002
}
  0
MTEXT
  5
322F
330
28FB
100
AcDbEntity
 67
     1
  8
寸法線
 48
10.0
100
AcDbMText
 10
312.831551930329
 20
34.905355054443
 30
0.0
 40
7.0
 41
37.345612043362
 71
     1
 72
     5
  1
HL-400H
  0
MTEXT
  5
3230
330
28FB
100
AcDbEntity
 67
     1
  8
寸法線
 48
10.0
100
AcDbMText
 10
361.819918635276
 20
39.416596448189
 30
0.0
 40
5.0
 41
42.043281739348
 71
     1
 72
     5
  1
パドル式\Pレベルスイッチ
  0
MTEXT
  5
3231
102
{ACAD_XDICTIONARY
360
48A9
102
}
330
28FB
100
AcDbEntity
 67
     1
  8
寸法線
 48
10.0
100
AcDbMText
 10
347.266472765904
 20
15.751429234194
 30
0.0
 40
7.0
 41
36.545313751788
 71
     1
 72
     5
  1
\H1.143x;HB-6003
1001
ACADANNOTATIVE
1000
AnnotativeData
1002
{
1070
     1
1070
     0
1002
}
  0
MTEXT
  5
3234
330
28FB
100
AcDbEntity
 67
     1
  8
寸法線
 48
10.0
100
AcDbMText
 10
373.486813801897
 20
52.537964529091
 30
0.0
 40
5.0
 41
34.334449052711
 71
     1
 72
     5
  1
台数　 台
  0
MTEXT
  5
3976
330
28FB
100
AcDbEntity
 67
     1
  8
寸法線
 48
10.0
100
AcDbMText
 10
218.182009379739
 20
40.424649406119
 30
0.0
 40
5.0
 41
77.824588815005
 71
     1
 72
     5
  1
タンク内温度：max. 100℃
  0
ENDSEC
  0
SECTION
  2
OBJECTS
  0
DICTIONARY
  5
C
330
0
100
AcDbDictionary
  3
ACAD_COLOR
350
2948
  3
ACAD_GROUP
350
D
  3
ACAD_LAYOUT
350
2816
  3
ACAD_MATERIAL
350
2947
  3
ACAD_MLEADERSTYLE
350
42E2
  3
ACAD_MLINESTYLE
350
E
  3
ACAD_PLOTSETTINGS
350
2817
  3
ACAD_SCALELIST
350
42BB
  3
ACAD_VISUALSTYLE
350
42A2
  3
ACADDIM
350
3EB5
  3
ACDBHEADERROUNDTRIPXREC
350
4CC7
  3
ACDBVARIABLEDICTIONARY
350
4417
  3
DWGPROPS
350
4CEC
  0
DICTIONARY
  5
4CED
330
8
100
AcDbDictionary
280
     1
  3
ACAD_XREC_ROUNDTRIP
360
4CEE
  0
DICTIONARY
  5
29EA
330
2
100
AcDbDictionary
280
     1
  3
ACAD_LAYERFILTERS
360
2B0C
  3
ACAD_LAYERSTATES
360
29EB
  0
DICTIONARY
  5
48AC
330
41A9
100
AcDbDictionary
280
     1
  3
ACDBCONTEXTDATAMANAGER
360
48AD
  0
DICTIONARY
  5
4B9B
330
4B9A
100
AcDbDictionary
280
     1
  3
ACDBCONTEXTDATAMANAGER
360
4B9C
  0
DICTIONARY
  5
4BE0
330
4BDF
100
AcDbDictionary
280
     1
  3
ACDBCONTEXTDATAMANAGER
360
4BE1
  0
DICTIONARY
  5
4BE4
330
4BE3
100
AcDbDictionary
280
     1
  3
ACDBCONTEXTDATAMANAGER
360
4BE5
  0
DICTIONARY
  5
48A3
330
322C
100
AcDbDictionary
280
     1
  3
ACDBCONTEXTDATAMANAGER
360
48A4
  0
DICTIONARY
  5
48A6
330
322D
100
AcDbDictionary
280
     1
  3
ACDBCONTEXTDATAMANAGER
360
48A7
  0
DICTIONARY
  5
48A9
330
3231
100
AcDbDictionary
280
     1
  3
ACDBCONTEXTDATAMANAGER
360
48AA
  0
DICTIONARY
  5
2948
102
{ACAD_REACTORS
330
C
102
}
330
C
100
AcDbDictionary
  0
DICTIONARY
  5
D
102
{ACAD_REACTORS
330
C
102
}
330
C
100
AcDbDictionary
  0
DICTIONARY
  5
2816
102
{ACAD_REACTORS
330
C
102
}
330
C
100
AcDbDictionary
  0
DICTIONARY
  5
2947
102
{ACAD_REACTORS
330
C
102
}
330
C
100
AcDbDictionary
  3
BYBLOCK
350
42DE
  3
BYLAYER
350
42DD
  3
GLOBAL
350
42DF
  0
DICTIONARY
  5
42E2
102
{ACAD_REACTORS
330
C
102
}
330
C
100
AcDbDictionary
  3
STANDARD
350
42E3
  0
DICTIONARY
  5
E
102
{ACAD_REACTORS
330
C
102
}
330
C
100
AcDbDictionary
  3
STANDARD
350
13
  0
DICTIONARY
  5
2817
102
{ACAD_REACTORS
330
C
102
}
330
C
100
AcDbDictionary
  0
DICTIONARY
  5
42BB
102
{ACAD_REACTORS
330
C
102
}
330
C
100
AcDbDictionary
  3
A0
350
42BC
  3
A1
350
42BD
  3
A2
350
42BE
  3
A3
350
42BF
  3
A4
350
42C0
  3
A5
350
42C1
  3
A6
350
42C2
  3
A7
350
42C3
  3
A8
350
42C4
  3
A9
350
42C5
  3
B0
350
42C6
  3
B1
350
42C7
  3
B2
350
42C8
  3
B3
350
42C9
  3
B4
350
42CA
  3
B5
350
42CB
  3
B6
350
42CC
  3
B7
350
42CD
  3
B8
350
42CE
  3
B9
350
42CF
  3
C0
350
42D0
  3
C1
350
42D1
  3
C2
350
42D2
  3
C3
350
42D3
  3
C4
350
42D4
  3
C5
350
42D5
  3
C6
350
42D6
  3
C7
350
42D7
  3
C8
350
42D8
  3
C9
350
42D9
  3
D0
350
42DA
  3
D1
350
42DB
  3
D2
350
42DC
  0
DICTIONARY
  5
42A2
102
{ACAD_REACTORS
330
C
102
}
330
C
100
AcDbDictionary
  3
2DWIREFRAME
350
42A7
  3
BASIC
350
42AA
  3
BRIGHTEN
350
42AE
  3
COLORCHANGE
350
42B2
  3
CONCEPTUAL
350
42AC
  3
DIM
350
42AD
  3
EDGECOLOROFF
350
42B5
  3
FACEPATTERN
350
42B1
  3
FLAT
350
42A3
  3
FLATWITHEDGES
350
42A4
  3
GOURAUD
350
42A5
  3
GOURAUDWITHEDGES
350
42A6
  3
HIDDEN
350
42A9
  3
JITTEROFF
350
42B3
  3
LINEPATTERN
350
42B0
  3
OVERHANGOFF
350
42B4
  3
REALISTIC
350
42AB
  3
SHADED
350
42BA
  3
SHADED_WITH_EDGES
350
42B9
  3
SHADES_OF_GRAY
350
42B6
  3
SKETCHY
350
42B7
  3
THICKEN
350
42AF
  3
WIREFRAME
350
42A8
  3
X-RAY
350
42B8
  0
XRECORD
  5
3EB5
102
{ACAD_REACTORS
330
C
102
}
330
C
100
AcDbXrecord
 90
   990106
  3

 60
     0
 61
     0
 62
     1
 63
     3
 64
     0
 65
     0
 66
     0
 67
     3
 68
     1
 69
     0
 70
     0
 71
     0
 72
     0
 40
0.0
170
     0
340
3EAE
  0
DICTIONARY
  5
4CC7
102
{ACAD_REACTORS
330
C
102
}
330
C
100
AcDbDictionary
  3
CEPSNID
350
4CD1
  3
CEPSNTYPE
350
4CD0
  3
COLORDICT
350
4CEA
  3
DIMSTYLEDATA
350
4CE7
  3
FINGERPRINTGUID
350
4CD2
  3
HYPERLINKBASE
350
4CCA
  3
INSUNITS
350
4CCF
  3
LAYOUTDICT
350
4CCC
  3
LWETCUNION
350
4CCE
  3
MATERIALDICT
350
4CEB
  3
PLOTSETDICT
350
4CCD
  3
PSVPSCALE
350
4CD4
  3
PUCSBASE
350
4CD7
  3
PUCSORGBACK
350
4CDD
  3
PUCSORGBOTTOM
350
4CD9
  3
PUCSORGFRONT
350
4CDC
  3
PUCSORGLEFT
350
4CDA
  3
PUCSORGRIGHT
350
4CDB
  3
PUCSORGTOP
350
4CD8
  3
PUCSORTHOREF
350
4CD5
  3
PUCSORTHOVIEW
350
4CD6
  3
STYLESHEET
350
4CCB
  3
TSTACKALIGN
350
4CC8
  3
TSTACKSIZE
350
4CC9
  3
UCSBASE
350
4CE0
  3
UCSORGBACK
350
4CE6
  3
UCSORGBOTTOM
350
4CE2
  3
UCSORGFRONT
350
4CE5
  3
UCSORGLEFT
350
4CE3
  3
UCSORGRIGHT
350
4CE4
  3
UCSORGTOP
350
4CE1
  3
UCSORTHOREF
350
4CDE
  3
UCSORTHOVIEW
350
4CDF
  3
VERSIONGUID
350
4CD3
  0
DICTIONARY
  5
4417
102
{ACAD_REACTORS
330
C
102
}
330
C
100
AcDbDictionary
  3
CANNOSCALE
350
4418
  3
CMLEADERSTYLE
350
4457
  3
CTABLESTYLE
350
4456
  3
DIMASSOC
350
4CE8
  3
HIDETEXT
350
4CE9
  3
MSLTSCALE
350
4458
  3
XCLIPFRAME
350
4459
  0
XRECORD
  5
4CEC
102
{ACAD_REACTORS
330
C
102
}
330
C
100
AcDbXrecord
  1
DWGPROPS COOKIE
  2

  3

  4

  6

  7

  8
y-ohno
  9

300
=
301
=
302
=
303
=
304
=
305
=
306
=
307
=
308
=
309
=
 40
0.0
 41
2450576.222302431
 42
2457191.289557998
  1

 90
        0
  0
XRECORD
  5
4CEE
102
{ACAD_REACTORS
330
4CED
102
}
330
4CED
100
AcDbXrecord
102
VTR_0.000_0.000_1.000_1.000_VISUALSTYLE
340
42A7
102
VTR_0.000_0.000_1.000_1.000_GRIDDISPLAY
 70
     3
102
VTR_0.000_0.000_1.000_1.000_GRIDMAJOR
 70
     5
102
VTR_0.000_0.000_1.000_1.000_DEFAULTLIGHTING
280
     1
102
VTR_0.000_0.000_1.000_1.000_DEFAULTLIGHTINGTYPE
 70
     1
102
VTR_0.000_0.000_1.000_1.000_BRIGHTNESS
141
0.0
102
VTR_0.000_0.000_1.000_1.000_CONTRAST
142
0.0
  0
DICTIONARY
  5
2B0C
102
{ACAD_REACTORS
330
29EA
102
}
330
29EA
100
AcDbDictionary
  0
DICTIONARY
  5
29EB
102
{ACAD_REACTORS
330
29EA
102
}
330
29EA
100
AcDbDictionary
  0
DICTIONARY
  5
48AD
102
{ACAD_REACTORS
330
48AC
102
}
330
48AC
100
AcDbDictionary
  3
ACDB_ANNOTATIONSCALES
350
48AE
  0
DICTIONARY
  5
4B9C
102
{ACAD_REACTORS
330
4B9B
102
}
330
4B9B
100
AcDbDictionary
  3
ACDB_ANNOTATIONSCALES
350
4B9D
  0
DICTIONARY
  5
4BE1
102
{ACAD_REACTORS
330
4BE0
102
}
330
4BE0
100
AcDbDictionary
  3
ACDB_ANNOTATIONSCALES
350
4BE2
  0
DICTIONARY
  5
4BE5
102
{ACAD_REACTORS
330
4BE4
102
}
330
4BE4
100
AcDbDictionary
  3
ACDB_ANNOTATIONSCALES
350
4BE6
  0
DICTIONARY
  5
48A4
102
{ACAD_REACTORS
330
48A3
102
}
330
48A3
100
AcDbDictionary
  3
ACDB_ANNOTATIONSCALES
350
48A5
  0
DICTIONARY
  5
48A7
102
{ACAD_REACTORS
330
48A6
102
}
330
48A6
100
AcDbDictionary
  3
ACDB_ANNOTATIONSCALES
350
48A8
  0
DICTIONARY
  5
48AA
102
{ACAD_REACTORS
330
48A9
102
}
330
48A9
100
AcDbDictionary
  3
ACDB_ANNOTATIONSCALES
350
48AB
  0
MATERIAL
  5
42DE
102
{ACAD_REACTORS
330
2947
102
}
102
{ACAD_XDICTIONARY
360
4CF1
102
}
330
2947
100
AcDbMaterial
  1
BYBLOCK
  0
MATERIAL
  5
42DD
102
{ACAD_REACTORS
330
2947
102
}
102
{ACAD_XDICTIONARY
360
4CEF
102
}
330
2947
100
AcDbMaterial
  1
BYLAYER
  0
MATERIAL
  5
42DF
102
{ACAD_REACTORS
330
2947
102
}
102
{ACAD_XDICTIONARY
360
4CF3
102
}
330
2947
100
AcDbMaterial
  1
GLOBAL
  0
ACAD_PROXY_OBJECT
  5
42E3
102
{ACAD_REACTORS
330
42E2
102
}
330
42E2
100
AcDbProxyObject
 90
      499
 91
      507
 93
      610
310
40901902A4063FBFFFFFE0000000000000020400000000000020404214DD185B99185C990000000000000104090141901A00000000000004100000000000000041025764000000000000039000
340
14
340
0
340
10
340
0
 94
        0
1001
ACAD_MLEADERVER
1070
     2
  0
MLINESTYLE
  5
13
102
{ACAD_REACTORS
330
E
102
}
330
E
100
AcDbMlineStyle
  2
STANDARD
 70
     0
  3

 62
     0
 51
90.0
 52
90.0
 71
     2
 49
0.5
 62
   256
  6
BYLAYER
 49
-0.5
 62
   256
  6
BYLAYER
  0
ACAD_PROXY_OBJECT
  5
42BC
102
{ACAD_REACTORS
330
42BB
102
}
330
42BB
100
AcDbProxyObject
 90
      499
 91
      504
 93
       41
310
903313A31580
  0
ACAD_PROXY_OBJECT
  5
42BD
102
{ACAD_REACTORS
330
42BB
102
}
330
42BB
100
AcDbProxyObject
 90
      499
 91
      504
 93
      105
310
903313A324000000000000004000
  0
ACAD_PROXY_OBJECT
  5
42BE
102
{ACAD_REACTORS
330
42BB
102
}
330
42BB
100
AcDbProxyObject
 90
      499
 91
      504
 93
      105
310
903313A344000000000000104000
  0
ACAD_PROXY_OBJECT
  5
42BF
102
{ACAD_REACTORS
330
42BB
102
}
330
42BB
100
AcDbProxyObject
 90
      499
 91
      504
 93
      105
310
903313A354000000000000144000
  0
ACAD_PROXY_OBJECT
  5
42C0
102
{ACAD_REACTORS
330
42BB
102
}
330
42BB
100
AcDbProxyObject
 90
      499
 91
      504
 93
      105
310
903313A384000000000000204000
  0
ACAD_PROXY_OBJECT
  5
42C1
102
{ACAD_REACTORS
330
42BB
102
}
330
42BB
100
AcDbProxyObject
 90
      499
 91
      504
 93
      113
310
904313A31304000000000000244000
  0
ACAD_PROXY_OBJECT
  5
42C2
102
{ACAD_REACTORS
330
42BB
102
}
330
42BB
100
AcDbProxyObject
 90
      499
 91
      504
 93
      113
310
904313A31364000000000000304000
  0
ACAD_PROXY_OBJECT
  5
42C3
102
{ACAD_REACTORS
330
42BB
102
}
330
42BB
100
AcDbProxyObject
 90
      499
 91
      504
 93
      113
310
904313A32304000000000000344000
  0
ACAD_PROXY_OBJECT
  5
42C4
102
{ACAD_REACTORS
330
42BB
102
}
330
42BB
100
AcDbProxyObject
 90
      499
 91
      504
 93
      113
310
904313A333040000000000003E4000
  0
ACAD_PROXY_OBJECT
  5
42C5
102
{ACAD_REACTORS
330
42BB
102
}
330
42BB
100
AcDbProxyObject
 90
      499
 91
      504
 93
      113
310
904313A34304000000000000444000
  0
ACAD_PROXY_OBJECT
  5
42C6
102
{ACAD_REACTORS
330
42BB
102
}
330
42BB
100
AcDbProxyObject
 90
      499
 91
      504
 93
      113
310
904313A35304000000000000494000
  0
ACAD_PROXY_OBJECT
  5
42C7
102
{ACAD_REACTORS
330
42BB
102
}
330
42BB
100
AcDbProxyObject
 90
      499
 91
      504
 93
      121
310
905313A3130304000000000000594000
  0
ACAD_PROXY_OBJECT
  5
42C8
102
{ACAD_REACTORS
330
42BB
102
}
330
42BB
100
AcDbProxyObject
 90
      499
 91
      504
 93
      105
310
903323A310000000000000010100
  0
ACAD_PROXY_OBJECT
  5
42C9
102
{ACAD_REACTORS
330
42BB
102
}
330
42BB
100
AcDbProxyObject
 90
      499
 91
      504
 93
      105
310
903343A310000000000000410100
  0
ACAD_PROXY_OBJECT
  5
42CA
102
{ACAD_REACTORS
330
42BB
102
}
330
42BB
100
AcDbProxyObject
 90
      499
 91
      504
 93
      105
310
903383A310000000000000810100
  0
ACAD_PROXY_OBJECT
  5
42CB
102
{ACAD_REACTORS
330
42BB
102
}
330
42BB
100
AcDbProxyObject
 90
      499
 91
      504
 93
      113
310
90431303A310000000000000910100
  0
ACAD_PROXY_OBJECT
  5
42CC
102
{ACAD_REACTORS
330
42BB
102
}
330
42BB
100
AcDbProxyObject
 90
      499
 91
      504
 93
      121
310
9053130303A310000000000001650100
  0
ACAD_PROXY_OBJECT
  5
42CD
102
{ACAD_REACTORS
330
42BB
102
}
330
42BB
100
AcDbProxyObject
 90
      499
 91
      504
 93
      257
310
90E312F31323822203D2031272D3022000000000000200FC000000000000284000
  0
ACAD_PROXY_OBJECT
  5
42CE
102
{ACAD_REACTORS
330
42BB
102
}
330
42BB
100
AcDbProxyObject
 90
      499
 91
      504
 93
      249
310
90D312F363422203D2031272D3022000000000000240FC000000000000284000
  0
ACAD_PROXY_OBJECT
  5
42CF
102
{ACAD_REACTORS
330
42BB
102
}
330
42BB
100
AcDbProxyObject
 90
      499
 91
      504
 93
      249
310
90D312F333222203D2031272D3022000000000000280FC000000000000284000
  0
ACAD_PROXY_OBJECT
  5
42D0
102
{ACAD_REACTORS
330
42BB
102
}
330
42BB
100
AcDbProxyObject
 90
      499
 91
      504
 93
      249
310
90D312F313622203D2031272D30220000000000002C0FC000000000000284000
  0
ACAD_PROXY_OBJECT
  5
42D1
102
{ACAD_REACTORS
330
42BB
102
}
330
42BB
100
AcDbProxyObject
 90
      499
 91
      504
 93
      249
310
90D332F333222203D2031272D30220000000000002E0FC000000000000284000
  0
ACAD_PROXY_OBJECT
  5
42D2
102
{ACAD_REACTORS
330
42BB
102
}
330
42BB
100
AcDbProxyObject
 90
      499
 91
      504
 93
      241
310
90C312F3822203D2031272D3022000000000000300FC000000000000284000
  0
ACAD_PROXY_OBJECT
  5
42D3
102
{ACAD_REACTORS
330
42BB
102
}
330
42BB
100
AcDbProxyObject
 90
      499
 91
      504
 93
      249
310
90D332F313622203D2031272D3022000000000000320FC000000000000284000
  0
ACAD_PROXY_OBJECT
  5
42D4
102
{ACAD_REACTORS
330
42BB
102
}
330
42BB
100
AcDbProxyObject
 90
      499
 91
      504
 93
      241
310
90C312F3422203D2031272D3022000000000000340FC000000000000284000
  0
ACAD_PROXY_OBJECT
  5
42D5
102
{ACAD_REACTORS
330
42BB
102
}
330
42BB
100
AcDbProxyObject
 90
      499
 91
      504
 93
      241
310
90C332F3822203D2031272D3022000000000000360FC000000000000284000
  0
ACAD_PROXY_OBJECT
  5
42D6
102
{ACAD_REACTORS
330
42BB
102
}
330
42BB
100
AcDbProxyObject
 90
      499
 91
      504
 93
      241
310
90C312F3222203D2031272D3022000000000000380FC000000000000284000
  0
ACAD_PROXY_OBJECT
  5
42D7
102
{ACAD_REACTORS
330
42BB
102
}
330
42BB
100
AcDbProxyObject
 90
      499
 91
      504
 93
      241
310
90C332F3422203D2031272D30220000000000003A0FC000000000000284000
  0
ACAD_PROXY_OBJECT
  5
42D8
102
{ACAD_REACTORS
330
42BB
102
}
330
42BB
100
AcDbProxyObject
 90
      499
 91
      504
 93
      161
310
90A3122203D2031272D30224000000000000284000
  0
ACAD_PROXY_OBJECT
  5
42D9
102
{ACAD_REACTORS
330
42BB
102
}
330
42BB
100
AcDbProxyObject
 90
      499
 91
      504
 93
      257
310
90E312D312F3222203D2031272D30220000000000003E0FC000000000000284000
  0
ACAD_PROXY_OBJECT
  5
42DA
102
{ACAD_REACTORS
330
42BB
102
}
330
42BB
100
AcDbProxyObject
 90
      499
 91
      504
 93
      225
310
90A3322203D2031272D302200000000000002100000000000000284000
  0
ACAD_PROXY_OBJECT
  5
42DB
102
{ACAD_REACTORS
330
42BB
102
}
330
42BB
100
AcDbProxyObject
 90
      499
 91
      504
 93
      225
310
90A3622203D2031272D302200000000000006100000000000000284000
  0
ACAD_PROXY_OBJECT
  5
42DC
102
{ACAD_REACTORS
330
42BB
102
}
330
42BB
100
AcDbProxyObject
 90
      499
 91
      504
 93
      249
310
90D31272D3022203D2031272D30220000000000000A100000000000000284000
  0
ACAD_PROXY_OBJECT
  5
42A7
102
{ACAD_REACTORS
330
42A2
102
}
330
42A2
100
AcDbProxyObject
 90
      499
 91
      503
 93
      436
310
42CC9915DA5C99599C985B595049028333333333333E33F0000000000000F90107901411070040501600405405064090741402480A0340
1001
ACAD
1000
AcDbSavedByObjectVersion
1070
     0
  0
ACAD_PROXY_OBJECT
  5
42AA
102
{ACAD_REACTORS
330
42A2
102
}
330
42A2
100
AcDbProxyObject
 90
      499
 91
      503
 93
      388
310
4150985CDA58D07406404333333333333E33F0000000000000F90107A41107004050150841D405064090741402480A0350
1001
ACAD
1000
AcDbSavedByObjectVersion
1070
     0
  0
ACAD_PROXY_OBJECT
  5
42AE
102
{ACAD_REACTORS
330
42A2
102
}
330
42A2
100
AcDbProxyObject
 90
      499
 91
      503
 93
      428
310
42109C9A59DA1D195B90C409028333333333333E33F0000000000000F9010790141107004050150841D405064090741402480A029950
1001
ACAD
1000
AcDbSavedByObjectVersion
1070
     0
  0
ACAD_PROXY_OBJECT
  5
42B2
102
{ACAD_REACTORS
330
42A2
102
}
330
42A2
100
AcDbProxyObject
 90
      499
 91
      503
 93
      452
310
42D0DBDB1BDC90DA185B99D95104090240C333333333333E33F0000000000000F90108901411070040501508421405064090741402480A0350
1001
ACAD
1000
AcDbSavedByObjectVersion
1070
     0
  0
ACAD_PROXY_OBJECT
  5
42AC
102
{ACAD_REACTORS
330
42A2
102
}
330
42A2
100
AcDbProxyObject
 90
      499
 91
      503
 93
      500
310
4290DBDB98D95C1D1D585B10940D028333333333333E33F0000000000000F90107902409070040501000000000018199010841D405064090740C02480A0340
1001
ACAD
1000
AcDbSavedByObjectVersion
1070
     0
  0
ACAD_PROXY_OBJECT
  5
42AD
102
{ACAD_REACTORS
330
42A2
102
}
330
42A2
100
AcDbProxyObject
 90
      499
 91
      503
 93
      412
310
40D11A5B50B409028333333333333E33F0000000000000F9010790141107004050150841D405064090741402480A02677FFFFFD0
1001
ACAD
1000
AcDbSavedByObjectVersion
1070
     0
  0
ACAD_PROXY_OBJECT
  5
42B5
102
{ACAD_REACTORS
330
42A2
102
}
330
42A2
100
AcDbProxyObject
 90
      499
 91
      503
 93
      452
310
43115919D950DBDB1BDC93D999916409028333333333333E33F0000000000000F9010790141107004050150841D405064090741402480A0350
1001
ACAD
1000
AcDbSavedByObjectVersion
1070
     0
  0
ACAD_PROXY_OBJECT
  5
42B1
102
{ACAD_REACTORS
330
42A2
102
}
330
42A2
100
AcDbProxyObject
 90
      499
 91
      503
 93
      444
310
42D19858D95C185D1D195C9B90F409028333333333333E33F0000000000000F9010790141107004050150841D405064090741402480A0350
1001
ACAD
1000
AcDbSavedByObjectVersion
1070
     0
  0
ACAD_PROXY_OBJECT
  5
42A3
102
{ACAD_REACTORS
330
42A2
102
}
330
42A2
100
AcDbProxyObject
 90
      499
 91
      503
 93
      380
310
41119B185D240901404333333333333E33F0000000000000F9010740A907004050150841D405064090741402480A1B50
1001
ACAD
1000
AcDbSavedByObjectVersion
1070
     0
  0
ACAD_PROXY_OBJECT
  5
42A4
102
{ACAD_REACTORS
330
42A2
102
}
330
42A2
100
AcDbProxyObject
 90
      499
 91
      503
 93
      468
310
43519B185D15DA5D1A115919D95CD0140901404333333333333E33F0000000000000F90107409019070040501600405405064090741402480A1B50
1001
ACAD
1000
AcDbSavedByObjectVersion
1070
     0
  0
ACAD_PROXY_OBJECT
  5
42A5
102
{ACAD_REACTORS
330
42A2
102
}
330
42A2
100
AcDbProxyObject
 90
      499
 91
      503
 93
      404
310
41D1DBDD5C985D5910240902404333333333333E33F0000000000000F9010740A9070040501641D405064090741402480A1B50
1001
ACAD
1000
AcDbSavedByObjectVersion
1070
     0
  0
ACAD_PROXY_OBJECT
  5
42A6
102
{ACAD_REACTORS
330
42A2
102
}
330
42A2
100
AcDbProxyObject
 90
      499
 91
      503
 93
      492
310
4411DBDD5C985D5915DA5D1A115919D95CD0340902404333333333333E33F0000000000000F90107409019070040501600405405064090741402480A1B50
1001
ACAD
1000
AcDbSavedByObjectVersion
1070
     0
  0
ACAD_PROXY_OBJECT
  5
42A9
102
{ACAD_REACTORS
330
42A2
102
}
330
42A2
100
AcDbProxyObject
 90
      499
 91
      503
 93
      476
310
41921A5919195B90640502408333333333333E33F0000000000000F901079024090700405020000000000001110200405405064090740C02480A0340
1001
ACAD
1000
AcDbSavedByObjectVersion
1070
     0
  0
ACAD_PROXY_OBJECT
  5
42B3
102
{ACAD_REACTORS
330
42A2
102
}
330
42A2
100
AcDbProxyObject
 90
      499
 91
      503
 93
      428
310
42529A5D1D195C93D999914409028333333333333E33F0000000000000F9010790141107004050150A41D405064090741402480A0350
1001
ACAD
1000
AcDbSavedByObjectVersion
1070
     0
  0
ACAD_PROXY_OBJECT
  5
42B0
102
{ACAD_REACTORS
330
42A2
102
}
330
42A2
100
AcDbProxyObject
 90
      499
 91
      503
 93
      444
310
42D31A5B995C185D1D195C9B90E409028333333333333E33F0000000000000F9010790141107004050750841D405064090741402483A0350
1001
ACAD
1000
AcDbSavedByObjectVersion
1070
     0
  0
ACAD_PROXY_OBJECT
  5
42B4
102
{ACAD_REACTORS
330
42A2
102
}
330
42A2
100
AcDbProxyObject
 90
      499
 91
      503
 93
      444
310
42D3DD995C9A185B99D3D999915409028333333333333E33F0000000000000F9010790141107004050150941D405064090741402480A0350
1001
ACAD
1000
AcDbSavedByObjectVersion
1070
     0
  0
ACAD_PROXY_OBJECT
  5
42AB
102
{ACAD_REACTORS
330
42A2
102
}
330
42A2
100
AcDbProxyObject
 90
      499
 91
      503
 93
      428
310
425499585B1A5CDD1A58D08409038333333333333E33F0000000000000F9010740A907004050150800405405064090740C02480A1B40
1001
ACAD
1000
AcDbSavedByObjectVersion
1070
     0
  0
ACAD_PROXY_OBJECT
  5
42BA
102
{ACAD_REACTORS
330
42A2
102
}
330
42A2
100
AcDbProxyObject
 90
      499
 91
      503
 93
      420
310
4194DA1859195911B40902404333333333333E33F0000000000000F9010740A41107004050150800405405064090840C02480A0B40
1001
ACAD
1000
AcDbSavedByObjectVersion
1070
     0
  0
ACAD_PROXY_OBJECT
  5
42B9
102
{ACAD_REACTORS
330
42A2
102
}
330
42A2
100
AcDbProxyObject
 90
      499
 91
      503
 93
      516
310
4454DA18591959081DDA5D1A08195919D95CD1A40902404333333333333E33F0000000000000F901074090142907004050250800405405064090740C02480A0B40
1001
ACAD
1000
AcDbSavedByObjectVersion
1070
     0
  0
ACAD_PROXY_OBJECT
  5
42B6
102
{ACAD_REACTORS
330
42A2
102
}
330
42A2
100
AcDbProxyObject
 90
      499
 91
      503
 93
      532
310
4394DA1859195CC81BD98811DC985E5174090240C333333333333E33F0000000000000F901079024090741D01000000000000111010841D405064090740C02480A0340
1001
ACAD
1000
AcDbSavedByObjectVersion
1070
     0
  0
ACAD_PROXY_OBJECT
  5
42B7
102
{ACAD_REACTORS
330
42A2
102
}
330
42A2
100
AcDbProxyObject
 90
      499
 91
      503
 93
      476
310
41D4DAD95D18DA1E51840502408333333333333E33F0000000000000F901079024090741D01000000000000111010B41D405064090741802480A0340
1001
ACAD
1000
AcDbSavedByObjectVersion
1070
     0
  0
ACAD_PROXY_OBJECT
  5
42AF
102
{ACAD_REACTORS
330
42A2
102
}
330
42A2
100
AcDbProxyObject
 90
      499
 91
      503
 93
      412
310
41D51A1A58DAD95B90D409028333333333333E33F0000000000000F9010790141107004050150C41D405064090741402480A0350
1001
ACAD
1000
AcDbSavedByObjectVersion
1070
     0
  0
ACAD_PROXY_OBJECT
  5
42A8
102
{ACAD_REACTORS
330
42A2
102
}
330
42A2
100
AcDbProxyObject
 90
      499
 91
      503
 93
      420
310
4255DA5C99599C985B595059028333333333333E33F0000000000000F90107901411070040501600405405064090740C02480A0340
1001
ACAD
1000
AcDbSavedByObjectVersion
1070
     0
  0
ACAD_PROXY_OBJECT
  5
42B8
102
{ACAD_REACTORS
330
42A2
102
}
330
42A2
100
AcDbProxyObject
 90
      499
 91
      503
 93
      404
310
41560B54985E51940902404000000000000E03F0000000000000F9010740501907004050150841D405064090740C02480A1B40
1001
ACAD
1000
AcDbSavedByObjectVersion
1070
     0
  0
XRECORD
  5
4CD1
102
{ACAD_REACTORS
330
4CC7
102
}
330
4CC7
100
AcDbXrecord
340
0
  0
XRECORD
  5
4CD0
102
{ACAD_REACTORS
330
4CC7
102
}
330
4CC7
100
AcDbXrecord
 90
        0
  0
XRECORD
  5
4CEA
102
{ACAD_REACTORS
330
4CC7
102
}
330
4CC7
100
AcDbXrecord
340
2948
  0
XRECORD
  5
4CE7
102
{ACAD_REACTORS
330
4CC7
102
}
330
4CC7
100
AcDbXrecord
1000
DSTYLE
1002
{
1070
   171
 70
     2
1070
   143
 40
0.0394
1070
   274
 70
     2
1070
    41
 40
6.0
1070
   342
340
2AF4
1070
   271
 70
     1
1070
   278
 70
    46
1070
   341
340
2AF4
1070
   272
 70
     1
1070
    48
 40
0.1
1070
   283
 70
     1
1070
    47
 40
0.1
1070
   145
 40
1.0
1070
   340
340
10
1070
   140
 40
5.0
1070
   284
 70
     0
1002
}
  0
XRECORD
  5
4CD2
102
{ACAD_REACTORS
330
4CC7
102
}
330
4CC7
100
AcDbXrecord
  1
{23698909-1D67-4744-B0E2-8DE11E3ED422}
  0
XRECORD
  5
4CCA
102
{ACAD_REACTORS
330
4CC7
102
}
330
4CC7
100
AcDbXrecord
  1

  0
XRECORD
  5
4CCF
102
{ACAD_REACTORS
330
4CC7
102
}
330
4CC7
100
AcDbXrecord
 90
        0
  0
XRECORD
  5
4CCC
102
{ACAD_REACTORS
330
4CC7
102
}
330
4CC7
100
AcDbXrecord
340
2816
  0
XRECORD
  5
4CCE
102
{ACAD_REACTORS
330
4CC7
102
}
330
4CC7
100
AcDbXrecord
 90
    10781
  0
XRECORD
  5
4CEB
102
{ACAD_REACTORS
330
4CC7
102
}
330
4CC7
100
AcDbXrecord
340
2947
  0
XRECORD
  5
4CCD
102
{ACAD_REACTORS
330
4CC7
102
}
330
4CC7
100
AcDbXrecord
340
2817
  0
XRECORD
  5
4CD4
102
{ACAD_REACTORS
330
4CC7
102
}
330
4CC7
100
AcDbXrecord
 40
0.25
  0
XRECORD
  5
4CD7
102
{ACAD_REACTORS
330
4CC7
102
}
330
4CC7
100
AcDbXrecord
340
0
  0
XRECORD
  5
4CDD
102
{ACAD_REACTORS
330
4CC7
102
}
330
4CC7
100
AcDbXrecord
 10
0.0
 20
0.0
 30
0.0
  0
XRECORD
  5
4CD9
102
{ACAD_REACTORS
330
4CC7
102
}
330
4CC7
100
AcDbXrecord
 10
0.0
 20
0.0
 30
0.0
  0
XRECORD
  5
4CDC
102
{ACAD_REACTORS
330
4CC7
102
}
330
4CC7
100
AcDbXrecord
 10
0.0
 20
0.0
 30
0.0
  0
XRECORD
  5
4CDA
102
{ACAD_REACTORS
330
4CC7
102
}
330
4CC7
100
AcDbXrecord
 10
0.0
 20
0.0
 30
0.0
  0
XRECORD
  5
4CDB
102
{ACAD_REACTORS
330
4CC7
102
}
330
4CC7
100
AcDbXrecord
 10
0.0
 20
0.0
 30
0.0
  0
XRECORD
  5
4CD8
102
{ACAD_REACTORS
330
4CC7
102
}
330
4CC7
100
AcDbXrecord
 10
0.0
 20
0.0
 30
0.0
  0
XRECORD
  5
4CD5
102
{ACAD_REACTORS
330
4CC7
102
}
330
4CC7
100
AcDbXrecord
340
0
  0
XRECORD
  5
4CD6
102
{ACAD_REACTORS
330
4CC7
102
}
330
4CC7
100
AcDbXrecord
 70
     0
  0
XRECORD
  5
4CCB
102
{ACAD_REACTORS
330
4CC7
102
}
330
4CC7
100
AcDbXrecord
  1

  0
XRECORD
  5
4CC8
102
{ACAD_REACTORS
330
4CC7
102
}
330
4CC7
100
AcDbXrecord
 90
        1
  0
XRECORD
  5
4CC9
102
{ACAD_REACTORS
330
4CC7
102
}
330
4CC7
100
AcDbXrecord
 90
       70
  0
XRECORD
  5
4CE0
102
{ACAD_REACTORS
330
4CC7
102
}
330
4CC7
100
AcDbXrecord
340
0
  0
XRECORD
  5
4CE6
102
{ACAD_REACTORS
330
4CC7
102
}
330
4CC7
100
AcDbXrecord
 10
0.0
 20
0.0
 30
0.0
  0
XRECORD
  5
4CE2
102
{ACAD_REACTORS
330
4CC7
102
}
330
4CC7
100
AcDbXrecord
 10
0.0
 20
0.0
 30
0.0
  0
XRECORD
  5
4CE5
102
{ACAD_REACTORS
330
4CC7
102
}
330
4CC7
100
AcDbXrecord
 10
0.0
 20
0.0
 30
0.0
  0
XRECORD
  5
4CE3
102
{ACAD_REACTORS
330
4CC7
102
}
330
4CC7
100
AcDbXrecord
 10
0.0
 20
0.0
 30
0.0
  0
XRECORD
  5
4CE4
102
{ACAD_REACTORS
330
4CC7
102
}
330
4CC7
100
AcDbXrecord
 10
0.0
 20
0.0
 30
0.0
  0
XRECORD
  5
4CE1
102
{ACAD_REACTORS
330
4CC7
102
}
330
4CC7
100
AcDbXrecord
 10
0.0
 20
0.0
 30
0.0
  0
XRECORD
  5
4CDE
102
{ACAD_REACTORS
330
4CC7
102
}
330
4CC7
100
AcDbXrecord
340
0
  0
XRECORD
  5
4CDF
102
{ACAD_REACTORS
330
4CC7
102
}
330
4CC7
100
AcDbXrecord
 70
     0
  0
XRECORD
  5
4CD3
102
{ACAD_REACTORS
330
4CC7
102
}
330
4CC7
100
AcDbXrecord
  1
{7DCE748F-9AA7-4058-B430-ED994DD6DB5F}
  0
DICTIONARYVAR
  5
4418
102
{ACAD_REACTORS
330
4417
102
}
330
4417
100
DictionaryVariables
280
     0
  1
1:1
  0
DICTIONARYVAR
  5
4457
102
{ACAD_REACTORS
330
4417
102
}
330
4417
100
DictionaryVariables
280
     0
  1
Standard
  0
DICTIONARYVAR
  5
4456
102
{ACAD_REACTORS
330
4417
102
}
330
4417
100
DictionaryVariables
280
     0
  1
Standard
  0
DICTIONARYVAR
  5
4CE8
102
{ACAD_REACTORS
330
4417
102
}
330
4417
100
DictionaryVariables
280
     0
  1
1
  0
DICTIONARYVAR
  5
4CE9
102
{ACAD_REACTORS
330
4417
102
}
330
4417
100
DictionaryVariables
280
     0
  1
0
  0
DICTIONARYVAR
  5
4458
102
{ACAD_REACTORS
330
4417
102
}
330
4417
100
DictionaryVariables
280
     0
  1
0
  0
DICTIONARYVAR
  5
4459
102
{ACAD_REACTORS
330
4417
102
}
330
4417
100
DictionaryVariables
280
     0
  1
0
  0
DICTIONARY
  5
48AE
102
{ACAD_REACTORS
330
48AD
102
}
330
48AD
100
AcDbDictionary
  0
DICTIONARY
  5
4B9D
102
{ACAD_REACTORS
330
4B9C
102
}
330
4B9C
100
AcDbDictionary
  0
DICTIONARY
  5
4BE2
102
{ACAD_REACTORS
330
4BE1
102
}
330
4BE1
100
AcDbDictionary
  0
DICTIONARY
  5
4BE6
102
{ACAD_REACTORS
330
4BE5
102
}
330
4BE5
100
AcDbDictionary
  0
DICTIONARY
  5
48A5
102
{ACAD_REACTORS
330
48A4
102
}
330
48A4
100
AcDbDictionary
  0
DICTIONARY
  5
48A8
102
{ACAD_REACTORS
330
48A7
102
}
330
48A7
100
AcDbDictionary
  0
DICTIONARY
  5
48AB
102
{ACAD_REACTORS
330
48AA
102
}
330
48AA
100
AcDbDictionary
  0
DICTIONARY
  5
4CF1
330
42DE
100
AcDbDictionary
280
     1
  3
ACAD_XREC_ROUNDTRIP
360
4CF2
  0
DICTIONARY
  5
4CEF
330
42DD
100
AcDbDictionary
280
     1
  3
ACAD_XREC_ROUNDTRIP
360
4CF0
  0
DICTIONARY
  5
4CF3
330
42DF
100
AcDbDictionary
280
     1
  3
ACAD_XREC_ROUNDTRIP
360
4CF4
  0
XRECORD
  5
4CF2
102
{ACAD_REACTORS
330
4CF1
102
}
330
4CF1
100
AcDbXrecord
102
MATERIAL
148
0.0
149
0.0
149
0.0
 93
        0
 94
      127
282
     0
 72
     1
 77
     1
171
     1
175
     1
179
     1
273
     0
  0
XRECORD
  5
4CF0
102
{ACAD_REACTORS
330
4CEF
102
}
330
4CEF
100
AcDbXrecord
102
MATERIAL
148
0.0
149
0.0
149
0.0
 93
        0
 94
      127
282
     0
 72
     1
 77
     1
171
     1
175
     1
179
     1
273
     0
  0
XRECORD
  5
4CF4
102
{ACAD_REACTORS
330
4CF3
102
}
330
4CF3
100
AcDbXrecord
102
MATERIAL
148
0.0
149
0.0
149
0.0
 93
        0
 94
      127
282
     0
 72
     1
 77
     1
171
     1
175
     1
179
     1
273
     0
  0
ENDSEC
  0
EOF
