  0
SECTION
  2
HEADER
  9
$ACADVER
  1
AC1014
  9
$ACADMAINTVER
 70
     9
  9
$DWGCODEPAGE
  3
ANSI_932
  9
$INSBASE
 10
0.0
 20
0.0
 30
0.0
  9
$EXTMIN
 10
-34.002206339007
 20
432.850184807533
 30
0.0
  9
$EXTMAX
 10
513.856316260127
 20
751.928261626293
 30
0.0
  9
$LIMMIN
 10
-360.747566795242
 20
4.457354754526
  9
$LIMMAX
 10
-162.153696144267
 20
287.675440264018
  9
$ORTHOMODE
 70
     0
  9
$REGENMODE
 70
     1
  9
$FILLMODE
 70
     1
  9
$QTEXTMODE
 70
     0
  9
$MIRRTEXT
 70
     1
  9
$DRAGMODE
 70
     2
  9
$LTSCALE
 40
1.0
  9
$OSMODE
 70
    32
  9
$ATTMODE
 70
     1
  9
$TEXTSIZE
 40
2.333873885063
  9
$TRACEWID
 40
1.0
  9
$TEXTSTYLE
  7
STANDARD
  9
$CLAYER
  8
外形線
  9
$CELTYPE
  6
BYLAYER
  9
$CECOLOR
 62
   256
  9
$CELTSCALE
 40
10.0
  9
$DELOBJ
 70
     1
  9
$DISPSILH
 70
     0
  9
$DIMSCALE
 40
1.0
  9
$DIMASZ
 40
6.0
  9
$DIMEXO
 40
0.625
  9
$DIMDLI
 40
3.75
  9
$DIMRND
 40
0.0
  9
$DIMDLE
 40
0.0
  9
$DIMEXE
 40
1.25
  9
$DIMTP
 40
0.1
  9
$DIMTM
 40
0.1
  9
$DIMTXT
 40
5.0
  9
$DIMCEN
 40
2.5
  9
$DIMTSZ
 40
0.0
  9
$DIMTOL
 70
     0
  9
$DIMLIM
 70
     0
  9
$DIMTIH
 70
     0
  9
$DIMTOH
 70
     0
  9
$DIMSE1
 70
     0
  9
$DIMSE2
 70
     0
  9
$DIMTAD
 70
     1
  9
$DIMZIN
 70
     8
  9
$DIMBLK
  1
OPEN30
  9
$DIMASO
 70
     1
  9
$DIMSHO
 70
     1
  9
$DIMPOST
  1

  9
$DIMAPOST
  1

  9
$DIMALT
 70
     0
  9
$DIMALTD
 70
     2
  9
$DIMALTF
 40
0.0394
  9
$DIMLFAC
 40
1.0
  9
$DIMTOFL
 70
     1
  9
$DIMTVP
 40
1.0
  9
$DIMTIX
 70
     0
  9
$DIMSOXD
 70
     0
  9
$DIMSAH
 70
     0
  9
$DIMBLK1
  1

  9
$DIMBLK2
  1

  9
$DIMSTYLE
  2
ISO-25
  9
$DIMCLRD
 70
     0
  9
$DIMCLRE
 70
     0
  9
$DIMCLRT
 70
     0
  9
$DIMTFAC
 40
1.0
  9
$DIMGAP
 40
0.625
  9
$DIMJUST
 70
     0
  9
$DIMSD1
 70
     0
  9
$DIMSD2
 70
     0
  9
$DIMTOLJ
 70
     1
  9
$DIMTZIN
 70
     0
  9
$DIMALTZ
 70
     0
  9
$DIMALTTZ
 70
     0
  9
$DIMFIT
 70
     3
  9
$DIMUPT
 70
     0
  9
$DIMUNIT
 70
     2
  9
$DIMDEC
 70
     1
  9
$DIMTDEC
 70
     1
  9
$DIMALTU
 70
     2
  9
$DIMALTTD
 70
     2
  9
$DIMTXSTY
  7
STANDARD
  9
$DIMAUNIT
 70
     0
  9
$LUNITS
 70
     2
  9
$LUPREC
 70
     4
  9
$SKETCHINC
 40
1.0
  9
$FILLETRAD
 40
6.5
  9
$AUNITS
 70
     0
  9
$AUPREC
 70
     0
  9
$MENU
  1
.
  9
$ELEVATION
 40
0.0
  9
$PELEVATION
 40
0.0
  9
$THICKNESS
 40
0.0
  9
$LIMCHECK
 70
     0
  9
$CHAMFERA
 40
10.0
  9
$CHAMFERB
 40
10.0
  9
$CHAMFERC
 40
20.0
  9
$CHAMFERD
 40
0.0
  9
$SKPOLY
 70
     0
  9
$TDCREATE
 40
2450576.597302431
  9
$TDUPDATE
 40
2457191.665376273
  9
$TDINDWG
 40
1.1169601042
  9
$TDUSRTIMER
 40
1.1169601042
  9
$USRTIMER
 70
     1
  9
$ANGBASE
 50
0.0
  9
$ANGDIR
 70
     0
  9
$PDMODE
 70
     0
  9
$PDSIZE
 40
0.0
  9
$PLINEWID
 40
0.0
  9
$COORDS
 70
     1
  9
$SPLFRAME
 70
     0
  9
$SPLINETYPE
 70
     6
  9
$SPLINESEGS
 70
     8
  9
$ATTDIA
 70
     0
  9
$ATTREQ
 70
     1
  9
$HANDLING
 70
     1
  9
$HANDSEED
  5
4854
  9
$SURFTAB1
 70
     6
  9
$SURFTAB2
 70
     6
  9
$SURFTYPE
 70
     6
  9
$SURFU
 70
     6
  9
$SURFV
 70
     6
  9
$UCSNAME
  2

  9
$UCSORG
 10
0.0
 20
0.0
 30
0.0
  9
$UCSXDIR
 10
1.0
 20
0.0
 30
0.0
  9
$UCSYDIR
 10
0.0
 20
1.0
 30
0.0
  9
$PUCSNAME
  2

  9
$PUCSORG
 10
0.0
 20
0.0
 30
0.0
  9
$PUCSXDIR
 10
1.0
 20
0.0
 30
0.0
  9
$PUCSYDIR
 10
0.0
 20
1.0
 30
0.0
  9
$USERI1
 70
     0
  9
$USERI2
 70
     0
  9
$USERI3
 70
     0
  9
$USERI4
 70
     0
  9
$USERI5
 70
     0
  9
$USERR1
 40
0.0
  9
$USERR2
 40
0.0
  9
$USERR3
 40
0.0
  9
$USERR4
 40
0.0
  9
$USERR5
 40
0.0
  9
$WORLDVIEW
 70
     1
  9
$SHADEDGE
 70
     3
  9
$SHADEDIF
 70
    70
  9
$TILEMODE
 70
     0
  9
$MAXACTVP
 70
    16
  9
$PINSBASE
 10
0.0
 20
0.0
 30
0.0
  9
$PLIMCHECK
 70
     0
  9
$PEXTMIN
 10
4.746305129083
 20
1.396645458131
 30
0.0
  9
$PEXTMAX
 10
400.746305129083
 20
278.596645458131
 30
0.0
  9
$PLIMMIN
 10
-7.007122192383
 20
-7.007118782997
  9
$PLIMMAX
 10
417.718108215332
 20
293.315290427208
  9
$UNITMODE
 70
     0
  9
$VISRETAIN
 70
     0
  9
$PLINEGEN
 70
     0
  9
$PSLTSCALE
 70
     1
  9
$TREEDEPTH
 70
  3020
  9
$PICKSTYLE
 70
     1
  9
$CMLSTYLE
  2
STANDARD
  9
$CMLJUST
 70
     0
  9
$CMLSCALE
 40
1.0
  9
$PROXYGRAPHICS
 70
     1
  9
$MEASUREMENT
 70
     1
  0
ENDSEC
  0
SECTION
  2
CLASSES
  0
CLASS
  1
ACDBDICTIONARYWDFLT
  2
AcDbDictionaryWithDefault
  3
ObjectDBX Classes
 90
        0
280
     0
281
     0
  0
CLASS
  1
ACDBPLACEHOLDER
  2
AcDbPlaceHolder
  3
ObjectDBX Classes
 90
        0
280
     0
281
     0
  0
CLASS
  1
LAYOUT
  2
AcDbLayout
  3
ObjectDBX Classes
 90
        0
280
     0
281
     0
  0
CLASS
  1
VISUALSTYLE
  2
AcDbVisualStyle
  3
ObjectDBX Classes
 90
     4095
280
     0
281
     0
  0
CLASS
  1
SCALE
  2
AcDbScale
  3
ObjectDBX Classes
 90
     1153
280
     0
281
     0
  0
CLASS
  1
MATERIAL
  2
AcDbMaterial
  3
ObjectDBX Classes
 90
     1153
280
     0
281
     0
  0
CLASS
  1
TABLESTYLE
  2
AcDbTableStyle
  3
ObjectDBX Classes
 90
     4095
280
     0
281
     0
  0
CLASS
  1
MLEADERSTYLE
  2
AcDbMLeaderStyle
  3
ACDB_MLEADERSTYLE_CLASS
 90
     4095
280
     0
281
     0
  0
CLASS
  1
SUN
  2
AcDbSun
  3
SCENEOE
 90
     1153
280
     0
281
     0
  0
CLASS
  1
DICTIONARYVAR
  2
AcDbDictionaryVar
  3
ObjectDBX Classes
 90
        0
280
     0
281
     0
  0
CLASS
  1
XRECORD
  2
AcDbXrecord
  3
ObjectDBX Classes
 90
        0
280
     0
281
     0
  0
CLASS
  1
LWPOLYLINE
  2
AcDbPolyline
  3
ObjectDBX Classes
 90
        0
280
     0
281
     1
  0
CLASS
  1
HATCH
  2
AcDbHatch
  3
ObjectDBX Classes
 90
        0
280
     0
281
     1
  0
ENDSEC
  0
SECTION
  2
TABLES
  0
TABLE
  2
VPORT
  5
8
102
{ACAD_XDICTIONARY
360
484B
102
}
330
0
100
AcDbSymbolTable
 70
     3
  0
VPORT
  5
404B
330
8
100
AcDbSymbolTableRecord
100
AcDbViewportTableRecord
  2
*ACTIVE
 70
     0
 10
0.0
 20
0.0
 11
1.0
 21
1.0
 12
226.834093179032
 22
674.440733986898
 13
0.0
 23
0.0
 14
1.0
 24
1.0
 15
0.0
 25
0.0
 16
0.0
 26
0.0
 36
1.0
 17
0.0
 27
0.0
 37
0.0
 40
391.033279954097
 41
1.56746031746
 42
50.0
 43
0.0
 44
0.0
 50
0.0
 51
0.0
 71
    16
 72
   100
 73
     1
 74
     0
 75
     0
 76
     0
 77
     0
 78
     0
  0
ENDTAB
  0
TABLE
  2
LTYPE
  5
5
330
0
100
AcDbSymbolTable
 70
     5
  0
LTYPE
  5
14
330
5
100
AcDbSymbolTableRecord
100
AcDbLinetypeTableRecord
  2
BYBLOCK
 70
     0
  3

 72
    65
 73
     0
 40
0.0
  0
LTYPE
  5
15
330
5
100
AcDbSymbolTableRecord
100
AcDbLinetypeTableRecord
  2
BYLAYER
 70
     0
  3

 72
    65
 73
     0
 40
0.0
  0
LTYPE
  5
16
330
5
100
AcDbSymbolTableRecord
100
AcDbLinetypeTableRecord
  2
CONTINUOUS
 70
     0
  3
Solid line
 72
    65
 73
     0
 40
0.0
  0
LTYPE
  5
1EC
330
5
100
AcDbSymbolTableRecord
100
AcDbLinetypeTableRecord
  2
CENTER
 70
     0
  3
____ _ ____ _ ____ _ ____ _ ____ _ ____ _ ____ 
 72
    65
 73
     4
 40
2.0
 49
1.25
 74
     0
 49
-0.25
 74
     0
 49
0.25
 74
     0
 49
-0.25
 74
     0
  0
LTYPE
  5
1ED
330
5
100
AcDbSymbolTableRecord
100
AcDbLinetypeTableRecord
  2
DASHED
 70
     0
  3
__ __ __ __ __ __ __ __ __ __ __ __ __ __ __ __
 72
    65
 73
     2
 40
0.75
 49
0.5
 74
     0
 49
-0.25
 74
     0
  0
LTYPE
  5
2B28
330
5
100
AcDbSymbolTableRecord
100
AcDbLinetypeTableRecord
  2
DASHDOT
 70
     0
  3
一点鎖線
 72
    65
 73
     4
 40
25.6
 49
20.0
 74
     0
 49
-2.0
 74
     0
 49
1.6
 74
     0
 49
-2.0
 74
     0
  0
LTYPE
  5
2B29
330
5
100
AcDbSymbolTableRecord
100
AcDbLinetypeTableRecord
  2
DIVIDE
 70
     0
  3
二点鎖線
 72
    65
 73
     6
 40
31.2
 49
20.0
 74
     0
 49
-2.4
 74
     0
 49
2.0
 74
     0
 49
-2.4
 74
     0
 49
2.0
 74
     0
 49
-2.4
 74
     0
  0
ENDTAB
  0
TABLE
  2
LAYER
  5
2
102
{ACAD_XDICTIONARY
360
29EA
102
}
330
0
100
AcDbSymbolTable
 70
    13
  0
LAYER
  5
F
330
2
100
AcDbSymbolTableRecord
100
AcDbLayerTableRecord
  2
0
 70
     0
 62
     7
  6
CONTINUOUS
  0
LAYER
  5
61
330
2
100
AcDbSymbolTableRecord
100
AcDbLayerTableRecord
  2
図枠太線
 70
     0
 62
   251
  6
CONTINUOUS
  0
LAYER
  5
62
330
2
100
AcDbSymbolTableRecord
100
AcDbLayerTableRecord
  2
図枠細線
 70
     0
 62
   252
  6
CONTINUOUS
  0
LAYER
  5
63
330
2
100
AcDbSymbolTableRecord
100
AcDbLayerTableRecord
  2
図枠ロゴマーク
 70
     0
 62
   253
  6
CONTINUOUS
  0
LAYER
  5
1EF
330
2
100
AcDbSymbolTableRecord
100
AcDbLayerTableRecord
  2
外形線
 70
     0
 62
     7
  6
CONTINUOUS
  0
LAYER
  5
1F0
330
2
100
AcDbSymbolTableRecord
100
AcDbLayerTableRecord
  2
寸法線
 70
     0
 62
     1
  6
CONTINUOUS
  0
LAYER
  5
1F1
330
2
100
AcDbSymbolTableRecord
100
AcDbLayerTableRecord
  2
中心線
 70
     0
 62
     4
  6
CENTER
  0
LAYER
  5
1F4
330
2
100
AcDbSymbolTableRecord
100
AcDbLayerTableRecord
  2
DEFPOINTS
 70
     0
 62
     7
  6
CONTINUOUS
  0
LAYER
  5
2AA2
330
2
100
AcDbSymbolTableRecord
100
AcDbLayerTableRecord
  2
下書線
 70
     0
 62
     2
  6
CONTINUOUS
  0
LAYER
  5
2AA3
330
2
100
AcDbSymbolTableRecord
100
AcDbLayerTableRecord
  2
隠れ線
 70
     0
 62
     3
  6
DASHED
  0
LAYER
  5
2AA4
330
2
100
AcDbSymbolTableRecord
100
AcDbLayerTableRecord
  2
細線
 70
     0
 62
     6
  6
CONTINUOUS
  0
LAYER
  5
2AA5
330
2
100
AcDbSymbolTableRecord
100
AcDbLayerTableRecord
  2
太線
 70
     0
 62
   190
  6
CONTINUOUS
  0
LAYER
  5
2B2A
330
2
100
AcDbSymbolTableRecord
100
AcDbLayerTableRecord
  2
LAY-1
 70
     0
 62
     7
  6
CONTINUOUS
  0
ENDTAB
  0
TABLE
  2
STYLE
  5
3
330
0
100
AcDbSymbolTable
 70
     3
  0
STYLE
  5
10
330
3
100
AcDbSymbolTableRecord
100
AcDbTextStyleTableRecord
  2
STANDARD
 70
     0
 40
0.0
 41
1.0
 50
0.0
 71
     0
 42
2.333873885063
  3
ISOCP
  4
bigfont.shx
  0
STYLE
  5
64
330
3
100
AcDbSymbolTableRecord
100
AcDbTextStyleTableRecord
  2
EXCADSTD
 70
     0
 40
0.0
 41
1.0
 50
0.0
 71
     0
 42
0.2
  3
monotxt
  4
bigfont
  0
STYLE
  5
2B2B
330
3
100
AcDbSymbolTableRecord
100
AcDbTextStyleTableRecord
  2
EXCADVERT
 70
     4
 40
0.0
 41
1.0
 50
0.0
 71
     0
 42
0.286885
  3
monotxt
  4
bigfont
  0
ENDTAB
  0
TABLE
  2
VIEW
  5
6
330
0
100
AcDbSymbolTable
 70
     0
  0
ENDTAB
  0
TABLE
  2
UCS
  5
7
330
0
100
AcDbSymbolTable
 70
     0
  0
ENDTAB
  0
TABLE
  2
APPID
  5
9
330
0
100
AcDbSymbolTable
 70
     3
  0
APPID
  5
11
330
9
100
AcDbSymbolTableRecord
100
AcDbRegAppTableRecord
  2
ACAD
 70
     0
  0
APPID
  5
408F
330
9
100
AcDbSymbolTableRecord
100
AcDbRegAppTableRecord
  2
ACADANNOTATIVE
 70
     0
  0
APPID
  5
4853
330
9
100
AcDbSymbolTableRecord
100
AcDbRegAppTableRecord
  2
ACAD_MLEADERVER
 70
     0
  0
ENDTAB
  0
TABLE
  2
DIMSTYLE
  5
A
330
0
100
AcDbSymbolTable
 70
     2
  0
DIMSTYLE
105
1D
330
A
100
AcDbSymbolTableRecord
100
AcDbDimStyleTableRecord
  2
STANDARD
 70
     0
  3

  4

  5

  6

  7

 40
1.0
 41
0.18
 42
0.0625
 43
0.38
 44
0.18
 45
0.0
 46
0.0
 47
0.0
 48
0.0
140
0.18
141
0.09
142
0.0
143
25.4
144
1.0
145
0.0
146
1.0
147
0.09
 71
     0
 72
     0
 73
     1
 74
     1
 75
     0
 76
     0
 77
     0
 78
     0
170
     0
171
     2
172
     0
173
     0
174
     0
175
     0
176
     0
177
     0
178
     0
270
     2
271
     4
272
     4
273
     2
274
     2
340
10
275
     0
280
     0
281
     0
282
     0
283
     1
284
     0
285
     0
286
     0
287
     3
288
     0
  0
DIMSTYLE
105
24
102
{ACAD_REACTORS
330
347D
330
34B8
330
34C5
330
3D7D
330
3EDB
330
4022
330
43B7
330
43B8
330
43BA
330
43FC
330
44B2
330
46D6
102
}
330
A
100
AcDbSymbolTableRecord
100
AcDbDimStyleTableRecord
  2
ISO-25
 70
     0
  3

  4

  5

  6

  7

 40
1.0
 41
2.5
 42
0.625
 43
3.75
 44
1.25
 45
0.0
 46
0.0
 47
0.0
 48
0.0
140
2.5
141
2.5
142
0.0
143
0.0394
144
1.0
145
1.0
146
1.0
147
0.625
 71
     0
 72
     0
 73
     1
 74
     0
 75
     0
 76
     0
 77
     1
 78
     8
170
     0
171
     2
172
     1
173
     0
174
     0
175
     0
176
     0
177
     0
178
     0
270
     2
271
     4
272
     4
273
     2
274
     2
340
10
275
     0
280
     0
281
     0
282
     0
283
     1
284
     0
285
     0
286
     0
287
     3
288
     0
  0
ENDTAB
  0
TABLE
  2
BLOCK_RECORD
  5
1
330
0
100
AcDbSymbolTable
 70
    61
  0
BLOCK_RECORD
  5
1A
330
1
100
AcDbSymbolTableRecord
100
AcDbBlockTableRecord
  2
*MODEL_SPACE
  0
BLOCK_RECORD
  5
28FB
330
1
100
AcDbSymbolTableRecord
100
AcDbBlockTableRecord
  2
*PAPER_SPACE
  0
BLOCK_RECORD
  5
65
330
1
100
AcDbSymbolTableRecord
100
AcDbBlockTableRecord
  2
A$C3392
  0
BLOCK_RECORD
  5
29BF
330
1
100
AcDbSymbolTableRecord
100
AcDbBlockTableRecord
  2
A4横用_タイトル
1001
ACAD
1000
DesignCenter Data
1002
{
1070
     1
1070
     4
1002
}
  0
BLOCK_RECORD
  5
29F4
330
1
100
AcDbSymbolTableRecord
100
AcDbBlockTableRecord
  2
A4縦用_タイトル
1001
ACAD
1000
DesignCenter Data
1002
{
1070
     1
1070
     4
1002
}
  0
BLOCK_RECORD
  5
2A32
330
1
100
AcDbSymbolTableRecord
100
AcDbBlockTableRecord
  2
A3横用_タイトル
1001
ACAD
1000
DesignCenter Data
1002
{
1070
     1
1070
     4
1002
}
  0
BLOCK_RECORD
  5
2A6C
330
1
100
AcDbSymbolTableRecord
100
AcDbBlockTableRecord
  2
A3縦用_タイトル
1001
ACAD
1000
DesignCenter Data
1002
{
1070
     1
1070
     4
1002
}
  0
BLOCK_RECORD
  5
2AF4
330
1
100
AcDbSymbolTableRecord
100
AcDbBlockTableRecord
  2
_OPEN30
  0
BLOCK_RECORD
  5
2F3F
330
1
100
AcDbSymbolTableRecord
100
AcDbBlockTableRecord
  2
ケース外形図_HL-400
  0
BLOCK_RECORD
  5
347E
330
1
100
AcDbSymbolTableRecord
100
AcDbBlockTableRecord
  2
*D8
  0
BLOCK_RECORD
  5
34B9
330
1
100
AcDbSymbolTableRecord
100
AcDbBlockTableRecord
  2
*D9
  0
BLOCK_RECORD
  5
34C6
330
1
100
AcDbSymbolTableRecord
100
AcDbBlockTableRecord
  2
*D10
  0
BLOCK_RECORD
  5
3D7E
330
1
100
AcDbSymbolTableRecord
100
AcDbBlockTableRecord
  2
*D15
  0
BLOCK_RECORD
  5
3EDC
330
1
100
AcDbSymbolTableRecord
100
AcDbBlockTableRecord
  2
*D16
  0
BLOCK_RECORD
  5
4023
330
1
100
AcDbSymbolTableRecord
100
AcDbBlockTableRecord
  2
*D19
  0
BLOCK_RECORD
  5
447D
330
1
100
AcDbSymbolTableRecord
100
AcDbBlockTableRecord
  2
*D35
  0
BLOCK_RECORD
  5
448B
330
1
100
AcDbSymbolTableRecord
100
AcDbBlockTableRecord
  2
*D36
  0
BLOCK_RECORD
  5
4497
330
1
100
AcDbSymbolTableRecord
100
AcDbBlockTableRecord
  2
*D37
  0
BLOCK_RECORD
  5
44A5
330
1
100
AcDbSymbolTableRecord
100
AcDbBlockTableRecord
  2
*D38
  0
BLOCK_RECORD
  5
44B4
330
1
100
AcDbSymbolTableRecord
100
AcDbBlockTableRecord
  2
*D39
  0
BLOCK_RECORD
  5
4790
330
1
100
AcDbSymbolTableRecord
100
AcDbBlockTableRecord
  2
*D60
  0
ENDTAB
  0
ENDSEC
  0
SECTION
  2
BLOCKS
  0
BLOCK
  5
1B
330
1A
100
AcDbEntity
  8
0
100
AcDbBlockBegin
  2
*MODEL_SPACE
 70
     0
 10
0.0
 20
0.0
 30
0.0
  3
*MODEL_SPACE
  1

  0
ENDBLK
  5
1C
330
1A
100
AcDbEntity
  8
0
100
AcDbBlockEnd
  0
BLOCK
  5
28FD
330
28FB
100
AcDbEntity
 67
     1
  8
0
 48
10.0
100
AcDbBlockBegin
  2
*PAPER_SPACE
 70
     0
 10
0.0
 20
0.0
 30
0.0
  3
*PAPER_SPACE
  1

  0
ENDBLK
  5
28FE
330
28FB
100
AcDbEntity
 67
     1
  8
0
 48
10.0
100
AcDbBlockEnd
  0
BLOCK
  5
93
330
65
100
AcDbEntity
  8
0
100
AcDbBlockBegin
  2
A$C3392
 70
     0
 10
0.0
 20
0.0
 30
0.0
  3
A$C3392
  1
A$C3392
  0
LINE
  5
66
330
65
100
AcDbEntity
  8
図枠太線
  6
CONTINUOUS
100
AcDbLine
 10
211.858584505185
 20
30.927375675439
 30
0.0
 11
211.858584505185
 21
0.927375675439
 31
0.0
  0
LINE
  5
67
330
65
100
AcDbEntity
  8
図枠細線
  6
CONTINUOUS
100
AcDbLine
 10
231.858592505185
 20
15.927377675439
 30
0.0
 11
287.858592505185
 21
15.927375675439
 31
0.0
  0
LINE
  5
68
330
65
100
AcDbEntity
  8
図枠細線
  6
CONTINUOUS
100
AcDbLine
 10
211.858592505185
 20
15.927377675439
 30
0.0
 11
231.858592505185
 21
15.927377675439
 31
0.0
  0
LINE
  5
69
330
65
100
AcDbEntity
  8
図枠太線
  6
CONTINUOUS
 62
   251
100
AcDbLine
 10
1.858584505185
 20
0.927375675439
 30
0.0
 11
1.858584505185
 21
275.927375675439
 31
0.0
  0
TEXT
  5
6A
330
65
100
AcDbEntity
  8
図枠細線
  6
CONTINUOUS
 62
   252
100
AcDbText
 10
351.358592505185
 20
28.427377675439
 30
0.0
 40
2.0
  1
ＴＩＴＬＥ
 41
0.903614457831
  7
EXCADSTD
 72
     5
 11
361.358592505185
 21
28.427377675439
 31
0.0
100
AcDbText
  0
TEXT
  5
6B
330
65
100
AcDbEntity
  8
図枠細線
  6
CONTINUOUS
 62
   252
100
AcDbText
 10
345.358592505185
 20
28.427377675439
 30
0.0
 40
2.0
  1
名称
 41
1.171875
  7
EXCADSTD
 72
     5
 11
350.358592505185
 21
28.427377675439
 31
0.0
100
AcDbText
  0
TEXT
  5
6C
330
65
100
AcDbEntity
  8
図枠細線
  6
CONTINUOUS
 62
   252
100
AcDbText
 10
274.358592505185
 20
25.927377675439
 30
0.0
 40
2.0
  1
ＤＲＡＷＮ
 41
0.882352941176
  7
EXCADSTD
 72
     5
 11
284.358592505185
 21
25.927377675439
 31
0.0
100
AcDbText
  0
TEXT
  5
6D
330
65
100
AcDbEntity
  8
図枠細線
  6
CONTINUOUS
 62
   252
100
AcDbText
 10
260.358592505185
 20
25.927377675439
 30
0.0
 40
2.0
  1
ＤＥＳＩＧＮＥＤ
 41
0.713043472041
  7
EXCADSTD
 72
     5
 11
273.478592390744
 21
25.927377675439
 31
0.0
100
AcDbText
  0
TEXT
  5
6E
330
65
100
AcDbEntity
  8
図枠細線
  6
CONTINUOUS
 62
   252
100
AcDbText
 10
246.358592505185
 20
25.927377675439
 30
0.0
 40
2.0
  1
ＣＨＥＣＫＥＤ
 41
0.831249989569
  7
EXCADSTD
 72
     5
 11
259.658592338292
 21
25.927377675439
 31
0.0
100
AcDbText
  0
TEXT
  5
6F
330
65
100
AcDbEntity
  8
図枠細線
  6
CONTINUOUS
 62
   252
100
AcDbText
 10
274.358592505185
 20
28.427377675439
 30
0.0
 40
2.0
  1
製図
 41
1.209677419355
  7
EXCADSTD
 72
     5
 11
279.358592505185
 21
28.427377675439
 31
0.0
100
AcDbText
  0
TEXT
  5
70
330
65
100
AcDbEntity
  8
図枠細線
  6
CONTINUOUS
 62
   252
100
AcDbText
 10
260.358592505185
 20
28.427377675439
 30
0.0
 40
2.0
  1
設計
 41
1.171875
  7
EXCADSTD
 72
     5
 11
265.358592505185
 21
28.427377675439
 31
0.0
100
AcDbText
  0
TEXT
  5
71
330
65
100
AcDbEntity
  8
図枠細線
  6
CONTINUOUS
 62
   252
100
AcDbText
 10
246.358592505185
 20
28.427377675439
 30
0.0
 40
2.0
  1
検図
 41
1.209677419355
  7
EXCADSTD
 72
     5
 11
251.358592505185
 21
28.427377675439
 31
0.0
100
AcDbText
  0
TEXT
  5
72
330
65
100
AcDbEntity
  8
図枠細線
  6
CONTINUOUS
 62
   252
100
AcDbText
 10
232.358592505185
 20
25.927377675439
 30
0.0
 40
2.0
  1
ＡＰＰＲＯＶＥＤ
 41
0.695652184279
  7
EXCADSTD
 72
     5
 11
245.15859269592
 21
25.927377675439
 31
0.0
100
AcDbText
  0
TEXT
  5
73
330
65
100
AcDbEntity
  8
図枠細線
  6
CONTINUOUS
 62
   252
100
AcDbText
 10
232.358592505185
 20
28.427377675439
 30
0.0
 40
2.0
  1
承認
 41
1.171875
  7
EXCADSTD
 72
     5
 11
237.358592505185
 21
28.427377675439
 31
0.0
100
AcDbText
  0
TEXT
  5
74
330
65
100
AcDbEntity
  8
図枠細線
  6
CONTINUOUS
 62
   252
100
AcDbText
 10
290.069888505185
 20
2.574868675439
 30
0.0
 40
3.5
  1
ＴＯＷＡ　ＳＥＩＤＥＮ　ＩＮＤＵＳＴＲＩＡＬ　ＣＯ．，ＬＴＤ．
 41
0.414568012377
  7
EXCADSTD
 72
     5
 11
342.692388209546
 21
2.574868675439
 31
0.0
100
AcDbText
  0
TEXT
  5
75
330
65
100
AcDbEntity
  8
図枠ロゴマーク
  6
CONTINUOUS
 62
   253
100
AcDbText
 10
290.107348505185
 20
7.519769675439
 30
0.0
 40
7.0
  1
東和制電工業株式会社
 41
0.639204545455
  7
EXCADSTD
 72
     5
 11
342.607348505185
 21
7.519769675439
 31
0.0
100
AcDbText
  0
TEXT
  5
76
330
65
100
AcDbEntity
  8
図枠細線
  6
CONTINUOUS
 62
   252
100
AcDbText
 10
232.499705505185
 20
5.759088675439
 30
0.0
 40
2.0
  1
ＰＲＯＪＥＣＴＩＯＮ
 41
0.754285710199
  7
EXCADSTD
 72
     5
 11
250.099705409817
 21
5.759088675439
 31
0.0
100
AcDbText
  0
TEXT
  5
77
330
65
100
AcDbEntity
  8
図枠細線
  6
CONTINUOUS
 62
   252
100
AcDbText
 10
232.574629505185
 20
8.681077675439
 30
0.0
 40
2.0
  1
ＴＨＩＲＤ　ＡＮＧＬＥ
 41
0.691099486738
  7
EXCADSTD
 72
     5
 11
250.174629767445
 21
8.681077675439
 31
0.0
100
AcDbText
  0
TEXT
  5
78
330
65
100
AcDbEntity
  8
図枠細線
  6
CONTINUOUS
 62
   252
100
AcDbText
 10
256.823999505185
 20
13.427377675439
 30
0.0
 40
2.0
  1
ＳＣＡＬＥ
 41
0.903614457831
  7
EXCADSTD
 72
     5
 11
266.823999505185
 21
13.427377675439
 31
0.0
100
AcDbText
  0
TEXT
  5
79
330
65
100
AcDbEntity
  8
図枠細線
  6
CONTINUOUS
 62
   252
100
AcDbText
 10
274.858592505185
 20
13.427377675439
 30
0.0
 40
2.0
  1
ＤＡＴＥ
 41
0.923076923077
  7
EXCADSTD
 72
     5
 11
282.858592505185
 21
13.427377675439
 31
0.0
100
AcDbText
  0
TEXT
  5
7A
330
65
100
AcDbEntity
  8
図枠細線
  6
CONTINUOUS
 62
   252
100
AcDbText
 10
356.358592505185
 20
13.427377675439
 30
0.0
 40
2.0
  1
ＤＲＧ．ＮＯ．
 41
0.9375
  7
EXCADSTD
 72
     5
 11
370.358592505185
 21
13.427377675439
 31
0.0
100
AcDbText
  0
TEXT
  5
7B
330
65
100
AcDbEntity
  8
図枠細線
  6
CONTINUOUS
 62
   252
100
AcDbText
 10
345.358592505185
 20
13.427377675439
 30
0.0
 40
2.0
  1
図面番号
 41
1.102941176471
  7
EXCADSTD
 72
     5
 11
355.358592505185
 21
13.427377675439
 31
0.0
100
AcDbText
  0
TEXT
  5
7C
330
65
100
AcDbEntity
  8
図枠細線
  6
CONTINUOUS
 62
   252
100
AcDbText
 10
269.358592505185
 20
13.427377675439
 30
0.0
 40
2.0
  1
日付
 41
1.171875
  7
EXCADSTD
 72
     5
 11
274.358592505185
 21
13.427377675439
 31
0.0
100
AcDbText
  0
TEXT
  5
7D
330
65
100
AcDbEntity
  8
図枠細線
  6
CONTINUOUS
 62
   252
100
AcDbText
 10
251.451512505185
 20
13.427377675439
 30
0.0
 40
2.0
  1
尺度
 41
1.171875
  7
EXCADSTD
 72
     5
 11
256.451512505185
 21
13.427377675439
 31
0.0
100
AcDbText
  0
TEXT
  5
7E
330
65
100
AcDbEntity
  8
図枠細線
  6
CONTINUOUS
 62
   252
100
AcDbText
 10
232.358592505185
 20
13.427377675439
 30
0.0
 40
2.0
  1
第三角法
 41
1.102941176471
  7
EXCADSTD
 72
     5
 11
242.358592505185
 21
13.427377675439
 31
0.0
100
AcDbText
  0
TEXT
  5
7F
330
65
100
AcDbEntity
  8
図枠細線
  6
CONTINUOUS
 62
   252
100
AcDbText
 10
212.358592505185
 20
28.427377675439
 30
0.0
 40
2.0
  1
ＮＯＴＥ
 41
0.923076923077
  7
EXCADSTD
 72
     5
 11
220.358592505185
 21
28.427377675439
 31
0.0
100
AcDbText
  0
LINE
  5
80
330
65
100
AcDbEntity
  8
図枠細線
  6
CONTINUOUS
 62
   252
100
AcDbLine
 10
287.858592505185
 20
23.427375675439
 30
0.0
 11
344.858592505185
 21
23.427375675439
 31
0.0
  0
LINE
  5
81
330
65
100
AcDbEntity
  8
図枠太線
  6
CONTINUOUS
 62
   251
100
AcDbLine
 10
287.858584505185
 20
15.927375675439
 30
0.0
 11
344.858592505185
 21
15.927375675439
 31
0.0
  0
LINE
  5
82
330
65
100
AcDbEntity
  8
図枠細線
  6
CONTINUOUS
 62
   252
100
AcDbLine
 10
344.858592505185
 20
15.927375675439
 30
0.0
 11
401.858584505185
 21
15.927375675439
 31
0.0
  0
LINE
  5
83
330
65
100
AcDbEntity
  8
図枠太線
  6
CONTINUOUS
 62
   251
100
AcDbLine
 10
344.858592505185
 20
0.927377675439
 30
0.0
 11
344.858592505185
 21
30.927375675439
 31
0.0
  0
LINE
  5
84
330
65
100
AcDbEntity
  8
図枠太線
  6
CONTINUOUS
 62
   251
100
AcDbLine
 10
287.858592505185
 20
0.927377675439
 30
0.0
 11
287.858592505185
 21
30.927375675439
 31
0.0
  0
LINE
  5
85
330
65
100
AcDbEntity
  8
図枠細線
  6
CONTINUOUS
 62
   252
100
AcDbLine
 10
268.858592505185
 20
0.927377675439
 30
0.0
 11
268.858592505185
 21
15.927375675439
 31
0.0
  0
LINE
  5
86
330
65
100
AcDbEntity
  8
図枠細線
  6
CONTINUOUS
 62
   252
100
AcDbLine
 10
250.858592505185
 20
0.927377675439
 30
0.0
 11
250.858592505185
 21
15.927375675439
 31
0.0
  0
LINE
  5
87
330
65
100
AcDbEntity
  8
図枠細線
  6
CONTINUOUS
 62
   252
100
AcDbLine
 10
273.858592505185
 20
30.927375675439
 30
0.0
 11
273.858592505185
 21
15.927375675439
 31
0.0
  0
LINE
  5
88
330
65
100
AcDbEntity
  8
図枠細線
  6
CONTINUOUS
 62
   252
100
AcDbLine
 10
259.858592505185
 20
30.927375675439
 30
0.0
 11
259.858592505185
 21
15.927375675439
 31
0.0
  0
LINE
  5
89
330
65
100
AcDbEntity
  8
図枠細線
  6
CONTINUOUS
 62
   252
100
AcDbLine
 10
245.858592505185
 20
30.927375675439
 30
0.0
 11
245.858592505185
 21
15.927375675439
 31
0.0
  0
LINE
  5
8A
330
65
100
AcDbEntity
  8
図枠太線
  6
CONTINUOUS
 62
   251
100
AcDbLine
 10
231.858592505185
 20
0.927377675439
 30
0.0
 11
231.858592505185
 21
30.927375675439
 31
0.0
  0
LINE
  5
8B
330
65
100
AcDbEntity
  8
図枠細線
  6
CONTINUOUS
 62
   252
100
AcDbLine
 10
211.858592505185
 20
25.927375675439
 30
0.0
 11
231.858592505185
 21
25.927375675439
 31
0.0
  0
LINE
  5
8C
330
65
100
AcDbEntity
  8
図枠細線
  6
CONTINUOUS
 62
   252
100
AcDbLine
 10
211.858592505185
 20
20.927375675439
 30
0.0
 11
231.858592505185
 21
20.927375675439
 31
0.0
  0
LINE
  5
8D
330
65
100
AcDbEntity
  8
図枠細線
  6
CONTINUOUS
 62
   252
100
AcDbLine
 10
211.858592505185
 20
10.927375675439
 30
0.0
 11
231.858592505185
 21
10.927375675439
 31
0.0
  0
LINE
  5
8E
330
65
100
AcDbEntity
  8
図枠細線
  6
CONTINUOUS
 62
   252
100
AcDbLine
 10
211.858592505185
 20
5.927377675439
 30
0.0
 11
231.858592505185
 21
5.927377675439
 31
0.0
  0
LINE
  5
8F
330
65
100
AcDbEntity
  8
図枠太線
  6
CONTINUOUS
 62
   251
100
AcDbLine
 10
211.858592505185
 20
30.927375675439
 30
0.0
 11
401.858584505185
 21
30.927375675439
 31
0.0
  0
LINE
  5
90
330
65
100
AcDbEntity
  8
図枠太線
  6
CONTINUOUS
 62
   251
100
AcDbLine
 10
1.858584505185
 20
275.927375675439
 30
0.0
 11
401.858584505185
 21
275.927375675439
 31
0.0
  0
LINE
  5
91
330
65
100
AcDbEntity
  8
図枠太線
  6
CONTINUOUS
 62
   251
100
AcDbLine
 10
401.858584505185
 20
0.927375675439
 30
0.0
 11
401.858584505185
 21
275.927375675439
 31
0.0
  0
LINE
  5
92
330
65
100
AcDbEntity
  8
図枠太線
  6
CONTINUOUS
 62
   251
100
AcDbLine
 10
1.858584505185
 20
0.927375675439
 30
0.0
 11
401.858584505185
 21
0.927375675439
 31
0.0
  0
ENDBLK
  5
94
330
65
100
AcDbEntity
  8
0
100
AcDbBlockEnd
  0
BLOCK
  5
29C0
330
29BF
100
AcDbEntity
  8
0
100
AcDbBlockBegin
  2
A4横用_タイトル
 70
     0
 10
0.0
 20
0.0
 30
0.0
  3
A4横用_タイトル
  1
A4横用_タイトル
  0
LINE
  5
29C1
330
29BF
100
AcDbEntity
  8
図枠細線
  6
CONTINUOUS
100
AcDbLine
 10
75.061011071051
 20
16.806607253358
 30
0.0
 11
144.061011071051
 21
16.806604789072
 31
0.0
  0
LINE
  5
29C2
330
29BF
100
AcDbEntity
  8
図枠細線
  6
CONTINUOUS
 62
   252
100
AcDbLine
 10
4.061011071051
 20
11.806606253358
 30
0.0
 11
75.061011071051
 21
11.806606253358
 31
0.0
  0
LINE
  5
29C3
330
29BF
100
AcDbEntity
  8
図枠細線
  6
CONTINUOUS
 62
   252
100
AcDbLine
 10
4.061011071051
 20
21.806606253358
 30
0.0
 11
75.061011071051
 21
21.806606253358
 31
0.0
  0
LINE
  5
29C4
330
29BF
100
AcDbEntity
  8
図枠細線
  6
CONTINUOUS
 62
   252
100
AcDbLine
 10
4.061011071051
 20
26.806606253358
 30
0.0
 11
75.061011071051
 21
26.806606253358
 31
0.0
  0
LINE
  5
29C5
330
29BF
100
AcDbEntity
  8
図枠細線
  6
CONTINUOUS
100
AcDbLine
 10
4.061011071051
 20
16.806608253358
 30
0.0
 11
75.061011071051
 21
16.806608253358
 31
0.0
  0
TEXT
  5
29C6
330
29BF
100
AcDbEntity
  8
図枠細線
  6
CONTINUOUS
 62
   252
100
AcDbText
 10
76.405475827713
 20
9.560308253358
 30
0.0
 40
2.0
  1
ＴＨＩＲＤ　ＡＮＧＬＥ
 41
0.691099486738
  7
EXCADSTD
 72
     5
 11
94.005476089973
 21
9.560308253358
 31
0.0
100
AcDbText
  0
TEXT
  5
29C7
330
29BF
100
AcDbEntity
  8
図枠細線
  6
CONTINUOUS
 62
   252
100
AcDbText
 10
76.705775880921
 20
14.306608253358
 30
0.0
 40
2.0
  1
第三角法
 41
1.102941176471
  7
EXCADSTD
 72
     5
 11
86.705775880921
 21
14.306608253358
 31
0.0
100
AcDbText
  0
TEXT
  5
29C8
330
29BF
100
AcDbEntity
  8
図枠細線
  6
CONTINUOUS
 62
   252
100
AcDbText
 10
76.705775880921
 20
26.806608253358
 30
0.0
 40
2.0
  1
ＡＰＰＲＯＶＥＤ
 41
0.695652184279
  7
EXCADSTD
 72
     5
 11
89.505776071656
 21
26.806608253358
 31
0.0
100
AcDbText
  0
TEXT
  5
29C9
330
29BF
100
AcDbEntity
  8
図枠細線
  6
CONTINUOUS
 62
   252
100
AcDbText
 10
76.705775880921
 20
29.306608253358
 30
0.0
 40
2.0
  1
承認
 41
1.171875
  7
EXCADSTD
 72
     5
 11
81.705775880921
 21
29.306608253358
 31
0.0
100
AcDbText
  0
LINE
  5
29CA
330
29BF
100
AcDbEntity
  8
図枠細線
  6
CONTINUOUS
 62
   252
100
AcDbLine
 10
98.061011071051
 20
31.806606253358
 30
0.0
 11
98.061011071051
 21
16.806606253358
 31
0.0
  0
TEXT
  5
29CB
330
29BF
100
AcDbEntity
  8
図枠細線
  6
CONTINUOUS
 62
   252
100
AcDbText
 10
104.216531119804
 20
14.306608253358
 30
0.0
 40
2.0
  1
ＳＣＡＬＥ
 41
0.903614457831
  7
EXCADSTD
 72
     5
 11
114.216531119804
 21
14.306608253358
 31
0.0
100
AcDbText
  0
TEXT
  5
29CC
330
29BF
100
AcDbEntity
  8
図枠細線
  6
CONTINUOUS
 62
   252
100
AcDbText
 10
98.844044119804
 20
14.306608253358
 30
0.0
 40
2.0
  1
尺度
 41
1.171875
  7
EXCADSTD
 72
     5
 11
103.844044119804
 21
14.306608253358
 31
0.0
100
AcDbText
  0
TEXT
  5
29CD
330
29BF
100
AcDbEntity
  8
図枠細線
  6
CONTINUOUS
 62
   252
100
AcDbText
 10
98.968727707497
 20
26.806608253358
 30
0.0
 40
2.0
  1
ＣＨＥＣＫＥＤ
 41
0.831249989569
  7
EXCADSTD
 72
     5
 11
112.268727540604
 21
26.806608253358
 31
0.0
100
AcDbText
  0
TEXT
  5
29CE
330
29BF
100
AcDbEntity
  8
図枠細線
  6
CONTINUOUS
 62
   252
100
AcDbText
 10
98.968727707497
 20
29.306608253358
 30
0.0
 40
2.0
  1
検図
 41
1.209677419355
  7
EXCADSTD
 72
     5
 11
103.968727707497
 21
29.306608253358
 31
0.0
100
AcDbText
  0
LINE
  5
29CF
330
29BF
100
AcDbEntity
  8
図枠細線
  6
CONTINUOUS
 62
   252
100
AcDbLine
 10
121.061011071051
 20
31.806606253358
 30
0.0
 11
121.061011071051
 21
16.806606253358
 31
0.0
  0
TEXT
  5
29D0
330
29BF
100
AcDbEntity
  8
図枠細線
  6
CONTINUOUS
 62
   252
100
AcDbText
 10
128.001465247253
 20
14.306608253358
 30
0.0
 40
2.0
  1
ＤＡＴＥ
 41
0.923076923077
  7
EXCADSTD
 72
     5
 11
136.001465247253
 21
14.306608253358
 31
0.0
100
AcDbText
  0
TEXT
  5
29D1
330
29BF
100
AcDbEntity
  8
図枠細線
  6
CONTINUOUS
 62
   252
100
AcDbText
 10
122.066415498841
 20
14.306608253358
 30
0.0
 40
2.0
  1
日付
 41
1.171875
  7
EXCADSTD
 72
     5
 11
127.066415498841
 21
14.306608253358
 31
0.0
100
AcDbText
  0
TEXT
  5
29D2
330
29BF
100
AcDbEntity
  8
図枠細線
  6
CONTINUOUS
 62
   252
100
AcDbText
 10
121.59429406571
 20
29.306608253358
 30
0.0
 40
2.0
  1
製図
 41
1.209677419355
  7
EXCADSTD
 72
     5
 11
126.59429406571
 21
29.306608253358
 31
0.0
100
AcDbText
  0
TEXT
  5
29D3
330
29BF
100
AcDbEntity
  8
図枠細線
  6
CONTINUOUS
 62
   252
100
AcDbText
 10
121.59429406571
 20
26.806608253358
 30
0.0
 40
2.0
  1
ＤＲＡＷＮ
 41
0.882352941176
  7
EXCADSTD
 72
     5
 11
131.59429406571
 21
26.806608253358
 31
0.0
100
AcDbText
  0
TEXT
  5
29D4
330
29BF
100
AcDbEntity
  8
図枠細線
  6
CONTINUOUS
 62
   252
100
AcDbText
 10
226.591229661348
 20
14.306608253358
 30
0.0
 40
2.0
  1
ＤＲＧ．ＮＯ．
 41
0.9375
  7
EXCADSTD
 72
     5
 11
240.591229661348
 21
14.306608253358
 31
0.0
100
AcDbText
  0
LINE
  5
29D5
330
29BF
100
AcDbEntity
  8
図枠太線
  6
CONTINUOUS
 62
   251
100
AcDbLine
 10
144.061003071051
 20
16.806606253358
 30
0.0
 11
214.061011071051
 21
16.806606253358
 31
0.0
  0
LINE
  5
29D6
330
29BF
100
AcDbEntity
  8
図枠細線
  6
CONTINUOUS
 62
   252
100
AcDbLine
 10
144.061011071051
 20
24.306606253358
 30
0.0
 11
214.061011071051
 21
24.306606253358
 31
0.0
  0
TEXT
  5
29D7
330
29BF
100
AcDbEntity
  8
図枠ロゴマーク
  6
CONTINUOUS
 62
   253
100
AcDbText
 10
146.433776781596
 20
8.399000253358
 30
0.0
 40
7.0
  1
東和制電工業株式会社
 41
0.80361088462
  7
EXCADSTD
 72
     5
 11
212.437017438349
 21
8.399000253358
 31
0.0
100
AcDbText
  0
TEXT
  5
29D8
330
29BF
100
AcDbEntity
  8
図枠細線
  6
CONTINUOUS
 62
   252
100
AcDbText
 10
215.156179912936
 20
14.306608253358
 30
0.0
 40
2.0
  1
図面番号
 41
1.102941176471
  7
EXCADSTD
 72
     5
 11
225.156179912936
 21
14.306608253358
 31
0.0
100
AcDbText
  0
TEXT
  5
29D9
330
29BF
100
AcDbEntity
  8
図枠細線
  6
CONTINUOUS
 62
   252
100
AcDbText
 10
221.591229661348
 20
29.306608253358
 30
0.0
 40
2.0
  1
ＴＩＴＬＥ
 41
0.903614457831
  7
EXCADSTD
 72
     5
 11
231.591229661348
 21
29.306608253358
 31
0.0
100
AcDbText
  0
TEXT
  5
29DA
330
29BF
100
AcDbEntity
  8
図枠細線
  6
CONTINUOUS
 62
   252
100
AcDbText
 10
215.156179912936
 20
29.306608253358
 30
0.0
 40
2.0
  1
名称
 41
1.171875
  7
EXCADSTD
 72
     5
 11
220.156179912936
 21
29.306608253358
 31
0.0
100
AcDbText
  0
LINE
  5
29DB
330
29BF
100
AcDbEntity
  8
図枠太線
  6
CONTINUOUS
 62
   251
100
AcDbLine
 10
4.061011071051
 20
1.806608253358
 30
0.0
 11
284.061011071051
 21
1.806608253358
 31
0.0
  0
LINE
  5
29DC
330
29BF
100
AcDbEntity
  8
図枠細線
  6
CONTINUOUS
 62
   252
100
AcDbLine
 10
4.061011071051
 20
6.806608253358
 30
0.0
 11
75.061011071051
 21
6.806608253358
 31
0.0
  0
LINE
  5
29DD
330
29BF
100
AcDbEntity
  8
図枠太線
  6
CONTINUOUS
 62
   251
100
AcDbLine
 10
75.061011071051
 20
1.806608253358
 30
0.0
 11
75.061011071051
 21
31.806606253358
 31
0.0
  0
TEXT
  5
29DE
330
29BF
100
AcDbEntity
  8
図枠細線
  6
CONTINUOUS
 62
   252
100
AcDbText
 10
76.330551827713
 20
6.638319253358
 30
0.0
 40
2.0
  1
ＰＲＯＪＥＣＴＩＯＮ
 41
0.754285710199
  7
EXCADSTD
 72
     5
 11
93.930551732346
 21
6.638319253358
 31
0.0
100
AcDbText
  0
LINE
  5
29DF
330
29BF
100
AcDbEntity
  8
図枠細線
  6
CONTINUOUS
 62
   252
100
AcDbLine
 10
98.061011071051
 20
1.806606931929
 30
0.0
 11
98.061011071051
 21
16.806604931929
 31
0.0
  0
LINE
  5
29E0
330
29BF
100
AcDbEntity
  8
図枠細線
  6
CONTINUOUS
 62
   252
100
AcDbLine
 10
121.061011071051
 20
1.806607574787
 30
0.0
 11
121.061011071051
 21
16.806605574787
 31
0.0
  0
LINE
  5
29E1
330
29BF
100
AcDbEntity
  8
図枠太線
  6
CONTINUOUS
 62
   251
100
AcDbLine
 10
284.061011071051
 20
1.806608253358
 30
0.0
 11
284.061011071051
 21
31.806606253358
 31
0.0
  0
LINE
  5
29E2
330
29BF
100
AcDbEntity
  8
図枠細線
  6
CONTINUOUS
 62
   252
100
AcDbLine
 10
214.061011071051
 20
16.806606253358
 30
0.0
 11
284.061011071051
 21
16.806606253358
 31
0.0
  0
TEXT
  5
29E3
330
29BF
100
AcDbEntity
  8
図枠細線
  6
CONTINUOUS
 62
   252
100
AcDbText
 10
146.199593676182
 20
3.454099253358
 30
0.0
 40
3.5
  1
ＴＯＷＡ　ＳＥＩＤＥＮ　ＩＮＤＵＳＴＲＩＡＬ　ＣＯ．，ＬＴＤ．
 41
0.528937826907
  7
EXCADSTD
 72
     5
 11
213.339435171588
 21
3.454099253358
 31
0.0
100
AcDbText
  0
LINE
  5
29E4
330
29BF
100
AcDbEntity
  8
図枠太線
  6
CONTINUOUS
 62
   251
100
AcDbLine
 10
144.061011071051
 20
1.806608253358
 30
0.0
 11
144.061011071051
 21
31.806606253358
 31
0.0
  0
LINE
  5
29E5
330
29BF
100
AcDbEntity
  8
図枠太線
  6
CONTINUOUS
 62
   251
100
AcDbLine
 10
214.061011071051
 20
1.806608253358
 30
0.0
 11
214.061011071051
 21
31.806606253358
 31
0.0
  0
MTEXT
  5
29E6
330
29BF
100
AcDbEntity
  8
図枠太線
100
AcDbMText
 10
5.064337346478
 20
31.010982137407
 30
0.0
 40
2.5
 41
8.67856098472
 71
     1
 72
     5
  1
{\Fmonotxt.shx,bigfont.shx|c128;図暦}
  0
LINE
  5
29E7
330
29BF
100
AcDbEntity
  8
図枠太線
  6
CONTINUOUS
 62
   251
100
AcDbLine
 10
4.061011071051
 20
1.806608253358
 30
0.0
 11
4.061011071051
 21
31.806606253358
 31
0.0
  0
TEXT
  5
29E8
330
29BF
100
AcDbEntity
  8
図枠細線
 48
10.0
100
AcDbText
 10
12.260817420402
 20
28.625419626495
 30
0.0
 40
2.0
  1
CHANGE NOTICE
100
AcDbText
  0
ENDBLK
  5
29E9
330
29BF
100
AcDbEntity
  8
0
100
AcDbBlockEnd
  0
BLOCK
  5
29F5
330
29F4
100
AcDbEntity
  8
0
100
AcDbBlockBegin
  2
A4縦用_タイトル
 70
     0
 10
0.0
 20
0.0
 30
0.0
  3
A4縦用_タイトル
  1
A4縦用_タイトル
  0
LINE
  5
29F6
330
29F4
100
AcDbEntity
  8
図枠太線
  6
CONTINUOUS
 62
   251
100
AcDbLine
 10
2.368253864267
 20
4.525433224584
 30
0.0
 11
192.368245864267
 21
4.525433224584
 31
0.0
  0
LINE
  5
29F7
330
29F4
100
AcDbEntity
  8
図枠太線
  6
CONTINUOUS
 62
   251
100
AcDbLine
 10
78.368245864267
 20
19.525431224584
 30
0.0
 11
135.368253864267
 21
19.525431224584
 31
0.0
  0
LINE
  5
29F8
330
29F4
100
AcDbEntity
  8
図枠細線
  6
CONTINUOUS
 62
   252
100
AcDbLine
 10
78.368253864267
 20
27.025431224584
 30
0.0
 11
135.368253864267
 21
27.025431224584
 31
0.0
  0
TEXT
  5
29F9
330
29F4
100
AcDbEntity
  8
図枠ロゴマーク
  6
CONTINUOUS
 62
   253
100
AcDbText
 10
80.617009864267
 20
11.117825224584
 30
0.0
 40
7.0
  1
東和制電工業株式会社
 41
0.639204545455
  7
EXCADSTD
 72
     5
 11
133.117009864267
 21
11.117825224584
 31
0.0
100
AcDbText
  0
TEXT
  5
29FA
330
29F4
100
AcDbEntity
  8
図枠細線
  6
CONTINUOUS
 62
   252
100
AcDbText
 10
80.579549864267
 20
6.172924224584
 30
0.0
 40
3.5
  1
ＴＯＷＡ　ＳＥＩＤＥＮ　ＩＮＤＵＳＴＲＩＡＬ　ＣＯ．，ＬＴＤ．
 41
0.414568012377
  7
EXCADSTD
 72
     5
 11
133.202049568628
 21
6.172924224584
 31
0.0
100
AcDbText
  0
LINE
  5
29FB
330
29F4
100
AcDbEntity
  8
図枠太線
  6
CONTINUOUS
 62
   251
100
AcDbLine
 10
2.368253864267
 20
4.525433224584
 30
0.0
 11
2.368253864267
 21
34.525431224584
 31
0.0
  0
TEXT
  5
29FC
330
29F4
100
AcDbEntity
  8
図枠細線
  6
CONTINUOUS
 62
   252
100
AcDbText
 10
22.504308136501
 20
12.279133224584
 30
0.0
 40
2.0
  1
ＴＨＩＲＤ　ＡＮＧＬＥ
 41
0.691099486738
  7
EXCADSTD
 72
     5
 11
40.104308398762
 21
12.279133224584
 31
0.0
100
AcDbText
  0
TEXT
  5
29FD
330
29F4
100
AcDbEntity
  8
図枠細線
  6
CONTINUOUS
 62
   252
100
AcDbText
 10
22.429384136501
 20
9.357144224584
 30
0.0
 40
2.0
  1
ＰＲＯＪＥＣＴＩＯＮ
 41
0.754285710199
  7
EXCADSTD
 72
     5
 11
40.029384041134
 21
9.357144224584
 31
0.0
100
AcDbText
  0
LINE
  5
29FE
330
29F4
100
AcDbEntity
  8
図枠細線
  6
CONTINUOUS
100
AcDbLine
 10
22.368253864267
 20
19.525433224584
 30
0.0
 11
78.368253864267
 21
19.525431224584
 31
0.0
  0
TEXT
  5
29FF
330
29F4
100
AcDbEntity
  8
図枠細線
  6
CONTINUOUS
 62
   252
100
AcDbText
 10
22.868253864267
 20
17.025433224584
 30
0.0
 40
2.0
  1
第三角法
 41
1.102941176471
  7
EXCADSTD
 72
     5
 11
32.868253864267
 21
17.025433224584
 31
0.0
100
AcDbText
  0
TEXT
  5
2A00
330
29F4
100
AcDbEntity
  8
図枠細線
  6
CONTINUOUS
 62
   252
100
AcDbText
 10
22.868253864267
 20
29.525433224584
 30
0.0
 40
2.0
  1
ＡＰＰＲＯＶＥＤ
 41
0.695652184279
  7
EXCADSTD
 72
     5
 11
35.668254055002
 21
29.525433224584
 31
0.0
100
AcDbText
  0
LINE
  5
2A01
330
29F4
100
AcDbEntity
  8
図枠細線
  6
CONTINUOUS
 62
   252
100
AcDbLine
 10
2.368253864267
 20
9.525433224584
 30
0.0
 11
22.368253864267
 21
9.525433224584
 31
0.0
  0
LINE
  5
2A02
330
29F4
100
AcDbEntity
  8
図枠細線
  6
CONTINUOUS
 62
   252
100
AcDbLine
 10
2.368253864267
 20
14.525431224584
 30
0.0
 11
22.368253864267
 21
14.525431224584
 31
0.0
  0
LINE
  5
2A03
330
29F4
100
AcDbEntity
  8
図枠細線
  6
CONTINUOUS
 62
   252
100
AcDbLine
 10
2.368253864267
 20
24.525431224584
 30
0.0
 11
22.368253864267
 21
24.525431224584
 31
0.0
  0
LINE
  5
2A04
330
29F4
100
AcDbEntity
  8
図枠細線
  6
CONTINUOUS
 62
   252
100
AcDbLine
 10
2.368253864267
 20
29.525431224584
 30
0.0
 11
22.368253864267
 21
29.525431224584
 31
0.0
  0
LINE
  5
2A05
330
29F4
100
AcDbEntity
  8
図枠細線
  6
CONTINUOUS
100
AcDbLine
 10
2.368253864267
 20
19.525433224584
 30
0.0
 11
22.368253864267
 21
19.525433224584
 31
0.0
  0
TEXT
  5
2A06
330
29F4
100
AcDbEntity
  8
図枠細線
  6
CONTINUOUS
 62
   252
100
AcDbText
 10
2.868253864267
 20
32.025433224584
 30
0.0
 40
2.0
  1
ＮＯＴＥ
 41
0.923076923077
  7
EXCADSTD
 72
     5
 11
10.868253864267
 21
32.025433224584
 31
0.0
100
AcDbText
  0
LINE
  5
2A07
330
29F4
100
AcDbEntity
  8
図枠太線
  6
CONTINUOUS
 62
   251
100
AcDbLine
 10
22.368253864267
 20
4.525433224584
 30
0.0
 11
22.368253864267
 21
34.525431224584
 31
0.0
  0
TEXT
  5
2A08
330
29F4
100
AcDbEntity
  8
図枠細線
  6
CONTINUOUS
 62
   252
100
AcDbText
 10
22.868253864267
 20
32.025433224584
 30
0.0
 40
2.0
  1
承認
 41
1.171875
  7
EXCADSTD
 72
     5
 11
27.868253864267
 21
32.025433224584
 31
0.0
100
AcDbText
  0
TEXT
  5
2A09
330
29F4
100
AcDbEntity
  8
図枠細線
  6
CONTINUOUS
 62
   252
100
AcDbText
 10
60.711709035982
 20
32.025433224584
 30
0.0
 40
2.0
  1
製図
 41
1.209677419355
  7
EXCADSTD
 72
     5
 11
65.711709035982
 21
32.025433224584
 31
0.0
100
AcDbText
  0
TEXT
  5
2A0A
330
29F4
100
AcDbEntity
  8
図枠細線
  6
CONTINUOUS
 62
   252
100
AcDbText
 10
60.711709035982
 20
29.525433224584
 30
0.0
 40
2.0
  1
ＤＲＡＷＮ
 41
0.882352941176
  7
EXCADSTD
 72
     5
 11
70.711709035982
 21
29.525433224584
 31
0.0
100
AcDbText
  0
TEXT
  5
2A0B
330
29F4
100
AcDbEntity
  8
図枠細線
  6
CONTINUOUS
 62
   252
100
AcDbText
 10
60.834891743877
 20
17.025433224584
 30
0.0
 40
2.0
  1
日付
 41
1.171875
  7
EXCADSTD
 72
     5
 11
65.834891743877
 21
17.025433224584
 31
0.0
100
AcDbText
  0
TEXT
  5
2A0C
330
29F4
100
AcDbEntity
  8
図枠細線
  6
CONTINUOUS
 62
   252
100
AcDbText
 10
47.333660864267
 20
17.025433224584
 30
0.0
 40
2.0
  1
ＳＣＡＬＥ
 41
0.903614457831
  7
EXCADSTD
 72
     5
 11
57.333660864267
 21
17.025433224584
 31
0.0
100
AcDbText
  0
TEXT
  5
2A0D
330
29F4
100
AcDbEntity
  8
図枠細線
  6
CONTINUOUS
 62
   252
100
AcDbText
 10
42.281425990082
 20
29.525433224584
 30
0.0
 40
2.0
  1
ＣＨＥＣＫＥＤ
 41
0.831249989569
  7
EXCADSTD
 72
     5
 11
55.581425823189
 21
29.525433224584
 31
0.0
100
AcDbText
  0
LINE
  5
2A0E
330
29F4
100
AcDbEntity
  8
図枠細線
  6
CONTINUOUS
 62
   252
100
AcDbLine
 10
40.968253864267
 20
34.525431224584
 30
0.0
 11
40.968253864267
 21
19.525431224584
 31
0.0
  0
LINE
  5
2A0F
330
29F4
100
AcDbEntity
  8
図枠細線
  6
CONTINUOUS
 62
   252
100
AcDbLine
 10
40.968253864267
 20
4.525433224584
 30
0.0
 11
40.968253864267
 21
19.525431224584
 31
0.0
  0
TEXT
  5
2A10
330
29F4
100
AcDbEntity
  8
図枠細線
  6
CONTINUOUS
 62
   252
100
AcDbText
 10
41.961173864267
 20
17.025433224584
 30
0.0
 40
2.0
  1
尺度
 41
1.171875
  7
EXCADSTD
 72
     5
 11
46.961173864267
 21
17.025433224584
 31
0.0
100
AcDbText
  0
TEXT
  5
2A11
330
29F4
100
AcDbEntity
  8
図枠細線
  6
CONTINUOUS
 62
   252
100
AcDbText
 10
42.281425990082
 20
32.025433224584
 30
0.0
 40
2.0
  1
検図
 41
1.209677419355
  7
EXCADSTD
 72
     5
 11
47.281425990082
 21
32.025433224584
 31
0.0
100
AcDbText
  0
LINE
  5
2A12
330
29F4
100
AcDbEntity
  8
図枠細線
  6
CONTINUOUS
 62
   252
100
AcDbLine
 10
59.768253864267
 20
34.525431224584
 30
0.0
 11
59.768253864267
 21
19.525431224584
 31
0.0
  0
LINE
  5
2A13
330
29F4
100
AcDbEntity
  8
図枠細線
  6
CONTINUOUS
 62
   252
100
AcDbLine
 10
59.768253864267
 20
4.525433224584
 30
0.0
 11
59.768253864267
 21
19.525431224584
 31
0.0
  0
LINE
  5
2A14
330
29F4
100
AcDbEntity
  8
図枠太線
  6
CONTINUOUS
 62
   251
100
AcDbLine
 10
78.368253864267
 20
4.525433224584
 30
0.0
 11
78.368253864267
 21
34.525431224584
 31
0.0
  0
TEXT
  5
2A15
330
29F4
100
AcDbEntity
  8
図枠細線
  6
CONTINUOUS
 62
   252
100
AcDbText
 10
66.334891743877
 20
17.025433224584
 30
0.0
 40
2.0
  1
ＤＡＴＥ
 41
0.923076923077
  7
EXCADSTD
 72
     5
 11
74.334891743877
 21
17.025433224584
 31
0.0
100
AcDbText
  0
LINE
  5
2A16
330
29F4
100
AcDbEntity
  8
図枠細線
  6
CONTINUOUS
 62
   252
100
AcDbLine
 10
135.368253864267
 20
19.525431224584
 30
0.0
 11
192.368245864267
 21
19.525431224584
 31
0.0
  0
TEXT
  5
2A17
330
29F4
100
AcDbEntity
  8
図枠細線
  6
CONTINUOUS
 62
   252
100
AcDbText
 10
141.868253864267
 20
32.025433224584
 30
0.0
 40
2.0
  1
ＴＩＴＬＥ
 41
0.903614457831
  7
EXCADSTD
 72
     5
 11
151.868253864267
 21
32.025433224584
 31
0.0
100
AcDbText
  0
LINE
  5
2A18
330
29F4
100
AcDbEntity
  8
図枠太線
  6
CONTINUOUS
 62
   251
100
AcDbLine
 10
135.368253864267
 20
4.525433224584
 30
0.0
 11
135.368253864267
 21
34.525431224584
 31
0.0
  0
TEXT
  5
2A19
330
29F4
100
AcDbEntity
  8
図枠細線
  6
CONTINUOUS
 62
   252
100
AcDbText
 10
135.868253864267
 20
17.025433224584
 30
0.0
 40
2.0
  1
図面番号
 41
1.102941176471
  7
EXCADSTD
 72
     5
 11
145.868253864267
 21
17.025433224584
 31
0.0
100
AcDbText
  0
TEXT
  5
2A1A
330
29F4
100
AcDbEntity
  8
図枠細線
  6
CONTINUOUS
 62
   252
100
AcDbText
 10
135.868253864267
 20
32.025433224584
 30
0.0
 40
2.0
  1
名称
 41
1.171875
  7
EXCADSTD
 72
     5
 11
140.868253864267
 21
32.025433224584
 31
0.0
100
AcDbText
  0
TEXT
  5
2A1B
330
29F4
100
AcDbEntity
  8
図枠細線
  6
CONTINUOUS
 62
   252
100
AcDbText
 10
146.868253864267
 20
17.025433224584
 30
0.0
 40
2.0
  1
ＤＲＧ．ＮＯ．
 41
0.9375
  7
EXCADSTD
 72
     5
 11
160.868253864267
 21
17.025433224584
 31
0.0
100
AcDbText
  0
LINE
  5
2A1C
330
29F4
100
AcDbEntity
  8
図枠太線
  6
CONTINUOUS
 62
   251
100
AcDbLine
 10
192.368245864267
 20
4.525433224584
 30
0.0
 11
192.368245864267
 21
34.525431224584
 31
0.0
  0
ENDBLK
  5
2A1D
330
29F4
100
AcDbEntity
  8
0
100
AcDbBlockEnd
  0
BLOCK
  5
2A33
330
2A32
100
AcDbEntity
  8
0
100
AcDbBlockBegin
  2
A3横用_タイトル
 70
     0
 10
0.0
 20
0.0
 30
0.0
  3
A3横用_タイトル
  1
A3横用_タイトル
  0
LINE
  5
2A34
330
2A32
100
AcDbEntity
  8
図枠細線
  6
CONTINUOUS
 62
   252
100
AcDbLine
 10
205.098414535793
 20
33.525959753527
 30
0.0
 11
305.098414535793
 21
33.525959753527
 31
0.0
  0
LINE
  5
2A35
330
2A32
100
AcDbEntity
  8
図枠太線
  6
CONTINUOUS
 62
   251
100
AcDbLine
 10
205.098414535793
 20
23.525959753527
 30
0.0
 11
305.098414535793
 21
23.525959753527
 31
0.0
  0
LINE
  5
2A36
330
2A32
100
AcDbEntity
  8
図枠細線
  6
CONTINUOUS
100
AcDbLine
 10
5.098414535793
 20
23.525959753527
 30
0.0
 11
105.098414535793
 21
23.525959753527
 31
0.0
  0
LINE
  5
2A37
330
2A32
100
AcDbEntity
  8
図枠細線
  6
CONTINUOUS
 62
   252
100
AcDbLine
 10
5.098414535793
 20
36.725957753527
 30
0.0
 11
105.098414535793
 21
36.725957753527
 31
0.0
  0
LINE
  5
2A38
330
2A32
100
AcDbEntity
  8
図枠細線
  6
CONTINUOUS
 62
   252
100
AcDbLine
 10
5.098414535793
 20
30.125957753527
 30
0.0
 11
105.098414535793
 21
30.125957753527
 31
0.0
  0
LINE
  5
2A39
330
2A32
100
AcDbEntity
  8
図枠細線
  6
CONTINUOUS
 62
   252
100
AcDbLine
 10
5.098414535793
 20
16.725959753527
 30
0.0
 11
105.098414535793
 21
16.725959753527
 31
0.0
  0
LINE
  5
2A3A
330
2A32
100
AcDbEntity
  8
図枠細線
  6
CONTINUOUS
 62
   252
100
AcDbLine
 10
5.098414535793
 20
10.125959753527
 30
0.0
 11
105.098414535793
 21
10.125959753527
 31
0.0
  0
LINE
  5
2A3B
330
2A32
100
AcDbEntity
  8
図枠細線
  6
CONTINUOUS
100
AcDbLine
 10
105.098414535793
 20
23.525961753527
 30
0.0
 11
205.098414535793
 21
23.525959753527
 31
0.0
  0
LINE
  5
2A3C
330
2A32
100
AcDbEntity
  8
図枠細線
  6
CONTINUOUS
 62
   252
100
AcDbLine
 10
138.398414535793
 20
43.525959753527
 30
0.0
 11
138.398414535793
 21
18.525957753527
 31
0.0
  0
LINE
  5
2A3D
330
2A32
100
AcDbEntity
  8
図枠細線
  6
CONTINUOUS
 62
   252
100
AcDbLine
 10
171.698414535793
 20
43.525959753527
 30
0.0
 11
171.698414535793
 21
18.525957753527
 31
0.0
  0
LINE
  5
2A3E
330
2A32
100
AcDbEntity
  8
図枠細線
  6
CONTINUOUS
 62
   252
100
AcDbLine
 10
305.098414535793
 20
23.525959753527
 30
0.0
 11
405.098414535793
 21
23.525959753527
 31
0.0
  0
TEXT
  5
2A3F
330
2A32
100
AcDbEntity
  8
図枠ロゴマーク
  6
CONTINUOUS
 62
   253
100
AcDbText
 10
206.102509212755
 20
13.294257570546
 30
0.0
 40
7.0
  1
東和制電工業株式会社
 50
0.016555220185
 41
1.186384129432
  7
EXCADSTD
 72
     5
 11
303.544188309143
 21
13.322412672217
 31
0.0
100
AcDbText
  0
MTEXT
  5
2A40
330
2A32
100
AcDbEntity
  8
図枠細線
100
AcDbMText
 10
6.356764112375
 20
41.976594175478
 30
0.0
 40
2.5
 41
49.938282706292
 71
     1
 72
     5
  1
{\Fmonotxt.shx,bigfont.shx|c128;図暦　CHANGE　NOTICE}
  0
MTEXT
  5
2A41
330
2A32
100
AcDbEntity
  8
図枠細線
 48
10.0
100
AcDbMText
 10
306.544114926828
 20
41.701835800934
 30
0.0
 40
2.5
 41
28.002809618823
 71
     1
 72
     5
  1
{\Fmonotxt.shx,bigfont.shx|c128;名称　TITLE}
  0
MTEXT
  5
2A42
330
2A32
100
AcDbEntity
  8
図枠細線
 48
10.0
100
AcDbMText
 10
307.329617114284
 20
21.606206797226
 30
0.0
 40
2.5
 41
24.385612216707
 71
     1
 72
     5
  1
{\Fmonotxt.shx,bigfont.shx|c128;図面番号\PDRG.　No.}
  0
MTEXT
  5
2A43
330
2A32
100
AcDbEntity
  8
図枠細線
 48
10.0
100
AcDbMText
 10
173.726349404609
 20
21.73680662198
 30
0.0
 40
2.5
 41
25.735090160813
 71
     1
 72
     5
  1
{\Fmonotxt.shx,bigfont.shx|c128;日付 DATE}
  0
MTEXT
  5
2A44
330
2A32
100
AcDbEntity
  8
図枠細線
 48
10.0
100
AcDbMText
 10
173.48708833982
 20
41.621592044998
 30
0.0
 40
2.5
 41
24.983741184205
 71
     1
 72
     5
  1
{\Fmonotxt.shx,bigfont.shx|c128;製図　DRAWN}
  0
MTEXT
  5
2A45
330
2A32
100
AcDbEntity
  8
図枠細線
 48
10.0
100
AcDbMText
 10
139.28009927741
 20
21.866713069868
 30
0.0
 40
2.5
 41
22.629632913243
 71
     1
 72
     5
  1
{\Fmonotxt.shx,bigfont.shx|c128;尺度　SCALE}
  0
MTEXT
  5
2A46
330
2A32
100
AcDbEntity
  8
図枠細線
 48
10.0
100
AcDbMText
 10
139.910091179835
 20
41.311840415554
 30
0.0
 40
2.5
 41
28.998753428368
 71
     1
 72
     5
  1
{\Fmonotxt.shx,bigfont.shx|c128;検図  CHECKED}
  0
MTEXT
  5
2A47
330
2A32
100
AcDbEntity
  8
図枠細線
 48
10.0
100
AcDbMText
 10
114.253294667728
 20
21.916124850174
 30
0.0
 40
3.0
 41
19.692400475383
 71
     1
 72
     5
  1
{\Fmonotxt.shx,bigfont.shx|c128;第三角法}
  0
MTEXT
  5
2A48
330
2A32
100
AcDbEntity
  8
図枠細線
 48
10.0
100
AcDbMText
 10
108.986959929915
 20
15.282880185837
 30
0.0
 40
2.5
 41
27.954882823547
 71
     1
 72
     5
  1
{\Fmonotxt.shx,bigfont.shx|c128;THIRD ANGLE\PPROJECTION}
  0
MTEXT
  5
2A49
330
2A32
100
AcDbEntity
  8
図枠細線
 48
10.0
100
AcDbMText
 10
106.319432640184
 20
41.511437145487
 30
0.0
 40
2.5
 41
28.233595265074
 71
     1
 72
     5
  1
{\Fmonotxt.shx,bigfont.shx|c128;承認 APPROVED}
  0
LINE
  5
2A4A
330
2A32
100
AcDbEntity
  8
図枠太線
  6
CONTINUOUS
 62
   251
100
AcDbLine
 10
5.098414535793
 20
3.525959753527
 30
0.0
 11
405.098414535793
 21
3.525959753527
 31
0.0
  0
LINE
  5
2A4B
330
2A32
100
AcDbEntity
  8
図枠太線
 48
10.0
100
AcDbLine
 10
5.098414535793
 20
3.525959753527
 30
0.0
 11
5.098414535793
 21
43.525959753527
 31
0.0
  0
LINE
  5
2A4C
330
2A32
100
AcDbEntity
  8
図枠太線
  6
CONTINUOUS
 62
   251
100
AcDbLine
 10
105.098414535793
 20
3.525959753527
 30
0.0
 11
105.098414535793
 21
43.525959753527
 31
0.0
  0
LINE
  5
2A4D
330
2A32
100
AcDbEntity
  8
図枠細線
  6
CONTINUOUS
 62
   252
100
AcDbLine
 10
138.398414535793
 20
3.525959753527
 30
0.0
 11
138.398414535793
 21
18.525957753527
 31
0.0
  0
LINE
  5
2A4E
330
2A32
100
AcDbEntity
  8
図枠細線
  6
CONTINUOUS
 62
   252
100
AcDbLine
 10
171.698414535793
 20
3.525959753527
 30
0.0
 11
171.698414535793
 21
18.525957753527
 31
0.0
  0
LINE
  5
2A4F
330
2A32
100
AcDbEntity
  8
図枠太線
  6
CONTINUOUS
 62
   251
100
AcDbLine
 10
205.098414535793
 20
3.525959753527
 30
0.0
 11
205.098414535793
 21
43.525959753527
 31
0.0
  0
LINE
  5
2A50
330
2A32
100
AcDbEntity
  8
図枠太線
 48
10.0
100
AcDbLine
 10
405.098414535793
 20
43.525959753527
 30
0.0
 11
405.098414535793
 21
3.525959753527
 31
0.0
  0
TEXT
  5
2A51
330
2A32
100
AcDbEntity
  8
図枠細線
  6
CONTINUOUS
 62
   252
100
AcDbText
 10
208.519754474572
 20
6.482358407285
 30
0.0
 40
3.5
  1
ＴＯＷＡ　ＳＥＩＤＥＮ　ＩＮＤＵＳＴＲＩＡＬ　ＣＯ．，ＬＴＤ．
 41
0.746656297509
  7
EXCADSTD
 72
     5
 11
303.295327171727
 21
6.482358407285
 31
0.0
100
AcDbText
  0
LINE
  5
2A52
330
2A32
100
AcDbEntity
  8
図枠太線
  6
CONTINUOUS
 62
   251
100
AcDbLine
 10
305.098414535793
 20
3.525959753527
 30
0.0
 11
305.098414535793
 21
43.525959753527
 31
0.0
  0
ENDBLK
  5
2A53
330
2A32
100
AcDbEntity
  8
0
100
AcDbBlockEnd
  0
BLOCK
  5
2A6D
330
2A6C
100
AcDbEntity
  8
0
100
AcDbBlockBegin
  2
A3縦用_タイトル
 70
     0
 10
0.0
 20
0.0
 30
0.0
  3
A3縦用_タイトル
  1
A3縦用_タイトル
  0
MTEXT
  5
2A6E
330
2A6C
100
AcDbEntity
  8
図枠細線
100
AcDbMText
 10
5.040804501593
 20
31.626098649005
 30
0.0
 40
2.5
 41
49.938282706292
 71
     1
 72
     5
  1
{\Fmonotxt.shx,bigfont.shx|c128;図暦　CHANGE　NOTICE}
  0
LINE
  5
2A6F
330
2A6C
100
AcDbEntity
  8
図枠太線
  6
CONTINUOUS
 62
   251
100
AcDbLine
 10
283.577871882961
 20
2.820844689254
 30
0.0
 11
283.577871882961
 21
32.820842689254
 31
0.0
  0
MTEXT
  5
2A70
330
2A6C
100
AcDbEntity
  8
図枠細線
 48
10.0
100
AcDbMText
 10
214.912458947454
 20
31.621488632308
 30
0.0
 40
2.5
 41
28.002809618823
 71
     1
 72
     5
  1
{\Fmonotxt.shx,bigfont.shx|c128;名称　TITLE}
  0
MTEXT
  5
2A71
330
2A6C
100
AcDbEntity
  8
図枠細線
 48
10.0
100
AcDbMText
 10
214.740030458938
 20
16.310225796722
 30
0.0
 40
2.5
 41
24.385612216707
 71
     1
 72
     5
  1
{\Fmonotxt.shx,bigfont.shx|c128;図面番号\PDRG.　No.}
  0
LINE
  5
2A72
330
2A6C
100
AcDbEntity
  8
図枠太線
  6
CONTINUOUS
 62
   251
100
AcDbLine
 10
213.577871882961
 20
2.820844689254
 30
0.0
 11
213.577871882961
 21
32.820842689254
 31
0.0
  0
LINE
  5
2A73
330
2A6C
100
AcDbEntity
  8
図枠太線
  6
CONTINUOUS
 62
   251
100
AcDbLine
 10
143.577871882961
 20
2.820844689254
 30
0.0
 11
143.577871882961
 21
32.820842689254
 31
0.0
  0
TEXT
  5
2A74
330
2A6C
100
AcDbEntity
  8
図枠細線
  6
CONTINUOUS
 62
   252
100
AcDbText
 10
145.716454488093
 20
4.468335689254
 30
0.0
 40
3.5
  1
ＴＯＷＡ　ＳＥＩＤＥＮ　ＩＮＤＵＳＴＲＩＡＬ　ＣＯ．，ＬＴＤ．
 41
0.528937826907
  7
EXCADSTD
 72
     5
 11
212.856295983498
 21
4.468335689254
 31
0.0
100
AcDbText
  0
TEXT
  5
2A75
330
2A6C
100
AcDbEntity
  8
図枠ロゴマーク
  6
CONTINUOUS
 62
   253
100
AcDbText
 10
145.950637593507
 20
9.413236689254
 30
0.0
 40
7.0
  1
東和制電工業株式会社
 41
0.80361088462
  7
EXCADSTD
 72
     5
 11
211.953878250259
 21
9.413236689254
 31
0.0
100
AcDbText
  0
LINE
  5
2A76
330
2A6C
100
AcDbEntity
  8
図枠細線
  6
CONTINUOUS
 62
   252
100
AcDbLine
 10
143.577871882961
 20
25.320842689254
 30
0.0
 11
213.577871882961
 21
25.320842689254
 31
0.0
  0
LINE
  5
2A77
330
2A6C
100
AcDbEntity
  8
図枠太線
  6
CONTINUOUS
 62
   251
100
AcDbLine
 10
143.577863882961
 20
17.820842689254
 30
0.0
 11
213.577871882961
 21
17.820842689254
 31
0.0
  0
LINE
  5
2A78
330
2A6C
100
AcDbEntity
  8
図枠細線
  6
CONTINUOUS
 62
   252
100
AcDbLine
 10
213.577871882961
 20
17.820842689254
 30
0.0
 11
283.577871882961
 21
17.820842689254
 31
0.0
  0
LINE
  5
2A79
330
2A6C
100
AcDbEntity
  8
図枠細線
  6
CONTINUOUS
 62
   252
100
AcDbLine
 10
120.577871882961
 20
32.820842689254
 30
0.0
 11
120.577871882961
 21
17.820842689254
 31
0.0
  0
MTEXT
  5
2A7A
330
2A6C
100
AcDbEntity
  8
図枠細線
 48
10.0
100
AcDbMText
 10
121.100885670352
 20
16.33785922638
 30
0.0
 40
2.0
 41
17.705978285068
 71
     1
 72
     5
  1
{\Fmonotxt.shx,bigfont.shx|c128;日付 DATE}
  0
MTEXT
  5
2A7B
330
2A6C
100
AcDbEntity
  8
図枠細線
 48
10.0
100
AcDbMText
 10
121.254842273491
 20
31.208993514037
 30
0.0
 40
2.0
 41
18.363799568758
 71
     1
 72
     5
  1
{\Fmonotxt.shx,bigfont.shx|c128;製図　DRAWN}
  0
LINE
  5
2A7C
330
2A6C
100
AcDbEntity
  8
図枠細線
  6
CONTINUOUS
 62
   252
100
AcDbLine
 10
97.577871882961
 20
32.820842689254
 30
0.0
 11
97.577871882961
 21
17.820842689254
 31
0.0
  0
MTEXT
  5
2A7D
330
2A6C
100
AcDbEntity
  8
図枠細線
 48
10.0
100
AcDbMText
 10
98.239734796872
 20
16.467764839281
 30
0.0
 40
2.0
 41
17.757791689903
 71
     1
 72
     5
  1
{\Fmonotxt.shx,bigfont.shx|c128;尺度　SCALE}
  0
MTEXT
  5
2A7E
330
2A6C
100
AcDbEntity
  8
図枠細線
 48
10.0
100
AcDbMText
 10
97.864744625154
 20
31.298433377664
 30
0.0
 40
2.0
 41
23.162655920976
 71
     1
 72
     5
  1
{\Fmonotxt.shx,bigfont.shx|c128;検図  CHECKED}
  0
LINE
  5
2A7F
330
2A6C
100
AcDbEntity
  8
図枠細線
  6
CONTINUOUS
 62
   252
100
AcDbLine
 10
97.577871882961
 20
2.820843367826
 30
0.0
 11
97.577871882961
 21
17.820841367826
 31
0.0
  0
LINE
  5
2A80
330
2A6C
100
AcDbEntity
  8
図枠細線
  6
CONTINUOUS
 62
   252
100
AcDbLine
 10
120.577871882961
 20
2.820844010683
 30
0.0
 11
120.577871882961
 21
17.820842010683
 31
0.0
  0
MTEXT
  5
2A81
330
2A6C
100
AcDbEntity
  8
図枠細線
 48
10.0
100
AcDbMText
 10
81.402399084102
 20
16.316484117426
 30
0.0
 40
2.0
 41
12.920322819369
 71
     1
 72
     5
  1
{\Fmonotxt.shx,bigfont.shx|c128;第三角法}
  0
MTEXT
  5
2A82
330
2A6C
100
AcDbEntity
  8
図枠細線
 48
10.0
100
AcDbMText
 10
75.736576535096
 20
11.080410931319
 30
0.0
 40
2.0
 41
21.072870671471
 71
     1
 72
     5
  1
{\Fmonotxt.shx,bigfont.shx|c128;THIRD ANGLE\PPROJECTION}
  0
LINE
  5
2A83
330
2A6C
100
AcDbEntity
  8
図枠太線
  6
CONTINUOUS
 62
   251
100
AcDbLine
 10
74.577871882961
 20
2.820844689254
 30
0.0
 11
74.577871882961
 21
32.820842689254
 31
0.0
  0
MTEXT
  5
2A84
330
2A6C
100
AcDbEntity
  8
図枠細線
 48
10.0
100
AcDbMText
 10
75.060214781573
 20
31.298434778555
 30
0.0
 40
2.0
 41
22.240928805967
 71
     1
 72
     5
  1
{\Fmonotxt.shx,bigfont.shx|c128;承認 APPROVED}
  0
LINE
  5
2A85
330
2A6C
100
AcDbEntity
  8
図枠細線
  6
CONTINUOUS
100
AcDbLine
 10
3.577871882961
 20
17.820844689254
 30
0.0
 11
74.577871882961
 21
17.820844689254
 31
0.0
  0
LINE
  5
2A86
330
2A6C
100
AcDbEntity
  8
図枠細線
  6
CONTINUOUS
 62
   252
100
AcDbLine
 10
3.577871882961
 20
27.820842689254
 30
0.0
 11
74.577871882961
 21
27.820842689254
 31
0.0
  0
LINE
  5
2A87
330
2A6C
100
AcDbEntity
  8
図枠細線
  6
CONTINUOUS
 62
   252
100
AcDbLine
 10
3.577871882961
 20
22.820842689254
 30
0.0
 11
74.577871882961
 21
22.820842689254
 31
0.0
  0
LINE
  5
2A88
330
2A6C
100
AcDbEntity
  8
図枠細線
  6
CONTINUOUS
 62
   252
100
AcDbLine
 10
3.577871882961
 20
12.820842689254
 30
0.0
 11
74.577871882961
 21
12.820842689254
 31
0.0
  0
LINE
  5
2A89
330
2A6C
100
AcDbEntity
  8
図枠細線
  6
CONTINUOUS
 62
   252
100
AcDbLine
 10
3.577871882961
 20
7.820844689254
 30
0.0
 11
74.577871882961
 21
7.820844689254
 31
0.0
  0
LINE
  5
2A8A
330
2A6C
100
AcDbEntity
  8
図枠細線
  6
CONTINUOUS
100
AcDbLine
 10
74.577871882961
 20
17.820843689254
 30
0.0
 11
143.577871882961
 21
17.820841224969
 31
0.0
  0
LINE
  5
2A8B
330
2A6C
100
AcDbEntity
  8
図枠太線
  6
CONTINUOUS
 62
   251
100
AcDbLine
 10
3.577871882961
 20
2.820844689254
 30
0.0
 11
283.577871882961
 21
2.820844689254
 31
0.0
  0
LINE
  5
2A8C
330
2A6C
100
AcDbEntity
  8
図枠太線
  6
CONTINUOUS
 62
   251
100
AcDbLine
 10
3.577871882961
 20
2.820844689254
 30
0.0
 11
3.577871882961
 21
32.820842689254
 31
0.0
  0
ENDBLK
  5
2A8D
330
2A6C
100
AcDbEntity
  8
0
100
AcDbBlockEnd
  0
BLOCK
  5
2AF8
330
2AF4
100
AcDbEntity
  8
0
 48
10.0
100
AcDbBlockBegin
  2
_OPEN30
 70
     0
 10
0.0
 20
0.0
 30
0.0
  3
_OPEN30
  1
_OPEN30
  0
LINE
  5
2AF5
330
2AF4
100
AcDbEntity
  8
0
  6
BYBLOCK
 62
     0
100
AcDbLine
 10
-1.0
 20
0.26794919
 30
0.0
 11
0.0
 21
0.0
 31
0.0
  0
LINE
  5
2AF6
330
2AF4
100
AcDbEntity
  8
0
  6
BYBLOCK
 62
     0
100
AcDbLine
 10
0.0
 20
0.0
 30
0.0
 11
-1.0
 21
-0.26794919
 31
0.0
  0
LINE
  5
2AF7
330
2AF4
100
AcDbEntity
  8
0
  6
BYBLOCK
 62
     0
100
AcDbLine
 10
0.0
 20
0.0
 30
0.0
 11
-1.0
 21
0.0
 31
0.0
  0
ENDBLK
  5
2AF9
330
2AF4
100
AcDbEntity
  8
0
 48
10.0
100
AcDbBlockEnd
  0
BLOCK
  5
2F40
330
2F3F
100
AcDbEntity
  8
0
 48
10.0
100
AcDbBlockBegin
  2
ケース外形図_HL-400
 70
     0
 10
0.0
 20
0.0
 30
0.0
  3
ケース外形図_HL-400
  1
ケース外形図_HL-400
  0
LINE
  5
2F41
330
2F3F
100
AcDbEntity
  8
外形線
100
AcDbLine
 10
-3016.68737612191
 20
-628.620502022639
 30
0.0
 11
-3004.68737612191
 21
-628.620502022639
 31
0.0
  0
LINE
  5
2F42
330
2F3F
100
AcDbEntity
  8
外形線
100
AcDbLine
 10
-3004.68737612191
 20
-556.620502022639
 30
0.0
 11
-3019.68737612191
 21
-556.620502022639
 31
0.0
  0
LINE
  5
2F43
330
2F3F
100
AcDbEntity
  8
中心線
 48
10.0
100
AcDbLine
 10
-3031.837385121911
 20
-613.830661022639
 30
0.0
 11
-3031.837385121911
 21
-669.264280022639
 31
0.0
  0
LINE
  5
2F44
330
2F3F
100
AcDbEntity
  8
外形線
100
AcDbLine
 10
-3036.074903121911
 20
-666.232883395172
 30
0.0
 11
-3036.074903121911
 21
-653.049280022639
 31
0.0
  0
LINE
  5
2F45
330
2F3F
100
AcDbEntity
  8
外形線
100
AcDbLine
 10
-3027.67493912191
 20
-666.232883395172
 30
0.0
 11
-3027.67493912191
 21
-653.049280022639
 31
0.0
  0
ARC
  5
2F46
330
2F3F
100
AcDbEntity
  8
細線
100
AcDbCircle
 10
-3033.974910933263
 20
-662.595590228936
 30
0.0
 40
4.199982
100
AcDbArc
 50
239.999981276042
 51
299.999981276021
  0
ARC
  5
2F47
330
2F3F
100
AcDbEntity
  8
細線
100
AcDbCircle
 10
-3029.774928933263
 20
-662.595591601467
 30
0.0
 40
4.199982
100
AcDbArc
 50
239.999981276042
 51
299.999981276021
  0
ARC
  5
2F48
330
2F3F
100
AcDbEntity
  8
細線
100
AcDbCircle
 10
-3029.774931310559
 20
-669.870173816342
 30
0.0
 40
4.199982
100
AcDbArc
 50
59.999981276042
 51
119.999981276021
  0
LINE
  5
2F49
330
2F3F
100
AcDbEntity
  8
外形線
100
AcDbLine
 10
-3015.18737612191
 20
-556.620502022639
 30
0.0
 11
-3015.18737612191
 21
-628.620502022639
 31
0.0
  0
LINE
  5
2F4A
330
2F3F
100
AcDbEntity
  8
外形線
100
AcDbLine
 10
-3016.68737612191
 20
-629.295475022639
 30
0.0
 11
-3016.68737612191
 21
-556.620502022639
 31
0.0
  0
LINE
  5
2F4B
330
2F3F
100
AcDbEntity
  8
外形線
100
AcDbLine
 10
-3019.68737612191
 20
-556.620502022639
 30
0.0
 11
-3019.68737612191
 21
-618.495502022639
 31
0.0
  0
LINE
  5
2F4C
330
2F3F
100
AcDbEntity
  8
外形線
100
AcDbLine
 10
-3046.687376121911
 20
-623.745502022639
 30
0.0
 11
-3046.687376121911
 21
-562.245502022639
 31
0.0
  0
LINE
  5
2F4D
330
2F3F
100
AcDbEntity
  8
外形線
100
AcDbLine
 10
-3038.779444758647
 20
-628.97627357689
 30
0.0
 11
-3045.721504395382
 21
-634.988273576889
 31
0.0
  0
LINE
  5
2F4E
330
2F3F
100
AcDbEntity
  8
外形線
100
AcDbLine
 10
-3024.895325485175
 20
-628.97627357689
 30
0.0
 11
-3017.953265848439
 21
-634.988273576889
 31
0.0
  0
LINE
  5
2F4F
330
2F3F
100
AcDbEntity
  8
外形線
100
AcDbLine
 10
-3024.895325485175
 20
-637.653848122809
 30
0.0
 11
-3024.895325485175
 21
-628.97627357689
 31
0.0
  0
LINE
  5
2F50
330
2F3F
100
AcDbEntity
  8
外形線
100
AcDbLine
 10
-3038.779444758647
 20
-637.653848122809
 30
0.0
 11
-3038.779444758647
 21
-628.97627357689
 31
0.0
  0
LWPOLYLINE
  5
2F51
330
2F3F
100
AcDbEntity
  8
外形線
100
AcDbPolyline
 90
       47
 70
     0
 43
0.0
 10
-3027.674940621911
 20
-654.14058768542
 10
-3027.215686831012
 20
-654.025717241066
 10
-3026.807069333743
 20
-653.89949762322
 10
-3026.45356502891
 20
-653.763311720429
 10
-3026.159046983652
 20
-653.618651613941
 10
-3025.926741999306
 20
-653.467102230155
 10
-3025.759195257892
 20
-653.310323975836
 10
-3025.658242436573
 20
-653.150034546342
 10
-3025.624989595581
 20
-652.98799010621
 10
-3025.659801060005
 20
-652.825966048232
 10
-3025.762295428152
 20
-652.665737541894
 10
-3025.931349750279
 20
-652.509060084243
 10
-3026.165111831855
 20
-652.357650266292
 10
-3026.461020526596
 20
-652.213166965689
 10
-3026.815833796919
 20
-652.077193171712
 10
-3027.225664234388
 20
-651.951218641701
 10
-3027.686021650964
 20
-651.836623578969
 10
-3028.191862274455
 20
-651.734663511005
 10
-3028.737644009139
 20
-651.646455533648
 10
-3029.317387156118
 20
-651.572966071958
 10
-3029.924739928152
 20
-651.515000291856
 10
-3030.553048041176
 20
-651.473193278559
 10
-3031.195427620021
 20
-651.448003078454
 10
-3031.844840619596
 20
-651.439705680642
 10
-3032.494171935177
 20
-651.448391993153
 10
-3033.136307356992
 20
-651.473966846927
 10
-3033.764211514982
 20
-651.516150038516
 10
-3034.371004959794
 20
-651.574479400044
 10
-3034.950039535468
 20
-651.648315862822
 10
-3035.494971218024
 20
-651.73685045911
 10
-3035.999829621911
 20
-651.839113185344
 10
-3036.459083412808
 20
-651.953983629698
 10
-3036.867700910077
 20
-652.080203247544
 10
-3037.221205214912
 20
-652.216389150335
 10
-3037.515723260169
 20
-652.361049256823
 10
-3037.748028244515
 20
-652.512598640609
 10
-3037.915574985928
 20
-652.669376894928
 10
-3038.016527807249
 20
-652.829666324421
 10
-3038.04978064824
 20
-652.991710764555
 10
-3038.014969183816
 20
-653.153734822532
 10
-3037.912474815669
 20
-653.313963328869
 10
-3037.743420493542
 20
-653.470640786521
 10
-3037.509658411966
 20
-653.622050604471
 10
-3037.213749717225
 20
-653.766533905074
 10
-3036.858936446901
 20
-653.902507699052
 10
-3036.449106009434
 20
-654.028482229064
 10
-3036.07490312191
 20
-654.123399110931
  0
ARC
  5
2F52
330
2F3F
100
AcDbEntity
  8
外形線
100
AcDbCircle
 10
-3031.837385121911
 20
-620.803069368681
 30
0.0
 40
34.15159996140045
100
AcDbArc
 50
255.26831657715
 51
262.87239111701
  0
LWPOLYLINE
  5
2F53
330
2F3F
100
AcDbEntity
  8
外形線
100
AcDbPolyline
 90
       34
 70
     0
 43
0.0
 10
-3020.164085121911
 20
-645.574914522911
 10
-3020.217826679511
 20
-645.015496411464
 10
-3020.378556521371
 20
-644.461229200047
 10
-3020.644794710875
 20
-643.917216361246
 10
-3021.014089832395
 20
-643.388466949451
 10
-3021.483041562971
 20
-642.879849479472
 10
-3022.047331981114
 20
-642.39604709919
 10
-3022.701765324525
 20
-641.941514468981
 10
-3023.440315830619
 20
-641.520436744971
 10
-3024.256183219338
 20
-641.136691043792
 10
-3025.141855307454
 20
-640.793810743611
 10
-3026.089177177755
 20
-640.494952950203
 10
-3027.089426266293
 20
-640.242869427561
 10
-3028.133392676296
 20
-640.039881260751
 10
-3029.211463979238
 20
-639.887857484282
 10
-3030.313713722268
 20
-639.788197872775
 10
-3031.429992827054
 20
-639.74182005239
 10
-3032.550023038462
 20
-639.749151051702
 10
-3033.663491562665
 20
-639.810123369776
 10
-3034.760146023239
 20
-639.924175597698
 10
-3035.829888860994
 20
-640.090257587801
 10
-3036.862870308282
 20
-640.30684012301
 10
-3037.849579081758
 20
-640.571928997268
 10
-3038.780929958494
 20
-640.88308337739
 10
-3039.64834742912
 20
-641.237438277289
 10
-3040.443844657696
 20
-641.631730937631
 10
-3041.160097021345
 20
-642.062330868031
 10
-3041.790509552464
 20
-642.525273275162
 10
-3042.329277662574
 20
-643.016295569004
 10
-3042.771440588665
 20
-643.530876611082
 10
-3043.112927069931
 20
-644.064278343314
 10
-3043.350592834335
 20
-644.611589414165
 10
-3043.482249549808
 20
-645.167770400432
 10
-3043.510685121911
 20
-645.574914522911
  0
ARC
  5
2F54
330
2F3F
100
AcDbEntity
  8
外形線
100
AcDbCircle
 10
-3031.837385121911
 20
-625.986454710612
 30
0.0
 40
13.57645981229912
100
AcDbArc
 50
239.247497502359
 51
300.752502497641
  0
LINE
  5
2F55
330
2F3F
100
AcDbEntity
  8
外形線
100
AcDbLine
 10
-3043.510685121911
 20
-645.574914522911
 30
0.0
 11
-3043.510685121911
 21
-649.955767263438
 31
0.0
  0
ARC
  5
2F56
330
2F3F
100
AcDbEntity
  8
外形線
100
AcDbCircle
 10
-3039.502685121911
 20
-649.955767263438
 30
0.0
 40
4.007999999999999
100
AcDbArc
 50
180.0
 51
255.26831657715
  0
ARC
  5
2F57
330
2F3F
100
AcDbEntity
  8
外形線
100
AcDbCircle
 10
-3046.230136312884
 20
-636.064530573833
 30
0.0
 40
7.618315752702329
100
AcDbArc
 50
273.828163206421
 51
347.958626091838
  0
LINE
  5
2F58
330
2F3F
100
AcDbEntity
  8
外形線
100
AcDbLine
 10
-3043.513436239113
 20
-645.578091239426
 30
0.0
 11
-3045.721504395382
 21
-643.665848122809
 31
0.0
  0
LINE
  5
2F59
330
2F3F
100
AcDbEntity
  8
外形線
100
AcDbLine
 10
-3045.721504395382
 20
-634.988273576889
 30
0.0
 11
-3045.721504395382
 21
-643.665848122809
 31
0.0
  0
LINE
  5
2F5A
330
2F3F
100
AcDbEntity
  8
外形線
100
AcDbLine
 10
-3020.164085121911
 20
-645.574914522911
 30
0.0
 11
-3020.164085121911
 21
-649.955767263438
 31
0.0
  0
LWPOLYLINE
  5
2F5B
330
2F3F
100
AcDbEntity
  8
外形線
100
AcDbPolyline
 90
       29
 70
     0
 43
0.0
 10
-3027.674940621911
 20
-653.049280022638
 10
-3027.701938707542
 20
-652.947308555312
 10
-3027.782585869251
 20
-652.846648062603
 10
-3027.915845283851
 20
-652.748592664861
 10
-3028.100003729843
 20
-652.654402990584
 10
-3028.332693613086
 20
-652.56528996941
 10
-3028.610923405278
 20
-652.482399264063
 10
-3028.9311161039
 20
-652.406796541377
 10
-3029.289155219196
 20
-652.339453771776
 10
-3029.680437696951
 20
-652.281236733347
 10
-3030.099933096692
 20
-652.232893881137
 10
-3030.542248264472
 20
-652.195046724809
 10
-3031.001696668819
 20
-652.16818183833
 10
-3031.472371508433
 20
-652.152644604435
 10
-3031.948221651714
 20
-652.148634774287
 10
-3032.423129431869
 20
-652.15620389942
 10
-3032.890989297393
 20
-652.175254668977
 10
-3033.345786306812
 20
-652.205542160767
 10
-3033.781673458494
 20
-652.246676990049
 10
-3034.193046861402
 20
-652.298130315587
 10
-3034.574617780326
 20
-652.359240638577
 10
-3034.921480629393
 20
-652.429222307066
 10
-3035.229176039693
 20
-652.507175616524
 10
-3035.493748190218
 20
-652.592098376703
 10
-3035.711795665032
 20
-652.682898796086
 10
-3035.88051518286
 20
-652.778409518273
 10
-3035.997737636882
 20
-652.877402629852
 10
-3036.061955981389
 20
-652.9786054468
 10
-3036.07490312191
 20
-653.049280022638
  0
ARC
  5
2F5C
330
2F3F
100
AcDbEntity
  8
外形線
100
AcDbCircle
 10
-3031.837385121911
 20
-620.803069368681
 30
0.0
 40
34.15159996140045
100
AcDbArc
 50
277.000695446903
 51
284.73168342285
  0
ARC
  5
2F5D
330
2F3F
100
AcDbEntity
  8
外形線
100
AcDbCircle
 10
-3024.172085121911
 20
-649.955767263438
 30
0.0
 40
4.007999999999999
100
AcDbArc
 50
284.73168342285
 51
0.0
  0
LINE
  5
2F5E
330
2F3F
100
AcDbEntity
  8
外形線
100
AcDbLine
 10
-3020.161334004708
 20
-645.578091239426
 30
0.0
 11
-3017.953265848439
 21
-643.665848122809
 31
0.0
  0
ARC
  5
2F5F
330
2F3F
100
AcDbEntity
  8
外形線
100
AcDbCircle
 10
-3017.444633930937
 20
-636.064530573833
 30
0.0
 40
7.618315752702329
100
AcDbArc
 50
192.041373908162
 51
266.171836793579
  0
LINE
  5
2F60
330
2F3F
100
AcDbEntity
  8
外形線
100
AcDbLine
 10
-3017.953265848439
 20
-643.665848122809
 30
0.0
 11
-3017.953265848439
 21
-634.988273576889
 31
0.0
  0
LWPOLYLINE
  5
2F61
330
2F3F
100
AcDbEntity
  8
外形線
100
AcDbPolyline
 90
       34
 70
     0
 43
0.0
 10
-3021.33893012191
 20
-629.269370629074
 10
-3021.387262926182
 20
-628.898532694609
 10
-3021.531816309708
 20
-628.531109288718
 10
-3021.771259282285
 20
-628.170483500357
 10
-3022.103387148015
 20
-627.819975828711
 10
-3022.525141805277
 20
-627.482813609361
 10
-3023.032639904511
 20
-627.162101298261
 10
-3023.621208604563
 20
-626.860791887133
 10
-3024.285428598347
 20
-626.581659713495
 10
-3025.019184011678
 20
-626.32727491566
 10
-3025.815718715819
 20
-626.099979767924
 10
-3026.667698535225
 20
-625.901867113831
 10
-3027.567278777729
 20
-625.734761096102
 10
-3028.506176465351
 20
-625.600200360651
 10
-3029.475746600679
 20
-625.499423889346
 10
-3030.467061766568
 20
-625.433359591953
 10
-3031.470994326257
 20
-625.402615762313
 10
-3032.478300467033
 20
-625.40747547741
 10
-3033.479705313585
 20
-625.44789399092
 10
-3034.465988327376
 20
-625.5234991452
 10
-3035.428068205709
 20
-625.633594797989
 10
-3036.357086498752
 20
-625.777167232194
 10
-3037.24448917464
 20
-625.952894489799
 10
-3038.082105381594
 20
-626.159158543935
 10
-3038.862222681892
 20
-626.394060197024
 10
-3039.577658064932
 20
-626.655436567837
 10
-3040.221824085545
 20
-626.940881006447
 10
-3040.788789518574
 20
-627.247765253711
 10
-3041.27333397125
 20
-627.57326364123
 10
-3041.670995950487
 20
-627.91437910899
 10
-3041.978113942544
 20
-628.267970801094
 10
-3042.191860126797
 20
-628.630782985528
 10
-3042.310266413181
 20
-628.99947503163
 10
-3042.335840121911
 20
-629.269370629074
  0
LINE
  5
2F62
330
2F3F
100
AcDbEntity
  8
外形線
100
AcDbLine
 10
-3038.779444758647
 20
-628.97627357689
 30
0.0
 11
-3024.895325485175
 21
-628.97627357689
 31
0.0
  0
LINE
  5
2F63
330
2F3F
100
AcDbEntity
  8
外形線
100
AcDbLine
 10
-3038.779444758647
 20
-620.298699030969
 30
0.0
 11
-3024.895325485175
 21
-620.298699030969
 31
0.0
  0
LINE
  5
2F64
330
2F3F
100
AcDbEntity
  8
外形線
100
AcDbLine
 10
-3038.779444758647
 20
-624.637486303929
 30
0.0
 11
-3024.895325485175
 21
-624.637486303929
 31
0.0
  0
LINE
  5
2F65
330
2F3F
100
AcDbEntity
  8
外形線
100
AcDbLine
 10
-3016.68737612191
 20
-618.495502022639
 30
0.0
 11
-3039.78736712191
 21
-618.495502022639
 31
0.0
  0
LINE
  5
2F66
330
2F3F
100
AcDbEntity
  8
外形線
100
AcDbLine
 10
-3039.468583886739
 20
-620.895511022639
 30
0.0
 11
-3042.187376121911
 21
-620.895511022639
 31
0.0
  0
LINE
  5
2F67
330
2F3F
100
AcDbEntity
  8
外形線
100
AcDbLine
 10
-3045.721504395382
 20
-626.310699030969
 30
0.0
 11
-3038.779444758647
 21
-620.298699030969
 31
0.0
  0
ARC
  5
2F68
330
2F3F
100
AcDbEntity
  8
外形線
100
AcDbCircle
 10
-3039.78736712191
 20
-623.895511022639
 30
0.0
 40
5.4
100
AcDbArc
 50
89.999981276021
 51
180.00001984784
  0
LINE
  5
2F69
330
2F3F
100
AcDbEntity
  8
外形線
100
AcDbLine
 10
-3038.779444758647
 20
-624.637486303929
 30
0.0
 11
-3045.721504395382
 21
-630.649486303929
 31
0.0
  0
ARC
  5
2F6A
330
2F3F
100
AcDbEntity
  8
外形線
100
AcDbCircle
 10
-3042.187376121911
 20
-623.895511022639
 30
0.0
 40
3.0
100
AcDbArc
 50
89.999981276021
 51
211.533239298809
  0
ARC
  5
2F6B
330
2F3F
100
AcDbEntity
  8
外形線
100
AcDbCircle
 10
-3043.687376121911
 20
-623.745502022639
 30
0.0
 40
3.0
100
AcDbArc
 50
180.00001984784
 51
232.575749003279
  0
LINE
  5
2F6C
330
2F3F
100
AcDbEntity
  8
外形線
100
AcDbLine
 10
-3043.216504395382
 20
-632.818879940409
 30
0.0
 11
-3045.721504395382
 21
-630.649486303929
 31
0.0
  0
LINE
  5
2F6D
330
2F3F
100
AcDbEntity
  8
外形線
100
AcDbLine
 10
-3042.335840121911
 20
-629.269370629074
 30
0.0
 11
-3042.335840121911
 21
-632.056202307377
 31
0.0
  0
LINE
  5
2F6E
330
2F3F
100
AcDbEntity
  8
外形線
100
AcDbLine
 10
-3045.721504395382
 20
-630.649486303929
 30
0.0
 11
-3045.721504395382
 21
-626.310699030969
 31
0.0
  0
LINE
  5
2F6F
330
2F3F
100
AcDbEntity
  8
細線
100
AcDbLine
 10
-3040.980635121911
 20
-630.882560350041
 30
0.0
 11
-3040.980635121911
 21
-627.331019140395
 31
0.0
  0
LINE
  5
2F70
330
2F3F
100
AcDbEntity
  8
外形線
100
AcDbLine
 10
-3038.779444758647
 20
-624.637486303929
 30
0.0
 11
-3038.779444758647
 21
-620.298699030969
 31
0.0
  0
LINE
  5
2F71
330
2F3F
100
AcDbEntity
  8
細線
100
AcDbLine
 10
-3022.694135121911
 20
-630.882560350041
 30
0.0
 11
-3022.694135121911
 21
-627.227614822548
 31
0.0
  0
LINE
  5
2F72
330
2F3F
100
AcDbEntity
  8
外形線
100
AcDbLine
 10
-3016.68737612191
 20
-620.895511022639
 30
0.0
 11
-3024.206186357083
 21
-620.895511022639
 31
0.0
  0
LINE
  5
2F73
330
2F3F
100
AcDbEntity
  8
外形線
100
AcDbLine
 10
-3017.953265848439
 20
-626.310699030969
 30
0.0
 11
-3024.895325485175
 21
-620.298699030969
 31
0.0
  0
LINE
  5
2F74
330
2F3F
100
AcDbEntity
  8
外形線
100
AcDbLine
 10
-3024.895325485175
 20
-624.637486303929
 30
0.0
 11
-3024.895325485175
 21
-620.298699030969
 31
0.0
  0
LINE
  5
2F75
330
2F3F
100
AcDbEntity
  8
外形線
100
AcDbLine
 10
-3016.68737612191
 20
-629.295497522639
 30
0.0
 11
-3017.953265848439
 21
-629.295497522639
 31
0.0
  0
LINE
  5
2F76
330
2F3F
100
AcDbEntity
  8
外形線
100
AcDbLine
 10
-3020.458265848439
 20
-632.818879940409
 30
0.0
 11
-3017.953265848439
 21
-630.649486303929
 31
0.0
  0
LINE
  5
2F77
330
2F3F
100
AcDbEntity
  8
外形線
100
AcDbLine
 10
-3024.895325485175
 20
-624.637486303929
 30
0.0
 11
-3017.953265848439
 21
-630.649486303929
 31
0.0
  0
LINE
  5
2F78
330
2F3F
100
AcDbEntity
  8
外形線
100
AcDbLine
 10
-3021.33893012191
 20
-629.269370629074
 30
0.0
 11
-3021.33893012191
 21
-632.056202307377
 31
0.0
  0
LINE
  5
2F79
330
2F3F
100
AcDbEntity
  8
外形線
100
AcDbLine
 10
-3017.953265848439
 20
-630.649486303929
 30
0.0
 11
-3017.953265848439
 21
-626.310699030969
 31
0.0
  0
LINE
  5
2F7A
330
2F3F
100
AcDbEntity
  8
外形線
100
AcDbLine
 10
-3048.487394121911
 20
-562.245502022639
 30
0.0
 11
-3048.487394121911
 21
-603.345493022639
 31
0.0
  0
LINE
  5
2F7B
330
2F3F
100
AcDbEntity
  8
外形線
100
AcDbLine
 10
-3048.487394121911
 20
-603.345493022639
 30
0.0
 11
-3046.687376121911
 21
-603.345493022639
 31
0.0
  0
LINE
  5
2F7C
330
2F3F
100
AcDbEntity
  8
外形線
100
AcDbLine
 10
-3043.687376121911
 20
-558.495502022639
 30
0.0
 11
-3019.68737612191
 21
-558.495502022639
 31
0.0
  0
LINE
  5
2F7D
330
2F3F
100
AcDbEntity
  8
外形線
100
AcDbLine
 10
-3048.487394121911
 20
-562.245502022639
 30
0.0
 11
-3046.687376121911
 21
-562.245502022639
 31
0.0
  0
ARC
  5
2F7E
330
2F3F
100
AcDbEntity
  8
外形線
100
AcDbCircle
 10
-3043.687376121911
 20
-561.495502022639
 30
0.0
 40
3.0
100
AcDbArc
 50
89.999981276021
 51
180.00001984784
  0
LINE
  5
2F7F
330
2F3F
100
AcDbEntity
  8
外形線
100
AcDbLine
 10
-3046.687376121911
 20
-562.245502022639
 30
0.0
 11
-3046.687376121911
 21
-561.495502022639
 31
0.0
  0
LINE
  5
2F80
330
2F3F
100
AcDbEntity
  8
外形線
100
AcDbLine
 10
-2963.887356621911
 20
-617.370502022639
 30
0.0
 11
-2963.887356621911
 21
-567.870502022639
 31
0.0
  0
LINE
  5
2F81
330
2F3F
100
AcDbEntity
  8
外形線
100
AcDbLine
 10
-2965.387356621911
 20
-620.580112022639
 30
0.0
 11
-2965.387356621911
 21
-564.660892022639
 31
0.0
  0
LINE
  5
2F82
330
2F3F
100
AcDbEntity
  8
外形線
100
AcDbLine
 10
-3004.68737612191
 20
-556.620502022639
 30
0.0
 11
-3004.68737612191
 21
-628.620502022639
 31
0.0
  0
LINE
  5
2F83
330
2F3F
100
AcDbEntity
  8
外形線
100
AcDbLine
 10
-3004.68737612191
 20
-626.745502022639
 30
0.0
 11
-2969.67289562191
 21
-625.074985022639
 31
0.0
  0
LINE
  5
2F84
330
2F3F
100
AcDbEntity
  8
外形線
100
AcDbLine
 10
-2963.887356621911
 20
-617.370502022639
 30
0.0
 11
-2965.387356621911
 21
-617.370502022639
 31
0.0
  0
ARC
  5
2F85
330
2F3F
100
AcDbEntity
  8
外形線
100
AcDbCircle
 10
-2969.887356621911
 20
-620.580112022639
 30
0.0
 40
4.5
100
AcDbArc
 50
272.731520116378
 51
359.999982399908
  0
LINE
  5
2F86
330
2F3F
100
AcDbEntity
  8
外形線
100
AcDbLine
 10
-3004.68737612191
 20
-558.495502022639
 30
0.0
 11
-2969.67289562191
 21
-560.166019022639
 31
0.0
  0
LINE
  5
2F87
330
2F3F
100
AcDbEntity
  8
外形線
100
AcDbLine
 10
-2963.887356621911
 20
-567.870502022639
 30
0.0
 11
-2965.387356621911
 21
-567.870502022639
 31
0.0
  0
ARC
  5
2F88
330
2F3F
100
AcDbEntity
  8
外形線
100
AcDbCircle
 10
-2969.887356621911
 20
-564.660892022639
 30
0.0
 40
4.5
100
AcDbArc
 50
0.0
 51
87.268519579302
  0
ENDBLK
  5
2F89
330
2F3F
100
AcDbEntity
  8
0
 48
10.0
100
AcDbBlockEnd
  0
BLOCK
  5
348A
330
347E
100
AcDbEntity
  8
0
 48
10.0
100
AcDbBlockBegin
  2
*D8
 70
     1
 10
0.0
 20
0.0
 30
0.0
  3
*D8
  1
*D8
  0
LINE
  5
3FCD
330
347E
100
AcDbEntity
  8
寸法線
 62
     0
 48
10.0
100
AcDbLine
 10
228.967915223143
 20
656.962642731314
 30
0.0
 11
228.342915223144
 21
656.962642731314
 31
0.0
  0
LINE
  5
3FCE
330
347E
100
AcDbEntity
  8
寸法線
 62
     0
 48
10.0
100
AcDbLine
 10
228.562776481558
 20
650.962597731314
 30
0.0
 11
230.842915223144
 21
650.962597731314
 31
0.0
  0
LINE
  5
3FCF
330
347E
100
AcDbEntity
  8
寸法線
 62
     0
 48
10.0
100
AcDbLine
 10
229.592915223144
 20
656.962642731314
 30
0.0
 11
229.592915223144
 21
681.138071121907
 31
0.0
  0
LINE
  5
3FD0
330
347E
100
AcDbEntity
  8
寸法線
 62
     0
 48
10.0
100
AcDbLine
 10
229.592915223144
 20
656.962642731314
 30
0.0
 11
229.592915223144
 21
650.962597731314
 31
0.0
  0
LINE
  5
3FD1
330
347E
100
AcDbEntity
  8
寸法線
 62
     0
 48
10.0
100
AcDbLine
 10
229.592915223144
 20
662.962642731314
 30
0.0
 11
229.592915223144
 21
668.962642731314
 31
0.0
  0
LINE
  5
3FD2
330
347E
100
AcDbEntity
  8
寸法線
 62
     0
 48
10.0
100
AcDbLine
 10
229.592915223144
 20
644.962597731314
 30
0.0
 11
229.592915223144
 21
638.962597731314
 31
0.0
  0
INSERT
  5
3FD3
330
347E
100
AcDbEntity
  8
寸法線
 62
     0
100
AcDbBlockReference
  2
_OPEN30
 10
229.592915223144
 20
656.962642731314
 30
0.0
 41
6.0
 42
6.0
 43
6.0
 50
270.0
  0
INSERT
  5
3FD4
330
347E
100
AcDbEntity
  8
寸法線
 62
     0
100
AcDbBlockReference
  2
_OPEN30
 10
229.592915223144
 20
650.962597731314
 30
0.0
 41
6.0
 42
6.0
 43
6.0
 50
90.0
  0
MTEXT
  5
3FD5
330
347E
100
AcDbEntity
  8
寸法線
 62
     0
 48
10.0
100
AcDbMText
 10
225.967915223144
 20
676.066196121907
 30
0.0
 40
6.0
 41
0.0
 71
     5
 72
     1
  1
\A1;φ6
 11
0.0
 21
1.0
 31
0.0
  0
POINT
  5
3FD6
330
347E
100
AcDbEntity
  8
DEFPOINTS
 62
     0
100
AcDbPoint
 10
229.592915223143
 20
656.962642731314
 30
0.0
  0
POINT
  5
3FD7
330
347E
100
AcDbEntity
  8
DEFPOINTS
 62
     0
100
AcDbPoint
 10
227.937776481558
 20
650.962597731314
 30
0.0
  0
POINT
  5
47B5
330
347E
100
AcDbEntity
  8
DEFPOINTS
 62
     0
100
AcDbPoint
 10
229.592915223144
 20
650.962597731314
 30
0.0
  0
ENDBLK
  5
348B
330
347E
100
AcDbEntity
  8
0
 48
10.0
100
AcDbBlockEnd
  0
BLOCK
  5
34C3
330
34B9
100
AcDbEntity
  8
0
 48
10.0
100
AcDbBlockBegin
  2
*D9
 70
     1
 10
0.0
 20
0.0
 30
0.0
  3
*D9
  1
*D9
  0
LINE
  5
3FC4
330
34B9
100
AcDbEntity
  8
寸法線
 62
     0
 48
10.0
100
AcDbLine
 10
176.852761446768
 20
693.962445231314
 30
0.0
 11
156.856305274762
 21
693.962445231314
 31
0.0
  0
LINE
  5
3FC5
330
34B9
100
AcDbEntity
  8
寸法線
 62
     0
 48
10.0
100
AcDbLine
 10
176.852761446768
 20
613.962660231314
 30
0.0
 11
156.856305274762
 21
613.962660231314
 31
0.0
  0
LINE
  5
3FC6
330
34B9
100
AcDbEntity
  8
寸法線
 62
     0
 48
10.0
100
AcDbLine
 10
158.106305274762
 20
687.962445231314
 30
0.0
 11
158.106305274762
 21
619.962660231314
 31
0.0
  0
INSERT
  5
3FC7
330
34B9
100
AcDbEntity
  8
寸法線
 62
     0
100
AcDbBlockReference
  2
_OPEN30
 10
158.106305274762
 20
693.962445231314
 30
0.0
 41
6.0
 42
6.0
 43
6.0
 50
90.0
  0
INSERT
  5
3FC8
330
34B9
100
AcDbEntity
  8
寸法線
 62
     0
100
AcDbBlockReference
  2
_OPEN30
 10
158.106305274762
 20
613.962660231314
 30
0.0
 41
6.0
 42
6.0
 43
6.0
 50
270.0
  0
MTEXT
  5
3FC9
330
34B9
100
AcDbEntity
  8
寸法線
 62
     0
 48
10.0
100
AcDbMText
 10
154.475055274762
 20
653.962552731314
 30
0.0
 40
6.0
 41
0.0
 71
     5
 72
     1
  1
\A1;80
 11
0.0
 21
1.0
 31
0.0
  0
POINT
  5
3FCA
330
34B9
100
AcDbEntity
  8
DEFPOINTS
 62
     0
100
AcDbPoint
 10
177.477761446768
 20
693.962445231314
 30
0.0
  0
POINT
  5
3FCB
330
34B9
100
AcDbEntity
  8
DEFPOINTS
 62
     0
100
AcDbPoint
 10
177.477761446768
 20
613.962660231314
 30
0.0
  0
POINT
  5
3FCC
330
34B9
100
AcDbEntity
  8
DEFPOINTS
 62
     0
100
AcDbPoint
 10
158.106305274762
 20
613.962660231314
 30
0.0
  0
ENDBLK
  5
34C4
330
34B9
100
AcDbEntity
  8
0
 48
10.0
100
AcDbBlockEnd
  0
BLOCK
  5
34D0
330
34C6
100
AcDbEntity
  8
0
 48
10.0
100
AcDbBlockBegin
  2
*D10
 70
     1
 10
0.0
 20
0.0
 30
0.0
  3
*D10
  1
*D10
  0
LINE
  5
3FBB
330
34C6
100
AcDbEntity
  8
寸法線
 62
     0
 48
10.0
100
AcDbLine
 10
177.477761446768
 20
613.337660231314
 30
0.0
 11
177.477761446768
 21
593.723846721452
 31
0.0
  0
LINE
  5
3FBC
330
34C6
100
AcDbEntity
  8
寸法線
 62
     0
 48
10.0
100
AcDbLine
 10
212.477754946768
 20
613.337660231314
 30
0.0
 11
212.477754946768
 21
593.723846721452
 31
0.0
  0
LINE
  5
3FBD
330
34C6
100
AcDbEntity
  8
寸法線
 62
     0
 48
10.0
100
AcDbLine
 10
183.477761446768
 20
594.973846721452
 30
0.0
 11
206.477754946768
 21
594.973846721452
 31
0.0
  0
INSERT
  5
3FBE
330
34C6
100
AcDbEntity
  8
寸法線
 62
     0
100
AcDbBlockReference
  2
_OPEN30
 10
177.477761446768
 20
594.973846721452
 30
0.0
 41
6.0
 42
6.0
 43
6.0
 50
180.0
  0
INSERT
  5
3FBF
330
34C6
100
AcDbEntity
  8
寸法線
 62
     0
100
AcDbBlockReference
  2
_OPEN30
 10
212.477754946768
 20
594.973846721452
 30
0.0
 41
6.0
 42
6.0
 43
6.0
  0
MTEXT
  5
3FC0
330
34C6
100
AcDbEntity
  8
寸法線
 62
     0
 48
10.0
100
AcDbMText
 10
194.977758196768
 20
598.601971721452
 30
0.0
 40
6.0
 41
0.0
 71
     5
 72
     1
  1
\A1;35
  0
POINT
  5
3FC1
330
34C6
100
AcDbEntity
  8
DEFPOINTS
 62
     0
100
AcDbPoint
 10
177.477761446768
 20
613.962660231314
 30
0.0
  0
POINT
  5
3FC2
330
34C6
100
AcDbEntity
  8
DEFPOINTS
 62
     0
100
AcDbPoint
 10
212.477754946768
 20
613.962660231314
 30
0.0
  0
POINT
  5
3FC3
330
34C6
100
AcDbEntity
  8
DEFPOINTS
 62
     0
100
AcDbPoint
 10
212.477754946768
 20
594.973846721452
 30
0.0
  0
ENDBLK
  5
34D1
330
34C6
100
AcDbEntity
  8
0
 48
10.0
100
AcDbBlockEnd
  0
BLOCK
  5
3D88
330
3D7E
100
AcDbEntity
  8
0
 48
10.0
100
AcDbBlockBegin
  2
*D15
 70
     1
 10
0.0
 20
0.0
 30
0.0
  3
*D15
  1
*D15
  0
LINE
  5
3F8A
330
3D7E
100
AcDbEntity
  8
寸法線
 62
     0
 48
10.0
100
AcDbLine
 10
340.778838446768
 20
632.787578981314
 30
0.0
 11
340.778838446768
 21
557.701516961345
 31
0.0
  0
LINE
  5
3F8B
330
3D7E
100
AcDbEntity
  8
寸法線
 62
     0
 48
10.0
100
AcDbLine
 10
370.778838446768
 20
632.787579731314
 30
0.0
 11
370.778838446768
 21
557.701516961345
 31
0.0
  0
LINE
  5
3F8C
330
3D7E
100
AcDbEntity
  8
寸法線
 62
     0
 48
10.0
100
AcDbLine
 10
346.778838446768
 20
558.951516961345
 30
0.0
 11
364.778838446768
 21
558.951516961345
 31
0.0
  0
INSERT
  5
3F8D
330
3D7E
100
AcDbEntity
  8
寸法線
 62
     0
100
AcDbBlockReference
  2
_OPEN30
 10
340.778838446768
 20
558.951516961345
 30
0.0
 41
6.0
 42
6.0
 43
6.0
 50
180.0
  0
INSERT
  5
3F8E
330
3D7E
100
AcDbEntity
  8
寸法線
 62
     0
100
AcDbBlockReference
  2
_OPEN30
 10
370.778838446768
 20
558.951516961345
 30
0.0
 41
6.0
 42
6.0
 43
6.0
  0
MTEXT
  5
3F8F
330
3D7E
100
AcDbEntity
  8
寸法線
 62
     0
 48
10.0
100
AcDbMText
 10
355.778838446768
 20
562.579641961345
 30
0.0
 40
6.0
 41
0.0
 71
     5
 72
     1
  1
\A1;30
  0
POINT
  5
3F90
330
3D7E
100
AcDbEntity
  8
DEFPOINTS
 62
     0
100
AcDbPoint
 10
340.778838446768
 20
633.412578981314
 30
0.0
  0
POINT
  5
3F91
330
3D7E
100
AcDbEntity
  8
DEFPOINTS
 62
     0
100
AcDbPoint
 10
370.778838446768
 20
633.412579731314
 30
0.0
  0
POINT
  5
3F92
330
3D7E
100
AcDbEntity
  8
DEFPOINTS
 62
     0
100
AcDbPoint
 10
370.778838446768
 20
558.951516961345
 30
0.0
  0
ENDBLK
  5
3D89
330
3D7E
100
AcDbEntity
  8
0
 48
10.0
100
AcDbBlockEnd
  0
BLOCK
  5
3EE6
330
3EDC
100
AcDbEntity
  8
0
 62
     1
 48
10.0
100
AcDbBlockBegin
  2
*D16
 70
     1
 10
0.0
 20
0.0
 30
0.0
  3
*D16
  1
*D16
  0
LINE
  5
3F80
330
3EDC
100
AcDbEntity
  8
寸法線
 62
     0
 48
10.0
100
AcDbLine
 10
295.915995443894
 20
663.962377477415
 30
0.0
 11
294.030573882957
 21
663.962377477415
 31
0.0
  0
LINE
  5
3F81
330
3EDC
100
AcDbEntity
  8
寸法線
 62
     0
 48
10.0
100
AcDbLine
 10
295.915995443894
 20
643.962663106906
 30
0.0
 11
294.030573882957
 21
643.962663106906
 31
0.0
  0
LINE
  5
3F82
330
3EDC
100
AcDbEntity
  8
寸法線
 62
     0
 48
10.0
100
AcDbLine
 10
295.280573882957
 20
663.962377477415
 30
0.0
 11
295.280573882957
 21
684.312377477415
 31
0.0
  0
LINE
  5
3F83
330
3EDC
100
AcDbEntity
  8
寸法線
 62
     0
 48
10.0
100
AcDbLine
 10
295.280573882957
 20
657.962377477415
 30
0.0
 11
295.280573882957
 21
649.962663106906
 31
0.0
  0
INSERT
  5
3F84
330
3EDC
100
AcDbEntity
  8
寸法線
 62
     0
100
AcDbBlockReference
  2
_OPEN30
 10
295.280573882957
 20
663.962377477415
 30
0.0
 41
6.0
 42
6.0
 43
6.0
 50
90.0
  0
INSERT
  5
3F85
330
3EDC
100
AcDbEntity
  8
寸法線
 62
     0
100
AcDbBlockReference
  2
_OPEN30
 10
295.280573882957
 20
643.962663106906
 30
0.0
 41
6.0
 42
6.0
 43
6.0
 50
270.0
  0
MTEXT
  5
3F86
330
3EDC
100
AcDbEntity
  8
寸法線
 62
     0
 48
10.0
100
AcDbMText
 10
291.652448882957
 20
677.137377477415
 30
0.0
 40
6.0
 41
0.0
 71
     5
 72
     1
  1
\A1;φ20
 11
0.0
 21
1.0
 31
0.0
  0
POINT
  5
3F87
330
3EDC
100
AcDbEntity
  8
DEFPOINTS
 62
     0
100
AcDbPoint
 10
296.540995443894
 20
663.962377477415
 30
0.0
  0
POINT
  5
3F88
330
3EDC
100
AcDbEntity
  8
DEFPOINTS
 62
     0
100
AcDbPoint
 10
296.540995443894
 20
643.962663106906
 30
0.0
  0
POINT
  5
3F89
330
3EDC
100
AcDbEntity
  8
DEFPOINTS
 62
     0
100
AcDbPoint
 10
295.280573882957
 20
643.962663106906
 30
0.0
  0
ENDBLK
  5
3EE7
330
3EDC
100
AcDbEntity
  8
0
 62
     1
 48
10.0
100
AcDbBlockEnd
  0
BLOCK
  5
402C
330
4023
100
AcDbEntity
  8
0
 62
     1
 48
10.0
100
AcDbBlockBegin
  2
*D19
 70
     1
 10
0.0
 20
0.0
 30
0.0
  3
*D19
  1
*D19
  0
LINE
  5
4043
330
4023
100
AcDbEntity
  8
寸法線
 62
     0
 48
10.0
100
AcDbLine
 10
359.574570902703
 20
671.452602981314
 30
0.0
 11
359.574570902703
 21
692.126867050026
 31
0.0
  0
LINE
  5
4044
330
4023
100
AcDbEntity
  8
寸法線
 62
     0
 48
10.0
100
AcDbLine
 10
359.574570902703
 20
642.452602981314
 30
0.0
 11
359.574570902703
 21
665.452602981314
 31
0.0
  0
INSERT
  5
4045
330
4023
100
AcDbEntity
  8
寸法線
 62
     0
100
AcDbBlockReference
  2
_OPEN30
 10
359.574570902703
 20
636.452602981314
 30
0.0
 41
6.0
 42
6.0
 43
6.0
 50
270.0
  0
INSERT
  5
4046
330
4023
100
AcDbEntity
  8
寸法線
 62
     0
100
AcDbBlockReference
  2
_OPEN30
 10
359.574570902703
 20
671.452602981314
 30
0.0
 41
6.0
 42
6.0
 43
6.0
 50
90.0
  0
MTEXT
  5
4047
330
4023
100
AcDbEntity
  8
寸法線
 62
     0
 48
10.0
100
AcDbMText
 10
355.946445902703
 20
684.951867050026
 30
0.0
 40
6.0
 41
0.0
 71
     5
 72
     1
  1
\A1;φ35
 11
0.0
 21
1.0
 31
0.0
  0
POINT
  5
4048
330
4023
100
AcDbEntity
  8
DEFPOINTS
 62
     0
100
AcDbPoint
 10
370.778838446768
 20
636.452602981314
 30
0.0
  0
POINT
  5
4049
330
4023
100
AcDbEntity
  8
DEFPOINTS
 62
     0
100
AcDbPoint
 10
370.778838446768
 20
671.452602981314
 30
0.0
  0
POINT
  5
404A
330
4023
100
AcDbEntity
  8
DEFPOINTS
 62
     0
100
AcDbPoint
 10
359.574570902703
 20
671.452602981314
 30
0.0
  0
ENDBLK
  5
402D
330
4023
100
AcDbEntity
  8
0
 62
     1
 48
10.0
100
AcDbBlockEnd
  0
BLOCK
  5
447E
330
447D
100
AcDbEntity
  8
0
100
AcDbBlockBegin
  2
*D35
 70
     1
 10
0.0
 20
0.0
 30
0.0
  3
*D35
  1
*D35
  0
LINE
  5
4480
330
447D
100
AcDbEntity
  8
寸法線
 62
     0
 48
10.0
100
AcDbLine
 10
98.630922267169
 20
653.962597731314
 30
0.0
 11
104.643822513871
 21
653.962597731314
 31
0.0
  0
LINE
  5
4481
330
447D
100
AcDbEntity
  8
寸法線
 62
     0
 48
10.0
100
AcDbLine
 10
98.630922267169
 20
644.051133614547
 30
0.0
 11
104.643822513871
 21
644.051133614547
 31
0.0
  0
LINE
  5
4482
330
447D
100
AcDbEntity
  8
寸法線
 62
     0
 48
10.0
100
AcDbLine
 10
103.393822513871
 20
653.962597731314
 30
0.0
 11
103.393822513871
 21
644.051133614547
 31
0.0
  0
LINE
  5
4483
330
447D
100
AcDbEntity
  8
寸法線
 62
     0
 48
10.0
100
AcDbLine
 10
103.393822513871
 20
659.962597731314
 30
0.0
 11
103.393822513871
 21
665.962597731314
 31
0.0
  0
LINE
  5
4484
330
447D
100
AcDbEntity
  8
寸法線
 62
     0
 48
10.0
100
AcDbLine
 10
103.393822513871
 20
638.051133614547
 30
0.0
 11
103.393822513871
 21
632.051133614547
 31
0.0
  0
INSERT
  5
4485
330
447D
100
AcDbEntity
  8
寸法線
 62
     0
100
AcDbBlockReference
  2
_OPEN30
 10
103.393822513871
 20
653.962597731314
 30
0.0
 41
6.0
 42
6.0
 43
6.0
 50
270.0
  0
INSERT
  5
4486
330
447D
100
AcDbEntity
  8
寸法線
 62
     0
100
AcDbBlockReference
  2
_OPEN30
 10
103.393822513871
 20
644.051133614547
 30
0.0
 41
6.0
 42
6.0
 43
6.0
 50
90.0
  0
MTEXT
  5
4487
330
447D
100
AcDbEntity
  8
寸法線
 62
     0
 48
10.0
100
AcDbMText
 10
99.768822513871
 20
649.00686567293
 30
0.0
 40
6.0
 41
0.0
 71
     5
 72
     1
  1
\A1;10
 11
0.0
 21
1.0
 31
0.0
  0
POINT
  5
4488
330
447D
100
AcDbEntity
  8
DEFPOINTS
 62
     0
100
AcDbPoint
 10
98.005922267169
 20
653.962597731314
 30
0.0
  0
POINT
  5
4489
330
447D
100
AcDbEntity
  8
DEFPOINTS
 62
     0
100
AcDbPoint
 10
98.005922267169
 20
644.051133614547
 30
0.0
  0
POINT
  5
448A
330
447D
100
AcDbEntity
  8
DEFPOINTS
 62
     0
100
AcDbPoint
 10
103.393822513871
 20
644.051133614547
 30
0.0
  0
ENDBLK
  5
447F
330
447D
100
AcDbEntity
  8
0
100
AcDbBlockEnd
  0
BLOCK
  5
448C
330
448B
100
AcDbEntity
  8
0
100
AcDbBlockBegin
  2
*D36
 70
     1
 10
0.0
 20
0.0
 30
0.0
  3
*D36
  1
*D36
  0
LINE
  5
448E
330
448B
100
AcDbEntity
  8
寸法線
 62
     0
 48
10.0
100
AcDbLine
 10
31.036833472029
 20
664.979902576727
 30
0.0
 11
31.036833472029
 21
705.199714620033
 31
0.0
  0
LINE
  5
448F
330
448B
100
AcDbEntity
  8
寸法線
 62
     0
 48
10.0
100
AcDbLine
 10
67.036833472029
 20
664.979902576727
 30
0.0
 11
67.036833472029
 21
705.199714620033
 31
0.0
  0
LINE
  5
4490
330
448B
100
AcDbEntity
  8
寸法線
 62
     0
 48
10.0
100
AcDbLine
 10
37.036833472029
 20
703.949714620033
 30
0.0
 11
61.036833472029
 21
703.949714620033
 31
0.0
  0
INSERT
  5
4491
330
448B
100
AcDbEntity
  8
寸法線
 62
     0
100
AcDbBlockReference
  2
_OPEN30
 10
31.036833472029
 20
703.949714620033
 30
0.0
 41
6.0
 42
6.0
 43
6.0
 50
180.0
  0
INSERT
  5
4492
330
448B
100
AcDbEntity
  8
寸法線
 62
     0
100
AcDbBlockReference
  2
_OPEN30
 10
67.036833472029
 20
703.949714620033
 30
0.0
 41
6.0
 42
6.0
 43
6.0
  0
MTEXT
  5
4493
330
448B
100
AcDbEntity
  8
寸法線
 62
     0
 48
10.0
100
AcDbMText
 10
49.036833472029
 20
707.577839620033
 30
0.0
 40
6.0
 41
0.0
 71
     5
 72
     1
  1
\A1;36
  0
POINT
  5
4494
330
448B
100
AcDbEntity
  8
DEFPOINTS
 62
     0
100
AcDbPoint
 10
31.036833472029
 20
664.354902576727
 30
0.0
  0
POINT
  5
4495
330
448B
100
AcDbEntity
  8
DEFPOINTS
 62
     0
100
AcDbPoint
 10
67.036833472029
 20
664.354902576727
 30
0.0
  0
POINT
  5
4496
330
448B
100
AcDbEntity
  8
DEFPOINTS
 62
     0
100
AcDbPoint
 10
67.036833472029
 20
703.949714620033
 30
0.0
  0
ENDBLK
  5
448D
330
448B
100
AcDbEntity
  8
0
100
AcDbBlockEnd
  0
BLOCK
  5
4498
330
4497
100
AcDbEntity
  8
0
100
AcDbBlockBegin
  2
*D37
 70
     1
 10
0.0
 20
0.0
 30
0.0
  3
*D37
  1
*D37
  0
LINE
  5
449A
330
4497
100
AcDbEntity
  8
寸法線
 62
     0
 48
10.0
100
AcDbLine
 10
48.136833472029
 20
623.509123854618
 30
0.0
 11
48.136833472029
 21
624.134123854618
 31
0.0
  0
LINE
  5
449B
330
4497
100
AcDbEntity
  8
寸法線
 62
     0
 48
10.0
100
AcDbLine
 10
49.936833472029
 20
623.509123854618
 30
0.0
 11
49.936833472029
 21
624.134123854618
 31
0.0
  0
LINE
  5
449C
330
4497
100
AcDbEntity
  8
寸法線
 62
     0
 48
10.0
100
AcDbLine
 10
55.936833472029
 20
622.884123854618
 30
0.0
 11
64.386833472029
 21
622.884123854618
 31
0.0
  0
LINE
  5
449D
330
4497
100
AcDbEntity
  8
寸法線
 62
     0
 48
10.0
100
AcDbLine
 10
48.136833472029
 20
622.884123854618
 30
0.0
 11
49.936833472029
 21
622.884123854618
 31
0.0
  0
LINE
  5
449E
330
4497
100
AcDbEntity
  8
寸法線
 62
     0
 48
10.0
100
AcDbLine
 10
42.136833472029
 20
622.884123854618
 30
0.0
 11
36.136833472029
 21
622.884123854618
 31
0.0
  0
INSERT
  5
449F
330
4497
100
AcDbEntity
  8
寸法線
 62
     0
100
AcDbBlockReference
  2
_OPEN30
 10
48.136833472029
 20
622.884123854618
 30
0.0
 41
6.0
 42
6.0
 43
6.0
  0
INSERT
  5
44A0
330
4497
100
AcDbEntity
  8
寸法線
 62
     0
100
AcDbBlockReference
  2
_OPEN30
 10
49.936833472029
 20
622.884123854618
 30
0.0
 41
6.0
 42
6.0
 43
6.0
 50
180.0
  0
MTEXT
  5
44A1
330
4497
100
AcDbEntity
  8
寸法線
 62
     0
 48
10.0
100
AcDbMText
 10
63.161833472029
 20
626.509123854618
 30
0.0
 40
6.0
 41
0.0
 71
     5
 72
     1
  1
\A1;1
  0
POINT
  5
44A2
330
4497
100
AcDbEntity
  8
DEFPOINTS
 62
     0
100
AcDbPoint
 10
48.136833472029
 20
622.884123854618
 30
0.0
  0
POINT
  5
44A3
330
4497
100
AcDbEntity
  8
DEFPOINTS
 62
     0
100
AcDbPoint
 10
49.936833472029
 20
622.884123854618
 30
0.0
  0
POINT
  5
44A4
330
4497
100
AcDbEntity
  8
DEFPOINTS
 62
     0
100
AcDbPoint
 10
49.936833472029
 20
622.884123854618
 30
0.0
  0
ENDBLK
  5
4499
330
4497
100
AcDbEntity
  8
0
100
AcDbBlockEnd
  0
BLOCK
  5
44A6
330
44A5
100
AcDbEntity
  8
0
100
AcDbBlockBegin
  2
*D38
 70
     1
 10
0.0
 20
0.0
 30
0.0
  3
*D38
  1
*D38
  0
LINE
  5
44A8
330
44A5
100
AcDbEntity
  8
寸法線
 62
     0
 48
10.0
100
AcDbLine
 10
413.603818946768
 20
679.462597731314
 30
0.0
 11
472.981596365993
 21
679.462597731314
 31
0.0
  0
LINE
  5
44A9
330
44A5
100
AcDbEntity
  8
寸法線
 62
     0
 48
10.0
100
AcDbLine
 10
413.603818946768
 20
608.462597731314
 30
0.0
 11
472.981596365993
 21
608.462597731314
 31
0.0
  0
LINE
  5
44AA
330
44A5
100
AcDbEntity
  8
寸法線
 62
     0
 48
10.0
100
AcDbLine
 10
471.731596365993
 20
673.462597731314
 30
0.0
 11
471.731596365993
 21
614.462597731314
 31
0.0
  0
INSERT
  5
44AB
330
44A5
100
AcDbEntity
  8
寸法線
 62
     0
100
AcDbBlockReference
  2
_OPEN30
 10
471.731596365993
 20
679.462597731314
 30
0.0
 41
6.0
 42
6.0
 43
6.0
 50
90.0
  0
INSERT
  5
44AC
330
44A5
100
AcDbEntity
  8
寸法線
 62
     0
100
AcDbBlockReference
  2
_OPEN30
 10
471.731596365993
 20
608.462597731314
 30
0.0
 41
6.0
 42
6.0
 43
6.0
 50
270.0
  0
MTEXT
  5
44AD
330
44A5
100
AcDbEntity
  8
寸法線
 62
     0
 48
10.0
100
AcDbMText
 10
468.103471365993
 20
644.137570731314
 30
0.0
 40
6.0
 41
0.0
 71
     5
 72
     1
  1
\A1;φ72
 11
0.0
 21
1.0
 31
0.0
  0
POINT
  5
44AE
330
44A5
100
AcDbEntity
  8
DEFPOINTS
 62
     0
100
AcDbPoint
 10
412.978818946768
 20
679.462597731314
 30
0.0
  0
POINT
  5
44AF
330
44A5
100
AcDbEntity
  8
DEFPOINTS
 62
     0
100
AcDbPoint
 10
412.978818946768
 20
608.462597731314
 30
0.0
  0
POINT
  5
44B0
330
44A5
100
AcDbEntity
  8
DEFPOINTS
 62
     0
100
AcDbPoint
 10
471.731596365993
 20
608.462597731314
 30
0.0
  0
ENDBLK
  5
44A7
330
44A5
100
AcDbEntity
  8
0
100
AcDbBlockEnd
  0
BLOCK
  5
44B5
330
44B4
100
AcDbEntity
  8
0
100
AcDbBlockBegin
  2
*D39
 70
     1
 10
0.0
 20
0.0
 30
0.0
  3
*D39
  1
*D39
  0
LINE
  5
44B7
330
44B4
100
AcDbEntity
  8
寸法線
 62
     0
 48
10.0
100
AcDbLine
 10
370.778838446768
 20
634.437597731314
 30
0.0
 11
370.778838446768
 21
557.701516961345
 31
0.0
  0
LINE
  5
44B8
330
44B4
100
AcDbEntity
  8
寸法線
 62
     0
 48
10.0
100
AcDbLine
 10
453.778838446768
 20
577.784325970963
 30
0.0
 11
453.778838446768
 21
557.701516961345
 31
0.0
  0
LINE
  5
44B9
330
44B4
100
AcDbEntity
  8
寸法線
 62
     0
 48
10.0
100
AcDbLine
 10
376.778838446768
 20
558.951516961345
 30
0.0
 11
447.778838446768
 21
558.951516961345
 31
0.0
  0
INSERT
  5
44BA
330
44B4
100
AcDbEntity
  8
寸法線
 62
     0
100
AcDbBlockReference
  2
_OPEN30
 10
370.778838446768
 20
558.951516961345
 30
0.0
 41
6.0
 42
6.0
 43
6.0
 50
180.0
  0
INSERT
  5
44BB
330
44B4
100
AcDbEntity
  8
寸法線
 62
     0
100
AcDbBlockReference
  2
_OPEN30
 10
453.778838446768
 20
558.951516961345
 30
0.0
 41
6.0
 42
6.0
 43
6.0
  0
MTEXT
  5
44BC
330
44B4
100
AcDbEntity
  8
寸法線
 62
     0
 48
10.0
100
AcDbMText
 10
412.278838446768
 20
562.585891961345
 30
0.0
 40
6.0
 41
0.0
 71
     5
 72
     1
  1
\A1;83
  0
POINT
  5
44BD
330
44B4
100
AcDbEntity
  8
DEFPOINTS
 62
     0
100
AcDbPoint
 10
370.778838446768
 20
635.062597731314
 30
0.0
  0
POINT
  5
44BE
330
44B4
100
AcDbEntity
  8
DEFPOINTS
 62
     0
100
AcDbPoint
 10
453.778838446768
 20
578.409325970963
 30
0.0
  0
POINT
  5
44BF
330
44B4
100
AcDbEntity
  8
DEFPOINTS
 62
     0
100
AcDbPoint
 10
453.778838446768
 20
558.951516961345
 30
0.0
  0
ENDBLK
  5
44B6
330
44B4
100
AcDbEntity
  8
0
100
AcDbBlockEnd
  0
BLOCK
  5
4791
330
4790
100
AcDbEntity
  8
0
100
AcDbBlockBegin
  2
*D60
 70
     1
 10
0.0
 20
0.0
 30
0.0
  3
*D60
  1
*D60
  0
LINE
  5
4793
330
4790
100
AcDbEntity
  8
寸法線
 62
     0
 48
10.0
100
AcDbLine
 10
318.124709444804
 20
667.183097731314
 30
0.0
 11
320.412671520186
 21
667.183097731314
 31
0.0
  0
LINE
  5
4794
330
4790
100
AcDbEntity
  8
寸法線
 62
     0
 48
10.0
100
AcDbLine
 10
318.201787306939
 20
640.742097731314
 30
0.0
 11
320.412671520186
 21
640.742097731314
 31
0.0
  0
LINE
  5
4795
330
4790
100
AcDbEntity
  8
寸法線
 62
     0
 48
10.0
100
AcDbLine
 10
319.162671520186
 20
667.183097731314
 30
0.0
 11
319.162671520186
 21
697.833097731314
 31
0.0
  0
LINE
  5
4796
330
4790
100
AcDbEntity
  8
寸法線
 62
     0
 48
10.0
100
AcDbLine
 10
319.162671520186
 20
661.183097731314
 30
0.0
 11
319.162671520186
 21
646.742097731314
 31
0.0
  0
INSERT
  5
4797
330
4790
100
AcDbEntity
  8
寸法線
 62
     0
100
AcDbBlockReference
  2
_OPEN30
 10
319.162671520186
 20
667.183097731314
 30
0.0
 41
6.0
 42
6.0
 43
6.0
 50
90.0
  0
INSERT
  5
4798
330
4790
100
AcDbEntity
  8
寸法線
 62
     0
100
AcDbBlockReference
  2
_OPEN30
 10
319.162671520186
 20
640.742097731314
 30
0.0
 41
6.0
 42
6.0
 43
6.0
 50
270.0
  0
MTEXT
  5
4799
330
4790
100
AcDbEntity
  8
寸法線
 62
     0
 48
10.0
100
AcDbMText
 10
315.534546520186
 20
685.508097731314
 30
0.0
 40
6.0
 41
0.0
 71
     5
 72
     1
  1
\A1;G 3/4"
 11
0.0
 21
1.0
 31
0.0
  0
POINT
  5
479A
330
4790
100
AcDbEntity
  8
DEFPOINTS
 62
     0
100
AcDbPoint
 10
317.499709444804
 20
667.183097731314
 30
0.0
  0
POINT
  5
479B
330
4790
100
AcDbEntity
  8
DEFPOINTS
 62
     0
100
AcDbPoint
 10
317.576787306939
 20
640.742097731314
 30
0.0
  0
POINT
  5
479C
330
4790
100
AcDbEntity
  8
DEFPOINTS
 62
     0
100
AcDbPoint
 10
319.162671520186
 20
640.742097731314
 30
0.0
  0
ENDBLK
  5
4792
330
4790
100
AcDbEntity
  8
0
100
AcDbBlockEnd
  0
ENDSEC
  0
SECTION
  2
ENTITIES
  0
LINE
  5
3078
330
1A
100
AcDbEntity
  8
外形線
100
AcDbLine
 10
177.477761446768
 20
693.962445231314
 30
0.0
 11
212.477754946768
 21
693.962445231314
 31
0.0
  0
LINE
  5
3079
330
1A
100
AcDbEntity
  8
外形線
100
AcDbLine
 10
214.887627946768
 20
659.742597231314
 30
0.0
 11
212.477754946768
 21
693.962445231314
 31
0.0
  0
LINE
  5
307A
330
1A
100
AcDbEntity
  8
外形線
100
AcDbLine
 10
177.477761446768
 20
693.962445231314
 30
0.0
 11
177.477761446768
 21
613.962660231314
 31
0.0
  0
LINE
  5
307B
330
1A
100
AcDbEntity
  8
外形線
100
AcDbLine
 10
177.477761446768
 20
613.962660231314
 30
0.0
 11
212.477754946768
 21
613.962660231314
 31
0.0
  0
LINE
  5
307C
330
1A
100
AcDbEntity
  8
外形線
100
AcDbLine
 10
214.887627946768
 20
648.182599731314
 30
0.0
 11
212.477754946768
 21
613.962660231314
 31
0.0
  0
CIRCLE
  5
30B4
330
1A
100
AcDbEntity
  8
外形線
 62
     0
100
AcDbCircle
 10
200.976762946768
 20
653.962597731314
 30
0.0
 40
2.499
  0
LINE
  5
30B5
330
1A
100
AcDbEntity
  8
外形線
100
AcDbLine
 10
196.977761446768
 20
648.932599731314
 30
0.0
 11
196.977761446768
 21
658.992597231314
 31
0.0
  0
LINE
  5
30B6
330
1A
100
AcDbEntity
  8
外形線
100
AcDbLine
 10
198.177765946768
 20
659.742597231314
 30
0.0
 11
225.785452478429
 21
659.742597231314
 31
0.0
  0
LINE
  5
30B7
330
1A
100
AcDbEntity
  8
外形線
100
AcDbLine
 10
198.177765946768
 20
659.742597231314
 30
0.0
 11
196.977761446768
 21
658.992597231314
 31
0.0
  0
LINE
  5
30B8
330
1A
100
AcDbEntity
  8
細線
100
AcDbLine
 10
198.244325446768
 20
656.852551731314
 30
0.0
 11
225.71125258469
 21
656.852551731314
 31
0.0
  0
LINE
  5
30B9
330
1A
100
AcDbEntity
  8
外形線
100
AcDbLine
 10
198.177765946768
 20
648.182599731314
 30
0.0
 11
196.977761446768
 21
648.932599731314
 31
0.0
  0
LINE
  5
30BA
330
1A
100
AcDbEntity
  8
外形線
100
AcDbLine
 10
198.177765946768
 20
648.182599731314
 30
0.0
 11
225.777756946768
 21
648.182599731314
 31
0.0
  0
LINE
  5
30BB
330
1A
100
AcDbEntity
  8
細線
100
AcDbLine
 10
198.244325446768
 20
651.072553731314
 30
0.0
 11
225.717795524878
 21
651.072553731314
 31
0.0
  0
CIRCLE
  5
30BE
330
1A
100
AcDbEntity
  8
外形線
 62
     0
100
AcDbCircle
 10
219.477761446768
 20
653.962597731314
 30
0.0
 40
0.9999
  0
ARC
  5
30C8
330
1A
100
AcDbEntity
  8
細線
100
AcDbCircle
 10
200.908188946768
 20
653.962552731314
 30
0.0
 40
3.9304305
100
AcDbArc
 50
132.668434758324
 51
227.331604937362
  0
ARC
  5
30C9
330
1A
100
AcDbEntity
  8
細線
100
AcDbCircle
 10
200.148003946768
 20
659.424039231314
 30
0.0
 40
3.1994565
100
AcDbArc
 50
187.749961576341
 51
233.487520784031
  0
ARC
  5
30CA
330
1A
100
AcDbEntity
  8
細線
100
AcDbCircle
 10
200.148003946768
 20
648.501157731314
 30
0.0
 40
3.1994565
100
AcDbArc
 50
126.512518911656
 51
172.250078119342
  0
LINE
  5
30D3
330
1A
100
AcDbEntity
  8
外形線
100
AcDbLine
 10
226.977761446768
 20
658.997406920565
 30
0.0
 11
226.977761446768
 21
648.937409420565
 31
0.0
  0
LINE
  5
30D4
330
1A
100
AcDbEntity
  8
外形線
100
AcDbLine
 10
225.777756946768
 20
648.187409420565
 30
0.0
 11
226.977761446768
 21
648.937409420565
 31
0.0
  0
LINE
  5
30D5
330
1A
100
AcDbEntity
  8
外形線
100
AcDbLine
 10
225.785452478429
 20
659.742597231314
 30
0.0
 11
226.985456978429
 21
658.992597231314
 31
0.0
  0
ARC
  5
30D6
330
1A
100
AcDbEntity
  8
細線
100
AcDbCircle
 10
223.047333946768
 20
653.967453920565
 30
0.0
 40
3.9304305
100
AcDbArc
 50
312.668434758324
 51
47.331604937362
  0
ARC
  5
30D7
330
1A
100
AcDbEntity
  8
細線
100
AcDbCircle
 10
223.807518946768
 20
648.505967420565
 30
0.0
 40
3.1994565
100
AcDbArc
 50
7.749961576341
 51
53.487520784031
  0
ARC
  5
30D8
330
1A
100
AcDbEntity
  8
細線
100
AcDbCircle
 10
223.807518946768
 20
659.428848920565
 30
0.0
 40
3.1994565
100
AcDbArc
 50
306.512518911656
 51
352.250078119342
  0
LINE
  5
30DA
330
1A
100
AcDbEntity
  8
中心線
 48
10.0
100
AcDbLine
 10
200.976762946768
 20
656.852551731314
 30
0.0
 11
200.976762946768
 21
651.072553731314
 31
0.0
  0
LINE
  5
30DC
330
1A
100
AcDbEntity
  8
中心線
 48
10.0
100
AcDbLine
 10
219.477761446768
 20
656.026288731314
 30
0.0
 11
219.477761446768
 21
651.898906731314
 31
0.0
  0
LINE
  5
30DE
330
1A
100
AcDbEntity
  8
中心線
 48
10.0
100
AcDbLine
 10
171.422553224858
 20
653.962597731314
 30
0.0
 11
381.810817729312
 21
653.962597731314
 31
0.0
  0
DIMENSION
  5
347D
330
1A
100
AcDbEntity
  8
寸法線
 48
10.0
100
AcDbDimension
  2
*D8
 10
229.592915223144
 20
650.962597731314
 30
0.0
 11
229.592915223144
 21
676.066196121907
 31
0.0
 70
   160
  1
φ<>
  3
ISO-25
100
AcDbAlignedDimension
 13
229.592915223143
 23
656.962642731314
 33
0.0
 14
227.937776481558
 24
650.962597731314
 34
0.0
 50
90.0
100
AcDbRotatedDimension
1001
ACAD
1000
DSTYLE
1002
{
1070
     5
1000
OPEN30
1070
    41
1040
6.0
1070
    47
1040
0.1
1070
    48
1040
0.1
1070
    73
1070
     0
1070
   140
1040
6.0
1070
   271
1070
     1
1070
   272
1070
     1
1070
   341
1005
2AF4
1002
}
  0
DIMENSION
  5
34B8
330
1A
100
AcDbEntity
  8
寸法線
 48
10.0
100
AcDbDimension
  2
*D9
 10
158.106305274762
 20
613.962660231314
 30
0.0
 11
154.475055274762
 21
653.962552731314
 31
0.0
 70
    32
  3
ISO-25
100
AcDbAlignedDimension
 13
177.477761446768
 23
693.962445231314
 33
0.0
 14
177.477761446768
 24
613.962660231314
 34
0.0
 50
90.0
100
AcDbRotatedDimension
1001
ACAD
1000
DSTYLE
1002
{
1070
     5
1000
OPEN30
1070
    41
1040
6.0
1070
    47
1040
0.1
1070
    48
1040
0.1
1070
    73
1070
     0
1070
   140
1040
6.0
1070
   271
1070
     1
1070
   272
1070
     1
1070
   341
1005
2AF4
1002
}
  0
DIMENSION
  5
34C5
330
1A
100
AcDbEntity
  8
寸法線
 48
10.0
100
AcDbDimension
  2
*D10
 10
212.477754946768
 20
594.973846721452
 30
0.0
 11
194.977758196768
 21
598.601971721452
 31
0.0
 70
    32
  3
ISO-25
100
AcDbAlignedDimension
 13
177.477761446768
 23
613.962660231314
 33
0.0
 14
212.477754946768
 24
613.962660231314
 34
0.0
100
AcDbRotatedDimension
1001
ACAD
1000
DSTYLE
1002
{
1070
     5
1000
OPEN30
1070
    41
1040
6.0
1070
    47
1040
0.1
1070
    48
1040
0.1
1070
    73
1070
     0
1070
   140
1040
6.0
1070
   271
1070
     1
1070
   272
1070
     1
1070
   341
1005
2AF4
1002
}
  0
LINE
  5
35B4
330
1A
100
AcDbEntity
  8
下書線
 48
10.0
100
AcDbLine
 10
293.145146328647
 20
715.27074778151
 30
0.0
 11
461.084034629294
 21
715.27074778151
 31
0.0
  0
LINE
  5
35B5
330
1A
100
AcDbEntity
  8
下書線
 48
10.0
100
AcDbLine
 10
161.115692510744
 20
735.297011626293
 30
0.0
 11
495.396505992642
 21
735.297011626293
 31
0.0
  0
LINE
  5
379C
330
1A
100
AcDbEntity
  8
外形線
100
AcDbLine
 10
235.377770446768
 20
650.962642731314
 30
0.0
 11
226.977761446768
 21
650.962642731314
 31
0.0
  0
LINE
  5
379F
330
1A
100
AcDbEntity
  8
外形線
100
AcDbLine
 10
235.377770446768
 20
656.962642731314
 30
0.0
 11
226.977761446768
 21
656.962642731314
 31
0.0
  0
LINE
  5
3D4A
330
1A
100
AcDbEntity
  8
外形線
100
AcDbLine
 10
370.778838446768
 20
636.472592481314
 30
0.0
 11
340.778838446768
 21
636.472592481314
 31
0.0
  0
LINE
  5
3D4B
330
1A
100
AcDbEntity
  8
外形線
100
AcDbLine
 10
370.778838446768
 20
671.452602981314
 30
0.0
 11
340.778838446768
 21
671.452602981314
 31
0.0
  0
LINE
  5
3D4C
330
1A
100
AcDbEntity
  8
外形線
100
AcDbLine
 10
340.778838446768
 20
674.512569981314
 30
0.0
 11
340.778838446768
 21
633.412578981314
 31
0.0
  0
LINE
  5
3D4D
330
1A
100
AcDbEntity
  8
外形線
100
AcDbLine
 10
340.778838446768
 20
674.512569981314
 30
0.0
 11
339.278838446768
 21
674.512569981314
 31
0.0
  0
LINE
  5
3D4E
330
1A
100
AcDbEntity
  8
外形線
100
AcDbLine
 10
339.278838446768
 20
674.512569981314
 30
0.0
 11
339.278838446768
 21
633.412578981314
 31
0.0
  0
LINE
  5
3D4F
330
1A
100
AcDbEntity
  8
外形線
100
AcDbLine
 10
340.778838446768
 20
633.412578981314
 30
0.0
 11
339.278838446768
 21
633.412578981314
 31
0.0
  0
LINE
  5
3D54
330
1A
100
AcDbEntity
  8
隠れ線
 62
     3
 48
10.0
100
AcDbLine
 10
339.278838446768
 20
633.412623981314
 30
0.0
 11
339.278838446768
 21
602.886314990208
 31
0.0
  0
LINE
  5
3D67
330
1A
100
AcDbEntity
  8
外形線
100
AcDbLine
 10
272.887109155846
 20
663.962452070642
 30
0.0
 11
235.377770446768
 21
663.962444481314
 31
0.0
  0
LINE
  5
3D70
330
1A
100
AcDbEntity
  8
外形線
100
AcDbLine
 10
272.887103949359
 20
643.962612321704
 30
0.0
 11
235.377770446768
 21
643.962659481314
 31
0.0
  0
LINE
  5
3D79
330
1A
100
AcDbEntity
  8
外形線
100
AcDbLine
 10
235.377770446768
 20
663.962444481314
 30
0.0
 11
235.377770446768
 21
643.962659481314
 31
0.0
  0
LINE
  5
3D7B
330
1A
100
AcDbEntity
  8
隠れ線
 62
     3
 48
10.0
100
AcDbLine
 10
339.278838446768
 20
674.512569981314
 30
0.0
 11
339.278838446768
 21
700.872600312122
 31
0.0
  0
DIMENSION
  5
3D7D
330
1A
100
AcDbEntity
  8
寸法線
 48
10.0
100
AcDbDimension
  2
*D15
 10
370.778838446768
 20
558.951516961345
 30
0.0
 11
355.778838446768
 21
562.579641961345
 31
0.0
 70
    32
  3
ISO-25
100
AcDbAlignedDimension
 13
340.778838446768
 23
633.412578981314
 33
0.0
 14
370.778838446768
 24
633.412579731314
 34
0.0
100
AcDbRotatedDimension
1001
ACAD
1000
DSTYLE
1002
{
1070
     5
1000
OPEN30
1070
    41
1040
6.0
1070
    47
1040
0.1
1070
    48
1040
0.1
1070
    73
1070
     0
1070
   140
1040
6.0
1070
   271
1070
     1
1070
   272
1070
     1
1070
   341
1005
2AF4
1002
}
  0
LINE
  5
3DD6
330
1A
100
AcDbEntity
  8
外形線
100
AcDbLine
 10
275.94093931486
 20
656.962529977416
 30
0.0
 11
271.75830781486
 21
656.962529977416
 31
0.0
  0
ARC
  5
3DD7
330
1A
100
AcDbEntity
  8
細線
100
AcDbCircle
 10
281.62446481486
 20
658.962499477416
 30
0.0
 40
10.0668165
100
AcDbArc
 50
150.219679009225
 51
209.780303390683
  0
ARC
  5
3DD8
330
1A
100
AcDbEntity
  8
細線
100
AcDbCircle
 10
264.56068381486
 20
659.037206977415
 30
0.0
 40
9.674058
100
AcDbArc
 50
347.616416390627
 51
30.605153280396
  0
ARC
  5
3DD9
330
1A
100
AcDbEntity
  8
細線
100
AcDbCircle
 10
289.70983081486
 20
658.962499477416
 30
0.0
 40
9.910074000000002
100
AcDbArc
 50
149.699719810145
 51
210.300262589759
  0
LINE
  5
3DDA
330
1A
100
AcDbEntity
  8
外形線
100
AcDbLine
 10
277.94722681486
 20
656.962529977416
 30
0.0
 11
280.00366081486
 21
656.962529977416
 31
0.0
  0
ARC
  5
3DDB
330
1A
100
AcDbEntity
  8
細線
100
AcDbCircle
 10
273.342862583891
 20
655.462529077416
 30
0.0
 40
3.0
100
AcDbArc
 50
330.000019847839
 51
30.000019847843
  0
ARC
  5
3DDC
330
1A
100
AcDbEntity
  8
細線
100
AcDbCircle
 10
278.539015006598
 20
655.462530877416
 30
0.0
 40
3.0
100
AcDbArc
 50
150.000019847839
 51
210.000019847843
  0
ARC
  5
3DDD
330
1A
100
AcDbEntity
  8
細線
100
AcDbCircle
 10
280.545303026213
 20
655.462529977416
 30
0.0
 40
3.0
100
AcDbArc
 50
149.999999999999
 51
210.000000000001
  0
LINE
  5
3DDE
330
1A
100
AcDbEntity
  8
外形線
100
AcDbLine
 10
275.94093931486
 20
650.962529977416
 30
0.0
 11
274.03314181486
 21
650.962529977416
 31
0.0
  0
ARC
  5
3DDF
330
1A
100
AcDbEntity
  8
細線
100
AcDbCircle
 10
264.29824681486
 20
648.962560477416
 30
0.0
 40
9.938206500000001
100
AcDbArc
 50
329.794449581516
 51
30.205515218284
  0
ARC
  5
3DE0
330
1A
100
AcDbEntity
  8
細線
100
AcDbCircle
 10
272.32128781486
 20
648.962560477416
 30
0.0
 40
10.1493
100
AcDbArc
 50
330.485780457128
 51
29.514241638456
  0
ARC
  5
3DE1
330
1A
100
AcDbEntity
  8
細線
100
AcDbCircle
 10
289.85743681486
 20
649.057592977416
 30
0.0
 40
10.08543
100
AcDbArc
 50
169.112389345873
 51
210.343119832836
  0
LINE
  5
3DE2
330
1A
100
AcDbEntity
  8
外形線
100
AcDbLine
 10
277.94722681486
 20
650.962529977416
 30
0.0
 11
282.27158281486
 21
650.962529977416
 31
0.0
  0
ARC
  5
3DE3
330
1A
100
AcDbEntity
  8
細線
100
AcDbCircle
 10
273.342863623123
 20
652.462529077416
 30
0.0
 40
3.0
100
AcDbArc
 50
330.000019847839
 51
30.000019847843
  0
ARC
  5
3DE4
330
1A
100
AcDbEntity
  8
細線
100
AcDbCircle
 10
280.545303026213
 20
652.462529977416
 30
0.0
 40
3.0
100
AcDbArc
 50
149.999999999999
 51
210.000000000001
  0
ARC
  5
3DE5
330
1A
100
AcDbEntity
  8
細線
100
AcDbCircle
 10
275.349150603506
 20
652.462529977416
 30
0.0
 40
3.0
100
AcDbArc
 50
329.999999999999
 51
30.000000000001
  0
LINE
  5
3DE6
330
1A
100
AcDbEntity
  8
外形線
100
AcDbLine
 10
281.15350060439
 20
663.962377477416
 30
0.0
 11
315.778838446778
 21
663.962377477415
 31
0.0
  0
LINE
  5
3DE7
330
1A
100
AcDbEntity
  8
外形線
100
AcDbLine
 10
281.153553319575
 20
643.962663106906
 30
0.0
 11
315.778838446778
 21
643.962663106906
 31
0.0
  0
MTEXT
  5
3E4A
330
1A
100
AcDbEntity
  8
寸法線
 48
10.0
100
AcDbMText
 10
466.056316260127
 20
735.442164689165
 30
0.0
 40
6.0
 41
0.0
 71
     7
 72
     1
  1
\A1;亜鉛ダイカスト
  0
MTEXT
  5
3E4C
330
1A
100
AcDbEntity
  8
寸法線
 48
10.0
100
AcDbMText
 10
406.9375748336
 20
715.89574778151
 30
0.0
 40
6.0
 41
0.0
 71
     7
 72
     1
  1
\A1;Oリング
  0
MTEXT
  5
3E4E
330
1A
100
AcDbEntity
  8
寸法線
 48
10.0
100
AcDbMText
 10
410.096272599468
 20
735.922011626293
 30
0.0
 40
6.0
 41
0.0
 71
     7
 72
     1
  1
\A1;亜鉛ダイカスト
  0
MTEXT
  5
3E50
330
1A
100
AcDbEntity
  8
寸法線
 48
10.0
100
AcDbMText
 10
346.879289546983
 20
715.89574778151
 30
0.0
 40
6.0
 41
0.0
 71
     7
 72
     1
  1
ゴム\Pパッキン
  0
MTEXT
  5
3E52
330
1A
100
AcDbEntity
  8
寸法線
 48
10.0
100
AcDbMText
 10
336.856870692851
 20
735.922011626293
 30
0.0
 40
6.0
 41
0.0
 71
     7
 72
     1
  1
\A1;貴取付板
  0
MTEXT
  5
3E54
330
1A
100
AcDbEntity
  8
寸法線
 48
10.0
100
AcDbMText
 10
324.018685082103
 20
735.922011626293
 30
0.0
 40
6.0
 41
0.0
 71
     9
 72
     1
  1
\A1;座金\PSUS304
  0
MTEXT
  5
3E56
330
1A
100
AcDbEntity
  8
寸法線
 48
10.0
100
AcDbMText
 10
313.871737544731
 20
715.89574778151
 30
0.0
 40
6.0
 41
0.0
 71
     9
 72
     1
  1
\A1;ナット\PSUS304
  0
MTEXT
  5
3E59
330
1A
100
AcDbEntity
  8
寸法線
 48
10.0
100
AcDbMText
 10
273.185956183244
 20
735.922011626293
 30
0.0
 40
6.0
 41
0.0
 71
     9
 72
     1
  1
\A1;SUS304
  0
MTEXT
  5
3E5B
330
1A
100
AcDbEntity
  8
寸法線
 48
10.0
100
AcDbMText
 10
235.445330741995
 20
735.922011626293
 30
0.0
 40
6.0
 41
0.0
 71
     9
 72
     1
  1
\A1;SUS304
  0
MTEXT
  5
3E5D
330
1A
100
AcDbEntity
  8
寸法線
 48
10.0
100
AcDbMText
 10
182.060204392781
 20
735.922011626293
 30
0.0
 40
6.0
 41
0.0
 71
     9
 72
     1
  1
\A1;SUS304
  0
MTEXT
  5
3E5F
330
1A
100
AcDbEntity
  8
寸法線
 48
10.0
100
AcDbMText
 10
233.35923422017
 20
612.674461754911
 30
0.0
 40
6.0
 41
0.0
 71
     7
 72
     1
  1
\A1;φ2割ピン
  0
SPLINE
  5
3E85
330
1A
100
AcDbEntity
  8
寸法線
 48
10.0
100
AcDbSpline
210
0.0
220
0.0
230
1.0
 70
  1064
 71
     3
 72
    13
 73
     9
 74
     7
 42
0.000000001
 43
0.0000000001
 44
0.0000000001
 40
0.0
 40
0.0
 40
0.0
 40
0.0
 40
3.094737691369779
 40
8.098032954151758
 40
12.13064821938863
 40
14.91961887704707
 40
16.40265124976729
 40
17.478150104342
 40
17.478150104342
 40
17.478150104342
 40
17.478150104342
 10
257.4047066974877
 20
559.7086610287672
 30
0.0
 10
258.3250222777742
 20
560.1337915604362
 30
0.0
 10
260.7332218218463
 20
561.2462351335612
 30
0.0
 10
261.31353039467
 20
569.0121611316578
 30
0.0
 10
257.8808295779597
 20
563.4266308125809
 30
0.0
 10
258.0311448037355
 20
560.591124579648
 30
0.0
 10
259.8396815580477
 20
559.4803006580689
 30
0.0
 10
260.6396269354174
 20
559.8804610221732
 30
0.0
 10
260.9758903071148
 20
560.04867159887
 30
0.0
 11
257.4047066974877
 21
559.7086610287672
 31
0.0
 11
259.8705238026066
 21
561.5787271726476
 31
0.0
 11
260.4232070548607
 21
566.551402982436
 31
0.0
 11
258.2549891058932
 21
563.1512828664406
 31
0.0
 11
258.6376162940787
 21
560.3886837706359
 31
0.0
 11
259.9555518346411
 21
559.7086610287672
 31
0.0
 11
260.9758903071148
 21
560.04867159887
 31
0.0
  0
LINE
  5
3E98
330
1A
100
AcDbEntity
  8
寸法線
 48
10.0
100
AcDbLine
 10
177.477761446768
 20
593.098846721452
 30
0.0
 11
177.477761446768
 21
557.701516961345
 31
0.0
  0
LINE
  5
3E99
330
1A
100
AcDbEntity
  8
寸法線
 48
10.0
100
AcDbLine
 10
340.778838446768
 20
632.787578981314
 30
0.0
 11
340.778838446768
 21
557.701516961345
 31
0.0
  0
LINE
  5
3E9A
330
1A
100
AcDbEntity
  8
寸法線
 48
10.0
100
AcDbLine
 10
183.477761446768
 20
558.951516961345
 30
0.0
 11
334.778838446768
 21
558.951516961345
 31
0.0
  0
INSERT
  5
3E9B
330
1A
100
AcDbEntity
  8
寸法線
 48
10.0
100
AcDbBlockReference
  2
_OPEN30
 10
177.477761446768
 20
558.951516961345
 30
0.0
 41
6.0
 42
6.0
 43
6.0
 50
180.0
  0
INSERT
  5
3E9C
330
1A
100
AcDbEntity
  8
寸法線
 48
10.0
100
AcDbBlockReference
  2
_OPEN30
 10
340.778838446768
 20
558.951516961345
 30
0.0
 41
6.0
 42
6.0
 43
6.0
  0
DIMENSION
  5
3EDB
330
1A
100
AcDbEntity
  8
寸法線
 62
     1
 48
10.0
100
AcDbDimension
  2
*D16
 10
295.280573882957
 20
643.962663106906
 30
0.0
 11
295.280573882957
 21
677.137377477415
 31
0.0
 70
   160
  1
φ<>
  3
ISO-25
100
AcDbAlignedDimension
 13
296.540995443894
 23
663.962377477415
 33
0.0
 14
296.540995443894
 24
643.962663106906
 34
0.0
 50
90.0
100
AcDbRotatedDimension
1001
ACAD
1000
DSTYLE
1002
{
1070
     5
1000
OPEN30
1070
    41
1040
6.0
1070
    47
1040
0.1
1070
    48
1040
0.1
1070
    73
1070
     0
1070
   140
1040
6.0
1070
   271
1070
     1
1070
   272
1070
     1
1070
   341
1005
2AF4
1002
}
  0
LEADER
  5
3F0F
330
1A
100
AcDbEntity
  8
寸法線
 62
     1
 48
10.0
100
AcDbLeader
  3
ISO-25
 76
     3
 10
194.27712506032
 20
693.946809014786
 30
0.0
 10
182.110685119144
 20
735.256870674489
 30
0.0
 10
175.999804863327
 20
735.256870674489
 30
0.0
1001
ACAD
1000
DSTYLE
1002
{
1070
     5
1000
OPEN30
1070
   147
1040
0.625
1070
    77
1070
     1
1070
    41
1040
6.0
1070
    47
1040
0.1
1070
    48
1040
0.1
1070
    73
1070
     0
1070
   140
1040
5.0
1070
   271
1070
     1
1070
   272
1070
     1
1070
   341
1005
2AF4
1070
   342
1005
2AF4
1002
}
  0
LEADER
  5
3F10
330
1A
100
AcDbEntity
  8
寸法線
 62
     1
 48
10.0
100
AcDbLeader
  3
ISO-25
 76
     3
 10
233.003763682409
 20
656.971660682847
 30
0.0
 10
234.884635979531
 20
735.192681015009
 30
0.0
 10
228.309847154289
 20
735.192681015009
 30
0.0
1001
ACAD
1000
DSTYLE
1002
{
1070
     5
1000
OPEN30
1070
   147
1040
0.625
1070
    77
1070
     1
1070
    41
1040
6.0
1070
    47
1040
0.1
1070
    48
1040
0.1
1070
    73
1070
     0
1070
   140
1040
5.0
1070
   271
1070
     1
1070
   272
1070
     1
1070
   341
1005
2AF4
1070
   342
1005
2AF4
1002
}
  0
LEADER
  5
3F11
330
1A
100
AcDbEntity
  8
寸法線
 62
     1
 48
10.0
100
AcDbLeader
  3
ISO-25
 76
     3
 10
283.385727409449
 20
663.908920481668
 30
0.0
 10
272.599463408371
 20
735.323098527962
 30
0.0
 10
265.565564891126
 20
735.323098527962
 30
0.0
1001
ACAD
1000
DSTYLE
1002
{
1070
     5
1000
OPEN30
1070
   147
1040
0.625
1070
    77
1070
     1
1070
    41
1040
6.0
1070
    47
1040
0.1
1070
    48
1040
0.1
1070
    73
1070
     0
1070
   140
1040
5.0
1070
   271
1070
     1
1070
   272
1070
     1
1070
   341
1005
2AF4
1070
   342
1005
2AF4
1002
}
  0
LEADER
  5
3F12
330
1A
100
AcDbEntity
  8
寸法線
 62
     1
 48
10.0
100
AcDbLeader
  3
ISO-25
 76
     3
 10
328.503657164394
 20
675.048667924722
 30
0.0
 10
313.49494485344
 20
715.292976145098
 30
0.0
 10
305.635041428937
 20
715.292976145098
 30
0.0
1001
ACAD
1000
DSTYLE
1002
{
1070
     5
1000
OPEN30
1070
   147
1040
0.625
1070
    77
1070
     1
1070
    41
1040
6.0
1070
    47
1040
0.1
1070
    48
1040
0.1
1070
    73
1070
     0
1070
   140
1040
5.0
1070
   271
1070
     1
1070
   272
1070
     1
1070
   341
1005
2AF4
1070
   342
1005
2AF4
1002
}
  0
LEADER
  5
3F13
330
1A
100
AcDbEntity
  8
寸法線
 62
     1
 48
10.0
100
AcDbLeader
  3
ISO-25
 76
     3
 10
334.013626804144
 20
676.460408724878
 30
0.0
 10
324.443776138989
 20
735.285643670775
 30
0.0
 10
317.699811400985
 20
735.285643670775
 30
0.0
1001
ACAD
1000
DSTYLE
1002
{
1070
     5
1000
OPEN30
1070
   147
1040
0.625
1070
    77
1070
     1
1070
    41
1040
6.0
1070
    47
1040
0.1
1070
    48
1040
0.1
1070
    73
1070
     0
1070
   140
1040
5.0
1070
   271
1070
     1
1070
   272
1070
     1
1070
   341
1005
2AF4
1070
   342
1005
2AF4
1002
}
  0
LEADER
  5
3F15
330
1A
100
AcDbEntity
  8
寸法線
 62
     1
 48
10.0
100
AcDbLeader
  3
ISO-25
 76
     3
 10
337.618119986
 20
702.864466630189
 30
0.0
 10
337.618119986
 20
735.285643670775
 30
0.0
 10
343.732885047348
 20
735.285643670775
 30
0.0
1001
ACAD
1000
DSTYLE
1002
{
1070
     5
1000
OPEN30
1070
   147
1040
0.625
1070
    77
1070
     1
1070
    41
1040
6.0
1070
    47
1040
0.1
1070
    48
1040
0.1
1070
    73
1070
     0
1070
   140
1040
5.0
1070
   271
1070
     1
1070
   272
1070
     1
1070
   341
1005
2AF4
1070
   342
1005
2AF4
1002
}
  0
LEADER
  5
3F16
330
1A
100
AcDbEntity
  8
寸法線
 62
     1
 48
10.0
100
AcDbLeader
  3
ISO-25
 76
     3
 10
339.92557914445
 20
674.587414759725
 30
0.0
 10
347.3697208142
 20
715.292976145098
 30
0.0
 10
354.714912066219
 20
715.292976145098
 30
0.0
1001
ACAD
1000
DSTYLE
1002
{
1070
     5
1000
OPEN30
1070
   147
1040
0.625
1070
    77
1070
     1
1070
    41
1040
6.0
1070
    47
1040
0.1
1070
    48
1040
0.1
1070
    73
1070
     0
1070
   140
1040
5.0
1070
   271
1070
     1
1070
   272
1070
     1
1070
   341
1005
2AF4
1070
   342
1005
2AF4
1002
}
  0
LEADER
  5
3F17
330
1A
100
AcDbEntity
  8
寸法線
 62
     1
 48
10.0
100
AcDbLeader
  3
ISO-25
 76
     3
 10
387.586566258083
 20
677.25153264055
 30
0.0
 10
409.857749001015
 20
735.225466345417
 30
0.0
 10
418.092998307755
 20
735.225466345417
 30
0.0
1001
ACAD
1000
DSTYLE
1002
{
1070
     5
1000
OPEN30
1070
   147
1040
0.625
1070
    77
1070
     1
1070
    41
1040
6.0
1070
    47
1040
0.1
1070
    48
1040
0.1
1070
    73
1070
     0
1070
   140
1040
5.0
1070
   271
1070
     1
1070
   272
1070
     1
1070
   341
1005
2AF4
1070
   342
1005
2AF4
1002
}
  0
LEADER
  5
3F18
330
1A
100
AcDbEntity
  8
寸法線
 62
     1
 48
10.0
100
AcDbLeader
  3
ISO-25
 76
     3
 10
404.084919286865
 20
679.461024097412
 30
0.0
 10
407.112883972929
 20
715.271360527718
 30
0.0
 10
414.539516355187
 20
715.271360527718
 30
0.0
1001
ACAD
1000
DSTYLE
1002
{
1070
     5
1000
OPEN30
1070
   147
1040
0.625
1070
    77
1070
     1
1070
    41
1040
6.0
1070
    47
1040
0.1
1070
    48
1040
0.1
1070
    73
1070
     0
1070
   140
1040
5.0
1070
   271
1070
     1
1070
   272
1070
     1
1070
   341
1005
2AF4
1070
   342
1005
2AF4
1002
}
  0
LEADER
  5
3F19
330
1A
100
AcDbEntity
  8
寸法線
 62
     1
 48
10.0
100
AcDbLeader
  3
ISO-25
 76
     3
 10
442.474482590612
 20
677.167919312418
 30
0.0
 10
465.459571908881
 20
735.291386740337
 30
0.0
 10
472.610155382278
 20
735.291386740337
 30
0.0
1001
ACAD
1000
DSTYLE
1002
{
1070
     5
1000
OPEN30
1070
   147
1040
0.625
1070
    77
1070
     1
1070
    41
1040
6.0
1070
    47
1040
0.1
1070
    48
1040
0.1
1070
    73
1070
     0
1070
   140
1040
5.0
1070
   271
1070
     1
1070
   272
1070
     1
1070
   341
1005
2AF4
1070
   342
1005
2AF4
1002
}
  0
LEADER
  5
3F1C
330
1A
100
AcDbEntity
  8
寸法線
 62
     1
 48
10.0
100
AcDbLeader
  3
ISO-25
 76
     3
 10
220.00635096574
 20
653.063205308532
 30
0.0
 10
232.026845078518
 20
612.128072207162
 30
0.0
 10
241.443838368306
 20
612.128072207162
 30
0.0
213
-20.84490294164044
223
0.0
233
0.0
1001
ACAD
1000
DSTYLE
1002
{
1070
     5
1000
OPEN30
1070
   147
1040
0.625
1070
    77
1070
     1
1070
    41
1040
6.0
1070
    47
1040
0.1
1070
    48
1040
0.1
1070
    73
1070
     0
1070
   140
1040
5.0
1070
   271
1070
     1
1070
   272
1070
     1
1070
   341
1005
2AF4
1070
   342
1005
2AF4
1002
}
  0
MTEXT
  5
4020
330
1A
100
AcDbEntity
  8
寸法線
 48
10.0
100
AcDbMText
 10
377.891748517943
 20
741.227916849293
 30
0.0
 40
6.0
 41
21.514934650843
 71
     1
 72
     5
  1
SUS303
  0
LEADER
  5
4021
330
1A
100
AcDbEntity
  8
寸法線
 48
10.0
100
AcDbLeader
  3
ISO-25
 76
     3
 10
367.918848862491
 20
671.391501986917
 30
0.0
 10
377.793191597628
 20
734.941284404451
 30
0.0
 10
384.953715370236
 20
734.941284404451
 30
0.0
1001
ACAD
1000
DSTYLE
1002
{
1070
     5
1000
OPEN30
1070
   147
1040
0.625
1070
    77
1070
     1
1070
    41
1040
6.0
1070
    47
1040
0.1
1070
    48
1040
0.1
1070
    73
1070
     0
1070
   140
1040
6.0
1070
   271
1070
     1
1070
   272
1070
     1
1070
   341
1005
2AF4
1070
   342
1005
2AF4
1002
}
  0
DIMENSION
  5
4022
330
1A
100
AcDbEntity
  8
寸法線
 48
10.0
100
AcDbDimension
  2
*D19
 10
359.574570902703
 20
671.452602981314
 30
0.0
 11
359.574570902703
 21
684.951867050026
 31
0.0
 70
   160
  1
φ<>
  3
ISO-25
100
AcDbAlignedDimension
 13
370.778838446768
 23
636.452602981314
 33
0.0
 14
370.778838446768
 24
671.452602981314
 34
0.0
 50
90.0
100
AcDbRotatedDimension
1001
ACAD
1000
DSTYLE
1002
{
1070
     5
1000
OPEN30
1070
    76
1070
     1
1070
    75
1070
     1
1070
    41
1040
6.0
1070
    47
1040
0.1
1070
    48
1040
0.1
1070
    73
1070
     0
1070
   140
1040
6.0
1070
   271
1070
     1
1070
   272
1070
     1
1070
   341
1005
2AF4
1002
}
  0
ARC
  5
42C9
330
1A
100
AcDbEntity
  8
外形線
 48
10.0
100
AcDbCircle
 10
49.036833472029
 20
644.051133614547
 30
0.0
 40
36.0
100
AcDbArc
 50
91.432543737567
 51
88.567456262433
  0
ARC
  5
42CA
330
1A
100
AcDbEntity
  8
細線
 48
10.0
100
AcDbCircle
 10
49.036833472029
 20
644.051133614547
 30
0.0
 40
34.5
100
AcDbArc
 50
91.494842089047
 51
88.505157910953
  0
LINE
  5
42CB
330
1A
100
AcDbEntity
  8
中心線
 48
10.0
100
AcDbLine
 10
64.668790459558
 20
617.207483182968
 30
0.0
 11
93.232267972029
 21
567.734331614547
 31
0.0
  0
LINE
  5
42CC
330
1A
100
AcDbEntity
  8
外形線
100
AcDbLine
 10
56.229293593628
 20
604.825155260671
 30
0.0
 11
79.611976093627
 21
618.325155260671
 31
0.0
  0
LINE
  5
42CD
330
1A
100
AcDbEntity
  8
外形線
100
AcDbLine
 10
56.829311665466
 20
603.785898900169
 30
0.0
 11
80.211980176133
 21
617.285938385721
 31
0.0
  0
LINE
  5
42CE
330
1A
100
AcDbEntity
  8
外形線
100
AcDbLine
 10
90.055925173115
 20
597.283697260399
 30
0.0
 11
69.229746262907
 21
585.259697260399
 31
0.0
  0
LINE
  5
42CF
330
1A
100
AcDbEntity
  8
外形線
100
AcDbLine
 10
60.612546262907
 20
600.185125479381
 30
0.0
 11
81.438725173114
 21
612.209125479381
 31
0.0
  0
LINE
  5
42D0
330
1A
100
AcDbEntity
  8
外形線
100
AcDbLine
 10
83.943725173114
 20
607.870338206421
 30
0.0
 11
63.117546262907
 21
595.846338206421
 31
0.0
  0
ARC
  5
42D1
330
1A
100
AcDbEntity
  8
外形線
100
AcDbCircle
 10
73.906291190382
 20
585.877083842133
 30
0.0
 40
4.007999999999999
100
AcDbArc
 50
210.000000000002
 51
300.000000000002
  0
LINE
  5
42D2
330
1A
100
AcDbEntity
  8
外形線
100
AcDbLine
 10
73.530635718011
 20
601.858338206421
 30
0.0
 11
78.540635718011
 21
593.180763660501
 31
0.0
  0
ARC
  5
42D3
330
1A
100
AcDbEntity
  8
外形線
100
AcDbCircle
 10
69.786100081368
 20
596.320064179839
 30
0.0
 40
9.30038181818205
100
AcDbArc
 50
259.727393143495
 51
340.272606856496
  0
LINE
  5
42D4
330
1A
100
AcDbEntity
  8
外形線
100
AcDbLine
 10
56.829296593628
 20
603.785916260671
 30
0.0
 11
54.165728593628
 21
608.399373260671
 31
0.0
  0
LINE
  5
42D5
330
1A
100
AcDbEntity
  8
外形線
100
AcDbLine
 10
69.533461372014
 20
585.435047260399
 30
0.0
 11
70.435261372015
 21
583.873083842133
 31
0.0
  0
LINE
  5
42D6
330
1A
100
AcDbEntity
  8
細線
100
AcDbLine
 10
65.612348944859
 20
597.286713206421
 30
0.0
 11
63.107348944859
 21
601.625500479381
 31
0.0
  0
LINE
  5
42D7
330
1A
100
AcDbEntity
  8
外形線
100
AcDbLine
 10
61.933706987523
 20
600.947897979381
 30
0.0
 11
64.438706987524
 21
596.609110706421
 31
0.0
  0
LINE
  5
42D8
330
1A
100
AcDbEntity
  8
外形線
100
AcDbLine
 10
58.107546262907
 20
604.523912752341
 30
0.0
 11
60.612546262907
 21
600.185125479381
 31
0.0
  0
LINE
  5
42D9
330
1A
100
AcDbEntity
  8
外形線
100
AcDbLine
 10
63.117546262907
 20
595.846338206421
 30
0.0
 11
69.229746262907
 21
585.259697260399
 31
0.0
  0
LINE
  5
42DA
330
1A
100
AcDbEntity
  8
外形線
100
AcDbLine
 10
68.520635718011
 20
610.535912752341
 30
0.0
 11
71.025635718011
 21
606.197125479381
 31
0.0
  0
LINE
  5
42DB
330
1A
100
AcDbEntity
  8
外形線
100
AcDbLine
 10
86.445810502331
 20
588.488738934571
 30
0.0
 11
94.542799972029
 21
574.464372614547
 31
0.0
  0
LINE
  5
42DC
330
1A
100
AcDbEntity
  8
外形線
100
AcDbLine
 10
78.651583664366
 20
583.988717893756
 30
0.0
 11
86.748606022317
 21
569.964370561867
 31
0.0
  0
ARC
  5
42DD
330
1A
100
AcDbEntity
  8
外形線
100
AcDbCircle
 10
86.748559885385
 20
574.464373013584
 30
0.0
 40
4.5
100
AcDbArc
 50
269.999994133302
 51
329.999994133297
  0
ARC
  5
42DE
330
1A
100
AcDbEntity
  8
外形線
100
AcDbCircle
 10
90.645674432799
 20
576.714372614547
 30
0.0
 40
4.5
100
AcDbArc
 50
269.999994133302
 51
329.999994133297
  0
ARC
  5
42DF
330
1A
100
AcDbEntity
  8
外形線
100
AcDbCircle
 10
94.542788058675
 20
569.964372215509
 30
0.0
 40
4.5
100
AcDbArc
 50
89.999994133303
 51
149.999994133297
  0
ARC
  5
42E0
330
1A
100
AcDbEntity
  8
外形線
100
AcDbCircle
 10
49.170635593628
 20
644.051106260671
 30
0.0
 40
36.0
100
AcDbArc
 50
322.013338948965
 51
322.019297710041
  0
ARC
  5
42E1
330
1A
100
AcDbEntity
  8
外形線
100
AcDbCircle
 10
49.170635593628
 20
644.051106260671
 30
0.0
 40
36.0
100
AcDbArc
 50
322.019297710041
 51
322.02995472503
  0
LINE
  5
42E2
330
1A
100
AcDbEntity
  8
外形線
100
AcDbLine
 10
80.211979093628
 20
617.285940260671
 30
0.0
 11
77.546821093628
 21
621.902119760671
 31
0.0
  0
LINE
  5
42E3
330
1A
100
AcDbEntity
  8
外形線
100
AcDbLine
 10
89.752210064009
 20
597.108347260399
 30
0.0
 11
90.654010064009
 21
595.546383842133
 31
0.0
  0
ARC
  5
42E4
330
1A
100
AcDbEntity
  8
外形線
100
AcDbCircle
 10
87.182980245641
 20
593.542383842133
 30
0.0
 40
4.007999999999999
100
AcDbArc
 50
300.000000000002
 51
29.999999999998
  0
LINE
  5
42E5
330
1A
100
AcDbEntity
  8
外形線
100
AcDbLine
 10
75.910291190382
 20
582.406054023765
 30
0.0
 11
89.186980245641
 21
590.071354023765
 31
0.0
  0
LINE
  5
42E6
330
1A
100
AcDbEntity
  8
外形線
100
AcDbLine
 10
80.117564448499
 20
611.446352979381
 30
0.0
 11
82.6225644485
 21
607.107565706421
 31
0.0
  0
LINE
  5
42E7
330
1A
100
AcDbEntity
  8
細線
100
AcDbLine
 10
81.448922491163
 20
606.429963206421
 30
0.0
 11
78.943922491163
 21
610.768750479381
 31
0.0
  0
LINE
  5
42E8
330
1A
100
AcDbEntity
  8
外形線
100
AcDbLine
 10
78.933725173115
 20
616.547912752341
 30
0.0
 11
81.438725173114
 21
612.209125479381
 31
0.0
  0
LINE
  5
42E9
330
1A
100
AcDbEntity
  8
外形線
100
AcDbLine
 10
83.943725173114
 20
607.870338206421
 30
0.0
 11
90.055925173115
 21
597.283697260399
 31
0.0
  0
ARC
  5
42EA
330
1A
100
AcDbEntity
  8
外形線
100
AcDbCircle
 10
80.199189536472
 20
602.332064179839
 30
0.0
 40
9.30038181818205
100
AcDbArc
 50
259.727393143495
 51
340.272606856496
  0
ARC
  5
42EB
330
1A
100
AcDbEntity
  8
外形線
 48
10.0
100
AcDbCircle
 10
49.170682972039
 20
654.051164114554
 30
0.0
 40
22.5
100
AcDbArc
 50
92.633603408824
 51
267.366396591176
  0
LINE
  5
42EC
330
1A
100
AcDbEntity
  8
外形線
 48
10.0
100
AcDbLine
 10
54.036833472029
 20
651.075846385366
 30
0.0
 11
54.036833472029
 21
656.849349077262
 31
0.0
  0
LINE
  5
42ED
330
1A
100
AcDbEntity
  8
外形線
 48
10.0
100
AcDbLine
 10
44.036833472029
 20
651.075846385366
 30
0.0
 11
44.036833472029
 21
656.849349077262
 31
0.0
  0
LINE
  5
42EE
330
1A
100
AcDbEntity
  8
外形線
 48
10.0
100
AcDbLine
 10
49.936833472029
 20
648.708710281688
 30
0.0
 11
54.036833472029
 21
651.075846385366
 31
0.0
  0
LINE
  5
42EF
330
1A
100
AcDbEntity
  8
外形線
 48
10.0
100
AcDbLine
 10
44.036833472029
 20
656.849349077262
 30
0.0
 11
48.136833472029
 21
659.21648518094
 31
0.0
  0
LINE
  5
42F0
330
1A
100
AcDbEntity
  8
外形線
 48
10.0
100
AcDbLine
 10
54.036833472029
 20
656.849349077262
 30
0.0
 11
49.936833472029
 21
659.21648518094
 31
0.0
  0
LINE
  5
42F1
330
1A
100
AcDbEntity
  8
外形線
 48
10.0
100
AcDbLine
 10
48.136833472029
 20
648.708710281688
 30
0.0
 11
44.036833472029
 21
651.075846385366
 31
0.0
  0
ARC
  5
42F2
330
1A
100
AcDbEntity
  8
細線
 48
10.0
100
AcDbCircle
 10
49.036833472029
 20
653.962597731314
 30
0.0
 40
5.0
100
AcDbArc
 50
100.369759805477
 51
259.630240194522
  0
LINE
  5
4317
330
1A
100
AcDbEntity
  8
中心線
 48
10.0
100
AcDbLine
 10
49.036833472029
 20
698.148163606479
 30
0.0
 11
49.036833472029
 21
600.424667697499
 31
0.0
  0
LINE
  5
4318
330
1A
100
AcDbEntity
  8
外形線
 48
10.0
100
AcDbLine
 10
48.136833472029
 20
693.962597731314
 30
0.0
 11
49.936833472029
 21
693.962597731314
 31
0.0
  0
LINE
  5
4319
330
1A
100
AcDbEntity
  8
外形線
 48
10.0
100
AcDbLine
 10
49.936833472029
 20
693.962597731314
 30
0.0
 11
49.936833472029
 21
613.962597731314
 31
0.0
  0
LINE
  5
431A
330
1A
100
AcDbEntity
  8
外形線
 48
10.0
100
AcDbLine
 10
48.136833472029
 20
693.962597731314
 30
0.0
 11
48.136833472029
 21
613.962597731314
 31
0.0
  0
LINE
  5
431B
330
1A
100
AcDbEntity
  8
外形線
 48
10.0
100
AcDbLine
 10
49.936833472029
 20
613.962597731314
 30
0.0
 11
48.136833472029
 21
613.962597731314
 31
0.0
  0
ARC
  5
431C
330
1A
100
AcDbEntity
  8
細線
 48
10.0
100
AcDbCircle
 10
49.036833472029
 20
653.962597731314
 30
0.0
 40
5.0
100
AcDbArc
 50
280.369759805478
 51
79.630240194523
  0
ARC
  5
431D
330
1A
100
AcDbEntity
  8
外形線
 48
10.0
100
AcDbCircle
 10
49.170682972039
 20
654.051164114554
 30
0.0
 40
22.5
100
AcDbArc
 50
271.951363445946
 51
88.048636554054
  0
TEXT
  5
431E
330
1A
100
AcDbEntity
  8
寸法線
100
AcDbText
 10
27.331674418885
 20
491.617811807533
 30
0.0
 40
6.573033707865
  1
ク　ロ
  7
EXCADVERT
 72
     3
 11
27.331674418885
 21
472.117811807533
 31
0.0
100
AcDbText
  0
TEXT
  5
431F
330
1A
100
AcDbEntity
  8
寸法線
100
AcDbText
 10
-2.218984081115
 20
491.467802807533
 30
0.0
 40
6.030927835052
  1
ア　カ
  7
EXCADVERT
 72
     3
 11
-2.218984081115
 21
471.967802807533
 31
0.0
100
AcDbText
  0
TEXT
  5
4320
330
1A
100
AcDbEntity
  8
寸法線
100
AcDbText
 10
-17.969258581115
 20
484.792624307533
 30
0.0
 40
6.428571428571
  1
キ
  7
EXCADVERT
 72
     3
 11
-17.969258581115
 21
478.792624307533
 31
0.0
100
AcDbText
  0
TEXT
  5
4321
330
1A
100
AcDbEntity
  8
寸法線
100
AcDbText
 10
-33.344630581115
 20
491.617811807533
 30
0.0
 40
5.636363639073
  1
ミドリ
  7
EXCADVERT
 72
     3
 11
-33.344630581115
 21
473.017811798592
 31
0.0
100
AcDbText
  0
LINE
  5
4322
330
1A
100
AcDbEntity
  8
寸法線
100
AcDbLine
 10
-29.601674581115
 20
535.634213807533
 30
0.0
 11
-29.601674581115
 21
442.634209307533
 31
0.0
  0
LINE
  5
4323
330
1A
100
AcDbEntity
  8
寸法線
100
AcDbLine
 10
1.457314918885
 20
535.634213807533
 30
0.0
 11
1.457314918885
 21
451.634209307533
 31
0.0
  0
LINE
  5
4324
330
1A
100
AcDbEntity
  8
寸法線
100
AcDbLine
 10
-29.601674581115
 20
442.634203307533
 30
0.0
 11
45.639531418885
 21
442.634203307533
 31
0.0
  0
LINE
  5
4325
330
1A
100
AcDbEntity
  8
寸法線
100
AcDbLine
 10
-14.072237581115
 20
506.288816807533
 30
0.0
 11
-14.072237581115
 21
447.134209307533
 31
0.0
  0
LINE
  5
4326
330
1A
100
AcDbEntity
  8
寸法線
100
AcDbLine
 10
-14.072237581115
 20
447.134209307533
 30
0.0
 11
46.002034918885
 21
447.134209307533
 31
0.0
  0
LINE
  5
4327
330
1A
100
AcDbEntity
  8
寸法線
100
AcDbLine
 10
16.237084918885
 20
506.288816807533
 30
0.0
 11
16.237084918885
 21
456.134209307533
 31
0.0
  0
LINE
  5
4328
330
1A
100
AcDbEntity
  8
寸法線
100
AcDbLine
 10
31.231087918885
 20
460.634209307533
 30
0.0
 11
31.231087918885
 21
505.921094807533
 31
0.0
  0
LINE
  5
4329
330
1A
100
AcDbEntity
  8
寸法線
100
AcDbLine
 10
1.457314918885
 20
451.634209307533
 30
0.0
 11
51.707304418885
 21
451.634209307533
 31
0.0
  0
LINE
  5
432A
330
1A
100
AcDbEntity
  8
寸法線
100
AcDbLine
 10
47.647717918885
 20
447.625880807533
 30
0.0
 11
49.513368418885
 21
448.849918307533
 31
0.0
  0
LINE
  5
432B
330
1A
100
AcDbEntity
  8
寸法線
100
AcDbLine
 10
47.780217418885
 20
443.532433307533
 30
0.0
 11
49.736791918885
 21
445.525226807533
 31
0.0
  0
LINE
  5
432C
330
1A
100
AcDbEntity
  8
寸法線
100
AcDbLine
 10
51.707304418885
 20
449.373347807533
 30
0.0
 11
51.006730918885
 21
449.337722807533
 31
0.0
  0
LINE
  5
432D
330
1A
100
AcDbEntity
  8
寸法線
100
AcDbLine
 10
51.707304418885
 20
446.421859307533
 30
0.0
 11
51.568773418885
 21
446.407531307533
 31
0.0
  0
ARC
  5
432E
330
1A
100
AcDbEntity
  8
寸法線
100
AcDbCircle
 10
46.002034918885
 20
450.134209307533
 30
0.0
 40
3.0
100
AcDbArc
 50
270.0
 51
303.268623610808
  0
ARC
  5
432F
330
1A
100
AcDbEntity
  8
寸法線
100
AcDbCircle
 10
51.159063418885
 20
446.341601807533
 30
0.0
 40
3.0
100
AcDbArc
 50
92.910721466856
 51
123.268603762964
  0
ARC
  5
4330
330
1A
100
AcDbEntity
  8
寸法線
100
AcDbCircle
 10
51.877477918885
 20
443.423456807533
 30
0.0
 40
3.0
100
AcDbArc
 50
95.906259411359
 51
135.525546099523
  0
ARC
  5
4331
330
1A
100
AcDbEntity
  8
寸法線
100
AcDbCircle
 10
45.639531418885
 20
445.634209307533
 30
0.0
 40
3.0
100
AcDbArc
 50
270.0
 51
315.525565947365
  0
ARC
  5
4332
330
1A
100
AcDbEntity
  8
寸法線
100
AcDbCircle
 10
46.002034918885
 20
453.134209307533
 30
0.0
 40
3.0
100
AcDbArc
 50
56.731416084879
 51
89.999981276031
  0
LINE
  5
4333
330
1A
100
AcDbEntity
  8
寸法線
100
AcDbLine
 10
47.647717918885
 20
455.642536307533
 30
0.0
 11
49.513368418885
 21
454.418498807533
 31
0.0
  0
LINE
  5
4334
330
1A
100
AcDbEntity
  8
寸法線
100
AcDbLine
 10
51.707304418885
 20
453.895069307533
 30
0.0
 11
51.006730918885
 21
453.930694307533
 31
0.0
  0
ARC
  5
4335
330
1A
100
AcDbEntity
  8
寸法線
100
AcDbCircle
 10
51.159063418885
 20
456.926815307533
 30
0.0
 40
3.0
100
AcDbArc
 50
236.731435932721
 51
267.089318228831
  0
LINE
  5
4336
330
1A
100
AcDbEntity
  8
寸法線
100
AcDbLine
 10
51.707304418885
 20
456.846557807533
 30
0.0
 11
51.568773418885
 21
456.860885807533
 31
0.0
  0
ARC
  5
4337
330
1A
100
AcDbEntity
  8
寸法線
100
AcDbCircle
 10
51.877477918885
 20
459.844955807533
 30
0.0
 40
3.0
100
AcDbArc
 50
224.474436300384
 51
264.093722988548
  0
LINE
  5
4338
330
1A
100
AcDbEntity
  8
寸法線
100
AcDbLine
 10
47.780217418885
 20
459.735985307533
 30
0.0
 11
49.736791918885
 21
457.743190307533
 31
0.0
  0
ARC
  5
4339
330
1A
100
AcDbEntity
  8
寸法線
100
AcDbCircle
 10
45.639531418885
 20
457.634209307533
 30
0.0
 40
3.0
100
AcDbArc
 50
44.474473748323
 51
89.999981276031
  0
LINE
  5
433A
330
1A
100
AcDbEntity
  8
寸法線
100
AcDbLine
 10
31.231087918885
 20
460.634209307533
 30
0.0
 11
45.639531418885
 21
460.634209307533
 31
0.0
  0
LINE
  5
433B
330
1A
100
AcDbEntity
  8
寸法線
100
AcDbLine
 10
16.237084918885
 20
456.134209307533
 30
0.0
 11
46.002034918885
 21
456.134209307533
 31
0.0
  0
LINE
  5
433C
330
1A
100
AcDbEntity
  8
寸法線
100
AcDbLine
 10
54.707304418885
 20
457.634209307533
 30
0.0
 11
107.207292418885
 21
457.634209307533
 31
0.0
  0
LINE
  5
433D
330
1A
100
AcDbEntity
  8
寸法線
100
AcDbLine
 10
54.707304418885
 20
445.634209307533
 30
0.0
 11
107.207292418885
 21
445.634209307533
 31
0.0
  0
ARC
  5
433E
330
1A
100
AcDbEntity
  8
寸法線
100
AcDbCircle
 10
102.011141035409
 20
448.634207507533
 30
0.0
 40
6.0
100
AcDbArc
 50
330.000019847844
 51
30.000019847843
  0
ARC
  5
433F
330
1A
100
AcDbEntity
  8
寸法線
100
AcDbCircle
 10
102.011138956948
 20
454.634207507533
 30
0.0
 40
6.0
100
AcDbArc
 50
330.000019847844
 51
30.000019847843
  0
ARC
  5
4340
330
1A
100
AcDbEntity
  8
寸法線
100
AcDbCircle
 10
112.40344380236
 20
454.634211107533
 30
0.0
 40
6.0
100
AcDbArc
 50
150.000019847843
 51
210.000019847843
  0
ARC
  5
4341
330
1A
100
AcDbEntity
  8
寸法線
100
AcDbCircle
 10
59.903456841592
 20
454.634209307533
 30
0.0
 40
6.0
100
AcDbArc
 50
150.0
 51
210.0
  0
ARC
  5
4342
330
1A
100
AcDbEntity
  8
寸法線
100
AcDbCircle
 10
59.903456841592
 20
448.634209307533
 30
0.0
 40
6.0
100
AcDbArc
 50
150.0
 51
209.999999999999
  0
ARC
  5
4343
330
1A
100
AcDbEntity
  8
寸法線
100
AcDbCircle
 10
49.511151996178
 20
448.634209307533
 30
0.0
 40
6.0
100
AcDbArc
 50
330.0
 51
30.0
  0
LINE
  5
4344
330
1A
100
AcDbEntity
  8
寸法線
100
AcDbLine
 10
110.207292418885
 20
451.634209307533
 30
0.0
 11
144.707292418885
 21
451.634209307533
 31
0.0
  0
LINE
  5
4345
330
1A
100
AcDbEntity
  8
寸法線
100
AcDbLine
 10
144.707292418885
 20
459.134209307533
 30
0.0
 11
116.689477918885
 21
459.134209307533
 31
0.0
  0
LINE
  5
4346
330
1A
100
AcDbEntity
  8
寸法線
100
AcDbLine
 10
144.707292418885
 20
466.634209307533
 30
0.0
 11
116.839417918885
 21
466.634209307533
 31
0.0
  0
LINE
  5
4347
330
1A
100
AcDbEntity
  8
寸法線
100
AcDbLine
 10
114.006226918885
 20
464.620643807533
 30
0.0
 11
111.672204418885
 21
457.916923307533
 31
0.0
  0
LINE
  5
4348
330
1A
100
AcDbEntity
  8
寸法線
100
AcDbLine
 10
110.255608918885
 20
456.910141307533
 30
0.0
 11
110.207292418885
 21
456.910141307533
 31
0.0
  0
LINE
  5
4349
330
1A
100
AcDbEntity
  8
寸法線
100
AcDbLine
 10
113.929872418885
 20
457.310855807533
 30
0.0
 11
113.254785418885
 21
455.727599807533
 31
0.0
  0
LINE
  5
434A
330
1A
100
AcDbEntity
  8
寸法線
100
AcDbLine
 10
111.185076418885
 20
454.360088807533
 30
0.0
 11
110.207292418885
 21
454.360088807533
 31
0.0
  0
ARC
  5
434B
330
1A
100
AcDbEntity
  8
寸法線
100
AcDbCircle
 10
116.839417918885
 20
463.634209307533
 30
0.0
 40
3.0
100
AcDbArc
 50
89.999981276032
 51
160.80341269666
  0
ARC
  5
434C
330
1A
100
AcDbEntity
  8
寸法線
100
AcDbCircle
 10
116.689477918885
 20
456.134209307533
 30
0.0
 40
3.0
100
AcDbArc
 50
89.999981276032
 51
156.907528872886
  0
ARC
  5
434D
330
1A
100
AcDbEntity
  8
寸法線
100
AcDbCircle
 10
110.255608918885
 20
458.410141307533
 30
0.0
 40
1.5
100
AcDbArc
 50
270.0
 51
340.803432544508
  0
ARC
  5
434E
330
1A
100
AcDbEntity
  8
寸法線
100
AcDbCircle
 10
111.185076418885
 20
456.610088807533
 30
0.0
 40
2.25
100
AcDbArc
 50
270.0
 51
336.907491424954
  0
LINE
  5
434F
330
1A
100
AcDbEntity
  8
寸法線
100
AcDbLine
 10
144.707292418885
 20
436.634209307533
 30
0.0
 11
116.839417918885
 21
436.634209307533
 31
0.0
  0
ARC
  5
4350
330
1A
100
AcDbEntity
  8
寸法線
100
AcDbCircle
 10
116.839417918885
 20
439.634209307533
 30
0.0
 40
3.0
100
AcDbArc
 50
199.196626999025
 51
270.0
  0
LINE
  5
4351
330
1A
100
AcDbEntity
  8
寸法線
100
AcDbLine
 10
144.707292418885
 20
444.134209307533
 30
0.0
 11
116.689477918885
 21
444.134209307533
 31
0.0
  0
ARC
  5
4352
330
1A
100
AcDbEntity
  8
寸法線
100
AcDbCircle
 10
116.689477918885
 20
447.134209307533
 30
0.0
 40
3.0
100
AcDbArc
 50
203.092510822795
 51
270.0
  0
LINE
  5
4353
330
1A
100
AcDbEntity
  8
寸法線
100
AcDbLine
 10
110.255608918885
 20
446.358275807533
 30
0.0
 11
110.207292418885
 21
446.358275807533
 31
0.0
  0
LINE
  5
4354
330
1A
100
AcDbEntity
  8
寸法線
100
AcDbLine
 10
114.006226918885
 20
438.647773307533
 30
0.0
 11
111.672204418885
 21
445.351493807533
 31
0.0
  0
ARC
  5
4355
330
1A
100
AcDbEntity
  8
寸法線
100
AcDbCircle
 10
110.255608918885
 20
444.858275807533
 30
0.0
 40
1.5
100
AcDbArc
 50
19.196607151182
 51
89.999981276032
  0
LINE
  5
4356
330
1A
100
AcDbEntity
  8
寸法線
100
AcDbLine
 10
113.929872418885
 20
445.957561307533
 30
0.0
 11
113.254785418885
 21
447.540817307533
 31
0.0
  0
LINE
  5
4357
330
1A
100
AcDbEntity
  8
寸法線
100
AcDbLine
 10
111.185076418885
 20
448.908329807533
 30
0.0
 11
110.207292418885
 21
448.908329807533
 31
0.0
  0
ARC
  5
4358
330
1A
100
AcDbEntity
  8
寸法線
100
AcDbCircle
 10
111.185076418885
 20
446.658329807533
 30
0.0
 40
2.25
100
AcDbArc
 50
23.092490974952
 51
89.999981276031
  0
TEXT
  5
4359
330
1A
100
AcDbEntity
  8
寸法線
100
AcDbText
 10
67.603456918885
 20
448.486534307533
 30
0.0
 40
6.75
  1
リード線
 41
0.869565217391
  7
EXCADSTD
 72
     5
 11
94.603456918885
 21
448.486534307533
 31
0.0
100
AcDbText
  0
TEXT
  5
435A
330
1A
100
AcDbEntity
  8
寸法線
100
AcDbText
 10
128.654688418885
 20
467.761927307533
 30
0.0
 40
5.25
  1
ク　ロ
 41
0.918367346939
  7
EXCADSTD
 72
     5
 11
144.404688418885
 21
467.761927307533
 31
0.0
100
AcDbText
  0
TEXT
  5
435B
330
1A
100
AcDbEntity
  8
寸法線
100
AcDbText
 10
128.804697418885
 20
460.111768307533
 30
0.0
 40
5.25
  1
シ　ロ
 41
0.918367346939
  7
EXCADSTD
 72
     5
 11
144.554697418885
 21
460.111768307533
 31
0.0
100
AcDbText
  0
TEXT
  5
435C
330
1A
100
AcDbEntity
  8
寸法線
100
AcDbText
 10
128.804697418885
 20
452.461616807533
 30
0.0
 40
5.25
  1
ア　カ
 41
0.909090909091
  7
EXCADSTD
 72
     5
 11
144.554697418885
 21
452.461616807533
 31
0.0
100
AcDbText
  0
TEXT
  5
435D
330
1A
100
AcDbEntity
  8
寸法線
100
AcDbText
 10
134.054811418885
 20
444.961456307533
 30
0.0
 40
5.25
  1
キ
 41
1.071428571429
  7
EXCADSTD
 72
     5
 11
139.304811418885
 21
444.961456307533
 31
0.0
100
AcDbText
  0
TEXT
  5
435E
330
1A
100
AcDbEntity
  8
寸法線
100
AcDbText
 10
128.804697418885
 20
437.311298807533
 30
0.0
 40
5.25
  1
ミドリ
 41
0.947368421053
  7
EXCADSTD
 72
     5
 11
144.554697418885
 21
437.311298807533
 31
0.0
100
AcDbText
  0
TEXT
  5
435F
330
1A
100
AcDbEntity
  8
寸法線
100
AcDbText
 10
12.468232346362
 20
491.275907807533
 30
0.0
 40
6.724137931034
  1
シ　ロ
  7
EXCADVERT
 72
     3
 11
12.468232346362
 21
471.775907807533
 31
0.0
100
AcDbText
  0
TEXT
  5
4360
330
1A
100
AcDbEntity
  8
寸法線
100
AcDbText
 10
149.356683418885
 20
459.700405307533
 30
0.0
 40
7.5
  1
電源
 41
0.923076923077
  7
EXCADSTD
 72
     5
 11
164.356683418885
 21
459.700405307533
 31
0.0
100
AcDbText
  0
TEXT
  5
4361
330
1A
100
AcDbEntity
  8
寸法線
100
AcDbText
 10
152.431687918885
 20
455.350184807533
 30
0.0
 40
7.336956521739
  1
ＨＣＬ
  7
EXCADVERT
 72
     3
 11
152.431687918885
 21
432.850184807533
 31
0.0
100
AcDbText
  0
LINE
  5
4362
330
1A
100
AcDbEntity
  8
寸法線
100
AcDbLine
 10
-29.601674581115
 20
535.634213807533
 30
0.0
 11
-19.962682081115
 21
535.634213807533
 31
0.0
  0
LINE
  5
4363
330
1A
100
AcDbEntity
  8
寸法線
100
AcDbLine
 10
-19.962682081115
 20
535.634213807533
 30
0.0
 11
-19.962682081115
 21
520.854398807533
 31
0.0
  0
LINE
  5
4364
330
1A
100
AcDbEntity
  8
寸法線
100
AcDbLine
 10
-8.181677581115
 20
535.634213807533
 30
0.0
 11
1.457314918885
 21
535.634213807533
 31
0.0
  0
LINE
  5
4365
330
1A
100
AcDbEntity
  8
寸法線
100
AcDbLine
 10
16.237108918885
 20
535.634213807533
 30
0.0
 11
31.231111918885
 21
535.634213807533
 31
0.0
  0
TEXT
  5
4366
330
1A
100
AcDbEntity
  8
寸法線
100
AcDbText
 10
26.730150418885
 20
508.159055807533
 30
0.0
 40
9.0
  1
Ｍ
 41
1.25
  7
EXCADSTD
 72
     5
 11
35.730150418885
 21
508.159055807533
 31
0.0
100
AcDbText
  0
LINE
  5
4367
330
1A
100
AcDbEntity
  8
寸法線
100
AcDbLine
 10
31.231111918885
 20
535.634213807533
 30
0.0
 11
31.231111918885
 21
519.709486307533
 31
0.0
  0
CIRCLE
  5
4368
330
1A
100
AcDbEntity
  8
寸法線
100
AcDbCircle
 10
-14.072180581115
 20
507.488821307533
 30
0.0
 40
1.2000045
  0
CIRCLE
  5
4369
330
1A
100
AcDbEntity
  8
寸法線
100
AcDbCircle
 10
16.237108918885
 20
507.488821307533
 30
0.0
 40
1.2000045
  0
CIRCLE
  5
436A
330
1A
100
AcDbEntity
  8
寸法線
100
AcDbCircle
 10
-19.962682081115
 20
519.654394307533
 30
0.0
 40
1.2000045
  0
LINE
  5
436B
330
1A
100
AcDbEntity
  8
寸法線
100
AcDbLine
 10
-8.181677581115
 20
535.634213807533
 30
0.0
 11
-8.181677581115
 21
520.854398807533
 31
0.0
  0
CIRCLE
  5
436C
330
1A
100
AcDbEntity
  8
寸法線
100
AcDbCircle
 10
-8.181677581115
 20
519.654394307533
 30
0.0
 40
1.2000045
  0
LINE
  5
436D
330
1A
100
AcDbEntity
  8
寸法線
100
AcDbLine
 10
16.237108918885
 20
535.634213807533
 30
0.0
 11
16.237108918885
 21
520.854398807533
 31
0.0
  0
CIRCLE
  5
436E
330
1A
100
AcDbEntity
  8
寸法線
100
AcDbCircle
 10
16.237108918885
 20
519.654394307533
 30
0.0
 40
1.2000045
  0
LINE
  5
436F
330
1A
100
AcDbEntity
  8
寸法線
100
AcDbLine
 10
-14.072180581115
 20
508.688813807533
 30
0.0
 11
-18.762677581115
 21
519.654394307533
 31
0.0
  0
LINE
  5
4370
330
1A
100
AcDbEntity
  8
寸法線
100
AcDbLine
 10
16.237108918885
 20
508.688813807533
 30
0.0
 11
17.437113418885
 21
519.654394307533
 31
0.0
  0
CIRCLE
  5
4371
330
1A
100
AcDbEntity
  8
寸法線
100
AcDbCircle
 10
31.236787918885
 20
512.826139307533
 30
0.0
 40
6.883348499999999
  0
MTEXT
  5
4385
102
{ACAD_XDICTIONARY
360
4386
102
}
330
1A
100
AcDbEntity
  8
寸法線
 48
10.0
100
AcDbMText
 10
144.075319654171
 20
534.510267464543
 30
0.0
 40
7.0
 41
158.221086696158
 71
     1
 72
     5
  1
\H0.8571x;塗　装　色：7.5BG4/1.5\P接点　容量：AC250V5A\P静止トルク：約4.9N・cm（約500g・cm）\P回　転　数：1RPM
1001
ACADANNOTATIVE
1000
AnnotativeData
1002
{
1070
     1
1070
     0
1002
}
  0
MTEXT
  5
439A
330
1A
100
AcDbEntity
  8
寸法線
 48
10.0
100
AcDbMText
 10
406.803450752595
 20
587.060142256497
 30
0.0
 40
6.0
 41
51.077111820171
 71
     1
 72
     5
  1
リード線0.5m付
  0
LEADER
  5
439B
330
1A
100
AcDbEntity
  8
寸法線
 48
10.0
100
AcDbLeader
  3
ISO-25
 76
     2
 10
392.58042945971
 20
576.604256191379
 30
0.0
 10
405.977449056297
 20
581.623208804453
 30
0.0
1001
ACAD
1000
DSTYLE
1002
{
1070
     5
1000
OPEN30
1070
   147
1040
0.625
1070
    77
1070
     0
1070
    41
1040
6.0
1070
    47
1040
0.1
1070
    48
1040
0.1
1070
    73
1070
     0
1070
   140
1040
5.0
1070
   271
1070
     1
1070
   272
1070
     1
1070
   341
1005
2AF4
1070
   342
1005
2AF4
1002
}
  0
LINE
  5
43B5
330
1A
100
AcDbEntity
  8
中心線
 48
10.0
100
AcDbLine
 10
0.067744676889
 20
644.051133614547
 30
0.0
 11
98.005922267169
 21
644.051133614547
 31
0.0
  0
LINE
  5
43B6
330
1A
100
AcDbEntity
  8
中心線
 48
10.0
100
AcDbLine
 10
98.005922267169
 20
653.962597731314
 30
0.0
 11
0.067744676889
 21
653.962597731314
 31
0.0
  0
DIMENSION
  5
43B7
330
1A
100
AcDbEntity
  8
寸法線
 48
10.0
100
AcDbDimension
  2
*D35
 10
103.393822513871
 20
644.051133614547
 30
0.0
 11
103.393822513871
 21
649.00686567293
 31
0.0
 70
   160
  1
10
  3
ISO-25
100
AcDbAlignedDimension
 13
98.005922267169
 23
653.962597731314
 33
0.0
 14
98.005922267169
 24
644.051133614547
 34
0.0
 50
90.0
100
AcDbRotatedDimension
1001
ACAD
1000
DSTYLE
1002
{
1070
     5
1000
OPEN30
1070
    41
1040
6.0
1070
    47
1040
0.1
1070
    48
1040
0.1
1070
    73
1070
     0
1070
   140
1040
6.0
1070
   271
1070
     1
1070
   272
1070
     1
1070
   341
1005
2AF4
1002
}
  0
DIMENSION
  5
43B8
330
1A
100
AcDbEntity
  8
寸法線
 48
10.0
100
AcDbDimension
  2
*D36
 10
67.036833472029
 20
703.949714620033
 30
0.0
 11
49.036833472029
 21
707.577839620033
 31
0.0
 70
    32
  3
ISO-25
100
AcDbAlignedDimension
 13
31.036833472029
 23
664.354902576727
 33
0.0
 14
67.036833472029
 24
664.354902576727
 34
0.0
100
AcDbRotatedDimension
1001
ACAD
1000
DSTYLE
1002
{
1070
     5
1000
OPEN30
1070
    41
1040
6.0
1070
    47
1040
0.1
1070
    48
1040
0.1
1070
    73
1070
     0
1070
   140
1040
6.0
1070
   271
1070
     1
1070
   272
1070
     1
1070
   341
1005
2AF4
1002
}
  0
MTEXT
  5
43B9
330
1A
100
AcDbEntity
  8
寸法線
 48
10.0
100
AcDbMText
 10
43.061305731394
 20
720.532803778301
 30
0.0
 40
6.0
 41
18.538303897182
 71
     1
 72
     5
  1
平径
  0
DIMENSION
  5
43BA
330
1A
100
AcDbEntity
  8
寸法線
 48
10.0
100
AcDbDimension
  2
*D37
 10
49.936833472029
 20
622.884123854618
 30
0.0
 11
63.161833472029
 21
626.509123854618
 31
0.0
 70
    32
  1
1
  3
ISO-25
100
AcDbAlignedDimension
 13
48.136833472029
 23
622.884123854618
 33
0.0
 14
49.936833472029
 24
622.884123854618
 34
0.0
100
AcDbRotatedDimension
1001
ACAD
1000
DSTYLE
1002
{
1070
     5
1000
OPEN30
1070
    41
1040
6.0
1070
    47
1040
0.1
1070
    48
1040
0.1
1070
    73
1070
     0
1070
   140
1040
6.0
1070
   271
1070
     1
1070
   272
1070
     1
1070
   341
1005
2AF4
1002
}
  0
LEADER
  5
43BB
330
1A
100
AcDbEntity
  8
寸法線
 48
10.0
100
AcDbLeader
  3
ISO-25
 76
     3
 10
66.173646262907
 20
590.55301773341
 30
0.0
 10
50.516743490479
 20
570.280588279594
 30
0.0
 10
35.474874074367
 20
570.280588279594
 30
0.0
1001
ACAD
1000
DSTYLE
1002
{
1070
     5
1000
OPEN30
1070
   147
1040
0.625
1070
    77
1070
     0
1070
    41
1040
6.0
1070
    47
1040
0.1
1070
    48
1040
0.1
1070
    73
1070
     0
1070
   140
1040
5.0
1070
   271
1070
     1
1070
   272
1070
     1
1070
   341
1005
2AF4
1070
   342
1005
2AF4
1002
}
  0
MTEXT
  5
43BC
330
1A
100
AcDbEntity
  8
寸法線
 48
10.0
100
AcDbMText
 10
-13.577874896034
 20
585.884573631974
 30
0.0
 40
6.0
 41
75.272292791406
 71
     1
 72
     5
  1
コードロック\PビメットBMS050B
1001
ACAD
1000
MTEXTBEGIN
1070
    44
1040
0.8
1000
MTEXTEND
  0
ARC
  5
43C2
330
1A
100
AcDbEntity
  8
細線
 48
10.0
100
AcDbCircle
 10
49.036833472029
 20
653.962597731314
 30
0.0
 40
18.0
100
AcDbArc
 50
272.865983982599
 51
87.134016017401
  0
LINE
  5
43C3
330
1A
100
AcDbEntity
  8
外形線
 48
10.0
100
AcDbLine
 10
48.136833472029
 20
633.697603282758
 30
0.0
 11
31.036833472029
 21
643.570292885901
 31
0.0
  0
LINE
  5
43C4
330
1A
100
AcDbEntity
  8
外形線
 48
10.0
100
AcDbLine
 10
67.036833472029
 20
664.354902576727
 30
0.0
 11
49.936833472029
 21
674.22759217987
 31
0.0
  0
LINE
  5
43C5
330
1A
100
AcDbEntity
  8
外形線
 48
10.0
100
AcDbLine
 10
31.036833472029
 20
664.354902576727
 30
0.0
 11
48.136833472029
 21
674.22759217987
 31
0.0
  0
LINE
  5
43C6
330
1A
100
AcDbEntity
  8
外形線
 48
10.0
100
AcDbLine
 10
49.936833472029
 20
633.697603282758
 30
0.0
 11
67.036833472029
 21
643.570292885901
 31
0.0
  0
LINE
  5
43C7
330
1A
100
AcDbEntity
  8
外形線
 48
10.0
100
AcDbLine
 10
31.036833472029
 20
664.354902576727
 30
0.0
 11
31.036833472029
 21
643.570292885901
 31
0.0
  0
LINE
  5
43C8
330
1A
100
AcDbEntity
  8
外形線
 48
10.0
100
AcDbLine
 10
67.036833472029
 20
664.354902576727
 30
0.0
 11
67.036833472029
 21
643.570292885901
 31
0.0
  0
ARC
  5
43C9
330
1A
100
AcDbEntity
  8
細線
 48
10.0
100
AcDbCircle
 10
49.036833472029
 20
653.962597731314
 30
0.0
 40
18.0
100
AcDbArc
 50
92.865983982599
 51
267.134016017401
  0
MTEXT
  5
43CA
102
{ACAD_XDICTIONARY
360
43CB
102
}
330
1A
100
AcDbEntity
  8
寸法線
 48
10.0
100
AcDbMText
 10
53.465437632976
 20
532.633004509738
 30
0.0
 40
6.0
 41
168.503621648242
 71
     1
 72
     5
  1
御仕様   電源電圧\P       AC100/110V\P       AC200/220V
1001
ACADANNOTATIVE
1000
AnnotativeData
1002
{
1070
     1
1070
     0
1002
}
  0
MTEXT
  5
43CE
102
{ACAD_XDICTIONARY
360
43CF
102
}
330
1A
100
AcDbEntity
  8
寸法線
 48
10.0
100
AcDbMText
 10
54.646159225788
 20
503.085830787175
 30
0.0
 40
6.0
 41
161.650793650794
 71
     1
 72
     5
  1
\W0.7;○印が今回の貴社の御仕様です。
1001
ACADANNOTATIVE
1000
AnnotativeData
1002
{
1070
     1
1070
     0
1002
}
  0
LINE
  5
43D2
330
1A
100
AcDbEntity
  8
寸法線
 48
10.0
100
AcDbLine
 10
76.732375639512
 20
534.742465170002
 30
0.0
 11
76.732375639512
 21
505.300336213384
 31
0.0
  0
LINE
  5
43D3
330
1A
100
AcDbEntity
  8
寸法線
 48
10.0
100
AcDbLine
 10
51.115153146504
 20
524.438980350616
 30
0.0
 11
124.56299413487
 21
524.438980350616
 31
0.0
  0
LINE
  5
43D4
330
1A
100
AcDbEntity
  8
寸法線
 48
10.0
100
AcDbLine
 10
51.115153146504
 20
534.742465170002
 30
0.0
 11
124.56299413487
 21
534.742465170002
 31
0.0
  0
LINE
  5
43D5
330
1A
100
AcDbEntity
  8
寸法線
 48
10.0
100
AcDbLine
 10
124.56299413487
 20
534.742465170002
 30
0.0
 11
124.56299413487
 21
505.300336213384
 31
0.0
  0
LINE
  5
43D6
330
1A
100
AcDbEntity
  8
寸法線
 48
10.0
100
AcDbLine
 10
51.115153146504
 20
514.55300112893
 30
0.0
 11
124.56299413487
 21
514.55300112893
 31
0.0
  0
LINE
  5
43D7
330
1A
100
AcDbEntity
  8
寸法線
 48
10.0
100
AcDbLine
 10
51.115153146504
 20
505.300336213384
 30
0.0
 11
124.56299413487
 21
505.300336213384
 31
0.0
  0
LINE
  5
43D8
330
1A
100
AcDbEntity
  8
寸法線
 48
10.0
100
AcDbLine
 10
51.115153146504
 20
534.742465170002
 30
0.0
 11
51.115153146504
 21
505.300336213384
 31
0.0
  0
LINE
  5
43D9
330
1A
100
AcDbEntity
  8
外形線
100
AcDbLine
 10
400.778838446768
 20
618.262570731314
 30
0.0
 11
400.778838446768
 21
679.462597731314
 31
0.0
  0
LINE
  5
43DA
330
1A
100
AcDbEntity
  8
外形線
100
AcDbLine
 10
400.778838446768
 20
679.462597731314
 30
0.0
 11
412.978818946768
 21
679.462597731314
 31
0.0
  0
LINE
  5
43DB
330
1A
100
AcDbEntity
  8
外形線
100
AcDbLine
 10
403.278838446768
 20
608.462597731314
 30
0.0
 11
403.278838446768
 21
679.462597731314
 31
0.0
  0
LINE
  5
43DC
330
1A
100
AcDbEntity
  8
外形線
100
AcDbLine
 10
402.012948720239
 20
608.462597731314
 30
0.0
 11
412.978818946768
 21
608.462597731314
 31
0.0
  0
LINE
  5
43DD
330
1A
100
AcDbEntity
  8
外形線
100
AcDbLine
 10
400.778838446768
 20
677.362597731314
 30
0.0
 11
374.978838446768
 21
677.062597731314
 31
0.0
  0
LINE
  5
43DE
330
1A
100
AcDbEntity
  8
外形線
100
AcDbLine
 10
370.778838446768
 20
672.862597731314
 30
0.0
 11
372.778838446768
 21
672.862597731314
 31
0.0
  0
LINE
  5
43DF
330
1A
100
AcDbEntity
  8
外形線
100
AcDbLine
 10
372.778838446768
 20
672.862597731314
 30
0.0
 11
372.778838446768
 21
672.862597731314
 31
0.0
  0
LINE
  5
43E0
330
1A
100
AcDbEntity
  8
外形線
100
AcDbLine
 10
370.778838446768
 20
635.062597731314
 30
0.0
 11
372.778838446768
 21
635.062597731314
 31
0.0
  0
LINE
  5
43E2
330
1A
100
AcDbEntity
  8
外形線
100
AcDbLine
 10
372.778838446768
 20
674.862597731314
 30
0.0
 11
372.778838446768
 21
613.062597731314
 31
0.0
  0
ARC
  5
43E3
330
1A
100
AcDbEntity
  8
外形線
100
AcDbCircle
 10
374.978838446768
 20
674.862597731314
 30
0.0
 40
2.2
100
AcDbArc
 50
90.0
 51
180.0
  0
ARC
  5
43E4
330
1A
100
AcDbEntity
  8
外形線
100
AcDbCircle
 10
374.978838446768
 20
613.062597731314
 30
0.0
 40
2.2
100
AcDbArc
 50
180.0
 51
263.748538621028
  0
DIMENSION
  5
43FC
330
1A
100
AcDbEntity
  8
寸法線
 48
10.0
100
AcDbDimension
  2
*D38
 10
471.731596365993
 20
608.462597731314
 30
0.0
 11
471.731596365993
 21
644.137570731314
 31
0.0
 70
   160
  1
φ72
  3
ISO-25
100
AcDbAlignedDimension
 13
412.978818946768
 23
679.462597731314
 33
0.0
 14
412.978818946768
 24
608.462597731314
 34
0.0
 50
90.0
100
AcDbRotatedDimension
1001
ACAD
1000
DSTYLE
1002
{
1070
     5
1000
OPEN30
1070
    41
1040
6.0
1070
    47
1040
0.1
1070
    48
1040
0.1
1070
    73
1070
     0
1070
   140
1040
6.0
1070
   271
1070
     1
1070
   272
1070
     1
1070
   341
1005
2AF4
1002
}
  0
LINE
  5
43FD
330
1A
100
AcDbEntity
  8
外形線
100
AcDbLine
 10
453.778838446768
 20
619.387570731314
 30
0.0
 11
453.778838446768
 21
668.887570731314
 31
0.0
  0
LINE
  5
43FE
330
1A
100
AcDbEntity
  8
外形線
100
AcDbLine
 10
452.278838446768
 20
616.177960731314
 30
0.0
 11
452.278838446768
 21
672.097180731314
 31
0.0
  0
LINE
  5
43FF
330
1A
100
AcDbEntity
  8
外形線
100
AcDbLine
 10
412.978818946768
 20
679.462597731314
 30
0.0
 11
412.978818946768
 21
608.462597731314
 31
0.0
  0
LINE
  5
4400
330
1A
100
AcDbEntity
  8
外形線
100
AcDbLine
 10
412.978818946768
 20
610.012570731314
 30
0.0
 11
447.993299446768
 21
611.683087731314
 31
0.0
  0
LINE
  5
4401
330
1A
100
AcDbEntity
  8
外形線
100
AcDbLine
 10
453.778838446768
 20
619.387570731314
 30
0.0
 11
452.278838446768
 21
619.387570731314
 31
0.0
  0
ARC
  5
4402
330
1A
100
AcDbEntity
  8
外形線
100
AcDbCircle
 10
447.778838446768
 20
616.177960731314
 30
0.0
 40
4.5
100
AcDbArc
 50
272.731520116378
 51
359.999982399908
  0
LINE
  5
4403
330
1A
100
AcDbEntity
  8
外形線
100
AcDbLine
 10
412.978818946768
 20
678.262570731314
 30
0.0
 11
447.993299446768
 21
676.592053731314
 31
0.0
  0
LINE
  5
4404
330
1A
100
AcDbEntity
  8
外形線
100
AcDbLine
 10
453.778838446768
 20
668.887570731314
 30
0.0
 11
452.278838446768
 21
668.887570731314
 31
0.0
  0
ARC
  5
4405
330
1A
100
AcDbEntity
  8
外形線
100
AcDbCircle
 10
447.778838446768
 20
672.097180731314
 30
0.0
 40
4.5
100
AcDbArc
 50
0.0
 51
87.268519579299
  0
LINE
  5
4406
330
1A
100
AcDbEntity
  8
外形線
100
AcDbLine
 10
404.778838446768
 20
608.462597731314
 30
0.0
 11
404.778838446768
 21
679.462597731314
 31
0.0
  0
LINE
  5
4407
330
1A
100
AcDbEntity
  8
中心線
 48
10.0
100
AcDbLine
 10
388.128829446767
 20
622.927411731314
 30
0.0
 11
388.128829446767
 21
567.493792731314
 31
0.0
  0
LINE
  5
4408
330
1A
100
AcDbEntity
  8
外形線
100
AcDbLine
 10
383.891311446767
 20
570.525189358781
 30
0.0
 11
383.891311446767
 21
583.708792731314
 31
0.0
  0
LINE
  5
4409
330
1A
100
AcDbEntity
  8
外形線
100
AcDbLine
 10
392.291275446767
 20
570.525189358781
 30
0.0
 11
392.291275446767
 21
583.708792731314
 31
0.0
  0
ARC
  5
440A
330
1A
100
AcDbEntity
  8
細線
100
AcDbCircle
 10
385.991303635415
 20
574.162482525017
 30
0.0
 40
4.199982
100
AcDbArc
 50
239.999981276044
 51
299.999981276019
  0
ARC
  5
440B
330
1A
100
AcDbEntity
  8
細線
100
AcDbCircle
 10
390.191285635415
 20
574.162481152486
 30
0.0
 40
4.199982
100
AcDbArc
 50
239.999981276044
 51
299.999981276019
  0
ARC
  5
440C
330
1A
100
AcDbEntity
  8
細線
100
AcDbCircle
 10
390.191283258119
 20
566.887898937611
 30
0.0
 40
4.199982
100
AcDbArc
 50
59.999981276043
 51
119.999981276019
  0
LINE
  5
440D
330
1A
100
AcDbEntity
  8
外形線
100
AcDbLine
 10
381.186769810031
 20
607.781799177063
 30
0.0
 11
374.244710173296
 21
601.769799177063
 31
0.0
  0
LINE
  5
440E
330
1A
100
AcDbEntity
  8
外形線
100
AcDbLine
 10
395.070889083503
 20
607.781799177063
 30
0.0
 11
402.012948720239
 21
601.769799177063
 31
0.0
  0
LINE
  5
440F
330
1A
100
AcDbEntity
  8
外形線
100
AcDbLine
 10
395.070889083503
 20
599.104224631144
 30
0.0
 11
395.070889083503
 21
607.781799177063
 31
0.0
  0
LINE
  5
4410
330
1A
100
AcDbEntity
  8
外形線
100
AcDbLine
 10
381.186769810031
 20
599.104224631144
 30
0.0
 11
381.186769810031
 21
607.781799177063
 31
0.0
  0
LWPOLYLINE
  5
4411
330
1A
100
AcDbEntity
  8
外形線
100
AcDbPolyline
 90
       47
 70
     0
 43
0.0
 10
392.291273946767
 20
582.617485068533
 10
392.750527737666
 20
582.732355512887
 10
393.159145234935
 20
582.858575130733
 10
393.512649539768
 20
582.994761033524
 10
393.807167585026
 20
583.139421140012
 10
394.039472569372
 20
583.290970523798
 10
394.207019310786
 20
583.447748778117
 10
394.307972132105
 20
583.608038207611
 10
394.341224973097
 20
583.770082647743
 10
394.306413508673
 20
583.932106705721
 10
394.203919140526
 20
584.092335212058
 10
394.034864818399
 20
584.24901266971
 10
393.801102736823
 20
584.400422487661
 10
393.505194042082
 20
584.544905788264
 10
393.150380771759
 20
584.680879582241
 10
392.74055033429
 20
584.806854112251
 10
392.280192917714
 20
584.921449174983
 10
391.774352294223
 20
585.023409242948
 10
391.228570559539
 20
585.111617220305
 10
390.64882741256
 20
585.185106681995
 10
390.041474640526
 20
585.243072462097
 10
389.413166527502
 20
585.284879475393
 10
388.770786948657
 20
585.310069675499
 10
388.121373949082
 20
585.31836707331
 10
387.472042633501
 20
585.3096807608
 10
386.829907211686
 20
585.284105907026
 10
386.202003053696
 20
585.241922715437
 10
385.595209608884
 20
585.183593353909
 10
385.016175033209
 20
585.109756891131
 10
384.471243350654
 20
585.021222294843
 10
383.966384946767
 20
584.918959568609
 10
383.50713115587
 20
584.804089124255
 10
383.0985136586
 20
584.677869506409
 10
382.745009353766
 20
584.541683603618
 10
382.450491308509
 20
584.39702349713
 10
382.218186324163
 20
584.245474113344
 10
382.05063958275
 20
584.088695859025
 10
381.949686761429
 20
583.928406429532
 10
381.916433920438
 20
583.766361989398
 10
381.951245384862
 20
583.604337931421
 10
382.053739753009
 20
583.444109425084
 10
382.222794075136
 20
583.287431967432
 10
382.456556156711
 20
583.136022149482
 10
382.752464851453
 20
582.991538848879
 10
383.107278121777
 20
582.855565054901
 10
383.517108559244
 20
582.729590524889
 10
383.891311446768
 20
582.634673643022
  0
ARC
  5
4412
330
1A
100
AcDbEntity
  8
外形線
100
AcDbCircle
 10
388.128829446767
 20
615.955003385271
 30
0.0
 40
34.15159996140045
100
AcDbArc
 50
255.26831657715
 51
262.87239111701
  0
LWPOLYLINE
  5
4413
330
1A
100
AcDbEntity
  8
外形線
100
AcDbPolyline
 90
       34
 70
     0
 43
0.0
 10
399.802129446767
 20
591.183158231042
 10
399.748387889167
 20
591.742576342489
 10
399.587658047307
 20
592.296843553905
 10
399.321419857803
 20
592.840856392707
 10
398.952124736283
 20
593.369605804502
 10
398.483173005707
 20
593.878223274481
 10
397.918882587564
 20
594.362025654763
 10
397.264449244153
 20
594.816558284972
 10
396.525898738059
 20
595.237636008981
 10
395.71003134934
 20
595.621381710161
 10
394.824359261224
 20
595.964262010342
 10
393.877037390923
 20
596.26311980375
 10
392.876788302385
 20
596.515203326392
 10
391.832821892382
 20
596.718191493202
 10
390.75475058944
 20
596.870215269671
 10
389.65250084641
 20
596.969874881178
 10
388.536221741624
 20
597.016252701563
 10
387.416191530216
 20
597.008921702251
 10
386.302723006013
 20
596.947949384177
 10
385.206068545439
 20
596.833897156255
 10
384.136325707684
 20
596.667815166152
 10
383.103344260396
 20
596.451232630943
 10
382.11663548692
 20
596.186143756685
 10
381.185284610184
 20
595.874989376562
 10
380.317867139558
 20
595.520634476664
 10
379.522369910982
 20
595.126341816322
 10
378.806117547333
 20
594.695741885922
 10
378.175705016214
 20
594.232799478791
 10
377.636936906104
 20
593.741777184949
 10
377.194773980013
 20
593.22719614287
 10
376.853287498747
 20
592.693794410639
 10
376.615621734343
 20
592.146483339788
 10
376.48396501887
 20
591.590302353521
 10
376.455529446767
 20
591.183158231042
  0
ARC
  5
4414
330
1A
100
AcDbEntity
  8
外形線
100
AcDbCircle
 10
388.128829446767
 20
610.771618043341
 30
0.0
 40
13.57645981229912
100
AcDbArc
 50
239.247497502359
 51
300.75250249764
  0
LINE
  5
4415
330
1A
100
AcDbEntity
  8
外形線
100
AcDbLine
 10
376.455529446767
 20
591.183158231042
 30
0.0
 11
376.455529446767
 21
586.802305490515
 31
0.0
  0
ARC
  5
4416
330
1A
100
AcDbEntity
  8
外形線
100
AcDbCircle
 10
380.463529446767
 20
586.802305490515
 30
0.0
 40
4.007999999999999
100
AcDbArc
 50
180.0
 51
255.26831657715
  0
ARC
  5
4417
330
1A
100
AcDbEntity
  8
外形線
100
AcDbCircle
 10
373.736078255794
 20
600.69354218012
 30
0.0
 40
7.618315752702329
100
AcDbArc
 50
273.828163206422
 51
347.958626091838
  0
LINE
  5
4418
330
1A
100
AcDbEntity
  8
外形線
100
AcDbLine
 10
376.452778329565
 20
591.179981514527
 30
0.0
 11
374.244710173296
 21
593.092224631144
 31
0.0
  0
LINE
  5
4419
330
1A
100
AcDbEntity
  8
外形線
100
AcDbLine
 10
374.244710173296
 20
601.769799177063
 30
0.0
 11
374.244710173296
 21
593.092224631144
 31
0.0
  0
LINE
  5
441A
330
1A
100
AcDbEntity
  8
外形線
100
AcDbLine
 10
399.802129446767
 20
591.183158231042
 30
0.0
 11
399.802129446767
 21
586.802305490515
 31
0.0
  0
LWPOLYLINE
  5
441B
330
1A
100
AcDbEntity
  8
外形線
100
AcDbPolyline
 90
       29
 70
     0
 43
0.0
 10
392.291273946767
 20
583.708792731314
 10
392.264275861136
 20
583.810764198641
 10
392.183628699427
 20
583.911424691349
 10
392.050369284827
 20
584.009480089091
 10
391.866210838835
 20
584.103669763368
 10
391.633520955592
 20
584.192782784543
 10
391.3552911634
 20
584.27567348989
 10
391.035098464778
 20
584.351276212575
 10
390.677059349482
 20
584.418618982177
 10
390.285776871727
 20
584.476836020606
 10
389.866281471986
 20
584.525178872816
 10
389.423966304206
 20
584.563026029144
 10
388.964517899858
 20
584.589890915623
 10
388.493843060245
 20
584.605428149517
 10
388.017992916964
 20
584.609437979666
 10
387.543085136809
 20
584.601868854533
 10
387.075225271285
 20
584.582818084976
 10
386.620428261866
 20
584.552530593186
 10
386.184541110184
 20
584.511395763904
 10
385.773167707276
 20
584.459942438366
 10
385.391596788352
 20
584.398832115376
 10
385.044733939285
 20
584.328850446887
 10
384.737038528985
 20
584.250897137429
 10
384.47246637846
 20
584.16597437725
 10
384.254418903646
 20
584.075173957867
 10
384.085699385818
 20
583.97966323568
 10
383.968476931796
 20
583.880670124101
 10
383.904258587288
 20
583.779467307152
 10
383.891311446768
 20
583.708792731314
  0
ARC
  5
441C
330
1A
100
AcDbEntity
  8
外形線
100
AcDbCircle
 10
388.128829446767
 20
615.955003385271
 30
0.0
 40
34.15159996140045
100
AcDbArc
 50
277.000695446903
 51
284.73168342285
  0
ARC
  5
441D
330
1A
100
AcDbEntity
  8
外形線
100
AcDbCircle
 10
395.794129446767
 20
586.802305490515
 30
0.0
 40
4.007999999999999
100
AcDbArc
 50
284.731683422849
 51
0.0
  0
LINE
  5
441E
330
1A
100
AcDbEntity
  8
外形線
100
AcDbLine
 10
399.80488056397
 20
591.179981514527
 30
0.0
 11
402.012948720239
 21
593.092224631144
 31
0.0
  0
ARC
  5
441F
330
1A
100
AcDbEntity
  8
外形線
100
AcDbCircle
 10
402.521580637741
 20
600.69354218012
 30
0.0
 40
7.618315752702329
100
AcDbArc
 50
192.041373908162
 51
266.171836793578
  0
LINE
  5
4420
330
1A
100
AcDbEntity
  8
外形線
100
AcDbLine
 10
402.012948720239
 20
593.092224631144
 30
0.0
 11
402.012948720239
 21
601.769799177063
 31
0.0
  0
LWPOLYLINE
  5
4421
330
1A
100
AcDbEntity
  8
外形線
100
AcDbPolyline
 90
       34
 70
     0
 43
0.0
 10
398.627284446768
 20
607.488702124879
 10
398.578951642496
 20
607.859540059344
 10
398.43439825897
 20
608.226963465235
 10
398.194955286393
 20
608.587589253596
 10
397.862827420663
 20
608.938096925241
 10
397.441072763401
 20
609.275259144592
 10
396.933574664167
 20
609.595971455691
 10
396.345005964115
 20
609.897280866819
 10
395.680785970331
 20
610.176413040458
 10
394.947030557
 20
610.430797838293
 10
394.150495852859
 20
610.658092986029
 10
393.298516033453
 20
610.856205640122
 10
392.398935790949
 20
611.023311657851
 10
391.460038103327
 20
611.157872393302
 10
390.490467967999
 20
611.258648864607
 10
389.49915280211
 20
611.324713162
 10
388.495220242421
 20
611.35545699164
 10
387.487914101645
 20
611.350597276543
 10
386.486509255093
 20
611.310178763033
 10
385.500226241302
 20
611.234573608753
 10
384.538146362969
 20
611.124477955964
 10
383.609128069926
 20
610.980905521759
 10
382.721725394038
 20
610.805178264154
 10
381.884109187084
 20
610.598914210018
 10
381.103991886786
 20
610.364012556929
 10
380.388556503746
 20
610.102636186116
 10
379.744390483133
 20
609.817191747506
 10
379.177425050104
 20
609.510307500242
 10
378.692880597428
 20
609.184809112723
 10
378.295218618191
 20
608.843693644963
 10
377.988100626134
 20
608.490101952859
 10
377.774354441881
 20
608.127289768425
 10
377.655948155497
 20
607.758597722323
 10
377.630374446767
 20
607.488702124879
  0
LINE
  5
4422
330
1A
100
AcDbEntity
  8
外形線
100
AcDbLine
 10
381.186769810031
 20
607.781799177063
 30
0.0
 11
395.070889083503
 21
607.781799177063
 31
0.0
  0
LINE
  5
4423
330
1A
100
AcDbEntity
  8
外形線
100
AcDbLine
 10
381.186769810031
 20
616.459373722984
 30
0.0
 11
395.070889083503
 21
616.459373722984
 31
0.0
  0
LINE
  5
4424
330
1A
100
AcDbEntity
  8
外形線
100
AcDbLine
 10
381.186769810031
 20
612.120586450024
 30
0.0
 11
395.070889083503
 21
612.120586450024
 31
0.0
  0
LINE
  5
4425
330
1A
100
AcDbEntity
  8
外形線
100
AcDbLine
 10
403.278838446768
 20
618.262570731314
 30
0.0
 11
380.178847446768
 21
618.262570731314
 31
0.0
  0
LINE
  5
4426
330
1A
100
AcDbEntity
  8
外形線
100
AcDbLine
 10
380.497630681939
 20
615.862561731314
 30
0.0
 11
377.778838446767
 21
615.862561731314
 31
0.0
  0
LINE
  5
4427
330
1A
100
AcDbEntity
  8
外形線
100
AcDbLine
 10
374.244710173296
 20
610.447373722984
 30
0.0
 11
381.186769810031
 21
616.459373722984
 31
0.0
  0
ARC
  5
4428
330
1A
100
AcDbEntity
  8
外形線
100
AcDbCircle
 10
380.178847446768
 20
612.862561731314
 30
0.0
 40
5.4
100
AcDbArc
 50
89.999981276021
 51
180.00001984784
  0
LINE
  5
4429
330
1A
100
AcDbEntity
  8
外形線
100
AcDbLine
 10
381.186769810031
 20
612.120586450024
 30
0.0
 11
374.244710173296
 21
606.108586450024
 31
0.0
  0
ARC
  5
442A
330
1A
100
AcDbEntity
  8
外形線
100
AcDbCircle
 10
377.778838446767
 20
612.862561731314
 30
0.0
 40
3.0
100
AcDbArc
 50
89.999981276021
 51
211.533239298813
  0
LINE
  5
442B
330
1A
100
AcDbEntity
  8
外形線
100
AcDbLine
 10
376.749710173296
 20
603.939192813544
 30
0.0
 11
374.244710173296
 21
606.108586450024
 31
0.0
  0
LINE
  5
442C
330
1A
100
AcDbEntity
  8
外形線
100
AcDbLine
 10
377.630374446767
 20
607.488702124879
 30
0.0
 11
377.630374446767
 21
604.701870446576
 31
0.0
  0
LINE
  5
442D
330
1A
100
AcDbEntity
  8
外形線
100
AcDbLine
 10
374.244710173296
 20
606.108586450024
 30
0.0
 11
374.244710173296
 21
610.447373722984
 31
0.0
  0
LINE
  5
442E
330
1A
100
AcDbEntity
  8
細線
100
AcDbLine
 10
378.985579446767
 20
605.875512403912
 30
0.0
 11
378.985579446767
 21
609.427053613557
 31
0.0
  0
LINE
  5
442F
330
1A
100
AcDbEntity
  8
外形線
100
AcDbLine
 10
381.186769810031
 20
612.120586450024
 30
0.0
 11
381.186769810031
 21
616.459373722984
 31
0.0
  0
LINE
  5
4430
330
1A
100
AcDbEntity
  8
細線
100
AcDbLine
 10
397.272079446767
 20
605.875512403912
 30
0.0
 11
397.272079446767
 21
609.530457931405
 31
0.0
  0
LINE
  5
4431
330
1A
100
AcDbEntity
  8
外形線
100
AcDbLine
 10
403.278838446768
 20
615.862561731314
 30
0.0
 11
395.760028211595
 21
615.862561731314
 31
0.0
  0
LINE
  5
4432
330
1A
100
AcDbEntity
  8
外形線
100
AcDbLine
 10
402.012948720239
 20
610.447373722984
 30
0.0
 11
395.070889083503
 21
616.459373722984
 31
0.0
  0
LINE
  5
4433
330
1A
100
AcDbEntity
  8
外形線
100
AcDbLine
 10
395.070889083503
 20
612.120586450024
 30
0.0
 11
395.070889083503
 21
616.459373722984
 31
0.0
  0
LINE
  5
4434
330
1A
100
AcDbEntity
  8
外形線
100
AcDbLine
 10
399.507948720239
 20
603.939192813544
 30
0.0
 11
402.012948720239
 21
606.108586450024
 31
0.0
  0
LINE
  5
4435
330
1A
100
AcDbEntity
  8
外形線
100
AcDbLine
 10
395.070889083503
 20
612.120586450024
 30
0.0
 11
402.012948720239
 21
606.108586450024
 31
0.0
  0
LINE
  5
4436
330
1A
100
AcDbEntity
  8
外形線
100
AcDbLine
 10
398.627284446768
 20
607.488702124879
 30
0.0
 11
398.627284446768
 21
604.701870446576
 31
0.0
  0
LINE
  5
4437
330
1A
100
AcDbEntity
  8
外形線
100
AcDbLine
 10
402.012948720239
 20
606.108586450024
 30
0.0
 11
402.012948720239
 21
610.447373722984
 31
0.0
  0
ARC
  5
4438
330
1A
100
AcDbEntity
  8
外形線
 48
10.0
100
AcDbCircle
 10
49.036833472029
 20
653.962597731314
 30
0.0
 40
13.2204999999999
100
AcDbArc
 50
93.903491864735
 51
266.096508135265
  0
ARC
  5
4439
330
1A
100
AcDbEntity
  8
細線
 48
10.0
100
AcDbCircle
 10
49.036833472029
 20
653.962597731314
 30
0.0
 40
12.05849999999998
100
AcDbArc
 50
94.280316570382
 51
265.719683429618
  0
ARC
  5
443A
330
1A
100
AcDbEntity
  8
細線
 48
10.0
100
AcDbCircle
 10
49.036833472029
 20
653.962597731314
 30
0.0
 40
12.05849999999998
100
AcDbArc
 50
274.280316570382
 51
85.719683429618
  0
ARC
  5
443B
330
1A
100
AcDbEntity
  8
外形線
 48
10.0
100
AcDbCircle
 10
49.036833472029
 20
653.962597731314
 30
0.0
 40
13.2204999999999
100
AcDbArc
 50
273.903491864735
 51
86.096508135265
  0
LINE
  5
443C
330
1A
100
AcDbEntity
  8
寸法線
 48
10.0
100
AcDbLine
 10
453.778838446768
 20
617.664130744672
 30
0.0
 11
453.778838446768
 21
588.288838169683
 31
0.0
  0
DIMENSION
  5
44B2
330
1A
100
AcDbEntity
  8
寸法線
 48
10.0
100
AcDbDimension
  2
*D39
 10
453.778838446768
 20
558.951516961345
 30
0.0
 11
412.278838446768
 21
562.585891961345
 31
0.0
 70
    32
  1
83
  3
ISO-25
100
AcDbAlignedDimension
 13
370.778838446768
 23
635.062597731314
 33
0.0
 14
453.778838446768
 24
578.409325970963
 34
0.0
100
AcDbRotatedDimension
1001
ACAD
1000
DSTYLE
1002
{
1070
     5
1000
OPEN30
1070
    41
1040
6.0
1070
    47
1040
0.1
1070
    48
1040
0.1
1070
    73
1070
     0
1070
   140
1040
6.0
1070
   271
1070
     1
1070
   272
1070
     1
1070
   341
1005
2AF4
1002
}
  0
LINE
  5
44B3
330
1A
100
AcDbEntity
  8
中心線
 48
10.0
100
AcDbLine
 10
457.410884746427
 20
644.137570731314
 30
0.0
 11
366.637972179007
 21
644.137570731314
 31
0.0
  0
LINE
  5
44C0
330
1A
100
AcDbEntity
  8
外形線
 48
10.0
100
AcDbLine
 10
370.778838446768
 20
635.062597731314
 30
0.0
 11
370.778838446768
 21
672.862597731314
 31
0.0
  0
LINE
  5
4665
330
1A
100
AcDbEntity
  8
外形線
100
AcDbLine
 10
326.628899446777
 20
674.962597508511
 30
0.0
 11
333.078926446777
 21
674.962597508511
 31
0.0
  0
LINE
  5
4666
330
1A
100
AcDbEntity
  8
細線
 62
     6
100
AcDbLine
 10
326.628899446777
 20
664.462597508511
 30
0.0
 11
333.078926446777
 21
664.462597508511
 31
0.0
  0
LINE
  5
4667
330
1A
100
AcDbEntity
  8
外形線
100
AcDbLine
 10
333.078926446777
 20
676.462597508511
 30
0.0
 11
333.078926446777
 21
631.462597508511
 31
0.0
  0
LINE
  5
4668
330
1A
100
AcDbEntity
  8
外形線
100
AcDbLine
 10
333.078926446777
 20
676.462597508511
 30
0.0
 11
335.778908446777
 21
676.462597508511
 31
0.0
  0
LINE
  5
4669
330
1A
100
AcDbEntity
  8
外形線
100
AcDbLine
 10
323.628921946777
 20
635.962597508511
 30
0.0
 11
323.628921946777
 21
671.962597508511
 31
0.0
  0
LINE
  5
466A
330
1A
100
AcDbEntity
  8
外形線
100
AcDbLine
 10
323.628921946777
 20
671.962597508511
 30
0.0
 11
326.628899446777
 21
674.962597508511
 31
0.0
  0
LINE
  5
466B
330
1A
100
AcDbEntity
  8
外形線
100
AcDbLine
 10
326.628899446777
 20
632.962597508511
 30
0.0
 11
333.078926446777
 21
632.962597508511
 31
0.0
  0
LINE
  5
466C
330
1A
100
AcDbEntity
  8
細線
 62
     6
100
AcDbLine
 10
326.628899446777
 20
643.462597508511
 30
0.0
 11
333.078926446777
 21
643.462597508511
 31
0.0
  0
LINE
  5
466D
330
1A
100
AcDbEntity
  8
外形線
100
AcDbLine
 10
333.078926446777
 20
631.462597508511
 30
0.0
 11
335.778908446777
 21
631.462597508511
 31
0.0
  0
LINE
  5
466E
330
1A
100
AcDbEntity
  8
外形線
100
AcDbLine
 10
323.628921946777
 20
635.962597508511
 30
0.0
 11
326.628899446777
 21
632.962597508511
 31
0.0
  0
ARC
  5
4682
330
1A
100
AcDbEntity
  8
細線
 62
     6
100
AcDbCircle
 10
343.504050946777
 20
653.962597508511
 30
0.0
 40
19.875129
100
AcDbArc
 50
148.109418153978
 51
211.890564245926
  0
ARC
  5
4683
330
1A
100
AcDbEntity
  8
細線
 62
     6
100
AcDbCircle
 10
334.630562446777
 20
672.013204508511
 30
0.0
 40
11.0017755
100
AcDbArc
 50
180.263580433607
 51
223.338604767317
  0
ARC
  5
4684
330
1A
100
AcDbEntity
  8
細線
 62
     6
100
AcDbCircle
 10
334.630562446777
 20
635.911992008511
 30
0.0
 40
11.0017755
100
AcDbArc
 50
136.66137763259
 51
179.736401966304
  0
LINE
  5
4688
330
1A
100
AcDbEntity
  8
外形線
100
AcDbLine
 10
335.778908446777
 20
676.462597508511
 30
0.0
 11
335.778908446777
 21
631.462597508511
 31
0.0
  0
LINE
  5
46B6
330
1A
100
AcDbEntity
  8
隠れ線
 48
10.0
100
AcDbLine
 10
335.778908446777
 20
700.67831056632
 30
0.0
 11
335.778908446777
 21
676.462597508511
 31
0.0
  0
LINE
  5
46B8
330
1A
100
AcDbEntity
  8
隠れ線
 48
10.0
100
AcDbLine
 10
335.778908446777
 20
602.643492735674
 30
0.0
 11
335.778908446777
 21
631.462620008511
 31
0.0
  0
DIMENSION
  5
46D6
330
1A
100
AcDbEntity
  8
寸法線
 48
10.0
100
AcDbDimension
  2
*D60
 10
319.162671520186
 20
640.742097731314
 30
0.0
 11
319.162671520186
 21
685.508097731314
 31
0.0
 70
   160
  1
G 3/4"
  3
ISO-25
100
AcDbAlignedDimension
 13
317.499709444804
 23
667.183097731314
 33
0.0
 14
317.576787306939
 24
640.742097731314
 34
0.0
 50
90.0
100
AcDbRotatedDimension
1001
ACAD
1000
DSTYLE
1002
{
1070
     5
1000
OPEN30
1070
    41
1040
6.0
1070
    47
1040
0.1
1070
    48
1040
0.1
1070
    73
1070
     0
1070
   140
1040
6.0
1070
   271
1070
     1
1070
   272
1070
     1
1070
   341
1005
2AF4
1002
}
  0
LWPOLYLINE
  5
46EB
330
1A
100
AcDbEntity
  8
細線
100
AcDbPolyline
 90
        2
 70
     0
 43
0.0
 10
315.778838446778
 20
641.904097731314
 10
323.628921946777
 20
641.904097731314
  0
LWPOLYLINE
  5
46EC
330
1A
100
AcDbEntity
  8
細線
100
AcDbPolyline
 90
        2
 70
     0
 43
0.0
 10
323.628921946777
 20
666.021097731314
 10
315.778838446778
 20
666.021097731314
  0
LWPOLYLINE
  5
46ED
330
1A
100
AcDbEntity
  8
外形線
100
AcDbPolyline
 90
        6
 70
     0
 43
0.0
 10
323.628921946777
 20
667.183097731314
 10
316.278838446778
 20
667.183097731314
 10
315.778838446778
 20
666.683097731314
 10
315.778838446778
 20
641.242097731314
 10
316.278838446778
 20
640.742097731314
 10
323.628921946777
 20
640.742097731314
  0
ARC
  5
47B6
330
1A
100
AcDbEntity
  8
外形線
 48
10.0
100
AcDbCircle
 10
49.036833472029
 20
653.962597731314
 30
0.0
 40
10.0
100
AcDbArc
 50
95.163607090846
 51
264.836392909154
  0
ARC
  5
47B7
330
1A
100
AcDbEntity
  8
外形線
 48
10.0
100
AcDbCircle
 10
49.036833472029
 20
653.962597731314
 30
0.0
 40
10.0
100
AcDbArc
 50
275.163607090846
 51
84.836392909154
  0
LINE
  5
4801
330
1A
100
AcDbEntity
  8
寸法線
100
AcDbLine
 10
384.745657128695
 20
484.851524436224
 30
0.0
 11
384.745657128695
 21
536.628208043013
 31
0.0
  0
LINE
  5
4802
330
1A
100
AcDbEntity
  8
寸法線
100
AcDbLine
 10
460.647540547243
 20
526.128208043013
 30
0.0
 11
330.312864192533
 21
526.128208043013
 31
0.0
  0
LINE
  5
4803
330
1A
100
AcDbEntity
  8
寸法線
100
AcDbLine
 10
460.647540547243
 20
515.628208043013
 30
0.0
 11
330.312864192533
 21
515.628208043013
 31
0.0
  0
LINE
  5
4804
330
1A
100
AcDbEntity
  8
寸法線
100
AcDbLine
 10
460.647540547243
 20
505.128208043013
 30
0.0
 11
330.312864192533
 21
505.128208043013
 31
0.0
  0
LINE
  5
4805
330
1A
100
AcDbEntity
  8
寸法線
100
AcDbLine
 10
330.312864192533
 20
536.628208043013
 30
0.0
 11
460.647540547243
 21
536.628208043013
 31
0.0
  0
LINE
  5
4806
330
1A
100
AcDbEntity
  8
寸法線
100
AcDbLine
 10
354.312886692533
 20
484.851524436224
 30
0.0
 11
354.312886692533
 21
536.628208043013
 31
0.0
  0
ARC
  5
4807
330
1A
100
AcDbEntity
  8
寸法線
100
AcDbCircle
 10
370.287933306711
 20
529.468142543013
 30
0.0
 40
1.3204605
100
AcDbArc
 50
252.904086432753
 51
337.411923467762
  0
ARC
  5
4808
330
1A
100
AcDbEntity
  8
寸法線
100
AcDbCircle
 10
370.287933306711
 20
529.468097543013
 30
0.0
 40
1.3204425
100
AcDbArc
 50
252.903398883386
 51
337.412611017143
  0
ARC
  5
4809
330
1A
100
AcDbEntity
  8
寸法線
100
AcDbCircle
 10
366.884643306712
 20
531.959705543013
 30
0.0
 40
3.7598535
100
AcDbArc
 50
273.280470979893
 51
33.415912335964
  0
ARC
  5
480A
330
1A
100
AcDbEntity
  8
寸法線
100
AcDbCircle
 10
371.647627806711
 20
531.206042543013
 30
0.0
 40
3.472035
100
AcDbArc
 50
123.469024399709
 51
239.774013712219
  0
ARC
  5
480B
330
1A
100
AcDbEntity
  8
寸法線
100
AcDbCircle
 10
371.647627806711
 20
531.206042543013
 30
0.0
 40
3.4720395
100
AcDbArc
 50
123.469024399708
 51
239.77389912065
  0
ARC
  5
480C
330
1A
100
AcDbEntity
  8
寸法線
100
AcDbCircle
 10
369.845275806711
 20
533.934863543013
 30
0.0
 40
0.2017125
100
AcDbArc
 50
28.230948368979
 51
123.883845843398
  0
LINE
  5
480D
330
1A
100
AcDbEntity
  8
寸法線
100
AcDbLine
 10
460.647540547243
 20
494.628253043013
 30
0.0
 11
330.312864192533
 21
494.628253043013
 31
0.0
  0
LINE
  5
480E
330
1A
100
AcDbEntity
  8
寸法線
100
AcDbLine
 10
330.312886692533
 20
484.851524436224
 30
0.0
 11
330.312886692533
 21
536.628208043013
 31
0.0
  0
TEXT
  5
480F
330
1A
100
AcDbEntity
  8
寸法線
100
AcDbText
 10
332.341191192533
 20
528.190387043013
 30
0.0
 40
6.75
  1
御仕様
 41
0.882352941176
  7
EXCADSTD
 72
     5
 11
352.591191192533
 21
528.190387043013
 31
0.0
100
AcDbText
  0
LINE
  5
4810
330
1A
100
AcDbEntity
  8
寸法線
100
AcDbLine
 10
460.647540547243
 20
484.851524436224
 30
0.0
 11
460.647540547243
 21
536.628208043013
 31
0.0
  0
LINE
  5
4811
330
1A
100
AcDbEntity
  8
寸法線
100
AcDbLine
 10
436.785512936006
 20
484.851524436224
 30
0.0
 11
436.785512936006
 21
536.628208043013
 31
0.0
  0
TEXT
  5
4812
330
1A
100
AcDbEntity
  8
寸法線
100
AcDbText
 10
441.654697887721
 20
528.040331543013
 30
0.0
 40
6.75
  1
台数
 41
0.909090909091
  7
EXCADSTD
 72
     5
 11
455.154697887721
 21
528.040331543013
 31
0.0
100
AcDbText
  0
TEXT
  5
4813
330
1A
100
AcDbEntity
  8
寸法線
100
AcDbText
 10
403.050436128695
 20
528.190342043013
 30
0.0
 40
6.75
  1
記事
 41
0.909090909091
  7
EXCADSTD
 72
     5
 11
416.550436128695
 21
528.190342043013
 31
0.0
100
AcDbText
  0
MTEXT
  5
4814
102
{ACAD_XDICTIONARY
360
4815
102
}
330
1A
100
AcDbEntity
  8
隠れ線
 48
10.0
100
AcDbMText
 10
368.742680757462
 20
523.056214920641
 30
0.0
 40
6.0
 41
19.035286317203
 71
     2
 72
     5
  1
\C1;150\P200\P250\P300
1001
ACADANNOTATIVE
1000
AnnotativeData
1002
{
1070
     1
1070
     0
1002
}
  0
MTEXT
  5
4818
330
1A
100
AcDbEntity
  8
隠れ線
 48
10.0
100
AcDbMText
 10
359.384589823747
 20
482.210646550977
 30
0.0
 40
6.0
 41
102.645465564322
 71
     1
 72
     5
  1
{\C1;○印が今回の貴社の御仕様です。}
  0
LINE
  5
4819
330
1A
100
AcDbEntity
  8
寸法線
100
AcDbLine
 10
460.647540547243
 20
484.851524436224
 30
0.0
 11
330.312864192533
 21
484.851524436224
 31
0.0
  0
VIEWPORT
  5
2902
330
28FB
100
AcDbEntity
 67
     1
  8
0
 48
10.0
100
AcDbViewport
 10
0.0
 20
0.0
 30
0.0
 40
470.708333333333
 41
300.3
 68
     1
 69
     1
1001
ACAD
1000
MVIEW
1002
{
1070
    16
1010
0.0
1020
0.0
1030
0.0
1010
0.0
1020
0.0
1030
1.0
1040
0.0
1040
300.3
1040
206.482943333333
1040
144.277943333333
1040
50.0
1040
0.0
1040
0.0
1070
    16
1070
   100
1070
     0
1070
     1
1070
     0
1070
     0
1070
     0
1070
     0
1040
0.0
1040
0.0
1040
0.0
1040
10.0
1040
10.0
1040
10.0
1040
10.0
1070
     0
1002
{
1002
}
1002
}
  0
VIEWPORT
  5
2904
330
28FB
100
AcDbEntity
 67
     1
  8
図枠太線
 48
10.0
100
AcDbViewport
 10
202.746305129083
 20
159.796645458131
 30
0.0
 40
396.0
 41
237.6
 68
     2
 69
     2
1001
ACAD
1000
MVIEW
1002
{
1070
    16
1010
0.0
1020
0.0
1030
0.0
1010
0.0
1020
0.0
1030
1.0
1040
0.0
1040
356.400006424294
1040
245.363940751085
1040
590.656421221043
1040
50.0
1040
0.0
1040
0.0
1070
     0
1070
   100
1070
     0
1070
     0
1070
     0
1070
     0
1070
     0
1070
     0
1040
0.0
1040
0.0
1040
0.0
1040
1.0
1040
1.0
1040
0.0
1040
0.0
1070
     0
1002
{
1002
}
1002
}
  0
INSERT
  5
2A59
330
28FB
100
AcDbEntity
 67
     1
  8
図枠太線
100
AcDbBlockReference
  2
A3横用_タイトル
 10
-0.301125261351
 20
-2.09405469786
 30
0.0
 41
0.99
 42
0.99
 43
0.99
  0
MTEXT
  5
322B
330
28FB
100
AcDbEntity
 67
     1
  8
寸法線
 48
10.0
100
AcDbMText
 10
146.778370616794
 20
13.813697882368
 30
0.0
 40
7.0
 41
20.13579853524
 71
     1
 72
     5
  1
1:1.5
  0
MTEXT
  5
322C
102
{ACAD_XDICTIONARY
360
4093
102
}
330
28FB
100
AcDbEntity
 67
     1
  8
寸法線
 48
10.0
100
AcDbMText
 10
174.49977304088
 20
12.573033279747
 30
0.0
 40
5.0
 41
27.082042865391
 71
     1
 72
     5
  1
2015.6.15
1001
ACADANNOTATIVE
1000
AnnotativeData
1002
{
1070
     1
1070
     0
1002
}
  0
MTEXT
  5
322D
102
{ACAD_XDICTIONARY
360
4096
102
}
330
28FB
100
AcDbEntity
 67
     1
  8
寸法線
 48
10.0
100
AcDbMText
 10
176.95054265751
 20
32.448193246353
 30
0.0
 40
5.0
 41
24.387591709532
 71
     1
 72
     5
  1
ohno
1001
ACADANNOTATIVE
1000
AnnotativeData
1002
{
1070
     1
1070
     0
1002
}
  0
MTEXT
  5
322F
330
28FB
100
AcDbEntity
 67
     1
  8
寸法線
 48
10.0
100
AcDbMText
 10
307.893246465357
 20
33.656722730889
 30
0.0
 40
7.0
 41
37.345612043362
 71
     1
 72
     5
  1
HL-400GS
  0
MTEXT
  5
3230
330
28FB
100
AcDbEntity
 67
     1
  8
寸法線
 48
10.0
100
AcDbMText
 10
358.116189536547
 20
38.167964124636
 30
0.0
 40
5.0
 41
42.043281739348
 71
     1
 72
     5
  1
パドル式\Pレベルスイッチ
  0
MTEXT
  5
3231
102
{ACAD_XDICTIONARY
360
4090
102
}
330
28FB
100
AcDbEntity
 67
     1
  8
寸法線
 48
10.0
100
AcDbMText
 10
339.93300511373
 20
14.50279691064
 30
0.0
 40
7.0
 41
36.545313751788
 71
     1
 72
     5
  1
\H1.143x;HB-6007
1001
ACADANNOTATIVE
1000
AnnotativeData
1002
{
1070
     1
1070
     0
1002
}
  0
MTEXT
  5
3234
102
{ACAD_XDICTIONARY
360
481A
102
}
330
28FB
100
AcDbEntity
 67
     1
  8
寸法線
 48
10.0
100
AcDbMText
 10
369.783084703168
 20
49.017687915091
 30
0.0
 40
5.0
 41
34.334449052711
 71
     1
 72
     5
  1
台数   台
1001
ACADANNOTATIVE
1000
AnnotativeData
1002
{
1070
     1
1070
     0
1002
}
  0
ENDSEC
  0
SECTION
  2
OBJECTS
  0
DICTIONARY
  5
C
330
0
100
AcDbDictionary
  3
ACAD_COLOR
350
2948
  3
ACAD_GROUP
350
D
  3
ACAD_LAYOUT
350
2816
  3
ACAD_MATERIAL
350
2947
  3
ACAD_MLEADERSTYLE
350
408C
  3
ACAD_MLINESTYLE
350
E
  3
ACAD_PLOTSETTINGS
350
2817
  3
ACAD_SCALELIST
350
4065
  3
ACAD_VISUALSTYLE
350
404C
  3
ACADDIM
350
3E48
  3
ACDBHEADERROUNDTRIPXREC
350
4825
  3
ACDBVARIABLEDICTIONARY
350
481D
  3
DWGPROPS
350
484A
  0
DICTIONARY
  5
484B
330
8
100
AcDbDictionary
280
     1
  3
ACAD_XREC_ROUNDTRIP
360
484C
  0
DICTIONARY
  5
29EA
330
2
100
AcDbDictionary
280
     1
  3
ACAD_LAYERFILTERS
360
2B0C
  3
ACAD_LAYERSTATES
360
29EB
  0
DICTIONARY
  5
4386
330
4385
100
AcDbDictionary
280
     1
  3
ACDBCONTEXTDATAMANAGER
360
4387
  0
DICTIONARY
  5
43CB
330
43CA
100
AcDbDictionary
280
     1
  3
ACDBCONTEXTDATAMANAGER
360
43CC
  0
DICTIONARY
  5
43CF
330
43CE
100
AcDbDictionary
280
     1
  3
ACDBCONTEXTDATAMANAGER
360
43D0
  0
DICTIONARY
  5
4815
330
4814
100
AcDbDictionary
280
     1
  3
ACDBCONTEXTDATAMANAGER
360
4816
  0
DICTIONARY
  5
4093
330
322C
100
AcDbDictionary
280
     1
  3
ACDBCONTEXTDATAMANAGER
360
4094
  0
DICTIONARY
  5
4096
330
322D
100
AcDbDictionary
280
     1
  3
ACDBCONTEXTDATAMANAGER
360
4097
  0
DICTIONARY
  5
4090
330
3231
100
AcDbDictionary
280
     1
  3
ACDBCONTEXTDATAMANAGER
360
4091
  0
DICTIONARY
  5
481A
330
3234
100
AcDbDictionary
280
     1
  3
ACDBCONTEXTDATAMANAGER
360
481B
  0
DICTIONARY
  5
2948
102
{ACAD_REACTORS
330
C
102
}
330
C
100
AcDbDictionary
  0
DICTIONARY
  5
D
102
{ACAD_REACTORS
330
C
102
}
330
C
100
AcDbDictionary
  0
DICTIONARY
  5
2816
102
{ACAD_REACTORS
330
C
102
}
330
C
100
AcDbDictionary
  0
DICTIONARY
  5
2947
102
{ACAD_REACTORS
330
C
102
}
330
C
100
AcDbDictionary
  3
BYBLOCK
350
4088
  3
BYLAYER
350
4087
  3
GLOBAL
350
4089
  0
DICTIONARY
  5
408C
102
{ACAD_REACTORS
330
C
102
}
330
C
100
AcDbDictionary
  3
STANDARD
350
408D
  0
DICTIONARY
  5
E
102
{ACAD_REACTORS
330
C
102
}
330
C
100
AcDbDictionary
  3
STANDARD
350
13
  0
DICTIONARY
  5
2817
102
{ACAD_REACTORS
330
C
102
}
330
C
100
AcDbDictionary
  0
DICTIONARY
  5
4065
102
{ACAD_REACTORS
330
C
102
}
330
C
100
AcDbDictionary
  3
A0
350
4066
  3
A1
350
4067
  3
A2
350
4068
  3
A3
350
4069
  3
A4
350
406A
  3
A5
350
406B
  3
A6
350
406C
  3
A7
350
406D
  3
A8
350
406E
  3
A9
350
406F
  3
B0
350
4070
  3
B1
350
4071
  3
B2
350
4072
  3
B3
350
4073
  3
B4
350
4074
  3
B5
350
4075
  3
B6
350
4076
  3
B7
350
4077
  3
B8
350
4078
  3
B9
350
4079
  3
C0
350
407A
  3
C1
350
407B
  3
C2
350
407C
  3
C3
350
407D
  3
C4
350
407E
  3
C5
350
407F
  3
C6
350
4080
  3
C7
350
4081
  3
C8
350
4082
  3
C9
350
4083
  3
D0
350
4084
  3
D1
350
4085
  3
D2
350
4086
  0
DICTIONARY
  5
404C
102
{ACAD_REACTORS
330
C
102
}
330
C
100
AcDbDictionary
  3
2DWIREFRAME
350
4051
  3
BASIC
350
4054
  3
BRIGHTEN
350
4058
  3
COLORCHANGE
350
405C
  3
CONCEPTUAL
350
4056
  3
DIM
350
4057
  3
EDGECOLOROFF
350
405F
  3
FACEPATTERN
350
405B
  3
FLAT
350
404D
  3
FLATWITHEDGES
350
404E
  3
GOURAUD
350
404F
  3
GOURAUDWITHEDGES
350
4050
  3
HIDDEN
350
4053
  3
JITTEROFF
350
405D
  3
LINEPATTERN
350
405A
  3
OVERHANGOFF
350
405E
  3
REALISTIC
350
4055
  3
SHADED
350
4064
  3
SHADED_WITH_EDGES
350
4063
  3
SHADES_OF_GRAY
350
4060
  3
SKETCHY
350
4061
  3
THICKEN
350
4059
  3
WIREFRAME
350
4052
  3
X-RAY
350
4062
  0
XRECORD
  5
3E48
102
{ACAD_REACTORS
330
C
102
}
330
C
100
AcDbXrecord
 90
   990106
  3

 60
     0
 61
     0
 62
     1
 63
     3
 64
     1
 65
     0
 66
     0
 67
     3
 68
     1
 69
     0
 70
     0
 71
     0
 72
     0
 40
0.0
170
     2
  0
DICTIONARY
  5
4825
102
{ACAD_REACTORS
330
C
102
}
330
C
100
AcDbDictionary
  3
CEPSNID
350
482F
  3
CEPSNTYPE
350
482E
  3
COLORDICT
350
4848
  3
DIMSTYLEDATA
350
4845
  3
FINGERPRINTGUID
350
4830
  3
HYPERLINKBASE
350
4828
  3
INSUNITS
350
482D
  3
LAYOUTDICT
350
482A
  3
LWETCUNION
350
482C
  3
MATERIALDICT
350
4849
  3
PLOTSETDICT
350
482B
  3
PSVPSCALE
350
4832
  3
PUCSBASE
350
4835
  3
PUCSORGBACK
350
483B
  3
PUCSORGBOTTOM
350
4837
  3
PUCSORGFRONT
350
483A
  3
PUCSORGLEFT
350
4838
  3
PUCSORGRIGHT
350
4839
  3
PUCSORGTOP
350
4836
  3
PUCSORTHOREF
350
4833
  3
PUCSORTHOVIEW
350
4834
  3
STYLESHEET
350
4829
  3
TSTACKALIGN
350
4826
  3
TSTACKSIZE
350
4827
  3
UCSBASE
350
483E
  3
UCSORGBACK
350
4844
  3
UCSORGBOTTOM
350
4840
  3
UCSORGFRONT
350
4843
  3
UCSORGLEFT
350
4841
  3
UCSORGRIGHT
350
4842
  3
UCSORGTOP
350
483F
  3
UCSORTHOREF
350
483C
  3
UCSORTHOVIEW
350
483D
  3
VERSIONGUID
350
4831
  0
DICTIONARY
  5
481D
102
{ACAD_REACTORS
330
C
102
}
330
C
100
AcDbDictionary
  3
CANNOSCALE
350
481E
  3
CMLEADERSTYLE
350
4820
  3
CTABLESTYLE
350
481F
  3
DIMASSOC
350
4846
  3
HIDETEXT
350
4847
  3
MSLTSCALE
350
4821
  3
XCLIPFRAME
350
4822
  0
XRECORD
  5
484A
102
{ACAD_REACTORS
330
C
102
}
330
C
100
AcDbXrecord
  1
DWGPROPS COOKIE
  2

  3

  4

  6

  7

  8
y-ohno
  9

300
=
301
=
302
=
303
=
304
=
305
=
306
=
307
=
308
=
309
=
 40
0.0
 41
2450576.222302431
 42
2457191.290376273
  1

 90
        0
  0
XRECORD
  5
484C
102
{ACAD_REACTORS
330
484B
102
}
330
484B
100
AcDbXrecord
102
VTR_0.000_0.000_1.000_1.000_VISUALSTYLE
340
4051
102
VTR_0.000_0.000_1.000_1.000_GRIDDISPLAY
 70
     3
102
VTR_0.000_0.000_1.000_1.000_GRIDMAJOR
 70
     5
102
VTR_0.000_0.000_1.000_1.000_DEFAULTLIGHTING
280
     1
102
VTR_0.000_0.000_1.000_1.000_DEFAULTLIGHTINGTYPE
 70
     1
102
VTR_0.000_0.000_1.000_1.000_BRIGHTNESS
141
0.0
102
VTR_0.000_0.000_1.000_1.000_CONTRAST
142
0.0
  0
DICTIONARY
  5
2B0C
102
{ACAD_REACTORS
330
29EA
102
}
330
29EA
100
AcDbDictionary
  0
DICTIONARY
  5
29EB
102
{ACAD_REACTORS
330
29EA
102
}
330
29EA
100
AcDbDictionary
  0
DICTIONARY
  5
4387
102
{ACAD_REACTORS
330
4386
102
}
330
4386
100
AcDbDictionary
  3
ACDB_ANNOTATIONSCALES
350
4388
  0
DICTIONARY
  5
43CC
102
{ACAD_REACTORS
330
43CB
102
}
330
43CB
100
AcDbDictionary
  3
ACDB_ANNOTATIONSCALES
350
43CD
  0
DICTIONARY
  5
43D0
102
{ACAD_REACTORS
330
43CF
102
}
330
43CF
100
AcDbDictionary
  3
ACDB_ANNOTATIONSCALES
350
43D1
  0
DICTIONARY
  5
4816
102
{ACAD_REACTORS
330
4815
102
}
330
4815
100
AcDbDictionary
  3
ACDB_ANNOTATIONSCALES
350
4817
  0
DICTIONARY
  5
4094
102
{ACAD_REACTORS
330
4093
102
}
330
4093
100
AcDbDictionary
  3
ACDB_ANNOTATIONSCALES
350
4095
  0
DICTIONARY
  5
4097
102
{ACAD_REACTORS
330
4096
102
}
330
4096
100
AcDbDictionary
  3
ACDB_ANNOTATIONSCALES
350
4098
  0
DICTIONARY
  5
4091
102
{ACAD_REACTORS
330
4090
102
}
330
4090
100
AcDbDictionary
  3
ACDB_ANNOTATIONSCALES
350
4092
  0
DICTIONARY
  5
481B
102
{ACAD_REACTORS
330
481A
102
}
330
481A
100
AcDbDictionary
  3
ACDB_ANNOTATIONSCALES
350
481C
  0
MATERIAL
  5
4088
102
{ACAD_REACTORS
330
2947
102
}
102
{ACAD_XDICTIONARY
360
484F
102
}
330
2947
100
AcDbMaterial
  1
BYBLOCK
  0
MATERIAL
  5
4087
102
{ACAD_REACTORS
330
2947
102
}
102
{ACAD_XDICTIONARY
360
484D
102
}
330
2947
100
AcDbMaterial
  1
BYLAYER
  0
MATERIAL
  5
4089
102
{ACAD_REACTORS
330
2947
102
}
102
{ACAD_XDICTIONARY
360
4851
102
}
330
2947
100
AcDbMaterial
  1
GLOBAL
  0
ACAD_PROXY_OBJECT
  5
408D
102
{ACAD_REACTORS
330
408C
102
}
330
408C
100
AcDbProxyObject
 90
      499
 91
      507
 93
      610
310
40901902A4063FBFFFFFE0000000000000020400000000000020404214DD185B99185C990000000000000104090141901A00000000000004100000000000000041025764000000000000039000
340
14
340
0
340
10
340
0
 94
        0
1001
ACAD_MLEADERVER
1070
     2
  0
MLINESTYLE
  5
13
102
{ACAD_REACTORS
330
E
102
}
330
E
100
AcDbMlineStyle
  2
STANDARD
 70
     0
  3

 62
     0
 51
90.0
 52
90.0
 71
     2
 49
0.5
 62
   256
  6
BYLAYER
 49
-0.5
 62
   256
  6
BYLAYER
  0
ACAD_PROXY_OBJECT
  5
4066
102
{ACAD_REACTORS
330
4065
102
}
330
4065
100
AcDbProxyObject
 90
      499
 91
      504
 93
       41
310
903313A31580
  0
ACAD_PROXY_OBJECT
  5
4067
102
{ACAD_REACTORS
330
4065
102
}
330
4065
100
AcDbProxyObject
 90
      499
 91
      504
 93
      105
310
903313A324000000000000004000
  0
ACAD_PROXY_OBJECT
  5
4068
102
{ACAD_REACTORS
330
4065
102
}
330
4065
100
AcDbProxyObject
 90
      499
 91
      504
 93
      105
310
903313A344000000000000104000
  0
ACAD_PROXY_OBJECT
  5
4069
102
{ACAD_REACTORS
330
4065
102
}
330
4065
100
AcDbProxyObject
 90
      499
 91
      504
 93
      105
310
903313A354000000000000144000
  0
ACAD_PROXY_OBJECT
  5
406A
102
{ACAD_REACTORS
330
4065
102
}
330
4065
100
AcDbProxyObject
 90
      499
 91
      504
 93
      105
310
903313A384000000000000204000
  0
ACAD_PROXY_OBJECT
  5
406B
102
{ACAD_REACTORS
330
4065
102
}
330
4065
100
AcDbProxyObject
 90
      499
 91
      504
 93
      113
310
904313A31304000000000000244000
  0
ACAD_PROXY_OBJECT
  5
406C
102
{ACAD_REACTORS
330
4065
102
}
330
4065
100
AcDbProxyObject
 90
      499
 91
      504
 93
      113
310
904313A31364000000000000304000
  0
ACAD_PROXY_OBJECT
  5
406D
102
{ACAD_REACTORS
330
4065
102
}
330
4065
100
AcDbProxyObject
 90
      499
 91
      504
 93
      113
310
904313A32304000000000000344000
  0
ACAD_PROXY_OBJECT
  5
406E
102
{ACAD_REACTORS
330
4065
102
}
330
4065
100
AcDbProxyObject
 90
      499
 91
      504
 93
      113
310
904313A333040000000000003E4000
  0
ACAD_PROXY_OBJECT
  5
406F
102
{ACAD_REACTORS
330
4065
102
}
330
4065
100
AcDbProxyObject
 90
      499
 91
      504
 93
      113
310
904313A34304000000000000444000
  0
ACAD_PROXY_OBJECT
  5
4070
102
{ACAD_REACTORS
330
4065
102
}
330
4065
100
AcDbProxyObject
 90
      499
 91
      504
 93
      113
310
904313A35304000000000000494000
  0
ACAD_PROXY_OBJECT
  5
4071
102
{ACAD_REACTORS
330
4065
102
}
330
4065
100
AcDbProxyObject
 90
      499
 91
      504
 93
      121
310
905313A3130304000000000000594000
  0
ACAD_PROXY_OBJECT
  5
4072
102
{ACAD_REACTORS
330
4065
102
}
330
4065
100
AcDbProxyObject
 90
      499
 91
      504
 93
      105
310
903323A310000000000000010100
  0
ACAD_PROXY_OBJECT
  5
4073
102
{ACAD_REACTORS
330
4065
102
}
330
4065
100
AcDbProxyObject
 90
      499
 91
      504
 93
      105
310
903343A310000000000000410100
  0
ACAD_PROXY_OBJECT
  5
4074
102
{ACAD_REACTORS
330
4065
102
}
330
4065
100
AcDbProxyObject
 90
      499
 91
      504
 93
      105
310
903383A310000000000000810100
  0
ACAD_PROXY_OBJECT
  5
4075
102
{ACAD_REACTORS
330
4065
102
}
330
4065
100
AcDbProxyObject
 90
      499
 91
      504
 93
      113
310
90431303A310000000000000910100
  0
ACAD_PROXY_OBJECT
  5
4076
102
{ACAD_REACTORS
330
4065
102
}
330
4065
100
AcDbProxyObject
 90
      499
 91
      504
 93
      121
310
9053130303A310000000000001650100
  0
ACAD_PROXY_OBJECT
  5
4077
102
{ACAD_REACTORS
330
4065
102
}
330
4065
100
AcDbProxyObject
 90
      499
 91
      504
 93
      257
310
90E312F31323822203D2031272D3022000000000000200FC000000000000284000
  0
ACAD_PROXY_OBJECT
  5
4078
102
{ACAD_REACTORS
330
4065
102
}
330
4065
100
AcDbProxyObject
 90
      499
 91
      504
 93
      249
310
90D312F363422203D2031272D3022000000000000240FC000000000000284000
  0
ACAD_PROXY_OBJECT
  5
4079
102
{ACAD_REACTORS
330
4065
102
}
330
4065
100
AcDbProxyObject
 90
      499
 91
      504
 93
      249
310
90D312F333222203D2031272D3022000000000000280FC000000000000284000
  0
ACAD_PROXY_OBJECT
  5
407A
102
{ACAD_REACTORS
330
4065
102
}
330
4065
100
AcDbProxyObject
 90
      499
 91
      504
 93
      249
310
90D312F313622203D2031272D30220000000000002C0FC000000000000284000
  0
ACAD_PROXY_OBJECT
  5
407B
102
{ACAD_REACTORS
330
4065
102
}
330
4065
100
AcDbProxyObject
 90
      499
 91
      504
 93
      249
310
90D332F333222203D2031272D30220000000000002E0FC000000000000284000
  0
ACAD_PROXY_OBJECT
  5
407C
102
{ACAD_REACTORS
330
4065
102
}
330
4065
100
AcDbProxyObject
 90
      499
 91
      504
 93
      241
310
90C312F3822203D2031272D3022000000000000300FC000000000000284000
  0
ACAD_PROXY_OBJECT
  5
407D
102
{ACAD_REACTORS
330
4065
102
}
330
4065
100
AcDbProxyObject
 90
      499
 91
      504
 93
      249
310
90D332F313622203D2031272D3022000000000000320FC000000000000284000
  0
ACAD_PROXY_OBJECT
  5
407E
102
{ACAD_REACTORS
330
4065
102
}
330
4065
100
AcDbProxyObject
 90
      499
 91
      504
 93
      241
310
90C312F3422203D2031272D3022000000000000340FC000000000000284000
  0
ACAD_PROXY_OBJECT
  5
407F
102
{ACAD_REACTORS
330
4065
102
}
330
4065
100
AcDbProxyObject
 90
      499
 91
      504
 93
      241
310
90C332F3822203D2031272D3022000000000000360FC000000000000284000
  0
ACAD_PROXY_OBJECT
  5
4080
102
{ACAD_REACTORS
330
4065
102
}
330
4065
100
AcDbProxyObject
 90
      499
 91
      504
 93
      241
310
90C312F3222203D2031272D3022000000000000380FC000000000000284000
  0
ACAD_PROXY_OBJECT
  5
4081
102
{ACAD_REACTORS
330
4065
102
}
330
4065
100
AcDbProxyObject
 90
      499
 91
      504
 93
      241
310
90C332F3422203D2031272D30220000000000003A0FC000000000000284000
  0
ACAD_PROXY_OBJECT
  5
4082
102
{ACAD_REACTORS
330
4065
102
}
330
4065
100
AcDbProxyObject
 90
      499
 91
      504
 93
      161
310
90A3122203D2031272D30224000000000000284000
  0
ACAD_PROXY_OBJECT
  5
4083
102
{ACAD_REACTORS
330
4065
102
}
330
4065
100
AcDbProxyObject
 90
      499
 91
      504
 93
      257
310
90E312D312F3222203D2031272D30220000000000003E0FC000000000000284000
  0
ACAD_PROXY_OBJECT
  5
4084
102
{ACAD_REACTORS
330
4065
102
}
330
4065
100
AcDbProxyObject
 90
      499
 91
      504
 93
      225
310
90A3322203D2031272D302200000000000002100000000000000284000
  0
ACAD_PROXY_OBJECT
  5
4085
102
{ACAD_REACTORS
330
4065
102
}
330
4065
100
AcDbProxyObject
 90
      499
 91
      504
 93
      225
310
90A3622203D2031272D302200000000000006100000000000000284000
  0
ACAD_PROXY_OBJECT
  5
4086
102
{ACAD_REACTORS
330
4065
102
}
330
4065
100
AcDbProxyObject
 90
      499
 91
      504
 93
      249
310
90D31272D3022203D2031272D30220000000000000A100000000000000284000
  0
ACAD_PROXY_OBJECT
  5
4051
102
{ACAD_REACTORS
330
404C
102
}
330
404C
100
AcDbProxyObject
 90
      499
 91
      503
 93
      436
310
42CC9915DA5C99599C985B595049028333333333333E33F0000000000000F90107901411070040501600405405064090741402480A0340
1001
ACAD
1000
AcDbSavedByObjectVersion
1070
     0
  0
ACAD_PROXY_OBJECT
  5
4054
102
{ACAD_REACTORS
330
404C
102
}
330
404C
100
AcDbProxyObject
 90
      499
 91
      503
 93
      388
310
4150985CDA58D07406404333333333333E33F0000000000000F90107A41107004050150841D405064090741402480A0350
1001
ACAD
1000
AcDbSavedByObjectVersion
1070
     0
  0
ACAD_PROXY_OBJECT
  5
4058
102
{ACAD_REACTORS
330
404C
102
}
330
404C
100
AcDbProxyObject
 90
      499
 91
      503
 93
      428
310
42109C9A59DA1D195B90C409028333333333333E33F0000000000000F9010790141107004050150841D405064090741402480A029950
1001
ACAD
1000
AcDbSavedByObjectVersion
1070
     0
  0
ACAD_PROXY_OBJECT
  5
405C
102
{ACAD_REACTORS
330
404C
102
}
330
404C
100
AcDbProxyObject
 90
      499
 91
      503
 93
      452
310
42D0DBDB1BDC90DA185B99D95104090240C333333333333E33F0000000000000F90108901411070040501508421405064090741402480A0350
1001
ACAD
1000
AcDbSavedByObjectVersion
1070
     0
  0
ACAD_PROXY_OBJECT
  5
4056
102
{ACAD_REACTORS
330
404C
102
}
330
404C
100
AcDbProxyObject
 90
      499
 91
      503
 93
      500
310
4290DBDB98D95C1D1D585B10940D028333333333333E33F0000000000000F90107902409070040501000000000018199010841D405064090740C02480A0340
1001
ACAD
1000
AcDbSavedByObjectVersion
1070
     0
  0
ACAD_PROXY_OBJECT
  5
4057
102
{ACAD_REACTORS
330
404C
102
}
330
404C
100
AcDbProxyObject
 90
      499
 91
      503
 93
      412
310
40D11A5B50B409028333333333333E33F0000000000000F9010790141107004050150841D405064090741402480A02677FFFFFD0
1001
ACAD
1000
AcDbSavedByObjectVersion
1070
     0
  0
ACAD_PROXY_OBJECT
  5
405F
102
{ACAD_REACTORS
330
404C
102
}
330
404C
100
AcDbProxyObject
 90
      499
 91
      503
 93
      452
310
43115919D950DBDB1BDC93D999916409028333333333333E33F0000000000000F9010790141107004050150841D405064090741402480A0350
1001
ACAD
1000
AcDbSavedByObjectVersion
1070
     0
  0
ACAD_PROXY_OBJECT
  5
405B
102
{ACAD_REACTORS
330
404C
102
}
330
404C
100
AcDbProxyObject
 90
      499
 91
      503
 93
      444
310
42D19858D95C185D1D195C9B90F409028333333333333E33F0000000000000F9010790141107004050150841D405064090741402480A0350
1001
ACAD
1000
AcDbSavedByObjectVersion
1070
     0
  0
ACAD_PROXY_OBJECT
  5
404D
102
{ACAD_REACTORS
330
404C
102
}
330
404C
100
AcDbProxyObject
 90
      499
 91
      503
 93
      380
310
41119B185D240901404333333333333E33F0000000000000F9010740A907004050150841D405064090741402480A1B50
1001
ACAD
1000
AcDbSavedByObjectVersion
1070
     0
  0
ACAD_PROXY_OBJECT
  5
404E
102
{ACAD_REACTORS
330
404C
102
}
330
404C
100
AcDbProxyObject
 90
      499
 91
      503
 93
      468
310
43519B185D15DA5D1A115919D95CD0140901404333333333333E33F0000000000000F90107409019070040501600405405064090741402480A1B50
1001
ACAD
1000
AcDbSavedByObjectVersion
1070
     0
  0
ACAD_PROXY_OBJECT
  5
404F
102
{ACAD_REACTORS
330
404C
102
}
330
404C
100
AcDbProxyObject
 90
      499
 91
      503
 93
      404
310
41D1DBDD5C985D5910240902404333333333333E33F0000000000000F9010740A9070040501641D405064090741402480A1B50
1001
ACAD
1000
AcDbSavedByObjectVersion
1070
     0
  0
ACAD_PROXY_OBJECT
  5
4050
102
{ACAD_REACTORS
330
404C
102
}
330
404C
100
AcDbProxyObject
 90
      499
 91
      503
 93
      492
310
4411DBDD5C985D5915DA5D1A115919D95CD0340902404333333333333E33F0000000000000F90107409019070040501600405405064090741402480A1B50
1001
ACAD
1000
AcDbSavedByObjectVersion
1070
     0
  0
ACAD_PROXY_OBJECT
  5
4053
102
{ACAD_REACTORS
330
404C
102
}
330
404C
100
AcDbProxyObject
 90
      499
 91
      503
 93
      476
310
41921A5919195B90640502408333333333333E33F0000000000000F901079024090700405020000000000001110200405405064090740C02480A0340
1001
ACAD
1000
AcDbSavedByObjectVersion
1070
     0
  0
ACAD_PROXY_OBJECT
  5
405D
102
{ACAD_REACTORS
330
404C
102
}
330
404C
100
AcDbProxyObject
 90
      499
 91
      503
 93
      428
310
42529A5D1D195C93D999914409028333333333333E33F0000000000000F9010790141107004050150A41D405064090741402480A0350
1001
ACAD
1000
AcDbSavedByObjectVersion
1070
     0
  0
ACAD_PROXY_OBJECT
  5
405A
102
{ACAD_REACTORS
330
404C
102
}
330
404C
100
AcDbProxyObject
 90
      499
 91
      503
 93
      444
310
42D31A5B995C185D1D195C9B90E409028333333333333E33F0000000000000F9010790141107004050750841D405064090741402483A0350
1001
ACAD
1000
AcDbSavedByObjectVersion
1070
     0
  0
ACAD_PROXY_OBJECT
  5
405E
102
{ACAD_REACTORS
330
404C
102
}
330
404C
100
AcDbProxyObject
 90
      499
 91
      503
 93
      444
310
42D3DD995C9A185B99D3D999915409028333333333333E33F0000000000000F9010790141107004050150941D405064090741402480A0350
1001
ACAD
1000
AcDbSavedByObjectVersion
1070
     0
  0
ACAD_PROXY_OBJECT
  5
4055
102
{ACAD_REACTORS
330
404C
102
}
330
404C
100
AcDbProxyObject
 90
      499
 91
      503
 93
      428
310
425499585B1A5CDD1A58D08409038333333333333E33F0000000000000F9010740A907004050150800405405064090740C02480A1B40
1001
ACAD
1000
AcDbSavedByObjectVersion
1070
     0
  0
ACAD_PROXY_OBJECT
  5
4064
102
{ACAD_REACTORS
330
404C
102
}
330
404C
100
AcDbProxyObject
 90
      499
 91
      503
 93
      420
310
4194DA1859195911B40902404333333333333E33F0000000000000F9010740A41107004050150800405405064090840C02480A0B40
1001
ACAD
1000
AcDbSavedByObjectVersion
1070
     0
  0
ACAD_PROXY_OBJECT
  5
4063
102
{ACAD_REACTORS
330
404C
102
}
330
404C
100
AcDbProxyObject
 90
      499
 91
      503
 93
      516
310
4454DA18591959081DDA5D1A08195919D95CD1A40902404333333333333E33F0000000000000F901074090142907004050250800405405064090740C02480A0B40
1001
ACAD
1000
AcDbSavedByObjectVersion
1070
     0
  0
ACAD_PROXY_OBJECT
  5
4060
102
{ACAD_REACTORS
330
404C
102
}
330
404C
100
AcDbProxyObject
 90
      499
 91
      503
 93
      532
310
4394DA1859195CC81BD98811DC985E5174090240C333333333333E33F0000000000000F901079024090741D01000000000000111010841D405064090740C02480A0340
1001
ACAD
1000
AcDbSavedByObjectVersion
1070
     0
  0
ACAD_PROXY_OBJECT
  5
4061
102
{ACAD_REACTORS
330
404C
102
}
330
404C
100
AcDbProxyObject
 90
      499
 91
      503
 93
      476
310
41D4DAD95D18DA1E51840502408333333333333E33F0000000000000F901079024090741D01000000000000111010B41D405064090741802480A0340
1001
ACAD
1000
AcDbSavedByObjectVersion
1070
     0
  0
ACAD_PROXY_OBJECT
  5
4059
102
{ACAD_REACTORS
330
404C
102
}
330
404C
100
AcDbProxyObject
 90
      499
 91
      503
 93
      412
310
41D51A1A58DAD95B90D409028333333333333E33F0000000000000F9010790141107004050150C41D405064090741402480A0350
1001
ACAD
1000
AcDbSavedByObjectVersion
1070
     0
  0
ACAD_PROXY_OBJECT
  5
4052
102
{ACAD_REACTORS
330
404C
102
}
330
404C
100
AcDbProxyObject
 90
      499
 91
      503
 93
      420
310
4255DA5C99599C985B595059028333333333333E33F0000000000000F90107901411070040501600405405064090740C02480A0340
1001
ACAD
1000
AcDbSavedByObjectVersion
1070
     0
  0
ACAD_PROXY_OBJECT
  5
4062
102
{ACAD_REACTORS
330
404C
102
}
330
404C
100
AcDbProxyObject
 90
      499
 91
      503
 93
      404
310
41560B54985E51940902404000000000000E03F0000000000000F9010740501907004050150841D405064090740C02480A1B40
1001
ACAD
1000
AcDbSavedByObjectVersion
1070
     0
  0
XRECORD
  5
482F
102
{ACAD_REACTORS
330
4825
102
}
330
4825
100
AcDbXrecord
340
0
  0
XRECORD
  5
482E
102
{ACAD_REACTORS
330
4825
102
}
330
4825
100
AcDbXrecord
 90
        0
  0
XRECORD
  5
4848
102
{ACAD_REACTORS
330
4825
102
}
330
4825
100
AcDbXrecord
340
2948
  0
XRECORD
  5
4845
102
{ACAD_REACTORS
330
4825
102
}
330
4825
100
AcDbXrecord
1000
DSTYLE
1002
{
1070
   171
 70
     2
1070
   143
 40
0.0394
1070
   274
 70
     2
1070
    41
 40
6.0
1070
   342
340
2AF4
1070
   271
 70
     1
1070
   278
 70
    46
1070
   341
340
2AF4
1070
   272
 70
     1
1070
    48
 40
0.1
1070
   283
 70
     1
1070
    47
 40
0.1
1070
   145
 40
1.0
1070
   340
340
10
1070
   140
 40
5.0
1070
   284
 70
     0
1002
}
  0
XRECORD
  5
4830
102
{ACAD_REACTORS
330
4825
102
}
330
4825
100
AcDbXrecord
  1
{23698909-1D67-4744-B0E2-8DE11E3ED422}
  0
XRECORD
  5
4828
102
{ACAD_REACTORS
330
4825
102
}
330
4825
100
AcDbXrecord
  1

  0
XRECORD
  5
482D
102
{ACAD_REACTORS
330
4825
102
}
330
4825
100
AcDbXrecord
 90
        0
  0
XRECORD
  5
482A
102
{ACAD_REACTORS
330
4825
102
}
330
4825
100
AcDbXrecord
340
2816
  0
XRECORD
  5
482C
102
{ACAD_REACTORS
330
4825
102
}
330
4825
100
AcDbXrecord
 90
    10781
  0
XRECORD
  5
4849
102
{ACAD_REACTORS
330
4825
102
}
330
4825
100
AcDbXrecord
340
2947
  0
XRECORD
  5
482B
102
{ACAD_REACTORS
330
4825
102
}
330
4825
100
AcDbXrecord
340
2817
  0
XRECORD
  5
4832
102
{ACAD_REACTORS
330
4825
102
}
330
4825
100
AcDbXrecord
 40
0.25
  0
XRECORD
  5
4835
102
{ACAD_REACTORS
330
4825
102
}
330
4825
100
AcDbXrecord
340
0
  0
XRECORD
  5
483B
102
{ACAD_REACTORS
330
4825
102
}
330
4825
100
AcDbXrecord
 10
0.0
 20
0.0
 30
0.0
  0
XRECORD
  5
4837
102
{ACAD_REACTORS
330
4825
102
}
330
4825
100
AcDbXrecord
 10
0.0
 20
0.0
 30
0.0
  0
XRECORD
  5
483A
102
{ACAD_REACTORS
330
4825
102
}
330
4825
100
AcDbXrecord
 10
0.0
 20
0.0
 30
0.0
  0
XRECORD
  5
4838
102
{ACAD_REACTORS
330
4825
102
}
330
4825
100
AcDbXrecord
 10
0.0
 20
0.0
 30
0.0
  0
XRECORD
  5
4839
102
{ACAD_REACTORS
330
4825
102
}
330
4825
100
AcDbXrecord
 10
0.0
 20
0.0
 30
0.0
  0
XRECORD
  5
4836
102
{ACAD_REACTORS
330
4825
102
}
330
4825
100
AcDbXrecord
 10
0.0
 20
0.0
 30
0.0
  0
XRECORD
  5
4833
102
{ACAD_REACTORS
330
4825
102
}
330
4825
100
AcDbXrecord
340
0
  0
XRECORD
  5
4834
102
{ACAD_REACTORS
330
4825
102
}
330
4825
100
AcDbXrecord
 70
     0
  0
XRECORD
  5
4829
102
{ACAD_REACTORS
330
4825
102
}
330
4825
100
AcDbXrecord
  1

  0
XRECORD
  5
4826
102
{ACAD_REACTORS
330
4825
102
}
330
4825
100
AcDbXrecord
 90
        1
  0
XRECORD
  5
4827
102
{ACAD_REACTORS
330
4825
102
}
330
4825
100
AcDbXrecord
 90
       70
  0
XRECORD
  5
483E
102
{ACAD_REACTORS
330
4825
102
}
330
4825
100
AcDbXrecord
340
0
  0
XRECORD
  5
4844
102
{ACAD_REACTORS
330
4825
102
}
330
4825
100
AcDbXrecord
 10
0.0
 20
0.0
 30
0.0
  0
XRECORD
  5
4840
102
{ACAD_REACTORS
330
4825
102
}
330
4825
100
AcDbXrecord
 10
0.0
 20
0.0
 30
0.0
  0
XRECORD
  5
4843
102
{ACAD_REACTORS
330
4825
102
}
330
4825
100
AcDbXrecord
 10
0.0
 20
0.0
 30
0.0
  0
XRECORD
  5
4841
102
{ACAD_REACTORS
330
4825
102
}
330
4825
100
AcDbXrecord
 10
0.0
 20
0.0
 30
0.0
  0
XRECORD
  5
4842
102
{ACAD_REACTORS
330
4825
102
}
330
4825
100
AcDbXrecord
 10
0.0
 20
0.0
 30
0.0
  0
XRECORD
  5
483F
102
{ACAD_REACTORS
330
4825
102
}
330
4825
100
AcDbXrecord
 10
0.0
 20
0.0
 30
0.0
  0
XRECORD
  5
483C
102
{ACAD_REACTORS
330
4825
102
}
330
4825
100
AcDbXrecord
340
0
  0
XRECORD
  5
483D
102
{ACAD_REACTORS
330
4825
102
}
330
4825
100
AcDbXrecord
 70
     0
  0
XRECORD
  5
4831
102
{ACAD_REACTORS
330
4825
102
}
330
4825
100
AcDbXrecord
  1
{3C3C053B-5961-4EEC-8524-19AE6971067A}
  0
DICTIONARYVAR
  5
481E
102
{ACAD_REACTORS
330
481D
102
}
330
481D
100
DictionaryVariables
280
     0
  1
1:1
  0
DICTIONARYVAR
  5
4820
102
{ACAD_REACTORS
330
481D
102
}
330
481D
100
DictionaryVariables
280
     0
  1
Standard
  0
DICTIONARYVAR
  5
481F
102
{ACAD_REACTORS
330
481D
102
}
330
481D
100
DictionaryVariables
280
     0
  1
Standard
  0
DICTIONARYVAR
  5
4846
102
{ACAD_REACTORS
330
481D
102
}
330
481D
100
DictionaryVariables
280
     0
  1
1
  0
DICTIONARYVAR
  5
4847
102
{ACAD_REACTORS
330
481D
102
}
330
481D
100
DictionaryVariables
280
     0
  1
0
  0
DICTIONARYVAR
  5
4821
102
{ACAD_REACTORS
330
481D
102
}
330
481D
100
DictionaryVariables
280
     0
  1
0
  0
DICTIONARYVAR
  5
4822
102
{ACAD_REACTORS
330
481D
102
}
330
481D
100
DictionaryVariables
280
     0
  1
0
  0
DICTIONARY
  5
4388
102
{ACAD_REACTORS
330
4387
102
}
330
4387
100
AcDbDictionary
  0
DICTIONARY
  5
43CD
102
{ACAD_REACTORS
330
43CC
102
}
330
43CC
100
AcDbDictionary
  0
DICTIONARY
  5
43D1
102
{ACAD_REACTORS
330
43D0
102
}
330
43D0
100
AcDbDictionary
  0
DICTIONARY
  5
4817
102
{ACAD_REACTORS
330
4816
102
}
330
4816
100
AcDbDictionary
  0
DICTIONARY
  5
4095
102
{ACAD_REACTORS
330
4094
102
}
330
4094
100
AcDbDictionary
  0
DICTIONARY
  5
4098
102
{ACAD_REACTORS
330
4097
102
}
330
4097
100
AcDbDictionary
  0
DICTIONARY
  5
4092
102
{ACAD_REACTORS
330
4091
102
}
330
4091
100
AcDbDictionary
  0
DICTIONARY
  5
481C
102
{ACAD_REACTORS
330
481B
102
}
330
481B
100
AcDbDictionary
  0
DICTIONARY
  5
484F
330
4088
100
AcDbDictionary
280
     1
  3
ACAD_XREC_ROUNDTRIP
360
4850
  0
DICTIONARY
  5
484D
330
4087
100
AcDbDictionary
280
     1
  3
ACAD_XREC_ROUNDTRIP
360
484E
  0
DICTIONARY
  5
4851
330
4089
100
AcDbDictionary
280
     1
  3
ACAD_XREC_ROUNDTRIP
360
4852
  0
XRECORD
  5
4850
102
{ACAD_REACTORS
330
484F
102
}
330
484F
100
AcDbXrecord
102
MATERIAL
148
0.0
149
0.0
149
0.0
 93
        0
 94
      127
282
     0
 72
     1
 77
     1
171
     1
175
     1
179
     1
273
     0
  0
XRECORD
  5
484E
102
{ACAD_REACTORS
330
484D
102
}
330
484D
100
AcDbXrecord
102
MATERIAL
148
0.0
149
0.0
149
0.0
 93
        0
 94
      127
282
     0
 72
     1
 77
     1
171
     1
175
     1
179
     1
273
     0
  0
XRECORD
  5
4852
102
{ACAD_REACTORS
330
4851
102
}
330
4851
100
AcDbXrecord
102
MATERIAL
148
0.0
149
0.0
149
0.0
 93
        0
 94
      127
282
     0
 72
     1
 77
     1
171
     1
175
     1
179
     1
273
     0
  0
ENDSEC
  0
EOF
