  0
SECTION
  2
HEADER
  9
$ACADVER
  1
AC1014
  9
$ACADMAINTVER
 70
     9
  9
$DWGCODEPAGE
  3
ANSI_932
  9
$INSBASE
 10
0.0
 20
0.0
 30
0.0
  9
$EXTMIN
 10
-13.577874896034
 20
433.850731562163
 30
0.0
  9
$EXTMAX
 10
556.400092590399
 20
752.146246116024
 30
0.0
  9
$LIMMIN
 10
-360.747566795242
 20
4.457354754526
  9
$LIMMAX
 10
-162.153696144267
 20
287.675440264018
  9
$ORTHOMODE
 70
     1
  9
$REGENMODE
 70
     1
  9
$FILLMODE
 70
     1
  9
$QTEXTMODE
 70
     0
  9
$MIRRTEXT
 70
     1
  9
$DRAGMODE
 70
     2
  9
$LTSCALE
 40
1.0
  9
$OSMODE
 70
    32
  9
$ATTMODE
 70
     1
  9
$TEXTSIZE
 40
2.333873885063
  9
$TRACEWID
 40
1.0
  9
$TEXTSTYLE
  7
STANDARD
  9
$CLAYER
  8
外形線
  9
$CELTYPE
  6
BYLAYER
  9
$CECOLOR
 62
   256
  9
$CELTSCALE
 40
10.0
  9
$DELOBJ
 70
     1
  9
$DISPSILH
 70
     0
  9
$DIMSCALE
 40
1.0
  9
$DIMASZ
 40
6.0
  9
$DIMEXO
 40
0.625
  9
$DIMDLI
 40
3.75
  9
$DIMRND
 40
0.0
  9
$DIMDLE
 40
0.0
  9
$DIMEXE
 40
1.25
  9
$DIMTP
 40
0.1
  9
$DIMTM
 40
0.1
  9
$DIMTXT
 40
5.0
  9
$DIMCEN
 40
2.5
  9
$DIMTSZ
 40
0.0
  9
$DIMTOL
 70
     0
  9
$DIMLIM
 70
     0
  9
$DIMTIH
 70
     0
  9
$DIMTOH
 70
     0
  9
$DIMSE1
 70
     0
  9
$DIMSE2
 70
     0
  9
$DIMTAD
 70
     1
  9
$DIMZIN
 70
     8
  9
$DIMBLK
  1
OPEN30
  9
$DIMASO
 70
     1
  9
$DIMSHO
 70
     1
  9
$DIMPOST
  1

  9
$DIMAPOST
  1

  9
$DIMALT
 70
     0
  9
$DIMALTD
 70
     2
  9
$DIMALTF
 40
0.0394
  9
$DIMLFAC
 40
1.0
  9
$DIMTOFL
 70
     1
  9
$DIMTVP
 40
1.0
  9
$DIMTIX
 70
     0
  9
$DIMSOXD
 70
     0
  9
$DIMSAH
 70
     0
  9
$DIMBLK1
  1

  9
$DIMBLK2
  1

  9
$DIMSTYLE
  2
ISO-25
  9
$DIMCLRD
 70
     0
  9
$DIMCLRE
 70
     0
  9
$DIMCLRT
 70
     0
  9
$DIMTFAC
 40
1.0
  9
$DIMGAP
 40
0.625
  9
$DIMJUST
 70
     0
  9
$DIMSD1
 70
     0
  9
$DIMSD2
 70
     0
  9
$DIMTOLJ
 70
     1
  9
$DIMTZIN
 70
     0
  9
$DIMALTZ
 70
     0
  9
$DIMALTTZ
 70
     0
  9
$DIMFIT
 70
     3
  9
$DIMUPT
 70
     0
  9
$DIMUNIT
 70
     2
  9
$DIMDEC
 70
     1
  9
$DIMTDEC
 70
     1
  9
$DIMALTU
 70
     2
  9
$DIMALTTD
 70
     2
  9
$DIMTXSTY
  7
STANDARD
  9
$DIMAUNIT
 70
     0
  9
$LUNITS
 70
     2
  9
$LUPREC
 70
     4
  9
$SKETCHINC
 40
1.0
  9
$FILLETRAD
 40
6.5
  9
$AUNITS
 70
     0
  9
$AUPREC
 70
     0
  9
$MENU
  1
.
  9
$ELEVATION
 40
0.0
  9
$PELEVATION
 40
0.0
  9
$THICKNESS
 40
0.0
  9
$LIMCHECK
 70
     0
  9
$CHAMFERA
 40
10.0
  9
$CHAMFERB
 40
10.0
  9
$CHAMFERC
 40
20.0
  9
$CHAMFERD
 40
0.0
  9
$SKPOLY
 70
     0
  9
$TDCREATE
 40
2450576.597302431
  9
$TDUPDATE
 40
2457191.66434169
  9
$TDINDWG
 40
1.1116557176
  9
$TDUSRTIMER
 40
1.1116557176
  9
$USRTIMER
 70
     1
  9
$ANGBASE
 50
0.0
  9
$ANGDIR
 70
     0
  9
$PDMODE
 70
     0
  9
$PDSIZE
 40
0.0
  9
$PLINEWID
 40
0.0
  9
$COORDS
 70
     1
  9
$SPLFRAME
 70
     0
  9
$SPLINETYPE
 70
     6
  9
$SPLINESEGS
 70
     8
  9
$ATTDIA
 70
     0
  9
$ATTREQ
 70
     1
  9
$HANDLING
 70
     1
  9
$HANDSEED
  5
4051
  9
$SURFTAB1
 70
     6
  9
$SURFTAB2
 70
     6
  9
$SURFTYPE
 70
     6
  9
$SURFU
 70
     6
  9
$SURFV
 70
     6
  9
$UCSNAME
  2

  9
$UCSORG
 10
0.0
 20
0.0
 30
0.0
  9
$UCSXDIR
 10
1.0
 20
0.0
 30
0.0
  9
$UCSYDIR
 10
0.0
 20
1.0
 30
0.0
  9
$PUCSNAME
  2

  9
$PUCSORG
 10
0.0
 20
0.0
 30
0.0
  9
$PUCSXDIR
 10
1.0
 20
0.0
 30
0.0
  9
$PUCSYDIR
 10
0.0
 20
1.0
 30
0.0
  9
$USERI1
 70
     0
  9
$USERI2
 70
     0
  9
$USERI3
 70
     0
  9
$USERI4
 70
     0
  9
$USERI5
 70
     0
  9
$USERR1
 40
0.0
  9
$USERR2
 40
0.0
  9
$USERR3
 40
0.0
  9
$USERR4
 40
0.0
  9
$USERR5
 40
0.0
  9
$WORLDVIEW
 70
     1
  9
$SHADEDGE
 70
     3
  9
$SHADEDIF
 70
    70
  9
$TILEMODE
 70
     0
  9
$MAXACTVP
 70
    16
  9
$PINSBASE
 10
0.0
 20
0.0
 30
0.0
  9
$PLIMCHECK
 70
     0
  9
$PEXTMIN
 10
4.825742867986
 20
2.695640989662
 30
0.0
  9
$PEXTMAX
 10
404.825742867986
 20
282.695640989662
 30
0.0
  9
$PLIMMIN
 10
-7.007122192383
 20
-7.007118782997
  9
$PLIMMAX
 10
417.718108215332
 20
293.315290427208
  9
$UNITMODE
 70
     0
  9
$VISRETAIN
 70
     0
  9
$PLINEGEN
 70
     0
  9
$PSLTSCALE
 70
     1
  9
$TREEDEPTH
 70
  3020
  9
$PICKSTYLE
 70
     1
  9
$CMLSTYLE
  2
STANDARD
  9
$CMLJUST
 70
     0
  9
$CMLSCALE
 40
1.0
  9
$PROXYGRAPHICS
 70
     1
  9
$MEASUREMENT
 70
     1
  0
ENDSEC
  0
SECTION
  2
CLASSES
  0
CLASS
  1
ACDBDICTIONARYWDFLT
  2
AcDbDictionaryWithDefault
  3
ObjectDBX Classes
 90
        0
280
     0
281
     0
  0
CLASS
  1
ACDBPLACEHOLDER
  2
AcDbPlaceHolder
  3
ObjectDBX Classes
 90
        0
280
     0
281
     0
  0
CLASS
  1
LAYOUT
  2
AcDbLayout
  3
ObjectDBX Classes
 90
        0
280
     0
281
     0
  0
CLASS
  1
VISUALSTYLE
  2
AcDbVisualStyle
  3
ObjectDBX Classes
 90
     4095
280
     0
281
     0
  0
CLASS
  1
SCALE
  2
AcDbScale
  3
ObjectDBX Classes
 90
     1153
280
     0
281
     0
  0
CLASS
  1
MATERIAL
  2
AcDbMaterial
  3
ObjectDBX Classes
 90
     1153
280
     0
281
     0
  0
CLASS
  1
TABLESTYLE
  2
AcDbTableStyle
  3
ObjectDBX Classes
 90
     4095
280
     0
281
     0
  0
CLASS
  1
MLEADERSTYLE
  2
AcDbMLeaderStyle
  3
ACDB_MLEADERSTYLE_CLASS
 90
     4095
280
     0
281
     0
  0
CLASS
  1
SUN
  2
AcDbSun
  3
SCENEOE
 90
     1153
280
     0
281
     0
  0
CLASS
  1
DICTIONARYVAR
  2
AcDbDictionaryVar
  3
ObjectDBX Classes
 90
        0
280
     0
281
     0
  0
CLASS
  1
XRECORD
  2
AcDbXrecord
  3
ObjectDBX Classes
 90
        0
280
     0
281
     0
  0
CLASS
  1
LWPOLYLINE
  2
AcDbPolyline
  3
ObjectDBX Classes
 90
        0
280
     0
281
     1
  0
CLASS
  1
HATCH
  2
AcDbHatch
  3
ObjectDBX Classes
 90
        0
280
     0
281
     1
  0
ENDSEC
  0
SECTION
  2
TABLES
  0
TABLE
  2
VPORT
  5
8
102
{ACAD_XDICTIONARY
360
4048
102
}
330
0
100
AcDbSymbolTable
 70
     5
  0
VPORT
  5
3B9F
330
8
100
AcDbSymbolTableRecord
100
AcDbViewportTableRecord
  2
*ACTIVE
 70
     0
 10
0.0
 20
0.0
 11
1.0
 21
1.0
 12
233.483976408007
 22
630.523240360645
 13
0.0
 23
0.0
 14
1.0
 24
1.0
 15
0.0
 25
0.0
 16
0.0
 26
0.0
 36
1.0
 17
0.0
 27
0.0
 37
0.0
 40
211.798237246539
 41
1.56746031746
 42
50.0
 43
0.0
 44
0.0
 50
0.0
 51
0.0
 71
    16
 72
   100
 73
     1
 74
     0
 75
     0
 76
     0
 77
     0
 78
     0
  0
ENDTAB
  0
TABLE
  2
LTYPE
  5
5
330
0
100
AcDbSymbolTable
 70
     5
  0
LTYPE
  5
14
330
5
100
AcDbSymbolTableRecord
100
AcDbLinetypeTableRecord
  2
BYBLOCK
 70
     0
  3

 72
    65
 73
     0
 40
0.0
  0
LTYPE
  5
15
330
5
100
AcDbSymbolTableRecord
100
AcDbLinetypeTableRecord
  2
BYLAYER
 70
     0
  3

 72
    65
 73
     0
 40
0.0
  0
LTYPE
  5
16
330
5
100
AcDbSymbolTableRecord
100
AcDbLinetypeTableRecord
  2
CONTINUOUS
 70
     0
  3
Solid line
 72
    65
 73
     0
 40
0.0
  0
LTYPE
  5
1EC
330
5
100
AcDbSymbolTableRecord
100
AcDbLinetypeTableRecord
  2
CENTER
 70
     0
  3
____ _ ____ _ ____ _ ____ _ ____ _ ____ _ ____ 
 72
    65
 73
     4
 40
2.0
 49
1.25
 74
     0
 49
-0.25
 74
     0
 49
0.25
 74
     0
 49
-0.25
 74
     0
  0
LTYPE
  5
1ED
330
5
100
AcDbSymbolTableRecord
100
AcDbLinetypeTableRecord
  2
DASHED
 70
     0
  3
__ __ __ __ __ __ __ __ __ __ __ __ __ __ __ __
 72
    65
 73
     2
 40
0.75
 49
0.5
 74
     0
 49
-0.25
 74
     0
  0
LTYPE
  5
2B28
330
5
100
AcDbSymbolTableRecord
100
AcDbLinetypeTableRecord
  2
DASHDOT
 70
     0
  3
一点鎖線
 72
    65
 73
     4
 40
25.6
 49
20.0
 74
     0
 49
-2.0
 74
     0
 49
1.6
 74
     0
 49
-2.0
 74
     0
  0
LTYPE
  5
2B29
330
5
100
AcDbSymbolTableRecord
100
AcDbLinetypeTableRecord
  2
DIVIDE
 70
     0
  3
二点鎖線
 72
    65
 73
     6
 40
31.2
 49
20.0
 74
     0
 49
-2.4
 74
     0
 49
2.0
 74
     0
 49
-2.4
 74
     0
 49
2.0
 74
     0
 49
-2.4
 74
     0
  0
ENDTAB
  0
TABLE
  2
LAYER
  5
2
102
{ACAD_XDICTIONARY
360
29EA
102
}
330
0
100
AcDbSymbolTable
 70
    13
  0
LAYER
  5
F
330
2
100
AcDbSymbolTableRecord
100
AcDbLayerTableRecord
  2
0
 70
     0
 62
     7
  6
CONTINUOUS
  0
LAYER
  5
61
330
2
100
AcDbSymbolTableRecord
100
AcDbLayerTableRecord
  2
図枠太線
 70
     0
 62
   251
  6
CONTINUOUS
  0
LAYER
  5
62
330
2
100
AcDbSymbolTableRecord
100
AcDbLayerTableRecord
  2
図枠細線
 70
     0
 62
   252
  6
CONTINUOUS
  0
LAYER
  5
63
330
2
100
AcDbSymbolTableRecord
100
AcDbLayerTableRecord
  2
図枠ロゴマーク
 70
     0
 62
   253
  6
CONTINUOUS
  0
LAYER
  5
1EF
330
2
100
AcDbSymbolTableRecord
100
AcDbLayerTableRecord
  2
外形線
 70
     0
 62
     7
  6
CONTINUOUS
  0
LAYER
  5
1F0
330
2
100
AcDbSymbolTableRecord
100
AcDbLayerTableRecord
  2
寸法線
 70
     0
 62
     1
  6
CONTINUOUS
  0
LAYER
  5
1F1
330
2
100
AcDbSymbolTableRecord
100
AcDbLayerTableRecord
  2
中心線
 70
     0
 62
     4
  6
CENTER
  0
LAYER
  5
1F4
330
2
100
AcDbSymbolTableRecord
100
AcDbLayerTableRecord
  2
DEFPOINTS
 70
     0
 62
     7
  6
CONTINUOUS
  0
LAYER
  5
2AA2
330
2
100
AcDbSymbolTableRecord
100
AcDbLayerTableRecord
  2
下書線
 70
     0
 62
     2
  6
CONTINUOUS
  0
LAYER
  5
2AA3
330
2
100
AcDbSymbolTableRecord
100
AcDbLayerTableRecord
  2
隠れ線
 70
     0
 62
     3
  6
DASHED
  0
LAYER
  5
2AA4
330
2
100
AcDbSymbolTableRecord
100
AcDbLayerTableRecord
  2
細線
 70
     0
 62
     6
  6
CONTINUOUS
  0
LAYER
  5
2AA5
330
2
100
AcDbSymbolTableRecord
100
AcDbLayerTableRecord
  2
太線
 70
     0
 62
   190
  6
CONTINUOUS
  0
LAYER
  5
2B2A
330
2
100
AcDbSymbolTableRecord
100
AcDbLayerTableRecord
  2
LAY-1
 70
     0
 62
     7
  6
CONTINUOUS
  0
ENDTAB
  0
TABLE
  2
STYLE
  5
3
330
0
100
AcDbSymbolTable
 70
     3
  0
STYLE
  5
10
330
3
100
AcDbSymbolTableRecord
100
AcDbTextStyleTableRecord
  2
STANDARD
 70
     0
 40
0.0
 41
1.0
 50
0.0
 71
     0
 42
2.333873885063
  3
ISOCP
  4
bigfont.shx
  0
STYLE
  5
64
330
3
100
AcDbSymbolTableRecord
100
AcDbTextStyleTableRecord
  2
EXCADSTD
 70
     0
 40
0.0
 41
1.0
 50
0.0
 71
     0
 42
0.2
  3
monotxt
  4
bigfont
  0
STYLE
  5
2B2B
330
3
100
AcDbSymbolTableRecord
100
AcDbTextStyleTableRecord
  2
EXCADVERT
 70
     4
 40
0.0
 41
1.0
 50
0.0
 71
     0
 42
0.286885
  3
monotxt
  4
bigfont
  0
ENDTAB
  0
TABLE
  2
VIEW
  5
6
330
0
100
AcDbSymbolTable
 70
     0
  0
ENDTAB
  0
TABLE
  2
UCS
  5
7
330
0
100
AcDbSymbolTable
 70
     0
  0
ENDTAB
  0
TABLE
  2
APPID
  5
9
330
0
100
AcDbSymbolTable
 70
     3
  0
APPID
  5
11
330
9
100
AcDbSymbolTableRecord
100
AcDbRegAppTableRecord
  2
ACAD
 70
     0
  0
APPID
  5
3BE3
330
9
100
AcDbSymbolTableRecord
100
AcDbRegAppTableRecord
  2
ACADANNOTATIVE
 70
     0
  0
APPID
  5
4050
330
9
100
AcDbSymbolTableRecord
100
AcDbRegAppTableRecord
  2
ACAD_MLEADERVER
 70
     0
  0
ENDTAB
  0
TABLE
  2
DIMSTYLE
  5
A
330
0
100
AcDbSymbolTable
 70
     2
  0
DIMSTYLE
105
1D
330
A
100
AcDbSymbolTableRecord
100
AcDbDimStyleTableRecord
  2
STANDARD
 70
     0
  3

  4

  5

  6

  7

 40
1.0
 41
0.18
 42
0.0625
 43
0.38
 44
0.18
 45
0.0
 46
0.0
 47
0.0
 48
0.0
140
0.18
141
0.09
142
0.0
143
25.4
144
1.0
145
0.0
146
1.0
147
0.09
 71
     0
 72
     0
 73
     1
 74
     1
 75
     0
 76
     0
 77
     0
 78
     0
170
     0
171
     2
172
     0
173
     0
174
     0
175
     0
176
     0
177
     0
178
     0
270
     2
271
     4
272
     4
273
     2
274
     2
340
10
275
     0
280
     0
281
     0
282
     0
283
     1
284
     0
285
     0
286
     0
287
     3
288
     0
  0
DIMSTYLE
105
24
102
{ACAD_REACTORS
330
347D
330
34B8
330
34C5
330
3A14
330
3EDD
330
3EE1
330
3F0B
330
3F0C
330
3F0E
330
3F50
330
4005
102
}
330
A
100
AcDbSymbolTableRecord
100
AcDbDimStyleTableRecord
  2
ISO-25
 70
     0
  3

  4

  5

  6

  7

 40
1.0
 41
2.5
 42
0.625
 43
3.75
 44
1.25
 45
0.0
 46
0.0
 47
0.0
 48
0.0
140
2.5
141
2.5
142
0.0
143
0.0394
144
1.0
145
1.0
146
1.0
147
0.625
 71
     0
 72
     0
 73
     1
 74
     0
 75
     0
 76
     0
 77
     1
 78
     8
170
     0
171
     2
172
     1
173
     0
174
     0
175
     0
176
     0
177
     0
178
     0
270
     2
271
     4
272
     4
273
     2
274
     2
340
10
275
     0
280
     0
281
     0
282
     0
283
     1
284
     0
285
     0
286
     0
287
     3
288
     0
  0
ENDTAB
  0
TABLE
  2
BLOCK_RECORD
  5
1
330
0
100
AcDbSymbolTable
 70
    37
  0
BLOCK_RECORD
  5
1A
330
1
100
AcDbSymbolTableRecord
100
AcDbBlockTableRecord
  2
*MODEL_SPACE
  0
BLOCK_RECORD
  5
28FB
330
1
100
AcDbSymbolTableRecord
100
AcDbBlockTableRecord
  2
*PAPER_SPACE
  0
BLOCK_RECORD
  5
65
330
1
100
AcDbSymbolTableRecord
100
AcDbBlockTableRecord
  2
A$C3392
  0
BLOCK_RECORD
  5
29BF
330
1
100
AcDbSymbolTableRecord
100
AcDbBlockTableRecord
  2
A4横用_タイトル
1001
ACAD
1000
DesignCenter Data
1002
{
1070
     1
1070
     4
1002
}
  0
BLOCK_RECORD
  5
29F4
330
1
100
AcDbSymbolTableRecord
100
AcDbBlockTableRecord
  2
A4縦用_タイトル
1001
ACAD
1000
DesignCenter Data
1002
{
1070
     1
1070
     4
1002
}
  0
BLOCK_RECORD
  5
2A32
330
1
100
AcDbSymbolTableRecord
100
AcDbBlockTableRecord
  2
A3横用_タイトル
1001
ACAD
1000
DesignCenter Data
1002
{
1070
     1
1070
     4
1002
}
  0
BLOCK_RECORD
  5
2A6C
330
1
100
AcDbSymbolTableRecord
100
AcDbBlockTableRecord
  2
A3縦用_タイトル
1001
ACAD
1000
DesignCenter Data
1002
{
1070
     1
1070
     4
1002
}
  0
BLOCK_RECORD
  5
2AF4
330
1
100
AcDbSymbolTableRecord
100
AcDbBlockTableRecord
  2
_OPEN30
  0
BLOCK_RECORD
  5
2F3F
330
1
100
AcDbSymbolTableRecord
100
AcDbBlockTableRecord
  2
ケース外形図_HL-400
  0
BLOCK_RECORD
  5
347E
330
1
100
AcDbSymbolTableRecord
100
AcDbBlockTableRecord
  2
*D9
  0
BLOCK_RECORD
  5
34B9
330
1
100
AcDbSymbolTableRecord
100
AcDbBlockTableRecord
  2
*D10
  0
BLOCK_RECORD
  5
34C6
330
1
100
AcDbSymbolTableRecord
100
AcDbBlockTableRecord
  2
*D11
  0
BLOCK_RECORD
  5
3A15
330
1
100
AcDbSymbolTableRecord
100
AcDbBlockTableRecord
  2
*D16
  0
BLOCK_RECORD
  5
3F91
330
1
100
AcDbSymbolTableRecord
100
AcDbBlockTableRecord
  2
*D27
  0
BLOCK_RECORD
  5
3FC5
330
1
100
AcDbSymbolTableRecord
100
AcDbBlockTableRecord
  2
*D31
  0
BLOCK_RECORD
  5
3FD1
330
1
100
AcDbSymbolTableRecord
100
AcDbBlockTableRecord
  2
*D32
  0
BLOCK_RECORD
  5
3FDF
330
1
100
AcDbSymbolTableRecord
100
AcDbBlockTableRecord
  2
*D33
  0
BLOCK_RECORD
  5
3FEB
330
1
100
AcDbSymbolTableRecord
100
AcDbBlockTableRecord
  2
*D34
  0
BLOCK_RECORD
  5
3FF9
330
1
100
AcDbSymbolTableRecord
100
AcDbBlockTableRecord
  2
*D35
  0
BLOCK_RECORD
  5
4006
330
1
100
AcDbSymbolTableRecord
100
AcDbBlockTableRecord
  2
*D36
  0
ENDTAB
  0
ENDSEC
  0
SECTION
  2
BLOCKS
  0
BLOCK
  5
1B
330
1A
100
AcDbEntity
  8
0
100
AcDbBlockBegin
  2
*MODEL_SPACE
 70
     0
 10
0.0
 20
0.0
 30
0.0
  3
*MODEL_SPACE
  1

  0
ENDBLK
  5
1C
330
1A
100
AcDbEntity
  8
0
100
AcDbBlockEnd
  0
BLOCK
  5
28FD
330
28FB
100
AcDbEntity
 67
     1
  8
0
 48
10.0
100
AcDbBlockBegin
  2
*PAPER_SPACE
 70
     0
 10
0.0
 20
0.0
 30
0.0
  3
*PAPER_SPACE
  1

  0
ENDBLK
  5
28FE
330
28FB
100
AcDbEntity
 67
     1
  8
0
 48
10.0
100
AcDbBlockEnd
  0
BLOCK
  5
93
330
65
100
AcDbEntity
  8
0
100
AcDbBlockBegin
  2
A$C3392
 70
     0
 10
0.0
 20
0.0
 30
0.0
  3
A$C3392
  1
A$C3392
  0
LINE
  5
66
330
65
100
AcDbEntity
  8
図枠太線
  6
CONTINUOUS
100
AcDbLine
 10
211.858584505185
 20
30.927375675439
 30
0.0
 11
211.858584505185
 21
0.927375675439
 31
0.0
  0
LINE
  5
67
330
65
100
AcDbEntity
  8
図枠細線
  6
CONTINUOUS
100
AcDbLine
 10
231.858592505185
 20
15.927377675439
 30
0.0
 11
287.858592505185
 21
15.927375675439
 31
0.0
  0
LINE
  5
68
330
65
100
AcDbEntity
  8
図枠細線
  6
CONTINUOUS
100
AcDbLine
 10
211.858592505185
 20
15.927377675439
 30
0.0
 11
231.858592505185
 21
15.927377675439
 31
0.0
  0
LINE
  5
69
330
65
100
AcDbEntity
  8
図枠太線
  6
CONTINUOUS
 62
   251
100
AcDbLine
 10
1.858584505185
 20
0.927375675439
 30
0.0
 11
1.858584505185
 21
275.927375675439
 31
0.0
  0
TEXT
  5
6A
330
65
100
AcDbEntity
  8
図枠細線
  6
CONTINUOUS
 62
   252
100
AcDbText
 10
351.358592505185
 20
28.427377675439
 30
0.0
 40
2.0
  1
ＴＩＴＬＥ
 41
0.903614457831
  7
EXCADSTD
 72
     5
 11
361.358592505185
 21
28.427377675439
 31
0.0
100
AcDbText
  0
TEXT
  5
6B
330
65
100
AcDbEntity
  8
図枠細線
  6
CONTINUOUS
 62
   252
100
AcDbText
 10
345.358592505185
 20
28.427377675439
 30
0.0
 40
2.0
  1
名称
 41
1.171875
  7
EXCADSTD
 72
     5
 11
350.358592505185
 21
28.427377675439
 31
0.0
100
AcDbText
  0
TEXT
  5
6C
330
65
100
AcDbEntity
  8
図枠細線
  6
CONTINUOUS
 62
   252
100
AcDbText
 10
274.358592505185
 20
25.927377675439
 30
0.0
 40
2.0
  1
ＤＲＡＷＮ
 41
0.882352941176
  7
EXCADSTD
 72
     5
 11
284.358592505185
 21
25.927377675439
 31
0.0
100
AcDbText
  0
TEXT
  5
6D
330
65
100
AcDbEntity
  8
図枠細線
  6
CONTINUOUS
 62
   252
100
AcDbText
 10
260.358592505185
 20
25.927377675439
 30
0.0
 40
2.0
  1
ＤＥＳＩＧＮＥＤ
 41
0.713043472041
  7
EXCADSTD
 72
     5
 11
273.478592390744
 21
25.927377675439
 31
0.0
100
AcDbText
  0
TEXT
  5
6E
330
65
100
AcDbEntity
  8
図枠細線
  6
CONTINUOUS
 62
   252
100
AcDbText
 10
246.358592505185
 20
25.927377675439
 30
0.0
 40
2.0
  1
ＣＨＥＣＫＥＤ
 41
0.831249989569
  7
EXCADSTD
 72
     5
 11
259.658592338292
 21
25.927377675439
 31
0.0
100
AcDbText
  0
TEXT
  5
6F
330
65
100
AcDbEntity
  8
図枠細線
  6
CONTINUOUS
 62
   252
100
AcDbText
 10
274.358592505185
 20
28.427377675439
 30
0.0
 40
2.0
  1
製図
 41
1.209677419355
  7
EXCADSTD
 72
     5
 11
279.358592505185
 21
28.427377675439
 31
0.0
100
AcDbText
  0
TEXT
  5
70
330
65
100
AcDbEntity
  8
図枠細線
  6
CONTINUOUS
 62
   252
100
AcDbText
 10
260.358592505185
 20
28.427377675439
 30
0.0
 40
2.0
  1
設計
 41
1.171875
  7
EXCADSTD
 72
     5
 11
265.358592505185
 21
28.427377675439
 31
0.0
100
AcDbText
  0
TEXT
  5
71
330
65
100
AcDbEntity
  8
図枠細線
  6
CONTINUOUS
 62
   252
100
AcDbText
 10
246.358592505185
 20
28.427377675439
 30
0.0
 40
2.0
  1
検図
 41
1.209677419355
  7
EXCADSTD
 72
     5
 11
251.358592505185
 21
28.427377675439
 31
0.0
100
AcDbText
  0
TEXT
  5
72
330
65
100
AcDbEntity
  8
図枠細線
  6
CONTINUOUS
 62
   252
100
AcDbText
 10
232.358592505185
 20
25.927377675439
 30
0.0
 40
2.0
  1
ＡＰＰＲＯＶＥＤ
 41
0.695652184279
  7
EXCADSTD
 72
     5
 11
245.15859269592
 21
25.927377675439
 31
0.0
100
AcDbText
  0
TEXT
  5
73
330
65
100
AcDbEntity
  8
図枠細線
  6
CONTINUOUS
 62
   252
100
AcDbText
 10
232.358592505185
 20
28.427377675439
 30
0.0
 40
2.0
  1
承認
 41
1.171875
  7
EXCADSTD
 72
     5
 11
237.358592505185
 21
28.427377675439
 31
0.0
100
AcDbText
  0
TEXT
  5
74
330
65
100
AcDbEntity
  8
図枠細線
  6
CONTINUOUS
 62
   252
100
AcDbText
 10
290.069888505185
 20
2.574868675439
 30
0.0
 40
3.5
  1
ＴＯＷＡ　ＳＥＩＤＥＮ　ＩＮＤＵＳＴＲＩＡＬ　ＣＯ．，ＬＴＤ．
 41
0.414568012377
  7
EXCADSTD
 72
     5
 11
342.692388209546
 21
2.574868675439
 31
0.0
100
AcDbText
  0
TEXT
  5
75
330
65
100
AcDbEntity
  8
図枠ロゴマーク
  6
CONTINUOUS
 62
   253
100
AcDbText
 10
290.107348505185
 20
7.519769675439
 30
0.0
 40
7.0
  1
東和制電工業株式会社
 41
0.639204545455
  7
EXCADSTD
 72
     5
 11
342.607348505185
 21
7.519769675439
 31
0.0
100
AcDbText
  0
TEXT
  5
76
330
65
100
AcDbEntity
  8
図枠細線
  6
CONTINUOUS
 62
   252
100
AcDbText
 10
232.499705505185
 20
5.759088675439
 30
0.0
 40
2.0
  1
ＰＲＯＪＥＣＴＩＯＮ
 41
0.754285710199
  7
EXCADSTD
 72
     5
 11
250.099705409817
 21
5.759088675439
 31
0.0
100
AcDbText
  0
TEXT
  5
77
330
65
100
AcDbEntity
  8
図枠細線
  6
CONTINUOUS
 62
   252
100
AcDbText
 10
232.574629505185
 20
8.681077675439
 30
0.0
 40
2.0
  1
ＴＨＩＲＤ　ＡＮＧＬＥ
 41
0.691099486738
  7
EXCADSTD
 72
     5
 11
250.174629767445
 21
8.681077675439
 31
0.0
100
AcDbText
  0
TEXT
  5
78
330
65
100
AcDbEntity
  8
図枠細線
  6
CONTINUOUS
 62
   252
100
AcDbText
 10
256.823999505185
 20
13.427377675439
 30
0.0
 40
2.0
  1
ＳＣＡＬＥ
 41
0.903614457831
  7
EXCADSTD
 72
     5
 11
266.823999505185
 21
13.427377675439
 31
0.0
100
AcDbText
  0
TEXT
  5
79
330
65
100
AcDbEntity
  8
図枠細線
  6
CONTINUOUS
 62
   252
100
AcDbText
 10
274.858592505185
 20
13.427377675439
 30
0.0
 40
2.0
  1
ＤＡＴＥ
 41
0.923076923077
  7
EXCADSTD
 72
     5
 11
282.858592505185
 21
13.427377675439
 31
0.0
100
AcDbText
  0
TEXT
  5
7A
330
65
100
AcDbEntity
  8
図枠細線
  6
CONTINUOUS
 62
   252
100
AcDbText
 10
356.358592505185
 20
13.427377675439
 30
0.0
 40
2.0
  1
ＤＲＧ．ＮＯ．
 41
0.9375
  7
EXCADSTD
 72
     5
 11
370.358592505185
 21
13.427377675439
 31
0.0
100
AcDbText
  0
TEXT
  5
7B
330
65
100
AcDbEntity
  8
図枠細線
  6
CONTINUOUS
 62
   252
100
AcDbText
 10
345.358592505185
 20
13.427377675439
 30
0.0
 40
2.0
  1
図面番号
 41
1.102941176471
  7
EXCADSTD
 72
     5
 11
355.358592505185
 21
13.427377675439
 31
0.0
100
AcDbText
  0
TEXT
  5
7C
330
65
100
AcDbEntity
  8
図枠細線
  6
CONTINUOUS
 62
   252
100
AcDbText
 10
269.358592505185
 20
13.427377675439
 30
0.0
 40
2.0
  1
日付
 41
1.171875
  7
EXCADSTD
 72
     5
 11
274.358592505185
 21
13.427377675439
 31
0.0
100
AcDbText
  0
TEXT
  5
7D
330
65
100
AcDbEntity
  8
図枠細線
  6
CONTINUOUS
 62
   252
100
AcDbText
 10
251.451512505185
 20
13.427377675439
 30
0.0
 40
2.0
  1
尺度
 41
1.171875
  7
EXCADSTD
 72
     5
 11
256.451512505185
 21
13.427377675439
 31
0.0
100
AcDbText
  0
TEXT
  5
7E
330
65
100
AcDbEntity
  8
図枠細線
  6
CONTINUOUS
 62
   252
100
AcDbText
 10
232.358592505185
 20
13.427377675439
 30
0.0
 40
2.0
  1
第三角法
 41
1.102941176471
  7
EXCADSTD
 72
     5
 11
242.358592505185
 21
13.427377675439
 31
0.0
100
AcDbText
  0
TEXT
  5
7F
330
65
100
AcDbEntity
  8
図枠細線
  6
CONTINUOUS
 62
   252
100
AcDbText
 10
212.358592505185
 20
28.427377675439
 30
0.0
 40
2.0
  1
ＮＯＴＥ
 41
0.923076923077
  7
EXCADSTD
 72
     5
 11
220.358592505185
 21
28.427377675439
 31
0.0
100
AcDbText
  0
LINE
  5
80
330
65
100
AcDbEntity
  8
図枠細線
  6
CONTINUOUS
 62
   252
100
AcDbLine
 10
287.858592505185
 20
23.427375675439
 30
0.0
 11
344.858592505185
 21
23.427375675439
 31
0.0
  0
LINE
  5
81
330
65
100
AcDbEntity
  8
図枠太線
  6
CONTINUOUS
 62
   251
100
AcDbLine
 10
287.858584505185
 20
15.927375675439
 30
0.0
 11
344.858592505185
 21
15.927375675439
 31
0.0
  0
LINE
  5
82
330
65
100
AcDbEntity
  8
図枠細線
  6
CONTINUOUS
 62
   252
100
AcDbLine
 10
344.858592505185
 20
15.927375675439
 30
0.0
 11
401.858584505185
 21
15.927375675439
 31
0.0
  0
LINE
  5
83
330
65
100
AcDbEntity
  8
図枠太線
  6
CONTINUOUS
 62
   251
100
AcDbLine
 10
344.858592505185
 20
0.927377675439
 30
0.0
 11
344.858592505185
 21
30.927375675439
 31
0.0
  0
LINE
  5
84
330
65
100
AcDbEntity
  8
図枠太線
  6
CONTINUOUS
 62
   251
100
AcDbLine
 10
287.858592505185
 20
0.927377675439
 30
0.0
 11
287.858592505185
 21
30.927375675439
 31
0.0
  0
LINE
  5
85
330
65
100
AcDbEntity
  8
図枠細線
  6
CONTINUOUS
 62
   252
100
AcDbLine
 10
268.858592505185
 20
0.927377675439
 30
0.0
 11
268.858592505185
 21
15.927375675439
 31
0.0
  0
LINE
  5
86
330
65
100
AcDbEntity
  8
図枠細線
  6
CONTINUOUS
 62
   252
100
AcDbLine
 10
250.858592505185
 20
0.927377675439
 30
0.0
 11
250.858592505185
 21
15.927375675439
 31
0.0
  0
LINE
  5
87
330
65
100
AcDbEntity
  8
図枠細線
  6
CONTINUOUS
 62
   252
100
AcDbLine
 10
273.858592505185
 20
30.927375675439
 30
0.0
 11
273.858592505185
 21
15.927375675439
 31
0.0
  0
LINE
  5
88
330
65
100
AcDbEntity
  8
図枠細線
  6
CONTINUOUS
 62
   252
100
AcDbLine
 10
259.858592505185
 20
30.927375675439
 30
0.0
 11
259.858592505185
 21
15.927375675439
 31
0.0
  0
LINE
  5
89
330
65
100
AcDbEntity
  8
図枠細線
  6
CONTINUOUS
 62
   252
100
AcDbLine
 10
245.858592505185
 20
30.927375675439
 30
0.0
 11
245.858592505185
 21
15.927375675439
 31
0.0
  0
LINE
  5
8A
330
65
100
AcDbEntity
  8
図枠太線
  6
CONTINUOUS
 62
   251
100
AcDbLine
 10
231.858592505185
 20
0.927377675439
 30
0.0
 11
231.858592505185
 21
30.927375675439
 31
0.0
  0
LINE
  5
8B
330
65
100
AcDbEntity
  8
図枠細線
  6
CONTINUOUS
 62
   252
100
AcDbLine
 10
211.858592505185
 20
25.927375675439
 30
0.0
 11
231.858592505185
 21
25.927375675439
 31
0.0
  0
LINE
  5
8C
330
65
100
AcDbEntity
  8
図枠細線
  6
CONTINUOUS
 62
   252
100
AcDbLine
 10
211.858592505185
 20
20.927375675439
 30
0.0
 11
231.858592505185
 21
20.927375675439
 31
0.0
  0
LINE
  5
8D
330
65
100
AcDbEntity
  8
図枠細線
  6
CONTINUOUS
 62
   252
100
AcDbLine
 10
211.858592505185
 20
10.927375675439
 30
0.0
 11
231.858592505185
 21
10.927375675439
 31
0.0
  0
LINE
  5
8E
330
65
100
AcDbEntity
  8
図枠細線
  6
CONTINUOUS
 62
   252
100
AcDbLine
 10
211.858592505185
 20
5.927377675439
 30
0.0
 11
231.858592505185
 21
5.927377675439
 31
0.0
  0
LINE
  5
8F
330
65
100
AcDbEntity
  8
図枠太線
  6
CONTINUOUS
 62
   251
100
AcDbLine
 10
211.858592505185
 20
30.927375675439
 30
0.0
 11
401.858584505185
 21
30.927375675439
 31
0.0
  0
LINE
  5
90
330
65
100
AcDbEntity
  8
図枠太線
  6
CONTINUOUS
 62
   251
100
AcDbLine
 10
1.858584505185
 20
275.927375675439
 30
0.0
 11
401.858584505185
 21
275.927375675439
 31
0.0
  0
LINE
  5
91
330
65
100
AcDbEntity
  8
図枠太線
  6
CONTINUOUS
 62
   251
100
AcDbLine
 10
401.858584505185
 20
0.927375675439
 30
0.0
 11
401.858584505185
 21
275.927375675439
 31
0.0
  0
LINE
  5
92
330
65
100
AcDbEntity
  8
図枠太線
  6
CONTINUOUS
 62
   251
100
AcDbLine
 10
1.858584505185
 20
0.927375675439
 30
0.0
 11
401.858584505185
 21
0.927375675439
 31
0.0
  0
ENDBLK
  5
94
330
65
100
AcDbEntity
  8
0
100
AcDbBlockEnd
  0
BLOCK
  5
29C0
330
29BF
100
AcDbEntity
  8
0
100
AcDbBlockBegin
  2
A4横用_タイトル
 70
     0
 10
0.0
 20
0.0
 30
0.0
  3
A4横用_タイトル
  1
A4横用_タイトル
  0
LINE
  5
29C1
330
29BF
100
AcDbEntity
  8
図枠細線
  6
CONTINUOUS
100
AcDbLine
 10
75.061011071051
 20
16.806607253358
 30
0.0
 11
144.061011071051
 21
16.806604789072
 31
0.0
  0
LINE
  5
29C2
330
29BF
100
AcDbEntity
  8
図枠細線
  6
CONTINUOUS
 62
   252
100
AcDbLine
 10
4.061011071051
 20
11.806606253358
 30
0.0
 11
75.061011071051
 21
11.806606253358
 31
0.0
  0
LINE
  5
29C3
330
29BF
100
AcDbEntity
  8
図枠細線
  6
CONTINUOUS
 62
   252
100
AcDbLine
 10
4.061011071051
 20
21.806606253358
 30
0.0
 11
75.061011071051
 21
21.806606253358
 31
0.0
  0
LINE
  5
29C4
330
29BF
100
AcDbEntity
  8
図枠細線
  6
CONTINUOUS
 62
   252
100
AcDbLine
 10
4.061011071051
 20
26.806606253358
 30
0.0
 11
75.061011071051
 21
26.806606253358
 31
0.0
  0
LINE
  5
29C5
330
29BF
100
AcDbEntity
  8
図枠細線
  6
CONTINUOUS
100
AcDbLine
 10
4.061011071051
 20
16.806608253358
 30
0.0
 11
75.061011071051
 21
16.806608253358
 31
0.0
  0
TEXT
  5
29C6
330
29BF
100
AcDbEntity
  8
図枠細線
  6
CONTINUOUS
 62
   252
100
AcDbText
 10
76.405475827713
 20
9.560308253358
 30
0.0
 40
2.0
  1
ＴＨＩＲＤ　ＡＮＧＬＥ
 41
0.691099486738
  7
EXCADSTD
 72
     5
 11
94.005476089973
 21
9.560308253358
 31
0.0
100
AcDbText
  0
TEXT
  5
29C7
330
29BF
100
AcDbEntity
  8
図枠細線
  6
CONTINUOUS
 62
   252
100
AcDbText
 10
76.705775880921
 20
14.306608253358
 30
0.0
 40
2.0
  1
第三角法
 41
1.102941176471
  7
EXCADSTD
 72
     5
 11
86.705775880921
 21
14.306608253358
 31
0.0
100
AcDbText
  0
TEXT
  5
29C8
330
29BF
100
AcDbEntity
  8
図枠細線
  6
CONTINUOUS
 62
   252
100
AcDbText
 10
76.705775880921
 20
26.806608253358
 30
0.0
 40
2.0
  1
ＡＰＰＲＯＶＥＤ
 41
0.695652184279
  7
EXCADSTD
 72
     5
 11
89.505776071656
 21
26.806608253358
 31
0.0
100
AcDbText
  0
TEXT
  5
29C9
330
29BF
100
AcDbEntity
  8
図枠細線
  6
CONTINUOUS
 62
   252
100
AcDbText
 10
76.705775880921
 20
29.306608253358
 30
0.0
 40
2.0
  1
承認
 41
1.171875
  7
EXCADSTD
 72
     5
 11
81.705775880921
 21
29.306608253358
 31
0.0
100
AcDbText
  0
LINE
  5
29CA
330
29BF
100
AcDbEntity
  8
図枠細線
  6
CONTINUOUS
 62
   252
100
AcDbLine
 10
98.061011071051
 20
31.806606253358
 30
0.0
 11
98.061011071051
 21
16.806606253358
 31
0.0
  0
TEXT
  5
29CB
330
29BF
100
AcDbEntity
  8
図枠細線
  6
CONTINUOUS
 62
   252
100
AcDbText
 10
104.216531119804
 20
14.306608253358
 30
0.0
 40
2.0
  1
ＳＣＡＬＥ
 41
0.903614457831
  7
EXCADSTD
 72
     5
 11
114.216531119804
 21
14.306608253358
 31
0.0
100
AcDbText
  0
TEXT
  5
29CC
330
29BF
100
AcDbEntity
  8
図枠細線
  6
CONTINUOUS
 62
   252
100
AcDbText
 10
98.844044119804
 20
14.306608253358
 30
0.0
 40
2.0
  1
尺度
 41
1.171875
  7
EXCADSTD
 72
     5
 11
103.844044119804
 21
14.306608253358
 31
0.0
100
AcDbText
  0
TEXT
  5
29CD
330
29BF
100
AcDbEntity
  8
図枠細線
  6
CONTINUOUS
 62
   252
100
AcDbText
 10
98.968727707497
 20
26.806608253358
 30
0.0
 40
2.0
  1
ＣＨＥＣＫＥＤ
 41
0.831249989569
  7
EXCADSTD
 72
     5
 11
112.268727540604
 21
26.806608253358
 31
0.0
100
AcDbText
  0
TEXT
  5
29CE
330
29BF
100
AcDbEntity
  8
図枠細線
  6
CONTINUOUS
 62
   252
100
AcDbText
 10
98.968727707497
 20
29.306608253358
 30
0.0
 40
2.0
  1
検図
 41
1.209677419355
  7
EXCADSTD
 72
     5
 11
103.968727707497
 21
29.306608253358
 31
0.0
100
AcDbText
  0
LINE
  5
29CF
330
29BF
100
AcDbEntity
  8
図枠細線
  6
CONTINUOUS
 62
   252
100
AcDbLine
 10
121.061011071051
 20
31.806606253358
 30
0.0
 11
121.061011071051
 21
16.806606253358
 31
0.0
  0
TEXT
  5
29D0
330
29BF
100
AcDbEntity
  8
図枠細線
  6
CONTINUOUS
 62
   252
100
AcDbText
 10
128.001465247253
 20
14.306608253358
 30
0.0
 40
2.0
  1
ＤＡＴＥ
 41
0.923076923077
  7
EXCADSTD
 72
     5
 11
136.001465247253
 21
14.306608253358
 31
0.0
100
AcDbText
  0
TEXT
  5
29D1
330
29BF
100
AcDbEntity
  8
図枠細線
  6
CONTINUOUS
 62
   252
100
AcDbText
 10
122.066415498841
 20
14.306608253358
 30
0.0
 40
2.0
  1
日付
 41
1.171875
  7
EXCADSTD
 72
     5
 11
127.066415498841
 21
14.306608253358
 31
0.0
100
AcDbText
  0
TEXT
  5
29D2
330
29BF
100
AcDbEntity
  8
図枠細線
  6
CONTINUOUS
 62
   252
100
AcDbText
 10
121.59429406571
 20
29.306608253358
 30
0.0
 40
2.0
  1
製図
 41
1.209677419355
  7
EXCADSTD
 72
     5
 11
126.59429406571
 21
29.306608253358
 31
0.0
100
AcDbText
  0
TEXT
  5
29D3
330
29BF
100
AcDbEntity
  8
図枠細線
  6
CONTINUOUS
 62
   252
100
AcDbText
 10
121.59429406571
 20
26.806608253358
 30
0.0
 40
2.0
  1
ＤＲＡＷＮ
 41
0.882352941176
  7
EXCADSTD
 72
     5
 11
131.59429406571
 21
26.806608253358
 31
0.0
100
AcDbText
  0
TEXT
  5
29D4
330
29BF
100
AcDbEntity
  8
図枠細線
  6
CONTINUOUS
 62
   252
100
AcDbText
 10
226.591229661348
 20
14.306608253358
 30
0.0
 40
2.0
  1
ＤＲＧ．ＮＯ．
 41
0.9375
  7
EXCADSTD
 72
     5
 11
240.591229661348
 21
14.306608253358
 31
0.0
100
AcDbText
  0
LINE
  5
29D5
330
29BF
100
AcDbEntity
  8
図枠太線
  6
CONTINUOUS
 62
   251
100
AcDbLine
 10
144.061003071051
 20
16.806606253358
 30
0.0
 11
214.061011071051
 21
16.806606253358
 31
0.0
  0
LINE
  5
29D6
330
29BF
100
AcDbEntity
  8
図枠細線
  6
CONTINUOUS
 62
   252
100
AcDbLine
 10
144.061011071051
 20
24.306606253358
 30
0.0
 11
214.061011071051
 21
24.306606253358
 31
0.0
  0
TEXT
  5
29D7
330
29BF
100
AcDbEntity
  8
図枠ロゴマーク
  6
CONTINUOUS
 62
   253
100
AcDbText
 10
146.433776781596
 20
8.399000253358
 30
0.0
 40
7.0
  1
東和制電工業株式会社
 41
0.80361088462
  7
EXCADSTD
 72
     5
 11
212.437017438349
 21
8.399000253358
 31
0.0
100
AcDbText
  0
TEXT
  5
29D8
330
29BF
100
AcDbEntity
  8
図枠細線
  6
CONTINUOUS
 62
   252
100
AcDbText
 10
215.156179912936
 20
14.306608253358
 30
0.0
 40
2.0
  1
図面番号
 41
1.102941176471
  7
EXCADSTD
 72
     5
 11
225.156179912936
 21
14.306608253358
 31
0.0
100
AcDbText
  0
TEXT
  5
29D9
330
29BF
100
AcDbEntity
  8
図枠細線
  6
CONTINUOUS
 62
   252
100
AcDbText
 10
221.591229661348
 20
29.306608253358
 30
0.0
 40
2.0
  1
ＴＩＴＬＥ
 41
0.903614457831
  7
EXCADSTD
 72
     5
 11
231.591229661348
 21
29.306608253358
 31
0.0
100
AcDbText
  0
TEXT
  5
29DA
330
29BF
100
AcDbEntity
  8
図枠細線
  6
CONTINUOUS
 62
   252
100
AcDbText
 10
215.156179912936
 20
29.306608253358
 30
0.0
 40
2.0
  1
名称
 41
1.171875
  7
EXCADSTD
 72
     5
 11
220.156179912936
 21
29.306608253358
 31
0.0
100
AcDbText
  0
LINE
  5
29DB
330
29BF
100
AcDbEntity
  8
図枠太線
  6
CONTINUOUS
 62
   251
100
AcDbLine
 10
4.061011071051
 20
1.806608253358
 30
0.0
 11
284.061011071051
 21
1.806608253358
 31
0.0
  0
LINE
  5
29DC
330
29BF
100
AcDbEntity
  8
図枠細線
  6
CONTINUOUS
 62
   252
100
AcDbLine
 10
4.061011071051
 20
6.806608253358
 30
0.0
 11
75.061011071051
 21
6.806608253358
 31
0.0
  0
LINE
  5
29DD
330
29BF
100
AcDbEntity
  8
図枠太線
  6
CONTINUOUS
 62
   251
100
AcDbLine
 10
75.061011071051
 20
1.806608253358
 30
0.0
 11
75.061011071051
 21
31.806606253358
 31
0.0
  0
TEXT
  5
29DE
330
29BF
100
AcDbEntity
  8
図枠細線
  6
CONTINUOUS
 62
   252
100
AcDbText
 10
76.330551827713
 20
6.638319253358
 30
0.0
 40
2.0
  1
ＰＲＯＪＥＣＴＩＯＮ
 41
0.754285710199
  7
EXCADSTD
 72
     5
 11
93.930551732346
 21
6.638319253358
 31
0.0
100
AcDbText
  0
LINE
  5
29DF
330
29BF
100
AcDbEntity
  8
図枠細線
  6
CONTINUOUS
 62
   252
100
AcDbLine
 10
98.061011071051
 20
1.806606931929
 30
0.0
 11
98.061011071051
 21
16.806604931929
 31
0.0
  0
LINE
  5
29E0
330
29BF
100
AcDbEntity
  8
図枠細線
  6
CONTINUOUS
 62
   252
100
AcDbLine
 10
121.061011071051
 20
1.806607574787
 30
0.0
 11
121.061011071051
 21
16.806605574787
 31
0.0
  0
LINE
  5
29E1
330
29BF
100
AcDbEntity
  8
図枠太線
  6
CONTINUOUS
 62
   251
100
AcDbLine
 10
284.061011071051
 20
1.806608253358
 30
0.0
 11
284.061011071051
 21
31.806606253358
 31
0.0
  0
LINE
  5
29E2
330
29BF
100
AcDbEntity
  8
図枠細線
  6
CONTINUOUS
 62
   252
100
AcDbLine
 10
214.061011071051
 20
16.806606253358
 30
0.0
 11
284.061011071051
 21
16.806606253358
 31
0.0
  0
TEXT
  5
29E3
330
29BF
100
AcDbEntity
  8
図枠細線
  6
CONTINUOUS
 62
   252
100
AcDbText
 10
146.199593676182
 20
3.454099253358
 30
0.0
 40
3.5
  1
ＴＯＷＡ　ＳＥＩＤＥＮ　ＩＮＤＵＳＴＲＩＡＬ　ＣＯ．，ＬＴＤ．
 41
0.528937826907
  7
EXCADSTD
 72
     5
 11
213.339435171588
 21
3.454099253358
 31
0.0
100
AcDbText
  0
LINE
  5
29E4
330
29BF
100
AcDbEntity
  8
図枠太線
  6
CONTINUOUS
 62
   251
100
AcDbLine
 10
144.061011071051
 20
1.806608253358
 30
0.0
 11
144.061011071051
 21
31.806606253358
 31
0.0
  0
LINE
  5
29E5
330
29BF
100
AcDbEntity
  8
図枠太線
  6
CONTINUOUS
 62
   251
100
AcDbLine
 10
214.061011071051
 20
1.806608253358
 30
0.0
 11
214.061011071051
 21
31.806606253358
 31
0.0
  0
MTEXT
  5
29E6
330
29BF
100
AcDbEntity
  8
図枠太線
100
AcDbMText
 10
5.064337346478
 20
31.010982137407
 30
0.0
 40
2.5
 41
8.67856098472
 71
     1
 72
     5
  1
{\Fmonotxt.shx,bigfont.shx|c128;図暦}
  0
LINE
  5
29E7
330
29BF
100
AcDbEntity
  8
図枠太線
  6
CONTINUOUS
 62
   251
100
AcDbLine
 10
4.061011071051
 20
1.806608253358
 30
0.0
 11
4.061011071051
 21
31.806606253358
 31
0.0
  0
TEXT
  5
29E8
330
29BF
100
AcDbEntity
  8
図枠細線
 48
10.0
100
AcDbText
 10
12.260817420402
 20
28.625419626495
 30
0.0
 40
2.0
  1
CHANGE NOTICE
100
AcDbText
  0
ENDBLK
  5
29E9
330
29BF
100
AcDbEntity
  8
0
100
AcDbBlockEnd
  0
BLOCK
  5
29F5
330
29F4
100
AcDbEntity
  8
0
100
AcDbBlockBegin
  2
A4縦用_タイトル
 70
     0
 10
0.0
 20
0.0
 30
0.0
  3
A4縦用_タイトル
  1
A4縦用_タイトル
  0
LINE
  5
29F6
330
29F4
100
AcDbEntity
  8
図枠太線
  6
CONTINUOUS
 62
   251
100
AcDbLine
 10
2.368253864267
 20
4.525433224584
 30
0.0
 11
192.368245864267
 21
4.525433224584
 31
0.0
  0
LINE
  5
29F7
330
29F4
100
AcDbEntity
  8
図枠太線
  6
CONTINUOUS
 62
   251
100
AcDbLine
 10
78.368245864267
 20
19.525431224584
 30
0.0
 11
135.368253864267
 21
19.525431224584
 31
0.0
  0
LINE
  5
29F8
330
29F4
100
AcDbEntity
  8
図枠細線
  6
CONTINUOUS
 62
   252
100
AcDbLine
 10
78.368253864267
 20
27.025431224584
 30
0.0
 11
135.368253864267
 21
27.025431224584
 31
0.0
  0
TEXT
  5
29F9
330
29F4
100
AcDbEntity
  8
図枠ロゴマーク
  6
CONTINUOUS
 62
   253
100
AcDbText
 10
80.617009864267
 20
11.117825224584
 30
0.0
 40
7.0
  1
東和制電工業株式会社
 41
0.639204545455
  7
EXCADSTD
 72
     5
 11
133.117009864267
 21
11.117825224584
 31
0.0
100
AcDbText
  0
TEXT
  5
29FA
330
29F4
100
AcDbEntity
  8
図枠細線
  6
CONTINUOUS
 62
   252
100
AcDbText
 10
80.579549864267
 20
6.172924224584
 30
0.0
 40
3.5
  1
ＴＯＷＡ　ＳＥＩＤＥＮ　ＩＮＤＵＳＴＲＩＡＬ　ＣＯ．，ＬＴＤ．
 41
0.414568012377
  7
EXCADSTD
 72
     5
 11
133.202049568628
 21
6.172924224584
 31
0.0
100
AcDbText
  0
LINE
  5
29FB
330
29F4
100
AcDbEntity
  8
図枠太線
  6
CONTINUOUS
 62
   251
100
AcDbLine
 10
2.368253864267
 20
4.525433224584
 30
0.0
 11
2.368253864267
 21
34.525431224584
 31
0.0
  0
TEXT
  5
29FC
330
29F4
100
AcDbEntity
  8
図枠細線
  6
CONTINUOUS
 62
   252
100
AcDbText
 10
22.504308136501
 20
12.279133224584
 30
0.0
 40
2.0
  1
ＴＨＩＲＤ　ＡＮＧＬＥ
 41
0.691099486738
  7
EXCADSTD
 72
     5
 11
40.104308398762
 21
12.279133224584
 31
0.0
100
AcDbText
  0
TEXT
  5
29FD
330
29F4
100
AcDbEntity
  8
図枠細線
  6
CONTINUOUS
 62
   252
100
AcDbText
 10
22.429384136501
 20
9.357144224584
 30
0.0
 40
2.0
  1
ＰＲＯＪＥＣＴＩＯＮ
 41
0.754285710199
  7
EXCADSTD
 72
     5
 11
40.029384041134
 21
9.357144224584
 31
0.0
100
AcDbText
  0
LINE
  5
29FE
330
29F4
100
AcDbEntity
  8
図枠細線
  6
CONTINUOUS
100
AcDbLine
 10
22.368253864267
 20
19.525433224584
 30
0.0
 11
78.368253864267
 21
19.525431224584
 31
0.0
  0
TEXT
  5
29FF
330
29F4
100
AcDbEntity
  8
図枠細線
  6
CONTINUOUS
 62
   252
100
AcDbText
 10
22.868253864267
 20
17.025433224584
 30
0.0
 40
2.0
  1
第三角法
 41
1.102941176471
  7
EXCADSTD
 72
     5
 11
32.868253864267
 21
17.025433224584
 31
0.0
100
AcDbText
  0
TEXT
  5
2A00
330
29F4
100
AcDbEntity
  8
図枠細線
  6
CONTINUOUS
 62
   252
100
AcDbText
 10
22.868253864267
 20
29.525433224584
 30
0.0
 40
2.0
  1
ＡＰＰＲＯＶＥＤ
 41
0.695652184279
  7
EXCADSTD
 72
     5
 11
35.668254055002
 21
29.525433224584
 31
0.0
100
AcDbText
  0
LINE
  5
2A01
330
29F4
100
AcDbEntity
  8
図枠細線
  6
CONTINUOUS
 62
   252
100
AcDbLine
 10
2.368253864267
 20
9.525433224584
 30
0.0
 11
22.368253864267
 21
9.525433224584
 31
0.0
  0
LINE
  5
2A02
330
29F4
100
AcDbEntity
  8
図枠細線
  6
CONTINUOUS
 62
   252
100
AcDbLine
 10
2.368253864267
 20
14.525431224584
 30
0.0
 11
22.368253864267
 21
14.525431224584
 31
0.0
  0
LINE
  5
2A03
330
29F4
100
AcDbEntity
  8
図枠細線
  6
CONTINUOUS
 62
   252
100
AcDbLine
 10
2.368253864267
 20
24.525431224584
 30
0.0
 11
22.368253864267
 21
24.525431224584
 31
0.0
  0
LINE
  5
2A04
330
29F4
100
AcDbEntity
  8
図枠細線
  6
CONTINUOUS
 62
   252
100
AcDbLine
 10
2.368253864267
 20
29.525431224584
 30
0.0
 11
22.368253864267
 21
29.525431224584
 31
0.0
  0
LINE
  5
2A05
330
29F4
100
AcDbEntity
  8
図枠細線
  6
CONTINUOUS
100
AcDbLine
 10
2.368253864267
 20
19.525433224584
 30
0.0
 11
22.368253864267
 21
19.525433224584
 31
0.0
  0
TEXT
  5
2A06
330
29F4
100
AcDbEntity
  8
図枠細線
  6
CONTINUOUS
 62
   252
100
AcDbText
 10
2.868253864267
 20
32.025433224584
 30
0.0
 40
2.0
  1
ＮＯＴＥ
 41
0.923076923077
  7
EXCADSTD
 72
     5
 11
10.868253864267
 21
32.025433224584
 31
0.0
100
AcDbText
  0
LINE
  5
2A07
330
29F4
100
AcDbEntity
  8
図枠太線
  6
CONTINUOUS
 62
   251
100
AcDbLine
 10
22.368253864267
 20
4.525433224584
 30
0.0
 11
22.368253864267
 21
34.525431224584
 31
0.0
  0
TEXT
  5
2A08
330
29F4
100
AcDbEntity
  8
図枠細線
  6
CONTINUOUS
 62
   252
100
AcDbText
 10
22.868253864267
 20
32.025433224584
 30
0.0
 40
2.0
  1
承認
 41
1.171875
  7
EXCADSTD
 72
     5
 11
27.868253864267
 21
32.025433224584
 31
0.0
100
AcDbText
  0
TEXT
  5
2A09
330
29F4
100
AcDbEntity
  8
図枠細線
  6
CONTINUOUS
 62
   252
100
AcDbText
 10
60.711709035982
 20
32.025433224584
 30
0.0
 40
2.0
  1
製図
 41
1.209677419355
  7
EXCADSTD
 72
     5
 11
65.711709035982
 21
32.025433224584
 31
0.0
100
AcDbText
  0
TEXT
  5
2A0A
330
29F4
100
AcDbEntity
  8
図枠細線
  6
CONTINUOUS
 62
   252
100
AcDbText
 10
60.711709035982
 20
29.525433224584
 30
0.0
 40
2.0
  1
ＤＲＡＷＮ
 41
0.882352941176
  7
EXCADSTD
 72
     5
 11
70.711709035982
 21
29.525433224584
 31
0.0
100
AcDbText
  0
TEXT
  5
2A0B
330
29F4
100
AcDbEntity
  8
図枠細線
  6
CONTINUOUS
 62
   252
100
AcDbText
 10
60.834891743877
 20
17.025433224584
 30
0.0
 40
2.0
  1
日付
 41
1.171875
  7
EXCADSTD
 72
     5
 11
65.834891743877
 21
17.025433224584
 31
0.0
100
AcDbText
  0
TEXT
  5
2A0C
330
29F4
100
AcDbEntity
  8
図枠細線
  6
CONTINUOUS
 62
   252
100
AcDbText
 10
47.333660864267
 20
17.025433224584
 30
0.0
 40
2.0
  1
ＳＣＡＬＥ
 41
0.903614457831
  7
EXCADSTD
 72
     5
 11
57.333660864267
 21
17.025433224584
 31
0.0
100
AcDbText
  0
TEXT
  5
2A0D
330
29F4
100
AcDbEntity
  8
図枠細線
  6
CONTINUOUS
 62
   252
100
AcDbText
 10
42.281425990082
 20
29.525433224584
 30
0.0
 40
2.0
  1
ＣＨＥＣＫＥＤ
 41
0.831249989569
  7
EXCADSTD
 72
     5
 11
55.581425823189
 21
29.525433224584
 31
0.0
100
AcDbText
  0
LINE
  5
2A0E
330
29F4
100
AcDbEntity
  8
図枠細線
  6
CONTINUOUS
 62
   252
100
AcDbLine
 10
40.968253864267
 20
34.525431224584
 30
0.0
 11
40.968253864267
 21
19.525431224584
 31
0.0
  0
LINE
  5
2A0F
330
29F4
100
AcDbEntity
  8
図枠細線
  6
CONTINUOUS
 62
   252
100
AcDbLine
 10
40.968253864267
 20
4.525433224584
 30
0.0
 11
40.968253864267
 21
19.525431224584
 31
0.0
  0
TEXT
  5
2A10
330
29F4
100
AcDbEntity
  8
図枠細線
  6
CONTINUOUS
 62
   252
100
AcDbText
 10
41.961173864267
 20
17.025433224584
 30
0.0
 40
2.0
  1
尺度
 41
1.171875
  7
EXCADSTD
 72
     5
 11
46.961173864267
 21
17.025433224584
 31
0.0
100
AcDbText
  0
TEXT
  5
2A11
330
29F4
100
AcDbEntity
  8
図枠細線
  6
CONTINUOUS
 62
   252
100
AcDbText
 10
42.281425990082
 20
32.025433224584
 30
0.0
 40
2.0
  1
検図
 41
1.209677419355
  7
EXCADSTD
 72
     5
 11
47.281425990082
 21
32.025433224584
 31
0.0
100
AcDbText
  0
LINE
  5
2A12
330
29F4
100
AcDbEntity
  8
図枠細線
  6
CONTINUOUS
 62
   252
100
AcDbLine
 10
59.768253864267
 20
34.525431224584
 30
0.0
 11
59.768253864267
 21
19.525431224584
 31
0.0
  0
LINE
  5
2A13
330
29F4
100
AcDbEntity
  8
図枠細線
  6
CONTINUOUS
 62
   252
100
AcDbLine
 10
59.768253864267
 20
4.525433224584
 30
0.0
 11
59.768253864267
 21
19.525431224584
 31
0.0
  0
LINE
  5
2A14
330
29F4
100
AcDbEntity
  8
図枠太線
  6
CONTINUOUS
 62
   251
100
AcDbLine
 10
78.368253864267
 20
4.525433224584
 30
0.0
 11
78.368253864267
 21
34.525431224584
 31
0.0
  0
TEXT
  5
2A15
330
29F4
100
AcDbEntity
  8
図枠細線
  6
CONTINUOUS
 62
   252
100
AcDbText
 10
66.334891743877
 20
17.025433224584
 30
0.0
 40
2.0
  1
ＤＡＴＥ
 41
0.923076923077
  7
EXCADSTD
 72
     5
 11
74.334891743877
 21
17.025433224584
 31
0.0
100
AcDbText
  0
LINE
  5
2A16
330
29F4
100
AcDbEntity
  8
図枠細線
  6
CONTINUOUS
 62
   252
100
AcDbLine
 10
135.368253864267
 20
19.525431224584
 30
0.0
 11
192.368245864267
 21
19.525431224584
 31
0.0
  0
TEXT
  5
2A17
330
29F4
100
AcDbEntity
  8
図枠細線
  6
CONTINUOUS
 62
   252
100
AcDbText
 10
141.868253864267
 20
32.025433224584
 30
0.0
 40
2.0
  1
ＴＩＴＬＥ
 41
0.903614457831
  7
EXCADSTD
 72
     5
 11
151.868253864267
 21
32.025433224584
 31
0.0
100
AcDbText
  0
LINE
  5
2A18
330
29F4
100
AcDbEntity
  8
図枠太線
  6
CONTINUOUS
 62
   251
100
AcDbLine
 10
135.368253864267
 20
4.525433224584
 30
0.0
 11
135.368253864267
 21
34.525431224584
 31
0.0
  0
TEXT
  5
2A19
330
29F4
100
AcDbEntity
  8
図枠細線
  6
CONTINUOUS
 62
   252
100
AcDbText
 10
135.868253864267
 20
17.025433224584
 30
0.0
 40
2.0
  1
図面番号
 41
1.102941176471
  7
EXCADSTD
 72
     5
 11
145.868253864267
 21
17.025433224584
 31
0.0
100
AcDbText
  0
TEXT
  5
2A1A
330
29F4
100
AcDbEntity
  8
図枠細線
  6
CONTINUOUS
 62
   252
100
AcDbText
 10
135.868253864267
 20
32.025433224584
 30
0.0
 40
2.0
  1
名称
 41
1.171875
  7
EXCADSTD
 72
     5
 11
140.868253864267
 21
32.025433224584
 31
0.0
100
AcDbText
  0
TEXT
  5
2A1B
330
29F4
100
AcDbEntity
  8
図枠細線
  6
CONTINUOUS
 62
   252
100
AcDbText
 10
146.868253864267
 20
17.025433224584
 30
0.0
 40
2.0
  1
ＤＲＧ．ＮＯ．
 41
0.9375
  7
EXCADSTD
 72
     5
 11
160.868253864267
 21
17.025433224584
 31
0.0
100
AcDbText
  0
LINE
  5
2A1C
330
29F4
100
AcDbEntity
  8
図枠太線
  6
CONTINUOUS
 62
   251
100
AcDbLine
 10
192.368245864267
 20
4.525433224584
 30
0.0
 11
192.368245864267
 21
34.525431224584
 31
0.0
  0
ENDBLK
  5
2A1D
330
29F4
100
AcDbEntity
  8
0
100
AcDbBlockEnd
  0
BLOCK
  5
2A33
330
2A32
100
AcDbEntity
  8
0
100
AcDbBlockBegin
  2
A3横用_タイトル
 70
     0
 10
0.0
 20
0.0
 30
0.0
  3
A3横用_タイトル
  1
A3横用_タイトル
  0
LINE
  5
2A34
330
2A32
100
AcDbEntity
  8
図枠細線
  6
CONTINUOUS
 62
   252
100
AcDbLine
 10
205.098414535793
 20
33.525959753527
 30
0.0
 11
305.098414535793
 21
33.525959753527
 31
0.0
  0
LINE
  5
2A35
330
2A32
100
AcDbEntity
  8
図枠太線
  6
CONTINUOUS
 62
   251
100
AcDbLine
 10
205.098414535793
 20
23.525959753527
 30
0.0
 11
305.098414535793
 21
23.525959753527
 31
0.0
  0
LINE
  5
2A36
330
2A32
100
AcDbEntity
  8
図枠細線
  6
CONTINUOUS
100
AcDbLine
 10
5.098414535793
 20
23.525959753527
 30
0.0
 11
105.098414535793
 21
23.525959753527
 31
0.0
  0
LINE
  5
2A37
330
2A32
100
AcDbEntity
  8
図枠細線
  6
CONTINUOUS
 62
   252
100
AcDbLine
 10
5.098414535793
 20
36.725957753527
 30
0.0
 11
105.098414535793
 21
36.725957753527
 31
0.0
  0
LINE
  5
2A38
330
2A32
100
AcDbEntity
  8
図枠細線
  6
CONTINUOUS
 62
   252
100
AcDbLine
 10
5.098414535793
 20
30.125957753527
 30
0.0
 11
105.098414535793
 21
30.125957753527
 31
0.0
  0
LINE
  5
2A39
330
2A32
100
AcDbEntity
  8
図枠細線
  6
CONTINUOUS
 62
   252
100
AcDbLine
 10
5.098414535793
 20
16.725959753527
 30
0.0
 11
105.098414535793
 21
16.725959753527
 31
0.0
  0
LINE
  5
2A3A
330
2A32
100
AcDbEntity
  8
図枠細線
  6
CONTINUOUS
 62
   252
100
AcDbLine
 10
5.098414535793
 20
10.125959753527
 30
0.0
 11
105.098414535793
 21
10.125959753527
 31
0.0
  0
LINE
  5
2A3B
330
2A32
100
AcDbEntity
  8
図枠細線
  6
CONTINUOUS
100
AcDbLine
 10
105.098414535793
 20
23.525961753527
 30
0.0
 11
205.098414535793
 21
23.525959753527
 31
0.0
  0
LINE
  5
2A3C
330
2A32
100
AcDbEntity
  8
図枠細線
  6
CONTINUOUS
 62
   252
100
AcDbLine
 10
138.398414535793
 20
43.525959753527
 30
0.0
 11
138.398414535793
 21
18.525957753527
 31
0.0
  0
LINE
  5
2A3D
330
2A32
100
AcDbEntity
  8
図枠細線
  6
CONTINUOUS
 62
   252
100
AcDbLine
 10
171.698414535793
 20
43.525959753527
 30
0.0
 11
171.698414535793
 21
18.525957753527
 31
0.0
  0
LINE
  5
2A3E
330
2A32
100
AcDbEntity
  8
図枠細線
  6
CONTINUOUS
 62
   252
100
AcDbLine
 10
305.098414535793
 20
23.525959753527
 30
0.0
 11
405.098414535793
 21
23.525959753527
 31
0.0
  0
TEXT
  5
2A3F
330
2A32
100
AcDbEntity
  8
図枠ロゴマーク
  6
CONTINUOUS
 62
   253
100
AcDbText
 10
206.102509212755
 20
13.294257570546
 30
0.0
 40
7.0
  1
東和制電工業株式会社
 50
0.016555220185
 41
1.186384129432
  7
EXCADSTD
 72
     5
 11
303.544188309143
 21
13.322412672217
 31
0.0
100
AcDbText
  0
MTEXT
  5
2A40
330
2A32
100
AcDbEntity
  8
図枠細線
100
AcDbMText
 10
6.356764112375
 20
41.976594175478
 30
0.0
 40
2.5
 41
49.938282706292
 71
     1
 72
     5
  1
{\Fmonotxt.shx,bigfont.shx|c128;図暦　CHANGE　NOTICE}
  0
MTEXT
  5
2A41
330
2A32
100
AcDbEntity
  8
図枠細線
 48
10.0
100
AcDbMText
 10
306.544114926828
 20
41.701835800934
 30
0.0
 40
2.5
 41
28.002809618823
 71
     1
 72
     5
  1
{\Fmonotxt.shx,bigfont.shx|c128;名称　TITLE}
  0
MTEXT
  5
2A42
330
2A32
100
AcDbEntity
  8
図枠細線
 48
10.0
100
AcDbMText
 10
307.329617114284
 20
21.606206797226
 30
0.0
 40
2.5
 41
24.385612216707
 71
     1
 72
     5
  1
{\Fmonotxt.shx,bigfont.shx|c128;図面番号\PDRG.　No.}
  0
MTEXT
  5
2A43
330
2A32
100
AcDbEntity
  8
図枠細線
 48
10.0
100
AcDbMText
 10
173.726349404609
 20
21.73680662198
 30
0.0
 40
2.5
 41
25.735090160813
 71
     1
 72
     5
  1
{\Fmonotxt.shx,bigfont.shx|c128;日付 DATE}
  0
MTEXT
  5
2A44
330
2A32
100
AcDbEntity
  8
図枠細線
 48
10.0
100
AcDbMText
 10
173.48708833982
 20
41.621592044998
 30
0.0
 40
2.5
 41
24.983741184205
 71
     1
 72
     5
  1
{\Fmonotxt.shx,bigfont.shx|c128;製図　DRAWN}
  0
MTEXT
  5
2A45
330
2A32
100
AcDbEntity
  8
図枠細線
 48
10.0
100
AcDbMText
 10
139.28009927741
 20
21.866713069868
 30
0.0
 40
2.5
 41
22.629632913243
 71
     1
 72
     5
  1
{\Fmonotxt.shx,bigfont.shx|c128;尺度　SCALE}
  0
MTEXT
  5
2A46
330
2A32
100
AcDbEntity
  8
図枠細線
 48
10.0
100
AcDbMText
 10
139.910091179835
 20
41.311840415554
 30
0.0
 40
2.5
 41
28.998753428368
 71
     1
 72
     5
  1
{\Fmonotxt.shx,bigfont.shx|c128;検図  CHECKED}
  0
MTEXT
  5
2A47
330
2A32
100
AcDbEntity
  8
図枠細線
 48
10.0
100
AcDbMText
 10
114.253294667728
 20
21.916124850174
 30
0.0
 40
3.0
 41
19.692400475383
 71
     1
 72
     5
  1
{\Fmonotxt.shx,bigfont.shx|c128;第三角法}
  0
MTEXT
  5
2A48
330
2A32
100
AcDbEntity
  8
図枠細線
 48
10.0
100
AcDbMText
 10
108.986959929915
 20
15.282880185837
 30
0.0
 40
2.5
 41
27.954882823547
 71
     1
 72
     5
  1
{\Fmonotxt.shx,bigfont.shx|c128;THIRD ANGLE\PPROJECTION}
  0
MTEXT
  5
2A49
330
2A32
100
AcDbEntity
  8
図枠細線
 48
10.0
100
AcDbMText
 10
106.319432640184
 20
41.511437145487
 30
0.0
 40
2.5
 41
28.233595265074
 71
     1
 72
     5
  1
{\Fmonotxt.shx,bigfont.shx|c128;承認 APPROVED}
  0
LINE
  5
2A4A
330
2A32
100
AcDbEntity
  8
図枠太線
  6
CONTINUOUS
 62
   251
100
AcDbLine
 10
5.098414535793
 20
3.525959753527
 30
0.0
 11
405.098414535793
 21
3.525959753527
 31
0.0
  0
LINE
  5
2A4B
330
2A32
100
AcDbEntity
  8
図枠太線
 48
10.0
100
AcDbLine
 10
5.098414535793
 20
3.525959753527
 30
0.0
 11
5.098414535793
 21
43.525959753527
 31
0.0
  0
LINE
  5
2A4C
330
2A32
100
AcDbEntity
  8
図枠太線
  6
CONTINUOUS
 62
   251
100
AcDbLine
 10
105.098414535793
 20
3.525959753527
 30
0.0
 11
105.098414535793
 21
43.525959753527
 31
0.0
  0
LINE
  5
2A4D
330
2A32
100
AcDbEntity
  8
図枠細線
  6
CONTINUOUS
 62
   252
100
AcDbLine
 10
138.398414535793
 20
3.525959753527
 30
0.0
 11
138.398414535793
 21
18.525957753527
 31
0.0
  0
LINE
  5
2A4E
330
2A32
100
AcDbEntity
  8
図枠細線
  6
CONTINUOUS
 62
   252
100
AcDbLine
 10
171.698414535793
 20
3.525959753527
 30
0.0
 11
171.698414535793
 21
18.525957753527
 31
0.0
  0
LINE
  5
2A4F
330
2A32
100
AcDbEntity
  8
図枠太線
  6
CONTINUOUS
 62
   251
100
AcDbLine
 10
205.098414535793
 20
3.525959753527
 30
0.0
 11
205.098414535793
 21
43.525959753527
 31
0.0
  0
LINE
  5
2A50
330
2A32
100
AcDbEntity
  8
図枠太線
 48
10.0
100
AcDbLine
 10
405.098414535793
 20
43.525959753527
 30
0.0
 11
405.098414535793
 21
3.525959753527
 31
0.0
  0
TEXT
  5
2A51
330
2A32
100
AcDbEntity
  8
図枠細線
  6
CONTINUOUS
 62
   252
100
AcDbText
 10
208.519754474572
 20
6.482358407285
 30
0.0
 40
3.5
  1
ＴＯＷＡ　ＳＥＩＤＥＮ　ＩＮＤＵＳＴＲＩＡＬ　ＣＯ．，ＬＴＤ．
 41
0.746656297509
  7
EXCADSTD
 72
     5
 11
303.295327171727
 21
6.482358407285
 31
0.0
100
AcDbText
  0
LINE
  5
2A52
330
2A32
100
AcDbEntity
  8
図枠太線
  6
CONTINUOUS
 62
   251
100
AcDbLine
 10
305.098414535793
 20
3.525959753527
 30
0.0
 11
305.098414535793
 21
43.525959753527
 31
0.0
  0
ENDBLK
  5
2A53
330
2A32
100
AcDbEntity
  8
0
100
AcDbBlockEnd
  0
BLOCK
  5
2A6D
330
2A6C
100
AcDbEntity
  8
0
100
AcDbBlockBegin
  2
A3縦用_タイトル
 70
     0
 10
0.0
 20
0.0
 30
0.0
  3
A3縦用_タイトル
  1
A3縦用_タイトル
  0
MTEXT
  5
2A6E
330
2A6C
100
AcDbEntity
  8
図枠細線
100
AcDbMText
 10
5.040804501593
 20
31.626098649005
 30
0.0
 40
2.5
 41
49.938282706292
 71
     1
 72
     5
  1
{\Fmonotxt.shx,bigfont.shx|c128;図暦　CHANGE　NOTICE}
  0
LINE
  5
2A6F
330
2A6C
100
AcDbEntity
  8
図枠太線
  6
CONTINUOUS
 62
   251
100
AcDbLine
 10
283.577871882961
 20
2.820844689254
 30
0.0
 11
283.577871882961
 21
32.820842689254
 31
0.0
  0
MTEXT
  5
2A70
330
2A6C
100
AcDbEntity
  8
図枠細線
 48
10.0
100
AcDbMText
 10
214.912458947454
 20
31.621488632308
 30
0.0
 40
2.5
 41
28.002809618823
 71
     1
 72
     5
  1
{\Fmonotxt.shx,bigfont.shx|c128;名称　TITLE}
  0
MTEXT
  5
2A71
330
2A6C
100
AcDbEntity
  8
図枠細線
 48
10.0
100
AcDbMText
 10
214.740030458938
 20
16.310225796722
 30
0.0
 40
2.5
 41
24.385612216707
 71
     1
 72
     5
  1
{\Fmonotxt.shx,bigfont.shx|c128;図面番号\PDRG.　No.}
  0
LINE
  5
2A72
330
2A6C
100
AcDbEntity
  8
図枠太線
  6
CONTINUOUS
 62
   251
100
AcDbLine
 10
213.577871882961
 20
2.820844689254
 30
0.0
 11
213.577871882961
 21
32.820842689254
 31
0.0
  0
LINE
  5
2A73
330
2A6C
100
AcDbEntity
  8
図枠太線
  6
CONTINUOUS
 62
   251
100
AcDbLine
 10
143.577871882961
 20
2.820844689254
 30
0.0
 11
143.577871882961
 21
32.820842689254
 31
0.0
  0
TEXT
  5
2A74
330
2A6C
100
AcDbEntity
  8
図枠細線
  6
CONTINUOUS
 62
   252
100
AcDbText
 10
145.716454488093
 20
4.468335689254
 30
0.0
 40
3.5
  1
ＴＯＷＡ　ＳＥＩＤＥＮ　ＩＮＤＵＳＴＲＩＡＬ　ＣＯ．，ＬＴＤ．
 41
0.528937826907
  7
EXCADSTD
 72
     5
 11
212.856295983498
 21
4.468335689254
 31
0.0
100
AcDbText
  0
TEXT
  5
2A75
330
2A6C
100
AcDbEntity
  8
図枠ロゴマーク
  6
CONTINUOUS
 62
   253
100
AcDbText
 10
145.950637593507
 20
9.413236689254
 30
0.0
 40
7.0
  1
東和制電工業株式会社
 41
0.80361088462
  7
EXCADSTD
 72
     5
 11
211.953878250259
 21
9.413236689254
 31
0.0
100
AcDbText
  0
LINE
  5
2A76
330
2A6C
100
AcDbEntity
  8
図枠細線
  6
CONTINUOUS
 62
   252
100
AcDbLine
 10
143.577871882961
 20
25.320842689254
 30
0.0
 11
213.577871882961
 21
25.320842689254
 31
0.0
  0
LINE
  5
2A77
330
2A6C
100
AcDbEntity
  8
図枠太線
  6
CONTINUOUS
 62
   251
100
AcDbLine
 10
143.577863882961
 20
17.820842689254
 30
0.0
 11
213.577871882961
 21
17.820842689254
 31
0.0
  0
LINE
  5
2A78
330
2A6C
100
AcDbEntity
  8
図枠細線
  6
CONTINUOUS
 62
   252
100
AcDbLine
 10
213.577871882961
 20
17.820842689254
 30
0.0
 11
283.577871882961
 21
17.820842689254
 31
0.0
  0
LINE
  5
2A79
330
2A6C
100
AcDbEntity
  8
図枠細線
  6
CONTINUOUS
 62
   252
100
AcDbLine
 10
120.577871882961
 20
32.820842689254
 30
0.0
 11
120.577871882961
 21
17.820842689254
 31
0.0
  0
MTEXT
  5
2A7A
330
2A6C
100
AcDbEntity
  8
図枠細線
 48
10.0
100
AcDbMText
 10
121.100885670352
 20
16.33785922638
 30
0.0
 40
2.0
 41
17.705978285068
 71
     1
 72
     5
  1
{\Fmonotxt.shx,bigfont.shx|c128;日付 DATE}
  0
MTEXT
  5
2A7B
330
2A6C
100
AcDbEntity
  8
図枠細線
 48
10.0
100
AcDbMText
 10
121.254842273491
 20
31.208993514037
 30
0.0
 40
2.0
 41
18.363799568758
 71
     1
 72
     5
  1
{\Fmonotxt.shx,bigfont.shx|c128;製図　DRAWN}
  0
LINE
  5
2A7C
330
2A6C
100
AcDbEntity
  8
図枠細線
  6
CONTINUOUS
 62
   252
100
AcDbLine
 10
97.577871882961
 20
32.820842689254
 30
0.0
 11
97.577871882961
 21
17.820842689254
 31
0.0
  0
MTEXT
  5
2A7D
330
2A6C
100
AcDbEntity
  8
図枠細線
 48
10.0
100
AcDbMText
 10
98.239734796872
 20
16.467764839281
 30
0.0
 40
2.0
 41
17.757791689903
 71
     1
 72
     5
  1
{\Fmonotxt.shx,bigfont.shx|c128;尺度　SCALE}
  0
MTEXT
  5
2A7E
330
2A6C
100
AcDbEntity
  8
図枠細線
 48
10.0
100
AcDbMText
 10
97.864744625154
 20
31.298433377664
 30
0.0
 40
2.0
 41
23.162655920976
 71
     1
 72
     5
  1
{\Fmonotxt.shx,bigfont.shx|c128;検図  CHECKED}
  0
LINE
  5
2A7F
330
2A6C
100
AcDbEntity
  8
図枠細線
  6
CONTINUOUS
 62
   252
100
AcDbLine
 10
97.577871882961
 20
2.820843367826
 30
0.0
 11
97.577871882961
 21
17.820841367826
 31
0.0
  0
LINE
  5
2A80
330
2A6C
100
AcDbEntity
  8
図枠細線
  6
CONTINUOUS
 62
   252
100
AcDbLine
 10
120.577871882961
 20
2.820844010683
 30
0.0
 11
120.577871882961
 21
17.820842010683
 31
0.0
  0
MTEXT
  5
2A81
330
2A6C
100
AcDbEntity
  8
図枠細線
 48
10.0
100
AcDbMText
 10
81.402399084102
 20
16.316484117426
 30
0.0
 40
2.0
 41
12.920322819369
 71
     1
 72
     5
  1
{\Fmonotxt.shx,bigfont.shx|c128;第三角法}
  0
MTEXT
  5
2A82
330
2A6C
100
AcDbEntity
  8
図枠細線
 48
10.0
100
AcDbMText
 10
75.736576535096
 20
11.080410931319
 30
0.0
 40
2.0
 41
21.072870671471
 71
     1
 72
     5
  1
{\Fmonotxt.shx,bigfont.shx|c128;THIRD ANGLE\PPROJECTION}
  0
LINE
  5
2A83
330
2A6C
100
AcDbEntity
  8
図枠太線
  6
CONTINUOUS
 62
   251
100
AcDbLine
 10
74.577871882961
 20
2.820844689254
 30
0.0
 11
74.577871882961
 21
32.820842689254
 31
0.0
  0
MTEXT
  5
2A84
330
2A6C
100
AcDbEntity
  8
図枠細線
 48
10.0
100
AcDbMText
 10
75.060214781573
 20
31.298434778555
 30
0.0
 40
2.0
 41
22.240928805967
 71
     1
 72
     5
  1
{\Fmonotxt.shx,bigfont.shx|c128;承認 APPROVED}
  0
LINE
  5
2A85
330
2A6C
100
AcDbEntity
  8
図枠細線
  6
CONTINUOUS
100
AcDbLine
 10
3.577871882961
 20
17.820844689254
 30
0.0
 11
74.577871882961
 21
17.820844689254
 31
0.0
  0
LINE
  5
2A86
330
2A6C
100
AcDbEntity
  8
図枠細線
  6
CONTINUOUS
 62
   252
100
AcDbLine
 10
3.577871882961
 20
27.820842689254
 30
0.0
 11
74.577871882961
 21
27.820842689254
 31
0.0
  0
LINE
  5
2A87
330
2A6C
100
AcDbEntity
  8
図枠細線
  6
CONTINUOUS
 62
   252
100
AcDbLine
 10
3.577871882961
 20
22.820842689254
 30
0.0
 11
74.577871882961
 21
22.820842689254
 31
0.0
  0
LINE
  5
2A88
330
2A6C
100
AcDbEntity
  8
図枠細線
  6
CONTINUOUS
 62
   252
100
AcDbLine
 10
3.577871882961
 20
12.820842689254
 30
0.0
 11
74.577871882961
 21
12.820842689254
 31
0.0
  0
LINE
  5
2A89
330
2A6C
100
AcDbEntity
  8
図枠細線
  6
CONTINUOUS
 62
   252
100
AcDbLine
 10
3.577871882961
 20
7.820844689254
 30
0.0
 11
74.577871882961
 21
7.820844689254
 31
0.0
  0
LINE
  5
2A8A
330
2A6C
100
AcDbEntity
  8
図枠細線
  6
CONTINUOUS
100
AcDbLine
 10
74.577871882961
 20
17.820843689254
 30
0.0
 11
143.577871882961
 21
17.820841224969
 31
0.0
  0
LINE
  5
2A8B
330
2A6C
100
AcDbEntity
  8
図枠太線
  6
CONTINUOUS
 62
   251
100
AcDbLine
 10
3.577871882961
 20
2.820844689254
 30
0.0
 11
283.577871882961
 21
2.820844689254
 31
0.0
  0
LINE
  5
2A8C
330
2A6C
100
AcDbEntity
  8
図枠太線
  6
CONTINUOUS
 62
   251
100
AcDbLine
 10
3.577871882961
 20
2.820844689254
 30
0.0
 11
3.577871882961
 21
32.820842689254
 31
0.0
  0
ENDBLK
  5
2A8D
330
2A6C
100
AcDbEntity
  8
0
100
AcDbBlockEnd
  0
BLOCK
  5
2AF8
330
2AF4
100
AcDbEntity
  8
0
 48
10.0
100
AcDbBlockBegin
  2
_OPEN30
 70
     0
 10
0.0
 20
0.0
 30
0.0
  3
_OPEN30
  1
_OPEN30
  0
LINE
  5
2AF5
330
2AF4
100
AcDbEntity
  8
0
  6
BYBLOCK
 62
     0
100
AcDbLine
 10
-1.0
 20
0.26794919
 30
0.0
 11
0.0
 21
0.0
 31
0.0
  0
LINE
  5
2AF6
330
2AF4
100
AcDbEntity
  8
0
  6
BYBLOCK
 62
     0
100
AcDbLine
 10
0.0
 20
0.0
 30
0.0
 11
-1.0
 21
-0.26794919
 31
0.0
  0
LINE
  5
2AF7
330
2AF4
100
AcDbEntity
  8
0
  6
BYBLOCK
 62
     0
100
AcDbLine
 10
0.0
 20
0.0
 30
0.0
 11
-1.0
 21
0.0
 31
0.0
  0
ENDBLK
  5
2AF9
330
2AF4
100
AcDbEntity
  8
0
 48
10.0
100
AcDbBlockEnd
  0
BLOCK
  5
2F40
330
2F3F
100
AcDbEntity
  8
0
 48
10.0
100
AcDbBlockBegin
  2
ケース外形図_HL-400
 70
     0
 10
0.0
 20
0.0
 30
0.0
  3
ケース外形図_HL-400
  1
ケース外形図_HL-400
  0
LINE
  5
2F41
330
2F3F
100
AcDbEntity
  8
外形線
100
AcDbLine
 10
-3016.68737612191
 20
-628.620502022639
 30
0.0
 11
-3004.68737612191
 21
-628.620502022639
 31
0.0
  0
LINE
  5
2F42
330
2F3F
100
AcDbEntity
  8
外形線
100
AcDbLine
 10
-3004.68737612191
 20
-556.620502022639
 30
0.0
 11
-3019.68737612191
 21
-556.620502022639
 31
0.0
  0
LINE
  5
2F43
330
2F3F
100
AcDbEntity
  8
中心線
 48
10.0
100
AcDbLine
 10
-3031.837385121911
 20
-613.830661022639
 30
0.0
 11
-3031.837385121911
 21
-669.264280022639
 31
0.0
  0
LINE
  5
2F44
330
2F3F
100
AcDbEntity
  8
外形線
100
AcDbLine
 10
-3036.074903121911
 20
-666.232883395172
 30
0.0
 11
-3036.074903121911
 21
-653.049280022639
 31
0.0
  0
LINE
  5
2F45
330
2F3F
100
AcDbEntity
  8
外形線
100
AcDbLine
 10
-3027.67493912191
 20
-666.232883395172
 30
0.0
 11
-3027.67493912191
 21
-653.049280022639
 31
0.0
  0
ARC
  5
2F46
330
2F3F
100
AcDbEntity
  8
細線
100
AcDbCircle
 10
-3033.974910933263
 20
-662.595590228936
 30
0.0
 40
4.199982
100
AcDbArc
 50
239.999981276042
 51
299.999981276021
  0
ARC
  5
2F47
330
2F3F
100
AcDbEntity
  8
細線
100
AcDbCircle
 10
-3029.774928933263
 20
-662.595591601467
 30
0.0
 40
4.199982
100
AcDbArc
 50
239.999981276042
 51
299.999981276021
  0
ARC
  5
2F48
330
2F3F
100
AcDbEntity
  8
細線
100
AcDbCircle
 10
-3029.774931310559
 20
-669.870173816342
 30
0.0
 40
4.199982
100
AcDbArc
 50
59.999981276042
 51
119.999981276021
  0
LINE
  5
2F49
330
2F3F
100
AcDbEntity
  8
外形線
100
AcDbLine
 10
-3015.18737612191
 20
-556.620502022639
 30
0.0
 11
-3015.18737612191
 21
-628.620502022639
 31
0.0
  0
LINE
  5
2F4A
330
2F3F
100
AcDbEntity
  8
外形線
100
AcDbLine
 10
-3016.68737612191
 20
-629.295475022639
 30
0.0
 11
-3016.68737612191
 21
-556.620502022639
 31
0.0
  0
LINE
  5
2F4B
330
2F3F
100
AcDbEntity
  8
外形線
100
AcDbLine
 10
-3019.68737612191
 20
-556.620502022639
 30
0.0
 11
-3019.68737612191
 21
-618.495502022639
 31
0.0
  0
LINE
  5
2F4C
330
2F3F
100
AcDbEntity
  8
外形線
100
AcDbLine
 10
-3046.687376121911
 20
-623.745502022639
 30
0.0
 11
-3046.687376121911
 21
-562.245502022639
 31
0.0
  0
LINE
  5
2F4D
330
2F3F
100
AcDbEntity
  8
外形線
100
AcDbLine
 10
-3038.779444758647
 20
-628.97627357689
 30
0.0
 11
-3045.721504395382
 21
-634.988273576889
 31
0.0
  0
LINE
  5
2F4E
330
2F3F
100
AcDbEntity
  8
外形線
100
AcDbLine
 10
-3024.895325485175
 20
-628.97627357689
 30
0.0
 11
-3017.953265848439
 21
-634.988273576889
 31
0.0
  0
LINE
  5
2F4F
330
2F3F
100
AcDbEntity
  8
外形線
100
AcDbLine
 10
-3024.895325485175
 20
-637.653848122809
 30
0.0
 11
-3024.895325485175
 21
-628.97627357689
 31
0.0
  0
LINE
  5
2F50
330
2F3F
100
AcDbEntity
  8
外形線
100
AcDbLine
 10
-3038.779444758647
 20
-637.653848122809
 30
0.0
 11
-3038.779444758647
 21
-628.97627357689
 31
0.0
  0
LWPOLYLINE
  5
2F51
330
2F3F
100
AcDbEntity
  8
外形線
100
AcDbPolyline
 90
       47
 70
     0
 43
0.0
 10
-3027.674940621911
 20
-654.14058768542
 10
-3027.215686831012
 20
-654.025717241066
 10
-3026.807069333743
 20
-653.89949762322
 10
-3026.45356502891
 20
-653.763311720429
 10
-3026.159046983652
 20
-653.618651613941
 10
-3025.926741999306
 20
-653.467102230155
 10
-3025.759195257892
 20
-653.310323975836
 10
-3025.658242436573
 20
-653.150034546342
 10
-3025.624989595581
 20
-652.98799010621
 10
-3025.659801060005
 20
-652.825966048232
 10
-3025.762295428152
 20
-652.665737541894
 10
-3025.931349750279
 20
-652.509060084243
 10
-3026.165111831855
 20
-652.357650266292
 10
-3026.461020526596
 20
-652.213166965689
 10
-3026.815833796919
 20
-652.077193171712
 10
-3027.225664234388
 20
-651.951218641701
 10
-3027.686021650964
 20
-651.836623578969
 10
-3028.191862274455
 20
-651.734663511005
 10
-3028.737644009139
 20
-651.646455533648
 10
-3029.317387156118
 20
-651.572966071958
 10
-3029.924739928152
 20
-651.515000291856
 10
-3030.553048041176
 20
-651.473193278559
 10
-3031.195427620021
 20
-651.448003078454
 10
-3031.844840619596
 20
-651.439705680642
 10
-3032.494171935177
 20
-651.448391993153
 10
-3033.136307356992
 20
-651.473966846927
 10
-3033.764211514982
 20
-651.516150038516
 10
-3034.371004959794
 20
-651.574479400044
 10
-3034.950039535468
 20
-651.648315862822
 10
-3035.494971218024
 20
-651.73685045911
 10
-3035.999829621911
 20
-651.839113185344
 10
-3036.459083412808
 20
-651.953983629698
 10
-3036.867700910077
 20
-652.080203247544
 10
-3037.221205214912
 20
-652.216389150335
 10
-3037.515723260169
 20
-652.361049256823
 10
-3037.748028244515
 20
-652.512598640609
 10
-3037.915574985928
 20
-652.669376894928
 10
-3038.016527807249
 20
-652.829666324421
 10
-3038.04978064824
 20
-652.991710764555
 10
-3038.014969183816
 20
-653.153734822532
 10
-3037.912474815669
 20
-653.313963328869
 10
-3037.743420493542
 20
-653.470640786521
 10
-3037.509658411966
 20
-653.622050604471
 10
-3037.213749717225
 20
-653.766533905074
 10
-3036.858936446901
 20
-653.902507699052
 10
-3036.449106009434
 20
-654.028482229064
 10
-3036.07490312191
 20
-654.123399110931
  0
ARC
  5
2F52
330
2F3F
100
AcDbEntity
  8
外形線
100
AcDbCircle
 10
-3031.837385121911
 20
-620.803069368681
 30
0.0
 40
34.15159996140045
100
AcDbArc
 50
255.26831657715
 51
262.87239111701
  0
LWPOLYLINE
  5
2F53
330
2F3F
100
AcDbEntity
  8
外形線
100
AcDbPolyline
 90
       34
 70
     0
 43
0.0
 10
-3020.164085121911
 20
-645.574914522911
 10
-3020.217826679511
 20
-645.015496411464
 10
-3020.378556521371
 20
-644.461229200047
 10
-3020.644794710875
 20
-643.917216361246
 10
-3021.014089832395
 20
-643.388466949451
 10
-3021.483041562971
 20
-642.879849479472
 10
-3022.047331981114
 20
-642.39604709919
 10
-3022.701765324525
 20
-641.941514468981
 10
-3023.440315830619
 20
-641.520436744971
 10
-3024.256183219338
 20
-641.136691043792
 10
-3025.141855307454
 20
-640.793810743611
 10
-3026.089177177755
 20
-640.494952950203
 10
-3027.089426266293
 20
-640.242869427561
 10
-3028.133392676296
 20
-640.039881260751
 10
-3029.211463979238
 20
-639.887857484282
 10
-3030.313713722268
 20
-639.788197872775
 10
-3031.429992827054
 20
-639.74182005239
 10
-3032.550023038462
 20
-639.749151051702
 10
-3033.663491562665
 20
-639.810123369776
 10
-3034.760146023239
 20
-639.924175597698
 10
-3035.829888860994
 20
-640.090257587801
 10
-3036.862870308282
 20
-640.30684012301
 10
-3037.849579081758
 20
-640.571928997268
 10
-3038.780929958494
 20
-640.88308337739
 10
-3039.64834742912
 20
-641.237438277289
 10
-3040.443844657696
 20
-641.631730937631
 10
-3041.160097021345
 20
-642.062330868031
 10
-3041.790509552464
 20
-642.525273275162
 10
-3042.329277662574
 20
-643.016295569004
 10
-3042.771440588665
 20
-643.530876611082
 10
-3043.112927069931
 20
-644.064278343314
 10
-3043.350592834335
 20
-644.611589414165
 10
-3043.482249549808
 20
-645.167770400432
 10
-3043.510685121911
 20
-645.574914522911
  0
ARC
  5
2F54
330
2F3F
100
AcDbEntity
  8
外形線
100
AcDbCircle
 10
-3031.837385121911
 20
-625.986454710612
 30
0.0
 40
13.57645981229912
100
AcDbArc
 50
239.247497502359
 51
300.752502497641
  0
LINE
  5
2F55
330
2F3F
100
AcDbEntity
  8
外形線
100
AcDbLine
 10
-3043.510685121911
 20
-645.574914522911
 30
0.0
 11
-3043.510685121911
 21
-649.955767263438
 31
0.0
  0
ARC
  5
2F56
330
2F3F
100
AcDbEntity
  8
外形線
100
AcDbCircle
 10
-3039.502685121911
 20
-649.955767263438
 30
0.0
 40
4.007999999999999
100
AcDbArc
 50
180.0
 51
255.26831657715
  0
ARC
  5
2F57
330
2F3F
100
AcDbEntity
  8
外形線
100
AcDbCircle
 10
-3046.230136312884
 20
-636.064530573833
 30
0.0
 40
7.618315752702329
100
AcDbArc
 50
273.828163206421
 51
347.958626091838
  0
LINE
  5
2F58
330
2F3F
100
AcDbEntity
  8
外形線
100
AcDbLine
 10
-3043.513436239113
 20
-645.578091239426
 30
0.0
 11
-3045.721504395382
 21
-643.665848122809
 31
0.0
  0
LINE
  5
2F59
330
2F3F
100
AcDbEntity
  8
外形線
100
AcDbLine
 10
-3045.721504395382
 20
-634.988273576889
 30
0.0
 11
-3045.721504395382
 21
-643.665848122809
 31
0.0
  0
LINE
  5
2F5A
330
2F3F
100
AcDbEntity
  8
外形線
100
AcDbLine
 10
-3020.164085121911
 20
-645.574914522911
 30
0.0
 11
-3020.164085121911
 21
-649.955767263438
 31
0.0
  0
LWPOLYLINE
  5
2F5B
330
2F3F
100
AcDbEntity
  8
外形線
100
AcDbPolyline
 90
       29
 70
     0
 43
0.0
 10
-3027.674940621911
 20
-653.049280022638
 10
-3027.701938707542
 20
-652.947308555312
 10
-3027.782585869251
 20
-652.846648062603
 10
-3027.915845283851
 20
-652.748592664861
 10
-3028.100003729843
 20
-652.654402990584
 10
-3028.332693613086
 20
-652.56528996941
 10
-3028.610923405278
 20
-652.482399264063
 10
-3028.9311161039
 20
-652.406796541377
 10
-3029.289155219196
 20
-652.339453771776
 10
-3029.680437696951
 20
-652.281236733347
 10
-3030.099933096692
 20
-652.232893881137
 10
-3030.542248264472
 20
-652.195046724809
 10
-3031.001696668819
 20
-652.16818183833
 10
-3031.472371508433
 20
-652.152644604435
 10
-3031.948221651714
 20
-652.148634774287
 10
-3032.423129431869
 20
-652.15620389942
 10
-3032.890989297393
 20
-652.175254668977
 10
-3033.345786306812
 20
-652.205542160767
 10
-3033.781673458494
 20
-652.246676990049
 10
-3034.193046861402
 20
-652.298130315587
 10
-3034.574617780326
 20
-652.359240638577
 10
-3034.921480629393
 20
-652.429222307066
 10
-3035.229176039693
 20
-652.507175616524
 10
-3035.493748190218
 20
-652.592098376703
 10
-3035.711795665032
 20
-652.682898796086
 10
-3035.88051518286
 20
-652.778409518273
 10
-3035.997737636882
 20
-652.877402629852
 10
-3036.061955981389
 20
-652.9786054468
 10
-3036.07490312191
 20
-653.049280022638
  0
ARC
  5
2F5C
330
2F3F
100
AcDbEntity
  8
外形線
100
AcDbCircle
 10
-3031.837385121911
 20
-620.803069368681
 30
0.0
 40
34.15159996140045
100
AcDbArc
 50
277.000695446903
 51
284.73168342285
  0
ARC
  5
2F5D
330
2F3F
100
AcDbEntity
  8
外形線
100
AcDbCircle
 10
-3024.172085121911
 20
-649.955767263438
 30
0.0
 40
4.007999999999999
100
AcDbArc
 50
284.73168342285
 51
0.0
  0
LINE
  5
2F5E
330
2F3F
100
AcDbEntity
  8
外形線
100
AcDbLine
 10
-3020.161334004708
 20
-645.578091239426
 30
0.0
 11
-3017.953265848439
 21
-643.665848122809
 31
0.0
  0
ARC
  5
2F5F
330
2F3F
100
AcDbEntity
  8
外形線
100
AcDbCircle
 10
-3017.444633930937
 20
-636.064530573833
 30
0.0
 40
7.618315752702329
100
AcDbArc
 50
192.041373908162
 51
266.171836793579
  0
LINE
  5
2F60
330
2F3F
100
AcDbEntity
  8
外形線
100
AcDbLine
 10
-3017.953265848439
 20
-643.665848122809
 30
0.0
 11
-3017.953265848439
 21
-634.988273576889
 31
0.0
  0
LWPOLYLINE
  5
2F61
330
2F3F
100
AcDbEntity
  8
外形線
100
AcDbPolyline
 90
       34
 70
     0
 43
0.0
 10
-3021.33893012191
 20
-629.269370629074
 10
-3021.387262926182
 20
-628.898532694609
 10
-3021.531816309708
 20
-628.531109288718
 10
-3021.771259282285
 20
-628.170483500357
 10
-3022.103387148015
 20
-627.819975828711
 10
-3022.525141805277
 20
-627.482813609361
 10
-3023.032639904511
 20
-627.162101298261
 10
-3023.621208604563
 20
-626.860791887133
 10
-3024.285428598347
 20
-626.581659713495
 10
-3025.019184011678
 20
-626.32727491566
 10
-3025.815718715819
 20
-626.099979767924
 10
-3026.667698535225
 20
-625.901867113831
 10
-3027.567278777729
 20
-625.734761096102
 10
-3028.506176465351
 20
-625.600200360651
 10
-3029.475746600679
 20
-625.499423889346
 10
-3030.467061766568
 20
-625.433359591953
 10
-3031.470994326257
 20
-625.402615762313
 10
-3032.478300467033
 20
-625.40747547741
 10
-3033.479705313585
 20
-625.44789399092
 10
-3034.465988327376
 20
-625.5234991452
 10
-3035.428068205709
 20
-625.633594797989
 10
-3036.357086498752
 20
-625.777167232194
 10
-3037.24448917464
 20
-625.952894489799
 10
-3038.082105381594
 20
-626.159158543935
 10
-3038.862222681892
 20
-626.394060197024
 10
-3039.577658064932
 20
-626.655436567837
 10
-3040.221824085545
 20
-626.940881006447
 10
-3040.788789518574
 20
-627.247765253711
 10
-3041.27333397125
 20
-627.57326364123
 10
-3041.670995950487
 20
-627.91437910899
 10
-3041.978113942544
 20
-628.267970801094
 10
-3042.191860126797
 20
-628.630782985528
 10
-3042.310266413181
 20
-628.99947503163
 10
-3042.335840121911
 20
-629.269370629074
  0
LINE
  5
2F62
330
2F3F
100
AcDbEntity
  8
外形線
100
AcDbLine
 10
-3038.779444758647
 20
-628.97627357689
 30
0.0
 11
-3024.895325485175
 21
-628.97627357689
 31
0.0
  0
LINE
  5
2F63
330
2F3F
100
AcDbEntity
  8
外形線
100
AcDbLine
 10
-3038.779444758647
 20
-620.298699030969
 30
0.0
 11
-3024.895325485175
 21
-620.298699030969
 31
0.0
  0
LINE
  5
2F64
330
2F3F
100
AcDbEntity
  8
外形線
100
AcDbLine
 10
-3038.779444758647
 20
-624.637486303929
 30
0.0
 11
-3024.895325485175
 21
-624.637486303929
 31
0.0
  0
LINE
  5
2F65
330
2F3F
100
AcDbEntity
  8
外形線
100
AcDbLine
 10
-3016.68737612191
 20
-618.495502022639
 30
0.0
 11
-3039.78736712191
 21
-618.495502022639
 31
0.0
  0
LINE
  5
2F66
330
2F3F
100
AcDbEntity
  8
外形線
100
AcDbLine
 10
-3039.468583886739
 20
-620.895511022639
 30
0.0
 11
-3042.187376121911
 21
-620.895511022639
 31
0.0
  0
LINE
  5
2F67
330
2F3F
100
AcDbEntity
  8
外形線
100
AcDbLine
 10
-3045.721504395382
 20
-626.310699030969
 30
0.0
 11
-3038.779444758647
 21
-620.298699030969
 31
0.0
  0
ARC
  5
2F68
330
2F3F
100
AcDbEntity
  8
外形線
100
AcDbCircle
 10
-3039.78736712191
 20
-623.895511022639
 30
0.0
 40
5.4
100
AcDbArc
 50
89.999981276021
 51
180.00001984784
  0
LINE
  5
2F69
330
2F3F
100
AcDbEntity
  8
外形線
100
AcDbLine
 10
-3038.779444758647
 20
-624.637486303929
 30
0.0
 11
-3045.721504395382
 21
-630.649486303929
 31
0.0
  0
ARC
  5
2F6A
330
2F3F
100
AcDbEntity
  8
外形線
100
AcDbCircle
 10
-3042.187376121911
 20
-623.895511022639
 30
0.0
 40
3.0
100
AcDbArc
 50
89.999981276021
 51
211.533239298809
  0
ARC
  5
2F6B
330
2F3F
100
AcDbEntity
  8
外形線
100
AcDbCircle
 10
-3043.687376121911
 20
-623.745502022639
 30
0.0
 40
3.0
100
AcDbArc
 50
180.00001984784
 51
232.575749003279
  0
LINE
  5
2F6C
330
2F3F
100
AcDbEntity
  8
外形線
100
AcDbLine
 10
-3043.216504395382
 20
-632.818879940409
 30
0.0
 11
-3045.721504395382
 21
-630.649486303929
 31
0.0
  0
LINE
  5
2F6D
330
2F3F
100
AcDbEntity
  8
外形線
100
AcDbLine
 10
-3042.335840121911
 20
-629.269370629074
 30
0.0
 11
-3042.335840121911
 21
-632.056202307377
 31
0.0
  0
LINE
  5
2F6E
330
2F3F
100
AcDbEntity
  8
外形線
100
AcDbLine
 10
-3045.721504395382
 20
-630.649486303929
 30
0.0
 11
-3045.721504395382
 21
-626.310699030969
 31
0.0
  0
LINE
  5
2F6F
330
2F3F
100
AcDbEntity
  8
細線
100
AcDbLine
 10
-3040.980635121911
 20
-630.882560350041
 30
0.0
 11
-3040.980635121911
 21
-627.331019140395
 31
0.0
  0
LINE
  5
2F70
330
2F3F
100
AcDbEntity
  8
外形線
100
AcDbLine
 10
-3038.779444758647
 20
-624.637486303929
 30
0.0
 11
-3038.779444758647
 21
-620.298699030969
 31
0.0
  0
LINE
  5
2F71
330
2F3F
100
AcDbEntity
  8
細線
100
AcDbLine
 10
-3022.694135121911
 20
-630.882560350041
 30
0.0
 11
-3022.694135121911
 21
-627.227614822548
 31
0.0
  0
LINE
  5
2F72
330
2F3F
100
AcDbEntity
  8
外形線
100
AcDbLine
 10
-3016.68737612191
 20
-620.895511022639
 30
0.0
 11
-3024.206186357083
 21
-620.895511022639
 31
0.0
  0
LINE
  5
2F73
330
2F3F
100
AcDbEntity
  8
外形線
100
AcDbLine
 10
-3017.953265848439
 20
-626.310699030969
 30
0.0
 11
-3024.895325485175
 21
-620.298699030969
 31
0.0
  0
LINE
  5
2F74
330
2F3F
100
AcDbEntity
  8
外形線
100
AcDbLine
 10
-3024.895325485175
 20
-624.637486303929
 30
0.0
 11
-3024.895325485175
 21
-620.298699030969
 31
0.0
  0
LINE
  5
2F75
330
2F3F
100
AcDbEntity
  8
外形線
100
AcDbLine
 10
-3016.68737612191
 20
-629.295497522639
 30
0.0
 11
-3017.953265848439
 21
-629.295497522639
 31
0.0
  0
LINE
  5
2F76
330
2F3F
100
AcDbEntity
  8
外形線
100
AcDbLine
 10
-3020.458265848439
 20
-632.818879940409
 30
0.0
 11
-3017.953265848439
 21
-630.649486303929
 31
0.0
  0
LINE
  5
2F77
330
2F3F
100
AcDbEntity
  8
外形線
100
AcDbLine
 10
-3024.895325485175
 20
-624.637486303929
 30
0.0
 11
-3017.953265848439
 21
-630.649486303929
 31
0.0
  0
LINE
  5
2F78
330
2F3F
100
AcDbEntity
  8
外形線
100
AcDbLine
 10
-3021.33893012191
 20
-629.269370629074
 30
0.0
 11
-3021.33893012191
 21
-632.056202307377
 31
0.0
  0
LINE
  5
2F79
330
2F3F
100
AcDbEntity
  8
外形線
100
AcDbLine
 10
-3017.953265848439
 20
-630.649486303929
 30
0.0
 11
-3017.953265848439
 21
-626.310699030969
 31
0.0
  0
LINE
  5
2F7A
330
2F3F
100
AcDbEntity
  8
外形線
100
AcDbLine
 10
-3048.487394121911
 20
-562.245502022639
 30
0.0
 11
-3048.487394121911
 21
-603.345493022639
 31
0.0
  0
LINE
  5
2F7B
330
2F3F
100
AcDbEntity
  8
外形線
100
AcDbLine
 10
-3048.487394121911
 20
-603.345493022639
 30
0.0
 11
-3046.687376121911
 21
-603.345493022639
 31
0.0
  0
LINE
  5
2F7C
330
2F3F
100
AcDbEntity
  8
外形線
100
AcDbLine
 10
-3043.687376121911
 20
-558.495502022639
 30
0.0
 11
-3019.68737612191
 21
-558.495502022639
 31
0.0
  0
LINE
  5
2F7D
330
2F3F
100
AcDbEntity
  8
外形線
100
AcDbLine
 10
-3048.487394121911
 20
-562.245502022639
 30
0.0
 11
-3046.687376121911
 21
-562.245502022639
 31
0.0
  0
ARC
  5
2F7E
330
2F3F
100
AcDbEntity
  8
外形線
100
AcDbCircle
 10
-3043.687376121911
 20
-561.495502022639
 30
0.0
 40
3.0
100
AcDbArc
 50
89.999981276021
 51
180.00001984784
  0
LINE
  5
2F7F
330
2F3F
100
AcDbEntity
  8
外形線
100
AcDbLine
 10
-3046.687376121911
 20
-562.245502022639
 30
0.0
 11
-3046.687376121911
 21
-561.495502022639
 31
0.0
  0
LINE
  5
2F80
330
2F3F
100
AcDbEntity
  8
外形線
100
AcDbLine
 10
-2963.887356621911
 20
-617.370502022639
 30
0.0
 11
-2963.887356621911
 21
-567.870502022639
 31
0.0
  0
LINE
  5
2F81
330
2F3F
100
AcDbEntity
  8
外形線
100
AcDbLine
 10
-2965.387356621911
 20
-620.580112022639
 30
0.0
 11
-2965.387356621911
 21
-564.660892022639
 31
0.0
  0
LINE
  5
2F82
330
2F3F
100
AcDbEntity
  8
外形線
100
AcDbLine
 10
-3004.68737612191
 20
-556.620502022639
 30
0.0
 11
-3004.68737612191
 21
-628.620502022639
 31
0.0
  0
LINE
  5
2F83
330
2F3F
100
AcDbEntity
  8
外形線
100
AcDbLine
 10
-3004.68737612191
 20
-626.745502022639
 30
0.0
 11
-2969.67289562191
 21
-625.074985022639
 31
0.0
  0
LINE
  5
2F84
330
2F3F
100
AcDbEntity
  8
外形線
100
AcDbLine
 10
-2963.887356621911
 20
-617.370502022639
 30
0.0
 11
-2965.387356621911
 21
-617.370502022639
 31
0.0
  0
ARC
  5
2F85
330
2F3F
100
AcDbEntity
  8
外形線
100
AcDbCircle
 10
-2969.887356621911
 20
-620.580112022639
 30
0.0
 40
4.5
100
AcDbArc
 50
272.731520116378
 51
359.999982399908
  0
LINE
  5
2F86
330
2F3F
100
AcDbEntity
  8
外形線
100
AcDbLine
 10
-3004.68737612191
 20
-558.495502022639
 30
0.0
 11
-2969.67289562191
 21
-560.166019022639
 31
0.0
  0
LINE
  5
2F87
330
2F3F
100
AcDbEntity
  8
外形線
100
AcDbLine
 10
-2963.887356621911
 20
-567.870502022639
 30
0.0
 11
-2965.387356621911
 21
-567.870502022639
 31
0.0
  0
ARC
  5
2F88
330
2F3F
100
AcDbEntity
  8
外形線
100
AcDbCircle
 10
-2969.887356621911
 20
-564.660892022639
 30
0.0
 40
4.5
100
AcDbArc
 50
0.0
 51
87.268519579302
  0
ENDBLK
  5
2F89
330
2F3F
100
AcDbEntity
  8
0
 48
10.0
100
AcDbBlockEnd
  0
BLOCK
  5
348A
330
347E
100
AcDbEntity
  8
0
 48
10.0
100
AcDbBlockBegin
  2
*D9
 70
     1
 10
0.0
 20
0.0
 30
0.0
  3
*D9
  1
*D9
  0
LINE
  5
3B6D
330
347E
100
AcDbEntity
  8
寸法線
 62
     0
 48
10.0
100
AcDbLine
 10
228.477251261449
 20
655.807808889852
 30
0.0
 11
227.852251261449
 21
655.807808889852
 31
0.0
  0
LINE
  5
3B6E
330
347E
100
AcDbEntity
  8
寸法線
 62
     0
 48
10.0
100
AcDbLine
 10
228.072112519863
 20
649.807763889852
 30
0.0
 11
230.352251261449
 21
649.807763889852
 31
0.0
  0
LINE
  5
3B6F
330
347E
100
AcDbEntity
  8
寸法線
 62
     0
 48
10.0
100
AcDbLine
 10
229.102251261449
 20
655.807808889852
 30
0.0
 11
229.102251261449
 21
679.983237280445
 31
0.0
  0
LINE
  5
3B70
330
347E
100
AcDbEntity
  8
寸法線
 62
     0
 48
10.0
100
AcDbLine
 10
229.102251261449
 20
655.807808889852
 30
0.0
 11
229.102251261449
 21
649.807763889852
 31
0.0
  0
LINE
  5
3B71
330
347E
100
AcDbEntity
  8
寸法線
 62
     0
 48
10.0
100
AcDbLine
 10
229.102251261449
 20
661.807808889852
 30
0.0
 11
229.102251261449
 21
667.807808889852
 31
0.0
  0
LINE
  5
3B72
330
347E
100
AcDbEntity
  8
寸法線
 62
     0
 48
10.0
100
AcDbLine
 10
229.102251261449
 20
643.807763889852
 30
0.0
 11
229.102251261449
 21
637.807763889852
 31
0.0
  0
INSERT
  5
3B73
330
347E
100
AcDbEntity
  8
寸法線
 62
     0
100
AcDbBlockReference
  2
_OPEN30
 10
229.102251261449
 20
655.807808889852
 30
0.0
 41
6.0
 42
6.0
 43
6.0
 50
270.0
  0
INSERT
  5
3B74
330
347E
100
AcDbEntity
  8
寸法線
 62
     0
100
AcDbBlockReference
  2
_OPEN30
 10
229.102251261449
 20
649.807763889852
 30
0.0
 41
6.0
 42
6.0
 43
6.0
 50
90.0
  0
MTEXT
  5
3B75
330
347E
100
AcDbEntity
  8
寸法線
 62
     0
 48
10.0
100
AcDbMText
 10
225.477251261449
 20
674.911362280445
 30
0.0
 40
6.0
 41
0.0
 71
     5
 72
     1
  1
\A1;φ6
 11
0.0
 21
1.0
 31
0.0
  0
POINT
  5
3B76
330
347E
100
AcDbEntity
  8
DEFPOINTS
 62
     0
100
AcDbPoint
 10
229.102251261449
 20
655.807808889852
 30
0.0
  0
POINT
  5
3B77
330
347E
100
AcDbEntity
  8
DEFPOINTS
 62
     0
100
AcDbPoint
 10
227.447112519863
 20
649.807763889852
 30
0.0
  0
POINT
  5
4019
330
347E
100
AcDbEntity
  8
DEFPOINTS
 62
     0
100
AcDbPoint
 10
229.102251261449
 20
649.807763889852
 30
0.0
  0
ENDBLK
  5
348B
330
347E
100
AcDbEntity
  8
0
 48
10.0
100
AcDbBlockEnd
  0
BLOCK
  5
34C3
330
34B9
100
AcDbEntity
  8
0
 48
10.0
100
AcDbBlockBegin
  2
*D10
 70
     1
 10
0.0
 20
0.0
 30
0.0
  3
*D10
  1
*D10
  0
LINE
  5
3B64
330
34B9
100
AcDbEntity
  8
寸法線
 62
     0
 48
10.0
100
AcDbLine
 10
176.852761446768
 20
692.807611389852
 30
0.0
 11
156.856305274762
 21
692.807611389852
 31
0.0
  0
LINE
  5
3B65
330
34B9
100
AcDbEntity
  8
寸法線
 62
     0
 48
10.0
100
AcDbLine
 10
176.852761446768
 20
612.807826389852
 30
0.0
 11
156.856305274762
 21
612.807826389852
 31
0.0
  0
LINE
  5
3B66
330
34B9
100
AcDbEntity
  8
寸法線
 62
     0
 48
10.0
100
AcDbLine
 10
158.106305274762
 20
686.807611389852
 30
0.0
 11
158.106305274762
 21
618.807826389852
 31
0.0
  0
INSERT
  5
3B67
330
34B9
100
AcDbEntity
  8
寸法線
 62
     0
 48
10.0
100
AcDbBlockReference
  2
_OPEN30
 10
158.106305274762
 20
692.807611389852
 30
0.0
 41
6.0
 42
6.0
 43
6.0
 50
90.0
  0
INSERT
  5
3B68
330
34B9
100
AcDbEntity
  8
寸法線
 62
     0
 48
10.0
100
AcDbBlockReference
  2
_OPEN30
 10
158.106305274762
 20
612.807826389852
 30
0.0
 41
6.0
 42
6.0
 43
6.0
 50
270.0
  0
MTEXT
  5
3B69
330
34B9
100
AcDbEntity
  8
寸法線
 62
     0
 48
10.0
100
AcDbMText
 10
154.481305274762
 20
652.807718889852
 30
0.0
 40
6.0
 41
0.0
 71
     5
 72
     1
  1
\A1;80
 11
6.123031769111886E-17
 21
1.0
 31
0.0
  0
POINT
  5
3B6A
330
34B9
100
AcDbEntity
  8
DEFPOINTS
 62
     0
 48
10.0
100
AcDbPoint
 10
177.477761446768
 20
692.807611389852
 30
0.0
  0
POINT
  5
3B6B
330
34B9
100
AcDbEntity
  8
DEFPOINTS
 62
     0
 48
10.0
100
AcDbPoint
 10
177.477761446768
 20
612.807826389852
 30
0.0
  0
POINT
  5
3B6C
330
34B9
100
AcDbEntity
  8
DEFPOINTS
 62
     0
 48
10.0
100
AcDbPoint
 10
158.106305274762
 20
612.807826389852
 30
0.0
  0
ENDBLK
  5
34C4
330
34B9
100
AcDbEntity
  8
0
 48
10.0
100
AcDbBlockEnd
  0
BLOCK
  5
34D0
330
34C6
100
AcDbEntity
  8
0
 48
10.0
100
AcDbBlockBegin
  2
*D11
 70
     1
 10
0.0
 20
0.0
 30
0.0
  3
*D11
  1
*D11
  0
LINE
  5
3B5B
330
34C6
100
AcDbEntity
  8
寸法線
 62
     0
 48
10.0
100
AcDbLine
 10
177.477761446768
 20
612.182826389852
 30
0.0
 11
177.477761446768
 21
592.56901287999
 31
0.0
  0
LINE
  5
3B5C
330
34C6
100
AcDbEntity
  8
寸法線
 62
     0
 48
10.0
100
AcDbLine
 10
212.477754946768
 20
612.182826389852
 30
0.0
 11
212.477754946768
 21
592.56901287999
 31
0.0
  0
LINE
  5
3B5D
330
34C6
100
AcDbEntity
  8
寸法線
 62
     0
 48
10.0
100
AcDbLine
 10
183.477761446768
 20
593.81901287999
 30
0.0
 11
206.477754946768
 21
593.81901287999
 31
0.0
  0
INSERT
  5
3B5E
330
34C6
100
AcDbEntity
  8
寸法線
 62
     0
 48
10.0
100
AcDbBlockReference
  2
_OPEN30
 10
177.477761446768
 20
593.81901287999
 30
0.0
 41
6.0
 42
6.0
 43
6.0
 50
180.0
  0
INSERT
  5
3B5F
330
34C6
100
AcDbEntity
  8
寸法線
 62
     0
 48
10.0
100
AcDbBlockReference
  2
_OPEN30
 10
212.477754946768
 20
593.81901287999
 30
0.0
 41
6.0
 42
6.0
 43
6.0
  0
MTEXT
  5
3B60
330
34C6
100
AcDbEntity
  8
寸法線
 62
     0
 48
10.0
100
AcDbMText
 10
194.977758196768
 20
597.44401287999
 30
0.0
 40
6.0
 41
0.0
 71
     5
 72
     1
  1
\A1;35
  0
POINT
  5
3B61
330
34C6
100
AcDbEntity
  8
DEFPOINTS
 62
     0
 48
10.0
100
AcDbPoint
 10
177.477761446768
 20
612.807826389852
 30
0.0
  0
POINT
  5
3B62
330
34C6
100
AcDbEntity
  8
DEFPOINTS
 62
     0
 48
10.0
100
AcDbPoint
 10
212.477754946768
 20
612.807826389852
 30
0.0
  0
POINT
  5
3B63
330
34C6
100
AcDbEntity
  8
DEFPOINTS
 62
     0
 48
10.0
100
AcDbPoint
 10
212.477754946768
 20
593.81901287999
 30
0.0
  0
ENDBLK
  5
34D1
330
34C6
100
AcDbEntity
  8
0
 48
10.0
100
AcDbBlockEnd
  0
BLOCK
  5
3A1F
330
3A15
100
AcDbEntity
  8
0
 48
10.0
100
AcDbBlockBegin
  2
*D16
 70
     1
 10
0.0
 20
0.0
 30
0.0
  3
*D16
  1
*D16
  0
LINE
  5
3B29
330
3A15
100
AcDbEntity
  8
寸法線
 62
     0
 48
10.0
100
AcDbLine
 10
315.605337848777
 20
662.807656389852
 30
0.0
 11
320.026867416079
 21
662.807656389852
 31
0.0
  0
LINE
  5
3B2A
330
3A15
100
AcDbEntity
  8
寸法線
 62
     0
 48
10.0
100
AcDbLine
 10
316.670264109671
 20
642.807871389852
 30
0.0
 11
320.026867416079
 21
642.807871389852
 31
0.0
  0
LINE
  5
3B2B
330
3A15
100
AcDbEntity
  8
寸法線
 62
     0
 48
10.0
100
AcDbLine
 10
318.776867416079
 20
648.807871389852
 30
0.0
 11
318.776867416079
 21
656.807656389852
 31
0.0
  0
LINE
  5
3B2C
330
3A15
100
AcDbEntity
  8
寸法線
 62
     0
 48
10.0
100
AcDbLine
 10
318.776867416079
 20
662.807656389852
 30
0.0
 11
318.776867416079
 21
683.562380799301
 31
0.0
  0
INSERT
  5
3B2D
330
3A15
100
AcDbEntity
  8
寸法線
 62
     0
 48
10.0
100
AcDbBlockReference
  2
_OPEN30
 10
318.776867416079
 20
642.807871389852
 30
0.0
 41
6.0
 42
6.0
 43
6.0
 50
270.0
  0
INSERT
  5
3B2E
330
3A15
100
AcDbEntity
  8
寸法線
 62
     0
 48
10.0
100
AcDbBlockReference
  2
_OPEN30
 10
318.776867416079
 20
662.807656389852
 30
0.0
 41
6.0
 42
6.0
 43
6.0
 50
90.0
  0
MTEXT
  5
3B2F
330
3A15
100
AcDbEntity
  8
寸法線
 62
     0
 48
10.0
100
AcDbMText
 10
315.151276864897
 20
676.185018594576
 30
0.0
 40
6.0
 41
0.0
 71
     5
 72
     1
  1
\A1;φ20
 11
6.123031769111886E-17
 21
1.0
 31
0.0
  0
POINT
  5
3B30
330
3A15
100
AcDbEntity
  8
DEFPOINTS
 62
     0
 48
10.0
100
AcDbPoint
 10
314.980337848777
 20
662.807656389852
 30
0.0
  0
POINT
  5
3B31
330
3A15
100
AcDbEntity
  8
DEFPOINTS
 62
     0
 48
10.0
100
AcDbPoint
 10
316.045264109671
 20
642.807871389852
 30
0.0
  0
POINT
  5
3B32
330
3A15
100
AcDbEntity
  8
DEFPOINTS
 62
     0
 48
10.0
100
AcDbPoint
 10
318.776867416079
 20
642.807871389852
 30
0.0
  0
ENDBLK
  5
3A20
330
3A15
100
AcDbEntity
  8
0
 48
10.0
100
AcDbBlockEnd
  0
BLOCK
  5
3F92
330
3F91
100
AcDbEntity
  8
0
100
AcDbBlockBegin
  2
*D27
 70
     1
 10
0.0
 20
0.0
 30
0.0
  3
*D27
  1
*D27
  0
LINE
  5
3F94
330
3F91
100
AcDbEntity
  8
寸法線
 62
     0
 48
10.0
100
AcDbLine
 10
346.903838446768
 20
666.028263889852
 30
0.0
 11
352.677804772054
 21
666.028263889852
 31
0.0
  0
LINE
  5
3F95
330
3F91
100
AcDbEntity
  8
寸法線
 62
     0
 48
10.0
100
AcDbLine
 10
346.903838446768
 20
639.587263889852
 30
0.0
 11
352.677804772054
 21
639.587263889852
 31
0.0
  0
LINE
  5
3F96
330
3F91
100
AcDbEntity
  8
寸法線
 62
     0
 48
10.0
100
AcDbLine
 10
351.427804772054
 20
666.028263889852
 30
0.0
 11
351.427804772054
 21
696.833593975742
 31
0.0
  0
LINE
  5
3F97
330
3F91
100
AcDbEntity
  8
寸法線
 62
     0
 48
10.0
100
AcDbLine
 10
351.427804772054
 20
660.028263889852
 30
0.0
 11
351.427804772054
 21
645.587263889852
 31
0.0
  0
INSERT
  5
3F98
330
3F91
100
AcDbEntity
  8
寸法線
 62
     0
100
AcDbBlockReference
  2
_OPEN30
 10
351.427804772054
 20
666.028263889852
 30
0.0
 41
6.0
 42
6.0
 43
6.0
 50
90.0
  0
INSERT
  5
3F99
330
3F91
100
AcDbEntity
  8
寸法線
 62
     0
100
AcDbBlockReference
  2
_OPEN30
 10
351.427804772054
 20
639.587263889852
 30
0.0
 41
6.0
 42
6.0
 43
6.0
 50
270.0
  0
MTEXT
  5
3F9A
330
3F91
100
AcDbEntity
  8
寸法線
 62
     0
 48
10.0
100
AcDbMText
 10
347.799679772054
 20
684.508593975742
 30
0.0
 40
6.0
 41
0.0
 71
     5
 72
     1
  1
\A1;G 3/4"
 11
0.0
 21
1.0
 31
0.0
  0
POINT
  5
3F9B
330
3F91
100
AcDbEntity
  8
DEFPOINTS
 62
     0
100
AcDbPoint
 10
346.278838446768
 20
666.028263889852
 30
0.0
  0
POINT
  5
3F9C
330
3F91
100
AcDbEntity
  8
DEFPOINTS
 62
     0
100
AcDbPoint
 10
346.278838446768
 20
639.587263889852
 30
0.0
  0
POINT
  5
3F9D
330
3F91
100
AcDbEntity
  8
DEFPOINTS
 62
     0
100
AcDbPoint
 10
351.427804772054
 20
639.587263889852
 30
0.0
  0
ENDBLK
  5
3F93
330
3F91
100
AcDbEntity
  8
0
100
AcDbBlockEnd
  0
BLOCK
  5
3FC6
330
3FC5
100
AcDbEntity
  8
0
100
AcDbBlockBegin
  2
*D31
 70
     1
 10
0.0
 20
0.0
 30
0.0
  3
*D31
  1
*D31
  0
LINE
  5
3FC8
330
3FC5
100
AcDbEntity
  8
寸法線
 62
     0
 48
10.0
100
AcDbLine
 10
370.978820446767
 20
631.632745889852
 30
0.0
 11
370.978820446767
 21
556.546683119883
 31
0.0
  0
LINE
  5
3FC9
330
3FC5
100
AcDbEntity
  8
寸法線
 62
     0
 48
10.0
100
AcDbLine
 10
453.778838446768
 20
577.355545565335
 30
0.0
 11
453.778838446768
 21
556.546683119883
 31
0.0
  0
LINE
  5
3FCA
330
3FC5
100
AcDbEntity
  8
寸法線
 62
     0
 48
10.0
100
AcDbLine
 10
376.978820446767
 20
557.796683119883
 30
0.0
 11
447.778838446768
 21
557.796683119883
 31
0.0
  0
INSERT
  5
3FCB
330
3FC5
100
AcDbEntity
  8
寸法線
 62
     0
100
AcDbBlockReference
  2
_OPEN30
 10
370.978820446767
 20
557.796683119883
 30
0.0
 41
6.0
 42
6.0
 43
6.0
 50
180.0
  0
INSERT
  5
3FCC
330
3FC5
100
AcDbEntity
  8
寸法線
 62
     0
100
AcDbBlockReference
  2
_OPEN30
 10
453.778838446768
 20
557.796683119883
 30
0.0
 41
6.0
 42
6.0
 43
6.0
  0
MTEXT
  5
3FCD
330
3FC5
100
AcDbEntity
  8
寸法線
 62
     0
 48
10.0
100
AcDbMText
 10
412.378829446767
 20
561.431058119883
 30
0.0
 40
6.0
 41
0.0
 71
     5
 72
     1
  1
\A1;83
  0
POINT
  5
3FCE
330
3FC5
100
AcDbEntity
  8
DEFPOINTS
 62
     0
100
AcDbPoint
 10
370.978820446767
 20
632.257745889852
 30
0.0
  0
POINT
  5
3FCF
330
3FC5
100
AcDbEntity
  8
DEFPOINTS
 62
     0
100
AcDbPoint
 10
453.778838446768
 20
577.980545565335
 30
0.0
  0
POINT
  5
3FD0
330
3FC5
100
AcDbEntity
  8
DEFPOINTS
 62
     0
100
AcDbPoint
 10
453.778838446768
 20
557.796683119883
 30
0.0
  0
ENDBLK
  5
3FC7
330
3FC5
100
AcDbEntity
  8
0
100
AcDbBlockEnd
  0
BLOCK
  5
3FD2
330
3FD1
100
AcDbEntity
  8
0
100
AcDbBlockBegin
  2
*D32
 70
     1
 10
0.0
 20
0.0
 30
0.0
  3
*D32
  1
*D32
  0
LINE
  5
3FD4
330
3FD1
100
AcDbEntity
  8
寸法線
 62
     0
 48
10.0
100
AcDbLine
 10
98.630922267169
 20
652.807763889852
 30
0.0
 11
104.643822513871
 21
652.807763889852
 31
0.0
  0
LINE
  5
3FD5
330
3FD1
100
AcDbEntity
  8
寸法線
 62
     0
 48
10.0
100
AcDbLine
 10
98.630922267169
 20
642.896299773085
 30
0.0
 11
104.643822513871
 21
642.896299773085
 31
0.0
  0
LINE
  5
3FD6
330
3FD1
100
AcDbEntity
  8
寸法線
 62
     0
 48
10.0
100
AcDbLine
 10
103.393822513871
 20
652.807763889852
 30
0.0
 11
103.393822513871
 21
642.896299773085
 31
0.0
  0
LINE
  5
3FD7
330
3FD1
100
AcDbEntity
  8
寸法線
 62
     0
 48
10.0
100
AcDbLine
 10
103.393822513871
 20
658.807763889852
 30
0.0
 11
103.393822513871
 21
664.807763889852
 31
0.0
  0
LINE
  5
3FD8
330
3FD1
100
AcDbEntity
  8
寸法線
 62
     0
 48
10.0
100
AcDbLine
 10
103.393822513871
 20
636.896299773085
 30
0.0
 11
103.393822513871
 21
630.896299773085
 31
0.0
  0
INSERT
  5
3FD9
330
3FD1
100
AcDbEntity
  8
寸法線
 62
     0
100
AcDbBlockReference
  2
_OPEN30
 10
103.393822513871
 20
652.807763889852
 30
0.0
 41
6.0
 42
6.0
 43
6.0
 50
270.0
  0
INSERT
  5
3FDA
330
3FD1
100
AcDbEntity
  8
寸法線
 62
     0
100
AcDbBlockReference
  2
_OPEN30
 10
103.393822513871
 20
642.896299773085
 30
0.0
 41
6.0
 42
6.0
 43
6.0
 50
90.0
  0
MTEXT
  5
3FDB
330
3FD1
100
AcDbEntity
  8
寸法線
 62
     0
 48
10.0
100
AcDbMText
 10
99.768822513871
 20
647.852031831468
 30
0.0
 40
6.0
 41
0.0
 71
     5
 72
     1
  1
\A1;10
 11
0.0
 21
1.0
 31
0.0
  0
POINT
  5
3FDC
330
3FD1
100
AcDbEntity
  8
DEFPOINTS
 62
     0
100
AcDbPoint
 10
98.005922267169
 20
652.807763889852
 30
0.0
  0
POINT
  5
3FDD
330
3FD1
100
AcDbEntity
  8
DEFPOINTS
 62
     0
100
AcDbPoint
 10
98.005922267169
 20
642.896299773085
 30
0.0
  0
POINT
  5
3FDE
330
3FD1
100
AcDbEntity
  8
DEFPOINTS
 62
     0
100
AcDbPoint
 10
103.393822513871
 20
642.896299773085
 30
0.0
  0
ENDBLK
  5
3FD3
330
3FD1
100
AcDbEntity
  8
0
100
AcDbBlockEnd
  0
BLOCK
  5
3FE0
330
3FDF
100
AcDbEntity
  8
0
100
AcDbBlockBegin
  2
*D33
 70
     1
 10
0.0
 20
0.0
 30
0.0
  3
*D33
  1
*D33
  0
LINE
  5
3FE2
330
3FDF
100
AcDbEntity
  8
寸法線
 62
     0
 48
10.0
100
AcDbLine
 10
31.036833472029
 20
663.825068735265
 30
0.0
 11
31.036833472029
 21
704.044880778571
 31
0.0
  0
LINE
  5
3FE3
330
3FDF
100
AcDbEntity
  8
寸法線
 62
     0
 48
10.0
100
AcDbLine
 10
67.036833472029
 20
663.825068735265
 30
0.0
 11
67.036833472029
 21
704.044880778571
 31
0.0
  0
LINE
  5
3FE4
330
3FDF
100
AcDbEntity
  8
寸法線
 62
     0
 48
10.0
100
AcDbLine
 10
37.036833472029
 20
702.794880778571
 30
0.0
 11
61.036833472029
 21
702.794880778571
 31
0.0
  0
INSERT
  5
3FE5
330
3FDF
100
AcDbEntity
  8
寸法線
 62
     0
100
AcDbBlockReference
  2
_OPEN30
 10
31.036833472029
 20
702.794880778571
 30
0.0
 41
6.0
 42
6.0
 43
6.0
 50
180.0
  0
INSERT
  5
3FE6
330
3FDF
100
AcDbEntity
  8
寸法線
 62
     0
100
AcDbBlockReference
  2
_OPEN30
 10
67.036833472029
 20
702.794880778571
 30
0.0
 41
6.0
 42
6.0
 43
6.0
  0
MTEXT
  5
3FE7
330
3FDF
100
AcDbEntity
  8
寸法線
 62
     0
 48
10.0
100
AcDbMText
 10
49.036833472029
 20
706.423005778571
 30
0.0
 40
6.0
 41
0.0
 71
     5
 72
     1
  1
\A1;36
  0
POINT
  5
3FE8
330
3FDF
100
AcDbEntity
  8
DEFPOINTS
 62
     0
100
AcDbPoint
 10
31.036833472029
 20
663.200068735265
 30
0.0
  0
POINT
  5
3FE9
330
3FDF
100
AcDbEntity
  8
DEFPOINTS
 62
     0
100
AcDbPoint
 10
67.036833472029
 20
663.200068735265
 30
0.0
  0
POINT
  5
3FEA
330
3FDF
100
AcDbEntity
  8
DEFPOINTS
 62
     0
100
AcDbPoint
 10
67.036833472029
 20
702.794880778571
 30
0.0
  0
ENDBLK
  5
3FE1
330
3FDF
100
AcDbEntity
  8
0
100
AcDbBlockEnd
  0
BLOCK
  5
3FEC
330
3FEB
100
AcDbEntity
  8
0
100
AcDbBlockBegin
  2
*D34
 70
     1
 10
0.0
 20
0.0
 30
0.0
  3
*D34
  1
*D34
  0
LINE
  5
3FEE
330
3FEB
100
AcDbEntity
  8
寸法線
 62
     0
 48
10.0
100
AcDbLine
 10
48.136833472029
 20
622.354290013156
 30
0.0
 11
48.136833472029
 21
622.979290013156
 31
0.0
  0
LINE
  5
3FEF
330
3FEB
100
AcDbEntity
  8
寸法線
 62
     0
 48
10.0
100
AcDbLine
 10
49.936833472029
 20
622.354290013156
 30
0.0
 11
49.936833472029
 21
622.979290013156
 31
0.0
  0
LINE
  5
3FF0
330
3FEB
100
AcDbEntity
  8
寸法線
 62
     0
 48
10.0
100
AcDbLine
 10
55.936833472029
 20
621.729290013156
 30
0.0
 11
64.386833472029
 21
621.729290013156
 31
0.0
  0
LINE
  5
3FF1
330
3FEB
100
AcDbEntity
  8
寸法線
 62
     0
 48
10.0
100
AcDbLine
 10
48.136833472029
 20
621.729290013156
 30
0.0
 11
49.936833472029
 21
621.729290013156
 31
0.0
  0
LINE
  5
3FF2
330
3FEB
100
AcDbEntity
  8
寸法線
 62
     0
 48
10.0
100
AcDbLine
 10
42.136833472029
 20
621.729290013156
 30
0.0
 11
36.136833472029
 21
621.729290013156
 31
0.0
  0
INSERT
  5
3FF3
330
3FEB
100
AcDbEntity
  8
寸法線
 62
     0
100
AcDbBlockReference
  2
_OPEN30
 10
48.136833472029
 20
621.729290013156
 30
0.0
 41
6.0
 42
6.0
 43
6.0
  0
INSERT
  5
3FF4
330
3FEB
100
AcDbEntity
  8
寸法線
 62
     0
100
AcDbBlockReference
  2
_OPEN30
 10
49.936833472029
 20
621.729290013156
 30
0.0
 41
6.0
 42
6.0
 43
6.0
 50
180.0
  0
MTEXT
  5
3FF5
330
3FEB
100
AcDbEntity
  8
寸法線
 62
     0
 48
10.0
100
AcDbMText
 10
63.161833472029
 20
625.354290013156
 30
0.0
 40
6.0
 41
0.0
 71
     5
 72
     1
  1
\A1;1
  0
POINT
  5
3FF6
330
3FEB
100
AcDbEntity
  8
DEFPOINTS
 62
     0
100
AcDbPoint
 10
48.136833472029
 20
621.729290013156
 30
0.0
  0
POINT
  5
3FF7
330
3FEB
100
AcDbEntity
  8
DEFPOINTS
 62
     0
100
AcDbPoint
 10
49.936833472029
 20
621.729290013156
 30
0.0
  0
POINT
  5
3FF8
330
3FEB
100
AcDbEntity
  8
DEFPOINTS
 62
     0
100
AcDbPoint
 10
49.936833472029
 20
621.729290013156
 30
0.0
  0
ENDBLK
  5
3FED
330
3FEB
100
AcDbEntity
  8
0
100
AcDbBlockEnd
  0
BLOCK
  5
3FFA
330
3FF9
100
AcDbEntity
  8
0
100
AcDbBlockBegin
  2
*D35
 70
     1
 10
0.0
 20
0.0
 30
0.0
  3
*D35
  1
*D35
  0
LINE
  5
3FFC
330
3FF9
100
AcDbEntity
  8
寸法線
 62
     0
 48
10.0
100
AcDbLine
 10
413.603818946768
 20
678.307763889852
 30
0.0
 11
472.981596365993
 21
678.307763889852
 31
0.0
  0
LINE
  5
3FFD
330
3FF9
100
AcDbEntity
  8
寸法線
 62
     0
 48
10.0
100
AcDbLine
 10
413.603818946768
 20
607.307763889852
 30
0.0
 11
472.981596365993
 21
607.307763889852
 31
0.0
  0
LINE
  5
3FFE
330
3FF9
100
AcDbEntity
  8
寸法線
 62
     0
 48
10.0
100
AcDbLine
 10
471.731596365993
 20
672.307763889852
 30
0.0
 11
471.731596365993
 21
613.307763889852
 31
0.0
  0
INSERT
  5
3FFF
330
3FF9
100
AcDbEntity
  8
寸法線
 62
     0
100
AcDbBlockReference
  2
_OPEN30
 10
471.731596365993
 20
678.307763889852
 30
0.0
 41
6.0
 42
6.0
 43
6.0
 50
90.0
  0
INSERT
  5
4000
330
3FF9
100
AcDbEntity
  8
寸法線
 62
     0
100
AcDbBlockReference
  2
_OPEN30
 10
471.731596365993
 20
607.307763889852
 30
0.0
 41
6.0
 42
6.0
 43
6.0
 50
270.0
  0
MTEXT
  5
4001
330
3FF9
100
AcDbEntity
  8
寸法線
 62
     0
 48
10.0
100
AcDbMText
 10
468.103471365993
 20
642.982736889852
 30
0.0
 40
6.0
 41
0.0
 71
     5
 72
     1
  1
\A1;φ72
 11
0.0
 21
1.0
 31
0.0
  0
POINT
  5
4002
330
3FF9
100
AcDbEntity
  8
DEFPOINTS
 62
     0
100
AcDbPoint
 10
412.978818946768
 20
678.307763889852
 30
0.0
  0
POINT
  5
4003
330
3FF9
100
AcDbEntity
  8
DEFPOINTS
 62
     0
100
AcDbPoint
 10
412.978818946768
 20
607.307763889852
 30
0.0
  0
POINT
  5
4004
330
3FF9
100
AcDbEntity
  8
DEFPOINTS
 62
     0
100
AcDbPoint
 10
471.731596365993
 20
607.307763889852
 30
0.0
  0
ENDBLK
  5
3FFB
330
3FF9
100
AcDbEntity
  8
0
100
AcDbBlockEnd
  0
BLOCK
  5
4007
330
4006
100
AcDbEntity
  8
0
100
AcDbBlockBegin
  2
*D36
 70
     1
 10
0.0
 20
0.0
 30
0.0
  3
*D36
  1
*D36
  0
LINE
  5
4009
330
4006
100
AcDbEntity
  8
寸法線
 62
     0
 48
10.0
100
AcDbLine
 10
177.477761446768
 20
593.19401287999
 30
0.0
 11
177.477761446768
 21
556.546683119883
 31
0.0
  0
LINE
  5
400A
330
4006
100
AcDbEntity
  8
寸法線
 62
     0
 48
10.0
100
AcDbLine
 10
370.778838446768
 20
631.632745889852
 30
0.0
 11
370.778838446768
 21
556.546683119883
 31
0.0
  0
LINE
  5
400B
330
4006
100
AcDbEntity
  8
寸法線
 62
     0
 48
10.0
100
AcDbLine
 10
183.477761446768
 20
557.796683119883
 30
0.0
 11
364.778838446768
 21
557.796683119883
 31
0.0
  0
INSERT
  5
400C
330
4006
100
AcDbEntity
  8
寸法線
 62
     0
100
AcDbBlockReference
  2
_OPEN30
 10
177.477761446768
 20
557.796683119883
 30
0.0
 41
6.0
 42
6.0
 43
6.0
 50
180.0
  0
INSERT
  5
400D
330
4006
100
AcDbEntity
  8
寸法線
 62
     0
100
AcDbBlockReference
  2
_OPEN30
 10
370.778838446768
 20
557.796683119883
 30
0.0
 41
6.0
 42
6.0
 43
6.0
  0
POINT
  5
400E
330
4006
100
AcDbEntity
  8
DEFPOINTS
 62
     0
100
AcDbPoint
 10
177.477761446768
 20
593.81901287999
 30
0.0
  0
POINT
  5
400F
330
4006
100
AcDbEntity
  8
DEFPOINTS
 62
     0
100
AcDbPoint
 10
370.778838446768
 20
632.257745889852
 30
0.0
  0
POINT
  5
4010
330
4006
100
AcDbEntity
  8
DEFPOINTS
 62
     0
100
AcDbPoint
 10
370.778838446768
 20
557.796683119883
 30
0.0
  0
ENDBLK
  5
4008
330
4006
100
AcDbEntity
  8
0
100
AcDbBlockEnd
  0
ENDSEC
  0
SECTION
  2
ENTITIES
  0
LINE
  5
3078
330
1A
100
AcDbEntity
  8
外形線
100
AcDbLine
 10
177.477761446768
 20
692.807611389852
 30
0.0
 11
212.477754946768
 21
692.807611389852
 31
0.0
  0
LINE
  5
3079
330
1A
100
AcDbEntity
  8
外形線
100
AcDbLine
 10
214.887627946768
 20
658.587763389852
 30
0.0
 11
212.477754946768
 21
692.807611389852
 31
0.0
  0
LINE
  5
307A
330
1A
100
AcDbEntity
  8
外形線
100
AcDbLine
 10
177.477761446768
 20
692.807611389852
 30
0.0
 11
177.477761446768
 21
612.807826389852
 31
0.0
  0
LINE
  5
307B
330
1A
100
AcDbEntity
  8
外形線
100
AcDbLine
 10
177.477761446768
 20
612.807826389852
 30
0.0
 11
212.477754946768
 21
612.807826389852
 31
0.0
  0
LINE
  5
307C
330
1A
100
AcDbEntity
  8
外形線
100
AcDbLine
 10
214.887627946768
 20
647.027765889852
 30
0.0
 11
212.477754946768
 21
612.807826389852
 31
0.0
  0
CIRCLE
  5
30B4
330
1A
100
AcDbEntity
  8
外形線
100
AcDbCircle
 10
200.976762946768
 20
652.807763889852
 30
0.0
 40
2.499
  0
LINE
  5
30B5
330
1A
100
AcDbEntity
  8
外形線
100
AcDbLine
 10
196.977761446768
 20
647.777765889852
 30
0.0
 11
196.977761446768
 21
657.837763389852
 31
0.0
  0
LINE
  5
30B6
330
1A
100
AcDbEntity
  8
外形線
100
AcDbLine
 10
198.177765946768
 20
658.587763389852
 30
0.0
 11
225.785452478429
 21
658.587763389852
 31
0.0
  0
LINE
  5
30B7
330
1A
100
AcDbEntity
  8
外形線
100
AcDbLine
 10
198.177765946768
 20
658.587763389852
 30
0.0
 11
196.977761446768
 21
657.837763389852
 31
0.0
  0
LINE
  5
30B8
330
1A
100
AcDbEntity
  8
細線
 62
     6
100
AcDbLine
 10
198.244325446768
 20
655.697717889852
 30
0.0
 11
225.71125258469
 21
655.697717889852
 31
0.0
  0
LINE
  5
30B9
330
1A
100
AcDbEntity
  8
外形線
100
AcDbLine
 10
198.177765946768
 20
647.027765889852
 30
0.0
 11
196.977761446768
 21
647.777765889852
 31
0.0
  0
LINE
  5
30BA
330
1A
100
AcDbEntity
  8
外形線
100
AcDbLine
 10
198.177765946768
 20
647.027765889852
 30
0.0
 11
225.777756946768
 21
647.027765889852
 31
0.0
  0
LINE
  5
30BB
330
1A
100
AcDbEntity
  8
細線
 62
     6
100
AcDbLine
 10
198.244325446768
 20
649.917719889852
 30
0.0
 11
225.717795524878
 21
649.917719889852
 31
0.0
  0
CIRCLE
  5
30BE
330
1A
100
AcDbEntity
  8
外形線
100
AcDbCircle
 10
219.477761446768
 20
652.807763889852
 30
0.0
 40
0.9999
  0
ARC
  5
30C8
330
1A
100
AcDbEntity
  8
細線
 62
     6
100
AcDbCircle
 10
200.908188946768
 20
652.807718889852
 30
0.0
 40
3.9304305
100
AcDbArc
 50
132.668434758324
 51
227.331604937362
  0
ARC
  5
30C9
330
1A
100
AcDbEntity
  8
細線
 62
     6
100
AcDbCircle
 10
200.148003946768
 20
658.269205389852
 30
0.0
 40
3.1994565
100
AcDbArc
 50
187.749961576341
 51
233.487520784031
  0
ARC
  5
30CA
330
1A
100
AcDbEntity
  8
細線
 62
     6
100
AcDbCircle
 10
200.148003946768
 20
647.346323889852
 30
0.0
 40
3.1994565
100
AcDbArc
 50
126.512518911656
 51
172.250078119342
  0
LINE
  5
30D3
330
1A
100
AcDbEntity
  8
外形線
100
AcDbLine
 10
226.977761446768
 20
657.842573079103
 30
0.0
 11
226.977761446768
 21
647.782575579103
 31
0.0
  0
LINE
  5
30D4
330
1A
100
AcDbEntity
  8
外形線
100
AcDbLine
 10
225.777756946768
 20
647.032575579103
 30
0.0
 11
226.977761446768
 21
647.782575579103
 31
0.0
  0
LINE
  5
30D5
330
1A
100
AcDbEntity
  8
外形線
100
AcDbLine
 10
225.785452478429
 20
658.587763389852
 30
0.0
 11
226.985456978429
 21
657.837763389852
 31
0.0
  0
ARC
  5
30D6
330
1A
100
AcDbEntity
  8
細線
 62
     6
100
AcDbCircle
 10
223.047333946768
 20
652.812620079103
 30
0.0
 40
3.9304305
100
AcDbArc
 50
312.668434758324
 51
47.331604937362
  0
ARC
  5
30D7
330
1A
100
AcDbEntity
  8
細線
 62
     6
100
AcDbCircle
 10
223.807518946768
 20
647.351133579103
 30
0.0
 40
3.1994565
100
AcDbArc
 50
7.749961576341
 51
53.487520784031
  0
ARC
  5
30D8
330
1A
100
AcDbEntity
  8
細線
 62
     6
100
AcDbCircle
 10
223.807518946768
 20
658.274015079103
 30
0.0
 40
3.1994565
100
AcDbArc
 50
306.512518911656
 51
352.250078119342
  0
LINE
  5
30DA
330
1A
100
AcDbEntity
  8
中心線
 48
10.0
100
AcDbLine
 10
200.976762946768
 20
655.697717889852
 30
0.0
 11
200.976762946768
 21
649.917719889852
 31
0.0
  0
LINE
  5
30DC
330
1A
100
AcDbEntity
  8
中心線
 48
10.0
100
AcDbLine
 10
219.477761446768
 20
654.871454889852
 30
0.0
 11
219.477761446768
 21
650.744072889852
 31
0.0
  0
LINE
  5
30DE
330
1A
100
AcDbEntity
  8
中心線
 48
10.0
100
AcDbLine
 10
169.781993027701
 20
652.807763889852
 30
0.0
 11
386.695299412317
 21
652.807763889852
 31
0.0
  0
LINE
  5
31E4
330
1A
100
AcDbEntity
  8
寸法線
100
AcDbLine
 10
437.685394100112
 20
471.673574605703
 30
0.0
 11
437.685394100112
 21
524.173484605703
 31
0.0
  0
LINE
  5
31E5
330
1A
100
AcDbEntity
  8
寸法線
100
AcDbLine
 10
525.55399158541
 20
513.673484605703
 30
0.0
 11
374.05390008541
 21
513.673484605703
 31
0.0
  0
LINE
  5
31E6
330
1A
100
AcDbEntity
  8
寸法線
100
AcDbLine
 10
525.55399158541
 20
503.173484605703
 30
0.0
 11
374.05390008541
 21
503.173484605703
 31
0.0
  0
LINE
  5
31E7
330
1A
100
AcDbEntity
  8
寸法線
100
AcDbLine
 10
525.55399158541
 20
492.673484605703
 30
0.0
 11
374.05390008541
 21
492.673484605703
 31
0.0
  0
LINE
  5
31E8
330
1A
100
AcDbEntity
  8
寸法線
100
AcDbLine
 10
374.05390008541
 20
524.173484605703
 30
0.0
 11
525.55399158541
 21
524.173484605703
 31
0.0
  0
LINE
  5
31E9
330
1A
100
AcDbEntity
  8
寸法線
100
AcDbLine
 10
402.618612371682
 20
471.673574605703
 30
0.0
 11
402.618612371682
 21
524.173484605703
 31
0.0
  0
ARC
  5
31EA
330
1A
100
AcDbEntity
  8
寸法線
100
AcDbCircle
 10
422.49513858541
 20
517.013419105704
 30
0.0
 40
1.3204605
100
AcDbArc
 50
252.904086432758
 51
337.411923467787
  0
ARC
  5
31EB
330
1A
100
AcDbEntity
  8
寸法線
100
AcDbCircle
 10
422.49513858541
 20
517.013374105703
 30
0.0
 40
1.3204425
100
AcDbArc
 50
252.903398883406
 51
337.412611017141
  0
ARC
  5
31EC
330
1A
100
AcDbEntity
  8
寸法線
100
AcDbCircle
 10
419.08562208541
 20
519.504295105703
 30
0.0
 40
3.7652925
100
AcDbArc
 50
274.628927150736
 51
33.374029121142
  0
ARC
  5
31ED
330
1A
100
AcDbEntity
  8
寸法線
100
AcDbCircle
 10
419.09184858541
 20
519.504982105703
 30
0.0
 40
3.7598535
100
AcDbArc
 50
273.280470979895
 51
33.415912335968
  0
ARC
  5
31EE
330
1A
100
AcDbEntity
  8
寸法線
100
AcDbCircle
 10
423.85483308541
 20
518.751319105703
 30
0.0
 40
3.472035
100
AcDbArc
 50
123.4690243997
 51
239.774013712205
  0
ARC
  5
31EF
330
1A
100
AcDbEntity
  8
寸法線
100
AcDbCircle
 10
423.85483308541
 20
518.751319105703
 30
0.0
 40
3.4720395
100
AcDbArc
 50
123.4690243997
 51
239.773899120646
  0
ARC
  5
31F0
330
1A
100
AcDbEntity
  8
寸法線
100
AcDbCircle
 10
422.05248108541
 20
521.480140105703
 30
0.0
 40
0.2017125
100
AcDbArc
 50
28.23094836902
 51
123.88384584338
  0
LINE
  5
31F1
330
1A
100
AcDbEntity
  8
寸法線
100
AcDbLine
 10
525.55399158541
 20
482.173529605703
 30
0.0
 11
374.05390008541
 21
482.173529605703
 31
0.0
  0
LINE
  5
31F2
330
1A
100
AcDbEntity
  8
寸法線
100
AcDbLine
 10
374.05392258541
 20
471.673574605703
 30
0.0
 11
374.05392258541
 21
524.173484605703
 31
0.0
  0
TEXT
  5
31F3
330
1A
100
AcDbEntity
  8
寸法線
100
AcDbText
 10
377.563762342816
 20
515.735663605704
 30
0.0
 40
6.75
  1
御仕様
 41
0.9
  7
EXCADSTD
 72
     5
 11
397.813762342816
 21
515.735663605704
 31
0.0
100
AcDbText
  0
LINE
  5
31F4
330
1A
100
AcDbEntity
  8
寸法線
100
AcDbLine
 10
525.55399158541
 20
471.673574605703
 30
0.0
 11
525.55399158541
 21
524.173484605703
 31
0.0
  0
LINE
  5
31F5
330
1A
100
AcDbEntity
  8
寸法線
100
AcDbLine
 10
495.55399158541
 20
471.673574605703
 30
0.0
 11
495.55399158541
 21
524.173484605703
 31
0.0
  0
TEXT
  5
31F6
330
1A
100
AcDbEntity
  8
寸法線
100
AcDbText
 10
503.80966758541
 20
515.585608105703
 30
0.0
 40
6.75
  1
台数
 41
0.9375
  7
EXCADSTD
 72
     5
 11
517.30966758541
 21
515.585608105703
 31
0.0
100
AcDbText
  0
TEXT
  5
31F7
330
1A
100
AcDbEntity
  8
寸法線
100
AcDbText
 10
459.033298711891
 20
515.735618605703
 30
0.0
 40
6.75
  1
記事
 41
0.9375
  7
EXCADSTD
 72
     5
 11
472.533298711891
 21
515.735618605703
 31
0.0
100
AcDbText
  0
TEXT
  5
31F8
330
1A
100
AcDbEntity
  8
寸法線
100
AcDbText
 10
435.418480184616
 20
462.59308874812
 30
0.0
 40
6.0
  1
○印が今回の貴社の御仕様です。
 41
0.875486381323
  7
EXCADSTD
 72
     5
 11
525.418480184616
 21
462.59308874812
 31
0.0
100
AcDbText
  0
DIMENSION
  5
347D
330
1A
100
AcDbEntity
  8
寸法線
 48
10.0
100
AcDbDimension
  2
*D9
 10
229.102251261449
 20
649.807763889852
 30
0.0
 11
229.102251261449
 21
674.911362280445
 31
0.0
 70
   160
  1
φ<>
  3
ISO-25
100
AcDbAlignedDimension
 13
229.102251261449
 23
655.807808889852
 33
0.0
 14
227.447112519863
 24
649.807763889852
 34
0.0
 50
90.0
100
AcDbRotatedDimension
1001
ACAD
1000
DSTYLE
1002
{
1070
     5
1000
OPEN30
1070
    41
1040
6.0
1070
    47
1040
0.1
1070
    48
1040
0.1
1070
    73
1070
     0
1070
   140
1040
6.0
1070
   271
1070
     1
1070
   272
1070
     1
1070
   341
1005
2AF4
1002
}
  0
DIMENSION
  5
34B8
330
1A
100
AcDbEntity
  8
寸法線
 48
10.0
100
AcDbDimension
  2
*D10
 10
158.106305274762
 20
612.807826389852
 30
0.0
 11
154.481305274762
 21
652.807718889852
 31
0.0
 70
    32
  3
ISO-25
100
AcDbAlignedDimension
 13
177.477761446768
 23
692.807611389852
 33
0.0
 14
177.477761446768
 24
612.807826389852
 34
0.0
 50
90.0
100
AcDbRotatedDimension
1001
ACAD
1000
DSTYLE
1002
{
1070
     5
1000
OPEN30
1070
    41
1040
6.0
1070
    47
1040
0.1
1070
    48
1040
0.1
1070
    73
1070
     0
1070
   140
1040
6.0
1070
   271
1070
     1
1070
   272
1070
     1
1070
   341
1005
2AF4
1002
}
  0
DIMENSION
  5
34C5
330
1A
100
AcDbEntity
  8
寸法線
 48
10.0
100
AcDbDimension
  2
*D11
 10
212.477754946768
 20
593.81901287999
 30
0.0
 11
194.977758196768
 21
597.44401287999
 31
0.0
 70
    32
  3
ISO-25
100
AcDbAlignedDimension
 13
177.477761446768
 23
612.807826389852
 33
0.0
 14
212.477754946768
 24
612.807826389852
 34
0.0
100
AcDbRotatedDimension
1001
ACAD
1000
DSTYLE
1002
{
1070
     5
1000
OPEN30
1070
    41
1040
6.0
1070
    47
1040
0.1
1070
    48
1040
0.1
1070
    73
1070
     0
1070
   140
1040
6.0
1070
   271
1070
     1
1070
   272
1070
     1
1070
   341
1005
2AF4
1002
}
  0
ARC
  5
35A4
330
1A
100
AcDbEntity
  8
寸法線
100
AcDbCircle
 10
274.210418375162
 20
564.906402290995
 30
0.0
 40
0.2017125
100
AcDbArc
 50
28.23094836902
 51
123.883845843379
  0
ARC
  5
35A5
330
1A
100
AcDbEntity
  8
寸法線
100
AcDbCircle
 10
276.012770375162
 20
562.177581290995
 30
0.0
 40
3.4720395
100
AcDbArc
 50
123.469024399698
 51
239.773899120646
  0
ARC
  5
35A6
330
1A
100
AcDbEntity
  8
寸法線
100
AcDbCircle
 10
276.012770375162
 20
562.177581290995
 30
0.0
 40
3.472035
100
AcDbArc
 50
123.469024399698
 51
239.774013712205
  0
ARC
  5
35A7
330
1A
100
AcDbEntity
  8
寸法線
100
AcDbCircle
 10
271.249785875162
 20
562.931244290995
 30
0.0
 40
3.7598535
100
AcDbArc
 50
273.280470979895
 51
33.415912335968
  0
ARC
  5
35A9
330
1A
100
AcDbEntity
  8
寸法線
100
AcDbCircle
 10
274.653075875162
 20
560.439636290995
 30
0.0
 40
1.3204425
100
AcDbArc
 50
252.903398883406
 51
337.412611017141
  0
ARC
  5
35AA
330
1A
100
AcDbEntity
  8
寸法線
100
AcDbCircle
 10
274.653075875162
 20
560.439681290996
 30
0.0
 40
1.3204605
100
AcDbArc
 50
252.904086432761
 51
337.411923467787
  0
LEADER
  5
35B1
330
1A
100
AcDbEntity
  8
寸法線
 48
10.0
100
AcDbLeader
  3
ISO-25
 76
     3
 10
220.069612949599
 20
651.787642646931
 30
0.0
 10
233.542433521299
 20
612.283473065622
 30
0.0
 10
244.449858157086
 20
612.283473065622
 30
0.0
213
-10.46023920815637
223
0.0
233
0.0
1001
ACAD
1000
DSTYLE
1002
{
1070
     5
1000
OPEN30
1070
   147
1040
0.625
1070
    77
1070
     0
1070
    41
1040
6.0
1070
    47
1040
0.1
1070
    48
1040
0.1
1070
    73
1070
     0
1070
   140
1040
5.0
1070
   271
1070
     1
1070
   272
1070
     1
1070
   341
1005
2AF4
1070
   342
1005
2AF4
1002
}
  0
MTEXT
  5
35B2
330
1A
100
AcDbEntity
  8
寸法線
 48
10.0
100
AcDbMText
 10
234.693129687655
 20
619.746654809725
 30
0.0
 40
6.0
 41
36.238453802295
 71
     1
 72
     5
  1
φ2割ピン
  0
LINE
  5
35B4
330
1A
100
AcDbEntity
  8
下書線
 48
10.0
100
AcDbLine
 10
293.145146328647
 20
714.115913940048
 30
0.0
 11
461.084034629294
 21
714.115913940048
 31
0.0
  0
LINE
  5
35B5
330
1A
100
AcDbEntity
  8
下書線
 48
10.0
100
AcDbLine
 10
106.330675462346
 20
737.58430932812
 30
0.0
 11
556.400092590399
 21
737.58430932812
 31
0.0
  0
LEADER
  5
35B6
330
1A
100
AcDbEntity
  8
寸法線
 48
10.0
100
AcDbLeader
  3
ISO-25
 76
     3
 10
189.836575528904
 20
692.788303511269
 30
0.0
 10
179.11951104931
 20
737.58430932812
 30
0.0
 10
170.964941594699
 20
737.58430932812
 30
0.0
1001
ACAD
1000
DSTYLE
1002
{
1070
     5
1000
OPEN30
1070
   147
1040
0.625
1070
    77
1070
     0
1070
    41
1040
6.0
1070
    47
1040
0.1
1070
    48
1040
0.1
1070
    73
1070
     0
1070
   140
1040
5.0
1070
   271
1070
     1
1070
   272
1070
     1
1070
   341
1005
2AF4
1070
   342
1005
2AF4
1002
}
  0
MTEXT
  5
35B7
330
1A
100
AcDbEntity
  8
寸法線
 48
10.0
100
AcDbMText
 10
154.094222433954
 20
743.718369986026
 30
0.0
 40
6.0
 41
21.514934650843
 71
     1
 72
     5
  1
SUS304
1001
ACAD
1000
MTEXTBEGIN
1070
    44
1040
0.8
1000
MTEXTEND
  0
LEADER
  5
35B9
330
1A
100
AcDbEntity
  8
寸法線
 48
10.0
100
AcDbLeader
  3
ISO-25
 76
     3
 10
232.997675814373
 20
655.78819313721
 30
0.0
 10
234.921931201144
 20
737.58430932812
 30
0.0
 10
227.086334909153
 20
737.58430932812
 30
0.0
1001
ACAD
1000
DSTYLE
1002
{
1070
     5
1000
OPEN30
1070
   147
1040
0.625
1070
    77
1070
     0
1070
    41
1040
6.0
1070
    47
1040
0.1
1070
    48
1040
0.1
1070
    73
1070
     0
1070
   140
1040
5.0
1070
   271
1070
     1
1070
   272
1070
     1
1070
   341
1005
2AF4
1070
   342
1005
2AF4
1002
}
  0
MTEXT
  5
35C0
330
1A
100
AcDbEntity
  8
寸法線
 48
10.0
100
AcDbMText
 10
209.866896951648
 20
744.126879693748
 30
0.0
 40
6.0
 41
21.514934650843
 71
     1
 72
     5
  1
SUS304
1001
ACAD
1000
MTEXTBEGIN
1070
    44
1040
0.8
1000
MTEXTEND
  0
MTEXT
  5
35C2
330
1A
100
AcDbEntity
  8
寸法線
 48
10.0
100
AcDbMText
 10
331.113306839702
 20
752.146246116024
 30
0.0
 40
6.0
 41
21.958515023009
 71
     1
 72
     5
  1
座金\PSS400
1001
ACAD
1000
MTEXTBEGIN
1070
    44
1040
0.8
1000
MTEXTEND
  0
LEADER
  5
35C4
330
1A
100
AcDbEntity
  8
寸法線
 48
10.0
100
AcDbLeader
  3
ISO-25
 76
     3
 10
363.798496104648
 20
675.362445139283
 30
0.0
 10
352.838699163328
 20
737.58430932812
 30
0.0
 10
345.619192351713
 20
737.58430932812
 30
0.0
1001
ACAD
1000
DSTYLE
1002
{
1070
     5
1000
OPEN30
1070
   147
1040
0.625
1070
    77
1070
     0
1070
    41
1040
6.0
1070
    47
1040
0.1
1070
    48
1040
0.1
1070
    73
1070
     0
1070
   140
1040
5.0
1070
   271
1070
     1
1070
   272
1070
     1
1070
   341
1005
2AF4
1070
   342
1005
2AF4
1002
}
  0
MTEXT
  5
35C5
330
1A
100
AcDbEntity
  8
寸法線
 48
10.0
100
AcDbMText
 10
327.472272823484
 20
728.99867599933
 30
0.0
 40
6.0
 41
21.829737978125
 71
     1
 72
     5
  1
ナット\PSS400
1001
ACAD
1000
MTEXTBEGIN
1070
    44
1040
0.8
1000
MTEXTEND
  0
LEADER
  5
35C7
330
1A
100
AcDbEntity
  8
寸法線
 48
10.0
100
AcDbLeader
  3
ISO-25
 76
     3
 10
360.260922010853
 20
673.708085547986
 30
0.0
 10
349.813695014089
 20
714.115913940048
 30
0.0
 10
341.319326023968
 20
714.115913940048
 30
0.0
1001
ACAD
1000
DSTYLE
1002
{
1070
     5
1000
OPEN30
1070
   147
1040
0.625
1070
    77
1070
     0
1070
    41
1040
6.0
1070
    47
1040
0.1
1070
    48
1040
0.1
1070
    73
1070
     0
1070
   140
1040
5.0
1070
   271
1070
     1
1070
   272
1070
     1
1070
   341
1005
2AF4
1070
   342
1005
2AF4
1002
}
  0
LEADER
  5
35C8
330
1A
100
AcDbEntity
  8
寸法線
 48
10.0
100
AcDbLeader
  3
ISO-25
 76
     3
 10
367.142836771823
 20
698.756063326831
 30
0.0
 10
377.341473085049
 20
737.58430932812
 30
0.0
 10
388.85673490635
 20
737.58430932812
 30
0.0
1001
ACAD
1000
DSTYLE
1002
{
1070
     5
1000
OPEN30
1070
   147
1040
0.625
1070
    77
1070
     0
1070
    41
1040
6.0
1070
    47
1040
0.1
1070
    48
1040
0.1
1070
    73
1070
     0
1070
   140
1040
5.0
1070
   271
1070
     1
1070
   272
1070
     1
1070
   341
1005
2AF4
1070
   342
1005
2AF4
1002
}
  0
MTEXT
  5
35C9
330
1A
100
AcDbEntity
  8
寸法線
 48
10.0
100
AcDbMText
 10
378.096257901108
 20
744.904928089283
 30
0.0
 40
6.0
 41
34.631241251889
 71
     1
 72
     5
  1
貴取付板
1001
ACAD
1000
MTEXTBEGIN
1070
    44
1040
0.8
1000
MTEXTEND
  0
LEADER
  5
35CB
330
1A
100
AcDbEntity
  8
寸法線
 48
10.0
100
AcDbLeader
  3
ISO-25
 76
     3
 10
369.887509645043
 20
671.831202007697
 30
0.0
 10
375.360139651433
 20
714.115913940048
 30
0.0
 10
382.384368032159
 20
714.115913940048
 30
0.0
1001
ACAD
1000
DSTYLE
1002
{
1070
     5
1000
OPEN30
1070
   147
1040
0.625
1070
    77
1070
     0
1070
    41
1040
6.0
1070
    47
1040
0.1
1070
    48
1040
0.1
1070
    73
1070
     0
1070
   140
1040
5.0
1070
   271
1070
     1
1070
   272
1070
     1
1070
   341
1005
2AF4
1070
   342
1005
2AF4
1002
}
  0
MTEXT
  5
35CC
102
{ACAD_XDICTIONARY
360
4016
102
}
330
1A
100
AcDbEntity
  8
寸法線
 48
10.0
100
AcDbMText
 10
376.060535867346
 20
727.875817577415
 30
0.0
 40
6.0
 41
45.159776067253
 71
     1
 72
     5
  1
ゴム\Pパッキン
1001
ACADANNOTATIVE
1000
AnnotativeData
1002
{
1070
     1
1070
     0
1002
}
1001
ACAD
1000
MTEXTBEGIN
1070
    44
1040
0.8
1000
MTEXTEND
  0
LEADER
  5
35D0
330
1A
100
AcDbEntity
  8
寸法線
 48
10.0
100
AcDbLeader
  3
ISO-25
 76
     3
 10
404.303512776237
 20
678.372863278255
 30
0.0
 10
411.790568754463
 20
714.115913940048
 30
0.0
 10
420.08483602306
 20
714.115913940048
 30
0.0
1001
ACAD
1000
DSTYLE
1002
{
1070
     5
1000
OPEN30
1070
   147
1040
0.625
1070
    77
1070
     0
1070
    41
1040
6.0
1070
    47
1040
0.1
1070
    48
1040
0.1
1070
    73
1070
     0
1070
   140
1040
5.0
1070
   271
1070
     1
1070
   272
1070
     1
1070
   341
1005
2AF4
1070
   342
1005
2AF4
1002
}
  0
MTEXT
  5
35D1
330
1A
100
AcDbEntity
  8
寸法線
 48
10.0
100
AcDbMText
 10
413.697172890374
 20
720.087842387144
 30
0.0
 40
6.0
 41
32.696478547585
 71
     1
 72
     5
  1
Oリング
1001
ACAD
1000
MTEXTBEGIN
1070
    44
1040
0.8
1000
MTEXTEND
  0
LEADER
  5
35D5
330
1A
100
AcDbEntity
  8
寸法線
 48
10.0
100
AcDbLeader
  3
ISO-25
 76
     3
 10
395.557094306112
 20
676.189722094815
 30
0.0
 10
413.987382918433
 20
737.58430932812
 30
0.0
 10
426.732523256556
 20
737.58430932812
 30
0.0
1001
ACAD
1000
DSTYLE
1002
{
1070
     5
1000
OPEN30
1070
   147
1040
0.625
1070
    77
1070
     0
1070
    41
1040
6.0
1070
    47
1040
0.1
1070
    48
1040
0.1
1070
    73
1070
     0
1070
   140
1040
5.0
1070
   271
1070
     1
1070
   272
1070
     1
1070
   341
1005
2AF4
1070
   342
1005
2AF4
1002
}
  0
MTEXT
  5
35D6
330
1A
100
AcDbEntity
  8
寸法線
 48
10.0
100
AcDbMText
 10
413.500076053309
 20
744.379458395809
 30
0.0
 40
6.0
 41
48.434976305774
 71
     1
 72
     5
  1
亜鉛ダイカスト
1001
ACAD
1000
MTEXTBEGIN
1070
    44
1040
0.8
1000
MTEXTEND
  0
LEADER
  5
35D8
330
1A
100
AcDbEntity
  8
寸法線
 48
10.0
100
AcDbLeader
  3
ISO-25
 76
     3
 10
446.561489654371
 20
675.567562326945
 30
0.0
 10
468.48800161656
 20
737.58430932812
 30
0.0
 10
481.740772679165
 20
737.58430932812
 30
0.0
1001
ACAD
1000
DSTYLE
1002
{
1070
     5
1000
OPEN30
1070
   147
1040
0.625
1070
    77
1070
     0
1070
    41
1040
6.0
1070
    47
1040
0.1
1070
    48
1040
0.1
1070
    73
1070
     0
1070
   140
1040
5.0
1070
   271
1070
     1
1070
   272
1070
     1
1070
   341
1005
2AF4
1070
   342
1005
2AF4
1002
}
  0
MTEXT
  5
35DF
330
1A
100
AcDbEntity
  8
寸法線
 48
10.0
100
AcDbMText
 10
468.811094167392
 20
744.444358204938
 30
0.0
 40
6.0
 41
49.812190111375
 71
     1
 72
     5
  1
亜鉛ダイカスト
  0
LINE
  5
3728
330
1A
100
AcDbEntity
  8
寸法線
100
AcDbLine
 10
525.55399158541
 20
471.673574605703
 30
0.0
 11
374.05390008541
 21
471.673574605703
 31
0.0
  0
ARC
  5
3788
330
1A
100
AcDbEntity
  8
細線
100
AcDbCircle
 10
287.351510735414
 20
651.307808889852
 30
0.0
 40
3.0
100
AcDbArc
 50
330.0
 51
30.0
  0
ARC
  5
3789
330
1A
100
AcDbEntity
  8
細線
100
AcDbCircle
 10
292.547663158121
 20
651.307808889852
 30
0.0
 40
3.0
100
AcDbArc
 50
150.0
 51
210.0
  0
ARC
  5
378A
330
1A
100
AcDbEntity
  8
細線
100
AcDbCircle
 10
292.547663158121
 20
654.307808889852
 30
0.0
 40
3.0
100
AcDbArc
 50
150.0
 51
210.0
  0
ARC
  5
378B
330
1A
100
AcDbEntity
  8
細線
100
AcDbCircle
 10
290.541375138506
 20
654.307809789852
 30
0.0
 40
3.0
100
AcDbArc
 50
150.000019847846
 51
210.000019847843
  0
ARC
  5
378C
330
1A
100
AcDbEntity
  8
細線
100
AcDbCircle
 10
285.345222715799
 20
654.307807989852
 30
0.0
 40
3.0
100
AcDbArc
 50
330.000019847846
 51
30.000019847843
  0
ARC
  5
378D
330
1A
100
AcDbEntity
  8
細線
100
AcDbCircle
 10
285.345223755029
 20
651.307807989852
 30
0.0
 40
3.0
100
AcDbArc
 50
330.000019847846
 51
30.000019847843
  0
LINE
  5
378E
330
1A
100
AcDbEntity
  8
外形線
100
AcDbLine
 10
289.949586946768
 20
649.807808889852
 30
0.0
 11
294.273942946768
 21
649.807808889852
 31
0.0
  0
LINE
  5
378F
330
1A
100
AcDbEntity
  8
外形線
100
AcDbLine
 10
289.949586946768
 20
655.807808889852
 30
0.0
 11
292.006020946768
 21
655.807808889852
 31
0.0
  0
ARC
  5
3790
330
1A
100
AcDbEntity
  8
細線
100
AcDbCircle
 10
301.859796946768
 20
647.902871889852
 30
0.0
 40
10.08543
100
AcDbArc
 50
169.112389345873
 51
210.34311983284
  0
ARC
  5
3791
330
1A
100
AcDbEntity
  8
細線
100
AcDbCircle
 10
284.323647946768
 20
647.807839389852
 30
0.0
 40
10.1493
100
AcDbArc
 50
330.485780457128
 51
29.514241638463
  0
ARC
  5
3792
330
1A
100
AcDbEntity
  8
細線
100
AcDbCircle
 10
301.712190946768
 20
657.807778389852
 30
0.0
 40
9.910074000000002
100
AcDbArc
 50
149.699719810145
 51
210.300262589763
  0
ARC
  5
3793
330
1A
100
AcDbEntity
  8
細線
100
AcDbCircle
 10
276.563043946768
 20
657.882485889852
 30
0.0
 40
9.674058
100
AcDbArc
 50
347.616416390627
 51
30.605153280392
  0
ARC
  5
3794
330
1A
100
AcDbEntity
  8
細線
100
AcDbCircle
 10
276.300606946768
 20
647.807839389852
 30
0.0
 40
9.938206500000001
100
AcDbArc
 50
329.794449581523
 51
30.205515218291
  0
ARC
  5
3795
330
1A
100
AcDbEntity
  8
細線
100
AcDbCircle
 10
293.626824946768
 20
657.807778389852
 30
0.0
 40
10.0668165
100
AcDbArc
 50
150.219679009226
 51
209.780303390682
  0
LINE
  5
3796
330
1A
100
AcDbEntity
  8
外形線
100
AcDbLine
 10
287.943299446768
 20
649.807808889852
 30
0.0
 11
286.035501946768
 21
649.807808889852
 31
0.0
  0
LINE
  5
3797
330
1A
100
AcDbEntity
  8
外形線
100
AcDbLine
 10
287.943299446768
 20
655.807808889852
 30
0.0
 11
283.760667946768
 21
655.807808889852
 31
0.0
  0
LINE
  5
3798
330
1A
100
AcDbEntity
  8
外形線
100
AcDbLine
 10
284.889467446768
 20
642.807871389852
 30
0.0
 11
235.377770446768
 21
642.807871389852
 31
0.0
  0
LINE
  5
3799
330
1A
100
AcDbEntity
  8
外形線
100
AcDbLine
 10
293.155901446768
 20
642.807871389852
 30
0.0
 11
345.778838446768
 21
642.807871389852
 31
0.0
  0
LINE
  5
379A
330
1A
100
AcDbEntity
  8
外形線
100
AcDbLine
 10
284.889467446768
 20
662.807656389852
 30
0.0
 11
235.377770446768
 21
662.807656389852
 31
0.0
  0
LINE
  5
379B
330
1A
100
AcDbEntity
  8
外形線
100
AcDbLine
 10
293.155901446768
 20
662.807656389852
 30
0.0
 11
345.778838446768
 21
662.807656389852
 31
0.0
  0
LINE
  5
379C
330
1A
100
AcDbEntity
  8
外形線
100
AcDbLine
 10
235.377770446768
 20
649.807808889852
 30
0.0
 11
226.977761446768
 21
649.807808889852
 31
0.0
  0
LINE
  5
379F
330
1A
100
AcDbEntity
  8
外形線
100
AcDbLine
 10
235.377770446768
 20
655.807808889852
 30
0.0
 11
226.977761446768
 21
655.807808889852
 31
0.0
  0
LINE
  5
37A1
330
1A
100
AcDbEntity
  8
外形線
100
AcDbLine
 10
235.377770446768
 20
662.807656389852
 30
0.0
 11
235.377770446768
 21
642.807871389852
 31
0.0
  0
LEADER
  5
3822
330
1A
100
AcDbEntity
  8
寸法線
 48
10.0
100
AcDbLeader
  3
ISO-25
 76
     3
 10
298.358091342411
 20
662.807656389852
 30
0.0
 10
283.007359747445
 20
737.58430932812
 30
0.0
 10
274.934246682541
 20
737.58430932812
 30
0.0
1001
ACAD
1000
DSTYLE
1002
{
1070
     5
1000
OPEN30
1070
   147
1040
0.625
1070
    77
1070
     0
1070
    41
1040
6.0
1070
    47
1040
0.1
1070
    48
1040
0.1
1070
    73
1070
     0
1070
   140
1040
5.0
1070
   271
1070
     1
1070
   272
1070
     1
1070
   341
1005
2AF4
1070
   342
1005
2AF4
1002
}
  0
MTEXT
  5
3823
330
1A
100
AcDbEntity
  8
寸法線
 48
10.0
100
AcDbMText
 10
262.91191162841
 20
744.107071283717
 30
0.0
 40
6.0
 41
20.026651618752
 71
     1
 72
     5
  1
アルミ
1001
ACAD
1000
MTEXTBEGIN
1070
    44
1040
0.8
1000
MTEXTEND
  0
MTEXT
  5
3A08
330
1A
100
AcDbEntity
  8
寸法線
 48
10.0
100
AcDbMText
 10
415.572346537667
 20
511.193792242088
 30
0.0
 40
6.0
 41
22.6735963824
 71
     1
 72
     5
  1
150\P200\P250\P300
1001
ACAD
1000
MTEXTBEGIN
1070
    44
1040
1.05
1000
MTEXTEND
  0
DIMENSION
  5
3A14
330
1A
100
AcDbEntity
  8
寸法線
 48
10.0
100
AcDbDimension
  2
*D16
 10
318.776867416079
 20
642.807871389852
 30
0.0
 11
318.776867416079
 21
676.185018594576
 31
0.0
 70
   160
  1
φ<>
  3
ISO-25
100
AcDbAlignedDimension
 13
314.980337848777
 23
662.807656389852
 33
0.0
 14
316.045264109671
 24
642.807871389852
 34
0.0
 50
90.0
100
AcDbRotatedDimension
1001
ACAD
1000
DSTYLE
1002
{
1070
     5
1000
OPEN30
1070
    41
1040
6.0
1070
    47
1040
0.1
1070
    48
1040
0.1
1070
    73
1070
     0
1070
   140
1040
6.0
1070
   271
1070
     1
1070
   272
1070
     1
1070
   341
1005
2AF4
1002
}
  0
ARC
  5
3E1D
330
1A
100
AcDbEntity
  8
外形線
 48
10.0
100
AcDbCircle
 10
49.036833472029
 20
642.896299773085
 30
0.0
 40
36.0
100
AcDbArc
 50
91.432543737567
 51
88.567456262433
  0
ARC
  5
3E1E
330
1A
100
AcDbEntity
  8
細線
 48
10.0
100
AcDbCircle
 10
49.036833472029
 20
642.896299773085
 30
0.0
 40
34.5
100
AcDbArc
 50
91.494842089047
 51
88.505157910953
  0
LINE
  5
3E1F
330
1A
100
AcDbEntity
  8
中心線
 48
10.0
100
AcDbLine
 10
64.668790459558
 20
616.052649341506
 30
0.0
 11
93.232267972029
 21
566.579497773085
 31
0.0
  0
LINE
  5
3E20
330
1A
100
AcDbEntity
  8
外形線
100
AcDbLine
 10
56.229293593628
 20
603.670321419209
 30
0.0
 11
79.611976093627
 21
617.170321419209
 31
0.0
  0
LINE
  5
3E21
330
1A
100
AcDbEntity
  8
外形線
100
AcDbLine
 10
56.829311665466
 20
602.631065058707
 30
0.0
 11
80.211980176133
 21
616.131104544259
 31
0.0
  0
LINE
  5
3E22
330
1A
100
AcDbEntity
  8
外形線
100
AcDbLine
 10
90.055925173115
 20
596.128863418937
 30
0.0
 11
69.229746262907
 21
584.104863418937
 31
0.0
  0
LINE
  5
3E23
330
1A
100
AcDbEntity
  8
外形線
100
AcDbLine
 10
60.612546262907
 20
599.030291637919
 30
0.0
 11
81.438725173114
 21
611.054291637919
 31
0.0
  0
LINE
  5
3E24
330
1A
100
AcDbEntity
  8
外形線
100
AcDbLine
 10
83.943725173114
 20
606.715504364959
 30
0.0
 11
63.117546262907
 21
594.691504364959
 31
0.0
  0
ARC
  5
3E25
330
1A
100
AcDbEntity
  8
外形線
100
AcDbCircle
 10
73.906291190382
 20
584.722250000671
 30
0.0
 40
4.007999999999999
100
AcDbArc
 50
210.000000000002
 51
300.000000000002
  0
LINE
  5
3E26
330
1A
100
AcDbEntity
  8
外形線
100
AcDbLine
 10
73.530635718011
 20
600.703504364959
 30
0.0
 11
78.540635718011
 21
592.025929819039
 31
0.0
  0
ARC
  5
3E27
330
1A
100
AcDbEntity
  8
外形線
100
AcDbCircle
 10
69.786100081368
 20
595.165230338377
 30
0.0
 40
9.30038181818205
100
AcDbArc
 50
259.727393143495
 51
340.272606856496
  0
LINE
  5
3E28
330
1A
100
AcDbEntity
  8
外形線
100
AcDbLine
 10
56.829296593628
 20
602.631082419209
 30
0.0
 11
54.165728593628
 21
607.244539419209
 31
0.0
  0
LINE
  5
3E29
330
1A
100
AcDbEntity
  8
外形線
100
AcDbLine
 10
69.533461372014
 20
584.280213418937
 30
0.0
 11
70.435261372015
 21
582.718250000671
 31
0.0
  0
LINE
  5
3E2A
330
1A
100
AcDbEntity
  8
細線
100
AcDbLine
 10
65.612348944859
 20
596.131879364959
 30
0.0
 11
63.107348944859
 21
600.470666637919
 31
0.0
  0
LINE
  5
3E2B
330
1A
100
AcDbEntity
  8
外形線
100
AcDbLine
 10
61.933706987523
 20
599.793064137919
 30
0.0
 11
64.438706987524
 21
595.454276864959
 31
0.0
  0
LINE
  5
3E2C
330
1A
100
AcDbEntity
  8
外形線
100
AcDbLine
 10
58.107546262907
 20
603.369078910879
 30
0.0
 11
60.612546262907
 21
599.030291637919
 31
0.0
  0
LINE
  5
3E2D
330
1A
100
AcDbEntity
  8
外形線
100
AcDbLine
 10
63.117546262907
 20
594.691504364959
 30
0.0
 11
69.229746262907
 21
584.104863418937
 31
0.0
  0
LINE
  5
3E2E
330
1A
100
AcDbEntity
  8
外形線
100
AcDbLine
 10
68.520635718011
 20
609.381078910879
 30
0.0
 11
71.025635718011
 21
605.042291637919
 31
0.0
  0
LINE
  5
3E2F
330
1A
100
AcDbEntity
  8
外形線
100
AcDbLine
 10
86.445810502331
 20
587.333905093109
 30
0.0
 11
94.542799972029
 21
573.309538773085
 31
0.0
  0
LINE
  5
3E30
330
1A
100
AcDbEntity
  8
外形線
100
AcDbLine
 10
78.651583664366
 20
582.833884052294
 30
0.0
 11
86.748606022317
 21
568.809536720405
 31
0.0
  0
ARC
  5
3E31
330
1A
100
AcDbEntity
  8
外形線
100
AcDbCircle
 10
86.748559885385
 20
573.309539172122
 30
0.0
 40
4.5
100
AcDbArc
 50
269.999994133302
 51
329.999994133297
  0
ARC
  5
3E32
330
1A
100
AcDbEntity
  8
外形線
100
AcDbCircle
 10
90.645674432799
 20
575.559538773085
 30
0.0
 40
4.5
100
AcDbArc
 50
269.999994133302
 51
329.999994133297
  0
ARC
  5
3E33
330
1A
100
AcDbEntity
  8
外形線
100
AcDbCircle
 10
94.542788058675
 20
568.809538374047
 30
0.0
 40
4.5
100
AcDbArc
 50
89.999994133303
 51
149.999994133297
  0
ARC
  5
3E34
330
1A
100
AcDbEntity
  8
外形線
100
AcDbCircle
 10
49.170635593628
 20
642.896272419209
 30
0.0
 40
36.0
100
AcDbArc
 50
322.013338948965
 51
322.019297710041
  0
ARC
  5
3E35
330
1A
100
AcDbEntity
  8
外形線
100
AcDbCircle
 10
49.170635593628
 20
642.896272419209
 30
0.0
 40
36.0
100
AcDbArc
 50
322.019297710041
 51
322.02995472503
  0
LINE
  5
3E36
330
1A
100
AcDbEntity
  8
外形線
100
AcDbLine
 10
80.211979093628
 20
616.131106419209
 30
0.0
 11
77.546821093628
 21
620.747285919209
 31
0.0
  0
LINE
  5
3E37
330
1A
100
AcDbEntity
  8
外形線
100
AcDbLine
 10
89.752210064009
 20
595.953513418937
 30
0.0
 11
90.654010064009
 21
594.391550000671
 31
0.0
  0
ARC
  5
3E38
330
1A
100
AcDbEntity
  8
外形線
100
AcDbCircle
 10
87.182980245641
 20
592.387550000671
 30
0.0
 40
4.007999999999999
100
AcDbArc
 50
300.000000000002
 51
29.999999999998
  0
LINE
  5
3E39
330
1A
100
AcDbEntity
  8
外形線
100
AcDbLine
 10
75.910291190382
 20
581.251220182303
 30
0.0
 11
89.186980245641
 21
588.916520182303
 31
0.0
  0
LINE
  5
3E3A
330
1A
100
AcDbEntity
  8
外形線
100
AcDbLine
 10
80.117564448499
 20
610.291519137919
 30
0.0
 11
82.6225644485
 21
605.952731864959
 31
0.0
  0
LINE
  5
3E3B
330
1A
100
AcDbEntity
  8
細線
100
AcDbLine
 10
81.448922491163
 20
605.275129364959
 30
0.0
 11
78.943922491163
 21
609.613916637919
 31
0.0
  0
LINE
  5
3E3C
330
1A
100
AcDbEntity
  8
外形線
100
AcDbLine
 10
78.933725173115
 20
615.393078910879
 30
0.0
 11
81.438725173114
 21
611.054291637919
 31
0.0
  0
LINE
  5
3E3D
330
1A
100
AcDbEntity
  8
外形線
100
AcDbLine
 10
83.943725173114
 20
606.715504364959
 30
0.0
 11
90.055925173115
 21
596.128863418937
 31
0.0
  0
ARC
  5
3E3E
330
1A
100
AcDbEntity
  8
外形線
100
AcDbCircle
 10
80.199189536472
 20
601.177230338377
 30
0.0
 40
9.30038181818205
100
AcDbArc
 50
259.727393143495
 51
340.272606856496
  0
ARC
  5
3E3F
330
1A
100
AcDbEntity
  8
外形線
 48
10.0
100
AcDbCircle
 10
49.170682972039
 20
652.896330273092
 30
0.0
 40
22.5
100
AcDbArc
 50
92.633603408824
 51
267.366396591176
  0
LINE
  5
3E40
330
1A
100
AcDbEntity
  8
外形線
 48
10.0
100
AcDbLine
 10
54.036833472029
 20
649.921012543904
 30
0.0
 11
54.036833472029
 21
655.6945152358
 31
0.0
  0
LINE
  5
3E41
330
1A
100
AcDbEntity
  8
外形線
 48
10.0
100
AcDbLine
 10
44.036833472029
 20
649.921012543904
 30
0.0
 11
44.036833472029
 21
655.6945152358
 31
0.0
  0
LINE
  5
3E42
330
1A
100
AcDbEntity
  8
外形線
 48
10.0
100
AcDbLine
 10
49.936833472029
 20
647.553876440226
 30
0.0
 11
54.036833472029
 21
649.921012543904
 31
0.0
  0
LINE
  5
3E43
330
1A
100
AcDbEntity
  8
外形線
 48
10.0
100
AcDbLine
 10
44.036833472029
 20
655.6945152358
 30
0.0
 11
48.136833472029
 21
658.061651339478
 31
0.0
  0
LINE
  5
3E44
330
1A
100
AcDbEntity
  8
外形線
 48
10.0
100
AcDbLine
 10
54.036833472029
 20
655.6945152358
 30
0.0
 11
49.936833472029
 21
658.061651339478
 31
0.0
  0
LINE
  5
3E45
330
1A
100
AcDbEntity
  8
外形線
 48
10.0
100
AcDbLine
 10
48.136833472029
 20
647.553876440226
 30
0.0
 11
44.036833472029
 21
649.921012543904
 31
0.0
  0
ARC
  5
3E46
330
1A
100
AcDbEntity
  8
細線
 48
10.0
100
AcDbCircle
 10
49.036833472029
 20
652.807763889852
 30
0.0
 40
5.0
100
AcDbArc
 50
100.369759805477
 51
259.630240194522
  0
LINE
  5
3E6B
330
1A
100
AcDbEntity
  8
中心線
 48
10.0
100
AcDbLine
 10
49.036833472029
 20
696.993329765016
 30
0.0
 11
49.036833472029
 21
599.269833856037
 31
0.0
  0
LINE
  5
3E6C
330
1A
100
AcDbEntity
  8
外形線
 48
10.0
100
AcDbLine
 10
48.136833472029
 20
692.807763889852
 30
0.0
 11
49.936833472029
 21
692.807763889852
 31
0.0
  0
LINE
  5
3E6D
330
1A
100
AcDbEntity
  8
外形線
 48
10.0
100
AcDbLine
 10
49.936833472029
 20
692.807763889852
 30
0.0
 11
49.936833472029
 21
612.807763889852
 31
0.0
  0
LINE
  5
3E6E
330
1A
100
AcDbEntity
  8
外形線
 48
10.0
100
AcDbLine
 10
48.136833472029
 20
692.807763889852
 30
0.0
 11
48.136833472029
 21
612.807763889852
 31
0.0
  0
LINE
  5
3E6F
330
1A
100
AcDbEntity
  8
外形線
 48
10.0
100
AcDbLine
 10
49.936833472029
 20
612.807763889852
 30
0.0
 11
48.136833472029
 21
612.807763889852
 31
0.0
  0
ARC
  5
3E70
330
1A
100
AcDbEntity
  8
細線
 48
10.0
100
AcDbCircle
 10
49.036833472029
 20
652.807763889852
 30
0.0
 40
5.0
100
AcDbArc
 50
280.369759805478
 51
79.630240194523
  0
ARC
  5
3E71
330
1A
100
AcDbEntity
  8
外形線
 48
10.0
100
AcDbCircle
 10
49.170682972039
 20
652.896330273092
 30
0.0
 40
22.5
100
AcDbArc
 50
271.951363445946
 51
88.048636554054
  0
TEXT
  5
3E72
330
1A
100
AcDbEntity
  8
寸法線
100
AcDbText
 10
51.762772178343
 20
492.618358562163
 30
0.0
 40
6.573033707865
  1
ク　ロ
  7
EXCADVERT
 72
     3
 11
51.762772178343
 21
473.118358562163
 31
0.0
100
AcDbText
  0
TEXT
  5
3E73
330
1A
100
AcDbEntity
  8
寸法線
100
AcDbText
 10
22.212113678343
 20
492.468349562163
 30
0.0
 40
6.030927835052
  1
ア　カ
  7
EXCADVERT
 72
     3
 11
22.212113678343
 21
472.968349562163
 31
0.0
100
AcDbText
  0
TEXT
  5
3E74
330
1A
100
AcDbEntity
  8
寸法線
100
AcDbText
 10
6.461839178343
 20
485.793171062163
 30
0.0
 40
6.428571428571
  1
キ
  7
EXCADVERT
 72
     3
 11
6.461839178343
 21
479.793171062163
 31
0.0
100
AcDbText
  0
TEXT
  5
3E75
330
1A
100
AcDbEntity
  8
寸法線
100
AcDbText
 10
-8.913532821657
 20
492.618358562163
 30
0.0
 40
5.636363639073
  1
ミドリ
  7
EXCADVERT
 72
     3
 11
-8.913532821657
 21
474.018358553222
 31
0.0
100
AcDbText
  0
LINE
  5
3E76
330
1A
100
AcDbEntity
  8
寸法線
100
AcDbLine
 10
-5.170576821657
 20
536.634760562163
 30
0.0
 11
-5.170576821657
 21
443.634756062163
 31
0.0
  0
LINE
  5
3E77
330
1A
100
AcDbEntity
  8
寸法線
100
AcDbLine
 10
25.888412678343
 20
536.634760562163
 30
0.0
 11
25.888412678343
 21
452.634756062163
 31
0.0
  0
LINE
  5
3E78
330
1A
100
AcDbEntity
  8
寸法線
100
AcDbLine
 10
-5.170576821657
 20
443.634750062163
 30
0.0
 11
70.070629178343
 21
443.634750062163
 31
0.0
  0
LINE
  5
3E79
330
1A
100
AcDbEntity
  8
寸法線
100
AcDbLine
 10
10.358860178343
 20
507.289363562163
 30
0.0
 11
10.358860178343
 21
448.134756062163
 31
0.0
  0
LINE
  5
3E7A
330
1A
100
AcDbEntity
  8
寸法線
100
AcDbLine
 10
10.358860178343
 20
448.134756062163
 30
0.0
 11
70.433132678343
 21
448.134756062163
 31
0.0
  0
LINE
  5
3E7B
330
1A
100
AcDbEntity
  8
寸法線
100
AcDbLine
 10
40.668182678343
 20
507.289363562163
 30
0.0
 11
40.668182678343
 21
457.134756062163
 31
0.0
  0
LINE
  5
3E7C
330
1A
100
AcDbEntity
  8
寸法線
100
AcDbLine
 10
55.662185678343
 20
461.634756062163
 30
0.0
 11
55.662185678343
 21
506.921641562163
 31
0.0
  0
LINE
  5
3E7D
330
1A
100
AcDbEntity
  8
寸法線
100
AcDbLine
 10
25.888412678343
 20
452.634756062163
 30
0.0
 11
76.138402178343
 21
452.634756062163
 31
0.0
  0
LINE
  5
3E7E
330
1A
100
AcDbEntity
  8
寸法線
100
AcDbLine
 10
72.078815678343
 20
448.626427562163
 30
0.0
 11
73.944466178343
 21
449.850465062163
 31
0.0
  0
LINE
  5
3E7F
330
1A
100
AcDbEntity
  8
寸法線
100
AcDbLine
 10
72.211315178343
 20
444.532980062163
 30
0.0
 11
74.167889678343
 21
446.525773562163
 31
0.0
  0
LINE
  5
3E80
330
1A
100
AcDbEntity
  8
寸法線
100
AcDbLine
 10
76.138402178343
 20
450.373894562163
 30
0.0
 11
75.437828678343
 21
450.338269562163
 31
0.0
  0
LINE
  5
3E81
330
1A
100
AcDbEntity
  8
寸法線
100
AcDbLine
 10
76.138402178343
 20
447.422406062163
 30
0.0
 11
75.999871178343
 21
447.408078062163
 31
0.0
  0
ARC
  5
3E82
330
1A
100
AcDbEntity
  8
寸法線
100
AcDbCircle
 10
70.433132678343
 20
451.134756062163
 30
0.0
 40
3.0
100
AcDbArc
 50
270.0
 51
303.268623610807
  0
ARC
  5
3E83
330
1A
100
AcDbEntity
  8
寸法線
100
AcDbCircle
 10
75.590161178343
 20
447.342148562163
 30
0.0
 40
3.0
100
AcDbArc
 50
92.910721466856
 51
123.268603762964
  0
ARC
  5
3E84
330
1A
100
AcDbEntity
  8
寸法線
100
AcDbCircle
 10
76.308575678343
 20
444.424003562163
 30
0.0
 40
3.0
100
AcDbArc
 50
95.906259411359
 51
135.525546099523
  0
ARC
  5
3E85
330
1A
100
AcDbEntity
  8
寸法線
100
AcDbCircle
 10
70.070629178343
 20
446.634756062163
 30
0.0
 40
3.0
100
AcDbArc
 50
270.0
 51
315.525565947365
  0
ARC
  5
3E86
330
1A
100
AcDbEntity
  8
寸法線
100
AcDbCircle
 10
70.433132678343
 20
454.134756062163
 30
0.0
 40
3.0
100
AcDbArc
 50
56.731416084879
 51
89.999981276031
  0
LINE
  5
3E87
330
1A
100
AcDbEntity
  8
寸法線
100
AcDbLine
 10
72.078815678343
 20
456.643083062163
 30
0.0
 11
73.944466178343
 21
455.419045562163
 31
0.0
  0
LINE
  5
3E88
330
1A
100
AcDbEntity
  8
寸法線
100
AcDbLine
 10
76.138402178343
 20
454.895616062163
 30
0.0
 11
75.437828678343
 21
454.931241062163
 31
0.0
  0
ARC
  5
3E89
330
1A
100
AcDbEntity
  8
寸法線
100
AcDbCircle
 10
75.590161178343
 20
457.927362062163
 30
0.0
 40
3.0
100
AcDbArc
 50
236.731435932721
 51
267.089318228831
  0
LINE
  5
3E8A
330
1A
100
AcDbEntity
  8
寸法線
100
AcDbLine
 10
76.138402178343
 20
457.847104562163
 30
0.0
 11
75.999871178343
 21
457.861432562163
 31
0.0
  0
ARC
  5
3E8B
330
1A
100
AcDbEntity
  8
寸法線
100
AcDbCircle
 10
76.308575678343
 20
460.845502562163
 30
0.0
 40
3.0
100
AcDbArc
 50
224.474436300384
 51
264.093722988548
  0
LINE
  5
3E8C
330
1A
100
AcDbEntity
  8
寸法線
100
AcDbLine
 10
72.211315178343
 20
460.736532062163
 30
0.0
 11
74.167889678343
 21
458.743737062163
 31
0.0
  0
ARC
  5
3E8D
330
1A
100
AcDbEntity
  8
寸法線
100
AcDbCircle
 10
70.070629178343
 20
458.634756062163
 30
0.0
 40
3.0
100
AcDbArc
 50
44.474473748323
 51
89.999981276031
  0
LINE
  5
3E8E
330
1A
100
AcDbEntity
  8
寸法線
100
AcDbLine
 10
55.662185678343
 20
461.634756062163
 30
0.0
 11
70.070629178343
 21
461.634756062163
 31
0.0
  0
LINE
  5
3E8F
330
1A
100
AcDbEntity
  8
寸法線
100
AcDbLine
 10
40.668182678343
 20
457.134756062163
 30
0.0
 11
70.433132678343
 21
457.134756062163
 31
0.0
  0
LINE
  5
3E90
330
1A
100
AcDbEntity
  8
寸法線
100
AcDbLine
 10
79.138402178343
 20
458.634756062163
 30
0.0
 11
131.638390178343
 21
458.634756062163
 31
0.0
  0
LINE
  5
3E91
330
1A
100
AcDbEntity
  8
寸法線
100
AcDbLine
 10
79.138402178343
 20
446.634756062163
 30
0.0
 11
131.638390178343
 21
446.634756062163
 31
0.0
  0
ARC
  5
3E92
330
1A
100
AcDbEntity
  8
寸法線
100
AcDbCircle
 10
126.442238794868
 20
449.634754262163
 30
0.0
 40
6.0
100
AcDbArc
 50
330.000019847844
 51
30.000019847843
  0
ARC
  5
3E93
330
1A
100
AcDbEntity
  8
寸法線
100
AcDbCircle
 10
126.442236716406
 20
455.634754262163
 30
0.0
 40
6.0
100
AcDbArc
 50
330.000019847844
 51
30.000019847843
  0
ARC
  5
3E94
330
1A
100
AcDbEntity
  8
寸法線
100
AcDbCircle
 10
136.834541561819
 20
455.634757862163
 30
0.0
 40
6.0
100
AcDbArc
 50
150.000019847843
 51
210.000019847843
  0
ARC
  5
3E95
330
1A
100
AcDbEntity
  8
寸法線
100
AcDbCircle
 10
84.33455460105
 20
455.634756062163
 30
0.0
 40
6.0
100
AcDbArc
 50
150.0
 51
210.0
  0
ARC
  5
3E96
330
1A
100
AcDbEntity
  8
寸法線
100
AcDbCircle
 10
84.33455460105
 20
449.634756062163
 30
0.0
 40
6.0
100
AcDbArc
 50
150.0
 51
209.999999999999
  0
ARC
  5
3E97
330
1A
100
AcDbEntity
  8
寸法線
100
AcDbCircle
 10
73.942249755636
 20
449.634756062163
 30
0.0
 40
6.0
100
AcDbArc
 50
330.0
 51
30.0
  0
LINE
  5
3E98
330
1A
100
AcDbEntity
  8
寸法線
100
AcDbLine
 10
134.638390178343
 20
452.634756062163
 30
0.0
 11
169.138390178343
 21
452.634756062163
 31
0.0
  0
LINE
  5
3E99
330
1A
100
AcDbEntity
  8
寸法線
100
AcDbLine
 10
169.138390178343
 20
460.134756062163
 30
0.0
 11
141.120575678343
 21
460.134756062163
 31
0.0
  0
LINE
  5
3E9A
330
1A
100
AcDbEntity
  8
寸法線
100
AcDbLine
 10
169.138390178343
 20
467.634756062163
 30
0.0
 11
141.270515678343
 21
467.634756062163
 31
0.0
  0
LINE
  5
3E9B
330
1A
100
AcDbEntity
  8
寸法線
100
AcDbLine
 10
138.437324678343
 20
465.621190562163
 30
0.0
 11
136.103302178343
 21
458.917470062163
 31
0.0
  0
LINE
  5
3E9C
330
1A
100
AcDbEntity
  8
寸法線
100
AcDbLine
 10
134.686706678343
 20
457.910688062163
 30
0.0
 11
134.638390178343
 21
457.910688062163
 31
0.0
  0
LINE
  5
3E9D
330
1A
100
AcDbEntity
  8
寸法線
100
AcDbLine
 10
138.360970178343
 20
458.311402562163
 30
0.0
 11
137.685883178343
 21
456.728146562163
 31
0.0
  0
LINE
  5
3E9E
330
1A
100
AcDbEntity
  8
寸法線
100
AcDbLine
 10
135.616174178343
 20
455.360635562163
 30
0.0
 11
134.638390178343
 21
455.360635562163
 31
0.0
  0
ARC
  5
3E9F
330
1A
100
AcDbEntity
  8
寸法線
100
AcDbCircle
 10
141.270515678343
 20
464.634756062163
 30
0.0
 40
3.0
100
AcDbArc
 50
89.999981276032
 51
160.80341269666
  0
ARC
  5
3EA0
330
1A
100
AcDbEntity
  8
寸法線
100
AcDbCircle
 10
141.120575678343
 20
457.134756062163
 30
0.0
 40
3.0
100
AcDbArc
 50
89.999981276032
 51
156.907528872886
  0
ARC
  5
3EA1
330
1A
100
AcDbEntity
  8
寸法線
100
AcDbCircle
 10
134.686706678343
 20
459.410688062163
 30
0.0
 40
1.5
100
AcDbArc
 50
270.0
 51
340.803432544508
  0
ARC
  5
3EA2
330
1A
100
AcDbEntity
  8
寸法線
100
AcDbCircle
 10
135.616174178343
 20
457.610635562163
 30
0.0
 40
2.25
100
AcDbArc
 50
270.0
 51
336.907491424955
  0
LINE
  5
3EA3
330
1A
100
AcDbEntity
  8
寸法線
100
AcDbLine
 10
169.138390178343
 20
437.634756062163
 30
0.0
 11
141.270515678343
 21
437.634756062163
 31
0.0
  0
ARC
  5
3EA4
330
1A
100
AcDbEntity
  8
寸法線
100
AcDbCircle
 10
141.270515678343
 20
440.634756062163
 30
0.0
 40
3.0
100
AcDbArc
 50
199.196626999025
 51
270.0
  0
LINE
  5
3EA5
330
1A
100
AcDbEntity
  8
寸法線
100
AcDbLine
 10
169.138390178343
 20
445.134756062163
 30
0.0
 11
141.120575678343
 21
445.134756062163
 31
0.0
  0
ARC
  5
3EA6
330
1A
100
AcDbEntity
  8
寸法線
100
AcDbCircle
 10
141.120575678343
 20
448.134756062163
 30
0.0
 40
3.0
100
AcDbArc
 50
203.092510822796
 51
270.0
  0
LINE
  5
3EA7
330
1A
100
AcDbEntity
  8
寸法線
100
AcDbLine
 10
134.686706678343
 20
447.358822562163
 30
0.0
 11
134.638390178343
 21
447.358822562163
 31
0.0
  0
LINE
  5
3EA8
330
1A
100
AcDbEntity
  8
寸法線
100
AcDbLine
 10
138.437324678343
 20
439.648320062163
 30
0.0
 11
136.103302178343
 21
446.352040562163
 31
0.0
  0
ARC
  5
3EA9
330
1A
100
AcDbEntity
  8
寸法線
100
AcDbCircle
 10
134.686706678343
 20
445.858822562163
 30
0.0
 40
1.5
100
AcDbArc
 50
19.196607151182
 51
89.999981276032
  0
LINE
  5
3EAA
330
1A
100
AcDbEntity
  8
寸法線
100
AcDbLine
 10
138.360970178343
 20
446.958108062163
 30
0.0
 11
137.685883178343
 21
448.541364062163
 31
0.0
  0
LINE
  5
3EAB
330
1A
100
AcDbEntity
  8
寸法線
100
AcDbLine
 10
135.616174178343
 20
449.908876562163
 30
0.0
 11
134.638390178343
 21
449.908876562163
 31
0.0
  0
ARC
  5
3EAC
330
1A
100
AcDbEntity
  8
寸法線
100
AcDbCircle
 10
135.616174178343
 20
447.658876562163
 30
0.0
 40
2.25
100
AcDbArc
 50
23.092490974952
 51
89.999981276031
  0
TEXT
  5
3EAD
330
1A
100
AcDbEntity
  8
寸法線
100
AcDbText
 10
92.034554678343
 20
449.487081062163
 30
0.0
 40
6.75
  1
リード線
 41
0.869565217391
  7
EXCADSTD
 72
     5
 11
119.034554678343
 21
449.487081062163
 31
0.0
100
AcDbText
  0
TEXT
  5
3EAE
330
1A
100
AcDbEntity
  8
寸法線
100
AcDbText
 10
153.085786178343
 20
468.762474062163
 30
0.0
 40
5.25
  1
ク　ロ
 41
0.918367346939
  7
EXCADSTD
 72
     5
 11
168.835786178343
 21
468.762474062163
 31
0.0
100
AcDbText
  0
TEXT
  5
3EAF
330
1A
100
AcDbEntity
  8
寸法線
100
AcDbText
 10
153.235795178343
 20
461.112315062163
 30
0.0
 40
5.25
  1
シ　ロ
 41
0.918367346939
  7
EXCADSTD
 72
     5
 11
168.985795178343
 21
461.112315062163
 31
0.0
100
AcDbText
  0
TEXT
  5
3EB0
330
1A
100
AcDbEntity
  8
寸法線
100
AcDbText
 10
153.235795178343
 20
453.462163562163
 30
0.0
 40
5.25
  1
ア　カ
 41
0.909090909091
  7
EXCADSTD
 72
     5
 11
168.985795178343
 21
453.462163562163
 31
0.0
100
AcDbText
  0
TEXT
  5
3EB1
330
1A
100
AcDbEntity
  8
寸法線
100
AcDbText
 10
158.485909178343
 20
445.962003062163
 30
0.0
 40
5.25
  1
キ
 41
1.071428571429
  7
EXCADSTD
 72
     5
 11
163.735909178343
 21
445.962003062163
 31
0.0
100
AcDbText
  0
TEXT
  5
3EB2
330
1A
100
AcDbEntity
  8
寸法線
100
AcDbText
 10
153.235795178343
 20
438.311845562163
 30
0.0
 40
5.25
  1
ミドリ
 41
0.947368421053
  7
EXCADSTD
 72
     5
 11
168.985795178343
 21
438.311845562163
 31
0.0
100
AcDbText
  0
TEXT
  5
3EB3
330
1A
100
AcDbEntity
  8
寸法線
100
AcDbText
 10
36.899330105821
 20
492.276454562163
 30
0.0
 40
6.724137931034
  1
シ　ロ
  7
EXCADVERT
 72
     3
 11
36.899330105821
 21
472.776454562163
 31
0.0
100
AcDbText
  0
TEXT
  5
3EB4
330
1A
100
AcDbEntity
  8
寸法線
100
AcDbText
 10
173.787781178343
 20
460.700952062163
 30
0.0
 40
7.5
  1
電源
 41
0.923076923077
  7
EXCADSTD
 72
     5
 11
188.787781178343
 21
460.700952062163
 31
0.0
100
AcDbText
  0
TEXT
  5
3EB5
330
1A
100
AcDbEntity
  8
寸法線
100
AcDbText
 10
176.862785678343
 20
456.350731562163
 30
0.0
 40
7.336956521739
  1
ＨＣＬ
  7
EXCADVERT
 72
     3
 11
176.862785678343
 21
433.850731562163
 31
0.0
100
AcDbText
  0
LINE
  5
3EB6
330
1A
100
AcDbEntity
  8
寸法線
100
AcDbLine
 10
-5.170576821657
 20
536.634760562163
 30
0.0
 11
4.468415678343
 21
536.634760562163
 31
0.0
  0
LINE
  5
3EB7
330
1A
100
AcDbEntity
  8
寸法線
100
AcDbLine
 10
4.468415678343
 20
536.634760562163
 30
0.0
 11
4.468415678343
 21
521.854945562163
 31
0.0
  0
LINE
  5
3EB8
330
1A
100
AcDbEntity
  8
寸法線
100
AcDbLine
 10
16.249420178343
 20
536.634760562163
 30
0.0
 11
25.888412678343
 21
536.634760562163
 31
0.0
  0
LINE
  5
3EB9
330
1A
100
AcDbEntity
  8
寸法線
100
AcDbLine
 10
40.668206678343
 20
536.634760562163
 30
0.0
 11
55.662209678343
 21
536.634760562163
 31
0.0
  0
TEXT
  5
3EBA
330
1A
100
AcDbEntity
  8
寸法線
100
AcDbText
 10
51.161248178343
 20
509.159602562163
 30
0.0
 40
9.0
  1
Ｍ
 41
1.25
  7
EXCADSTD
 72
     5
 11
60.161248178343
 21
509.159602562163
 31
0.0
100
AcDbText
  0
LINE
  5
3EBB
330
1A
100
AcDbEntity
  8
寸法線
100
AcDbLine
 10
55.662209678343
 20
536.634760562163
 30
0.0
 11
55.662209678343
 21
520.710033062163
 31
0.0
  0
CIRCLE
  5
3EBC
330
1A
100
AcDbEntity
  8
寸法線
100
AcDbCircle
 10
10.358917178343
 20
508.489368062163
 30
0.0
 40
1.2000045
  0
CIRCLE
  5
3EBD
330
1A
100
AcDbEntity
  8
寸法線
100
AcDbCircle
 10
40.668206678343
 20
508.489368062163
 30
0.0
 40
1.2000045
  0
CIRCLE
  5
3EBE
330
1A
100
AcDbEntity
  8
寸法線
100
AcDbCircle
 10
4.468415678343
 20
520.654941062163
 30
0.0
 40
1.2000045
  0
LINE
  5
3EBF
330
1A
100
AcDbEntity
  8
寸法線
100
AcDbLine
 10
16.249420178343
 20
536.634760562163
 30
0.0
 11
16.249420178343
 21
521.854945562163
 31
0.0
  0
CIRCLE
  5
3EC0
330
1A
100
AcDbEntity
  8
寸法線
100
AcDbCircle
 10
16.249420178343
 20
520.654941062163
 30
0.0
 40
1.2000045
  0
LINE
  5
3EC1
330
1A
100
AcDbEntity
  8
寸法線
100
AcDbLine
 10
40.668206678343
 20
536.634760562163
 30
0.0
 11
40.668206678343
 21
521.854945562163
 31
0.0
  0
CIRCLE
  5
3EC2
330
1A
100
AcDbEntity
  8
寸法線
100
AcDbCircle
 10
40.668206678343
 20
520.654941062163
 30
0.0
 40
1.2000045
  0
LINE
  5
3EC3
330
1A
100
AcDbEntity
  8
寸法線
100
AcDbLine
 10
10.358917178343
 20
509.689360562163
 30
0.0
 11
5.668420178343
 21
520.654941062163
 31
0.0
  0
LINE
  5
3EC4
330
1A
100
AcDbEntity
  8
寸法線
100
AcDbLine
 10
40.668206678343
 20
509.689360562163
 30
0.0
 11
41.868211178343
 21
520.654941062163
 31
0.0
  0
CIRCLE
  5
3EC5
330
1A
100
AcDbEntity
  8
寸法線
100
AcDbCircle
 10
55.667885678343
 20
513.826686062163
 30
0.0
 40
6.883348499999999
  0
MTEXT
  5
3ED9
102
{ACAD_XDICTIONARY
360
3EDA
102
}
330
1A
100
AcDbEntity
  8
寸法線
 48
10.0
100
AcDbMText
 10
168.506417413629
 20
535.510814219173
 30
0.0
 40
7.0
 41
158.221086696158
 71
     1
 72
     5
  1
\H0.8571x;塗　装　色：7.5BG4/1.5\P接点　容量：AC250V5A\P静止トルク：約4.9N・cm（約500g・cm）\P回　転　数：1RPM
1001
ACADANNOTATIVE
1000
AnnotativeData
1002
{
1070
     1
1070
     0
1002
}
  0
DIMENSION
  5
3EDD
330
1A
100
AcDbEntity
  8
寸法線
 48
10.0
100
AcDbDimension
  2
*D27
 10
351.427804772054
 20
639.587263889852
 30
0.0
 11
351.427804772054
 21
684.508593975742
 31
0.0
 70
   160
  1
G 3/4"
  3
ISO-25
100
AcDbAlignedDimension
 13
346.278838446768
 23
666.028263889852
 33
0.0
 14
346.278838446768
 24
639.587263889852
 34
0.0
 50
90.0
100
AcDbRotatedDimension
1001
ACAD
1000
DSTYLE
1002
{
1070
     5
1000
OPEN30
1070
    41
1040
6.0
1070
    47
1040
0.1
1070
    48
1040
0.1
1070
    73
1070
     0
1070
   140
1040
6.0
1070
   271
1070
     1
1070
   272
1070
     1
1070
   341
1005
2AF4
1002
}
  0
DIMENSION
  5
3EE1
330
1A
100
AcDbEntity
  8
寸法線
 48
10.0
100
AcDbDimension
  2
*D31
 10
453.778838446768
 20
557.796683119883
 30
0.0
 11
412.378829446767
 21
561.431058119883
 31
0.0
 70
    32
  1
83
  3
ISO-25
100
AcDbAlignedDimension
 13
370.978820446767
 23
632.257745889852
 33
0.0
 14
453.778838446768
 24
577.980545565335
 34
0.0
100
AcDbRotatedDimension
1001
ACAD
1000
DSTYLE
1002
{
1070
     5
1000
OPEN30
1070
    41
1040
6.0
1070
    47
1040
0.1
1070
    48
1040
0.1
1070
    73
1070
     0
1070
   140
1040
6.0
1070
   271
1070
     1
1070
   272
1070
     1
1070
   341
1005
2AF4
1002
}
  0
LINE
  5
3EE4
330
1A
100
AcDbEntity
  8
寸法線
 48
10.0
100
AcDbLine
 10
370.978820446767
 20
557.796683119883
 30
0.0
 11
365.183265489033
 21
559.349597390498
 31
0.0
  0
LINE
  5
3EE5
330
1A
100
AcDbEntity
  8
寸法線
 48
10.0
100
AcDbLine
 10
370.978820446767
 20
557.796683119883
 30
0.0
 11
365.183265489033
 21
556.243768849268
 31
0.0
  0
MTEXT
  5
3EEE
330
1A
100
AcDbEntity
  8
寸法線
 48
10.0
100
AcDbMText
 10
406.803450752595
 20
585.905308415035
 30
0.0
 40
6.0
 41
51.077111820171
 71
     1
 72
     5
  1
リード線0.5m付
  0
LEADER
  5
3EEF
330
1A
100
AcDbEntity
  8
寸法線
 48
10.0
100
AcDbLeader
  3
ISO-25
 76
     2
 10
392.58042945971
 20
575.449422349917
 30
0.0
 10
405.977449056297
 20
580.468374962991
 30
0.0
1001
ACAD
1000
DSTYLE
1002
{
1070
     5
1000
OPEN30
1070
   147
1040
0.625
1070
    77
1070
     0
1070
    41
1040
6.0
1070
    47
1040
0.1
1070
    48
1040
0.1
1070
    73
1070
     0
1070
   140
1040
5.0
1070
   271
1070
     1
1070
   272
1070
     1
1070
   341
1005
2AF4
1070
   342
1005
2AF4
1002
}
  0
LINE
  5
3F09
330
1A
100
AcDbEntity
  8
中心線
 48
10.0
100
AcDbLine
 10
0.067744676889
 20
642.896299773084
 30
0.0
 11
98.005922267169
 21
642.896299773085
 31
0.0
  0
LINE
  5
3F0A
330
1A
100
AcDbEntity
  8
中心線
 48
10.0
100
AcDbLine
 10
98.005922267169
 20
652.807763889852
 30
0.0
 11
0.067744676889
 21
652.807763889852
 31
0.0
  0
DIMENSION
  5
3F0B
330
1A
100
AcDbEntity
  8
寸法線
 48
10.0
100
AcDbDimension
  2
*D32
 10
103.393822513871
 20
642.896299773085
 30
0.0
 11
103.393822513871
 21
647.852031831468
 31
0.0
 70
   160
  1
10
  3
ISO-25
100
AcDbAlignedDimension
 13
98.005922267169
 23
652.807763889852
 33
0.0
 14
98.005922267169
 24
642.896299773085
 34
0.0
 50
90.0
100
AcDbRotatedDimension
1001
ACAD
1000
DSTYLE
1002
{
1070
     5
1000
OPEN30
1070
    41
1040
6.0
1070
    47
1040
0.1
1070
    48
1040
0.1
1070
    73
1070
     0
1070
   140
1040
6.0
1070
   271
1070
     1
1070
   272
1070
     1
1070
   341
1005
2AF4
1002
}
  0
DIMENSION
  5
3F0C
330
1A
100
AcDbEntity
  8
寸法線
 48
10.0
100
AcDbDimension
  2
*D33
 10
67.036833472029
 20
702.794880778571
 30
0.0
 11
49.036833472029
 21
706.423005778571
 31
0.0
 70
    32
  3
ISO-25
100
AcDbAlignedDimension
 13
31.036833472029
 23
663.200068735265
 33
0.0
 14
67.036833472029
 24
663.200068735265
 34
0.0
100
AcDbRotatedDimension
1001
ACAD
1000
DSTYLE
1002
{
1070
     5
1000
OPEN30
1070
    41
1040
6.0
1070
    47
1040
0.1
1070
    48
1040
0.1
1070
    73
1070
     0
1070
   140
1040
6.0
1070
   271
1070
     1
1070
   272
1070
     1
1070
   341
1005
2AF4
1002
}
  0
MTEXT
  5
3F0D
330
1A
100
AcDbEntity
  8
寸法線
 48
10.0
100
AcDbMText
 10
43.061305731394
 20
719.377969936839
 30
0.0
 40
6.0
 41
18.538303897182
 71
     1
 72
     5
  1
平径
  0
DIMENSION
  5
3F0E
330
1A
100
AcDbEntity
  8
寸法線
 48
10.0
100
AcDbDimension
  2
*D34
 10
49.936833472029
 20
621.729290013156
 30
0.0
 11
63.161833472029
 21
625.354290013156
 31
0.0
 70
    32
  1
1
  3
ISO-25
100
AcDbAlignedDimension
 13
48.136833472029
 23
621.729290013156
 33
0.0
 14
49.936833472029
 24
621.729290013156
 34
0.0
100
AcDbRotatedDimension
1001
ACAD
1000
DSTYLE
1002
{
1070
     5
1000
OPEN30
1070
    41
1040
6.0
1070
    47
1040
0.1
1070
    48
1040
0.1
1070
    73
1070
     0
1070
   140
1040
6.0
1070
   271
1070
     1
1070
   272
1070
     1
1070
   341
1005
2AF4
1002
}
  0
LEADER
  5
3F0F
330
1A
100
AcDbEntity
  8
寸法線
 48
10.0
100
AcDbLeader
  3
ISO-25
 76
     3
 10
66.173646262907
 20
589.398183891948
 30
0.0
 10
50.516743490479
 20
569.125754438132
 30
0.0
 10
35.474874074367
 20
569.125754438132
 30
0.0
1001
ACAD
1000
DSTYLE
1002
{
1070
     5
1000
OPEN30
1070
   147
1040
0.625
1070
    77
1070
     0
1070
    41
1040
6.0
1070
    47
1040
0.1
1070
    48
1040
0.1
1070
    73
1070
     0
1070
   140
1040
5.0
1070
   271
1070
     1
1070
   272
1070
     1
1070
   341
1005
2AF4
1070
   342
1005
2AF4
1002
}
  0
MTEXT
  5
3F10
330
1A
100
AcDbEntity
  8
寸法線
 48
10.0
100
AcDbMText
 10
-13.577874896034
 20
584.729739790512
 30
0.0
 40
6.0
 41
75.272292791406
 71
     1
 72
     5
  1
コードロック\PビメットBMS050B
1001
ACAD
1000
MTEXTBEGIN
1070
    44
1040
0.8
1000
MTEXTEND
  0
ARC
  5
3F16
330
1A
100
AcDbEntity
  8
細線
 48
10.0
100
AcDbCircle
 10
49.036833472029
 20
652.807763889852
 30
0.0
 40
18.0
100
AcDbArc
 50
272.865983982599
 51
87.134016017401
  0
LINE
  5
3F17
330
1A
100
AcDbEntity
  8
外形線
 48
10.0
100
AcDbLine
 10
48.136833472029
 20
632.542769441296
 30
0.0
 11
31.036833472029
 21
642.415459044439
 31
0.0
  0
LINE
  5
3F18
330
1A
100
AcDbEntity
  8
外形線
 48
10.0
100
AcDbLine
 10
67.036833472029
 20
663.200068735265
 30
0.0
 11
49.936833472029
 21
673.072758338408
 31
0.0
  0
LINE
  5
3F19
330
1A
100
AcDbEntity
  8
外形線
 48
10.0
100
AcDbLine
 10
31.036833472029
 20
663.200068735265
 30
0.0
 11
48.136833472029
 21
673.072758338408
 31
0.0
  0
LINE
  5
3F1A
330
1A
100
AcDbEntity
  8
外形線
 48
10.0
100
AcDbLine
 10
49.936833472029
 20
632.542769441296
 30
0.0
 11
67.036833472029
 21
642.415459044439
 31
0.0
  0
LINE
  5
3F1B
330
1A
100
AcDbEntity
  8
外形線
 48
10.0
100
AcDbLine
 10
31.036833472029
 20
663.200068735265
 30
0.0
 11
31.036833472029
 21
642.415459044439
 31
0.0
  0
LINE
  5
3F1C
330
1A
100
AcDbEntity
  8
外形線
 48
10.0
100
AcDbLine
 10
67.036833472029
 20
663.200068735265
 30
0.0
 11
67.036833472029
 21
642.415459044439
 31
0.0
  0
ARC
  5
3F1D
330
1A
100
AcDbEntity
  8
細線
 48
10.0
100
AcDbCircle
 10
49.036833472029
 20
652.807763889852
 30
0.0
 40
18.0
100
AcDbArc
 50
92.865983982599
 51
267.134016017401
  0
MTEXT
  5
3F1E
102
{ACAD_XDICTIONARY
360
3F1F
102
}
330
1A
100
AcDbEntity
  8
寸法線
 48
10.0
100
AcDbMText
 10
77.896535392435
 20
533.633551264368
 30
0.0
 40
6.0
 41
168.503621648242
 71
     1
 72
     5
  1
御仕様   電源電圧\P       AC100/110V\P       AC200/220V
1001
ACADANNOTATIVE
1000
AnnotativeData
1002
{
1070
     1
1070
     0
1002
}
  0
MTEXT
  5
3F22
102
{ACAD_XDICTIONARY
360
3F23
102
}
330
1A
100
AcDbEntity
  8
寸法線
 48
10.0
100
AcDbMText
 10
79.077256985246
 20
504.086377541805
 30
0.0
 40
6.0
 41
161.650793650794
 71
     1
 72
     5
  1
\W0.7;○印が今回の貴社の御仕様です。
1001
ACADANNOTATIVE
1000
AnnotativeData
1002
{
1070
     1
1070
     0
1002
}
  0
LINE
  5
3F26
330
1A
100
AcDbEntity
  8
寸法線
 48
10.0
100
AcDbLine
 10
101.163473398971
 20
535.743011924632
 30
0.0
 11
101.163473398971
 21
506.300882968014
 31
0.0
  0
LINE
  5
3F27
330
1A
100
AcDbEntity
  8
寸法線
 48
10.0
100
AcDbLine
 10
75.546250905963
 20
525.439527105246
 30
0.0
 11
148.994091894329
 21
525.439527105246
 31
0.0
  0
LINE
  5
3F28
330
1A
100
AcDbEntity
  8
寸法線
 48
10.0
100
AcDbLine
 10
75.546250905963
 20
535.743011924632
 30
0.0
 11
148.994091894329
 21
535.743011924632
 31
0.0
  0
LINE
  5
3F29
330
1A
100
AcDbEntity
  8
寸法線
 48
10.0
100
AcDbLine
 10
148.994091894329
 20
535.743011924632
 30
0.0
 11
148.994091894329
 21
506.300882968014
 31
0.0
  0
LINE
  5
3F2A
330
1A
100
AcDbEntity
  8
寸法線
 48
10.0
100
AcDbLine
 10
75.546250905963
 20
515.55354788356
 30
0.0
 11
148.994091894329
 21
515.55354788356
 31
0.0
  0
LINE
  5
3F2B
330
1A
100
AcDbEntity
  8
寸法線
 48
10.0
100
AcDbLine
 10
75.546250905963
 20
506.300882968014
 30
0.0
 11
148.994091894329
 21
506.300882968014
 31
0.0
  0
LINE
  5
3F2C
330
1A
100
AcDbEntity
  8
寸法線
 48
10.0
100
AcDbLine
 10
75.546250905963
 20
535.743011924632
 30
0.0
 11
75.546250905963
 21
506.300882968014
 31
0.0
  0
LINE
  5
3F2D
330
1A
100
AcDbEntity
  8
外形線
100
AcDbLine
 10
400.778838446768
 20
617.107736889852
 30
0.0
 11
400.778838446768
 21
678.307763889852
 31
0.0
  0
LINE
  5
3F2E
330
1A
100
AcDbEntity
  8
外形線
100
AcDbLine
 10
400.778838446768
 20
678.307763889852
 30
0.0
 11
412.978818946768
 21
678.307763889852
 31
0.0
  0
LINE
  5
3F2F
330
1A
100
AcDbEntity
  8
外形線
100
AcDbLine
 10
403.278838446768
 20
607.307763889852
 30
0.0
 11
403.278838446768
 21
678.307763889852
 31
0.0
  0
LINE
  5
3F30
330
1A
100
AcDbEntity
  8
外形線
100
AcDbLine
 10
402.012948720239
 20
607.307763889852
 30
0.0
 11
412.978818946768
 21
607.307763889852
 31
0.0
  0
LINE
  5
3F31
330
1A
100
AcDbEntity
  8
外形線
100
AcDbLine
 10
400.778838446768
 20
676.207763889852
 30
0.0
 11
374.978838446768
 21
675.907763889852
 31
0.0
  0
LINE
  5
3F32
330
1A
100
AcDbEntity
  8
外形線
100
AcDbLine
 10
368.978820446767
 20
671.707763889852
 30
0.0
 11
372.778838446768
 21
671.707763889852
 31
0.0
  0
LINE
  5
3F33
330
1A
100
AcDbEntity
  8
外形線
100
AcDbLine
 10
372.778838446768
 20
671.707763889852
 30
0.0
 11
372.778838446768
 21
671.707763889852
 31
0.0
  0
LINE
  5
3F34
330
1A
100
AcDbEntity
  8
外形線
100
AcDbLine
 10
368.978820446767
 20
633.907763889852
 30
0.0
 11
372.778838446768
 21
633.907763889852
 31
0.0
  0
LINE
  5
3F35
330
1A
100
AcDbEntity
  8
外形線
100
AcDbLine
 10
370.778838446768
 20
633.907763889852
 30
0.0
 11
370.778838446768
 21
671.707763889852
 31
0.0
  0
LINE
  5
3F36
330
1A
100
AcDbEntity
  8
外形線
100
AcDbLine
 10
372.778838446768
 20
673.707763889852
 30
0.0
 11
372.778838446768
 21
611.907763889852
 31
0.0
  0
ARC
  5
3F37
330
1A
100
AcDbEntity
  8
外形線
100
AcDbCircle
 10
374.978838446768
 20
673.707763889852
 30
0.0
 40
2.2
100
AcDbArc
 50
90.0
 51
180.0
  0
ARC
  5
3F38
330
1A
100
AcDbEntity
  8
外形線
100
AcDbCircle
 10
374.978838446768
 20
611.907763889852
 30
0.0
 40
2.2
100
AcDbArc
 50
180.0
 51
263.748538621028
  0
LWPOLYLINE
  5
3F39
330
1A
100
AcDbEntity
  8
細線
100
AcDbPolyline
 90
        2
 70
     0
 43
0.0
 10
345.778838446768
 20
640.749263889852
 10
356.378820446767
 20
640.749263889852
  0
LWPOLYLINE
  5
3F3A
330
1A
100
AcDbEntity
  8
細線
100
AcDbPolyline
 90
        2
 70
     0
 43
0.0
 10
356.378820446767
 20
664.866263889852
 10
345.778838446768
 20
664.866263889852
  0
LWPOLYLINE
  5
3F3B
330
1A
100
AcDbEntity
  8
外形線
100
AcDbPolyline
 90
        6
 70
     0
 43
0.0
 10
356.378820446767
 20
666.028263889852
 10
346.278838446768
 20
666.028263889852
 10
345.778838446768
 20
665.528263889852
 10
345.778838446768
 20
640.087263889852
 10
346.278838446768
 20
639.587263889852
 10
356.378820446767
 20
639.587263889852
  0
LINE
  5
3F3C
330
1A
100
AcDbEntity
  8
外形線
100
AcDbLine
 10
359.378787941915
 20
663.284604964121
 30
0.0
 11
363.378820446767
 21
663.307763889852
 31
0.0
  0
LINE
  5
3F3D
330
1A
100
AcDbEntity
  8
外形線
100
AcDbLine
 10
363.378820446767
 20
675.307763889852
 30
0.0
 11
363.378820446767
 21
630.307763889852
 31
0.0
  0
LINE
  5
3F3E
330
1A
100
AcDbEntity
  8
外形線
100
AcDbLine
 10
363.378820446767
 20
675.307763889852
 30
0.0
 11
364.978820446767
 21
675.307763889852
 31
0.0
  0
LINE
  5
3F3F
330
1A
100
AcDbEntity
  8
外形線
100
AcDbLine
 10
356.378820446767
 20
634.784598650744
 30
0.0
 11
356.378820446767
 21
670.784598650744
 31
0.0
  0
LINE
  5
3F40
330
1A
100
AcDbEntity
  8
外形線
100
AcDbLine
 10
356.378820446767
 20
670.784598650744
 30
0.0
 11
359.401963012136
 21
673.807763889852
 31
0.0
  0
LINE
  5
3F41
330
1A
100
AcDbEntity
  8
外形線
100
AcDbLine
 10
359.355632881398
 20
631.807763889852
 30
0.0
 11
363.378820446767
 21
631.807763889852
 31
0.0
  0
LINE
  5
3F42
330
1A
100
AcDbEntity
  8
外形線
100
AcDbLine
 10
359.364392253712
 20
642.307763889852
 30
0.0
 11
363.378820446767
 21
642.307763889852
 31
0.0
  0
LINE
  5
3F43
330
1A
100
AcDbEntity
  8
外形線
100
AcDbLine
 10
363.378820446767
 20
630.307763889852
 30
0.0
 11
364.978820446767
 21
630.307763889852
 31
0.0
  0
LINE
  5
3F44
330
1A
100
AcDbEntity
  8
外形線
100
AcDbLine
 10
356.378820446767
 20
634.784598650744
 30
0.0
 11
359.355632881398
 21
631.807763889852
 31
0.0
  0
ARC
  5
3F45
330
1A
100
AcDbEntity
  8
外形線
100
AcDbCircle
 10
376.253935946767
 20
652.784598650744
 30
0.0
 40
19.875129
100
AcDbArc
 50
148.109418153979
 51
211.890564245926
  0
ARC
  5
3F46
330
1A
100
AcDbEntity
  8
外形線
100
AcDbCircle
 10
367.380460946767
 20
670.835205650744
 30
0.0
 40
11.0017755
100
AcDbArc
 50
180.263580433607
 51
223.338604767317
  0
ARC
  5
3F47
330
1A
100
AcDbEntity
  8
外形線
100
AcDbCircle
 10
367.380460946767
 20
634.733993150744
 30
0.0
 40
11.0017755
100
AcDbArc
 50
136.66137763259
 51
179.736401966304
  0
LINE
  5
3F48
330
1A
100
AcDbEntity
  8
外形線
100
AcDbLine
 10
364.978820446767
 20
675.307763889852
 30
0.0
 11
364.978820446767
 21
630.307763889852
 31
0.0
  0
LINE
  5
3F49
330
1A
100
AcDbEntity
  8
外形線
 48
10.0
100
AcDbLine
 10
368.978820446767
 20
633.907763889852
 30
0.0
 11
368.978820446767
 21
671.707763889852
 31
0.0
  0
LINE
  5
3F4A
330
1A
100
AcDbEntity
  8
隠れ線
 48
10.0
100
AcDbLine
 10
364.978820446767
 20
699.523476947662
 30
0.0
 11
364.978820446767
 21
675.307763889852
 31
0.0
  0
LINE
  5
3F4B
330
1A
100
AcDbEntity
  8
隠れ線
 48
10.0
100
AcDbLine
 10
368.978820446767
 20
699.523476947662
 30
0.0
 11
368.978820446767
 21
671.707763889852
 31
0.0
  0
LINE
  5
3F4C
330
1A
100
AcDbEntity
  8
隠れ線
 48
10.0
100
AcDbLine
 10
364.978820446767
 20
630.307763889852
 30
0.0
 11
364.978820446767
 21
601.488636617015
 31
0.0
  0
LINE
  5
3F4D
330
1A
100
AcDbEntity
  8
隠れ線
 48
10.0
100
AcDbLine
 10
368.978820446767
 20
633.907763889852
 30
0.0
 11
368.978820446767
 21
601.689144842379
 31
0.0
  0
LINE
  5
3F4E
330
1A
100
AcDbEntity
  8
外形線
 48
10.0
100
AcDbLine
 10
363.378820446767
 20
673.807763889852
 30
0.0
 11
359.401963012136
 21
673.807763889852
 31
0.0
  0
LINE
  5
3F4F
330
1A
100
AcDbEntity
  8
中心線
 48
10.0
100
AcDbLine
 10
460.165294730478
 20
642.982736889852
 30
0.0
 11
369.392382163057
 21
642.982736889852
 31
0.0
  0
DIMENSION
  5
3F50
330
1A
100
AcDbEntity
  8
寸法線
 48
10.0
100
AcDbDimension
  2
*D35
 10
471.731596365993
 20
607.307763889852
 30
0.0
 11
471.731596365993
 21
642.982736889852
 31
0.0
 70
   160
  1
φ72
  3
ISO-25
100
AcDbAlignedDimension
 13
412.978818946768
 23
678.307763889852
 33
0.0
 14
412.978818946768
 24
607.307763889852
 34
0.0
 50
90.0
100
AcDbRotatedDimension
1001
ACAD
1000
DSTYLE
1002
{
1070
     5
1000
OPEN30
1070
    41
1040
6.0
1070
    47
1040
0.1
1070
    48
1040
0.1
1070
    73
1070
     0
1070
   140
1040
6.0
1070
   271
1070
     1
1070
   272
1070
     1
1070
   341
1005
2AF4
1002
}
  0
LINE
  5
3F51
330
1A
100
AcDbEntity
  8
外形線
100
AcDbLine
 10
453.778838446768
 20
618.232736889852
 30
0.0
 11
453.778838446768
 21
667.732736889852
 31
0.0
  0
LINE
  5
3F52
330
1A
100
AcDbEntity
  8
外形線
100
AcDbLine
 10
452.278838446768
 20
615.023126889852
 30
0.0
 11
452.278838446768
 21
670.942346889852
 31
0.0
  0
LINE
  5
3F53
330
1A
100
AcDbEntity
  8
外形線
100
AcDbLine
 10
412.978818946768
 20
678.307763889852
 30
0.0
 11
412.978818946768
 21
607.307763889852
 31
0.0
  0
LINE
  5
3F54
330
1A
100
AcDbEntity
  8
外形線
100
AcDbLine
 10
412.978818946768
 20
608.857736889852
 30
0.0
 11
447.993299446768
 21
610.528253889852
 31
0.0
  0
LINE
  5
3F55
330
1A
100
AcDbEntity
  8
外形線
100
AcDbLine
 10
453.778838446768
 20
618.232736889852
 30
0.0
 11
452.278838446768
 21
618.232736889852
 31
0.0
  0
ARC
  5
3F56
330
1A
100
AcDbEntity
  8
外形線
100
AcDbCircle
 10
447.778838446768
 20
615.023126889852
 30
0.0
 40
4.5
100
AcDbArc
 50
272.731520116378
 51
359.999982399908
  0
LINE
  5
3F57
330
1A
100
AcDbEntity
  8
外形線
100
AcDbLine
 10
412.978818946768
 20
677.107736889852
 30
0.0
 11
447.993299446768
 21
675.437219889852
 31
0.0
  0
LINE
  5
3F58
330
1A
100
AcDbEntity
  8
外形線
100
AcDbLine
 10
453.778838446768
 20
667.732736889852
 30
0.0
 11
452.278838446768
 21
667.732736889852
 31
0.0
  0
ARC
  5
3F59
330
1A
100
AcDbEntity
  8
外形線
100
AcDbCircle
 10
447.778838446768
 20
670.942346889852
 30
0.0
 40
4.5
100
AcDbArc
 50
0.0
 51
87.268519579299
  0
LINE
  5
3F5A
330
1A
100
AcDbEntity
  8
外形線
100
AcDbLine
 10
404.778838446768
 20
607.307763889852
 30
0.0
 11
404.778838446768
 21
678.307763889852
 31
0.0
  0
LINE
  5
3F5B
330
1A
100
AcDbEntity
  8
中心線
 48
10.0
100
AcDbLine
 10
388.128829446767
 20
621.772577889852
 30
0.0
 11
388.128829446767
 21
566.338958889852
 31
0.0
  0
LINE
  5
3F5C
330
1A
100
AcDbEntity
  8
外形線
100
AcDbLine
 10
383.891311446767
 20
569.370355517319
 30
0.0
 11
383.891311446767
 21
582.553958889852
 31
0.0
  0
LINE
  5
3F5D
330
1A
100
AcDbEntity
  8
外形線
100
AcDbLine
 10
392.291275446767
 20
569.370355517319
 30
0.0
 11
392.291275446767
 21
582.553958889852
 31
0.0
  0
ARC
  5
3F5E
330
1A
100
AcDbEntity
  8
細線
100
AcDbCircle
 10
385.991303635415
 20
573.007648683555
 30
0.0
 40
4.199982
100
AcDbArc
 50
239.999981276044
 51
299.999981276019
  0
ARC
  5
3F5F
330
1A
100
AcDbEntity
  8
細線
100
AcDbCircle
 10
390.191285635415
 20
573.007647311024
 30
0.0
 40
4.199982
100
AcDbArc
 50
239.999981276044
 51
299.999981276019
  0
ARC
  5
3F60
330
1A
100
AcDbEntity
  8
細線
100
AcDbCircle
 10
390.191283258119
 20
565.733065096149
 30
0.0
 40
4.199982
100
AcDbArc
 50
59.999981276043
 51
119.999981276019
  0
LINE
  5
3F61
330
1A
100
AcDbEntity
  8
外形線
100
AcDbLine
 10
381.186769810031
 20
606.626965335601
 30
0.0
 11
374.244710173296
 21
600.614965335601
 31
0.0
  0
LINE
  5
3F62
330
1A
100
AcDbEntity
  8
外形線
100
AcDbLine
 10
395.070889083503
 20
606.626965335601
 30
0.0
 11
402.012948720239
 21
600.614965335601
 31
0.0
  0
LINE
  5
3F63
330
1A
100
AcDbEntity
  8
外形線
100
AcDbLine
 10
395.070889083503
 20
597.949390789682
 30
0.0
 11
395.070889083503
 21
606.626965335601
 31
0.0
  0
LINE
  5
3F64
330
1A
100
AcDbEntity
  8
外形線
100
AcDbLine
 10
381.186769810031
 20
597.949390789682
 30
0.0
 11
381.186769810031
 21
606.626965335601
 31
0.0
  0
LWPOLYLINE
  5
3F65
330
1A
100
AcDbEntity
  8
外形線
100
AcDbPolyline
 90
       47
 70
     0
 43
0.0
 10
392.291273946767
 20
581.462651227071
 10
392.750527737666
 20
581.577521671425
 10
393.159145234935
 20
581.703741289271
 10
393.512649539768
 20
581.839927192062
 10
393.807167585026
 20
581.98458729855
 10
394.039472569372
 20
582.136136682336
 10
394.207019310786
 20
582.292914936655
 10
394.307972132105
 20
582.453204366148
 10
394.341224973097
 20
582.615248806281
 10
394.306413508673
 20
582.777272864259
 10
394.203919140526
 20
582.937501370596
 10
394.034864818399
 20
583.094178828248
 10
393.801102736823
 20
583.245588646199
 10
393.505194042082
 20
583.390071946802
 10
393.150380771759
 20
583.526045740779
 10
392.74055033429
 20
583.652020270789
 10
392.280192917714
 20
583.766615333521
 10
391.774352294223
 20
583.868575401486
 10
391.228570559539
 20
583.956783378843
 10
390.64882741256
 20
584.030272840533
 10
390.041474640526
 20
584.088238620635
 10
389.413166527502
 20
584.130045633931
 10
388.770786948657
 20
584.155235834037
 10
388.121373949082
 20
584.163533231848
 10
387.472042633501
 20
584.154846919338
 10
386.829907211686
 20
584.129272065564
 10
386.202003053696
 20
584.087088873975
 10
385.595209608884
 20
584.028759512447
 10
385.016175033209
 20
583.954923049669
 10
384.471243350654
 20
583.866388453381
 10
383.966384946767
 20
583.764125727147
 10
383.50713115587
 20
583.649255282793
 10
383.0985136586
 20
583.523035664947
 10
382.745009353766
 20
583.386849762156
 10
382.450491308509
 20
583.242189655668
 10
382.218186324163
 20
583.090640271882
 10
382.05063958275
 20
582.933862017563
 10
381.949686761429
 20
582.77357258807
 10
381.916433920438
 20
582.611528147936
 10
381.951245384862
 20
582.449504089959
 10
382.053739753009
 20
582.289275583622
 10
382.222794075136
 20
582.13259812597
 10
382.456556156711
 20
581.98118830802
 10
382.752464851453
 20
581.836705007417
 10
383.107278121777
 20
581.700731213439
 10
383.517108559244
 20
581.574756683427
 10
383.891311446768
 20
581.47983980156
  0
ARC
  5
3F66
330
1A
100
AcDbEntity
  8
外形線
100
AcDbCircle
 10
388.128829446767
 20
614.800169543809
 30
0.0
 40
34.15159996140045
100
AcDbArc
 50
255.26831657715
 51
262.87239111701
  0
LWPOLYLINE
  5
3F67
330
1A
100
AcDbEntity
  8
外形線
100
AcDbPolyline
 90
       34
 70
     0
 43
0.0
 10
399.802129446767
 20
590.02832438958
 10
399.748387889167
 20
590.587742501027
 10
399.587658047307
 20
591.142009712443
 10
399.321419857803
 20
591.686022551245
 10
398.952124736283
 20
592.21477196304
 10
398.483173005707
 20
592.723389433019
 10
397.918882587564
 20
593.207191813301
 10
397.264449244153
 20
593.66172444351
 10
396.525898738059
 20
594.082802167519
 10
395.71003134934
 20
594.466547868699
 10
394.824359261224
 20
594.80942816888
 10
393.877037390923
 20
595.108285962288
 10
392.876788302385
 20
595.360369484929
 10
391.832821892382
 20
595.56335765174
 10
390.75475058944
 20
595.715381428209
 10
389.65250084641
 20
595.815041039716
 10
388.536221741624
 20
595.861418860101
 10
387.416191530216
 20
595.854087860789
 10
386.302723006013
 20
595.793115542715
 10
385.206068545439
 20
595.679063314793
 10
384.136325707684
 20
595.51298132469
 10
383.103344260396
 20
595.296398789481
 10
382.11663548692
 20
595.031309915223
 10
381.185284610184
 20
594.7201555351
 10
380.317867139558
 20
594.365800635202
 10
379.522369910982
 20
593.97150797486
 10
378.806117547333
 20
593.54090804446
 10
378.175705016214
 20
593.077965637329
 10
377.636936906104
 20
592.586943343486
 10
377.194773980013
 20
592.072362301408
 10
376.853287498747
 20
591.538960569177
 10
376.615621734343
 20
590.991649498326
 10
376.48396501887
 20
590.435468512059
 10
376.455529446767
 20
590.02832438958
  0
ARC
  5
3F68
330
1A
100
AcDbEntity
  8
外形線
100
AcDbCircle
 10
388.128829446767
 20
609.616784201879
 30
0.0
 40
13.57645981229912
100
AcDbArc
 50
239.247497502359
 51
300.75250249764
  0
LINE
  5
3F69
330
1A
100
AcDbEntity
  8
外形線
100
AcDbLine
 10
376.455529446767
 20
590.02832438958
 30
0.0
 11
376.455529446767
 21
585.647471649053
 31
0.0
  0
ARC
  5
3F6A
330
1A
100
AcDbEntity
  8
外形線
100
AcDbCircle
 10
380.463529446767
 20
585.647471649053
 30
0.0
 40
4.007999999999999
100
AcDbArc
 50
180.0
 51
255.26831657715
  0
ARC
  5
3F6B
330
1A
100
AcDbEntity
  8
外形線
100
AcDbCircle
 10
373.736078255794
 20
599.538708338658
 30
0.0
 40
7.618315752702329
100
AcDbArc
 50
273.828163206422
 51
347.958626091838
  0
LINE
  5
3F6C
330
1A
100
AcDbEntity
  8
外形線
100
AcDbLine
 10
376.452778329565
 20
590.025147673065
 30
0.0
 11
374.244710173296
 21
591.937390789682
 31
0.0
  0
LINE
  5
3F6D
330
1A
100
AcDbEntity
  8
外形線
100
AcDbLine
 10
374.244710173296
 20
600.614965335601
 30
0.0
 11
374.244710173296
 21
591.937390789682
 31
0.0
  0
LINE
  5
3F6E
330
1A
100
AcDbEntity
  8
外形線
100
AcDbLine
 10
399.802129446767
 20
590.02832438958
 30
0.0
 11
399.802129446767
 21
585.647471649053
 31
0.0
  0
LWPOLYLINE
  5
3F6F
330
1A
100
AcDbEntity
  8
外形線
100
AcDbPolyline
 90
       29
 70
     0
 43
0.0
 10
392.291273946767
 20
582.553958889852
 10
392.264275861136
 20
582.655930357179
 10
392.183628699427
 20
582.756590849887
 10
392.050369284827
 20
582.854646247629
 10
391.866210838835
 20
582.948835921906
 10
391.633520955592
 20
583.037948943081
 10
391.3552911634
 20
583.120839648428
 10
391.035098464778
 20
583.196442371113
 10
390.677059349482
 20
583.263785140715
 10
390.285776871727
 20
583.322002179144
 10
389.866281471986
 20
583.370345031354
 10
389.423966304206
 20
583.408192187682
 10
388.964517899858
 20
583.43505707416
 10
388.493843060245
 20
583.450594308055
 10
388.017992916964
 20
583.454604138204
 10
387.543085136809
 20
583.447035013071
 10
387.075225271285
 20
583.427984243514
 10
386.620428261866
 20
583.397696751724
 10
386.184541110184
 20
583.356561922442
 10
385.773167707276
 20
583.305108596904
 10
385.391596788352
 20
583.243998273913
 10
385.044733939285
 20
583.174016605425
 10
384.737038528985
 20
583.096063295967
 10
384.47246637846
 20
583.011140535788
 10
384.254418903646
 20
582.920340116405
 10
384.085699385818
 20
582.824829394218
 10
383.968476931796
 20
582.725836282639
 10
383.904258587288
 20
582.62463346569
 10
383.891311446768
 20
582.553958889852
  0
ARC
  5
3F70
330
1A
100
AcDbEntity
  8
外形線
100
AcDbCircle
 10
388.128829446767
 20
614.800169543809
 30
0.0
 40
34.15159996140045
100
AcDbArc
 50
277.000695446903
 51
284.73168342285
  0
ARC
  5
3F71
330
1A
100
AcDbEntity
  8
外形線
100
AcDbCircle
 10
395.794129446767
 20
585.647471649053
 30
0.0
 40
4.007999999999999
100
AcDbArc
 50
284.731683422849
 51
0.0
  0
LINE
  5
3F72
330
1A
100
AcDbEntity
  8
外形線
100
AcDbLine
 10
399.80488056397
 20
590.025147673065
 30
0.0
 11
402.012948720239
 21
591.937390789682
 31
0.0
  0
ARC
  5
3F73
330
1A
100
AcDbEntity
  8
外形線
100
AcDbCircle
 10
402.521580637741
 20
599.538708338658
 30
0.0
 40
7.618315752702329
100
AcDbArc
 50
192.041373908162
 51
266.171836793578
  0
LINE
  5
3F74
330
1A
100
AcDbEntity
  8
外形線
100
AcDbLine
 10
402.012948720239
 20
591.937390789682
 30
0.0
 11
402.012948720239
 21
600.614965335601
 31
0.0
  0
LWPOLYLINE
  5
3F75
330
1A
100
AcDbEntity
  8
外形線
100
AcDbPolyline
 90
       34
 70
     0
 43
0.0
 10
398.627284446768
 20
606.333868283417
 10
398.578951642496
 20
606.704706217882
 10
398.43439825897
 20
607.072129623773
 10
398.194955286393
 20
607.432755412134
 10
397.862827420663
 20
607.783263083779
 10
397.441072763401
 20
608.12042530313
 10
396.933574664167
 20
608.441137614229
 10
396.345005964115
 20
608.742447025357
 10
395.680785970331
 20
609.021579198996
 10
394.947030557
 20
609.27596399683
 10
394.150495852859
 20
609.503259144567
 10
393.298516033453
 20
609.70137179866
 10
392.398935790949
 20
609.868477816389
 10
391.460038103327
 20
610.003038551839
 10
390.490467967999
 20
610.103815023145
 10
389.49915280211
 20
610.169879320537
 10
388.495220242421
 20
610.200623150178
 10
387.487914101645
 20
610.195763435081
 10
386.486509255093
 20
610.155344921571
 10
385.500226241302
 20
610.079739767291
 10
384.538146362969
 20
609.969644114502
 10
383.609128069926
 20
609.826071680297
 10
382.721725394038
 20
609.650344422692
 10
381.884109187084
 20
609.444080368556
 10
381.103991886786
 20
609.209178715467
 10
380.388556503746
 20
608.947802344654
 10
379.744390483133
 20
608.662357906044
 10
379.177425050104
 20
608.35547365878
 10
378.692880597428
 20
608.02997527126
 10
378.295218618191
 20
607.688859803501
 10
377.988100626134
 20
607.335268111397
 10
377.774354441881
 20
606.972455926963
 10
377.655948155497
 20
606.603763880861
 10
377.630374446767
 20
606.333868283417
  0
LINE
  5
3F76
330
1A
100
AcDbEntity
  8
外形線
100
AcDbLine
 10
381.186769810031
 20
606.626965335601
 30
0.0
 11
395.070889083503
 21
606.626965335601
 31
0.0
  0
LINE
  5
3F77
330
1A
100
AcDbEntity
  8
外形線
100
AcDbLine
 10
381.186769810031
 20
615.304539881522
 30
0.0
 11
395.070889083503
 21
615.304539881522
 31
0.0
  0
LINE
  5
3F78
330
1A
100
AcDbEntity
  8
外形線
100
AcDbLine
 10
381.186769810031
 20
610.965752608562
 30
0.0
 11
395.070889083503
 21
610.965752608562
 31
0.0
  0
LINE
  5
3F79
330
1A
100
AcDbEntity
  8
外形線
100
AcDbLine
 10
403.278838446768
 20
617.107736889852
 30
0.0
 11
380.178847446768
 21
617.107736889852
 31
0.0
  0
LINE
  5
3F7A
330
1A
100
AcDbEntity
  8
外形線
100
AcDbLine
 10
380.497630681939
 20
614.707727889852
 30
0.0
 11
377.778838446767
 21
614.707727889852
 31
0.0
  0
LINE
  5
3F7B
330
1A
100
AcDbEntity
  8
外形線
100
AcDbLine
 10
374.244710173296
 20
609.292539881522
 30
0.0
 11
381.186769810031
 21
615.304539881522
 31
0.0
  0
ARC
  5
3F7C
330
1A
100
AcDbEntity
  8
外形線
100
AcDbCircle
 10
380.178847446768
 20
611.707727889852
 30
0.0
 40
5.4
100
AcDbArc
 50
89.999981276021
 51
180.00001984784
  0
LINE
  5
3F7D
330
1A
100
AcDbEntity
  8
外形線
100
AcDbLine
 10
381.186769810031
 20
610.965752608562
 30
0.0
 11
374.244710173296
 21
604.953752608562
 31
0.0
  0
ARC
  5
3F7E
330
1A
100
AcDbEntity
  8
外形線
100
AcDbCircle
 10
377.778838446767
 20
611.707727889852
 30
0.0
 40
3.0
100
AcDbArc
 50
89.999981276021
 51
211.533239298813
  0
LINE
  5
3F7F
330
1A
100
AcDbEntity
  8
外形線
100
AcDbLine
 10
376.749710173296
 20
602.784358972082
 30
0.0
 11
374.244710173296
 21
604.953752608562
 31
0.0
  0
LINE
  5
3F80
330
1A
100
AcDbEntity
  8
外形線
100
AcDbLine
 10
377.630374446767
 20
606.333868283417
 30
0.0
 11
377.630374446767
 21
603.547036605114
 31
0.0
  0
LINE
  5
3F81
330
1A
100
AcDbEntity
  8
外形線
100
AcDbLine
 10
374.244710173296
 20
604.953752608562
 30
0.0
 11
374.244710173296
 21
609.292539881522
 31
0.0
  0
LINE
  5
3F82
330
1A
100
AcDbEntity
  8
細線
100
AcDbLine
 10
378.985579446767
 20
604.72067856245
 30
0.0
 11
378.985579446767
 21
608.272219772095
 31
0.0
  0
LINE
  5
3F83
330
1A
100
AcDbEntity
  8
外形線
100
AcDbLine
 10
381.186769810031
 20
610.965752608562
 30
0.0
 11
381.186769810031
 21
615.304539881522
 31
0.0
  0
LINE
  5
3F84
330
1A
100
AcDbEntity
  8
細線
100
AcDbLine
 10
397.272079446767
 20
604.72067856245
 30
0.0
 11
397.272079446767
 21
608.375624089943
 31
0.0
  0
LINE
  5
3F85
330
1A
100
AcDbEntity
  8
外形線
100
AcDbLine
 10
403.278838446768
 20
614.707727889852
 30
0.0
 11
395.760028211595
 21
614.707727889852
 31
0.0
  0
LINE
  5
3F86
330
1A
100
AcDbEntity
  8
外形線
100
AcDbLine
 10
402.012948720239
 20
609.292539881522
 30
0.0
 11
395.070889083503
 21
615.304539881522
 31
0.0
  0
LINE
  5
3F87
330
1A
100
AcDbEntity
  8
外形線
100
AcDbLine
 10
395.070889083503
 20
610.965752608562
 30
0.0
 11
395.070889083503
 21
615.304539881522
 31
0.0
  0
LINE
  5
3F88
330
1A
100
AcDbEntity
  8
外形線
100
AcDbLine
 10
399.507948720239
 20
602.784358972082
 30
0.0
 11
402.012948720239
 21
604.953752608562
 31
0.0
  0
LINE
  5
3F89
330
1A
100
AcDbEntity
  8
外形線
100
AcDbLine
 10
395.070889083503
 20
610.965752608562
 30
0.0
 11
402.012948720239
 21
604.953752608562
 31
0.0
  0
LINE
  5
3F8A
330
1A
100
AcDbEntity
  8
外形線
100
AcDbLine
 10
398.627284446768
 20
606.333868283417
 30
0.0
 11
398.627284446768
 21
603.547036605114
 31
0.0
  0
LINE
  5
3F8B
330
1A
100
AcDbEntity
  8
外形線
100
AcDbLine
 10
402.012948720239
 20
604.953752608562
 30
0.0
 11
402.012948720239
 21
609.292539881522
 31
0.0
  0
ARC
  5
3F8C
330
1A
100
AcDbEntity
  8
外形線
 48
10.0
100
AcDbCircle
 10
49.036833472029
 20
652.807763889852
 30
0.0
 40
13.2204999999999
100
AcDbArc
 50
93.903491864735
 51
266.096508135265
  0
ARC
  5
3F8D
330
1A
100
AcDbEntity
  8
細線
 48
10.0
100
AcDbCircle
 10
49.036833472029
 20
652.807763889852
 30
0.0
 40
12.05849999999998
100
AcDbArc
 50
94.280316570382
 51
265.719683429618
  0
ARC
  5
3F8E
330
1A
100
AcDbEntity
  8
細線
 48
10.0
100
AcDbCircle
 10
49.036833472029
 20
652.807763889852
 30
0.0
 40
12.05849999999998
100
AcDbArc
 50
274.280316570382
 51
85.719683429618
  0
ARC
  5
3F8F
330
1A
100
AcDbEntity
  8
外形線
 48
10.0
100
AcDbCircle
 10
49.036833472029
 20
652.807763889852
 30
0.0
 40
13.2204999999999
100
AcDbArc
 50
273.903491864735
 51
86.096508135265
  0
LINE
  5
3F90
330
1A
100
AcDbEntity
  8
寸法線
 48
10.0
100
AcDbLine
 10
453.778838446768
 20
616.50929690321
 30
0.0
 11
453.778838446768
 21
587.134004328221
 31
0.0
  0
DIMENSION
  5
4005
330
1A
100
AcDbEntity
  8
寸法線
 48
10.0
100
AcDbDimension
  2
*D36
 10
370.778838446768
 20
557.796683119883
 30
0.0
 11
274.128299946768
 21
560.926891453217
 31
0.0
 70
    32
  1
 
  3
ISO-25
100
AcDbAlignedDimension
 13
177.477761446768
 23
593.81901287999
 33
0.0
 14
370.778838446768
 24
632.257745889852
 34
0.0
100
AcDbRotatedDimension
1001
ACAD
1000
DSTYLE
1002
{
1070
     5
1000
OPEN30
1070
    41
1040
6.0
1070
   271
1070
     1
1070
   341
1005
2AF4
1070
   272
1070
     1
1070
    73
1070
     0
1070
    48
1040
0.1
1070
    47
1040
0.1
1070
   140
1040
5.0
1002
}
  0
ARC
  5
4014
330
1A
100
AcDbEntity
  8
外形線
 48
10.0
100
AcDbCircle
 10
49.036833472029
 20
652.807763889852
 30
0.0
 40
10.00000000000004
100
AcDbArc
 50
95.163607090846
 51
264.836392909154
  0
ARC
  5
4015
330
1A
100
AcDbEntity
  8
外形線
 48
10.0
100
AcDbCircle
 10
49.036833472029
 20
652.807763889852
 30
0.0
 40
10.00000000000004
100
AcDbArc
 50
275.163607090847
 51
84.836392909153
  0
VIEWPORT
  5
2902
330
28FB
100
AcDbEntity
 67
     1
  8
0
 48
10.0
100
AcDbViewport
 10
0.0
 20
0.0
 30
0.0
 40
506.148974727245
 41
322.910231977888
 68
     1
 69
     1
1001
ACAD
1000
MVIEW
1002
{
1070
    16
1010
0.0
1020
0.0
1030
0.0
1010
0.0
1020
0.0
1030
1.0
1040
0.0
1040
322.910231977888
1040
174.872021864661
1040
116.309440991781
1040
50.0
1040
0.0
1040
0.0
1070
    16
1070
   100
1070
     0
1070
     1
1070
     0
1070
     0
1070
     0
1070
     0
1040
0.0
1040
0.0
1040
0.0
1040
10.0
1040
10.0
1040
10.0
1040
10.0
1070
     0
1002
{
1002
}
1002
}
  0
VIEWPORT
  5
2904
330
28FB
100
AcDbEntity
 67
     1
  8
図枠太線
 48
10.0
100
AcDbViewport
 10
204.825742867986
 20
162.695640989662
 30
0.0
 40
400.0
 41
240.0
 68
     2
 69
     2
1001
ACAD
1000
MVIEW
1002
{
1070
    16
1010
0.0
1020
0.0
1030
0.0
1010
0.0
1020
0.0
1030
1.0
1040
0.0
1040
360.000005556729
1040
268.36401168423
1040
598.056478260797
1040
50.0
1040
0.0
1040
0.0
1070
     0
1070
   100
1070
     0
1070
     0
1070
     0
1070
     0
1070
     0
1070
     0
1040
0.0
1040
0.0
1040
0.0
1040
1.0
1040
1.0
1040
0.0
1040
0.0
1070
     0
1002
{
1002
}
1002
}
  0
INSERT
  5
2A59
330
28FB
100
AcDbEntity
 67
     1
  8
図枠太線
100
AcDbBlockReference
  2
A3横用_タイトル
 10
-0.272671667806
 20
-0.830318763865
 30
0.0
  0
MTEXT
  5
322B
330
28FB
100
AcDbEntity
 67
     1
  8
寸法線
 48
10.0
100
AcDbMText
 10
146.857808355697
 20
15.112693413899
 30
0.0
 40
7.0
 41
20.13579853524
 71
     1
 72
     5
  1
1:1.5
  0
MTEXT
  5
322C
102
{ACAD_XDICTIONARY
360
3BE7
102
}
330
28FB
100
AcDbEntity
 67
     1
  8
寸法線
 48
10.0
100
AcDbMText
 10
175.40226201846
 20
13.872028811278
 30
0.0
 40
5.0
 41
27.082042865391
 71
     1
 72
     5
  1
2015.6.15
1001
ACADANNOTATIVE
1000
AnnotativeData
1002
{
1070
     1
1070
     0
1002
}
  0
MTEXT
  5
322D
102
{ACAD_XDICTIONARY
360
3BEA
102
}
330
28FB
100
AcDbEntity
 67
     1
  8
寸法線
 48
10.0
100
AcDbMText
 10
180.328500749969
 20
33.747188777884
 30
0.0
 40
5.0
 41
33.4
 71
     1
 72
     5
  1
ohno
1001
ACADANNOTATIVE
1000
AnnotativeData
1002
{
1070
     1
1070
     0
1002
}
  0
MTEXT
  5
322F
330
28FB
100
AcDbEntity
 67
     1
  8
寸法線
 48
10.0
100
AcDbMText
 10
312.910989669232
 20
34.95571826242
 30
0.0
 40
7.0
 41
37.345612043362
 71
     1
 72
     5
  1
HL-400G
  0
MTEXT
  5
3230
330
28FB
100
AcDbEntity
 67
     1
  8
寸法線
 48
10.0
100
AcDbMText
 10
361.899356374179
 20
39.466959656167
 30
0.0
 40
5.0
 41
42.043281739348
 71
     1
 72
     5
  1
パドル式\Pレベルスイッチ
  0
MTEXT
  5
3231
102
{ACAD_XDICTIONARY
360
3BE4
102
}
330
28FB
100
AcDbEntity
 67
     1
  8
寸法線
 48
10.0
100
AcDbMText
 10
347.345910504807
 20
15.801792442171
 30
0.0
 40
7.0
 41
36.545313751788
 71
     1
 72
     5
  1
\H1.143x;HB-6002
1001
ACADANNOTATIVE
1000
AnnotativeData
1002
{
1070
     1
1070
     0
1002
}
  0
MTEXT
  5
3234
330
28FB
100
AcDbEntity
 67
     1
  8
寸法線
 48
10.0
100
AcDbMText
 10
371.365973808507
 20
52.515643282133
 30
0.0
 40
5.0
 41
34.334449052711
 71
     1
 72
     5
  1
台数   台
  0
ENDSEC
  0
SECTION
  2
OBJECTS
  0
DICTIONARY
  5
C
330
0
100
AcDbDictionary
  3
ACAD_COLOR
350
2948
  3
ACAD_GROUP
350
D
  3
ACAD_LAYOUT
350
2816
  3
ACAD_MATERIAL
350
2947
  3
ACAD_MLEADERSTYLE
350
3BE0
  3
ACAD_MLINESTYLE
350
E
  3
ACAD_PLOTSETTINGS
350
2817
  3
ACAD_SCALELIST
350
3BB9
  3
ACAD_VISUALSTYLE
350
3BA0
  3
ACDBHEADERROUNDTRIPXREC
350
4022
  3
ACDBVARIABLEDICTIONARY
350
401A
  3
DWGPROPS
350
4047
  0
DICTIONARY
  5
4048
330
8
100
AcDbDictionary
280
     1
  3
ACAD_XREC_ROUNDTRIP
360
4049
  0
DICTIONARY
  5
29EA
330
2
100
AcDbDictionary
280
     1
  3
ACAD_LAYERFILTERS
360
2B0C
  3
ACAD_LAYERSTATES
360
29EB
  0
DICTIONARY
  5
4016
330
35CC
100
AcDbDictionary
280
     1
  3
ACDBCONTEXTDATAMANAGER
360
4017
  0
DICTIONARY
  5
3EDA
330
3ED9
100
AcDbDictionary
280
     1
  3
ACDBCONTEXTDATAMANAGER
360
3EDB
  0
DICTIONARY
  5
3F1F
330
3F1E
100
AcDbDictionary
280
     1
  3
ACDBCONTEXTDATAMANAGER
360
3F20
  0
DICTIONARY
  5
3F23
330
3F22
100
AcDbDictionary
280
     1
  3
ACDBCONTEXTDATAMANAGER
360
3F24
  0
DICTIONARY
  5
3BE7
330
322C
100
AcDbDictionary
280
     1
  3
ACDBCONTEXTDATAMANAGER
360
3BE8
  0
DICTIONARY
  5
3BEA
330
322D
100
AcDbDictionary
280
     1
  3
ACDBCONTEXTDATAMANAGER
360
3BEB
  0
DICTIONARY
  5
3BE4
330
3231
100
AcDbDictionary
280
     1
  3
ACDBCONTEXTDATAMANAGER
360
3BE5
  0
DICTIONARY
  5
2948
102
{ACAD_REACTORS
330
C
102
}
330
C
100
AcDbDictionary
  0
DICTIONARY
  5
D
102
{ACAD_REACTORS
330
C
102
}
330
C
100
AcDbDictionary
  0
DICTIONARY
  5
2816
102
{ACAD_REACTORS
330
C
102
}
330
C
100
AcDbDictionary
  0
DICTIONARY
  5
2947
102
{ACAD_REACTORS
330
C
102
}
330
C
100
AcDbDictionary
  3
BYBLOCK
350
3BDC
  3
BYLAYER
350
3BDB
  3
GLOBAL
350
3BDD
  0
DICTIONARY
  5
3BE0
102
{ACAD_REACTORS
330
C
102
}
330
C
100
AcDbDictionary
  3
STANDARD
350
3BE1
  0
DICTIONARY
  5
E
102
{ACAD_REACTORS
330
C
102
}
330
C
100
AcDbDictionary
  3
STANDARD
350
13
  0
DICTIONARY
  5
2817
102
{ACAD_REACTORS
330
C
102
}
330
C
100
AcDbDictionary
  0
DICTIONARY
  5
3BB9
102
{ACAD_REACTORS
330
C
102
}
330
C
100
AcDbDictionary
  3
A0
350
3BBA
  3
A1
350
3BBB
  3
A2
350
3BBC
  3
A3
350
3BBD
  3
A4
350
3BBE
  3
A5
350
3BBF
  3
A6
350
3BC0
  3
A7
350
3BC1
  3
A8
350
3BC2
  3
A9
350
3BC3
  3
B0
350
3BC4
  3
B1
350
3BC5
  3
B2
350
3BC6
  3
B3
350
3BC7
  3
B4
350
3BC8
  3
B5
350
3BC9
  3
B6
350
3BCA
  3
B7
350
3BCB
  3
B8
350
3BCC
  3
B9
350
3BCD
  3
C0
350
3BCE
  3
C1
350
3BCF
  3
C2
350
3BD0
  3
C3
350
3BD1
  3
C4
350
3BD2
  3
C5
350
3BD3
  3
C6
350
3BD4
  3
C7
350
3BD5
  3
C8
350
3BD6
  3
C9
350
3BD7
  3
D0
350
3BD8
  3
D1
350
3BD9
  3
D2
350
3BDA
  0
DICTIONARY
  5
3BA0
102
{ACAD_REACTORS
330
C
102
}
330
C
100
AcDbDictionary
  3
2DWIREFRAME
350
3BA5
  3
BASIC
350
3BA8
  3
BRIGHTEN
350
3BAC
  3
COLORCHANGE
350
3BB0
  3
CONCEPTUAL
350
3BAA
  3
DIM
350
3BAB
  3
EDGECOLOROFF
350
3BB3
  3
FACEPATTERN
350
3BAF
  3
FLAT
350
3BA1
  3
FLATWITHEDGES
350
3BA2
  3
GOURAUD
350
3BA3
  3
GOURAUDWITHEDGES
350
3BA4
  3
HIDDEN
350
3BA7
  3
JITTEROFF
350
3BB1
  3
LINEPATTERN
350
3BAE
  3
OVERHANGOFF
350
3BB2
  3
REALISTIC
350
3BA9
  3
SHADED
350
3BB8
  3
SHADED_WITH_EDGES
350
3BB7
  3
SHADES_OF_GRAY
350
3BB4
  3
SKETCHY
350
3BB5
  3
THICKEN
350
3BAD
  3
WIREFRAME
350
3BA6
  3
X-RAY
350
3BB6
  0
DICTIONARY
  5
4022
102
{ACAD_REACTORS
330
C
102
}
330
C
100
AcDbDictionary
  3
CEPSNID
350
402C
  3
CEPSNTYPE
350
402B
  3
COLORDICT
350
4045
  3
DIMSTYLEDATA
350
4042
  3
FINGERPRINTGUID
350
402D
  3
HYPERLINKBASE
350
4025
  3
INSUNITS
350
402A
  3
LAYOUTDICT
350
4027
  3
LWETCUNION
350
4029
  3
MATERIALDICT
350
4046
  3
PLOTSETDICT
350
4028
  3
PSVPSCALE
350
402F
  3
PUCSBASE
350
4032
  3
PUCSORGBACK
350
4038
  3
PUCSORGBOTTOM
350
4034
  3
PUCSORGFRONT
350
4037
  3
PUCSORGLEFT
350
4035
  3
PUCSORGRIGHT
350
4036
  3
PUCSORGTOP
350
4033
  3
PUCSORTHOREF
350
4030
  3
PUCSORTHOVIEW
350
4031
  3
STYLESHEET
350
4026
  3
TSTACKALIGN
350
4023
  3
TSTACKSIZE
350
4024
  3
UCSBASE
350
403B
  3
UCSORGBACK
350
4041
  3
UCSORGBOTTOM
350
403D
  3
UCSORGFRONT
350
4040
  3
UCSORGLEFT
350
403E
  3
UCSORGRIGHT
350
403F
  3
UCSORGTOP
350
403C
  3
UCSORTHOREF
350
4039
  3
UCSORTHOVIEW
350
403A
  3
VERSIONGUID
350
402E
  0
DICTIONARY
  5
401A
102
{ACAD_REACTORS
330
C
102
}
330
C
100
AcDbDictionary
  3
CANNOSCALE
350
401B
  3
CMLEADERSTYLE
350
401D
  3
CTABLESTYLE
350
401C
  3
DIMASSOC
350
4043
  3
HIDETEXT
350
4044
  3
MSLTSCALE
350
401E
  3
XCLIPFRAME
350
401F
  0
XRECORD
  5
4047
102
{ACAD_REACTORS
330
C
102
}
330
C
100
AcDbXrecord
  1
DWGPROPS COOKIE
  2

  3

  4

  6

  7

  8
y-ohno
  9

300
=
301
=
302
=
303
=
304
=
305
=
306
=
307
=
308
=
309
=
 40
0.0
 41
2450576.222302431
 42
2457191.28934169
  1

 90
        0
  0
XRECORD
  5
4049
102
{ACAD_REACTORS
330
4048
102
}
330
4048
100
AcDbXrecord
102
VTR_0.000_0.000_1.000_1.000_VISUALSTYLE
340
3BA5
102
VTR_0.000_0.000_1.000_1.000_GRIDDISPLAY
 70
     3
102
VTR_0.000_0.000_1.000_1.000_GRIDMAJOR
 70
     5
102
VTR_0.000_0.000_1.000_1.000_DEFAULTLIGHTING
280
     1
102
VTR_0.000_0.000_1.000_1.000_DEFAULTLIGHTINGTYPE
 70
     1
102
VTR_0.000_0.000_1.000_1.000_BRIGHTNESS
141
0.0
102
VTR_0.000_0.000_1.000_1.000_CONTRAST
142
0.0
  0
DICTIONARY
  5
2B0C
102
{ACAD_REACTORS
330
29EA
102
}
330
29EA
100
AcDbDictionary
  0
DICTIONARY
  5
29EB
102
{ACAD_REACTORS
330
29EA
102
}
330
29EA
100
AcDbDictionary
  0
DICTIONARY
  5
4017
102
{ACAD_REACTORS
330
4016
102
}
330
4016
100
AcDbDictionary
  3
ACDB_ANNOTATIONSCALES
350
4018
  0
DICTIONARY
  5
3EDB
102
{ACAD_REACTORS
330
3EDA
102
}
330
3EDA
100
AcDbDictionary
  3
ACDB_ANNOTATIONSCALES
350
3EDC
  0
DICTIONARY
  5
3F20
102
{ACAD_REACTORS
330
3F1F
102
}
330
3F1F
100
AcDbDictionary
  3
ACDB_ANNOTATIONSCALES
350
3F21
  0
DICTIONARY
  5
3F24
102
{ACAD_REACTORS
330
3F23
102
}
330
3F23
100
AcDbDictionary
  3
ACDB_ANNOTATIONSCALES
350
3F25
  0
DICTIONARY
  5
3BE8
102
{ACAD_REACTORS
330
3BE7
102
}
330
3BE7
100
AcDbDictionary
  3
ACDB_ANNOTATIONSCALES
350
3BE9
  0
DICTIONARY
  5
3BEB
102
{ACAD_REACTORS
330
3BEA
102
}
330
3BEA
100
AcDbDictionary
  3
ACDB_ANNOTATIONSCALES
350
3BEC
  0
DICTIONARY
  5
3BE5
102
{ACAD_REACTORS
330
3BE4
102
}
330
3BE4
100
AcDbDictionary
  3
ACDB_ANNOTATIONSCALES
350
3BE6
  0
MATERIAL
  5
3BDC
102
{ACAD_REACTORS
330
2947
102
}
102
{ACAD_XDICTIONARY
360
404C
102
}
330
2947
100
AcDbMaterial
  1
BYBLOCK
  0
MATERIAL
  5
3BDB
102
{ACAD_REACTORS
330
2947
102
}
102
{ACAD_XDICTIONARY
360
404A
102
}
330
2947
100
AcDbMaterial
  1
BYLAYER
  0
MATERIAL
  5
3BDD
102
{ACAD_REACTORS
330
2947
102
}
102
{ACAD_XDICTIONARY
360
404E
102
}
330
2947
100
AcDbMaterial
  1
GLOBAL
  0
ACAD_PROXY_OBJECT
  5
3BE1
102
{ACAD_REACTORS
330
3BE0
102
}
330
3BE0
100
AcDbProxyObject
 90
      499
 91
      507
 93
      610
310
40901902A4063FBFFFFFE0000000000000020400000000000020404214DD185B99185C990000000000000104090141901A00000000000004100000000000000041025764000000000000039000
340
14
340
0
340
10
340
0
 94
        0
1001
ACAD_MLEADERVER
1070
     2
  0
MLINESTYLE
  5
13
102
{ACAD_REACTORS
330
E
102
}
330
E
100
AcDbMlineStyle
  2
STANDARD
 70
     0
  3

 62
     0
 51
90.0
 52
90.0
 71
     2
 49
0.5
 62
   256
  6
BYLAYER
 49
-0.5
 62
   256
  6
BYLAYER
  0
ACAD_PROXY_OBJECT
  5
3BBA
102
{ACAD_REACTORS
330
3BB9
102
}
330
3BB9
100
AcDbProxyObject
 90
      499
 91
      504
 93
       41
310
903313A31580
  0
ACAD_PROXY_OBJECT
  5
3BBB
102
{ACAD_REACTORS
330
3BB9
102
}
330
3BB9
100
AcDbProxyObject
 90
      499
 91
      504
 93
      105
310
903313A324000000000000004000
  0
ACAD_PROXY_OBJECT
  5
3BBC
102
{ACAD_REACTORS
330
3BB9
102
}
330
3BB9
100
AcDbProxyObject
 90
      499
 91
      504
 93
      105
310
903313A344000000000000104000
  0
ACAD_PROXY_OBJECT
  5
3BBD
102
{ACAD_REACTORS
330
3BB9
102
}
330
3BB9
100
AcDbProxyObject
 90
      499
 91
      504
 93
      105
310
903313A354000000000000144000
  0
ACAD_PROXY_OBJECT
  5
3BBE
102
{ACAD_REACTORS
330
3BB9
102
}
330
3BB9
100
AcDbProxyObject
 90
      499
 91
      504
 93
      105
310
903313A384000000000000204000
  0
ACAD_PROXY_OBJECT
  5
3BBF
102
{ACAD_REACTORS
330
3BB9
102
}
330
3BB9
100
AcDbProxyObject
 90
      499
 91
      504
 93
      113
310
904313A31304000000000000244000
  0
ACAD_PROXY_OBJECT
  5
3BC0
102
{ACAD_REACTORS
330
3BB9
102
}
330
3BB9
100
AcDbProxyObject
 90
      499
 91
      504
 93
      113
310
904313A31364000000000000304000
  0
ACAD_PROXY_OBJECT
  5
3BC1
102
{ACAD_REACTORS
330
3BB9
102
}
330
3BB9
100
AcDbProxyObject
 90
      499
 91
      504
 93
      113
310
904313A32304000000000000344000
  0
ACAD_PROXY_OBJECT
  5
3BC2
102
{ACAD_REACTORS
330
3BB9
102
}
330
3BB9
100
AcDbProxyObject
 90
      499
 91
      504
 93
      113
310
904313A333040000000000003E4000
  0
ACAD_PROXY_OBJECT
  5
3BC3
102
{ACAD_REACTORS
330
3BB9
102
}
330
3BB9
100
AcDbProxyObject
 90
      499
 91
      504
 93
      113
310
904313A34304000000000000444000
  0
ACAD_PROXY_OBJECT
  5
3BC4
102
{ACAD_REACTORS
330
3BB9
102
}
330
3BB9
100
AcDbProxyObject
 90
      499
 91
      504
 93
      113
310
904313A35304000000000000494000
  0
ACAD_PROXY_OBJECT
  5
3BC5
102
{ACAD_REACTORS
330
3BB9
102
}
330
3BB9
100
AcDbProxyObject
 90
      499
 91
      504
 93
      121
310
905313A3130304000000000000594000
  0
ACAD_PROXY_OBJECT
  5
3BC6
102
{ACAD_REACTORS
330
3BB9
102
}
330
3BB9
100
AcDbProxyObject
 90
      499
 91
      504
 93
      105
310
903323A310000000000000010100
  0
ACAD_PROXY_OBJECT
  5
3BC7
102
{ACAD_REACTORS
330
3BB9
102
}
330
3BB9
100
AcDbProxyObject
 90
      499
 91
      504
 93
      105
310
903343A310000000000000410100
  0
ACAD_PROXY_OBJECT
  5
3BC8
102
{ACAD_REACTORS
330
3BB9
102
}
330
3BB9
100
AcDbProxyObject
 90
      499
 91
      504
 93
      105
310
903383A310000000000000810100
  0
ACAD_PROXY_OBJECT
  5
3BC9
102
{ACAD_REACTORS
330
3BB9
102
}
330
3BB9
100
AcDbProxyObject
 90
      499
 91
      504
 93
      113
310
90431303A310000000000000910100
  0
ACAD_PROXY_OBJECT
  5
3BCA
102
{ACAD_REACTORS
330
3BB9
102
}
330
3BB9
100
AcDbProxyObject
 90
      499
 91
      504
 93
      121
310
9053130303A310000000000001650100
  0
ACAD_PROXY_OBJECT
  5
3BCB
102
{ACAD_REACTORS
330
3BB9
102
}
330
3BB9
100
AcDbProxyObject
 90
      499
 91
      504
 93
      257
310
90E312F31323822203D2031272D3022000000000000200FC000000000000284000
  0
ACAD_PROXY_OBJECT
  5
3BCC
102
{ACAD_REACTORS
330
3BB9
102
}
330
3BB9
100
AcDbProxyObject
 90
      499
 91
      504
 93
      249
310
90D312F363422203D2031272D3022000000000000240FC000000000000284000
  0
ACAD_PROXY_OBJECT
  5
3BCD
102
{ACAD_REACTORS
330
3BB9
102
}
330
3BB9
100
AcDbProxyObject
 90
      499
 91
      504
 93
      249
310
90D312F333222203D2031272D3022000000000000280FC000000000000284000
  0
ACAD_PROXY_OBJECT
  5
3BCE
102
{ACAD_REACTORS
330
3BB9
102
}
330
3BB9
100
AcDbProxyObject
 90
      499
 91
      504
 93
      249
310
90D312F313622203D2031272D30220000000000002C0FC000000000000284000
  0
ACAD_PROXY_OBJECT
  5
3BCF
102
{ACAD_REACTORS
330
3BB9
102
}
330
3BB9
100
AcDbProxyObject
 90
      499
 91
      504
 93
      249
310
90D332F333222203D2031272D30220000000000002E0FC000000000000284000
  0
ACAD_PROXY_OBJECT
  5
3BD0
102
{ACAD_REACTORS
330
3BB9
102
}
330
3BB9
100
AcDbProxyObject
 90
      499
 91
      504
 93
      241
310
90C312F3822203D2031272D3022000000000000300FC000000000000284000
  0
ACAD_PROXY_OBJECT
  5
3BD1
102
{ACAD_REACTORS
330
3BB9
102
}
330
3BB9
100
AcDbProxyObject
 90
      499
 91
      504
 93
      249
310
90D332F313622203D2031272D3022000000000000320FC000000000000284000
  0
ACAD_PROXY_OBJECT
  5
3BD2
102
{ACAD_REACTORS
330
3BB9
102
}
330
3BB9
100
AcDbProxyObject
 90
      499
 91
      504
 93
      241
310
90C312F3422203D2031272D3022000000000000340FC000000000000284000
  0
ACAD_PROXY_OBJECT
  5
3BD3
102
{ACAD_REACTORS
330
3BB9
102
}
330
3BB9
100
AcDbProxyObject
 90
      499
 91
      504
 93
      241
310
90C332F3822203D2031272D3022000000000000360FC000000000000284000
  0
ACAD_PROXY_OBJECT
  5
3BD4
102
{ACAD_REACTORS
330
3BB9
102
}
330
3BB9
100
AcDbProxyObject
 90
      499
 91
      504
 93
      241
310
90C312F3222203D2031272D3022000000000000380FC000000000000284000
  0
ACAD_PROXY_OBJECT
  5
3BD5
102
{ACAD_REACTORS
330
3BB9
102
}
330
3BB9
100
AcDbProxyObject
 90
      499
 91
      504
 93
      241
310
90C332F3422203D2031272D30220000000000003A0FC000000000000284000
  0
ACAD_PROXY_OBJECT
  5
3BD6
102
{ACAD_REACTORS
330
3BB9
102
}
330
3BB9
100
AcDbProxyObject
 90
      499
 91
      504
 93
      161
310
90A3122203D2031272D30224000000000000284000
  0
ACAD_PROXY_OBJECT
  5
3BD7
102
{ACAD_REACTORS
330
3BB9
102
}
330
3BB9
100
AcDbProxyObject
 90
      499
 91
      504
 93
      257
310
90E312D312F3222203D2031272D30220000000000003E0FC000000000000284000
  0
ACAD_PROXY_OBJECT
  5
3BD8
102
{ACAD_REACTORS
330
3BB9
102
}
330
3BB9
100
AcDbProxyObject
 90
      499
 91
      504
 93
      225
310
90A3322203D2031272D302200000000000002100000000000000284000
  0
ACAD_PROXY_OBJECT
  5
3BD9
102
{ACAD_REACTORS
330
3BB9
102
}
330
3BB9
100
AcDbProxyObject
 90
      499
 91
      504
 93
      225
310
90A3622203D2031272D302200000000000006100000000000000284000
  0
ACAD_PROXY_OBJECT
  5
3BDA
102
{ACAD_REACTORS
330
3BB9
102
}
330
3BB9
100
AcDbProxyObject
 90
      499
 91
      504
 93
      249
310
90D31272D3022203D2031272D30220000000000000A100000000000000284000
  0
ACAD_PROXY_OBJECT
  5
3BA5
102
{ACAD_REACTORS
330
3BA0
102
}
330
3BA0
100
AcDbProxyObject
 90
      499
 91
      503
 93
      436
310
42CC9915DA5C99599C985B595049028333333333333E33F0000000000000F90107901411070040501600405405064090741402480A0340
1001
ACAD
1000
AcDbSavedByObjectVersion
1070
     0
  0
ACAD_PROXY_OBJECT
  5
3BA8
102
{ACAD_REACTORS
330
3BA0
102
}
330
3BA0
100
AcDbProxyObject
 90
      499
 91
      503
 93
      388
310
4150985CDA58D07406404333333333333E33F0000000000000F90107A41107004050150841D405064090741402480A0350
1001
ACAD
1000
AcDbSavedByObjectVersion
1070
     0
  0
ACAD_PROXY_OBJECT
  5
3BAC
102
{ACAD_REACTORS
330
3BA0
102
}
330
3BA0
100
AcDbProxyObject
 90
      499
 91
      503
 93
      428
310
42109C9A59DA1D195B90C409028333333333333E33F0000000000000F9010790141107004050150841D405064090741402480A029950
1001
ACAD
1000
AcDbSavedByObjectVersion
1070
     0
  0
ACAD_PROXY_OBJECT
  5
3BB0
102
{ACAD_REACTORS
330
3BA0
102
}
330
3BA0
100
AcDbProxyObject
 90
      499
 91
      503
 93
      452
310
42D0DBDB1BDC90DA185B99D95104090240C333333333333E33F0000000000000F90108901411070040501508421405064090741402480A0350
1001
ACAD
1000
AcDbSavedByObjectVersion
1070
     0
  0
ACAD_PROXY_OBJECT
  5
3BAA
102
{ACAD_REACTORS
330
3BA0
102
}
330
3BA0
100
AcDbProxyObject
 90
      499
 91
      503
 93
      500
310
4290DBDB98D95C1D1D585B10940D028333333333333E33F0000000000000F90107902409070040501000000000018199010841D405064090740C02480A0340
1001
ACAD
1000
AcDbSavedByObjectVersion
1070
     0
  0
ACAD_PROXY_OBJECT
  5
3BAB
102
{ACAD_REACTORS
330
3BA0
102
}
330
3BA0
100
AcDbProxyObject
 90
      499
 91
      503
 93
      412
310
40D11A5B50B409028333333333333E33F0000000000000F9010790141107004050150841D405064090741402480A02677FFFFFD0
1001
ACAD
1000
AcDbSavedByObjectVersion
1070
     0
  0
ACAD_PROXY_OBJECT
  5
3BB3
102
{ACAD_REACTORS
330
3BA0
102
}
330
3BA0
100
AcDbProxyObject
 90
      499
 91
      503
 93
      452
310
43115919D950DBDB1BDC93D999916409028333333333333E33F0000000000000F9010790141107004050150841D405064090741402480A0350
1001
ACAD
1000
AcDbSavedByObjectVersion
1070
     0
  0
ACAD_PROXY_OBJECT
  5
3BAF
102
{ACAD_REACTORS
330
3BA0
102
}
330
3BA0
100
AcDbProxyObject
 90
      499
 91
      503
 93
      444
310
42D19858D95C185D1D195C9B90F409028333333333333E33F0000000000000F9010790141107004050150841D405064090741402480A0350
1001
ACAD
1000
AcDbSavedByObjectVersion
1070
     0
  0
ACAD_PROXY_OBJECT
  5
3BA1
102
{ACAD_REACTORS
330
3BA0
102
}
330
3BA0
100
AcDbProxyObject
 90
      499
 91
      503
 93
      380
310
41119B185D240901404333333333333E33F0000000000000F9010740A907004050150841D405064090741402480A1B50
1001
ACAD
1000
AcDbSavedByObjectVersion
1070
     0
  0
ACAD_PROXY_OBJECT
  5
3BA2
102
{ACAD_REACTORS
330
3BA0
102
}
330
3BA0
100
AcDbProxyObject
 90
      499
 91
      503
 93
      468
310
43519B185D15DA5D1A115919D95CD0140901404333333333333E33F0000000000000F90107409019070040501600405405064090741402480A1B50
1001
ACAD
1000
AcDbSavedByObjectVersion
1070
     0
  0
ACAD_PROXY_OBJECT
  5
3BA3
102
{ACAD_REACTORS
330
3BA0
102
}
330
3BA0
100
AcDbProxyObject
 90
      499
 91
      503
 93
      404
310
41D1DBDD5C985D5910240902404333333333333E33F0000000000000F9010740A9070040501641D405064090741402480A1B50
1001
ACAD
1000
AcDbSavedByObjectVersion
1070
     0
  0
ACAD_PROXY_OBJECT
  5
3BA4
102
{ACAD_REACTORS
330
3BA0
102
}
330
3BA0
100
AcDbProxyObject
 90
      499
 91
      503
 93
      492
310
4411DBDD5C985D5915DA5D1A115919D95CD0340902404333333333333E33F0000000000000F90107409019070040501600405405064090741402480A1B50
1001
ACAD
1000
AcDbSavedByObjectVersion
1070
     0
  0
ACAD_PROXY_OBJECT
  5
3BA7
102
{ACAD_REACTORS
330
3BA0
102
}
330
3BA0
100
AcDbProxyObject
 90
      499
 91
      503
 93
      476
310
41921A5919195B90640502408333333333333E33F0000000000000F901079024090700405020000000000001110200405405064090740C02480A0340
1001
ACAD
1000
AcDbSavedByObjectVersion
1070
     0
  0
ACAD_PROXY_OBJECT
  5
3BB1
102
{ACAD_REACTORS
330
3BA0
102
}
330
3BA0
100
AcDbProxyObject
 90
      499
 91
      503
 93
      428
310
42529A5D1D195C93D999914409028333333333333E33F0000000000000F9010790141107004050150A41D405064090741402480A0350
1001
ACAD
1000
AcDbSavedByObjectVersion
1070
     0
  0
ACAD_PROXY_OBJECT
  5
3BAE
102
{ACAD_REACTORS
330
3BA0
102
}
330
3BA0
100
AcDbProxyObject
 90
      499
 91
      503
 93
      444
310
42D31A5B995C185D1D195C9B90E409028333333333333E33F0000000000000F9010790141107004050750841D405064090741402483A0350
1001
ACAD
1000
AcDbSavedByObjectVersion
1070
     0
  0
ACAD_PROXY_OBJECT
  5
3BB2
102
{ACAD_REACTORS
330
3BA0
102
}
330
3BA0
100
AcDbProxyObject
 90
      499
 91
      503
 93
      444
310
42D3DD995C9A185B99D3D999915409028333333333333E33F0000000000000F9010790141107004050150941D405064090741402480A0350
1001
ACAD
1000
AcDbSavedByObjectVersion
1070
     0
  0
ACAD_PROXY_OBJECT
  5
3BA9
102
{ACAD_REACTORS
330
3BA0
102
}
330
3BA0
100
AcDbProxyObject
 90
      499
 91
      503
 93
      428
310
425499585B1A5CDD1A58D08409038333333333333E33F0000000000000F9010740A907004050150800405405064090740C02480A1B40
1001
ACAD
1000
AcDbSavedByObjectVersion
1070
     0
  0
ACAD_PROXY_OBJECT
  5
3BB8
102
{ACAD_REACTORS
330
3BA0
102
}
330
3BA0
100
AcDbProxyObject
 90
      499
 91
      503
 93
      420
310
4194DA1859195911B40902404333333333333E33F0000000000000F9010740A41107004050150800405405064090840C02480A0B40
1001
ACAD
1000
AcDbSavedByObjectVersion
1070
     0
  0
ACAD_PROXY_OBJECT
  5
3BB7
102
{ACAD_REACTORS
330
3BA0
102
}
330
3BA0
100
AcDbProxyObject
 90
      499
 91
      503
 93
      516
310
4454DA18591959081DDA5D1A08195919D95CD1A40902404333333333333E33F0000000000000F901074090142907004050250800405405064090740C02480A0B40
1001
ACAD
1000
AcDbSavedByObjectVersion
1070
     0
  0
ACAD_PROXY_OBJECT
  5
3BB4
102
{ACAD_REACTORS
330
3BA0
102
}
330
3BA0
100
AcDbProxyObject
 90
      499
 91
      503
 93
      532
310
4394DA1859195CC81BD98811DC985E5174090240C333333333333E33F0000000000000F901079024090741D01000000000000111010841D405064090740C02480A0340
1001
ACAD
1000
AcDbSavedByObjectVersion
1070
     0
  0
ACAD_PROXY_OBJECT
  5
3BB5
102
{ACAD_REACTORS
330
3BA0
102
}
330
3BA0
100
AcDbProxyObject
 90
      499
 91
      503
 93
      476
310
41D4DAD95D18DA1E51840502408333333333333E33F0000000000000F901079024090741D01000000000000111010B41D405064090741802480A0340
1001
ACAD
1000
AcDbSavedByObjectVersion
1070
     0
  0
ACAD_PROXY_OBJECT
  5
3BAD
102
{ACAD_REACTORS
330
3BA0
102
}
330
3BA0
100
AcDbProxyObject
 90
      499
 91
      503
 93
      412
310
41D51A1A58DAD95B90D409028333333333333E33F0000000000000F9010790141107004050150C41D405064090741402480A0350
1001
ACAD
1000
AcDbSavedByObjectVersion
1070
     0
  0
ACAD_PROXY_OBJECT
  5
3BA6
102
{ACAD_REACTORS
330
3BA0
102
}
330
3BA0
100
AcDbProxyObject
 90
      499
 91
      503
 93
      420
310
4255DA5C99599C985B595059028333333333333E33F0000000000000F90107901411070040501600405405064090740C02480A0340
1001
ACAD
1000
AcDbSavedByObjectVersion
1070
     0
  0
ACAD_PROXY_OBJECT
  5
3BB6
102
{ACAD_REACTORS
330
3BA0
102
}
330
3BA0
100
AcDbProxyObject
 90
      499
 91
      503
 93
      404
310
41560B54985E51940902404000000000000E03F0000000000000F9010740501907004050150841D405064090740C02480A1B40
1001
ACAD
1000
AcDbSavedByObjectVersion
1070
     0
  0
XRECORD
  5
402C
102
{ACAD_REACTORS
330
4022
102
}
330
4022
100
AcDbXrecord
340
0
  0
XRECORD
  5
402B
102
{ACAD_REACTORS
330
4022
102
}
330
4022
100
AcDbXrecord
 90
        0
  0
XRECORD
  5
4045
102
{ACAD_REACTORS
330
4022
102
}
330
4022
100
AcDbXrecord
340
2948
  0
XRECORD
  5
4042
102
{ACAD_REACTORS
330
4022
102
}
330
4022
100
AcDbXrecord
1000
DSTYLE
1002
{
1070
   171
 70
     2
1070
   143
 40
0.0394
1070
   274
 70
     2
1070
    41
 40
6.0
1070
   342
340
2AF4
1070
   271
 70
     1
1070
   278
 70
    46
1070
   341
340
2AF4
1070
   272
 70
     1
1070
    48
 40
0.1
1070
   283
 70
     1
1070
    47
 40
0.1
1070
   145
 40
1.0
1070
   340
340
10
1070
   140
 40
5.0
1070
   284
 70
     0
1002
}
  0
XRECORD
  5
402D
102
{ACAD_REACTORS
330
4022
102
}
330
4022
100
AcDbXrecord
  1
{23698909-1D67-4744-B0E2-8DE11E3ED422}
  0
XRECORD
  5
4025
102
{ACAD_REACTORS
330
4022
102
}
330
4022
100
AcDbXrecord
  1

  0
XRECORD
  5
402A
102
{ACAD_REACTORS
330
4022
102
}
330
4022
100
AcDbXrecord
 90
        0
  0
XRECORD
  5
4027
102
{ACAD_REACTORS
330
4022
102
}
330
4022
100
AcDbXrecord
340
2816
  0
XRECORD
  5
4029
102
{ACAD_REACTORS
330
4022
102
}
330
4022
100
AcDbXrecord
 90
    10781
  0
XRECORD
  5
4046
102
{ACAD_REACTORS
330
4022
102
}
330
4022
100
AcDbXrecord
340
2947
  0
XRECORD
  5
4028
102
{ACAD_REACTORS
330
4022
102
}
330
4022
100
AcDbXrecord
340
2817
  0
XRECORD
  5
402F
102
{ACAD_REACTORS
330
4022
102
}
330
4022
100
AcDbXrecord
 40
0.25
  0
XRECORD
  5
4032
102
{ACAD_REACTORS
330
4022
102
}
330
4022
100
AcDbXrecord
340
0
  0
XRECORD
  5
4038
102
{ACAD_REACTORS
330
4022
102
}
330
4022
100
AcDbXrecord
 10
0.0
 20
0.0
 30
0.0
  0
XRECORD
  5
4034
102
{ACAD_REACTORS
330
4022
102
}
330
4022
100
AcDbXrecord
 10
0.0
 20
0.0
 30
0.0
  0
XRECORD
  5
4037
102
{ACAD_REACTORS
330
4022
102
}
330
4022
100
AcDbXrecord
 10
0.0
 20
0.0
 30
0.0
  0
XRECORD
  5
4035
102
{ACAD_REACTORS
330
4022
102
}
330
4022
100
AcDbXrecord
 10
0.0
 20
0.0
 30
0.0
  0
XRECORD
  5
4036
102
{ACAD_REACTORS
330
4022
102
}
330
4022
100
AcDbXrecord
 10
0.0
 20
0.0
 30
0.0
  0
XRECORD
  5
4033
102
{ACAD_REACTORS
330
4022
102
}
330
4022
100
AcDbXrecord
 10
0.0
 20
0.0
 30
0.0
  0
XRECORD
  5
4030
102
{ACAD_REACTORS
330
4022
102
}
330
4022
100
AcDbXrecord
340
0
  0
XRECORD
  5
4031
102
{ACAD_REACTORS
330
4022
102
}
330
4022
100
AcDbXrecord
 70
     0
  0
XRECORD
  5
4026
102
{ACAD_REACTORS
330
4022
102
}
330
4022
100
AcDbXrecord
  1

  0
XRECORD
  5
4023
102
{ACAD_REACTORS
330
4022
102
}
330
4022
100
AcDbXrecord
 90
        1
  0
XRECORD
  5
4024
102
{ACAD_REACTORS
330
4022
102
}
330
4022
100
AcDbXrecord
 90
       70
  0
XRECORD
  5
403B
102
{ACAD_REACTORS
330
4022
102
}
330
4022
100
AcDbXrecord
340
0
  0
XRECORD
  5
4041
102
{ACAD_REACTORS
330
4022
102
}
330
4022
100
AcDbXrecord
 10
0.0
 20
0.0
 30
0.0
  0
XRECORD
  5
403D
102
{ACAD_REACTORS
330
4022
102
}
330
4022
100
AcDbXrecord
 10
0.0
 20
0.0
 30
0.0
  0
XRECORD
  5
4040
102
{ACAD_REACTORS
330
4022
102
}
330
4022
100
AcDbXrecord
 10
0.0
 20
0.0
 30
0.0
  0
XRECORD
  5
403E
102
{ACAD_REACTORS
330
4022
102
}
330
4022
100
AcDbXrecord
 10
0.0
 20
0.0
 30
0.0
  0
XRECORD
  5
403F
102
{ACAD_REACTORS
330
4022
102
}
330
4022
100
AcDbXrecord
 10
0.0
 20
0.0
 30
0.0
  0
XRECORD
  5
403C
102
{ACAD_REACTORS
330
4022
102
}
330
4022
100
AcDbXrecord
 10
0.0
 20
0.0
 30
0.0
  0
XRECORD
  5
4039
102
{ACAD_REACTORS
330
4022
102
}
330
4022
100
AcDbXrecord
340
0
  0
XRECORD
  5
403A
102
{ACAD_REACTORS
330
4022
102
}
330
4022
100
AcDbXrecord
 70
     0
  0
XRECORD
  5
402E
102
{ACAD_REACTORS
330
4022
102
}
330
4022
100
AcDbXrecord
  1
{53FB9FD3-BCF3-4C86-9557-A16E2F9FC282}
  0
DICTIONARYVAR
  5
401B
102
{ACAD_REACTORS
330
401A
102
}
330
401A
100
DictionaryVariables
280
     0
  1
1:1
  0
DICTIONARYVAR
  5
401D
102
{ACAD_REACTORS
330
401A
102
}
330
401A
100
DictionaryVariables
280
     0
  1
Standard
  0
DICTIONARYVAR
  5
401C
102
{ACAD_REACTORS
330
401A
102
}
330
401A
100
DictionaryVariables
280
     0
  1
Standard
  0
DICTIONARYVAR
  5
4043
102
{ACAD_REACTORS
330
401A
102
}
330
401A
100
DictionaryVariables
280
     0
  1
1
  0
DICTIONARYVAR
  5
4044
102
{ACAD_REACTORS
330
401A
102
}
330
401A
100
DictionaryVariables
280
     0
  1
0
  0
DICTIONARYVAR
  5
401E
102
{ACAD_REACTORS
330
401A
102
}
330
401A
100
DictionaryVariables
280
     0
  1
0
  0
DICTIONARYVAR
  5
401F
102
{ACAD_REACTORS
330
401A
102
}
330
401A
100
DictionaryVariables
280
     0
  1
0
  0
DICTIONARY
  5
4018
102
{ACAD_REACTORS
330
4017
102
}
330
4017
100
AcDbDictionary
  0
DICTIONARY
  5
3EDC
102
{ACAD_REACTORS
330
3EDB
102
}
330
3EDB
100
AcDbDictionary
  0
DICTIONARY
  5
3F21
102
{ACAD_REACTORS
330
3F20
102
}
330
3F20
100
AcDbDictionary
  0
DICTIONARY
  5
3F25
102
{ACAD_REACTORS
330
3F24
102
}
330
3F24
100
AcDbDictionary
  0
DICTIONARY
  5
3BE9
102
{ACAD_REACTORS
330
3BE8
102
}
330
3BE8
100
AcDbDictionary
  0
DICTIONARY
  5
3BEC
102
{ACAD_REACTORS
330
3BEB
102
}
330
3BEB
100
AcDbDictionary
  0
DICTIONARY
  5
3BE6
102
{ACAD_REACTORS
330
3BE5
102
}
330
3BE5
100
AcDbDictionary
  0
DICTIONARY
  5
404C
330
3BDC
100
AcDbDictionary
280
     1
  3
ACAD_XREC_ROUNDTRIP
360
404D
  0
DICTIONARY
  5
404A
330
3BDB
100
AcDbDictionary
280
     1
  3
ACAD_XREC_ROUNDTRIP
360
404B
  0
DICTIONARY
  5
404E
330
3BDD
100
AcDbDictionary
280
     1
  3
ACAD_XREC_ROUNDTRIP
360
404F
  0
XRECORD
  5
404D
102
{ACAD_REACTORS
330
404C
102
}
330
404C
100
AcDbXrecord
102
MATERIAL
148
0.0
149
0.0
149
0.0
 93
        0
 94
      127
282
     0
 72
     1
 77
     1
171
     1
175
     1
179
     1
273
     0
  0
XRECORD
  5
404B
102
{ACAD_REACTORS
330
404A
102
}
330
404A
100
AcDbXrecord
102
MATERIAL
148
0.0
149
0.0
149
0.0
 93
        0
 94
      127
282
     0
 72
     1
 77
     1
171
     1
175
     1
179
     1
273
     0
  0
XRECORD
  5
404F
102
{ACAD_REACTORS
330
404E
102
}
330
404E
100
AcDbXrecord
102
MATERIAL
148
0.0
149
0.0
149
0.0
 93
        0
 94
      127
282
     0
 72
     1
 77
     1
171
     1
175
     1
179
     1
273
     0
  0
ENDSEC
  0
EOF
