  0
SECTION
  2
HEADER
  9
$ACADVER
  1
AC1014
  9
$ACADMAINTVER
 70
     9
  9
$DWGCODEPAGE
  3
ANSI_932
  9
$INSBASE
 10
0.0
 20
0.0
 30
0.0
  9
$EXTMIN
 10
-104.192240127588
 20
430.268536061774
 30
0.0
  9
$EXTMAX
 10
436.376171666897
 20
754.20159975759
 30
0.0
  9
$LIMMIN
 10
-360.747566795242
 20
4.457354754526
  9
$LIMMAX
 10
-162.153696144267
 20
287.675440264018
  9
$ORTHOMODE
 70
     1
  9
$REGENMODE
 70
     1
  9
$FILLMODE
 70
     1
  9
$QTEXTMODE
 70
     0
  9
$MIRRTEXT
 70
     1
  9
$DRAGMODE
 70
     2
  9
$LTSCALE
 40
1.0
  9
$OSMODE
 70
    32
  9
$ATTMODE
 70
     1
  9
$TEXTSIZE
 40
2.333873885063
  9
$TRACEWID
 40
1.0
  9
$TEXTSTYLE
  7
STANDARD
  9
$CLAYER
  8
寸法線
  9
$CELTYPE
  6
BYLAYER
  9
$CECOLOR
 62
   256
  9
$CELTSCALE
 40
10.0
  9
$DELOBJ
 70
     1
  9
$DISPSILH
 70
     0
  9
$DIMSCALE
 40
1.0
  9
$DIMASZ
 40
6.0
  9
$DIMEXO
 40
0.625
  9
$DIMDLI
 40
3.75
  9
$DIMRND
 40
0.0
  9
$DIMDLE
 40
0.0
  9
$DIMEXE
 40
1.25
  9
$DIMTP
 40
0.1
  9
$DIMTM
 40
0.1
  9
$DIMTXT
 40
5.0
  9
$DIMCEN
 40
2.5
  9
$DIMTSZ
 40
0.0
  9
$DIMTOL
 70
     0
  9
$DIMLIM
 70
     0
  9
$DIMTIH
 70
     0
  9
$DIMTOH
 70
     0
  9
$DIMSE1
 70
     0
  9
$DIMSE2
 70
     0
  9
$DIMTAD
 70
     1
  9
$DIMZIN
 70
     8
  9
$DIMBLK
  1
OPEN30
  9
$DIMASO
 70
     1
  9
$DIMSHO
 70
     1
  9
$DIMPOST
  1

  9
$DIMAPOST
  1

  9
$DIMALT
 70
     0
  9
$DIMALTD
 70
     2
  9
$DIMALTF
 40
0.0394
  9
$DIMLFAC
 40
1.0
  9
$DIMTOFL
 70
     1
  9
$DIMTVP
 40
1.0
  9
$DIMTIX
 70
     0
  9
$DIMSOXD
 70
     0
  9
$DIMSAH
 70
     0
  9
$DIMBLK1
  1

  9
$DIMBLK2
  1

  9
$DIMSTYLE
  2
ISO-25
  9
$DIMCLRD
 70
     0
  9
$DIMCLRE
 70
     0
  9
$DIMCLRT
 70
     0
  9
$DIMTFAC
 40
1.0
  9
$DIMGAP
 40
0.625
  9
$DIMJUST
 70
     0
  9
$DIMSD1
 70
     0
  9
$DIMSD2
 70
     0
  9
$DIMTOLJ
 70
     1
  9
$DIMTZIN
 70
     0
  9
$DIMALTZ
 70
     0
  9
$DIMALTTZ
 70
     0
  9
$DIMFIT
 70
     3
  9
$DIMUPT
 70
     0
  9
$DIMUNIT
 70
     2
  9
$DIMDEC
 70
     1
  9
$DIMTDEC
 70
     1
  9
$DIMALTU
 70
     2
  9
$DIMALTTD
 70
     2
  9
$DIMTXSTY
  7
STANDARD
  9
$DIMAUNIT
 70
     0
  9
$LUNITS
 70
     2
  9
$LUPREC
 70
     4
  9
$SKETCHINC
 40
1.0
  9
$FILLETRAD
 40
3.5
  9
$AUNITS
 70
     0
  9
$AUPREC
 70
     0
  9
$MENU
  1
.
  9
$ELEVATION
 40
0.0
  9
$PELEVATION
 40
0.0
  9
$THICKNESS
 40
0.0
  9
$LIMCHECK
 70
     0
  9
$CHAMFERA
 40
10.0
  9
$CHAMFERB
 40
10.0
  9
$CHAMFERC
 40
20.0
  9
$CHAMFERD
 40
0.0
  9
$SKPOLY
 70
     0
  9
$TDCREATE
 40
2450576.597302431
  9
$TDUPDATE
 40
2457191.665995949
  9
$TDINDWG
 40
1.0849912384
  9
$TDUSRTIMER
 40
1.0849912384
  9
$USRTIMER
 70
     1
  9
$ANGBASE
 50
0.0
  9
$ANGDIR
 70
     0
  9
$PDMODE
 70
     0
  9
$PDSIZE
 40
0.0
  9
$PLINEWID
 40
0.0
  9
$COORDS
 70
     1
  9
$SPLFRAME
 70
     0
  9
$SPLINETYPE
 70
     6
  9
$SPLINESEGS
 70
     8
  9
$ATTDIA
 70
     0
  9
$ATTREQ
 70
     1
  9
$HANDLING
 70
     1
  9
$HANDSEED
  5
4373
  9
$SURFTAB1
 70
     6
  9
$SURFTAB2
 70
     6
  9
$SURFTYPE
 70
     6
  9
$SURFU
 70
     6
  9
$SURFV
 70
     6
  9
$UCSNAME
  2

  9
$UCSORG
 10
0.0
 20
0.0
 30
0.0
  9
$UCSXDIR
 10
1.0
 20
0.0
 30
0.0
  9
$UCSYDIR
 10
0.0
 20
1.0
 30
0.0
  9
$PUCSNAME
  2

  9
$PUCSORG
 10
0.0
 20
0.0
 30
0.0
  9
$PUCSXDIR
 10
1.0
 20
0.0
 30
0.0
  9
$PUCSYDIR
 10
0.0
 20
1.0
 30
0.0
  9
$USERI1
 70
     0
  9
$USERI2
 70
     0
  9
$USERI3
 70
     0
  9
$USERI4
 70
     0
  9
$USERI5
 70
     0
  9
$USERR1
 40
0.0
  9
$USERR2
 40
0.0
  9
$USERR3
 40
0.0
  9
$USERR4
 40
0.0
  9
$USERR5
 40
0.0
  9
$WORLDVIEW
 70
     1
  9
$SHADEDGE
 70
     3
  9
$SHADEDIF
 70
    70
  9
$TILEMODE
 70
     0
  9
$MAXACTVP
 70
    16
  9
$PINSBASE
 10
0.0
 20
0.0
 30
0.0
  9
$PLIMCHECK
 70
     0
  9
$PEXTMIN
 10
4.746305129083
 20
1.396645458131
 30
0.0
  9
$PEXTMAX
 10
404.746305129083
 20
281.396645458131
 30
0.0
  9
$PLIMMIN
 10
-6.946593322754
 20
-6.94658241272
  9
$PLIMMAX
 10
417.718108215332
 20
293.315276107788
  9
$UNITMODE
 70
     0
  9
$VISRETAIN
 70
     0
  9
$PLINEGEN
 70
     0
  9
$PSLTSCALE
 70
     1
  9
$TREEDEPTH
 70
  3020
  9
$PICKSTYLE
 70
     1
  9
$CMLSTYLE
  2
STANDARD
  9
$CMLJUST
 70
     0
  9
$CMLSCALE
 40
1.0
  9
$PROXYGRAPHICS
 70
     1
  9
$MEASUREMENT
 70
     1
  0
ENDSEC
  0
SECTION
  2
CLASSES
  0
CLASS
  1
ACDBDICTIONARYWDFLT
  2
AcDbDictionaryWithDefault
  3
ObjectDBX Classes
 90
        0
280
     0
281
     0
  0
CLASS
  1
ACDBPLACEHOLDER
  2
AcDbPlaceHolder
  3
ObjectDBX Classes
 90
        0
280
     0
281
     0
  0
CLASS
  1
LAYOUT
  2
AcDbLayout
  3
ObjectDBX Classes
 90
        0
280
     0
281
     0
  0
CLASS
  1
VISUALSTYLE
  2
AcDbVisualStyle
  3
ObjectDBX Classes
 90
     4095
280
     0
281
     0
  0
CLASS
  1
SCALE
  2
AcDbScale
  3
ObjectDBX Classes
 90
     1153
280
     0
281
     0
  0
CLASS
  1
MATERIAL
  2
AcDbMaterial
  3
ObjectDBX Classes
 90
     1153
280
     0
281
     0
  0
CLASS
  1
TABLESTYLE
  2
AcDbTableStyle
  3
ObjectDBX Classes
 90
     4095
280
     0
281
     0
  0
CLASS
  1
MLEADERSTYLE
  2
AcDbMLeaderStyle
  3
ACDB_MLEADERSTYLE_CLASS
 90
     4095
280
     0
281
     0
  0
CLASS
  1
SUN
  2
AcDbSun
  3
SCENEOE
 90
     1153
280
     0
281
     0
  0
CLASS
  1
DICTIONARYVAR
  2
AcDbDictionaryVar
  3
ObjectDBX Classes
 90
        0
280
     0
281
     0
  0
CLASS
  1
CELLSTYLEMAP
  2
AcDbCellStyleMap
  3
ObjectDBX Classes
 90
     1152
280
     0
281
     0
  0
CLASS
  1
XRECORD
  2
AcDbXrecord
  3
ObjectDBX Classes
 90
        0
280
     0
281
     0
  0
CLASS
  1
LWPOLYLINE
  2
AcDbPolyline
  3
ObjectDBX Classes
 90
        0
280
     0
281
     1
  0
CLASS
  1
HATCH
  2
AcDbHatch
  3
ObjectDBX Classes
 90
        0
280
     0
281
     1
  0
ENDSEC
  0
SECTION
  2
TABLES
  0
TABLE
  2
VPORT
  5
8
102
{ACAD_XDICTIONARY
360
436B
102
}
330
0
100
AcDbSymbolTable
 70
     1
  0
VPORT
  5
3936
330
8
100
AcDbSymbolTableRecord
100
AcDbViewportTableRecord
  2
*ACTIVE
 70
     0
 10
0.0
 20
0.0
 11
1.0
 21
1.0
 12
210.672793819488
 22
650.418381114111
 13
0.0
 23
0.0
 14
1.0
 24
1.0
 15
0.0
 25
0.0
 16
0.0
 26
0.0
 36
1.0
 17
0.0
 27
0.0
 37
0.0
 40
181.589832337594
 41
1.56746031746
 42
50.0
 43
0.0
 44
0.0
 50
0.0
 51
0.0
 71
    16
 72
   100
 73
     1
 74
     0
 75
     0
 76
     0
 77
     0
 78
     0
  0
ENDTAB
  0
TABLE
  2
LTYPE
  5
5
330
0
100
AcDbSymbolTable
 70
     5
  0
LTYPE
  5
14
330
5
100
AcDbSymbolTableRecord
100
AcDbLinetypeTableRecord
  2
BYBLOCK
 70
     0
  3

 72
    65
 73
     0
 40
0.0
  0
LTYPE
  5
15
330
5
100
AcDbSymbolTableRecord
100
AcDbLinetypeTableRecord
  2
BYLAYER
 70
     0
  3

 72
    65
 73
     0
 40
0.0
  0
LTYPE
  5
16
330
5
100
AcDbSymbolTableRecord
100
AcDbLinetypeTableRecord
  2
CONTINUOUS
 70
     0
  3
Solid line
 72
    65
 73
     0
 40
0.0
  0
LTYPE
  5
1EC
330
5
100
AcDbSymbolTableRecord
100
AcDbLinetypeTableRecord
  2
CENTER
 70
     0
  3
____ _ ____ _ ____ _ ____ _ ____ _ ____ _ ____ 
 72
    65
 73
     4
 40
2.0
 49
1.25
 74
     0
 49
-0.25
 74
     0
 49
0.25
 74
     0
 49
-0.25
 74
     0
  0
LTYPE
  5
1ED
330
5
100
AcDbSymbolTableRecord
100
AcDbLinetypeTableRecord
  2
DASHED
 70
     0
  3
__ __ __ __ __ __ __ __ __ __ __ __ __ __ __ __
 72
    65
 73
     2
 40
0.75
 49
0.5
 74
     0
 49
-0.25
 74
     0
  0
LTYPE
  5
2B28
330
5
100
AcDbSymbolTableRecord
100
AcDbLinetypeTableRecord
  2
DASHDOT
 70
     0
  3
一点鎖線
 72
    65
 73
     4
 40
25.6
 49
20.0
 74
     0
 49
-2.0
 74
     0
 49
1.6
 74
     0
 49
-2.0
 74
     0
  0
LTYPE
  5
2B29
330
5
100
AcDbSymbolTableRecord
100
AcDbLinetypeTableRecord
  2
DIVIDE
 70
     0
  3
二点鎖線
 72
    65
 73
     6
 40
31.2
 49
20.0
 74
     0
 49
-2.4
 74
     0
 49
2.0
 74
     0
 49
-2.4
 74
     0
 49
2.0
 74
     0
 49
-2.4
 74
     0
  0
ENDTAB
  0
TABLE
  2
LAYER
  5
2
102
{ACAD_XDICTIONARY
360
29EA
102
}
330
0
100
AcDbSymbolTable
 70
    14
  0
LAYER
  5
F
330
2
100
AcDbSymbolTableRecord
100
AcDbLayerTableRecord
  2
0
 70
     0
 62
     7
  6
CONTINUOUS
  0
LAYER
  5
61
330
2
100
AcDbSymbolTableRecord
100
AcDbLayerTableRecord
  2
図枠太線
 70
     0
 62
   251
  6
CONTINUOUS
  0
LAYER
  5
62
330
2
100
AcDbSymbolTableRecord
100
AcDbLayerTableRecord
  2
図枠細線
 70
     0
 62
   252
  6
CONTINUOUS
  0
LAYER
  5
63
330
2
100
AcDbSymbolTableRecord
100
AcDbLayerTableRecord
  2
図枠ロゴマーク
 70
     0
 62
   253
  6
CONTINUOUS
  0
LAYER
  5
1EF
330
2
100
AcDbSymbolTableRecord
100
AcDbLayerTableRecord
  2
外形線
 70
     0
 62
     7
  6
CONTINUOUS
  0
LAYER
  5
1F0
330
2
100
AcDbSymbolTableRecord
100
AcDbLayerTableRecord
  2
寸法線
 70
     0
 62
     1
  6
CONTINUOUS
  0
LAYER
  5
1F1
330
2
100
AcDbSymbolTableRecord
100
AcDbLayerTableRecord
  2
中心線
 70
     0
 62
     4
  6
CENTER
  0
LAYER
  5
1F4
330
2
100
AcDbSymbolTableRecord
100
AcDbLayerTableRecord
  2
DEFPOINTS
 70
     0
 62
     7
  6
CONTINUOUS
  0
LAYER
  5
2AA2
330
2
100
AcDbSymbolTableRecord
100
AcDbLayerTableRecord
  2
下書線
 70
     0
 62
     2
  6
CONTINUOUS
  0
LAYER
  5
2AA3
330
2
100
AcDbSymbolTableRecord
100
AcDbLayerTableRecord
  2
隠れ線
 70
     0
 62
     3
  6
DASHED
  0
LAYER
  5
2AA4
330
2
100
AcDbSymbolTableRecord
100
AcDbLayerTableRecord
  2
細線
 70
     0
 62
     6
  6
CONTINUOUS
  0
LAYER
  5
2AA5
330
2
100
AcDbSymbolTableRecord
100
AcDbLayerTableRecord
  2
太線
 70
     0
 62
   190
  6
CONTINUOUS
  0
LAYER
  5
2B2A
330
2
100
AcDbSymbolTableRecord
100
AcDbLayerTableRecord
  2
LAY-1
 70
     0
 62
     7
  6
CONTINUOUS
  0
LAYER
  5
422D
330
2
100
AcDbSymbolTableRecord
100
AcDbLayerTableRecord
  2
寸法線_文字
 70
     0
 62
     1
  6
CONTINUOUS
  0
ENDTAB
  0
TABLE
  2
STYLE
  5
3
330
0
100
AcDbSymbolTable
 70
     3
  0
STYLE
  5
10
330
3
100
AcDbSymbolTableRecord
100
AcDbTextStyleTableRecord
  2
STANDARD
 70
     0
 40
0.0
 41
1.0
 50
0.0
 71
     0
 42
2.333873885063
  3
ISOCP
  4
bigfont.shx
  0
STYLE
  5
64
330
3
100
AcDbSymbolTableRecord
100
AcDbTextStyleTableRecord
  2
EXCADSTD
 70
     0
 40
0.0
 41
1.0
 50
0.0
 71
     0
 42
0.2
  3
monotxt
  4
bigfont
  0
STYLE
  5
2B2B
330
3
100
AcDbSymbolTableRecord
100
AcDbTextStyleTableRecord
  2
EXCADVERT
 70
     4
 40
0.0
 41
1.0
 50
0.0
 71
     0
 42
0.286885
  3
monotxt
  4
bigfont
  0
ENDTAB
  0
TABLE
  2
VIEW
  5
6
330
0
100
AcDbSymbolTable
 70
     0
  0
ENDTAB
  0
TABLE
  2
UCS
  5
7
330
0
100
AcDbSymbolTable
 70
     0
  0
ENDTAB
  0
TABLE
  2
APPID
  5
9
330
0
100
AcDbSymbolTable
 70
     3
  0
APPID
  5
11
330
9
100
AcDbSymbolTableRecord
100
AcDbRegAppTableRecord
  2
ACAD
 70
     0
  0
APPID
  5
39E4
330
9
100
AcDbSymbolTableRecord
100
AcDbRegAppTableRecord
  2
ACAD_MLEADERVER
 70
     0
  0
APPID
  5
3D9D
330
9
100
AcDbSymbolTableRecord
100
AcDbRegAppTableRecord
  2
ACADANNOTATIVE
 70
     0
  0
ENDTAB
  0
TABLE
  2
DIMSTYLE
  5
A
330
0
100
AcDbSymbolTable
 70
     3
  0
DIMSTYLE
105
1D
330
A
100
AcDbSymbolTableRecord
100
AcDbDimStyleTableRecord
  2
STANDARD
 70
     0
  3

  4

  5

  6

  7

 40
1.0
 41
0.18
 42
0.0625
 43
0.38
 44
0.18
 45
0.0
 46
0.0
 47
0.0
 48
0.0
140
0.18
141
0.09
142
0.0
143
25.4
144
1.0
145
0.0
146
1.0
147
0.09
 71
     0
 72
     0
 73
     1
 74
     1
 75
     0
 76
     0
 77
     0
 78
     0
170
     0
171
     2
172
     0
173
     0
174
     0
175
     0
176
     0
177
     0
178
     0
270
     2
271
     4
272
     4
273
     2
274
     2
340
10
275
     0
280
     0
281
     0
282
     0
283
     1
284
     0
285
     0
286
     0
287
     3
288
     0
  0
DIMSTYLE
105
24
102
{ACAD_REACTORS
330
347D
330
34B8
330
34C5
330
36AC
330
36DC
330
36EB
330
377C
330
40FC
330
4100
330
416F
330
4332
102
}
330
A
100
AcDbSymbolTableRecord
100
AcDbDimStyleTableRecord
  2
ISO-25
 70
     0
  3

  4

  5

  6

  7

 40
1.0
 41
2.5
 42
0.625
 43
3.75
 44
1.25
 45
0.0
 46
0.0
 47
0.0
 48
0.0
140
2.5
141
2.5
142
0.0
143
0.0394
144
1.0
145
1.0
146
1.0
147
0.625
 71
     0
 72
     0
 73
     1
 74
     0
 75
     0
 76
     0
 77
     1
 78
     8
170
     0
171
     2
172
     1
173
     0
174
     0
175
     0
176
     0
177
     0
178
     0
270
     2
271
     4
272
     4
273
     2
274
     2
340
10
275
     0
280
     0
281
     0
282
     0
283
     1
284
     0
285
     0
286
     0
287
     3
288
     0
  0
DIMSTYLE
105
4230
330
A
100
AcDbSymbolTableRecord
100
AcDbDimStyleTableRecord
  2
ISO-25$7
 70
     0
  3

  4

  5
OPEN30
  6

  7

 40
1.0
 41
1.683501683502
 42
0.420875420875
 43
2.525252525253
 44
0.841750841751
 45
0.0
 46
0.0
 47
0.03
 48
0.000000001
140
8.0
141
1.683501683502
142
0.0
143
0.0394
144
1.0
145
1.0
146
0.5
147
0.4209
 71
     0
 72
     0
 73
     0
 74
     0
 75
     0
 76
     0
 77
     1
 78
     8
170
     0
171
     2
172
     1
173
     0
174
     0
175
     0
176
     0
177
     0
178
     0
270
     2
271
     1
272
     1
273
     2
274
     2
340
64
275
     0
280
     0
281
     0
282
     0
283
     2
284
     8
285
     0
286
     0
287
     3
288
     0
  0
ENDTAB
  0
TABLE
  2
BLOCK_RECORD
  5
1
330
0
100
AcDbSymbolTable
 70
    67
  0
BLOCK_RECORD
  5
1A
330
1
100
AcDbSymbolTableRecord
100
AcDbBlockTableRecord
  2
*MODEL_SPACE
  0
BLOCK_RECORD
  5
28FB
330
1
100
AcDbSymbolTableRecord
100
AcDbBlockTableRecord
  2
*PAPER_SPACE
  0
BLOCK_RECORD
  5
65
330
1
100
AcDbSymbolTableRecord
100
AcDbBlockTableRecord
  2
A$C3392
  0
BLOCK_RECORD
  5
29BF
330
1
100
AcDbSymbolTableRecord
100
AcDbBlockTableRecord
  2
A4横用_タイトル
1001
ACAD
1000
DesignCenter Data
1002
{
1070
     1
1070
     4
1002
}
  0
BLOCK_RECORD
  5
29F4
330
1
100
AcDbSymbolTableRecord
100
AcDbBlockTableRecord
  2
A4縦用_タイトル
1001
ACAD
1000
DesignCenter Data
1002
{
1070
     1
1070
     4
1002
}
  0
BLOCK_RECORD
  5
2A32
330
1
100
AcDbSymbolTableRecord
100
AcDbBlockTableRecord
  2
A3横用_タイトル
1001
ACAD
1000
DesignCenter Data
1002
{
1070
     1
1070
     4
1002
}
  0
BLOCK_RECORD
  5
2A6C
330
1
100
AcDbSymbolTableRecord
100
AcDbBlockTableRecord
  2
A3縦用_タイトル
1001
ACAD
1000
DesignCenter Data
1002
{
1070
     1
1070
     4
1002
}
  0
BLOCK_RECORD
  5
2AF4
330
1
100
AcDbSymbolTableRecord
100
AcDbBlockTableRecord
  2
_OPEN30
  0
BLOCK_RECORD
  5
2F3F
330
1
100
AcDbSymbolTableRecord
100
AcDbBlockTableRecord
  2
ケース外形図_HL-400
  0
BLOCK_RECORD
  5
347E
330
1
100
AcDbSymbolTableRecord
100
AcDbBlockTableRecord
  2
*D9
  0
BLOCK_RECORD
  5
34B9
330
1
100
AcDbSymbolTableRecord
100
AcDbBlockTableRecord
  2
*D10
  0
BLOCK_RECORD
  5
34C6
330
1
100
AcDbSymbolTableRecord
100
AcDbBlockTableRecord
  2
*D11
  0
BLOCK_RECORD
  5
36AD
330
1
100
AcDbSymbolTableRecord
100
AcDbBlockTableRecord
  2
*D13
  0
BLOCK_RECORD
  5
36DD
330
1
100
AcDbSymbolTableRecord
100
AcDbBlockTableRecord
  2
*D14
  0
BLOCK_RECORD
  5
36EC
330
1
100
AcDbSymbolTableRecord
100
AcDbBlockTableRecord
  2
*D15
  0
BLOCK_RECORD
  5
377D
330
1
100
AcDbSymbolTableRecord
100
AcDbBlockTableRecord
  2
*D16
  0
BLOCK_RECORD
  5
41B0
330
1
100
AcDbSymbolTableRecord
100
AcDbBlockTableRecord
  2
*D46
  0
BLOCK_RECORD
  5
41E4
330
1
100
AcDbSymbolTableRecord
100
AcDbBlockTableRecord
  2
*D50
  0
BLOCK_RECORD
  5
4218
330
1
100
AcDbSymbolTableRecord
100
AcDbBlockTableRecord
  2
*D54
  0
BLOCK_RECORD
  5
4333
330
1
100
AcDbSymbolTableRecord
100
AcDbBlockTableRecord
  2
*D66
  0
ENDTAB
  0
ENDSEC
  0
SECTION
  2
BLOCKS
  0
BLOCK
  5
1B
330
1A
100
AcDbEntity
  8
0
100
AcDbBlockBegin
  2
*MODEL_SPACE
 70
     0
 10
0.0
 20
0.0
 30
0.0
  3
*MODEL_SPACE
  1

  0
ENDBLK
  5
1C
330
1A
100
AcDbEntity
  8
0
100
AcDbBlockEnd
  0
BLOCK
  5
28FD
330
28FB
100
AcDbEntity
 67
     1
  8
0
 48
10.0
100
AcDbBlockBegin
  2
*PAPER_SPACE
 70
     0
 10
0.0
 20
0.0
 30
0.0
  3
*PAPER_SPACE
  1

  0
ENDBLK
  5
28FE
330
28FB
100
AcDbEntity
 67
     1
  8
0
 48
10.0
100
AcDbBlockEnd
  0
BLOCK
  5
93
330
65
100
AcDbEntity
  8
0
100
AcDbBlockBegin
  2
A$C3392
 70
     0
 10
0.0
 20
0.0
 30
0.0
  3
A$C3392
  1
A$C3392
  0
LINE
  5
66
330
65
100
AcDbEntity
  8
図枠太線
  6
CONTINUOUS
100
AcDbLine
 10
211.858584505185
 20
30.927375675439
 30
0.0
 11
211.858584505185
 21
0.927375675439
 31
0.0
  0
LINE
  5
67
330
65
100
AcDbEntity
  8
図枠細線
  6
CONTINUOUS
100
AcDbLine
 10
231.858592505185
 20
15.927377675439
 30
0.0
 11
287.858592505185
 21
15.927375675439
 31
0.0
  0
LINE
  5
68
330
65
100
AcDbEntity
  8
図枠細線
  6
CONTINUOUS
100
AcDbLine
 10
211.858592505185
 20
15.927377675439
 30
0.0
 11
231.858592505185
 21
15.927377675439
 31
0.0
  0
LINE
  5
69
330
65
100
AcDbEntity
  8
図枠太線
  6
CONTINUOUS
 62
   251
100
AcDbLine
 10
1.858584505185
 20
0.927375675439
 30
0.0
 11
1.858584505185
 21
275.927375675439
 31
0.0
  0
TEXT
  5
6A
330
65
100
AcDbEntity
  8
図枠細線
  6
CONTINUOUS
 62
   252
100
AcDbText
 10
351.358592505185
 20
28.427377675439
 30
0.0
 40
2.0
  1
ＴＩＴＬＥ
 41
0.903614457831
  7
EXCADSTD
 72
     5
 11
361.358592505185
 21
28.427377675439
 31
0.0
100
AcDbText
  0
TEXT
  5
6B
330
65
100
AcDbEntity
  8
図枠細線
  6
CONTINUOUS
 62
   252
100
AcDbText
 10
345.358592505185
 20
28.427377675439
 30
0.0
 40
2.0
  1
名称
 41
1.171875
  7
EXCADSTD
 72
     5
 11
350.358592505185
 21
28.427377675439
 31
0.0
100
AcDbText
  0
TEXT
  5
6C
330
65
100
AcDbEntity
  8
図枠細線
  6
CONTINUOUS
 62
   252
100
AcDbText
 10
274.358592505185
 20
25.927377675439
 30
0.0
 40
2.0
  1
ＤＲＡＷＮ
 41
0.882352941176
  7
EXCADSTD
 72
     5
 11
284.358592505185
 21
25.927377675439
 31
0.0
100
AcDbText
  0
TEXT
  5
6D
330
65
100
AcDbEntity
  8
図枠細線
  6
CONTINUOUS
 62
   252
100
AcDbText
 10
260.358592505185
 20
25.927377675439
 30
0.0
 40
2.0
  1
ＤＥＳＩＧＮＥＤ
 41
0.713043472041
  7
EXCADSTD
 72
     5
 11
273.478592390744
 21
25.927377675439
 31
0.0
100
AcDbText
  0
TEXT
  5
6E
330
65
100
AcDbEntity
  8
図枠細線
  6
CONTINUOUS
 62
   252
100
AcDbText
 10
246.358592505185
 20
25.927377675439
 30
0.0
 40
2.0
  1
ＣＨＥＣＫＥＤ
 41
0.831249989569
  7
EXCADSTD
 72
     5
 11
259.658592338292
 21
25.927377675439
 31
0.0
100
AcDbText
  0
TEXT
  5
6F
330
65
100
AcDbEntity
  8
図枠細線
  6
CONTINUOUS
 62
   252
100
AcDbText
 10
274.358592505185
 20
28.427377675439
 30
0.0
 40
2.0
  1
製図
 41
1.209677419355
  7
EXCADSTD
 72
     5
 11
279.358592505185
 21
28.427377675439
 31
0.0
100
AcDbText
  0
TEXT
  5
70
330
65
100
AcDbEntity
  8
図枠細線
  6
CONTINUOUS
 62
   252
100
AcDbText
 10
260.358592505185
 20
28.427377675439
 30
0.0
 40
2.0
  1
設計
 41
1.171875
  7
EXCADSTD
 72
     5
 11
265.358592505185
 21
28.427377675439
 31
0.0
100
AcDbText
  0
TEXT
  5
71
330
65
100
AcDbEntity
  8
図枠細線
  6
CONTINUOUS
 62
   252
100
AcDbText
 10
246.358592505185
 20
28.427377675439
 30
0.0
 40
2.0
  1
検図
 41
1.209677419355
  7
EXCADSTD
 72
     5
 11
251.358592505185
 21
28.427377675439
 31
0.0
100
AcDbText
  0
TEXT
  5
72
330
65
100
AcDbEntity
  8
図枠細線
  6
CONTINUOUS
 62
   252
100
AcDbText
 10
232.358592505185
 20
25.927377675439
 30
0.0
 40
2.0
  1
ＡＰＰＲＯＶＥＤ
 41
0.695652184279
  7
EXCADSTD
 72
     5
 11
245.15859269592
 21
25.927377675439
 31
0.0
100
AcDbText
  0
TEXT
  5
73
330
65
100
AcDbEntity
  8
図枠細線
  6
CONTINUOUS
 62
   252
100
AcDbText
 10
232.358592505185
 20
28.427377675439
 30
0.0
 40
2.0
  1
承認
 41
1.171875
  7
EXCADSTD
 72
     5
 11
237.358592505185
 21
28.427377675439
 31
0.0
100
AcDbText
  0
TEXT
  5
74
330
65
100
AcDbEntity
  8
図枠細線
  6
CONTINUOUS
 62
   252
100
AcDbText
 10
290.069888505185
 20
2.574868675439
 30
0.0
 40
3.5
  1
ＴＯＷＡ　ＳＥＩＤＥＮ　ＩＮＤＵＳＴＲＩＡＬ　ＣＯ．，ＬＴＤ．
 41
0.414568012377
  7
EXCADSTD
 72
     5
 11
342.692388209546
 21
2.574868675439
 31
0.0
100
AcDbText
  0
TEXT
  5
75
330
65
100
AcDbEntity
  8
図枠ロゴマーク
  6
CONTINUOUS
 62
   253
100
AcDbText
 10
290.107348505185
 20
7.519769675439
 30
0.0
 40
7.0
  1
東和制電工業株式会社
 41
0.639204545455
  7
EXCADSTD
 72
     5
 11
342.607348505185
 21
7.519769675439
 31
0.0
100
AcDbText
  0
TEXT
  5
76
330
65
100
AcDbEntity
  8
図枠細線
  6
CONTINUOUS
 62
   252
100
AcDbText
 10
232.499705505185
 20
5.759088675439
 30
0.0
 40
2.0
  1
ＰＲＯＪＥＣＴＩＯＮ
 41
0.754285710199
  7
EXCADSTD
 72
     5
 11
250.099705409817
 21
5.759088675439
 31
0.0
100
AcDbText
  0
TEXT
  5
77
330
65
100
AcDbEntity
  8
図枠細線
  6
CONTINUOUS
 62
   252
100
AcDbText
 10
232.574629505185
 20
8.681077675439
 30
0.0
 40
2.0
  1
ＴＨＩＲＤ　ＡＮＧＬＥ
 41
0.691099486738
  7
EXCADSTD
 72
     5
 11
250.174629767445
 21
8.681077675439
 31
0.0
100
AcDbText
  0
TEXT
  5
78
330
65
100
AcDbEntity
  8
図枠細線
  6
CONTINUOUS
 62
   252
100
AcDbText
 10
256.823999505185
 20
13.427377675439
 30
0.0
 40
2.0
  1
ＳＣＡＬＥ
 41
0.903614457831
  7
EXCADSTD
 72
     5
 11
266.823999505185
 21
13.427377675439
 31
0.0
100
AcDbText
  0
TEXT
  5
79
330
65
100
AcDbEntity
  8
図枠細線
  6
CONTINUOUS
 62
   252
100
AcDbText
 10
274.858592505185
 20
13.427377675439
 30
0.0
 40
2.0
  1
ＤＡＴＥ
 41
0.923076923077
  7
EXCADSTD
 72
     5
 11
282.858592505185
 21
13.427377675439
 31
0.0
100
AcDbText
  0
TEXT
  5
7A
330
65
100
AcDbEntity
  8
図枠細線
  6
CONTINUOUS
 62
   252
100
AcDbText
 10
356.358592505185
 20
13.427377675439
 30
0.0
 40
2.0
  1
ＤＲＧ．ＮＯ．
 41
0.9375
  7
EXCADSTD
 72
     5
 11
370.358592505185
 21
13.427377675439
 31
0.0
100
AcDbText
  0
TEXT
  5
7B
330
65
100
AcDbEntity
  8
図枠細線
  6
CONTINUOUS
 62
   252
100
AcDbText
 10
345.358592505185
 20
13.427377675439
 30
0.0
 40
2.0
  1
図面番号
 41
1.102941176471
  7
EXCADSTD
 72
     5
 11
355.358592505185
 21
13.427377675439
 31
0.0
100
AcDbText
  0
TEXT
  5
7C
330
65
100
AcDbEntity
  8
図枠細線
  6
CONTINUOUS
 62
   252
100
AcDbText
 10
269.358592505185
 20
13.427377675439
 30
0.0
 40
2.0
  1
日付
 41
1.171875
  7
EXCADSTD
 72
     5
 11
274.358592505185
 21
13.427377675439
 31
0.0
100
AcDbText
  0
TEXT
  5
7D
330
65
100
AcDbEntity
  8
図枠細線
  6
CONTINUOUS
 62
   252
100
AcDbText
 10
251.451512505185
 20
13.427377675439
 30
0.0
 40
2.0
  1
尺度
 41
1.171875
  7
EXCADSTD
 72
     5
 11
256.451512505185
 21
13.427377675439
 31
0.0
100
AcDbText
  0
TEXT
  5
7E
330
65
100
AcDbEntity
  8
図枠細線
  6
CONTINUOUS
 62
   252
100
AcDbText
 10
232.358592505185
 20
13.427377675439
 30
0.0
 40
2.0
  1
第三角法
 41
1.102941176471
  7
EXCADSTD
 72
     5
 11
242.358592505185
 21
13.427377675439
 31
0.0
100
AcDbText
  0
TEXT
  5
7F
330
65
100
AcDbEntity
  8
図枠細線
  6
CONTINUOUS
 62
   252
100
AcDbText
 10
212.358592505185
 20
28.427377675439
 30
0.0
 40
2.0
  1
ＮＯＴＥ
 41
0.923076923077
  7
EXCADSTD
 72
     5
 11
220.358592505185
 21
28.427377675439
 31
0.0
100
AcDbText
  0
LINE
  5
80
330
65
100
AcDbEntity
  8
図枠細線
  6
CONTINUOUS
 62
   252
100
AcDbLine
 10
287.858592505185
 20
23.427375675439
 30
0.0
 11
344.858592505185
 21
23.427375675439
 31
0.0
  0
LINE
  5
81
330
65
100
AcDbEntity
  8
図枠太線
  6
CONTINUOUS
 62
   251
100
AcDbLine
 10
287.858584505185
 20
15.927375675439
 30
0.0
 11
344.858592505185
 21
15.927375675439
 31
0.0
  0
LINE
  5
82
330
65
100
AcDbEntity
  8
図枠細線
  6
CONTINUOUS
 62
   252
100
AcDbLine
 10
344.858592505185
 20
15.927375675439
 30
0.0
 11
401.858584505185
 21
15.927375675439
 31
0.0
  0
LINE
  5
83
330
65
100
AcDbEntity
  8
図枠太線
  6
CONTINUOUS
 62
   251
100
AcDbLine
 10
344.858592505185
 20
0.927377675439
 30
0.0
 11
344.858592505185
 21
30.927375675439
 31
0.0
  0
LINE
  5
84
330
65
100
AcDbEntity
  8
図枠太線
  6
CONTINUOUS
 62
   251
100
AcDbLine
 10
287.858592505185
 20
0.927377675439
 30
0.0
 11
287.858592505185
 21
30.927375675439
 31
0.0
  0
LINE
  5
85
330
65
100
AcDbEntity
  8
図枠細線
  6
CONTINUOUS
 62
   252
100
AcDbLine
 10
268.858592505185
 20
0.927377675439
 30
0.0
 11
268.858592505185
 21
15.927375675439
 31
0.0
  0
LINE
  5
86
330
65
100
AcDbEntity
  8
図枠細線
  6
CONTINUOUS
 62
   252
100
AcDbLine
 10
250.858592505185
 20
0.927377675439
 30
0.0
 11
250.858592505185
 21
15.927375675439
 31
0.0
  0
LINE
  5
87
330
65
100
AcDbEntity
  8
図枠細線
  6
CONTINUOUS
 62
   252
100
AcDbLine
 10
273.858592505185
 20
30.927375675439
 30
0.0
 11
273.858592505185
 21
15.927375675439
 31
0.0
  0
LINE
  5
88
330
65
100
AcDbEntity
  8
図枠細線
  6
CONTINUOUS
 62
   252
100
AcDbLine
 10
259.858592505185
 20
30.927375675439
 30
0.0
 11
259.858592505185
 21
15.927375675439
 31
0.0
  0
LINE
  5
89
330
65
100
AcDbEntity
  8
図枠細線
  6
CONTINUOUS
 62
   252
100
AcDbLine
 10
245.858592505185
 20
30.927375675439
 30
0.0
 11
245.858592505185
 21
15.927375675439
 31
0.0
  0
LINE
  5
8A
330
65
100
AcDbEntity
  8
図枠太線
  6
CONTINUOUS
 62
   251
100
AcDbLine
 10
231.858592505185
 20
0.927377675439
 30
0.0
 11
231.858592505185
 21
30.927375675439
 31
0.0
  0
LINE
  5
8B
330
65
100
AcDbEntity
  8
図枠細線
  6
CONTINUOUS
 62
   252
100
AcDbLine
 10
211.858592505185
 20
25.927375675439
 30
0.0
 11
231.858592505185
 21
25.927375675439
 31
0.0
  0
LINE
  5
8C
330
65
100
AcDbEntity
  8
図枠細線
  6
CONTINUOUS
 62
   252
100
AcDbLine
 10
211.858592505185
 20
20.927375675439
 30
0.0
 11
231.858592505185
 21
20.927375675439
 31
0.0
  0
LINE
  5
8D
330
65
100
AcDbEntity
  8
図枠細線
  6
CONTINUOUS
 62
   252
100
AcDbLine
 10
211.858592505185
 20
10.927375675439
 30
0.0
 11
231.858592505185
 21
10.927375675439
 31
0.0
  0
LINE
  5
8E
330
65
100
AcDbEntity
  8
図枠細線
  6
CONTINUOUS
 62
   252
100
AcDbLine
 10
211.858592505185
 20
5.927377675439
 30
0.0
 11
231.858592505185
 21
5.927377675439
 31
0.0
  0
LINE
  5
8F
330
65
100
AcDbEntity
  8
図枠太線
  6
CONTINUOUS
 62
   251
100
AcDbLine
 10
211.858592505185
 20
30.927375675439
 30
0.0
 11
401.858584505185
 21
30.927375675439
 31
0.0
  0
LINE
  5
90
330
65
100
AcDbEntity
  8
図枠太線
  6
CONTINUOUS
 62
   251
100
AcDbLine
 10
1.858584505185
 20
275.927375675439
 30
0.0
 11
401.858584505185
 21
275.927375675439
 31
0.0
  0
LINE
  5
91
330
65
100
AcDbEntity
  8
図枠太線
  6
CONTINUOUS
 62
   251
100
AcDbLine
 10
401.858584505185
 20
0.927375675439
 30
0.0
 11
401.858584505185
 21
275.927375675439
 31
0.0
  0
LINE
  5
92
330
65
100
AcDbEntity
  8
図枠太線
  6
CONTINUOUS
 62
   251
100
AcDbLine
 10
1.858584505185
 20
0.927375675439
 30
0.0
 11
401.858584505185
 21
0.927375675439
 31
0.0
  0
ENDBLK
  5
94
330
65
100
AcDbEntity
  8
0
100
AcDbBlockEnd
  0
BLOCK
  5
29C0
330
29BF
100
AcDbEntity
  8
0
100
AcDbBlockBegin
  2
A4横用_タイトル
 70
     0
 10
0.0
 20
0.0
 30
0.0
  3
A4横用_タイトル
  1
A4横用_タイトル
  0
LINE
  5
29C1
330
29BF
100
AcDbEntity
  8
図枠細線
  6
CONTINUOUS
100
AcDbLine
 10
75.061011071051
 20
16.806607253358
 30
0.0
 11
144.061011071051
 21
16.806604789072
 31
0.0
  0
LINE
  5
29C2
330
29BF
100
AcDbEntity
  8
図枠細線
  6
CONTINUOUS
 62
   252
100
AcDbLine
 10
4.061011071051
 20
11.806606253358
 30
0.0
 11
75.061011071051
 21
11.806606253358
 31
0.0
  0
LINE
  5
29C3
330
29BF
100
AcDbEntity
  8
図枠細線
  6
CONTINUOUS
 62
   252
100
AcDbLine
 10
4.061011071051
 20
21.806606253358
 30
0.0
 11
75.061011071051
 21
21.806606253358
 31
0.0
  0
LINE
  5
29C4
330
29BF
100
AcDbEntity
  8
図枠細線
  6
CONTINUOUS
 62
   252
100
AcDbLine
 10
4.061011071051
 20
26.806606253358
 30
0.0
 11
75.061011071051
 21
26.806606253358
 31
0.0
  0
LINE
  5
29C5
330
29BF
100
AcDbEntity
  8
図枠細線
  6
CONTINUOUS
100
AcDbLine
 10
4.061011071051
 20
16.806608253358
 30
0.0
 11
75.061011071051
 21
16.806608253358
 31
0.0
  0
TEXT
  5
29C6
330
29BF
100
AcDbEntity
  8
図枠細線
  6
CONTINUOUS
 62
   252
100
AcDbText
 10
76.405475827713
 20
9.560308253358
 30
0.0
 40
2.0
  1
ＴＨＩＲＤ　ＡＮＧＬＥ
 41
0.691099486738
  7
EXCADSTD
 72
     5
 11
94.005476089973
 21
9.560308253358
 31
0.0
100
AcDbText
  0
TEXT
  5
29C7
330
29BF
100
AcDbEntity
  8
図枠細線
  6
CONTINUOUS
 62
   252
100
AcDbText
 10
76.705775880921
 20
14.306608253358
 30
0.0
 40
2.0
  1
第三角法
 41
1.102941176471
  7
EXCADSTD
 72
     5
 11
86.705775880921
 21
14.306608253358
 31
0.0
100
AcDbText
  0
TEXT
  5
29C8
330
29BF
100
AcDbEntity
  8
図枠細線
  6
CONTINUOUS
 62
   252
100
AcDbText
 10
76.705775880921
 20
26.806608253358
 30
0.0
 40
2.0
  1
ＡＰＰＲＯＶＥＤ
 41
0.695652184279
  7
EXCADSTD
 72
     5
 11
89.505776071656
 21
26.806608253358
 31
0.0
100
AcDbText
  0
TEXT
  5
29C9
330
29BF
100
AcDbEntity
  8
図枠細線
  6
CONTINUOUS
 62
   252
100
AcDbText
 10
76.705775880921
 20
29.306608253358
 30
0.0
 40
2.0
  1
承認
 41
1.171875
  7
EXCADSTD
 72
     5
 11
81.705775880921
 21
29.306608253358
 31
0.0
100
AcDbText
  0
LINE
  5
29CA
330
29BF
100
AcDbEntity
  8
図枠細線
  6
CONTINUOUS
 62
   252
100
AcDbLine
 10
98.061011071051
 20
31.806606253358
 30
0.0
 11
98.061011071051
 21
16.806606253358
 31
0.0
  0
TEXT
  5
29CB
330
29BF
100
AcDbEntity
  8
図枠細線
  6
CONTINUOUS
 62
   252
100
AcDbText
 10
104.216531119804
 20
14.306608253358
 30
0.0
 40
2.0
  1
ＳＣＡＬＥ
 41
0.903614457831
  7
EXCADSTD
 72
     5
 11
114.216531119804
 21
14.306608253358
 31
0.0
100
AcDbText
  0
TEXT
  5
29CC
330
29BF
100
AcDbEntity
  8
図枠細線
  6
CONTINUOUS
 62
   252
100
AcDbText
 10
98.844044119804
 20
14.306608253358
 30
0.0
 40
2.0
  1
尺度
 41
1.171875
  7
EXCADSTD
 72
     5
 11
103.844044119804
 21
14.306608253358
 31
0.0
100
AcDbText
  0
TEXT
  5
29CD
330
29BF
100
AcDbEntity
  8
図枠細線
  6
CONTINUOUS
 62
   252
100
AcDbText
 10
98.968727707497
 20
26.806608253358
 30
0.0
 40
2.0
  1
ＣＨＥＣＫＥＤ
 41
0.831249989569
  7
EXCADSTD
 72
     5
 11
112.268727540604
 21
26.806608253358
 31
0.0
100
AcDbText
  0
TEXT
  5
29CE
330
29BF
100
AcDbEntity
  8
図枠細線
  6
CONTINUOUS
 62
   252
100
AcDbText
 10
98.968727707497
 20
29.306608253358
 30
0.0
 40
2.0
  1
検図
 41
1.209677419355
  7
EXCADSTD
 72
     5
 11
103.968727707497
 21
29.306608253358
 31
0.0
100
AcDbText
  0
LINE
  5
29CF
330
29BF
100
AcDbEntity
  8
図枠細線
  6
CONTINUOUS
 62
   252
100
AcDbLine
 10
121.061011071051
 20
31.806606253358
 30
0.0
 11
121.061011071051
 21
16.806606253358
 31
0.0
  0
TEXT
  5
29D0
330
29BF
100
AcDbEntity
  8
図枠細線
  6
CONTINUOUS
 62
   252
100
AcDbText
 10
128.001465247253
 20
14.306608253358
 30
0.0
 40
2.0
  1
ＤＡＴＥ
 41
0.923076923077
  7
EXCADSTD
 72
     5
 11
136.001465247253
 21
14.306608253358
 31
0.0
100
AcDbText
  0
TEXT
  5
29D1
330
29BF
100
AcDbEntity
  8
図枠細線
  6
CONTINUOUS
 62
   252
100
AcDbText
 10
122.066415498841
 20
14.306608253358
 30
0.0
 40
2.0
  1
日付
 41
1.171875
  7
EXCADSTD
 72
     5
 11
127.066415498841
 21
14.306608253358
 31
0.0
100
AcDbText
  0
TEXT
  5
29D2
330
29BF
100
AcDbEntity
  8
図枠細線
  6
CONTINUOUS
 62
   252
100
AcDbText
 10
121.59429406571
 20
29.306608253358
 30
0.0
 40
2.0
  1
製図
 41
1.209677419355
  7
EXCADSTD
 72
     5
 11
126.59429406571
 21
29.306608253358
 31
0.0
100
AcDbText
  0
TEXT
  5
29D3
330
29BF
100
AcDbEntity
  8
図枠細線
  6
CONTINUOUS
 62
   252
100
AcDbText
 10
121.59429406571
 20
26.806608253358
 30
0.0
 40
2.0
  1
ＤＲＡＷＮ
 41
0.882352941176
  7
EXCADSTD
 72
     5
 11
131.59429406571
 21
26.806608253358
 31
0.0
100
AcDbText
  0
TEXT
  5
29D4
330
29BF
100
AcDbEntity
  8
図枠細線
  6
CONTINUOUS
 62
   252
100
AcDbText
 10
226.591229661348
 20
14.306608253358
 30
0.0
 40
2.0
  1
ＤＲＧ．ＮＯ．
 41
0.9375
  7
EXCADSTD
 72
     5
 11
240.591229661348
 21
14.306608253358
 31
0.0
100
AcDbText
  0
LINE
  5
29D5
330
29BF
100
AcDbEntity
  8
図枠太線
  6
CONTINUOUS
 62
   251
100
AcDbLine
 10
144.061003071051
 20
16.806606253358
 30
0.0
 11
214.061011071051
 21
16.806606253358
 31
0.0
  0
LINE
  5
29D6
330
29BF
100
AcDbEntity
  8
図枠細線
  6
CONTINUOUS
 62
   252
100
AcDbLine
 10
144.061011071051
 20
24.306606253358
 30
0.0
 11
214.061011071051
 21
24.306606253358
 31
0.0
  0
TEXT
  5
29D7
330
29BF
100
AcDbEntity
  8
図枠ロゴマーク
  6
CONTINUOUS
 62
   253
100
AcDbText
 10
146.433776781596
 20
8.399000253358
 30
0.0
 40
7.0
  1
東和制電工業株式会社
 41
0.80361088462
  7
EXCADSTD
 72
     5
 11
212.437017438349
 21
8.399000253358
 31
0.0
100
AcDbText
  0
TEXT
  5
29D8
330
29BF
100
AcDbEntity
  8
図枠細線
  6
CONTINUOUS
 62
   252
100
AcDbText
 10
215.156179912936
 20
14.306608253358
 30
0.0
 40
2.0
  1
図面番号
 41
1.102941176471
  7
EXCADSTD
 72
     5
 11
225.156179912936
 21
14.306608253358
 31
0.0
100
AcDbText
  0
TEXT
  5
29D9
330
29BF
100
AcDbEntity
  8
図枠細線
  6
CONTINUOUS
 62
   252
100
AcDbText
 10
221.591229661348
 20
29.306608253358
 30
0.0
 40
2.0
  1
ＴＩＴＬＥ
 41
0.903614457831
  7
EXCADSTD
 72
     5
 11
231.591229661348
 21
29.306608253358
 31
0.0
100
AcDbText
  0
TEXT
  5
29DA
330
29BF
100
AcDbEntity
  8
図枠細線
  6
CONTINUOUS
 62
   252
100
AcDbText
 10
215.156179912936
 20
29.306608253358
 30
0.0
 40
2.0
  1
名称
 41
1.171875
  7
EXCADSTD
 72
     5
 11
220.156179912936
 21
29.306608253358
 31
0.0
100
AcDbText
  0
LINE
  5
29DB
330
29BF
100
AcDbEntity
  8
図枠太線
  6
CONTINUOUS
 62
   251
100
AcDbLine
 10
4.061011071051
 20
1.806608253358
 30
0.0
 11
284.061011071051
 21
1.806608253358
 31
0.0
  0
LINE
  5
29DC
330
29BF
100
AcDbEntity
  8
図枠細線
  6
CONTINUOUS
 62
   252
100
AcDbLine
 10
4.061011071051
 20
6.806608253358
 30
0.0
 11
75.061011071051
 21
6.806608253358
 31
0.0
  0
LINE
  5
29DD
330
29BF
100
AcDbEntity
  8
図枠太線
  6
CONTINUOUS
 62
   251
100
AcDbLine
 10
75.061011071051
 20
1.806608253358
 30
0.0
 11
75.061011071051
 21
31.806606253358
 31
0.0
  0
TEXT
  5
29DE
330
29BF
100
AcDbEntity
  8
図枠細線
  6
CONTINUOUS
 62
   252
100
AcDbText
 10
76.330551827713
 20
6.638319253358
 30
0.0
 40
2.0
  1
ＰＲＯＪＥＣＴＩＯＮ
 41
0.754285710199
  7
EXCADSTD
 72
     5
 11
93.930551732346
 21
6.638319253358
 31
0.0
100
AcDbText
  0
LINE
  5
29DF
330
29BF
100
AcDbEntity
  8
図枠細線
  6
CONTINUOUS
 62
   252
100
AcDbLine
 10
98.061011071051
 20
1.806606931929
 30
0.0
 11
98.061011071051
 21
16.806604931929
 31
0.0
  0
LINE
  5
29E0
330
29BF
100
AcDbEntity
  8
図枠細線
  6
CONTINUOUS
 62
   252
100
AcDbLine
 10
121.061011071051
 20
1.806607574787
 30
0.0
 11
121.061011071051
 21
16.806605574787
 31
0.0
  0
LINE
  5
29E1
330
29BF
100
AcDbEntity
  8
図枠太線
  6
CONTINUOUS
 62
   251
100
AcDbLine
 10
284.061011071051
 20
1.806608253358
 30
0.0
 11
284.061011071051
 21
31.806606253358
 31
0.0
  0
LINE
  5
29E2
330
29BF
100
AcDbEntity
  8
図枠細線
  6
CONTINUOUS
 62
   252
100
AcDbLine
 10
214.061011071051
 20
16.806606253358
 30
0.0
 11
284.061011071051
 21
16.806606253358
 31
0.0
  0
TEXT
  5
29E3
330
29BF
100
AcDbEntity
  8
図枠細線
  6
CONTINUOUS
 62
   252
100
AcDbText
 10
146.199593676182
 20
3.454099253358
 30
0.0
 40
3.5
  1
ＴＯＷＡ　ＳＥＩＤＥＮ　ＩＮＤＵＳＴＲＩＡＬ　ＣＯ．，ＬＴＤ．
 41
0.528937826907
  7
EXCADSTD
 72
     5
 11
213.339435171588
 21
3.454099253358
 31
0.0
100
AcDbText
  0
LINE
  5
29E4
330
29BF
100
AcDbEntity
  8
図枠太線
  6
CONTINUOUS
 62
   251
100
AcDbLine
 10
144.061011071051
 20
1.806608253358
 30
0.0
 11
144.061011071051
 21
31.806606253358
 31
0.0
  0
LINE
  5
29E5
330
29BF
100
AcDbEntity
  8
図枠太線
  6
CONTINUOUS
 62
   251
100
AcDbLine
 10
214.061011071051
 20
1.806608253358
 30
0.0
 11
214.061011071051
 21
31.806606253358
 31
0.0
  0
MTEXT
  5
29E6
330
29BF
100
AcDbEntity
  8
図枠太線
100
AcDbMText
 10
5.064337346478
 20
31.010982137407
 30
0.0
 40
2.5
 41
8.67856098472
 71
     1
 72
     5
  1
{\Fmonotxt.shx,bigfont.shx|c128;図暦}
  0
LINE
  5
29E7
330
29BF
100
AcDbEntity
  8
図枠太線
  6
CONTINUOUS
 62
   251
100
AcDbLine
 10
4.061011071051
 20
1.806608253358
 30
0.0
 11
4.061011071051
 21
31.806606253358
 31
0.0
  0
TEXT
  5
29E8
330
29BF
100
AcDbEntity
  8
図枠細線
 48
10.0
100
AcDbText
 10
12.260817420402
 20
28.625419626495
 30
0.0
 40
2.0
  1
CHANGE NOTICE
100
AcDbText
  0
ENDBLK
  5
29E9
330
29BF
100
AcDbEntity
  8
0
100
AcDbBlockEnd
  0
BLOCK
  5
29F5
330
29F4
100
AcDbEntity
  8
0
100
AcDbBlockBegin
  2
A4縦用_タイトル
 70
     0
 10
0.0
 20
0.0
 30
0.0
  3
A4縦用_タイトル
  1
A4縦用_タイトル
  0
LINE
  5
29F6
330
29F4
100
AcDbEntity
  8
図枠太線
  6
CONTINUOUS
 62
   251
100
AcDbLine
 10
2.368253864267
 20
4.525433224584
 30
0.0
 11
192.368245864267
 21
4.525433224584
 31
0.0
  0
LINE
  5
29F7
330
29F4
100
AcDbEntity
  8
図枠太線
  6
CONTINUOUS
 62
   251
100
AcDbLine
 10
78.368245864267
 20
19.525431224584
 30
0.0
 11
135.368253864267
 21
19.525431224584
 31
0.0
  0
LINE
  5
29F8
330
29F4
100
AcDbEntity
  8
図枠細線
  6
CONTINUOUS
 62
   252
100
AcDbLine
 10
78.368253864267
 20
27.025431224584
 30
0.0
 11
135.368253864267
 21
27.025431224584
 31
0.0
  0
TEXT
  5
29F9
330
29F4
100
AcDbEntity
  8
図枠ロゴマーク
  6
CONTINUOUS
 62
   253
100
AcDbText
 10
80.617009864267
 20
11.117825224584
 30
0.0
 40
7.0
  1
東和制電工業株式会社
 41
0.639204545455
  7
EXCADSTD
 72
     5
 11
133.117009864267
 21
11.117825224584
 31
0.0
100
AcDbText
  0
TEXT
  5
29FA
330
29F4
100
AcDbEntity
  8
図枠細線
  6
CONTINUOUS
 62
   252
100
AcDbText
 10
80.579549864267
 20
6.172924224584
 30
0.0
 40
3.5
  1
ＴＯＷＡ　ＳＥＩＤＥＮ　ＩＮＤＵＳＴＲＩＡＬ　ＣＯ．，ＬＴＤ．
 41
0.414568012377
  7
EXCADSTD
 72
     5
 11
133.202049568628
 21
6.172924224584
 31
0.0
100
AcDbText
  0
LINE
  5
29FB
330
29F4
100
AcDbEntity
  8
図枠太線
  6
CONTINUOUS
 62
   251
100
AcDbLine
 10
2.368253864267
 20
4.525433224584
 30
0.0
 11
2.368253864267
 21
34.525431224584
 31
0.0
  0
TEXT
  5
29FC
330
29F4
100
AcDbEntity
  8
図枠細線
  6
CONTINUOUS
 62
   252
100
AcDbText
 10
22.504308136501
 20
12.279133224584
 30
0.0
 40
2.0
  1
ＴＨＩＲＤ　ＡＮＧＬＥ
 41
0.691099486738
  7
EXCADSTD
 72
     5
 11
40.104308398762
 21
12.279133224584
 31
0.0
100
AcDbText
  0
TEXT
  5
29FD
330
29F4
100
AcDbEntity
  8
図枠細線
  6
CONTINUOUS
 62
   252
100
AcDbText
 10
22.429384136501
 20
9.357144224584
 30
0.0
 40
2.0
  1
ＰＲＯＪＥＣＴＩＯＮ
 41
0.754285710199
  7
EXCADSTD
 72
     5
 11
40.029384041134
 21
9.357144224584
 31
0.0
100
AcDbText
  0
LINE
  5
29FE
330
29F4
100
AcDbEntity
  8
図枠細線
  6
CONTINUOUS
100
AcDbLine
 10
22.368253864267
 20
19.525433224584
 30
0.0
 11
78.368253864267
 21
19.525431224584
 31
0.0
  0
TEXT
  5
29FF
330
29F4
100
AcDbEntity
  8
図枠細線
  6
CONTINUOUS
 62
   252
100
AcDbText
 10
22.868253864267
 20
17.025433224584
 30
0.0
 40
2.0
  1
第三角法
 41
1.102941176471
  7
EXCADSTD
 72
     5
 11
32.868253864267
 21
17.025433224584
 31
0.0
100
AcDbText
  0
TEXT
  5
2A00
330
29F4
100
AcDbEntity
  8
図枠細線
  6
CONTINUOUS
 62
   252
100
AcDbText
 10
22.868253864267
 20
29.525433224584
 30
0.0
 40
2.0
  1
ＡＰＰＲＯＶＥＤ
 41
0.695652184279
  7
EXCADSTD
 72
     5
 11
35.668254055002
 21
29.525433224584
 31
0.0
100
AcDbText
  0
LINE
  5
2A01
330
29F4
100
AcDbEntity
  8
図枠細線
  6
CONTINUOUS
 62
   252
100
AcDbLine
 10
2.368253864267
 20
9.525433224584
 30
0.0
 11
22.368253864267
 21
9.525433224584
 31
0.0
  0
LINE
  5
2A02
330
29F4
100
AcDbEntity
  8
図枠細線
  6
CONTINUOUS
 62
   252
100
AcDbLine
 10
2.368253864267
 20
14.525431224584
 30
0.0
 11
22.368253864267
 21
14.525431224584
 31
0.0
  0
LINE
  5
2A03
330
29F4
100
AcDbEntity
  8
図枠細線
  6
CONTINUOUS
 62
   252
100
AcDbLine
 10
2.368253864267
 20
24.525431224584
 30
0.0
 11
22.368253864267
 21
24.525431224584
 31
0.0
  0
LINE
  5
2A04
330
29F4
100
AcDbEntity
  8
図枠細線
  6
CONTINUOUS
 62
   252
100
AcDbLine
 10
2.368253864267
 20
29.525431224584
 30
0.0
 11
22.368253864267
 21
29.525431224584
 31
0.0
  0
LINE
  5
2A05
330
29F4
100
AcDbEntity
  8
図枠細線
  6
CONTINUOUS
100
AcDbLine
 10
2.368253864267
 20
19.525433224584
 30
0.0
 11
22.368253864267
 21
19.525433224584
 31
0.0
  0
TEXT
  5
2A06
330
29F4
100
AcDbEntity
  8
図枠細線
  6
CONTINUOUS
 62
   252
100
AcDbText
 10
2.868253864267
 20
32.025433224584
 30
0.0
 40
2.0
  1
ＮＯＴＥ
 41
0.923076923077
  7
EXCADSTD
 72
     5
 11
10.868253864267
 21
32.025433224584
 31
0.0
100
AcDbText
  0
LINE
  5
2A07
330
29F4
100
AcDbEntity
  8
図枠太線
  6
CONTINUOUS
 62
   251
100
AcDbLine
 10
22.368253864267
 20
4.525433224584
 30
0.0
 11
22.368253864267
 21
34.525431224584
 31
0.0
  0
TEXT
  5
2A08
330
29F4
100
AcDbEntity
  8
図枠細線
  6
CONTINUOUS
 62
   252
100
AcDbText
 10
22.868253864267
 20
32.025433224584
 30
0.0
 40
2.0
  1
承認
 41
1.171875
  7
EXCADSTD
 72
     5
 11
27.868253864267
 21
32.025433224584
 31
0.0
100
AcDbText
  0
TEXT
  5
2A09
330
29F4
100
AcDbEntity
  8
図枠細線
  6
CONTINUOUS
 62
   252
100
AcDbText
 10
60.711709035982
 20
32.025433224584
 30
0.0
 40
2.0
  1
製図
 41
1.209677419355
  7
EXCADSTD
 72
     5
 11
65.711709035982
 21
32.025433224584
 31
0.0
100
AcDbText
  0
TEXT
  5
2A0A
330
29F4
100
AcDbEntity
  8
図枠細線
  6
CONTINUOUS
 62
   252
100
AcDbText
 10
60.711709035982
 20
29.525433224584
 30
0.0
 40
2.0
  1
ＤＲＡＷＮ
 41
0.882352941176
  7
EXCADSTD
 72
     5
 11
70.711709035982
 21
29.525433224584
 31
0.0
100
AcDbText
  0
TEXT
  5
2A0B
330
29F4
100
AcDbEntity
  8
図枠細線
  6
CONTINUOUS
 62
   252
100
AcDbText
 10
60.834891743877
 20
17.025433224584
 30
0.0
 40
2.0
  1
日付
 41
1.171875
  7
EXCADSTD
 72
     5
 11
65.834891743877
 21
17.025433224584
 31
0.0
100
AcDbText
  0
TEXT
  5
2A0C
330
29F4
100
AcDbEntity
  8
図枠細線
  6
CONTINUOUS
 62
   252
100
AcDbText
 10
47.333660864267
 20
17.025433224584
 30
0.0
 40
2.0
  1
ＳＣＡＬＥ
 41
0.903614457831
  7
EXCADSTD
 72
     5
 11
57.333660864267
 21
17.025433224584
 31
0.0
100
AcDbText
  0
TEXT
  5
2A0D
330
29F4
100
AcDbEntity
  8
図枠細線
  6
CONTINUOUS
 62
   252
100
AcDbText
 10
42.281425990082
 20
29.525433224584
 30
0.0
 40
2.0
  1
ＣＨＥＣＫＥＤ
 41
0.831249989569
  7
EXCADSTD
 72
     5
 11
55.581425823189
 21
29.525433224584
 31
0.0
100
AcDbText
  0
LINE
  5
2A0E
330
29F4
100
AcDbEntity
  8
図枠細線
  6
CONTINUOUS
 62
   252
100
AcDbLine
 10
40.968253864267
 20
34.525431224584
 30
0.0
 11
40.968253864267
 21
19.525431224584
 31
0.0
  0
LINE
  5
2A0F
330
29F4
100
AcDbEntity
  8
図枠細線
  6
CONTINUOUS
 62
   252
100
AcDbLine
 10
40.968253864267
 20
4.525433224584
 30
0.0
 11
40.968253864267
 21
19.525431224584
 31
0.0
  0
TEXT
  5
2A10
330
29F4
100
AcDbEntity
  8
図枠細線
  6
CONTINUOUS
 62
   252
100
AcDbText
 10
41.961173864267
 20
17.025433224584
 30
0.0
 40
2.0
  1
尺度
 41
1.171875
  7
EXCADSTD
 72
     5
 11
46.961173864267
 21
17.025433224584
 31
0.0
100
AcDbText
  0
TEXT
  5
2A11
330
29F4
100
AcDbEntity
  8
図枠細線
  6
CONTINUOUS
 62
   252
100
AcDbText
 10
42.281425990082
 20
32.025433224584
 30
0.0
 40
2.0
  1
検図
 41
1.209677419355
  7
EXCADSTD
 72
     5
 11
47.281425990082
 21
32.025433224584
 31
0.0
100
AcDbText
  0
LINE
  5
2A12
330
29F4
100
AcDbEntity
  8
図枠細線
  6
CONTINUOUS
 62
   252
100
AcDbLine
 10
59.768253864267
 20
34.525431224584
 30
0.0
 11
59.768253864267
 21
19.525431224584
 31
0.0
  0
LINE
  5
2A13
330
29F4
100
AcDbEntity
  8
図枠細線
  6
CONTINUOUS
 62
   252
100
AcDbLine
 10
59.768253864267
 20
4.525433224584
 30
0.0
 11
59.768253864267
 21
19.525431224584
 31
0.0
  0
LINE
  5
2A14
330
29F4
100
AcDbEntity
  8
図枠太線
  6
CONTINUOUS
 62
   251
100
AcDbLine
 10
78.368253864267
 20
4.525433224584
 30
0.0
 11
78.368253864267
 21
34.525431224584
 31
0.0
  0
TEXT
  5
2A15
330
29F4
100
AcDbEntity
  8
図枠細線
  6
CONTINUOUS
 62
   252
100
AcDbText
 10
66.334891743877
 20
17.025433224584
 30
0.0
 40
2.0
  1
ＤＡＴＥ
 41
0.923076923077
  7
EXCADSTD
 72
     5
 11
74.334891743877
 21
17.025433224584
 31
0.0
100
AcDbText
  0
LINE
  5
2A16
330
29F4
100
AcDbEntity
  8
図枠細線
  6
CONTINUOUS
 62
   252
100
AcDbLine
 10
135.368253864267
 20
19.525431224584
 30
0.0
 11
192.368245864267
 21
19.525431224584
 31
0.0
  0
TEXT
  5
2A17
330
29F4
100
AcDbEntity
  8
図枠細線
  6
CONTINUOUS
 62
   252
100
AcDbText
 10
141.868253864267
 20
32.025433224584
 30
0.0
 40
2.0
  1
ＴＩＴＬＥ
 41
0.903614457831
  7
EXCADSTD
 72
     5
 11
151.868253864267
 21
32.025433224584
 31
0.0
100
AcDbText
  0
LINE
  5
2A18
330
29F4
100
AcDbEntity
  8
図枠太線
  6
CONTINUOUS
 62
   251
100
AcDbLine
 10
135.368253864267
 20
4.525433224584
 30
0.0
 11
135.368253864267
 21
34.525431224584
 31
0.0
  0
TEXT
  5
2A19
330
29F4
100
AcDbEntity
  8
図枠細線
  6
CONTINUOUS
 62
   252
100
AcDbText
 10
135.868253864267
 20
17.025433224584
 30
0.0
 40
2.0
  1
図面番号
 41
1.102941176471
  7
EXCADSTD
 72
     5
 11
145.868253864267
 21
17.025433224584
 31
0.0
100
AcDbText
  0
TEXT
  5
2A1A
330
29F4
100
AcDbEntity
  8
図枠細線
  6
CONTINUOUS
 62
   252
100
AcDbText
 10
135.868253864267
 20
32.025433224584
 30
0.0
 40
2.0
  1
名称
 41
1.171875
  7
EXCADSTD
 72
     5
 11
140.868253864267
 21
32.025433224584
 31
0.0
100
AcDbText
  0
TEXT
  5
2A1B
330
29F4
100
AcDbEntity
  8
図枠細線
  6
CONTINUOUS
 62
   252
100
AcDbText
 10
146.868253864267
 20
17.025433224584
 30
0.0
 40
2.0
  1
ＤＲＧ．ＮＯ．
 41
0.9375
  7
EXCADSTD
 72
     5
 11
160.868253864267
 21
17.025433224584
 31
0.0
100
AcDbText
  0
LINE
  5
2A1C
330
29F4
100
AcDbEntity
  8
図枠太線
  6
CONTINUOUS
 62
   251
100
AcDbLine
 10
192.368245864267
 20
4.525433224584
 30
0.0
 11
192.368245864267
 21
34.525431224584
 31
0.0
  0
ENDBLK
  5
2A1D
330
29F4
100
AcDbEntity
  8
0
100
AcDbBlockEnd
  0
BLOCK
  5
2A33
330
2A32
100
AcDbEntity
  8
0
100
AcDbBlockBegin
  2
A3横用_タイトル
 70
     0
 10
0.0
 20
0.0
 30
0.0
  3
A3横用_タイトル
  1
A3横用_タイトル
  0
LINE
  5
2A34
330
2A32
100
AcDbEntity
  8
図枠細線
  6
CONTINUOUS
 62
   252
100
AcDbLine
 10
205.098414535793
 20
33.525959753527
 30
0.0
 11
305.098414535793
 21
33.525959753527
 31
0.0
  0
LINE
  5
2A35
330
2A32
100
AcDbEntity
  8
図枠太線
  6
CONTINUOUS
 62
   251
100
AcDbLine
 10
205.098414535793
 20
23.525959753527
 30
0.0
 11
305.098414535793
 21
23.525959753527
 31
0.0
  0
LINE
  5
2A36
330
2A32
100
AcDbEntity
  8
図枠細線
  6
CONTINUOUS
100
AcDbLine
 10
5.098414535793
 20
23.525959753527
 30
0.0
 11
105.098414535793
 21
23.525959753527
 31
0.0
  0
LINE
  5
2A37
330
2A32
100
AcDbEntity
  8
図枠細線
  6
CONTINUOUS
 62
   252
100
AcDbLine
 10
5.098414535793
 20
36.725957753527
 30
0.0
 11
105.098414535793
 21
36.725957753527
 31
0.0
  0
LINE
  5
2A38
330
2A32
100
AcDbEntity
  8
図枠細線
  6
CONTINUOUS
 62
   252
100
AcDbLine
 10
5.098414535793
 20
30.125957753527
 30
0.0
 11
105.098414535793
 21
30.125957753527
 31
0.0
  0
LINE
  5
2A39
330
2A32
100
AcDbEntity
  8
図枠細線
  6
CONTINUOUS
 62
   252
100
AcDbLine
 10
5.098414535793
 20
16.725959753527
 30
0.0
 11
105.098414535793
 21
16.725959753527
 31
0.0
  0
LINE
  5
2A3A
330
2A32
100
AcDbEntity
  8
図枠細線
  6
CONTINUOUS
 62
   252
100
AcDbLine
 10
5.098414535793
 20
10.125959753527
 30
0.0
 11
105.098414535793
 21
10.125959753527
 31
0.0
  0
LINE
  5
2A3B
330
2A32
100
AcDbEntity
  8
図枠細線
  6
CONTINUOUS
100
AcDbLine
 10
105.098414535793
 20
23.525961753527
 30
0.0
 11
205.098414535793
 21
23.525959753527
 31
0.0
  0
LINE
  5
2A3C
330
2A32
100
AcDbEntity
  8
図枠細線
  6
CONTINUOUS
 62
   252
100
AcDbLine
 10
138.398414535793
 20
43.525959753527
 30
0.0
 11
138.398414535793
 21
18.525957753527
 31
0.0
  0
LINE
  5
2A3D
330
2A32
100
AcDbEntity
  8
図枠細線
  6
CONTINUOUS
 62
   252
100
AcDbLine
 10
171.698414535793
 20
43.525959753527
 30
0.0
 11
171.698414535793
 21
18.525957753527
 31
0.0
  0
LINE
  5
2A3E
330
2A32
100
AcDbEntity
  8
図枠細線
  6
CONTINUOUS
 62
   252
100
AcDbLine
 10
305.098414535793
 20
23.525959753527
 30
0.0
 11
405.098414535793
 21
23.525959753527
 31
0.0
  0
TEXT
  5
2A3F
330
2A32
100
AcDbEntity
  8
図枠ロゴマーク
  6
CONTINUOUS
 62
   253
100
AcDbText
 10
206.102509212755
 20
13.294257570546
 30
0.0
 40
7.0
  1
東和制電工業株式会社
 50
0.016555220185
 41
1.186384129432
  7
EXCADSTD
 72
     5
 11
303.544188309143
 21
13.322412672217
 31
0.0
100
AcDbText
  0
MTEXT
  5
2A40
330
2A32
100
AcDbEntity
  8
図枠細線
100
AcDbMText
 10
6.356764112375
 20
41.976594175478
 30
0.0
 40
2.5
 41
49.938282706292
 71
     1
 72
     5
  1
{\Fmonotxt.shx,bigfont.shx|c128;図暦　CHANGE　NOTICE}
  0
MTEXT
  5
2A41
330
2A32
100
AcDbEntity
  8
図枠細線
 48
10.0
100
AcDbMText
 10
306.544114926828
 20
41.701835800934
 30
0.0
 40
2.5
 41
28.002809618823
 71
     1
 72
     5
  1
{\Fmonotxt.shx,bigfont.shx|c128;名称　TITLE}
  0
MTEXT
  5
2A42
330
2A32
100
AcDbEntity
  8
図枠細線
 48
10.0
100
AcDbMText
 10
307.329617114284
 20
21.606206797226
 30
0.0
 40
2.5
 41
24.385612216707
 71
     1
 72
     5
  1
{\Fmonotxt.shx,bigfont.shx|c128;図面番号\PDRG.　No.}
  0
MTEXT
  5
2A43
330
2A32
100
AcDbEntity
  8
図枠細線
 48
10.0
100
AcDbMText
 10
173.726349404609
 20
21.73680662198
 30
0.0
 40
2.5
 41
25.735090160813
 71
     1
 72
     5
  1
{\Fmonotxt.shx,bigfont.shx|c128;日付 DATE}
  0
MTEXT
  5
2A44
330
2A32
100
AcDbEntity
  8
図枠細線
 48
10.0
100
AcDbMText
 10
173.48708833982
 20
41.621592044998
 30
0.0
 40
2.5
 41
24.983741184205
 71
     1
 72
     5
  1
{\Fmonotxt.shx,bigfont.shx|c128;製図　DRAWN}
  0
MTEXT
  5
2A45
330
2A32
100
AcDbEntity
  8
図枠細線
 48
10.0
100
AcDbMText
 10
139.28009927741
 20
21.866713069868
 30
0.0
 40
2.5
 41
22.629632913243
 71
     1
 72
     5
  1
{\Fmonotxt.shx,bigfont.shx|c128;尺度　SCALE}
  0
MTEXT
  5
2A46
330
2A32
100
AcDbEntity
  8
図枠細線
 48
10.0
100
AcDbMText
 10
139.910091179835
 20
41.311840415554
 30
0.0
 40
2.5
 41
28.998753428368
 71
     1
 72
     5
  1
{\Fmonotxt.shx,bigfont.shx|c128;検図  CHECKED}
  0
MTEXT
  5
2A47
330
2A32
100
AcDbEntity
  8
図枠細線
 48
10.0
100
AcDbMText
 10
114.253294667728
 20
21.916124850174
 30
0.0
 40
3.0
 41
19.692400475383
 71
     1
 72
     5
  1
{\Fmonotxt.shx,bigfont.shx|c128;第三角法}
  0
MTEXT
  5
2A48
330
2A32
100
AcDbEntity
  8
図枠細線
 48
10.0
100
AcDbMText
 10
108.986959929915
 20
15.282880185837
 30
0.0
 40
2.5
 41
27.954882823547
 71
     1
 72
     5
  1
{\Fmonotxt.shx,bigfont.shx|c128;THIRD ANGLE\PPROJECTION}
  0
MTEXT
  5
2A49
330
2A32
100
AcDbEntity
  8
図枠細線
 48
10.0
100
AcDbMText
 10
106.319432640184
 20
41.511437145487
 30
0.0
 40
2.5
 41
28.233595265074
 71
     1
 72
     5
  1
{\Fmonotxt.shx,bigfont.shx|c128;承認 APPROVED}
  0
LINE
  5
2A4A
330
2A32
100
AcDbEntity
  8
図枠太線
  6
CONTINUOUS
 62
   251
100
AcDbLine
 10
5.098414535793
 20
3.525959753527
 30
0.0
 11
405.098414535793
 21
3.525959753527
 31
0.0
  0
LINE
  5
2A4B
330
2A32
100
AcDbEntity
  8
図枠太線
 48
10.0
100
AcDbLine
 10
5.098414535793
 20
3.525959753527
 30
0.0
 11
5.098414535793
 21
43.525959753527
 31
0.0
  0
LINE
  5
2A4C
330
2A32
100
AcDbEntity
  8
図枠太線
  6
CONTINUOUS
 62
   251
100
AcDbLine
 10
105.098414535793
 20
3.525959753527
 30
0.0
 11
105.098414535793
 21
43.525959753527
 31
0.0
  0
LINE
  5
2A4D
330
2A32
100
AcDbEntity
  8
図枠細線
  6
CONTINUOUS
 62
   252
100
AcDbLine
 10
138.398414535793
 20
3.525959753527
 30
0.0
 11
138.398414535793
 21
18.525957753527
 31
0.0
  0
LINE
  5
2A4E
330
2A32
100
AcDbEntity
  8
図枠細線
  6
CONTINUOUS
 62
   252
100
AcDbLine
 10
171.698414535793
 20
3.525959753527
 30
0.0
 11
171.698414535793
 21
18.525957753527
 31
0.0
  0
LINE
  5
2A4F
330
2A32
100
AcDbEntity
  8
図枠太線
  6
CONTINUOUS
 62
   251
100
AcDbLine
 10
205.098414535793
 20
3.525959753527
 30
0.0
 11
205.098414535793
 21
43.525959753527
 31
0.0
  0
LINE
  5
2A50
330
2A32
100
AcDbEntity
  8
図枠太線
 48
10.0
100
AcDbLine
 10
405.098414535793
 20
43.525959753527
 30
0.0
 11
405.098414535793
 21
3.525959753527
 31
0.0
  0
TEXT
  5
2A51
330
2A32
100
AcDbEntity
  8
図枠細線
  6
CONTINUOUS
 62
   252
100
AcDbText
 10
208.519754474572
 20
6.482358407285
 30
0.0
 40
3.5
  1
ＴＯＷＡ　ＳＥＩＤＥＮ　ＩＮＤＵＳＴＲＩＡＬ　ＣＯ．，ＬＴＤ．
 41
0.746656297509
  7
EXCADSTD
 72
     5
 11
303.295327171727
 21
6.482358407285
 31
0.0
100
AcDbText
  0
LINE
  5
2A52
330
2A32
100
AcDbEntity
  8
図枠太線
  6
CONTINUOUS
 62
   251
100
AcDbLine
 10
305.098414535793
 20
3.525959753527
 30
0.0
 11
305.098414535793
 21
43.525959753527
 31
0.0
  0
ENDBLK
  5
2A53
330
2A32
100
AcDbEntity
  8
0
100
AcDbBlockEnd
  0
BLOCK
  5
2A6D
330
2A6C
100
AcDbEntity
  8
0
100
AcDbBlockBegin
  2
A3縦用_タイトル
 70
     0
 10
0.0
 20
0.0
 30
0.0
  3
A3縦用_タイトル
  1
A3縦用_タイトル
  0
MTEXT
  5
2A6E
330
2A6C
100
AcDbEntity
  8
図枠細線
100
AcDbMText
 10
5.040804501593
 20
31.626098649005
 30
0.0
 40
2.5
 41
49.938282706292
 71
     1
 72
     5
  1
{\Fmonotxt.shx,bigfont.shx|c128;図暦　CHANGE　NOTICE}
  0
LINE
  5
2A6F
330
2A6C
100
AcDbEntity
  8
図枠太線
  6
CONTINUOUS
 62
   251
100
AcDbLine
 10
283.577871882961
 20
2.820844689254
 30
0.0
 11
283.577871882961
 21
32.820842689254
 31
0.0
  0
MTEXT
  5
2A70
330
2A6C
100
AcDbEntity
  8
図枠細線
 48
10.0
100
AcDbMText
 10
214.912458947454
 20
31.621488632308
 30
0.0
 40
2.5
 41
28.002809618823
 71
     1
 72
     5
  1
{\Fmonotxt.shx,bigfont.shx|c128;名称　TITLE}
  0
MTEXT
  5
2A71
330
2A6C
100
AcDbEntity
  8
図枠細線
 48
10.0
100
AcDbMText
 10
214.740030458938
 20
16.310225796722
 30
0.0
 40
2.5
 41
24.385612216707
 71
     1
 72
     5
  1
{\Fmonotxt.shx,bigfont.shx|c128;図面番号\PDRG.　No.}
  0
LINE
  5
2A72
330
2A6C
100
AcDbEntity
  8
図枠太線
  6
CONTINUOUS
 62
   251
100
AcDbLine
 10
213.577871882961
 20
2.820844689254
 30
0.0
 11
213.577871882961
 21
32.820842689254
 31
0.0
  0
LINE
  5
2A73
330
2A6C
100
AcDbEntity
  8
図枠太線
  6
CONTINUOUS
 62
   251
100
AcDbLine
 10
143.577871882961
 20
2.820844689254
 30
0.0
 11
143.577871882961
 21
32.820842689254
 31
0.0
  0
TEXT
  5
2A74
330
2A6C
100
AcDbEntity
  8
図枠細線
  6
CONTINUOUS
 62
   252
100
AcDbText
 10
145.716454488093
 20
4.468335689254
 30
0.0
 40
3.5
  1
ＴＯＷＡ　ＳＥＩＤＥＮ　ＩＮＤＵＳＴＲＩＡＬ　ＣＯ．，ＬＴＤ．
 41
0.528937826907
  7
EXCADSTD
 72
     5
 11
212.856295983498
 21
4.468335689254
 31
0.0
100
AcDbText
  0
TEXT
  5
2A75
330
2A6C
100
AcDbEntity
  8
図枠ロゴマーク
  6
CONTINUOUS
 62
   253
100
AcDbText
 10
145.950637593507
 20
9.413236689254
 30
0.0
 40
7.0
  1
東和制電工業株式会社
 41
0.80361088462
  7
EXCADSTD
 72
     5
 11
211.953878250259
 21
9.413236689254
 31
0.0
100
AcDbText
  0
LINE
  5
2A76
330
2A6C
100
AcDbEntity
  8
図枠細線
  6
CONTINUOUS
 62
   252
100
AcDbLine
 10
143.577871882961
 20
25.320842689254
 30
0.0
 11
213.577871882961
 21
25.320842689254
 31
0.0
  0
LINE
  5
2A77
330
2A6C
100
AcDbEntity
  8
図枠太線
  6
CONTINUOUS
 62
   251
100
AcDbLine
 10
143.577863882961
 20
17.820842689254
 30
0.0
 11
213.577871882961
 21
17.820842689254
 31
0.0
  0
LINE
  5
2A78
330
2A6C
100
AcDbEntity
  8
図枠細線
  6
CONTINUOUS
 62
   252
100
AcDbLine
 10
213.577871882961
 20
17.820842689254
 30
0.0
 11
283.577871882961
 21
17.820842689254
 31
0.0
  0
LINE
  5
2A79
330
2A6C
100
AcDbEntity
  8
図枠細線
  6
CONTINUOUS
 62
   252
100
AcDbLine
 10
120.577871882961
 20
32.820842689254
 30
0.0
 11
120.577871882961
 21
17.820842689254
 31
0.0
  0
MTEXT
  5
2A7A
330
2A6C
100
AcDbEntity
  8
図枠細線
 48
10.0
100
AcDbMText
 10
121.100885670352
 20
16.33785922638
 30
0.0
 40
2.0
 41
17.705978285068
 71
     1
 72
     5
  1
{\Fmonotxt.shx,bigfont.shx|c128;日付 DATE}
  0
MTEXT
  5
2A7B
330
2A6C
100
AcDbEntity
  8
図枠細線
 48
10.0
100
AcDbMText
 10
121.254842273491
 20
31.208993514037
 30
0.0
 40
2.0
 41
18.363799568758
 71
     1
 72
     5
  1
{\Fmonotxt.shx,bigfont.shx|c128;製図　DRAWN}
  0
LINE
  5
2A7C
330
2A6C
100
AcDbEntity
  8
図枠細線
  6
CONTINUOUS
 62
   252
100
AcDbLine
 10
97.577871882961
 20
32.820842689254
 30
0.0
 11
97.577871882961
 21
17.820842689254
 31
0.0
  0
MTEXT
  5
2A7D
330
2A6C
100
AcDbEntity
  8
図枠細線
 48
10.0
100
AcDbMText
 10
98.239734796872
 20
16.467764839281
 30
0.0
 40
2.0
 41
17.757791689903
 71
     1
 72
     5
  1
{\Fmonotxt.shx,bigfont.shx|c128;尺度　SCALE}
  0
MTEXT
  5
2A7E
330
2A6C
100
AcDbEntity
  8
図枠細線
 48
10.0
100
AcDbMText
 10
97.864744625154
 20
31.298433377664
 30
0.0
 40
2.0
 41
23.162655920976
 71
     1
 72
     5
  1
{\Fmonotxt.shx,bigfont.shx|c128;検図  CHECKED}
  0
LINE
  5
2A7F
330
2A6C
100
AcDbEntity
  8
図枠細線
  6
CONTINUOUS
 62
   252
100
AcDbLine
 10
97.577871882961
 20
2.820843367826
 30
0.0
 11
97.577871882961
 21
17.820841367826
 31
0.0
  0
LINE
  5
2A80
330
2A6C
100
AcDbEntity
  8
図枠細線
  6
CONTINUOUS
 62
   252
100
AcDbLine
 10
120.577871882961
 20
2.820844010683
 30
0.0
 11
120.577871882961
 21
17.820842010683
 31
0.0
  0
MTEXT
  5
2A81
330
2A6C
100
AcDbEntity
  8
図枠細線
 48
10.0
100
AcDbMText
 10
81.402399084102
 20
16.316484117426
 30
0.0
 40
2.0
 41
12.920322819369
 71
     1
 72
     5
  1
{\Fmonotxt.shx,bigfont.shx|c128;第三角法}
  0
MTEXT
  5
2A82
330
2A6C
100
AcDbEntity
  8
図枠細線
 48
10.0
100
AcDbMText
 10
75.736576535096
 20
11.080410931319
 30
0.0
 40
2.0
 41
21.072870671471
 71
     1
 72
     5
  1
{\Fmonotxt.shx,bigfont.shx|c128;THIRD ANGLE\PPROJECTION}
  0
LINE
  5
2A83
330
2A6C
100
AcDbEntity
  8
図枠太線
  6
CONTINUOUS
 62
   251
100
AcDbLine
 10
74.577871882961
 20
2.820844689254
 30
0.0
 11
74.577871882961
 21
32.820842689254
 31
0.0
  0
MTEXT
  5
2A84
330
2A6C
100
AcDbEntity
  8
図枠細線
 48
10.0
100
AcDbMText
 10
75.060214781573
 20
31.298434778555
 30
0.0
 40
2.0
 41
22.240928805967
 71
     1
 72
     5
  1
{\Fmonotxt.shx,bigfont.shx|c128;承認 APPROVED}
  0
LINE
  5
2A85
330
2A6C
100
AcDbEntity
  8
図枠細線
  6
CONTINUOUS
100
AcDbLine
 10
3.577871882961
 20
17.820844689254
 30
0.0
 11
74.577871882961
 21
17.820844689254
 31
0.0
  0
LINE
  5
2A86
330
2A6C
100
AcDbEntity
  8
図枠細線
  6
CONTINUOUS
 62
   252
100
AcDbLine
 10
3.577871882961
 20
27.820842689254
 30
0.0
 11
74.577871882961
 21
27.820842689254
 31
0.0
  0
LINE
  5
2A87
330
2A6C
100
AcDbEntity
  8
図枠細線
  6
CONTINUOUS
 62
   252
100
AcDbLine
 10
3.577871882961
 20
22.820842689254
 30
0.0
 11
74.577871882961
 21
22.820842689254
 31
0.0
  0
LINE
  5
2A88
330
2A6C
100
AcDbEntity
  8
図枠細線
  6
CONTINUOUS
 62
   252
100
AcDbLine
 10
3.577871882961
 20
12.820842689254
 30
0.0
 11
74.577871882961
 21
12.820842689254
 31
0.0
  0
LINE
  5
2A89
330
2A6C
100
AcDbEntity
  8
図枠細線
  6
CONTINUOUS
 62
   252
100
AcDbLine
 10
3.577871882961
 20
7.820844689254
 30
0.0
 11
74.577871882961
 21
7.820844689254
 31
0.0
  0
LINE
  5
2A8A
330
2A6C
100
AcDbEntity
  8
図枠細線
  6
CONTINUOUS
100
AcDbLine
 10
74.577871882961
 20
17.820843689254
 30
0.0
 11
143.577871882961
 21
17.820841224969
 31
0.0
  0
LINE
  5
2A8B
330
2A6C
100
AcDbEntity
  8
図枠太線
  6
CONTINUOUS
 62
   251
100
AcDbLine
 10
3.577871882961
 20
2.820844689254
 30
0.0
 11
283.577871882961
 21
2.820844689254
 31
0.0
  0
LINE
  5
2A8C
330
2A6C
100
AcDbEntity
  8
図枠太線
  6
CONTINUOUS
 62
   251
100
AcDbLine
 10
3.577871882961
 20
2.820844689254
 30
0.0
 11
3.577871882961
 21
32.820842689254
 31
0.0
  0
ENDBLK
  5
2A8D
330
2A6C
100
AcDbEntity
  8
0
100
AcDbBlockEnd
  0
BLOCK
  5
2AF8
330
2AF4
100
AcDbEntity
  8
0
 48
10.0
100
AcDbBlockBegin
  2
_OPEN30
 70
     0
 10
0.0
 20
0.0
 30
0.0
  3
_OPEN30
  1
_OPEN30
  0
LINE
  5
2AF5
330
2AF4
100
AcDbEntity
  8
0
  6
BYBLOCK
 62
     0
100
AcDbLine
 10
-1.0
 20
0.26794919
 30
0.0
 11
0.0
 21
0.0
 31
0.0
  0
LINE
  5
2AF6
330
2AF4
100
AcDbEntity
  8
0
  6
BYBLOCK
 62
     0
100
AcDbLine
 10
0.0
 20
0.0
 30
0.0
 11
-1.0
 21
-0.26794919
 31
0.0
  0
LINE
  5
2AF7
330
2AF4
100
AcDbEntity
  8
0
  6
BYBLOCK
 62
     0
100
AcDbLine
 10
0.0
 20
0.0
 30
0.0
 11
-1.0
 21
0.0
 31
0.0
  0
ENDBLK
  5
2AF9
330
2AF4
100
AcDbEntity
  8
0
 48
10.0
100
AcDbBlockEnd
  0
BLOCK
  5
2F40
330
2F3F
100
AcDbEntity
  8
0
 48
10.0
100
AcDbBlockBegin
  2
ケース外形図_HL-400
 70
     0
 10
0.0
 20
0.0
 30
0.0
  3
ケース外形図_HL-400
  1
ケース外形図_HL-400
  0
LINE
  5
2F41
330
2F3F
100
AcDbEntity
  8
外形線
100
AcDbLine
 10
-3016.68737612191
 20
-628.620502022639
 30
0.0
 11
-3004.68737612191
 21
-628.620502022639
 31
0.0
  0
LINE
  5
2F42
330
2F3F
100
AcDbEntity
  8
外形線
100
AcDbLine
 10
-3004.68737612191
 20
-556.620502022639
 30
0.0
 11
-3019.68737612191
 21
-556.620502022639
 31
0.0
  0
LINE
  5
2F43
330
2F3F
100
AcDbEntity
  8
中心線
 48
10.0
100
AcDbLine
 10
-3031.837385121911
 20
-613.830661022639
 30
0.0
 11
-3031.837385121911
 21
-669.264280022639
 31
0.0
  0
LINE
  5
2F44
330
2F3F
100
AcDbEntity
  8
外形線
100
AcDbLine
 10
-3036.074903121911
 20
-666.232883395172
 30
0.0
 11
-3036.074903121911
 21
-653.049280022639
 31
0.0
  0
LINE
  5
2F45
330
2F3F
100
AcDbEntity
  8
外形線
100
AcDbLine
 10
-3027.67493912191
 20
-666.232883395172
 30
0.0
 11
-3027.67493912191
 21
-653.049280022639
 31
0.0
  0
ARC
  5
2F46
330
2F3F
100
AcDbEntity
  8
細線
100
AcDbCircle
 10
-3033.974910933263
 20
-662.595590228936
 30
0.0
 40
4.199982
100
AcDbArc
 50
239.999981276042
 51
299.999981276021
  0
ARC
  5
2F47
330
2F3F
100
AcDbEntity
  8
細線
100
AcDbCircle
 10
-3029.774928933263
 20
-662.595591601467
 30
0.0
 40
4.199982
100
AcDbArc
 50
239.999981276042
 51
299.999981276021
  0
ARC
  5
2F48
330
2F3F
100
AcDbEntity
  8
細線
100
AcDbCircle
 10
-3029.774931310559
 20
-669.870173816342
 30
0.0
 40
4.199982
100
AcDbArc
 50
59.999981276042
 51
119.999981276021
  0
LINE
  5
2F49
330
2F3F
100
AcDbEntity
  8
外形線
100
AcDbLine
 10
-3015.18737612191
 20
-556.620502022639
 30
0.0
 11
-3015.18737612191
 21
-628.620502022639
 31
0.0
  0
LINE
  5
2F4A
330
2F3F
100
AcDbEntity
  8
外形線
100
AcDbLine
 10
-3016.68737612191
 20
-629.295475022639
 30
0.0
 11
-3016.68737612191
 21
-556.620502022639
 31
0.0
  0
LINE
  5
2F4B
330
2F3F
100
AcDbEntity
  8
外形線
100
AcDbLine
 10
-3019.68737612191
 20
-556.620502022639
 30
0.0
 11
-3019.68737612191
 21
-618.495502022639
 31
0.0
  0
LINE
  5
2F4C
330
2F3F
100
AcDbEntity
  8
外形線
100
AcDbLine
 10
-3046.687376121911
 20
-623.745502022639
 30
0.0
 11
-3046.687376121911
 21
-562.245502022639
 31
0.0
  0
LINE
  5
2F4D
330
2F3F
100
AcDbEntity
  8
外形線
100
AcDbLine
 10
-3038.779444758647
 20
-628.97627357689
 30
0.0
 11
-3045.721504395382
 21
-634.988273576889
 31
0.0
  0
LINE
  5
2F4E
330
2F3F
100
AcDbEntity
  8
外形線
100
AcDbLine
 10
-3024.895325485175
 20
-628.97627357689
 30
0.0
 11
-3017.953265848439
 21
-634.988273576889
 31
0.0
  0
LINE
  5
2F4F
330
2F3F
100
AcDbEntity
  8
外形線
100
AcDbLine
 10
-3024.895325485175
 20
-637.653848122809
 30
0.0
 11
-3024.895325485175
 21
-628.97627357689
 31
0.0
  0
LINE
  5
2F50
330
2F3F
100
AcDbEntity
  8
外形線
100
AcDbLine
 10
-3038.779444758647
 20
-637.653848122809
 30
0.0
 11
-3038.779444758647
 21
-628.97627357689
 31
0.0
  0
LWPOLYLINE
  5
2F51
330
2F3F
100
AcDbEntity
  8
外形線
100
AcDbPolyline
 90
       47
 70
     0
 43
0.0
 10
-3027.674940621911
 20
-654.14058768542
 10
-3027.215686831012
 20
-654.025717241066
 10
-3026.807069333743
 20
-653.89949762322
 10
-3026.45356502891
 20
-653.763311720429
 10
-3026.159046983652
 20
-653.618651613941
 10
-3025.926741999306
 20
-653.467102230155
 10
-3025.759195257892
 20
-653.310323975836
 10
-3025.658242436573
 20
-653.150034546342
 10
-3025.624989595581
 20
-652.98799010621
 10
-3025.659801060005
 20
-652.825966048232
 10
-3025.762295428152
 20
-652.665737541894
 10
-3025.931349750279
 20
-652.509060084243
 10
-3026.165111831855
 20
-652.357650266292
 10
-3026.461020526596
 20
-652.213166965689
 10
-3026.815833796919
 20
-652.077193171712
 10
-3027.225664234388
 20
-651.951218641701
 10
-3027.686021650964
 20
-651.836623578969
 10
-3028.191862274455
 20
-651.734663511005
 10
-3028.737644009139
 20
-651.646455533648
 10
-3029.317387156118
 20
-651.572966071958
 10
-3029.924739928152
 20
-651.515000291856
 10
-3030.553048041176
 20
-651.473193278559
 10
-3031.195427620021
 20
-651.448003078454
 10
-3031.844840619596
 20
-651.439705680642
 10
-3032.494171935177
 20
-651.448391993153
 10
-3033.136307356992
 20
-651.473966846927
 10
-3033.764211514982
 20
-651.516150038516
 10
-3034.371004959794
 20
-651.574479400044
 10
-3034.950039535468
 20
-651.648315862822
 10
-3035.494971218024
 20
-651.73685045911
 10
-3035.999829621911
 20
-651.839113185344
 10
-3036.459083412808
 20
-651.953983629698
 10
-3036.867700910077
 20
-652.080203247544
 10
-3037.221205214912
 20
-652.216389150335
 10
-3037.515723260169
 20
-652.361049256823
 10
-3037.748028244515
 20
-652.512598640609
 10
-3037.915574985928
 20
-652.669376894928
 10
-3038.016527807249
 20
-652.829666324421
 10
-3038.04978064824
 20
-652.991710764555
 10
-3038.014969183816
 20
-653.153734822532
 10
-3037.912474815669
 20
-653.313963328869
 10
-3037.743420493542
 20
-653.470640786521
 10
-3037.509658411966
 20
-653.622050604471
 10
-3037.213749717225
 20
-653.766533905074
 10
-3036.858936446901
 20
-653.902507699052
 10
-3036.449106009434
 20
-654.028482229064
 10
-3036.07490312191
 20
-654.123399110931
  0
ARC
  5
2F52
330
2F3F
100
AcDbEntity
  8
外形線
100
AcDbCircle
 10
-3031.837385121911
 20
-620.803069368681
 30
0.0
 40
34.15159996140045
100
AcDbArc
 50
255.26831657715
 51
262.87239111701
  0
LWPOLYLINE
  5
2F53
330
2F3F
100
AcDbEntity
  8
外形線
100
AcDbPolyline
 90
       34
 70
     0
 43
0.0
 10
-3020.164085121911
 20
-645.574914522911
 10
-3020.217826679511
 20
-645.015496411464
 10
-3020.378556521371
 20
-644.461229200047
 10
-3020.644794710875
 20
-643.917216361246
 10
-3021.014089832395
 20
-643.388466949451
 10
-3021.483041562971
 20
-642.879849479472
 10
-3022.047331981114
 20
-642.39604709919
 10
-3022.701765324525
 20
-641.941514468981
 10
-3023.440315830619
 20
-641.520436744971
 10
-3024.256183219338
 20
-641.136691043792
 10
-3025.141855307454
 20
-640.793810743611
 10
-3026.089177177755
 20
-640.494952950203
 10
-3027.089426266293
 20
-640.242869427561
 10
-3028.133392676296
 20
-640.039881260751
 10
-3029.211463979238
 20
-639.887857484282
 10
-3030.313713722268
 20
-639.788197872775
 10
-3031.429992827054
 20
-639.74182005239
 10
-3032.550023038462
 20
-639.749151051702
 10
-3033.663491562665
 20
-639.810123369776
 10
-3034.760146023239
 20
-639.924175597698
 10
-3035.829888860994
 20
-640.090257587801
 10
-3036.862870308282
 20
-640.30684012301
 10
-3037.849579081758
 20
-640.571928997268
 10
-3038.780929958494
 20
-640.88308337739
 10
-3039.64834742912
 20
-641.237438277289
 10
-3040.443844657696
 20
-641.631730937631
 10
-3041.160097021345
 20
-642.062330868031
 10
-3041.790509552464
 20
-642.525273275162
 10
-3042.329277662574
 20
-643.016295569004
 10
-3042.771440588665
 20
-643.530876611082
 10
-3043.112927069931
 20
-644.064278343314
 10
-3043.350592834335
 20
-644.611589414165
 10
-3043.482249549808
 20
-645.167770400432
 10
-3043.510685121911
 20
-645.574914522911
  0
ARC
  5
2F54
330
2F3F
100
AcDbEntity
  8
外形線
100
AcDbCircle
 10
-3031.837385121911
 20
-625.986454710612
 30
0.0
 40
13.57645981229912
100
AcDbArc
 50
239.247497502359
 51
300.752502497641
  0
LINE
  5
2F55
330
2F3F
100
AcDbEntity
  8
外形線
100
AcDbLine
 10
-3043.510685121911
 20
-645.574914522911
 30
0.0
 11
-3043.510685121911
 21
-649.955767263438
 31
0.0
  0
ARC
  5
2F56
330
2F3F
100
AcDbEntity
  8
外形線
100
AcDbCircle
 10
-3039.502685121911
 20
-649.955767263438
 30
0.0
 40
4.007999999999999
100
AcDbArc
 50
180.0
 51
255.26831657715
  0
ARC
  5
2F57
330
2F3F
100
AcDbEntity
  8
外形線
100
AcDbCircle
 10
-3046.230136312884
 20
-636.064530573833
 30
0.0
 40
7.618315752702329
100
AcDbArc
 50
273.828163206421
 51
347.958626091838
  0
LINE
  5
2F58
330
2F3F
100
AcDbEntity
  8
外形線
100
AcDbLine
 10
-3043.513436239113
 20
-645.578091239426
 30
0.0
 11
-3045.721504395382
 21
-643.665848122809
 31
0.0
  0
LINE
  5
2F59
330
2F3F
100
AcDbEntity
  8
外形線
100
AcDbLine
 10
-3045.721504395382
 20
-634.988273576889
 30
0.0
 11
-3045.721504395382
 21
-643.665848122809
 31
0.0
  0
LINE
  5
2F5A
330
2F3F
100
AcDbEntity
  8
外形線
100
AcDbLine
 10
-3020.164085121911
 20
-645.574914522911
 30
0.0
 11
-3020.164085121911
 21
-649.955767263438
 31
0.0
  0
LWPOLYLINE
  5
2F5B
330
2F3F
100
AcDbEntity
  8
外形線
100
AcDbPolyline
 90
       29
 70
     0
 43
0.0
 10
-3027.674940621911
 20
-653.049280022638
 10
-3027.701938707542
 20
-652.947308555312
 10
-3027.782585869251
 20
-652.846648062603
 10
-3027.915845283851
 20
-652.748592664861
 10
-3028.100003729843
 20
-652.654402990584
 10
-3028.332693613086
 20
-652.56528996941
 10
-3028.610923405278
 20
-652.482399264063
 10
-3028.9311161039
 20
-652.406796541377
 10
-3029.289155219196
 20
-652.339453771776
 10
-3029.680437696951
 20
-652.281236733347
 10
-3030.099933096692
 20
-652.232893881137
 10
-3030.542248264472
 20
-652.195046724809
 10
-3031.001696668819
 20
-652.16818183833
 10
-3031.472371508433
 20
-652.152644604435
 10
-3031.948221651714
 20
-652.148634774287
 10
-3032.423129431869
 20
-652.15620389942
 10
-3032.890989297393
 20
-652.175254668977
 10
-3033.345786306812
 20
-652.205542160767
 10
-3033.781673458494
 20
-652.246676990049
 10
-3034.193046861402
 20
-652.298130315587
 10
-3034.574617780326
 20
-652.359240638577
 10
-3034.921480629393
 20
-652.429222307066
 10
-3035.229176039693
 20
-652.507175616524
 10
-3035.493748190218
 20
-652.592098376703
 10
-3035.711795665032
 20
-652.682898796086
 10
-3035.88051518286
 20
-652.778409518273
 10
-3035.997737636882
 20
-652.877402629852
 10
-3036.061955981389
 20
-652.9786054468
 10
-3036.07490312191
 20
-653.049280022638
  0
ARC
  5
2F5C
330
2F3F
100
AcDbEntity
  8
外形線
100
AcDbCircle
 10
-3031.837385121911
 20
-620.803069368681
 30
0.0
 40
34.15159996140045
100
AcDbArc
 50
277.000695446903
 51
284.73168342285
  0
ARC
  5
2F5D
330
2F3F
100
AcDbEntity
  8
外形線
100
AcDbCircle
 10
-3024.172085121911
 20
-649.955767263438
 30
0.0
 40
4.007999999999999
100
AcDbArc
 50
284.73168342285
 51
0.0
  0
LINE
  5
2F5E
330
2F3F
100
AcDbEntity
  8
外形線
100
AcDbLine
 10
-3020.161334004708
 20
-645.578091239426
 30
0.0
 11
-3017.953265848439
 21
-643.665848122809
 31
0.0
  0
ARC
  5
2F5F
330
2F3F
100
AcDbEntity
  8
外形線
100
AcDbCircle
 10
-3017.444633930937
 20
-636.064530573833
 30
0.0
 40
7.618315752702329
100
AcDbArc
 50
192.041373908162
 51
266.171836793579
  0
LINE
  5
2F60
330
2F3F
100
AcDbEntity
  8
外形線
100
AcDbLine
 10
-3017.953265848439
 20
-643.665848122809
 30
0.0
 11
-3017.953265848439
 21
-634.988273576889
 31
0.0
  0
LWPOLYLINE
  5
2F61
330
2F3F
100
AcDbEntity
  8
外形線
100
AcDbPolyline
 90
       34
 70
     0
 43
0.0
 10
-3021.33893012191
 20
-629.269370629074
 10
-3021.387262926182
 20
-628.898532694609
 10
-3021.531816309708
 20
-628.531109288718
 10
-3021.771259282285
 20
-628.170483500357
 10
-3022.103387148015
 20
-627.819975828711
 10
-3022.525141805277
 20
-627.482813609361
 10
-3023.032639904511
 20
-627.162101298261
 10
-3023.621208604563
 20
-626.860791887133
 10
-3024.285428598347
 20
-626.581659713495
 10
-3025.019184011678
 20
-626.32727491566
 10
-3025.815718715819
 20
-626.099979767924
 10
-3026.667698535225
 20
-625.901867113831
 10
-3027.567278777729
 20
-625.734761096102
 10
-3028.506176465351
 20
-625.600200360651
 10
-3029.475746600679
 20
-625.499423889346
 10
-3030.467061766568
 20
-625.433359591953
 10
-3031.470994326257
 20
-625.402615762313
 10
-3032.478300467033
 20
-625.40747547741
 10
-3033.479705313585
 20
-625.44789399092
 10
-3034.465988327376
 20
-625.5234991452
 10
-3035.428068205709
 20
-625.633594797989
 10
-3036.357086498752
 20
-625.777167232194
 10
-3037.24448917464
 20
-625.952894489799
 10
-3038.082105381594
 20
-626.159158543935
 10
-3038.862222681892
 20
-626.394060197024
 10
-3039.577658064932
 20
-626.655436567837
 10
-3040.221824085545
 20
-626.940881006447
 10
-3040.788789518574
 20
-627.247765253711
 10
-3041.27333397125
 20
-627.57326364123
 10
-3041.670995950487
 20
-627.91437910899
 10
-3041.978113942544
 20
-628.267970801094
 10
-3042.191860126797
 20
-628.630782985528
 10
-3042.310266413181
 20
-628.99947503163
 10
-3042.335840121911
 20
-629.269370629074
  0
LINE
  5
2F62
330
2F3F
100
AcDbEntity
  8
外形線
100
AcDbLine
 10
-3038.779444758647
 20
-628.97627357689
 30
0.0
 11
-3024.895325485175
 21
-628.97627357689
 31
0.0
  0
LINE
  5
2F63
330
2F3F
100
AcDbEntity
  8
外形線
100
AcDbLine
 10
-3038.779444758647
 20
-620.298699030969
 30
0.0
 11
-3024.895325485175
 21
-620.298699030969
 31
0.0
  0
LINE
  5
2F64
330
2F3F
100
AcDbEntity
  8
外形線
100
AcDbLine
 10
-3038.779444758647
 20
-624.637486303929
 30
0.0
 11
-3024.895325485175
 21
-624.637486303929
 31
0.0
  0
LINE
  5
2F65
330
2F3F
100
AcDbEntity
  8
外形線
100
AcDbLine
 10
-3016.68737612191
 20
-618.495502022639
 30
0.0
 11
-3039.78736712191
 21
-618.495502022639
 31
0.0
  0
LINE
  5
2F66
330
2F3F
100
AcDbEntity
  8
外形線
100
AcDbLine
 10
-3039.468583886739
 20
-620.895511022639
 30
0.0
 11
-3042.187376121911
 21
-620.895511022639
 31
0.0
  0
LINE
  5
2F67
330
2F3F
100
AcDbEntity
  8
外形線
100
AcDbLine
 10
-3045.721504395382
 20
-626.310699030969
 30
0.0
 11
-3038.779444758647
 21
-620.298699030969
 31
0.0
  0
ARC
  5
2F68
330
2F3F
100
AcDbEntity
  8
外形線
100
AcDbCircle
 10
-3039.78736712191
 20
-623.895511022639
 30
0.0
 40
5.4
100
AcDbArc
 50
89.999981276021
 51
180.00001984784
  0
LINE
  5
2F69
330
2F3F
100
AcDbEntity
  8
外形線
100
AcDbLine
 10
-3038.779444758647
 20
-624.637486303929
 30
0.0
 11
-3045.721504395382
 21
-630.649486303929
 31
0.0
  0
ARC
  5
2F6A
330
2F3F
100
AcDbEntity
  8
外形線
100
AcDbCircle
 10
-3042.187376121911
 20
-623.895511022639
 30
0.0
 40
3.0
100
AcDbArc
 50
89.999981276021
 51
211.533239298809
  0
ARC
  5
2F6B
330
2F3F
100
AcDbEntity
  8
外形線
100
AcDbCircle
 10
-3043.687376121911
 20
-623.745502022639
 30
0.0
 40
3.0
100
AcDbArc
 50
180.00001984784
 51
232.575749003279
  0
LINE
  5
2F6C
330
2F3F
100
AcDbEntity
  8
外形線
100
AcDbLine
 10
-3043.216504395382
 20
-632.818879940409
 30
0.0
 11
-3045.721504395382
 21
-630.649486303929
 31
0.0
  0
LINE
  5
2F6D
330
2F3F
100
AcDbEntity
  8
外形線
100
AcDbLine
 10
-3042.335840121911
 20
-629.269370629074
 30
0.0
 11
-3042.335840121911
 21
-632.056202307377
 31
0.0
  0
LINE
  5
2F6E
330
2F3F
100
AcDbEntity
  8
外形線
100
AcDbLine
 10
-3045.721504395382
 20
-630.649486303929
 30
0.0
 11
-3045.721504395382
 21
-626.310699030969
 31
0.0
  0
LINE
  5
2F6F
330
2F3F
100
AcDbEntity
  8
細線
100
AcDbLine
 10
-3040.980635121911
 20
-630.882560350041
 30
0.0
 11
-3040.980635121911
 21
-627.331019140395
 31
0.0
  0
LINE
  5
2F70
330
2F3F
100
AcDbEntity
  8
外形線
100
AcDbLine
 10
-3038.779444758647
 20
-624.637486303929
 30
0.0
 11
-3038.779444758647
 21
-620.298699030969
 31
0.0
  0
LINE
  5
2F71
330
2F3F
100
AcDbEntity
  8
細線
100
AcDbLine
 10
-3022.694135121911
 20
-630.882560350041
 30
0.0
 11
-3022.694135121911
 21
-627.227614822548
 31
0.0
  0
LINE
  5
2F72
330
2F3F
100
AcDbEntity
  8
外形線
100
AcDbLine
 10
-3016.68737612191
 20
-620.895511022639
 30
0.0
 11
-3024.206186357083
 21
-620.895511022639
 31
0.0
  0
LINE
  5
2F73
330
2F3F
100
AcDbEntity
  8
外形線
100
AcDbLine
 10
-3017.953265848439
 20
-626.310699030969
 30
0.0
 11
-3024.895325485175
 21
-620.298699030969
 31
0.0
  0
LINE
  5
2F74
330
2F3F
100
AcDbEntity
  8
外形線
100
AcDbLine
 10
-3024.895325485175
 20
-624.637486303929
 30
0.0
 11
-3024.895325485175
 21
-620.298699030969
 31
0.0
  0
LINE
  5
2F75
330
2F3F
100
AcDbEntity
  8
外形線
100
AcDbLine
 10
-3016.68737612191
 20
-629.295497522639
 30
0.0
 11
-3017.953265848439
 21
-629.295497522639
 31
0.0
  0
LINE
  5
2F76
330
2F3F
100
AcDbEntity
  8
外形線
100
AcDbLine
 10
-3020.458265848439
 20
-632.818879940409
 30
0.0
 11
-3017.953265848439
 21
-630.649486303929
 31
0.0
  0
LINE
  5
2F77
330
2F3F
100
AcDbEntity
  8
外形線
100
AcDbLine
 10
-3024.895325485175
 20
-624.637486303929
 30
0.0
 11
-3017.953265848439
 21
-630.649486303929
 31
0.0
  0
LINE
  5
2F78
330
2F3F
100
AcDbEntity
  8
外形線
100
AcDbLine
 10
-3021.33893012191
 20
-629.269370629074
 30
0.0
 11
-3021.33893012191
 21
-632.056202307377
 31
0.0
  0
LINE
  5
2F79
330
2F3F
100
AcDbEntity
  8
外形線
100
AcDbLine
 10
-3017.953265848439
 20
-630.649486303929
 30
0.0
 11
-3017.953265848439
 21
-626.310699030969
 31
0.0
  0
LINE
  5
2F7A
330
2F3F
100
AcDbEntity
  8
外形線
100
AcDbLine
 10
-3048.487394121911
 20
-562.245502022639
 30
0.0
 11
-3048.487394121911
 21
-603.345493022639
 31
0.0
  0
LINE
  5
2F7B
330
2F3F
100
AcDbEntity
  8
外形線
100
AcDbLine
 10
-3048.487394121911
 20
-603.345493022639
 30
0.0
 11
-3046.687376121911
 21
-603.345493022639
 31
0.0
  0
LINE
  5
2F7C
330
2F3F
100
AcDbEntity
  8
外形線
100
AcDbLine
 10
-3043.687376121911
 20
-558.495502022639
 30
0.0
 11
-3019.68737612191
 21
-558.495502022639
 31
0.0
  0
LINE
  5
2F7D
330
2F3F
100
AcDbEntity
  8
外形線
100
AcDbLine
 10
-3048.487394121911
 20
-562.245502022639
 30
0.0
 11
-3046.687376121911
 21
-562.245502022639
 31
0.0
  0
ARC
  5
2F7E
330
2F3F
100
AcDbEntity
  8
外形線
100
AcDbCircle
 10
-3043.687376121911
 20
-561.495502022639
 30
0.0
 40
3.0
100
AcDbArc
 50
89.999981276021
 51
180.00001984784
  0
LINE
  5
2F7F
330
2F3F
100
AcDbEntity
  8
外形線
100
AcDbLine
 10
-3046.687376121911
 20
-562.245502022639
 30
0.0
 11
-3046.687376121911
 21
-561.495502022639
 31
0.0
  0
LINE
  5
2F80
330
2F3F
100
AcDbEntity
  8
外形線
100
AcDbLine
 10
-2963.887356621911
 20
-617.370502022639
 30
0.0
 11
-2963.887356621911
 21
-567.870502022639
 31
0.0
  0
LINE
  5
2F81
330
2F3F
100
AcDbEntity
  8
外形線
100
AcDbLine
 10
-2965.387356621911
 20
-620.580112022639
 30
0.0
 11
-2965.387356621911
 21
-564.660892022639
 31
0.0
  0
LINE
  5
2F82
330
2F3F
100
AcDbEntity
  8
外形線
100
AcDbLine
 10
-3004.68737612191
 20
-556.620502022639
 30
0.0
 11
-3004.68737612191
 21
-628.620502022639
 31
0.0
  0
LINE
  5
2F83
330
2F3F
100
AcDbEntity
  8
外形線
100
AcDbLine
 10
-3004.68737612191
 20
-626.745502022639
 30
0.0
 11
-2969.67289562191
 21
-625.074985022639
 31
0.0
  0
LINE
  5
2F84
330
2F3F
100
AcDbEntity
  8
外形線
100
AcDbLine
 10
-2963.887356621911
 20
-617.370502022639
 30
0.0
 11
-2965.387356621911
 21
-617.370502022639
 31
0.0
  0
ARC
  5
2F85
330
2F3F
100
AcDbEntity
  8
外形線
100
AcDbCircle
 10
-2969.887356621911
 20
-620.580112022639
 30
0.0
 40
4.5
100
AcDbArc
 50
272.731520116378
 51
359.999982399908
  0
LINE
  5
2F86
330
2F3F
100
AcDbEntity
  8
外形線
100
AcDbLine
 10
-3004.68737612191
 20
-558.495502022639
 30
0.0
 11
-2969.67289562191
 21
-560.166019022639
 31
0.0
  0
LINE
  5
2F87
330
2F3F
100
AcDbEntity
  8
外形線
100
AcDbLine
 10
-2963.887356621911
 20
-567.870502022639
 30
0.0
 11
-2965.387356621911
 21
-567.870502022639
 31
0.0
  0
ARC
  5
2F88
330
2F3F
100
AcDbEntity
  8
外形線
100
AcDbCircle
 10
-2969.887356621911
 20
-564.660892022639
 30
0.0
 40
4.5
100
AcDbArc
 50
0.0
 51
87.268519579302
  0
ENDBLK
  5
2F89
330
2F3F
100
AcDbEntity
  8
0
 48
10.0
100
AcDbBlockEnd
  0
BLOCK
  5
348A
330
347E
100
AcDbEntity
  8
0
 48
10.0
100
AcDbBlockBegin
  2
*D9
 70
     1
 10
0.0
 20
0.0
 30
0.0
  3
*D9
  1
*D9
  0
LINE
  5
34AD
330
347E
100
AcDbEntity
  8
寸法線
 62
     0
 48
10.0
100
AcDbLine
 10
219.578045192497
 20
658.519341417663
 30
0.0
 11
220.203045192497
 21
658.519341417663
 31
0.0
  0
LINE
  5
34AE
330
347E
100
AcDbEntity
  8
寸法線
 62
     0
 48
10.0
100
AcDbLine
 10
219.578045192497
 20
652.519341417663
 30
0.0
 11
220.203045192497
 21
652.519341417663
 31
0.0
  0
LINE
  5
34AF
330
347E
100
AcDbEntity
  8
寸法線
 62
     0
 48
10.0
100
AcDbLine
 10
218.953045192497
 20
646.519341417663
 30
0.0
 11
218.953045192497
 21
640.519341417663
 31
0.0
  0
LINE
  5
34B0
330
347E
100
AcDbEntity
  8
寸法線
 62
     0
 48
10.0
100
AcDbLine
 10
218.953045192497
 20
664.519341417663
 30
0.0
 11
218.953045192497
 21
679.767372913726
 31
0.0
  0
LINE
  5
34B1
330
347E
100
AcDbEntity
  8
寸法線
 62
     0
 48
10.0
100
AcDbLine
 10
218.953045192497
 20
652.519341417663
 30
0.0
 11
218.953045192497
 21
658.519341417663
 31
0.0
  0
INSERT
  5
34B2
330
347E
100
AcDbEntity
  8
寸法線
 62
     0
 48
10.0
100
AcDbBlockReference
  2
_OPEN30
 10
218.953045192497
 20
652.519341417663
 30
0.0
 41
6.0
 42
6.0
 43
6.0
 50
90.0
  0
INSERT
  5
34B3
330
347E
100
AcDbEntity
  8
寸法線
 62
     0
 48
10.0
100
AcDbBlockReference
  2
_OPEN30
 10
218.953045192497
 20
658.519341417663
 30
0.0
 41
6.0
 42
6.0
 43
6.0
 50
270.0
  0
MTEXT
  5
34B4
330
347E
100
AcDbEntity
  8
寸法線
 62
     0
 48
10.0
100
AcDbMText
 10
215.828045192497
 20
675.143357165695
 30
0.0
 40
5.0
 41
0.0
 71
     5
 72
     1
  1
\A1;φ6
 11
6.123031769111886E-17
 21
1.0
 31
0.0
  0
POINT
  5
34B5
330
347E
100
AcDbEntity
  8
DEFPOINTS
 62
     0
 48
10.0
100
AcDbPoint
 10
218.953045192497
 20
658.519341417663
 30
0.0
  0
POINT
  5
34B6
330
347E
100
AcDbEntity
  8
DEFPOINTS
 62
     0
 48
10.0
100
AcDbPoint
 10
218.953045192497
 20
652.519341417663
 30
0.0
  0
POINT
  5
34B7
330
347E
100
AcDbEntity
  8
DEFPOINTS
 62
     0
 48
10.0
100
AcDbPoint
 10
218.953045192497
 20
652.519341417663
 30
0.0
  0
ENDBLK
  5
348B
330
347E
100
AcDbEntity
  8
0
 48
10.0
100
AcDbBlockEnd
  0
BLOCK
  5
34C3
330
34B9
100
AcDbEntity
  8
0
 48
10.0
100
AcDbBlockBegin
  2
*D10
 70
     1
 10
0.0
 20
0.0
 30
0.0
  3
*D10
  1
*D10
  0
LINE
  5
34BA
330
34B9
100
AcDbEntity
  8
寸法線
 62
     0
 48
10.0
100
AcDbLine
 10
157.287277692497
 20
695.519188917663
 30
0.0
 11
137.290821520491
 21
695.519188917663
 31
0.0
  0
LINE
  5
34BB
330
34B9
100
AcDbEntity
  8
寸法線
 62
     0
 48
10.0
100
AcDbLine
 10
157.287277692497
 20
615.519403917663
 30
0.0
 11
137.290821520491
 21
615.519403917663
 31
0.0
  0
LINE
  5
34BC
330
34B9
100
AcDbEntity
  8
寸法線
 62
     0
 48
10.0
100
AcDbLine
 10
138.540821520491
 20
689.519188917663
 30
0.0
 11
138.540821520491
 21
621.519403917663
 31
0.0
  0
INSERT
  5
34BD
330
34B9
100
AcDbEntity
  8
寸法線
 62
     0
100
AcDbBlockReference
  2
_OPEN30
 10
138.540821520491
 20
695.519188917663
 30
0.0
 41
6.0
 42
6.0
 43
6.0
 50
90.0
  0
INSERT
  5
34BE
330
34B9
100
AcDbEntity
  8
寸法線
 62
     0
100
AcDbBlockReference
  2
_OPEN30
 10
138.540821520491
 20
615.519403917663
 30
0.0
 41
6.0
 42
6.0
 43
6.0
 50
270.0
  0
MTEXT
  5
34BF
330
34B9
100
AcDbEntity
  8
寸法線
 62
     0
 48
10.0
100
AcDbMText
 10
134.909571520491
 20
655.519296417663
 30
0.0
 40
6.0
 41
0.0
 71
     5
 72
     1
  1
\A1;80
 11
0.0
 21
1.0
 31
0.0
  0
POINT
  5
34C0
330
34B9
100
AcDbEntity
  8
DEFPOINTS
 62
     0
100
AcDbPoint
 10
157.912277692497
 20
695.519188917663
 30
0.0
  0
POINT
  5
34C1
330
34B9
100
AcDbEntity
  8
DEFPOINTS
 62
     0
100
AcDbPoint
 10
157.912277692497
 20
615.519403917663
 30
0.0
  0
POINT
  5
34C2
330
34B9
100
AcDbEntity
  8
DEFPOINTS
 62
     0
100
AcDbPoint
 10
138.540821520491
 20
615.519403917663
 30
0.0
  0
ENDBLK
  5
34C4
330
34B9
100
AcDbEntity
  8
0
 48
10.0
100
AcDbBlockEnd
  0
BLOCK
  5
34D0
330
34C6
100
AcDbEntity
  8
0
 48
10.0
100
AcDbBlockBegin
  2
*D11
 70
     1
 10
0.0
 20
0.0
 30
0.0
  3
*D11
  1
*D11
  0
LINE
  5
34C7
330
34C6
100
AcDbEntity
  8
寸法線
 62
     0
 48
10.0
100
AcDbLine
 10
157.912277692497
 20
614.894403917663
 30
0.0
 11
157.912277692497
 21
595.280590407801
 31
0.0
  0
LINE
  5
34C8
330
34C6
100
AcDbEntity
  8
寸法線
 62
     0
 48
10.0
100
AcDbLine
 10
192.912271192496
 20
614.894403917663
 30
0.0
 11
192.912271192496
 21
595.280590407801
 31
0.0
  0
LINE
  5
34C9
330
34C6
100
AcDbEntity
  8
寸法線
 62
     0
 48
10.0
100
AcDbLine
 10
163.912277692497
 20
596.530590407801
 30
0.0
 11
186.912271192496
 21
596.530590407801
 31
0.0
  0
INSERT
  5
34CA
330
34C6
100
AcDbEntity
  8
寸法線
 62
     0
100
AcDbBlockReference
  2
_OPEN30
 10
157.912277692497
 20
596.530590407801
 30
0.0
 41
6.0
 42
6.0
 43
6.0
 50
180.0
  0
INSERT
  5
34CB
330
34C6
100
AcDbEntity
  8
寸法線
 62
     0
100
AcDbBlockReference
  2
_OPEN30
 10
192.912271192496
 20
596.530590407801
 30
0.0
 41
6.0
 42
6.0
 43
6.0
  0
MTEXT
  5
34CC
330
34C6
100
AcDbEntity
  8
寸法線
 62
     0
 48
10.0
100
AcDbMText
 10
175.412274442497
 20
600.158715407801
 30
0.0
 40
6.0
 41
0.0
 71
     5
 72
     1
  1
\A1;35
  0
POINT
  5
34CD
330
34C6
100
AcDbEntity
  8
DEFPOINTS
 62
     0
100
AcDbPoint
 10
157.912277692497
 20
615.519403917663
 30
0.0
  0
POINT
  5
34CE
330
34C6
100
AcDbEntity
  8
DEFPOINTS
 62
     0
100
AcDbPoint
 10
192.912271192496
 20
615.519403917663
 30
0.0
  0
POINT
  5
34CF
330
34C6
100
AcDbEntity
  8
DEFPOINTS
 62
     0
100
AcDbPoint
 10
192.912271192496
 20
596.530590407801
 30
0.0
  0
ENDBLK
  5
34D1
330
34C6
100
AcDbEntity
  8
0
 48
10.0
100
AcDbBlockEnd
  0
BLOCK
  5
36B9
330
36AD
100
AcDbEntity
  8
0
 48
10.0
100
AcDbBlockBegin
  2
*D13
 70
     1
 10
0.0
 20
0.0
 30
0.0
  3
*D13
  1
*D13
  0
LINE
  5
36D1
330
36AD
100
AcDbEntity
  8
寸法線
 62
     0
 48
10.0
100
AcDbLine
 10
50.656404891672
 20
655.519341417663
 30
0.0
 11
56.669305138375
 21
655.519341417663
 31
0.0
  0
LINE
  5
36D2
330
36AD
100
AcDbEntity
  8
寸法線
 62
     0
 48
10.0
100
AcDbLine
 10
50.656404891672
 20
645.607877300896
 30
0.0
 11
56.669305138375
 21
645.607877300896
 31
0.0
  0
LINE
  5
36D3
330
36AD
100
AcDbEntity
  8
寸法線
 62
     0
 48
10.0
100
AcDbLine
 10
55.419305138375
 20
655.519341417663
 30
0.0
 11
55.419305138375
 21
645.607877300896
 31
0.0
  0
LINE
  5
36D4
330
36AD
100
AcDbEntity
  8
寸法線
 62
     0
 48
10.0
100
AcDbLine
 10
55.419305138375
 20
661.519341417663
 30
0.0
 11
55.419305138375
 21
667.519341417663
 31
0.0
  0
LINE
  5
36D5
330
36AD
100
AcDbEntity
  8
寸法線
 62
     0
 48
10.0
100
AcDbLine
 10
55.419305138375
 20
639.607877300896
 30
0.0
 11
55.419305138375
 21
633.607877300896
 31
0.0
  0
INSERT
  5
36D6
330
36AD
100
AcDbEntity
  8
寸法線
 62
     0
100
AcDbBlockReference
  2
_OPEN30
 10
55.419305138375
 20
655.519341417663
 30
0.0
 41
6.0
 42
6.0
 43
6.0
 50
270.0
  0
INSERT
  5
36D7
330
36AD
100
AcDbEntity
  8
寸法線
 62
     0
100
AcDbBlockReference
  2
_OPEN30
 10
55.419305138375
 20
645.607877300896
 30
0.0
 41
6.0
 42
6.0
 43
6.0
 50
90.0
  0
MTEXT
  5
36D8
330
36AD
100
AcDbEntity
  8
寸法線
 62
     0
 48
10.0
100
AcDbMText
 10
51.794305138375
 20
650.563609359279
 30
0.0
 40
6.0
 41
0.0
 71
     5
 72
     1
  1
\A1;10
 11
0.0
 21
1.0
 31
0.0
  0
POINT
  5
36D9
330
36AD
100
AcDbEntity
  8
DEFPOINTS
 62
     0
100
AcDbPoint
 10
50.031404891672
 20
655.519341417663
 30
0.0
  0
POINT
  5
36DA
330
36AD
100
AcDbEntity
  8
DEFPOINTS
 62
     0
100
AcDbPoint
 10
50.031404891672
 20
645.607877300896
 30
0.0
  0
POINT
  5
36DB
330
36AD
100
AcDbEntity
  8
DEFPOINTS
 62
     0
100
AcDbPoint
 10
55.419305138375
 20
645.607877300896
 30
0.0
  0
ENDBLK
  5
36BA
330
36AD
100
AcDbEntity
  8
0
 48
10.0
100
AcDbBlockEnd
  0
BLOCK
  5
36E7
330
36DD
100
AcDbEntity
  8
0
 48
10.0
100
AcDbBlockBegin
  2
*D14
 70
     1
 10
0.0
 20
0.0
 30
0.0
  3
*D14
  1
*D14
  0
LINE
  5
36DE
330
36DD
100
AcDbEntity
  8
寸法線
 62
     0
 48
10.0
100
AcDbLine
 10
-16.937683903468
 20
666.536646263076
 30
0.0
 11
-16.937683903468
 21
706.756458306382
 31
0.0
  0
LINE
  5
36DF
330
36DD
100
AcDbEntity
  8
寸法線
 62
     0
 48
10.0
100
AcDbLine
 10
19.062316096532
 20
666.536646263076
 30
0.0
 11
19.062316096532
 21
706.756458306382
 31
0.0
  0
LINE
  5
36E0
330
36DD
100
AcDbEntity
  8
寸法線
 62
     0
 48
10.0
100
AcDbLine
 10
-10.937683903468
 20
705.506458306382
 30
0.0
 11
13.062316096532
 21
705.506458306382
 31
0.0
  0
INSERT
  5
36E1
330
36DD
100
AcDbEntity
  8
寸法線
 62
     0
100
AcDbBlockReference
  2
_OPEN30
 10
-16.937683903468
 20
705.506458306382
 30
0.0
 41
6.0
 42
6.0
 43
6.0
 50
180.0
  0
INSERT
  5
36E2
330
36DD
100
AcDbEntity
  8
寸法線
 62
     0
100
AcDbBlockReference
  2
_OPEN30
 10
19.062316096532
 20
705.506458306382
 30
0.0
 41
6.0
 42
6.0
 43
6.0
  0
MTEXT
  5
36E3
330
36DD
100
AcDbEntity
  8
寸法線
 62
     0
 48
10.0
100
AcDbMText
 10
1.062316096532
 20
709.134583306382
 30
0.0
 40
6.0
 41
0.0
 71
     5
 72
     1
  1
\A1;36
  0
POINT
  5
36E4
330
36DD
100
AcDbEntity
  8
DEFPOINTS
 62
     0
100
AcDbPoint
 10
-16.937683903468
 20
665.911646263076
 30
0.0
  0
POINT
  5
36E5
330
36DD
100
AcDbEntity
  8
DEFPOINTS
 62
     0
100
AcDbPoint
 10
19.062316096532
 20
665.911646263076
 30
0.0
  0
POINT
  5
36E6
330
36DD
100
AcDbEntity
  8
DEFPOINTS
 62
     0
100
AcDbPoint
 10
19.062316096532
 20
705.506458306382
 30
0.0
  0
ENDBLK
  5
36E8
330
36DD
100
AcDbEntity
  8
0
 48
10.0
100
AcDbBlockEnd
  0
BLOCK
  5
36F8
330
36EC
100
AcDbEntity
  8
0
 48
10.0
100
AcDbBlockBegin
  2
*D15
 70
     1
 10
0.0
 20
0.0
 30
0.0
  3
*D15
  1
*D15
  0
LINE
  5
3705
330
36EC
100
AcDbEntity
  8
寸法線
 62
     0
 48
10.0
100
AcDbLine
 10
0.162316096532
 20
625.065867540967
 30
0.0
 11
0.162316096532
 21
625.690867540967
 31
0.0
  0
LINE
  5
3706
330
36EC
100
AcDbEntity
  8
寸法線
 62
     0
 48
10.0
100
AcDbLine
 10
1.962316096532
 20
625.065867540967
 30
0.0
 11
1.962316096532
 21
625.690867540967
 31
0.0
  0
LINE
  5
3707
330
36EC
100
AcDbEntity
  8
寸法線
 62
     0
 48
10.0
100
AcDbLine
 10
7.962316096532
 20
624.440867540967
 30
0.0
 11
16.412316096532
 21
624.440867540967
 31
0.0
  0
LINE
  5
3708
330
36EC
100
AcDbEntity
  8
寸法線
 62
     0
 48
10.0
100
AcDbLine
 10
0.162316096532
 20
624.440867540967
 30
0.0
 11
1.962316096532
 21
624.440867540967
 31
0.0
  0
LINE
  5
3709
330
36EC
100
AcDbEntity
  8
寸法線
 62
     0
 48
10.0
100
AcDbLine
 10
-5.837683903468
 20
624.440867540967
 30
0.0
 11
-11.837683903468
 21
624.440867540967
 31
0.0
  0
INSERT
  5
370A
330
36EC
100
AcDbEntity
  8
寸法線
 62
     0
100
AcDbBlockReference
  2
_OPEN30
 10
0.162316096532
 20
624.440867540967
 30
0.0
 41
6.0
 42
6.0
 43
6.0
  0
INSERT
  5
370B
330
36EC
100
AcDbEntity
  8
寸法線
 62
     0
100
AcDbBlockReference
  2
_OPEN30
 10
1.962316096532
 20
624.440867540967
 30
0.0
 41
6.0
 42
6.0
 43
6.0
 50
180.0
  0
MTEXT
  5
370C
330
36EC
100
AcDbEntity
  8
寸法線
 62
     0
 48
10.0
100
AcDbMText
 10
15.187316096532
 20
628.065867540967
 30
0.0
 40
6.0
 41
0.0
 71
     5
 72
     1
  1
\A1;1
  0
POINT
  5
370D
330
36EC
100
AcDbEntity
  8
DEFPOINTS
 62
     0
100
AcDbPoint
 10
0.162316096532
 20
624.440867540967
 30
0.0
  0
POINT
  5
370E
330
36EC
100
AcDbEntity
  8
DEFPOINTS
 62
     0
100
AcDbPoint
 10
1.962316096532
 20
624.440867540967
 30
0.0
  0
POINT
  5
370F
330
36EC
100
AcDbEntity
  8
DEFPOINTS
 62
     0
100
AcDbPoint
 10
1.962316096532
 20
624.440867540967
 30
0.0
  0
ENDBLK
  5
36F9
330
36EC
100
AcDbEntity
  8
0
 48
10.0
100
AcDbBlockEnd
  0
BLOCK
  5
3787
330
377D
100
AcDbEntity
  8
0
 48
10.0
100
AcDbBlockBegin
  2
*D16
 70
     1
 10
0.0
 20
0.0
 30
0.0
  3
*D16
  1
*D16
  0
LINE
  5
37B7
330
377D
100
AcDbEntity
  8
寸法線
 62
     0
 48
10.0
100
AcDbLine
 10
-36.295029685974
 20
618.759798392222
 30
0.0
 11
-36.686597744509
 21
619.28930892866
 31
0.0
  0
LINE
  5
37B8
330
377D
100
AcDbEntity
  8
寸法線
 62
     0
 48
10.0
100
AcDbLine
 10
37.676438985748
 20
673.46100333826
 30
0.0
 11
37.284870927213
 21
673.990513874698
 31
0.0
  0
LINE
  5
37B9
330
377D
100
AcDbEntity
  8
寸法線
 62
     0
 48
10.0
100
AcDbLine
 10
-31.119148633499
 20
621.851731687754
 30
0.0
 11
33.203867602781
 21
669.417996858221
 31
0.0
  0
INSERT
  5
37BA
330
377D
100
AcDbEntity
  8
寸法線
 62
     0
100
AcDbBlockReference
  2
_OPEN30
 10
-35.94337485122
 20
618.284261799968
 30
0.0
 41
6.0
 42
6.0
 43
6.0
 50
216.482576941396
  0
INSERT
  5
37BB
330
377D
100
AcDbEntity
  8
寸法線
 62
     0
100
AcDbBlockReference
  2
_OPEN30
 10
38.028093820502
 20
672.985466746007
 30
0.0
 41
6.0
 42
6.0
 43
6.0
 50
36.482576941396
  0
MTEXT
  5
37BC
330
377D
100
AcDbEntity
  8
寸法線
 62
     0
 48
10.0
100
AcDbMText
 10
-22.444144118041
 20
632.779197566458
 30
0.0
 40
6.0
 41
0.0
 71
     5
 72
     1
  1
\A1;92
 11
0.8040377029534987
 21
0.5945783146308495
 31
0.0
  0
POINT
  5
37BD
330
377D
100
AcDbEntity
  8
DEFPOINTS
 62
     0
100
AcDbPoint
 10
-35.923418239329
 20
618.257274827877
 30
0.0
  0
POINT
  5
37BE
330
377D
100
AcDbEntity
  8
DEFPOINTS
 62
     0
100
AcDbPoint
 10
38.048050432393
 20
672.958479773915
 30
0.0
  0
POINT
  5
37BF
330
377D
100
AcDbEntity
  8
DEFPOINTS
 62
     0
100
AcDbPoint
 10
38.028093820502
 20
672.985466746007
 30
0.0
  0
ENDBLK
  5
3788
330
377D
100
AcDbEntity
  8
0
 48
10.0
100
AcDbBlockEnd
  0
BLOCK
  5
41B1
330
41B0
100
AcDbEntity
  8
0
100
AcDbBlockBegin
  2
*D46
 70
     1
 10
0.0
 20
0.0
 30
0.0
  3
*D46
  1
*D46
  0
LINE
  5
41B3
330
41B0
100
AcDbEntity
  8
寸法線
 62
     0
 48
10.0
100
AcDbLine
 10
223.987282192497
 20
668.739841417663
 30
0.0
 11
229.761248517783
 21
668.739841417663
 31
0.0
  0
LINE
  5
41B4
330
41B0
100
AcDbEntity
  8
寸法線
 62
     0
 48
10.0
100
AcDbLine
 10
223.987282192497
 20
642.298841417663
 30
0.0
 11
229.761248517783
 21
642.298841417663
 31
0.0
  0
LINE
  5
41B5
330
41B0
100
AcDbEntity
  8
寸法線
 62
     0
 48
10.0
100
AcDbLine
 10
228.511248517783
 20
668.739841417663
 30
0.0
 11
228.511248517783
 21
699.545171503553
 31
0.0
  0
LINE
  5
41B6
330
41B0
100
AcDbEntity
  8
寸法線
 62
     0
 48
10.0
100
AcDbLine
 10
228.511248517783
 20
662.739841417663
 30
0.0
 11
228.511248517783
 21
648.298841417663
 31
0.0
  0
INSERT
  5
41B7
330
41B0
100
AcDbEntity
  8
寸法線
 62
     0
100
AcDbBlockReference
  2
_OPEN30
 10
228.511248517783
 20
668.739841417663
 30
0.0
 41
6.0
 42
6.0
 43
6.0
 50
90.0
  0
INSERT
  5
41B8
330
41B0
100
AcDbEntity
  8
寸法線
 62
     0
100
AcDbBlockReference
  2
_OPEN30
 10
228.511248517783
 20
642.298841417663
 30
0.0
 41
6.0
 42
6.0
 43
6.0
 50
270.0
  0
MTEXT
  5
41B9
330
41B0
100
AcDbEntity
  8
寸法線
 62
     0
 48
10.0
100
AcDbMText
 10
224.883123517783
 20
687.220171503553
 30
0.0
 40
6.0
 41
0.0
 71
     5
 72
     1
  1
\A1;G 3/4"
 11
0.0
 21
1.0
 31
0.0
  0
POINT
  5
41BA
330
41B0
100
AcDbEntity
  8
DEFPOINTS
 62
     0
100
AcDbPoint
 10
223.362282192497
 20
668.739841417663
 30
0.0
  0
POINT
  5
41BB
330
41B0
100
AcDbEntity
  8
DEFPOINTS
 62
     0
100
AcDbPoint
 10
223.362282192497
 20
642.298841417663
 30
0.0
  0
POINT
  5
41BC
330
41B0
100
AcDbEntity
  8
DEFPOINTS
 62
     0
100
AcDbPoint
 10
228.511248517783
 20
642.298841417663
 30
0.0
  0
ENDBLK
  5
41B2
330
41B0
100
AcDbEntity
  8
0
100
AcDbBlockEnd
  0
BLOCK
  5
41E5
330
41E4
100
AcDbEntity
  8
0
100
AcDbBlockBegin
  2
*D50
 70
     1
 10
0.0
 20
0.0
 30
0.0
  3
*D50
  1
*D50
  0
LINE
  5
41E7
330
41E4
100
AcDbEntity
  8
寸法線
 62
     0
 48
10.0
100
AcDbLine
 10
248.062264192497
 20
577.448139644732
 30
0.0
 11
248.062264192497
 21
559.258260647695
 31
0.0
  0
LINE
  5
41E8
330
41E4
100
AcDbEntity
  8
寸法線
 62
     0
 48
10.0
100
AcDbLine
 10
330.862282192497
 20
580.067123093146
 30
0.0
 11
330.862282192497
 21
559.258260647695
 31
0.0
  0
LINE
  5
41E9
330
41E4
100
AcDbEntity
  8
寸法線
 62
     0
 48
10.0
100
AcDbLine
 10
254.062264192497
 20
560.508260647695
 30
0.0
 11
324.862282192497
 21
560.508260647695
 31
0.0
  0
INSERT
  5
41EA
330
41E4
100
AcDbEntity
  8
寸法線
 62
     0
100
AcDbBlockReference
  2
_OPEN30
 10
248.062264192497
 20
560.508260647695
 30
0.0
 41
6.0
 42
6.0
 43
6.0
 50
180.0
  0
INSERT
  5
41EB
330
41E4
100
AcDbEntity
  8
寸法線
 62
     0
100
AcDbBlockReference
  2
_OPEN30
 10
330.862282192497
 20
560.508260647695
 30
0.0
 41
6.0
 42
6.0
 43
6.0
  0
MTEXT
  5
41EC
330
41E4
100
AcDbEntity
  8
寸法線
 62
     0
 48
10.0
100
AcDbMText
 10
289.462273192497
 20
564.142635647695
 30
0.0
 40
6.0
 41
0.0
 71
     5
 72
     1
  1
\A1;83
  0
POINT
  5
41ED
330
41E4
100
AcDbEntity
  8
DEFPOINTS
 62
     0
100
AcDbPoint
 10
248.062264192497
 20
578.073139644732
 30
0.0
  0
POINT
  5
41EE
330
41E4
100
AcDbEntity
  8
DEFPOINTS
 62
     0
100
AcDbPoint
 10
330.862282192497
 20
580.692123093146
 30
0.0
  0
POINT
  5
41EF
330
41E4
100
AcDbEntity
  8
DEFPOINTS
 62
     0
100
AcDbPoint
 10
330.862282192497
 20
560.508260647695
 30
0.0
  0
ENDBLK
  5
41E6
330
41E4
100
AcDbEntity
  8
0
100
AcDbBlockEnd
  0
BLOCK
  5
4219
330
4218
100
AcDbEntity
  8
0
100
AcDbBlockBegin
  2
*D54
 70
     1
 10
0.0
 20
0.0
 30
0.0
  3
*D54
  1
*D54
  0
LINE
  5
421B
330
4218
100
AcDbEntity
  8
寸法線
 62
     0
 48
10.0
100
AcDbLine
 10
290.687262692497
 20
681.019341417663
 30
0.0
 11
350.065040111723
 21
681.019341417663
 31
0.0
  0
LINE
  5
421C
330
4218
100
AcDbEntity
  8
寸法線
 62
     0
 48
10.0
100
AcDbLine
 10
290.687262692497
 20
610.019341417663
 30
0.0
 11
350.065040111723
 21
610.019341417663
 31
0.0
  0
LINE
  5
421D
330
4218
100
AcDbEntity
  8
寸法線
 62
     0
 48
10.0
100
AcDbLine
 10
348.815040111723
 20
675.019341417663
 30
0.0
 11
348.815040111723
 21
616.019341417663
 31
0.0
  0
INSERT
  5
421E
330
4218
100
AcDbEntity
  8
寸法線
 62
     0
100
AcDbBlockReference
  2
_OPEN30
 10
348.815040111723
 20
681.019341417663
 30
0.0
 41
6.0
 42
6.0
 43
6.0
 50
90.0
  0
INSERT
  5
421F
330
4218
100
AcDbEntity
  8
寸法線
 62
     0
100
AcDbBlockReference
  2
_OPEN30
 10
348.815040111723
 20
610.019341417663
 30
0.0
 41
6.0
 42
6.0
 43
6.0
 50
270.0
  0
MTEXT
  5
4220
330
4218
100
AcDbEntity
  8
寸法線
 62
     0
 48
10.0
100
AcDbMText
 10
345.186915111723
 20
645.694314417663
 30
0.0
 40
6.0
 41
0.0
 71
     5
 72
     1
  1
\A1;φ72
 11
0.0
 21
1.0
 31
0.0
  0
POINT
  5
4221
330
4218
100
AcDbEntity
  8
DEFPOINTS
 62
     0
100
AcDbPoint
 10
290.062262692497
 20
681.019341417663
 30
0.0
  0
POINT
  5
4222
330
4218
100
AcDbEntity
  8
DEFPOINTS
 62
     0
100
AcDbPoint
 10
290.062262692497
 20
610.019341417663
 30
0.0
  0
POINT
  5
4223
330
4218
100
AcDbEntity
  8
DEFPOINTS
 62
     0
100
AcDbPoint
 10
348.815040111723
 20
610.019341417663
 30
0.0
  0
ENDBLK
  5
421A
330
4218
100
AcDbEntity
  8
0
100
AcDbBlockEnd
  0
BLOCK
  5
4334
330
4333
100
AcDbEntity
  8
0
100
AcDbBlockBegin
  2
*D66
 70
     1
 10
0.0
 20
0.0
 30
0.0
  3
*D66
  1
*D66
  0
LINE
  5
4336
330
4333
100
AcDbEntity
  8
寸法線
 62
     0
 48
10.0
100
AcDbLine
 10
242.062264192497
 20
605.069314417663
 30
0.0
 11
242.062264192497
 21
578.346160653737
 31
0.0
  0
LINE
  5
4337
330
4333
100
AcDbEntity
  8
寸法線
 62
     0
 48
10.0
100
AcDbLine
 10
246.062264192497
 20
605.069314417663
 30
0.0
 11
246.062264192497
 21
578.346160653737
 31
0.0
  0
LINE
  5
4338
330
4333
100
AcDbEntity
  8
寸法線
 62
     0
 48
10.0
100
AcDbLine
 10
242.062264192497
 20
579.596160653737
 30
0.0
 11
246.062264192497
 21
579.596160653737
 31
0.0
  0
LINE
  5
4339
330
4333
100
AcDbEntity
  8
寸法線
 62
     0
 48
10.0
100
AcDbLine
 10
236.062264192497
 20
579.596160653737
 30
0.0
 11
230.062264192497
 21
579.596160653737
 31
0.0
  0
LINE
  5
433A
330
4333
100
AcDbEntity
  8
寸法線
 62
     0
 48
10.0
100
AcDbLine
 10
252.062264192497
 20
579.596160653737
 30
0.0
 11
258.062264192497
 21
579.596160653737
 31
0.0
  0
INSERT
  5
433B
330
4333
100
AcDbEntity
  8
寸法線
 62
     0
100
AcDbBlockReference
  2
_OPEN30
 10
242.062264192497
 20
579.596160653737
 30
0.0
 41
6.0
 42
6.0
 43
6.0
  0
INSERT
  5
433C
330
4333
100
AcDbEntity
  8
寸法線
 62
     0
100
AcDbBlockReference
  2
_OPEN30
 10
246.062264192497
 20
579.596160653737
 30
0.0
 41
6.0
 42
6.0
 43
6.0
 50
180.0
  0
MTEXT
  5
433D
330
4333
100
AcDbEntity
  8
寸法線
 62
     0
 48
10.0
100
AcDbMText
 10
244.248290296391
 20
583.135915265783
 30
0.0
 40
6.0
 41
0.0
 71
     5
 72
     1
  1
\A1;4
  0
POINT
  5
433E
330
4333
100
AcDbEntity
  8
DEFPOINTS
 62
     0
100
AcDbPoint
 10
242.062264192497
 20
605.694314417663
 30
0.0
  0
POINT
  5
433F
330
4333
100
AcDbEntity
  8
DEFPOINTS
 62
     0
100
AcDbPoint
 10
246.062264192497
 20
605.694314417663
 30
0.0
  0
POINT
  5
4340
330
4333
100
AcDbEntity
  8
DEFPOINTS
 62
     0
100
AcDbPoint
 10
246.062264192497
 20
579.596160653737
 30
0.0
  0
ENDBLK
  5
4335
330
4333
100
AcDbEntity
  8
0
100
AcDbBlockEnd
  0
ENDSEC
  0
SECTION
  2
ENTITIES
  0
LINE
  5
2FCC
330
1A
100
AcDbEntity
  8
中心線
 48
10.0
100
AcDbLine
 10
24.34124878219
 20
605.519341417663
 30
0.0
 11
45.257750596532
 21
569.291075300896
 31
0.0
  0
LINE
  5
2FCE
330
1A
100
AcDbEntity
  8
外形線
100
AcDbLine
 10
8.854794289969
 20
605.342642586518
 30
0.0
 11
9.160844520363
 21
605.519341417663
 31
0.0
  0
LINE
  5
2FCF
330
1A
100
AcDbEntity
  8
外形線
100
AcDbLine
 10
42.081407797618
 20
598.840440946748
 30
0.0
 11
21.25522888741
 21
586.816440946748
 31
0.0
  0
LINE
  5
2FD0
330
1A
100
AcDbEntity
  8
外形線
100
AcDbLine
 10
12.63802888741
 20
601.74186916573
 30
0.0
 11
19.18080275194
 21
605.519341417663
 31
0.0
  0
LINE
  5
2FD1
330
1A
100
AcDbEntity
  8
外形線
100
AcDbLine
 10
29.200802751939
 20
605.519341417663
 30
0.0
 11
15.14302888741
 21
597.40308189277
 31
0.0
  0
ARC
  5
2FD2
330
1A
100
AcDbEntity
  8
外形線
100
AcDbCircle
 10
25.931773814885
 20
587.433827528482
 30
0.0
 40
4.007999999999999
100
AcDbArc
 50
210.0
 51
300.000000000002
  0
LINE
  5
2FD3
330
1A
100
AcDbEntity
  8
外形線
100
AcDbLine
 10
25.556118342514
 20
603.41508189277
 30
0.0
 11
30.566118342514
 21
594.73750734685
 31
0.0
  0
ARC
  5
2FD4
330
1A
100
AcDbEntity
  8
外形線
100
AcDbCircle
 10
21.811582705871
 20
597.876807866188
 30
0.0
 40
9.30038181818205
100
AcDbArc
 50
259.727393143495
 51
340.272606856496
  0
LINE
  5
2FD5
330
1A
100
AcDbEntity
  8
外形線
100
AcDbLine
 10
8.854779218131
 20
605.34265994702
 30
0.0
 11
8.752772607601
 21
605.519341417663
 31
0.0
  0
LINE
  5
2FD6
330
1A
100
AcDbEntity
  8
外形線
100
AcDbLine
 10
21.558943996517
 20
586.991790946748
 30
0.0
 11
22.460743996518
 21
585.429827528482
 31
0.0
  0
LINE
  5
2FD7
330
1A
100
AcDbEntity
  8
細線
100
AcDbLine
 10
17.637831569362
 20
598.84345689277
 30
0.0
 11
15.132831569362
 21
603.18224416573
 31
0.0
  0
LINE
  5
2FD8
330
1A
100
AcDbEntity
  8
外形線
100
AcDbLine
 10
13.959189612026
 20
602.50464166573
 30
0.0
 11
16.464189612027
 21
598.16585439277
 31
0.0
  0
LINE
  5
2FD9
330
1A
100
AcDbEntity
  8
外形線
100
AcDbLine
 10
10.4571042659
 20
605.519341417663
 30
0.0
 11
12.63802888741
 21
601.74186916573
 31
0.0
  0
LINE
  5
2FDA
330
1A
100
AcDbEntity
  8
外形線
100
AcDbLine
 10
15.14302888741
 20
597.40308189277
 30
0.0
 11
21.25522888741
 21
586.816440946748
 31
0.0
  0
LINE
  5
2FDC
330
1A
100
AcDbEntity
  8
外形線
100
AcDbLine
 10
38.471293126834
 20
590.04548262092
 30
0.0
 11
46.568282596532
 21
576.021116300896
 31
0.0
  0
LINE
  5
2FDD
330
1A
100
AcDbEntity
  8
外形線
100
AcDbLine
 10
30.677066288869
 20
585.545461580105
 30
0.0
 11
38.77408864682
 21
571.521114248216
 31
0.0
  0
ARC
  5
2FDE
330
1A
100
AcDbEntity
  8
外形線
100
AcDbCircle
 10
38.774042509888
 20
576.021116699933
 30
0.0
 40
4.5
100
AcDbArc
 50
269.999994133302
 51
329.999994133297
  0
ARC
  5
2FDF
330
1A
100
AcDbEntity
  8
外形線
100
AcDbCircle
 10
42.671157057302
 20
578.271116300896
 30
0.0
 40
4.5
100
AcDbArc
 50
269.999994133302
 51
329.999994133297
  0
ARC
  5
2FE0
330
1A
100
AcDbEntity
  8
外形線
100
AcDbCircle
 10
46.568270683178
 20
571.521115901858
 30
0.0
 40
4.5
100
AcDbArc
 50
89.999994133303
 51
149.999994133298
  0
LINE
  5
2FE4
330
1A
100
AcDbEntity
  8
外形線
100
AcDbLine
 10
41.777692688512
 20
598.665090946748
 30
0.0
 11
42.679492688512
 21
597.103127528482
 31
0.0
  0
ARC
  5
2FE5
330
1A
100
AcDbEntity
  8
外形線
100
AcDbCircle
 10
39.208462870144
 20
595.099127528482
 30
0.0
 40
4.007999999999999
100
AcDbArc
 50
300.000000000002
 51
29.999999999999
  0
LINE
  5
2FE6
330
1A
100
AcDbEntity
  8
外形線
100
AcDbLine
 10
27.935773814885
 20
583.962797710114
 30
0.0
 11
41.212462870144
 21
591.628097710114
 31
0.0
  0
LINE
  5
2FEA
330
1A
100
AcDbEntity
  8
外形線
100
AcDbLine
 10
37.799645489394
 20
606.256670810525
 30
0.0
 11
42.081407797618
 21
598.840440946748
 31
0.0
  0
ARC
  5
2FEB
330
1A
100
AcDbEntity
  8
外形線
100
AcDbCircle
 10
32.224672160975
 20
603.888807866188
 30
0.0
 40
9.30038181818205
100
AcDbArc
 50
259.727393143495
 51
340.272606856496
  0
LINE
  5
3078
330
1A
100
AcDbEntity
  8
外形線
100
AcDbLine
 10
157.912277692497
 20
695.519188917663
 30
0.0
 11
192.912271192496
 21
695.519188917663
 31
0.0
  0
LINE
  5
3079
330
1A
100
AcDbEntity
  8
外形線
100
AcDbLine
 10
195.322144192497
 20
661.299340917663
 30
0.0
 11
192.912271192496
 21
695.519188917663
 31
0.0
  0
LINE
  5
307A
330
1A
100
AcDbEntity
  8
外形線
100
AcDbLine
 10
157.912277692497
 20
695.519188917663
 30
0.0
 11
157.912277692497
 21
615.519403917663
 31
0.0
  0
LINE
  5
307B
330
1A
100
AcDbEntity
  8
外形線
100
AcDbLine
 10
157.912277692497
 20
615.519403917663
 30
0.0
 11
192.912271192496
 21
615.519403917663
 31
0.0
  0
LINE
  5
307C
330
1A
100
AcDbEntity
  8
外形線
100
AcDbLine
 10
195.322144192497
 20
649.739343417663
 30
0.0
 11
192.912271192496
 21
615.519403917663
 31
0.0
  0
LINE
  5
308A
330
1A
100
AcDbEntity
  8
外形線
100
AcDbLine
 10
222.812229192497
 20
658.519341417663
 30
0.0
 11
215.593861192497
 21
658.519341417663
 31
0.0
  0
LINE
  5
308B
330
1A
100
AcDbEntity
  8
外形線
100
AcDbLine
 10
212.856297731727
 20
658.519341417663
 30
0.0
 11
207.412277692497
 21
658.519341417663
 31
0.0
  0
LINE
  5
308C
330
1A
100
AcDbEntity
  8
外形線
100
AcDbLine
 10
222.812229192497
 20
652.519341417663
 30
0.0
 11
215.593861192497
 21
652.519341417663
 31
0.0
  0
LINE
  5
308D
330
1A
100
AcDbEntity
  8
外形線
100
AcDbLine
 10
212.856297731727
 20
652.519341417663
 30
0.0
 11
207.412277692497
 21
652.519341417663
 31
0.0
  0
ARC
  5
308E
330
1A
100
AcDbEntity
  8
細線
100
AcDbCircle
 10
218.19193740385
 20
657.019341417663
 30
0.0
 40
3.0
100
AcDbArc
 50
150.0
 51
210.0
  0
ARC
  5
308F
330
1A
100
AcDbEntity
  8
細線
100
AcDbCircle
 10
218.19193740385
 20
654.019341417663
 30
0.0
 40
3.0
100
AcDbArc
 50
150.0
 51
210.0
  0
ARC
  5
3090
330
1A
100
AcDbEntity
  8
細線
100
AcDbCircle
 10
212.995784981143
 20
654.019341417663
 30
0.0
 40
3.0
100
AcDbArc
 50
330.0
 51
30.0
  0
ARC
  5
3091
330
1A
100
AcDbEntity
  8
細線
100
AcDbCircle
 10
210.25822100076
 20
654.019340517663
 30
0.0
 40
3.0
100
AcDbArc
 50
330.00001984784
 51
30.000019847843
  0
ARC
  5
3092
330
1A
100
AcDbEntity
  8
細線
100
AcDbCircle
 10
210.258219961528
 20
657.019340517663
 30
0.0
 40
3.0
100
AcDbArc
 50
330.00001984784
 51
30.000019847843
  0
ARC
  5
3093
330
1A
100
AcDbEntity
  8
細線
100
AcDbCircle
 10
215.454372384235
 20
657.019342317663
 30
0.0
 40
3.0
100
AcDbArc
 50
150.00001984784
 51
210.000019847843
  0
CIRCLE
  5
30B4
330
1A
100
AcDbEntity
  8
外形線
100
AcDbCircle
 10
181.411279192497
 20
655.519341417663
 30
0.0
 40
2.499
  0
LINE
  5
30B5
330
1A
100
AcDbEntity
  8
外形線
100
AcDbLine
 10
177.412277692497
 20
650.489343417663
 30
0.0
 11
177.412277692497
 21
660.549340917663
 31
0.0
  0
LINE
  5
30B6
330
1A
100
AcDbEntity
  8
外形線
100
AcDbLine
 10
178.612282192497
 20
661.299340917663
 30
0.0
 11
206.219968724158
 21
661.299340917663
 31
0.0
  0
LINE
  5
30B7
330
1A
100
AcDbEntity
  8
外形線
100
AcDbLine
 10
178.612282192497
 20
661.299340917663
 30
0.0
 11
177.412277692497
 21
660.549340917663
 31
0.0
  0
LINE
  5
30B8
330
1A
100
AcDbEntity
  8
外形線
100
AcDbLine
 10
178.678841692497
 20
658.409295417663
 30
0.0
 11
206.145768830419
 21
658.409295417663
 31
0.0
  0
LINE
  5
30B9
330
1A
100
AcDbEntity
  8
外形線
100
AcDbLine
 10
178.612282192497
 20
649.739343417663
 30
0.0
 11
177.412277692497
 21
650.489343417663
 31
0.0
  0
LINE
  5
30BA
330
1A
100
AcDbEntity
  8
外形線
100
AcDbLine
 10
178.612282192497
 20
649.739343417663
 30
0.0
 11
206.212273192497
 21
649.739343417663
 31
0.0
  0
LINE
  5
30BB
330
1A
100
AcDbEntity
  8
外形線
100
AcDbLine
 10
178.678841692497
 20
652.629297417663
 30
0.0
 11
206.152311770607
 21
652.629297417663
 31
0.0
  0
CIRCLE
  5
30BE
330
1A
100
AcDbEntity
  8
外形線
100
AcDbCircle
 10
199.912277692497
 20
655.519341417663
 30
0.0
 40
0.9999
  0
ARC
  5
30C8
330
1A
100
AcDbEntity
  8
外形線
100
AcDbCircle
 10
181.342705192497
 20
655.519296417663
 30
0.0
 40
3.9304305
100
AcDbArc
 50
132.668434758324
 51
227.331604937362
  0
ARC
  5
30C9
330
1A
100
AcDbEntity
  8
外形線
100
AcDbCircle
 10
180.582520192497
 20
660.980782917663
 30
0.0
 40
3.1994565
100
AcDbArc
 50
187.749961576341
 51
233.487520784031
  0
ARC
  5
30CA
330
1A
100
AcDbEntity
  8
外形線
100
AcDbCircle
 10
180.582520192497
 20
650.057901417663
 30
0.0
 40
3.1994565
100
AcDbArc
 50
126.512518911656
 51
172.250078119342
  0
LINE
  5
30D3
330
1A
100
AcDbEntity
  8
外形線
100
AcDbLine
 10
207.412277692497
 20
660.554150606915
 30
0.0
 11
207.412277692497
 21
650.494153106914
 31
0.0
  0
LINE
  5
30D4
330
1A
100
AcDbEntity
  8
外形線
100
AcDbLine
 10
206.212273192497
 20
649.744153106914
 30
0.0
 11
207.412277692497
 21
650.494153106914
 31
0.0
  0
LINE
  5
30D5
330
1A
100
AcDbEntity
  8
外形線
100
AcDbLine
 10
206.212273192497
 20
661.304150606915
 30
0.0
 11
207.412277692497
 21
660.554150606915
 31
0.0
  0
ARC
  5
30D6
330
1A
100
AcDbEntity
  8
外形線
100
AcDbCircle
 10
203.481850192497
 20
655.524197606914
 30
0.0
 40
3.9304305
100
AcDbArc
 50
312.668434758324
 51
47.331604937362
  0
ARC
  5
30D7
330
1A
100
AcDbEntity
  8
外形線
100
AcDbCircle
 10
204.242035192497
 20
650.062711106914
 30
0.0
 40
3.1994565
100
AcDbArc
 50
7.749961576341
 51
53.487520784031
  0
ARC
  5
30D8
330
1A
100
AcDbEntity
  8
外形線
100
AcDbCircle
 10
204.242035192497
 20
660.985592606914
 30
0.0
 40
3.1994565
100
AcDbArc
 50
306.512518911656
 51
352.250078119342
  0
LINE
  5
30DA
330
1A
100
AcDbEntity
  8
中心線
 48
10.0
100
AcDbLine
 10
181.411279192497
 20
658.409295417663
 30
0.0
 11
181.411279192497
 21
652.629297417663
 31
0.0
  0
LINE
  5
30DC
330
1A
100
AcDbEntity
  8
中心線
 48
10.0
100
AcDbLine
 10
199.912277692497
 20
657.583032417663
 30
0.0
 11
199.912277692497
 21
653.455650417663
 31
0.0
  0
LINE
  5
30DE
330
1A
100
AcDbEntity
  8
中心線
 48
10.0
100
AcDbLine
 10
148.456474341641
 20
655.519341417663
 30
0.0
 11
263.478725158046
 21
655.519341417663
 31
0.0
  0
LINE
  5
310D
330
1A
100
AcDbEntity
  8
中心線
 48
10.0
100
AcDbLine
 10
1.062316096532
 20
698.071449382783
 30
0.0
 11
1.062316096532
 21
599.273743327996
 31
0.0
  0
LINE
  5
310E
330
1A
100
AcDbEntity
  8
外形線
 48
10.0
100
AcDbLine
 10
0.162316096532
 20
695.519341417663
 30
0.0
 11
1.962316096532
 21
695.519341417663
 31
0.0
  0
LINE
  5
310F
330
1A
100
AcDbEntity
  8
外形線
 48
10.0
100
AcDbLine
 10
1.962316096532
 20
695.519341417663
 30
0.0
 11
1.962316096532
 21
615.519341417663
 31
0.0
  0
LINE
  5
3110
330
1A
100
AcDbEntity
  8
外形線
 48
10.0
100
AcDbLine
 10
0.162316096532
 20
695.519341417663
 30
0.0
 11
0.162316096532
 21
615.519341417663
 31
0.0
  0
LINE
  5
3111
330
1A
100
AcDbEntity
  8
外形線
 48
10.0
100
AcDbLine
 10
1.962316096532
 20
615.519341417663
 30
0.0
 11
0.162316096532
 21
615.519341417663
 31
0.0
  0
DIMENSION
  5
347D
330
1A
100
AcDbEntity
  8
寸法線
 48
10.0
100
AcDbDimension
  2
*D9
 10
218.953045192497
 20
652.519341417663
 30
0.0
 11
218.953045192497
 21
675.143357165695
 31
0.0
 70
   160
  1
φ<>
  3
ISO-25
100
AcDbAlignedDimension
 13
218.953045192497
 23
658.519341417663
 33
0.0
 14
218.953045192497
 24
652.519341417663
 34
0.0
 50
90.0
100
AcDbRotatedDimension
1001
ACAD
1000
DSTYLE
1002
{
1070
     5
1000
OPEN30
1070
    41
1040
6.0
1070
    47
1040
0.1
1070
    48
1040
0.1
1070
    73
1070
     0
1070
   140
1040
5.0
1070
   271
1070
     1
1070
   272
1070
     1
1070
   341
1005
2AF4
1002
}
  0
DIMENSION
  5
34B8
330
1A
100
AcDbEntity
  8
寸法線
 48
10.0
100
AcDbDimension
  2
*D10
 10
138.540821520491
 20
615.519403917663
 30
0.0
 11
134.909571520491
 21
655.519296417663
 31
0.0
 70
    32
  3
ISO-25
100
AcDbAlignedDimension
 13
157.912277692497
 23
695.519188917663
 33
0.0
 14
157.912277692497
 24
615.519403917663
 34
0.0
 50
90.0
100
AcDbRotatedDimension
1001
ACAD
1000
DSTYLE
1002
{
1070
     5
1000
OPEN30
1070
    41
1040
6.0
1070
    47
1040
0.1
1070
    48
1040
0.1
1070
    73
1070
     0
1070
   140
1040
6.0
1070
   271
1070
     1
1070
   272
1070
     1
1070
   341
1005
2AF4
1002
}
  0
DIMENSION
  5
34C5
330
1A
100
AcDbEntity
  8
寸法線
 48
10.0
100
AcDbDimension
  2
*D11
 10
192.912271192496
 20
596.530590407801
 30
0.0
 11
175.412274442497
 21
600.158715407801
 31
0.0
 70
    32
  3
ISO-25
100
AcDbAlignedDimension
 13
157.912277692497
 23
615.519403917663
 33
0.0
 14
192.912271192496
 24
615.519403917663
 34
0.0
100
AcDbRotatedDimension
1001
ACAD
1000
DSTYLE
1002
{
1070
     5
1000
OPEN30
1070
    41
1040
6.0
1070
    47
1040
0.1
1070
    48
1040
0.1
1070
    73
1070
     0
1070
   140
1040
6.0
1070
   271
1070
     1
1070
   272
1070
     1
1070
   341
1005
2AF4
1002
}
  0
LINE
  5
34E9
330
1A
100
AcDbEntity
  8
外形線
 48
10.0
100
AcDbLine
 10
242.062264192497
 20
605.694314417663
 30
0.0
 11
242.062264192497
 21
685.694314417663
 31
0.0
  0
LINE
  5
34EA
330
1A
100
AcDbEntity
  8
外形線
 48
10.0
100
AcDbLine
 10
246.062264192497
 20
605.694314417663
 30
0.0
 11
246.062264192497
 21
685.694314417663
 31
0.0
  0
LINE
  5
3589
330
1A
100
AcDbEntity
  8
寸法線
 48
10.0
100
AcDbLine
 10
157.912277692497
 20
560.508260647694
 30
0.0
 11
163.707832650231
 21
562.06117491831
 31
0.0
  0
LINE
  5
358A
330
1A
100
AcDbEntity
  8
寸法線
 48
10.0
100
AcDbLine
 10
157.912277692497
 20
560.508260647694
 30
0.0
 11
163.707832650231
 21
558.955346377079
 31
0.0
  0
LINE
  5
3592
330
1A
100
AcDbEntity
  8
寸法線
 48
10.0
100
AcDbLine
 10
247.562264192497
 20
560.508260647694
 30
0.0
 11
241.766709234762
 21
562.06117491831
 31
0.0
  0
LINE
  5
3593
330
1A
100
AcDbEntity
  8
寸法線
 48
10.0
100
AcDbLine
 10
247.562264192497
 20
560.508260647694
 30
0.0
 11
241.766709234762
 21
558.955346377079
 31
0.0
  0
LINE
  5
3594
330
1A
100
AcDbEntity
  8
寸法線
 48
10.0
100
AcDbLine
 10
247.562264192497
 20
560.508260647694
 30
0.0
 11
157.912277692497
 21
560.508260647694
 31
0.0
  0
LINE
  5
3597
330
1A
100
AcDbEntity
  8
寸法線
 48
10.0
100
AcDbLine
 10
157.912277692497
 20
595.280590407801
 30
0.0
 11
157.912277692497
 21
559.258260647694
 31
0.0
  0
ARC
  5
35A4
330
1A
100
AcDbEntity
  8
寸法線
100
AcDbCircle
 10
204.733898526113
 20
567.617979818807
 30
0.0
 40
0.2017125
100
AcDbArc
 50
28.23094836902
 51
123.883845843379
  0
ARC
  5
35A5
330
1A
100
AcDbEntity
  8
寸法線
100
AcDbCircle
 10
206.536250526113
 20
564.889158818807
 30
0.0
 40
3.4720395
100
AcDbArc
 50
123.469024399698
 51
239.773899120646
  0
ARC
  5
35A6
330
1A
100
AcDbEntity
  8
寸法線
100
AcDbCircle
 10
206.536250526113
 20
564.889158818807
 30
0.0
 40
3.472035
100
AcDbArc
 50
123.469024399698
 51
239.774013712205
  0
ARC
  5
35A7
330
1A
100
AcDbEntity
  8
寸法線
100
AcDbCircle
 10
201.773266026113
 20
565.642821818807
 30
0.0
 40
3.7598535
100
AcDbArc
 50
273.280470979895
 51
33.415912335968
  0
ARC
  5
35A8
330
1A
100
AcDbEntity
  8
寸法線
100
AcDbCircle
 10
201.767039526113
 20
565.642134818807
 30
0.0
 40
3.7652925
100
AcDbArc
 50
274.628927150736
 51
33.374029121142
  0
ARC
  5
35A9
330
1A
100
AcDbEntity
  8
寸法線
100
AcDbCircle
 10
205.176556026113
 20
563.151213818806
 30
0.0
 40
1.3204425
100
AcDbArc
 50
252.903398883406
 51
337.412611017141
  0
ARC
  5
35AA
330
1A
100
AcDbEntity
  8
寸法線
100
AcDbCircle
 10
205.176556026113
 20
563.151258818807
 30
0.0
 40
1.3204605
100
AcDbArc
 50
252.904086432761
 51
337.411923467787
  0
LINE
  5
35B0
330
1A
100
AcDbEntity
  8
中心線
 48
10.0
100
AcDbLine
 10
336.748738476207
 20
645.694314417663
 30
0.0
 11
245.975825908787
 21
645.694314417663
 31
0.0
  0
LEADER
  5
35B1
330
1A
100
AcDbEntity
  8
寸法線
 48
10.0
100
AcDbLeader
  3
ISO-25
 76
     3
 10
200.732575218348
 20
654.441726572774
 30
0.0
 10
214.205395790049
 20
614.937556991465
 30
0.0
 10
222.687507329443
 20
614.937556991465
 30
0.0
213
-12.88555230454816
223
0.0
233
0.0
1001
ACAD
1000
DSTYLE
1002
{
1070
     5
1000
OPEN30
1070
   147
1040
0.625
1070
    77
1070
     0
1070
    41
1040
6.0
1070
    47
1040
0.1
1070
    48
1040
0.1
1070
    73
1070
     0
1070
   140
1040
5.0
1070
   271
1070
     1
1070
   272
1070
     1
1070
   341
1005
2AF4
1070
   342
1005
2AF4
1002
}
  0
MTEXT
  5
35B2
102
{ACAD_XDICTIONARY
360
4342
102
}
330
1A
100
AcDbEntity
  8
寸法線
 48
10.0
100
AcDbMText
 10
215.312644549292
 20
631.93870650855
 30
0.0
 40
6.0
 41
28.409279571162
 71
     1
 72
     5
  1
φ2\P割ピン
1001
ACADANNOTATIVE
1000
AnnotativeData
1002
{
1070
     1
1070
     0
1002
}
  0
LINE
  5
35B4
330
1A
100
AcDbEntity
  8
下書線
 48
10.0
100
AcDbLine
 10
169.928572074376
 20
716.827491467859
 30
0.0
 11
337.867460375023
 21
716.827491467859
 31
0.0
  0
LINE
  5
35B5
330
1A
100
AcDbEntity
  8
下書線
 48
10.0
100
AcDbLine
 10
130.7121153445
 20
739.639662969686
 30
0.0
 11
436.376171666897
 21
739.639662969686
 31
0.0
  0
LEADER
  5
35B6
330
1A
100
AcDbEntity
  8
寸法線
 48
10.0
100
AcDbLeader
  3
ISO-25
 76
     3
 10
175.412274442497
 20
695.518970230101
 30
0.0
 10
166.927577812437
 20
739.639662969686
 30
0.0
 10
157.427697963213
 20
739.639662969686
 30
0.0
1001
ACAD
1000
DSTYLE
1002
{
1070
     5
1000
OPEN30
1070
   147
1040
0.625
1070
    77
1070
     0
1070
    41
1040
6.0
1070
    47
1040
0.1
1070
    48
1040
0.1
1070
    73
1070
     0
1070
   140
1040
5.0
1070
   271
1070
     1
1070
   272
1070
     1
1070
   341
1005
2AF4
1070
   342
1005
2AF4
1002
}
  0
MTEXT
  5
35B7
330
1A
100
AcDbEntity
  8
寸法線
 48
10.0
100
AcDbMText
 10
140.521542570928
 20
745.773723627592
 30
0.0
 40
6.0
 41
21.514934650843
 71
     1
 72
     5
  1
SUS304
1001
ACAD
1000
MTEXTBEGIN
1070
    44
1040
0.8
1000
MTEXTEND
  0
LEADER
  5
35B9
330
1A
100
AcDbEntity
  8
寸法線
 48
10.0
100
AcDbLeader
  3
ISO-25
 76
     3
 10
210.134287712112
 20
658.506340626383
 30
0.0
 10
199.313532318452
 20
739.639662969686
 30
0.0
 10
190.677277435497
 20
739.639662969686
 30
0.0
1001
ACAD
1000
DSTYLE
1002
{
1070
     5
1000
OPEN30
1070
   147
1040
0.625
1070
    77
1070
     0
1070
    41
1040
6.0
1070
    47
1040
0.1
1070
    48
1040
0.1
1070
    73
1070
     0
1070
   140
1040
5.0
1070
   271
1070
     1
1070
   272
1070
     1
1070
   341
1005
2AF4
1070
   342
1005
2AF4
1002
}
  0
MTEXT
  5
35C0
330
1A
100
AcDbEntity
  8
寸法線
 48
10.0
100
AcDbMText
 10
173.377346037642
 20
746.182233335313
 30
0.0
 40
6.0
 41
21.514934650843
 71
     1
 72
     5
  1
SUS304
1001
ACAD
1000
MTEXTBEGIN
1070
    44
1040
0.8
1000
MTEXTEND
  0
MTEXT
  5
35C2
330
1A
100
AcDbEntity
  8
寸法線
 48
10.0
100
AcDbMText
 10
212.650738596994
 20
754.20159975759
 30
0.0
 40
6.0
 41
21.958515023009
 71
     1
 72
     5
  1
座金\PSS400
1001
ACAD
1000
MTEXTBEGIN
1070
    44
1040
0.8
1000
MTEXTEND
  0
LEADER
  5
35C4
330
1A
100
AcDbEntity
  8
寸法線
 48
10.0
100
AcDbLeader
  3
ISO-25
 76
     3
 10
240.995185648979
 20
677.904687545284
 30
0.0
 10
234.074456786772
 20
739.639662969686
 30
0.0
 10
225.438201903818
 20
739.639662969686
 30
0.0
1001
ACAD
1000
DSTYLE
1002
{
1070
     5
1000
OPEN30
1070
   147
1040
0.625
1070
    77
1070
     0
1070
    41
1040
6.0
1070
    47
1040
0.1
1070
    48
1040
0.1
1070
    73
1070
     0
1070
   140
1040
5.0
1070
   271
1070
     1
1070
   272
1070
     1
1070
   341
1005
2AF4
1070
   342
1005
2AF4
1002
}
  0
MTEXT
  5
35C5
330
1A
100
AcDbEntity
  8
寸法線
 48
10.0
100
AcDbMText
 10
207.31192379755
 20
731.710253527142
 30
0.0
 40
6.0
 41
21.829737978125
 71
     1
 72
     5
  1
ナット\PSS400
1001
ACAD
1000
MTEXTBEGIN
1070
    44
1040
0.8
1000
MTEXTEND
  0
LEADER
  5
35C7
330
1A
100
AcDbEntity
  8
寸法線
 48
10.0
100
AcDbLeader
  3
ISO-25
 76
     3
 10
237.374148453154
 20
676.519341417663
 30
0.0
 10
228.676796832393
 20
716.827491467859
 30
0.0
 10
220.688261979206
 20
716.827491467859
 30
0.0
1001
ACAD
1000
DSTYLE
1002
{
1070
     5
1000
OPEN30
1070
   147
1040
0.625
1070
    77
1070
     0
1070
    41
1040
6.0
1070
    47
1040
0.1
1070
    48
1040
0.1
1070
    73
1070
     0
1070
   140
1040
5.0
1070
   271
1070
     1
1070
   272
1070
     1
1070
   341
1005
2AF4
1070
   342
1005
2AF4
1002
}
  0
LEADER
  5
35C8
330
1A
100
AcDbEntity
  8
寸法線
 48
10.0
100
AcDbLeader
  3
ISO-25
 76
     3
 10
244.32930178812
 20
685.587202585791
 30
0.0
 10
247.500330454628
 20
739.639662969686
 30
0.0
 10
257.457166566244
 20
739.639662969686
 30
0.0
1001
ACAD
1000
DSTYLE
1002
{
1070
     5
1000
OPEN30
1070
   147
1040
0.625
1070
    77
1070
     0
1070
    41
1040
6.0
1070
    47
1040
0.1
1070
    48
1040
0.1
1070
    73
1070
     0
1070
   140
1040
5.0
1070
   271
1070
     1
1070
   272
1070
     1
1070
   341
1005
2AF4
1070
   342
1005
2AF4
1002
}
  0
MTEXT
  5
35C9
330
1A
100
AcDbEntity
  8
寸法線
 48
10.0
100
AcDbMText
 10
248.255115270687
 20
746.080256255144
 30
0.0
 40
6.0
 41
42.40917435331
 71
     1
 72
     5
  1
アルミ鋳物
1001
ACAD
1000
MTEXTBEGIN
1070
    44
1040
0.8
1000
MTEXTEND
  0
LEADER
  5
35D5
330
1A
100
AcDbEntity
  8
寸法線
 48
10.0
100
AcDbLeader
  3
ISO-25
 76
     3
 10
268.675691306663
 20
678.80950497403
 30
0.0
 10
293.450892473706
 20
739.639662969686
 30
0.0
 10
303.613528685357
 20
739.639662969686
 30
0.0
1001
ACAD
1000
DSTYLE
1002
{
1070
     5
1000
OPEN30
1070
   147
1040
0.625
1070
    77
1070
     0
1070
    41
1040
6.0
1070
    47
1040
0.1
1070
    48
1040
0.1
1070
    73
1070
     0
1070
   140
1040
5.0
1070
   271
1070
     1
1070
   272
1070
     1
1070
   341
1005
2AF4
1070
   342
1005
2AF4
1002
}
  0
MTEXT
  5
35D6
330
1A
100
AcDbEntity
  8
寸法線
 48
10.0
100
AcDbMText
 10
294.008211111917
 20
746.434812037375
 30
0.0
 40
6.0
 41
48.564253797743
 71
     1
 72
     5
  1
亜鉛ダイカスト
1001
ACAD
1000
MTEXTBEGIN
1070
    44
1040
0.8
1000
MTEXTEND
  0
LEADER
  5
35D8
330
1A
100
AcDbEntity
  8
寸法線
 48
10.0
100
AcDbLeader
  3
ISO-25
 76
     3
 10
315.067783692892
 20
678.462091604997
 30
0.0
 10
353.444608833139
 20
739.639662969686
 30
0.0
 10
364.012356659424
 20
739.639662969686
 30
0.0
1001
ACAD
1000
DSTYLE
1002
{
1070
     5
1000
OPEN30
1070
   147
1040
0.625
1070
    77
1070
     0
1070
    41
1040
6.0
1070
    47
1040
0.1
1070
    48
1040
0.1
1070
    73
1070
     0
1070
   140
1040
5.0
1070
   271
1070
     1
1070
   272
1070
     1
1070
   341
1005
2AF4
1070
   342
1005
2AF4
1002
}
  0
MTEXT
  5
35DF
330
1A
100
AcDbEntity
  8
寸法線
 48
10.0
100
AcDbMText
 10
353.767701383971
 20
746.499711846504
 30
0.0
 40
6.0
 41
49.998084497793
 71
     1
 72
     5
  1
亜鉛ダイカスト
1001
ACAD
1000
MTEXTBEGIN
1070
    44
1040
0.8
1000
MTEXTEND
  0
LINE
  5
36A7
330
1A
100
AcDbEntity
  8
中心線
 48
10.0
100
AcDbLine
 10
-47.906772698608
 20
645.607877300896
 30
0.0
 11
50.031404891672
 21
645.607877300896
 31
0.0
  0
LINE
  5
36AB
330
1A
100
AcDbEntity
  8
中心線
 48
10.0
100
AcDbLine
 10
50.031404891672
 20
655.519341417663
 30
0.0
 11
-47.906772698608
 21
655.519341417663
 31
0.0
  0
DIMENSION
  5
36AC
330
1A
100
AcDbEntity
  8
寸法線
 48
10.0
100
AcDbDimension
  2
*D13
 10
55.419305138375
 20
645.607877300896
 30
0.0
 11
55.419305138375
 21
650.563609359279
 31
0.0
 70
   160
  1
10
  3
ISO-25
100
AcDbAlignedDimension
 13
50.031404891672
 23
655.519341417663
 33
0.0
 14
50.031404891672
 24
645.607877300896
 34
0.0
 50
90.0
100
AcDbRotatedDimension
1001
ACAD
1000
DSTYLE
1002
{
1070
     5
1000
OPEN30
1070
    41
1040
6.0
1070
    47
1040
0.1
1070
    48
1040
0.1
1070
    73
1070
     0
1070
   140
1040
6.0
1070
   271
1070
     1
1070
   272
1070
     1
1070
   341
1005
2AF4
1002
}
  0
DIMENSION
  5
36DC
330
1A
100
AcDbEntity
  8
寸法線
 48
10.0
100
AcDbDimension
  2
*D14
 10
19.062316096532
 20
705.506458306382
 30
0.0
 11
1.062316096532
 21
709.134583306382
 31
0.0
 70
    32
  3
ISO-25
100
AcDbAlignedDimension
 13
-16.937683903468
 23
665.911646263076
 33
0.0
 14
19.062316096532
 24
665.911646263076
 34
0.0
100
AcDbRotatedDimension
1001
ACAD
1000
DSTYLE
1002
{
1070
     5
1000
OPEN30
1070
    41
1040
6.0
1070
    47
1040
0.1
1070
    48
1040
0.1
1070
    73
1070
     0
1070
   140
1040
6.0
1070
   271
1070
     1
1070
   272
1070
     1
1070
   341
1005
2AF4
1002
}
  0
MTEXT
  5
36E9
330
1A
100
AcDbEntity
  8
寸法線
 48
10.0
100
AcDbMText
 10
-4.913211644103
 20
717.884974073699
 30
0.0
 40
5.0
 41
12.323505265848
 71
     1
 72
     5
  1
平径
  0
DIMENSION
  5
36EB
330
1A
100
AcDbEntity
  8
寸法線
 48
10.0
100
AcDbDimension
  2
*D15
 10
1.962316096532
 20
624.440867540967
 30
0.0
 11
15.187316096532
 21
628.065867540967
 31
0.0
 70
    32
  1
1
  3
ISO-25
100
AcDbAlignedDimension
 13
0.162316096532
 23
624.440867540967
 33
0.0
 14
1.962316096532
 24
624.440867540967
 34
0.0
100
AcDbRotatedDimension
1001
ACAD
1000
DSTYLE
1002
{
1070
     5
1000
OPEN30
1070
    41
1040
6.0
1070
    47
1040
0.1
1070
    48
1040
0.1
1070
    73
1070
     0
1070
   140
1040
6.0
1070
   271
1070
     1
1070
   272
1070
     1
1070
   341
1005
2AF4
1002
}
  0
LEADER
  5
3710
330
1A
100
AcDbEntity
  8
寸法線
 48
10.0
100
AcDbLeader
  3
ISO-25
 76
     3
 10
18.19912888741
 20
592.109761419759
 30
0.0
 10
2.542226114982
 20
571.837331965943
 30
0.0
 10
-9.643151100304
 20
571.837331965943
 30
0.0
213
52.42018751185218
223
0.0
233
0.0
1001
ACAD
1000
DSTYLE
1002
{
1070
     5
1000
OPEN30
1070
   147
1040
0.625
1070
    77
1070
     0
1070
    41
1040
6.0
1070
    47
1040
0.1
1070
    48
1040
0.1
1070
    73
1070
     0
1070
   140
1040
5.0
1070
   271
1070
     1
1070
   272
1070
     1
1070
   341
1005
2AF4
1070
   342
1005
2AF4
1002
}
  0
LINE
  5
3740
330
1A
100
AcDbEntity
  8
外形線
 48
10.0
100
AcDbLine
 10
246.062264192497
 20
685.694314417663
 30
0.0
 11
242.062264192497
 21
685.694314417663
 31
0.0
  0
LINE
  5
3741
330
1A
100
AcDbEntity
  8
外形線
 48
10.0
100
AcDbLine
 10
246.062264192496
 20
605.694314417663
 30
0.0
 11
242.062264192497
 21
605.694314417663
 31
0.0
  0
DIMENSION
  5
377C
330
1A
100
AcDbEntity
  8
寸法線
 48
10.0
100
AcDbDimension
  2
*D16
 10
38.028093820502
 20
672.985466746007
 30
0.0
 11
-20.286939670271
 21
629.86204827543
 31
0.0
 70
   161
  3
ISO-25
100
AcDbAlignedDimension
 13
-35.923418239329
 23
618.257274827877
 33
0.0
 14
38.048050432393
 24
672.958479773915
 34
0.0
1001
ACAD
1000
DSTYLE
1002
{
1070
     5
1000
OPEN30
1070
    41
1040
6.0
1070
    47
1040
0.1
1070
    48
1040
0.1
1070
    73
1070
     0
1070
   140
1040
6.0
1070
   271
1070
     1
1070
   272
1070
     1
1070
   341
1005
2AF4
1002
}
  0
LEADER
  5
37C0
330
1A
100
AcDbEntity
  8
寸法線
 48
10.0
100
AcDbLeader
  3
ISO-25
 76
     3
 10
-32.480415154106
 20
609.56257620584
 30
0.0
 10
-35.767307284937
 20
595.690518241627
 30
0.0
 10
-42.083669366312
 20
595.690518241627
 30
0.0
213
18.43663328672278
223
0.0
233
0.0
1001
ACAD
1000
DSTYLE
1002
{
1070
     5
1000
OPEN30
1070
   147
1040
0.625
1070
    77
1070
     0
1070
    41
1040
6.0
1070
    47
1040
0.1
1070
    48
1040
0.1
1070
    73
1070
     0
1070
   140
1040
5.0
1070
   271
1070
     1
1070
   272
1070
     1
1070
   341
1005
2AF4
1070
   342
1005
2AF4
1002
}
  0
MTEXT
  5
37C1
330
1A
100
AcDbEntity
  8
寸法線
 48
10.0
100
AcDbMText
 10
-62.501566702019
 20
602.46736085075
 30
0.0
 40
6.0
 41
38.662768623541
 71
     1
 72
     5
  1
4-φ7.2
  0
MTEXT
  5
37F5
102
{ACAD_XDICTIONARY
360
4224
102
}
330
1A
100
AcDbEntity
  8
寸法線
 48
10.0
100
AcDbMText
 10
253.617661530089
 20
730.872409129844
 30
0.0
 40
6.0
 41
42.40917435331
 71
     1
 72
     5
  1
ゴム\Pパッキン
1001
ACADANNOTATIVE
1000
AnnotativeData
1002
{
1070
     1
1070
     0
1002
}
1001
ACAD
1000
MTEXTBEGIN
1070
    44
1040
0.8
1000
MTEXTEND
  0
MTEXT
  5
37F6
330
1A
100
AcDbEntity
  8
寸法線
 48
10.0
100
AcDbMText
 10
292.506603537118
 20
723.210571284201
 30
0.0
 40
6.0
 41
42.40917435331
 71
     1
 72
     5
  1
Oリング
1001
ACAD
1000
MTEXTBEGIN
1070
    44
1040
0.8
1000
MTEXTEND
  0
LEADER
  5
37F7
330
1A
100
AcDbEntity
  8
寸法線
 48
10.0
100
AcDbLeader
  3
ISO-25
 76
     3
 10
247.078105361313
 20
676.123352221287
 30
0.0
 10
252.165091689977
 20
716.796299354609
 30
0.0
 10
262.037160766642
 20
716.796299354609
 30
0.0
1001
ACAD
1000
DSTYLE
1002
{
1070
     5
1000
OPEN30
1070
   147
1040
0.625
1070
    77
1070
     0
1070
    41
1040
6.0
1070
    47
1040
0.1
1070
    48
1040
0.1
1070
    73
1070
     0
1070
   140
1040
5.0
1070
   271
1070
     1
1070
   272
1070
     1
1070
   341
1005
2AF4
1070
   342
1005
2AF4
1002
}
  0
LEADER
  5
37F8
330
1A
100
AcDbEntity
  8
寸法線
 48
10.0
100
AcDbLeader
  3
ISO-25
 76
     3
 10
281.08458238408
 20
681.070851527152
 30
0.0
 10
291.981787424541
 20
716.651100233116
 30
0.0
 10
301.550136268353
 20
716.651100233116
 30
0.0
1001
ACAD
1000
DSTYLE
1002
{
1070
     5
1000
OPEN30
1070
   147
1040
0.625
1070
    77
1070
     0
1070
    41
1040
6.0
1070
    47
1040
0.1
1070
    48
1040
0.1
1070
    73
1070
     0
1070
   140
1040
5.0
1070
   271
1070
     1
1070
   272
1070
     1
1070
   341
1005
2AF4
1070
   342
1005
2AF4
1002
}
  0
MTEXT
  5
3935
330
1A
100
AcDbEntity
  8
寸法線
 48
10.0
100
AcDbMText
 10
-58.516191277935
 20
589.0640749656
 30
0.0
 40
5.0
 41
63.804781576954
 71
     1
 72
     5
  1
{\H1.2x;コードロック\PビメットBMS050B}
  0
ARC
  5
405E
330
1A
100
AcDbEntity
  8
外形線
 48
10.0
100
AcDbCircle
 10
1.196165596542
 20
655.607907800903
 30
0.0
 40
22.5
100
AcDbArc
 50
92.633603408824
 51
267.366396591176
  0
LINE
  5
405F
330
1A
100
AcDbEntity
  8
外形線
 48
10.0
100
AcDbLine
 10
6.062316096532
 20
652.632590071715
 30
0.0
 11
6.062316096532
 21
658.406092763612
 31
0.0
  0
LINE
  5
4060
330
1A
100
AcDbEntity
  8
外形線
 48
10.0
100
AcDbLine
 10
-3.937683903468
 20
652.632590071715
 30
0.0
 11
-3.937683903468
 21
658.406092763611
 31
0.0
  0
LINE
  5
4061
330
1A
100
AcDbEntity
  8
外形線
 48
10.0
100
AcDbLine
 10
1.962316096532
 20
650.265453968037
 30
0.0
 11
6.062316096532
 21
652.632590071715
 31
0.0
  0
LINE
  5
4062
330
1A
100
AcDbEntity
  8
外形線
 48
10.0
100
AcDbLine
 10
-3.937683903468
 20
658.406092763611
 30
0.0
 11
0.162316096532
 21
660.773228867289
 31
0.0
  0
LINE
  5
4063
330
1A
100
AcDbEntity
  8
外形線
 48
10.0
100
AcDbLine
 10
6.062316096532
 20
658.406092763612
 30
0.0
 11
1.962316096532
 21
660.773228867289
 31
0.0
  0
LINE
  5
4064
330
1A
100
AcDbEntity
  8
外形線
 48
10.0
100
AcDbLine
 10
0.162316096532
 20
650.265453968038
 30
0.0
 11
-3.937683903468
 21
652.632590071715
 31
0.0
  0
ARC
  5
4065
330
1A
100
AcDbEntity
  8
細線
 48
10.0
100
AcDbCircle
 10
1.062316096532
 20
655.519341417663
 30
0.0
 40
5.0
100
AcDbArc
 50
100.369759805477
 51
259.630240194522
  0
ARC
  5
408F
330
1A
100
AcDbEntity
  8
細線
 48
10.0
100
AcDbCircle
 10
1.062316096532
 20
655.519341417663
 30
0.0
 40
5.0
100
AcDbArc
 50
280.369759805478
 51
79.630240194523
  0
ARC
  5
4090
330
1A
100
AcDbEntity
  8
外形線
 48
10.0
100
AcDbCircle
 10
1.196165596542
 20
655.607907800903
 30
0.0
 40
22.5
100
AcDbArc
 50
271.951363445946
 51
88.048636554054
  0
TEXT
  5
4091
330
1A
100
AcDbEntity
  8
寸法線
100
AcDbText
 10
-42.858359369696
 20
489.036163061774
 30
0.0
 40
6.573033707865
  1
ク　ロ
  7
EXCADVERT
 72
     3
 11
-42.858359369696
 21
469.536163061774
 31
0.0
100
AcDbText
  0
TEXT
  5
4092
330
1A
100
AcDbEntity
  8
寸法線
100
AcDbText
 10
-72.409017869696
 20
488.886154061774
 30
0.0
 40
6.030927835052
  1
ア　カ
  7
EXCADVERT
 72
     3
 11
-72.409017869696
 21
469.386154061774
 31
0.0
100
AcDbText
  0
TEXT
  5
4093
330
1A
100
AcDbEntity
  8
寸法線
100
AcDbText
 10
-88.159292369696
 20
482.210975561774
 30
0.0
 40
6.428571428571
  1
キ
  7
EXCADVERT
 72
     3
 11
-88.159292369696
 21
476.210975561774
 31
0.0
100
AcDbText
  0
TEXT
  5
4094
330
1A
100
AcDbEntity
  8
寸法線
100
AcDbText
 10
-103.534664369696
 20
489.036163061774
 30
0.0
 40
5.636363639073
  1
ミドリ
  7
EXCADVERT
 72
     3
 11
-103.534664369696
 21
470.436163052834
 31
0.0
100
AcDbText
  0
LINE
  5
4095
330
1A
100
AcDbEntity
  8
寸法線
100
AcDbLine
 10
-99.791708369696
 20
533.052565061774
 30
0.0
 11
-99.791708369696
 21
440.052560561774
 31
0.0
  0
LINE
  5
4096
330
1A
100
AcDbEntity
  8
寸法線
100
AcDbLine
 10
-68.732718869696
 20
533.052565061774
 30
0.0
 11
-68.732718869696
 21
449.052560561774
 31
0.0
  0
LINE
  5
4097
330
1A
100
AcDbEntity
  8
寸法線
100
AcDbLine
 10
-99.791708369696
 20
440.052554561774
 30
0.0
 11
-24.550502369696
 21
440.052554561774
 31
0.0
  0
LINE
  5
4098
330
1A
100
AcDbEntity
  8
寸法線
100
AcDbLine
 10
-84.262271369696
 20
503.707168061774
 30
0.0
 11
-84.262271369696
 21
444.552560561774
 31
0.0
  0
LINE
  5
4099
330
1A
100
AcDbEntity
  8
寸法線
100
AcDbLine
 10
-84.262271369696
 20
444.552560561774
 30
0.0
 11
-24.187998869696
 21
444.552560561774
 31
0.0
  0
LINE
  5
409A
330
1A
100
AcDbEntity
  8
寸法線
100
AcDbLine
 10
-53.952948869696
 20
503.707168061774
 30
0.0
 11
-53.952948869696
 21
453.552560561774
 31
0.0
  0
LINE
  5
409B
330
1A
100
AcDbEntity
  8
寸法線
100
AcDbLine
 10
-38.958945869696
 20
458.052560561774
 30
0.0
 11
-38.958945869696
 21
503.339446061774
 31
0.0
  0
LINE
  5
409C
330
1A
100
AcDbEntity
  8
寸法線
100
AcDbLine
 10
-68.732718869696
 20
449.052560561774
 30
0.0
 11
-18.482729369696
 21
449.052560561774
 31
0.0
  0
LINE
  5
409D
330
1A
100
AcDbEntity
  8
寸法線
100
AcDbLine
 10
-22.542315869696
 20
445.044232061774
 30
0.0
 11
-20.676665369696
 21
446.268269561774
 31
0.0
  0
LINE
  5
409E
330
1A
100
AcDbEntity
  8
寸法線
100
AcDbLine
 10
-22.409816369696
 20
440.950784561774
 30
0.0
 11
-20.453241869696
 21
442.943578061774
 31
0.0
  0
LINE
  5
409F
330
1A
100
AcDbEntity
  8
寸法線
100
AcDbLine
 10
-18.482729369696
 20
446.791699061774
 30
0.0
 11
-19.183302869696
 21
446.756074061774
 31
0.0
  0
LINE
  5
40A0
330
1A
100
AcDbEntity
  8
寸法線
100
AcDbLine
 10
-18.482729369696
 20
443.840210561774
 30
0.0
 11
-18.621260369696
 21
443.825882561774
 31
0.0
  0
ARC
  5
40A1
330
1A
100
AcDbEntity
  8
寸法線
100
AcDbCircle
 10
-24.187998869696
 20
447.552560561774
 30
0.0
 40
3.0
100
AcDbArc
 50
270.0
 51
303.268623610808
  0
ARC
  5
40A2
330
1A
100
AcDbEntity
  8
寸法線
100
AcDbCircle
 10
-19.030970369696
 20
443.759953061774
 30
0.0
 40
3.0
100
AcDbArc
 50
92.910721466856
 51
123.268603762964
  0
ARC
  5
40A3
330
1A
100
AcDbEntity
  8
寸法線
100
AcDbCircle
 10
-18.312555869696
 20
440.841808061774
 30
0.0
 40
3.0
100
AcDbArc
 50
95.906259411359
 51
135.525546099523
  0
ARC
  5
40A4
330
1A
100
AcDbEntity
  8
寸法線
100
AcDbCircle
 10
-24.550502369696
 20
443.052560561774
 30
0.0
 40
3.0
100
AcDbArc
 50
270.0
 51
315.525565947365
  0
ARC
  5
40A5
330
1A
100
AcDbEntity
  8
寸法線
100
AcDbCircle
 10
-24.187998869696
 20
450.552560561774
 30
0.0
 40
3.0
100
AcDbArc
 50
56.731416084879
 51
89.999981276031
  0
LINE
  5
40A6
330
1A
100
AcDbEntity
  8
寸法線
100
AcDbLine
 10
-22.542315869696
 20
453.060887561774
 30
0.0
 11
-20.676665369696
 21
451.836850061774
 31
0.0
  0
LINE
  5
40A7
330
1A
100
AcDbEntity
  8
寸法線
100
AcDbLine
 10
-18.482729369696
 20
451.313420561774
 30
0.0
 11
-19.183302869696
 21
451.349045561774
 31
0.0
  0
ARC
  5
40A8
330
1A
100
AcDbEntity
  8
寸法線
100
AcDbCircle
 10
-19.030970369696
 20
454.345166561774
 30
0.0
 40
3.0
100
AcDbArc
 50
236.731435932721
 51
267.089318228831
  0
LINE
  5
40A9
330
1A
100
AcDbEntity
  8
寸法線
100
AcDbLine
 10
-18.482729369696
 20
454.264909061774
 30
0.0
 11
-18.621260369696
 21
454.279237061774
 31
0.0
  0
ARC
  5
40AA
330
1A
100
AcDbEntity
  8
寸法線
100
AcDbCircle
 10
-18.312555869696
 20
457.263307061774
 30
0.0
 40
3.0
100
AcDbArc
 50
224.474436300384
 51
264.093722988548
  0
LINE
  5
40AB
330
1A
100
AcDbEntity
  8
寸法線
100
AcDbLine
 10
-22.409816369696
 20
457.154336561774
 30
0.0
 11
-20.453241869696
 21
455.161541561774
 31
0.0
  0
ARC
  5
40AC
330
1A
100
AcDbEntity
  8
寸法線
100
AcDbCircle
 10
-24.550502369696
 20
455.052560561774
 30
0.0
 40
3.0
100
AcDbArc
 50
44.474473748323
 51
89.999981276031
  0
LINE
  5
40AD
330
1A
100
AcDbEntity
  8
寸法線
100
AcDbLine
 10
-38.958945869696
 20
458.052560561774
 30
0.0
 11
-24.550502369696
 21
458.052560561774
 31
0.0
  0
LINE
  5
40AE
330
1A
100
AcDbEntity
  8
寸法線
100
AcDbLine
 10
-53.952948869696
 20
453.552560561774
 30
0.0
 11
-24.187998869696
 21
453.552560561774
 31
0.0
  0
LINE
  5
40AF
330
1A
100
AcDbEntity
  8
寸法線
100
AcDbLine
 10
-15.482729369696
 20
455.052560561774
 30
0.0
 11
37.017258630304
 21
455.052560561774
 31
0.0
  0
LINE
  5
40B0
330
1A
100
AcDbEntity
  8
寸法線
100
AcDbLine
 10
-15.482729369696
 20
443.052560561774
 30
0.0
 11
37.017258630304
 21
443.052560561774
 31
0.0
  0
ARC
  5
40B1
330
1A
100
AcDbEntity
  8
寸法線
100
AcDbCircle
 10
31.821107246828
 20
446.052558761774
 30
0.0
 40
6.0
100
AcDbArc
 50
330.000019847844
 51
30.000019847843
  0
ARC
  5
40B2
330
1A
100
AcDbEntity
  8
寸法線
100
AcDbCircle
 10
31.821105168367
 20
452.052558761774
 30
0.0
 40
6.0
100
AcDbArc
 50
330.000019847844
 51
30.000019847843
  0
ARC
  5
40B3
330
1A
100
AcDbEntity
  8
寸法線
100
AcDbCircle
 10
42.213410013779
 20
452.052562361774
 30
0.0
 40
6.0
100
AcDbArc
 50
150.000019847843
 51
210.000019847843
  0
ARC
  5
40B4
330
1A
100
AcDbEntity
  8
寸法線
100
AcDbCircle
 10
-10.286576946989
 20
452.052560561774
 30
0.0
 40
6.0
100
AcDbArc
 50
150.0
 51
210.0
  0
ARC
  5
40B5
330
1A
100
AcDbEntity
  8
寸法線
100
AcDbCircle
 10
-10.286576946989
 20
446.052560561774
 30
0.0
 40
6.0
100
AcDbArc
 50
150.0
 51
209.999999999999
  0
ARC
  5
40B6
330
1A
100
AcDbEntity
  8
寸法線
100
AcDbCircle
 10
-20.678881792403
 20
446.052560561774
 30
0.0
 40
6.0
100
AcDbArc
 50
330.0
 51
30.0
  0
LINE
  5
40B7
330
1A
100
AcDbEntity
  8
寸法線
100
AcDbLine
 10
40.017258630304
 20
449.052560561774
 30
0.0
 11
74.517258630304
 21
449.052560561774
 31
0.0
  0
LINE
  5
40B8
330
1A
100
AcDbEntity
  8
寸法線
100
AcDbLine
 10
74.517258630304
 20
456.552560561774
 30
0.0
 11
46.499444130304
 21
456.552560561774
 31
0.0
  0
LINE
  5
40B9
330
1A
100
AcDbEntity
  8
寸法線
100
AcDbLine
 10
74.517258630304
 20
464.052560561774
 30
0.0
 11
46.649384130304
 21
464.052560561774
 31
0.0
  0
LINE
  5
40BA
330
1A
100
AcDbEntity
  8
寸法線
100
AcDbLine
 10
43.816193130304
 20
462.038995061774
 30
0.0
 11
41.482170630304
 21
455.335274561774
 31
0.0
  0
LINE
  5
40BB
330
1A
100
AcDbEntity
  8
寸法線
100
AcDbLine
 10
40.065575130304
 20
454.328492561774
 30
0.0
 11
40.017258630304
 21
454.328492561774
 31
0.0
  0
LINE
  5
40BC
330
1A
100
AcDbEntity
  8
寸法線
100
AcDbLine
 10
43.739838630304
 20
454.729207061774
 30
0.0
 11
43.064751630304
 21
453.145951061774
 31
0.0
  0
LINE
  5
40BD
330
1A
100
AcDbEntity
  8
寸法線
100
AcDbLine
 10
40.995042630304
 20
451.778440061774
 30
0.0
 11
40.017258630304
 21
451.778440061774
 31
0.0
  0
ARC
  5
40BE
330
1A
100
AcDbEntity
  8
寸法線
100
AcDbCircle
 10
46.649384130304
 20
461.052560561774
 30
0.0
 40
3.0
100
AcDbArc
 50
89.999981276032
 51
160.80341269666
  0
ARC
  5
40BF
330
1A
100
AcDbEntity
  8
寸法線
100
AcDbCircle
 10
46.499444130304
 20
453.552560561774
 30
0.0
 40
3.0
100
AcDbArc
 50
89.999981276032
 51
156.907528872886
  0
ARC
  5
40C0
330
1A
100
AcDbEntity
  8
寸法線
100
AcDbCircle
 10
40.065575130304
 20
455.828492561774
 30
0.0
 40
1.5
100
AcDbArc
 50
270.0
 51
340.803432544508
  0
ARC
  5
40C1
330
1A
100
AcDbEntity
  8
寸法線
100
AcDbCircle
 10
40.995042630304
 20
454.028440061774
 30
0.0
 40
2.25
100
AcDbArc
 50
270.0
 51
336.907491424954
  0
LINE
  5
40C2
330
1A
100
AcDbEntity
  8
寸法線
100
AcDbLine
 10
74.517258630304
 20
434.052560561774
 30
0.0
 11
46.649384130304
 21
434.052560561774
 31
0.0
  0
ARC
  5
40C3
330
1A
100
AcDbEntity
  8
寸法線
100
AcDbCircle
 10
46.649384130304
 20
437.052560561774
 30
0.0
 40
3.0
100
AcDbArc
 50
199.196626999025
 51
270.0
  0
LINE
  5
40C4
330
1A
100
AcDbEntity
  8
寸法線
100
AcDbLine
 10
74.517258630304
 20
441.552560561774
 30
0.0
 11
46.499444130304
 21
441.552560561774
 31
0.0
  0
ARC
  5
40C5
330
1A
100
AcDbEntity
  8
寸法線
100
AcDbCircle
 10
46.499444130304
 20
444.552560561774
 30
0.0
 40
3.0
100
AcDbArc
 50
203.092510822796
 51
270.0
  0
LINE
  5
40C6
330
1A
100
AcDbEntity
  8
寸法線
100
AcDbLine
 10
40.065575130304
 20
443.776627061774
 30
0.0
 11
40.017258630304
 21
443.776627061774
 31
0.0
  0
LINE
  5
40C7
330
1A
100
AcDbEntity
  8
寸法線
100
AcDbLine
 10
43.816193130304
 20
436.066124561774
 30
0.0
 11
41.482170630304
 21
442.769845061774
 31
0.0
  0
ARC
  5
40C8
330
1A
100
AcDbEntity
  8
寸法線
100
AcDbCircle
 10
40.065575130304
 20
442.276627061774
 30
0.0
 40
1.5
100
AcDbArc
 50
19.196607151181
 51
89.999981276032
  0
LINE
  5
40C9
330
1A
100
AcDbEntity
  8
寸法線
100
AcDbLine
 10
43.739838630304
 20
443.375912561774
 30
0.0
 11
43.064751630304
 21
444.959168561774
 31
0.0
  0
LINE
  5
40CA
330
1A
100
AcDbEntity
  8
寸法線
100
AcDbLine
 10
40.995042630304
 20
446.326681061774
 30
0.0
 11
40.017258630304
 21
446.326681061774
 31
0.0
  0
ARC
  5
40CB
330
1A
100
AcDbEntity
  8
寸法線
100
AcDbCircle
 10
40.995042630304
 20
444.076681061774
 30
0.0
 40
2.25
100
AcDbArc
 50
23.092490974952
 51
89.999981276031
  0
TEXT
  5
40CC
330
1A
100
AcDbEntity
  8
寸法線
100
AcDbText
 10
-2.586576869696
 20
445.904885561774
 30
0.0
 40
6.75
  1
リード線
 41
0.869565217391
  7
EXCADSTD
 72
     5
 11
24.413423130304
 21
445.904885561774
 31
0.0
100
AcDbText
  0
TEXT
  5
40CD
330
1A
100
AcDbEntity
  8
寸法線
100
AcDbText
 10
58.464654630304
 20
465.180278561774
 30
0.0
 40
5.25
  1
ク　ロ
 41
0.918367346939
  7
EXCADSTD
 72
     5
 11
74.214654630304
 21
465.180278561774
 31
0.0
100
AcDbText
  0
TEXT
  5
40CE
330
1A
100
AcDbEntity
  8
寸法線
100
AcDbText
 10
58.614663630304
 20
457.530119561774
 30
0.0
 40
5.25
  1
シ　ロ
 41
0.918367346939
  7
EXCADSTD
 72
     5
 11
74.364663630304
 21
457.530119561774
 31
0.0
100
AcDbText
  0
TEXT
  5
40CF
330
1A
100
AcDbEntity
  8
寸法線
100
AcDbText
 10
58.614663630304
 20
449.879968061774
 30
0.0
 40
5.25
  1
ア　カ
 41
0.909090909091
  7
EXCADSTD
 72
     5
 11
74.364663630304
 21
449.879968061774
 31
0.0
100
AcDbText
  0
TEXT
  5
40D0
330
1A
100
AcDbEntity
  8
寸法線
100
AcDbText
 10
63.864777630304
 20
442.379807561774
 30
0.0
 40
5.25
  1
キ
 41
1.071428571429
  7
EXCADSTD
 72
     5
 11
69.114777630304
 21
442.379807561774
 31
0.0
100
AcDbText
  0
TEXT
  5
40D1
330
1A
100
AcDbEntity
  8
寸法線
100
AcDbText
 10
58.614663630304
 20
434.729650061774
 30
0.0
 40
5.25
  1
ミドリ
 41
0.947368421053
  7
EXCADSTD
 72
     5
 11
74.364663630304
 21
434.729650061774
 31
0.0
100
AcDbText
  0
TEXT
  5
40D2
330
1A
100
AcDbEntity
  8
寸法線
100
AcDbText
 10
-57.721801442219
 20
488.694259061774
 30
0.0
 40
6.724137931034
  1
シ　ロ
  7
EXCADVERT
 72
     3
 11
-57.721801442219
 21
469.194259061774
 31
0.0
100
AcDbText
  0
TEXT
  5
40D3
330
1A
100
AcDbEntity
  8
寸法線
100
AcDbText
 10
79.166649630304
 20
457.118756561774
 30
0.0
 40
7.5
  1
電源
 41
0.923076923077
  7
EXCADSTD
 72
     5
 11
94.166649630304
 21
457.118756561774
 31
0.0
100
AcDbText
  0
TEXT
  5
40D4
330
1A
100
AcDbEntity
  8
寸法線
100
AcDbText
 10
82.241654130304
 20
452.768536061774
 30
0.0
 40
7.336956521739
  1
ＨＣＬ
  7
EXCADVERT
 72
     3
 11
82.241654130304
 21
430.268536061774
 31
0.0
100
AcDbText
  0
LINE
  5
40D5
330
1A
100
AcDbEntity
  8
寸法線
100
AcDbLine
 10
-99.791708369696
 20
533.052565061774
 30
0.0
 11
-90.152715869696
 21
533.052565061774
 31
0.0
  0
LINE
  5
40D6
330
1A
100
AcDbEntity
  8
寸法線
100
AcDbLine
 10
-90.152715869696
 20
533.052565061774
 30
0.0
 11
-90.152715869696
 21
518.272750061775
 31
0.0
  0
LINE
  5
40D7
330
1A
100
AcDbEntity
  8
寸法線
100
AcDbLine
 10
-78.371711369696
 20
533.052565061774
 30
0.0
 11
-68.732718869696
 21
533.052565061774
 31
0.0
  0
LINE
  5
40D8
330
1A
100
AcDbEntity
  8
寸法線
100
AcDbLine
 10
-53.952924869696
 20
533.052565061774
 30
0.0
 11
-38.958921869696
 21
533.052565061774
 31
0.0
  0
TEXT
  5
40D9
330
1A
100
AcDbEntity
  8
寸法線
100
AcDbText
 10
-43.459883369696
 20
505.577407061774
 30
0.0
 40
9.0
  1
Ｍ
 41
1.25
  7
EXCADSTD
 72
     5
 11
-34.459883369696
 21
505.577407061774
 31
0.0
100
AcDbText
  0
LINE
  5
40DA
330
1A
100
AcDbEntity
  8
寸法線
100
AcDbLine
 10
-38.958921869696
 20
533.052565061774
 30
0.0
 11
-38.958921869696
 21
517.127837561774
 31
0.0
  0
CIRCLE
  5
40DB
330
1A
100
AcDbEntity
  8
寸法線
100
AcDbCircle
 10
-84.262214369696
 20
504.907172561775
 30
0.0
 40
1.2000045
  0
CIRCLE
  5
40DC
330
1A
100
AcDbEntity
  8
寸法線
100
AcDbCircle
 10
-53.952924869696
 20
504.907172561775
 30
0.0
 40
1.2000045
  0
CIRCLE
  5
40DD
330
1A
100
AcDbEntity
  8
寸法線
100
AcDbCircle
 10
-90.152715869696
 20
517.072745561775
 30
0.0
 40
1.2000045
  0
LINE
  5
40DE
330
1A
100
AcDbEntity
  8
寸法線
100
AcDbLine
 10
-78.371711369696
 20
533.052565061774
 30
0.0
 11
-78.371711369696
 21
518.272750061775
 31
0.0
  0
CIRCLE
  5
40DF
330
1A
100
AcDbEntity
  8
寸法線
100
AcDbCircle
 10
-78.371711369696
 20
517.072745561775
 30
0.0
 40
1.2000045
  0
LINE
  5
40E0
330
1A
100
AcDbEntity
  8
寸法線
100
AcDbLine
 10
-53.952924869696
 20
533.052565061774
 30
0.0
 11
-53.952924869696
 21
518.272750061775
 31
0.0
  0
CIRCLE
  5
40E1
330
1A
100
AcDbEntity
  8
寸法線
100
AcDbCircle
 10
-53.952924869696
 20
517.072745561775
 30
0.0
 40
1.2000045
  0
LINE
  5
40E2
330
1A
100
AcDbEntity
  8
寸法線
100
AcDbLine
 10
-84.262214369696
 20
506.107165061775
 30
0.0
 11
-88.952711369696
 21
517.072745561775
 31
0.0
  0
LINE
  5
40E3
330
1A
100
AcDbEntity
  8
寸法線
100
AcDbLine
 10
-53.952924869696
 20
506.107165061775
 30
0.0
 11
-52.752920369696
 21
517.072745561775
 31
0.0
  0
CIRCLE
  5
40E4
330
1A
100
AcDbEntity
  8
寸法線
100
AcDbCircle
 10
-38.953245869696
 20
510.244490561774
 30
0.0
 40
6.883348499999999
  0
LINE
  5
40E5
330
1A
100
AcDbEntity
  8
寸法線
100
AcDbLine
 10
330.409909611096
 20
490.727701611533
 30
0.0
 11
330.409909611096
 21
532.727656611533
 31
0.0
  0
LINE
  5
40E6
330
1A
100
AcDbEntity
  8
寸法線
100
AcDbLine
 10
409.909909611096
 20
522.227656611533
 30
0.0
 11
258.409818111096
 21
522.227656611533
 31
0.0
  0
LINE
  5
40E7
330
1A
100
AcDbEntity
  8
寸法線
100
AcDbLine
 10
409.909909611096
 20
511.727656611533
 30
0.0
 11
258.409818111096
 21
511.727656611533
 31
0.0
  0
LINE
  5
40E8
330
1A
100
AcDbEntity
  8
寸法線
100
AcDbLine
 10
409.909909611096
 20
501.227656611533
 30
0.0
 11
258.409818111096
 21
501.227656611533
 31
0.0
  0
LINE
  5
40E9
330
1A
100
AcDbEntity
  8
寸法線
100
AcDbLine
 10
258.409818111096
 20
532.727656611533
 30
0.0
 11
409.909909611096
 21
532.727656611533
 31
0.0
  0
LINE
  5
40EA
330
1A
100
AcDbEntity
  8
寸法線
100
AcDbLine
 10
282.409840611096
 20
490.727701611533
 30
0.0
 11
282.409840611096
 21
532.727656611533
 31
0.0
  0
ARC
  5
40EB
330
1A
100
AcDbEntity
  8
寸法線
100
AcDbCircle
 10
306.851056611096
 20
525.567591111533
 30
0.0
 40
1.3204605
100
AcDbArc
 50
252.904086432758
 51
337.411923467783
  0
ARC
  5
40EC
330
1A
100
AcDbEntity
  8
寸法線
100
AcDbCircle
 10
306.851056611096
 20
525.567546111533
 30
0.0
 40
1.3204425
100
AcDbArc
 50
252.903398883406
 51
337.412611017143
  0
ARC
  5
40ED
330
1A
100
AcDbEntity
  8
寸法線
100
AcDbCircle
 10
303.447766611096
 20
528.059154111533
 30
0.0
 40
3.7598535
100
AcDbArc
 50
273.280470979894
 51
33.415912335968
  0
ARC
  5
40EE
330
1A
100
AcDbEntity
  8
寸法線
100
AcDbCircle
 10
308.210751111096
 20
527.305491111533
 30
0.0
 40
3.472035
100
AcDbArc
 50
123.469024399702
 51
239.774013712206
  0
ARC
  5
40EF
330
1A
100
AcDbEntity
  8
寸法線
100
AcDbCircle
 10
308.210751111096
 20
527.305491111533
 30
0.0
 40
3.4720395
100
AcDbArc
 50
123.469024399702
 51
239.773899120648
  0
ARC
  5
40F0
330
1A
100
AcDbEntity
  8
寸法線
100
AcDbCircle
 10
306.408399111096
 20
530.034312111533
 30
0.0
 40
0.2017125
100
AcDbArc
 50
28.230948369043
 51
123.883845843371
  0
LINE
  5
40F1
330
1A
100
AcDbEntity
  8
寸法線
100
AcDbLine
 10
409.909909611096
 20
490.727701611533
 30
0.0
 11
258.409818111096
 21
490.727701611533
 31
0.0
  0
LINE
  5
40F2
330
1A
100
AcDbEntity
  8
寸法線
100
AcDbLine
 10
258.409840611096
 20
490.727701611533
 30
0.0
 11
258.409840611096
 21
532.727656611533
 31
0.0
  0
TEXT
  5
40F3
330
1A
100
AcDbEntity
  8
寸法線
100
AcDbText
 10
260.438145111096
 20
524.289835611533
 30
0.0
 40
6.75
  1
御仕様
 41
0.882352941176
  7
EXCADSTD
 72
     5
 11
280.688145111096
 21
524.289835611533
 31
0.0
100
AcDbText
  0
LINE
  5
40F4
330
1A
100
AcDbEntity
  8
寸法線
100
AcDbLine
 10
409.909909611096
 20
490.727701611533
 30
0.0
 11
409.909909611096
 21
532.727656611533
 31
0.0
  0
LINE
  5
40F5
330
1A
100
AcDbEntity
  8
寸法線
100
AcDbLine
 10
379.909909611096
 20
490.727701611533
 30
0.0
 11
379.909909611096
 21
532.727656611533
 31
0.0
  0
TEXT
  5
40F6
330
1A
100
AcDbEntity
  8
寸法線
100
AcDbText
 10
388.165585611096
 20
524.139780111533
 30
0.0
 40
6.75
  1
台数
 41
0.909090909091
  7
EXCADSTD
 72
     5
 11
401.665585611096
 21
524.139780111533
 31
0.0
100
AcDbText
  0
TEXT
  5
40F7
330
1A
100
AcDbEntity
  8
寸法線
100
AcDbText
 10
348.714688611096
 20
524.289790611533
 30
0.0
 40
6.75
  1
記事
 41
0.909090909091
  7
EXCADSTD
 72
     5
 11
362.214688611096
 21
524.289790611533
 31
0.0
100
AcDbText
  0
MTEXT
  5
40F8
102
{ACAD_XDICTIONARY
360
40F9
102
}
330
1A
100
AcDbEntity
  8
寸法線
 48
10.0
100
AcDbMText
 10
73.88528586559
 20
531.928618718785
 30
0.0
 40
7.0
 41
158.221086696158
 71
     1
 72
     5
  1
\H0.8571x;塗　装　色：7.5BG4/1.5\P接点　容量：AC250V5A\P静止トルク：約4.9N・cm（約500g・cm）\P回　転　数：1RPM
1001
ACADANNOTATIVE
1000
AnnotativeData
1002
{
1070
     1
1070
     0
1002
}
  0
DIMENSION
  5
40FC
330
1A
100
AcDbEntity
  8
寸法線
 48
10.0
100
AcDbDimension
  2
*D46
 10
228.511248517783
 20
642.298841417663
 30
0.0
 11
228.511248517783
 21
687.220171503553
 31
0.0
 70
   160
  1
G 3/4"
  3
ISO-25
100
AcDbAlignedDimension
 13
223.362282192497
 23
668.739841417663
 33
0.0
 14
223.362282192497
 24
642.298841417663
 34
0.0
 50
90.0
100
AcDbRotatedDimension
1001
ACAD
1000
DSTYLE
1002
{
1070
     5
1000
OPEN30
1070
    41
1040
6.0
1070
    47
1040
0.1
1070
    48
1040
0.1
1070
    73
1070
     0
1070
   140
1040
6.0
1070
   271
1070
     1
1070
   272
1070
     1
1070
   341
1005
2AF4
1002
}
  0
DIMENSION
  5
4100
330
1A
100
AcDbEntity
  8
寸法線
 48
10.0
100
AcDbDimension
  2
*D50
 10
330.862282192497
 20
560.508260647695
 30
0.0
 11
289.462273192497
 21
564.142635647695
 31
0.0
 70
    32
  1
83
  3
ISO-25
100
AcDbAlignedDimension
 13
248.062264192497
 23
578.073139644732
 33
0.0
 14
330.862282192497
 24
580.692123093146
 34
0.0
100
AcDbRotatedDimension
1001
ACAD
1000
DSTYLE
1002
{
1070
     5
1000
OPEN30
1070
    41
1040
6.0
1070
    47
1040
0.1
1070
    48
1040
0.1
1070
    73
1070
     0
1070
   140
1040
6.0
1070
   271
1070
     1
1070
   272
1070
     1
1070
   341
1005
2AF4
1002
}
  0
MTEXT
  5
410D
330
1A
100
AcDbEntity
  8
寸法線
 48
10.0
100
AcDbMText
 10
283.886894498324
 20
588.616885942847
 30
0.0
 40
6.0
 41
51.077111820171
 71
     1
 72
     5
  1
リード線0.5m付
  0
LEADER
  5
410E
330
1A
100
AcDbEntity
  8
寸法線
 48
10.0
100
AcDbLeader
  3
ISO-25
 76
     2
 10
269.663873205439
 20
578.160999877728
 30
0.0
 10
283.060892802027
 20
583.179952490802
 30
0.0
1001
ACAD
1000
DSTYLE
1002
{
1070
     5
1000
OPEN30
1070
   147
1040
0.625
1070
    77
1070
     0
1070
    41
1040
6.0
1070
    47
1040
0.1
1070
    48
1040
0.1
1070
    73
1070
     0
1070
   140
1040
5.0
1070
   271
1070
     1
1070
   272
1070
     1
1070
   341
1005
2AF4
1070
   342
1005
2AF4
1002
}
  0
MTEXT
  5
4130
102
{ACAD_XDICTIONARY
360
4131
102
}
330
1A
100
AcDbEntity
  8
隠れ線
 48
10.0
100
AcDbMText
 10
305.305804061848
 20
519.155663489161
 30
0.0
 40
6.0
 41
19.035286317203
 71
     2
 72
     5
  1
\C1;85\P100\P135
1001
ACADANNOTATIVE
1000
AnnotativeData
1002
{
1070
     1
1070
     0
1002
}
  0
MTEXT
  5
4134
330
1A
100
AcDbEntity
  8
隠れ線
 48
10.0
100
AcDbMText
 10
309.193975929547
 20
486.72894475312
 30
0.0
 40
6.0
 41
102.645465564322
 71
     1
 72
     5
  1
{\C1;○印が今回の貴社の御仕様です。}
  0
ARC
  5
4135
330
1A
100
AcDbEntity
  8
細線
 48
10.0
100
AcDbCircle
 10
1.062316096532
 20
655.519341417663
 30
0.0
 40
18.0
100
AcDbArc
 50
272.865983982599
 51
87.134016017401
  0
LINE
  5
4136
330
1A
100
AcDbEntity
  8
外形線
 48
10.0
100
AcDbLine
 10
0.162316096532
 20
635.254346969107
 30
0.0
 11
-16.937683903468
 21
645.12703657225
 31
0.0
  0
LINE
  5
4137
330
1A
100
AcDbEntity
  8
外形線
 48
10.0
100
AcDbLine
 10
19.062316096532
 20
665.911646263076
 30
0.0
 11
1.962316096532
 21
675.784335866219
 31
0.0
  0
LINE
  5
4138
330
1A
100
AcDbEntity
  8
外形線
 48
10.0
100
AcDbLine
 10
-16.937683903468
 20
665.911646263076
 30
0.0
 11
0.162316096532
 21
675.784335866219
 31
0.0
  0
LINE
  5
4139
330
1A
100
AcDbEntity
  8
外形線
 48
10.0
100
AcDbLine
 10
1.962316096532
 20
635.254346969107
 30
0.0
 11
19.062316096532
 21
645.12703657225
 31
0.0
  0
LINE
  5
413A
330
1A
100
AcDbEntity
  8
外形線
 48
10.0
100
AcDbLine
 10
-16.937683903468
 20
665.911646263076
 30
0.0
 11
-16.937683903468
 21
645.12703657225
 31
0.0
  0
LINE
  5
413B
330
1A
100
AcDbEntity
  8
外形線
 48
10.0
100
AcDbLine
 10
19.062316096532
 20
665.911646263076
 30
0.0
 11
19.062316096532
 21
645.12703657225
 31
0.0
  0
ARC
  5
413C
330
1A
100
AcDbEntity
  8
細線
 48
10.0
100
AcDbCircle
 10
1.062316096532
 20
655.519341417663
 30
0.0
 40
18.0
100
AcDbArc
 50
92.865983982599
 51
267.134016017401
  0
MTEXT
  5
413D
102
{ACAD_XDICTIONARY
360
413E
102
}
330
1A
100
AcDbEntity
  8
寸法線
 48
10.0
100
AcDbMText
 10
-16.724596155605
 20
530.051355763979
 30
0.0
 40
6.0
 41
168.503621648242
 71
     1
 72
     5
  1
御仕様   電源電圧\P       AC100/110V\P       AC200/220V
1001
ACADANNOTATIVE
1000
AnnotativeData
1002
{
1070
     1
1070
     0
1002
}
  0
MTEXT
  5
4141
102
{ACAD_XDICTIONARY
360
4142
102
}
330
1A
100
AcDbEntity
  8
寸法線
 48
10.0
100
AcDbMText
 10
-15.543874562793
 20
500.504182041416
 30
0.0
 40
6.0
 41
161.650793650794
 71
     1
 72
     5
  1
\W0.7;○印が今回の貴社の御仕様です。
1001
ACADANNOTATIVE
1000
AnnotativeData
1002
{
1070
     1
1070
     0
1002
}
  0
LINE
  5
4145
330
1A
100
AcDbEntity
  8
寸法線
 48
10.0
100
AcDbLine
 10
6.542341850931
 20
532.160816424244
 30
0.0
 11
6.542341850931
 21
502.718687467625
 31
0.0
  0
LINE
  5
4146
330
1A
100
AcDbEntity
  8
寸法線
 48
10.0
100
AcDbLine
 10
-19.074880642077
 20
521.857331604857
 30
0.0
 11
54.372960346289
 21
521.857331604857
 31
0.0
  0
LINE
  5
4147
330
1A
100
AcDbEntity
  8
寸法線
 48
10.0
100
AcDbLine
 10
-19.074880642077
 20
532.160816424244
 30
0.0
 11
54.372960346289
 21
532.160816424244
 31
0.0
  0
LINE
  5
4148
330
1A
100
AcDbEntity
  8
寸法線
 48
10.0
100
AcDbLine
 10
54.372960346289
 20
532.160816424244
 30
0.0
 11
54.372960346289
 21
502.718687467625
 31
0.0
  0
LINE
  5
4149
330
1A
100
AcDbEntity
  8
寸法線
 48
10.0
100
AcDbLine
 10
-19.074880642077
 20
511.971352383171
 30
0.0
 11
54.372960346289
 21
511.971352383171
 31
0.0
  0
LINE
  5
414A
330
1A
100
AcDbEntity
  8
寸法線
 48
10.0
100
AcDbLine
 10
-19.074880642077
 20
502.718687467625
 30
0.0
 11
54.372960346289
 21
502.718687467625
 31
0.0
  0
LINE
  5
414B
330
1A
100
AcDbEntity
  8
寸法線
 48
10.0
100
AcDbLine
 10
-19.074880642077
 20
532.160816424244
 30
0.0
 11
-19.074880642077
 21
502.718687467625
 31
0.0
  0
LINE
  5
414C
330
1A
100
AcDbEntity
  8
外形線
100
AcDbLine
 10
277.862282192497
 20
619.819314417663
 30
0.0
 11
277.862282192497
 21
681.019341417663
 31
0.0
  0
LINE
  5
414D
330
1A
100
AcDbEntity
  8
外形線
100
AcDbLine
 10
277.862282192497
 20
681.019341417663
 30
0.0
 11
290.062262692497
 21
681.019341417663
 31
0.0
  0
LINE
  5
414E
330
1A
100
AcDbEntity
  8
外形線
100
AcDbLine
 10
280.362282192497
 20
610.019341417663
 30
0.0
 11
280.362282192497
 21
681.019341417663
 31
0.0
  0
LINE
  5
414F
330
1A
100
AcDbEntity
  8
外形線
100
AcDbLine
 10
279.096392465969
 20
610.019341417663
 30
0.0
 11
290.062262692497
 21
610.019341417663
 31
0.0
  0
LINE
  5
4150
330
1A
100
AcDbEntity
  8
外形線
100
AcDbLine
 10
277.862282192497
 20
678.919341417663
 30
0.0
 11
252.062282192497
 21
678.619341417663
 31
0.0
  0
LINE
  5
4151
330
1A
100
AcDbEntity
  8
外形線
100
AcDbLine
 10
246.062264192497
 20
674.419341417663
 30
0.0
 11
249.862282192497
 21
674.419341417663
 31
0.0
  0
LINE
  5
4152
330
1A
100
AcDbEntity
  8
外形線
100
AcDbLine
 10
249.862282192497
 20
674.419341417663
 30
0.0
 11
249.862282192497
 21
674.419341417663
 31
0.0
  0
LINE
  5
4153
330
1A
100
AcDbEntity
  8
外形線
100
AcDbLine
 10
246.062264192497
 20
636.619341417663
 30
0.0
 11
249.862282192497
 21
636.619341417663
 31
0.0
  0
LINE
  5
4154
330
1A
100
AcDbEntity
  8
外形線
100
AcDbLine
 10
247.862282192497
 20
636.619341417663
 30
0.0
 11
247.862282192497
 21
674.419341417663
 31
0.0
  0
LINE
  5
4155
330
1A
100
AcDbEntity
  8
外形線
100
AcDbLine
 10
249.862282192497
 20
676.419341417663
 30
0.0
 11
249.862282192497
 21
614.619341417663
 31
0.0
  0
ARC
  5
4156
330
1A
100
AcDbEntity
  8
外形線
100
AcDbCircle
 10
252.062282192497
 20
676.419341417663
 30
0.0
 40
2.2
100
AcDbArc
 50
90.0
 51
180.0
  0
ARC
  5
4157
330
1A
100
AcDbEntity
  8
外形線
100
AcDbCircle
 10
252.062282192497
 20
614.619341417663
 30
0.0
 40
2.2
100
AcDbArc
 50
180.0
 51
263.748538621028
  0
LWPOLYLINE
  5
4158
330
1A
100
AcDbEntity
  8
細線
100
AcDbPolyline
 90
        2
 70
     0
 43
0.0
 10
222.862282192497
 20
643.460841417663
 10
233.462264192496
 20
643.460841417663
  0
LWPOLYLINE
  5
4159
330
1A
100
AcDbEntity
  8
細線
100
AcDbPolyline
 90
        2
 70
     0
 43
0.0
 10
233.462264192496
 20
667.577841417663
 10
222.862282192497
 20
667.577841417663
  0
LWPOLYLINE
  5
415A
330
1A
100
AcDbEntity
  8
外形線
100
AcDbPolyline
 90
        6
 70
     0
 43
0.0
 10
233.462264192496
 20
668.739841417663
 10
223.362282192497
 20
668.739841417663
 10
222.862282192497
 20
668.239841417663
 10
222.862282192497
 20
642.798841417663
 10
223.362282192497
 20
642.298841417663
 10
233.462264192496
 20
642.298841417663
  0
LINE
  5
415B
330
1A
100
AcDbEntity
  8
外形線
100
AcDbLine
 10
236.462231687644
 20
665.996182491932
 30
0.0
 11
240.462264192497
 21
666.019341417663
 31
0.0
  0
LINE
  5
415C
330
1A
100
AcDbEntity
  8
外形線
100
AcDbLine
 10
240.462264192497
 20
678.019341417663
 30
0.0
 11
240.462264192497
 21
633.019341417663
 31
0.0
  0
LINE
  5
415D
330
1A
100
AcDbEntity
  8
外形線
100
AcDbLine
 10
240.462264192497
 20
678.019341417663
 30
0.0
 11
242.062264192497
 21
678.019341417663
 31
0.0
  0
LINE
  5
415E
330
1A
100
AcDbEntity
  8
外形線
100
AcDbLine
 10
233.462264192496
 20
637.496176178555
 30
0.0
 11
233.462264192496
 21
673.496176178555
 31
0.0
  0
LINE
  5
415F
330
1A
100
AcDbEntity
  8
外形線
100
AcDbLine
 10
233.462264192496
 20
673.496176178555
 30
0.0
 11
236.485406757866
 21
676.519341417663
 31
0.0
  0
LINE
  5
4160
330
1A
100
AcDbEntity
  8
外形線
100
AcDbLine
 10
236.439076627128
 20
634.519341417663
 30
0.0
 11
240.462264192497
 21
634.519341417663
 31
0.0
  0
LINE
  5
4161
330
1A
100
AcDbEntity
  8
外形線
100
AcDbLine
 10
236.447835999442
 20
645.019341417663
 30
0.0
 11
240.462264192497
 21
645.019341417663
 31
0.0
  0
LINE
  5
4162
330
1A
100
AcDbEntity
  8
外形線
100
AcDbLine
 10
240.462264192497
 20
633.019341417663
 30
0.0
 11
242.062264192497
 21
633.019341417663
 31
0.0
  0
LINE
  5
4163
330
1A
100
AcDbEntity
  8
外形線
100
AcDbLine
 10
233.462264192496
 20
637.496176178555
 30
0.0
 11
236.439076627128
 21
634.519341417663
 31
0.0
  0
ARC
  5
4164
330
1A
100
AcDbEntity
  8
外形線
100
AcDbCircle
 10
253.337379692496
 20
655.496176178555
 30
0.0
 40
19.875129
100
AcDbArc
 50
148.109418153979
 51
211.890564245926
  0
ARC
  5
4165
330
1A
100
AcDbEntity
  8
外形線
100
AcDbCircle
 10
244.463904692496
 20
673.546783178555
 30
0.0
 40
11.0017755
100
AcDbArc
 50
180.263580433607
 51
223.338604767318
  0
ARC
  5
4166
330
1A
100
AcDbEntity
  8
外形線
100
AcDbCircle
 10
244.463904692496
 20
637.445570678555
 30
0.0
 40
11.0017755
100
AcDbArc
 50
136.66137763259
 51
179.736401966304
  0
LINE
  5
4167
330
1A
100
AcDbEntity
  8
外形線
100
AcDbLine
 10
242.062264192497
 20
678.019341417663
 30
0.0
 11
242.062264192497
 21
633.019341417663
 31
0.0
  0
LINE
  5
4168
330
1A
100
AcDbEntity
  8
外形線
 48
10.0
100
AcDbLine
 10
246.062264192497
 20
636.619341417663
 30
0.0
 11
246.062264192497
 21
674.419341417663
 31
0.0
  0
LINE
  5
416D
330
1A
100
AcDbEntity
  8
外形線
 48
10.0
100
AcDbLine
 10
240.462264192497
 20
676.519341417663
 30
0.0
 11
236.485406757866
 21
676.519341417663
 31
0.0
  0
LINE
  5
416E
330
1A
100
AcDbEntity
  8
中心線
 48
10.0
100
AcDbLine
 10
337.248738476207
 20
645.694314417663
 30
0.0
 11
246.475825908787
 21
645.694314417663
 31
0.0
  0
DIMENSION
  5
416F
330
1A
100
AcDbEntity
  8
寸法線
 48
10.0
100
AcDbDimension
  2
*D54
 10
348.815040111723
 20
610.019341417663
 30
0.0
 11
348.815040111723
 21
645.694314417663
 31
0.0
 70
   160
  1
φ72
  3
ISO-25
100
AcDbAlignedDimension
 13
290.062262692497
 23
681.019341417663
 33
0.0
 14
290.062262692497
 24
610.019341417663
 34
0.0
 50
90.0
100
AcDbRotatedDimension
1001
ACAD
1000
DSTYLE
1002
{
1070
     5
1000
OPEN30
1070
    41
1040
6.0
1070
    47
1040
0.1
1070
    48
1040
0.1
1070
    73
1070
     0
1070
   140
1040
6.0
1070
   271
1070
     1
1070
   272
1070
     1
1070
   341
1005
2AF4
1002
}
  0
LINE
  5
4170
330
1A
100
AcDbEntity
  8
外形線
100
AcDbLine
 10
330.862282192497
 20
620.944314417663
 30
0.0
 11
330.862282192497
 21
670.444314417663
 31
0.0
  0
LINE
  5
4171
330
1A
100
AcDbEntity
  8
外形線
100
AcDbLine
 10
329.362282192497
 20
617.734704417663
 30
0.0
 11
329.362282192497
 21
673.653924417663
 31
0.0
  0
LINE
  5
4172
330
1A
100
AcDbEntity
  8
外形線
100
AcDbLine
 10
290.062262692497
 20
681.019341417663
 30
0.0
 11
290.062262692497
 21
610.019341417663
 31
0.0
  0
LINE
  5
4173
330
1A
100
AcDbEntity
  8
外形線
100
AcDbLine
 10
290.062262692497
 20
611.569314417663
 30
0.0
 11
325.076743192497
 21
613.239831417663
 31
0.0
  0
LINE
  5
4174
330
1A
100
AcDbEntity
  8
外形線
100
AcDbLine
 10
330.862282192497
 20
620.944314417663
 30
0.0
 11
329.362282192497
 21
620.944314417663
 31
0.0
  0
ARC
  5
4175
330
1A
100
AcDbEntity
  8
外形線
100
AcDbCircle
 10
324.862282192497
 20
617.734704417663
 30
0.0
 40
4.5
100
AcDbArc
 50
272.731520116378
 51
359.999982399908
  0
LINE
  5
4176
330
1A
100
AcDbEntity
  8
外形線
100
AcDbLine
 10
290.062262692497
 20
679.819314417663
 30
0.0
 11
325.076743192497
 21
678.148797417663
 31
0.0
  0
LINE
  5
4177
330
1A
100
AcDbEntity
  8
外形線
100
AcDbLine
 10
330.862282192497
 20
670.444314417663
 30
0.0
 11
329.362282192497
 21
670.444314417663
 31
0.0
  0
ARC
  5
4178
330
1A
100
AcDbEntity
  8
外形線
100
AcDbCircle
 10
324.862282192497
 20
673.653924417663
 30
0.0
 40
4.5
100
AcDbArc
 50
0.0
 51
87.268519579299
  0
LINE
  5
4179
330
1A
100
AcDbEntity
  8
外形線
100
AcDbLine
 10
281.862282192497
 20
610.019341417663
 30
0.0
 11
281.862282192497
 21
681.019341417663
 31
0.0
  0
LINE
  5
417A
330
1A
100
AcDbEntity
  8
中心線
 48
10.0
100
AcDbLine
 10
265.212273192496
 20
624.484155417663
 30
0.0
 11
265.212273192496
 21
569.050536417663
 31
0.0
  0
LINE
  5
417B
330
1A
100
AcDbEntity
  8
外形線
100
AcDbLine
 10
260.974755192497
 20
572.08193304513
 30
0.0
 11
260.974755192497
 21
585.265536417663
 31
0.0
  0
LINE
  5
417C
330
1A
100
AcDbEntity
  8
外形線
100
AcDbLine
 10
269.374719192497
 20
572.08193304513
 30
0.0
 11
269.374719192497
 21
585.265536417663
 31
0.0
  0
ARC
  5
417D
330
1A
100
AcDbEntity
  8
細線
100
AcDbCircle
 10
263.074747381144
 20
575.719226211366
 30
0.0
 40
4.199982
100
AcDbArc
 50
239.999981276044
 51
299.999981276019
  0
ARC
  5
417E
330
1A
100
AcDbEntity
  8
細線
100
AcDbCircle
 10
267.274729381144
 20
575.719224838835
 30
0.0
 40
4.199982
100
AcDbArc
 50
239.999981276044
 51
299.999981276019
  0
ARC
  5
417F
330
1A
100
AcDbEntity
  8
細線
100
AcDbCircle
 10
267.274727003849
 20
568.44464262396
 30
0.0
 40
4.199982
100
AcDbArc
 50
59.999981276043
 51
119.999981276019
  0
LINE
  5
4180
330
1A
100
AcDbEntity
  8
外形線
100
AcDbLine
 10
258.270213555761
 20
609.338542863412
 30
0.0
 11
251.328153919025
 21
603.326542863413
 31
0.0
  0
LINE
  5
4181
330
1A
100
AcDbEntity
  8
外形線
100
AcDbLine
 10
272.154332829232
 20
609.338542863412
 30
0.0
 11
279.096392465969
 21
603.326542863413
 31
0.0
  0
LINE
  5
4182
330
1A
100
AcDbEntity
  8
外形線
100
AcDbLine
 10
272.154332829232
 20
600.660968317493
 30
0.0
 11
272.154332829232
 21
609.338542863412
 31
0.0
  0
LINE
  5
4183
330
1A
100
AcDbEntity
  8
外形線
100
AcDbLine
 10
258.270213555761
 20
600.660968317493
 30
0.0
 11
258.270213555761
 21
609.338542863412
 31
0.0
  0
LWPOLYLINE
  5
4184
330
1A
100
AcDbEntity
  8
外形線
100
AcDbPolyline
 90
       47
 70
     0
 43
0.0
 10
269.374717692496
 20
584.174228754882
 10
269.833971483395
 20
584.289099199236
 10
270.242588980664
 20
584.415318817082
 10
270.596093285497
 20
584.551504719873
 10
270.890611330755
 20
584.696164826361
 10
271.122916315101
 20
584.847714210147
 10
271.290463056515
 20
585.004492464466
 10
271.391415877834
 20
585.16478189396
 10
271.424668718826
 20
585.326826334092
 10
271.389857254403
 20
585.48885039207
 10
271.287362886255
 20
585.649078898408
 10
271.118308564128
 20
585.805756356059
 10
270.884546482552
 20
585.95716617401
 10
270.588637787811
 20
586.101649474613
 10
270.233824517488
 20
586.23762326859
 10
269.823994080019
 20
586.363597798601
 10
269.363636663444
 20
586.478192861333
 10
268.857796039952
 20
586.580152929297
 10
268.312014305268
 20
586.668360906654
 10
267.732271158289
 20
586.741850368344
 10
267.124918386255
 20
586.799816148446
 10
266.496610273231
 20
586.841623161743
 10
265.854230694386
 20
586.866813361848
 10
265.204817694811
 20
586.87511075966
 10
264.55548637923
 20
586.866424447149
 10
263.913350957415
 20
586.840849593375
 10
263.285446799425
 20
586.798666401786
 10
262.678653354613
 20
586.740337040258
 10
262.099618778939
 20
586.66650057748
 10
261.554687096384
 20
586.577965981193
 10
261.049828692497
 20
586.475703254958
 10
260.590574901599
 20
586.360832810604
 10
260.18195740433
 20
586.234613192759
 10
259.828453099496
 20
586.098427289967
 10
259.533935054239
 20
585.953767183479
 10
259.301630069892
 20
585.802217799693
 10
259.134083328479
 20
585.645439545374
 10
259.033130507159
 20
585.485150115881
 10
258.999877666167
 20
585.323105675747
 10
259.034689130591
 20
585.16108161777
 10
259.137183498738
 20
585.000853111433
 10
259.306237820865
 20
584.844175653781
 10
259.539999902441
 20
584.692765835831
 10
259.835908597182
 20
584.548282535228
 10
260.190721867506
 20
584.41230874125
 10
260.600552304973
 20
584.286334211238
 10
260.974755192497
 20
584.191417329371
  0
ARC
  5
4185
330
1A
100
AcDbEntity
  8
外形線
100
AcDbCircle
 10
265.212273192496
 20
617.511747071621
 30
0.0
 40
34.15159996140045
100
AcDbArc
 50
255.26831657715
 51
262.87239111701
  0
LWPOLYLINE
  5
4186
330
1A
100
AcDbEntity
  8
外形線
100
AcDbPolyline
 90
       34
 70
     0
 43
0.0
 10
276.885573192496
 20
592.739901917391
 10
276.831831634896
 20
593.299320028838
 10
276.671101793036
 20
593.853587240255
 10
276.404863603533
 20
594.397600079056
 10
276.035568482012
 20
594.926349490851
 10
275.566616751436
 20
595.43496696083
 10
275.002326333294
 20
595.918769341112
 10
274.347892989882
 20
596.373301971321
 10
273.609342483789
 20
596.794379695331
 10
272.793475095069
 20
597.17812539651
 10
271.907803006953
 20
597.521005696691
 10
270.960481136652
 20
597.819863490099
 10
269.960232048114
 20
598.071947012741
 10
268.916265638111
 20
598.274935179551
 10
267.838194335169
 20
598.42695895602
 10
266.735944592139
 20
598.526618567527
 10
265.619665487353
 20
598.572996387912
 10
264.499635275945
 20
598.5656653886
 10
263.386166751743
 20
598.504693070526
 10
262.289512291168
 20
598.390640842604
 10
261.219769453413
 20
598.224558852501
 10
260.186788006125
 20
598.007976317292
 10
259.200079232649
 20
597.742887443034
 10
258.268728355913
 20
597.431733062912
 10
257.401310885287
 20
597.077378163013
 10
256.605813656711
 20
596.683085502671
 10
255.889561293062
 20
596.252485572271
 10
255.259148761943
 20
595.78954316514
 10
254.720380651833
 20
595.298520871298
 10
254.278217725743
 20
594.78393982922
 10
253.936731244476
 20
594.250538096988
 10
253.699065480072
 20
593.703227026137
 10
253.567408764599
 20
593.14704603987
 10
253.538973192497
 20
592.739901917391
  0
ARC
  5
4187
330
1A
100
AcDbEntity
  8
外形線
100
AcDbCircle
 10
265.212273192496
 20
612.32836172969
 30
0.0
 40
13.57645981229912
100
AcDbArc
 50
239.247497502359
 51
300.752502497641
  0
LINE
  5
4188
330
1A
100
AcDbEntity
  8
外形線
100
AcDbLine
 10
253.538973192496
 20
592.739901917391
 30
0.0
 11
253.538973192496
 21
588.359049176864
 31
0.0
  0
ARC
  5
4189
330
1A
100
AcDbEntity
  8
外形線
100
AcDbCircle
 10
257.546973192496
 20
588.359049176864
 30
0.0
 40
4.007999999999999
100
AcDbArc
 50
180.0
 51
255.26831657715
  0
ARC
  5
418A
330
1A
100
AcDbEntity
  8
外形線
100
AcDbCircle
 10
250.819522001523
 20
602.250285866469
 30
0.0
 40
7.618315752702329
100
AcDbArc
 50
273.828163206422
 51
347.958626091838
  0
LINE
  5
418B
330
1A
100
AcDbEntity
  8
外形線
100
AcDbLine
 10
253.536222075294
 20
592.736725200876
 30
0.0
 11
251.328153919025
 21
594.648968317493
 31
0.0
  0
LINE
  5
418C
330
1A
100
AcDbEntity
  8
外形線
100
AcDbLine
 10
251.328153919025
 20
603.326542863413
 30
0.0
 11
251.328153919025
 21
594.648968317493
 31
0.0
  0
LINE
  5
418D
330
1A
100
AcDbEntity
  8
外形線
100
AcDbLine
 10
276.885573192496
 20
592.739901917391
 30
0.0
 11
276.885573192496
 21
588.359049176864
 31
0.0
  0
LWPOLYLINE
  5
418E
330
1A
100
AcDbEntity
  8
外形線
100
AcDbPolyline
 90
       29
 70
     0
 43
0.0
 10
269.374717692496
 20
585.265536417664
 10
269.347719606866
 20
585.36750788499
 10
269.267072445156
 20
585.468168377699
 10
269.133813030556
 20
585.566223775441
 10
268.949654584565
 20
585.660413449718
 10
268.716964701321
 20
585.749526470892
 10
268.438734909129
 20
585.832417176239
 10
268.118542210508
 20
585.908019898925
 10
267.760503095211
 20
585.975362668526
 10
267.369220617456
 20
586.033579706955
 10
266.949725217715
 20
586.081922559165
 10
266.507410049936
 20
586.119769715493
 10
266.047961645588
 20
586.146634601972
 10
265.577286805974
 20
586.162171835867
 10
265.101436662693
 20
586.166181666015
 10
264.626528882538
 20
586.158612540882
 10
264.158669017014
 20
586.139561771325
 10
263.703872007596
 20
586.109274279535
 10
263.267984855913
 20
586.068139450253
 10
262.856611453005
 20
586.016686124715
 10
262.475040534081
 20
585.955575801725
 10
262.128177685014
 20
585.885594133236
 10
261.820482274714
 20
585.807640823778
 10
261.555910124189
 20
585.722718063599
 10
261.337862649375
 20
585.631917644216
 10
261.169143131547
 20
585.536406922029
 10
261.051920677526
 20
585.43741381045
 10
260.987702333018
 20
585.336210993502
 10
260.974755192497
 20
585.265536417664
  0
ARC
  5
418F
330
1A
100
AcDbEntity
  8
外形線
100
AcDbCircle
 10
265.212273192496
 20
617.511747071621
 30
0.0
 40
34.15159996140045
100
AcDbArc
 50
277.000695446903
 51
284.73168342285
  0
ARC
  5
4190
330
1A
100
AcDbEntity
  8
外形線
100
AcDbCircle
 10
272.877573192497
 20
588.359049176864
 30
0.0
 40
4.007999999999999
100
AcDbArc
 50
284.73168342285
 51
0.0
  0
LINE
  5
4191
330
1A
100
AcDbEntity
  8
外形線
100
AcDbLine
 10
276.888324309699
 20
592.736725200876
 30
0.0
 11
279.096392465969
 21
594.648968317493
 31
0.0
  0
ARC
  5
4192
330
1A
100
AcDbEntity
  8
外形線
100
AcDbCircle
 10
279.60502438347
 20
602.250285866469
 30
0.0
 40
7.618315752702329
100
AcDbArc
 50
192.041373908162
 51
266.171836793578
  0
LINE
  5
4193
330
1A
100
AcDbEntity
  8
外形線
100
AcDbLine
 10
279.096392465969
 20
594.648968317493
 30
0.0
 11
279.096392465969
 21
603.326542863413
 31
0.0
  0
LWPOLYLINE
  5
4194
330
1A
100
AcDbEntity
  8
外形線
100
AcDbPolyline
 90
       34
 70
     0
 43
0.0
 10
275.710728192497
 20
609.045445811228
 10
275.662395388225
 20
609.416283745693
 10
275.517842004699
 20
609.783707151584
 10
275.278399032122
 20
610.144332939945
 10
274.946271166392
 20
610.494840611591
 10
274.52451650913
 20
610.832002830941
 10
274.017018409896
 20
611.152715142041
 10
273.428449709844
 20
611.454024553169
 10
272.764229716061
 20
611.733156726807
 10
272.03047430273
 20
611.987541524642
 10
271.233939598588
 20
612.214836672378
 10
270.381959779182
 20
612.412949326471
 10
269.482379536678
 20
612.5800553442
 10
268.543481849056
 20
612.714616079651
 10
267.573911713728
 20
612.815392550957
 10
266.582596547839
 20
612.881456848349
 10
265.57866398815
 20
612.912200677989
 10
264.571357847375
 20
612.907340962892
 10
263.569953000822
 20
612.866922449382
 10
262.583669987031
 20
612.791317295102
 10
261.621590108698
 20
612.681221642313
 10
260.692571815655
 20
612.537649208108
 10
259.805169139767
 20
612.361921950503
 10
258.967552932813
 20
612.155657896367
 10
258.187435632516
 20
611.920756243278
 10
257.472000249476
 20
611.659379872465
 10
256.827834228863
 20
611.373935433855
 10
256.260868795833
 20
611.067051186591
 10
255.776324343157
 20
610.741552799072
 10
255.37866236392
 20
610.400437331312
 10
255.071544371863
 20
610.046845639208
 10
254.85779818761
 20
609.684033454774
 10
254.739391901226
 20
609.315341408672
 10
254.713818192496
 20
609.045445811228
  0
LINE
  5
4195
330
1A
100
AcDbEntity
  8
外形線
100
AcDbLine
 10
258.270213555761
 20
609.338542863412
 30
0.0
 11
272.154332829232
 21
609.338542863412
 31
0.0
  0
LINE
  5
4196
330
1A
100
AcDbEntity
  8
外形線
100
AcDbLine
 10
258.270213555761
 20
618.016117409333
 30
0.0
 11
272.154332829232
 21
618.016117409333
 31
0.0
  0
LINE
  5
4197
330
1A
100
AcDbEntity
  8
外形線
100
AcDbLine
 10
258.270213555761
 20
613.677330136373
 30
0.0
 11
272.154332829232
 21
613.677330136373
 31
0.0
  0
LINE
  5
4198
330
1A
100
AcDbEntity
  8
外形線
100
AcDbLine
 10
280.362282192497
 20
619.819314417663
 30
0.0
 11
257.262291192497
 21
619.819314417663
 31
0.0
  0
LINE
  5
4199
330
1A
100
AcDbEntity
  8
外形線
100
AcDbLine
 10
257.581074427668
 20
617.419305417663
 30
0.0
 11
254.862282192496
 21
617.419305417663
 31
0.0
  0
LINE
  5
419A
330
1A
100
AcDbEntity
  8
外形線
100
AcDbLine
 10
251.328153919025
 20
612.004117409333
 30
0.0
 11
258.270213555761
 21
618.016117409333
 31
0.0
  0
ARC
  5
419B
330
1A
100
AcDbEntity
  8
外形線
100
AcDbCircle
 10
257.262291192497
 20
614.419305417663
 30
0.0
 40
5.4
100
AcDbArc
 50
89.999981276021
 51
180.00001984784
  0
LINE
  5
419C
330
1A
100
AcDbEntity
  8
外形線
100
AcDbLine
 10
258.270213555761
 20
613.677330136373
 30
0.0
 11
251.328153919025
 21
607.665330136373
 31
0.0
  0
ARC
  5
419D
330
1A
100
AcDbEntity
  8
外形線
100
AcDbCircle
 10
254.862282192496
 20
614.419305417663
 30
0.0
 40
3.0
100
AcDbArc
 50
89.999981276021
 51
211.533239298813
  0
LINE
  5
419E
330
1A
100
AcDbEntity
  8
外形線
100
AcDbLine
 10
253.833153919025
 20
605.495936499893
 30
0.0
 11
251.328153919025
 21
607.665330136373
 31
0.0
  0
LINE
  5
419F
330
1A
100
AcDbEntity
  8
外形線
100
AcDbLine
 10
254.713818192497
 20
609.045445811228
 30
0.0
 11
254.713818192497
 21
606.258614132925
 31
0.0
  0
LINE
  5
41A0
330
1A
100
AcDbEntity
  8
外形線
100
AcDbLine
 10
251.328153919025
 20
607.665330136373
 30
0.0
 11
251.328153919025
 21
612.004117409333
 31
0.0
  0
LINE
  5
41A1
330
1A
100
AcDbEntity
  8
細線
100
AcDbLine
 10
256.069023192496
 20
607.432256090261
 30
0.0
 11
256.069023192496
 21
610.983797299907
 31
0.0
  0
LINE
  5
41A2
330
1A
100
AcDbEntity
  8
外形線
100
AcDbLine
 10
258.270213555761
 20
613.677330136373
 30
0.0
 11
258.270213555761
 21
618.016117409333
 31
0.0
  0
LINE
  5
41A3
330
1A
100
AcDbEntity
  8
細線
100
AcDbLine
 10
274.355523192496
 20
607.432256090261
 30
0.0
 11
274.355523192496
 21
611.087201617754
 31
0.0
  0
LINE
  5
41A4
330
1A
100
AcDbEntity
  8
外形線
100
AcDbLine
 10
280.362282192497
 20
617.419305417663
 30
0.0
 11
272.843471957325
 21
617.419305417663
 31
0.0
  0
LINE
  5
41A5
330
1A
100
AcDbEntity
  8
外形線
100
AcDbLine
 10
279.096392465969
 20
612.004117409333
 30
0.0
 11
272.154332829232
 21
618.016117409333
 31
0.0
  0
LINE
  5
41A6
330
1A
100
AcDbEntity
  8
外形線
100
AcDbLine
 10
272.154332829232
 20
613.677330136373
 30
0.0
 11
272.154332829232
 21
618.016117409333
 31
0.0
  0
LINE
  5
41A7
330
1A
100
AcDbEntity
  8
外形線
100
AcDbLine
 10
276.591392465969
 20
605.495936499893
 30
0.0
 11
279.096392465969
 21
607.665330136373
 31
0.0
  0
LINE
  5
41A8
330
1A
100
AcDbEntity
  8
外形線
100
AcDbLine
 10
272.154332829232
 20
613.677330136373
 30
0.0
 11
279.096392465969
 21
607.665330136373
 31
0.0
  0
LINE
  5
41A9
330
1A
100
AcDbEntity
  8
外形線
100
AcDbLine
 10
275.710728192497
 20
609.045445811228
 30
0.0
 11
275.710728192497
 21
606.258614132925
 31
0.0
  0
LINE
  5
41AA
330
1A
100
AcDbEntity
  8
外形線
100
AcDbLine
 10
279.096392465969
 20
607.665330136373
 30
0.0
 11
279.096392465969
 21
612.004117409333
 31
0.0
  0
ARC
  5
41AB
330
1A
100
AcDbEntity
  8
外形線
 48
10.0
100
AcDbCircle
 10
1.062316096532
 20
655.519341417663
 30
0.0
 40
13.2204999999999
100
AcDbArc
 50
93.903491864735
 51
266.096508135265
  0
ARC
  5
41AC
330
1A
100
AcDbEntity
  8
細線
 48
10.0
100
AcDbCircle
 10
1.062316096532
 20
655.519341417663
 30
0.0
 40
12.05849999999998
100
AcDbArc
 50
94.280316570382
 51
265.719683429618
  0
ARC
  5
41AD
330
1A
100
AcDbEntity
  8
細線
 48
10.0
100
AcDbCircle
 10
1.062316096532
 20
655.519341417663
 30
0.0
 40
12.05849999999998
100
AcDbArc
 50
274.280316570382
 51
85.719683429618
  0
ARC
  5
41AE
330
1A
100
AcDbEntity
  8
外形線
 48
10.0
100
AcDbCircle
 10
1.062316096532
 20
655.519341417663
 30
0.0
 40
13.2204999999999
100
AcDbArc
 50
273.903491864735
 51
86.096508135265
  0
LINE
  5
41AF
330
1A
100
AcDbEntity
  8
寸法線
 48
10.0
100
AcDbLine
 10
330.862282192497
 20
619.220874431022
 30
0.0
 11
330.862282192497
 21
589.845581856032
 31
0.0
  0
LINE
  5
42C9
330
1A
100
AcDbEntity
  8
外形線
 48
10.0
100
AcDbLine
 10
-38.937683903468
 20
680.690914292917
 30
0.0
 11
-38.937683903468
 21
610.347768542409
 31
0.0
  0
LINE
  5
42CA
330
1A
100
AcDbEntity
  8
外形線
 48
10.0
100
AcDbLine
 10
-34.109256778722
 20
605.519341417663
 30
0.0
 11
36.233888971786
 21
605.519341417663
 31
0.0
  0
LINE
  5
42CB
330
1A
100
AcDbEntity
  8
外形線
 48
10.0
100
AcDbLine
 10
41.062316096532
 20
610.347768542409
 30
0.0
 11
41.062316096532
 21
680.690914292917
 31
0.0
  0
LINE
  5
42CC
330
1A
100
AcDbEntity
  8
外形線
 48
10.0
100
AcDbLine
 10
36.233888971785
 20
685.519341417663
 30
0.0
 11
1.962316096532
 21
685.519341417663
 31
0.0
  0
LINE
  5
42CF
330
1A
100
AcDbEntity
  8
中心線
 48
10.0
100
AcDbLine
 10
20.144506534472
 20
655.519341417663
 30
0.0
 11
-18.044590677226
 21
655.519341417663
 31
0.0
  0
CIRCLE
  5
42D1
330
1A
100
AcDbEntity
  8
外形線
 48
10.0
100
AcDbCircle
 10
-31.464595838049
 20
678.046253352244
 30
0.0
 40
3.6
  0
CIRCLE
  5
42D2
330
1A
100
AcDbEntity
  8
外形線
 48
10.0
100
AcDbCircle
 10
33.589228031113
 20
678.046253352244
 30
0.0
 40
3.6
  0
CIRCLE
  5
42D3
330
1A
100
AcDbEntity
  8
外形線
 48
10.0
100
AcDbCircle
 10
-31.464595838049
 20
612.992429483082
 30
0.0
 40
3.6
  0
CIRCLE
  5
42D4
330
1A
100
AcDbEntity
  8
外形線
 48
10.0
100
AcDbCircle
 10
33.589228031113
 20
612.992429483082
 30
0.0
 40
3.6
  0
ARC
  5
42D5
330
1A
100
AcDbEntity
  8
中心線
 48
10.0
100
AcDbCircle
 10
1.062316096532
 20
645.519341417663
 30
0.0
 40
46.0
100
AcDbArc
 50
214.532936565932
 51
234.023701519113
  0
ARC
  5
42D6
330
1A
100
AcDbEntity
  8
中心線
 48
10.0
100
AcDbCircle
 10
1.062316096532
 20
645.519341417663
 30
0.0
 40
46.0
100
AcDbArc
 50
306.769445647313
 51
323.571835015704
  0
ARC
  5
42D7
330
1A
100
AcDbEntity
  8
中心線
 48
10.0
100
AcDbCircle
 10
1.062316096532
 20
645.519341417663
 30
0.0
 40
46.0
100
AcDbArc
 50
35.281628763102
 51
53.007474722869
  0
ARC
  5
42D8
330
1A
100
AcDbEntity
  8
中心線
 48
10.0
100
AcDbCircle
 10
1.062316096532
 20
645.519341417663
 30
0.0
 40
46.0
100
AcDbArc
 50
127.017672083122
 51
145.470877233024
  0
LINE
  5
42D9
330
1A
100
AcDbEntity
  8
中心線
 48
10.0
100
AcDbLine
 10
27.725505091
 20
672.182530412131
 30
0.0
 11
38.212727090767
 21
682.669752411898
 31
0.0
  0
LINE
  5
42DA
330
1A
100
AcDbEntity
  8
中心線
 48
10.0
100
AcDbLine
 10
28.080677570664
 20
618.500979943531
 30
0.0
 11
38.336889996359
 21
608.244767517836
 31
0.0
  0
LINE
  5
42DB
330
1A
100
AcDbEntity
  8
中心線
 48
10.0
100
AcDbLine
 10
-36.108128296559
 20
608.348897024572
 30
0.0
 11
-25.759107142577
 21
618.697918178554
 31
0.0
  0
LINE
  5
42DC
330
1A
100
AcDbEntity
  8
中心線
 48
10.0
100
AcDbLine
 10
-35.596373033447
 20
682.178030547642
 30
0.0
 11
-25.612875530656
 21
672.194533044851
 31
0.0
  0
LINE
  5
42E4
330
1A
100
AcDbEntity
  8
外形線
 48
10.0
100
AcDbLine
 10
37.648102534158
 20
684.933554980036
 30
0.0
 11
40.476529658905
 21
682.10512785529
 31
0.0
  0
LINE
  5
42E5
330
1A
100
AcDbEntity
  8
外形線
 48
10.0
100
AcDbLine
 10
37.648102534159
 20
606.10512785529
 30
0.0
 11
40.476529658905
 21
608.933554980036
 31
0.0
  0
LINE
  5
42E6
330
1A
100
AcDbEntity
  8
外形線
 48
10.0
100
AcDbLine
 10
-38.351897465841
 20
608.933554980036
 30
0.0
 11
-35.523470341095
 21
606.10512785529
 31
0.0
  0
LINE
  5
42E7
330
1A
100
AcDbEntity
  8
外形線
 48
10.0
100
AcDbLine
 10
-38.351897465841
 20
682.10512785529
 30
0.0
 11
-35.523470341094
 21
684.933554980036
 31
0.0
  0
ARC
  5
42E8
330
1A
100
AcDbEntity
  8
外形線
 48
10.0
100
AcDbCircle
 10
36.233888971786
 20
607.519341417663
 30
0.0
 40
2.0
100
AcDbArc
 50
270.0
 51
315.0
  0
ARC
  5
42E9
330
1A
100
AcDbEntity
  8
外形線
 48
10.0
100
AcDbCircle
 10
39.062316096532
 20
610.347768542409
 30
0.0
 40
2.0
100
AcDbArc
 50
315.0
 51
0.0
  0
ARC
  5
42EA
330
1A
100
AcDbEntity
  8
外形線
 48
10.0
100
AcDbCircle
 10
-36.937683903468
 20
610.347768542409
 30
0.0
 40
2.0
100
AcDbArc
 50
180.0
 51
225.0
  0
ARC
  5
42EB
330
1A
100
AcDbEntity
  8
外形線
 48
10.0
100
AcDbCircle
 10
-34.109256778722
 20
607.519341417663
 30
0.0
 40
2.0
100
AcDbArc
 50
225.0
 51
270.0
  0
ARC
  5
42EC
330
1A
100
AcDbEntity
  8
外形線
 48
10.0
100
AcDbCircle
 10
-36.937683903468
 20
680.690914292917
 30
0.0
 40
2.0
100
AcDbArc
 50
135.0
 51
180.0
  0
ARC
  5
42ED
330
1A
100
AcDbEntity
  8
外形線
 48
10.0
100
AcDbCircle
 10
-34.109256778721
 20
683.519341417663
 30
0.0
 40
2.0
100
AcDbArc
 50
90.0
 51
135.0
  0
ARC
  5
42EE
330
1A
100
AcDbEntity
  8
外形線
 48
10.0
100
AcDbCircle
 10
36.233888971785
 20
683.519341417663
 30
0.0
 40
2.0
100
AcDbArc
 50
45.0
 51
90.0
  0
ARC
  5
42EF
330
1A
100
AcDbEntity
  8
外形線
 48
10.0
100
AcDbCircle
 10
39.062316096532
 20
680.690914292917
 30
0.0
 40
2.0
100
AcDbArc
 50
0.0
 51
44.999999999997
  0
LINE
  5
4331
330
1A
100
AcDbEntity
  8
外形線
 48
10.0
100
AcDbLine
 10
0.162316096532
 20
685.519341417663
 30
0.0
 11
-34.109256778721
 21
685.519341417663
 31
0.0
  0
DIMENSION
  5
4332
330
1A
100
AcDbEntity
  8
寸法線
 48
10.0
100
AcDbDimension
  2
*D66
 10
246.062264192497
 20
579.596160653737
 30
0.0
 11
244.248290296391
 21
583.135915265783
 31
0.0
 70
   160
  3
ISO-25
100
AcDbAlignedDimension
 13
242.062264192497
 23
605.694314417663
 33
0.0
 14
246.062264192497
 24
605.694314417663
 34
0.0
100
AcDbRotatedDimension
1001
ACAD
1000
DSTYLE
1002
{
1070
   287
1070
     5
1070
     5
1000
OPEN30
1070
   279
1070
     2
1070
    41
1040
6.0
1070
   271
1070
     1
1070
   341
1005
2AF4
1070
   272
1070
     1
1070
    73
1070
     0
1070
    48
1040
0.1
1070
    47
1040
0.1
1070
   140
1040
6.0
1002
}
  0
LINE
  5
4341
330
1A
100
AcDbEntity
  8
寸法線
 48
10.0
100
AcDbLine
 10
247.862282192497
 20
635.483892712034
 30
0.0
 11
247.862282192497
 21
581.516898503633
 31
0.0
  0
VIEWPORT
  5
2902
330
28FB
100
AcDbEntity
 67
     1
  8
0
 48
10.0
100
AcDbViewport
 10
0.0
 20
0.0
 30
0.0
 40
470.708333333333
 41
300.3
 68
     1
 69
     1
1001
ACAD
1000
MVIEW
1002
{
1070
    16
1010
0.0
1020
0.0
1030
0.0
1010
0.0
1020
0.0
1030
1.0
1040
0.0
1040
300.3
1040
206.482943333333
1040
144.277943333333
1040
50.0
1040
0.0
1040
0.0
1070
    16
1070
   100
1070
     0
1070
     1
1070
     0
1070
     0
1070
     0
1070
     0
1040
0.0
1040
0.0
1040
0.0
1040
10.0
1040
10.0
1040
10.0
1040
10.0
1070
     0
1002
{
1002
}
1002
}
  0
VIEWPORT
  5
2904
330
28FB
100
AcDbEntity
 67
     1
  8
図枠太線
 48
10.0
100
AcDbViewport
 10
204.746305129083
 20
161.396645458131
 30
0.0
 40
400.0
 41
240.0
 68
     2
 69
     2
1001
ACAD
1000
MVIEW
1002
{
1070
    16
1010
0.0
1020
0.0
1030
0.0
1010
0.0
1020
0.0
1030
1.0
1040
0.0
1040
360.000000374319
1040
169.177941651511
1040
592.125631338865
1040
50.0
1040
0.0
1040
0.0
1070
     0
1070
   100
1070
     0
1070
     0
1070
     0
1070
     0
1070
     0
1070
     0
1040
0.0
1040
0.0
1040
0.0
1040
1.0
1040
1.0
1040
0.0
1040
0.0
1070
     0
1002
{
1002
}
1002
}
  0
INSERT
  5
2A59
330
28FB
100
AcDbEntity
 67
     1
  8
図枠太線
100
AcDbBlockReference
  2
A3横用_タイトル
 10
-0.352109406709
 20
-2.129314295396
 30
0.0
  0
MTEXT
  5
322B
330
28FB
100
AcDbEntity
 67
     1
  8
寸法線
 48
10.0
100
AcDbMText
 10
146.778370616794
 20
13.813697882368
 30
0.0
 40
7.0
 41
20.13579853524
 71
     1
 72
     5
  1
1:1.5
  0
MTEXT
  5
322C
102
{ACAD_XDICTIONARY
360
3E04
102
}
330
28FB
100
AcDbEntity
 67
     1
  8
寸法線
 48
10.0
100
AcDbMText
 10
175.322824279557
 20
12.573033279747
 30
0.0
 40
5.0
 41
27.082042865391
 71
     1
 72
     5
  1
2015.6.15
1001
ACADANNOTATIVE
1000
AnnotativeData
1002
{
1070
     1
1070
     0
1002
}
  0
MTEXT
  5
322D
102
{ACAD_XDICTIONARY
360
3E07
102
}
330
28FB
100
AcDbEntity
 67
     1
  8
寸法線
 48
10.0
100
AcDbMText
 10
180.895528132138
 20
32.448193246353
 30
0.0
 40
5.0
 41
33.4
 71
     1
 72
     5
  1
ohno
1001
ACADANNOTATIVE
1000
AnnotativeData
1002
{
1070
     1
1070
     0
1002
}
  0
MTEXT
  5
322F
330
28FB
100
AcDbEntity
 67
     1
  8
寸法線
 48
10.0
100
AcDbMText
 10
312.831551930329
 20
33.656722730889
 30
0.0
 40
7.0
 41
37.345612043362
 71
     1
 72
     5
  1
HL-400F
  0
MTEXT
  5
3230
330
28FB
100
AcDbEntity
 67
     1
  8
寸法線
 48
10.0
100
AcDbMText
 10
361.819918635276
 20
38.167964124636
 30
0.0
 40
5.0
 41
42.043281739348
 71
     1
 72
     5
  1
パドル式\Pレベルスイッチ
  0
MTEXT
  5
3231
102
{ACAD_XDICTIONARY
360
3E0A
102
}
330
28FB
100
AcDbEntity
 67
     1
  8
寸法線
 48
10.0
100
AcDbMText
 10
347.266472765904
 20
14.50279691064
 30
0.0
 40
7.0
 41
36.545313751788
 71
     1
 72
     5
  1
\H1.143x;HB-6010
1001
ACADANNOTATIVE
1000
AnnotativeData
1002
{
1070
     1
1070
     0
1002
}
  0
MTEXT
  5
3234
102
{ACAD_XDICTIONARY
360
3DA1
102
}
330
28FB
100
AcDbEntity
 67
     1
  8
寸法線
 48
10.0
100
AcDbMText
 10
370.283463927257
 20
49.729543442789
 30
0.0
 40
5.0
 41
34.334449052711
 71
     1
 72
     5
  1
台数　　台
1001
ACADANNOTATIVE
1000
AnnotativeData
1002
{
1070
     1
1070
     0
1002
}
  0
ENDSEC
  0
SECTION
  2
OBJECTS
  0
DICTIONARY
  5
C
330
0
100
AcDbDictionary
  3
ACAD_COLOR
350
2948
  3
ACAD_GROUP
350
D
  3
ACAD_LAYOUT
350
2816
  3
ACAD_MATERIAL
350
2947
  3
ACAD_MLEADERSTYLE
350
3980
  3
ACAD_MLINESTYLE
350
E
  3
ACAD_PLOTSETTINGS
350
2817
  3
ACAD_SCALELIST
350
3959
  3
ACAD_VISUALSTYLE
350
3940
  3
ACDBHEADERROUNDTRIPXREC
350
4345
  3
ACDBVARIABLEDICTIONARY
350
39A9
  3
DWGPROPS
350
436A
  0
DICTIONARY
  5
436B
330
8
100
AcDbDictionary
280
     1
  3
ACAD_XREC_ROUNDTRIP
360
436C
  0
DICTIONARY
  5
29EA
330
2
100
AcDbDictionary
280
     1
  3
ACAD_LAYERFILTERS
360
2B0C
  3
ACAD_LAYERSTATES
360
29EB
  0
DICTIONARY
  5
4342
330
35B2
100
AcDbDictionary
280
     1
  3
ACDBCONTEXTDATAMANAGER
360
4343
  0
DICTIONARY
  5
4224
330
37F5
100
AcDbDictionary
280
     1
  3
ACDBCONTEXTDATAMANAGER
360
4225
  0
DICTIONARY
  5
40F9
330
40F8
100
AcDbDictionary
280
     1
  3
ACDBCONTEXTDATAMANAGER
360
40FA
  0
DICTIONARY
  5
4131
330
4130
100
AcDbDictionary
280
     1
  3
ACDBCONTEXTDATAMANAGER
360
4132
  0
DICTIONARY
  5
413E
330
413D
100
AcDbDictionary
280
     1
  3
ACDBCONTEXTDATAMANAGER
360
413F
  0
DICTIONARY
  5
4142
330
4141
100
AcDbDictionary
280
     1
  3
ACDBCONTEXTDATAMANAGER
360
4143
  0
DICTIONARY
  5
3E04
330
322C
100
AcDbDictionary
280
     1
  3
ACDBCONTEXTDATAMANAGER
360
3E05
  0
DICTIONARY
  5
3E07
330
322D
100
AcDbDictionary
280
     1
  3
ACDBCONTEXTDATAMANAGER
360
3E08
  0
DICTIONARY
  5
3E0A
330
3231
100
AcDbDictionary
280
     1
  3
ACDBCONTEXTDATAMANAGER
360
3E0B
  0
DICTIONARY
  5
3DA1
330
3234
100
AcDbDictionary
280
     1
  3
ACDBCONTEXTDATAMANAGER
360
3DA2
  0
DICTIONARY
  5
2948
102
{ACAD_REACTORS
330
C
102
}
330
C
100
AcDbDictionary
  0
DICTIONARY
  5
D
102
{ACAD_REACTORS
330
C
102
}
330
C
100
AcDbDictionary
  0
DICTIONARY
  5
2816
102
{ACAD_REACTORS
330
C
102
}
330
C
100
AcDbDictionary
  0
DICTIONARY
  5
2947
102
{ACAD_REACTORS
330
C
102
}
330
C
100
AcDbDictionary
  3
BYBLOCK
350
397C
  3
BYLAYER
350
397B
  3
GLOBAL
350
397D
  0
DICTIONARY
  5
3980
102
{ACAD_REACTORS
330
C
102
}
330
C
100
AcDbDictionary
  3
STANDARD
350
3981
  0
DICTIONARY
  5
E
102
{ACAD_REACTORS
330
C
102
}
330
C
100
AcDbDictionary
  3
STANDARD
350
13
  0
DICTIONARY
  5
2817
102
{ACAD_REACTORS
330
C
102
}
330
C
100
AcDbDictionary
  0
DICTIONARY
  5
3959
102
{ACAD_REACTORS
330
C
102
}
330
C
100
AcDbDictionary
  3
A0
350
395A
  3
A1
350
395B
  3
A2
350
395C
  3
A3
350
395D
  3
A4
350
395E
  3
A5
350
395F
  3
A6
350
3960
  3
A7
350
3961
  3
A8
350
3962
  3
A9
350
3963
  3
B0
350
3964
  3
B1
350
3965
  3
B2
350
3966
  3
B3
350
3967
  3
B4
350
3968
  3
B5
350
3969
  3
B6
350
396A
  3
B7
350
396B
  3
B8
350
396C
  3
B9
350
396D
  3
C0
350
396E
  3
C1
350
396F
  3
C2
350
3970
  3
C3
350
3971
  3
C4
350
3972
  3
C5
350
3973
  3
C6
350
3974
  3
C7
350
3975
  3
C8
350
3976
  3
C9
350
3977
  3
D0
350
3978
  3
D1
350
3979
  3
D2
350
397A
  0
DICTIONARY
  5
3940
102
{ACAD_REACTORS
330
C
102
}
330
C
100
AcDbDictionary
  3
2DWIREFRAME
350
3945
  3
BASIC
350
3948
  3
BRIGHTEN
350
394C
  3
COLORCHANGE
350
3950
  3
CONCEPTUAL
350
394A
  3
DIM
350
394B
  3
EDGECOLOROFF
350
3953
  3
FACEPATTERN
350
394F
  3
FLAT
350
3941
  3
FLATWITHEDGES
350
3942
  3
GOURAUD
350
3943
  3
GOURAUDWITHEDGES
350
3944
  3
HIDDEN
350
3947
  3
JITTEROFF
350
3951
  3
LINEPATTERN
350
394E
  3
OVERHANGOFF
350
3952
  3
REALISTIC
350
3949
  3
SHADED
350
3958
  3
SHADED_WITH_EDGES
350
3957
  3
SHADES_OF_GRAY
350
3954
  3
SKETCHY
350
3955
  3
THICKEN
350
394D
  3
WIREFRAME
350
3946
  3
X-RAY
350
3956
  0
DICTIONARY
  5
4345
102
{ACAD_REACTORS
330
C
102
}
330
C
100
AcDbDictionary
  3
CEPSNID
350
434F
  3
CEPSNTYPE
350
434E
  3
COLORDICT
350
4368
  3
DIMSTYLEDATA
350
4365
  3
FINGERPRINTGUID
350
4350
  3
HYPERLINKBASE
350
4348
  3
INSUNITS
350
434D
  3
LAYOUTDICT
350
434A
  3
LWETCUNION
350
434C
  3
MATERIALDICT
350
4369
  3
PLOTSETDICT
350
434B
  3
PSVPSCALE
350
4352
  3
PUCSBASE
350
4355
  3
PUCSORGBACK
350
435B
  3
PUCSORGBOTTOM
350
4357
  3
PUCSORGFRONT
350
435A
  3
PUCSORGLEFT
350
4358
  3
PUCSORGRIGHT
350
4359
  3
PUCSORGTOP
350
4356
  3
PUCSORTHOREF
350
4353
  3
PUCSORTHOVIEW
350
4354
  3
STYLESHEET
350
4349
  3
TSTACKALIGN
350
4346
  3
TSTACKSIZE
350
4347
  3
UCSBASE
350
435E
  3
UCSORGBACK
350
4364
  3
UCSORGBOTTOM
350
4360
  3
UCSORGFRONT
350
4363
  3
UCSORGLEFT
350
4361
  3
UCSORGRIGHT
350
4362
  3
UCSORGTOP
350
435F
  3
UCSORTHOREF
350
435C
  3
UCSORTHOVIEW
350
435D
  3
VERSIONGUID
350
4351
  0
DICTIONARY
  5
39A9
102
{ACAD_REACTORS
330
C
102
}
330
C
100
AcDbDictionary
  3
CANNOSCALE
350
39AA
  3
CMLEADERSTYLE
350
39E9
  3
CTABLESTYLE
350
39E8
  3
DIMASSOC
350
4366
  3
HIDETEXT
350
4367
  3
MSLTSCALE
350
39EA
  3
XCLIPFRAME
350
39EB
  0
XRECORD
  5
436A
102
{ACAD_REACTORS
330
C
102
}
330
C
100
AcDbXrecord
  1
DWGPROPS COOKIE
  2

  3

  4

  6

  7

  8
y-ohno
  9

300
=
301
=
302
=
303
=
304
=
305
=
306
=
307
=
308
=
309
=
 40
0.0
 41
2450576.222302431
 42
2457191.290995949
  1

 90
        0
  0
XRECORD
  5
436C
102
{ACAD_REACTORS
330
436B
102
}
330
436B
100
AcDbXrecord
102
VTR_0.000_0.000_1.000_1.000_VISUALSTYLE
340
3945
102
VTR_0.000_0.000_1.000_1.000_GRIDDISPLAY
 70
     3
102
VTR_0.000_0.000_1.000_1.000_GRIDMAJOR
 70
     5
102
VTR_0.000_0.000_1.000_1.000_DEFAULTLIGHTING
280
     1
102
VTR_0.000_0.000_1.000_1.000_DEFAULTLIGHTINGTYPE
 70
     1
102
VTR_0.000_0.000_1.000_1.000_BRIGHTNESS
141
0.0
102
VTR_0.000_0.000_1.000_1.000_CONTRAST
142
0.0
  0
DICTIONARY
  5
2B0C
102
{ACAD_REACTORS
330
29EA
102
}
330
29EA
100
AcDbDictionary
  0
DICTIONARY
  5
29EB
102
{ACAD_REACTORS
330
29EA
102
}
330
29EA
100
AcDbDictionary
  0
DICTIONARY
  5
4343
102
{ACAD_REACTORS
330
4342
102
}
330
4342
100
AcDbDictionary
  3
ACDB_ANNOTATIONSCALES
350
4344
  0
DICTIONARY
  5
4225
102
{ACAD_REACTORS
330
4224
102
}
330
4224
100
AcDbDictionary
  3
ACDB_ANNOTATIONSCALES
350
4226
  0
DICTIONARY
  5
40FA
102
{ACAD_REACTORS
330
40F9
102
}
330
40F9
100
AcDbDictionary
  3
ACDB_ANNOTATIONSCALES
350
40FB
  0
DICTIONARY
  5
4132
102
{ACAD_REACTORS
330
4131
102
}
330
4131
100
AcDbDictionary
  3
ACDB_ANNOTATIONSCALES
350
4133
  0
DICTIONARY
  5
413F
102
{ACAD_REACTORS
330
413E
102
}
330
413E
100
AcDbDictionary
  3
ACDB_ANNOTATIONSCALES
350
4140
  0
DICTIONARY
  5
4143
102
{ACAD_REACTORS
330
4142
102
}
330
4142
100
AcDbDictionary
  3
ACDB_ANNOTATIONSCALES
350
4144
  0
DICTIONARY
  5
3E05
102
{ACAD_REACTORS
330
3E04
102
}
330
3E04
100
AcDbDictionary
  3
ACDB_ANNOTATIONSCALES
350
3E06
  0
DICTIONARY
  5
3E08
102
{ACAD_REACTORS
330
3E07
102
}
330
3E07
100
AcDbDictionary
  3
ACDB_ANNOTATIONSCALES
350
3E09
  0
DICTIONARY
  5
3E0B
102
{ACAD_REACTORS
330
3E0A
102
}
330
3E0A
100
AcDbDictionary
  3
ACDB_ANNOTATIONSCALES
350
3E0C
  0
DICTIONARY
  5
3DA2
102
{ACAD_REACTORS
330
3DA1
102
}
330
3DA1
100
AcDbDictionary
  3
ACDB_ANNOTATIONSCALES
350
3DA3
  0
MATERIAL
  5
397C
102
{ACAD_REACTORS
330
2947
102
}
102
{ACAD_XDICTIONARY
360
436F
102
}
330
2947
100
AcDbMaterial
  1
BYBLOCK
  0
MATERIAL
  5
397B
102
{ACAD_REACTORS
330
2947
102
}
102
{ACAD_XDICTIONARY
360
436D
102
}
330
2947
100
AcDbMaterial
  1
BYLAYER
  0
MATERIAL
  5
397D
102
{ACAD_REACTORS
330
2947
102
}
102
{ACAD_XDICTIONARY
360
4371
102
}
330
2947
100
AcDbMaterial
  1
GLOBAL
  0
ACAD_PROXY_OBJECT
  5
3981
102
{ACAD_REACTORS
330
3980
102
}
330
3980
100
AcDbProxyObject
 90
      499
 91
      507
 93
      610
310
40901902A4063FBFFFFFE0000000000000020400000000000020404214DD185B99185C990000000000000104090141901A00000000000004100000000000000041025764000000000000039000
340
14
340
0
340
10
340
0
 94
        0
1001
ACAD_MLEADERVER
1070
     2
  0
MLINESTYLE
  5
13
102
{ACAD_REACTORS
330
E
102
}
330
E
100
AcDbMlineStyle
  2
STANDARD
 70
     0
  3

 62
     0
 51
90.0
 52
90.0
 71
     2
 49
0.5
 62
   256
  6
BYLAYER
 49
-0.5
 62
   256
  6
BYLAYER
  0
ACAD_PROXY_OBJECT
  5
395A
102
{ACAD_REACTORS
330
3959
102
}
330
3959
100
AcDbProxyObject
 90
      499
 91
      504
 93
       41
310
903313A31580
  0
ACAD_PROXY_OBJECT
  5
395B
102
{ACAD_REACTORS
330
3959
102
}
330
3959
100
AcDbProxyObject
 90
      499
 91
      504
 93
      105
310
903313A324000000000000004000
  0
ACAD_PROXY_OBJECT
  5
395C
102
{ACAD_REACTORS
330
3959
102
}
330
3959
100
AcDbProxyObject
 90
      499
 91
      504
 93
      105
310
903313A344000000000000104000
  0
ACAD_PROXY_OBJECT
  5
395D
102
{ACAD_REACTORS
330
3959
102
}
330
3959
100
AcDbProxyObject
 90
      499
 91
      504
 93
      105
310
903313A354000000000000144000
  0
ACAD_PROXY_OBJECT
  5
395E
102
{ACAD_REACTORS
330
3959
102
}
330
3959
100
AcDbProxyObject
 90
      499
 91
      504
 93
      105
310
903313A384000000000000204000
  0
ACAD_PROXY_OBJECT
  5
395F
102
{ACAD_REACTORS
330
3959
102
}
330
3959
100
AcDbProxyObject
 90
      499
 91
      504
 93
      113
310
904313A31304000000000000244000
  0
ACAD_PROXY_OBJECT
  5
3960
102
{ACAD_REACTORS
330
3959
102
}
330
3959
100
AcDbProxyObject
 90
      499
 91
      504
 93
      113
310
904313A31364000000000000304000
  0
ACAD_PROXY_OBJECT
  5
3961
102
{ACAD_REACTORS
330
3959
102
}
330
3959
100
AcDbProxyObject
 90
      499
 91
      504
 93
      113
310
904313A32304000000000000344000
  0
ACAD_PROXY_OBJECT
  5
3962
102
{ACAD_REACTORS
330
3959
102
}
330
3959
100
AcDbProxyObject
 90
      499
 91
      504
 93
      113
310
904313A333040000000000003E4000
  0
ACAD_PROXY_OBJECT
  5
3963
102
{ACAD_REACTORS
330
3959
102
}
330
3959
100
AcDbProxyObject
 90
      499
 91
      504
 93
      113
310
904313A34304000000000000444000
  0
ACAD_PROXY_OBJECT
  5
3964
102
{ACAD_REACTORS
330
3959
102
}
330
3959
100
AcDbProxyObject
 90
      499
 91
      504
 93
      113
310
904313A35304000000000000494000
  0
ACAD_PROXY_OBJECT
  5
3965
102
{ACAD_REACTORS
330
3959
102
}
330
3959
100
AcDbProxyObject
 90
      499
 91
      504
 93
      121
310
905313A3130304000000000000594000
  0
ACAD_PROXY_OBJECT
  5
3966
102
{ACAD_REACTORS
330
3959
102
}
330
3959
100
AcDbProxyObject
 90
      499
 91
      504
 93
      105
310
903323A310000000000000010100
  0
ACAD_PROXY_OBJECT
  5
3967
102
{ACAD_REACTORS
330
3959
102
}
330
3959
100
AcDbProxyObject
 90
      499
 91
      504
 93
      105
310
903343A310000000000000410100
  0
ACAD_PROXY_OBJECT
  5
3968
102
{ACAD_REACTORS
330
3959
102
}
330
3959
100
AcDbProxyObject
 90
      499
 91
      504
 93
      105
310
903383A310000000000000810100
  0
ACAD_PROXY_OBJECT
  5
3969
102
{ACAD_REACTORS
330
3959
102
}
330
3959
100
AcDbProxyObject
 90
      499
 91
      504
 93
      113
310
90431303A310000000000000910100
  0
ACAD_PROXY_OBJECT
  5
396A
102
{ACAD_REACTORS
330
3959
102
}
330
3959
100
AcDbProxyObject
 90
      499
 91
      504
 93
      121
310
9053130303A310000000000001650100
  0
ACAD_PROXY_OBJECT
  5
396B
102
{ACAD_REACTORS
330
3959
102
}
330
3959
100
AcDbProxyObject
 90
      499
 91
      504
 93
      257
310
90E312F31323822203D2031272D3022000000000000200FC000000000000284000
  0
ACAD_PROXY_OBJECT
  5
396C
102
{ACAD_REACTORS
330
3959
102
}
330
3959
100
AcDbProxyObject
 90
      499
 91
      504
 93
      249
310
90D312F363422203D2031272D3022000000000000240FC000000000000284000
  0
ACAD_PROXY_OBJECT
  5
396D
102
{ACAD_REACTORS
330
3959
102
}
330
3959
100
AcDbProxyObject
 90
      499
 91
      504
 93
      249
310
90D312F333222203D2031272D3022000000000000280FC000000000000284000
  0
ACAD_PROXY_OBJECT
  5
396E
102
{ACAD_REACTORS
330
3959
102
}
330
3959
100
AcDbProxyObject
 90
      499
 91
      504
 93
      249
310
90D312F313622203D2031272D30220000000000002C0FC000000000000284000
  0
ACAD_PROXY_OBJECT
  5
396F
102
{ACAD_REACTORS
330
3959
102
}
330
3959
100
AcDbProxyObject
 90
      499
 91
      504
 93
      249
310
90D332F333222203D2031272D30220000000000002E0FC000000000000284000
  0
ACAD_PROXY_OBJECT
  5
3970
102
{ACAD_REACTORS
330
3959
102
}
330
3959
100
AcDbProxyObject
 90
      499
 91
      504
 93
      241
310
90C312F3822203D2031272D3022000000000000300FC000000000000284000
  0
ACAD_PROXY_OBJECT
  5
3971
102
{ACAD_REACTORS
330
3959
102
}
330
3959
100
AcDbProxyObject
 90
      499
 91
      504
 93
      249
310
90D332F313622203D2031272D3022000000000000320FC000000000000284000
  0
ACAD_PROXY_OBJECT
  5
3972
102
{ACAD_REACTORS
330
3959
102
}
330
3959
100
AcDbProxyObject
 90
      499
 91
      504
 93
      241
310
90C312F3422203D2031272D3022000000000000340FC000000000000284000
  0
ACAD_PROXY_OBJECT
  5
3973
102
{ACAD_REACTORS
330
3959
102
}
330
3959
100
AcDbProxyObject
 90
      499
 91
      504
 93
      241
310
90C332F3822203D2031272D3022000000000000360FC000000000000284000
  0
ACAD_PROXY_OBJECT
  5
3974
102
{ACAD_REACTORS
330
3959
102
}
330
3959
100
AcDbProxyObject
 90
      499
 91
      504
 93
      241
310
90C312F3222203D2031272D3022000000000000380FC000000000000284000
  0
ACAD_PROXY_OBJECT
  5
3975
102
{ACAD_REACTORS
330
3959
102
}
330
3959
100
AcDbProxyObject
 90
      499
 91
      504
 93
      241
310
90C332F3422203D2031272D30220000000000003A0FC000000000000284000
  0
ACAD_PROXY_OBJECT
  5
3976
102
{ACAD_REACTORS
330
3959
102
}
330
3959
100
AcDbProxyObject
 90
      499
 91
      504
 93
      161
310
90A3122203D2031272D30224000000000000284000
  0
ACAD_PROXY_OBJECT
  5
3977
102
{ACAD_REACTORS
330
3959
102
}
330
3959
100
AcDbProxyObject
 90
      499
 91
      504
 93
      257
310
90E312D312F3222203D2031272D30220000000000003E0FC000000000000284000
  0
ACAD_PROXY_OBJECT
  5
3978
102
{ACAD_REACTORS
330
3959
102
}
330
3959
100
AcDbProxyObject
 90
      499
 91
      504
 93
      225
310
90A3322203D2031272D302200000000000002100000000000000284000
  0
ACAD_PROXY_OBJECT
  5
3979
102
{ACAD_REACTORS
330
3959
102
}
330
3959
100
AcDbProxyObject
 90
      499
 91
      504
 93
      225
310
90A3622203D2031272D302200000000000006100000000000000284000
  0
ACAD_PROXY_OBJECT
  5
397A
102
{ACAD_REACTORS
330
3959
102
}
330
3959
100
AcDbProxyObject
 90
      499
 91
      504
 93
      249
310
90D31272D3022203D2031272D30220000000000000A100000000000000284000
  0
ACAD_PROXY_OBJECT
  5
3945
102
{ACAD_REACTORS
330
3940
102
}
330
3940
100
AcDbProxyObject
 90
      499
 91
      503
 93
      436
310
42CC9915DA5C99599C985B595049028333333333333E33F0000000000000F90107901411070040501600405405064090741402480A0340
1001
ACAD
1000
AcDbSavedByObjectVersion
1070
     0
  0
ACAD_PROXY_OBJECT
  5
3948
102
{ACAD_REACTORS
330
3940
102
}
330
3940
100
AcDbProxyObject
 90
      499
 91
      503
 93
      388
310
4150985CDA58D07406404333333333333E33F0000000000000F90107A41107004050150841D405064090741402480A0350
1001
ACAD
1000
AcDbSavedByObjectVersion
1070
     0
  0
ACAD_PROXY_OBJECT
  5
394C
102
{ACAD_REACTORS
330
3940
102
}
330
3940
100
AcDbProxyObject
 90
      499
 91
      503
 93
      428
310
42109C9A59DA1D195B90C409028333333333333E33F0000000000000F9010790141107004050150841D405064090741402480A029950
1001
ACAD
1000
AcDbSavedByObjectVersion
1070
     0
  0
ACAD_PROXY_OBJECT
  5
3950
102
{ACAD_REACTORS
330
3940
102
}
330
3940
100
AcDbProxyObject
 90
      499
 91
      503
 93
      452
310
42D0DBDB1BDC90DA185B99D95104090240C333333333333E33F0000000000000F90108901411070040501508421405064090741402480A0350
1001
ACAD
1000
AcDbSavedByObjectVersion
1070
     0
  0
ACAD_PROXY_OBJECT
  5
394A
102
{ACAD_REACTORS
330
3940
102
}
330
3940
100
AcDbProxyObject
 90
      499
 91
      503
 93
      500
310
4290DBDB98D95C1D1D585B10940D028333333333333E33F0000000000000F90107902409070040501000000000018199010841D405064090740C02480A0340
1001
ACAD
1000
AcDbSavedByObjectVersion
1070
     0
  0
ACAD_PROXY_OBJECT
  5
394B
102
{ACAD_REACTORS
330
3940
102
}
330
3940
100
AcDbProxyObject
 90
      499
 91
      503
 93
      412
310
40D11A5B50B409028333333333333E33F0000000000000F9010790141107004050150841D405064090741402480A02677FFFFFD0
1001
ACAD
1000
AcDbSavedByObjectVersion
1070
     0
  0
ACAD_PROXY_OBJECT
  5
3953
102
{ACAD_REACTORS
330
3940
102
}
330
3940
100
AcDbProxyObject
 90
      499
 91
      503
 93
      452
310
43115919D950DBDB1BDC93D999916409028333333333333E33F0000000000000F9010790141107004050150841D405064090741402480A0350
1001
ACAD
1000
AcDbSavedByObjectVersion
1070
     0
  0
ACAD_PROXY_OBJECT
  5
394F
102
{ACAD_REACTORS
330
3940
102
}
330
3940
100
AcDbProxyObject
 90
      499
 91
      503
 93
      444
310
42D19858D95C185D1D195C9B90F409028333333333333E33F0000000000000F9010790141107004050150841D405064090741402480A0350
1001
ACAD
1000
AcDbSavedByObjectVersion
1070
     0
  0
ACAD_PROXY_OBJECT
  5
3941
102
{ACAD_REACTORS
330
3940
102
}
330
3940
100
AcDbProxyObject
 90
      499
 91
      503
 93
      380
310
41119B185D240901404333333333333E33F0000000000000F9010740A907004050150841D405064090741402480A1B50
1001
ACAD
1000
AcDbSavedByObjectVersion
1070
     0
  0
ACAD_PROXY_OBJECT
  5
3942
102
{ACAD_REACTORS
330
3940
102
}
330
3940
100
AcDbProxyObject
 90
      499
 91
      503
 93
      468
310
43519B185D15DA5D1A115919D95CD0140901404333333333333E33F0000000000000F90107409019070040501600405405064090741402480A1B50
1001
ACAD
1000
AcDbSavedByObjectVersion
1070
     0
  0
ACAD_PROXY_OBJECT
  5
3943
102
{ACAD_REACTORS
330
3940
102
}
330
3940
100
AcDbProxyObject
 90
      499
 91
      503
 93
      404
310
41D1DBDD5C985D5910240902404333333333333E33F0000000000000F9010740A9070040501641D405064090741402480A1B50
1001
ACAD
1000
AcDbSavedByObjectVersion
1070
     0
  0
ACAD_PROXY_OBJECT
  5
3944
102
{ACAD_REACTORS
330
3940
102
}
330
3940
100
AcDbProxyObject
 90
      499
 91
      503
 93
      492
310
4411DBDD5C985D5915DA5D1A115919D95CD0340902404333333333333E33F0000000000000F90107409019070040501600405405064090741402480A1B50
1001
ACAD
1000
AcDbSavedByObjectVersion
1070
     0
  0
ACAD_PROXY_OBJECT
  5
3947
102
{ACAD_REACTORS
330
3940
102
}
330
3940
100
AcDbProxyObject
 90
      499
 91
      503
 93
      476
310
41921A5919195B90640502408333333333333E33F0000000000000F901079024090700405020000000000001110200405405064090740C02480A0340
1001
ACAD
1000
AcDbSavedByObjectVersion
1070
     0
  0
ACAD_PROXY_OBJECT
  5
3951
102
{ACAD_REACTORS
330
3940
102
}
330
3940
100
AcDbProxyObject
 90
      499
 91
      503
 93
      428
310
42529A5D1D195C93D999914409028333333333333E33F0000000000000F9010790141107004050150A41D405064090741402480A0350
1001
ACAD
1000
AcDbSavedByObjectVersion
1070
     0
  0
ACAD_PROXY_OBJECT
  5
394E
102
{ACAD_REACTORS
330
3940
102
}
330
3940
100
AcDbProxyObject
 90
      499
 91
      503
 93
      444
310
42D31A5B995C185D1D195C9B90E409028333333333333E33F0000000000000F9010790141107004050750841D405064090741402483A0350
1001
ACAD
1000
AcDbSavedByObjectVersion
1070
     0
  0
ACAD_PROXY_OBJECT
  5
3952
102
{ACAD_REACTORS
330
3940
102
}
330
3940
100
AcDbProxyObject
 90
      499
 91
      503
 93
      444
310
42D3DD995C9A185B99D3D999915409028333333333333E33F0000000000000F9010790141107004050150941D405064090741402480A0350
1001
ACAD
1000
AcDbSavedByObjectVersion
1070
     0
  0
ACAD_PROXY_OBJECT
  5
3949
102
{ACAD_REACTORS
330
3940
102
}
330
3940
100
AcDbProxyObject
 90
      499
 91
      503
 93
      428
310
425499585B1A5CDD1A58D08409038333333333333E33F0000000000000F9010740A907004050150800405405064090740C02480A1B40
1001
ACAD
1000
AcDbSavedByObjectVersion
1070
     0
  0
ACAD_PROXY_OBJECT
  5
3958
102
{ACAD_REACTORS
330
3940
102
}
330
3940
100
AcDbProxyObject
 90
      499
 91
      503
 93
      420
310
4194DA1859195911B40902404333333333333E33F0000000000000F9010740A41107004050150800405405064090840C02480A0B40
1001
ACAD
1000
AcDbSavedByObjectVersion
1070
     0
  0
ACAD_PROXY_OBJECT
  5
3957
102
{ACAD_REACTORS
330
3940
102
}
330
3940
100
AcDbProxyObject
 90
      499
 91
      503
 93
      516
310
4454DA18591959081DDA5D1A08195919D95CD1A40902404333333333333E33F0000000000000F901074090142907004050250800405405064090740C02480A0B40
1001
ACAD
1000
AcDbSavedByObjectVersion
1070
     0
  0
ACAD_PROXY_OBJECT
  5
3954
102
{ACAD_REACTORS
330
3940
102
}
330
3940
100
AcDbProxyObject
 90
      499
 91
      503
 93
      532
310
4394DA1859195CC81BD98811DC985E5174090240C333333333333E33F0000000000000F901079024090741D01000000000000111010841D405064090740C02480A0340
1001
ACAD
1000
AcDbSavedByObjectVersion
1070
     0
  0
ACAD_PROXY_OBJECT
  5
3955
102
{ACAD_REACTORS
330
3940
102
}
330
3940
100
AcDbProxyObject
 90
      499
 91
      503
 93
      476
310
41D4DAD95D18DA1E51840502408333333333333E33F0000000000000F901079024090741D01000000000000111010B41D405064090741802480A0340
1001
ACAD
1000
AcDbSavedByObjectVersion
1070
     0
  0
ACAD_PROXY_OBJECT
  5
394D
102
{ACAD_REACTORS
330
3940
102
}
330
3940
100
AcDbProxyObject
 90
      499
 91
      503
 93
      412
310
41D51A1A58DAD95B90D409028333333333333E33F0000000000000F9010790141107004050150C41D405064090741402480A0350
1001
ACAD
1000
AcDbSavedByObjectVersion
1070
     0
  0
ACAD_PROXY_OBJECT
  5
3946
102
{ACAD_REACTORS
330
3940
102
}
330
3940
100
AcDbProxyObject
 90
      499
 91
      503
 93
      420
310
4255DA5C99599C985B595059028333333333333E33F0000000000000F90107901411070040501600405405064090740C02480A0340
1001
ACAD
1000
AcDbSavedByObjectVersion
1070
     0
  0
ACAD_PROXY_OBJECT
  5
3956
102
{ACAD_REACTORS
330
3940
102
}
330
3940
100
AcDbProxyObject
 90
      499
 91
      503
 93
      404
310
41560B54985E51940902404000000000000E03F0000000000000F9010740501907004050150841D405064090740C02480A1B40
1001
ACAD
1000
AcDbSavedByObjectVersion
1070
     0
  0
XRECORD
  5
434F
102
{ACAD_REACTORS
330
4345
102
}
330
4345
100
AcDbXrecord
340
0
  0
XRECORD
  5
434E
102
{ACAD_REACTORS
330
4345
102
}
330
4345
100
AcDbXrecord
 90
        0
  0
XRECORD
  5
4368
102
{ACAD_REACTORS
330
4345
102
}
330
4345
100
AcDbXrecord
340
2948
  0
XRECORD
  5
4365
102
{ACAD_REACTORS
330
4345
102
}
330
4345
100
AcDbXrecord
1000
DSTYLE
1002
{
1070
   171
 70
     2
1070
   143
 40
0.0394
1070
   274
 70
     2
1070
    41
 40
6.0
1070
   342
340
2AF4
1070
   271
 70
     1
1070
   278
 70
    46
1070
   341
340
2AF4
1070
   272
 70
     1
1070
    48
 40
0.1
1070
   283
 70
     1
1070
    47
 40
0.1
1070
   145
 40
1.0
1070
   340
340
10
1070
   140
 40
5.0
1070
   284
 70
     0
1002
}
  0
XRECORD
  5
4350
102
{ACAD_REACTORS
330
4345
102
}
330
4345
100
AcDbXrecord
  1
{23698909-1D67-4744-B0E2-8DE11E3ED422}
  0
XRECORD
  5
4348
102
{ACAD_REACTORS
330
4345
102
}
330
4345
100
AcDbXrecord
  1

  0
XRECORD
  5
434D
102
{ACAD_REACTORS
330
4345
102
}
330
4345
100
AcDbXrecord
 90
        0
  0
XRECORD
  5
434A
102
{ACAD_REACTORS
330
4345
102
}
330
4345
100
AcDbXrecord
340
2816
  0
XRECORD
  5
434C
102
{ACAD_REACTORS
330
4345
102
}
330
4345
100
AcDbXrecord
 90
    10781
  0
XRECORD
  5
4369
102
{ACAD_REACTORS
330
4345
102
}
330
4345
100
AcDbXrecord
340
2947
  0
XRECORD
  5
434B
102
{ACAD_REACTORS
330
4345
102
}
330
4345
100
AcDbXrecord
340
2817
  0
XRECORD
  5
4352
102
{ACAD_REACTORS
330
4345
102
}
330
4345
100
AcDbXrecord
 40
0.25
  0
XRECORD
  5
4355
102
{ACAD_REACTORS
330
4345
102
}
330
4345
100
AcDbXrecord
340
0
  0
XRECORD
  5
435B
102
{ACAD_REACTORS
330
4345
102
}
330
4345
100
AcDbXrecord
 10
0.0
 20
0.0
 30
0.0
  0
XRECORD
  5
4357
102
{ACAD_REACTORS
330
4345
102
}
330
4345
100
AcDbXrecord
 10
0.0
 20
0.0
 30
0.0
  0
XRECORD
  5
435A
102
{ACAD_REACTORS
330
4345
102
}
330
4345
100
AcDbXrecord
 10
0.0
 20
0.0
 30
0.0
  0
XRECORD
  5
4358
102
{ACAD_REACTORS
330
4345
102
}
330
4345
100
AcDbXrecord
 10
0.0
 20
0.0
 30
0.0
  0
XRECORD
  5
4359
102
{ACAD_REACTORS
330
4345
102
}
330
4345
100
AcDbXrecord
 10
0.0
 20
0.0
 30
0.0
  0
XRECORD
  5
4356
102
{ACAD_REACTORS
330
4345
102
}
330
4345
100
AcDbXrecord
 10
0.0
 20
0.0
 30
0.0
  0
XRECORD
  5
4353
102
{ACAD_REACTORS
330
4345
102
}
330
4345
100
AcDbXrecord
340
0
  0
XRECORD
  5
4354
102
{ACAD_REACTORS
330
4345
102
}
330
4345
100
AcDbXrecord
 70
     0
  0
XRECORD
  5
4349
102
{ACAD_REACTORS
330
4345
102
}
330
4345
100
AcDbXrecord
  1

  0
XRECORD
  5
4346
102
{ACAD_REACTORS
330
4345
102
}
330
4345
100
AcDbXrecord
 90
        1
  0
XRECORD
  5
4347
102
{ACAD_REACTORS
330
4345
102
}
330
4345
100
AcDbXrecord
 90
       70
  0
XRECORD
  5
435E
102
{ACAD_REACTORS
330
4345
102
}
330
4345
100
AcDbXrecord
340
0
  0
XRECORD
  5
4364
102
{ACAD_REACTORS
330
4345
102
}
330
4345
100
AcDbXrecord
 10
0.0
 20
0.0
 30
0.0
  0
XRECORD
  5
4360
102
{ACAD_REACTORS
330
4345
102
}
330
4345
100
AcDbXrecord
 10
0.0
 20
0.0
 30
0.0
  0
XRECORD
  5
4363
102
{ACAD_REACTORS
330
4345
102
}
330
4345
100
AcDbXrecord
 10
0.0
 20
0.0
 30
0.0
  0
XRECORD
  5
4361
102
{ACAD_REACTORS
330
4345
102
}
330
4345
100
AcDbXrecord
 10
0.0
 20
0.0
 30
0.0
  0
XRECORD
  5
4362
102
{ACAD_REACTORS
330
4345
102
}
330
4345
100
AcDbXrecord
 10
0.0
 20
0.0
 30
0.0
  0
XRECORD
  5
435F
102
{ACAD_REACTORS
330
4345
102
}
330
4345
100
AcDbXrecord
 10
0.0
 20
0.0
 30
0.0
  0
XRECORD
  5
435C
102
{ACAD_REACTORS
330
4345
102
}
330
4345
100
AcDbXrecord
340
0
  0
XRECORD
  5
435D
102
{ACAD_REACTORS
330
4345
102
}
330
4345
100
AcDbXrecord
 70
     0
  0
XRECORD
  5
4351
102
{ACAD_REACTORS
330
4345
102
}
330
4345
100
AcDbXrecord
  1
{3A842A78-669C-4640-8E4C-45BC5CD039D0}
  0
DICTIONARYVAR
  5
39AA
102
{ACAD_REACTORS
330
39A9
102
}
330
39A9
100
DictionaryVariables
280
     0
  1
1:1
  0
DICTIONARYVAR
  5
39E9
102
{ACAD_REACTORS
330
39A9
102
}
330
39A9
100
DictionaryVariables
280
     0
  1
Standard
  0
DICTIONARYVAR
  5
39E8
102
{ACAD_REACTORS
330
39A9
102
}
330
39A9
100
DictionaryVariables
280
     0
  1
Standard
  0
DICTIONARYVAR
  5
4366
102
{ACAD_REACTORS
330
39A9
102
}
330
39A9
100
DictionaryVariables
280
     0
  1
1
  0
DICTIONARYVAR
  5
4367
102
{ACAD_REACTORS
330
39A9
102
}
330
39A9
100
DictionaryVariables
280
     0
  1
0
  0
DICTIONARYVAR
  5
39EA
102
{ACAD_REACTORS
330
39A9
102
}
330
39A9
100
DictionaryVariables
280
     0
  1
0
  0
DICTIONARYVAR
  5
39EB
102
{ACAD_REACTORS
330
39A9
102
}
330
39A9
100
DictionaryVariables
280
     0
  1
0
  0
DICTIONARY
  5
4344
102
{ACAD_REACTORS
330
4343
102
}
330
4343
100
AcDbDictionary
  0
DICTIONARY
  5
4226
102
{ACAD_REACTORS
330
4225
102
}
330
4225
100
AcDbDictionary
  0
DICTIONARY
  5
40FB
102
{ACAD_REACTORS
330
40FA
102
}
330
40FA
100
AcDbDictionary
  0
DICTIONARY
  5
4133
102
{ACAD_REACTORS
330
4132
102
}
330
4132
100
AcDbDictionary
  0
DICTIONARY
  5
4140
102
{ACAD_REACTORS
330
413F
102
}
330
413F
100
AcDbDictionary
  0
DICTIONARY
  5
4144
102
{ACAD_REACTORS
330
4143
102
}
330
4143
100
AcDbDictionary
  0
DICTIONARY
  5
3E06
102
{ACAD_REACTORS
330
3E05
102
}
330
3E05
100
AcDbDictionary
  0
DICTIONARY
  5
3E09
102
{ACAD_REACTORS
330
3E08
102
}
330
3E08
100
AcDbDictionary
  0
DICTIONARY
  5
3E0C
102
{ACAD_REACTORS
330
3E0B
102
}
330
3E0B
100
AcDbDictionary
  0
DICTIONARY
  5
3DA3
102
{ACAD_REACTORS
330
3DA2
102
}
330
3DA2
100
AcDbDictionary
  0
DICTIONARY
  5
436F
330
397C
100
AcDbDictionary
280
     1
  3
ACAD_XREC_ROUNDTRIP
360
4370
  0
DICTIONARY
  5
436D
330
397B
100
AcDbDictionary
280
     1
  3
ACAD_XREC_ROUNDTRIP
360
436E
  0
DICTIONARY
  5
4371
330
397D
100
AcDbDictionary
280
     1
  3
ACAD_XREC_ROUNDTRIP
360
4372
  0
XRECORD
  5
4370
102
{ACAD_REACTORS
330
436F
102
}
330
436F
100
AcDbXrecord
102
MATERIAL
148
0.0
149
0.0
149
0.0
 93
        0
 94
      127
282
     0
 72
     1
 77
     1
171
     1
175
     1
179
     1
273
     0
  0
XRECORD
  5
436E
102
{ACAD_REACTORS
330
436D
102
}
330
436D
100
AcDbXrecord
102
MATERIAL
148
0.0
149
0.0
149
0.0
 93
        0
 94
      127
282
     0
 72
     1
 77
     1
171
     1
175
     1
179
     1
273
     0
  0
XRECORD
  5
4372
102
{ACAD_REACTORS
330
4371
102
}
330
4371
100
AcDbXrecord
102
MATERIAL
148
0.0
149
0.0
149
0.0
 93
        0
 94
      127
282
     0
 72
     1
 77
     1
171
     1
175
     1
179
     1
273
     0
  0
ENDSEC
  0
EOF
