  0
SECTION
  2
HEADER
  9
$ACADVER
  1
AC1014
  9
$ACADMAINTVER
 70
     9
  9
$DWGCODEPAGE
  3
ANSI_932
  9
$INSBASE
 10
0.0
 20
0.0
 30
0.0
  9
$EXTMIN
 10
-83.251141332852
 20
418.168675932365
 30
0.0
  9
$EXTMAX
 10
436.581969366534
 20
746.17031367647
 30
0.0
  9
$LIMMIN
 10
-360.747566795242
 20
4.457354754526
  9
$LIMMAX
 10
-162.153696144267
 20
287.675440264018
  9
$ORTHOMODE
 70
     1
  9
$REGENMODE
 70
     1
  9
$FILLMODE
 70
     1
  9
$QTEXTMODE
 70
     0
  9
$MIRRTEXT
 70
     1
  9
$DRAGMODE
 70
     2
  9
$LTSCALE
 40
1.0
  9
$OSMODE
 70
    32
  9
$ATTMODE
 70
     1
  9
$TEXTSIZE
 40
2.333873885063
  9
$TRACEWID
 40
1.0
  9
$TEXTSTYLE
  7
STANDARD
  9
$CLAYER
  8
寸法線
  9
$CELTYPE
  6
BYLAYER
  9
$CECOLOR
 62
   256
  9
$CELTSCALE
 40
10.0
  9
$DELOBJ
 70
     1
  9
$DISPSILH
 70
     0
  9
$DIMSCALE
 40
1.0
  9
$DIMASZ
 40
6.0
  9
$DIMEXO
 40
0.625
  9
$DIMDLI
 40
3.75
  9
$DIMRND
 40
0.0
  9
$DIMDLE
 40
0.0
  9
$DIMEXE
 40
1.25
  9
$DIMTP
 40
0.1
  9
$DIMTM
 40
0.1
  9
$DIMTXT
 40
5.0
  9
$DIMCEN
 40
2.5
  9
$DIMTSZ
 40
0.0
  9
$DIMTOL
 70
     0
  9
$DIMLIM
 70
     0
  9
$DIMTIH
 70
     0
  9
$DIMTOH
 70
     0
  9
$DIMSE1
 70
     0
  9
$DIMSE2
 70
     0
  9
$DIMTAD
 70
     1
  9
$DIMZIN
 70
     8
  9
$DIMBLK
  1
OPEN30
  9
$DIMASO
 70
     1
  9
$DIMSHO
 70
     1
  9
$DIMPOST
  1

  9
$DIMAPOST
  1

  9
$DIMALT
 70
     0
  9
$DIMALTD
 70
     2
  9
$DIMALTF
 40
0.0394
  9
$DIMLFAC
 40
1.0
  9
$DIMTOFL
 70
     1
  9
$DIMTVP
 40
1.0
  9
$DIMTIX
 70
     0
  9
$DIMSOXD
 70
     0
  9
$DIMSAH
 70
     0
  9
$DIMBLK1
  1

  9
$DIMBLK2
  1

  9
$DIMSTYLE
  2
ISO-25
  9
$DIMCLRD
 70
     0
  9
$DIMCLRE
 70
     0
  9
$DIMCLRT
 70
     0
  9
$DIMTFAC
 40
1.0
  9
$DIMGAP
 40
0.625
  9
$DIMJUST
 70
     0
  9
$DIMSD1
 70
     0
  9
$DIMSD2
 70
     0
  9
$DIMTOLJ
 70
     1
  9
$DIMTZIN
 70
     0
  9
$DIMALTZ
 70
     0
  9
$DIMALTTZ
 70
     0
  9
$DIMFIT
 70
     3
  9
$DIMUPT
 70
     0
  9
$DIMUNIT
 70
     2
  9
$DIMDEC
 70
     1
  9
$DIMTDEC
 70
     1
  9
$DIMALTU
 70
     2
  9
$DIMALTTD
 70
     2
  9
$DIMTXSTY
  7
STANDARD
  9
$DIMAUNIT
 70
     0
  9
$LUNITS
 70
     2
  9
$LUPREC
 70
     4
  9
$SKETCHINC
 40
1.0
  9
$FILLETRAD
 40
6.5
  9
$AUNITS
 70
     0
  9
$AUPREC
 70
     0
  9
$MENU
  1
.
  9
$ELEVATION
 40
0.0
  9
$PELEVATION
 40
0.0
  9
$THICKNESS
 40
0.0
  9
$LIMCHECK
 70
     0
  9
$CHAMFERA
 40
10.0
  9
$CHAMFERB
 40
10.0
  9
$CHAMFERC
 40
20.0
  9
$CHAMFERD
 40
0.0
  9
$SKPOLY
 70
     0
  9
$TDCREATE
 40
2450576.597302431
  9
$TDUPDATE
 40
2457191.664110949
  9
$TDINDWG
 40
1.137641331
  9
$TDUSRTIMER
 40
1.137641331
  9
$USRTIMER
 70
     1
  9
$ANGBASE
 50
0.0
  9
$ANGDIR
 70
     0
  9
$PDMODE
 70
     0
  9
$PDSIZE
 40
0.0
  9
$PLINEWID
 40
0.0
  9
$COORDS
 70
     1
  9
$SPLFRAME
 70
     0
  9
$SPLINETYPE
 70
     6
  9
$SPLINESEGS
 70
     8
  9
$ATTDIA
 70
     0
  9
$ATTREQ
 70
     1
  9
$HANDLING
 70
     1
  9
$HANDSEED
  5
3E0F
  9
$SURFTAB1
 70
     6
  9
$SURFTAB2
 70
     6
  9
$SURFTYPE
 70
     6
  9
$SURFU
 70
     6
  9
$SURFV
 70
     6
  9
$UCSNAME
  2

  9
$UCSORG
 10
0.0
 20
0.0
 30
0.0
  9
$UCSXDIR
 10
1.0
 20
0.0
 30
0.0
  9
$UCSYDIR
 10
0.0
 20
1.0
 30
0.0
  9
$PUCSNAME
  2

  9
$PUCSORG
 10
0.0
 20
0.0
 30
0.0
  9
$PUCSXDIR
 10
1.0
 20
0.0
 30
0.0
  9
$PUCSYDIR
 10
0.0
 20
1.0
 30
0.0
  9
$USERI1
 70
     0
  9
$USERI2
 70
     0
  9
$USERI3
 70
     0
  9
$USERI4
 70
     0
  9
$USERI5
 70
     0
  9
$USERR1
 40
0.0
  9
$USERR2
 40
0.0
  9
$USERR3
 40
0.0
  9
$USERR4
 40
0.0
  9
$USERR5
 40
0.0
  9
$WORLDVIEW
 70
     1
  9
$SHADEDGE
 70
     3
  9
$SHADEDIF
 70
    70
  9
$TILEMODE
 70
     0
  9
$MAXACTVP
 70
    16
  9
$PINSBASE
 10
0.0
 20
0.0
 30
0.0
  9
$PLIMCHECK
 70
     0
  9
$PEXTMIN
 10
4.746305129083
 20
2.666107243269
 30
0.0
  9
$PEXTMAX
 10
404.746305129083
 20
282.666107243269
 30
0.0
  9
$PLIMMIN
 10
-7.007122192383
 20
-7.007118782997
  9
$PLIMMAX
 10
417.718108215332
 20
293.315290427208
  9
$UNITMODE
 70
     0
  9
$VISRETAIN
 70
     0
  9
$PLINEGEN
 70
     0
  9
$PSLTSCALE
 70
     1
  9
$TREEDEPTH
 70
  3020
  9
$PICKSTYLE
 70
     1
  9
$CMLSTYLE
  2
STANDARD
  9
$CMLJUST
 70
     0
  9
$CMLSCALE
 40
1.0
  9
$PROXYGRAPHICS
 70
     1
  9
$MEASUREMENT
 70
     1
  0
ENDSEC
  0
SECTION
  2
CLASSES
  0
CLASS
  1
ACDBDICTIONARYWDFLT
  2
AcDbDictionaryWithDefault
  3
ObjectDBX Classes
 90
        0
280
     0
281
     0
  0
CLASS
  1
ACDBPLACEHOLDER
  2
AcDbPlaceHolder
  3
ObjectDBX Classes
 90
        0
280
     0
281
     0
  0
CLASS
  1
LAYOUT
  2
AcDbLayout
  3
ObjectDBX Classes
 90
        0
280
     0
281
     0
  0
CLASS
  1
VISUALSTYLE
  2
AcDbVisualStyle
  3
ObjectDBX Classes
 90
     4095
280
     0
281
     0
  0
CLASS
  1
SCALE
  2
AcDbScale
  3
ObjectDBX Classes
 90
     1153
280
     0
281
     0
  0
CLASS
  1
MATERIAL
  2
AcDbMaterial
  3
ObjectDBX Classes
 90
     1153
280
     0
281
     0
  0
CLASS
  1
TABLESTYLE
  2
AcDbTableStyle
  3
ObjectDBX Classes
 90
     4095
280
     0
281
     0
  0
CLASS
  1
MLEADERSTYLE
  2
AcDbMLeaderStyle
  3
ACDB_MLEADERSTYLE_CLASS
 90
     4095
280
     0
281
     0
  0
CLASS
  1
SUN
  2
AcDbSun
  3
SCENEOE
 90
     1153
280
     0
281
     0
  0
CLASS
  1
DICTIONARYVAR
  2
AcDbDictionaryVar
  3
ObjectDBX Classes
 90
        0
280
     0
281
     0
  0
CLASS
  1
DIMASSOC
  2
AcDbDimAssoc
  3
"AcDbDimAssoc|Product Desc:     AcDim ARX App For Dimension|Company:          Autodesk, Inc.|WEB Address:      www.autodesk.com"
 90
        0
280
     0
281
     0
  0
CLASS
  1
XRECORD
  2
AcDbXrecord
  3
ObjectDBX Classes
 90
        0
280
     0
281
     0
  0
CLASS
  1
LWPOLYLINE
  2
AcDbPolyline
  3
ObjectDBX Classes
 90
        0
280
     0
281
     1
  0
CLASS
  1
HATCH
  2
AcDbHatch
  3
ObjectDBX Classes
 90
        0
280
     0
281
     1
  0
ENDSEC
  0
SECTION
  2
TABLES
  0
TABLE
  2
VPORT
  5
8
102
{ACAD_XDICTIONARY
360
3E06
102
}
330
0
100
AcDbSymbolTable
 70
     2
  0
VPORT
  5
3A28
330
8
100
AcDbSymbolTableRecord
100
AcDbViewportTableRecord
  2
*ACTIVE
 70
     0
 10
0.0
 20
0.0
 11
1.0
 21
1.0
 12
3.911352398307
 22
473.804529249021
 13
0.0
 23
0.0
 14
1.0
 24
1.0
 15
0.0
 25
0.0
 16
0.0
 26
0.0
 36
1.0
 17
0.0
 27
0.0
 37
0.0
 40
181.7077416602
 41
1.56746031746
 42
50.0
 43
0.0
 44
0.0
 50
0.0
 51
0.0
 71
    16
 72
   100
 73
     1
 74
     0
 75
     0
 76
     0
 77
     0
 78
     0
  0
ENDTAB
  0
TABLE
  2
LTYPE
  5
5
330
0
100
AcDbSymbolTable
 70
     6
  0
LTYPE
  5
14
330
5
100
AcDbSymbolTableRecord
100
AcDbLinetypeTableRecord
  2
BYBLOCK
 70
     0
  3

 72
    65
 73
     0
 40
0.0
  0
LTYPE
  5
15
330
5
100
AcDbSymbolTableRecord
100
AcDbLinetypeTableRecord
  2
BYLAYER
 70
     0
  3

 72
    65
 73
     0
 40
0.0
  0
LTYPE
  5
16
330
5
100
AcDbSymbolTableRecord
100
AcDbLinetypeTableRecord
  2
CONTINUOUS
 70
     0
  3
Solid line
 72
    65
 73
     0
 40
0.0
  0
LTYPE
  5
1EC
330
5
100
AcDbSymbolTableRecord
100
AcDbLinetypeTableRecord
  2
CENTER
 70
     0
  3
____ _ ____ _ ____ _ ____ _ ____ _ ____ _ ____ 
 72
    65
 73
     4
 40
2.0
 49
1.25
 74
     0
 49
-0.25
 74
     0
 49
0.25
 74
     0
 49
-0.25
 74
     0
  0
LTYPE
  5
1ED
330
5
100
AcDbSymbolTableRecord
100
AcDbLinetypeTableRecord
  2
DASHED
 70
     0
  3
__ __ __ __ __ __ __ __ __ __ __ __ __ __ __ __
 72
    65
 73
     2
 40
0.75
 49
0.5
 74
     0
 49
-0.25
 74
     0
  0
LTYPE
  5
2B28
330
5
100
AcDbSymbolTableRecord
100
AcDbLinetypeTableRecord
  2
DASHDOT
 70
     0
  3
一点鎖線
 72
    65
 73
     4
 40
25.6
 49
20.0
 74
     0
 49
-2.0
 74
     0
 49
1.6
 74
     0
 49
-2.0
 74
     0
  0
LTYPE
  5
2B29
330
5
100
AcDbSymbolTableRecord
100
AcDbLinetypeTableRecord
  2
DIVIDE
 70
     0
  3
二点鎖線
 72
    65
 73
     6
 40
31.2
 49
20.0
 74
     0
 49
-2.4
 74
     0
 49
2.0
 74
     0
 49
-2.4
 74
     0
 49
2.0
 74
     0
 49
-2.4
 74
     0
  0
LTYPE
  5
3AE7
330
5
100
AcDbSymbolTableRecord
100
AcDbLinetypeTableRecord
  2
CENTER2
 70
     0
  3
Center (.5x) ___ _ ___ _ ___ _ ___ _ ___ _ ___
 72
    65
 73
     4
 40
28.575
 49
19.05
 74
     0
 49
-3.175
 74
     0
 49
3.175
 74
     0
 49
-3.175
 74
     0
  0
ENDTAB
  0
TABLE
  2
LAYER
  5
2
102
{ACAD_XDICTIONARY
360
29EA
102
}
330
0
100
AcDbSymbolTable
 70
    14
  0
LAYER
  5
F
330
2
100
AcDbSymbolTableRecord
100
AcDbLayerTableRecord
  2
0
 70
     0
 62
     7
  6
CONTINUOUS
  0
LAYER
  5
61
330
2
100
AcDbSymbolTableRecord
100
AcDbLayerTableRecord
  2
図枠太線
 70
     0
 62
   251
  6
CONTINUOUS
  0
LAYER
  5
62
330
2
100
AcDbSymbolTableRecord
100
AcDbLayerTableRecord
  2
図枠細線
 70
     0
 62
   252
  6
CONTINUOUS
  0
LAYER
  5
63
330
2
100
AcDbSymbolTableRecord
100
AcDbLayerTableRecord
  2
図枠ロゴマーク
 70
     0
 62
   253
  6
CONTINUOUS
  0
LAYER
  5
1EF
330
2
100
AcDbSymbolTableRecord
100
AcDbLayerTableRecord
  2
外形線
 70
     0
 62
     7
  6
CONTINUOUS
  0
LAYER
  5
1F0
330
2
100
AcDbSymbolTableRecord
100
AcDbLayerTableRecord
  2
寸法線
 70
     0
 62
     1
  6
CONTINUOUS
  0
LAYER
  5
1F1
330
2
100
AcDbSymbolTableRecord
100
AcDbLayerTableRecord
  2
中心線
 70
     0
 62
     4
  6
CENTER
  0
LAYER
  5
1F4
330
2
100
AcDbSymbolTableRecord
100
AcDbLayerTableRecord
  2
DEFPOINTS
 70
     0
 62
     7
  6
CONTINUOUS
  0
LAYER
  5
2AA2
330
2
100
AcDbSymbolTableRecord
100
AcDbLayerTableRecord
  2
下書線
 70
     0
 62
     2
  6
CONTINUOUS
  0
LAYER
  5
2AA3
330
2
100
AcDbSymbolTableRecord
100
AcDbLayerTableRecord
  2
隠れ線
 70
     0
 62
     3
  6
DASHED
  0
LAYER
  5
2AA4
330
2
100
AcDbSymbolTableRecord
100
AcDbLayerTableRecord
  2
細線
 70
     0
 62
     6
  6
CONTINUOUS
  0
LAYER
  5
2AA5
330
2
100
AcDbSymbolTableRecord
100
AcDbLayerTableRecord
  2
太線
 70
     0
 62
   190
  6
CONTINUOUS
  0
LAYER
  5
2B2A
330
2
100
AcDbSymbolTableRecord
100
AcDbLayerTableRecord
  2
LAY-1
 70
     0
 62
     7
  6
CONTINUOUS
  0
LAYER
  5
3AE5
330
2
100
AcDbSymbolTableRecord
100
AcDbLayerTableRecord
  2
寸法線_文字
 70
     0
 62
     1
  6
CONTINUOUS
  0
ENDTAB
  0
TABLE
  2
STYLE
  5
3
330
0
100
AcDbSymbolTable
 70
     3
  0
STYLE
  5
10
330
3
100
AcDbSymbolTableRecord
100
AcDbTextStyleTableRecord
  2
STANDARD
 70
     0
 40
0.0
 41
1.0
 50
0.0
 71
     0
 42
2.333873885063
  3
ISOCP
  4
bigfont.shx
  0
STYLE
  5
64
330
3
100
AcDbSymbolTableRecord
100
AcDbTextStyleTableRecord
  2
EXCADSTD
 70
     0
 40
0.0
 41
1.0
 50
0.0
 71
     0
 42
0.2
  3
monotxt
  4
bigfont
  0
STYLE
  5
2B2B
330
3
100
AcDbSymbolTableRecord
100
AcDbTextStyleTableRecord
  2
EXCADVERT
 70
     4
 40
0.0
 41
1.0
 50
0.0
 71
     0
 42
0.286885
  3
monotxt
  4
bigfont
  0
ENDTAB
  0
TABLE
  2
VIEW
  5
6
330
0
100
AcDbSymbolTable
 70
     0
  0
ENDTAB
  0
TABLE
  2
UCS
  5
7
330
0
100
AcDbSymbolTable
 70
     0
  0
ENDTAB
  0
TABLE
  2
APPID
  5
9
330
0
100
AcDbSymbolTable
 70
     3
  0
APPID
  5
11
330
9
100
AcDbSymbolTableRecord
100
AcDbRegAppTableRecord
  2
ACAD
 70
     0
  0
APPID
  5
3A6C
330
9
100
AcDbSymbolTableRecord
100
AcDbRegAppTableRecord
  2
ACADANNOTATIVE
 70
     0
  0
APPID
  5
3E0E
330
9
100
AcDbSymbolTableRecord
100
AcDbRegAppTableRecord
  2
ACAD_MLEADERVER
 70
     0
  0
ENDTAB
  0
TABLE
  2
DIMSTYLE
  5
A
330
0
100
AcDbSymbolTable
 70
     2
  0
DIMSTYLE
105
1D
330
A
100
AcDbSymbolTableRecord
100
AcDbDimStyleTableRecord
  2
STANDARD
 70
     0
  3

  4

  5

  6

  7

 40
1.0
 41
0.18
 42
0.0625
 43
0.38
 44
0.18
 45
0.0
 46
0.0
 47
0.0
 48
0.0
140
0.18
141
0.09
142
0.0
143
25.4
144
1.0
145
0.0
146
1.0
147
0.09
 71
     0
 72
     0
 73
     1
 74
     1
 75
     0
 76
     0
 77
     0
 78
     0
170
     0
171
     2
172
     0
173
     0
174
     0
175
     0
176
     0
177
     0
178
     0
270
     2
271
     4
272
     4
273
     2
274
     2
340
10
275
     0
280
     0
281
     0
282
     0
283
     1
284
     0
285
     0
286
     0
287
     3
288
     0
  0
DIMSTYLE
105
24
102
{ACAD_REACTORS
330
3452
330
347D
330
34B8
330
34C5
330
34ED
330
36AC
330
36DC
330
36EB
330
3D7B
102
}
330
A
100
AcDbSymbolTableRecord
100
AcDbDimStyleTableRecord
  2
ISO-25
 70
     0
  3

  4

  5

  6

  7

 40
1.0
 41
2.5
 42
0.625
 43
3.75
 44
1.25
 45
0.0
 46
0.0
 47
0.0
 48
0.0
140
2.5
141
2.5
142
0.0
143
0.0394
144
1.0
145
1.0
146
1.0
147
0.625
 71
     0
 72
     0
 73
     1
 74
     0
 75
     0
 76
     0
 77
     1
 78
     8
170
     0
171
     2
172
     1
173
     0
174
     0
175
     0
176
     0
177
     0
178
     0
270
     2
271
     4
272
     4
273
     2
274
     2
340
10
275
     0
280
     0
281
     0
282
     0
283
     1
284
     0
285
     0
286
     0
287
     3
288
     0
  0
ENDTAB
  0
TABLE
  2
BLOCK_RECORD
  5
1
330
0
100
AcDbSymbolTable
 70
    45
  0
BLOCK_RECORD
  5
1A
330
1
100
AcDbSymbolTableRecord
100
AcDbBlockTableRecord
  2
*MODEL_SPACE
  0
BLOCK_RECORD
  5
28FB
330
1
100
AcDbSymbolTableRecord
100
AcDbBlockTableRecord
  2
*PAPER_SPACE
  0
BLOCK_RECORD
  5
65
330
1
100
AcDbSymbolTableRecord
100
AcDbBlockTableRecord
  2
A$C3392
  0
BLOCK_RECORD
  5
29BF
330
1
100
AcDbSymbolTableRecord
100
AcDbBlockTableRecord
  2
A4横用_タイトル
1001
ACAD
1000
DesignCenter Data
1002
{
1070
     1
1070
     4
1002
}
  0
BLOCK_RECORD
  5
29F4
330
1
100
AcDbSymbolTableRecord
100
AcDbBlockTableRecord
  2
A4縦用_タイトル
1001
ACAD
1000
DesignCenter Data
1002
{
1070
     1
1070
     4
1002
}
  0
BLOCK_RECORD
  5
2A32
330
1
100
AcDbSymbolTableRecord
100
AcDbBlockTableRecord
  2
A3横用_タイトル
1001
ACAD
1000
DesignCenter Data
1002
{
1070
     1
1070
     4
1002
}
  0
BLOCK_RECORD
  5
2A6C
330
1
100
AcDbSymbolTableRecord
100
AcDbBlockTableRecord
  2
A3縦用_タイトル
1001
ACAD
1000
DesignCenter Data
1002
{
1070
     1
1070
     4
1002
}
  0
BLOCK_RECORD
  5
2AF4
330
1
100
AcDbSymbolTableRecord
100
AcDbBlockTableRecord
  2
_OPEN30
  0
BLOCK_RECORD
  5
2F3F
330
1
100
AcDbSymbolTableRecord
100
AcDbBlockTableRecord
  2
ケース外形図_HL-400
  0
BLOCK_RECORD
  5
3453
330
1
100
AcDbSymbolTableRecord
100
AcDbBlockTableRecord
  2
*D8
  0
BLOCK_RECORD
  5
347E
330
1
100
AcDbSymbolTableRecord
100
AcDbBlockTableRecord
  2
*D9
  0
BLOCK_RECORD
  5
34B9
330
1
100
AcDbSymbolTableRecord
100
AcDbBlockTableRecord
  2
*D10
  0
BLOCK_RECORD
  5
34C6
330
1
100
AcDbSymbolTableRecord
100
AcDbBlockTableRecord
  2
*D11
  0
BLOCK_RECORD
  5
34EE
330
1
100
AcDbSymbolTableRecord
100
AcDbBlockTableRecord
  2
*D12
  0
BLOCK_RECORD
  5
36AD
330
1
100
AcDbSymbolTableRecord
100
AcDbBlockTableRecord
  2
*D13
  0
BLOCK_RECORD
  5
36DD
330
1
100
AcDbSymbolTableRecord
100
AcDbBlockTableRecord
  2
*D14
  0
BLOCK_RECORD
  5
36EC
330
1
100
AcDbSymbolTableRecord
100
AcDbBlockTableRecord
  2
*D15
  0
BLOCK_RECORD
  5
3B3E
330
1
100
AcDbSymbolTableRecord
100
AcDbBlockTableRecord
  2
_NONE
  0
BLOCK_RECORD
  5
3D87
330
1
100
AcDbSymbolTableRecord
100
AcDbBlockTableRecord
  2
*D43
  0
ENDTAB
  0
ENDSEC
  0
SECTION
  2
BLOCKS
  0
BLOCK
  5
1B
330
1A
100
AcDbEntity
  8
0
100
AcDbBlockBegin
  2
*MODEL_SPACE
 70
     0
 10
0.0
 20
0.0
 30
0.0
  3
*MODEL_SPACE
  1

  0
ENDBLK
  5
1C
330
1A
100
AcDbEntity
  8
0
100
AcDbBlockEnd
  0
BLOCK
  5
28FD
330
28FB
100
AcDbEntity
 67
     1
  8
0
 48
10.0
100
AcDbBlockBegin
  2
*PAPER_SPACE
 70
     0
 10
0.0
 20
0.0
 30
0.0
  3
*PAPER_SPACE
  1

  0
ENDBLK
  5
28FE
330
28FB
100
AcDbEntity
 67
     1
  8
0
 48
10.0
100
AcDbBlockEnd
  0
BLOCK
  5
93
330
65
100
AcDbEntity
  8
0
100
AcDbBlockBegin
  2
A$C3392
 70
     0
 10
0.0
 20
0.0
 30
0.0
  3
A$C3392
  1
A$C3392
  0
LINE
  5
66
330
65
100
AcDbEntity
  8
図枠太線
  6
CONTINUOUS
100
AcDbLine
 10
211.858584505185
 20
30.927375675439
 30
0.0
 11
211.858584505185
 21
0.927375675439
 31
0.0
  0
LINE
  5
67
330
65
100
AcDbEntity
  8
図枠細線
  6
CONTINUOUS
100
AcDbLine
 10
231.858592505185
 20
15.927377675439
 30
0.0
 11
287.858592505185
 21
15.927375675439
 31
0.0
  0
LINE
  5
68
330
65
100
AcDbEntity
  8
図枠細線
  6
CONTINUOUS
100
AcDbLine
 10
211.858592505185
 20
15.927377675439
 30
0.0
 11
231.858592505185
 21
15.927377675439
 31
0.0
  0
LINE
  5
69
330
65
100
AcDbEntity
  8
図枠太線
  6
CONTINUOUS
 62
   251
100
AcDbLine
 10
1.858584505185
 20
0.927375675439
 30
0.0
 11
1.858584505185
 21
275.927375675439
 31
0.0
  0
TEXT
  5
6A
330
65
100
AcDbEntity
  8
図枠細線
  6
CONTINUOUS
 62
   252
100
AcDbText
 10
351.358592505185
 20
28.427377675439
 30
0.0
 40
2.0
  1
ＴＩＴＬＥ
 41
0.903614457831
  7
EXCADSTD
 72
     5
 11
361.358592505185
 21
28.427377675439
 31
0.0
100
AcDbText
  0
TEXT
  5
6B
330
65
100
AcDbEntity
  8
図枠細線
  6
CONTINUOUS
 62
   252
100
AcDbText
 10
345.358592505185
 20
28.427377675439
 30
0.0
 40
2.0
  1
名称
 41
1.171875
  7
EXCADSTD
 72
     5
 11
350.358592505185
 21
28.427377675439
 31
0.0
100
AcDbText
  0
TEXT
  5
6C
330
65
100
AcDbEntity
  8
図枠細線
  6
CONTINUOUS
 62
   252
100
AcDbText
 10
274.358592505185
 20
25.927377675439
 30
0.0
 40
2.0
  1
ＤＲＡＷＮ
 41
0.882352941176
  7
EXCADSTD
 72
     5
 11
284.358592505185
 21
25.927377675439
 31
0.0
100
AcDbText
  0
TEXT
  5
6D
330
65
100
AcDbEntity
  8
図枠細線
  6
CONTINUOUS
 62
   252
100
AcDbText
 10
260.358592505185
 20
25.927377675439
 30
0.0
 40
2.0
  1
ＤＥＳＩＧＮＥＤ
 41
0.713043472041
  7
EXCADSTD
 72
     5
 11
273.478592390744
 21
25.927377675439
 31
0.0
100
AcDbText
  0
TEXT
  5
6E
330
65
100
AcDbEntity
  8
図枠細線
  6
CONTINUOUS
 62
   252
100
AcDbText
 10
246.358592505185
 20
25.927377675439
 30
0.0
 40
2.0
  1
ＣＨＥＣＫＥＤ
 41
0.831249989569
  7
EXCADSTD
 72
     5
 11
259.658592338292
 21
25.927377675439
 31
0.0
100
AcDbText
  0
TEXT
  5
6F
330
65
100
AcDbEntity
  8
図枠細線
  6
CONTINUOUS
 62
   252
100
AcDbText
 10
274.358592505185
 20
28.427377675439
 30
0.0
 40
2.0
  1
製図
 41
1.209677419355
  7
EXCADSTD
 72
     5
 11
279.358592505185
 21
28.427377675439
 31
0.0
100
AcDbText
  0
TEXT
  5
70
330
65
100
AcDbEntity
  8
図枠細線
  6
CONTINUOUS
 62
   252
100
AcDbText
 10
260.358592505185
 20
28.427377675439
 30
0.0
 40
2.0
  1
設計
 41
1.171875
  7
EXCADSTD
 72
     5
 11
265.358592505185
 21
28.427377675439
 31
0.0
100
AcDbText
  0
TEXT
  5
71
330
65
100
AcDbEntity
  8
図枠細線
  6
CONTINUOUS
 62
   252
100
AcDbText
 10
246.358592505185
 20
28.427377675439
 30
0.0
 40
2.0
  1
検図
 41
1.209677419355
  7
EXCADSTD
 72
     5
 11
251.358592505185
 21
28.427377675439
 31
0.0
100
AcDbText
  0
TEXT
  5
72
330
65
100
AcDbEntity
  8
図枠細線
  6
CONTINUOUS
 62
   252
100
AcDbText
 10
232.358592505185
 20
25.927377675439
 30
0.0
 40
2.0
  1
ＡＰＰＲＯＶＥＤ
 41
0.695652184279
  7
EXCADSTD
 72
     5
 11
245.15859269592
 21
25.927377675439
 31
0.0
100
AcDbText
  0
TEXT
  5
73
330
65
100
AcDbEntity
  8
図枠細線
  6
CONTINUOUS
 62
   252
100
AcDbText
 10
232.358592505185
 20
28.427377675439
 30
0.0
 40
2.0
  1
承認
 41
1.171875
  7
EXCADSTD
 72
     5
 11
237.358592505185
 21
28.427377675439
 31
0.0
100
AcDbText
  0
TEXT
  5
74
330
65
100
AcDbEntity
  8
図枠細線
  6
CONTINUOUS
 62
   252
100
AcDbText
 10
290.069888505185
 20
2.574868675439
 30
0.0
 40
3.5
  1
ＴＯＷＡ　ＳＥＩＤＥＮ　ＩＮＤＵＳＴＲＩＡＬ　ＣＯ．，ＬＴＤ．
 41
0.414568012377
  7
EXCADSTD
 72
     5
 11
342.692388209546
 21
2.574868675439
 31
0.0
100
AcDbText
  0
TEXT
  5
75
330
65
100
AcDbEntity
  8
図枠ロゴマーク
  6
CONTINUOUS
 62
   253
100
AcDbText
 10
290.107348505185
 20
7.519769675439
 30
0.0
 40
7.0
  1
東和制電工業株式会社
 41
0.639204545455
  7
EXCADSTD
 72
     5
 11
342.607348505185
 21
7.519769675439
 31
0.0
100
AcDbText
  0
TEXT
  5
76
330
65
100
AcDbEntity
  8
図枠細線
  6
CONTINUOUS
 62
   252
100
AcDbText
 10
232.499705505185
 20
5.759088675439
 30
0.0
 40
2.0
  1
ＰＲＯＪＥＣＴＩＯＮ
 41
0.754285710199
  7
EXCADSTD
 72
     5
 11
250.099705409817
 21
5.759088675439
 31
0.0
100
AcDbText
  0
TEXT
  5
77
330
65
100
AcDbEntity
  8
図枠細線
  6
CONTINUOUS
 62
   252
100
AcDbText
 10
232.574629505185
 20
8.681077675439
 30
0.0
 40
2.0
  1
ＴＨＩＲＤ　ＡＮＧＬＥ
 41
0.691099486738
  7
EXCADSTD
 72
     5
 11
250.174629767445
 21
8.681077675439
 31
0.0
100
AcDbText
  0
TEXT
  5
78
330
65
100
AcDbEntity
  8
図枠細線
  6
CONTINUOUS
 62
   252
100
AcDbText
 10
256.823999505185
 20
13.427377675439
 30
0.0
 40
2.0
  1
ＳＣＡＬＥ
 41
0.903614457831
  7
EXCADSTD
 72
     5
 11
266.823999505185
 21
13.427377675439
 31
0.0
100
AcDbText
  0
TEXT
  5
79
330
65
100
AcDbEntity
  8
図枠細線
  6
CONTINUOUS
 62
   252
100
AcDbText
 10
274.858592505185
 20
13.427377675439
 30
0.0
 40
2.0
  1
ＤＡＴＥ
 41
0.923076923077
  7
EXCADSTD
 72
     5
 11
282.858592505185
 21
13.427377675439
 31
0.0
100
AcDbText
  0
TEXT
  5
7A
330
65
100
AcDbEntity
  8
図枠細線
  6
CONTINUOUS
 62
   252
100
AcDbText
 10
356.358592505185
 20
13.427377675439
 30
0.0
 40
2.0
  1
ＤＲＧ．ＮＯ．
 41
0.9375
  7
EXCADSTD
 72
     5
 11
370.358592505185
 21
13.427377675439
 31
0.0
100
AcDbText
  0
TEXT
  5
7B
330
65
100
AcDbEntity
  8
図枠細線
  6
CONTINUOUS
 62
   252
100
AcDbText
 10
345.358592505185
 20
13.427377675439
 30
0.0
 40
2.0
  1
図面番号
 41
1.102941176471
  7
EXCADSTD
 72
     5
 11
355.358592505185
 21
13.427377675439
 31
0.0
100
AcDbText
  0
TEXT
  5
7C
330
65
100
AcDbEntity
  8
図枠細線
  6
CONTINUOUS
 62
   252
100
AcDbText
 10
269.358592505185
 20
13.427377675439
 30
0.0
 40
2.0
  1
日付
 41
1.171875
  7
EXCADSTD
 72
     5
 11
274.358592505185
 21
13.427377675439
 31
0.0
100
AcDbText
  0
TEXT
  5
7D
330
65
100
AcDbEntity
  8
図枠細線
  6
CONTINUOUS
 62
   252
100
AcDbText
 10
251.451512505185
 20
13.427377675439
 30
0.0
 40
2.0
  1
尺度
 41
1.171875
  7
EXCADSTD
 72
     5
 11
256.451512505185
 21
13.427377675439
 31
0.0
100
AcDbText
  0
TEXT
  5
7E
330
65
100
AcDbEntity
  8
図枠細線
  6
CONTINUOUS
 62
   252
100
AcDbText
 10
232.358592505185
 20
13.427377675439
 30
0.0
 40
2.0
  1
第三角法
 41
1.102941176471
  7
EXCADSTD
 72
     5
 11
242.358592505185
 21
13.427377675439
 31
0.0
100
AcDbText
  0
TEXT
  5
7F
330
65
100
AcDbEntity
  8
図枠細線
  6
CONTINUOUS
 62
   252
100
AcDbText
 10
212.358592505185
 20
28.427377675439
 30
0.0
 40
2.0
  1
ＮＯＴＥ
 41
0.923076923077
  7
EXCADSTD
 72
     5
 11
220.358592505185
 21
28.427377675439
 31
0.0
100
AcDbText
  0
LINE
  5
80
330
65
100
AcDbEntity
  8
図枠細線
  6
CONTINUOUS
 62
   252
100
AcDbLine
 10
287.858592505185
 20
23.427375675439
 30
0.0
 11
344.858592505185
 21
23.427375675439
 31
0.0
  0
LINE
  5
81
330
65
100
AcDbEntity
  8
図枠太線
  6
CONTINUOUS
 62
   251
100
AcDbLine
 10
287.858584505185
 20
15.927375675439
 30
0.0
 11
344.858592505185
 21
15.927375675439
 31
0.0
  0
LINE
  5
82
330
65
100
AcDbEntity
  8
図枠細線
  6
CONTINUOUS
 62
   252
100
AcDbLine
 10
344.858592505185
 20
15.927375675439
 30
0.0
 11
401.858584505185
 21
15.927375675439
 31
0.0
  0
LINE
  5
83
330
65
100
AcDbEntity
  8
図枠太線
  6
CONTINUOUS
 62
   251
100
AcDbLine
 10
344.858592505185
 20
0.927377675439
 30
0.0
 11
344.858592505185
 21
30.927375675439
 31
0.0
  0
LINE
  5
84
330
65
100
AcDbEntity
  8
図枠太線
  6
CONTINUOUS
 62
   251
100
AcDbLine
 10
287.858592505185
 20
0.927377675439
 30
0.0
 11
287.858592505185
 21
30.927375675439
 31
0.0
  0
LINE
  5
85
330
65
100
AcDbEntity
  8
図枠細線
  6
CONTINUOUS
 62
   252
100
AcDbLine
 10
268.858592505185
 20
0.927377675439
 30
0.0
 11
268.858592505185
 21
15.927375675439
 31
0.0
  0
LINE
  5
86
330
65
100
AcDbEntity
  8
図枠細線
  6
CONTINUOUS
 62
   252
100
AcDbLine
 10
250.858592505185
 20
0.927377675439
 30
0.0
 11
250.858592505185
 21
15.927375675439
 31
0.0
  0
LINE
  5
87
330
65
100
AcDbEntity
  8
図枠細線
  6
CONTINUOUS
 62
   252
100
AcDbLine
 10
273.858592505185
 20
30.927375675439
 30
0.0
 11
273.858592505185
 21
15.927375675439
 31
0.0
  0
LINE
  5
88
330
65
100
AcDbEntity
  8
図枠細線
  6
CONTINUOUS
 62
   252
100
AcDbLine
 10
259.858592505185
 20
30.927375675439
 30
0.0
 11
259.858592505185
 21
15.927375675439
 31
0.0
  0
LINE
  5
89
330
65
100
AcDbEntity
  8
図枠細線
  6
CONTINUOUS
 62
   252
100
AcDbLine
 10
245.858592505185
 20
30.927375675439
 30
0.0
 11
245.858592505185
 21
15.927375675439
 31
0.0
  0
LINE
  5
8A
330
65
100
AcDbEntity
  8
図枠太線
  6
CONTINUOUS
 62
   251
100
AcDbLine
 10
231.858592505185
 20
0.927377675439
 30
0.0
 11
231.858592505185
 21
30.927375675439
 31
0.0
  0
LINE
  5
8B
330
65
100
AcDbEntity
  8
図枠細線
  6
CONTINUOUS
 62
   252
100
AcDbLine
 10
211.858592505185
 20
25.927375675439
 30
0.0
 11
231.858592505185
 21
25.927375675439
 31
0.0
  0
LINE
  5
8C
330
65
100
AcDbEntity
  8
図枠細線
  6
CONTINUOUS
 62
   252
100
AcDbLine
 10
211.858592505185
 20
20.927375675439
 30
0.0
 11
231.858592505185
 21
20.927375675439
 31
0.0
  0
LINE
  5
8D
330
65
100
AcDbEntity
  8
図枠細線
  6
CONTINUOUS
 62
   252
100
AcDbLine
 10
211.858592505185
 20
10.927375675439
 30
0.0
 11
231.858592505185
 21
10.927375675439
 31
0.0
  0
LINE
  5
8E
330
65
100
AcDbEntity
  8
図枠細線
  6
CONTINUOUS
 62
   252
100
AcDbLine
 10
211.858592505185
 20
5.927377675439
 30
0.0
 11
231.858592505185
 21
5.927377675439
 31
0.0
  0
LINE
  5
8F
330
65
100
AcDbEntity
  8
図枠太線
  6
CONTINUOUS
 62
   251
100
AcDbLine
 10
211.858592505185
 20
30.927375675439
 30
0.0
 11
401.858584505185
 21
30.927375675439
 31
0.0
  0
LINE
  5
90
330
65
100
AcDbEntity
  8
図枠太線
  6
CONTINUOUS
 62
   251
100
AcDbLine
 10
1.858584505185
 20
275.927375675439
 30
0.0
 11
401.858584505185
 21
275.927375675439
 31
0.0
  0
LINE
  5
91
330
65
100
AcDbEntity
  8
図枠太線
  6
CONTINUOUS
 62
   251
100
AcDbLine
 10
401.858584505185
 20
0.927375675439
 30
0.0
 11
401.858584505185
 21
275.927375675439
 31
0.0
  0
LINE
  5
92
330
65
100
AcDbEntity
  8
図枠太線
  6
CONTINUOUS
 62
   251
100
AcDbLine
 10
1.858584505185
 20
0.927375675439
 30
0.0
 11
401.858584505185
 21
0.927375675439
 31
0.0
  0
ENDBLK
  5
94
330
65
100
AcDbEntity
  8
0
100
AcDbBlockEnd
  0
BLOCK
  5
29C0
330
29BF
100
AcDbEntity
  8
0
100
AcDbBlockBegin
  2
A4横用_タイトル
 70
     0
 10
0.0
 20
0.0
 30
0.0
  3
A4横用_タイトル
  1
A4横用_タイトル
  0
LINE
  5
29C1
330
29BF
100
AcDbEntity
  8
図枠細線
  6
CONTINUOUS
100
AcDbLine
 10
75.061011071051
 20
16.806607253358
 30
0.0
 11
144.061011071051
 21
16.806604789072
 31
0.0
  0
LINE
  5
29C2
330
29BF
100
AcDbEntity
  8
図枠細線
  6
CONTINUOUS
 62
   252
100
AcDbLine
 10
4.061011071051
 20
11.806606253358
 30
0.0
 11
75.061011071051
 21
11.806606253358
 31
0.0
  0
LINE
  5
29C3
330
29BF
100
AcDbEntity
  8
図枠細線
  6
CONTINUOUS
 62
   252
100
AcDbLine
 10
4.061011071051
 20
21.806606253358
 30
0.0
 11
75.061011071051
 21
21.806606253358
 31
0.0
  0
LINE
  5
29C4
330
29BF
100
AcDbEntity
  8
図枠細線
  6
CONTINUOUS
 62
   252
100
AcDbLine
 10
4.061011071051
 20
26.806606253358
 30
0.0
 11
75.061011071051
 21
26.806606253358
 31
0.0
  0
LINE
  5
29C5
330
29BF
100
AcDbEntity
  8
図枠細線
  6
CONTINUOUS
100
AcDbLine
 10
4.061011071051
 20
16.806608253358
 30
0.0
 11
75.061011071051
 21
16.806608253358
 31
0.0
  0
TEXT
  5
29C6
330
29BF
100
AcDbEntity
  8
図枠細線
  6
CONTINUOUS
 62
   252
100
AcDbText
 10
76.405475827713
 20
9.560308253358
 30
0.0
 40
2.0
  1
ＴＨＩＲＤ　ＡＮＧＬＥ
 41
0.691099486738
  7
EXCADSTD
 72
     5
 11
94.005476089973
 21
9.560308253358
 31
0.0
100
AcDbText
  0
TEXT
  5
29C7
330
29BF
100
AcDbEntity
  8
図枠細線
  6
CONTINUOUS
 62
   252
100
AcDbText
 10
76.705775880921
 20
14.306608253358
 30
0.0
 40
2.0
  1
第三角法
 41
1.102941176471
  7
EXCADSTD
 72
     5
 11
86.705775880921
 21
14.306608253358
 31
0.0
100
AcDbText
  0
TEXT
  5
29C8
330
29BF
100
AcDbEntity
  8
図枠細線
  6
CONTINUOUS
 62
   252
100
AcDbText
 10
76.705775880921
 20
26.806608253358
 30
0.0
 40
2.0
  1
ＡＰＰＲＯＶＥＤ
 41
0.695652184279
  7
EXCADSTD
 72
     5
 11
89.505776071656
 21
26.806608253358
 31
0.0
100
AcDbText
  0
TEXT
  5
29C9
330
29BF
100
AcDbEntity
  8
図枠細線
  6
CONTINUOUS
 62
   252
100
AcDbText
 10
76.705775880921
 20
29.306608253358
 30
0.0
 40
2.0
  1
承認
 41
1.171875
  7
EXCADSTD
 72
     5
 11
81.705775880921
 21
29.306608253358
 31
0.0
100
AcDbText
  0
LINE
  5
29CA
330
29BF
100
AcDbEntity
  8
図枠細線
  6
CONTINUOUS
 62
   252
100
AcDbLine
 10
98.061011071051
 20
31.806606253358
 30
0.0
 11
98.061011071051
 21
16.806606253358
 31
0.0
  0
TEXT
  5
29CB
330
29BF
100
AcDbEntity
  8
図枠細線
  6
CONTINUOUS
 62
   252
100
AcDbText
 10
104.216531119804
 20
14.306608253358
 30
0.0
 40
2.0
  1
ＳＣＡＬＥ
 41
0.903614457831
  7
EXCADSTD
 72
     5
 11
114.216531119804
 21
14.306608253358
 31
0.0
100
AcDbText
  0
TEXT
  5
29CC
330
29BF
100
AcDbEntity
  8
図枠細線
  6
CONTINUOUS
 62
   252
100
AcDbText
 10
98.844044119804
 20
14.306608253358
 30
0.0
 40
2.0
  1
尺度
 41
1.171875
  7
EXCADSTD
 72
     5
 11
103.844044119804
 21
14.306608253358
 31
0.0
100
AcDbText
  0
TEXT
  5
29CD
330
29BF
100
AcDbEntity
  8
図枠細線
  6
CONTINUOUS
 62
   252
100
AcDbText
 10
98.968727707497
 20
26.806608253358
 30
0.0
 40
2.0
  1
ＣＨＥＣＫＥＤ
 41
0.831249989569
  7
EXCADSTD
 72
     5
 11
112.268727540604
 21
26.806608253358
 31
0.0
100
AcDbText
  0
TEXT
  5
29CE
330
29BF
100
AcDbEntity
  8
図枠細線
  6
CONTINUOUS
 62
   252
100
AcDbText
 10
98.968727707497
 20
29.306608253358
 30
0.0
 40
2.0
  1
検図
 41
1.209677419355
  7
EXCADSTD
 72
     5
 11
103.968727707497
 21
29.306608253358
 31
0.0
100
AcDbText
  0
LINE
  5
29CF
330
29BF
100
AcDbEntity
  8
図枠細線
  6
CONTINUOUS
 62
   252
100
AcDbLine
 10
121.061011071051
 20
31.806606253358
 30
0.0
 11
121.061011071051
 21
16.806606253358
 31
0.0
  0
TEXT
  5
29D0
330
29BF
100
AcDbEntity
  8
図枠細線
  6
CONTINUOUS
 62
   252
100
AcDbText
 10
128.001465247253
 20
14.306608253358
 30
0.0
 40
2.0
  1
ＤＡＴＥ
 41
0.923076923077
  7
EXCADSTD
 72
     5
 11
136.001465247253
 21
14.306608253358
 31
0.0
100
AcDbText
  0
TEXT
  5
29D1
330
29BF
100
AcDbEntity
  8
図枠細線
  6
CONTINUOUS
 62
   252
100
AcDbText
 10
122.066415498841
 20
14.306608253358
 30
0.0
 40
2.0
  1
日付
 41
1.171875
  7
EXCADSTD
 72
     5
 11
127.066415498841
 21
14.306608253358
 31
0.0
100
AcDbText
  0
TEXT
  5
29D2
330
29BF
100
AcDbEntity
  8
図枠細線
  6
CONTINUOUS
 62
   252
100
AcDbText
 10
121.59429406571
 20
29.306608253358
 30
0.0
 40
2.0
  1
製図
 41
1.209677419355
  7
EXCADSTD
 72
     5
 11
126.59429406571
 21
29.306608253358
 31
0.0
100
AcDbText
  0
TEXT
  5
29D3
330
29BF
100
AcDbEntity
  8
図枠細線
  6
CONTINUOUS
 62
   252
100
AcDbText
 10
121.59429406571
 20
26.806608253358
 30
0.0
 40
2.0
  1
ＤＲＡＷＮ
 41
0.882352941176
  7
EXCADSTD
 72
     5
 11
131.59429406571
 21
26.806608253358
 31
0.0
100
AcDbText
  0
TEXT
  5
29D4
330
29BF
100
AcDbEntity
  8
図枠細線
  6
CONTINUOUS
 62
   252
100
AcDbText
 10
226.591229661348
 20
14.306608253358
 30
0.0
 40
2.0
  1
ＤＲＧ．ＮＯ．
 41
0.9375
  7
EXCADSTD
 72
     5
 11
240.591229661348
 21
14.306608253358
 31
0.0
100
AcDbText
  0
LINE
  5
29D5
330
29BF
100
AcDbEntity
  8
図枠太線
  6
CONTINUOUS
 62
   251
100
AcDbLine
 10
144.061003071051
 20
16.806606253358
 30
0.0
 11
214.061011071051
 21
16.806606253358
 31
0.0
  0
LINE
  5
29D6
330
29BF
100
AcDbEntity
  8
図枠細線
  6
CONTINUOUS
 62
   252
100
AcDbLine
 10
144.061011071051
 20
24.306606253358
 30
0.0
 11
214.061011071051
 21
24.306606253358
 31
0.0
  0
TEXT
  5
29D7
330
29BF
100
AcDbEntity
  8
図枠ロゴマーク
  6
CONTINUOUS
 62
   253
100
AcDbText
 10
146.433776781596
 20
8.399000253358
 30
0.0
 40
7.0
  1
東和制電工業株式会社
 41
0.80361088462
  7
EXCADSTD
 72
     5
 11
212.437017438349
 21
8.399000253358
 31
0.0
100
AcDbText
  0
TEXT
  5
29D8
330
29BF
100
AcDbEntity
  8
図枠細線
  6
CONTINUOUS
 62
   252
100
AcDbText
 10
215.156179912936
 20
14.306608253358
 30
0.0
 40
2.0
  1
図面番号
 41
1.102941176471
  7
EXCADSTD
 72
     5
 11
225.156179912936
 21
14.306608253358
 31
0.0
100
AcDbText
  0
TEXT
  5
29D9
330
29BF
100
AcDbEntity
  8
図枠細線
  6
CONTINUOUS
 62
   252
100
AcDbText
 10
221.591229661348
 20
29.306608253358
 30
0.0
 40
2.0
  1
ＴＩＴＬＥ
 41
0.903614457831
  7
EXCADSTD
 72
     5
 11
231.591229661348
 21
29.306608253358
 31
0.0
100
AcDbText
  0
TEXT
  5
29DA
330
29BF
100
AcDbEntity
  8
図枠細線
  6
CONTINUOUS
 62
   252
100
AcDbText
 10
215.156179912936
 20
29.306608253358
 30
0.0
 40
2.0
  1
名称
 41
1.171875
  7
EXCADSTD
 72
     5
 11
220.156179912936
 21
29.306608253358
 31
0.0
100
AcDbText
  0
LINE
  5
29DB
330
29BF
100
AcDbEntity
  8
図枠太線
  6
CONTINUOUS
 62
   251
100
AcDbLine
 10
4.061011071051
 20
1.806608253358
 30
0.0
 11
284.061011071051
 21
1.806608253358
 31
0.0
  0
LINE
  5
29DC
330
29BF
100
AcDbEntity
  8
図枠細線
  6
CONTINUOUS
 62
   252
100
AcDbLine
 10
4.061011071051
 20
6.806608253358
 30
0.0
 11
75.061011071051
 21
6.806608253358
 31
0.0
  0
LINE
  5
29DD
330
29BF
100
AcDbEntity
  8
図枠太線
  6
CONTINUOUS
 62
   251
100
AcDbLine
 10
75.061011071051
 20
1.806608253358
 30
0.0
 11
75.061011071051
 21
31.806606253358
 31
0.0
  0
TEXT
  5
29DE
330
29BF
100
AcDbEntity
  8
図枠細線
  6
CONTINUOUS
 62
   252
100
AcDbText
 10
76.330551827713
 20
6.638319253358
 30
0.0
 40
2.0
  1
ＰＲＯＪＥＣＴＩＯＮ
 41
0.754285710199
  7
EXCADSTD
 72
     5
 11
93.930551732346
 21
6.638319253358
 31
0.0
100
AcDbText
  0
LINE
  5
29DF
330
29BF
100
AcDbEntity
  8
図枠細線
  6
CONTINUOUS
 62
   252
100
AcDbLine
 10
98.061011071051
 20
1.806606931929
 30
0.0
 11
98.061011071051
 21
16.806604931929
 31
0.0
  0
LINE
  5
29E0
330
29BF
100
AcDbEntity
  8
図枠細線
  6
CONTINUOUS
 62
   252
100
AcDbLine
 10
121.061011071051
 20
1.806607574787
 30
0.0
 11
121.061011071051
 21
16.806605574787
 31
0.0
  0
LINE
  5
29E1
330
29BF
100
AcDbEntity
  8
図枠太線
  6
CONTINUOUS
 62
   251
100
AcDbLine
 10
284.061011071051
 20
1.806608253358
 30
0.0
 11
284.061011071051
 21
31.806606253358
 31
0.0
  0
LINE
  5
29E2
330
29BF
100
AcDbEntity
  8
図枠細線
  6
CONTINUOUS
 62
   252
100
AcDbLine
 10
214.061011071051
 20
16.806606253358
 30
0.0
 11
284.061011071051
 21
16.806606253358
 31
0.0
  0
TEXT
  5
29E3
330
29BF
100
AcDbEntity
  8
図枠細線
  6
CONTINUOUS
 62
   252
100
AcDbText
 10
146.199593676182
 20
3.454099253358
 30
0.0
 40
3.5
  1
ＴＯＷＡ　ＳＥＩＤＥＮ　ＩＮＤＵＳＴＲＩＡＬ　ＣＯ．，ＬＴＤ．
 41
0.528937826907
  7
EXCADSTD
 72
     5
 11
213.339435171588
 21
3.454099253358
 31
0.0
100
AcDbText
  0
LINE
  5
29E4
330
29BF
100
AcDbEntity
  8
図枠太線
  6
CONTINUOUS
 62
   251
100
AcDbLine
 10
144.061011071051
 20
1.806608253358
 30
0.0
 11
144.061011071051
 21
31.806606253358
 31
0.0
  0
LINE
  5
29E5
330
29BF
100
AcDbEntity
  8
図枠太線
  6
CONTINUOUS
 62
   251
100
AcDbLine
 10
214.061011071051
 20
1.806608253358
 30
0.0
 11
214.061011071051
 21
31.806606253358
 31
0.0
  0
MTEXT
  5
29E6
330
29BF
100
AcDbEntity
  8
図枠太線
100
AcDbMText
 10
5.064337346478
 20
31.010982137407
 30
0.0
 40
2.5
 41
8.67856098472
 71
     1
 72
     5
  1
{\Fmonotxt.shx,bigfont.shx|c128;図暦}
  0
LINE
  5
29E7
330
29BF
100
AcDbEntity
  8
図枠太線
  6
CONTINUOUS
 62
   251
100
AcDbLine
 10
4.061011071051
 20
1.806608253358
 30
0.0
 11
4.061011071051
 21
31.806606253358
 31
0.0
  0
TEXT
  5
29E8
330
29BF
100
AcDbEntity
  8
図枠細線
 48
10.0
100
AcDbText
 10
12.260817420402
 20
28.625419626495
 30
0.0
 40
2.0
  1
CHANGE NOTICE
100
AcDbText
  0
ENDBLK
  5
29E9
330
29BF
100
AcDbEntity
  8
0
100
AcDbBlockEnd
  0
BLOCK
  5
29F5
330
29F4
100
AcDbEntity
  8
0
100
AcDbBlockBegin
  2
A4縦用_タイトル
 70
     0
 10
0.0
 20
0.0
 30
0.0
  3
A4縦用_タイトル
  1
A4縦用_タイトル
  0
LINE
  5
29F6
330
29F4
100
AcDbEntity
  8
図枠太線
  6
CONTINUOUS
 62
   251
100
AcDbLine
 10
2.368253864267
 20
4.525433224584
 30
0.0
 11
192.368245864267
 21
4.525433224584
 31
0.0
  0
LINE
  5
29F7
330
29F4
100
AcDbEntity
  8
図枠太線
  6
CONTINUOUS
 62
   251
100
AcDbLine
 10
78.368245864267
 20
19.525431224584
 30
0.0
 11
135.368253864267
 21
19.525431224584
 31
0.0
  0
LINE
  5
29F8
330
29F4
100
AcDbEntity
  8
図枠細線
  6
CONTINUOUS
 62
   252
100
AcDbLine
 10
78.368253864267
 20
27.025431224584
 30
0.0
 11
135.368253864267
 21
27.025431224584
 31
0.0
  0
TEXT
  5
29F9
330
29F4
100
AcDbEntity
  8
図枠ロゴマーク
  6
CONTINUOUS
 62
   253
100
AcDbText
 10
80.617009864267
 20
11.117825224584
 30
0.0
 40
7.0
  1
東和制電工業株式会社
 41
0.639204545455
  7
EXCADSTD
 72
     5
 11
133.117009864267
 21
11.117825224584
 31
0.0
100
AcDbText
  0
TEXT
  5
29FA
330
29F4
100
AcDbEntity
  8
図枠細線
  6
CONTINUOUS
 62
   252
100
AcDbText
 10
80.579549864267
 20
6.172924224584
 30
0.0
 40
3.5
  1
ＴＯＷＡ　ＳＥＩＤＥＮ　ＩＮＤＵＳＴＲＩＡＬ　ＣＯ．，ＬＴＤ．
 41
0.414568012377
  7
EXCADSTD
 72
     5
 11
133.202049568628
 21
6.172924224584
 31
0.0
100
AcDbText
  0
LINE
  5
29FB
330
29F4
100
AcDbEntity
  8
図枠太線
  6
CONTINUOUS
 62
   251
100
AcDbLine
 10
2.368253864267
 20
4.525433224584
 30
0.0
 11
2.368253864267
 21
34.525431224584
 31
0.0
  0
TEXT
  5
29FC
330
29F4
100
AcDbEntity
  8
図枠細線
  6
CONTINUOUS
 62
   252
100
AcDbText
 10
22.504308136501
 20
12.279133224584
 30
0.0
 40
2.0
  1
ＴＨＩＲＤ　ＡＮＧＬＥ
 41
0.691099486738
  7
EXCADSTD
 72
     5
 11
40.104308398762
 21
12.279133224584
 31
0.0
100
AcDbText
  0
TEXT
  5
29FD
330
29F4
100
AcDbEntity
  8
図枠細線
  6
CONTINUOUS
 62
   252
100
AcDbText
 10
22.429384136501
 20
9.357144224584
 30
0.0
 40
2.0
  1
ＰＲＯＪＥＣＴＩＯＮ
 41
0.754285710199
  7
EXCADSTD
 72
     5
 11
40.029384041134
 21
9.357144224584
 31
0.0
100
AcDbText
  0
LINE
  5
29FE
330
29F4
100
AcDbEntity
  8
図枠細線
  6
CONTINUOUS
100
AcDbLine
 10
22.368253864267
 20
19.525433224584
 30
0.0
 11
78.368253864267
 21
19.525431224584
 31
0.0
  0
TEXT
  5
29FF
330
29F4
100
AcDbEntity
  8
図枠細線
  6
CONTINUOUS
 62
   252
100
AcDbText
 10
22.868253864267
 20
17.025433224584
 30
0.0
 40
2.0
  1
第三角法
 41
1.102941176471
  7
EXCADSTD
 72
     5
 11
32.868253864267
 21
17.025433224584
 31
0.0
100
AcDbText
  0
TEXT
  5
2A00
330
29F4
100
AcDbEntity
  8
図枠細線
  6
CONTINUOUS
 62
   252
100
AcDbText
 10
22.868253864267
 20
29.525433224584
 30
0.0
 40
2.0
  1
ＡＰＰＲＯＶＥＤ
 41
0.695652184279
  7
EXCADSTD
 72
     5
 11
35.668254055002
 21
29.525433224584
 31
0.0
100
AcDbText
  0
LINE
  5
2A01
330
29F4
100
AcDbEntity
  8
図枠細線
  6
CONTINUOUS
 62
   252
100
AcDbLine
 10
2.368253864267
 20
9.525433224584
 30
0.0
 11
22.368253864267
 21
9.525433224584
 31
0.0
  0
LINE
  5
2A02
330
29F4
100
AcDbEntity
  8
図枠細線
  6
CONTINUOUS
 62
   252
100
AcDbLine
 10
2.368253864267
 20
14.525431224584
 30
0.0
 11
22.368253864267
 21
14.525431224584
 31
0.0
  0
LINE
  5
2A03
330
29F4
100
AcDbEntity
  8
図枠細線
  6
CONTINUOUS
 62
   252
100
AcDbLine
 10
2.368253864267
 20
24.525431224584
 30
0.0
 11
22.368253864267
 21
24.525431224584
 31
0.0
  0
LINE
  5
2A04
330
29F4
100
AcDbEntity
  8
図枠細線
  6
CONTINUOUS
 62
   252
100
AcDbLine
 10
2.368253864267
 20
29.525431224584
 30
0.0
 11
22.368253864267
 21
29.525431224584
 31
0.0
  0
LINE
  5
2A05
330
29F4
100
AcDbEntity
  8
図枠細線
  6
CONTINUOUS
100
AcDbLine
 10
2.368253864267
 20
19.525433224584
 30
0.0
 11
22.368253864267
 21
19.525433224584
 31
0.0
  0
TEXT
  5
2A06
330
29F4
100
AcDbEntity
  8
図枠細線
  6
CONTINUOUS
 62
   252
100
AcDbText
 10
2.868253864267
 20
32.025433224584
 30
0.0
 40
2.0
  1
ＮＯＴＥ
 41
0.923076923077
  7
EXCADSTD
 72
     5
 11
10.868253864267
 21
32.025433224584
 31
0.0
100
AcDbText
  0
LINE
  5
2A07
330
29F4
100
AcDbEntity
  8
図枠太線
  6
CONTINUOUS
 62
   251
100
AcDbLine
 10
22.368253864267
 20
4.525433224584
 30
0.0
 11
22.368253864267
 21
34.525431224584
 31
0.0
  0
TEXT
  5
2A08
330
29F4
100
AcDbEntity
  8
図枠細線
  6
CONTINUOUS
 62
   252
100
AcDbText
 10
22.868253864267
 20
32.025433224584
 30
0.0
 40
2.0
  1
承認
 41
1.171875
  7
EXCADSTD
 72
     5
 11
27.868253864267
 21
32.025433224584
 31
0.0
100
AcDbText
  0
TEXT
  5
2A09
330
29F4
100
AcDbEntity
  8
図枠細線
  6
CONTINUOUS
 62
   252
100
AcDbText
 10
60.711709035982
 20
32.025433224584
 30
0.0
 40
2.0
  1
製図
 41
1.209677419355
  7
EXCADSTD
 72
     5
 11
65.711709035982
 21
32.025433224584
 31
0.0
100
AcDbText
  0
TEXT
  5
2A0A
330
29F4
100
AcDbEntity
  8
図枠細線
  6
CONTINUOUS
 62
   252
100
AcDbText
 10
60.711709035982
 20
29.525433224584
 30
0.0
 40
2.0
  1
ＤＲＡＷＮ
 41
0.882352941176
  7
EXCADSTD
 72
     5
 11
70.711709035982
 21
29.525433224584
 31
0.0
100
AcDbText
  0
TEXT
  5
2A0B
330
29F4
100
AcDbEntity
  8
図枠細線
  6
CONTINUOUS
 62
   252
100
AcDbText
 10
60.834891743877
 20
17.025433224584
 30
0.0
 40
2.0
  1
日付
 41
1.171875
  7
EXCADSTD
 72
     5
 11
65.834891743877
 21
17.025433224584
 31
0.0
100
AcDbText
  0
TEXT
  5
2A0C
330
29F4
100
AcDbEntity
  8
図枠細線
  6
CONTINUOUS
 62
   252
100
AcDbText
 10
47.333660864267
 20
17.025433224584
 30
0.0
 40
2.0
  1
ＳＣＡＬＥ
 41
0.903614457831
  7
EXCADSTD
 72
     5
 11
57.333660864267
 21
17.025433224584
 31
0.0
100
AcDbText
  0
TEXT
  5
2A0D
330
29F4
100
AcDbEntity
  8
図枠細線
  6
CONTINUOUS
 62
   252
100
AcDbText
 10
42.281425990082
 20
29.525433224584
 30
0.0
 40
2.0
  1
ＣＨＥＣＫＥＤ
 41
0.831249989569
  7
EXCADSTD
 72
     5
 11
55.581425823189
 21
29.525433224584
 31
0.0
100
AcDbText
  0
LINE
  5
2A0E
330
29F4
100
AcDbEntity
  8
図枠細線
  6
CONTINUOUS
 62
   252
100
AcDbLine
 10
40.968253864267
 20
34.525431224584
 30
0.0
 11
40.968253864267
 21
19.525431224584
 31
0.0
  0
LINE
  5
2A0F
330
29F4
100
AcDbEntity
  8
図枠細線
  6
CONTINUOUS
 62
   252
100
AcDbLine
 10
40.968253864267
 20
4.525433224584
 30
0.0
 11
40.968253864267
 21
19.525431224584
 31
0.0
  0
TEXT
  5
2A10
330
29F4
100
AcDbEntity
  8
図枠細線
  6
CONTINUOUS
 62
   252
100
AcDbText
 10
41.961173864267
 20
17.025433224584
 30
0.0
 40
2.0
  1
尺度
 41
1.171875
  7
EXCADSTD
 72
     5
 11
46.961173864267
 21
17.025433224584
 31
0.0
100
AcDbText
  0
TEXT
  5
2A11
330
29F4
100
AcDbEntity
  8
図枠細線
  6
CONTINUOUS
 62
   252
100
AcDbText
 10
42.281425990082
 20
32.025433224584
 30
0.0
 40
2.0
  1
検図
 41
1.209677419355
  7
EXCADSTD
 72
     5
 11
47.281425990082
 21
32.025433224584
 31
0.0
100
AcDbText
  0
LINE
  5
2A12
330
29F4
100
AcDbEntity
  8
図枠細線
  6
CONTINUOUS
 62
   252
100
AcDbLine
 10
59.768253864267
 20
34.525431224584
 30
0.0
 11
59.768253864267
 21
19.525431224584
 31
0.0
  0
LINE
  5
2A13
330
29F4
100
AcDbEntity
  8
図枠細線
  6
CONTINUOUS
 62
   252
100
AcDbLine
 10
59.768253864267
 20
4.525433224584
 30
0.0
 11
59.768253864267
 21
19.525431224584
 31
0.0
  0
LINE
  5
2A14
330
29F4
100
AcDbEntity
  8
図枠太線
  6
CONTINUOUS
 62
   251
100
AcDbLine
 10
78.368253864267
 20
4.525433224584
 30
0.0
 11
78.368253864267
 21
34.525431224584
 31
0.0
  0
TEXT
  5
2A15
330
29F4
100
AcDbEntity
  8
図枠細線
  6
CONTINUOUS
 62
   252
100
AcDbText
 10
66.334891743877
 20
17.025433224584
 30
0.0
 40
2.0
  1
ＤＡＴＥ
 41
0.923076923077
  7
EXCADSTD
 72
     5
 11
74.334891743877
 21
17.025433224584
 31
0.0
100
AcDbText
  0
LINE
  5
2A16
330
29F4
100
AcDbEntity
  8
図枠細線
  6
CONTINUOUS
 62
   252
100
AcDbLine
 10
135.368253864267
 20
19.525431224584
 30
0.0
 11
192.368245864267
 21
19.525431224584
 31
0.0
  0
TEXT
  5
2A17
330
29F4
100
AcDbEntity
  8
図枠細線
  6
CONTINUOUS
 62
   252
100
AcDbText
 10
141.868253864267
 20
32.025433224584
 30
0.0
 40
2.0
  1
ＴＩＴＬＥ
 41
0.903614457831
  7
EXCADSTD
 72
     5
 11
151.868253864267
 21
32.025433224584
 31
0.0
100
AcDbText
  0
LINE
  5
2A18
330
29F4
100
AcDbEntity
  8
図枠太線
  6
CONTINUOUS
 62
   251
100
AcDbLine
 10
135.368253864267
 20
4.525433224584
 30
0.0
 11
135.368253864267
 21
34.525431224584
 31
0.0
  0
TEXT
  5
2A19
330
29F4
100
AcDbEntity
  8
図枠細線
  6
CONTINUOUS
 62
   252
100
AcDbText
 10
135.868253864267
 20
17.025433224584
 30
0.0
 40
2.0
  1
図面番号
 41
1.102941176471
  7
EXCADSTD
 72
     5
 11
145.868253864267
 21
17.025433224584
 31
0.0
100
AcDbText
  0
TEXT
  5
2A1A
330
29F4
100
AcDbEntity
  8
図枠細線
  6
CONTINUOUS
 62
   252
100
AcDbText
 10
135.868253864267
 20
32.025433224584
 30
0.0
 40
2.0
  1
名称
 41
1.171875
  7
EXCADSTD
 72
     5
 11
140.868253864267
 21
32.025433224584
 31
0.0
100
AcDbText
  0
TEXT
  5
2A1B
330
29F4
100
AcDbEntity
  8
図枠細線
  6
CONTINUOUS
 62
   252
100
AcDbText
 10
146.868253864267
 20
17.025433224584
 30
0.0
 40
2.0
  1
ＤＲＧ．ＮＯ．
 41
0.9375
  7
EXCADSTD
 72
     5
 11
160.868253864267
 21
17.025433224584
 31
0.0
100
AcDbText
  0
LINE
  5
2A1C
330
29F4
100
AcDbEntity
  8
図枠太線
  6
CONTINUOUS
 62
   251
100
AcDbLine
 10
192.368245864267
 20
4.525433224584
 30
0.0
 11
192.368245864267
 21
34.525431224584
 31
0.0
  0
ENDBLK
  5
2A1D
330
29F4
100
AcDbEntity
  8
0
100
AcDbBlockEnd
  0
BLOCK
  5
2A33
330
2A32
100
AcDbEntity
  8
0
100
AcDbBlockBegin
  2
A3横用_タイトル
 70
     0
 10
0.0
 20
0.0
 30
0.0
  3
A3横用_タイトル
  1
A3横用_タイトル
  0
LINE
  5
2A34
330
2A32
100
AcDbEntity
  8
図枠細線
  6
CONTINUOUS
 62
   252
100
AcDbLine
 10
205.098414535793
 20
33.525959753527
 30
0.0
 11
305.098414535793
 21
33.525959753527
 31
0.0
  0
LINE
  5
2A35
330
2A32
100
AcDbEntity
  8
図枠太線
  6
CONTINUOUS
 62
   251
100
AcDbLine
 10
205.098414535793
 20
23.525959753527
 30
0.0
 11
305.098414535793
 21
23.525959753527
 31
0.0
  0
LINE
  5
2A36
330
2A32
100
AcDbEntity
  8
図枠細線
  6
CONTINUOUS
100
AcDbLine
 10
5.098414535793
 20
23.525959753527
 30
0.0
 11
105.098414535793
 21
23.525959753527
 31
0.0
  0
LINE
  5
2A37
330
2A32
100
AcDbEntity
  8
図枠細線
  6
CONTINUOUS
 62
   252
100
AcDbLine
 10
5.098414535793
 20
36.725957753527
 30
0.0
 11
105.098414535793
 21
36.725957753527
 31
0.0
  0
LINE
  5
2A38
330
2A32
100
AcDbEntity
  8
図枠細線
  6
CONTINUOUS
 62
   252
100
AcDbLine
 10
5.098414535793
 20
30.125957753527
 30
0.0
 11
105.098414535793
 21
30.125957753527
 31
0.0
  0
LINE
  5
2A39
330
2A32
100
AcDbEntity
  8
図枠細線
  6
CONTINUOUS
 62
   252
100
AcDbLine
 10
5.098414535793
 20
16.725959753527
 30
0.0
 11
105.098414535793
 21
16.725959753527
 31
0.0
  0
LINE
  5
2A3A
330
2A32
100
AcDbEntity
  8
図枠細線
  6
CONTINUOUS
 62
   252
100
AcDbLine
 10
5.098414535793
 20
10.125959753527
 30
0.0
 11
105.098414535793
 21
10.125959753527
 31
0.0
  0
LINE
  5
2A3B
330
2A32
100
AcDbEntity
  8
図枠細線
  6
CONTINUOUS
100
AcDbLine
 10
105.098414535793
 20
23.525961753527
 30
0.0
 11
205.098414535793
 21
23.525959753527
 31
0.0
  0
LINE
  5
2A3C
330
2A32
100
AcDbEntity
  8
図枠細線
  6
CONTINUOUS
 62
   252
100
AcDbLine
 10
138.398414535793
 20
43.525959753527
 30
0.0
 11
138.398414535793
 21
18.525957753527
 31
0.0
  0
LINE
  5
2A3D
330
2A32
100
AcDbEntity
  8
図枠細線
  6
CONTINUOUS
 62
   252
100
AcDbLine
 10
171.698414535793
 20
43.525959753527
 30
0.0
 11
171.698414535793
 21
18.525957753527
 31
0.0
  0
LINE
  5
2A3E
330
2A32
100
AcDbEntity
  8
図枠細線
  6
CONTINUOUS
 62
   252
100
AcDbLine
 10
305.098414535793
 20
23.525959753527
 30
0.0
 11
405.098414535793
 21
23.525959753527
 31
0.0
  0
TEXT
  5
2A3F
330
2A32
100
AcDbEntity
  8
図枠ロゴマーク
  6
CONTINUOUS
 62
   253
100
AcDbText
 10
206.102509212755
 20
13.294257570546
 30
0.0
 40
7.0
  1
東和制電工業株式会社
 50
0.016555220185
 41
1.186384129432
  7
EXCADSTD
 72
     5
 11
303.544188309143
 21
13.322412672217
 31
0.0
100
AcDbText
  0
MTEXT
  5
2A40
330
2A32
100
AcDbEntity
  8
図枠細線
100
AcDbMText
 10
6.356764112375
 20
41.976594175478
 30
0.0
 40
2.5
 41
49.938282706292
 71
     1
 72
     5
  1
{\Fmonotxt.shx,bigfont.shx|c128;図暦　CHANGE　NOTICE}
  0
MTEXT
  5
2A41
330
2A32
100
AcDbEntity
  8
図枠細線
 48
10.0
100
AcDbMText
 10
306.544114926828
 20
41.701835800934
 30
0.0
 40
2.5
 41
28.002809618823
 71
     1
 72
     5
  1
{\Fmonotxt.shx,bigfont.shx|c128;名称　TITLE}
  0
MTEXT
  5
2A42
330
2A32
100
AcDbEntity
  8
図枠細線
 48
10.0
100
AcDbMText
 10
307.329617114284
 20
21.606206797226
 30
0.0
 40
2.5
 41
24.385612216707
 71
     1
 72
     5
  1
{\Fmonotxt.shx,bigfont.shx|c128;図面番号\PDRG.　No.}
  0
MTEXT
  5
2A43
330
2A32
100
AcDbEntity
  8
図枠細線
 48
10.0
100
AcDbMText
 10
173.726349404609
 20
21.73680662198
 30
0.0
 40
2.5
 41
25.735090160813
 71
     1
 72
     5
  1
{\Fmonotxt.shx,bigfont.shx|c128;日付 DATE}
  0
MTEXT
  5
2A44
330
2A32
100
AcDbEntity
  8
図枠細線
 48
10.0
100
AcDbMText
 10
173.48708833982
 20
41.621592044998
 30
0.0
 40
2.5
 41
24.983741184205
 71
     1
 72
     5
  1
{\Fmonotxt.shx,bigfont.shx|c128;製図　DRAWN}
  0
MTEXT
  5
2A45
330
2A32
100
AcDbEntity
  8
図枠細線
 48
10.0
100
AcDbMText
 10
139.28009927741
 20
21.866713069868
 30
0.0
 40
2.5
 41
22.629632913243
 71
     1
 72
     5
  1
{\Fmonotxt.shx,bigfont.shx|c128;尺度　SCALE}
  0
MTEXT
  5
2A46
330
2A32
100
AcDbEntity
  8
図枠細線
 48
10.0
100
AcDbMText
 10
139.910091179835
 20
41.311840415554
 30
0.0
 40
2.5
 41
28.998753428368
 71
     1
 72
     5
  1
{\Fmonotxt.shx,bigfont.shx|c128;検図  CHECKED}
  0
MTEXT
  5
2A47
330
2A32
100
AcDbEntity
  8
図枠細線
 48
10.0
100
AcDbMText
 10
114.253294667728
 20
21.916124850174
 30
0.0
 40
3.0
 41
19.692400475383
 71
     1
 72
     5
  1
{\Fmonotxt.shx,bigfont.shx|c128;第三角法}
  0
MTEXT
  5
2A48
330
2A32
100
AcDbEntity
  8
図枠細線
 48
10.0
100
AcDbMText
 10
108.986959929915
 20
15.282880185837
 30
0.0
 40
2.5
 41
27.954882823547
 71
     1
 72
     5
  1
{\Fmonotxt.shx,bigfont.shx|c128;THIRD ANGLE\PPROJECTION}
  0
MTEXT
  5
2A49
330
2A32
100
AcDbEntity
  8
図枠細線
 48
10.0
100
AcDbMText
 10
106.319432640184
 20
41.511437145487
 30
0.0
 40
2.5
 41
28.233595265074
 71
     1
 72
     5
  1
{\Fmonotxt.shx,bigfont.shx|c128;承認 APPROVED}
  0
LINE
  5
2A4A
330
2A32
100
AcDbEntity
  8
図枠太線
  6
CONTINUOUS
 62
   251
100
AcDbLine
 10
5.098414535793
 20
3.525959753527
 30
0.0
 11
405.098414535793
 21
3.525959753527
 31
0.0
  0
LINE
  5
2A4B
330
2A32
100
AcDbEntity
  8
図枠太線
 48
10.0
100
AcDbLine
 10
5.098414535793
 20
3.525959753527
 30
0.0
 11
5.098414535793
 21
43.525959753527
 31
0.0
  0
LINE
  5
2A4C
330
2A32
100
AcDbEntity
  8
図枠太線
  6
CONTINUOUS
 62
   251
100
AcDbLine
 10
105.098414535793
 20
3.525959753527
 30
0.0
 11
105.098414535793
 21
43.525959753527
 31
0.0
  0
LINE
  5
2A4D
330
2A32
100
AcDbEntity
  8
図枠細線
  6
CONTINUOUS
 62
   252
100
AcDbLine
 10
138.398414535793
 20
3.525959753527
 30
0.0
 11
138.398414535793
 21
18.525957753527
 31
0.0
  0
LINE
  5
2A4E
330
2A32
100
AcDbEntity
  8
図枠細線
  6
CONTINUOUS
 62
   252
100
AcDbLine
 10
171.698414535793
 20
3.525959753527
 30
0.0
 11
171.698414535793
 21
18.525957753527
 31
0.0
  0
LINE
  5
2A4F
330
2A32
100
AcDbEntity
  8
図枠太線
  6
CONTINUOUS
 62
   251
100
AcDbLine
 10
205.098414535793
 20
3.525959753527
 30
0.0
 11
205.098414535793
 21
43.525959753527
 31
0.0
  0
LINE
  5
2A50
330
2A32
100
AcDbEntity
  8
図枠太線
 48
10.0
100
AcDbLine
 10
405.098414535793
 20
43.525959753527
 30
0.0
 11
405.098414535793
 21
3.525959753527
 31
0.0
  0
TEXT
  5
2A51
330
2A32
100
AcDbEntity
  8
図枠細線
  6
CONTINUOUS
 62
   252
100
AcDbText
 10
208.519754474572
 20
6.482358407285
 30
0.0
 40
3.5
  1
ＴＯＷＡ　ＳＥＩＤＥＮ　ＩＮＤＵＳＴＲＩＡＬ　ＣＯ．，ＬＴＤ．
 41
0.746656297509
  7
EXCADSTD
 72
     5
 11
303.295327171727
 21
6.482358407285
 31
0.0
100
AcDbText
  0
LINE
  5
2A52
330
2A32
100
AcDbEntity
  8
図枠太線
  6
CONTINUOUS
 62
   251
100
AcDbLine
 10
305.098414535793
 20
3.525959753527
 30
0.0
 11
305.098414535793
 21
43.525959753527
 31
0.0
  0
ENDBLK
  5
2A53
330
2A32
100
AcDbEntity
  8
0
100
AcDbBlockEnd
  0
BLOCK
  5
2A6D
330
2A6C
100
AcDbEntity
  8
0
100
AcDbBlockBegin
  2
A3縦用_タイトル
 70
     0
 10
0.0
 20
0.0
 30
0.0
  3
A3縦用_タイトル
  1
A3縦用_タイトル
  0
MTEXT
  5
2A6E
330
2A6C
100
AcDbEntity
  8
図枠細線
100
AcDbMText
 10
5.040804501593
 20
31.626098649005
 30
0.0
 40
2.5
 41
49.938282706292
 71
     1
 72
     5
  1
{\Fmonotxt.shx,bigfont.shx|c128;図暦　CHANGE　NOTICE}
  0
LINE
  5
2A6F
330
2A6C
100
AcDbEntity
  8
図枠太線
  6
CONTINUOUS
 62
   251
100
AcDbLine
 10
283.577871882961
 20
2.820844689254
 30
0.0
 11
283.577871882961
 21
32.820842689254
 31
0.0
  0
MTEXT
  5
2A70
330
2A6C
100
AcDbEntity
  8
図枠細線
 48
10.0
100
AcDbMText
 10
214.912458947454
 20
31.621488632308
 30
0.0
 40
2.5
 41
28.002809618823
 71
     1
 72
     5
  1
{\Fmonotxt.shx,bigfont.shx|c128;名称　TITLE}
  0
MTEXT
  5
2A71
330
2A6C
100
AcDbEntity
  8
図枠細線
 48
10.0
100
AcDbMText
 10
214.740030458938
 20
16.310225796722
 30
0.0
 40
2.5
 41
24.385612216707
 71
     1
 72
     5
  1
{\Fmonotxt.shx,bigfont.shx|c128;図面番号\PDRG.　No.}
  0
LINE
  5
2A72
330
2A6C
100
AcDbEntity
  8
図枠太線
  6
CONTINUOUS
 62
   251
100
AcDbLine
 10
213.577871882961
 20
2.820844689254
 30
0.0
 11
213.577871882961
 21
32.820842689254
 31
0.0
  0
LINE
  5
2A73
330
2A6C
100
AcDbEntity
  8
図枠太線
  6
CONTINUOUS
 62
   251
100
AcDbLine
 10
143.577871882961
 20
2.820844689254
 30
0.0
 11
143.577871882961
 21
32.820842689254
 31
0.0
  0
TEXT
  5
2A74
330
2A6C
100
AcDbEntity
  8
図枠細線
  6
CONTINUOUS
 62
   252
100
AcDbText
 10
145.716454488093
 20
4.468335689254
 30
0.0
 40
3.5
  1
ＴＯＷＡ　ＳＥＩＤＥＮ　ＩＮＤＵＳＴＲＩＡＬ　ＣＯ．，ＬＴＤ．
 41
0.528937826907
  7
EXCADSTD
 72
     5
 11
212.856295983498
 21
4.468335689254
 31
0.0
100
AcDbText
  0
TEXT
  5
2A75
330
2A6C
100
AcDbEntity
  8
図枠ロゴマーク
  6
CONTINUOUS
 62
   253
100
AcDbText
 10
145.950637593507
 20
9.413236689254
 30
0.0
 40
7.0
  1
東和制電工業株式会社
 41
0.80361088462
  7
EXCADSTD
 72
     5
 11
211.953878250259
 21
9.413236689254
 31
0.0
100
AcDbText
  0
LINE
  5
2A76
330
2A6C
100
AcDbEntity
  8
図枠細線
  6
CONTINUOUS
 62
   252
100
AcDbLine
 10
143.577871882961
 20
25.320842689254
 30
0.0
 11
213.577871882961
 21
25.320842689254
 31
0.0
  0
LINE
  5
2A77
330
2A6C
100
AcDbEntity
  8
図枠太線
  6
CONTINUOUS
 62
   251
100
AcDbLine
 10
143.577863882961
 20
17.820842689254
 30
0.0
 11
213.577871882961
 21
17.820842689254
 31
0.0
  0
LINE
  5
2A78
330
2A6C
100
AcDbEntity
  8
図枠細線
  6
CONTINUOUS
 62
   252
100
AcDbLine
 10
213.577871882961
 20
17.820842689254
 30
0.0
 11
283.577871882961
 21
17.820842689254
 31
0.0
  0
LINE
  5
2A79
330
2A6C
100
AcDbEntity
  8
図枠細線
  6
CONTINUOUS
 62
   252
100
AcDbLine
 10
120.577871882961
 20
32.820842689254
 30
0.0
 11
120.577871882961
 21
17.820842689254
 31
0.0
  0
MTEXT
  5
2A7A
330
2A6C
100
AcDbEntity
  8
図枠細線
 48
10.0
100
AcDbMText
 10
121.100885670352
 20
16.33785922638
 30
0.0
 40
2.0
 41
17.705978285068
 71
     1
 72
     5
  1
{\Fmonotxt.shx,bigfont.shx|c128;日付 DATE}
  0
MTEXT
  5
2A7B
330
2A6C
100
AcDbEntity
  8
図枠細線
 48
10.0
100
AcDbMText
 10
121.254842273491
 20
31.208993514037
 30
0.0
 40
2.0
 41
18.363799568758
 71
     1
 72
     5
  1
{\Fmonotxt.shx,bigfont.shx|c128;製図　DRAWN}
  0
LINE
  5
2A7C
330
2A6C
100
AcDbEntity
  8
図枠細線
  6
CONTINUOUS
 62
   252
100
AcDbLine
 10
97.577871882961
 20
32.820842689254
 30
0.0
 11
97.577871882961
 21
17.820842689254
 31
0.0
  0
MTEXT
  5
2A7D
330
2A6C
100
AcDbEntity
  8
図枠細線
 48
10.0
100
AcDbMText
 10
98.239734796872
 20
16.467764839281
 30
0.0
 40
2.0
 41
17.757791689903
 71
     1
 72
     5
  1
{\Fmonotxt.shx,bigfont.shx|c128;尺度　SCALE}
  0
MTEXT
  5
2A7E
330
2A6C
100
AcDbEntity
  8
図枠細線
 48
10.0
100
AcDbMText
 10
97.864744625154
 20
31.298433377664
 30
0.0
 40
2.0
 41
23.162655920976
 71
     1
 72
     5
  1
{\Fmonotxt.shx,bigfont.shx|c128;検図  CHECKED}
  0
LINE
  5
2A7F
330
2A6C
100
AcDbEntity
  8
図枠細線
  6
CONTINUOUS
 62
   252
100
AcDbLine
 10
97.577871882961
 20
2.820843367826
 30
0.0
 11
97.577871882961
 21
17.820841367826
 31
0.0
  0
LINE
  5
2A80
330
2A6C
100
AcDbEntity
  8
図枠細線
  6
CONTINUOUS
 62
   252
100
AcDbLine
 10
120.577871882961
 20
2.820844010683
 30
0.0
 11
120.577871882961
 21
17.820842010683
 31
0.0
  0
MTEXT
  5
2A81
330
2A6C
100
AcDbEntity
  8
図枠細線
 48
10.0
100
AcDbMText
 10
81.402399084102
 20
16.316484117426
 30
0.0
 40
2.0
 41
12.920322819369
 71
     1
 72
     5
  1
{\Fmonotxt.shx,bigfont.shx|c128;第三角法}
  0
MTEXT
  5
2A82
330
2A6C
100
AcDbEntity
  8
図枠細線
 48
10.0
100
AcDbMText
 10
75.736576535096
 20
11.080410931319
 30
0.0
 40
2.0
 41
21.072870671471
 71
     1
 72
     5
  1
{\Fmonotxt.shx,bigfont.shx|c128;THIRD ANGLE\PPROJECTION}
  0
LINE
  5
2A83
330
2A6C
100
AcDbEntity
  8
図枠太線
  6
CONTINUOUS
 62
   251
100
AcDbLine
 10
74.577871882961
 20
2.820844689254
 30
0.0
 11
74.577871882961
 21
32.820842689254
 31
0.0
  0
MTEXT
  5
2A84
330
2A6C
100
AcDbEntity
  8
図枠細線
 48
10.0
100
AcDbMText
 10
75.060214781573
 20
31.298434778555
 30
0.0
 40
2.0
 41
22.240928805967
 71
     1
 72
     5
  1
{\Fmonotxt.shx,bigfont.shx|c128;承認 APPROVED}
  0
LINE
  5
2A85
330
2A6C
100
AcDbEntity
  8
図枠細線
  6
CONTINUOUS
100
AcDbLine
 10
3.577871882961
 20
17.820844689254
 30
0.0
 11
74.577871882961
 21
17.820844689254
 31
0.0
  0
LINE
  5
2A86
330
2A6C
100
AcDbEntity
  8
図枠細線
  6
CONTINUOUS
 62
   252
100
AcDbLine
 10
3.577871882961
 20
27.820842689254
 30
0.0
 11
74.577871882961
 21
27.820842689254
 31
0.0
  0
LINE
  5
2A87
330
2A6C
100
AcDbEntity
  8
図枠細線
  6
CONTINUOUS
 62
   252
100
AcDbLine
 10
3.577871882961
 20
22.820842689254
 30
0.0
 11
74.577871882961
 21
22.820842689254
 31
0.0
  0
LINE
  5
2A88
330
2A6C
100
AcDbEntity
  8
図枠細線
  6
CONTINUOUS
 62
   252
100
AcDbLine
 10
3.577871882961
 20
12.820842689254
 30
0.0
 11
74.577871882961
 21
12.820842689254
 31
0.0
  0
LINE
  5
2A89
330
2A6C
100
AcDbEntity
  8
図枠細線
  6
CONTINUOUS
 62
   252
100
AcDbLine
 10
3.577871882961
 20
7.820844689254
 30
0.0
 11
74.577871882961
 21
7.820844689254
 31
0.0
  0
LINE
  5
2A8A
330
2A6C
100
AcDbEntity
  8
図枠細線
  6
CONTINUOUS
100
AcDbLine
 10
74.577871882961
 20
17.820843689254
 30
0.0
 11
143.577871882961
 21
17.820841224969
 31
0.0
  0
LINE
  5
2A8B
330
2A6C
100
AcDbEntity
  8
図枠太線
  6
CONTINUOUS
 62
   251
100
AcDbLine
 10
3.577871882961
 20
2.820844689254
 30
0.0
 11
283.577871882961
 21
2.820844689254
 31
0.0
  0
LINE
  5
2A8C
330
2A6C
100
AcDbEntity
  8
図枠太線
  6
CONTINUOUS
 62
   251
100
AcDbLine
 10
3.577871882961
 20
2.820844689254
 30
0.0
 11
3.577871882961
 21
32.820842689254
 31
0.0
  0
ENDBLK
  5
2A8D
330
2A6C
100
AcDbEntity
  8
0
100
AcDbBlockEnd
  0
BLOCK
  5
2AF8
330
2AF4
100
AcDbEntity
  8
0
 48
10.0
100
AcDbBlockBegin
  2
_OPEN30
 70
     0
 10
0.0
 20
0.0
 30
0.0
  3
_OPEN30
  1
_OPEN30
  0
LINE
  5
2AF5
330
2AF4
100
AcDbEntity
  8
0
  6
BYBLOCK
 62
     0
100
AcDbLine
 10
-1.0
 20
0.26794919
 30
0.0
 11
0.0
 21
0.0
 31
0.0
  0
LINE
  5
2AF6
330
2AF4
100
AcDbEntity
  8
0
  6
BYBLOCK
 62
     0
100
AcDbLine
 10
0.0
 20
0.0
 30
0.0
 11
-1.0
 21
-0.26794919
 31
0.0
  0
LINE
  5
2AF7
330
2AF4
100
AcDbEntity
  8
0
  6
BYBLOCK
 62
     0
100
AcDbLine
 10
0.0
 20
0.0
 30
0.0
 11
-1.0
 21
0.0
 31
0.0
  0
ENDBLK
  5
2AF9
330
2AF4
100
AcDbEntity
  8
0
 48
10.0
100
AcDbBlockEnd
  0
BLOCK
  5
2F40
330
2F3F
100
AcDbEntity
  8
0
 48
10.0
100
AcDbBlockBegin
  2
ケース外形図_HL-400
 70
     0
 10
0.0
 20
0.0
 30
0.0
  3
ケース外形図_HL-400
  1
ケース外形図_HL-400
  0
LINE
  5
2F41
330
2F3F
100
AcDbEntity
  8
外形線
100
AcDbLine
 10
-3016.68737612191
 20
-628.620502022639
 30
0.0
 11
-3004.68737612191
 21
-628.620502022639
 31
0.0
  0
LINE
  5
2F42
330
2F3F
100
AcDbEntity
  8
外形線
100
AcDbLine
 10
-3004.68737612191
 20
-556.620502022639
 30
0.0
 11
-3019.68737612191
 21
-556.620502022639
 31
0.0
  0
LINE
  5
2F43
330
2F3F
100
AcDbEntity
  8
中心線
 48
10.0
100
AcDbLine
 10
-3031.837385121911
 20
-613.830661022639
 30
0.0
 11
-3031.837385121911
 21
-669.264280022639
 31
0.0
  0
LINE
  5
2F44
330
2F3F
100
AcDbEntity
  8
外形線
100
AcDbLine
 10
-3036.074903121911
 20
-666.232883395172
 30
0.0
 11
-3036.074903121911
 21
-653.049280022639
 31
0.0
  0
LINE
  5
2F45
330
2F3F
100
AcDbEntity
  8
外形線
100
AcDbLine
 10
-3027.67493912191
 20
-666.232883395172
 30
0.0
 11
-3027.67493912191
 21
-653.049280022639
 31
0.0
  0
ARC
  5
2F46
330
2F3F
100
AcDbEntity
  8
細線
100
AcDbCircle
 10
-3033.974910933263
 20
-662.595590228936
 30
0.0
 40
4.199982
100
AcDbArc
 50
239.999981276042
 51
299.999981276021
  0
ARC
  5
2F47
330
2F3F
100
AcDbEntity
  8
細線
100
AcDbCircle
 10
-3029.774928933263
 20
-662.595591601467
 30
0.0
 40
4.199982
100
AcDbArc
 50
239.999981276042
 51
299.999981276021
  0
ARC
  5
2F48
330
2F3F
100
AcDbEntity
  8
細線
100
AcDbCircle
 10
-3029.774931310559
 20
-669.870173816342
 30
0.0
 40
4.199982
100
AcDbArc
 50
59.999981276042
 51
119.999981276021
  0
LINE
  5
2F49
330
2F3F
100
AcDbEntity
  8
外形線
100
AcDbLine
 10
-3015.18737612191
 20
-556.620502022639
 30
0.0
 11
-3015.18737612191
 21
-628.620502022639
 31
0.0
  0
LINE
  5
2F4A
330
2F3F
100
AcDbEntity
  8
外形線
100
AcDbLine
 10
-3016.68737612191
 20
-629.295475022639
 30
0.0
 11
-3016.68737612191
 21
-556.620502022639
 31
0.0
  0
LINE
  5
2F4B
330
2F3F
100
AcDbEntity
  8
外形線
100
AcDbLine
 10
-3019.68737612191
 20
-556.620502022639
 30
0.0
 11
-3019.68737612191
 21
-618.495502022639
 31
0.0
  0
LINE
  5
2F4C
330
2F3F
100
AcDbEntity
  8
外形線
100
AcDbLine
 10
-3046.687376121911
 20
-623.745502022639
 30
0.0
 11
-3046.687376121911
 21
-562.245502022639
 31
0.0
  0
LINE
  5
2F4D
330
2F3F
100
AcDbEntity
  8
外形線
100
AcDbLine
 10
-3038.779444758647
 20
-628.97627357689
 30
0.0
 11
-3045.721504395382
 21
-634.988273576889
 31
0.0
  0
LINE
  5
2F4E
330
2F3F
100
AcDbEntity
  8
外形線
100
AcDbLine
 10
-3024.895325485175
 20
-628.97627357689
 30
0.0
 11
-3017.953265848439
 21
-634.988273576889
 31
0.0
  0
LINE
  5
2F4F
330
2F3F
100
AcDbEntity
  8
外形線
100
AcDbLine
 10
-3024.895325485175
 20
-637.653848122809
 30
0.0
 11
-3024.895325485175
 21
-628.97627357689
 31
0.0
  0
LINE
  5
2F50
330
2F3F
100
AcDbEntity
  8
外形線
100
AcDbLine
 10
-3038.779444758647
 20
-637.653848122809
 30
0.0
 11
-3038.779444758647
 21
-628.97627357689
 31
0.0
  0
LWPOLYLINE
  5
2F51
330
2F3F
100
AcDbEntity
  8
外形線
100
AcDbPolyline
 90
       47
 70
     0
 43
0.0
 10
-3027.674940621911
 20
-654.14058768542
 10
-3027.215686831012
 20
-654.025717241066
 10
-3026.807069333743
 20
-653.89949762322
 10
-3026.45356502891
 20
-653.763311720429
 10
-3026.159046983652
 20
-653.618651613941
 10
-3025.926741999306
 20
-653.467102230155
 10
-3025.759195257892
 20
-653.310323975836
 10
-3025.658242436573
 20
-653.150034546342
 10
-3025.624989595581
 20
-652.98799010621
 10
-3025.659801060005
 20
-652.825966048232
 10
-3025.762295428152
 20
-652.665737541894
 10
-3025.931349750279
 20
-652.509060084243
 10
-3026.165111831855
 20
-652.357650266292
 10
-3026.461020526596
 20
-652.213166965689
 10
-3026.815833796919
 20
-652.077193171712
 10
-3027.225664234388
 20
-651.951218641701
 10
-3027.686021650964
 20
-651.836623578969
 10
-3028.191862274455
 20
-651.734663511005
 10
-3028.737644009139
 20
-651.646455533648
 10
-3029.317387156118
 20
-651.572966071958
 10
-3029.924739928152
 20
-651.515000291856
 10
-3030.553048041176
 20
-651.473193278559
 10
-3031.195427620021
 20
-651.448003078454
 10
-3031.844840619596
 20
-651.439705680642
 10
-3032.494171935177
 20
-651.448391993153
 10
-3033.136307356992
 20
-651.473966846927
 10
-3033.764211514982
 20
-651.516150038516
 10
-3034.371004959794
 20
-651.574479400044
 10
-3034.950039535468
 20
-651.648315862822
 10
-3035.494971218024
 20
-651.73685045911
 10
-3035.999829621911
 20
-651.839113185344
 10
-3036.459083412808
 20
-651.953983629698
 10
-3036.867700910077
 20
-652.080203247544
 10
-3037.221205214912
 20
-652.216389150335
 10
-3037.515723260169
 20
-652.361049256823
 10
-3037.748028244515
 20
-652.512598640609
 10
-3037.915574985928
 20
-652.669376894928
 10
-3038.016527807249
 20
-652.829666324421
 10
-3038.04978064824
 20
-652.991710764555
 10
-3038.014969183816
 20
-653.153734822532
 10
-3037.912474815669
 20
-653.313963328869
 10
-3037.743420493542
 20
-653.470640786521
 10
-3037.509658411966
 20
-653.622050604471
 10
-3037.213749717225
 20
-653.766533905074
 10
-3036.858936446901
 20
-653.902507699052
 10
-3036.449106009434
 20
-654.028482229064
 10
-3036.07490312191
 20
-654.123399110931
  0
ARC
  5
2F52
330
2F3F
100
AcDbEntity
  8
外形線
100
AcDbCircle
 10
-3031.837385121911
 20
-620.803069368681
 30
0.0
 40
34.15159996140045
100
AcDbArc
 50
255.26831657715
 51
262.87239111701
  0
LWPOLYLINE
  5
2F53
330
2F3F
100
AcDbEntity
  8
外形線
100
AcDbPolyline
 90
       34
 70
     0
 43
0.0
 10
-3020.164085121911
 20
-645.574914522911
 10
-3020.217826679511
 20
-645.015496411464
 10
-3020.378556521371
 20
-644.461229200047
 10
-3020.644794710875
 20
-643.917216361246
 10
-3021.014089832395
 20
-643.388466949451
 10
-3021.483041562971
 20
-642.879849479472
 10
-3022.047331981114
 20
-642.39604709919
 10
-3022.701765324525
 20
-641.941514468981
 10
-3023.440315830619
 20
-641.520436744971
 10
-3024.256183219338
 20
-641.136691043792
 10
-3025.141855307454
 20
-640.793810743611
 10
-3026.089177177755
 20
-640.494952950203
 10
-3027.089426266293
 20
-640.242869427561
 10
-3028.133392676296
 20
-640.039881260751
 10
-3029.211463979238
 20
-639.887857484282
 10
-3030.313713722268
 20
-639.788197872775
 10
-3031.429992827054
 20
-639.74182005239
 10
-3032.550023038462
 20
-639.749151051702
 10
-3033.663491562665
 20
-639.810123369776
 10
-3034.760146023239
 20
-639.924175597698
 10
-3035.829888860994
 20
-640.090257587801
 10
-3036.862870308282
 20
-640.30684012301
 10
-3037.849579081758
 20
-640.571928997268
 10
-3038.780929958494
 20
-640.88308337739
 10
-3039.64834742912
 20
-641.237438277289
 10
-3040.443844657696
 20
-641.631730937631
 10
-3041.160097021345
 20
-642.062330868031
 10
-3041.790509552464
 20
-642.525273275162
 10
-3042.329277662574
 20
-643.016295569004
 10
-3042.771440588665
 20
-643.530876611082
 10
-3043.112927069931
 20
-644.064278343314
 10
-3043.350592834335
 20
-644.611589414165
 10
-3043.482249549808
 20
-645.167770400432
 10
-3043.510685121911
 20
-645.574914522911
  0
ARC
  5
2F54
330
2F3F
100
AcDbEntity
  8
外形線
100
AcDbCircle
 10
-3031.837385121911
 20
-625.986454710612
 30
0.0
 40
13.57645981229912
100
AcDbArc
 50
239.247497502359
 51
300.752502497641
  0
LINE
  5
2F55
330
2F3F
100
AcDbEntity
  8
外形線
100
AcDbLine
 10
-3043.510685121911
 20
-645.574914522911
 30
0.0
 11
-3043.510685121911
 21
-649.955767263438
 31
0.0
  0
ARC
  5
2F56
330
2F3F
100
AcDbEntity
  8
外形線
100
AcDbCircle
 10
-3039.502685121911
 20
-649.955767263438
 30
0.0
 40
4.007999999999999
100
AcDbArc
 50
180.0
 51
255.26831657715
  0
ARC
  5
2F57
330
2F3F
100
AcDbEntity
  8
外形線
100
AcDbCircle
 10
-3046.230136312884
 20
-636.064530573833
 30
0.0
 40
7.618315752702329
100
AcDbArc
 50
273.828163206421
 51
347.958626091838
  0
LINE
  5
2F58
330
2F3F
100
AcDbEntity
  8
外形線
100
AcDbLine
 10
-3043.513436239113
 20
-645.578091239426
 30
0.0
 11
-3045.721504395382
 21
-643.665848122809
 31
0.0
  0
LINE
  5
2F59
330
2F3F
100
AcDbEntity
  8
外形線
100
AcDbLine
 10
-3045.721504395382
 20
-634.988273576889
 30
0.0
 11
-3045.721504395382
 21
-643.665848122809
 31
0.0
  0
LINE
  5
2F5A
330
2F3F
100
AcDbEntity
  8
外形線
100
AcDbLine
 10
-3020.164085121911
 20
-645.574914522911
 30
0.0
 11
-3020.164085121911
 21
-649.955767263438
 31
0.0
  0
LWPOLYLINE
  5
2F5B
330
2F3F
100
AcDbEntity
  8
外形線
100
AcDbPolyline
 90
       29
 70
     0
 43
0.0
 10
-3027.674940621911
 20
-653.049280022638
 10
-3027.701938707542
 20
-652.947308555312
 10
-3027.782585869251
 20
-652.846648062603
 10
-3027.915845283851
 20
-652.748592664861
 10
-3028.100003729843
 20
-652.654402990584
 10
-3028.332693613086
 20
-652.56528996941
 10
-3028.610923405278
 20
-652.482399264063
 10
-3028.9311161039
 20
-652.406796541377
 10
-3029.289155219196
 20
-652.339453771776
 10
-3029.680437696951
 20
-652.281236733347
 10
-3030.099933096692
 20
-652.232893881137
 10
-3030.542248264472
 20
-652.195046724809
 10
-3031.001696668819
 20
-652.16818183833
 10
-3031.472371508433
 20
-652.152644604435
 10
-3031.948221651714
 20
-652.148634774287
 10
-3032.423129431869
 20
-652.15620389942
 10
-3032.890989297393
 20
-652.175254668977
 10
-3033.345786306812
 20
-652.205542160767
 10
-3033.781673458494
 20
-652.246676990049
 10
-3034.193046861402
 20
-652.298130315587
 10
-3034.574617780326
 20
-652.359240638577
 10
-3034.921480629393
 20
-652.429222307066
 10
-3035.229176039693
 20
-652.507175616524
 10
-3035.493748190218
 20
-652.592098376703
 10
-3035.711795665032
 20
-652.682898796086
 10
-3035.88051518286
 20
-652.778409518273
 10
-3035.997737636882
 20
-652.877402629852
 10
-3036.061955981389
 20
-652.9786054468
 10
-3036.07490312191
 20
-653.049280022638
  0
ARC
  5
2F5C
330
2F3F
100
AcDbEntity
  8
外形線
100
AcDbCircle
 10
-3031.837385121911
 20
-620.803069368681
 30
0.0
 40
34.15159996140045
100
AcDbArc
 50
277.000695446903
 51
284.73168342285
  0
ARC
  5
2F5D
330
2F3F
100
AcDbEntity
  8
外形線
100
AcDbCircle
 10
-3024.172085121911
 20
-649.955767263438
 30
0.0
 40
4.007999999999999
100
AcDbArc
 50
284.73168342285
 51
0.0
  0
LINE
  5
2F5E
330
2F3F
100
AcDbEntity
  8
外形線
100
AcDbLine
 10
-3020.161334004708
 20
-645.578091239426
 30
0.0
 11
-3017.953265848439
 21
-643.665848122809
 31
0.0
  0
ARC
  5
2F5F
330
2F3F
100
AcDbEntity
  8
外形線
100
AcDbCircle
 10
-3017.444633930937
 20
-636.064530573833
 30
0.0
 40
7.618315752702329
100
AcDbArc
 50
192.041373908162
 51
266.171836793579
  0
LINE
  5
2F60
330
2F3F
100
AcDbEntity
  8
外形線
100
AcDbLine
 10
-3017.953265848439
 20
-643.665848122809
 30
0.0
 11
-3017.953265848439
 21
-634.988273576889
 31
0.0
  0
LWPOLYLINE
  5
2F61
330
2F3F
100
AcDbEntity
  8
外形線
100
AcDbPolyline
 90
       34
 70
     0
 43
0.0
 10
-3021.33893012191
 20
-629.269370629074
 10
-3021.387262926182
 20
-628.898532694609
 10
-3021.531816309708
 20
-628.531109288718
 10
-3021.771259282285
 20
-628.170483500357
 10
-3022.103387148015
 20
-627.819975828711
 10
-3022.525141805277
 20
-627.482813609361
 10
-3023.032639904511
 20
-627.162101298261
 10
-3023.621208604563
 20
-626.860791887133
 10
-3024.285428598347
 20
-626.581659713495
 10
-3025.019184011678
 20
-626.32727491566
 10
-3025.815718715819
 20
-626.099979767924
 10
-3026.667698535225
 20
-625.901867113831
 10
-3027.567278777729
 20
-625.734761096102
 10
-3028.506176465351
 20
-625.600200360651
 10
-3029.475746600679
 20
-625.499423889346
 10
-3030.467061766568
 20
-625.433359591953
 10
-3031.470994326257
 20
-625.402615762313
 10
-3032.478300467033
 20
-625.40747547741
 10
-3033.479705313585
 20
-625.44789399092
 10
-3034.465988327376
 20
-625.5234991452
 10
-3035.428068205709
 20
-625.633594797989
 10
-3036.357086498752
 20
-625.777167232194
 10
-3037.24448917464
 20
-625.952894489799
 10
-3038.082105381594
 20
-626.159158543935
 10
-3038.862222681892
 20
-626.394060197024
 10
-3039.577658064932
 20
-626.655436567837
 10
-3040.221824085545
 20
-626.940881006447
 10
-3040.788789518574
 20
-627.247765253711
 10
-3041.27333397125
 20
-627.57326364123
 10
-3041.670995950487
 20
-627.91437910899
 10
-3041.978113942544
 20
-628.267970801094
 10
-3042.191860126797
 20
-628.630782985528
 10
-3042.310266413181
 20
-628.99947503163
 10
-3042.335840121911
 20
-629.269370629074
  0
LINE
  5
2F62
330
2F3F
100
AcDbEntity
  8
外形線
100
AcDbLine
 10
-3038.779444758647
 20
-628.97627357689
 30
0.0
 11
-3024.895325485175
 21
-628.97627357689
 31
0.0
  0
LINE
  5
2F63
330
2F3F
100
AcDbEntity
  8
外形線
100
AcDbLine
 10
-3038.779444758647
 20
-620.298699030969
 30
0.0
 11
-3024.895325485175
 21
-620.298699030969
 31
0.0
  0
LINE
  5
2F64
330
2F3F
100
AcDbEntity
  8
外形線
100
AcDbLine
 10
-3038.779444758647
 20
-624.637486303929
 30
0.0
 11
-3024.895325485175
 21
-624.637486303929
 31
0.0
  0
LINE
  5
2F65
330
2F3F
100
AcDbEntity
  8
外形線
100
AcDbLine
 10
-3016.68737612191
 20
-618.495502022639
 30
0.0
 11
-3039.78736712191
 21
-618.495502022639
 31
0.0
  0
LINE
  5
2F66
330
2F3F
100
AcDbEntity
  8
外形線
100
AcDbLine
 10
-3039.468583886739
 20
-620.895511022639
 30
0.0
 11
-3042.187376121911
 21
-620.895511022639
 31
0.0
  0
LINE
  5
2F67
330
2F3F
100
AcDbEntity
  8
外形線
100
AcDbLine
 10
-3045.721504395382
 20
-626.310699030969
 30
0.0
 11
-3038.779444758647
 21
-620.298699030969
 31
0.0
  0
ARC
  5
2F68
330
2F3F
100
AcDbEntity
  8
外形線
100
AcDbCircle
 10
-3039.78736712191
 20
-623.895511022639
 30
0.0
 40
5.4
100
AcDbArc
 50
89.999981276021
 51
180.00001984784
  0
LINE
  5
2F69
330
2F3F
100
AcDbEntity
  8
外形線
100
AcDbLine
 10
-3038.779444758647
 20
-624.637486303929
 30
0.0
 11
-3045.721504395382
 21
-630.649486303929
 31
0.0
  0
ARC
  5
2F6A
330
2F3F
100
AcDbEntity
  8
外形線
100
AcDbCircle
 10
-3042.187376121911
 20
-623.895511022639
 30
0.0
 40
3.0
100
AcDbArc
 50
89.999981276021
 51
211.533239298809
  0
ARC
  5
2F6B
330
2F3F
100
AcDbEntity
  8
外形線
100
AcDbCircle
 10
-3043.687376121911
 20
-623.745502022639
 30
0.0
 40
3.0
100
AcDbArc
 50
180.00001984784
 51
232.575749003279
  0
LINE
  5
2F6C
330
2F3F
100
AcDbEntity
  8
外形線
100
AcDbLine
 10
-3043.216504395382
 20
-632.818879940409
 30
0.0
 11
-3045.721504395382
 21
-630.649486303929
 31
0.0
  0
LINE
  5
2F6D
330
2F3F
100
AcDbEntity
  8
外形線
100
AcDbLine
 10
-3042.335840121911
 20
-629.269370629074
 30
0.0
 11
-3042.335840121911
 21
-632.056202307377
 31
0.0
  0
LINE
  5
2F6E
330
2F3F
100
AcDbEntity
  8
外形線
100
AcDbLine
 10
-3045.721504395382
 20
-630.649486303929
 30
0.0
 11
-3045.721504395382
 21
-626.310699030969
 31
0.0
  0
LINE
  5
2F6F
330
2F3F
100
AcDbEntity
  8
細線
100
AcDbLine
 10
-3040.980635121911
 20
-630.882560350041
 30
0.0
 11
-3040.980635121911
 21
-627.331019140395
 31
0.0
  0
LINE
  5
2F70
330
2F3F
100
AcDbEntity
  8
外形線
100
AcDbLine
 10
-3038.779444758647
 20
-624.637486303929
 30
0.0
 11
-3038.779444758647
 21
-620.298699030969
 31
0.0
  0
LINE
  5
2F71
330
2F3F
100
AcDbEntity
  8
細線
100
AcDbLine
 10
-3022.694135121911
 20
-630.882560350041
 30
0.0
 11
-3022.694135121911
 21
-627.227614822548
 31
0.0
  0
LINE
  5
2F72
330
2F3F
100
AcDbEntity
  8
外形線
100
AcDbLine
 10
-3016.68737612191
 20
-620.895511022639
 30
0.0
 11
-3024.206186357083
 21
-620.895511022639
 31
0.0
  0
LINE
  5
2F73
330
2F3F
100
AcDbEntity
  8
外形線
100
AcDbLine
 10
-3017.953265848439
 20
-626.310699030969
 30
0.0
 11
-3024.895325485175
 21
-620.298699030969
 31
0.0
  0
LINE
  5
2F74
330
2F3F
100
AcDbEntity
  8
外形線
100
AcDbLine
 10
-3024.895325485175
 20
-624.637486303929
 30
0.0
 11
-3024.895325485175
 21
-620.298699030969
 31
0.0
  0
LINE
  5
2F75
330
2F3F
100
AcDbEntity
  8
外形線
100
AcDbLine
 10
-3016.68737612191
 20
-629.295497522639
 30
0.0
 11
-3017.953265848439
 21
-629.295497522639
 31
0.0
  0
LINE
  5
2F76
330
2F3F
100
AcDbEntity
  8
外形線
100
AcDbLine
 10
-3020.458265848439
 20
-632.818879940409
 30
0.0
 11
-3017.953265848439
 21
-630.649486303929
 31
0.0
  0
LINE
  5
2F77
330
2F3F
100
AcDbEntity
  8
外形線
100
AcDbLine
 10
-3024.895325485175
 20
-624.637486303929
 30
0.0
 11
-3017.953265848439
 21
-630.649486303929
 31
0.0
  0
LINE
  5
2F78
330
2F3F
100
AcDbEntity
  8
外形線
100
AcDbLine
 10
-3021.33893012191
 20
-629.269370629074
 30
0.0
 11
-3021.33893012191
 21
-632.056202307377
 31
0.0
  0
LINE
  5
2F79
330
2F3F
100
AcDbEntity
  8
外形線
100
AcDbLine
 10
-3017.953265848439
 20
-630.649486303929
 30
0.0
 11
-3017.953265848439
 21
-626.310699030969
 31
0.0
  0
LINE
  5
2F7A
330
2F3F
100
AcDbEntity
  8
外形線
100
AcDbLine
 10
-3048.487394121911
 20
-562.245502022639
 30
0.0
 11
-3048.487394121911
 21
-603.345493022639
 31
0.0
  0
LINE
  5
2F7B
330
2F3F
100
AcDbEntity
  8
外形線
100
AcDbLine
 10
-3048.487394121911
 20
-603.345493022639
 30
0.0
 11
-3046.687376121911
 21
-603.345493022639
 31
0.0
  0
LINE
  5
2F7C
330
2F3F
100
AcDbEntity
  8
外形線
100
AcDbLine
 10
-3043.687376121911
 20
-558.495502022639
 30
0.0
 11
-3019.68737612191
 21
-558.495502022639
 31
0.0
  0
LINE
  5
2F7D
330
2F3F
100
AcDbEntity
  8
外形線
100
AcDbLine
 10
-3048.487394121911
 20
-562.245502022639
 30
0.0
 11
-3046.687376121911
 21
-562.245502022639
 31
0.0
  0
ARC
  5
2F7E
330
2F3F
100
AcDbEntity
  8
外形線
100
AcDbCircle
 10
-3043.687376121911
 20
-561.495502022639
 30
0.0
 40
3.0
100
AcDbArc
 50
89.999981276021
 51
180.00001984784
  0
LINE
  5
2F7F
330
2F3F
100
AcDbEntity
  8
外形線
100
AcDbLine
 10
-3046.687376121911
 20
-562.245502022639
 30
0.0
 11
-3046.687376121911
 21
-561.495502022639
 31
0.0
  0
LINE
  5
2F80
330
2F3F
100
AcDbEntity
  8
外形線
100
AcDbLine
 10
-2963.887356621911
 20
-617.370502022639
 30
0.0
 11
-2963.887356621911
 21
-567.870502022639
 31
0.0
  0
LINE
  5
2F81
330
2F3F
100
AcDbEntity
  8
外形線
100
AcDbLine
 10
-2965.387356621911
 20
-620.580112022639
 30
0.0
 11
-2965.387356621911
 21
-564.660892022639
 31
0.0
  0
LINE
  5
2F82
330
2F3F
100
AcDbEntity
  8
外形線
100
AcDbLine
 10
-3004.68737612191
 20
-556.620502022639
 30
0.0
 11
-3004.68737612191
 21
-628.620502022639
 31
0.0
  0
LINE
  5
2F83
330
2F3F
100
AcDbEntity
  8
外形線
100
AcDbLine
 10
-3004.68737612191
 20
-626.745502022639
 30
0.0
 11
-2969.67289562191
 21
-625.074985022639
 31
0.0
  0
LINE
  5
2F84
330
2F3F
100
AcDbEntity
  8
外形線
100
AcDbLine
 10
-2963.887356621911
 20
-617.370502022639
 30
0.0
 11
-2965.387356621911
 21
-617.370502022639
 31
0.0
  0
ARC
  5
2F85
330
2F3F
100
AcDbEntity
  8
外形線
100
AcDbCircle
 10
-2969.887356621911
 20
-620.580112022639
 30
0.0
 40
4.5
100
AcDbArc
 50
272.731520116378
 51
359.999982399908
  0
LINE
  5
2F86
330
2F3F
100
AcDbEntity
  8
外形線
100
AcDbLine
 10
-3004.68737612191
 20
-558.495502022639
 30
0.0
 11
-2969.67289562191
 21
-560.166019022639
 31
0.0
  0
LINE
  5
2F87
330
2F3F
100
AcDbEntity
  8
外形線
100
AcDbLine
 10
-2963.887356621911
 20
-567.870502022639
 30
0.0
 11
-2965.387356621911
 21
-567.870502022639
 31
0.0
  0
ARC
  5
2F88
330
2F3F
100
AcDbEntity
  8
外形線
100
AcDbCircle
 10
-2969.887356621911
 20
-564.660892022639
 30
0.0
 40
4.5
100
AcDbArc
 50
0.0
 51
87.268519579302
  0
ENDBLK
  5
2F89
330
2F3F
100
AcDbEntity
  8
0
 48
10.0
100
AcDbBlockEnd
  0
BLOCK
  5
345D
330
3453
100
AcDbEntity
  8
0
 48
10.0
100
AcDbBlockBegin
  2
*D8
 70
     1
 10
0.0
 20
0.0
 30
0.0
  3
*D8
  1
*D8
  0
LINE
  5
39AA
330
3453
100
AcDbEntity
  8
寸法線
 62
     0
 48
10.0
100
AcDbLine
 10
223.487282192497
 20
654.820638534281
 30
0.0
 11
229.261248517783
 21
654.820638534281
 31
0.0
  0
LINE
  5
39AB
330
3453
100
AcDbEntity
  8
寸法線
 62
     0
 48
10.0
100
AcDbLine
 10
223.487282192497
 20
628.379638534281
 30
0.0
 11
229.261248517783
 21
628.379638534281
 31
0.0
  0
LINE
  5
39AC
330
3453
100
AcDbEntity
  8
寸法線
 62
     0
 48
10.0
100
AcDbLine
 10
228.011248517783
 20
654.820638534281
 30
0.0
 11
228.011248517783
 21
685.625968620171
 31
0.0
  0
LINE
  5
39AD
330
3453
100
AcDbEntity
  8
寸法線
 62
     0
 48
10.0
100
AcDbLine
 10
228.011248517783
 20
648.820638534281
 30
0.0
 11
228.011248517783
 21
634.379638534281
 31
0.0
  0
INSERT
  5
39AE
330
3453
100
AcDbEntity
  8
寸法線
 62
     0
100
AcDbBlockReference
  2
_OPEN30
 10
228.011248517783
 20
654.820638534281
 30
0.0
 41
6.0
 42
6.0
 43
6.0
 50
90.0
  0
INSERT
  5
39AF
330
3453
100
AcDbEntity
  8
寸法線
 62
     0
100
AcDbBlockReference
  2
_OPEN30
 10
228.011248517783
 20
628.379638534281
 30
0.0
 41
6.0
 42
6.0
 43
6.0
 50
270.0
  0
MTEXT
  5
39B0
330
3453
100
AcDbEntity
  8
寸法線
 62
     0
 48
10.0
100
AcDbMText
 10
224.383123517783
 20
673.300968620171
 30
0.0
 40
6.0
 41
0.0
 71
     5
 72
     1
  1
\A1;G 3/4"
 11
0.0
 21
1.0
 31
0.0
  0
POINT
  5
39B1
330
3453
100
AcDbEntity
  8
DEFPOINTS
 62
     0
100
AcDbPoint
 10
222.862282192497
 20
654.820638534281
 30
0.0
  0
POINT
  5
39B2
330
3453
100
AcDbEntity
  8
DEFPOINTS
 62
     0
100
AcDbPoint
 10
222.862282192497
 20
628.379638534281
 30
0.0
  0
POINT
  5
39B3
330
3453
100
AcDbEntity
  8
DEFPOINTS
 62
     0
100
AcDbPoint
 10
228.011248517783
 20
628.379638534281
 30
0.0
  0
ENDBLK
  5
345E
330
3453
100
AcDbEntity
  8
0
 48
10.0
100
AcDbBlockEnd
  0
BLOCK
  5
348A
330
347E
100
AcDbEntity
  8
0
 48
10.0
100
AcDbBlockBegin
  2
*D9
 70
     1
 10
0.0
 20
0.0
 30
0.0
  3
*D9
  1
*D9
  0
LINE
  5
39B4
330
347E
100
AcDbEntity
  8
寸法線
 62
     0
 48
10.0
100
AcDbLine
 10
219.578045192497
 20
644.600138534281
 30
0.0
 11
220.203045192497
 21
644.600138534281
 31
0.0
  0
LINE
  5
39B5
330
347E
100
AcDbEntity
  8
寸法線
 62
     0
 48
10.0
100
AcDbLine
 10
219.578045192497
 20
638.600138534281
 30
0.0
 11
220.203045192497
 21
638.600138534281
 31
0.0
  0
LINE
  5
39B6
330
347E
100
AcDbEntity
  8
寸法線
 62
     0
 48
10.0
100
AcDbLine
 10
218.953045192497
 20
632.600138534281
 30
0.0
 11
218.953045192497
 21
626.600138534281
 31
0.0
  0
LINE
  5
39B7
330
347E
100
AcDbEntity
  8
寸法線
 62
     0
 48
10.0
100
AcDbLine
 10
218.953045192497
 20
650.600138534281
 30
0.0
 11
218.953045192497
 21
667.447776329557
 31
0.0
  0
LINE
  5
39B8
330
347E
100
AcDbEntity
  8
寸法線
 62
     0
 48
10.0
100
AcDbLine
 10
218.953045192497
 20
638.600138534281
 30
0.0
 11
218.953045192497
 21
644.600138534281
 31
0.0
  0
INSERT
  5
39B9
330
347E
100
AcDbEntity
  8
寸法線
 62
     0
 48
10.0
100
AcDbBlockReference
  2
_OPEN30
 10
218.953045192497
 20
638.600138534281
 30
0.0
 41
6.0
 42
6.0
 43
6.0
 50
90.0
  0
INSERT
  5
39BA
330
347E
100
AcDbEntity
  8
寸法線
 62
     0
 48
10.0
100
AcDbBlockReference
  2
_OPEN30
 10
218.953045192497
 20
644.600138534281
 30
0.0
 41
6.0
 42
6.0
 43
6.0
 50
270.0
  0
MTEXT
  5
39BB
330
347E
100
AcDbEntity
  8
寸法線
 62
     0
 48
10.0
100
AcDbMText
 10
215.328045192497
 20
662.023957431919
 30
0.0
 40
6.0
 41
0.0
 71
     5
 72
     1
  1
\A1;φ6
 11
6.123031769111886E-17
 21
1.0
 31
0.0
  0
POINT
  5
39BC
330
347E
100
AcDbEntity
  8
DEFPOINTS
 62
     0
 48
10.0
100
AcDbPoint
 10
218.953045192497
 20
644.600138534281
 30
0.0
  0
POINT
  5
39BD
330
347E
100
AcDbEntity
  8
DEFPOINTS
 62
     0
 48
10.0
100
AcDbPoint
 10
218.953045192497
 20
638.600138534281
 30
0.0
  0
POINT
  5
39BE
330
347E
100
AcDbEntity
  8
DEFPOINTS
 62
     0
 48
10.0
100
AcDbPoint
 10
218.953045192497
 20
638.600138534281
 30
0.0
  0
ENDBLK
  5
348B
330
347E
100
AcDbEntity
  8
0
 48
10.0
100
AcDbBlockEnd
  0
BLOCK
  5
34C3
330
34B9
100
AcDbEntity
  8
0
 48
10.0
100
AcDbBlockBegin
  2
*D10
 70
     1
 10
0.0
 20
0.0
 30
0.0
  3
*D10
  1
*D10
  0
LINE
  5
395B
330
34B9
100
AcDbEntity
  8
寸法線
 62
     0
 48
10.0
100
AcDbLine
 10
157.287277692497
 20
681.599986034281
 30
0.0
 11
137.290821520491
 21
681.599986034281
 31
0.0
  0
LINE
  5
395C
330
34B9
100
AcDbEntity
  8
寸法線
 62
     0
 48
10.0
100
AcDbLine
 10
157.287277692497
 20
601.600201034281
 30
0.0
 11
137.290821520491
 21
601.600201034281
 31
0.0
  0
LINE
  5
395D
330
34B9
100
AcDbEntity
  8
寸法線
 62
     0
 48
10.0
100
AcDbLine
 10
138.540821520491
 20
675.599986034281
 30
0.0
 11
138.540821520491
 21
607.600201034281
 31
0.0
  0
INSERT
  5
395E
330
34B9
100
AcDbEntity
  8
寸法線
 62
     0
 48
10.0
100
AcDbBlockReference
  2
_OPEN30
 10
138.540821520491
 20
681.599986034281
 30
0.0
 41
6.0
 42
6.0
 43
6.0
 50
90.0
  0
INSERT
  5
395F
330
34B9
100
AcDbEntity
  8
寸法線
 62
     0
 48
10.0
100
AcDbBlockReference
  2
_OPEN30
 10
138.540821520491
 20
601.600201034281
 30
0.0
 41
6.0
 42
6.0
 43
6.0
 50
270.0
  0
MTEXT
  5
3960
330
34B9
100
AcDbEntity
  8
寸法線
 62
     0
 48
10.0
100
AcDbMText
 10
134.915821520491
 20
641.600093534281
 30
0.0
 40
6.0
 41
0.0
 71
     5
 72
     1
  1
\A1;80
 11
6.123031769111886E-17
 21
1.0
 31
0.0
  0
POINT
  5
3961
330
34B9
100
AcDbEntity
  8
DEFPOINTS
 62
     0
 48
10.0
100
AcDbPoint
 10
157.912277692497
 20
681.599986034281
 30
0.0
  0
POINT
  5
3962
330
34B9
100
AcDbEntity
  8
DEFPOINTS
 62
     0
 48
10.0
100
AcDbPoint
 10
157.912277692497
 20
601.600201034281
 30
0.0
  0
POINT
  5
3963
330
34B9
100
AcDbEntity
  8
DEFPOINTS
 62
     0
 48
10.0
100
AcDbPoint
 10
138.540821520491
 20
601.600201034281
 30
0.0
  0
ENDBLK
  5
34C4
330
34B9
100
AcDbEntity
  8
0
 48
10.0
100
AcDbBlockEnd
  0
BLOCK
  5
34D0
330
34C6
100
AcDbEntity
  8
0
 48
10.0
100
AcDbBlockBegin
  2
*D11
 70
     1
 10
0.0
 20
0.0
 30
0.0
  3
*D11
  1
*D11
  0
LINE
  5
3952
330
34C6
100
AcDbEntity
  8
寸法線
 62
     0
 48
10.0
100
AcDbLine
 10
157.912277692497
 20
600.975201034281
 30
0.0
 11
157.912277692497
 21
581.361387524419
 31
0.0
  0
LINE
  5
3953
330
34C6
100
AcDbEntity
  8
寸法線
 62
     0
 48
10.0
100
AcDbLine
 10
192.912271192496
 20
600.975201034281
 30
0.0
 11
192.912271192496
 21
581.361387524419
 31
0.0
  0
LINE
  5
3954
330
34C6
100
AcDbEntity
  8
寸法線
 62
     0
 48
10.0
100
AcDbLine
 10
163.912277692497
 20
582.611387524419
 30
0.0
 11
186.912271192496
 21
582.611387524419
 31
0.0
  0
INSERT
  5
3955
330
34C6
100
AcDbEntity
  8
寸法線
 62
     0
 48
10.0
100
AcDbBlockReference
  2
_OPEN30
 10
157.912277692497
 20
582.611387524419
 30
0.0
 41
6.0
 42
6.0
 43
6.0
 50
180.0
  0
INSERT
  5
3956
330
34C6
100
AcDbEntity
  8
寸法線
 62
     0
 48
10.0
100
AcDbBlockReference
  2
_OPEN30
 10
192.912271192496
 20
582.611387524419
 30
0.0
 41
6.0
 42
6.0
 43
6.0
  0
MTEXT
  5
3957
330
34C6
100
AcDbEntity
  8
寸法線
 62
     0
 48
10.0
100
AcDbMText
 10
175.412274442497
 20
586.236387524419
 30
0.0
 40
6.0
 41
0.0
 71
     5
 72
     1
  1
\A1;35
  0
POINT
  5
3958
330
34C6
100
AcDbEntity
  8
DEFPOINTS
 62
     0
 48
10.0
100
AcDbPoint
 10
157.912277692497
 20
601.600201034281
 30
0.0
  0
POINT
  5
3959
330
34C6
100
AcDbEntity
  8
DEFPOINTS
 62
     0
 48
10.0
100
AcDbPoint
 10
192.912271192496
 20
601.600201034281
 30
0.0
  0
POINT
  5
395A
330
34C6
100
AcDbEntity
  8
DEFPOINTS
 62
     0
 48
10.0
100
AcDbPoint
 10
192.912271192496
 20
582.611387524419
 30
0.0
  0
ENDBLK
  5
34D1
330
34C6
100
AcDbEntity
  8
0
 48
10.0
100
AcDbBlockEnd
  0
BLOCK
  5
34F8
330
34EE
100
AcDbEntity
  8
0
 48
10.0
100
AcDbBlockBegin
  2
*D12
 70
     1
 10
0.0
 20
0.0
 30
0.0
  3
*D12
  1
*D12
  0
LINE
  5
3949
330
34EE
100
AcDbEntity
  8
寸法線
 62
     0
 48
10.0
100
AcDbLine
 10
247.562264192497
 20
620.425120534281
 30
0.0
 11
247.562264192497
 21
545.339057764313
 31
0.0
  0
LINE
  5
394A
330
34EE
100
AcDbEntity
  8
寸法線
 62
     0
 48
10.0
100
AcDbLine
 10
330.362282192497
 20
566.147920209764
 30
0.0
 11
330.362282192497
 21
545.339057764313
 31
0.0
  0
LINE
  5
394B
330
34EE
100
AcDbEntity
  8
寸法線
 62
     0
 48
10.0
100
AcDbLine
 10
253.562264192497
 20
546.589057764313
 30
0.0
 11
324.362282192497
 21
546.589057764313
 31
0.0
  0
INSERT
  5
394C
330
34EE
100
AcDbEntity
  8
寸法線
 62
     0
100
AcDbBlockReference
  2
_OPEN30
 10
247.562264192497
 20
546.589057764313
 30
0.0
 41
6.0
 42
6.0
 43
6.0
 50
180.0
  0
INSERT
  5
394D
330
34EE
100
AcDbEntity
  8
寸法線
 62
     0
100
AcDbBlockReference
  2
_OPEN30
 10
330.362282192497
 20
546.589057764313
 30
0.0
 41
6.0
 42
6.0
 43
6.0
  0
MTEXT
  5
394E
330
34EE
100
AcDbEntity
  8
寸法線
 62
     0
 48
10.0
100
AcDbMText
 10
288.962273192497
 20
550.223432764313
 30
0.0
 40
6.0
 41
0.0
 71
     5
 72
     1
  1
\A1;83
  0
POINT
  5
394F
330
34EE
100
AcDbEntity
  8
DEFPOINTS
 62
     0
100
AcDbPoint
 10
247.562264192497
 20
621.050120534281
 30
0.0
  0
POINT
  5
3950
330
34EE
100
AcDbEntity
  8
DEFPOINTS
 62
     0
100
AcDbPoint
 10
330.362282192497
 20
566.772920209764
 30
0.0
  0
POINT
  5
3951
330
34EE
100
AcDbEntity
  8
DEFPOINTS
 62
     0
100
AcDbPoint
 10
330.362282192497
 20
546.589057764313
 30
0.0
  0
ENDBLK
  5
34F9
330
34EE
100
AcDbEntity
  8
0
 48
10.0
100
AcDbBlockEnd
  0
BLOCK
  5
36B9
330
36AD
100
AcDbEntity
  8
0
 48
10.0
100
AcDbBlockBegin
  2
*D13
 70
     1
 10
0.0
 20
0.0
 30
0.0
  3
*D13
  1
*D13
  0
LINE
  5
393E
330
36AD
100
AcDbEntity
  8
寸法線
 62
     0
 48
10.0
100
AcDbLine
 10
79.065438512898
 20
641.600138534281
 30
0.0
 11
85.078338759601
 21
641.600138534281
 31
0.0
  0
LINE
  5
393F
330
36AD
100
AcDbEntity
  8
寸法線
 62
     0
 48
10.0
100
AcDbLine
 10
79.065438512898
 20
631.688674417514
 30
0.0
 11
85.078338759601
 21
631.688674417514
 31
0.0
  0
LINE
  5
3940
330
36AD
100
AcDbEntity
  8
寸法線
 62
     0
 48
10.0
100
AcDbLine
 10
83.828338759601
 20
647.600138534281
 30
0.0
 11
83.828338759601
 21
653.600138534281
 31
0.0
  0
LINE
  5
3941
330
36AD
100
AcDbEntity
  8
寸法線
 62
     0
 48
10.0
100
AcDbLine
 10
83.828338759601
 20
625.688674417514
 30
0.0
 11
83.828338759601
 21
619.688674417514
 31
0.0
  0
LINE
  5
3942
330
36AD
100
AcDbEntity
  8
寸法線
 62
     0
 48
10.0
100
AcDbLine
 10
83.828338759601
 20
641.600138534281
 30
0.0
 11
83.828338759601
 21
631.688674417514
 31
0.0
  0
INSERT
  5
3943
330
36AD
100
AcDbEntity
  8
寸法線
 62
     0
 48
10.0
100
AcDbBlockReference
  2
_OPEN30
 10
83.828338759601
 20
641.600138534281
 30
0.0
 41
6.0
 42
6.0
 43
6.0
 50
270.0
  0
INSERT
  5
3944
330
36AD
100
AcDbEntity
  8
寸法線
 62
     0
 48
10.0
100
AcDbBlockReference
  2
_OPEN30
 10
83.828338759601
 20
631.688674417514
 30
0.0
 41
6.0
 42
6.0
 43
6.0
 50
90.0
  0
MTEXT
  5
3945
330
36AD
100
AcDbEntity
  8
寸法線
 62
     0
 48
10.0
100
AcDbMText
 10
80.2033387596
 20
636.644406475898
 30
0.0
 40
6.0
 41
0.0
 71
     5
 72
     1
  1
\A1;10
 11
6.123031769111886E-17
 21
1.0
 31
0.0
  0
POINT
  5
3946
330
36AD
100
AcDbEntity
  8
DEFPOINTS
 62
     0
 48
10.0
100
AcDbPoint
 10
78.440438512898
 20
641.600138534281
 30
0.0
  0
POINT
  5
3947
330
36AD
100
AcDbEntity
  8
DEFPOINTS
 62
     0
 48
10.0
100
AcDbPoint
 10
78.440438512898
 20
631.688674417514
 30
0.0
  0
POINT
  5
3948
330
36AD
100
AcDbEntity
  8
DEFPOINTS
 62
     0
 48
10.0
100
AcDbPoint
 10
83.828338759601
 20
631.688674417514
 30
0.0
  0
ENDBLK
  5
36BA
330
36AD
100
AcDbEntity
  8
0
 48
10.0
100
AcDbBlockEnd
  0
BLOCK
  5
36E7
330
36DD
100
AcDbEntity
  8
0
 48
10.0
100
AcDbBlockBegin
  2
*D14
 70
     1
 10
0.0
 20
0.0
 30
0.0
  3
*D14
  1
*D14
  0
LINE
  5
3935
330
36DD
100
AcDbEntity
  8
寸法線
 62
     0
 48
10.0
100
AcDbLine
 10
11.471349717758
 20
652.617443379694
 30
0.0
 11
11.471349717758
 21
692.837255423
 31
0.0
  0
LINE
  5
3936
330
36DD
100
AcDbEntity
  8
寸法線
 62
     0
 48
10.0
100
AcDbLine
 10
47.471349717758
 20
652.617443379694
 30
0.0
 11
47.471349717758
 21
692.837255423
 31
0.0
  0
LINE
  5
3937
330
36DD
100
AcDbEntity
  8
寸法線
 62
     0
 48
10.0
100
AcDbLine
 10
17.471349717758
 20
691.587255423
 30
0.0
 11
41.471349717758
 21
691.587255423
 31
0.0
  0
INSERT
  5
3938
330
36DD
100
AcDbEntity
  8
寸法線
 62
     0
100
AcDbBlockReference
  2
_OPEN30
 10
11.471349717758
 20
691.587255423
 30
0.0
 41
6.0
 42
6.0
 43
6.0
 50
180.0
  0
INSERT
  5
3939
330
36DD
100
AcDbEntity
  8
寸法線
 62
     0
100
AcDbBlockReference
  2
_OPEN30
 10
47.471349717758
 20
691.587255423
 30
0.0
 41
6.0
 42
6.0
 43
6.0
  0
MTEXT
  5
393A
330
36DD
100
AcDbEntity
  8
寸法線
 62
     0
 48
10.0
100
AcDbMText
 10
29.471349717758
 20
695.215380423
 30
0.0
 40
6.0
 41
0.0
 71
     5
 72
     1
  1
\A1;36
  0
POINT
  5
393B
330
36DD
100
AcDbEntity
  8
DEFPOINTS
 62
     0
100
AcDbPoint
 10
11.471349717758
 20
651.992443379694
 30
0.0
  0
POINT
  5
393C
330
36DD
100
AcDbEntity
  8
DEFPOINTS
 62
     0
100
AcDbPoint
 10
47.471349717758
 20
651.992443379694
 30
0.0
  0
POINT
  5
393D
330
36DD
100
AcDbEntity
  8
DEFPOINTS
 62
     0
100
AcDbPoint
 10
47.471349717758
 20
691.587255423
 30
0.0
  0
ENDBLK
  5
36E8
330
36DD
100
AcDbEntity
  8
0
 48
10.0
100
AcDbBlockEnd
  0
BLOCK
  5
36F8
330
36EC
100
AcDbEntity
  8
0
 48
10.0
100
AcDbBlockBegin
  2
*D15
 70
     1
 10
0.0
 20
0.0
 30
0.0
  3
*D15
  1
*D15
  0
LINE
  5
392A
330
36EC
100
AcDbEntity
  8
寸法線
 62
     0
 48
10.0
100
AcDbLine
 10
28.571349717758
 20
611.146664657585
 30
0.0
 11
28.571349717758
 21
611.771664657585
 31
0.0
  0
LINE
  5
392B
330
36EC
100
AcDbEntity
  8
寸法線
 62
     0
 48
10.0
100
AcDbLine
 10
30.371349717758
 20
611.146664657585
 30
0.0
 11
30.371349717758
 21
611.771664657585
 31
0.0
  0
LINE
  5
392C
330
36EC
100
AcDbEntity
  8
寸法線
 62
     0
 48
10.0
100
AcDbLine
 10
22.571349717758
 20
610.521664657585
 30
0.0
 11
16.571349717758
 21
610.521664657585
 31
0.0
  0
LINE
  5
392D
330
36EC
100
AcDbEntity
  8
寸法線
 62
     0
 48
10.0
100
AcDbLine
 10
36.371349717758
 20
610.521664657585
 30
0.0
 11
44.821349717758
 21
610.521664657585
 31
0.0
  0
LINE
  5
392E
330
36EC
100
AcDbEntity
  8
寸法線
 62
     0
 48
10.0
100
AcDbLine
 10
28.571349717758
 20
610.521664657585
 30
0.0
 11
30.371349717758
 21
610.521664657585
 31
0.0
  0
INSERT
  5
392F
330
36EC
100
AcDbEntity
  8
寸法線
 62
     0
 48
10.0
100
AcDbBlockReference
  2
_OPEN30
 10
28.571349717758
 20
610.521664657585
 30
0.0
 41
6.0
 42
6.0
 43
6.0
  0
INSERT
  5
3930
330
36EC
100
AcDbEntity
  8
寸法線
 62
     0
 48
10.0
100
AcDbBlockReference
  2
_OPEN30
 10
30.371349717758
 20
610.521664657585
 30
0.0
 41
6.0
 42
6.0
 43
6.0
 50
180.0
  0
MTEXT
  5
3931
330
36EC
100
AcDbEntity
  8
寸法線
 62
     0
 48
10.0
100
AcDbMText
 10
43.596349717758
 20
614.146664657585
 30
0.0
 40
6.0
 41
0.0
 71
     5
 72
     1
  1
\A1;1
  0
POINT
  5
3932
330
36EC
100
AcDbEntity
  8
DEFPOINTS
 62
     0
 48
10.0
100
AcDbPoint
 10
28.571349717758
 20
610.521664657585
 30
0.0
  0
POINT
  5
3933
330
36EC
100
AcDbEntity
  8
DEFPOINTS
 62
     0
 48
10.0
100
AcDbPoint
 10
30.371349717758
 20
610.521664657585
 30
0.0
  0
POINT
  5
3934
330
36EC
100
AcDbEntity
  8
DEFPOINTS
 62
     0
 48
10.0
100
AcDbPoint
 10
30.371349717758
 20
610.521664657585
 30
0.0
  0
ENDBLK
  5
36F9
330
36EC
100
AcDbEntity
  8
0
 48
10.0
100
AcDbBlockEnd
  0
BLOCK
  5
3C0E
330
3B3E
100
AcDbEntity
  8
0
100
AcDbBlockBegin
  2
_NONE
 70
     0
 10
0.0
 20
0.0
 30
0.0
  3
_NONE
  1
_NONE
  0
ENDBLK
  5
3C0F
330
3B3E
100
AcDbEntity
  8
0
100
AcDbBlockEnd
  0
BLOCK
  5
3D88
330
3D87
100
AcDbEntity
  8
0
100
AcDbBlockBegin
  2
*D43
 70
     1
 10
0.0
 20
0.0
 30
0.0
  3
*D43
  1
*D43
  0
LINE
  5
3D8A
330
3D87
100
AcDbEntity
  8
寸法線
 62
     0
 48
10.0
100
AcDbLine
 10
290.187262692497
 20
667.100138534281
 30
0.0
 11
349.565040111723
 21
667.100138534281
 31
0.0
  0
LINE
  5
3D8B
330
3D87
100
AcDbEntity
  8
寸法線
 62
     0
 48
10.0
100
AcDbLine
 10
290.187262692497
 20
596.100138534281
 30
0.0
 11
349.565040111723
 21
596.100138534281
 31
0.0
  0
LINE
  5
3D8C
330
3D87
100
AcDbEntity
  8
寸法線
 62
     0
 48
10.0
100
AcDbLine
 10
348.315040111723
 20
661.100138534281
 30
0.0
 11
348.315040111723
 21
602.100138534281
 31
0.0
  0
INSERT
  5
3D8D
330
3D87
100
AcDbEntity
  8
寸法線
 62
     0
100
AcDbBlockReference
  2
_OPEN30
 10
348.315040111723
 20
667.100138534281
 30
0.0
 41
6.0
 42
6.0
 43
6.0
 50
90.0
  0
INSERT
  5
3D8E
330
3D87
100
AcDbEntity
  8
寸法線
 62
     0
100
AcDbBlockReference
  2
_OPEN30
 10
348.315040111723
 20
596.100138534281
 30
0.0
 41
6.0
 42
6.0
 43
6.0
 50
270.0
  0
MTEXT
  5
3D8F
330
3D87
100
AcDbEntity
  8
寸法線
 62
     0
 48
10.0
100
AcDbMText
 10
344.686915111723
 20
631.775111534281
 30
0.0
 40
6.0
 41
0.0
 71
     5
 72
     1
  1
\A1;φ72
 11
0.0
 21
1.0
 31
0.0
  0
POINT
  5
3D90
330
3D87
100
AcDbEntity
  8
DEFPOINTS
 62
     0
100
AcDbPoint
 10
289.562262692497
 20
667.100138534281
 30
0.0
  0
POINT
  5
3D91
330
3D87
100
AcDbEntity
  8
DEFPOINTS
 62
     0
100
AcDbPoint
 10
289.562262692497
 20
596.100138534281
 30
0.0
  0
POINT
  5
3D92
330
3D87
100
AcDbEntity
  8
DEFPOINTS
 62
     0
100
AcDbPoint
 10
348.315040111723
 20
596.100138534281
 30
0.0
  0
ENDBLK
  5
3D89
330
3D87
100
AcDbEntity
  8
0
100
AcDbBlockEnd
  0
ENDSEC
  0
SECTION
  2
ENTITIES
  0
ARC
  5
2FCA
330
1A
100
AcDbEntity
  8
外形線
 48
10.0
100
AcDbCircle
 10
29.471349717758
 20
631.688674417514
 30
0.0
 40
36.0
100
AcDbArc
 50
91.432543737567
 51
88.567456262433
  0
ARC
  5
2FCB
330
1A
100
AcDbEntity
  8
細線
 48
10.0
100
AcDbCircle
 10
29.471349717758
 20
631.688674417514
 30
0.0
 40
34.5
100
AcDbArc
 50
91.494842089047
 51
88.505157910953
  0
LINE
  5
2FCC
330
1A
100
AcDbEntity
  8
中心線
 48
10.0
100
AcDbLine
 10
45.103306705287
 20
604.845023985935
 30
0.0
 11
73.666784217758
 21
555.371872417514
 31
0.0
  0
LINE
  5
2FCD
330
1A
100
AcDbEntity
  8
外形線
100
AcDbLine
 10
36.663809839357
 20
592.462696063638
 30
0.0
 11
60.046492339356
 21
605.962696063638
 31
0.0
  0
LINE
  5
2FCE
330
1A
100
AcDbEntity
  8
外形線
100
AcDbLine
 10
37.263827911195
 20
591.423439703137
 30
0.0
 11
60.646496421862
 21
604.923479188688
 31
0.0
  0
LINE
  5
2FCF
330
1A
100
AcDbEntity
  8
外形線
100
AcDbLine
 10
70.490441418844
 20
584.921238063367
 30
0.0
 11
49.664262508636
 21
572.897238063366
 31
0.0
  0
LINE
  5
2FD0
330
1A
100
AcDbEntity
  8
外形線
100
AcDbLine
 10
41.047062508636
 20
587.822666282348
 30
0.0
 11
61.873241418843
 21
599.846666282348
 31
0.0
  0
LINE
  5
2FD1
330
1A
100
AcDbEntity
  8
外形線
100
AcDbLine
 10
64.378241418843
 20
595.507879009388
 30
0.0
 11
43.552062508636
 21
583.483879009388
 31
0.0
  0
ARC
  5
2FD2
330
1A
100
AcDbEntity
  8
外形線
100
AcDbCircle
 10
54.340807436111
 20
573.5146246451
 30
0.0
 40
4.007999999999999
100
AcDbArc
 50
210.0
 51
300.000000000002
  0
LINE
  5
2FD3
330
1A
100
AcDbEntity
  8
外形線
100
AcDbLine
 10
53.96515196374
 20
589.495879009388
 30
0.0
 11
58.97515196374
 21
580.818304463468
 31
0.0
  0
ARC
  5
2FD4
330
1A
100
AcDbEntity
  8
外形線
100
AcDbCircle
 10
50.220616327097
 20
583.957604982806
 30
0.0
 40
9.30038181818205
100
AcDbArc
 50
259.727393143495
 51
340.272606856496
  0
LINE
  5
2FD5
330
1A
100
AcDbEntity
  8
外形線
100
AcDbLine
 10
37.263812839357
 20
591.423457063638
 30
0.0
 11
34.600244839357
 21
596.036914063639
 31
0.0
  0
LINE
  5
2FD6
330
1A
100
AcDbEntity
  8
外形線
100
AcDbLine
 10
49.967977617743
 20
573.072588063367
 30
0.0
 11
50.869777617743
 21
571.5106246451
 31
0.0
  0
LINE
  5
2FD7
330
1A
100
AcDbEntity
  8
細線
100
AcDbLine
 10
46.046865190588
 20
584.924254009388
 30
0.0
 11
43.541865190588
 21
589.263041282348
 31
0.0
  0
LINE
  5
2FD8
330
1A
100
AcDbEntity
  8
外形線
100
AcDbLine
 10
42.368223233252
 20
588.585438782348
 30
0.0
 11
44.873223233252
 21
584.246651509388
 31
0.0
  0
LINE
  5
2FD9
330
1A
100
AcDbEntity
  8
外形線
100
AcDbLine
 10
38.542062508636
 20
592.161453555308
 30
0.0
 11
41.047062508636
 21
587.822666282348
 31
0.0
  0
LINE
  5
2FDA
330
1A
100
AcDbEntity
  8
外形線
100
AcDbLine
 10
43.552062508636
 20
583.483879009388
 30
0.0
 11
49.664262508636
 21
572.897238063366
 31
0.0
  0
LINE
  5
2FDB
330
1A
100
AcDbEntity
  8
外形線
100
AcDbLine
 10
48.95515196374
 20
598.173453555308
 30
0.0
 11
51.46015196374
 21
593.834666282348
 31
0.0
  0
LINE
  5
2FDC
330
1A
100
AcDbEntity
  8
外形線
100
AcDbLine
 10
66.88032674806
 20
576.126279737539
 30
0.0
 11
74.977316217758
 21
562.101913417514
 31
0.0
  0
LINE
  5
2FDD
330
1A
100
AcDbEntity
  8
外形線
100
AcDbLine
 10
59.086099910095
 20
571.626258696724
 30
0.0
 11
67.183122268046
 21
557.601911364835
 31
0.0
  0
ARC
  5
2FDE
330
1A
100
AcDbEntity
  8
外形線
100
AcDbCircle
 10
67.183076131114
 20
562.101913816552
 30
0.0
 40
4.5
100
AcDbArc
 50
269.999994133302
 51
329.999994133297
  0
ARC
  5
2FDF
330
1A
100
AcDbEntity
  8
外形線
100
AcDbCircle
 10
71.080190678528
 20
564.351913417514
 30
0.0
 40
4.5
100
AcDbArc
 50
269.999994133302
 51
329.999994133297
  0
ARC
  5
2FE0
330
1A
100
AcDbEntity
  8
外形線
100
AcDbCircle
 10
74.977304304404
 20
557.601913018476
 30
0.0
 40
4.5
100
AcDbArc
 50
89.999994133303
 51
149.999994133298
  0
ARC
  5
2FE1
330
1A
100
AcDbEntity
  8
外形線
100
AcDbCircle
 10
29.605151839357
 20
631.688647063639
 30
0.0
 40
36.0
100
AcDbArc
 50
322.013338948965
 51
322.019297710041
  0
ARC
  5
2FE2
330
1A
100
AcDbEntity
  8
外形線
100
AcDbCircle
 10
29.605151839357
 20
631.688647063639
 30
0.0
 40
36.0
100
AcDbArc
 50
322.019297710041
 51
322.02995472503
  0
LINE
  5
2FE3
330
1A
100
AcDbEntity
  8
外形線
100
AcDbLine
 10
60.646495339357
 20
604.923481063639
 30
0.0
 11
57.981337339357
 21
609.539660563639
 31
0.0
  0
LINE
  5
2FE4
330
1A
100
AcDbEntity
  8
外形線
100
AcDbLine
 10
70.186726309738
 20
584.745888063367
 30
0.0
 11
71.088526309738
 21
583.1839246451
 31
0.0
  0
ARC
  5
2FE5
330
1A
100
AcDbEntity
  8
外形線
100
AcDbCircle
 10
67.61749649137
 20
581.1799246451
 30
0.0
 40
4.007999999999999
100
AcDbArc
 50
300.000000000002
 51
29.999999999999
  0
LINE
  5
2FE6
330
1A
100
AcDbEntity
  8
外形線
100
AcDbLine
 10
56.344807436111
 20
570.043594826732
 30
0.0
 11
69.621496491369
 21
577.708894826732
 31
0.0
  0
LINE
  5
2FE7
330
1A
100
AcDbEntity
  8
外形線
100
AcDbLine
 10
60.552080694228
 20
599.083893782348
 30
0.0
 11
63.057080694228
 21
594.745106509388
 31
0.0
  0
LINE
  5
2FE8
330
1A
100
AcDbEntity
  8
細線
100
AcDbLine
 10
61.883438736892
 20
594.067504009388
 30
0.0
 11
59.378438736892
 21
598.406291282348
 31
0.0
  0
LINE
  5
2FE9
330
1A
100
AcDbEntity
  8
外形線
100
AcDbLine
 10
59.368241418844
 20
604.185453555308
 30
0.0
 11
61.873241418843
 21
599.846666282348
 31
0.0
  0
LINE
  5
2FEA
330
1A
100
AcDbEntity
  8
外形線
100
AcDbLine
 10
64.378241418843
 20
595.507879009388
 30
0.0
 11
70.490441418844
 21
584.921238063367
 31
0.0
  0
ARC
  5
2FEB
330
1A
100
AcDbEntity
  8
外形線
100
AcDbCircle
 10
60.633705782201
 20
589.969604982806
 30
0.0
 40
9.30038181818205
100
AcDbArc
 50
259.727393143495
 51
340.272606856496
  0
ARC
  5
2FF1
330
1A
100
AcDbEntity
  8
外形線
 48
10.0
100
AcDbCircle
 10
29.605199217768
 20
641.688704917521
 30
0.0
 40
22.5
100
AcDbArc
 50
92.633603408824
 51
267.366396591176
  0
LINE
  5
2FF6
330
1A
100
AcDbEntity
  8
外形線
 48
10.0
100
AcDbLine
 10
34.471349717758
 20
638.713387188333
 30
0.0
 11
34.471349717758
 21
644.48688988023
 31
0.0
  0
LINE
  5
2FF7
330
1A
100
AcDbEntity
  8
外形線
 48
10.0
100
AcDbLine
 10
24.471349717758
 20
638.713387188334
 30
0.0
 11
24.471349717758
 21
644.48688988023
 31
0.0
  0
LINE
  5
2FF8
330
1A
100
AcDbEntity
  8
外形線
 48
10.0
100
AcDbLine
 10
30.371349717758
 20
636.346251084656
 30
0.0
 11
34.471349717758
 21
638.713387188333
 31
0.0
  0
LINE
  5
2FF9
330
1A
100
AcDbEntity
  8
外形線
 48
10.0
100
AcDbLine
 10
24.471349717758
 20
644.48688988023
 30
0.0
 11
28.571349717758
 21
646.854025983907
 31
0.0
  0
LINE
  5
2FFA
330
1A
100
AcDbEntity
  8
外形線
 48
10.0
100
AcDbLine
 10
34.471349717758
 20
644.48688988023
 30
0.0
 11
30.371349717758
 21
646.854025983907
 31
0.0
  0
LINE
  5
2FFB
330
1A
100
AcDbEntity
  8
外形線
 48
10.0
100
AcDbLine
 10
28.571349717758
 20
636.346251084656
 30
0.0
 11
24.471349717758
 21
638.713387188333
 31
0.0
  0
ARC
  5
2FFC
330
1A
100
AcDbEntity
  8
細線
 48
10.0
100
AcDbCircle
 10
29.471349717758
 20
641.600138534281
 30
0.0
 40
5.0
100
AcDbArc
 50
100.369759805477
 51
259.630240194523
  0
LINE
  5
3078
330
1A
100
AcDbEntity
  8
外形線
100
AcDbLine
 10
157.912277692497
 20
681.599986034281
 30
0.0
 11
192.912271192496
 21
681.599986034281
 31
0.0
  0
LINE
  5
3079
330
1A
100
AcDbEntity
  8
外形線
100
AcDbLine
 10
195.322144192497
 20
647.380138034281
 30
0.0
 11
192.912271192496
 21
681.599986034281
 31
0.0
  0
LINE
  5
307A
330
1A
100
AcDbEntity
  8
外形線
100
AcDbLine
 10
157.912277692497
 20
681.599986034281
 30
0.0
 11
157.912277692497
 21
601.600201034281
 31
0.0
  0
LINE
  5
307B
330
1A
100
AcDbEntity
  8
外形線
100
AcDbLine
 10
157.912277692497
 20
601.600201034281
 30
0.0
 11
192.912271192496
 21
601.600201034281
 31
0.0
  0
LINE
  5
307C
330
1A
100
AcDbEntity
  8
外形線
100
AcDbLine
 10
195.322144192497
 20
635.820140534281
 30
0.0
 11
192.912271192496
 21
601.600201034281
 31
0.0
  0
LINE
  5
308A
330
1A
100
AcDbEntity
  8
外形線
100
AcDbLine
 10
222.362282192497
 20
644.600138534281
 30
0.0
 11
215.593861192497
 21
644.600138534281
 31
0.0
  0
LINE
  5
308B
330
1A
100
AcDbEntity
  8
外形線
100
AcDbLine
 10
212.856297731727
 20
644.600138534281
 30
0.0
 11
207.412277692497
 21
644.600138534281
 31
0.0
  0
LINE
  5
308C
330
1A
100
AcDbEntity
  8
外形線
100
AcDbLine
 10
222.362282192497
 20
638.600138534281
 30
0.0
 11
215.593861192497
 21
638.600138534281
 31
0.0
  0
LINE
  5
308D
330
1A
100
AcDbEntity
  8
外形線
100
AcDbLine
 10
212.856297731727
 20
638.600138534281
 30
0.0
 11
207.412277692497
 21
638.600138534281
 31
0.0
  0
ARC
  5
308E
330
1A
100
AcDbEntity
  8
細線
100
AcDbCircle
 10
218.19193740385
 20
643.100138534281
 30
0.0
 40
3.0
100
AcDbArc
 50
150.0
 51
210.0
  0
ARC
  5
308F
330
1A
100
AcDbEntity
  8
細線
100
AcDbCircle
 10
218.19193740385
 20
640.100138534281
 30
0.0
 40
3.0
100
AcDbArc
 50
150.0
 51
210.0
  0
ARC
  5
3090
330
1A
100
AcDbEntity
  8
細線
100
AcDbCircle
 10
212.995784981143
 20
640.100138534281
 30
0.0
 40
3.0
100
AcDbArc
 50
330.0
 51
30.0
  0
ARC
  5
3091
330
1A
100
AcDbEntity
  8
細線
100
AcDbCircle
 10
210.25822100076
 20
640.100137634281
 30
0.0
 40
3.0
100
AcDbArc
 50
330.00001984784
 51
30.000019847843
  0
ARC
  5
3092
330
1A
100
AcDbEntity
  8
細線
100
AcDbCircle
 10
210.258219961528
 20
643.100137634281
 30
0.0
 40
3.0
100
AcDbArc
 50
330.00001984784
 51
30.000019847843
  0
ARC
  5
3093
330
1A
100
AcDbEntity
  8
細線
100
AcDbCircle
 10
215.454372384235
 20
643.100139434281
 30
0.0
 40
3.0
100
AcDbArc
 50
150.00001984784
 51
210.000019847843
  0
CIRCLE
  5
30B4
330
1A
100
AcDbEntity
  8
外形線
100
AcDbCircle
 10
181.411279192497
 20
641.600138534281
 30
0.0
 40
2.499
  0
LINE
  5
30B5
330
1A
100
AcDbEntity
  8
外形線
100
AcDbLine
 10
177.412277692497
 20
636.570140534281
 30
0.0
 11
177.412277692497
 21
646.630138034281
 31
0.0
  0
LINE
  5
30B6
330
1A
100
AcDbEntity
  8
外形線
100
AcDbLine
 10
178.612282192497
 20
647.380138034281
 30
0.0
 11
206.219968724158
 21
647.380138034281
 31
0.0
  0
LINE
  5
30B7
330
1A
100
AcDbEntity
  8
外形線
100
AcDbLine
 10
178.612282192497
 20
647.380138034281
 30
0.0
 11
177.412277692497
 21
646.630138034281
 31
0.0
  0
LINE
  5
30B8
330
1A
100
AcDbEntity
  8
外形線
100
AcDbLine
 10
178.678841692497
 20
644.490092534281
 30
0.0
 11
206.145768830419
 21
644.490092534281
 31
0.0
  0
LINE
  5
30B9
330
1A
100
AcDbEntity
  8
外形線
100
AcDbLine
 10
178.612282192497
 20
635.820140534281
 30
0.0
 11
177.412277692497
 21
636.570140534281
 31
0.0
  0
LINE
  5
30BA
330
1A
100
AcDbEntity
  8
外形線
100
AcDbLine
 10
178.612282192497
 20
635.820140534281
 30
0.0
 11
206.212273192497
 21
635.820140534281
 31
0.0
  0
LINE
  5
30BB
330
1A
100
AcDbEntity
  8
外形線
100
AcDbLine
 10
178.678841692497
 20
638.710094534281
 30
0.0
 11
206.152311770607
 21
638.710094534281
 31
0.0
  0
CIRCLE
  5
30BE
330
1A
100
AcDbEntity
  8
外形線
100
AcDbCircle
 10
199.912277692497
 20
641.600138534281
 30
0.0
 40
0.9999
  0
ARC
  5
30C8
330
1A
100
AcDbEntity
  8
外形線
100
AcDbCircle
 10
181.342705192497
 20
641.600093534281
 30
0.0
 40
3.9304305
100
AcDbArc
 50
132.668434758324
 51
227.331604937362
  0
ARC
  5
30C9
330
1A
100
AcDbEntity
  8
外形線
100
AcDbCircle
 10
180.582520192497
 20
647.061580034281
 30
0.0
 40
3.1994565
100
AcDbArc
 50
187.749961576341
 51
233.487520784031
  0
ARC
  5
30CA
330
1A
100
AcDbEntity
  8
外形線
100
AcDbCircle
 10
180.582520192497
 20
636.138698534281
 30
0.0
 40
3.1994565
100
AcDbArc
 50
126.512518911656
 51
172.250078119342
  0
LINE
  5
30D3
330
1A
100
AcDbEntity
  8
外形線
100
AcDbLine
 10
207.412277692497
 20
646.634947723533
 30
0.0
 11
207.412277692497
 21
636.574950223533
 31
0.0
  0
LINE
  5
30D4
330
1A
100
AcDbEntity
  8
外形線
100
AcDbLine
 10
206.212273192497
 20
635.824950223533
 30
0.0
 11
207.412277692497
 21
636.574950223533
 31
0.0
  0
LINE
  5
30D5
330
1A
100
AcDbEntity
  8
外形線
100
AcDbLine
 10
206.212273192497
 20
647.384947723533
 30
0.0
 11
207.412277692497
 21
646.634947723533
 31
0.0
  0
ARC
  5
30D6
330
1A
100
AcDbEntity
  8
外形線
100
AcDbCircle
 10
203.481850192497
 20
641.604994723533
 30
0.0
 40
3.9304305
100
AcDbArc
 50
312.668434758324
 51
47.331604937362
  0
ARC
  5
30D7
330
1A
100
AcDbEntity
  8
外形線
100
AcDbCircle
 10
204.242035192497
 20
636.143508223533
 30
0.0
 40
3.1994565
100
AcDbArc
 50
7.749961576341
 51
53.487520784031
  0
ARC
  5
30D8
330
1A
100
AcDbEntity
  8
外形線
100
AcDbCircle
 10
204.242035192497
 20
647.066389723533
 30
0.0
 40
3.1994565
100
AcDbArc
 50
306.512518911656
 51
352.250078119342
  0
LINE
  5
30DA
330
1A
100
AcDbEntity
  8
中心線
 48
10.0
100
AcDbLine
 10
181.411279192497
 20
644.490092534281
 30
0.0
 11
181.411279192497
 21
638.710094534281
 31
0.0
  0
LINE
  5
30DC
330
1A
100
AcDbEntity
  8
中心線
 48
10.0
100
AcDbLine
 10
199.912277692497
 20
643.663829534281
 30
0.0
 11
199.912277692497
 21
639.536447534281
 31
0.0
  0
LINE
  5
30DE
330
1A
100
AcDbEntity
  8
中心線
 48
10.0
100
AcDbLine
 10
145.842251426351
 20
641.600138534281
 30
0.0
 11
263.478725158046
 21
641.600138534281
 31
0.0
  0
LINE
  5
310D
330
1A
100
AcDbEntity
  8
中心線
 48
10.0
100
AcDbLine
 10
29.471349717758
 20
685.785704409446
 30
0.0
 11
29.471349717758
 21
588.062208500466
 31
0.0
  0
LINE
  5
310E
330
1A
100
AcDbEntity
  8
外形線
 48
10.0
100
AcDbLine
 10
28.571349717758
 20
681.600138534281
 30
0.0
 11
30.371349717758
 21
681.600138534281
 31
0.0
  0
LINE
  5
310F
330
1A
100
AcDbEntity
  8
外形線
 48
10.0
100
AcDbLine
 10
30.371349717758
 20
681.600138534281
 30
0.0
 11
30.371349717758
 21
601.600138534281
 31
0.0
  0
LINE
  5
3110
330
1A
100
AcDbEntity
  8
外形線
 48
10.0
100
AcDbLine
 10
28.571349717758
 20
681.600138534281
 30
0.0
 11
28.571349717758
 21
601.600138534281
 31
0.0
  0
LINE
  5
3111
330
1A
100
AcDbEntity
  8
外形線
 48
10.0
100
AcDbLine
 10
30.371349717758
 20
601.600138534281
 30
0.0
 11
28.571349717758
 21
601.600138534281
 31
0.0
  0
ARC
  5
3112
330
1A
100
AcDbEntity
  8
細線
 48
10.0
100
AcDbCircle
 10
29.471349717758
 20
641.600138534281
 30
0.0
 40
5.0
100
AcDbArc
 50
280.369759805478
 51
79.630240194523
  0
ARC
  5
3116
330
1A
100
AcDbEntity
  8
外形線
 48
10.0
100
AcDbCircle
 10
29.605199217768
 20
641.688704917521
 30
0.0
 40
22.5
100
AcDbArc
 50
271.951363445946
 51
88.048636554054
  0
TEXT
  5
3170
330
1A
100
AcDbEntity
  8
寸法線
100
AcDbText
 10
-21.917260574961
 20
476.936302932365
 30
0.0
 40
6.573033707865
  1
ク　ロ
  7
EXCADVERT
 72
     3
 11
-21.917260574961
 21
457.436302932365
 31
0.0
100
AcDbText
  0
TEXT
  5
3171
330
1A
100
AcDbEntity
  8
寸法線
100
AcDbText
 10
-51.46791907496
 20
476.786293932365
 30
0.0
 40
6.030927835052
  1
ア　カ
  7
EXCADVERT
 72
     3
 11
-51.46791907496
 21
457.286293932365
 31
0.0
100
AcDbText
  0
TEXT
  5
3172
330
1A
100
AcDbEntity
  8
寸法線
100
AcDbText
 10
-67.218193574961
 20
470.111115432365
 30
0.0
 40
6.428571428571
  1
キ
  7
EXCADVERT
 72
     3
 11
-67.218193574961
 21
464.111115432365
 31
0.0
100
AcDbText
  0
TEXT
  5
3173
330
1A
100
AcDbEntity
  8
寸法線
100
AcDbText
 10
-82.593565574961
 20
476.936302932365
 30
0.0
 40
5.636363639073
  1
ミドリ
  7
EXCADVERT
 72
     3
 11
-82.593565574961
 21
458.336302923424
 31
0.0
100
AcDbText
  0
LINE
  5
3174
330
1A
100
AcDbEntity
  8
寸法線
100
AcDbLine
 10
-78.850609574961
 20
520.952704932365
 30
0.0
 11
-78.850609574961
 21
427.952700432365
 31
0.0
  0
LINE
  5
3175
330
1A
100
AcDbEntity
  8
寸法線
100
AcDbLine
 10
-47.791620074961
 20
520.952704932365
 30
0.0
 11
-47.791620074961
 21
436.952700432365
 31
0.0
  0
LINE
  5
3176
330
1A
100
AcDbEntity
  8
寸法線
100
AcDbLine
 10
-78.850609574961
 20
427.952694432365
 30
0.0
 11
-3.609403574961
 21
427.952694432365
 31
0.0
  0
LINE
  5
3177
330
1A
100
AcDbEntity
  8
寸法線
100
AcDbLine
 10
-63.32117257496
 20
491.607307932365
 30
0.0
 11
-63.32117257496
 21
432.452700432365
 31
0.0
  0
LINE
  5
3178
330
1A
100
AcDbEntity
  8
寸法線
100
AcDbLine
 10
-63.32117257496
 20
432.452700432365
 30
0.0
 11
-3.246900074961
 21
432.452700432365
 31
0.0
  0
LINE
  5
3179
330
1A
100
AcDbEntity
  8
寸法線
100
AcDbLine
 10
-33.011850074961
 20
491.607307932365
 30
0.0
 11
-33.011850074961
 21
441.452700432365
 31
0.0
  0
LINE
  5
317A
330
1A
100
AcDbEntity
  8
寸法線
100
AcDbLine
 10
-18.017847074961
 20
445.952700432365
 30
0.0
 11
-18.017847074961
 21
491.239585932365
 31
0.0
  0
LINE
  5
317B
330
1A
100
AcDbEntity
  8
寸法線
100
AcDbLine
 10
-47.791620074961
 20
436.952700432365
 30
0.0
 11
2.45836942504
 21
436.952700432365
 31
0.0
  0
LINE
  5
317C
330
1A
100
AcDbEntity
  8
寸法線
100
AcDbLine
 10
-1.601217074961
 20
432.944371932365
 30
0.0
 11
0.264433425039
 21
434.168409432365
 31
0.0
  0
LINE
  5
317D
330
1A
100
AcDbEntity
  8
寸法線
100
AcDbLine
 10
-1.468717574961
 20
428.850924432365
 30
0.0
 11
0.487856925039
 21
430.843717932365
 31
0.0
  0
LINE
  5
317E
330
1A
100
AcDbEntity
  8
寸法線
100
AcDbLine
 10
2.45836942504
 20
434.691838932365
 30
0.0
 11
1.757795925039
 21
434.656213932365
 31
0.0
  0
LINE
  5
317F
330
1A
100
AcDbEntity
  8
寸法線
100
AcDbLine
 10
2.45836942504
 20
431.740350432365
 30
0.0
 11
2.319838425039
 21
431.726022432365
 31
0.0
  0
ARC
  5
3180
330
1A
100
AcDbEntity
  8
寸法線
100
AcDbCircle
 10
-3.246900074961
 20
435.452700432365
 30
0.0
 40
3.0
100
AcDbArc
 50
270.0
 51
303.268623610807
  0
ARC
  5
3181
330
1A
100
AcDbEntity
  8
寸法線
100
AcDbCircle
 10
1.910128425039
 20
431.660092932365
 30
0.0
 40
3.0
100
AcDbArc
 50
92.910721466855
 51
123.268603762964
  0
ARC
  5
3182
330
1A
100
AcDbEntity
  8
寸法線
100
AcDbCircle
 10
2.628542925039
 20
428.741947932365
 30
0.0
 40
3.0
100
AcDbArc
 50
95.906259411359
 51
135.525546099522
  0
ARC
  5
3183
330
1A
100
AcDbEntity
  8
寸法線
100
AcDbCircle
 10
-3.609403574961
 20
430.952700432365
 30
0.0
 40
3.0
100
AcDbArc
 50
270.0
 51
315.525565947364
  0
ARC
  5
3184
330
1A
100
AcDbEntity
  8
寸法線
100
AcDbCircle
 10
-3.246900074961
 20
438.452700432365
 30
0.0
 40
3.0
100
AcDbArc
 50
56.731416084878
 51
89.999981276031
  0
LINE
  5
3185
330
1A
100
AcDbEntity
  8
寸法線
100
AcDbLine
 10
-1.601217074961
 20
440.961027432365
 30
0.0
 11
0.264433425039
 21
439.736989932365
 31
0.0
  0
LINE
  5
3186
330
1A
100
AcDbEntity
  8
寸法線
100
AcDbLine
 10
2.45836942504
 20
439.213560432365
 30
0.0
 11
1.757795925039
 21
439.249185432365
 31
0.0
  0
ARC
  5
3187
330
1A
100
AcDbEntity
  8
寸法線
100
AcDbCircle
 10
1.910128425039
 20
442.245306432365
 30
0.0
 40
3.0
100
AcDbArc
 50
236.731435932722
 51
267.089318228831
  0
LINE
  5
3188
330
1A
100
AcDbEntity
  8
寸法線
100
AcDbLine
 10
2.45836942504
 20
442.165048932365
 30
0.0
 11
2.319838425039
 21
442.179376932365
 31
0.0
  0
ARC
  5
3189
330
1A
100
AcDbEntity
  8
寸法線
100
AcDbCircle
 10
2.628542925039
 20
445.163446932365
 30
0.0
 40
3.0
100
AcDbArc
 50
224.474436300385
 51
264.093722988548
  0
LINE
  5
318A
330
1A
100
AcDbEntity
  8
寸法線
100
AcDbLine
 10
-1.468717574961
 20
445.054476432365
 30
0.0
 11
0.487856925039
 21
443.061681432365
 31
0.0
  0
ARC
  5
318B
330
1A
100
AcDbEntity
  8
寸法線
100
AcDbCircle
 10
-3.609403574961
 20
442.952700432365
 30
0.0
 40
3.0
100
AcDbArc
 50
44.474473748321
 51
89.999981276031
  0
LINE
  5
318C
330
1A
100
AcDbEntity
  8
寸法線
100
AcDbLine
 10
-18.017847074961
 20
445.952700432365
 30
0.0
 11
-3.609403574961
 21
445.952700432365
 31
0.0
  0
LINE
  5
318D
330
1A
100
AcDbEntity
  8
寸法線
100
AcDbLine
 10
-33.011850074961
 20
441.452700432365
 30
0.0
 11
-3.246900074961
 21
441.452700432365
 31
0.0
  0
LINE
  5
318E
330
1A
100
AcDbEntity
  8
寸法線
100
AcDbLine
 10
5.45836942504
 20
442.952700432365
 30
0.0
 11
57.958357425039
 21
442.952700432365
 31
0.0
  0
LINE
  5
318F
330
1A
100
AcDbEntity
  8
寸法線
100
AcDbLine
 10
5.45836942504
 20
430.952700432365
 30
0.0
 11
57.958357425039
 21
430.952700432365
 31
0.0
  0
ARC
  5
3190
330
1A
100
AcDbEntity
  8
寸法線
100
AcDbCircle
 10
52.762206041564
 20
433.952698632365
 30
0.0
 40
6.0
100
AcDbArc
 50
330.000019847843
 51
30.000019847843
  0
ARC
  5
3191
330
1A
100
AcDbEntity
  8
寸法線
100
AcDbCircle
 10
52.762203963102
 20
439.952698632364
 30
0.0
 40
6.0
100
AcDbArc
 50
330.000019847843
 51
30.000019847843
  0
ARC
  5
3192
330
1A
100
AcDbEntity
  8
寸法線
100
AcDbCircle
 10
63.154508808515
 20
439.952702232365
 30
0.0
 40
6.0
100
AcDbArc
 50
150.000019847843
 51
210.000019847843
  0
ARC
  5
3193
330
1A
100
AcDbEntity
  8
寸法線
100
AcDbCircle
 10
10.654521847746
 20
439.952700432365
 30
0.0
 40
6.0
100
AcDbArc
 50
150.0
 51
210.0
  0
ARC
  5
3194
330
1A
100
AcDbEntity
  8
寸法線
100
AcDbCircle
 10
10.654521847746
 20
433.952700432365
 30
0.0
 40
6.0
100
AcDbArc
 50
150.0
 51
210.0
  0
ARC
  5
3195
330
1A
100
AcDbEntity
  8
寸法線
100
AcDbCircle
 10
0.262217002333
 20
433.952700432365
 30
0.0
 40
6.0
100
AcDbArc
 50
330.0
 51
30.0
  0
LINE
  5
3196
330
1A
100
AcDbEntity
  8
寸法線
100
AcDbLine
 10
60.958357425039
 20
436.952700432365
 30
0.0
 11
95.458357425039
 21
436.952700432365
 31
0.0
  0
LINE
  5
3197
330
1A
100
AcDbEntity
  8
寸法線
100
AcDbLine
 10
95.458357425039
 20
444.452700432365
 30
0.0
 11
67.440542925039
 21
444.452700432365
 31
0.0
  0
LINE
  5
3198
330
1A
100
AcDbEntity
  8
寸法線
100
AcDbLine
 10
95.458357425039
 20
451.952700432365
 30
0.0
 11
67.59048292504
 21
451.952700432365
 31
0.0
  0
LINE
  5
3199
330
1A
100
AcDbEntity
  8
寸法線
100
AcDbLine
 10
64.757291925039
 20
449.939134932365
 30
0.0
 11
62.423269425039
 21
443.235414432365
 31
0.0
  0
LINE
  5
319A
330
1A
100
AcDbEntity
  8
寸法線
100
AcDbLine
 10
61.006673925039
 20
442.228632432365
 30
0.0
 11
60.958357425039
 21
442.228632432365
 31
0.0
  0
LINE
  5
319B
330
1A
100
AcDbEntity
  8
寸法線
100
AcDbLine
 10
64.680937425039
 20
442.629346932365
 30
0.0
 11
64.005850425039
 21
441.046090932365
 31
0.0
  0
LINE
  5
319C
330
1A
100
AcDbEntity
  8
寸法線
100
AcDbLine
 10
61.936141425039
 20
439.678579932365
 30
0.0
 11
60.958357425039
 21
439.678579932365
 31
0.0
  0
ARC
  5
319D
330
1A
100
AcDbEntity
  8
寸法線
100
AcDbCircle
 10
67.59048292504
 20
448.952700432365
 30
0.0
 40
3.0
100
AcDbArc
 50
89.999981276032
 51
160.803412696662
  0
ARC
  5
319E
330
1A
100
AcDbEntity
  8
寸法線
100
AcDbCircle
 10
67.440542925039
 20
441.452700432365
 30
0.0
 40
3.0
100
AcDbArc
 50
89.999981276032
 51
156.907528872888
  0
ARC
  5
319F
330
1A
100
AcDbEntity
  8
寸法線
100
AcDbCircle
 10
61.006673925039
 20
443.728632432365
 30
0.0
 40
1.5
100
AcDbArc
 50
270.0
 51
340.803432544505
  0
ARC
  5
31A0
330
1A
100
AcDbEntity
  8
寸法線
100
AcDbCircle
 10
61.936141425039
 20
441.928579932365
 30
0.0
 40
2.25
100
AcDbArc
 50
270.0
 51
336.907491424953
  0
LINE
  5
31A1
330
1A
100
AcDbEntity
  8
寸法線
100
AcDbLine
 10
95.458357425039
 20
421.952700432365
 30
0.0
 11
67.59048292504
 21
421.952700432365
 31
0.0
  0
ARC
  5
31A2
330
1A
100
AcDbEntity
  8
寸法線
100
AcDbCircle
 10
67.59048292504
 20
424.952700432365
 30
0.0
 40
3.0
100
AcDbArc
 50
199.196626999025
 51
270.0
  0
LINE
  5
31A3
330
1A
100
AcDbEntity
  8
寸法線
100
AcDbLine
 10
95.458357425039
 20
429.452700432365
 30
0.0
 11
67.440542925039
 21
429.452700432365
 31
0.0
  0
ARC
  5
31A4
330
1A
100
AcDbEntity
  8
寸法線
100
AcDbCircle
 10
67.440542925039
 20
432.452700432365
 30
0.0
 40
3.0
100
AcDbArc
 50
203.092510822795
 51
270.0
  0
LINE
  5
31A5
330
1A
100
AcDbEntity
  8
寸法線
100
AcDbLine
 10
61.006673925039
 20
431.676766932365
 30
0.0
 11
60.958357425039
 21
431.676766932365
 31
0.0
  0
LINE
  5
31A6
330
1A
100
AcDbEntity
  8
寸法線
100
AcDbLine
 10
64.757291925039
 20
423.966264432365
 30
0.0
 11
62.423269425039
 21
430.669984932365
 31
0.0
  0
ARC
  5
31A7
330
1A
100
AcDbEntity
  8
寸法線
100
AcDbCircle
 10
61.006673925039
 20
430.176766932365
 30
0.0
 40
1.5
100
AcDbArc
 50
19.196607151181
 51
89.999981276032
  0
LINE
  5
31A8
330
1A
100
AcDbEntity
  8
寸法線
100
AcDbLine
 10
64.680937425039
 20
431.276052432365
 30
0.0
 11
64.005850425039
 21
432.859308432365
 31
0.0
  0
LINE
  5
31A9
330
1A
100
AcDbEntity
  8
寸法線
100
AcDbLine
 10
61.936141425039
 20
434.226820932365
 30
0.0
 11
60.958357425039
 21
434.226820932365
 31
0.0
  0
ARC
  5
31AA
330
1A
100
AcDbEntity
  8
寸法線
100
AcDbCircle
 10
61.936141425039
 20
431.976820932365
 30
0.0
 40
2.25
100
AcDbArc
 50
23.092490974952
 51
89.999981276031
  0
TEXT
  5
31AB
330
1A
100
AcDbEntity
  8
寸法線
100
AcDbText
 10
18.354521925039
 20
433.805025432365
 30
0.0
 40
6.75
  1
リード線
 41
0.869565217391
  7
EXCADSTD
 72
     5
 11
45.354521925039
 21
433.805025432365
 31
0.0
100
AcDbText
  0
TEXT
  5
31AC
330
1A
100
AcDbEntity
  8
寸法線
100
AcDbText
 10
79.40575342504
 20
453.080418432365
 30
0.0
 40
5.25
  1
ク　ロ
 41
0.918367346939
  7
EXCADSTD
 72
     5
 11
95.15575342504
 21
453.080418432365
 31
0.0
100
AcDbText
  0
TEXT
  5
31AD
330
1A
100
AcDbEntity
  8
寸法線
100
AcDbText
 10
79.555762425039
 20
445.430259432365
 30
0.0
 40
5.25
  1
シ　ロ
 41
0.918367346939
  7
EXCADSTD
 72
     5
 11
95.305762425039
 21
445.430259432365
 31
0.0
100
AcDbText
  0
TEXT
  5
31AE
330
1A
100
AcDbEntity
  8
寸法線
100
AcDbText
 10
79.555762425039
 20
437.780107932365
 30
0.0
 40
5.25
  1
ア　カ
 41
0.909090909091
  7
EXCADSTD
 72
     5
 11
95.305762425039
 21
437.780107932365
 31
0.0
100
AcDbText
  0
TEXT
  5
31AF
330
1A
100
AcDbEntity
  8
寸法線
100
AcDbText
 10
84.805876425039
 20
430.279947432365
 30
0.0
 40
5.25
  1
キ
 41
1.071428571429
  7
EXCADSTD
 72
     5
 11
90.055876425039
 21
430.279947432365
 31
0.0
100
AcDbText
  0
TEXT
  5
31B0
330
1A
100
AcDbEntity
  8
寸法線
100
AcDbText
 10
79.555762425039
 20
422.629789932365
 30
0.0
 40
5.25
  1
ミドリ
 41
0.947368421053
  7
EXCADSTD
 72
     5
 11
95.305762425039
 21
422.629789932365
 31
0.0
100
AcDbText
  0
TEXT
  5
31B1
330
1A
100
AcDbEntity
  8
寸法線
100
AcDbText
 10
-36.780702647483
 20
476.594398932365
 30
0.0
 40
6.724137931034
  1
シ　ロ
  7
EXCADVERT
 72
     3
 11
-36.780702647483
 21
457.094398932365
 31
0.0
100
AcDbText
  0
TEXT
  5
31B2
330
1A
100
AcDbEntity
  8
寸法線
100
AcDbText
 10
100.10774842504
 20
445.018896432365
 30
0.0
 40
7.5
  1
電源
 41
0.923076923077
  7
EXCADSTD
 72
     5
 11
115.10774842504
 21
445.018896432365
 31
0.0
100
AcDbText
  0
TEXT
  5
31B3
330
1A
100
AcDbEntity
  8
寸法線
100
AcDbText
 10
103.182752925039
 20
440.668675932365
 30
0.0
 40
7.336956521739
  1
ＨＣＬ
  7
EXCADVERT
 72
     3
 11
103.182752925039
 21
418.168675932365
 31
0.0
100
AcDbText
  0
LINE
  5
31B4
330
1A
100
AcDbEntity
  8
寸法線
100
AcDbLine
 10
-78.850609574961
 20
520.952704932365
 30
0.0
 11
-69.211617074961
 21
520.952704932365
 31
0.0
  0
LINE
  5
31B5
330
1A
100
AcDbEntity
  8
寸法線
100
AcDbLine
 10
-69.211617074961
 20
520.952704932365
 30
0.0
 11
-69.211617074961
 21
506.172889932365
 31
0.0
  0
LINE
  5
31B6
330
1A
100
AcDbEntity
  8
寸法線
100
AcDbLine
 10
-57.430612574961
 20
520.952704932365
 30
0.0
 11
-47.791620074961
 21
520.952704932365
 31
0.0
  0
LINE
  5
31B7
330
1A
100
AcDbEntity
  8
寸法線
100
AcDbLine
 10
-33.011826074961
 20
520.952704932365
 30
0.0
 11
-18.017823074961
 21
520.952704932365
 31
0.0
  0
TEXT
  5
31B8
330
1A
100
AcDbEntity
  8
寸法線
100
AcDbText
 10
-22.518784574961
 20
493.477546932365
 30
0.0
 40
9.0
  1
Ｍ
 41
1.25
  7
EXCADSTD
 72
     5
 11
-13.518784574961
 21
493.477546932365
 31
0.0
100
AcDbText
  0
LINE
  5
31B9
330
1A
100
AcDbEntity
  8
寸法線
100
AcDbLine
 10
-18.017823074961
 20
520.952704932365
 30
0.0
 11
-18.017823074961
 21
505.027977432365
 31
0.0
  0
CIRCLE
  5
31BA
330
1A
100
AcDbEntity
  8
寸法線
100
AcDbCircle
 10
-63.321115574961
 20
492.807312432365
 30
0.0
 40
1.2000045
  0
CIRCLE
  5
31BB
330
1A
100
AcDbEntity
  8
寸法線
100
AcDbCircle
 10
-33.011826074961
 20
492.807312432365
 30
0.0
 40
1.2000045
  0
CIRCLE
  5
31BC
330
1A
100
AcDbEntity
  8
寸法線
100
AcDbCircle
 10
-69.211617074961
 20
504.972885432365
 30
0.0
 40
1.2000045
  0
LINE
  5
31BD
330
1A
100
AcDbEntity
  8
寸法線
100
AcDbLine
 10
-57.430612574961
 20
520.952704932365
 30
0.0
 11
-57.430612574961
 21
506.172889932365
 31
0.0
  0
CIRCLE
  5
31BE
330
1A
100
AcDbEntity
  8
寸法線
100
AcDbCircle
 10
-57.430612574961
 20
504.972885432365
 30
0.0
 40
1.2000045
  0
LINE
  5
31BF
330
1A
100
AcDbEntity
  8
寸法線
100
AcDbLine
 10
-33.011826074961
 20
520.952704932365
 30
0.0
 11
-33.011826074961
 21
506.172889932365
 31
0.0
  0
CIRCLE
  5
31C0
330
1A
100
AcDbEntity
  8
寸法線
100
AcDbCircle
 10
-33.011826074961
 20
504.972885432365
 30
0.0
 40
1.2000045
  0
LINE
  5
31C1
330
1A
100
AcDbEntity
  8
寸法線
100
AcDbLine
 10
-63.321115574961
 20
494.007304932365
 30
0.0
 11
-68.011612574961
 21
504.972885432365
 31
0.0
  0
LINE
  5
31C2
330
1A
100
AcDbEntity
  8
寸法線
100
AcDbLine
 10
-33.011826074961
 20
494.007304932365
 30
0.0
 11
-31.811821574961
 21
504.972885432365
 31
0.0
  0
CIRCLE
  5
31C3
330
1A
100
AcDbEntity
  8
寸法線
100
AcDbCircle
 10
-18.012147074961
 20
498.144630432365
 30
0.0
 40
6.883348499999999
  0
LINE
  5
31E4
330
1A
100
AcDbEntity
  8
寸法線
100
AcDbLine
 10
351.351008405832
 20
478.627841482123
 30
0.0
 11
351.351008405832
 21
520.627796482123
 31
0.0
  0
LINE
  5
31E5
330
1A
100
AcDbEntity
  8
寸法線
100
AcDbLine
 10
430.851008405832
 20
510.127796482123
 30
0.0
 11
279.350916905832
 21
510.127796482123
 31
0.0
  0
LINE
  5
31E6
330
1A
100
AcDbEntity
  8
寸法線
100
AcDbLine
 10
430.851008405832
 20
499.627796482123
 30
0.0
 11
279.350916905832
 21
499.627796482123
 31
0.0
  0
LINE
  5
31E7
330
1A
100
AcDbEntity
  8
寸法線
100
AcDbLine
 10
430.851008405832
 20
489.127796482123
 30
0.0
 11
279.350916905832
 21
489.127796482123
 31
0.0
  0
LINE
  5
31E8
330
1A
100
AcDbEntity
  8
寸法線
100
AcDbLine
 10
279.350916905832
 20
520.627796482123
 30
0.0
 11
430.851008405832
 21
520.627796482123
 31
0.0
  0
LINE
  5
31E9
330
1A
100
AcDbEntity
  8
寸法線
100
AcDbLine
 10
303.350939405832
 20
478.627841482123
 30
0.0
 11
303.350939405832
 21
520.627796482123
 31
0.0
  0
ARC
  5
31EA
330
1A
100
AcDbEntity
  8
寸法線
100
AcDbCircle
 10
327.792155405832
 20
513.467730982123
 30
0.0
 40
1.3204605
100
AcDbArc
 50
252.904086432758
 51
337.411923467787
  0
ARC
  5
31EB
330
1A
100
AcDbEntity
  8
寸法線
100
AcDbCircle
 10
327.792155405832
 20
513.467685982123
 30
0.0
 40
1.3204425
100
AcDbArc
 50
252.903398883406
 51
337.412611017141
  0
ARC
  5
31ED
330
1A
100
AcDbEntity
  8
寸法線
100
AcDbCircle
 10
324.388865405832
 20
515.959293982123
 30
0.0
 40
3.7598535
100
AcDbArc
 50
273.280470979895
 51
33.415912335968
  0
ARC
  5
31EE
330
1A
100
AcDbEntity
  8
寸法線
100
AcDbCircle
 10
329.151849905832
 20
515.205630982123
 30
0.0
 40
3.472035
100
AcDbArc
 50
123.4690243997
 51
239.774013712205
  0
ARC
  5
31EF
330
1A
100
AcDbEntity
  8
寸法線
100
AcDbCircle
 10
329.151849905832
 20
515.205630982123
 30
0.0
 40
3.4720395
100
AcDbArc
 50
123.4690243997
 51
239.773899120646
  0
ARC
  5
31F0
330
1A
100
AcDbEntity
  8
寸法線
100
AcDbCircle
 10
327.349497905832
 20
517.934451982123
 30
0.0
 40
0.2017125
100
AcDbArc
 50
28.23094836902
 51
123.88384584338
  0
LINE
  5
31F1
330
1A
100
AcDbEntity
  8
寸法線
100
AcDbLine
 10
430.851008405832
 20
478.627841482123
 30
0.0
 11
279.350916905832
 21
478.627841482123
 31
0.0
  0
LINE
  5
31F2
330
1A
100
AcDbEntity
  8
寸法線
100
AcDbLine
 10
279.350939405832
 20
478.627841482123
 30
0.0
 11
279.350939405832
 21
520.627796482123
 31
0.0
  0
TEXT
  5
31F3
330
1A
100
AcDbEntity
  8
寸法線
100
AcDbText
 10
281.379243905832
 20
512.189975482123
 30
0.0
 40
6.75
  1
御仕様
 41
0.9
  7
EXCADSTD
 72
     5
 11
301.629243905832
 21
512.189975482123
 31
0.0
100
AcDbText
  0
LINE
  5
31F4
330
1A
100
AcDbEntity
  8
寸法線
100
AcDbLine
 10
430.851008405832
 20
478.627841482123
 30
0.0
 11
430.851008405832
 21
520.627796482123
 31
0.0
  0
LINE
  5
31F5
330
1A
100
AcDbEntity
  8
寸法線
100
AcDbLine
 10
400.851008405832
 20
478.627841482123
 30
0.0
 11
400.851008405832
 21
520.627796482123
 31
0.0
  0
TEXT
  5
31F6
330
1A
100
AcDbEntity
  8
寸法線
100
AcDbText
 10
409.106684405832
 20
512.039919982123
 30
0.0
 40
6.75
  1
台数
 41
0.9375
  7
EXCADSTD
 72
     5
 11
422.606684405832
 21
512.039919982123
 31
0.0
100
AcDbText
  0
TEXT
  5
31F7
330
1A
100
AcDbEntity
  8
寸法線
100
AcDbText
 10
369.655787405832
 20
512.189930482123
 30
0.0
 40
6.75
  1
記事
 41
0.9375
  7
EXCADSTD
 72
     5
 11
383.155787405832
 21
512.189930482123
 31
0.0
100
AcDbText
  0
MTEXT
  5
3228
102
{ACAD_XDICTIONARY
360
3AC9
102
}
330
1A
100
AcDbEntity
  8
寸法線
 48
10.0
100
AcDbMText
 10
94.826384660325
 20
519.828758589375
 30
0.0
 40
7.0
 41
158.221086696158
 71
     1
 72
     5
  1
\H0.8571x;塗　装　色：7.5BG4/1.5\P接点　容量：AC250V5A\P静止トルク：約4.9N・cm（約500g・cm）\P回　転　数：1RPM
1001
ACADANNOTATIVE
1000
AnnotativeData
1002
{
1070
     1
1070
     0
1002
}
  0
DIMENSION
  5
3452
330
1A
100
AcDbEntity
  8
寸法線
 48
10.0
100
AcDbDimension
  2
*D8
 10
228.011248517783
 20
628.379638534281
 30
0.0
 11
228.011248517783
 21
673.300968620171
 31
0.0
 70
   160
  1
G 3/4"
  3
ISO-25
100
AcDbAlignedDimension
 13
222.862282192497
 23
654.820638534281
 33
0.0
 14
222.862282192497
 24
628.379638534281
 34
0.0
 50
90.0
100
AcDbRotatedDimension
1001
ACAD
1000
DSTYLE
1002
{
1070
     5
1000
OPEN30
1070
    41
1040
6.0
1070
    47
1040
0.1
1070
    48
1040
0.1
1070
    73
1070
     0
1070
   140
1040
6.0
1070
   271
1070
     1
1070
   272
1070
     1
1070
   341
1005
2AF4
1002
}
  0
DIMENSION
  5
347D
330
1A
100
AcDbEntity
  8
寸法線
 48
10.0
100
AcDbDimension
  2
*D9
 10
218.953045192497
 20
638.600138534281
 30
0.0
 11
218.953045192497
 21
662.023957431919
 31
0.0
 70
   160
  1
φ<>
  3
ISO-25
100
AcDbAlignedDimension
 13
218.953045192497
 23
644.600138534281
 33
0.0
 14
218.953045192497
 24
638.600138534281
 34
0.0
 50
90.0
100
AcDbRotatedDimension
1001
ACAD
1000
DSTYLE
1002
{
1070
     5
1000
OPEN30
1070
    41
1040
6.0
1070
    47
1040
0.1
1070
    48
1040
0.1
1070
    73
1070
     0
1070
   140
1040
6.0
1070
   271
1070
     1
1070
   272
1070
     1
1070
   341
1005
2AF4
1002
}
  0
DIMENSION
  5
34B8
330
1A
100
AcDbEntity
  8
寸法線
 48
10.0
100
AcDbDimension
  2
*D10
 10
138.540821520491
 20
601.600201034281
 30
0.0
 11
134.915821520491
 21
641.600093534281
 31
0.0
 70
    32
  3
ISO-25
100
AcDbAlignedDimension
 13
157.912277692497
 23
681.599986034281
 33
0.0
 14
157.912277692497
 24
601.600201034281
 34
0.0
 50
90.0
100
AcDbRotatedDimension
1001
ACAD
1000
DSTYLE
1002
{
1070
     5
1000
OPEN30
1070
    41
1040
6.0
1070
    47
1040
0.1
1070
    48
1040
0.1
1070
    73
1070
     0
1070
   140
1040
6.0
1070
   271
1070
     1
1070
   272
1070
     1
1070
   341
1005
2AF4
1002
}
  0
DIMENSION
  5
34C5
330
1A
100
AcDbEntity
  8
寸法線
 48
10.0
100
AcDbDimension
  2
*D11
 10
192.912271192496
 20
582.611387524419
 30
0.0
 11
175.412274442497
 21
586.236387524419
 31
0.0
 70
    32
  3
ISO-25
100
AcDbAlignedDimension
 13
157.912277692497
 23
601.600201034281
 33
0.0
 14
192.912271192496
 24
601.600201034281
 34
0.0
100
AcDbRotatedDimension
1001
ACAD
1000
DSTYLE
1002
{
1070
     5
1000
OPEN30
1070
    41
1040
6.0
1070
    47
1040
0.1
1070
    48
1040
0.1
1070
    73
1070
     0
1070
   140
1040
6.0
1070
   271
1070
     1
1070
   272
1070
     1
1070
   341
1005
2AF4
1002
}
  0
DIMENSION
  5
34ED
330
1A
100
AcDbEntity
  8
寸法線
 48
10.0
100
AcDbDimension
  2
*D12
 10
330.362282192497
 20
546.589057764313
 30
0.0
 11
288.962273192497
 21
550.223432764313
 31
0.0
 70
    32
  1
83
  3
ISO-25
100
AcDbAlignedDimension
 13
247.562264192497
 23
621.050120534281
 33
0.0
 14
330.362282192497
 24
566.772920209764
 34
0.0
100
AcDbRotatedDimension
1001
ACAD
1000
DSTYLE
1002
{
1070
     5
1000
OPEN30
1070
    41
1040
6.0
1070
    47
1040
0.1
1070
    48
1040
0.1
1070
    73
1070
     0
1070
   140
1040
6.0
1070
   271
1070
     1
1070
   272
1070
     1
1070
   341
1005
2AF4
1002
}
  0
LINE
  5
3589
330
1A
100
AcDbEntity
  8
寸法線
 48
10.0
100
AcDbLine
 10
157.912277692497
 20
546.589057764313
 30
0.0
 11
163.707832650231
 21
548.141972034928
 31
0.0
  0
LINE
  5
358A
330
1A
100
AcDbEntity
  8
寸法線
 48
10.0
100
AcDbLine
 10
157.912277692497
 20
546.589057764313
 30
0.0
 11
163.707832650231
 21
545.036143493698
 31
0.0
  0
LINE
  5
3592
330
1A
100
AcDbEntity
  8
寸法線
 48
10.0
100
AcDbLine
 10
247.562264192497
 20
546.589057764313
 30
0.0
 11
241.766709234762
 21
548.141972034928
 31
0.0
  0
LINE
  5
3593
330
1A
100
AcDbEntity
  8
寸法線
 48
10.0
100
AcDbLine
 10
247.562264192497
 20
546.589057764313
 30
0.0
 11
241.766709234762
 21
545.036143493698
 31
0.0
  0
LINE
  5
3594
330
1A
100
AcDbEntity
  8
寸法線
 48
10.0
100
AcDbLine
 10
247.562264192497
 20
546.589057764313
 30
0.0
 11
157.912277692497
 21
546.589057764313
 31
0.0
  0
LINE
  5
3597
330
1A
100
AcDbEntity
  8
寸法線
 48
10.0
100
AcDbLine
 10
157.912277692497
 20
581.361387524419
 30
0.0
 11
157.912277692497
 21
545.339057764313
 31
0.0
  0
ARC
  5
35A4
330
1A
100
AcDbEntity
  8
寸法線
100
AcDbCircle
 10
204.703925977245
 20
552.949897629294
 30
0.0
 40
0.2017125
100
AcDbArc
 50
28.23094836902
 51
123.883845843379
  0
ARC
  5
35A5
330
1A
100
AcDbEntity
  8
寸法線
100
AcDbCircle
 10
206.506277977244
 20
550.221076629294
 30
0.0
 40
3.4720395
100
AcDbArc
 50
123.469024399698
 51
239.773899120646
  0
ARC
  5
35A6
330
1A
100
AcDbEntity
  8
寸法線
100
AcDbCircle
 10
206.506277977244
 20
550.221076629294
 30
0.0
 40
3.472035
100
AcDbArc
 50
123.469024399698
 51
239.774013712205
  0
ARC
  5
35A7
330
1A
100
AcDbEntity
  8
寸法線
100
AcDbCircle
 10
201.743293477244
 20
550.974739629295
 30
0.0
 40
3.7598535
100
AcDbArc
 50
273.280470979895
 51
33.415912335968
  0
ARC
  5
35A9
330
1A
100
AcDbEntity
  8
寸法線
100
AcDbCircle
 10
205.146583477244
 20
548.483131629294
 30
0.0
 40
1.3204425
100
AcDbArc
 50
252.903398883406
 51
337.412611017141
  0
ARC
  5
35AA
330
1A
100
AcDbEntity
  8
寸法線
100
AcDbCircle
 10
205.146583477244
 20
548.483176629295
 30
0.0
 40
1.3204605
100
AcDbArc
 50
252.904086432761
 51
337.411923467787
  0
MTEXT
  5
35AB
330
1A
100
AcDbEntity
  8
寸法線
 48
10.0
100
AcDbMText
 10
283.386894498324
 20
574.697683059465
 30
0.0
 40
6.0
 41
51.077111820171
 71
     1
 72
     5
  1
リード線0.5m付
  0
LEADER
  5
35AD
330
1A
100
AcDbEntity
  8
寸法線
 48
10.0
100
AcDbLeader
  3
ISO-25
 76
     2
 10
269.163873205439
 20
564.241796994346
 30
0.0
 10
282.560892802027
 20
569.26074960742
 30
0.0
1001
ACAD
1000
DSTYLE
1002
{
1070
     5
1000
OPEN30
1070
   147
1040
0.625
1070
    77
1070
     0
1070
    41
1040
6.0
1070
    47
1040
0.1
1070
    48
1040
0.1
1070
    73
1070
     0
1070
   140
1040
5.0
1070
   271
1070
     1
1070
   272
1070
     1
1070
   341
1005
2AF4
1070
   342
1005
2AF4
1002
}
  0
LEADER
  5
35B1
330
1A
100
AcDbEntity
  8
寸法線
 48
10.0
100
AcDbLeader
  3
ISO-25
 76
     3
 10
200.367675861168
 20
640.498848780574
 30
0.0
 10
204.741302551627
 20
604.957782894271
 30
0.0
 10
217.73721602724
 20
604.957782894271
 30
0.0
1001
ACAD
1000
DSTYLE
1002
{
1070
     5
1000
OPEN30
1070
   147
1040
0.625
1070
    77
1070
     0
1070
    41
1040
6.0
1070
    47
1040
0.1
1070
    48
1040
0.1
1070
    73
1070
     0
1070
   140
1040
5.0
1070
   271
1070
     1
1070
   272
1070
     1
1070
   341
1005
2AF4
1070
   342
1005
2AF4
1002
}
  0
MTEXT
  5
35B2
330
1A
100
AcDbEntity
  8
寸法線
 48
10.0
100
AcDbMText
 10
206.637933883685
 20
612.048954012667
 30
0.0
 40
6.0
 41
33.824373019361
 71
     1
 72
     5
  1
φ2割ピン
  0
LINE
  5
35B4
330
1A
100
AcDbEntity
  8
下書線
 48
10.0
100
AcDbLine
 10
169.928572074376
 20
702.908288584477
 30
0.0
 11
337.867460375023
 21
702.908288584477
 31
0.0
  0
LINE
  5
35B5
330
1A
100
AcDbEntity
  8
下書線
 48
10.0
100
AcDbLine
 10
130.917913044137
 20
729.261614638872
 30
0.0
 11
436.581969366534
 21
729.261614638872
 31
0.0
  0
LEADER
  5
35B6
330
1A
100
AcDbEntity
  8
寸法線
 48
10.0
100
AcDbLeader
  3
ISO-25
 76
     3
 10
170.144176457212
 20
681.500037949138
 30
0.0
 10
157.222507972663
 20
729.261614638872
 30
0.0
 10
150.696474677248
 20
729.261614638872
 30
0.0
1001
ACAD
1000
DSTYLE
1002
{
1070
     5
1000
OPEN30
1070
   147
1040
0.625
1070
    77
1070
     0
1070
    41
1040
6.0
1070
    47
1040
0.1
1070
    48
1040
0.1
1070
    73
1070
     0
1070
   140
1040
5.0
1070
   271
1070
     1
1070
   272
1070
     1
1070
   341
1005
2AF4
1070
   342
1005
2AF4
1002
}
  0
MTEXT
  5
35B7
330
1A
100
AcDbEntity
  8
寸法線
 48
10.0
100
AcDbMText
 10
131.085159702944
 20
735.566228968656
 30
0.0
 40
6.0
 41
21.514934650843
 71
     1
 72
     5
  1
SUS304
  0
LEADER
  5
35B9
330
1A
100
AcDbEntity
  8
寸法線
 48
10.0
100
AcDbLeader
  3
ISO-25
 76
     3
 10
210.167235909672
 20
644.840448556343
 30
0.0
 10
193.920332398372
 20
729.261614638872
 30
0.0
 10
187.873042189374
 20
729.261614638872
 30
0.0
1001
ACAD
1000
DSTYLE
1002
{
1070
     5
1000
OPEN30
1070
   147
1040
0.625
1070
    77
1070
     0
1070
    41
1040
6.0
1070
    47
1040
0.1
1070
    48
1040
0.1
1070
    73
1070
     0
1070
   140
1040
5.0
1070
   271
1070
     1
1070
   272
1070
     1
1070
   341
1005
2AF4
1070
   342
1005
2AF4
1002
}
  0
MTEXT
  5
35C0
330
1A
100
AcDbEntity
  8
寸法線
 48
10.0
100
AcDbMText
 10
167.753238494514
 20
735.974738676377
 30
0.0
 40
6.0
 41
21.514934650843
 71
     1
 72
     5
  1
SUS304
  0
MTEXT
  5
35C2
330
1A
100
AcDbEntity
  8
寸法線
 48
10.0
100
AcDbMText
 10
207.556341294719
 20
746.17031367647
 30
0.0
 40
6.0
 41
21.958515023009
 71
     1
 72
     5
  1
座金\PSS400
  0
LEADER
  5
35C4
330
1A
100
AcDbEntity
  8
寸法線
 48
10.0
100
AcDbLeader
  3
ISO-25
 76
     3
 10
240.655138866034
 20
664.090917803186
 30
0.0
 10
230.121635551308
 20
729.261614638872
 30
0.0
 10
222.79641383921
 20
729.261614638872
 30
0.0
1001
ACAD
1000
DSTYLE
1002
{
1070
     5
1000
OPEN30
1070
   147
1040
0.625
1070
    77
1070
     0
1070
    41
1040
6.0
1070
    47
1040
0.1
1070
    48
1040
0.1
1070
    73
1070
     0
1070
   140
1040
5.0
1070
   271
1070
     1
1070
   272
1070
     1
1070
   341
1005
2AF4
1070
   342
1005
2AF4
1002
}
  0
MTEXT
  5
35C5
330
1A
100
AcDbEntity
  8
寸法線
 48
10.0
100
AcDbMText
 10
204.454257377642
 20
719.828777215091
 30
0.0
 40
6.0
 41
21.829737978125
 71
     1
 72
     5
  1
ナット\PSS400
  0
LEADER
  5
35C7
330
1A
100
AcDbEntity
  8
寸法線
 48
10.0
100
AcDbLeader
  3
ISO-25
 76
     3
 10
237.148706289704
 20
662.600138534281
 30
0.0
 10
226.597120759818
 20
702.908288584477
 30
0.0
 10
219.522346967822
 20
702.908288584477
 30
0.0
1001
ACAD
1000
DSTYLE
1002
{
1070
     5
1000
OPEN30
1070
   147
1040
0.625
1070
    77
1070
     0
1070
    41
1040
6.0
1070
    47
1040
0.1
1070
    48
1040
0.1
1070
    73
1070
     0
1070
   140
1040
5.0
1070
   271
1070
     1
1070
   272
1070
     1
1070
   341
1005
2AF4
1070
   342
1005
2AF4
1002
}
  0
LEADER
  5
35C8
330
1A
100
AcDbEntity
  8
寸法線
 48
10.0
100
AcDbLeader
  3
ISO-25
 76
     3
 10
243.86490210701
 20
688.378011672706
 30
0.0
 10
252.669076170349
 20
729.261614638872
 30
0.0
 10
259.434772897868
 20
729.261614638872
 30
0.0
1001
ACAD
1000
DSTYLE
1002
{
1070
     5
1000
OPEN30
1070
   147
1040
0.625
1070
    77
1070
     0
1070
    41
1040
6.0
1070
    47
1040
0.1
1070
    48
1040
0.1
1070
    73
1070
     0
1070
   140
1040
5.0
1070
   271
1070
     1
1070
   272
1070
     1
1070
   341
1005
2AF4
1070
   342
1005
2AF4
1002
}
  0
MTEXT
  5
35C9
330
1A
100
AcDbEntity
  8
寸法線
 48
10.0
100
AcDbMText
 10
252.743464613867
 20
736.687108102771
 30
0.0
 40
6.0
 41
36.464392449889
 71
     1
 72
     5
  1
貴取付板
  0
LEADER
  5
35CB
330
1A
100
AcDbEntity
  8
寸法線
 48
10.0
100
AcDbLeader
  3
ISO-25
 76
     3
 10
246.523557257581
 20
660.705214124704
 30
0.0
 10
253.898016224699
 20
702.908288584477
 30
0.0
 10
260.83794275185
 20
702.908288584477
 30
0.0
1001
ACAD
1000
DSTYLE
1002
{
1070
     5
1000
OPEN30
1070
   147
1040
0.625
1070
    77
1070
     0
1070
    41
1040
6.0
1070
    47
1040
0.1
1070
    48
1040
0.1
1070
    73
1070
     0
1070
   140
1040
5.0
1070
   271
1070
     1
1070
   272
1070
     1
1070
   341
1005
2AF4
1070
   342
1005
2AF4
1002
}
  0
MTEXT
  5
35CC
102
{ACAD_XDICTIONARY
360
3ADE
102
}
330
1A
100
AcDbEntity
  8
寸法線
 48
10.0
100
AcDbMText
 10
254.428545519078
 20
718.936405670529
 30
0.0
 40
6.0
 41
46.328441263863
 71
     1
 72
     5
  1
ゴム\Pパッキン
1001
ACADANNOTATIVE
1000
AnnotativeData
1002
{
1070
     1
1070
     0
1002
}
  0
LEADER
  5
35D0
330
1A
100
AcDbEntity
  8
寸法線
 48
10.0
100
AcDbLeader
  3
ISO-25
 76
     3
 10
280.799908237494
 20
667.108941492019
 30
0.0
 10
306.099589562054
 20
702.908288584477
 30
0.0
 10
312.443461326484
 20
702.908288584477
 30
0.0
1001
ACAD
1000
DSTYLE
1002
{
1070
     5
1000
OPEN30
1070
   147
1040
0.625
1070
    77
1070
     0
1070
    41
1040
6.0
1070
    47
1040
0.1
1070
    48
1040
0.1
1070
    73
1070
     0
1070
   140
1040
5.0
1070
   271
1070
     1
1070
   272
1070
     1
1070
   341
1005
2AF4
1070
   342
1005
2AF4
1002
}
  0
MTEXT
  5
35D1
330
1A
100
AcDbEntity
  8
寸法線
 48
10.0
100
AcDbMText
 10
306.50932002314
 20
710.33679461526
 30
0.0
 40
6.0
 41
38.585265856625
 71
     1
 72
     5
  1
Oリング
  0
LEADER
  5
35D5
330
1A
100
AcDbEntity
  8
寸法線
 48
10.0
100
AcDbLeader
  3
ISO-25
 76
     3
 10
270.668371102697
 20
664.969260717145
 30
0.0
 10
295.756229751419
 20
729.261614638872
 30
0.0
 10
303.648225920538
 20
729.261614638872
 30
0.0
1001
ACAD
1000
DSTYLE
1002
{
1070
     5
1000
OPEN30
1070
   147
1040
0.625
1070
    77
1070
     0
1070
    41
1040
6.0
1070
    47
1040
0.1
1070
    48
1040
0.1
1070
    73
1070
     0
1070
   140
1040
5.0
1070
   271
1070
     1
1070
   272
1070
     1
1070
   341
1005
2AF4
1070
   342
1005
2AF4
1002
}
  0
MTEXT
  5
35D6
330
1A
100
AcDbEntity
  8
寸法線
 48
10.0
100
AcDbMText
 10
294.816674714805
 20
737.045953150502
 30
0.0
 40
6.0
 41
49.670778807487
 71
     1
 72
     5
  1
亜鉛ダイカスト
  0
LEADER
  5
35D8
330
1A
100
AcDbEntity
  8
寸法線
 48
10.0
100
AcDbLeader
  3
ISO-25
 76
     3
 10
310.804087031791
 20
664.972556276258
 30
0.0
 10
353.744244401242
 20
729.261614638872
 30
0.0
 10
360.250390636925
 20
729.261614638872
 30
0.0
1001
ACAD
1000
DSTYLE
1002
{
1070
     5
1000
OPEN30
1070
   147
1040
0.625
1070
    77
1070
     0
1070
    41
1040
6.0
1070
    47
1040
0.1
1070
    48
1040
0.1
1070
    73
1070
     0
1070
   140
1040
5.0
1070
   271
1070
     1
1070
   272
1070
     1
1070
   341
1005
2AF4
1070
   342
1005
2AF4
1002
}
  0
MTEXT
  5
35DF
330
1A
100
AcDbEntity
  8
寸法線
 48
10.0
100
AcDbMText
 10
352.570463277249
 20
737.110852959631
 30
0.0
 40
6.0
 41
49.629518662186
 71
     1
 72
     5
  1
亜鉛ダイカスト
  0
LINE
  5
36A7
330
1A
100
AcDbEntity
  8
中心線
 48
10.0
100
AcDbLine
 10
-19.497739077382
 20
631.688674417514
 30
0.0
 11
78.440438512898
 21
631.688674417514
 31
0.0
  0
LINE
  5
36AB
330
1A
100
AcDbEntity
  8
中心線
 48
10.0
100
AcDbLine
 10
78.440438512898
 20
641.600138534281
 30
0.0
 11
-19.497739077382
 21
641.600138534281
 31
0.0
  0
DIMENSION
  5
36AC
330
1A
100
AcDbEntity
  8
寸法線
 48
10.0
100
AcDbDimension
  2
*D13
 10
83.828338759601
 20
631.688674417514
 30
0.0
 11
83.8283387596
 21
636.644406475898
 31
0.0
 70
   160
  1
10
  3
ISO-25
100
AcDbAlignedDimension
 13
78.440438512898
 23
641.600138534281
 33
0.0
 14
78.440438512898
 24
631.688674417514
 34
0.0
 50
90.0
100
AcDbRotatedDimension
1001
ACAD
1000
DSTYLE
1002
{
1070
     5
1000
OPEN30
1070
    41
1040
6.0
1070
    47
1040
0.1
1070
    48
1040
0.1
1070
    73
1070
     0
1070
   140
1040
6.0
1070
   271
1070
     1
1070
   272
1070
     1
1070
   341
1005
2AF4
1002
}
  0
DIMENSION
  5
36DC
330
1A
100
AcDbEntity
  8
寸法線
 48
10.0
100
AcDbDimension
  2
*D14
 10
47.471349717758
 20
691.587255423
 30
0.0
 11
29.471349717758
 21
695.215380423
 31
0.0
 70
    32
  3
ISO-25
100
AcDbAlignedDimension
 13
11.471349717758
 23
651.992443379694
 33
0.0
 14
47.471349717758
 24
651.992443379694
 34
0.0
100
AcDbRotatedDimension
1001
ACAD
1000
DSTYLE
1002
{
1070
     5
1000
OPEN30
1070
    41
1040
6.0
1070
    47
1040
0.1
1070
    48
1040
0.1
1070
    73
1070
     0
1070
   140
1040
6.0
1070
   271
1070
     1
1070
   272
1070
     1
1070
   341
1005
2AF4
1002
}
  0
MTEXT
  5
36E9
330
1A
100
AcDbEntity
  8
寸法線
 48
10.0
100
AcDbMText
 10
23.495821977123
 20
708.170344581269
 30
0.0
 40
6.0
 41
18.538303897182
 71
     1
 72
     5
  1
平径
  0
DIMENSION
  5
36EB
330
1A
100
AcDbEntity
  8
寸法線
 48
10.0
100
AcDbDimension
  2
*D15
 10
30.371349717758
 20
610.521664657585
 30
0.0
 11
43.596349717758
 21
614.146664657585
 31
0.0
 70
    32
  1
1
  3
ISO-25
100
AcDbAlignedDimension
 13
28.571349717758
 23
610.521664657585
 33
0.0
 14
30.371349717758
 24
610.521664657585
 34
0.0
100
AcDbRotatedDimension
1001
ACAD
1000
DSTYLE
1002
{
1070
     5
1000
OPEN30
1070
    41
1040
6.0
1070
    47
1040
0.1
1070
    48
1040
0.1
1070
    73
1070
     0
1070
   140
1040
6.0
1070
   271
1070
     1
1070
   272
1070
     1
1070
   341
1005
2AF4
1002
}
  0
LEADER
  5
3710
330
1A
100
AcDbEntity
  8
寸法線
 48
10.0
100
AcDbLeader
  3
ISO-25
 76
     3
 10
46.608162508636
 20
578.190558536377
 30
0.0
 10
30.951259736208
 20
557.918129082561
 30
0.0
 10
15.909390320096
 20
557.918129082561
 30
0.0
1001
ACAD
1000
DSTYLE
1002
{
1070
     5
1000
OPEN30
1070
   147
1040
0.625
1070
    77
1070
     0
1070
    41
1040
6.0
1070
    47
1040
0.1
1070
    48
1040
0.1
1070
    73
1070
     0
1070
   140
1040
5.0
1070
   271
1070
     1
1070
   272
1070
     1
1070
   341
1005
2AF4
1070
   342
1005
2AF4
1002
}
  0
MTEXT
  5
3711
330
1A
100
AcDbEntity
  8
寸法線
 48
10.0
100
AcDbMText
 10
-33.143358650305
 20
573.522114434941
 30
0.0
 40
6.0
 41
75.272292791406
 71
     1
 72
     5
  1
コードロック\PビメットBMS050B
1001
ACAD
1000
MTEXTBEGIN
1070
    44
1040
0.8
1000
MTEXTEND
  0
MTEXT
  5
3802
102
{ACAD_XDICTIONARY
360
3A77
102
}
330
1A
100
AcDbEntity
  8
隠れ線
 48
10.0
100
AcDbMText
 10
326.246902856583
 20
507.055803359751
 30
0.0
 40
6.0
 41
19.035286317203
 71
     2
 72
     5
  1
\C1;85\P100\P135
1001
ACADANNOTATIVE
1000
AnnotativeData
1002
{
1070
     1
1070
     0
1002
}
  0
MTEXT
  5
3804
330
1A
100
AcDbEntity
  8
隠れ線
 48
10.0
100
AcDbMText
 10
330.135074724283
 20
474.62908462371
 30
0.0
 40
6.0
 41
102.645465564322
 71
     1
 72
     5
  1
{\C1;○印が今回の貴社の御仕様です。}
  0
ARC
  5
3A7A
330
1A
100
AcDbEntity
  8
細線
 48
10.0
100
AcDbCircle
 10
29.471349717758
 20
641.600138534281
 30
0.0
 40
18.0
100
AcDbArc
 50
272.865983982599
 51
87.134016017401
  0
LINE
  5
3A7B
330
1A
100
AcDbEntity
  8
外形線
 48
10.0
100
AcDbLine
 10
28.571349717758
 20
621.335144085725
 30
0.0
 11
11.471349717758
 21
631.207833688868
 31
0.0
  0
LINE
  5
3A7D
330
1A
100
AcDbEntity
  8
外形線
 48
10.0
100
AcDbLine
 10
47.471349717758
 20
651.992443379694
 30
0.0
 11
30.371349717758
 21
661.865132982837
 31
0.0
  0
LINE
  5
3A7E
330
1A
100
AcDbEntity
  8
外形線
 48
10.0
100
AcDbLine
 10
11.471349717758
 20
651.992443379694
 30
0.0
 11
28.571349717758
 21
661.865132982837
 31
0.0
  0
LINE
  5
3A7F
330
1A
100
AcDbEntity
  8
外形線
 48
10.0
100
AcDbLine
 10
30.371349717758
 20
621.335144085725
 30
0.0
 11
47.471349717758
 21
631.207833688868
 31
0.0
  0
LINE
  5
3A80
330
1A
100
AcDbEntity
  8
外形線
 48
10.0
100
AcDbLine
 10
11.471349717758
 20
651.992443379694
 30
0.0
 11
11.471349717758
 21
631.207833688868
 31
0.0
  0
LINE
  5
3A81
330
1A
100
AcDbEntity
  8
外形線
 48
10.0
100
AcDbLine
 10
47.471349717758
 20
651.992443379694
 30
0.0
 11
47.471349717758
 21
631.207833688868
 31
0.0
  0
ARC
  5
3A82
330
1A
100
AcDbEntity
  8
細線
 48
10.0
100
AcDbCircle
 10
29.471349717758
 20
641.600138534281
 30
0.0
 40
18.0
100
AcDbArc
 50
92.865983982599
 51
267.134016017401
  0
MTEXT
  5
3ABC
102
{ACAD_XDICTIONARY
360
3ABD
102
}
330
1A
100
AcDbEntity
  8
寸法線
 48
10.0
100
AcDbMText
 10
4.216502639131
 20
517.951495634569
 30
0.0
 40
6.0
 41
168.503621648242
 71
     1
 72
     5
  1
御仕様   電源電圧\P       AC100/110V\P       AC200/220V
1001
ACADANNOTATIVE
1000
AnnotativeData
1002
{
1070
     1
1070
     0
1002
}
  0
MTEXT
  5
3AC0
102
{ACAD_XDICTIONARY
360
3AD3
102
}
330
1A
100
AcDbEntity
  8
寸法線
 48
10.0
100
AcDbMText
 10
5.397224231943
 20
488.404321912006
 30
0.0
 40
6.0
 41
161.650793650794
 71
     1
 72
     5
  1
\W0.7;○印が今回の貴社の御仕様です。
1001
ACADANNOTATIVE
1000
AnnotativeData
1002
{
1070
     1
1070
     0
1002
}
  0
LINE
  5
3ACC
330
1A
100
AcDbEntity
  8
寸法線
 48
10.0
100
AcDbLine
 10
27.483440645667
 20
520.060956294834
 30
0.0
 11
27.483440645667
 21
490.618827338215
 31
0.0
  0
LINE
  5
3ACD
330
1A
100
AcDbEntity
  8
寸法線
 48
10.0
100
AcDbLine
 10
1.866218152659
 20
509.757471475447
 30
0.0
 11
75.314059141025
 21
509.757471475447
 31
0.0
  0
LINE
  5
3ACE
330
1A
100
AcDbEntity
  8
寸法線
 48
10.0
100
AcDbLine
 10
1.866218152659
 20
520.060956294834
 30
0.0
 11
75.314059141025
 21
520.060956294834
 31
0.0
  0
LINE
  5
3ACF
330
1A
100
AcDbEntity
  8
寸法線
 48
10.0
100
AcDbLine
 10
75.314059141025
 20
520.060956294834
 30
0.0
 11
75.314059141025
 21
490.618827338215
 31
0.0
  0
LINE
  5
3AD0
330
1A
100
AcDbEntity
  8
寸法線
 48
10.0
100
AcDbLine
 10
1.866218152659
 20
499.871492253761
 30
0.0
 11
75.314059141025
 21
499.871492253761
 31
0.0
  0
LINE
  5
3AD1
330
1A
100
AcDbEntity
  8
寸法線
 48
10.0
100
AcDbLine
 10
1.866218152659
 20
490.618827338215
 30
0.0
 11
75.314059141025
 21
490.618827338215
 31
0.0
  0
LINE
  5
3AD2
330
1A
100
AcDbEntity
  8
寸法線
 48
10.0
100
AcDbLine
 10
1.866218152659
 20
520.060956294834
 30
0.0
 11
1.866218152659
 21
490.618827338215
 31
0.0
  0
LINE
  5
3C2B
330
1A
100
AcDbEntity
  8
外形線
100
AcDbLine
 10
277.362282192497
 20
605.900111534281
 30
0.0
 11
277.362282192497
 21
667.100138534281
 31
0.0
  0
LINE
  5
3C2C
330
1A
100
AcDbEntity
  8
外形線
100
AcDbLine
 10
277.362282192497
 20
667.100138534281
 30
0.0
 11
289.562262692497
 21
667.100138534281
 31
0.0
  0
LINE
  5
3C2D
330
1A
100
AcDbEntity
  8
外形線
100
AcDbLine
 10
279.862282192497
 20
596.100138534281
 30
0.0
 11
279.862282192497
 21
667.100138534281
 31
0.0
  0
LINE
  5
3C31
330
1A
100
AcDbEntity
  8
外形線
100
AcDbLine
 10
278.596392465969
 20
596.100138534281
 30
0.0
 11
289.562262692497
 21
596.100138534281
 31
0.0
  0
LINE
  5
3C36
330
1A
100
AcDbEntity
  8
外形線
100
AcDbLine
 10
277.362282192497
 20
665.000138534281
 30
0.0
 11
251.562282192497
 21
664.700138534281
 31
0.0
  0
LINE
  5
3C39
330
1A
100
AcDbEntity
  8
外形線
100
AcDbLine
 10
245.562264192497
 20
660.500138534281
 30
0.0
 11
249.362282192497
 21
660.500138534281
 31
0.0
  0
LINE
  5
3C3A
330
1A
100
AcDbEntity
  8
外形線
100
AcDbLine
 10
249.362282192497
 20
660.500138534281
 30
0.0
 11
249.362282192497
 21
660.500138534281
 31
0.0
  0
LINE
  5
3C3B
330
1A
100
AcDbEntity
  8
外形線
100
AcDbLine
 10
245.562264192496
 20
622.700138534281
 30
0.0
 11
249.362282192497
 21
622.700138534281
 31
0.0
  0
LINE
  5
3C3C
330
1A
100
AcDbEntity
  8
外形線
100
AcDbLine
 10
247.362282192497
 20
622.700138534281
 30
0.0
 11
247.362282192497
 21
660.500138534281
 31
0.0
  0
LINE
  5
3C3E
330
1A
100
AcDbEntity
  8
外形線
100
AcDbLine
 10
249.362282192497
 20
662.500138534281
 30
0.0
 11
249.362282192497
 21
600.700138534281
 31
0.0
  0
ARC
  5
3C40
330
1A
100
AcDbEntity
  8
外形線
100
AcDbCircle
 10
251.562282192497
 20
662.500138534281
 30
0.0
 40
2.2
100
AcDbArc
 50
90.0
 51
180.0
  0
ARC
  5
3C41
330
1A
100
AcDbEntity
  8
外形線
100
AcDbCircle
 10
251.562282192497
 20
600.700138534281
 30
0.0
 40
2.2
100
AcDbArc
 50
180.0
 51
263.748538621027
  0
LWPOLYLINE
  5
3C63
330
1A
100
AcDbEntity
  8
細線
100
AcDbPolyline
 90
        2
 70
     0
 43
0.0
 10
222.362282192497
 20
629.541638534281
 10
232.962264192496
 20
629.541638534281
  0
LWPOLYLINE
  5
3C64
330
1A
100
AcDbEntity
  8
細線
100
AcDbPolyline
 90
        2
 70
     0
 43
0.0
 10
232.962264192496
 20
653.658638534281
 10
222.362282192497
 20
653.658638534281
  0
LWPOLYLINE
  5
3C8D
330
1A
100
AcDbEntity
  8
外形線
100
AcDbPolyline
 90
        6
 70
     0
 43
0.0
 10
232.962264192496
 20
654.820638534281
 10
222.862282192497
 20
654.820638534281
 10
222.362282192497
 20
654.320638534281
 10
222.362282192497
 20
628.879638534281
 10
222.862282192497
 20
628.379638534281
 10
232.962264192496
 20
628.379638534281
  0
LINE
  5
3D1D
330
1A
100
AcDbEntity
  8
外形線
100
AcDbLine
 10
235.962231687644
 20
652.07697960855
 30
0.0
 11
239.962264192497
 21
652.100138534281
 31
0.0
  0
LINE
  5
3D1E
330
1A
100
AcDbEntity
  8
外形線
100
AcDbLine
 10
239.962264192497
 20
664.100138534281
 30
0.0
 11
239.962264192497
 21
619.100138534281
 31
0.0
  0
LINE
  5
3D1F
330
1A
100
AcDbEntity
  8
外形線
100
AcDbLine
 10
239.962264192497
 20
664.100138534281
 30
0.0
 11
241.562264192497
 21
664.100138534281
 31
0.0
  0
LINE
  5
3D20
330
1A
100
AcDbEntity
  8
外形線
100
AcDbLine
 10
232.962264192496
 20
623.576973295173
 30
0.0
 11
232.962264192496
 21
659.576973295173
 31
0.0
  0
LINE
  5
3D21
330
1A
100
AcDbEntity
  8
外形線
100
AcDbLine
 10
232.962264192496
 20
659.576973295173
 30
0.0
 11
235.985406757866
 21
662.600138534281
 31
0.0
  0
LINE
  5
3D22
330
1A
100
AcDbEntity
  8
外形線
100
AcDbLine
 10
235.939076627128
 20
620.600138534281
 30
0.0
 11
239.962264192497
 21
620.600138534281
 31
0.0
  0
LINE
  5
3D23
330
1A
100
AcDbEntity
  8
外形線
100
AcDbLine
 10
235.947835999442
 20
631.100138534281
 30
0.0
 11
239.962264192497
 21
631.100138534281
 31
0.0
  0
LINE
  5
3D24
330
1A
100
AcDbEntity
  8
外形線
100
AcDbLine
 10
239.962264192497
 20
619.100138534281
 30
0.0
 11
241.562264192497
 21
619.100138534281
 31
0.0
  0
LINE
  5
3D25
330
1A
100
AcDbEntity
  8
外形線
100
AcDbLine
 10
232.962264192496
 20
623.576973295173
 30
0.0
 11
235.939076627128
 21
620.600138534281
 31
0.0
  0
ARC
  5
3D26
330
1A
100
AcDbEntity
  8
外形線
100
AcDbCircle
 10
252.837379692496
 20
641.576973295173
 30
0.0
 40
19.875129
100
AcDbArc
 50
148.109418153978
 51
211.890564245926
  0
ARC
  5
3D27
330
1A
100
AcDbEntity
  8
外形線
100
AcDbCircle
 10
243.963904692496
 20
659.627580295173
 30
0.0
 40
11.0017755
100
AcDbArc
 50
180.263580433607
 51
223.338604767318
  0
ARC
  5
3D28
330
1A
100
AcDbEntity
  8
外形線
100
AcDbCircle
 10
243.963904692496
 20
623.526367795173
 30
0.0
 40
11.0017755
100
AcDbArc
 50
136.66137763259
 51
179.736401966304
  0
LINE
  5
3D29
330
1A
100
AcDbEntity
  8
外形線
100
AcDbLine
 10
241.562264192497
 20
664.100138534281
 30
0.0
 11
241.562264192497
 21
619.100138534281
 31
0.0
  0
LINE
  5
3D2A
330
1A
100
AcDbEntity
  8
外形線
 48
10.0
100
AcDbLine
 10
245.562264192496
 20
622.700138534281
 30
0.0
 11
245.562264192497
 21
660.500138534281
 31
0.0
  0
LINE
  5
3D2B
330
1A
100
AcDbEntity
  8
隠れ線
 48
10.0
100
AcDbLine
 10
241.562264192497
 20
688.315851592091
 30
0.0
 11
241.562264192497
 21
664.100138534281
 31
0.0
  0
LINE
  5
3D2C
330
1A
100
AcDbEntity
  8
隠れ線
 48
10.0
100
AcDbLine
 10
245.562264192497
 20
688.315851592091
 30
0.0
 11
245.562264192497
 21
660.500138534281
 31
0.0
  0
LINE
  5
3D2D
330
1A
100
AcDbEntity
  8
隠れ線
 48
10.0
100
AcDbLine
 10
241.562264192497
 20
619.100138534281
 30
0.0
 11
241.562264192497
 21
590.281011261444
 31
0.0
  0
LINE
  5
3D2E
330
1A
100
AcDbEntity
  8
隠れ線
 48
10.0
100
AcDbLine
 10
245.562264192496
 20
622.700138534281
 30
0.0
 11
245.562264192496
 21
590.481519486808
 31
0.0
  0
LINE
  5
3D2F
330
1A
100
AcDbEntity
  8
外形線
 48
10.0
100
AcDbLine
 10
239.962264192497
 20
662.600138534281
 30
0.0
 11
235.985406757865
 21
662.600138534281
 31
0.0
  0
LINE
  5
3D79
330
1A
100
AcDbEntity
  8
中心線
 48
10.0
100
AcDbLine
 10
336.748738476207
 20
631.775111534281
 30
0.0
 11
245.975825908787
 21
631.775111534281
 31
0.0
  0
DIMENSION
  5
3D7B
330
1A
100
AcDbEntity
  8
寸法線
 48
10.0
100
AcDbDimension
  2
*D43
 10
348.315040111723
 20
596.100138534281
 30
0.0
 11
348.315040111723
 21
631.775111534281
 31
0.0
 70
   160
  1
φ72
  3
ISO-25
100
AcDbAlignedDimension
 13
289.562262692497
 23
667.100138534281
 33
0.0
 14
289.562262692497
 24
596.100138534281
 34
0.0
 50
90.0
100
AcDbRotatedDimension
1001
ACAD
1000
DSTYLE
1002
{
1070
     5
1000
OPEN30
1070
    41
1040
6.0
1070
    47
1040
0.1
1070
    48
1040
0.1
1070
    73
1070
     0
1070
   140
1040
6.0
1070
   271
1070
     1
1070
   272
1070
     1
1070
   341
1005
2AF4
1002
}
  0
LINE
  5
3D7E
330
1A
100
AcDbEntity
  8
外形線
100
AcDbLine
 10
330.362282192497
 20
607.025111534281
 30
0.0
 11
330.362282192497
 21
656.525111534281
 31
0.0
  0
LINE
  5
3D7F
330
1A
100
AcDbEntity
  8
外形線
100
AcDbLine
 10
328.862282192497
 20
603.815501534281
 30
0.0
 11
328.862282192497
 21
659.734721534281
 31
0.0
  0
LINE
  5
3D80
330
1A
100
AcDbEntity
  8
外形線
100
AcDbLine
 10
289.562262692497
 20
667.100138534281
 30
0.0
 11
289.562262692497
 21
596.100138534281
 31
0.0
  0
LINE
  5
3D81
330
1A
100
AcDbEntity
  8
外形線
100
AcDbLine
 10
289.562262692497
 20
597.650111534281
 30
0.0
 11
324.576743192497
 21
599.320628534281
 31
0.0
  0
LINE
  5
3D82
330
1A
100
AcDbEntity
  8
外形線
100
AcDbLine
 10
330.362282192497
 20
607.025111534281
 30
0.0
 11
328.862282192497
 21
607.025111534281
 31
0.0
  0
ARC
  5
3D83
330
1A
100
AcDbEntity
  8
外形線
100
AcDbCircle
 10
324.362282192497
 20
603.815501534281
 30
0.0
 40
4.5
100
AcDbArc
 50
272.731520116378
 51
359.999982399908
  0
LINE
  5
3D84
330
1A
100
AcDbEntity
  8
外形線
100
AcDbLine
 10
289.562262692497
 20
665.900111534281
 30
0.0
 11
324.576743192497
 21
664.229594534281
 31
0.0
  0
LINE
  5
3D85
330
1A
100
AcDbEntity
  8
外形線
100
AcDbLine
 10
330.362282192497
 20
656.525111534281
 30
0.0
 11
328.862282192497
 21
656.525111534281
 31
0.0
  0
ARC
  5
3D86
330
1A
100
AcDbEntity
  8
外形線
100
AcDbCircle
 10
324.362282192497
 20
659.734721534281
 30
0.0
 40
4.5
100
AcDbArc
 50
0.0
 51
87.268519579299
  0
LINE
  5
3DA3
330
1A
100
AcDbEntity
  8
外形線
100
AcDbLine
 10
281.362282192497
 20
596.100138534281
 30
0.0
 11
281.362282192497
 21
667.100138534281
 31
0.0
  0
LINE
  5
3DA4
330
1A
100
AcDbEntity
  8
中心線
 48
10.0
100
AcDbLine
 10
264.712273192496
 20
610.564952534281
 30
0.0
 11
264.712273192496
 21
555.131333534281
 31
0.0
  0
LINE
  5
3DA5
330
1A
100
AcDbEntity
  8
外形線
100
AcDbLine
 10
260.474755192497
 20
558.162730161748
 30
0.0
 11
260.474755192497
 21
571.346333534281
 31
0.0
  0
LINE
  5
3DA6
330
1A
100
AcDbEntity
  8
外形線
100
AcDbLine
 10
268.874719192497
 20
558.162730161748
 30
0.0
 11
268.874719192497
 21
571.346333534281
 31
0.0
  0
ARC
  5
3DA7
330
1A
100
AcDbEntity
  8
細線
100
AcDbCircle
 10
262.574747381144
 20
561.800023327984
 30
0.0
 40
4.199982
100
AcDbArc
 50
239.999981276043
 51
299.999981276019
  0
ARC
  5
3DA8
330
1A
100
AcDbEntity
  8
細線
100
AcDbCircle
 10
266.774729381144
 20
561.800021955453
 30
0.0
 40
4.199982
100
AcDbArc
 50
239.999981276043
 51
299.999981276019
  0
ARC
  5
3DA9
330
1A
100
AcDbEntity
  8
細線
100
AcDbCircle
 10
266.774727003849
 20
554.525439740578
 30
0.0
 40
4.199982
100
AcDbArc
 50
59.999981276043
 51
119.999981276019
  0
LINE
  5
3DAA
330
1A
100
AcDbEntity
  8
外形線
100
AcDbLine
 10
257.770213555761
 20
595.419339980031
 30
0.0
 11
250.828153919025
 21
589.407339980031
 31
0.0
  0
LINE
  5
3DAB
330
1A
100
AcDbEntity
  8
外形線
100
AcDbLine
 10
271.654332829232
 20
595.419339980031
 30
0.0
 11
278.596392465969
 21
589.407339980031
 31
0.0
  0
LINE
  5
3DAC
330
1A
100
AcDbEntity
  8
外形線
100
AcDbLine
 10
271.654332829232
 20
586.741765434111
 30
0.0
 11
271.654332829232
 21
595.419339980031
 31
0.0
  0
LINE
  5
3DAD
330
1A
100
AcDbEntity
  8
外形線
100
AcDbLine
 10
257.770213555761
 20
586.741765434111
 30
0.0
 11
257.770213555761
 21
595.419339980031
 31
0.0
  0
LWPOLYLINE
  5
3DAE
330
1A
100
AcDbEntity
  8
外形線
100
AcDbPolyline
 90
       47
 70
     0
 43
0.0
 10
268.874717692496
 20
570.2550258715
 10
269.333971483395
 20
570.369896315854
 10
269.742588980664
 20
570.4961159337
 10
270.096093285497
 20
570.632301836491
 10
270.390611330755
 20
570.77696194298
 10
270.622916315101
 20
570.928511326765
 10
270.790463056515
 20
571.085289581084
 10
270.891415877834
 20
571.245579010578
 10
270.924668718826
 20
571.40762345071
 10
270.889857254403
 20
571.569647508688
 10
270.787362886255
 20
571.729876015026
 10
270.618308564128
 20
571.886553472677
 10
270.384546482552
 20
572.037963290628
 10
270.088637787811
 20
572.182446591231
 10
269.733824517488
 20
572.318420385208
 10
269.323994080019
 20
572.444394915219
 10
268.863636663444
 20
572.558989977951
 10
268.357796039952
 20
572.660950045915
 10
267.812014305268
 20
572.749158023272
 10
267.232271158289
 20
572.822647484962
 10
266.624918386255
 20
572.880613265064
 10
265.996610273231
 20
572.922420278361
 10
265.354230694386
 20
572.947610478466
 10
264.704817694811
 20
572.955907876278
 10
264.05548637923
 20
572.947221563767
 10
263.413350957415
 20
572.921646709993
 10
262.785446799425
 20
572.879463518404
 10
262.178653354613
 20
572.821134156876
 10
261.599618778939
 20
572.747297694099
 10
261.054687096384
 20
572.658763097811
 10
260.549828692497
 20
572.556500371576
 10
260.090574901599
 20
572.441629927222
 10
259.68195740433
 20
572.315410309377
 10
259.328453099496
 20
572.179224406585
 10
259.033935054239
 20
572.034564300097
 10
258.801630069892
 20
571.883014916311
 10
258.634083328479
 20
571.726236661992
 10
258.533130507159
 20
571.565947232499
 10
258.499877666167
 20
571.403902792365
 10
258.534689130591
 20
571.241878734388
 10
258.637183498738
 20
571.081650228051
 10
258.806237820865
 20
570.9249727704
 10
259.039999902441
 20
570.773562952449
 10
259.335908597182
 20
570.629079651846
 10
259.690721867506
 20
570.493105857868
 10
260.100552304973
 20
570.367131327856
 10
260.474755192497
 20
570.272214445989
  0
ARC
  5
3DAF
330
1A
100
AcDbEntity
  8
外形線
100
AcDbCircle
 10
264.712273192496
 20
603.592544188239
 30
0.0
 40
34.15159996140045
100
AcDbArc
 50
255.26831657715
 51
262.87239111701
  0
LWPOLYLINE
  5
3DB0
330
1A
100
AcDbEntity
  8
外形線
100
AcDbPolyline
 90
       34
 70
     0
 43
0.0
 10
276.385573192496
 20
578.82069903401
 10
276.331831634896
 20
579.380117145456
 10
276.171101793036
 20
579.934384356873
 10
275.904863603533
 20
580.478397195674
 10
275.535568482012
 20
581.007146607469
 10
275.066616751436
 20
581.515764077448
 10
274.502326333294
 20
581.99956645773
 10
273.847892989882
 20
582.454099087939
 10
273.109342483789
 20
582.875176811949
 10
272.293475095069
 20
583.258922513128
 10
271.407803006953
 20
583.601802813309
 10
270.460481136652
 20
583.900660606717
 10
269.460232048114
 20
584.152744129359
 10
268.416265638111
 20
584.355732296169
 10
267.338194335169
 20
584.507756072639
 10
266.235944592139
 20
584.607415684146
 10
265.119665487353
 20
584.65379350453
 10
263.999635275945
 20
584.646462505218
 10
262.886166751743
 20
584.585490187144
 10
261.789512291168
 20
584.471437959222
 10
260.719769453413
 20
584.305355969119
 10
259.686788006125
 20
584.08877343391
 10
258.700079232649
 20
583.823684559653
 10
257.768728355913
 20
583.51253017953
 10
256.901310885287
 20
583.158175279631
 10
256.105813656711
 20
582.763882619289
 10
255.389561293062
 20
582.33328268889
 10
254.759148761943
 20
581.870340281758
 10
254.220380651833
 20
581.379317987916
 10
253.778217725743
 20
580.864736945838
 10
253.436731244476
 20
580.331335213607
 10
253.199065480072
 20
579.784024142755
 10
253.067408764599
 20
579.227843156488
 10
253.038973192497
 20
578.82069903401
  0
ARC
  5
3DB1
330
1A
100
AcDbEntity
  8
外形線
100
AcDbCircle
 10
264.712273192496
 20
598.409158846308
 30
0.0
 40
13.57645981229912
100
AcDbArc
 50
239.247497502359
 51
300.752502497641
  0
LINE
  5
3DB2
330
1A
100
AcDbEntity
  8
外形線
100
AcDbLine
 10
253.038973192496
 20
578.82069903401
 30
0.0
 11
253.038973192496
 21
574.439846293482
 31
0.0
  0
ARC
  5
3DB3
330
1A
100
AcDbEntity
  8
外形線
100
AcDbCircle
 10
257.046973192496
 20
574.439846293482
 30
0.0
 40
4.007999999999999
100
AcDbArc
 50
180.0
 51
255.26831657715
  0
ARC
  5
3DB4
330
1A
100
AcDbEntity
  8
外形線
100
AcDbCircle
 10
250.319522001523
 20
588.331082983087
 30
0.0
 40
7.618315752702329
100
AcDbArc
 50
273.828163206422
 51
347.958626091838
  0
LINE
  5
3DB5
330
1A
100
AcDbEntity
  8
外形線
100
AcDbLine
 10
253.036222075294
 20
578.817522317494
 30
0.0
 11
250.828153919025
 21
580.729765434111
 31
0.0
  0
LINE
  5
3DB6
330
1A
100
AcDbEntity
  8
外形線
100
AcDbLine
 10
250.828153919025
 20
589.407339980031
 30
0.0
 11
250.828153919025
 21
580.729765434111
 31
0.0
  0
LINE
  5
3DB7
330
1A
100
AcDbEntity
  8
外形線
100
AcDbLine
 10
276.385573192496
 20
578.82069903401
 30
0.0
 11
276.385573192496
 21
574.439846293482
 31
0.0
  0
LWPOLYLINE
  5
3DB8
330
1A
100
AcDbEntity
  8
外形線
100
AcDbPolyline
 90
       29
 70
     0
 43
0.0
 10
268.874717692496
 20
571.346333534282
 10
268.847719606866
 20
571.448305001608
 10
268.767072445156
 20
571.548965494317
 10
268.633813030556
 20
571.647020892059
 10
268.449654584565
 20
571.741210566336
 10
268.216964701321
 20
571.83032358751
 10
267.938734909129
 20
571.913214292857
 10
267.618542210508
 20
571.988817015543
 10
267.260503095211
 20
572.056159785144
 10
266.869220617456
 20
572.114376823573
 10
266.449725217715
 20
572.162719675783
 10
266.007410049936
 20
572.200566832111
 10
265.547961645588
 20
572.22743171859
 10
265.077286805974
 20
572.242968952485
 10
264.601436662693
 20
572.246978782634
 10
264.126528882538
 20
572.2394096575
 10
263.658669017014
 20
572.220358887943
 10
263.203872007596
 20
572.190071396154
 10
262.767984855913
 20
572.148936566871
 10
262.356611453005
 20
572.097483241334
 10
261.975040534081
 20
572.036372918343
 10
261.628177685014
 20
571.966391249854
 10
261.320482274714
 20
571.888437940396
 10
261.055910124189
 20
571.803515180217
 10
260.837862649375
 20
571.712714760834
 10
260.669143131547
 20
571.617204038647
 10
260.551920677526
 20
571.518210927069
 10
260.487702333018
 20
571.41700811012
 10
260.474755192497
 20
571.346333534282
  0
ARC
  5
3DB9
330
1A
100
AcDbEntity
  8
外形線
100
AcDbCircle
 10
264.712273192496
 20
603.592544188239
 30
0.0
 40
34.15159996140045
100
AcDbArc
 50
277.000695446903
 51
284.73168342285
  0
ARC
  5
3DBA
330
1A
100
AcDbEntity
  8
外形線
100
AcDbCircle
 10
272.377573192497
 20
574.439846293482
 30
0.0
 40
4.007999999999999
100
AcDbArc
 50
284.73168342285
 51
0.0
  0
LINE
  5
3DBB
330
1A
100
AcDbEntity
  8
外形線
100
AcDbLine
 10
276.388324309699
 20
578.817522317494
 30
0.0
 11
278.596392465969
 21
580.729765434111
 31
0.0
  0
ARC
  5
3DBC
330
1A
100
AcDbEntity
  8
外形線
100
AcDbCircle
 10
279.10502438347
 20
588.331082983087
 30
0.0
 40
7.618315752702329
100
AcDbArc
 50
192.041373908162
 51
266.171836793578
  0
LINE
  5
3DBD
330
1A
100
AcDbEntity
  8
外形線
100
AcDbLine
 10
278.596392465969
 20
580.729765434111
 30
0.0
 11
278.596392465969
 21
589.407339980031
 31
0.0
  0
LWPOLYLINE
  5
3DBE
330
1A
100
AcDbEntity
  8
外形線
100
AcDbPolyline
 90
       34
 70
     0
 43
0.0
 10
275.210728192497
 20
595.126242927846
 10
275.162395388225
 20
595.497080862312
 10
275.017842004699
 20
595.864504268202
 10
274.778399032122
 20
596.225130056564
 10
274.446271166392
 20
596.575637728209
 10
274.02451650913
 20
596.912799947559
 10
273.517018409896
 20
597.233512258659
 10
272.928449709844
 20
597.534821669787
 10
272.264229716061
 20
597.813953843425
 10
271.53047430273
 20
598.06833864126
 10
270.733939598588
 20
598.295633788996
 10
269.881959779182
 20
598.49374644309
 10
268.982379536678
 20
598.660852460818
 10
268.043481849056
 20
598.795413196269
 10
267.073911713728
 20
598.896189667575
 10
266.082596547839
 20
598.962253964967
 10
265.07866398815
 20
598.992997794607
 10
264.071357847375
 20
598.98813807951
 10
263.069953000822
 20
598.947719566
 10
262.083669987031
 20
598.87211441172
 10
261.121590108698
 20
598.762018758931
 10
260.192571815655
 20
598.618446324726
 10
259.305169139767
 20
598.442719067121
 10
258.467552932813
 20
598.236455012985
 10
257.687435632516
 20
598.001553359896
 10
256.972000249476
 20
597.740176989083
 10
256.327834228863
 20
597.454732550473
 10
255.760868795833
 20
597.147848303209
 10
255.276324343157
 20
596.82234991569
 10
254.87866236392
 20
596.48123444793
 10
254.571544371863
 20
596.127642755826
 10
254.35779818761
 20
595.764830571392
 10
254.239391901226
 20
595.39613852529
 10
254.213818192496
 20
595.126242927846
  0
LINE
  5
3DBF
330
1A
100
AcDbEntity
  8
外形線
100
AcDbLine
 10
257.770213555761
 20
595.419339980031
 30
0.0
 11
271.654332829232
 21
595.419339980031
 31
0.0
  0
LINE
  5
3DC0
330
1A
100
AcDbEntity
  8
外形線
100
AcDbLine
 10
257.770213555761
 20
604.096914525951
 30
0.0
 11
271.654332829232
 21
604.096914525951
 31
0.0
  0
LINE
  5
3DC1
330
1A
100
AcDbEntity
  8
外形線
100
AcDbLine
 10
257.770213555761
 20
599.758127252991
 30
0.0
 11
271.654332829232
 21
599.758127252991
 31
0.0
  0
LINE
  5
3DC2
330
1A
100
AcDbEntity
  8
外形線
100
AcDbLine
 10
279.862282192497
 20
605.900111534281
 30
0.0
 11
256.762291192497
 21
605.900111534281
 31
0.0
  0
LINE
  5
3DC3
330
1A
100
AcDbEntity
  8
外形線
100
AcDbLine
 10
257.081074427668
 20
603.500102534281
 30
0.0
 11
254.362282192496
 21
603.500102534281
 31
0.0
  0
LINE
  5
3DC4
330
1A
100
AcDbEntity
  8
外形線
100
AcDbLine
 10
250.828153919025
 20
598.084914525951
 30
0.0
 11
257.770213555761
 21
604.096914525951
 31
0.0
  0
ARC
  5
3DC5
330
1A
100
AcDbEntity
  8
外形線
100
AcDbCircle
 10
256.762291192497
 20
600.500102534281
 30
0.0
 40
5.4
100
AcDbArc
 50
89.999981276021
 51
180.00001984784
  0
LINE
  5
3DC6
330
1A
100
AcDbEntity
  8
外形線
100
AcDbLine
 10
257.770213555761
 20
599.758127252991
 30
0.0
 11
250.828153919025
 21
593.746127252991
 31
0.0
  0
ARC
  5
3DC7
330
1A
100
AcDbEntity
  8
外形線
100
AcDbCircle
 10
254.362282192496
 20
600.500102534281
 30
0.0
 40
3.0
100
AcDbArc
 50
89.999981276021
 51
211.533239298811
  0
LINE
  5
3DC8
330
1A
100
AcDbEntity
  8
外形線
100
AcDbLine
 10
253.333153919025
 20
591.576733616511
 30
0.0
 11
250.828153919025
 21
593.746127252991
 31
0.0
  0
LINE
  5
3DC9
330
1A
100
AcDbEntity
  8
外形線
100
AcDbLine
 10
254.213818192497
 20
595.126242927846
 30
0.0
 11
254.213818192497
 21
592.339411249543
 31
0.0
  0
LINE
  5
3DCA
330
1A
100
AcDbEntity
  8
外形線
100
AcDbLine
 10
250.828153919025
 20
593.746127252991
 30
0.0
 11
250.828153919025
 21
598.084914525951
 31
0.0
  0
LINE
  5
3DCB
330
1A
100
AcDbEntity
  8
細線
100
AcDbLine
 10
255.569023192496
 20
593.513053206879
 30
0.0
 11
255.569023192496
 21
597.064594416525
 31
0.0
  0
LINE
  5
3DCC
330
1A
100
AcDbEntity
  8
外形線
100
AcDbLine
 10
257.770213555761
 20
599.758127252991
 30
0.0
 11
257.770213555761
 21
604.096914525951
 31
0.0
  0
LINE
  5
3DCD
330
1A
100
AcDbEntity
  8
細線
100
AcDbLine
 10
273.855523192496
 20
593.513053206879
 30
0.0
 11
273.855523192496
 21
597.167998734372
 31
0.0
  0
LINE
  5
3DCE
330
1A
100
AcDbEntity
  8
外形線
100
AcDbLine
 10
279.862282192497
 20
603.500102534281
 30
0.0
 11
272.343471957325
 21
603.500102534281
 31
0.0
  0
LINE
  5
3DCF
330
1A
100
AcDbEntity
  8
外形線
100
AcDbLine
 10
278.596392465969
 20
598.084914525951
 30
0.0
 11
271.654332829232
 21
604.096914525951
 31
0.0
  0
LINE
  5
3DD0
330
1A
100
AcDbEntity
  8
外形線
100
AcDbLine
 10
271.654332829232
 20
599.758127252991
 30
0.0
 11
271.654332829232
 21
604.096914525951
 31
0.0
  0
LINE
  5
3DD2
330
1A
100
AcDbEntity
  8
外形線
100
AcDbLine
 10
276.091392465969
 20
591.576733616511
 30
0.0
 11
278.596392465969
 21
593.746127252991
 31
0.0
  0
LINE
  5
3DD3
330
1A
100
AcDbEntity
  8
外形線
100
AcDbLine
 10
271.654332829232
 20
599.758127252991
 30
0.0
 11
278.596392465969
 21
593.746127252991
 31
0.0
  0
LINE
  5
3DD4
330
1A
100
AcDbEntity
  8
外形線
100
AcDbLine
 10
275.210728192497
 20
595.126242927846
 30
0.0
 11
275.210728192497
 21
592.339411249543
 31
0.0
  0
LINE
  5
3DD5
330
1A
100
AcDbEntity
  8
外形線
100
AcDbLine
 10
278.596392465969
 20
593.746127252991
 30
0.0
 11
278.596392465969
 21
598.084914525951
 31
0.0
  0
ARC
  5
3DD8
330
1A
100
AcDbEntity
  8
外形線
 48
10.0
100
AcDbCircle
 10
29.471349717758
 20
641.600138534281
 30
0.0
 40
13.2204999999999
100
AcDbArc
 50
93.903491864735
 51
266.096508135265
  0
ARC
  5
3DD9
330
1A
100
AcDbEntity
  8
細線
 48
10.0
100
AcDbCircle
 10
29.471349717758
 20
641.600138534281
 30
0.0
 40
12.05849999999998
100
AcDbArc
 50
94.280316570382
 51
265.719683429618
  0
ARC
  5
3DDA
330
1A
100
AcDbEntity
  8
細線
 48
10.0
100
AcDbCircle
 10
29.471349717758
 20
641.600138534281
 30
0.0
 40
12.05849999999998
100
AcDbArc
 50
274.280316570382
 51
85.719683429618
  0
ARC
  5
3DDB
330
1A
100
AcDbEntity
  8
外形線
 48
10.0
100
AcDbCircle
 10
29.471349717758
 20
641.600138534281
 30
0.0
 40
13.2204999999999
100
AcDbArc
 50
273.903491864735
 51
86.096508135265
  0
LINE
  5
3DDC
330
1A
100
AcDbEntity
  8
寸法線
 48
10.0
100
AcDbLine
 10
330.362282192497
 20
605.30167154764
 30
0.0
 11
330.362282192497
 21
575.92637897265
 31
0.0
  0
VIEWPORT
  5
2902
330
28FB
100
AcDbEntity
 67
     1
  8
0
 48
10.0
100
AcDbViewport
 10
0.0
 20
0.0
 30
0.0
 40
630.28141116227
 41
402.103583830107
 68
     1
 69
     1
1001
ACAD
1000
MVIEW
1002
{
1070
    16
1010
0.0
1020
0.0
1030
0.0
1010
0.0
1020
0.0
1030
1.0
1040
0.0
1040
402.103583830107
1040
265.920234392638
1040
121.335419632653
1040
50.0
1040
0.0
1040
0.0
1070
    16
1070
   100
1070
     0
1070
     1
1070
     0
1070
     0
1070
     0
1070
     0
1040
0.0
1040
0.0
1040
0.0
1040
10.0
1040
10.0
1040
10.0
1040
10.0
1070
     0
1002
{
1002
}
1002
}
  0
VIEWPORT
  5
2904
330
28FB
100
AcDbEntity
 67
     1
  8
図枠太線
 48
10.0
100
AcDbViewport
 10
204.746305129083
 20
162.666107243269
 30
0.0
 40
400.0
 41
240.0
 68
     2
 69
     2
1001
ACAD
1000
MVIEW
1002
{
1070
    16
1010
0.0
1020
0.0
1030
0.0
1010
0.0
1020
0.0
1030
1.0
1040
0.0
1040
360.000000550485
1040
181.982808397219
1040
589.361901775942
1040
50.0
1040
0.0
1040
0.0
1070
     0
1070
   100
1070
     0
1070
     0
1070
     0
1070
     0
1070
     0
1070
     0
1040
0.0
1040
0.0
1040
0.0
1040
1.0
1040
1.0
1040
0.0
1040
0.0
1070
     0
1002
{
1002
}
1002
}
  0
INSERT
  5
2A59
330
28FB
100
AcDbEntity
 67
     1
  8
図枠太線
100
AcDbBlockReference
  2
A3横用_タイトル
 10
-0.352109406709
 20
-0.859852510258
 30
0.0
  0
MTEXT
  5
322B
330
28FB
100
AcDbEntity
 67
     1
  8
寸法線
 48
10.0
100
AcDbMText
 10
146.778370616794
 20
15.083159667506
 30
0.0
 40
7.0
 41
20.13579853524
 71
     1
 72
     5
  1
1:1.5
  0
MTEXT
  5
322C
102
{ACAD_XDICTIONARY
360
3A6D
102
}
330
28FB
100
AcDbEntity
 67
     1
  8
寸法線
 48
10.0
100
AcDbMText
 10
175.322824279557
 20
13.842495064885
 30
0.0
 40
5.0
 41
27.082042865391
 71
     1
 72
     5
  1
2015.6.15
1001
ACADANNOTATIVE
1000
AnnotativeData
1002
{
1070
     1
1070
     0
1002
}
  0
MTEXT
  5
322D
102
{ACAD_XDICTIONARY
360
3A70
102
}
330
28FB
100
AcDbEntity
 67
     1
  8
寸法線
 48
10.0
100
AcDbMText
 10
180.914248736334
 20
33.717655031491
 30
0.0
 40
5.0
 41
33.4
 71
     1
 72
     5
  1
ohno
1001
ACADANNOTATIVE
1000
AnnotativeData
1002
{
1070
     1
1070
     0
1002
}
  0
MTEXT
  5
322F
330
28FB
100
AcDbEntity
 67
     1
  8
寸法線
 48
10.0
100
AcDbMText
 10
316.541823909446
 20
34.926184516027
 30
0.0
 40
7.0
 41
37.345612043362
 71
     1
 72
     5
  1
HL-400
  0
MTEXT
  5
3230
330
28FB
100
AcDbEntity
 67
     1
  8
寸法線
 48
10.0
100
AcDbMText
 10
361.819918635276
 20
39.437425909774
 30
0.0
 40
5.0
 41
42.043281739348
 71
     1
 72
     5
  1
パドル式\Pレベルスイッチ
  0
MTEXT
  5
3231
102
{ACAD_XDICTIONARY
360
3A73
102
}
330
28FB
100
AcDbEntity
 67
     1
  8
寸法線
 48
10.0
100
AcDbMText
 10
347.266472765904
 20
15.772258695778
 30
0.0
 40
7.0
 41
36.545313751788
 71
     1
 72
     5
  1
\H1.143x;HB-6001
1001
ACADANNOTATIVE
1000
AnnotativeData
1002
{
1070
     1
1070
     0
1002
}
  0
MTEXT
  5
3234
330
28FB
100
AcDbEntity
 67
     1
  8
寸法線
 48
10.0
100
AcDbMText
 10
371.474468321544
 20
53.075854054925
 30
0.0
 40
5.0
 41
34.334449052711
 71
     1
 72
     5
  1
台数   台
  0
ENDSEC
  0
SECTION
  2
OBJECTS
  0
DICTIONARY
  5
C
330
0
100
AcDbDictionary
  3
ACAD_COLOR
350
2948
  3
ACAD_GROUP
350
D
  3
ACAD_LAYOUT
350
2816
  3
ACAD_MATERIAL
350
2947
  3
ACAD_MLEADERSTYLE
350
3A69
  3
ACAD_MLINESTYLE
350
E
  3
ACAD_PLOTSETTINGS
350
2817
  3
ACAD_SCALELIST
350
3A42
  3
ACAD_VISUALSTYLE
350
3A29
  3
ACDBHEADERROUNDTRIPXREC
350
3DE0
  3
ACDBVARIABLEDICTIONARY
350
3AD6
  3
DWGPROPS
350
3E05
  0
DICTIONARY
  5
3E06
330
8
100
AcDbDictionary
280
     1
  3
ACAD_XREC_ROUNDTRIP
360
3E07
  0
DICTIONARY
  5
29EA
330
2
100
AcDbDictionary
280
     1
  3
ACAD_LAYERFILTERS
360
2B0C
  3
ACAD_LAYERSTATES
360
29EB
  0
DICTIONARY
  5
3AC9
330
3228
100
AcDbDictionary
280
     1
  3
ACDBCONTEXTDATAMANAGER
360
3ACA
  0
DICTIONARY
  5
3ADE
330
35CC
100
AcDbDictionary
280
     1
  3
ACDBCONTEXTDATAMANAGER
360
3ADF
  0
DICTIONARY
  5
3A77
330
3802
100
AcDbDictionary
280
     1
  3
ACDBCONTEXTDATAMANAGER
360
3A78
  0
DICTIONARY
  5
3ABD
330
3ABC
100
AcDbDictionary
280
     1
  3
ACDBCONTEXTDATAMANAGER
360
3ABE
  0
DICTIONARY
  5
3AD3
330
3AC0
100
AcDbDictionary
280
     1
  3
ACDBCONTEXTDATAMANAGER
360
3AD4
  0
DICTIONARY
  5
3A6D
330
322C
100
AcDbDictionary
280
     1
  3
ACDBCONTEXTDATAMANAGER
360
3A6E
  0
DICTIONARY
  5
3A70
330
322D
100
AcDbDictionary
280
     1
  3
ACDBCONTEXTDATAMANAGER
360
3A71
  0
DICTIONARY
  5
3A73
330
3231
100
AcDbDictionary
280
     1
  3
ACDBCONTEXTDATAMANAGER
360
3A74
  0
DICTIONARY
  5
2948
102
{ACAD_REACTORS
330
C
102
}
330
C
100
AcDbDictionary
  0
DICTIONARY
  5
D
102
{ACAD_REACTORS
330
C
102
}
330
C
100
AcDbDictionary
  0
DICTIONARY
  5
2816
102
{ACAD_REACTORS
330
C
102
}
330
C
100
AcDbDictionary
  0
DICTIONARY
  5
2947
102
{ACAD_REACTORS
330
C
102
}
330
C
100
AcDbDictionary
  3
BYBLOCK
350
3A65
  3
BYLAYER
350
3A64
  3
GLOBAL
350
3A66
  0
DICTIONARY
  5
3A69
102
{ACAD_REACTORS
330
C
102
}
330
C
100
AcDbDictionary
  3
STANDARD
350
3A6A
  0
DICTIONARY
  5
E
102
{ACAD_REACTORS
330
C
102
}
330
C
100
AcDbDictionary
  3
STANDARD
350
13
  0
DICTIONARY
  5
2817
102
{ACAD_REACTORS
330
C
102
}
330
C
100
AcDbDictionary
  0
DICTIONARY
  5
3A42
102
{ACAD_REACTORS
330
C
102
}
330
C
100
AcDbDictionary
  3
A0
350
3A43
  3
A1
350
3A44
  3
A2
350
3A45
  3
A3
350
3A46
  3
A4
350
3A47
  3
A5
350
3A48
  3
A6
350
3A49
  3
A7
350
3A4A
  3
A8
350
3A4B
  3
A9
350
3A4C
  3
B0
350
3A4D
  3
B1
350
3A4E
  3
B2
350
3A4F
  3
B3
350
3A50
  3
B4
350
3A51
  3
B5
350
3A52
  3
B6
350
3A53
  3
B7
350
3A54
  3
B8
350
3A55
  3
B9
350
3A56
  3
C0
350
3A57
  3
C1
350
3A58
  3
C2
350
3A59
  3
C3
350
3A5A
  3
C4
350
3A5B
  3
C5
350
3A5C
  3
C6
350
3A5D
  3
C7
350
3A5E
  3
C8
350
3A5F
  3
C9
350
3A60
  3
D0
350
3A61
  3
D1
350
3A62
  3
D2
350
3A63
  0
DICTIONARY
  5
3A29
102
{ACAD_REACTORS
330
C
102
}
330
C
100
AcDbDictionary
  3
2DWIREFRAME
350
3A2E
  3
BASIC
350
3A31
  3
BRIGHTEN
350
3A35
  3
COLORCHANGE
350
3A39
  3
CONCEPTUAL
350
3A33
  3
DIM
350
3A34
  3
EDGECOLOROFF
350
3A3C
  3
FACEPATTERN
350
3A38
  3
FLAT
350
3A2A
  3
FLATWITHEDGES
350
3A2B
  3
GOURAUD
350
3A2C
  3
GOURAUDWITHEDGES
350
3A2D
  3
HIDDEN
350
3A30
  3
JITTEROFF
350
3A3A
  3
LINEPATTERN
350
3A37
  3
OVERHANGOFF
350
3A3B
  3
REALISTIC
350
3A32
  3
SHADED
350
3A41
  3
SHADED_WITH_EDGES
350
3A40
  3
SHADES_OF_GRAY
350
3A3D
  3
SKETCHY
350
3A3E
  3
THICKEN
350
3A36
  3
WIREFRAME
350
3A2F
  3
X-RAY
350
3A3F
  0
DICTIONARY
  5
3DE0
102
{ACAD_REACTORS
330
C
102
}
330
C
100
AcDbDictionary
  3
CEPSNID
350
3DEA
  3
CEPSNTYPE
350
3DE9
  3
COLORDICT
350
3E03
  3
DIMSTYLEDATA
350
3E00
  3
FINGERPRINTGUID
350
3DEB
  3
HYPERLINKBASE
350
3DE3
  3
INSUNITS
350
3DE8
  3
LAYOUTDICT
350
3DE5
  3
LWETCUNION
350
3DE7
  3
MATERIALDICT
350
3E04
  3
PLOTSETDICT
350
3DE6
  3
PSVPSCALE
350
3DED
  3
PUCSBASE
350
3DF0
  3
PUCSORGBACK
350
3DF6
  3
PUCSORGBOTTOM
350
3DF2
  3
PUCSORGFRONT
350
3DF5
  3
PUCSORGLEFT
350
3DF3
  3
PUCSORGRIGHT
350
3DF4
  3
PUCSORGTOP
350
3DF1
  3
PUCSORTHOREF
350
3DEE
  3
PUCSORTHOVIEW
350
3DEF
  3
STYLESHEET
350
3DE4
  3
TSTACKALIGN
350
3DE1
  3
TSTACKSIZE
350
3DE2
  3
UCSBASE
350
3DF9
  3
UCSORGBACK
350
3DFF
  3
UCSORGBOTTOM
350
3DFB
  3
UCSORGFRONT
350
3DFE
  3
UCSORGLEFT
350
3DFC
  3
UCSORGRIGHT
350
3DFD
  3
UCSORGTOP
350
3DFA
  3
UCSORTHOREF
350
3DF7
  3
UCSORTHOVIEW
350
3DF8
  3
VERSIONGUID
350
3DEC
  0
DICTIONARY
  5
3AD6
102
{ACAD_REACTORS
330
C
102
}
330
C
100
AcDbDictionary
  3
CANNOSCALE
350
3AD7
  3
CMLEADERSTYLE
350
3AD9
  3
CTABLESTYLE
350
3AD8
  3
DIMASSOC
350
3E01
  3
HIDETEXT
350
3E02
  3
MSLTSCALE
350
3ADA
  3
XCLIPFRAME
350
3ADB
  0
XRECORD
  5
3E05
102
{ACAD_REACTORS
330
C
102
}
330
C
100
AcDbXrecord
  1
DWGPROPS COOKIE
  2

  3

  4

  6

  7

  8
y-ohno
  9

300
=
301
=
302
=
303
=
304
=
305
=
306
=
307
=
308
=
309
=
 40
0.0
 41
2450576.222302431
 42
2457191.289110949
  1

 90
        0
  0
XRECORD
  5
3E07
102
{ACAD_REACTORS
330
3E06
102
}
330
3E06
100
AcDbXrecord
102
VTR_0.000_0.000_1.000_1.000_VISUALSTYLE
340
3A2E
102
VTR_0.000_0.000_1.000_1.000_GRIDDISPLAY
 70
     3
102
VTR_0.000_0.000_1.000_1.000_GRIDMAJOR
 70
     5
102
VTR_0.000_0.000_1.000_1.000_DEFAULTLIGHTING
280
     1
102
VTR_0.000_0.000_1.000_1.000_DEFAULTLIGHTINGTYPE
 70
     1
102
VTR_0.000_0.000_1.000_1.000_BRIGHTNESS
141
0.0
102
VTR_0.000_0.000_1.000_1.000_CONTRAST
142
0.0
  0
DICTIONARY
  5
2B0C
102
{ACAD_REACTORS
330
29EA
102
}
330
29EA
100
AcDbDictionary
  0
DICTIONARY
  5
29EB
102
{ACAD_REACTORS
330
29EA
102
}
330
29EA
100
AcDbDictionary
  0
DICTIONARY
  5
3ACA
102
{ACAD_REACTORS
330
3AC9
102
}
330
3AC9
100
AcDbDictionary
  3
ACDB_ANNOTATIONSCALES
350
3ACB
  0
DICTIONARY
  5
3ADF
102
{ACAD_REACTORS
330
3ADE
102
}
330
3ADE
100
AcDbDictionary
  3
ACDB_ANNOTATIONSCALES
350
3AE0
  0
DICTIONARY
  5
3A78
102
{ACAD_REACTORS
330
3A77
102
}
330
3A77
100
AcDbDictionary
  3
ACDB_ANNOTATIONSCALES
350
3A79
  0
DICTIONARY
  5
3ABE
102
{ACAD_REACTORS
330
3ABD
102
}
330
3ABD
100
AcDbDictionary
  3
ACDB_ANNOTATIONSCALES
350
3ABF
  0
DICTIONARY
  5
3AD4
102
{ACAD_REACTORS
330
3AD3
102
}
330
3AD3
100
AcDbDictionary
  3
ACDB_ANNOTATIONSCALES
350
3AD5
  0
DICTIONARY
  5
3A6E
102
{ACAD_REACTORS
330
3A6D
102
}
330
3A6D
100
AcDbDictionary
  3
ACDB_ANNOTATIONSCALES
350
3A6F
  0
DICTIONARY
  5
3A71
102
{ACAD_REACTORS
330
3A70
102
}
330
3A70
100
AcDbDictionary
  3
ACDB_ANNOTATIONSCALES
350
3A72
  0
DICTIONARY
  5
3A74
102
{ACAD_REACTORS
330
3A73
102
}
330
3A73
100
AcDbDictionary
  3
ACDB_ANNOTATIONSCALES
350
3A75
  0
MATERIAL
  5
3A65
102
{ACAD_REACTORS
330
2947
102
}
102
{ACAD_XDICTIONARY
360
3E0A
102
}
330
2947
100
AcDbMaterial
  1
BYBLOCK
  0
MATERIAL
  5
3A64
102
{ACAD_REACTORS
330
2947
102
}
102
{ACAD_XDICTIONARY
360
3E08
102
}
330
2947
100
AcDbMaterial
  1
BYLAYER
  0
MATERIAL
  5
3A66
102
{ACAD_REACTORS
330
2947
102
}
102
{ACAD_XDICTIONARY
360
3E0C
102
}
330
2947
100
AcDbMaterial
  1
GLOBAL
  0
ACAD_PROXY_OBJECT
  5
3A6A
102
{ACAD_REACTORS
330
3A69
102
}
330
3A69
100
AcDbProxyObject
 90
      499
 91
      507
 93
      610
310
40901902A4063FBFFFFFE0000000000000020400000000000020404214DD185B99185C990000000000000104090141901A00000000000004100000000000000041025764000000000000039000
340
14
340
0
340
10
340
0
 94
        0
1001
ACAD_MLEADERVER
1070
     2
  0
MLINESTYLE
  5
13
102
{ACAD_REACTORS
330
E
102
}
330
E
100
AcDbMlineStyle
  2
STANDARD
 70
     0
  3

 62
     0
 51
90.0
 52
90.0
 71
     2
 49
0.5
 62
   256
  6
BYLAYER
 49
-0.5
 62
   256
  6
BYLAYER
  0
ACAD_PROXY_OBJECT
  5
3A43
102
{ACAD_REACTORS
330
3A42
102
}
330
3A42
100
AcDbProxyObject
 90
      499
 91
      504
 93
       41
310
903313A31580
  0
ACAD_PROXY_OBJECT
  5
3A44
102
{ACAD_REACTORS
330
3A42
102
}
330
3A42
100
AcDbProxyObject
 90
      499
 91
      504
 93
      105
310
903313A324000000000000004000
  0
ACAD_PROXY_OBJECT
  5
3A45
102
{ACAD_REACTORS
330
3A42
102
}
330
3A42
100
AcDbProxyObject
 90
      499
 91
      504
 93
      105
310
903313A344000000000000104000
  0
ACAD_PROXY_OBJECT
  5
3A46
102
{ACAD_REACTORS
330
3A42
102
}
330
3A42
100
AcDbProxyObject
 90
      499
 91
      504
 93
      105
310
903313A354000000000000144000
  0
ACAD_PROXY_OBJECT
  5
3A47
102
{ACAD_REACTORS
330
3A42
102
}
330
3A42
100
AcDbProxyObject
 90
      499
 91
      504
 93
      105
310
903313A384000000000000204000
  0
ACAD_PROXY_OBJECT
  5
3A48
102
{ACAD_REACTORS
330
3A42
102
}
330
3A42
100
AcDbProxyObject
 90
      499
 91
      504
 93
      113
310
904313A31304000000000000244000
  0
ACAD_PROXY_OBJECT
  5
3A49
102
{ACAD_REACTORS
330
3A42
102
}
330
3A42
100
AcDbProxyObject
 90
      499
 91
      504
 93
      113
310
904313A31364000000000000304000
  0
ACAD_PROXY_OBJECT
  5
3A4A
102
{ACAD_REACTORS
330
3A42
102
}
330
3A42
100
AcDbProxyObject
 90
      499
 91
      504
 93
      113
310
904313A32304000000000000344000
  0
ACAD_PROXY_OBJECT
  5
3A4B
102
{ACAD_REACTORS
330
3A42
102
}
330
3A42
100
AcDbProxyObject
 90
      499
 91
      504
 93
      113
310
904313A333040000000000003E4000
  0
ACAD_PROXY_OBJECT
  5
3A4C
102
{ACAD_REACTORS
330
3A42
102
}
330
3A42
100
AcDbProxyObject
 90
      499
 91
      504
 93
      113
310
904313A34304000000000000444000
  0
ACAD_PROXY_OBJECT
  5
3A4D
102
{ACAD_REACTORS
330
3A42
102
}
330
3A42
100
AcDbProxyObject
 90
      499
 91
      504
 93
      113
310
904313A35304000000000000494000
  0
ACAD_PROXY_OBJECT
  5
3A4E
102
{ACAD_REACTORS
330
3A42
102
}
330
3A42
100
AcDbProxyObject
 90
      499
 91
      504
 93
      121
310
905313A3130304000000000000594000
  0
ACAD_PROXY_OBJECT
  5
3A4F
102
{ACAD_REACTORS
330
3A42
102
}
330
3A42
100
AcDbProxyObject
 90
      499
 91
      504
 93
      105
310
903323A310000000000000010100
  0
ACAD_PROXY_OBJECT
  5
3A50
102
{ACAD_REACTORS
330
3A42
102
}
330
3A42
100
AcDbProxyObject
 90
      499
 91
      504
 93
      105
310
903343A310000000000000410100
  0
ACAD_PROXY_OBJECT
  5
3A51
102
{ACAD_REACTORS
330
3A42
102
}
330
3A42
100
AcDbProxyObject
 90
      499
 91
      504
 93
      105
310
903383A310000000000000810100
  0
ACAD_PROXY_OBJECT
  5
3A52
102
{ACAD_REACTORS
330
3A42
102
}
330
3A42
100
AcDbProxyObject
 90
      499
 91
      504
 93
      113
310
90431303A310000000000000910100
  0
ACAD_PROXY_OBJECT
  5
3A53
102
{ACAD_REACTORS
330
3A42
102
}
330
3A42
100
AcDbProxyObject
 90
      499
 91
      504
 93
      121
310
9053130303A310000000000001650100
  0
ACAD_PROXY_OBJECT
  5
3A54
102
{ACAD_REACTORS
330
3A42
102
}
330
3A42
100
AcDbProxyObject
 90
      499
 91
      504
 93
      257
310
90E312F31323822203D2031272D3022000000000000200FC000000000000284000
  0
ACAD_PROXY_OBJECT
  5
3A55
102
{ACAD_REACTORS
330
3A42
102
}
330
3A42
100
AcDbProxyObject
 90
      499
 91
      504
 93
      249
310
90D312F363422203D2031272D3022000000000000240FC000000000000284000
  0
ACAD_PROXY_OBJECT
  5
3A56
102
{ACAD_REACTORS
330
3A42
102
}
330
3A42
100
AcDbProxyObject
 90
      499
 91
      504
 93
      249
310
90D312F333222203D2031272D3022000000000000280FC000000000000284000
  0
ACAD_PROXY_OBJECT
  5
3A57
102
{ACAD_REACTORS
330
3A42
102
}
330
3A42
100
AcDbProxyObject
 90
      499
 91
      504
 93
      249
310
90D312F313622203D2031272D30220000000000002C0FC000000000000284000
  0
ACAD_PROXY_OBJECT
  5
3A58
102
{ACAD_REACTORS
330
3A42
102
}
330
3A42
100
AcDbProxyObject
 90
      499
 91
      504
 93
      249
310
90D332F333222203D2031272D30220000000000002E0FC000000000000284000
  0
ACAD_PROXY_OBJECT
  5
3A59
102
{ACAD_REACTORS
330
3A42
102
}
330
3A42
100
AcDbProxyObject
 90
      499
 91
      504
 93
      241
310
90C312F3822203D2031272D3022000000000000300FC000000000000284000
  0
ACAD_PROXY_OBJECT
  5
3A5A
102
{ACAD_REACTORS
330
3A42
102
}
330
3A42
100
AcDbProxyObject
 90
      499
 91
      504
 93
      249
310
90D332F313622203D2031272D3022000000000000320FC000000000000284000
  0
ACAD_PROXY_OBJECT
  5
3A5B
102
{ACAD_REACTORS
330
3A42
102
}
330
3A42
100
AcDbProxyObject
 90
      499
 91
      504
 93
      241
310
90C312F3422203D2031272D3022000000000000340FC000000000000284000
  0
ACAD_PROXY_OBJECT
  5
3A5C
102
{ACAD_REACTORS
330
3A42
102
}
330
3A42
100
AcDbProxyObject
 90
      499
 91
      504
 93
      241
310
90C332F3822203D2031272D3022000000000000360FC000000000000284000
  0
ACAD_PROXY_OBJECT
  5
3A5D
102
{ACAD_REACTORS
330
3A42
102
}
330
3A42
100
AcDbProxyObject
 90
      499
 91
      504
 93
      241
310
90C312F3222203D2031272D3022000000000000380FC000000000000284000
  0
ACAD_PROXY_OBJECT
  5
3A5E
102
{ACAD_REACTORS
330
3A42
102
}
330
3A42
100
AcDbProxyObject
 90
      499
 91
      504
 93
      241
310
90C332F3422203D2031272D30220000000000003A0FC000000000000284000
  0
ACAD_PROXY_OBJECT
  5
3A5F
102
{ACAD_REACTORS
330
3A42
102
}
330
3A42
100
AcDbProxyObject
 90
      499
 91
      504
 93
      161
310
90A3122203D2031272D30224000000000000284000
  0
ACAD_PROXY_OBJECT
  5
3A60
102
{ACAD_REACTORS
330
3A42
102
}
330
3A42
100
AcDbProxyObject
 90
      499
 91
      504
 93
      257
310
90E312D312F3222203D2031272D30220000000000003E0FC000000000000284000
  0
ACAD_PROXY_OBJECT
  5
3A61
102
{ACAD_REACTORS
330
3A42
102
}
330
3A42
100
AcDbProxyObject
 90
      499
 91
      504
 93
      225
310
90A3322203D2031272D302200000000000002100000000000000284000
  0
ACAD_PROXY_OBJECT
  5
3A62
102
{ACAD_REACTORS
330
3A42
102
}
330
3A42
100
AcDbProxyObject
 90
      499
 91
      504
 93
      225
310
90A3622203D2031272D302200000000000006100000000000000284000
  0
ACAD_PROXY_OBJECT
  5
3A63
102
{ACAD_REACTORS
330
3A42
102
}
330
3A42
100
AcDbProxyObject
 90
      499
 91
      504
 93
      249
310
90D31272D3022203D2031272D30220000000000000A100000000000000284000
  0
ACAD_PROXY_OBJECT
  5
3A2E
102
{ACAD_REACTORS
330
3A29
102
}
330
3A29
100
AcDbProxyObject
 90
      499
 91
      503
 93
      436
310
42CC9915DA5C99599C985B595049028333333333333E33F0000000000000F90107901411070040501600405405064090741402480A0340
1001
ACAD
1000
AcDbSavedByObjectVersion
1070
     0
  0
ACAD_PROXY_OBJECT
  5
3A31
102
{ACAD_REACTORS
330
3A29
102
}
330
3A29
100
AcDbProxyObject
 90
      499
 91
      503
 93
      388
310
4150985CDA58D07406404333333333333E33F0000000000000F90107A41107004050150841D405064090741402480A0350
1001
ACAD
1000
AcDbSavedByObjectVersion
1070
     0
  0
ACAD_PROXY_OBJECT
  5
3A35
102
{ACAD_REACTORS
330
3A29
102
}
330
3A29
100
AcDbProxyObject
 90
      499
 91
      503
 93
      428
310
42109C9A59DA1D195B90C409028333333333333E33F0000000000000F9010790141107004050150841D405064090741402480A029950
1001
ACAD
1000
AcDbSavedByObjectVersion
1070
     0
  0
ACAD_PROXY_OBJECT
  5
3A39
102
{ACAD_REACTORS
330
3A29
102
}
330
3A29
100
AcDbProxyObject
 90
      499
 91
      503
 93
      452
310
42D0DBDB1BDC90DA185B99D95104090240C333333333333E33F0000000000000F90108901411070040501508421405064090741402480A0350
1001
ACAD
1000
AcDbSavedByObjectVersion
1070
     0
  0
ACAD_PROXY_OBJECT
  5
3A33
102
{ACAD_REACTORS
330
3A29
102
}
330
3A29
100
AcDbProxyObject
 90
      499
 91
      503
 93
      500
310
4290DBDB98D95C1D1D585B10940D028333333333333E33F0000000000000F90107902409070040501000000000018199010841D405064090740C02480A0340
1001
ACAD
1000
AcDbSavedByObjectVersion
1070
     0
  0
ACAD_PROXY_OBJECT
  5
3A34
102
{ACAD_REACTORS
330
3A29
102
}
330
3A29
100
AcDbProxyObject
 90
      499
 91
      503
 93
      412
310
40D11A5B50B409028333333333333E33F0000000000000F9010790141107004050150841D405064090741402480A02677FFFFFD0
1001
ACAD
1000
AcDbSavedByObjectVersion
1070
     0
  0
ACAD_PROXY_OBJECT
  5
3A3C
102
{ACAD_REACTORS
330
3A29
102
}
330
3A29
100
AcDbProxyObject
 90
      499
 91
      503
 93
      452
310
43115919D950DBDB1BDC93D999916409028333333333333E33F0000000000000F9010790141107004050150841D405064090741402480A0350
1001
ACAD
1000
AcDbSavedByObjectVersion
1070
     0
  0
ACAD_PROXY_OBJECT
  5
3A38
102
{ACAD_REACTORS
330
3A29
102
}
330
3A29
100
AcDbProxyObject
 90
      499
 91
      503
 93
      444
310
42D19858D95C185D1D195C9B90F409028333333333333E33F0000000000000F9010790141107004050150841D405064090741402480A0350
1001
ACAD
1000
AcDbSavedByObjectVersion
1070
     0
  0
ACAD_PROXY_OBJECT
  5
3A2A
102
{ACAD_REACTORS
330
3A29
102
}
330
3A29
100
AcDbProxyObject
 90
      499
 91
      503
 93
      380
310
41119B185D240901404333333333333E33F0000000000000F9010740A907004050150841D405064090741402480A1B50
1001
ACAD
1000
AcDbSavedByObjectVersion
1070
     0
  0
ACAD_PROXY_OBJECT
  5
3A2B
102
{ACAD_REACTORS
330
3A29
102
}
330
3A29
100
AcDbProxyObject
 90
      499
 91
      503
 93
      468
310
43519B185D15DA5D1A115919D95CD0140901404333333333333E33F0000000000000F90107409019070040501600405405064090741402480A1B50
1001
ACAD
1000
AcDbSavedByObjectVersion
1070
     0
  0
ACAD_PROXY_OBJECT
  5
3A2C
102
{ACAD_REACTORS
330
3A29
102
}
330
3A29
100
AcDbProxyObject
 90
      499
 91
      503
 93
      404
310
41D1DBDD5C985D5910240902404333333333333E33F0000000000000F9010740A9070040501641D405064090741402480A1B50
1001
ACAD
1000
AcDbSavedByObjectVersion
1070
     0
  0
ACAD_PROXY_OBJECT
  5
3A2D
102
{ACAD_REACTORS
330
3A29
102
}
330
3A29
100
AcDbProxyObject
 90
      499
 91
      503
 93
      492
310
4411DBDD5C985D5915DA5D1A115919D95CD0340902404333333333333E33F0000000000000F90107409019070040501600405405064090741402480A1B50
1001
ACAD
1000
AcDbSavedByObjectVersion
1070
     0
  0
ACAD_PROXY_OBJECT
  5
3A30
102
{ACAD_REACTORS
330
3A29
102
}
330
3A29
100
AcDbProxyObject
 90
      499
 91
      503
 93
      476
310
41921A5919195B90640502408333333333333E33F0000000000000F901079024090700405020000000000001110200405405064090740C02480A0340
1001
ACAD
1000
AcDbSavedByObjectVersion
1070
     0
  0
ACAD_PROXY_OBJECT
  5
3A3A
102
{ACAD_REACTORS
330
3A29
102
}
330
3A29
100
AcDbProxyObject
 90
      499
 91
      503
 93
      428
310
42529A5D1D195C93D999914409028333333333333E33F0000000000000F9010790141107004050150A41D405064090741402480A0350
1001
ACAD
1000
AcDbSavedByObjectVersion
1070
     0
  0
ACAD_PROXY_OBJECT
  5
3A37
102
{ACAD_REACTORS
330
3A29
102
}
330
3A29
100
AcDbProxyObject
 90
      499
 91
      503
 93
      444
310
42D31A5B995C185D1D195C9B90E409028333333333333E33F0000000000000F9010790141107004050750841D405064090741402483A0350
1001
ACAD
1000
AcDbSavedByObjectVersion
1070
     0
  0
ACAD_PROXY_OBJECT
  5
3A3B
102
{ACAD_REACTORS
330
3A29
102
}
330
3A29
100
AcDbProxyObject
 90
      499
 91
      503
 93
      444
310
42D3DD995C9A185B99D3D999915409028333333333333E33F0000000000000F9010790141107004050150941D405064090741402480A0350
1001
ACAD
1000
AcDbSavedByObjectVersion
1070
     0
  0
ACAD_PROXY_OBJECT
  5
3A32
102
{ACAD_REACTORS
330
3A29
102
}
330
3A29
100
AcDbProxyObject
 90
      499
 91
      503
 93
      428
310
425499585B1A5CDD1A58D08409038333333333333E33F0000000000000F9010740A907004050150800405405064090740C02480A1B40
1001
ACAD
1000
AcDbSavedByObjectVersion
1070
     0
  0
ACAD_PROXY_OBJECT
  5
3A41
102
{ACAD_REACTORS
330
3A29
102
}
330
3A29
100
AcDbProxyObject
 90
      499
 91
      503
 93
      420
310
4194DA1859195911B40902404333333333333E33F0000000000000F9010740A41107004050150800405405064090840C02480A0B40
1001
ACAD
1000
AcDbSavedByObjectVersion
1070
     0
  0
ACAD_PROXY_OBJECT
  5
3A40
102
{ACAD_REACTORS
330
3A29
102
}
330
3A29
100
AcDbProxyObject
 90
      499
 91
      503
 93
      516
310
4454DA18591959081DDA5D1A08195919D95CD1A40902404333333333333E33F0000000000000F901074090142907004050250800405405064090740C02480A0B40
1001
ACAD
1000
AcDbSavedByObjectVersion
1070
     0
  0
ACAD_PROXY_OBJECT
  5
3A3D
102
{ACAD_REACTORS
330
3A29
102
}
330
3A29
100
AcDbProxyObject
 90
      499
 91
      503
 93
      532
310
4394DA1859195CC81BD98811DC985E5174090240C333333333333E33F0000000000000F901079024090741D01000000000000111010841D405064090740C02480A0340
1001
ACAD
1000
AcDbSavedByObjectVersion
1070
     0
  0
ACAD_PROXY_OBJECT
  5
3A3E
102
{ACAD_REACTORS
330
3A29
102
}
330
3A29
100
AcDbProxyObject
 90
      499
 91
      503
 93
      476
310
41D4DAD95D18DA1E51840502408333333333333E33F0000000000000F901079024090741D01000000000000111010B41D405064090741802480A0340
1001
ACAD
1000
AcDbSavedByObjectVersion
1070
     0
  0
ACAD_PROXY_OBJECT
  5
3A36
102
{ACAD_REACTORS
330
3A29
102
}
330
3A29
100
AcDbProxyObject
 90
      499
 91
      503
 93
      412
310
41D51A1A58DAD95B90D409028333333333333E33F0000000000000F9010790141107004050150C41D405064090741402480A0350
1001
ACAD
1000
AcDbSavedByObjectVersion
1070
     0
  0
ACAD_PROXY_OBJECT
  5
3A2F
102
{ACAD_REACTORS
330
3A29
102
}
330
3A29
100
AcDbProxyObject
 90
      499
 91
      503
 93
      420
310
4255DA5C99599C985B595059028333333333333E33F0000000000000F90107901411070040501600405405064090740C02480A0340
1001
ACAD
1000
AcDbSavedByObjectVersion
1070
     0
  0
ACAD_PROXY_OBJECT
  5
3A3F
102
{ACAD_REACTORS
330
3A29
102
}
330
3A29
100
AcDbProxyObject
 90
      499
 91
      503
 93
      404
310
41560B54985E51940902404000000000000E03F0000000000000F9010740501907004050150841D405064090740C02480A1B40
1001
ACAD
1000
AcDbSavedByObjectVersion
1070
     0
  0
XRECORD
  5
3DEA
102
{ACAD_REACTORS
330
3DE0
102
}
330
3DE0
100
AcDbXrecord
340
0
  0
XRECORD
  5
3DE9
102
{ACAD_REACTORS
330
3DE0
102
}
330
3DE0
100
AcDbXrecord
 90
        0
  0
XRECORD
  5
3E03
102
{ACAD_REACTORS
330
3DE0
102
}
330
3DE0
100
AcDbXrecord
340
2948
  0
XRECORD
  5
3E00
102
{ACAD_REACTORS
330
3DE0
102
}
330
3DE0
100
AcDbXrecord
1000
DSTYLE
1002
{
1070
   171
 70
     2
1070
   143
 40
0.0394
1070
   274
 70
     2
1070
    41
 40
6.0
1070
   342
340
2AF4
1070
   271
 70
     1
1070
   278
 70
    46
1070
   341
340
2AF4
1070
   272
 70
     1
1070
    48
 40
0.1
1070
   283
 70
     1
1070
    47
 40
0.1
1070
   145
 40
1.0
1070
   340
340
10
1070
   140
 40
5.0
1070
   284
 70
     0
1002
}
  0
XRECORD
  5
3DEB
102
{ACAD_REACTORS
330
3DE0
102
}
330
3DE0
100
AcDbXrecord
  1
{23698909-1D67-4744-B0E2-8DE11E3ED422}
  0
XRECORD
  5
3DE3
102
{ACAD_REACTORS
330
3DE0
102
}
330
3DE0
100
AcDbXrecord
  1

  0
XRECORD
  5
3DE8
102
{ACAD_REACTORS
330
3DE0
102
}
330
3DE0
100
AcDbXrecord
 90
        0
  0
XRECORD
  5
3DE5
102
{ACAD_REACTORS
330
3DE0
102
}
330
3DE0
100
AcDbXrecord
340
2816
  0
XRECORD
  5
3DE7
102
{ACAD_REACTORS
330
3DE0
102
}
330
3DE0
100
AcDbXrecord
 90
    10781
  0
XRECORD
  5
3E04
102
{ACAD_REACTORS
330
3DE0
102
}
330
3DE0
100
AcDbXrecord
340
2947
  0
XRECORD
  5
3DE6
102
{ACAD_REACTORS
330
3DE0
102
}
330
3DE0
100
AcDbXrecord
340
2817
  0
XRECORD
  5
3DED
102
{ACAD_REACTORS
330
3DE0
102
}
330
3DE0
100
AcDbXrecord
 40
0.25
  0
XRECORD
  5
3DF0
102
{ACAD_REACTORS
330
3DE0
102
}
330
3DE0
100
AcDbXrecord
340
0
  0
XRECORD
  5
3DF6
102
{ACAD_REACTORS
330
3DE0
102
}
330
3DE0
100
AcDbXrecord
 10
0.0
 20
0.0
 30
0.0
  0
XRECORD
  5
3DF2
102
{ACAD_REACTORS
330
3DE0
102
}
330
3DE0
100
AcDbXrecord
 10
0.0
 20
0.0
 30
0.0
  0
XRECORD
  5
3DF5
102
{ACAD_REACTORS
330
3DE0
102
}
330
3DE0
100
AcDbXrecord
 10
0.0
 20
0.0
 30
0.0
  0
XRECORD
  5
3DF3
102
{ACAD_REACTORS
330
3DE0
102
}
330
3DE0
100
AcDbXrecord
 10
0.0
 20
0.0
 30
0.0
  0
XRECORD
  5
3DF4
102
{ACAD_REACTORS
330
3DE0
102
}
330
3DE0
100
AcDbXrecord
 10
0.0
 20
0.0
 30
0.0
  0
XRECORD
  5
3DF1
102
{ACAD_REACTORS
330
3DE0
102
}
330
3DE0
100
AcDbXrecord
 10
0.0
 20
0.0
 30
0.0
  0
XRECORD
  5
3DEE
102
{ACAD_REACTORS
330
3DE0
102
}
330
3DE0
100
AcDbXrecord
340
0
  0
XRECORD
  5
3DEF
102
{ACAD_REACTORS
330
3DE0
102
}
330
3DE0
100
AcDbXrecord
 70
     0
  0
XRECORD
  5
3DE4
102
{ACAD_REACTORS
330
3DE0
102
}
330
3DE0
100
AcDbXrecord
  1
TOWA.ctb
  0
XRECORD
  5
3DE1
102
{ACAD_REACTORS
330
3DE0
102
}
330
3DE0
100
AcDbXrecord
 90
        1
  0
XRECORD
  5
3DE2
102
{ACAD_REACTORS
330
3DE0
102
}
330
3DE0
100
AcDbXrecord
 90
       70
  0
XRECORD
  5
3DF9
102
{ACAD_REACTORS
330
3DE0
102
}
330
3DE0
100
AcDbXrecord
340
0
  0
XRECORD
  5
3DFF
102
{ACAD_REACTORS
330
3DE0
102
}
330
3DE0
100
AcDbXrecord
 10
0.0
 20
0.0
 30
0.0
  0
XRECORD
  5
3DFB
102
{ACAD_REACTORS
330
3DE0
102
}
330
3DE0
100
AcDbXrecord
 10
0.0
 20
0.0
 30
0.0
  0
XRECORD
  5
3DFE
102
{ACAD_REACTORS
330
3DE0
102
}
330
3DE0
100
AcDbXrecord
 10
0.0
 20
0.0
 30
0.0
  0
XRECORD
  5
3DFC
102
{ACAD_REACTORS
330
3DE0
102
}
330
3DE0
100
AcDbXrecord
 10
0.0
 20
0.0
 30
0.0
  0
XRECORD
  5
3DFD
102
{ACAD_REACTORS
330
3DE0
102
}
330
3DE0
100
AcDbXrecord
 10
0.0
 20
0.0
 30
0.0
  0
XRECORD
  5
3DFA
102
{ACAD_REACTORS
330
3DE0
102
}
330
3DE0
100
AcDbXrecord
 10
0.0
 20
0.0
 30
0.0
  0
XRECORD
  5
3DF7
102
{ACAD_REACTORS
330
3DE0
102
}
330
3DE0
100
AcDbXrecord
340
0
  0
XRECORD
  5
3DF8
102
{ACAD_REACTORS
330
3DE0
102
}
330
3DE0
100
AcDbXrecord
 70
     0
  0
XRECORD
  5
3DEC
102
{ACAD_REACTORS
330
3DE0
102
}
330
3DE0
100
AcDbXrecord
  1
{80078166-113C-4CEB-BE5E-AC21ECE84C09}
  0
DICTIONARYVAR
  5
3AD7
102
{ACAD_REACTORS
330
3AD6
102
}
330
3AD6
100
DictionaryVariables
280
     0
  1
1:1
  0
DICTIONARYVAR
  5
3AD9
102
{ACAD_REACTORS
330
3AD6
102
}
330
3AD6
100
DictionaryVariables
280
     0
  1
Standard
  0
DICTIONARYVAR
  5
3AD8
102
{ACAD_REACTORS
330
3AD6
102
}
330
3AD6
100
DictionaryVariables
280
     0
  1
Standard
  0
DICTIONARYVAR
  5
3E01
102
{ACAD_REACTORS
330
3AD6
102
}
330
3AD6
100
DictionaryVariables
280
     0
  1
1
  0
DICTIONARYVAR
  5
3E02
102
{ACAD_REACTORS
330
3AD6
102
}
330
3AD6
100
DictionaryVariables
280
     0
  1
0
  0
DICTIONARYVAR
  5
3ADA
102
{ACAD_REACTORS
330
3AD6
102
}
330
3AD6
100
DictionaryVariables
280
     0
  1
0
  0
DICTIONARYVAR
  5
3ADB
102
{ACAD_REACTORS
330
3AD6
102
}
330
3AD6
100
DictionaryVariables
280
     0
  1
0
  0
DICTIONARY
  5
3ACB
102
{ACAD_REACTORS
330
3ACA
102
}
330
3ACA
100
AcDbDictionary
  0
DICTIONARY
  5
3AE0
102
{ACAD_REACTORS
330
3ADF
102
}
330
3ADF
100
AcDbDictionary
  0
DICTIONARY
  5
3A79
102
{ACAD_REACTORS
330
3A78
102
}
330
3A78
100
AcDbDictionary
  0
DICTIONARY
  5
3ABF
102
{ACAD_REACTORS
330
3ABE
102
}
330
3ABE
100
AcDbDictionary
  0
DICTIONARY
  5
3AD5
102
{ACAD_REACTORS
330
3AD4
102
}
330
3AD4
100
AcDbDictionary
  0
DICTIONARY
  5
3A6F
102
{ACAD_REACTORS
330
3A6E
102
}
330
3A6E
100
AcDbDictionary
  0
DICTIONARY
  5
3A72
102
{ACAD_REACTORS
330
3A71
102
}
330
3A71
100
AcDbDictionary
  0
DICTIONARY
  5
3A75
102
{ACAD_REACTORS
330
3A74
102
}
330
3A74
100
AcDbDictionary
  0
DICTIONARY
  5
3E0A
330
3A65
100
AcDbDictionary
280
     1
  3
ACAD_XREC_ROUNDTRIP
360
3E0B
  0
DICTIONARY
  5
3E08
330
3A64
100
AcDbDictionary
280
     1
  3
ACAD_XREC_ROUNDTRIP
360
3E09
  0
DICTIONARY
  5
3E0C
330
3A66
100
AcDbDictionary
280
     1
  3
ACAD_XREC_ROUNDTRIP
360
3E0D
  0
XRECORD
  5
3E0B
102
{ACAD_REACTORS
330
3E0A
102
}
330
3E0A
100
AcDbXrecord
102
MATERIAL
148
0.0
149
0.0
149
0.0
 93
        0
 94
      127
282
     0
 72
     1
 77
     1
171
     1
175
     1
179
     1
273
     0
  0
XRECORD
  5
3E09
102
{ACAD_REACTORS
330
3E08
102
}
330
3E08
100
AcDbXrecord
102
MATERIAL
148
0.0
149
0.0
149
0.0
 93
        0
 94
      127
282
     0
 72
     1
 77
     1
171
     1
175
     1
179
     1
273
     0
  0
XRECORD
  5
3E0D
102
{ACAD_REACTORS
330
3E0C
102
}
330
3E0C
100
AcDbXrecord
102
MATERIAL
148
0.0
149
0.0
149
0.0
 93
        0
 94
      127
282
     0
 72
     1
 77
     1
171
     1
175
     1
179
     1
273
     0
  0
ENDSEC
  0
EOF
