  0
SECTION
  2
HEADER
  9
$ACADVER
  1
AC1018
  9
$ACADMAINTVER
 70
     0
  9
$DWGCODEPAGE
  3
ANSI_932
  9
$LASTSAVEDBY
  1
y-ohno
  9
$INSBASE
 10
0.0
 20
0.0
 30
0.0
  9
$EXTMIN
 10
712.078243631321
 20
289.40399563542
 30
0.0
  9
$EXTMAX
 10
1418.211404535138
 20
1354.77294035762
 30
0.0
  9
$LIMMIN
 10
-360.747566795242
 20
4.457354754526
  9
$LIMMAX
 10
-162.153696144267
 20
287.675440264018
  9
$ORTHOMODE
 70
     0
  9
$REGENMODE
 70
     1
  9
$FILLMODE
 70
     1
  9
$QTEXTMODE
 70
     0
  9
$MIRRTEXT
 70
     1
  9
$LTSCALE
 40
1.0
  9
$ATTMODE
 70
     1
  9
$TEXTSIZE
 40
2.333873885063
  9
$TRACEWID
 40
1.0
  9
$TEXTSTYLE
  7
STANDARD
  9
$CLAYER
  8
寸法線
  9
$CELTYPE
  6
BYLAYER
  9
$CECOLOR
 62
   256
  9
$CELTSCALE
 40
10.0
  9
$DISPSILH
 70
     0
  9
$DIMSCALE
 40
1.0
  9
$DIMASZ
 40
13.0
  9
$DIMEXO
 40
0.625
  9
$DIMDLI
 40
3.75
  9
$DIMRND
 40
0.0
  9
$DIMDLE
 40
0.0
  9
$DIMEXE
 40
1.25
  9
$DIMTP
 40
0.1
  9
$DIMTM
 40
0.1
  9
$DIMTXT
 40
14.0
  9
$DIMCEN
 40
2.5
  9
$DIMTSZ
 40
0.0
  9
$DIMTOL
 70
     0
  9
$DIMLIM
 70
     0
  9
$DIMTIH
 70
     0
  9
$DIMTOH
 70
     0
  9
$DIMSE1
 70
     0
  9
$DIMSE2
 70
     0
  9
$DIMTAD
 70
     1
  9
$DIMZIN
 70
     8
  9
$DIMBLK
  1
Open30
  9
$DIMASO
 70
     1
  9
$DIMSHO
 70
     1
  9
$DIMPOST
  1

  9
$DIMAPOST
  1

  9
$DIMALT
 70
     0
  9
$DIMALTD
 70
     2
  9
$DIMALTF
 40
0.0394
  9
$DIMLFAC
 40
1.0
  9
$DIMTOFL
 70
     1
  9
$DIMTVP
 40
1.0
  9
$DIMTIX
 70
     0
  9
$DIMSOXD
 70
     0
  9
$DIMSAH
 70
     0
  9
$DIMBLK1
  1

  9
$DIMBLK2
  1

  9
$DIMSTYLE
  2
ISO-25
  9
$DIMCLRD
 70
     0
  9
$DIMCLRE
 70
     0
  9
$DIMCLRT
 70
     0
  9
$DIMTFAC
 40
1.0
  9
$DIMGAP
 40
0.625
  9
$DIMJUST
 70
     0
  9
$DIMSD1
 70
     0
  9
$DIMSD2
 70
     0
  9
$DIMTOLJ
 70
     1
  9
$DIMTZIN
 70
     0
  9
$DIMALTZ
 70
     0
  9
$DIMALTTZ
 70
     0
  9
$DIMUPT
 70
     0
  9
$DIMDEC
 70
     1
  9
$DIMTDEC
 70
     1
  9
$DIMALTU
 70
     2
  9
$DIMALTTD
 70
     2
  9
$DIMTXSTY
  7
STANDARD
  9
$DIMAUNIT
 70
     0
  9
$DIMADEC
 70
     0
  9
$DIMALTRND
 40
0.0
  9
$DIMAZIN
 70
     0
  9
$DIMDSEP
 70
    46
  9
$DIMATFIT
 70
     3
  9
$DIMFRAC
 70
     0
  9
$DIMLDRBLK
  1
Open30
  9
$DIMLUNIT
 70
     2
  9
$DIMLWD
 70
    -2
  9
$DIMLWE
 70
    -2
  9
$DIMTMOVE
 70
     0
  9
$LUNITS
 70
     2
  9
$LUPREC
 70
     4
  9
$SKETCHINC
 40
1.0
  9
$FILLETRAD
 40
6.5
  9
$AUNITS
 70
     0
  9
$AUPREC
 70
     0
  9
$MENU
  1
.
  9
$ELEVATION
 40
0.0
  9
$PELEVATION
 40
0.0
  9
$THICKNESS
 40
0.0
  9
$LIMCHECK
 70
     0
  9
$CHAMFERA
 40
10.0
  9
$CHAMFERB
 40
10.0
  9
$CHAMFERC
 40
20.0
  9
$CHAMFERD
 40
0.0
  9
$SKPOLY
 70
     0
  9
$TDCREATE
 40
2450576.597302431
  9
$TDUCREATE
 40
2450576.222302431
  9
$TDUPDATE
 40
2457529.563544977
  9
$TDUUPDATE
 40
2457529.188544977
  9
$TDINDWG
 40
1.4348884491
  9
$TDUSRTIMER
 40
1.4348884491
  9
$USRTIMER
 70
     1
  9
$ANGBASE
 50
0.0
  9
$ANGDIR
 70
     0
  9
$PDMODE
 70
     0
  9
$PDSIZE
 40
0.0
  9
$PLINEWID
 40
0.0
  9
$SPLFRAME
 70
     0
  9
$SPLINETYPE
 70
     6
  9
$SPLINESEGS
 70
     8
  9
$HANDSEED
  5
4523
  9
$SURFTAB1
 70
     6
  9
$SURFTAB2
 70
     6
  9
$SURFTYPE
 70
     6
  9
$SURFU
 70
     6
  9
$SURFV
 70
     6
  9
$UCSBASE
  2

  9
$UCSNAME
  2

  9
$UCSORG
 10
0.0
 20
0.0
 30
0.0
  9
$UCSXDIR
 10
1.0
 20
0.0
 30
0.0
  9
$UCSYDIR
 10
0.0
 20
1.0
 30
0.0
  9
$UCSORTHOREF
  2

  9
$UCSORTHOVIEW
 70
     0
  9
$UCSORGTOP
 10
0.0
 20
0.0
 30
0.0
  9
$UCSORGBOTTOM
 10
0.0
 20
0.0
 30
0.0
  9
$UCSORGLEFT
 10
0.0
 20
0.0
 30
0.0
  9
$UCSORGRIGHT
 10
0.0
 20
0.0
 30
0.0
  9
$UCSORGFRONT
 10
0.0
 20
0.0
 30
0.0
  9
$UCSORGBACK
 10
0.0
 20
0.0
 30
0.0
  9
$PUCSBASE
  2

  9
$PUCSNAME
  2

  9
$PUCSORG
 10
0.0
 20
0.0
 30
0.0
  9
$PUCSXDIR
 10
1.0
 20
0.0
 30
0.0
  9
$PUCSYDIR
 10
0.0
 20
1.0
 30
0.0
  9
$PUCSORTHOREF
  2

  9
$PUCSORTHOVIEW
 70
     0
  9
$PUCSORGTOP
 10
0.0
 20
0.0
 30
0.0
  9
$PUCSORGBOTTOM
 10
0.0
 20
0.0
 30
0.0
  9
$PUCSORGLEFT
 10
0.0
 20
0.0
 30
0.0
  9
$PUCSORGRIGHT
 10
0.0
 20
0.0
 30
0.0
  9
$PUCSORGFRONT
 10
0.0
 20
0.0
 30
0.0
  9
$PUCSORGBACK
 10
0.0
 20
0.0
 30
0.0
  9
$USERI1
 70
     0
  9
$USERI2
 70
     0
  9
$USERI3
 70
     0
  9
$USERI4
 70
     0
  9
$USERI5
 70
     0
  9
$USERR1
 40
0.0
  9
$USERR2
 40
0.0
  9
$USERR3
 40
0.0
  9
$USERR4
 40
0.0
  9
$USERR5
 40
0.0
  9
$WORLDVIEW
 70
     1
  9
$SHADEDGE
 70
     3
  9
$SHADEDIF
 70
    70
  9
$TILEMODE
 70
     0
  9
$MAXACTVP
 70
    16
  9
$PINSBASE
 10
0.0
 20
0.0
 30
0.0
  9
$PLIMCHECK
 70
     0
  9
$PEXTMIN
 10
1.494923295415
 20
0.952498281072
 30
0.0
  9
$PEXTMAX
 10
281.494923295415
 20
405.952497602501
 30
0.0
  9
$PLIMMIN
 10
-6.94658241272
 20
-7.00708946228
  9
$PLIMMAX
 10
293.315276107788
 20
417.657612075806
  9
$UNITMODE
 70
     0
  9
$VISRETAIN
 70
     0
  9
$PLINEGEN
 70
     0
  9
$PSLTSCALE
 70
     1
  9
$TREEDEPTH
 70
  3020
  9
$CMLSTYLE
  2
STANDARD
  9
$CMLJUST
 70
     0
  9
$CMLSCALE
 40
1.0
  9
$PROXYGRAPHICS
 70
     1
  9
$MEASUREMENT
 70
     1
  9
$CELWEIGHT
370
    -1
  9
$ENDCAPS
280
     0
  9
$JOINSTYLE
280
     0
  9
$LWDISPLAY
290
     0
  9
$INSUNITS
 70
     0
  9
$HYPERLINKBASE
  1

  9
$STYLESHEET
  1

  9
$XEDIT
290
     1
  9
$CEPSNTYPE
380
     0
  9
$PSTYLEMODE
290
     1
  9
$FINGERPRINTGUID
  2
{23698909-1D67-4744-B0E2-8DE11E3ED422}
  9
$VERSIONGUID
  2
{BD43E575-5616-4292-BECA-F3332FA1AB1E}
  9
$EXTNAMES
290
     1
  9
$PSVPSCALE
 40
0.25
  9
$OLESTARTUP
290
     0
  9
$SORTENTS
280
   127
  9
$INDEXCTL
280
     0
  9
$HIDETEXT
280
     0
  9
$XCLIPFRAME
290
     0
  9
$HALOGAP
280
     0
  9
$OBSCOLOR
 70
   257
  9
$OBSLTYPE
280
     0
  9
$INTERSECTIONDISPLAY
280
     0
  9
$INTERSECTIONCOLOR
 70
   257
  9
$DIMASSOC
280
     1
  9
$PROJECTNAME
  1

  0
ENDSEC
  0
SECTION
  2
CLASSES
  0
CLASS
  1
ACDBDICTIONARYWDFLT
  2
AcDbDictionaryWithDefault
  3
ObjectDBX Classes
 90
        0
 91
        7
280
     0
281
     0
  0
CLASS
  1
ACDBPLACEHOLDER
  2
AcDbPlaceHolder
  3
ObjectDBX Classes
 90
        0
 91
        1
280
     0
281
     0
  0
CLASS
  1
LAYOUT
  2
AcDbLayout
  3
ObjectDBX Classes
 90
        0
 91
        1
280
     0
281
     0
  0
CLASS
  1
VISUALSTYLE
  2
AcDbVisualStyle
  3
ObjectDBX Classes
 90
     4095
 91
        7
280
     0
281
     0
  0
CLASS
  1
SCALE
  2
AcDbScale
  3
ObjectDBX Classes
 90
     1153
 91
        7
280
     0
281
     0
  0
CLASS
  1
MATERIAL
  2
AcDbMaterial
  3
ObjectDBX Classes
 90
     1153
 91
        7
280
     0
281
     0
  0
CLASS
  1
TABLESTYLE
  2
AcDbTableStyle
  3
ObjectDBX Classes
 90
     4095
 91
        7
280
     0
281
     0
  0
CLASS
  1
MLEADERSTYLE
  2
AcDbMLeaderStyle
  3
ACDB_MLEADERSTYLE_CLASS
 90
     4095
 91
        7
280
     0
281
     0
  0
CLASS
  1
SUN
  2
AcDbSun
  3
SCENEOE
 90
     1153
 91
        7
280
     0
281
     0
  0
CLASS
  1
DICTIONARYVAR
  2
AcDbDictionaryVar
  3
ObjectDBX Classes
 90
        0
 91
        6
280
     0
281
     0
  0
CLASS
  1
CELLSTYLEMAP
  2
AcDbCellStyleMap
  3
ObjectDBX Classes
 90
     1152
 91
        6
280
     0
281
     0
  0
ENDSEC
  0
SECTION
  2
TABLES
  0
TABLE
  2
VPORT
  5
8
102
{ACAD_XDICTIONARY
360
44E5
102
}
330
0
100
AcDbSymbolTable
 70
     1
  0
VPORT
  5
3FBF
330
8
100
AcDbSymbolTableRecord
100
AcDbViewportTableRecord
  2
*Active
 70
     0
 10
0.0
 20
0.0
 11
1.0
 21
1.0
 12
896.612284547847
 22
908.547681716934
 13
0.0
 23
0.0
 14
1.0
 24
1.0
 15
0.0
 25
0.0
 16
0.0
 26
0.0
 36
1.0
 17
0.0
 27
0.0
 37
0.0
 40
1087.816414590192
 41
1.405303030303
 42
50.0
 43
0.0
 44
0.0
 50
0.0
 51
0.0
 71
    16
 72
   100
 73
     1
 74
     0
 75
     0
 76
     0
 77
     0
 78
     0
281
     0
 65
     1
110
0.0
120
0.0
130
0.0
111
1.0
121
0.0
131
0.0
112
0.0
122
1.0
132
0.0
 79
     0
146
0.0
  0
ENDTAB
  0
TABLE
  2
LTYPE
  5
5
330
0
100
AcDbSymbolTable
 70
     3
  0
LTYPE
  5
14
330
5
100
AcDbSymbolTableRecord
100
AcDbLinetypeTableRecord
  2
BYBLOCK
 70
     0
  3

 72
    65
 73
     0
 40
0.0
  0
LTYPE
  5
15
330
5
100
AcDbSymbolTableRecord
100
AcDbLinetypeTableRecord
  2
BYLAYER
 70
     0
  3

 72
    65
 73
     0
 40
0.0
  0
LTYPE
  5
16
330
5
100
AcDbSymbolTableRecord
100
AcDbLinetypeTableRecord
  2
CONTINUOUS
 70
     0
  3
Solid line
 72
    65
 73
     0
 40
0.0
  0
LTYPE
  5
1EC
330
5
100
AcDbSymbolTableRecord
100
AcDbLinetypeTableRecord
  2
CENTER
 70
     0
  3
____ _ ____ _ ____ _ ____ _ ____ _ ____ _ ____ 
 72
    65
 73
     4
 40
2.0
 49
1.25
 74
     0
 49
-0.25
 74
     0
 49
0.25
 74
     0
 49
-0.25
 74
     0
  0
LTYPE
  5
1ED
330
5
100
AcDbSymbolTableRecord
100
AcDbLinetypeTableRecord
  2
DASHED
 70
     0
  3
__ __ __ __ __ __ __ __ __ __ __ __ __ __ __ __
 72
    65
 73
     2
 40
0.75
 49
0.5
 74
     0
 49
-0.25
 74
     0
  0
ENDTAB
  0
TABLE
  2
LAYER
  5
2
102
{ACAD_XDICTIONARY
360
29EA
102
}
330
0
100
AcDbSymbolTable
 70
    10
  0
LAYER
  5
F
330
2
100
AcDbSymbolTableRecord
100
AcDbLayerTableRecord
  2
0
 70
     0
 62
     7
  6
CONTINUOUS
370
    -3
390
2815
  0
LAYER
  5
61
330
2
100
AcDbSymbolTableRecord
100
AcDbLayerTableRecord
  2
図枠太線
 70
     0
 62
   251
  6
CONTINUOUS
370
    -3
390
2815
  0
LAYER
  5
62
330
2
100
AcDbSymbolTableRecord
100
AcDbLayerTableRecord
  2
図枠細線
 70
     0
 62
   252
  6
CONTINUOUS
370
    -3
390
2815
  0
LAYER
  5
63
330
2
100
AcDbSymbolTableRecord
100
AcDbLayerTableRecord
  2
図枠ロゴマーク
 70
     0
 62
   253
  6
CONTINUOUS
370
    -3
390
2815
  0
LAYER
  5
1EF
330
2
100
AcDbSymbolTableRecord
100
AcDbLayerTableRecord
  2
外形線
 70
     0
 62
     7
  6
CONTINUOUS
370
    -3
390
2815
  0
LAYER
  5
1F4
330
2
100
AcDbSymbolTableRecord
100
AcDbLayerTableRecord
  2
DEFPOINTS
 70
     0
 62
     7
  6
CONTINUOUS
290
     0
370
    -3
390
2815
  0
LAYER
  5
2B20
330
2
100
AcDbSymbolTableRecord
100
AcDbLayerTableRecord
  2
寸法線
 70
     0
 62
     1
  6
CONTINUOUS
370
    -3
390
2815
  0
LAYER
  5
2B21
330
2
100
AcDbSymbolTableRecord
100
AcDbLayerTableRecord
  2
中心線
 70
     0
 62
     4
  6
CENTER
370
    -3
390
2815
  0
LAYER
  5
2B24
330
2
100
AcDbSymbolTableRecord
100
AcDbLayerTableRecord
  2
細線
 70
     0
 62
     6
  6
CONTINUOUS
370
    -3
390
2815
  0
LAYER
  5
371A
330
2
100
AcDbSymbolTableRecord
100
AcDbLayerTableRecord
  2
LAY-1
 70
     0
 62
     7
  6
CONTINUOUS
370
    -3
390
2815
  0
ENDTAB
  0
TABLE
  2
STYLE
  5
3
330
0
100
AcDbSymbolTable
 70
     3
  0
STYLE
  5
10
330
3
100
AcDbSymbolTableRecord
100
AcDbTextStyleTableRecord
  2
STANDARD
 70
     0
 40
0.0
 41
1.0
 50
0.0
 71
     0
 42
2.333873885063
  3
ISOCP
  4
bigfont.shx
  0
STYLE
  5
64
330
3
100
AcDbSymbolTableRecord
100
AcDbTextStyleTableRecord
  2
EXCADSTD
 70
     0
 40
0.0
 41
1.0
 50
0.0
 71
     0
 42
0.2
  3
monotxt
  4
bigfont
  0
STYLE
  5
2B7E
330
3
100
AcDbSymbolTableRecord
100
AcDbTextStyleTableRecord
  2
ROMANS
 70
     0
 40
0.0
 41
1.0
 50
0.0
 71
     0
 42
10.0
  3
romans
  4

  0
ENDTAB
  0
TABLE
  2
VIEW
  5
6
330
0
100
AcDbSymbolTable
 70
     0
  0
ENDTAB
  0
TABLE
  2
UCS
  5
7
330
0
100
AcDbSymbolTable
 70
     0
  0
ENDTAB
  0
TABLE
  2
APPID
  5
9
330
0
100
AcDbSymbolTable
 70
     3
  0
APPID
  5
11
330
9
100
AcDbSymbolTableRecord
100
AcDbRegAppTableRecord
  2
ACAD
 70
     0
  0
APPID
  5
4474
330
9
100
AcDbSymbolTableRecord
100
AcDbRegAppTableRecord
  2
AcadAnnotative
 70
     0
  0
APPID
  5
44DD
330
9
100
AcDbSymbolTableRecord
100
AcDbRegAppTableRecord
  2
ACAD_MLEADERVER
 70
     0
  0
ENDTAB
  0
TABLE
  2
DIMSTYLE
  5
A
330
0
100
AcDbSymbolTable
 70
     3
100
AcDbDimStyleTable
  0
DIMSTYLE
105
1D
330
A
100
AcDbSymbolTableRecord
100
AcDbDimStyleTableRecord
  2
STANDARD
 70
     0
178
     0
340
10
  0
DIMSTYLE
105
24
102
{ACAD_REACTORS
330
3A27
330
3A28
330
3A29
330
3B30
330
3B33
330
3B34
330
3B35
330
3B36
330
3DE7
102
}
330
A
100
AcDbSymbolTableRecord
100
AcDbDimStyleTableRecord
  2
ISO-25
 70
     0
 41
2.5
 42
0.625
 43
3.75
 44
1.25
 74
     0
 77
     1
 78
     8
140
2.5
141
2.5
143
0.0394
145
1.0
147
0.625
172
     1
178
     0
340
10
  0
DIMSTYLE
105
345D
330
A
100
AcDbSymbolTableRecord
100
AcDbDimStyleTableRecord
  2
NORMAL
 70
     0
 41
2.5
 42
0.5
 43
0.5
 44
0.5
 73
     0
 74
     0
 77
     1
 78
     8
140
2.5
141
5.0
147
1.0
172
     1
176
     7
177
     7
178
     4
284
     8
285
     8
286
     8
340
2B7E
  0
ENDTAB
  0
TABLE
  2
BLOCK_RECORD
  5
1
330
0
100
AcDbSymbolTable
 70
    11
  0
BLOCK_RECORD
  5
1A
330
1
100
AcDbSymbolTableRecord
100
AcDbBlockTableRecord
  2
*MODEL_SPACE
340
2818
  0
BLOCK_RECORD
  5
3666
330
1
100
AcDbSymbolTableRecord
100
AcDbBlockTableRecord
  2
*Paper_Space
340
36B6
  0
BLOCK_RECORD
  5
2A6C
330
1
100
AcDbSymbolTableRecord
100
AcDbBlockTableRecord
  2
A3縦用　タイトル
340
0
310
2800000020000000200000000100080000000000000400000000000000000000000000000000000000000000000080000080000000808000800000008000800080800000C0C0C000C0DCC000F0CAA6000020400000206000002080000020A0000020C0000020E00000400000004020000040400000406000004080000040A0
310
000040C0000040E00000600000006020000060400000606000006080000060A0000060C0000060E00000800000008020000080400000806000008080000080A0000080C0000080E00000A0000000A0200000A0400000A0600000A0800000A0A00000A0C00000A0E00000C0000000C0200000C0400000C0600000C0800000C0
310
A00000C0C00000C0E00000E0000000E0200000E0400000E0600000E0800000E0A00000E0C00000E0E00040000000400020004000400040006000400080004000A0004000C0004000E00040200000402020004020400040206000402080004020A0004020C0004020E000404000004040200040404000404060004040800040
310
40A0004040C0004040E00040600000406020004060400040606000406080004060A0004060C0004060E00040800000408020004080400040806000408080004080A0004080C0004080E00040A0000040A0200040A0400040A0600040A0800040A0A00040A0C00040A0E00040C0000040C0200040C0400040C0600040C08000
310
40C0A00040C0C00040C0E00040E0000040E0200040E0400040E0600040E0800040E0A00040E0C00040E0E00080000000800020008000400080006000800080008000A0008000C0008000E00080200000802020008020400080206000802080008020A0008020C0008020E00080400000804020008040400080406000804080
310
008040A0008040C0008040E00080600000806020008060400080606000806080008060A0008060C0008060E00080800000808020008080400080806000808080008080A0008080C0008080E00080A0000080A0200080A0400080A0600080A0800080A0A00080A0C00080A0E00080C0000080C0200080C0400080C0600080C0
310
800080C0A00080C0C00080C0E00080E0000080E0200080E0400080E0600080E0800080E0A00080E0C00080E0E000C0000000C0002000C0004000C0006000C0008000C000A000C000C000C000E000C0200000C0202000C0204000C0206000C0208000C020A000C020C000C020E000C0400000C0402000C0404000C0406000C0
310
408000C040A000C040C000C040E000C0600000C0602000C0604000C0606000C0608000C060A000C060C000C060E000C0800000C0802000C0804000C0806000C0808000C080A000C080C000C080E000C0A00000C0A02000C0A04000C0A06000C0A08000C0A0A000C0A0C000C0A0E000C0C00000C0C02000C0C04000C0C06000
310
C0C08000C0C0A000F0FBFF00A4A0A000808080000000FF0000FF000000FFFF00FF000000FF00FF00FFFF0000FFFFFF0000000000000000000000000000000000000000000000000000000000000000000000000000000000000000000000000000000000000000000000000000000000000000000000000000000000000000
310
00000000000000000000000000000000000000000000000000000000000000000000000000000000000000000000000000000000000000000000000000000000000000000000000000000000000000000000000000000000000000000000000000000000000000000000000000000000000000000000000000000000000000
310
00000000000000000000000000000000000000000000000000000000000000000000000000000000000000000000000000000000000000000000000000000000000000000000000000000000000000000000000000000000000000000000000000000000000000000000000000000000000000000000000000000000000000
310
00000000000000000000000000000000000000000000000000000000000000000000000000000000000000000000000000000000000000000000000000000000000000000000000000000000000000000000000000000000000000000000000000000000000000000000000000000000000000005B5B5B5B5B5B5B5B5B5B5B
310
5B5B5B5B5B5B5B5B5B5B5B5B5B5B5B5B5B5B5B00005BA4A4A4A4A4A4A4A4A4A4A4A4A4A45B5B5B5B5B5B5BA4A4A4A4A4A4A4A400005BA4A4A4A4A4A4A4A4A4A4A4A400A4A4A4A4A4A4A4A4A40000000000005B00005BA4A4A4A4A4A4A4A4A4A4A4A4A4A4000000000000005BA4A4000000005B000000000000000000000000
310
00000000000000000000000000000000000000000000000000000000000000000000000000000000000000000000000000000000000000000000000000000000000000000000000000000000000000000000000000000000000000000000000000000000000000000000000000000000000000000000000000000000000000
310
00000000000000000000000000000000000000000000000000000000000000000000000000000000000000000000000000000000000000000000000000000000000000000000000000000000000000000000000000000000000000000000000000000000000000000000000000000000000000000000000000000000000000
310
00000000000000000000000000000000000000000000000000000000000000000000000000000000000000000000000000000000000000000000000000000000000000000000000000000000000000000000000000000000000000000000000000000000000000000000000000000000000000000000000000000000000000
310
0000000000000000000000000000000000000000000000000000000000000000000000000000000000000000000000000000000000000000
102
{BLKREFS
331
366A
102
}
1001
ACAD
1000
DesignCenter Data
1002
{
1070
     1
1070
     4
1002
}
  0
BLOCK_RECORD
  5
2AEC
330
1
100
AcDbSymbolTableRecord
100
AcDbBlockTableRecord
  2
_Open30
340
0
102
{BLKREFS
331
3CB1
331
3CB2
331
3F33
331
3F34
331
3C94
331
3C95
331
3C38
331
3C39
331
3DC5
331
3DC6
331
3DDE
331
3DDF
331
3C53
331
3C54
331
3C5C
331
3C5D
331
3E00
331
3E01
102
}
  0
BLOCK_RECORD
  5
3BB6
330
1
100
AcDbSymbolTableRecord
100
AcDbBlockTableRecord
  2
*D2
340
0
  0
BLOCK_RECORD
  5
3BC2
330
1
100
AcDbSymbolTableRecord
100
AcDbBlockTableRecord
  2
*D3
340
0
  0
BLOCK_RECORD
  5
3BCE
330
1
100
AcDbSymbolTableRecord
100
AcDbBlockTableRecord
  2
*D4
340
0
  0
BLOCK_RECORD
  5
3BDA
330
1
100
AcDbSymbolTableRecord
100
AcDbBlockTableRecord
  2
*D5
340
0
  0
BLOCK_RECORD
  5
3BE7
330
1
100
AcDbSymbolTableRecord
100
AcDbBlockTableRecord
  2
*D6
340
0
  0
BLOCK_RECORD
  5
3BF3
330
1
100
AcDbSymbolTableRecord
100
AcDbBlockTableRecord
  2
*D7
340
0
  0
BLOCK_RECORD
  5
3BFF
330
1
100
AcDbSymbolTableRecord
100
AcDbBlockTableRecord
  2
*D8
340
0
  0
BLOCK_RECORD
  5
3C0B
330
1
100
AcDbSymbolTableRecord
100
AcDbBlockTableRecord
  2
*D9
340
0
  0
BLOCK_RECORD
  5
3DE8
330
1
100
AcDbSymbolTableRecord
100
AcDbBlockTableRecord
  2
*D10
340
0
  0
ENDTAB
  0
ENDSEC
  0
SECTION
  2
BLOCKS
  0
BLOCK
  5
1B
330
1A
100
AcDbEntity
  8
0
100
AcDbBlockBegin
  2
*MODEL_SPACE
 70
     0
 10
0.0
 20
0.0
 30
0.0
  3
*MODEL_SPACE
  1
*MODEL_SPACE
  0
ENDBLK
  5
1C
330
1A
100
AcDbEntity
  8
0
100
AcDbBlockEnd
  0
BLOCK
  5
3667
330
3666
100
AcDbEntity
 67
     1
  8
0
 48
10.0
100
AcDbBlockBegin
  2
*Paper_Space
 70
     0
 10
0.0
 20
0.0
 30
0.0
  3
*Paper_Space
  1
*Paper_Space
  0
ENDBLK
  5
36B5
330
3666
100
AcDbEntity
 67
     1
  8
0
 48
10.0
100
AcDbBlockEnd
  0
BLOCK
  5
2A6D
330
2A6C
100
AcDbEntity
  8
0
100
AcDbBlockBegin
  2
A3縦用　タイトル
 70
     0
 10
0.0
 20
0.0
 30
0.0
  3
A3縦用　タイトル
  1
A3縦用　タイトル
  0
MTEXT
  5
2A6E
330
2A6C
100
AcDbEntity
  8
図枠細線
100
AcDbMText
 10
5.040804501593
 20
31.626098649005
 30
0.0
 40
2.5
 41
49.938282706292
 71
     1
 72
     5
  1
{\Fmonotxt.shx,bigfont.shx|c128;図暦　CHANGE　NOTICE}
 73
     1
 44
1.0
  0
LINE
  5
2A6F
330
2A6C
100
AcDbEntity
  8
図枠太線
  6
Continuous
 62
   251
100
AcDbLine
 10
283.577871882961
 20
2.820844689254
 30
0.0
 11
283.577871882961
 21
32.820842689254
 31
0.0
  0
MTEXT
  5
2A70
330
2A6C
100
AcDbEntity
  8
図枠細線
 48
10.0
100
AcDbMText
 10
214.912458947454
 20
31.621488632308
 30
0.0
 40
2.5
 41
28.002809618823
 71
     1
 72
     5
  1
{\Fmonotxt.shx,bigfont.shx|c128;名称　TITLE}
 73
     1
 44
1.0
  0
MTEXT
  5
2A71
330
2A6C
100
AcDbEntity
  8
図枠細線
 48
10.0
100
AcDbMText
 10
214.740030458938
 20
16.310225796722
 30
0.0
 40
2.5
 41
24.385612216707
 71
     1
 72
     5
  1
{\Fmonotxt.shx,bigfont.shx|c128;図面番号\PDRG.　No.}
 73
     1
 44
1.0
  0
LINE
  5
2A72
330
2A6C
100
AcDbEntity
  8
図枠太線
  6
Continuous
 62
   251
100
AcDbLine
 10
213.577871882961
 20
2.820844689254
 30
0.0
 11
213.577871882961
 21
32.820842689254
 31
0.0
  0
LINE
  5
2A73
330
2A6C
100
AcDbEntity
  8
図枠太線
  6
Continuous
 62
   251
100
AcDbLine
 10
143.577871882961
 20
2.820844689254
 30
0.0
 11
143.577871882961
 21
32.820842689254
 31
0.0
  0
TEXT
  5
2A74
330
2A6C
100
AcDbEntity
  8
図枠細線
  6
Continuous
 62
   252
100
AcDbText
 10
145.716454488093
 20
4.468335689254
 30
0.0
 40
3.5
  1
ＴＯＷＡ　ＳＥＩＤＥＮ　ＩＮＤＵＳＴＲＩＡＬ　ＣＯ．，ＬＴＤ．
 41
0.528937826907
  7
EXCADSTD
 72
     5
 11
212.856295983498
 21
4.468335689254
 31
0.0
100
AcDbText
  0
TEXT
  5
2A75
330
2A6C
100
AcDbEntity
  8
図枠ロゴマーク
  6
Continuous
 62
   253
100
AcDbText
 10
145.950637593507
 20
9.413236689254
 30
0.0
 40
7.0
  1
東和制電工業株式会社
 41
0.80361088462
  7
EXCADSTD
 72
     5
 11
211.953878250259
 21
9.413236689254
 31
0.0
100
AcDbText
  0
LINE
  5
2A76
330
2A6C
100
AcDbEntity
  8
図枠細線
  6
Continuous
 62
   252
100
AcDbLine
 10
143.577871882961
 20
25.320842689254
 30
0.0
 11
213.577871882961
 21
25.320842689254
 31
0.0
  0
LINE
  5
2A77
330
2A6C
100
AcDbEntity
  8
図枠太線
  6
Continuous
 62
   251
100
AcDbLine
 10
143.577863882961
 20
17.820842689254
 30
0.0
 11
213.577871882961
 21
17.820842689254
 31
0.0
  0
LINE
  5
2A78
330
2A6C
100
AcDbEntity
  8
図枠細線
  6
Continuous
 62
   252
100
AcDbLine
 10
213.577871882961
 20
17.820842689254
 30
0.0
 11
283.577871882961
 21
17.820842689254
 31
0.0
  0
LINE
  5
2A79
330
2A6C
100
AcDbEntity
  8
図枠細線
  6
Continuous
 62
   252
100
AcDbLine
 10
120.577871882961
 20
32.820842689254
 30
0.0
 11
120.577871882961
 21
17.820842689254
 31
0.0
  0
MTEXT
  5
2A7A
330
2A6C
100
AcDbEntity
  8
図枠細線
 48
10.0
100
AcDbMText
 10
121.100885670352
 20
16.33785922638
 30
0.0
 40
2.0
 41
17.705978285068
 71
     1
 72
     5
  1
{\Fmonotxt.shx,bigfont.shx|c128;日付 DATE}
 73
     1
 44
1.0
  0
MTEXT
  5
2A7B
330
2A6C
100
AcDbEntity
  8
図枠細線
 48
10.0
100
AcDbMText
 10
121.254842273491
 20
31.208993514037
 30
0.0
 40
2.0
 41
18.363799568758
 71
     1
 72
     5
  1
{\Fmonotxt.shx,bigfont.shx|c128;製図　DRAWN}
 73
     1
 44
1.0
  0
LINE
  5
2A7C
330
2A6C
100
AcDbEntity
  8
図枠細線
  6
Continuous
 62
   252
100
AcDbLine
 10
97.577871882961
 20
32.820842689254
 30
0.0
 11
97.577871882961
 21
17.820842689254
 31
0.0
  0
MTEXT
  5
2A7D
330
2A6C
100
AcDbEntity
  8
図枠細線
 48
10.0
100
AcDbMText
 10
98.239734796872
 20
16.467764839281
 30
0.0
 40
2.0
 41
17.757791689903
 71
     1
 72
     5
  1
{\Fmonotxt.shx,bigfont.shx|c128;尺度　SCALE}
 73
     1
 44
1.0
  0
MTEXT
  5
2A7E
330
2A6C
100
AcDbEntity
  8
図枠細線
 48
10.0
100
AcDbMText
 10
97.864744625154
 20
31.298433377664
 30
0.0
 40
2.0
 41
23.162655920976
 71
     1
 72
     5
  1
{\Fmonotxt.shx,bigfont.shx|c128;検図  CHECKED}
 73
     1
 44
1.0
  0
LINE
  5
2A7F
330
2A6C
100
AcDbEntity
  8
図枠細線
  6
Continuous
 62
   252
100
AcDbLine
 10
97.577871882961
 20
2.820843367826
 30
0.0
 11
97.577871882961
 21
17.820841367826
 31
0.0
  0
LINE
  5
2A80
330
2A6C
100
AcDbEntity
  8
図枠細線
  6
Continuous
 62
   252
100
AcDbLine
 10
120.577871882961
 20
2.820844010683
 30
0.0
 11
120.577871882961
 21
17.820842010683
 31
0.0
  0
MTEXT
  5
2A81
330
2A6C
100
AcDbEntity
  8
図枠細線
 48
10.0
100
AcDbMText
 10
81.402399084102
 20
16.316484117426
 30
0.0
 40
2.0
 41
12.920322819369
 71
     1
 72
     5
  1
{\Fmonotxt.shx,bigfont.shx|c128;第三角法}
 73
     1
 44
1.0
  0
MTEXT
  5
2A82
330
2A6C
100
AcDbEntity
  8
図枠細線
 48
10.0
100
AcDbMText
 10
75.736576535096
 20
11.080410931319
 30
0.0
 40
2.0
 41
21.072870671471
 71
     1
 72
     5
  1
{\Fmonotxt.shx,bigfont.shx|c128;THIRD ANGLE\PPROJECTION}
 73
     1
 44
1.0
  0
LINE
  5
2A83
330
2A6C
100
AcDbEntity
  8
図枠太線
  6
Continuous
 62
   251
100
AcDbLine
 10
74.577871882961
 20
2.820844689254
 30
0.0
 11
74.577871882961
 21
32.820842689254
 31
0.0
  0
MTEXT
  5
2A84
330
2A6C
100
AcDbEntity
  8
図枠細線
 48
10.0
100
AcDbMText
 10
75.060214781573
 20
31.298434778555
 30
0.0
 40
2.0
 41
22.240928805967
 71
     1
 72
     5
  1
{\Fmonotxt.shx,bigfont.shx|c128;承認 APPROVED}
 73
     1
 44
1.0
  0
LINE
  5
2A85
330
2A6C
100
AcDbEntity
  8
図枠細線
  6
Continuous
100
AcDbLine
 10
3.577871882961
 20
17.820844689254
 30
0.0
 11
74.577871882961
 21
17.820844689254
 31
0.0
  0
LINE
  5
2A86
330
2A6C
100
AcDbEntity
  8
図枠細線
  6
Continuous
 62
   252
100
AcDbLine
 10
3.577871882961
 20
27.820842689254
 30
0.0
 11
74.577871882961
 21
27.820842689254
 31
0.0
  0
LINE
  5
2A87
330
2A6C
100
AcDbEntity
  8
図枠細線
  6
Continuous
 62
   252
100
AcDbLine
 10
3.577871882961
 20
22.820842689254
 30
0.0
 11
74.577871882961
 21
22.820842689254
 31
0.0
  0
LINE
  5
2A88
330
2A6C
100
AcDbEntity
  8
図枠細線
  6
Continuous
 62
   252
100
AcDbLine
 10
3.577871882961
 20
12.820842689254
 30
0.0
 11
74.577871882961
 21
12.820842689254
 31
0.0
  0
LINE
  5
2A89
330
2A6C
100
AcDbEntity
  8
図枠細線
  6
Continuous
 62
   252
100
AcDbLine
 10
3.577871882961
 20
7.820844689254
 30
0.0
 11
74.577871882961
 21
7.820844689254
 31
0.0
  0
LINE
  5
2A8A
330
2A6C
100
AcDbEntity
  8
図枠細線
  6
Continuous
100
AcDbLine
 10
74.577871882961
 20
17.820843689254
 30
0.0
 11
143.577871882961
 21
17.820841224969
 31
0.0
  0
LINE
  5
2A8B
330
2A6C
100
AcDbEntity
  8
図枠太線
  6
Continuous
 62
   251
100
AcDbLine
 10
3.577871882961
 20
2.820844689254
 30
0.0
 11
283.577871882961
 21
2.820844689254
 31
0.0
  0
LINE
  5
2A8C
330
2A6C
100
AcDbEntity
  8
図枠太線
  6
Continuous
 62
   251
100
AcDbLine
 10
3.577871882961
 20
2.820844689254
 30
0.0
 11
3.577871882961
 21
32.820842689254
 31
0.0
  0
ENDBLK
  5
2A8D
330
2A6C
100
AcDbEntity
  8
0
100
AcDbBlockEnd
  0
BLOCK
  5
2AF0
330
2AEC
100
AcDbEntity
  8
0
 48
10.0
100
AcDbBlockBegin
  2
_Open30
 70
     0
 10
0.0
 20
0.0
 30
0.0
  3
_Open30
  1
_Open30
  0
LINE
  5
2AED
330
2AEC
100
AcDbEntity
  8
0
  6
ByBlock
 62
     0
370
    -2
100
AcDbLine
 10
-1.0
 20
0.26794919
 30
0.0
 11
0.0
 21
0.0
 31
0.0
  0
LINE
  5
2AEE
330
2AEC
100
AcDbEntity
  8
0
  6
ByBlock
 62
     0
370
    -2
100
AcDbLine
 10
0.0
 20
0.0
 30
0.0
 11
-1.0
 21
-0.26794919
 31
0.0
  0
LINE
  5
2AEF
330
2AEC
100
AcDbEntity
  8
0
  6
ByBlock
 62
     0
370
    -2
100
AcDbLine
 10
0.0
 20
0.0
 30
0.0
 11
-1.0
 21
0.0
 31
0.0
  0
ENDBLK
  5
2AF1
330
2AEC
100
AcDbEntity
  8
0
 48
10.0
100
AcDbBlockEnd
  0
BLOCK
  5
3BC0
330
3BB6
100
AcDbEntity
  8
0
 48
10.0
100
AcDbBlockBegin
  2
*D2
 70
     1
 10
0.0
 20
0.0
 30
0.0
  3
*D2
  1
*D2
  0
LINE
  5
3CAE
330
3BB6
100
AcDbEntity
  8
寸法線
 62
     0
 48
10.0
370
    -2
100
AcDbLine
 10
1179.471464901616
 20
607.202149792425
 30
0.0
 11
1314.89663686384
 21
656.492878530054
 31
0.0
  0
LINE
  5
3CAF
330
3BB6
100
AcDbEntity
  8
寸法線
 62
     0
 48
10.0
370
    -2
100
AcDbLine
 10
1210.253276795021
 20
522.629811834865
 30
0.0
 11
1345.678448757244
 21
571.920540572493
 31
0.0
  0
LINE
  5
3CB0
330
3BB6
100
AcDbEntity
  8
寸法線
 62
     0
 48
10.0
370
    -2
100
AcDbLine
 10
1318.168282718032
 20
643.849349220373
 30
0.0
 11
1340.057571335327
 21
583.709019567163
 31
0.0
  0
INSERT
  5
3CB1
330
3BB6
100
AcDbEntity
  8
寸法線
 62
     0
 48
10.0
370
    -2
100
AcDbBlockReference
  2
_Open30
 10
1313.722021079977
 20
656.065353372549
 30
0.0
 41
13.0
 42
13.0
 43
13.0
 50
109.999998943861
  0
INSERT
  5
3CB2
330
3BB6
100
AcDbEntity
  8
寸法線
 62
     0
 48
10.0
370
    -2
100
AcDbBlockReference
  2
_Open30
 10
1344.503832973382
 20
571.493015414988
 30
0.0
 41
13.0
 42
13.0
 43
13.0
 50
289.999998943861
  0
MTEXT
  5
3CB3
330
3BB6
100
AcDbEntity
  8
寸法線
 62
     0
 48
10.0
100
AcDbMText
 10
1336.277537119528
 20
616.3885884958
 30
0.0
 40
14.0
 41
0.0
 71
     5
 72
     1
  1
\A1;90
 11
0.3420201260042166
 21
-0.9396926270904012
 31
0.0
 73
     1
 44
1.0
  0
POINT
  5
3CB4
330
3BB6
100
AcDbEntity
  8
DEFPOINTS
 62
     0
 48
10.0
100
AcDbPoint
 10
1178.884157009685
 20
606.988387213673
 30
0.0
  0
POINT
  5
3CB5
330
3BB6
100
AcDbEntity
  8
DEFPOINTS
 62
     0
 48
10.0
100
AcDbPoint
 10
1209.665968903089
 20
522.416049256112
 30
0.0
  0
POINT
  5
3CB6
330
3BB6
100
AcDbEntity
  8
DEFPOINTS
 62
     0
 48
10.0
100
AcDbPoint
 10
1344.503832973382
 20
571.493015414988
 30
0.0
  0
ENDBLK
  5
3BC1
330
3BB6
100
AcDbEntity
  8
0
 48
10.0
100
AcDbBlockEnd
  0
BLOCK
  5
3BCC
330
3BC2
100
AcDbEntity
  8
0
 48
10.0
100
AcDbBlockBegin
  2
*D3
 70
     1
 10
0.0
 20
0.0
 30
0.0
  3
*D3
  1
*D3
  0
LINE
  5
3F30
330
3BC2
100
AcDbEntity
  8
寸法線
 62
     0
 48
10.0
370
    -2
100
AcDbLine
 10
913.269160741976
 20
1122.214657897689
 30
0.0
 11
1116.611140426113
 21
1196.226973653741
 31
0.0
  0
LINE
  5
3F31
330
3BC2
100
AcDbEntity
  8
寸法線
 62
     0
 48
10.0
370
    -2
100
AcDbLine
 10
1067.181691251916
 20
699.354241595592
 30
0.0
 11
1270.523670936054
 21
773.366557351645
 31
0.0
  0
LINE
  5
3F32
330
3BC2
100
AcDbEntity
  8
寸法線
 62
     0
 48
10.0
370
    -2
100
AcDbLine
 10
1119.882890161432
 20
1183.583471224847
 30
0.0
 11
1264.902696658318
 21
785.154990163899
 31
0.0
  0
INSERT
  5
3F33
330
3BC2
100
AcDbEntity
  8
寸法線
 62
     0
370
    -2
100
AcDbBlockReference
  2
_Open30
 10
1115.436528154904
 20
1195.799438845421
 30
0.0
 41
13.0
 42
13.0
 43
13.0
 50
110.00046969505
  0
INSERT
  5
3F34
330
3BC2
100
AcDbEntity
  8
寸法線
 62
     0
370
    -2
100
AcDbBlockReference
  2
_Open30
 10
1269.349058664845
 20
772.939022543325
 30
0.0
 41
13.0
 42
13.0
 43
13.0
 50
290.00046969505
  0
MTEXT
  5
3F35
330
3BC2
100
AcDbEntity
  8
寸法線
 62
     0
 48
10.0
100
AcDbMText
 10
1201.524424974966
 20
987.692957550054
 30
0.0
 40
14.0
 41
0.0
 71
     5
 72
     1
  1
\A1;450 (Movable range 370)
 11
0.3420278466559583
 21
-0.9396898169672205
 31
0.0
 73
     1
 44
1.0
  0
POINT
  5
3F36
330
3BC2
100
AcDbEntity
  8
DEFPOINTS
 62
     0
100
AcDbPoint
 10
912.681854606371
 20
1122.000890493528
 30
0.0
  0
POINT
  5
3F37
330
3BC2
100
AcDbEntity
  8
DEFPOINTS
 62
     0
100
AcDbPoint
 10
1066.594385116312
 20
699.140474191432
 30
0.0
  0
POINT
  5
3F38
330
3BC2
100
AcDbEntity
  8
DEFPOINTS
 62
     0
100
AcDbPoint
 10
1269.349058664845
 20
772.939022543325
 30
0.0
  0
ENDBLK
  5
3BCD
330
3BC2
100
AcDbEntity
  8
0
 48
10.0
100
AcDbBlockEnd
  0
BLOCK
  5
3BD8
330
3BCE
100
AcDbEntity
  8
0
 48
10.0
100
AcDbBlockBegin
  2
*D4
 70
     1
 10
0.0
 20
0.0
 30
0.0
  3
*D4
  1
*D4
  0
LINE
  5
3C91
330
3BCE
100
AcDbEntity
  8
寸法線
 62
     0
 48
10.0
370
    -2
100
AcDbLine
 10
928.609644884301
 20
1127.798131825715
 30
0.0
 11
1116.611748970305
 21
1196.225301692437
 31
0.0
  0
LINE
  5
3C92
330
3BCE
100
AcDbEntity
  8
寸法線
 62
     0
 48
10.0
370
    -2
100
AcDbLine
 10
880.720948434851
 20
1259.371243967695
 30
0.0
 11
1068.723052520855
 21
1327.798413834417
 31
0.0
  0
LINE
  5
3C93
330
3BCE
100
AcDbEntity
  8
寸法線
 62
     0
 48
10.0
370
    -2
100
AcDbLine
 10
1110.990871331089
 20
1208.013780583497
 30
0.0
 11
1071.994698608107
 21
1315.154884585043
 31
0.0
  0
INSERT
  5
3C94
330
3BCE
100
AcDbEntity
  8
寸法線
 62
     0
 48
10.0
370
    -2
100
AcDbBlockReference
  2
_Open30
 10
1115.437133194323
 20
1195.79777651328
 30
0.0
 41
13.0
 42
13.0
 43
13.0
 50
290.0
  0
INSERT
  5
3C95
330
3BCE
100
AcDbEntity
  8
寸法線
 62
     0
 48
10.0
370
    -2
100
AcDbBlockReference
  2
_Open30
 10
1067.548436744873
 20
1327.37088865526
 30
0.0
 41
13.0
 42
13.0
 43
13.0
 50
110.0
  0
MTEXT
  5
3C96
330
3BCE
100
AcDbEntity
  8
寸法線
 62
     0
 48
10.0
100
AcDbMText
 10
1098.65794120309
 20
1264.192236177129
 30
0.0
 40
14.0
 41
0.0
 71
     5
 72
     1
  1
\A1;140
 11
0.3420201433256684
 21
-0.9396926207859085
 31
0.0
 73
     1
 44
1.0
  0
POINT
  5
3C97
330
3BCE
100
AcDbEntity
  8
DEFPOINTS
 62
     0
 48
10.0
100
AcDbPoint
 10
928.02233699631
 20
1127.584369236137
 30
0.0
  0
POINT
  5
3C98
330
3BCE
100
AcDbEntity
  8
DEFPOINTS
 62
     0
 48
10.0
100
AcDbPoint
 10
880.13364054686
 20
1259.157481378117
 30
0.0
  0
POINT
  5
3C99
330
3BCE
100
AcDbEntity
  8
DEFPOINTS
 62
     0
 48
10.0
100
AcDbPoint
 10
1067.548436744873
 20
1327.37088865526
 30
0.0
  0
ENDBLK
  5
3BD9
330
3BCE
100
AcDbEntity
  8
0
 48
10.0
100
AcDbBlockEnd
  0
BLOCK
  5
3BE5
330
3BDA
100
AcDbEntity
  8
0
 48
10.0
100
AcDbBlockBegin
  2
*D5
 70
     1
 10
0.0
 20
0.0
 30
0.0
  3
*D5
  1
*D5
  0
LINE
  5
3C34
330
3BDA
100
AcDbEntity
  8
寸法線
 62
     0
 48
10.0
370
    -2
100
AcDbLine
 10
1002.74530313637
 20
827.78351420385
 30
0.0
 11
1002.959065726981
 21
827.196206316235
 31
0.0
  0
LINE
  5
3C35
330
3BDA
100
AcDbEntity
  8
寸法線
 62
     0
 48
10.0
370
    -2
100
AcDbLine
 10
1032.815466709989
 20
838.728158743999
 30
0.0
 11
1033.029229300599
 21
838.140850856384
 31
0.0
  0
LINE
  5
3C36
330
3BDA
100
AcDbEntity
  8
寸法線
 62
     0
 48
10.0
370
    -2
100
AcDbLine
 10
1014.747544608164
 20
832.817083976164
 30
0.0
 11
1020.385700056974
 21
834.869204746916
 31
0.0
  0
LINE
  5
3C37
330
3BDA
100
AcDbEntity
  8
寸法線
 62
     0
 48
10.0
370
    -2
100
AcDbLine
 10
1032.601704119378
 20
839.315466631615
 30
0.0
 11
1076.382760205016
 21
855.250467958645
 31
0.0
  0
INSERT
  5
3C38
330
3BDA
100
AcDbEntity
  8
寸法線
 62
     0
 48
10.0
370
    -2
100
AcDbBlockReference
  2
_Open30
 10
1002.53154054576
 20
828.370822091466
 30
0.0
 41
13.0
 42
13.0
 43
13.0
 50
200.000000100675
  0
INSERT
  5
3C39
330
3BDA
100
AcDbEntity
  8
寸法線
 62
     0
 48
10.0
370
    -2
100
AcDbBlockReference
  2
_Open30
 10
1032.601704119378
 20
839.315466631615
 30
0.0
 41
13.0
 42
13.0
 43
13.0
 50
20.000000100675
  0
MTEXT
  5
3C3A
330
3BDA
100
AcDbEntity
  8
寸法線
 62
     0
 48
10.0
100
AcDbMText
 10
1057.99185930035
 20
856.672549318425
 30
0.0
 40
14.0
 41
0.0
 71
     5
 72
     1
  1
\A1;φ32
 11
0.9396926201849436
 21
0.3420201449768065
 31
0.0
 73
     1
 44
1.0
  0
POINT
  5
3C3B
330
3BDA
100
AcDbEntity
  8
DEFPOINTS
 62
     0
 48
10.0
100
AcDbPoint
 10
1002.53154054576
 20
828.370822091466
 30
0.0
  0
POINT
  5
3C3C
330
3BDA
100
AcDbEntity
  8
DEFPOINTS
 62
     0
 48
10.0
100
AcDbPoint
 10
1032.601704119378
 20
839.315466631615
 30
0.0
  0
POINT
  5
3C3D
330
3BDA
100
AcDbEntity
  8
DEFPOINTS
 62
     0
 48
10.0
100
AcDbPoint
 10
1032.601704119378
 20
839.315466631615
 30
0.0
  0
ENDBLK
  5
3BE6
330
3BDA
100
AcDbEntity
  8
0
 48
10.0
100
AcDbBlockEnd
  0
BLOCK
  5
3BF1
330
3BE7
100
AcDbEntity
  8
0
 48
10.0
100
AcDbBlockBegin
  2
*D6
 70
     1
 10
0.0
 20
0.0
 30
0.0
  3
*D6
  1
*D6
  0
LINE
  5
3DC2
330
3BE7
100
AcDbEntity
  8
寸法線
 62
     0
 48
10.0
370
    -2
100
AcDbLine
 10
900.609995169045
 20
1268.639313301157
 30
0.0
 11
724.767826964654
 21
1268.639313301157
 31
0.0
  0
LINE
  5
3DC3
330
3BE7
100
AcDbEntity
  8
寸法線
 62
     0
 48
10.0
370
    -2
100
AcDbLine
 10
1070.530277605152
 20
472.002282216737
 30
0.0
 11
724.767826964654
 21
472.002282216737
 31
0.0
  0
LINE
  5
3DC4
330
3BE7
100
AcDbEntity
  8
寸法線
 62
     0
 48
10.0
370
    -2
100
AcDbLine
 10
726.017826964654
 20
1255.639313301157
 30
0.0
 11
726.017826964654
 21
485.002282216737
 31
0.0
  0
INSERT
  5
3DC5
330
3BE7
100
AcDbEntity
  8
寸法線
 62
     0
 48
10.0
370
    -2
100
AcDbBlockReference
  2
_Open30
 10
726.017826964654
 20
1268.639313301157
 30
0.0
 41
13.0
 42
13.0
 43
13.0
 50
90.0
  0
INSERT
  5
3DC6
330
3BE7
100
AcDbEntity
  8
寸法線
 62
     0
 48
10.0
370
    -2
100
AcDbBlockReference
  2
_Open30
 10
726.017826964654
 20
472.002282216737
 30
0.0
 41
13.0
 42
13.0
 43
13.0
 50
270.0
  0
MTEXT
  5
3DC7
330
3BE7
100
AcDbEntity
  8
寸法線
 62
     0
 48
10.0
100
AcDbMText
 10
718.392826964654
 20
860.763945133991
 30
0.0
 40
14.0
 41
0.0
 71
     5
 72
     1
  1
\A1;796
 11
6.123031769111886E-17
 21
1.0
 31
0.0
 73
     1
 44
1.0
  0
POINT
  5
3DC8
330
3BE7
100
AcDbEntity
  8
DEFPOINTS
 62
     0
 48
10.0
100
AcDbPoint
 10
901.234995169045
 20
1268.639313301157
 30
0.0
  0
POINT
  5
3DC9
330
3BE7
100
AcDbEntity
  8
DEFPOINTS
 62
     0
 48
10.0
100
AcDbPoint
 10
1071.155277605152
 20
472.002282216737
 30
0.0
  0
POINT
  5
3DCA
330
3BE7
100
AcDbEntity
  8
DEFPOINTS
 62
     0
 48
10.0
100
AcDbPoint
 10
726.017826964654
 20
472.002282216737
 30
0.0
  0
ENDBLK
  5
3BF2
330
3BE7
100
AcDbEntity
  8
0
 48
10.0
100
AcDbBlockEnd
  0
BLOCK
  5
3BFD
330
3BF3
100
AcDbEntity
  8
0
 48
10.0
100
AcDbBlockBegin
  2
*D7
 70
     1
 10
0.0
 20
0.0
 30
0.0
  3
*D7
  1
*D7
  0
LINE
  5
3DDB
330
3BF3
100
AcDbEntity
  8
寸法線
 62
     0
 48
10.0
370
    -2
100
AcDbLine
 10
1177.805224329059
 20
510.819686582551
 30
0.0
 11
1418.211404535138
 21
598.320380364439
 31
0.0
  0
LINE
  5
3DDC
330
3BF3
100
AcDbEntity
  8
寸法線
 62
     0
 48
10.0
370
    -2
100
AcDbLine
 10
902.479008689555
 20
1267.272246575733
 30
0.0
 11
1142.885188895634
 21
1354.77294035762
 31
0.0
  0
LINE
  5
3DDD
330
3BF3
100
AcDbEntity
  8
寸法線
 62
     0
 48
10.0
370
    -2
100
AcDbLine
 10
1412.590526893616
 20
610.1088592544
 30
0.0
 11
1146.156834985357
 21
1342.129411108886
 31
0.0
  0
INSERT
  5
3DDE
330
3BF3
100
AcDbEntity
  8
寸法線
 62
     0
 48
10.0
370
    -2
100
AcDbBlockReference
  2
_Open30
 10
1417.036788759239
 20
597.892855185052
 30
0.0
 41
13.0
 42
13.0
 43
13.0
 50
290.000000011204
  0
INSERT
  5
3DDF
330
3BF3
100
AcDbEntity
  8
寸法線
 62
     0
 48
10.0
370
    -2
100
AcDbBlockReference
  2
_Open30
 10
1141.710573119735
 20
1354.345415178233
 30
0.0
 41
13.0
 42
13.0
 43
13.0
 50
110.000000011204
  0
MTEXT
  5
3DE0
330
3BF3
100
AcDbEntity
  8
寸法線
 62
     0
 48
10.0
100
AcDbMText
 10
1286.538837172469
 20
978.727038775903
 30
0.0
 40
14.0
 41
0.0
 71
     5
 72
     1
  1
\A1;805
 11
0.3420201435094222
 21
-0.9396926207190276
 31
0.0
 73
     1
 44
1.0
  0
POINT
  5
3DE1
330
3BF3
100
AcDbEntity
  8
DEFPOINTS
 62
     0
 48
10.0
100
AcDbPoint
 10
1177.217916441109
 20
510.605923992858
 30
0.0
  0
POINT
  5
3DE2
330
3BF3
100
AcDbEntity
  8
DEFPOINTS
 62
     0
 48
10.0
100
AcDbPoint
 10
901.891700801605
 20
1267.058483986039
 30
0.0
  0
POINT
  5
3DE3
330
3BF3
100
AcDbEntity
  8
DEFPOINTS
 62
     0
 48
10.0
100
AcDbPoint
 10
1141.710573119735
 20
1354.345415178233
 30
0.0
  0
ENDBLK
  5
3BFE
330
3BF3
100
AcDbEntity
  8
0
 48
10.0
100
AcDbBlockEnd
  0
BLOCK
  5
3C09
330
3BFF
100
AcDbEntity
  8
0
 48
10.0
100
AcDbBlockBegin
  2
*D8
 70
     1
 10
0.0
 20
0.0
 30
0.0
  3
*D8
  1
*D8
  0
LINE
  5
3C50
330
3BFF
100
AcDbEntity
  8
寸法線
 62
     0
 48
10.0
370
    -2
100
AcDbLine
 10
1070.597629814842
 20
471.772716041179
 30
0.0
 11
1086.784105150111
 21
426.733451846017
 31
0.0
  0
LINE
  5
3C51
330
3BFF
100
AcDbEntity
  8
寸法線
 62
     0
 48
10.0
370
    -2
100
AcDbLine
 10
1209.877348771246
 20
521.827879594078
 30
0.0
 11
1226.063824106516
 21
476.788615398916
 31
0.0
  0
LINE
  5
3C52
330
3BFF
100
AcDbEntity
  8
寸法線
 62
     0
 48
10.0
370
    -2
100
AcDbLine
 10
1098.595274384115
 20
432.306492427758
 30
0.0
 11
1213.407135399883
 21
473.568253465313
 31
0.0
  0
INSERT
  5
3C53
330
3BFF
100
AcDbEntity
  8
寸法線
 62
     0
 48
10.0
370
    -2
100
AcDbBlockReference
  2
_Open30
 10
1086.361345413796
 20
427.909791170086
 30
0.0
 41
13.0
 42
13.0
 43
13.0
 50
199.767720456744
  0
INSERT
  5
3C54
330
3BFF
100
AcDbEntity
  8
寸法線
 62
     0
 48
10.0
370
    -2
100
AcDbBlockReference
  2
_Open30
 10
1225.641064370201
 20
477.964954722985
 30
0.0
 41
13.0
 42
13.0
 43
13.0
 50
19.767720456744
  0
MTEXT
  5
3C55
330
3BFF
100
AcDbEntity
  8
寸法線
 62
     0
 48
10.0
100
AcDbMText
 10
1173.866549209213
 20
467.460391860517
 30
0.0
 40
14.0
 41
0.0
 71
     5
 72
     1
  1
\A1;φ149
 11
0.9410714592552306
 21
0.3382077890516876
 31
0.0
 73
     1
 44
1.0
  0
POINT
  5
3C56
330
3BFF
100
AcDbEntity
  8
DEFPOINTS
 62
     0
 48
10.0
100
AcDbPoint
 10
1070.386249946685
 20
472.360885703213
 30
0.0
  0
POINT
  5
3C57
330
3BFF
100
AcDbEntity
  8
DEFPOINTS
 62
     0
 48
10.0
100
AcDbPoint
 10
1209.665968903089
 20
522.416049256112
 30
0.0
  0
POINT
  5
3C58
330
3BFF
100
AcDbEntity
  8
DEFPOINTS
 62
     0
 48
10.0
100
AcDbPoint
 10
1225.641064370201
 20
477.964954722985
 30
0.0
  0
ENDBLK
  5
3C0A
330
3BFF
100
AcDbEntity
  8
0
 48
10.0
100
AcDbBlockEnd
  0
BLOCK
  5
3C17
330
3C0B
100
AcDbEntity
  8
0
 48
10.0
100
AcDbBlockBegin
  2
*D9
 70
     1
 10
0.0
 20
0.0
 30
0.0
  3
*D9
  1
*D9
  0
LINE
  5
3C59
330
3C0B
100
AcDbEntity
  8
寸法線
 62
     0
 48
10.0
370
    -2
100
AcDbLine
 10
974.070147169045
 20
634.045686301157
 30
0.0
 11
974.070147169045
 21
291.509250418548
 31
0.0
  0
LINE
  5
3C5A
330
3C0B
100
AcDbEntity
  8
寸法線
 62
     0
 48
10.0
370
    -2
100
AcDbLine
 10
1175.522544758738
 20
399.862815413207
 30
0.0
 11
1200.432580459466
 21
331.42305484929
 31
0.0
  0
ARC
  5
3C5B
330
3C0B
100
AcDbEntity
  8
寸法線
 62
     0
 48
10.0
370
    -2
100
AcDbCircle
 10
974.070147169045
 20
953.348728549126
 30
0.0
 40
660.5894781305778
100
AcDbArc
 50
271.12756436202
 51
288.872435649184
  0
INSERT
  5
3C5C
330
3C0B
100
AcDbEntity
  8
寸法線
 62
     0
 48
10.0
370
    -2
100
AcDbBlockReference
  2
_Open30
 10
974.070147169045
 20
292.759250418548
 30
0.0
 41
13.0
 42
13.0
 43
13.0
 50
180.56378218101
  0
INSERT
  5
3C5D
330
3C0B
100
AcDbEntity
  8
寸法線
 62
     0
 48
10.0
370
    -2
100
AcDbBlockReference
  2
_Open30
 10
1200.005055280079
 20
332.597670625188
 30
0.0
 41
13.0
 42
13.0
 43
13.0
 50
19.436217830194
  0
MTEXT
  5
3C5E
330
3C0B
100
AcDbEntity
  8
寸法線
 62
     0
 48
10.0
100
AcDbMText
 10
1087.455999661545
 20
310.305605074206
 30
0.0
 40
14.0
 41
0.0
 71
     5
 72
     1
  1
\A1;Max.20°
 11
0.9848077529952298
 21
0.173648177763219
 31
0.0
 73
     1
 44
1.0
  0
POINT
  5
3C5F
330
3C0B
100
AcDbEntity
  8
DEFPOINTS
 62
     0
 48
10.0
100
AcDbPoint
 10
1050.759904768456
 20
297.225920154102
 30
0.0
  0
POINT
  5
3C60
330
3C0B
100
AcDbEntity
  8
DEFPOINTS
 62
     0
 48
10.0
100
AcDbPoint
 10
974.070147169045
 20
947.800403301157
 30
0.0
  0
POINT
  5
3C61
330
3C0B
100
AcDbEntity
  8
DEFPOINTS
 62
     0
 48
10.0
100
AcDbPoint
 10
850.029493169045
 20
1294.147624301157
 30
0.0
  0
POINT
  5
3C62
330
3C0B
100
AcDbEntity
  8
DEFPOINTS
 62
     0
 48
10.0
100
AcDbPoint
 10
1175.308782169045
 20
400.450123301157
 30
0.0
  0
POINT
  5
3C63
330
3C0B
100
AcDbEntity
  8
DEFPOINTS
 62
     0
 48
10.0
100
AcDbPoint
 10
974.070147169045
 20
634.670686301157
 30
0.0
  0
ENDBLK
  5
3C18
330
3C0B
100
AcDbEntity
  8
0
 48
10.0
100
AcDbBlockEnd
  0
BLOCK
  5
3DF2
330
3DE8
100
AcDbEntity
  8
0
 48
10.0
100
AcDbBlockBegin
  2
*D10
 70
     1
 10
0.0
 20
0.0
 30
0.0
  3
*D10
  1
*D10
  0
LINE
  5
3DFD
330
3DE8
100
AcDbEntity
  8
寸法線
 62
     0
 48
10.0
370
    -2
100
AcDbLine
 10
826.603728022648
 20
1211.588214069105
 30
0.0
 11
799.015001260478
 21
1287.387643567371
 31
0.0
  0
LINE
  5
3DFE
330
3DE8
100
AcDbEntity
  8
寸法線
 62
     0
 48
10.0
370
    -2
100
AcDbLine
 10
921.042840276281
 20
1245.961228231263
 30
0.0
 11
893.454113514111
 21
1321.760657729528
 31
0.0
  0
LINE
  5
3DFF
330
3DE8
100
AcDbEntity
  8
寸法線
 62
     0
 48
10.0
370
    -2
100
AcDbLine
 10
811.658530866191
 20
1290.659288277523
 30
0.0
 11
881.66563401084
 21
1316.139781374281
 31
0.0
  0
INSERT
  5
3E00
330
3DE8
100
AcDbEntity
  8
寸法線
 62
     0
 48
10.0
370
    -2
100
AcDbBlockReference
  2
_Open30
 10
799.442526311699
 20
1286.213027744823
 30
0.0
 41
13.0
 42
13.0
 43
13.0
 50
199.999993759499
  0
INSERT
  5
3E01
330
3DE8
100
AcDbEntity
  8
寸法線
 62
     0
 48
10.0
370
    -2
100
AcDbBlockReference
  2
_Open30
 10
893.881638565332
 20
1320.586041906981
 30
0.0
 41
13.0
 42
13.0
 43
13.0
 50
19.999993759499
  0
MTEXT
  5
3E02
330
3DE8
100
AcDbEntity
  8
寸法線
 62
     0
 48
10.0
100
AcDbMText
 10
844.054179626067
 20
1310.56469134344
 30
0.0
 40
14.0
 41
0.0
 71
     5
 72
     1
  1
\A1;φ100
 11
0.9396926580378081
 21
0.3420200409768986
 31
0.0
 73
     1
 44
1.0
  0
POINT
  5
3E03
330
3DE8
100
AcDbEntity
  8
DEFPOINTS
 62
     0
 48
10.0
100
AcDbPoint
 10
826.817490548259
 20
1211.000906157831
 30
0.0
  0
POINT
  5
3E04
330
3DE8
100
AcDbEntity
  8
DEFPOINTS
 62
     0
 48
10.0
100
AcDbPoint
 10
921.256602801891
 20
1245.373920319989
 30
0.0
  0
POINT
  5
3E05
330
3DE8
100
AcDbEntity
  8
DEFPOINTS
 62
     0
 48
10.0
100
AcDbPoint
 10
893.881638565332
 20
1320.586041906981
 30
0.0
  0
ENDBLK
  5
3DF3
330
3DE8
100
AcDbEntity
  8
0
 48
10.0
100
AcDbBlockEnd
  0
ENDSEC
  0
SECTION
  2
ENTITIES
  0
DIMENSION
  5
3A27
330
1A
100
AcDbEntity
  8
寸法線
 48
10.0
100
AcDbDimension
  2
*D2
 10
1344.503832973382
 20
571.493015414988
 30
0.0
 11
1329.112380837963
 21
613.780685035018
 31
0.0
 70
   161
 71
     5
 42
90.000001616937
  3
ISO-25
100
AcDbAlignedDimension
 13
1178.884157009684
 23
606.988387213673
 33
0.0
 14
1209.665968903089
 24
522.416049256112
 34
0.0
1001
ACAD
1000
DSTYLE
1002
{
1070
    41
1040
13.0
1070
    47
1040
0.1
1070
    48
1040
0.1
1070
    73
1070
     0
1070
   140
1040
14.0
1070
   271
1070
     1
1070
   272
1070
     1
1070
   341
1005
2AEC
1070
   342
1005
2AEC
1002
}
  0
DIMENSION
  5
3A28
330
1A
100
AcDbEntity
  8
寸法線
 48
10.0
100
AcDbDimension
  2
*D3
 10
1269.349058664845
 20
772.939022543325
 30
0.0
 11
1192.392793409875
 21
984.369230694373
 31
0.0
 70
   161
  1
450 (Movable range 370)
 71
     5
 42
449.999998581284
  3
ISO-25
100
AcDbAlignedDimension
 13
912.681854606371
 23
1122.000890493528
 33
0.0
 14
1066.594385116312
 24
699.140474191432
 34
0.0
1001
ACAD
1000
DSTYLE
1002
{
1070
    41
1040
13.0
1070
    47
1040
0.1
1070
    48
1040
0.1
1070
    73
1070
     0
1070
   140
1040
14.0
1070
   271
1070
     1
1070
   272
1070
     1
1070
   341
1005
2AEC
1070
   342
1005
2AEC
1002
}
  0
DIMENSION
  5
3A29
330
1A
100
AcDbEntity
  8
寸法線
 48
10.0
100
AcDbDimension
  2
*D4
 10
1067.548436744873
 20
1327.37088865526
 30
0.0
 11
1091.492784969598
 21
1261.58433258427
 31
0.0
 70
   161
 71
     5
 42
140.017181396976
  3
ISO-25
100
AcDbAlignedDimension
 13
928.02233699631
 23
1127.584369236137
 33
0.0
 14
880.13364054686
 24
1259.157481378117
 34
0.0
1001
ACAD
1000
DSTYLE
1002
{
1070
    41
1040
13.0
1070
    47
1040
0.1
1070
    48
1040
0.1
1070
    73
1070
     0
1070
   140
1040
14.0
1070
   271
1070
     1
1070
   272
1070
     1
1070
   341
1005
2AEC
1070
   342
1005
2AEC
1002
}
  0
LINE
  5
3A2A
330
1A
100
AcDbEntity
  8
細線
 48
10.0
100
AcDbLine
 10
1070.386249946685
 20
472.360885703213
 30
0.0
 11
1209.460757822999
 21
522.979866915413
 31
0.0
  0
LINE
  5
3A2B
330
1A
100
AcDbEntity
  8
外形線
100
AcDbLine
 10
1070.386249946685
 20
472.360885703213
 30
0.0
 11
1071.155277605152
 21
472.002282216737
 31
0.0
  0
LINE
  5
3A2C
330
1A
100
AcDbEntity
  8
外形線
100
AcDbLine
 10
1209.460757823
 20
522.979866915412
 30
0.0
 11
1209.102154336523
 21
522.210839256946
 31
0.0
  0
LINE
  5
3A2D
330
1A
100
AcDbEntity
  8
外形線
100
AcDbLine
 10
1146.119290355806
 20
607.83308429167
 30
0.0
 11
1150.223532075714
 21
596.55677284224
 31
0.0
  0
CIRCLE
  5
3A2E
330
1A
100
AcDbEntity
  8
外形線
100
AcDbCircle
 10
1137.753950851087
 20
597.33910530509
 30
0.0
 40
3.0
  0
ARC
  5
3A2F
330
1A
100
AcDbEntity
  8
外形線
100
AcDbCircle
 10
1100.876643884212
 20
691.204904990818
 30
0.0
 40
2.0
100
AcDbArc
 50
216.900237154786
 51
248.215483991742
  0
LINE
  5
3A30
330
1A
100
AcDbEntity
  8
外形線
100
AcDbLine
 10
1100.134410080574
 20
689.347732683052
 30
0.0
 11
1102.540384251969
 21
688.38616581431
 31
0.0
  0
LINE
  5
3A31
330
1A
100
AcDbEntity
  8
外形線
100
AcDbLine
 10
1087.593955030497
 20
705.274236838427
 30
0.0
 11
1099.277279537691
 21
690.004057920175
 31
0.0
  0
ARC
  5
3A32
330
1A
100
AcDbEntity
  8
外形線
100
AcDbCircle
 10
1085.994590683974
 20
704.073389767785
 30
0.0
 40
2.0
100
AcDbArc
 50
36.900237154798
 51
110.000000000003
  0
ARC
  5
3A33
330
1A
100
AcDbEntity
  8
外形線
100
AcDbCircle
 10
1048.562208977601
 20
690.448943272944
 30
0.0
 40
2.0
100
AcDbArc
 50
110.000000000003
 51
183.099762845201
  0
ARC
  5
3A34
330
1A
100
AcDbEntity
  8
外形線
100
AcDbCircle
 10
1045.433536926571
 20
671.025264362999
 30
0.0
 40
2.0
100
AcDbArc
 50
331.784516008259
 51
3.099762845214
  0
LINE
  5
3A35
330
1A
100
AcDbEntity
  8
外形線
100
AcDbLine
 10
1047.195888355831
 20
670.079686529191
 30
0.0
 11
1045.970888480658
 21
667.796553186105
 31
0.0
  0
LINE
  5
3A36
330
1A
100
AcDbEntity
  8
外形線
100
AcDbLine
 10
1046.565135189287
 20
690.340793913126
 30
0.0
 11
1047.430610714887
 21
671.133413722817
 31
0.0
  0
LINE
  5
3A37
330
1A
100
AcDbEntity
  8
外形線
100
AcDbLine
 10
1047.878168651442
 20
692.328328500136
 30
0.0
 11
1085.310601581182
 21
705.952619882728
 31
0.0
  0
LINE
  5
3A38
330
1A
100
AcDbEntity
  8
外形線
100
AcDbLine
 10
1098.819948302998
 20
684.690846770943
 30
0.0
 11
1106.412795484827
 21
663.829670589496
 31
0.0
  0
ARC
  5
3A39
330
1A
100
AcDbEntity
  8
外形線
100
AcDbCircle
 10
1102.915430766857
 20
685.184428952711
 30
0.0
 40
2.64338276851268
100
AcDbArc
 50
18.632642880336
 51
93.683727999287
  0
LINE
  5
3A3A
330
1A
100
AcDbEntity
  8
外形線
100
AcDbLine
 10
1091.550476460409
 20
683.747659837366
 30
0.0
 11
1097.06045598221
 21
685.753128374718
 31
0.0
  0
ARC
  5
3A3B
330
1A
100
AcDbEntity
  8
外形線
100
AcDbCircle
 10
1091.889586733069
 20
682.241717090571
 30
0.0
 40
1.55331428934791
100
AcDbArc
 50
17.457925602755
 51
100.299681900179
  0
ARC
  5
3A3C
330
1A
100
AcDbEntity
  8
外形線
100
AcDbCircle
 10
1097.338183533057
 20
684.224844144284
 30
0.0
 40
1.55331428934791
100
AcDbArc
 50
17.457925602755
 51
100.299681900179
  0
LINE
  5
3A3D
330
1A
100
AcDbEntity
  8
外形線
100
AcDbLine
 10
1070.608108707087
 20
676.1252613401
 30
0.0
 11
1078.313588197531
 21
678.929826515371
 31
0.0
  0
ARC
  5
3A3E
330
1A
100
AcDbEntity
  8
外形線
100
AcDbCircle
 10
1058.07944824277
 20
669.935833063684
 30
0.0
 40
1.55331428934791
100
AcDbArc
 50
119.700318099819
 51
202.542074397246
  0
ARC
  5
3A3F
330
1A
100
AcDbEntity
  8
外形線
100
AcDbCircle
 10
1052.630851442783
 20
667.95270600997
 30
0.0
 40
1.55331428934791
100
AcDbArc
 50
119.700318099819
 51
202.542074397246
  0
ARC
  5
3A40
330
1A
100
AcDbEntity
  8
外形線
100
AcDbCircle
 10
1047.74162296613
 20
665.102805202122
 30
0.0
 40
2.64338276851268
100
AcDbArc
 50
126.316272000714
 51
201.367357119664
  0
LINE
  5
3A41
330
1A
100
AcDbEntity
  8
外形線
100
AcDbLine
 10
1057.371220444209
 20
671.307428018105
 30
0.0
 11
1051.861240922408
 21
669.301959480753
 31
0.0
  0
LINE
  5
3A42
330
1A
100
AcDbEntity
  8
外形線
100
AcDbLine
 10
1057.371220444209
 20
671.307428018105
 30
0.0
 11
1065.51129985536
 21
648.9427436434
 31
0.0
  0
LINE
  5
3A43
330
1A
100
AcDbEntity
  8
外形線
100
AcDbLine
 10
1093.324225115588
 20
682.837198402532
 30
0.0
 11
1100.96419868484
 21
661.846543535782
 31
0.0
  0
LINE
  5
3A44
330
1A
100
AcDbEntity
  8
外形線
100
AcDbLine
 10
1091.550476460409
 20
683.747659837366
 30
0.0
 11
1099.69055587156
 21
661.382975462661
 31
0.0
  0
LINE
  5
3A45
330
1A
100
AcDbEntity
  8
外形線
100
AcDbLine
 10
1051.149086672842
 20
667.486703383312
 30
0.0
 11
1058.789060242093
 21
646.496048516566
 31
0.0
  0
LINE
  5
3A46
330
1A
100
AcDbEntity
  8
外形線
100
AcDbLine
 10
1056.597683472828
 20
669.469830437024
 30
0.0
 11
1064.237657042078
 21
648.479175570279
 31
0.0
  0
LINE
  5
3A47
330
1A
100
AcDbEntity
  8
外形線
100
AcDbLine
 10
1110.885675749116
 20
665.457665867134
 30
0.0
 11
1102.540384251969
 21
688.38616581431
 31
0.0
  0
LINE
  5
3A48
330
1A
100
AcDbEntity
  8
外形線
100
AcDbLine
 10
1054.316179977804
 20
644.868053238928
 30
0.0
 11
1045.970888480658
 21
667.796553186105
 31
0.0
  0
LINE
  5
3A49
330
1A
100
AcDbEntity
  8
外形線
100
AcDbLine
 10
1086.453667608682
 20
656.565142140666
 30
0.0
 11
1078.313588197531
 21
678.929826515371
 31
0.0
  0
LINE
  5
3A4A
330
1A
100
AcDbEntity
  8
外形線
100
AcDbLine
 10
1078.748188118238
 20
653.760576965396
 30
0.0
 11
1070.608108707087
 21
676.1252613401
 31
0.0
  0
LINE
  5
3A4B
330
1A
100
AcDbEntity
  8
外形線
100
AcDbLine
 10
1045.970888480658
 20
667.796553186105
 30
0.0
 11
1102.540384251969
 21
688.38616581431
 31
0.0
  0
LINE
  5
3A4C
330
1A
100
AcDbEntity
  8
外形線
100
AcDbLine
 10
1114.381192445238
 20
661.409041035523
 30
0.0
 11
1105.420264690105
 21
686.028987700113
 31
0.0
  0
LINE
  5
3A4D
330
1A
100
AcDbEntity
  8
外形線
100
AcDbLine
 10
1052.530763998311
 20
644.218214966609
 30
0.0
 11
1112.671091728609
 21
666.107504139452
 31
0.0
  0
LINE
  5
3A4E
330
1A
100
AcDbEntity
  8
外形線
100
AcDbLine
 10
1054.240864714939
 20
639.51975186268
 30
0.0
 11
1045.236789042882
 21
664.258246454719
 31
0.0
  0
LINE
  5
3A4F
330
1A
100
AcDbEntity
  8
外形線
100
AcDbLine
 10
1107.163939920517
 20
658.57879527643
 30
0.0
 11
1107.098574634147
 21
658.758384924749
 31
0.0
  0
LINE
  5
3A50
330
1A
100
AcDbEntity
  8
外形線
100
AcDbLine
 10
1106.553191368721
 20
656.455867411242
 30
0.0
 11
1105.971757125067
 21
658.053344866579
 31
0.0
  0
LINE
  5
3A51
330
1A
100
AcDbEntity
  8
外形線
100
AcDbLine
 10
1108.271115230405
 20
651.735910392924
 30
0.0
 11
1106.963615540712
 21
655.328236266299
 31
0.0
  0
LINE
  5
3A52
330
1A
100
AcDbEntity
  8
外形線
100
AcDbLine
 10
1108.155798336162
 20
655.853686676151
 30
0.0
 11
1107.745374164171
 21
656.981317821094
 31
0.0
  0
LINE
  5
3A53
330
1A
100
AcDbEntity
  8
外形線
100
AcDbLine
 10
1063.468109636796
 20
640.628534617576
 30
0.0
 11
1062.745082933052
 21
642.615034159777
 31
0.0
  0
LINE
  5
3A54
330
1A
100
AcDbEntity
  8
外形線
100
AcDbLine
 10
1064.459968052441
 20
637.903426017297
 30
0.0
 11
1063.878533808787
 21
639.500903472633
 31
0.0
  0
LINE
  5
3A55
330
1A
100
AcDbEntity
  8
外形線
100
AcDbLine
 10
1064.870392224432
 20
636.775794872354
 30
0.0
 11
1065.139223936332
 21
636.037185814276
 31
0.0
  0
LINE
  5
3A56
330
1A
100
AcDbEntity
  8
外形線
100
AcDbLine
 10
1062.686351013337
 20
638.975453062782
 30
0.0
 11
1062.275926841347
 21
640.103084207725
 31
0.0
  0
LINE
  5
3A57
330
1A
100
AcDbEntity
  8
外形線
100
AcDbLine
 10
1063.678209428982
 20
636.250344462503
 30
0.0
 11
1063.267785256991
 21
637.377975607446
 31
0.0
  0
LINE
  5
3A58
330
1A
100
AcDbEntity
  8
外形線
100
AcDbLine
 10
1062.275926841347
 20
640.103084207725
 30
0.0
 11
1092.769604585191
 21
653.543066339237
 31
0.0
  0
LINE
  5
3A59
330
1A
100
AcDbEntity
  8
外形線
100
AcDbLine
 10
1062.686351013337
 20
638.975453062782
 30
0.0
 11
1107.163939920517
 21
658.57879527643
 31
0.0
  0
LINE
  5
3A5A
330
1A
100
AcDbEntity
  8
外形線
100
AcDbLine
 10
1063.267785256991
 20
637.377975607446
 30
0.0
 11
1107.745374164171
 21
656.981317821094
 31
0.0
  0
LINE
  5
3A5B
330
1A
100
AcDbEntity
  8
外形線
100
AcDbLine
 10
1063.678209428982
 20
636.250344462503
 30
0.0
 11
1108.155798336162
 21
655.853686676151
 31
0.0
  0
LINE
  5
3A5C
330
1A
100
AcDbEntity
  8
外形線
100
AcDbLine
 10
1054.240864714939
 20
639.51975186268
 30
0.0
 11
1114.381192445238
 21
661.409041035523
 31
0.0
  0
LINE
  5
3A5D
330
1A
100
AcDbEntity
  8
外形線
100
AcDbLine
 10
1115.637330928613
 20
631.643589315272
 30
0.0
 11
1107.532482074335
 21
628.693665579088
 31
0.0
  0
LINE
  5
3A5E
330
1A
100
AcDbEntity
  8
外形線
100
AcDbLine
 10
1104.619434949899
 20
627.633403134778
 30
0.0
 11
1106.415040702358
 21
622.700016875652
 31
0.0
  0
LINE
  5
3A5F
330
1A
100
AcDbEntity
  8
外形線
100
AcDbLine
 10
1107.532482074335
 20
628.693665579088
 30
0.0
 11
1109.328087826795
 21
623.760279319962
 31
0.0
  0
ARC
  5
3A60
330
1A
100
AcDbEntity
  8
外形線
100
AcDbCircle
 10
1106.261348976169
 20
627.654178243168
 30
0.0
 40
1.642045454545236
100
AcDbArc
 50
39.275076225859
 51
180.724923774141
  0
ARC
  5
3A61
330
1A
100
AcDbEntity
  8
外形線
100
AcDbCircle
 10
1107.871564264576
 20
623.230148097807
 30
0.0
 40
1.549999999999842
100
AcDbArc
 50
200.000000000001
 51
20.000000000001
  0
LINE
  5
3A62
330
1A
100
AcDbEntity
  8
外形線
100
AcDbLine
 10
1104.619434949899
 20
627.633403134778
 30
0.0
 11
1083.429366351176
 21
619.920848902785
 31
0.0
  0
ARC
  5
3A63
330
1A
100
AcDbEntity
  8
外形線
100
AcDbCircle
 10
1082.15823325301
 20
618.881361566864
 30
0.0
 40
1.642045454545236
100
AcDbArc
 50
39.275076225859
 51
180.724923774141
  0
ARC
  5
3A64
330
1A
100
AcDbEntity
  8
外形線
100
AcDbCircle
 10
1083.768448541418
 20
614.457331421504
 30
0.0
 40
1.549999999999842
100
AcDbArc
 50
200.000000000001
 51
20.000000000001
  0
LINE
  5
3A65
330
1A
100
AcDbEntity
  8
外形線
100
AcDbLine
 10
1083.429366351176
 20
619.920848902785
 30
0.0
 11
1085.224972103636
 21
614.987462643659
 31
0.0
  0
LINE
  5
3A66
330
1A
100
AcDbEntity
  8
外形線
100
AcDbLine
 10
1080.51631922674
 20
618.860586458475
 30
0.0
 11
1082.3119249792
 21
613.927200199349
 31
0.0
  0
LINE
  5
3A67
330
1A
100
AcDbEntity
  8
外形線
100
AcDbLine
 10
1102.734873068169
 20
644.506411951049
 30
0.0
 11
1110.181937087897
 21
647.216921586905
 31
0.0
  0
LINE
  5
3A68
330
1A
100
AcDbEntity
  8
外形線
100
AcDbLine
 10
1078.63175734501
 20
635.733595274745
 30
0.0
 11
1098.130379226318
 21
642.830513248753
 31
0.0
  0
LINE
  5
3A69
330
1A
100
AcDbEntity
  8
外形線
100
AcDbLine
 10
1106.702306730746
 20
633.605977549932
 30
0.0
 11
1114.149370750475
 21
636.316487185788
 31
0.0
  0
LINE
  5
3A6A
330
1A
100
AcDbEntity
  8
外形線
100
AcDbLine
 10
1082.599191007588
 20
624.833160873629
 30
0.0
 11
1102.097812888896
 21
631.930078847636
 31
0.0
  0
ARC
  5
3A6B
330
1A
100
AcDbEntity
  8
外形線
100
AcDbCircle
 10
1104.400059809821
 20
632.768028198784
 30
0.0
 40
2.44999999999994
100
AcDbArc
 50
200.000000000001
 51
20.000000000001
  0
ARC
  5
3A6C
330
1A
100
AcDbEntity
  8
外形線
100
AcDbCircle
 10
1100.432626147243
 20
643.668462599901
 30
0.0
 40
2.44999999999994
100
AcDbArc
 50
20.000000000001
 51
200.000000000001
  0
LINE
  5
3A6D
330
1A
100
AcDbEntity
  8
外形線
100
AcDbLine
 10
1102.734873068169
 20
644.506411951049
 30
0.0
 11
1106.702306730746
 21
633.605977549932
 31
0.0
  0
LINE
  5
3A6E
330
1A
100
AcDbEntity
  8
外形線
100
AcDbLine
 10
1098.130379226318
 20
642.830513248753
 30
0.0
 11
1102.097812888896
 21
631.930078847636
 31
0.0
  0
LINE
  5
3A6F
330
1A
100
AcDbEntity
  8
外形線
100
AcDbLine
 10
1066.767514919178
 20
631.415364179624
 30
0.0
 11
1074.027263503159
 21
634.057696572449
 31
0.0
  0
LINE
  5
3A70
330
1A
100
AcDbEntity
  8
外形線
100
AcDbLine
 10
1070.547633146009
 20
620.446752535477
 30
0.0
 11
1077.994697165737
 21
623.157262171333
 31
0.0
  0
ARC
  5
3A71
330
1A
100
AcDbEntity
  8
外形線
100
AcDbCircle
 10
1080.296944086662
 20
623.995211522481
 30
0.0
 40
2.44999999999994
100
AcDbArc
 50
200.000000000001
 51
20.000000000001
  0
ARC
  5
3A72
330
1A
100
AcDbEntity
  8
外形線
100
AcDbCircle
 10
1076.329510424085
 20
634.895645923597
 30
0.0
 40
2.44999999999994
100
AcDbArc
 50
20.000000000001
 51
200.000000000001
  0
LINE
  5
3A73
330
1A
100
AcDbEntity
  8
外形線
100
AcDbLine
 10
1078.63175734501
 20
635.733595274745
 30
0.0
 11
1082.599191007588
 21
624.833160873629
 31
0.0
  0
LINE
  5
3A74
330
1A
100
AcDbEntity
  8
外形線
100
AcDbLine
 10
1074.027263503159
 20
634.057696572449
 30
0.0
 11
1077.994697165737
 21
623.157262171333
 31
0.0
  0
LINE
  5
3A75
330
1A
100
AcDbEntity
  8
外形線
100
AcDbLine
 10
1116.955166974679
 20
632.554761356416
 30
0.0
 11
1118.889460243291
 21
627.240334278301
 31
0.0
  0
ARC
  5
3A76
330
1A
100
AcDbEntity
  8
外形線
100
AcDbCircle
 10
1117.432936681073
 20
626.710203056146
 30
0.0
 40
1.549999999999728
100
AcDbArc
 50
290.000000000003
 51
20.000000000001
  0
ARC
  5
3A77
330
1A
100
AcDbEntity
  8
外形線
100
AcDbCircle
 10
1114.987320101623
 20
634.014240264863
 30
0.0
 40
2.44999999999994
100
AcDbArc
 50
285.333141628565
 51
110.000000000003
  0
LINE
  5
3A78
330
1A
100
AcDbEntity
  8
外形線
100
AcDbLine
 10
1112.786816450335
 20
635.820557977966
 30
0.0
 11
1108.819382787757
 21
646.720992379082
 31
0.0
  0
ARC
  5
3A79
330
1A
100
AcDbEntity
  8
外形線
100
AcDbCircle
 10
1109.343987736749
 20
649.51916850783
 30
0.0
 40
2.44999999999994
100
AcDbArc
 50
285.333141628565
 51
110.000000000003
  0
ARC
  5
3A7A
330
1A
100
AcDbEntity
  8
外形線
100
AcDbCircle
 10
1065.742250132283
 20
633.649433857519
 30
0.0
 40
2.44999999999994
100
AcDbArc
 50
110.000000000003
 51
294.66685837144
  0
ARC
  5
3A7B
330
1A
100
AcDbEntity
  8
外形線
100
AcDbCircle
 10
1071.385582497157
 20
618.144505614551
 30
0.0
 40
2.44999999999994
100
AcDbArc
 50
110.000000000003
 51
294.66685837144
  0
ARC
  5
3A7C
330
1A
100
AcDbEntity
  8
外形線
100
AcDbCircle
 10
1074.207076124921
 20
610.977276463165
 30
0.0
 40
1.549999999999728
100
AcDbArc
 50
200.000000000001
 51
290.000000000003
  0
LINE
  5
3A7D
330
1A
100
AcDbEntity
  8
外形線
100
AcDbLine
 10
1070.816259294091
 20
615.761572319125
 30
0.0
 11
1072.750552562703
 21
610.44714524101
 31
0.0
  0
LINE
  5
3A7E
330
1A
100
AcDbEntity
  8
外形線
100
AcDbLine
 10
1071.910187446148
 20
620.942681743299
 30
0.0
 11
1067.94275378357
 21
631.843116144416
 31
0.0
  0
LINE
  5
3A7F
330
1A
100
AcDbEntity
  8
外形線
100
AcDbLine
 10
1118.92072430454
 20
622.622540155727
 30
0.0
 11
1115.637330928613
 21
631.643589315272
 31
0.0
  0
LINE
  5
3A80
330
1A
100
AcDbEntity
  8
外形線
100
AcDbLine
 10
1072.411470372462
 20
615.910662722291
 30
0.0
 11
1080.51631922674
 21
618.860586458475
 31
0.0
  0
LINE
  5
3A81
330
1A
100
AcDbEntity
  8
外形線
100
AcDbLine
 10
1075.694863748388
 20
606.889613562746
 30
0.0
 11
1072.411470372462
 21
615.910662722291
 31
0.0
  0
LINE
  5
3A82
330
1A
100
AcDbEntity
  8
外形線
100
AcDbLine
 10
1111.646234657675
 20
650.357117858978
 30
0.0
 11
1117.289567022548
 21
634.85218961601
 31
0.0
  0
LINE
  5
3A83
330
1A
100
AcDbEntity
  8
外形線
100
AcDbLine
 10
1063.440003211357
 20
632.811484506371
 30
0.0
 11
1069.083335576231
 21
617.306556263404
 31
0.0
  0
LINE
  5
3A84
330
1A
100
AcDbEntity
  8
外形線
100
AcDbLine
 10
1064.904300781135
 20
635.951680778444
 30
0.0
 11
1108.506038385601
 21
651.821415428755
 31
0.0
  0
LINE
  5
3A85
330
1A
100
AcDbEntity
  8
外形線
100
AcDbLine
 10
1074.755171127602
 20
606.547593419421
 30
0.0
 11
1077.970160474863
 21
597.714482784033
 31
0.0
  0
LINE
  5
3A86
330
1A
100
AcDbEntity
  8
外形線
100
AcDbLine
 10
1119.860416925326
 20
622.964560299053
 30
0.0
 11
1123.075406272587
 21
614.131449663665
 31
0.0
  0
LINE
  5
3A87
330
1A
100
AcDbEntity
  8
外形線
100
AcDbLine
 10
1074.755171127602
 20
606.547593419421
 30
0.0
 11
1119.860416925326
 21
622.964560299053
 31
0.0
  0
LINE
  5
3A88
330
1A
100
AcDbEntity
  8
外形線
100
AcDbLine
 10
1121.21743590498
 20
598.76955049354
 30
0.0
 11
1116.497557927086
 21
611.737308660386
 31
0.0
  0
LINE
  5
3A89
330
1A
100
AcDbEntity
  8
外形線
100
AcDbLine
 10
1077.970160474863
 20
597.714482784033
 30
0.0
 11
1123.075406272587
 21
614.131449663665
 31
0.0
  0
LINE
  5
3A8A
330
1A
100
AcDbEntity
  8
外形線
100
AcDbLine
 10
1089.267886798259
 20
587.140865620467
 30
0.0
 11
1084.548008820365
 21
600.108623787313
 31
0.0
  0
LINE
  5
3A8B
330
1A
100
AcDbEntity
  8
外形線
100
AcDbLine
 10
1083.107364418917
 20
584.898618846856
 30
0.0
 11
1146.119290355806
 21
607.83308429167
 31
0.0
  0
LINE
  5
3A8C
330
1A
100
AcDbEntity
  8
外形線
100
AcDbLine
 10
1120.414551537878
 20
585.707191212647
 30
0.0
 11
1116.31030981797
 21
596.983502662078
 31
0.0
  0
LINE
  5
3A8D
330
1A
100
AcDbEntity
  8
外形線
100
AcDbLine
 10
1131.48220000423
 20
589.735485817721
 30
0.0
 11
1127.377958284321
 21
601.011797267151
 31
0.0
  0
LINE
  5
3A8E
330
1A
100
AcDbEntity
  8
外形線
100
AcDbLine
 10
1087.211606138825
 20
573.622307397426
 30
0.0
 11
1083.107364418917
 21
584.898618846856
 31
0.0
  0
LINE
  5
3A8F
330
1A
100
AcDbEntity
  8
外形線
100
AcDbLine
 10
1098.279254605176
 20
577.650602002499
 30
0.0
 11
1094.175012885268
 21
588.92691345193
 31
0.0
  0
LINE
  5
3A90
330
1A
100
AcDbEntity
  8
細線
100
AcDbLine
 10
1040.493689420021
 20
554.490020759902
 30
0.0
 11
1179.568197296336
 21
605.109001972101
 31
0.0
  0
LINE
  5
3A91
330
1A
100
AcDbEntity
  8
外形線
100
AcDbLine
 10
1039.80964913337
 20
556.369406001474
 30
0.0
 11
1178.884157009684
 21
606.988387213673
 31
0.0
  0
LINE
  5
3A92
330
1A
100
AcDbEntity
  8
外形線
100
AcDbLine
 10
1178.884157009684
 20
606.988387213673
 30
0.0
 11
1209.460757823
 21
522.979866915412
 31
0.0
  0
LINE
  5
3A93
330
1A
100
AcDbEntity
  8
外形線
100
AcDbLine
 10
1071.155277605152
 20
472.002282216737
 30
0.0
 11
1209.102154336523
 21
522.210839256946
 31
0.0
  0
LINE
  5
3A94
330
1A
100
AcDbEntity
  8
外形線
100
AcDbLine
 10
1070.386249946685
 20
472.360885703213
 30
0.0
 11
1039.80964913337
 21
556.369406001474
 31
0.0
  0
LEADER
  5
3A96
330
1A
100
AcDbEntity
  8
寸法線
 48
10.0
100
AcDbLeader
  3
ISO-25
 76
     3
 10
852.85889095285
 20
1148.440398838282
 30
0.0
 10
822.453519546491
 20
1020.084243667742
 30
0.0
 10
765.986397203137
 20
1020.084243667742
 30
0.0
1001
ACAD
1000
DSTYLE
1002
{
1070
   147
1040
0.625
1070
    77
1070
     0
1070
    41
1040
13.0
1070
    47
1040
0.1
1070
    48
1040
0.1
1070
    73
1070
     0
1070
   140
1040
14.0
1070
   271
1070
     1
1070
   272
1070
     1
1070
   341
1005
2AEC
1070
   342
1005
2AEC
1002
}
  0
MTEXT
  5
3A97
330
1A
100
AcDbEntity
  8
寸法線
 48
10.0
100
AcDbMText
 10
767.227436443667
 20
1035.896231257836
 30
0.0
 40
10.0
 41
54.295306484509
 71
     1
 72
     5
  1
\A1;2×{\H0.7x;\S1#2;"}NPT
 73
     1
 44
1.0
  0
MTEXT
  5
3A9A
330
1A
100
AcDbEntity
  8
寸法線
 48
10.0
100
AcDbMText
 10
736.14663157462
 20
1096.872219530458
 30
0.0
 40
10.0
 41
75.33908472822
 71
     1
 72
     5
  1
Code Lock\P   2×M20
 73
     1
 44
1.0
  0
LEADER
  5
3A9B
330
1A
100
AcDbEntity
  8
寸法線
 48
10.0
100
AcDbLeader
  3
ISO-25
 76
     3
 10
819.147430579909
 20
1133.395822950699
 30
0.0
 10
805.079020796549
 20
1068.455529665867
 30
0.0
 10
734.029729558199
 20
1068.455342434077
 30
0.0
1001
ACAD
1000
DSTYLE
1002
{
1070
   147
1040
0.625
1070
    77
1070
     0
1070
    41
1040
13.0
1070
    47
1040
0.1
1070
    48
1040
0.1
1070
    73
1070
     0
1070
   140
1040
14.0
1070
   271
1070
     1
1070
   272
1070
     1
1070
   341
1005
2AEC
1070
   342
1005
2AEC
1002
}
  0
LINE
  5
3A9C
330
1A
100
AcDbEntity
  8
細線
100
AcDbLine
 10
923.987140998933
 20
1127.179855820401
 30
0.0
 11
922.616091998933
 21
1130.946782820401
 31
0.0
  0
LINE
  5
3A9D
330
1A
100
AcDbEntity
  8
外形線
100
AcDbLine
 10
937.376364150435
 20
1132.053134256868
 30
0.0
 11
936.005314150435
 21
1135.820062256868
 31
0.0
  0
ARC
  5
3A9E
330
1A
100
AcDbEntity
  8
細線
100
AcDbCircle
 10
937.695060150435
 20
1110.347592256868
 30
0.0
 40
25.528454
100
AcDbArc
 50
93.79522
 51
126.204779999998
  0
LINE
  5
3A9F
330
1A
100
AcDbEntity
  8
外形線
100
AcDbLine
 10
934.429460150435
 20
1129.916371256868
 30
0.0
 11
937.376364150435
 21
1132.053134256868
 31
0.0
  0
ARC
  5
3AA0
330
1A
100
AcDbEntity
  8
細線
100
AcDbCircle
 10
922.297396150435
 20
1152.652325256868
 30
0.0
 40
25.528454
100
AcDbArc
 50
273.79522
 51
306.204779999998
  0
LINE
  5
3AA1
330
1A
100
AcDbEntity
  8
外形線
100
AcDbLine
 10
932.374370150435
 20
1135.562684256868
 30
0.0
 11
936.005314150435
 21
1135.820062256868
 31
0.0
  0
LINE
  5
3AA2
330
1A
100
AcDbEntity
  8
外形線
100
AcDbLine
 10
934.122546815089
 20
1136.198969202785
 30
0.0
 11
933.280554782713
 21
1138.51232294668
 31
0.0
  0
ARC
  5
3AA3
330
1A
100
AcDbEntity
  8
細線
100
AcDbCircle
 10
937.058086150435
 20
1055.038530256868
 30
0.0
 40
77.269879
100
AcDbArc
 50
100.772118999997
 51
119.227881000002
  0
ARC
  5
3AA4
330
1A
100
AcDbEntity
  8
細線
100
AcDbCircle
 10
886.257466150435
 20
1194.612087256868
 30
0.0
 40
77.269879
100
AcDbArc
 50
280.772118999997
 51
299.227881000002
  0
LINE
  5
3AA5
330
1A
100
AcDbEntity
  8
細線
100
AcDbLine
 10
900.699461150435
 20
1118.703833256868
 30
0.0
 11
899.328411150435
 21
1122.470761256868
 31
0.0
  0
LINE
  5
3AA6
330
1A
100
AcDbEntity
  8
外形線
100
AcDbLine
 10
934.122546806501
 20
1136.19896919966
 30
0.0
 11
888.953617806501
 21
1119.758823199659
 31
0.0
  0
LINE
  5
3AA7
330
1A
100
AcDbEntity
  8
外形線
100
AcDbLine
 10
934.429460150435
 20
1129.916371256868
 30
0.0
 11
891.008707150435
 21
1114.112510256868
 31
0.0
  0
ARC
  5
3AA8
330
1A
100
AcDbEntity
  8
細線
100
AcDbCircle
 10
885.620493150435
 20
1139.303024256868
 30
0.0
 40
25.528454
100
AcDbArc
 50
273.79522
 51
306.204779999998
  0
LINE
  5
3AA9
330
1A
100
AcDbEntity
  8
外形線
100
AcDbLine
 10
888.953621107849
 20
1119.758824401252
 30
0.0
 11
887.137919107848
 21
1119.097963401251
 31
0.0
  0
LINE
  5
3AAA
330
1A
100
AcDbEntity
  8
外形線
100
AcDbLine
 10
887.137919107848
 20
1119.097963401251
 30
0.0
 11
886.295925747177
 21
1121.411316817353
 31
0.0
  0
LINE
  5
3AAB
330
1A
100
AcDbEntity
  8
外形線
100
AcDbLine
 10
887.310236956648
 20
1113.830555547812
 30
0.0
 11
885.939187956648
 21
1117.597482547812
 31
0.0
  0
LINE
  5
3AAC
330
1A
100
AcDbEntity
  8
外形線
100
AcDbLine
 10
890.941180956648
 20
1114.087933547812
 30
0.0
 11
887.310236956648
 21
1113.830555547812
 31
0.0
  0
ARC
  5
3AAD
330
1A
100
AcDbEntity
  8
細線
100
AcDbCircle
 10
901.018156150435
 20
1096.998291256868
 30
0.0
 40
25.528454
100
AcDbArc
 50
93.79522
 51
126.204779999998
  0
LINE
  5
3AAE
330
1A
100
AcDbEntity
  8
外形線
100
AcDbLine
 10
888.953618150435
 20
1119.758822256868
 30
0.0
 11
886.006714150435
 21
1117.622059256868
 31
0.0
  0
ARC
  5
3AAF
330
1A
100
AcDbEntity
  8
外形線
100
AcDbCircle
 10
874.940902189596
 20
1120.447132393818
 30
0.0
 40
3.0
100
AcDbArc
 50
19.999999999998
 51
55.000000000003
  0
ARC
  5
3AB0
330
1A
100
AcDbEntity
  8
外形線
100
AcDbCircle
 10
879.547065189596
 20
1119.487021393818
 30
0.0
 40
1.0
100
AcDbArc
 50
199.999999999998
 51
229.999999999997
  0
LINE
  5
3AB1
330
1A
100
AcDbEntity
  8
外形線
100
AcDbLine
 10
878.607373189596
 20
1119.145001393818
 30
0.0
 11
877.759980189596
 21
1121.473193393818
 31
0.0
  0
LINE
  5
3AB2
330
1A
100
AcDbEntity
  8
外形線
100
AcDbLine
 10
921.02340157991
 20
1239.436075950699
 30
0.0
 11
875.91815557991
 21
1223.019108950699
 31
0.0
  0
ARC
  5
3AB3
330
1A
100
AcDbEntity
  8
外形線
100
AcDbCircle
 10
907.072330579909
 20
1206.707001950699
 30
0.0
 40
30.0
100
AcDbArc
 50
42.410735000001
 51
52.911075999997
  0
LINE
  5
3AB4
330
1A
100
AcDbEntity
  8
外形線
100
AcDbLine
 10
923.34319157991
 20
1234.959520950699
 30
0.0
 11
928.39025357991
 21
1221.811474950699
 31
0.0
  0
LINE
  5
3AB5
330
1A
100
AcDbEntity
  8
外形線
100
AcDbLine
 10
926.67906157991
 20
1220.161619950699
 30
0.0
 11
921.286087579909
 21
1234.210796950699
 31
0.0
  0
LINE
  5
3AB6
330
1A
100
AcDbEntity
  8
外形線
100
AcDbLine
 10
922.733501579909
 20
1234.737611950699
 30
0.0
 11
877.628256579909
 21
1218.320645950699
 31
0.0
  0
LINE
  5
3AB7
330
1A
100
AcDbEntity
  8
外形線
100
AcDbLine
 10
835.81193457991
 20
1203.100748950699
 30
0.0
 11
923.34319157991
 21
1234.959520950699
 31
0.0
  0
ARC
  5
3AB8
330
1A
100
AcDbEntity
  8
外形線
100
AcDbCircle
 10
944.73497557991
 20
1160.772413950699
 30
0.0
 40
1.0
100
AcDbArc
 50
110.000000000004
 51
164.999999999999
  0
LINE
  5
3AB9
330
1A
100
AcDbEntity
  8
外形線
100
AcDbLine
 10
946.04587057991
 20
1163.377895950699
 30
0.0
 11
932.81664057991
 21
1199.724905950699
 31
0.0
  0
LINE
  5
3ABA
330
1A
100
AcDbEntity
  8
外形線
100
AcDbLine
 10
944.39295457991
 20
1161.712105950699
 30
0.0
 11
862.87079757991
 21
1132.040466950699
 31
0.0
  0
LINE
  5
3ABB
330
1A
100
AcDbEntity
  8
外形線
100
AcDbLine
 10
860.53384157991
 20
1132.254062950699
 30
0.0
 11
857.61658157991
 21
1140.269169950699
 31
0.0
  0
LINE
  5
3ABC
330
1A
100
AcDbEntity
  8
外形線
100
AcDbLine
 10
843.024774579909
 20
1136.148046950699
 30
0.0
 11
859.96978557991
 21
1128.246458950699
 31
0.0
  0
ARC
  5
3ABD
330
1A
100
AcDbEntity
  8
外形線
100
AcDbCircle
 10
817.43732957991
 20
1138.094285950699
 30
0.0
 40
5.0
100
AcDbArc
 50
199.999999999998
 51
290.000000000004
  0
ARC
  5
3ABE
330
1A
100
AcDbEntity
  8
細線
100
AcDbCircle
 10
825.677915579909
 20
1137.156156950699
 30
0.0
 40
4.119219
100
AcDbArc
 50
153.256486999997
 51
246.743512999999
  0
LINE
  5
3ABF
330
1A
100
AcDbEntity
  8
外形線
100
AcDbLine
 10
939.60162557991
 20
1144.941723950699
 30
0.0
 11
877.32096157991
 21
1122.273416950699
 31
0.0
  0
LINE
  5
3AC0
330
1A
100
AcDbEntity
  8
外形線
100
AcDbLine
 10
940.672200579909
 20
1141.202661950699
 30
0.0
 11
878.90427757991
 21
1118.720976950699
 31
0.0
  0
LINE
  5
3AC1
330
1A
100
AcDbEntity
  8
外形線
100
AcDbLine
 10
876.661631579909
 20
1122.904587950699
 30
0.0
 11
863.78639357991
 21
1131.919926950699
 31
0.0
  0
LINE
  5
3AC2
330
1A
100
AcDbEntity
  8
外形線
100
AcDbLine
 10
876.661631579909
 20
1122.904587950699
 30
0.0
 11
868.09091857991
 21
1128.905865950699
 31
0.0
  0
ARC
  5
3AC3
330
1A
100
AcDbEntity
  8
外形線
100
AcDbCircle
 10
861.23764057991
 20
1130.965381950699
 30
0.0
 40
3.0
100
AcDbArc
 50
245.000000000001
 51
290.000000000004
  0
LINE
  5
3AC4
330
1A
100
AcDbEntity
  8
外形線
100
AcDbLine
 10
865.344128579909
 20
1129.267487950699
 30
0.0
 11
862.263700579909
 21
1128.146303950699
 31
0.0
  0
ARC
  5
3AC5
330
1A
100
AcDbEntity
  8
外形線
100
AcDbCircle
 10
866.37018857991
 20
1126.448409950699
 30
0.0
 40
3.0
100
AcDbArc
 50
55.000000000003
 51
110.000000000004
  0
LINE
  5
3AC6
330
1A
100
AcDbEntity
  8
外形線
100
AcDbLine
 10
862.87079757991
 20
1132.040466950699
 30
0.0
 11
861.81555457991
 21
1131.656389950699
 31
0.0
  0
ARC
  5
3AC7
330
1A
100
AcDbEntity
  8
外形線
100
AcDbCircle
 10
863.21281757991
 20
1131.100774950699
 30
0.0
 40
1.0
100
AcDbArc
 50
55.000000000003
 51
110.000000000004
  0
ARC
  5
3AC8
330
1A
100
AcDbEntity
  8
外形線
100
AcDbCircle
 10
861.473534579909
 20
1132.596082950699
 30
0.0
 40
1.0
100
AcDbArc
 50
199.999999999998
 51
290.000000000004
  0
LINE
  5
3AC9
330
1A
100
AcDbEntity
  8
細線
100
AcDbLine
 10
932.81664057991
 20
1199.724905950699
 30
0.0
 11
865.07310257991
 21
1175.068274950699
 31
0.0
  0
LINE
  5
3ACA
330
1A
100
AcDbEntity
  8
細線
100
AcDbLine
 10
873.847008579909
 20
1148.304917950699
 30
0.0
 11
864.35762757991
 21
1174.376774950699
 31
0.0
  0
LINE
  5
3ACB
330
1A
100
AcDbEntity
  8
外形線
100
AcDbLine
 10
861.10255757991
 20
1176.655827950699
 30
0.0
 11
932.31375557991
 21
1202.574583950699
 31
0.0
  0
LINE
  5
3ACC
330
1A
100
AcDbEntity
  8
細線
100
AcDbLine
 10
939.97454657991
 20
1211.747950950699
 30
0.0
 11
830.65225257991
 21
1171.957889950699
 31
0.0
  0
LINE
  5
3ACD
330
1A
100
AcDbEntity
  8
細線
100
AcDbLine
 10
830.524426579909
 20
1170.847186950699
 30
0.0
 11
932.08325357991
 21
1207.811576950699
 31
0.0
  0
LINE
  5
3ACE
330
1A
100
AcDbEntity
  8
外形線
100
AcDbLine
 10
842.837151579909
 20
1137.018252950699
 30
0.0
 11
873.847008579909
 21
1148.304917950699
 31
0.0
  0
LINE
  5
3ACF
330
1A
100
AcDbEntity
  8
外形線
100
AcDbLine
 10
832.52301057991
 20
1201.903678950699
 30
0.0
 11
877.628256579909
 21
1218.320645950699
 31
0.0
  0
LINE
  5
3AD0
330
1A
100
AcDbEntity
  8
外形線
100
AcDbLine
 10
830.81290957991
 20
1206.602141950699
 30
0.0
 11
875.91815557991
 21
1223.019108950699
 31
0.0
  0
LINE
  5
3AD1
330
1A
100
AcDbEntity
  8
外形線
100
AcDbLine
 10
831.72858357991
 20
1201.614530950699
 30
0.0
 11
820.19104357991
 21
1181.637958950699
 31
0.0
  0
LINE
  5
3AD2
330
1A
100
AcDbEntity
  8
細線
100
AcDbLine
 10
832.71182557991
 20
1142.908823950699
 30
0.0
 11
838.34998157991
 21
1144.960944950699
 31
0.0
  0
LINE
  5
3AD3
330
1A
100
AcDbEntity
  8
外形線
100
AcDbLine
 10
834.76394657991
 20
1137.270667950699
 30
0.0
 11
840.40210257991
 21
1139.322788950699
 31
0.0
  0
LINE
  5
3AD4
330
1A
100
AcDbEntity
  8
外形線
100
AcDbLine
 10
831.29538457991
 20
1165.805192950699
 30
0.0
 11
840.18790857991
 21
1141.373183950699
 31
0.0
  0
LINE
  5
3AD5
330
1A
100
AcDbEntity
  8
外形線
100
AcDbLine
 10
830.141498579909
 20
1167.513567950699
 30
0.0
 11
840.40210257991
 21
1139.322788950699
 31
0.0
  0
LINE
  5
3AD6
330
1A
100
AcDbEntity
  8
外形線
100
AcDbLine
 10
841.55543857991
 20
1137.615924950699
 30
0.0
 11
829.92675457991
 21
1169.565473950699
 31
0.0
  0
ARC
  5
3AD7
330
1A
100
AcDbEntity
  8
外形線
100
AcDbCircle
 10
811.75979557991
 20
1153.693183950699
 30
0.0
 40
5.0
100
AcDbArc
 50
110.000000000004
 51
199.999999999998
  0
ARC
  5
3AD8
330
1A
100
AcDbEntity
  8
細線
100
AcDbCircle
 10
817.46943257991
 20
1159.708779950699
 30
0.0
 40
4.119219
100
AcDbArc
 50
153.256486999997
 51
246.743512999999
  0
LINE
  5
3AD9
330
1A
100
AcDbEntity
  8
細線
100
AcDbLine
 10
815.84296757991
 20
1155.924260950699
 30
0.0
 11
824.676078579909
 21
1159.139250950699
 31
0.0
  0
LINE
  5
3ADA
330
1A
100
AcDbEntity
  8
外形線
100
AcDbLine
 10
812.86877257991
 20
1159.417706950699
 30
0.0
 11
821.966508579909
 21
1134.421883950699
 31
0.0
  0
LINE
  5
3ADB
330
1A
100
AcDbEntity
  8
外形線
100
AcDbLine
 10
822.62395757991
 20
1164.777406950699
 30
0.0
 11
832.88456157991
 21
1136.586627950699
 31
0.0
  0
LINE
  5
3ADC
330
1A
100
AcDbEntity
  8
外形線
100
AcDbLine
 10
824.503342579909
 20
1165.461446950699
 30
0.0
 11
834.76394657991
 21
1137.270667950699
 31
0.0
  0
LINE
  5
3ADD
330
1A
100
AcDbEntity
  8
外形線
100
AcDbLine
 10
819.147430579909
 20
1133.395822950699
 30
0.0
 11
821.966508579909
 21
1134.421883950699
 31
0.0
  0
ARC
  5
3ADE
330
1A
100
AcDbEntity
  8
細線
100
AcDbCircle
 10
833.68036757991
 20
1152.838943950699
 30
0.0
 40
16.998295
100
AcDbArc
 50
177.518116000003
 51
222.481884
  0
LINE
  5
3ADF
330
1A
100
AcDbEntity
  8
細線
100
AcDbLine
 10
816.69801757991
 20
1153.575029950699
 30
0.0
 11
825.53112857991
 21
1156.790018950699
 31
0.0
  0
LINE
  5
3AE0
330
1A
100
AcDbEntity
  8
外形線
100
AcDbLine
 10
807.06133257991
 20
1151.983082950699
 30
0.0
 11
812.73886657991
 21
1136.384185950699
 31
0.0
  0
LINE
  5
3AE1
330
1A
100
AcDbEntity
  8
細線
100
AcDbLine
 10
816.69801757991
 20
1153.575029950699
 30
0.0
 11
815.84296757991
 21
1155.924260950699
 31
0.0
  0
LINE
  5
3AE2
330
1A
100
AcDbEntity
  8
外形線
100
AcDbLine
 10
831.345470579909
 20
1140.815244950699
 30
0.0
 11
833.22485657991
 21
1141.499284950699
 31
0.0
  0
LINE
  5
3AE3
330
1A
100
AcDbEntity
  8
細線
100
AcDbLine
 10
821.14427957991
 20
1141.359025950699
 30
0.0
 11
821.99933057991
 21
1139.009793950699
 31
0.0
  0
LINE
  5
3AE4
330
1A
100
AcDbEntity
  8
外形線
100
AcDbLine
 10
821.966508579909
 20
1134.421883950699
 30
0.0
 11
824.05145057991
 21
1133.371638950699
 31
0.0
  0
LINE
  5
3AE5
330
1A
100
AcDbEntity
  8
外形線
100
AcDbLine
 10
832.88456157991
 20
1136.586627950699
 30
0.0
 11
824.05145057991
 21
1133.371638950699
 31
0.0
  0
LINE
  5
3AE6
330
1A
100
AcDbEntity
  8
細線
100
AcDbLine
 10
821.14427957991
 20
1141.359025950699
 30
0.0
 11
829.97739057991
 21
1144.574014950699
 31
0.0
  0
LINE
  5
3AE7
330
1A
100
AcDbEntity
  8
細線
100
AcDbLine
 10
821.99933057991
 20
1139.009793950699
 30
0.0
 11
830.83244057991
 21
1142.224783950699
 31
0.0
  0
ARC
  5
3AE8
330
1A
100
AcDbEntity
  8
外形線
100
AcDbCircle
 10
821.04692957991
 20
1181.120793950699
 30
0.0
 40
1.0
100
AcDbArc
 50
148.857721999997
 51
239.3
  0
LINE
  5
3AE9
330
1A
100
AcDbEntity
  8
外形線
100
AcDbLine
 10
822.62395757991
 20
1164.777406950699
 30
0.0
 11
813.79084657991
 21
1161.562416950699
 31
0.0
  0
LINE
  5
3AEA
330
1A
100
AcDbEntity
  8
外形線
100
AcDbLine
 10
812.86877257991
 20
1159.417706950699
 30
0.0
 11
813.79084657991
 21
1161.562416950699
 31
0.0
  0
LINE
  5
3AEB
330
1A
100
AcDbEntity
  8
外形線
100
AcDbLine
 10
810.04969457991
 20
1158.391646950699
 30
0.0
 11
812.86877257991
 21
1159.417706950699
 31
0.0
  0
LINE
  5
3AEC
330
1A
100
AcDbEntity
  8
外形線
100
AcDbLine
 10
821.802479579909
 20
1179.507477950699
 30
0.0
 11
820.53638657991
 21
1180.260941950699
 31
0.0
  0
LINE
  5
3AED
330
1A
100
AcDbEntity
  8
細線
100
AcDbLine
 10
826.55546357991
 20
1159.823290950699
 30
0.0
 11
832.19361957991
 21
1161.875411950699
 31
0.0
  0
LINE
  5
3AEE
330
1A
100
AcDbEntity
  8
外形線
100
AcDbLine
 10
824.503342579909
 20
1165.461446950699
 30
0.0
 11
830.141498579909
 21
1167.513567950699
 31
0.0
  0
LINE
  5
3AEF
330
1A
100
AcDbEntity
  8
外形線
100
AcDbLine
 10
824.16304757991
 20
1160.548789950699
 30
0.0
 11
826.04243357991
 21
1161.232829950699
 31
0.0
  0
LINE
  5
3AF0
330
1A
100
AcDbEntity
  8
外形線
100
AcDbLine
 10
823.60283257991
 20
1175.245088950699
 30
0.0
 11
822.242172579909
 21
1178.983471950699
 31
0.0
  0
CIRCLE
  5
3AF1
330
1A
100
AcDbEntity
  8
外形線
100
AcDbCircle
 10
828.771141579909
 20
1177.126198950699
 30
0.0
 40
2.0
  0
LINE
  5
3AF2
330
1A
100
AcDbEntity
  8
外形線
100
AcDbLine
 10
830.82553857991
 20
1165.634181950699
 30
0.0
 11
831.29538457991
 21
1165.805192950699
 31
0.0
  0
LINE
  5
3AF3
330
1A
100
AcDbEntity
  8
外形線
100
AcDbLine
 10
829.773199579909
 20
1169.987362950699
 30
0.0
 11
829.656935579909
 21
1170.306795950699
 31
0.0
  0
ARC
  5
3AF4
330
1A
100
AcDbEntity
  8
外形線
100
AcDbCircle
 10
827.77754957991
 20
1169.622754950699
 30
0.0
 40
2.0
100
AcDbArc
 50
19.999999999998
 51
78.034281
  0
ARC
  5
3AF5
330
1A
100
AcDbEntity
  8
外形線
100
AcDbCircle
 10
828.63680157991
 20
1167.389125950699
 30
0.0
 40
1.0
100
AcDbArc
 50
113.000000000001
 51
199.999999999998
  0
LINE
  5
3AF6
330
1A
100
AcDbEntity
  8
外形線
100
AcDbLine
 10
829.22423757991
 20
1168.724837950699
 30
0.0
 11
828.24607057991
 21
1168.309630950699
 31
0.0
  0
LINE
  5
3AF7
330
1A
100
AcDbEntity
  8
外形線
100
AcDbLine
 10
827.833130579909
 20
1166.673389950699
 30
0.0
 11
827.697109579909
 21
1167.047105950699
 31
0.0
  0
ARC
  5
3AF8
330
1A
100
AcDbEntity
  8
外形線
100
AcDbCircle
 10
828.833506579909
 20
1169.645342950699
 30
0.0
 40
1.0
100
AcDbArc
 50
293.000000000001
 51
19.999999999998
  0
ARC
  5
3AF9
330
1A
100
AcDbEntity
  8
外形線
100
AcDbCircle
 10
830.86644657991
 20
1169.907494950699
 30
0.0
 40
1.0
100
AcDbArc
 50
110.000000000004
 51
199.999999999998
  0
ARC
  5
3AFA
330
1A
100
AcDbEntity
  8
外形線
100
AcDbCircle
 10
828.771141579909
 20
1177.126198950699
 30
0.0
 40
5.5
100
AcDbArc
 50
199.999999999998
 51
290.000000000004
  0
ARC
  5
3AFB
330
1A
100
AcDbEntity
  8
外形線
100
AcDbCircle
 10
821.302479579909
 20
1178.641451950699
 30
0.0
 40
1.0
100
AcDbArc
 50
19.999999999998
 51
59.999999999999
  0
LINE
  5
3AFC
330
1A
100
AcDbEntity
  8
細線
100
AcDbLine
 10
850.98346257991
 20
1151.876753950699
 30
0.0
 11
857.63420357991
 21
1166.977006950699
 31
0.0
  0
CIRCLE
  5
3AFD
330
1A
100
AcDbEntity
  8
外形線
100
AcDbCircle
 10
853.16487457991
 20
1159.930724950699
 30
0.0
 40
13.802115
  0
LINE
  5
3AFE
330
1A
100
AcDbEntity
  8
細線
100
AcDbLine
 10
848.69554457991
 20
1152.884441950699
 30
0.0
 11
855.346286579909
 21
1167.984694950699
 31
0.0
  0
ARC
  5
3AFF
330
1A
100
AcDbEntity
  8
外形線
100
AcDbCircle
 10
855.73719657991
 20
1139.585129950699
 30
0.0
 40
2.0
100
AcDbArc
 50
19.999999999998
 51
110.000000000004
  0
LINE
  5
3B00
330
1A
100
AcDbEntity
  8
外形線
100
AcDbLine
 10
839.71806257991
 20
1141.202173950699
 30
0.0
 11
840.18790857991
 21
1141.373183950699
 31
0.0
  0
LINE
  5
3B01
330
1A
100
AcDbEntity
  8
外形線
100
AcDbLine
 10
839.71806257991
 20
1141.202173950699
 30
0.0
 11
840.18790857991
 21
1141.373183950699
 31
0.0
  0
LINE
  5
3B02
330
1A
100
AcDbEntity
  8
細線
100
AcDbLine
 10
850.98346257991
 20
1151.876753950699
 30
0.0
 11
848.69554457991
 21
1152.884441950699
 31
0.0
  0
ARC
  5
3B03
330
1A
100
AcDbEntity
  8
外形線
100
AcDbCircle
 10
842.49513157991
 20
1137.957945950699
 30
0.0
 40
1.0
100
AcDbArc
 50
199.999999999998
 51
290.000000000004
  0
ARC
  5
3B04
330
1A
100
AcDbEntity
  8
外形線
100
AcDbCircle
 10
844.29262957991
 20
1138.866969950699
 30
0.0
 40
3.0
100
AcDbArc
 50
210.752126999997
 51
245.000000000001
  0
LINE
  5
3B05
330
1A
100
AcDbEntity
  8
細線
100
AcDbLine
 10
857.63420357991
 20
1166.977006950699
 30
0.0
 11
855.346286579909
 21
1167.984694950699
 31
0.0
  0
ARC
  5
3B06
330
1A
100
AcDbEntity
  8
細線
100
AcDbCircle
 10
863.22999657991
 20
1173.966350950699
 30
0.0
 40
1.2
100
AcDbArc
 50
19.999999999998
 51
72.769032000001
  0
LINE
  5
3B07
330
1A
100
AcDbEntity
  8
細線
100
AcDbLine
 10
858.24535857991
 20
1180.936780950699
 30
0.0
 11
859.751861579909
 21
1176.797699950699
 31
0.0
  0
ARC
  5
3B08
330
1A
100
AcDbEntity
  8
細線
100
AcDbCircle
 10
860.87949257991
 20
1177.208123950699
 30
0.0
 40
1.2
100
AcDbArc
 50
199.999999999998
 51
252.769032000001
  0
LINE
  5
3B09
330
1A
100
AcDbEntity
  8
細線
100
AcDbLine
 10
860.524023579909
 20
1176.061981950699
 30
0.0
 11
863.58546657991
 21
1175.112492950699
 31
0.0
  0
LINE
  5
3B0A
330
1A
100
AcDbEntity
  8
外形線
100
AcDbLine
 10
831.88215357991
 20
1202.202514950699
 30
0.0
 11
830.38888557991
 21
1206.305236950699
 31
0.0
  0
LINE
  5
3B0B
330
1A
100
AcDbEntity
  8
外形線
100
AcDbLine
 10
835.81193457991
 20
1203.100748950699
 30
0.0
 11
831.72858357991
 21
1201.614530950699
 31
0.0
  0
LINE
  5
3B0C
330
1A
100
AcDbEntity
  8
外形線
100
AcDbLine
 10
832.52301057991
 20
1201.903678950699
 30
0.0
 11
831.88215357991
 21
1202.202514950699
 31
0.0
  0
LINE
  5
3B0D
330
1A
100
AcDbEntity
  8
外形線
100
AcDbLine
 10
820.65052657991
 20
1182.512207950699
 30
0.0
 11
820.65052657991
 21
1182.512207950699
 31
0.0
  0
ARC
  5
3B0E
330
1A
100
AcDbEntity
  8
外形線
100
AcDbCircle
 10
831.15492957991
 20
1205.662448950699
 30
0.0
 40
1.0
100
AcDbArc
 50
110.000000000004
 51
139.999999999997
  0
LINE
  5
3B0F
330
1A
100
AcDbEntity
  8
細線
100
AcDbLine
 10
857.90333857991
 20
1181.876473950699
 30
0.0
 11
848.51466757991
 21
1207.724165950699
 31
0.0
  0
LINE
  5
3B10
330
1A
100
AcDbEntity
  8
外形線
100
AcDbLine
 10
939.70099257991
 20
1145.849039950699
 30
0.0
 11
943.76904957991
 21
1161.031232950699
 31
0.0
  0
ARC
  5
3B11
330
1A
100
AcDbEntity
  8
外形線
100
AcDbCircle
 10
942.59877057991
 20
1145.072582950699
 30
0.0
 40
3.0
100
AcDbArc
 50
164.999999999999
 51
199.999999999998
  0
ARC
  5
3B12
330
1A
100
AcDbEntity
  8
外形線
100
AcDbCircle
 10
939.68739257991
 20
1141.376310950699
 30
0.0
 40
1.0
100
AcDbArc
 50
350.000000000001
 51
19.999999999998
  0
LINE
  5
3B13
330
1A
100
AcDbEntity
  8
外形線
100
AcDbLine
 10
940.62708557991
 20
1141.718330950699
 30
0.0
 11
939.77969257991
 21
1144.046521950699
 31
0.0
  0
LINE
  5
3B14
330
1A
100
AcDbEntity
  8
外形線
100
AcDbLine
 10
932.08325357991
 20
1207.811576950699
 30
0.0
 11
933.502350579909
 21
1203.912641950699
 31
0.0
  0
ARC
  5
3B15
330
1A
100
AcDbEntity
  8
外形線
100
AcDbCircle
 10
912.080673579909
 20
1201.063321950699
 30
0.0
 40
30.0
100
AcDbArc
 50
331.874802000002
 51
18.023891999998
  0
ARC
  5
3B16
330
1A
100
AcDbEntity
  8
外形線
100
AcDbCircle
 10
934.696025579909
 20
1200.408945950699
 30
0.0
 40
2.0
100
AcDbArc
 50
153.908267999999
 51
199.999999999998
  0
LINE
  5
3B17
330
1A
100
AcDbEntity
  8
外形線
100
AcDbLine
 10
933.419146579909
 20
1202.348982950699
 30
0.0
 11
932.89984357991
 21
1201.288564950699
 31
0.0
  0
ARC
  5
3B18
330
1A
100
AcDbEntity
  8
外形線
100
AcDbCircle
 10
931.62296457991
 20
1203.228601950699
 30
0.0
 40
2.0
100
AcDbArc
 50
333.908267999999
 51
19.999999999998
  0
ARC
  5
3B19
330
1A
100
AcDbEntity
  8
外形線
100
AcDbCircle
 10
941.18402157991
 20
1185.507129950699
 30
0.0
 40
3.0
100
AcDbArc
 50
151.874802000002
 51
199.999999999998
  0
LINE
  5
3B1A
330
1A
100
AcDbEntity
  8
外形線
100
AcDbLine
 10
934.96528457991
 20
1223.709646950699
 30
0.0
 11
928.60871757991
 21
1221.396045950699
 31
0.0
  0
LINE
  5
3B1B
330
1A
100
AcDbEntity
  8
外形線
100
AcDbLine
 10
932.78533757991
 20
1228.237099950699
 30
0.0
 11
926.76484157991
 21
1226.045818950699
 31
0.0
  0
ARC
  5
3B1C
330
1A
100
AcDbEntity
  8
外形線
100
AcDbCircle
 10
930.25741457991
 20
1222.528210950699
 30
0.0
 40
2.0
100
AcDbArc
 50
200.999999999998
 51
290.000000000004
  0
ARC
  5
3B1D
330
1A
100
AcDbEntity
  8
外形線
100
AcDbCircle
 10
932.95634757991
 20
1227.767253950699
 30
0.0
 40
0.5
100
AcDbArc
 50
19.999999999998
 51
110.000000000004
  0
LINE
  5
3B1E
330
1A
100
AcDbEntity
  8
外形線
100
AcDbLine
 10
935.478314579909
 20
1222.300107950699
 30
0.0
 11
930.94145457991
 21
1220.648825950699
 31
0.0
  0
LINE
  5
3B1F
330
1A
100
AcDbEntity
  8
外形線
100
AcDbLine
 10
934.991059579909
 20
1222.122761950699
 30
0.0
 11
930.94145457991
 21
1220.648825950699
 31
0.0
  0
ARC
  5
3B20
330
1A
100
AcDbEntity
  8
外形線
100
AcDbCircle
 10
935.33308057991
 20
1221.183068950699
 30
0.0
 40
1.0
100
AcDbArc
 50
27.803102999996
 51
110.000000000004
  0
LINE
  5
3B21
330
1A
100
AcDbEntity
  8
外形線
100
AcDbLine
 10
933.42619457991
 20
1227.938263950699
 30
0.0
 11
935.478314579909
 21
1222.300107950699
 31
0.0
  0
LINE
  5
3B22
330
1A
100
AcDbEntity
  8
外形線
100
AcDbLine
 10
939.31555257991
 20
1210.976007950699
 30
0.0
 11
930.90052657991
 21
1207.913188950699
 31
0.0
  0
ARC
  5
3B23
330
1A
100
AcDbEntity
  8
外形線
100
AcDbCircle
 10
930.55850657991
 20
1208.852881950699
 30
0.0
 40
1.0
100
AcDbArc
 50
229.999999999997
 51
290.000000000004
  0
LINE
  5
3B24
330
1A
100
AcDbEntity
  8
外形線
100
AcDbLine
 10
930.27679357991
 20
1207.718502950699
 30
0.0
 11
930.27679357991
 21
1207.718502950699
 31
0.0
  0
ARC
  5
3B25
330
1A
100
AcDbEntity
  8
外形線
100
AcDbCircle
 10
938.989738579909
 20
1211.921598950699
 30
0.0
 40
1.0
100
AcDbArc
 50
350.000000000001
 51
19.999999999998
  0
ARC
  5
3B26
330
1A
100
AcDbEntity
  8
外形線
100
AcDbCircle
 10
939.65757257991
 20
1210.036314950699
 30
0.0
 40
1.0
100
AcDbArc
 50
18.023891999998
 51
110.000000000004
  0
LINE
  5
3B27
330
1A
100
AcDbEntity
  8
外形線
100
AcDbLine
 10
939.92943157991
 20
1212.263618950699
 30
0.0
 11
937.87174357991
 21
1217.917071950699
 31
0.0
  0
ARC
  5
3B28
330
1A
100
AcDbEntity
  8
外形線
100
AcDbCircle
 10
909.68096457991
 20
1207.656466950699
 30
0.0
 40
30.0
100
AcDbArc
 50
19.999999999998
 51
27.803102999996
  0
LINE
  5
3B29
330
1A
100
AcDbEntity
  8
外形線
100
AcDbLine
 10
926.67906157991
 20
1220.161619950699
 30
0.0
 11
931.142707579909
 21
1208.533423950699
 31
0.0
  0
LINE
  5
3B2A
330
1A
100
AcDbEntity
  8
外形線
100
AcDbLine
 10
944.39295457991
 20
1161.712105950699
 30
0.0
 11
945.448197579909
 21
1162.096182950699
 31
0.0
  0
ARC
  5
3B2B
330
1A
100
AcDbEntity
  8
外形線
100
AcDbCircle
 10
945.10617757991
 20
1163.035875950699
 30
0.0
 40
1.0
100
AcDbArc
 50
290.000000000004
 51
19.999999999998
  0
ARC
  5
3B2C
330
1A
100
AcDbEntity
  8
外形線
100
AcDbCircle
 10
921.365421579909
 20
1238.496382950699
 30
0.0
 40
1.0
100
AcDbArc
 50
80.000000000001
 51
110.000000000004
  0
LINE
  5
3B2D
330
1A
100
AcDbEntity
  8
外形線
100
AcDbLine
 10
922.733501579909
 20
1234.737611950699
 30
0.0
 11
923.032338579909
 21
1235.378468950699
 31
0.0
  0
ARC
  5
3B2E
330
1A
100
AcDbEntity
  8
外形線
100
AcDbCircle
 10
925.766997579909
 20
1231.435717950699
 30
0.0
 40
1.0
100
AcDbArc
 50
200.999999999998
 51
232.911075999997
  0
LINE
  5
3B2F
330
1A
100
AcDbEntity
  8
外形線
100
AcDbLine
 10
923.032338579909
 20
1235.378468950699
 30
0.0
 11
921.539069579909
 21
1239.481190950699
 31
0.0
  0
DIMENSION
  5
3B30
330
1A
100
AcDbEntity
  8
寸法線
 48
10.0
100
AcDbDimension
  2
*D5
 10
1032.601704119378
 20
839.315466631615
 30
0.0
 11
1057.99185930035
 21
856.672549318425
 31
0.0
 70
    33
  1
φ<>
 71
     5
 42
31.999999710225
  3
ISO-25
100
AcDbAlignedDimension
 13
1002.53154054576
 23
828.370822091466
 33
0.0
 14
1032.601704119378
 24
839.315466631615
 34
0.0
1001
ACAD
1000
DSTYLE
1002
{
1070
    41
1040
13.0
1070
    47
1040
0.1
1070
    48
1040
0.1
1070
    73
1070
     0
1070
   140
1040
14.0
1070
   271
1070
     1
1070
   272
1070
     1
1070
   341
1005
2AEC
1070
   342
1005
2AEC
1002
}
  0
DIMENSION
  5
3B33
330
1A
100
AcDbEntity
  8
寸法線
 48
10.0
100
AcDbDimension
  2
*D6
 10
726.017826964654
 20
472.002282216737
 30
0.0
 11
726.017826964654
 21
860.763945133991
 31
0.0
 70
   160
  1
796
 71
     5
 42
796.63703108442
  3
ISO-25
100
AcDbAlignedDimension
 13
901.234995169045
 23
1268.639313301157
 33
0.0
 14
1071.155277605152
 24
472.002282216737
 34
0.0
 50
90.0
100
AcDbRotatedDimension
1001
ACAD
1000
DSTYLE
1002
{
1070
    41
1040
13.0
1070
    47
1040
0.1
1070
    48
1040
0.1
1070
    73
1070
     0
1070
   140
1040
14.0
1070
   271
1070
     1
1070
   272
1070
     1
1070
   341
1005
2AEC
1070
   342
1005
2AEC
1002
}
  0
DIMENSION
  5
3B34
330
1A
100
AcDbEntity
  8
寸法線
 48
10.0
100
AcDbDimension
  2
*D7
 10
1141.710573119735
 20
1354.345415178233
 30
0.0
 11
1279.373680939487
 21
976.119135181643
 31
0.0
 70
   161
 71
     5
 42
805.000000334539
  3
ISO-25
100
AcDbAlignedDimension
 13
1177.217916441109
 23
510.605923992858
 33
0.0
 14
901.891700801605
 24
1267.058483986039
 34
0.0
1001
ACAD
1000
DSTYLE
1002
{
1070
    41
1040
13.0
1070
    47
1040
0.1
1070
    48
1040
0.1
1070
    73
1070
     0
1070
   140
1040
14.0
1070
   271
1070
     1
1070
   272
1070
     1
1070
   341
1005
2AEC
1070
   342
1005
2AEC
1002
}
  0
DIMENSION
  5
3B35
330
1A
100
AcDbEntity
  8
寸法線
 48
10.0
100
AcDbDimension
  2
*D8
 10
1225.641064370201
 20
477.964954722985
 30
0.0
 11
1176.445383600732
 21
460.284721983696
 31
0.0
 70
   161
  1
φ149
 71
     5
 42
148.001214558808
  3
ISO-25
100
AcDbAlignedDimension
 13
1070.386249946685
 23
472.360885703213
 33
0.0
 14
1209.665968903089
 24
522.416049256112
 34
0.0
1001
ACAD
1000
DSTYLE
1002
{
1070
    41
1040
13.0
1070
    47
1040
0.1
1070
    48
1040
0.1
1070
    73
1070
     0
1070
   140
1040
14.0
1070
   271
1070
     1
1070
   272
1070
     1
1070
   341
1005
2AEC
1070
   342
1005
2AEC
1002
}
  0
DIMENSION
  5
3B36
330
1A
100
AcDbEntity
  8
寸法線
 48
10.0
100
AcDbDimension
  2
*D9
 10
974.070147169045
 20
634.670686301157
 30
0.0
 11
1087.455999661545
 21
310.305605074206
 31
0.0
 70
    34
  1
Max.<>
 71
     5
 42
0.349065850594
  3
ISO-25
100
AcDb2LineAngularDimension
 13
850.029493169045
 23
1294.147624301157
 33
0.0
 14
1175.308782169045
 24
400.450123301157
 34
0.0
 15
974.070147169045
 25
947.800403301157
 35
0.0
 16
1050.759904768456
 26
297.225920154102
 36
0.0
1001
ACAD
1000
DSTYLE
1002
{
1070
    41
1040
13.0
1070
    47
1040
0.1
1070
    48
1040
0.1
1070
    73
1070
     0
1070
   140
1040
14.0
1070
   271
1070
     1
1070
   272
1070
     1
1070
   341
1005
2AEC
1070
   342
1005
2AEC
1002
}
  0
LINE
  5
3B37
330
1A
100
AcDbEntity
  8
中心線
 48
10.0
100
AcDbLine
 10
974.070147169045
 20
953.348728549126
 30
0.0
 11
974.070147169045
 21
634.670686301157
 31
0.0
  0
ARC
  5
3B3A
330
1A
100
AcDbEntity
  8
細線
100
AcDbCircle
 10
1155.202218253266
 20
607.730281898621
 30
0.0
 40
0.5
100
AcDbArc
 50
20.000000000001
 51
109.978784999998
  0
LINE
  5
3B3B
330
1A
100
AcDbEntity
  8
細線
100
AcDbLine
 10
1154.920861253267
 20
605.287118898621
 30
0.0
 11
1156.424572253266
 21
605.833793898621
 31
0.0
  0
ARC
  5
3B3C
330
1A
100
AcDbEntity
  8
細線
100
AcDbCircle
 10
1150.177759253266
 20
606.915846898621
 30
0.0
 40
0.5
100
AcDbArc
 50
20.000000000001
 51
110.000000000004
  0
LINE
  5
3B3D
330
1A
100
AcDbEntity
  8
細線
100
AcDbLine
 10
1148.186212253267
 20
606.457026898621
 30
0.0
 11
1148.101558253266
 21
606.692259898621
 31
0.0
  0
LINE
  5
3B3E
330
1A
100
AcDbEntity
  8
細線
100
AcDbLine
 10
1147.315498253266
 20
607.470334898621
 30
0.0
 11
1147.657518253266
 21
606.530642898621
 31
0.0
  0
LINE
  5
3B3F
330
1A
100
AcDbEntity
  8
細線
100
AcDbLine
 10
1147.657518253266
 20
606.530642898621
 30
0.0
 11
1150.006749253266
 21
607.385692898621
 31
0.0
  0
LINE
  5
3B40
330
1A
100
AcDbEntity
  8
細線
100
AcDbLine
 10
1146.803330253266
 20
605.953698898621
 30
0.0
 11
1150.499153253267
 21
607.298868898621
 31
0.0
  0
LINE
  5
3B41
330
1A
100
AcDbEntity
  8
細線
100
AcDbLine
 10
1155.331285253267
 20
604.159486898621
 30
0.0
 11
1156.834996253267
 21
604.706162898621
 31
0.0
  0
ARC
  5
3B42
330
1A
100
AcDbEntity
  8
細線
100
AcDbCircle
 10
1157.117531253266
 20
602.468002898621
 30
0.0
 40
0.5
100
AcDbArc
 50
289.978784999998
 51
20.000000000001
  0
LINE
  5
3B43
330
1A
100
AcDbEntity
  8
細線
100
AcDbLine
 10
1154.938993253266
 20
601.143975898621
 30
0.0
 11
1157.288367253266
 21
601.998092898621
 31
0.0
  0
LINE
  5
3B44
330
1A
100
AcDbEntity
  8
細線
100
AcDbLine
 10
1156.834996253267
 20
604.706162898621
 30
0.0
 11
1157.587377253267
 21
602.639012898621
 31
0.0
  0
ARC
  5
3B45
330
1A
100
AcDbEntity
  8
細線
100
AcDbCircle
 10
1152.742911253267
 20
599.868151898621
 30
0.0
 40
0.5
100
AcDbArc
 50
290.000000000004
 51
20.000000000001
  0
LINE
  5
3B46
330
1A
100
AcDbEntity
  8
細線
100
AcDbLine
 10
1153.028832253267
 20
603.468295898621
 30
0.0
 11
1153.620847253266
 21
604.765552898621
 31
0.0
  0
LINE
  5
3B47
330
1A
100
AcDbEntity
  8
細線
100
AcDbLine
 10
1154.135982253266
 20
600.426426898621
 30
0.0
 11
1155.075801253266
 21
600.768098898621
 31
0.0
  0
ARC
  5
3B48
330
1A
100
AcDbEntity
  8
細線
100
AcDbCircle
 10
1152.742911253267
 20
599.868151898621
 30
0.0
 40
1.5
100
AcDbArc
 50
290.000000000004
 51
20.000000000001
  0
LINE
  5
3B49
330
1A
100
AcDbEntity
  8
細線
100
AcDbLine
 10
1150.979800253266
 20
598.694342898621
 30
0.0
 11
1150.895146253266
 21
598.929575898621
 31
0.0
  0
ARC
  5
3B4A
330
1A
100
AcDbEntity
  8
細線
100
AcDbCircle
 10
1150.308173781204
 20
599.248025469247
 30
0.0
 40
1.0
100
AcDbArc
 50
200.000000000001
 51
290.000000000004
  0
LINE
  5
3B4B
330
1A
100
AcDbEntity
  8
細線
100
AcDbLine
 10
1150.564689253266
 20
598.543254898621
 30
0.0
 11
1150.906709253266
 21
597.603562898621
 31
0.0
  0
LINE
  5
3B4C
330
1A
100
AcDbEntity
  8
細線
100
AcDbLine
 10
1150.564689253266
 20
598.543254898621
 30
0.0
 11
1152.913921253266
 21
599.398305898621
 31
0.0
  0
LINE
  5
3B4D
330
1A
100
AcDbEntity
  8
細線
100
AcDbLine
 10
1150.906709253266
 20
597.603562898621
 30
0.0
 11
1153.255941253266
 21
598.458612898621
 31
0.0
  0
LINE
  5
3B4E
330
1A
100
AcDbEntity
  8
細線
100
AcDbLine
 10
1149.539491253266
 20
598.436157898621
 30
0.0
 11
1153.235314253267
 21
599.781327898621
 31
0.0
  0
LINE
  5
3B4F
330
1A
100
AcDbEntity
  8
細線
100
AcDbLine
 10
1152.806605253267
 20
604.078857898621
 30
0.0
 11
1153.398620253266
 21
605.376114898621
 31
0.0
  0
LINE
  5
3B50
330
1A
100
AcDbEntity
  8
細線
100
AcDbLine
 10
1154.920861253267
 20
605.287118898621
 30
0.0
 11
1155.331285253267
 21
604.159486898621
 31
0.0
  0
LINE
  5
3B51
330
1A
100
AcDbEntity
  8
細線
100
AcDbLine
 10
1150.647606253267
 20
607.086856898621
 30
0.0
 11
1153.212757253266
 21
600.039161898621
 31
0.0
  0
LINE
  5
3B52
330
1A
100
AcDbEntity
  8
細線
100
AcDbLine
 10
1151.587298253266
 20
607.428876898621
 30
0.0
 11
1154.152449253266
 21
600.381181898621
 31
0.0
  0
LINE
  5
3B53
330
1A
100
AcDbEntity
  8
細線
100
AcDbLine
 10
1152.681660253267
 20
607.345947898621
 30
0.0
 11
1155.031382253266
 21
608.200191898621
 31
0.0
  0
LINE
  5
3B54
330
1A
100
AcDbEntity
  8
細線
100
AcDbLine
 10
1155.672064253266
 20
607.901291898621
 30
0.0
 11
1156.424572253266
 21
605.833793898621
 31
0.0
  0
ARC
  5
3B55
330
1A
100
AcDbEntity
  8
細線
100
AcDbCircle
 10
1150.177759253266
 20
606.915846898621
 30
0.0
 40
1.5
100
AcDbArc
 50
20.000000000001
 51
110.000000000004
  0
LINE
  5
3B56
330
1A
100
AcDbEntity
  8
細線
100
AcDbLine
 10
1151.605033253266
 20
607.380152898621
 30
0.0
 11
1152.544852253267
 21
607.721824898621
 31
0.0
  0
LINE
  5
3B57
330
1A
100
AcDbEntity
  8
細線
100
AcDbLine
 10
1147.315498253266
 20
607.470334898621
 30
0.0
 11
1149.664729253266
 21
608.325385898621
 31
0.0
  0
LINE
  5
3B58
330
1A
100
AcDbEntity
  8
細線
100
AcDbLine
 10
1152.544852253267
 20
607.721824898621
 30
0.0
 11
1155.075801253266
 21
600.768098898621
 31
0.0
  0
ARC
  5
3B59
330
1A
100
AcDbEntity
  8
外形線
100
AcDbCircle
 10
920.316906169045
 20
1245.031910301157
 30
0.0
 40
1.0
100
AcDbArc
 50
20.000000000001
 51
110.000000000004
  0
LINE
  5
3B5A
330
1A
100
AcDbEntity
  8
外形線
100
AcDbLine
 10
923.137709169045
 20
1240.205621301157
 30
0.0
 11
921.256599169045
 21
1245.373930301157
 31
0.0
  0
ARC
  5
3B5B
330
1A
100
AcDbEntity
  8
細線
100
AcDbCircle
 10
905.857043169045
 20
1263.180861301157
 30
0.0
 40
2.0
100
AcDbArc
 50
20.000000000001
 51
110.000000000004
  0
LINE
  5
3B5C
330
1A
100
AcDbEntity
  8
細線
100
AcDbLine
 10
905.173002169045
 20
1265.060246301157
 30
0.0
 11
902.276139169045
 21
1264.005874301157
 31
0.0
  0
ARC
  5
3B5D
330
1A
100
AcDbEntity
  8
外形線
100
AcDbCircle
 10
904.973967169045
 20
1264.987803301157
 30
0.0
 40
3.0
100
AcDbArc
 50
20.000000000001
 51
110.000000000004
  0
ARC
  5
3B5E
330
1A
100
AcDbEntity
  8
外形線
100
AcDbCircle
 10
907.603075169045
 20
1264.880543301157
 30
0.0
 40
4.0
100
AcDbArc
 50
22.999999999999
 51
110.000000000004
  0
ARC
  5
3B5F
330
1A
100
AcDbEntity
  8
細線
100
AcDbCircle
 10
891.151837169045
 20
1258.360693301157
 30
0.0
 40
1.5
100
AcDbArc
 50
20.000000000001
 51
110.000000000004
  0
ARC
  5
3B60
330
1A
100
AcDbEntity
  8
外形線
100
AcDbCircle
 10
882.799398169045
 20
1259.045276301157
 30
0.0
 40
1.0
100
AcDbArc
 50
20.000000000001
 51
110.000000000004
  0
ARC
  5
3B61
330
1A
100
AcDbEntity
  8
外形線
100
AcDbCircle
 10
888.086370169045
 20
1260.969576301157
 30
0.0
 40
1.0
100
AcDbArc
 50
110.000000000004
 51
162.864563999998
  0
ARC
  5
3B62
330
1A
100
AcDbEntity
  8
外形線
100
AcDbCircle
 10
889.742029169045
 20
1259.443832301157
 30
0.0
 40
3.0
100
AcDbArc
 50
20.000000000001
 51
110.000000000004
  0
LINE
  5
3B63
330
1A
100
AcDbEntity
  8
外形線
100
AcDbLine
 10
887.744350169045
 20
1261.909269301157
 30
0.0
 11
906.234995169045
 21
1268.639313301157
 31
0.0
  0
ARC
  5
3B64
330
1A
100
AcDbEntity
  8
外形線
100
AcDbCircle
 10
899.457061169045
 20
1262.979814301157
 30
0.0
 40
3.0
100
AcDbArc
 50
20.000000000001
 51
110.000000000004
  0
LWPOLYLINE
  5
3B65
330
1A
100
AcDbEntity
  8
細線
100
AcDbPolyline
 90
        8
 70
   128
 43
0.0
 10
-913.208750169045
 20
1248.829819301157
 10
-913.488916169045
 20
1247.896274301157
 10
-913.653103169045
 20
1246.960040301157
 10
-913.695044169045
 20
1246.056852301157
 10
-913.613138169045
 20
1245.221182301157
 10
-913.410512169045
 20
1244.484927301157
 10
-913.094899169045
 20
1243.876189301157
 10
-912.678346169045
 20
1243.418202301157
210
0.0
220
0.0
230
-1.0
  0
LWPOLYLINE
  5
3B66
330
1A
100
AcDbEntity
  8
外形線
100
AcDbPolyline
 90
       18
 70
   128
 43
0.0
 10
-913.949407169045
 20
1249.099396301157
 10
-914.216961169045
 20
1248.218159301157
 10
-914.381468169045
 20
1247.332741301157
 10
-914.437326169045
 20
1246.473295301157
 10
-914.382633169045
 20
1245.669088301157
 10
-914.219251169045
 20
1244.947506301157
 10
-913.952744169045
 20
1244.333122301157
 10
-913.592187169045
 20
1243.846857301157
 10
-913.149860169045
 20
1243.505272301157
 10
-912.640824169045
 20
1243.319998301157
 10
-912.082414169045
 20
1243.297345301157
 10
-911.493647169045
 20
1243.438084301157
 10
-910.894573169045
 20
1243.737422301157
 10
-910.305591169045
 20
1244.185166301157
 10
-909.746759169045
 20
1244.766068301157
 10
-909.237107169045
 20
1245.460347301157
 10
-908.793991169045
 20
1246.244359301157
 10
-908.432501169045
 20
1247.091407301157
210
0.0
220
0.0
230
-1.0
  0
LWPOLYLINE
  5
3B67
330
1A
100
AcDbEntity
  8
外形線
100
AcDbPolyline
 90
       18
 70
   128
 43
0.0
 10
-898.717470169045
 20
1243.555425301157
 10
-898.962696169045
 20
1242.666104301157
 10
-899.061006169045
 20
1241.756635301157
 10
-899.009053169045
 20
1240.857989301157
 10
-898.808606169045
 20
1240.000766301157
 10
-898.466491169045
 20
1239.214160301157
 10
-897.994359169045
 20
1238.524958301157
 10
-897.408286169045
 20
1237.956628301157
 10
-896.728232169045
 20
1237.528526301157
 10
-895.977354169045
 20
1237.255228301157
 10
-895.181223169045
 20
1237.146044301157
 10
-894.366950169045
 20
1237.204689301157
 10
-893.562265169045
 20
1237.429168301157
 10
-892.794569169045
 20
1237.811836301157
 10
-892.090006169045
 20
1238.339661301157
 10
-891.472569169045
 20
1238.994670301157
 10
-890.963283169045
 20
1239.754556301157
 10
-890.579493169045
 20
1240.593443301157
210
0.0
220
0.0
230
-1.0
  0
LWPOLYLINE
  5
3B68
330
1A
100
AcDbEntity
  8
細線
100
AcDbPolyline
 90
        8
 70
   128
 43
0.0
 10
-898.204708169045
 20
1243.368795301157
 10
-898.462139169045
 20
1242.445858301157
 10
-898.572185169045
 20
1241.503911301157
 10
-898.531095169045
 20
1240.575041301157
 10
-898.340271169045
 20
1239.690893301157
 10
-898.006211169045
 20
1238.881586301157
 10
-897.540298169045
 20
1238.174690301157
 10
-896.958402169045
 20
1237.594288301157
210
0.0
220
0.0
230
-1.0
  0
LINE
  5
3B69
330
1A
100
AcDbEntity
  8
外形線
100
AcDbLine
 10
890.579493169045
 20
1240.593443301157
 30
0.0
 11
883.739090169045
 21
1259.387296301157
 31
0.0
  0
LINE
  5
3B6A
330
1A
100
AcDbEntity
  8
外形線
100
AcDbLine
 10
913.949407169045
 20
1249.099396301157
 30
0.0
 11
907.793044169045
 21
1266.013864301157
 31
0.0
  0
LINE
  5
3B6B
330
1A
100
AcDbEntity
  8
細線
100
AcDbLine
 10
913.208750169045
 20
1248.829819301157
 30
0.0
 11
907.736428169045
 21
1263.864901301157
 31
0.0
  0
LINE
  5
3B6C
330
1A
100
AcDbEntity
  8
外形線
100
AcDbLine
 10
908.432501169045
 20
1247.091407301157
 30
0.0
 11
902.276139169045
 21
1264.005874301157
 31
0.0
  0
LINE
  5
3B6D
330
1A
100
AcDbEntity
  8
外形線
100
AcDbLine
 10
898.717470169045
 20
1243.555425301157
 30
0.0
 11
892.561107169045
 21
1260.469892301157
 31
0.0
  0
LINE
  5
3B6E
330
1A
100
AcDbEntity
  8
細線
100
AcDbLine
 10
898.204708169045
 20
1243.368795301157
 30
0.0
 11
892.561375169045
 21
1258.873723301157
 31
0.0
  0
LINE
  5
3B6F
330
1A
100
AcDbEntity
  8
外形線
100
AcDbLine
 10
887.130759169045
 20
1261.264208301157
 30
0.0
 11
886.168489169045
 21
1258.143169301157
 31
0.0
  0
LINE
  5
3B70
330
1A
100
AcDbEntity
  8
細線
100
AcDbLine
 10
890.638806169045
 20
1259.770232301157
 30
0.0
 11
884.423130169045
 21
1257.507911301157
 31
0.0
  0
LINE
  5
3B71
330
1A
100
AcDbEntity
  8
外形線
100
AcDbLine
 10
919.974886169045
 20
1245.971603301157
 30
0.0
 11
911.285095169045
 21
1266.443467301157
 31
0.0
  0
LINE
  5
3B72
330
1A
100
AcDbEntity
  8
外形線
100
AcDbLine
 10
876.683387169045
 20
1235.535674301157
 30
0.0
 11
869.842984169045
 21
1254.329527301157
 31
0.0
  0
LINE
  5
3B73
330
1A
100
AcDbEntity
  8
細線
100
AcDbLine
 10
870.527024169045
 20
1252.450142301157
 30
0.0
 11
865.828561169045
 21
1250.740041301157
 31
0.0
  0
ARC
  5
3B74
330
1A
100
AcDbEntity
  8
外形線
100
AcDbCircle
 10
870.782676169045
 20
1254.671547301157
 30
0.0
 40
1.0
100
AcDbArc
 50
110.000000000004
 51
200.000000000001
  0
LINE
  5
3B75
330
1A
100
AcDbEntity
  8
外形線
100
AcDbLine
 10
847.147624169045
 20
1247.133269301157
 30
0.0
 11
859.164345169045
 21
1251.506998301157
 31
0.0
  0
ARC
  5
3B76
330
1A
100
AcDbEntity
  8
外形線
100
AcDbCircle
 10
859.506365169045
 20
1250.567305301157
 30
0.0
 40
1.0
100
AcDbArc
 50
20.000000000001
 51
110.000000000004
  0
LINE
  5
3B77
330
1A
100
AcDbEntity
  8
細線
100
AcDbLine
 10
861.130098169045
 20
1249.029940301157
 30
0.0
 11
865.828561169045
 21
1250.740041301157
 31
0.0
  0
LINE
  5
3B78
330
1A
100
AcDbEntity
  8
外形線
100
AcDbLine
 10
842.745327169045
 20
1245.109232301157
 30
0.0
 11
845.488634169045
 21
1243.336913301157
 31
0.0
  0
ARC
  5
3B79
330
1A
100
AcDbEntity
  8
外形線
100
AcDbCircle
 10
842.202672169045
 20
1244.269276301157
 30
0.0
 40
1.0
100
AcDbArc
 50
57.135435999996
 51
110.000000000004
  0
ARC
  5
3B7A
330
1A
100
AcDbEntity
  8
細線
100
AcDbCircle
 10
841.531346169045
 20
1240.300311301157
 30
0.0
 40
1.5
100
AcDbArc
 50
110.000000000004
 51
200.000000000001
  0
ARC
  5
3B7B
330
1A
100
AcDbEntity
  8
外形線
100
AcDbCircle
 10
841.915093169045
 20
1242.036250301157
 30
0.0
 40
3.0
100
AcDbArc
 50
110.000000000004
 51
200.000000000001
  0
ARC
  5
3B7C
330
1A
100
AcDbEntity
  8
外形線
100
AcDbCircle
 10
826.918079169045
 20
1236.577783301157
 30
0.0
 40
3.0
100
AcDbArc
 50
110.000000000004
 51
200.000000000001
  0
LINE
  5
3B7D
330
1A
100
AcDbEntity
  8
外形線
100
AcDbLine
 10
841.860652169045
 20
1245.208969301157
 30
0.0
 11
823.604929169045
 21
1238.564429301157
 31
0.0
  0
LINE
  5
3B7E
330
1A
100
AcDbEntity
  8
細線
100
AcDbLine
 10
826.719043169045
 20
1236.505340301157
 30
0.0
 11
829.615907169045
 21
1237.559712301157
 31
0.0
  0
ARC
  5
3B7F
330
1A
100
AcDbEntity
  8
外形線
100
AcDbCircle
 10
832.434984169045
 20
1238.585773301157
 30
0.0
 40
3.0
100
AcDbArc
 50
110.000000000004
 51
200.000000000001
  0
LINE
  5
3B80
330
1A
100
AcDbEntity
  8
細線
100
AcDbLine
 10
841.018316169045
 20
1241.709850301157
 30
0.0
 11
847.233992169045
 21
1243.972171301157
 31
0.0
  0
ARC
  5
3B81
330
1A
100
AcDbEntity
  8
外形線
100
AcDbCircle
 10
847.489644169045
 20
1246.193576301157
 30
0.0
 40
1.0
100
AcDbArc
 50
110.000000000004
 51
200.000000000001
  0
LINE
  5
3B82
330
1A
100
AcDbEntity
  8
外形線
100
AcDbLine
 10
882.457377169045
 20
1259.984968301157
 30
0.0
 11
870.440656169045
 21
1255.611240301157
 31
0.0
  0
ARC
  5
3B83
330
1A
100
AcDbEntity
  8
外形線
100
AcDbCircle
 10
871.984924169045
 20
1233.825574301157
 30
0.0
 40
5.0
100
AcDbArc
 50
200.000000000001
 51
290.000000000004
  0
LWPOLYLINE
  5
3B84
330
1A
100
AcDbEntity
  8
外形線
100
AcDbPolyline
 90
       18
 70
   128
 43
0.0
 10
830.255363169045
 20
1218.637256301157
 10
830.616853169045
 20
1217.790208301157
 10
831.059969169045
 20
1217.006196301157
 10
831.569621169045
 20
1216.311917301157
 10
832.128453169045
 20
1215.731015301157
 10
832.717435169045
 20
1215.283271301157
 10
833.316510169045
 20
1214.983932301157
 10
833.905277169045
 20
1214.843194301157
 10
834.463686169045
 20
1214.865847301157
 10
834.972722169045
 20
1215.051121301157
 10
835.415050169045
 20
1215.392706301157
 10
835.775606169045
 20
1215.878970301157
 10
836.042113169045
 20
1216.493355301157
 10
836.205495169045
 20
1217.214937301157
 10
836.260189169045
 20
1218.019144301157
 10
836.204331169045
 20
1218.878590301157
 10
836.039823169045
 20
1219.764008301157
 10
835.772269169045
 20
1220.645245301157
  0
LWPOLYLINE
  5
3B85
330
1A
100
AcDbEntity
  8
細線
100
AcDbPolyline
 90
        8
 70
   128
 43
0.0
 10
830.996020169045
 20
1218.906833301157
 10
831.381472169045
 20
1218.011609301157
 10
831.857497169045
 20
1217.188874301157
 10
832.405927169045
 20
1216.470033301157
 10
833.005828169045
 20
1215.882521301157
 10
833.634304169045
 20
1215.448762301157
 10
834.267367169045
 20
1215.185314301157
 10
834.880854169045
 20
1215.102231301157
  0
LINE
  5
3B86
330
1A
100
AcDbEntity
  8
外形線
100
AcDbLine
 10
827.415163169045
 20
1212.282618301157
 30
0.0
 11
820.912868169045
 21
1233.550667301157
 31
0.0
  0
ARC
  5
3B87
330
1A
100
AcDbEntity
  8
外形線
100
AcDbCircle
 10
827.757183169045
 20
1211.342926301157
 30
0.0
 40
1.0
100
AcDbArc
 50
110.000000000004
 51
200.000000000001
  0
LINE
  5
3B88
330
1A
100
AcDbEntity
  8
細線
100
AcDbLine
 10
830.996020169045
 20
1218.906833301157
 30
0.0
 11
825.523698169045
 21
1233.941915301157
 31
0.0
  0
LINE
  5
3B89
330
1A
100
AcDbEntity
  8
外形線
100
AcDbLine
 10
828.698601169045
 20
1205.832596301157
 30
0.0
 11
826.817490169045
 21
1211.000906301157
 31
0.0
  0
LINE
  5
3B8A
330
1A
100
AcDbEntity
  8
外形線
100
AcDbLine
 10
827.415163169045
 20
1212.282618301157
 30
0.0
 11
873.695024169045
 21
1229.127111301157
 31
0.0
  0
LWPOLYLINE
  5
3B8B
330
1A
100
AcDbEntity
  8
外形線
100
AcDbPolyline
 90
       18
 70
   128
 43
0.0
 10
845.252377169045
 20
1224.095723301157
 10
845.636168169045
 20
1223.256835301157
 10
846.145453169045
 20
1222.496949301157
 10
846.762890169045
 20
1221.841940301157
 10
847.467453169045
 20
1221.314115301157
 10
848.235149169045
 20
1220.931447301157
 10
849.039835169045
 20
1220.706968301157
 10
849.854107169045
 20
1220.648323301157
 10
850.650238169045
 20
1220.757507301157
 10
851.401116169045
 20
1221.030805301157
 10
852.081170169045
 20
1221.458907301157
 10
852.667243169045
 20
1222.027237301157
 10
853.139376169045
 20
1222.716440301157
 10
853.481491169045
 20
1223.503045301157
 10
853.681937169045
 20
1224.360268301157
 10
853.733890169045
 20
1225.258914301157
 10
853.635580169045
 20
1226.168383301157
 10
853.390354169045
 20
1227.057704301157
  0
LWPOLYLINE
  5
3B8C
330
1A
100
AcDbEntity
  8
細線
100
AcDbPolyline
 90
        8
 70
   128
 43
0.0
 10
845.765139169045
 20
1224.282353301157
 10
846.161187169045
 20
1223.409868301157
 10
846.682360169045
 20
1222.617559301157
 10
847.310902169045
 20
1221.932415301157
 10
848.025402169045
 20
1221.377778301157
 10
848.801519169045
 20
1220.972542301157
 10
849.612813169045
 20
1220.730512301157
 10
850.431647169045
 20
1220.659934301157
  0
LINE
  5
3BA6
330
1A
100
AcDbEntity
  8
外形線
100
AcDbLine
 10
923.137709169045
 20
1240.205621301157
 30
0.0
 11
828.698601169045
 21
1205.832596301157
 31
0.0
  0
LINE
  5
3BA7
330
1A
100
AcDbEntity
  8
外形線
100
AcDbLine
 10
830.255363169045
 20
1218.637256301157
 30
0.0
 11
824.099001169045
 21
1235.551723301157
 31
0.0
  0
LINE
  5
3BA8
330
1A
100
AcDbEntity
  8
外形線
100
AcDbLine
 10
835.772269169045
 20
1220.645245301157
 30
0.0
 11
829.615907169045
 21
1237.559712301157
 31
0.0
  0
LINE
  5
3BA9
330
1A
100
AcDbEntity
  8
外形線
100
AcDbLine
 10
853.390354169045
 20
1227.057704301157
 30
0.0
 11
846.549951169045
 21
1245.851556301157
 31
0.0
  0
LINE
  5
3BAA
330
1A
100
AcDbEntity
  8
外形線
100
AcDbLine
 10
845.252377169045
 20
1224.095723301157
 30
0.0
 11
839.096015169045
 21
1241.010190301157
 31
0.0
  0
LINE
  5
3BAB
330
1A
100
AcDbEntity
  8
細線
100
AcDbLine
 10
845.765139169045
 20
1224.282353301157
 30
0.0
 11
840.121807169045
 21
1239.787281301157
 31
0.0
  0
ARC
  5
3BAC
330
1A
100
AcDbEntity
  8
外形線
100
AcDbCircle
 10
825.021710169045
 20
1234.574100301157
 30
0.0
 40
4.234383
100
AcDbArc
 50
109.547582000004
 51
193.986653999998
  0
ARC
  5
3BAD
330
1A
100
AcDbEntity
  8
細線
100
AcDbCircle
 10
827.403083169045
 20
1234.625955301157
 30
0.0
 40
2.0
100
AcDbArc
 50
110.000000000004
 51
200.000000000001
  0
LINE
  5
3BAE
330
1A
100
AcDbEntity
  8
外形線
100
AcDbLine
 10
919.974886169045
 20
1245.971603301157
 30
0.0
 11
873.695024169045
 21
1229.127111301157
 31
0.0
  0
LINE
  5
3BAF
330
1A
100
AcDbEntity
  8
外形線
100
AcDbLine
 10
867.286460169045
 20
1232.115473301157
 30
0.0
 11
860.446058169045
 21
1250.909325301157
 31
0.0
  0
ARC
  5
3BB0
330
1A
100
AcDbEntity
  8
外形線
100
AcDbCircle
 10
871.984924169045
 20
1233.825574301157
 30
0.0
 40
5.0
100
AcDbArc
 50
290.000000000004
 51
20.000000000001
  0
LINE
  5
3BB4
330
1A
100
AcDbEntity
  8
外形線
100
AcDbLine
 10
1051.559302708222
 20
693.668151725148
 30
0.0
 11
967.163002325601
 21
925.545082858692
 31
0.0
  0
LINE
  5
3BB5
330
1A
100
AcDbEntity
  8
中心線
 48
10.0
100
AcDbLine
 10
850.029493169045
 20
1294.147624301157
 30
0.0
 11
1175.308782169045
 21
400.450123301157
 31
0.0
  0
LEADER
  5
3D52
330
1A
100
AcDbEntity
  8
寸法線
 48
10.0
100
AcDbLeader
  3
ISO-25
 76
     3
 10
1017.320460578754
 20
946.804977391637
 30
0.0
 10
1039.061425917206
 20
996.033589532787
 30
0.0
 10
1097.151901289834
 20
996.033589532787
 30
0.0
1001
ACAD
1000
DSTYLE
1002
{
1070
   147
1040
0.625
1070
    77
1070
     0
1070
    41
1040
13.0
1070
    47
1040
0.1
1070
    48
1040
0.1
1070
    73
1070
     0
1070
   140
1040
14.0
1070
   271
1070
     1
1070
   272
1070
     1
1070
   341
1005
2AEC
1070
   342
1005
2AEC
1002
}
  0
MTEXT
  5
3D53
330
1A
100
AcDbEntity
  8
寸法線
 48
10.0
100
AcDbMText
 10
1039.394868615897
 20
1007.58996638034
 30
0.0
 40
10.0
 41
160.711111111111
 71
     1
 72
     5
  1
Aiming Device
 73
     1
 44
1.0
  0
LINE
  5
3D55
330
1A
100
AcDbEntity
  8
外形線
100
AcDbLine
 10
1047.598087139917
 20
925.545082858692
 30
0.0
 11
1047.598087139917
 21
947.045082858692
 31
0.0
  0
LINE
  5
3D56
330
1A
100
AcDbEntity
  8
外形線
100
AcDbLine
 10
1050.316465139917
 20
925.545082858692
 30
0.0
 11
1050.316465139917
 21
947.045082858692
 31
0.0
  0
LINE
  5
3D57
330
1A
100
AcDbEntity
  8
外形線
100
AcDbLine
 10
900.316465139917
 20
947.045082858692
 30
0.0
 11
1050.316465139917
 21
947.045082858692
 31
0.0
  0
LINE
  5
3D58
330
1A
100
AcDbEntity
  8
外形線
100
AcDbLine
 10
984.189847139917
 20
925.545082858692
 30
0.0
 11
1050.316465139917
 21
925.545082858692
 31
0.0
  0
ARC
  5
3D8C
330
1A
100
AcDbEntity
  8
外形線
100
AcDbCircle
 10
1015.400991139917
 20
952.045082858692
 30
0.0
 40
5.0
100
AcDbArc
 50
195.030431
 51
270.0
  0
LINE
  5
3D8D
330
1A
100
AcDbEntity
  8
外形線
100
AcDbLine
 10
1006.298272139917
 20
962.565396858692
 30
0.0
 11
1010.572050139917
 21
950.748422858692
 31
0.0
  0
ARC
  5
3D8E
330
1A
100
AcDbEntity
  8
外形線
100
AcDbCircle
 10
1003.477109139917
 20
961.545082858692
 30
0.0
 40
3.0
100
AcDbArc
 50
19.883249000001
 51
90.0
  0
LINE
  5
3D93
330
1A
100
AcDbEntity
  8
外形線
100
AcDbLine
 10
975.316465139917
 20
964.545082858692
 30
0.0
 11
1003.477109139917
 21
964.545082858692
 31
0.0
  0
ARC
  5
3D94
330
1A
100
AcDbEntity
  8
外形線
100
AcDbCircle
 10
975.384456139917
 20
950.045082858692
 30
0.0
 40
27.25
100
AcDbArc
 50
32.148136000004
 51
70.786149000002
  0
LINE
  5
3D95
330
1A
100
AcDbEntity
  8
外形線
100
AcDbLine
 10
944.334658139917
 20
962.565396858692
 30
0.0
 11
940.060881139917
 21
950.748422858692
 31
0.0
  0
ARC
  5
3D96
330
1A
100
AcDbEntity
  8
外形線
100
AcDbCircle
 10
935.231939139917
 20
952.045082858692
 30
0.0
 40
5.0
100
AcDbArc
 50
270.0
 51
344.969568999997
  0
ARC
  5
3D97
330
1A
100
AcDbEntity
  8
外形線
100
AcDbCircle
 10
947.155821139917
 20
961.545082858692
 30
0.0
 40
3.0
100
AcDbArc
 50
90.0
 51
160.116750999999
  0
LINE
  5
3D98
330
1A
100
AcDbEntity
  8
外形線
100
AcDbLine
 10
953.492382139917
 20
964.545082858692
 30
0.0
 11
984.352293139917
 21
975.777171858692
 31
0.0
  0
LINE
  5
3D99
330
1A
100
AcDbEntity
  8
外形線
100
AcDbLine
 10
947.155821139917
 20
964.545082858692
 30
0.0
 11
975.316465139917
 21
964.545082858692
 31
0.0
  0
LINE
  5
3D9A
330
1A
100
AcDbEntity
  8
外形線
100
AcDbLine
 10
984.189847139917
 20
925.545082858692
 30
0.0
 11
900.316465139917
 21
925.545082858692
 31
0.0
  0
LINE
  5
3D9B
330
1A
100
AcDbEntity
  8
外形線
100
AcDbLine
 10
903.034843139917
 20
925.545082858692
 30
0.0
 11
903.034843139917
 21
947.045082858692
 31
0.0
  0
LINE
  5
3D9C
330
1A
100
AcDbEntity
  8
外形線
100
AcDbLine
 10
958.316465139917
 20
925.545082858692
 30
0.0
 11
958.316465139917
 21
947.045082858692
 31
0.0
  0
LINE
  5
3D9D
330
1A
100
AcDbEntity
  8
外形線
100
AcDbLine
 10
992.316465139917
 20
925.545082858692
 30
0.0
 11
992.316465139917
 21
947.045082858692
 31
0.0
  0
LINE
  5
3D9E
330
1A
100
AcDbEntity
  8
外形線
100
AcDbLine
 10
981.316465139917
 20
925.545082858692
 30
0.0
 11
981.316465139917
 21
947.045082858692
 31
0.0
  0
LINE
  5
3D9F
330
1A
100
AcDbEntity
  8
外形線
100
AcDbLine
 10
969.316465139917
 20
925.545082858692
 30
0.0
 11
969.316465139917
 21
947.045082858692
 31
0.0
  0
LINE
  5
3DA0
330
1A
100
AcDbEntity
  8
外形線
100
AcDbLine
 10
966.316465139917
 20
925.545082858692
 30
0.0
 11
966.316465139917
 21
947.045082858692
 31
0.0
  0
LINE
  5
3DA1
330
1A
100
AcDbEntity
  8
外形線
100
AcDbLine
 10
984.316465139917
 20
925.545082858692
 30
0.0
 11
984.316465139917
 21
947.045082858692
 31
0.0
  0
LINE
  5
3DA2
330
1A
100
AcDbEntity
  8
外形線
100
AcDbLine
 10
900.316465139917
 20
925.545082858692
 30
0.0
 11
900.316465139917
 21
947.045082858692
 31
0.0
  0
LINE
  5
3DA3
330
1A
100
AcDbEntity
  8
外形線
100
AcDbLine
 10
952.968163139917
 20
964.545082858692
 30
0.0
 11
897.650239139917
 21
1116.529829858692
 31
0.0
  0
LINE
  5
3DA4
330
1A
100
AcDbEntity
  8
外形線
100
AcDbLine
 10
983.099649139917
 20
975.321246858692
 30
0.0
 11
927.720403139917
 21
1127.474473858692
 31
0.0
  0
LINE
  5
3DC0
330
1A
100
AcDbEntity
  8
外形線
100
AcDbLine
 10
1001.216690328938
 20
925.545082858692
 30
0.0
 11
1081.629466826551
 21
704.612796403719
 31
0.0
  0
DIMENSION
  5
3DE7
330
1A
100
AcDbEntity
  8
寸法線
 48
10.0
100
AcDbDimension
  2
*D10
 10
893.881638565332
 20
1320.586041906981
 30
0.0
 11
844.054179626067
 21
1310.56469134344
 31
0.0
 70
    33
  1
φ100
 71
     5
 42
100.500000128588
  3
ISO-25
100
AcDbAlignedDimension
 13
826.817490548259
 23
1211.000906157831
 33
0.0
 14
921.256602801892
 24
1245.373920319989
 34
0.0
1001
ACAD
1000
DSTYLE
1002
{
1070
    41
1040
13.0
1070
    47
1040
0.1
1070
    48
1040
0.1
1070
    73
1070
     0
1070
   140
1040
14.0
1070
   271
1070
     1
1070
   272
1070
     1
1070
   341
1005
2AEC
1070
   342
1005
2AEC
1002
}
  0
LINE
  5
3F2F
330
1A
100
AcDbEntity
  8
寸法線
 48
10.0
100
AcDbLine
 10
1039.394868615897
 20
996.033589532787
 30
0.0
 11
1119.650238694737
 21
996.033589532787
 31
0.0
  0
VIEWPORT
  5
3668
102
{ACAD_XDICTIONARY
360
44E1
102
}
330
3666
100
AcDbEntity
 67
     1
  8
0
 48
10.0
100
AcDbViewport
 10
0.0
 20
0.0
 30
0.0
 40
518.835520616622
 41
369.198321948217
 68
     1
 69
     1
 12
165.731165584297
 22
181.765562137778
 13
0.0
 23
0.0
 14
10.0
 24
10.0
 15
10.0
 25
10.0
 16
0.0
 26
0.0
 36
1.0
 17
0.0
 27
0.0
 37
0.0
 42
50.0
 43
0.0
 44
0.0
 45
369.198321948217
 50
0.0
 51
0.0
 72
   100
 90
    32816
  1

281
     0
 71
     1
 74
     0
110
0.0
120
0.0
130
0.0
111
1.0
121
0.0
131
0.0
112
0.0
122
1.0
132
0.0
 79
     0
146
0.0
170
     0
  0
VIEWPORT
  5
3669
102
{ACAD_XDICTIONARY
360
44E3
102
}
330
3666
100
AcDbEntity
 67
     1
  8
図枠太線
 48
10.0
100
AcDbViewport
 10
141.494923295415
 20
218.452497602501
 30
0.0
 40
280.0
 41
375.0
 68
     2
 69
     2
 12
1045.455763929139
 22
816.844196401876
 13
0.0
 23
0.0
 14
1.0
 24
1.0
 15
0.0
 25
0.0
 16
0.0
 26
0.0
 36
1.0
 17
0.0
 27
0.0
 37
0.0
 42
50.0
 43
0.0
 44
0.0
 45
1125.000004033182
 50
0.0
 51
0.0
 72
   100
 90
    32768
  1

281
     0
 71
     1
 74
     0
110
0.0
120
0.0
130
0.0
111
1.0
121
0.0
131
0.0
112
0.0
122
1.0
132
0.0
 79
     0
146
0.0
170
     0
  0
INSERT
  5
366A
330
3666
100
AcDbEntity
 67
     1
  8
図枠太線
100
AcDbBlockReference
  2
A3縦用　タイトル
 10
-2.082948587547
 20
-1.868345086753
 30
0.0
  0
MTEXT
  5
36AD
330
3666
100
AcDbEntity
 67
     1
  8
寸法線
 48
10.0
100
AcDbMText
 10
146.181542426463
 20
28.276851885166
 30
0.0
 40
2.5
 41
170.08
 71
     1
 72
     5
  1
Ultrasonic Level Transmitter For Solids
 73
     1
 44
1.0
  0
MTEXT
  5
36AE
330
3666
100
AcDbEntity
 67
     1
  8
寸法線
 48
10.0
100
AcDbMText
 10
144.391357326253
 20
20.964057774549
 30
0.0
 40
2.5
 41
92.516666666667
 71
     1
 72
     5
  1
Manufacture：NIVELCO Process Control Co.
 73
     1
 44
1.0
  0
MTEXT
  5
36AF
330
3666
100
AcDbEntity
 67
     1
  8
寸法線
 48
10.0
100
AcDbMText
 10
235.835165848247
 20
28.595671864292
 30
0.0
 40
4.5
 41
30.300369104503
 71
     1
 72
     5
  1
{\H0.8889x;SBD-33J/STD-33J\PSBD-34J/STD-34J}
 73
     1
 44
1.0
  0
MTEXT
  5
36B0
102
{ACAD_XDICTIONARY
360
4487
102
}
330
3666
100
AcDbEntity
 67
     1
  8
寸法線
 48
10.0
100
AcDbMText
 10
239.609187615187
 20
11.959897812941
 30
0.0
 40
5.0
 41
30.21802674344
 71
     1
 72
     5
  1
\H1.2x;HX-1135
 73
     1
 44
1.0
1001
AcadAnnotative
1000
AnnotativeData
1002
{
1070
     1
1070
     0
1002
}
  0
MTEXT
  5
36B1
330
3666
100
AcDbEntity
 67
     1
  8
寸法線
 48
10.0
100
AcDbMText
 10
218.049549813539
 20
24.963798044219
 30
0.0
 40
4.5
 41
47.12
 71
     1
 72
     5
  1
Type：
 73
     1
 44
1.0
  0
MTEXT
  5
36B2
330
3666
100
AcDbEntity
 67
     1
  8
寸法線
 48
10.0
100
AcDbMText
 10
101.970911833453
 20
8.462833647321
 30
0.0
 40
4.0
 41
14.375063652514
 71
     1
 72
     5
  1
NTS
 73
     1
 44
1.0
  0
MTEXT
  5
36B3
102
{ACAD_XDICTIONARY
360
447B
102
}
330
3666
100
AcDbEntity
 67
     1
  8
寸法線
 48
10.0
100
AcDbMText
 10
120.792338021403
 20
8.007270999468
 30
0.0
 40
3.0
 41
18.68273515387
 71
     1
 72
     5
  1
May,18,2016
 73
     1
 44
1.0
1001
AcadAnnotative
1000
AnnotativeData
1002
{
1070
     1
1070
     0
1002
}
  0
MTEXT
  5
36B4
102
{ACAD_XDICTIONARY
360
4478
102
}
330
3666
100
AcDbEntity
 67
     1
  8
寸法線
 48
10.0
100
AcDbMText
 10
124.678211090272
 20
23.901204131981
 30
0.0
 40
4.0
 41
17.153436258121
 71
     1
 72
     5
  1
ohno
 73
     1
 44
1.0
1001
AcadAnnotative
1000
AnnotativeData
1002
{
1070
     1
1070
     0
1002
}
  0
MTEXT
  5
3F8F
102
{ACAD_XDICTIONARY
360
4475
102
}
330
3666
100
AcDbEntity
 67
     1
  8
寸法線
 48
10.0
100
AcDbMText
 10
261.173742980198
 20
36.593099845925
 30
0.0
 40
4.0
 41
136.304347826087
 71
     1
 72
     5
  1
Q'ty:
 73
     1
 44
1.0
1001
AcadAnnotative
1000
AnnotativeData
1002
{
1070
     1
1070
     0
1002
}
  0
ENDSEC
  0
SECTION
  2
OBJECTS
  0
DICTIONARY
  5
C
330
0
100
AcDbDictionary
281
     1
  3
ACAD_COLOR
350
2948
  3
ACAD_DETAILVIEWSTYLE
350
4484
  3
ACAD_GROUP
350
D
  3
ACAD_LAYOUT
350
2816
  3
ACAD_MATERIAL
350
2947
  3
ACAD_MLEADERSTYLE
350
4033
  3
ACAD_MLINESTYLE
350
E
  3
ACAD_PLOTSETTINGS
350
2817
  3
ACAD_PLOTSTYLENAME
350
2814
  3
ACAD_SCALELIST
350
400C
  3
ACAD_SECTIONVIEWSTYLE
350
4485
  3
ACAD_TABLESTYLE
350
4031
  3
ACAD_VISUALSTYLE
350
3FF3
  3
ACDB_RECOMPOSE_DATA
350
4522
  3
AcDbVariableDictionary
350
447E
  0
DICTIONARY
  5
44E5
330
8
100
AcDbDictionary
280
     1
281
     1
  3
ACAD_XREC_ROUNDTRIP
360
44E6
  0
DICTIONARY
  5
29EA
330
2
100
AcDbDictionary
280
     1
281
     1
  3
ACAD_LAYERFILTERS
360
2B04
  3
ACAD_LAYERSTATES
360
29EB
  0
DICTIONARY
  5
44E1
330
3668
100
AcDbDictionary
280
     1
281
     1
  3
ACAD_XREC_ROUNDTRIP
360
44E2
  0
DICTIONARY
  5
44E3
330
3669
100
AcDbDictionary
280
     1
281
     1
  3
ACAD_XREC_ROUNDTRIP
360
44E4
  0
DICTIONARY
  5
4487
330
36B0
100
AcDbDictionary
280
     1
281
     1
  3
AcDbContextDataManager
360
4488
  0
DICTIONARY
  5
447B
330
36B3
100
AcDbDictionary
280
     1
281
     1
  3
AcDbContextDataManager
360
447C
  0
DICTIONARY
  5
4478
330
36B4
100
AcDbDictionary
280
     1
281
     1
  3
AcDbContextDataManager
360
4479
  0
DICTIONARY
  5
4475
330
3F8F
100
AcDbDictionary
280
     1
281
     1
  3
AcDbContextDataManager
360
4476
  0
DICTIONARY
  5
2948
102
{ACAD_REACTORS
330
C
102
}
330
C
100
AcDbDictionary
281
     1
  0
DICTIONARY
  5
4484
102
{ACAD_REACTORS
330
C
102
}
330
C
100
AcDbDictionary
281
     1
  0
DICTIONARY
  5
D
102
{ACAD_REACTORS
330
C
102
}
330
C
100
AcDbDictionary
281
     1
  0
DICTIONARY
  5
2816
102
{ACAD_REACTORS
330
C
102
}
330
C
100
AcDbDictionary
281
     1
  3
Model
350
2818
  3
NX-1033
350
36B6
  0
DICTIONARY
  5
2947
102
{ACAD_REACTORS
330
C
102
}
330
C
100
AcDbDictionary
281
     1
  3
ByBlock
350
402F
  3
ByLayer
350
402E
  3
Global
350
4030
  0
DICTIONARY
  5
4033
102
{ACAD_REACTORS
330
C
102
}
330
C
100
AcDbDictionary
281
     1
  3
Standard
350
4034
  0
DICTIONARY
  5
E
102
{ACAD_REACTORS
330
C
102
}
330
C
100
AcDbDictionary
281
     1
  3
STANDARD
350
13
  0
DICTIONARY
  5
2817
102
{ACAD_REACTORS
330
C
102
}
330
C
100
AcDbDictionary
281
     1
  0
ACDBDICTIONARYWDFLT
  5
2814
102
{ACAD_REACTORS
330
C
102
}
330
C
100
AcDbDictionary
281
     1
  3
Normal
350
2815
100
AcDbDictionaryWithDefault
340
2815
  0
DICTIONARY
  5
400C
102
{ACAD_REACTORS
330
C
102
}
330
C
100
AcDbDictionary
281
     1
  3
A0
350
400D
  3
A1
350
400E
  3
A2
350
400F
  3
A3
350
4010
  3
A4
350
4011
  3
A5
350
4012
  3
A6
350
4013
  3
A7
350
4014
  3
A8
350
4015
  3
A9
350
4016
  3
B0
350
4017
  3
B1
350
4018
  3
B2
350
4019
  3
B3
350
401A
  3
B4
350
401B
  3
B5
350
401C
  3
B6
350
401D
  3
B7
350
401E
  3
B8
350
401F
  3
B9
350
4020
  3
C0
350
4021
  3
C1
350
4022
  3
C2
350
4023
  3
C3
350
4024
  3
C4
350
4025
  3
C5
350
4026
  3
C6
350
4027
  3
C7
350
4028
  3
C8
350
4029
  3
C9
350
402A
  3
D0
350
402B
  3
D1
350
402C
  3
D2
350
402D
  0
DICTIONARY
  5
4485
102
{ACAD_REACTORS
330
C
102
}
330
C
100
AcDbDictionary
281
     1
  0
DICTIONARY
  5
4031
102
{ACAD_REACTORS
330
C
102
}
330
C
100
AcDbDictionary
281
     1
  3
Standard
350
4032
  0
DICTIONARY
  5
3FF3
102
{ACAD_REACTORS
330
C
102
}
330
C
100
AcDbDictionary
281
     1
  3
2dWireframe
350
3FF8
  3
Basic
350
3FFB
  3
Brighten
350
3FFF
  3
ColorChange
350
4003
  3
Conceptual
350
3FFD
  3
Dim
350
3FFE
  3
EdgeColorOff
350
4006
  3
Facepattern
350
4002
  3
Flat
350
3FF4
  3
FlatWithEdges
350
3FF5
  3
Gouraud
350
3FF6
  3
GouraudWithEdges
350
3FF7
  3
Hidden
350
3FFA
  3
JitterOff
350
4004
  3
Linepattern
350
4001
  3
OverhangOff
350
4005
  3
Realistic
350
3FFC
  3
Shaded
350
400B
  3
Shaded with edges
350
400A
  3
Shades of Gray
350
4007
  3
Sketchy
350
4008
  3
Thicken
350
4000
  3
Wireframe
350
3FF9
  3
X-Ray
350
4009
  0
XRECORD
  5
4522
102
{ACAD_REACTORS
330
C
102
}
330
C
100
AcDbXrecord
280
     1
 90
        1
330
4032
  0
DICTIONARY
  5
447E
102
{ACAD_REACTORS
330
C
102
}
330
C
100
AcDbDictionary
281
     1
  3
CANNOSCALE
350
447F
  3
CMLEADERSTYLE
350
4481
  3
CTABLESTYLE
350
4480
  3
MSLTSCALE
350
4482
  3
XCLIPFRAME
350
4483
  0
XRECORD
  5
44E6
102
{ACAD_REACTORS
330
44E5
102
}
330
44E5
100
AcDbXrecord
280
     1
102
VTR_0.000_0.000_1.000_1.000_VISUALSTYLE
340
3FF8
102
VTR_0.000_0.000_1.000_1.000_GRIDDISPLAY
 70
     3
102
VTR_0.000_0.000_1.000_1.000_GRIDMAJOR
 70
     5
102
VTR_0.000_0.000_1.000_1.000_DEFAULTLIGHTING
280
     1
102
VTR_0.000_0.000_1.000_1.000_DEFAULTLIGHTINGTYPE
 70
     1
102
VTR_0.000_0.000_1.000_1.000_BRIGHTNESS
141
0.0
102
VTR_0.000_0.000_1.000_1.000_CONTRAST
142
0.0
  0
DICTIONARY
  5
2B04
102
{ACAD_REACTORS
330
29EA
102
}
330
29EA
100
AcDbDictionary
281
     1
  0
DICTIONARY
  5
29EB
102
{ACAD_REACTORS
330
29EA
102
}
330
29EA
100
AcDbDictionary
281
     1
  0
XRECORD
  5
44E2
102
{ACAD_REACTORS
330
44E1
102
}
330
44E1
100
AcDbXrecord
280
     1
102
VISUALSTYLE
340
3FF8
102
GRIDDISPLAY
 70
     0
102
GRIDMAJOR
 70
     5
102
DEFAULTLIGHTING
280
     1
102
DEFAULTLIGHTINGTYPE
 70
     1
102
BRIGHTNESS
141
0.0
102
CONTRAST
142
0.0
102
SUNID
360
0
  0
XRECORD
  5
44E4
102
{ACAD_REACTORS
330
44E3
102
}
330
44E3
100
AcDbXrecord
280
     1
102
VISUALSTYLE
340
3FF8
102
GRIDDISPLAY
 70
     0
102
GRIDMAJOR
 70
     5
102
DEFAULTLIGHTING
280
     1
102
DEFAULTLIGHTINGTYPE
 70
     1
102
BRIGHTNESS
141
0.0
102
CONTRAST
142
0.0
102
SUNID
360
0
  0
DICTIONARY
  5
4488
102
{ACAD_REACTORS
330
4487
102
}
330
4487
100
AcDbDictionary
281
     1
  3
ACDB_ANNOTATIONSCALES
350
4489
  0
DICTIONARY
  5
447C
102
{ACAD_REACTORS
330
447B
102
}
330
447B
100
AcDbDictionary
281
     1
  3
ACDB_ANNOTATIONSCALES
350
447D
  0
DICTIONARY
  5
4479
102
{ACAD_REACTORS
330
4478
102
}
330
4478
100
AcDbDictionary
281
     1
  3
ACDB_ANNOTATIONSCALES
350
447A
  0
DICTIONARY
  5
4476
102
{ACAD_REACTORS
330
4475
102
}
330
4475
100
AcDbDictionary
281
     1
  3
ACDB_ANNOTATIONSCALES
350
4477
  0
LAYOUT
  5
2818
102
{ACAD_REACTORS
330
2816
102
}
330
2816
100
AcDbPlotSettings
  1

  2
EPSON LP-8000S
  4

  6

 40
0.0
 41
0.0
 42
0.0
 43
0.0
 44
0.0
 45
0.0
 46
0.0
 47
0.0
 48
0.0
 49
0.0
140
0.0
141
0.0
142
1.0
143
1.0
 70
  1712
 72
     0
 73
     0
 74
     0
  7
TOWA.ctb
 75
     0
 76
     0
 77
     2
 78
   300
147
1.0
148
0.0
149
0.0
100
AcDbLayout
  1
Model
 70
     1
 71
     0
 10
0.0
 20
0.0
 11
12.0
 21
9.0
 12
0.0
 22
0.0
 32
0.0
 14
712.078243631321
 24
289.40399563542
 34
0.0
 15
0.0
 25
0.0
 35
0.0
146
0.0
 13
0.0
 23
0.0
 33
0.0
 16
1.0
 26
0.0
 36
0.0
 17
0.0
 27
1.0
 37
0.0
 76
     0
330
1A
331
3FBF
  0
LAYOUT
  5
36B6
102
{ACAD_REACTORS
330
2816
102
}
330
2816
100
AcDbPlotSettings
  1

  2
DocuCentre 352
  4
A4
  6

 40
4.857749938965
 41
4.900062561035
 42
4.942413330078
 43
4.857757568359
 44
209.973327636719
 45
296.968322753906
 46
0.0
 47
0.0
 48
0.0
 49
0.0
140
0.0
141
0.0
142
1.0
143
1.43
 70
   736
 72
     1
 73
     0
 74
     5
  7
TOWA.ctb
 75
     0
 76
     1
 77
     2
 78
   300
147
1.0
148
0.0
149
0.0
100
AcDbLayout
  1
NX-1033
 70
     1
 71
     1
 10
-6.94658241272
 20
-7.00708946228
 11
293.315276107788
 21
417.657612075806
 12
0.0
 22
0.0
 32
0.0
 14
1.494923295415
 24
0.952498281072
 34
0.0
 15
281.494923295415
 25
405.952497602501
 35
0.0
146
0.0
 13
0.0
 23
0.0
 33
0.0
 16
1.0
 26
0.0
 36
0.0
 17
0.0
 27
1.0
 37
0.0
 76
     0
330
3666
331
3668
  0
MATERIAL
  5
402F
102
{ACAD_REACTORS
330
2947
102
}
102
{ACAD_XDICTIONARY
360
44E9
102
}
330
2947
100
AcDbMaterial
  1
ByBlock
  0
MATERIAL
  5
402E
102
{ACAD_REACTORS
330
2947
102
}
102
{ACAD_XDICTIONARY
360
44E7
102
}
330
2947
100
AcDbMaterial
  1
ByLayer
  0
MATERIAL
  5
4030
102
{ACAD_REACTORS
330
2947
102
}
102
{ACAD_XDICTIONARY
360
44EB
102
}
330
2947
100
AcDbMaterial
  1
Global
  0
MLEADERSTYLE
  5
4034
102
{ACAD_REACTORS
330
4033
102
}
102
{ACAD_XDICTIONARY
360
4520
102
}
330
4033
100
AcDbMLeaderStyle
170
     2
171
     1
172
     0
 90
        2
 40
0.0
 41
0.0
173
     1
 91
-1056964608
340
14
 92
       -2
290
     1
 42
2.0
291
     1
 43
8.0
  3
Standard
341
0
 44
4.0
300

342
10
174
     1
178
     6
175
     1
176
     0
 93
-1056964608
 45
4.0
292
     0
297
     0
 46
4.0
343
0
 94
-1056964608
 47
1.0
 49
1.0
140
1.0
293
     1
141
0.0
294
     1
177
     0
142
1.0
295
     0
296
     0
143
3.75
1001
ACAD_MLEADERVER
1070
     2
  0
MLINESTYLE
  5
13
102
{ACAD_REACTORS
330
E
102
}
330
E
100
AcDbMlineStyle
  2
STANDARD
 70
     0
  3

 62
     0
 51
90.0
 52
90.0
 71
     2
 49
0.5
 62
   256
  6
BYLAYER
 49
-0.5
 62
   256
  6
BYLAYER
  0
ACDBPLACEHOLDER
  5
2815
102
{ACAD_REACTORS
330
2814
102
}
330
2814
  0
SCALE
  5
400D
102
{ACAD_REACTORS
330
400C
102
}
330
400C
100
AcDbScale
 70
     0
300
1:1
140
1.0
141
1.0
290
     1
  0
SCALE
  5
400E
102
{ACAD_REACTORS
330
400C
102
}
330
400C
100
AcDbScale
 70
     0
300
1:2
140
1.0
141
2.0
290
     0
  0
SCALE
  5
400F
102
{ACAD_REACTORS
330
400C
102
}
330
400C
100
AcDbScale
 70
     0
300
1:4
140
1.0
141
4.0
290
     0
  0
SCALE
  5
4010
102
{ACAD_REACTORS
330
400C
102
}
330
400C
100
AcDbScale
 70
     0
300
1:5
140
1.0
141
5.0
290
     0
  0
SCALE
  5
4011
102
{ACAD_REACTORS
330
400C
102
}
330
400C
100
AcDbScale
 70
     0
300
1:8
140
1.0
141
8.0
290
     0
  0
SCALE
  5
4012
102
{ACAD_REACTORS
330
400C
102
}
330
400C
100
AcDbScale
 70
     0
300
1:10
140
1.0
141
10.0
290
     0
  0
SCALE
  5
4013
102
{ACAD_REACTORS
330
400C
102
}
330
400C
100
AcDbScale
 70
     0
300
1:16
140
1.0
141
16.0
290
     0
  0
SCALE
  5
4014
102
{ACAD_REACTORS
330
400C
102
}
330
400C
100
AcDbScale
 70
     0
300
1:20
140
1.0
141
20.0
290
     0
  0
SCALE
  5
4015
102
{ACAD_REACTORS
330
400C
102
}
330
400C
100
AcDbScale
 70
     0
300
1:30
140
1.0
141
30.0
290
     0
  0
SCALE
  5
4016
102
{ACAD_REACTORS
330
400C
102
}
330
400C
100
AcDbScale
 70
     0
300
1:40
140
1.0
141
40.0
290
     0
  0
SCALE
  5
4017
102
{ACAD_REACTORS
330
400C
102
}
330
400C
100
AcDbScale
 70
     0
300
1:50
140
1.0
141
50.0
290
     0
  0
SCALE
  5
4018
102
{ACAD_REACTORS
330
400C
102
}
330
400C
100
AcDbScale
 70
     0
300
1:100
140
1.0
141
100.0
290
     0
  0
SCALE
  5
4019
102
{ACAD_REACTORS
330
400C
102
}
330
400C
100
AcDbScale
 70
     0
300
2:1
140
2.0
141
1.0
290
     0
  0
SCALE
  5
401A
102
{ACAD_REACTORS
330
400C
102
}
330
400C
100
AcDbScale
 70
     0
300
4:1
140
4.0
141
1.0
290
     0
  0
SCALE
  5
401B
102
{ACAD_REACTORS
330
400C
102
}
330
400C
100
AcDbScale
 70
     0
300
8:1
140
8.0
141
1.0
290
     0
  0
SCALE
  5
401C
102
{ACAD_REACTORS
330
400C
102
}
330
400C
100
AcDbScale
 70
     0
300
10:1
140
10.0
141
1.0
290
     0
  0
SCALE
  5
401D
102
{ACAD_REACTORS
330
400C
102
}
330
400C
100
AcDbScale
 70
     0
300
100:1
140
100.0
141
1.0
290
     0
  0
SCALE
  5
401E
102
{ACAD_REACTORS
330
400C
102
}
330
400C
100
AcDbScale
 70
     0
300
1/128" = 1'-0"
140
0.0078125
141
12.0
290
     0
  0
SCALE
  5
401F
102
{ACAD_REACTORS
330
400C
102
}
330
400C
100
AcDbScale
 70
     0
300
1/64" = 1'-0"
140
0.015625
141
12.0
290
     0
  0
SCALE
  5
4020
102
{ACAD_REACTORS
330
400C
102
}
330
400C
100
AcDbScale
 70
     0
300
1/32" = 1'-0"
140
0.03125
141
12.0
290
     0
  0
SCALE
  5
4021
102
{ACAD_REACTORS
330
400C
102
}
330
400C
100
AcDbScale
 70
     0
300
1/16" = 1'-0"
140
0.0625
141
12.0
290
     0
  0
SCALE
  5
4022
102
{ACAD_REACTORS
330
400C
102
}
330
400C
100
AcDbScale
 70
     0
300
3/32" = 1'-0"
140
0.09375
141
12.0
290
     0
  0
SCALE
  5
4023
102
{ACAD_REACTORS
330
400C
102
}
330
400C
100
AcDbScale
 70
     0
300
1/8" = 1'-0"
140
0.125
141
12.0
290
     0
  0
SCALE
  5
4024
102
{ACAD_REACTORS
330
400C
102
}
330
400C
100
AcDbScale
 70
     0
300
3/16" = 1'-0"
140
0.1875
141
12.0
290
     0
  0
SCALE
  5
4025
102
{ACAD_REACTORS
330
400C
102
}
330
400C
100
AcDbScale
 70
     0
300
1/4" = 1'-0"
140
0.25
141
12.0
290
     0
  0
SCALE
  5
4026
102
{ACAD_REACTORS
330
400C
102
}
330
400C
100
AcDbScale
 70
     0
300
3/8" = 1'-0"
140
0.375
141
12.0
290
     0
  0
SCALE
  5
4027
102
{ACAD_REACTORS
330
400C
102
}
330
400C
100
AcDbScale
 70
     0
300
1/2" = 1'-0"
140
0.5
141
12.0
290
     0
  0
SCALE
  5
4028
102
{ACAD_REACTORS
330
400C
102
}
330
400C
100
AcDbScale
 70
     0
300
3/4" = 1'-0"
140
0.75
141
12.0
290
     0
  0
SCALE
  5
4029
102
{ACAD_REACTORS
330
400C
102
}
330
400C
100
AcDbScale
 70
     0
300
1" = 1'-0"
140
1.0
141
12.0
290
     0
  0
SCALE
  5
402A
102
{ACAD_REACTORS
330
400C
102
}
330
400C
100
AcDbScale
 70
     0
300
1-1/2" = 1'-0"
140
1.5
141
12.0
290
     0
  0
SCALE
  5
402B
102
{ACAD_REACTORS
330
400C
102
}
330
400C
100
AcDbScale
 70
     0
300
3" = 1'-0"
140
3.0
141
12.0
290
     0
  0
SCALE
  5
402C
102
{ACAD_REACTORS
330
400C
102
}
330
400C
100
AcDbScale
 70
     0
300
6" = 1'-0"
140
6.0
141
12.0
290
     0
  0
SCALE
  5
402D
102
{ACAD_REACTORS
330
400C
102
}
330
400C
100
AcDbScale
 70
     0
300
1'-0" = 1'-0"
140
12.0
141
12.0
290
     0
  0
TABLESTYLE
  5
4032
102
{ACAD_REACTORS
330
4031
102
}
102
{ACAD_XDICTIONARY
360
451D
102
}
330
4031
100
AcDbTableStyle
  3
Standard
 70
     0
 71
     0
 40
1.5
 41
1.5
280
     0
281
     0
  7
STANDARD
140
4.5
170
     2
 62
     0
 63
   257
283
     0
274
    -2
284
     1
 64
     0
275
    -2
285
     1
 65
     0
276
    -2
286
     1
 66
     0
277
    -2
287
     1
 67
     0
278
    -2
288
     1
 68
     0
279
    -2
289
     1
 69
     0
  7
STANDARD
140
6.0
170
     5
 62
     0
 63
   257
283
     0
274
    -2
284
     1
 64
     0
275
    -2
285
     1
 65
     0
276
    -2
286
     1
 66
     0
277
    -2
287
     1
 67
     0
278
    -2
288
     1
 68
     0
279
    -2
289
     1
 69
     0
  7
STANDARD
140
4.5
170
     5
 62
     0
 63
   257
283
     0
274
    -2
284
     1
 64
     0
275
    -2
285
     1
 65
     0
276
    -2
286
     1
 66
     0
277
    -2
287
     1
 67
     0
278
    -2
288
     1
 68
     0
279
    -2
289
     1
 69
     0
  0
VISUALSTYLE
  5
3FF8
102
{ACAD_REACTORS
330
3FF3
102
}
102
{ACAD_XDICTIONARY
360
44F5
102
}
330
3FF3
100
AcDbVisualStyle
  2
2dWireframe
 70
     4
 71
     0
 72
     2
 73
     0
 90
        0
 40
0.6
 41
30.0
 62
     5
 63
     7
421
 16777215
 74
     1
 91
        4
 64
     7
 65
   257
 75
     1
175
     1
 42
1.0
 92
        0
 66
   257
 43
1.0
 76
     1
 77
     6
 78
     2
 67
     7
 79
     5
170
     0
171
     0
290
     0
174
     0
 93
        1
 44
0.0
173
     0
291
     0
 45
0.0
1001
ACAD
1000
AcDbSavedByObjectVersion
1070
     0
  0
VISUALSTYLE
  5
3FFB
102
{ACAD_REACTORS
330
3FF3
102
}
102
{ACAD_XDICTIONARY
360
44FB
102
}
330
3FF3
100
AcDbVisualStyle
  2
Basic
 70
     7
 71
     1
 72
     0
 73
     1
 90
        0
 40
0.6
 41
30.0
 62
     5
 63
     7
421
 16777215
 74
     0
 91
        4
 64
     7
 65
   257
 75
     1
175
     1
 42
1.0
 92
        8
 66
     7
 43
1.0
 76
     1
 77
     6
 78
     2
 67
     7
 79
     5
170
     0
171
     0
290
     0
174
     0
 93
        1
 44
0.0
173
     0
291
     1
 45
0.0
1001
ACAD
1000
AcDbSavedByObjectVersion
1070
     0
  0
VISUALSTYLE
  5
3FFF
102
{ACAD_REACTORS
330
3FF3
102
}
102
{ACAD_XDICTIONARY
360
4503
102
}
330
3FF3
100
AcDbVisualStyle
  2
Brighten
 70
    12
 71
     2
 72
     2
 73
     0
 90
        0
 40
0.6
 41
30.0
 62
     5
 63
     7
421
 16777215
 74
     1
 91
        4
 64
     7
 65
   257
 75
     1
175
     1
 42
1.0
 92
        8
 66
     7
 43
1.0
 76
     1
 77
     6
 78
     2
 67
     7
 79
     5
170
     0
171
     0
290
     0
174
     0
 93
        1
 44
50.0
173
     0
291
     1
 45
0.0
1001
ACAD
1000
AcDbSavedByObjectVersion
1070
     0
  0
VISUALSTYLE
  5
4003
102
{ACAD_REACTORS
330
3FF3
102
}
102
{ACAD_XDICTIONARY
360
450B
102
}
330
3FF3
100
AcDbVisualStyle
  2
ColorChange
 70
    16
 71
     2
 72
     2
 73
     3
 90
        0
 40
0.6
 41
30.0
 62
     5
 63
     8
421
  8421504
 74
     1
 91
        4
 64
     7
 65
   257
 75
     1
175
     1
 42
1.0
 92
        8
 66
     8
424
  8421504
 43
1.0
 76
     1
 77
     6
 78
     2
 67
     7
 79
     5
170
     0
171
     0
290
     0
174
     0
 93
        1
 44
0.0
173
     0
291
     1
 45
0.0
1001
ACAD
1000
AcDbSavedByObjectVersion
1070
     0
  0
VISUALSTYLE
  5
3FFD
102
{ACAD_REACTORS
330
3FF3
102
}
102
{ACAD_XDICTIONARY
360
44FF
102
}
330
3FF3
100
AcDbVisualStyle
  2
Conceptual
 70
     9
 71
     3
 72
     2
 73
     0
 90
        0
 40
0.6
 41
30.0
 62
     5
 63
     7
421
 16777215
 74
     2
 91
        2
 64
     7
 65
   257
 75
     1
175
     1
 42
179.0
 92
        8
 66
     7
 43
1.0
 76
     1
 77
     6
 78
     2
 67
     7
 79
     3
170
     0
171
     0
290
     0
174
     0
 93
        1
 44
0.0
173
     0
291
     0
 45
0.0
1001
ACAD
1000
AcDbSavedByObjectVersion
1070
     0
  0
VISUALSTYLE
  5
3FFE
102
{ACAD_REACTORS
330
3FF3
102
}
102
{ACAD_XDICTIONARY
360
4501
102
}
330
3FF3
100
AcDbVisualStyle
  2
Dim
 70
    11
 71
     2
 72
     2
 73
     0
 90
        0
 40
0.6
 41
30.0
 62
     5
 63
     7
421
 16777215
 74
     1
 91
        4
 64
     7
 65
   257
 75
     1
175
     1
 42
1.0
 92
        8
 66
     7
 43
1.0
 76
     1
 77
     6
 78
     2
 67
     7
 79
     5
170
     0
171
     0
290
     0
174
     0
 93
        1
 44
-50.0
173
     0
291
     1
 45
0.0
1001
ACAD
1000
AcDbSavedByObjectVersion
1070
     0
  0
VISUALSTYLE
  5
4006
102
{ACAD_REACTORS
330
3FF3
102
}
102
{ACAD_XDICTIONARY
360
4511
102
}
330
3FF3
100
AcDbVisualStyle
  2
EdgeColorOff
 70
    22
 71
     2
 72
     2
 73
     0
 90
        0
 40
0.6
 41
30.0
 62
     5
 63
     7
421
 16777215
 74
     1
 91
        4
 64
     7
 65
   257
 75
     1
175
     1
 42
1.0
 92
        8
 66
     7
 43
1.0
 76
     1
 77
     6
 78
     2
 67
     7
 79
     5
170
     0
171
     0
290
     0
174
     0
 93
        1
 44
0.0
173
     0
291
     1
 45
0.0
1001
ACAD
1000
AcDbSavedByObjectVersion
1070
     0
  0
VISUALSTYLE
  5
4002
102
{ACAD_REACTORS
330
3FF3
102
}
102
{ACAD_XDICTIONARY
360
4509
102
}
330
3FF3
100
AcDbVisualStyle
  2
Facepattern
 70
    15
 71
     2
 72
     2
 73
     0
 90
        0
 40
0.6
 41
30.0
 62
     5
 63
     7
421
 16777215
 74
     1
 91
        4
 64
     7
 65
   257
 75
     1
175
     1
 42
1.0
 92
        8
 66
     7
 43
1.0
 76
     1
 77
     6
 78
     2
 67
     7
 79
     5
170
     0
171
     0
290
     0
174
     0
 93
        1
 44
0.0
173
     0
291
     1
 45
0.0
1001
ACAD
1000
AcDbSavedByObjectVersion
1070
     0
  0
VISUALSTYLE
  5
3FF4
102
{ACAD_REACTORS
330
3FF3
102
}
102
{ACAD_XDICTIONARY
360
44ED
102
}
330
3FF3
100
AcDbVisualStyle
  2
Flat
 70
     0
 71
     2
 72
     1
 73
     1
 90
        2
 40
0.6
 41
30.0
 62
     5
 63
     7
421
 16777215
 74
     0
 91
        0
 64
     7
 65
   257
 75
     1
175
     1
 42
1.0
 92
        8
 66
     7
 43
1.0
 76
     1
 77
     6
 78
     2
 67
     7
 79
     5
170
     0
171
     0
290
     0
174
     0
 93
       13
 44
0.0
173
     0
291
     1
 45
0.0
1001
ACAD
1000
AcDbSavedByObjectVersion
1070
     0
  0
VISUALSTYLE
  5
3FF5
102
{ACAD_REACTORS
330
3FF3
102
}
102
{ACAD_XDICTIONARY
360
44EF
102
}
330
3FF3
100
AcDbVisualStyle
  2
FlatWithEdges
 70
     1
 71
     2
 72
     1
 73
     1
 90
        2
 40
0.6
 41
30.0
 62
     5
 63
     7
421
 16777215
 74
     1
 91
        0
 64
     7
 65
   257
 75
     1
175
     1
 42
1.0
 92
        0
 66
   257
 43
1.0
 76
     1
 77
     6
 78
     2
 67
     7
 79
     5
170
     0
171
     0
290
     0
174
     0
 93
       13
 44
0.0
173
     0
291
     1
 45
0.0
1001
ACAD
1000
AcDbSavedByObjectVersion
1070
     0
  0
VISUALSTYLE
  5
3FF6
102
{ACAD_REACTORS
330
3FF3
102
}
102
{ACAD_XDICTIONARY
360
44F1
102
}
330
3FF3
100
AcDbVisualStyle
  2
Gouraud
 70
     2
 71
     2
 72
     2
 73
     1
 90
        2
 40
0.6
 41
30.0
 62
     5
 63
     7
421
 16777215
 74
     0
 91
        0
 64
     7
 65
   257
 75
     1
175
     1
 42
1.0
 92
        0
 66
     7
 43
1.0
 76
     1
 77
     6
 78
     2
 67
     7
 79
     5
170
     0
171
     0
290
     0
174
     0
 93
       13
 44
0.0
173
     0
291
     1
 45
0.0
1001
ACAD
1000
AcDbSavedByObjectVersion
1070
     0
  0
VISUALSTYLE
  5
3FF7
102
{ACAD_REACTORS
330
3FF3
102
}
102
{ACAD_XDICTIONARY
360
44F3
102
}
330
3FF3
100
AcDbVisualStyle
  2
GouraudWithEdges
 70
     3
 71
     2
 72
     2
 73
     1
 90
        2
 40
0.6
 41
30.0
 62
     5
 63
     7
421
 16777215
 74
     1
 91
        0
 64
     7
 65
   257
 75
     1
175
     1
 42
1.0
 92
        0
 66
   257
 43
1.0
 76
     1
 77
     6
 78
     2
 67
     7
 79
     5
170
     0
171
     0
290
     0
174
     0
 93
       13
 44
0.0
173
     0
291
     1
 45
0.0
1001
ACAD
1000
AcDbSavedByObjectVersion
1070
     0
  0
VISUALSTYLE
  5
3FFA
102
{ACAD_REACTORS
330
3FF3
102
}
102
{ACAD_XDICTIONARY
360
44F9
102
}
330
3FF3
100
AcDbVisualStyle
  2
Hidden
 70
     6
 71
     1
 72
     2
 73
     2
 90
        0
 40
0.6
 41
30.0
 62
     5
 63
     7
421
 16777215
 74
     2
 91
        2
 64
     7
 65
   257
 75
     2
175
     1
 42
40.0
 92
        0
 66
   257
 43
1.0
 76
     1
 77
     6
 78
     2
 67
     7
 79
     3
170
     0
171
     0
290
     0
174
     0
 93
        1
 44
0.0
173
     0
291
     0
 45
0.0
1001
ACAD
1000
AcDbSavedByObjectVersion
1070
     0
  0
VISUALSTYLE
  5
4004
102
{ACAD_REACTORS
330
3FF3
102
}
102
{ACAD_XDICTIONARY
360
450D
102
}
330
3FF3
100
AcDbVisualStyle
  2
JitterOff
 70
    20
 71
     2
 72
     2
 73
     0
 90
        0
 40
0.6
 41
30.0
 62
     5
 63
     7
421
 16777215
 74
     1
 91
        4
 64
     7
 65
   257
 75
     1
175
     1
 42
1.0
 92
       10
 66
     7
 43
1.0
 76
     1
 77
     6
 78
     2
 67
     7
 79
     5
170
     0
171
     0
290
     0
174
     0
 93
        1
 44
0.0
173
     0
291
     1
 45
0.0
1001
ACAD
1000
AcDbSavedByObjectVersion
1070
     0
  0
VISUALSTYLE
  5
4001
102
{ACAD_REACTORS
330
3FF3
102
}
102
{ACAD_XDICTIONARY
360
4507
102
}
330
3FF3
100
AcDbVisualStyle
  2
Linepattern
 70
    14
 71
     2
 72
     2
 73
     0
 90
        0
 40
0.6
 41
30.0
 62
     5
 63
     7
421
 16777215
 74
     1
 91
        4
 64
     7
 65
   257
 75
     7
175
     7
 42
1.0
 92
        8
 66
     7
 43
1.0
 76
     1
 77
     6
 78
     2
 67
     7
 79
     5
170
     0
171
     0
290
     0
174
     0
 93
        1
 44
0.0
173
     0
291
     1
 45
0.0
1001
ACAD
1000
AcDbSavedByObjectVersion
1070
     0
  0
VISUALSTYLE
  5
4005
102
{ACAD_REACTORS
330
3FF3
102
}
102
{ACAD_XDICTIONARY
360
450F
102
}
330
3FF3
100
AcDbVisualStyle
  2
OverhangOff
 70
    21
 71
     2
 72
     2
 73
     0
 90
        0
 40
0.6
 41
30.0
 62
     5
 63
     7
421
 16777215
 74
     1
 91
        4
 64
     7
 65
   257
 75
     1
175
     1
 42
1.0
 92
        9
 66
     7
 43
1.0
 76
     1
 77
     6
 78
     2
 67
     7
 79
     5
170
     0
171
     0
290
     0
174
     0
 93
        1
 44
0.0
173
     0
291
     1
 45
0.0
1001
ACAD
1000
AcDbSavedByObjectVersion
1070
     0
  0
VISUALSTYLE
  5
3FFC
102
{ACAD_REACTORS
330
3FF3
102
}
102
{ACAD_XDICTIONARY
360
44FD
102
}
330
3FF3
100
AcDbVisualStyle
  2
Realistic
 70
     8
 71
     2
 72
     3
 73
     0
 90
        2
 40
0.6
 41
30.0
 62
     5
 63
     7
421
 16777215
 74
     0
 91
        0
 64
     7
 65
   257
 75
     1
175
     1
 42
1.0
 92
        8
 66
   257
 43
1.0
 76
     1
 77
     6
 78
     2
 67
     7
 79
     3
170
     0
171
     0
290
     0
174
     0
 93
       13
 44
0.0
173
     0
291
     0
 45
0.0
1001
ACAD
1000
AcDbSavedByObjectVersion
1070
     0
  0
VISUALSTYLE
  5
400B
102
{ACAD_REACTORS
330
3FF3
102
}
102
{ACAD_XDICTIONARY
360
451B
102
}
330
3FF3
100
AcDbVisualStyle
  2
Shaded
 70
    27
 71
     2
 72
     2
 73
     1
 90
        2
 40
0.6
 41
30.0
 62
     5
 63
     7
421
 16777215
 74
     0
 91
        4
 64
     7
 65
   257
 75
     1
175
     1
 42
1.0
 92
        8
 66
   257
 43
1.0
 76
     1
 77
     6
 78
     2
 67
     8
425
  7895160
 79
     3
170
     0
171
     0
290
     0
174
     0
 93
        5
 44
0.0
173
     0
291
     0
 45
0.0
1001
ACAD
1000
AcDbSavedByObjectVersion
1070
     0
  0
VISUALSTYLE
  5
400A
102
{ACAD_REACTORS
330
3FF3
102
}
102
{ACAD_XDICTIONARY
360
4519
102
}
330
3FF3
100
AcDbVisualStyle
  2
Shaded with edges
 70
    26
 71
     2
 72
     2
 73
     1
 90
        2
 40
0.6
 41
30.0
 62
     5
 63
     7
421
 16777215
 74
     1
 91
       10
 64
     7
 65
   257
 75
     2
175
     1
 42
1.0
 92
        8
 66
   257
 43
1.0
 76
     1
 77
     6
 78
     2
 67
     7
 79
     3
170
     0
171
     0
290
     0
174
     0
 93
        5
 44
0.0
173
     0
291
     0
 45
0.0
1001
ACAD
1000
AcDbSavedByObjectVersion
1070
     0
  0
VISUALSTYLE
  5
4007
102
{ACAD_REACTORS
330
3FF3
102
}
102
{ACAD_XDICTIONARY
360
4513
102
}
330
3FF3
100
AcDbVisualStyle
  2
Shades of Gray
 70
    23
 71
     2
 72
     2
 73
     3
 90
        0
 40
0.6
 41
30.0
 62
     5
 63
     7
421
 16777215
 74
     2
 91
        2
 64
     7
 65
     7
 75
     1
175
     1
 42
40.0
 92
        8
 66
     7
 43
1.0
 76
     1
 77
     6
 78
     2
 67
     7
 79
     3
170
     0
171
     0
290
     0
174
     0
 93
        1
 44
0.0
173
     0
291
     0
 45
0.0
1001
ACAD
1000
AcDbSavedByObjectVersion
1070
     0
  0
VISUALSTYLE
  5
4008
102
{ACAD_REACTORS
330
3FF3
102
}
102
{ACAD_XDICTIONARY
360
4515
102
}
330
3FF3
100
AcDbVisualStyle
  2
Sketchy
 70
    24
 71
     1
 72
     2
 73
     2
 90
        0
 40
0.6
 41
30.0
 62
     5
 63
     7
421
 16777215
 74
     2
 91
        2
 64
     7
 65
     7
 75
     1
175
     1
 42
40.0
 92
       11
 66
     7
 43
1.0
 76
     1
 77
     6
 78
     2
 67
     7
 79
     6
170
     0
171
     0
290
     0
174
     0
 93
        1
 44
0.0
173
     0
291
     0
 45
0.0
1001
ACAD
1000
AcDbSavedByObjectVersion
1070
     0
  0
VISUALSTYLE
  5
4000
102
{ACAD_REACTORS
330
3FF3
102
}
102
{ACAD_XDICTIONARY
360
4505
102
}
330
3FF3
100
AcDbVisualStyle
  2
Thicken
 70
    13
 71
     2
 72
     2
 73
     0
 90
        0
 40
0.6
 41
30.0
 62
     5
 63
     7
421
 16777215
 74
     1
 91
        4
 64
     7
 65
   257
 75
     1
175
     1
 42
1.0
 92
       12
 66
     7
 43
1.0
 76
     1
 77
     6
 78
     2
 67
     7
 79
     5
170
     0
171
     0
290
     0
174
     0
 93
        1
 44
0.0
173
     0
291
     1
 45
0.0
1001
ACAD
1000
AcDbSavedByObjectVersion
1070
     0
  0
VISUALSTYLE
  5
3FF9
102
{ACAD_REACTORS
330
3FF3
102
}
102
{ACAD_XDICTIONARY
360
44F7
102
}
330
3FF3
100
AcDbVisualStyle
  2
Wireframe
 70
     5
 71
     0
 72
     2
 73
     0
 90
        0
 40
0.6
 41
30.0
 62
     5
 63
     7
421
 16777215
 74
     1
 91
        4
 64
     7
 65
   257
 75
     1
175
     1
 42
1.0
 92
        0
 66
   257
 43
1.0
 76
     1
 77
     6
 78
     2
 67
     7
 79
     3
170
     0
171
     0
290
     0
174
     0
 93
        1
 44
0.0
173
     0
291
     0
 45
0.0
1001
ACAD
1000
AcDbSavedByObjectVersion
1070
     0
  0
VISUALSTYLE
  5
4009
102
{ACAD_REACTORS
330
3FF3
102
}
102
{ACAD_XDICTIONARY
360
4517
102
}
330
3FF3
100
AcDbVisualStyle
  2
X-Ray
 70
    25
 71
     2
 72
     2
 73
     1
 90
        1
 40
0.5
 41
30.0
 62
     5
 63
     7
421
 16777215
 74
     1
 91
        0
 64
     7
 65
   257
 75
     1
175
     1
 42
1.0
 92
        8
 66
     7
 43
1.0
 76
     1
 77
     6
 78
     2
 67
     7
 79
     3
170
     0
171
     0
290
     0
174
     0
 93
       13
 44
0.0
173
     0
291
     0
 45
0.0
1001
ACAD
1000
AcDbSavedByObjectVersion
1070
     0
  0
DICTIONARYVAR
  5
447F
102
{ACAD_REACTORS
330
447E
102
}
330
447E
100
DictionaryVariables
280
     0
  1
1:1
  0
DICTIONARYVAR
  5
4481
102
{ACAD_REACTORS
330
447E
102
}
330
447E
100
DictionaryVariables
280
     0
  1
Standard
  0
DICTIONARYVAR
  5
4480
102
{ACAD_REACTORS
330
447E
102
}
330
447E
100
DictionaryVariables
280
     0
  1
Standard
  0
DICTIONARYVAR
  5
4482
102
{ACAD_REACTORS
330
447E
102
}
330
447E
100
DictionaryVariables
280
     0
  1
0
  0
DICTIONARYVAR
  5
4483
102
{ACAD_REACTORS
330
447E
102
}
330
447E
100
DictionaryVariables
280
     0
  1
0
  0
DICTIONARY
  5
4489
102
{ACAD_REACTORS
330
4488
102
}
330
4488
100
AcDbDictionary
281
     1
  0
DICTIONARY
  5
447D
102
{ACAD_REACTORS
330
447C
102
}
330
447C
100
AcDbDictionary
281
     1
  0
DICTIONARY
  5
447A
102
{ACAD_REACTORS
330
4479
102
}
330
4479
100
AcDbDictionary
281
     1
  0
DICTIONARY
  5
4477
102
{ACAD_REACTORS
330
4476
102
}
330
4476
100
AcDbDictionary
281
     1
  0
DICTIONARY
  5
44E9
330
402F
100
AcDbDictionary
280
     1
281
     1
  3
ACAD_XREC_ROUNDTRIP
360
44EA
  0
DICTIONARY
  5
44E7
330
402E
100
AcDbDictionary
280
     1
281
     1
  3
ACAD_XREC_ROUNDTRIP
360
44E8
  0
DICTIONARY
  5
44EB
330
4030
100
AcDbDictionary
280
     1
281
     1
  3
ACAD_XREC_ROUNDTRIP
360
44EC
  0
DICTIONARY
  5
4520
330
4034
100
AcDbDictionary
280
     1
281
     1
  3
ACAD_XREC_ROUNDTRIP
360
4521
  0
DICTIONARY
  5
451D
330
4032
100
AcDbDictionary
280
     1
281
     1
  3
ACAD_ROUNDTRIP_2008_TABLESTYLE_CELLSTYLEMAP
360
451F
  3
ACAD_XREC_ROUNDTRIP
360
451E
  0
DICTIONARY
  5
44F5
330
3FF8
100
AcDbDictionary
280
     1
281
     1
  3
ACAD_XREC_ROUNDTRIP
360
44F6
  0
DICTIONARY
  5
44FB
330
3FFB
100
AcDbDictionary
280
     1
281
     1
  3
ACAD_XREC_ROUNDTRIP
360
44FC
  0
DICTIONARY
  5
4503
330
3FFF
100
AcDbDictionary
280
     1
281
     1
  3
ACAD_XREC_ROUNDTRIP
360
4504
  0
DICTIONARY
  5
450B
330
4003
100
AcDbDictionary
280
     1
281
     1
  3
ACAD_XREC_ROUNDTRIP
360
450C
  0
DICTIONARY
  5
44FF
330
3FFD
100
AcDbDictionary
280
     1
281
     1
  3
ACAD_XREC_ROUNDTRIP
360
4500
  0
DICTIONARY
  5
4501
330
3FFE
100
AcDbDictionary
280
     1
281
     1
  3
ACAD_XREC_ROUNDTRIP
360
4502
  0
DICTIONARY
  5
4511
330
4006
100
AcDbDictionary
280
     1
281
     1
  3
ACAD_XREC_ROUNDTRIP
360
4512
  0
DICTIONARY
  5
4509
330
4002
100
AcDbDictionary
280
     1
281
     1
  3
ACAD_XREC_ROUNDTRIP
360
450A
  0
DICTIONARY
  5
44ED
330
3FF4
100
AcDbDictionary
280
     1
281
     1
  3
ACAD_XREC_ROUNDTRIP
360
44EE
  0
DICTIONARY
  5
44EF
330
3FF5
100
AcDbDictionary
280
     1
281
     1
  3
ACAD_XREC_ROUNDTRIP
360
44F0
  0
DICTIONARY
  5
44F1
330
3FF6
100
AcDbDictionary
280
     1
281
     1
  3
ACAD_XREC_ROUNDTRIP
360
44F2
  0
DICTIONARY
  5
44F3
330
3FF7
100
AcDbDictionary
280
     1
281
     1
  3
ACAD_XREC_ROUNDTRIP
360
44F4
  0
DICTIONARY
  5
44F9
330
3FFA
100
AcDbDictionary
280
     1
281
     1
  3
ACAD_XREC_ROUNDTRIP
360
44FA
  0
DICTIONARY
  5
450D
330
4004
100
AcDbDictionary
280
     1
281
     1
  3
ACAD_XREC_ROUNDTRIP
360
450E
  0
DICTIONARY
  5
4507
330
4001
100
AcDbDictionary
280
     1
281
     1
  3
ACAD_XREC_ROUNDTRIP
360
4508
  0
DICTIONARY
  5
450F
330
4005
100
AcDbDictionary
280
     1
281
     1
  3
ACAD_XREC_ROUNDTRIP
360
4510
  0
DICTIONARY
  5
44FD
330
3FFC
100
AcDbDictionary
280
     1
281
     1
  3
ACAD_XREC_ROUNDTRIP
360
44FE
  0
DICTIONARY
  5
451B
330
400B
100
AcDbDictionary
280
     1
281
     1
  3
ACAD_XREC_ROUNDTRIP
360
451C
  0
DICTIONARY
  5
4519
330
400A
100
AcDbDictionary
280
     1
281
     1
  3
ACAD_XREC_ROUNDTRIP
360
451A
  0
DICTIONARY
  5
4513
330
4007
100
AcDbDictionary
280
     1
281
     1
  3
ACAD_XREC_ROUNDTRIP
360
4514
  0
DICTIONARY
  5
4515
330
4008
100
AcDbDictionary
280
     1
281
     1
  3
ACAD_XREC_ROUNDTRIP
360
4516
  0
DICTIONARY
  5
4505
330
4000
100
AcDbDictionary
280
     1
281
     1
  3
ACAD_XREC_ROUNDTRIP
360
4506
  0
DICTIONARY
  5
44F7
330
3FF9
100
AcDbDictionary
280
     1
281
     1
  3
ACAD_XREC_ROUNDTRIP
360
44F8
  0
DICTIONARY
  5
4517
330
4009
100
AcDbDictionary
280
     1
281
     1
  3
ACAD_XREC_ROUNDTRIP
360
4518
  0
XRECORD
  5
44EA
102
{ACAD_REACTORS
330
44E9
102
}
330
44E9
100
AcDbXrecord
280
     1
102
MATERIAL
148
0.0
149
0.0
149
0.0
 93
        0
 94
      127
282
     0
 72
     1
 77
     1
171
     1
175
     1
179
     1
273
     0
  0
XRECORD
  5
44E8
102
{ACAD_REACTORS
330
44E7
102
}
330
44E7
100
AcDbXrecord
280
     1
102
MATERIAL
148
0.0
149
0.0
149
0.0
 93
        0
 94
      127
282
     0
 72
     1
 77
     1
171
     1
175
     1
179
     1
273
     0
  0
XRECORD
  5
44EC
102
{ACAD_REACTORS
330
44EB
102
}
330
44EB
100
AcDbXrecord
280
     1
102
MATERIAL
148
0.0
149
0.0
149
0.0
 93
        0
 94
      127
282
     0
 72
     1
 77
     1
171
     1
175
     1
179
     1
273
     0
  0
XRECORD
  5
4521
102
{ACAD_REACTORS
330
4520
102
}
330
4520
100
AcDbXrecord
280
     1
102
ACAD_ROUNDTRIP_2010_MLEADER_STYLE
  0
CELLSTYLEMAP
  5
451F
102
{ACAD_REACTORS
330
451D
102
}
330
451D
100
AcDbCellStyleMap
 90
        3
300
CELLSTYLE
  1
TABLEFORMAT_BEGIN
 90
        5
170
     1
 91
        0
 92
        0
 62
   257
 93
        1
300
CONTENTFORMAT
  1
CONTENTFORMAT_BEGIN
 90
        0
 91
        0
 92
        4
 93
        0
300

 40
0.0
140
1.0
 94
        5
 62
     0
340
10
144
6.0
309
CONTENTFORMAT_END
171
     1
301
MARGIN
  1
CELLMARGIN_BEGIN
 40
1.5
 40
1.5
 40
1.5
 40
1.5
 40
1.5
 40
1.5
309
CELLMARGIN_END
 94
        6
 95
        1
302
GRIDFORMAT
  1
GRIDFORMAT_BEGIN
 90
        0
 91
        1
 62
     0
 92
       -2
340
14
 93
        0
 40
0.045
309
GRIDFORMAT_END
 95
        2
302
GRIDFORMAT
  1
GRIDFORMAT_BEGIN
 90
        0
 91
        1
 62
     0
 92
       -2
340
14
 93
        0
 40
0.045
309
GRIDFORMAT_END
 95
        4
302
GRIDFORMAT
  1
GRIDFORMAT_BEGIN
 90
        0
 91
        1
 62
     0
 92
       -2
340
14
 93
        0
 40
0.045
309
GRIDFORMAT_END
 95
        8
302
GRIDFORMAT
  1
GRIDFORMAT_BEGIN
 90
        0
 91
        1
 62
     0
 92
       -2
340
14
 93
        0
 40
0.045
309
GRIDFORMAT_END
 95
       16
302
GRIDFORMAT
  1
GRIDFORMAT_BEGIN
 90
        0
 91
        1
 62
     0
 92
       -2
340
14
 93
        0
 40
0.045
309
GRIDFORMAT_END
 95
       32
302
GRIDFORMAT
  1
GRIDFORMAT_BEGIN
 90
        0
 91
        1
 62
     0
 92
       -2
340
14
 93
        0
 40
0.045
309
GRIDFORMAT_END
309
TABLEFORMAT_END
  1
CELLSTYLE_BEGIN
 90
        1
 91
        1
300
_TITLE
309
CELLSTYLE_END
300
CELLSTYLE
  1
TABLEFORMAT_BEGIN
 90
        5
170
     1
 91
        0
 92
        0
 62
   257
 93
        1
300
CONTENTFORMAT
  1
CONTENTFORMAT_BEGIN
 90
        0
 91
        0
 92
        4
 93
        0
300

 40
0.0
140
1.0
 94
        5
 62
     0
340
10
144
4.5
309
CONTENTFORMAT_END
171
     1
301
MARGIN
  1
CELLMARGIN_BEGIN
 40
1.5
 40
1.5
 40
1.5
 40
1.5
 40
1.5
 40
1.5
309
CELLMARGIN_END
 94
        6
 95
        1
302
GRIDFORMAT
  1
GRIDFORMAT_BEGIN
 90
        0
 91
        1
 62
     0
 92
       -2
340
14
 93
        0
 40
0.045
309
GRIDFORMAT_END
 95
        2
302
GRIDFORMAT
  1
GRIDFORMAT_BEGIN
 90
        0
 91
        1
 62
     0
 92
       -2
340
14
 93
        0
 40
0.045
309
GRIDFORMAT_END
 95
        4
302
GRIDFORMAT
  1
GRIDFORMAT_BEGIN
 90
        0
 91
        1
 62
     0
 92
       -2
340
14
 93
        0
 40
0.045
309
GRIDFORMAT_END
 95
        8
302
GRIDFORMAT
  1
GRIDFORMAT_BEGIN
 90
        0
 91
        1
 62
     0
 92
       -2
340
14
 93
        0
 40
0.045
309
GRIDFORMAT_END
 95
       16
302
GRIDFORMAT
  1
GRIDFORMAT_BEGIN
 90
        0
 91
        1
 62
     0
 92
       -2
340
14
 93
        0
 40
0.045
309
GRIDFORMAT_END
 95
       32
302
GRIDFORMAT
  1
GRIDFORMAT_BEGIN
 90
        0
 91
        1
 62
     0
 92
       -2
340
14
 93
        0
 40
0.045
309
GRIDFORMAT_END
309
TABLEFORMAT_END
  1
CELLSTYLE_BEGIN
 90
        2
 91
        1
300
_HEADER
309
CELLSTYLE_END
300
CELLSTYLE
  1
TABLEFORMAT_BEGIN
 90
        5
170
     1
 91
        0
 92
        0
 62
   257
 93
        1
300
CONTENTFORMAT
  1
CONTENTFORMAT_BEGIN
 90
        0
 91
        0
 92
        4
 93
        0
300

 40
0.0
140
1.0
 94
        2
 62
     0
340
10
144
4.5
309
CONTENTFORMAT_END
171
     1
301
MARGIN
  1
CELLMARGIN_BEGIN
 40
1.5
 40
1.5
 40
1.5
 40
1.5
 40
1.5
 40
1.5
309
CELLMARGIN_END
 94
        6
 95
        1
302
GRIDFORMAT
  1
GRIDFORMAT_BEGIN
 90
        0
 91
        1
 62
     0
 92
       -2
340
14
 93
        0
 40
0.045
309
GRIDFORMAT_END
 95
        2
302
GRIDFORMAT
  1
GRIDFORMAT_BEGIN
 90
        0
 91
        1
 62
     0
 92
       -2
340
14
 93
        0
 40
0.045
309
GRIDFORMAT_END
 95
        4
302
GRIDFORMAT
  1
GRIDFORMAT_BEGIN
 90
        0
 91
        1
 62
     0
 92
       -2
340
14
 93
        0
 40
0.045
309
GRIDFORMAT_END
 95
        8
302
GRIDFORMAT
  1
GRIDFORMAT_BEGIN
 90
        0
 91
        1
 62
     0
 92
       -2
340
14
 93
        0
 40
0.045
309
GRIDFORMAT_END
 95
       16
302
GRIDFORMAT
  1
GRIDFORMAT_BEGIN
 90
        0
 91
        1
 62
     0
 92
       -2
340
14
 93
        0
 40
0.045
309
GRIDFORMAT_END
 95
       32
302
GRIDFORMAT
  1
GRIDFORMAT_BEGIN
 90
        0
 91
        1
 62
     0
 92
       -2
340
14
 93
        0
 40
0.045
309
GRIDFORMAT_END
309
TABLEFORMAT_END
  1
CELLSTYLE_BEGIN
 90
        3
 91
        2
300
_DATA
309
CELLSTYLE_END
  0
XRECORD
  5
451E
102
{ACAD_REACTORS
330
451D
102
}
330
451D
100
AcDbXrecord
280
     1
102
ACAD_ROUNDTRIP_PRE2007_TABLESTYLE
 90
        4
 91
        0
  1

 92
        4
 93
        0
  2

 94
        4
 95
        0
  3

  0
XRECORD
  5
44F6
102
{ACAD_REACTORS
330
44F5
102
}
330
44F5
100
AcDbXrecord
280
     1
102
RTVSPropertyOp0
 70
     1
102
RTVSPropertyOp1
 70
     1
102
RTVSPropertyOp2
 70
     1
102
RTVSPropertyOp3
 70
     1
102
RTVSPropertyOp4
 70
     1
102
RTVSPropertyOp5
 70
     1
102
RTVSPropertyOp6
 70
     1
102
RTVSPropertyOp7
 70
     1
102
RTVSPropertyOp8
 70
     1
102
RTVSPropertyOp9
 70
     1
102
RTVSPropertyOp10
 70
     1
102
RTVSPropertyOp11
 70
     1
102
RTVSPropertyOp12
 70
     1
102
RTVSPropertyOp13
 70
     1
102
RTVSPropertyOp14
 70
     1
102
RTVSPropertyOp15
 70
     1
102
RTVSPropertyOp16
 70
     1
102
RTVSPropertyOp17
 70
     1
102
RTVSPropertyOp18
 70
     1
102
RTVSPropertyOp19
 70
     1
102
RTVSPropertyOp20
 70
     1
102
RTVSPropertyOp21
 70
     1
102
RTVSPropertyOp22
 70
     1
102
RTVSPropertyOp23
 70
     1
102
RTVSPropertyOp24
 70
     1
102
RTVSPropertyOp25
 70
     1
102
RTVSPropertyOp26
 70
     1
102
RTVSPropertyOp27
 70
     1
102
RTVSPropertyOp28
 70
     1
102
RTVSPropertyOp29
 70
     1
102
RTVSPropertyOp30
 70
     1
102
RTVSPropertyOp31
 70
     1
102
RTVSPropertyOp32
 70
     1
102
RTVSPropertyOp33
 70
     1
102
RTVSPropertyOp34
 70
     1
102
RTVSPropertyOp35
 70
     1
102
RTVSPropertyOp36
 70
     1
102
RTVSPropertyOp37
 70
     1
102
RTVSPropertyOp38
 70
     1
102
RTVSPropertyOp39
 70
     1
102
RTVSPropertyOp40
 70
     1
102
RTVSPropertyOp41
 70
     1
102
RTVSPropertyOp42
 70
     1
102
RTVSPropertyOp43
 70
     1
102
RTVSPropertyOp44
 70
     1
102
RTVSPropertyOp45
 70
     1
102
RTVSPropertyOp46
 70
     1
102
RTVSPropertyOp47
 70
     1
102
RTVSPropertyOp48
 70
     1
102
RTVSPropertyOp49
 70
     1
102
RTVSPropertyOp50
 70
     1
102
RTVSPropertyOp51
 70
     0
102
RTVSPropertyOp52
 70
     0
102
RTVSPropertyOp53
 70
     1
102
RTVSPropertyOp54
 70
     1
102
RTVSPropertyOp55
 70
     1
102
RTVSPropertyOp56
 70
     1
102
RTVSPropertyOp57
 70
     1
102
RTVSPost2010Prop28
280
     1
102
RTVSPost2010PropOp28
 70
     1
102
RTVSPost2010Prop29
280
     1
102
RTVSPost2010PropOp29
 70
     1
102
RTVSPost2010Prop30
280
     0
102
RTVSPost2010PropOp30
 70
     1
102
RTVSPost2010Prop31
280
     0
102
RTVSPost2010PropOp31
 70
     1
102
RTVSPost2010Prop32
280
     0
102
RTVSPost2010PropOp32
 70
     1
102
RTVSPost2010Prop33
280
     0
102
RTVSPost2010PropOp33
 70
     1
102
RTVSPost2010Prop34
280
     0
102
RTVSPost2010PropOp34
 70
     1
102
RTVSPost2010Prop35
280
     0
102
RTVSPost2010PropOp35
 70
     1
102
RTVSPost2010Prop36
280
     0
102
RTVSPost2010PropOp36
 70
     1
102
RTVSPost2010Prop37
 90
       50
102
RTVSPost2010PropOp37
 70
     1
102
RTVSPost2010Prop38
140
0.0
102
RTVSPost2010PropOp38
 70
     1
102
RTVSPost2010Prop39
140
1.0
102
RTVSPost2010PropOp39
 70
     1
102
RTVSPost2010Prop40
 90
        0
102
RTVSPost2010PropOp40
 70
     1
102
RTVSPost2010Prop41ColorIndex
 90
       18
102
RTVSPost2010Prop41ColorRGB
 90
        0
102
RTVSPost2010PropOp41
 70
     1
102
RTVSPost2010Prop42
 90
       50
102
RTVSPost2010PropOp42
 70
     1
102
RTVSPost2010Prop43
 90
        3
102
RTVSPost2010PropOp43
 70
     1
102
RTVSPost2010Prop44ColorIndex
 90
        5
102
RTVSPost2010Prop44ColorRGB
 90
      255
102
RTVSPost2010PropOp44
 70
     1
102
RTVSPost2010Prop45
280
     0
102
RTVSPost2010PropOp45
 70
     1
102
RTVSPost2010Prop46
 90
       50
102
RTVSPost2010PropOp46
 70
     1
102
RTVSPost2010Prop47
 90
       50
102
RTVSPost2010PropOp47
 70
     1
102
RTVSPost2010Prop48
 90
       50
102
RTVSPost2010PropOp48
 70
     1
102
RTVSPost2010Prop49
280
     0
102
RTVSPost2010PropOp49
 70
     1
102
RTVSPost2010Prop50
 90
       50
102
RTVSPost2010PropOp50
 70
     1
102
RTVSPost2010Prop51ColorIndex
 90
      256
102
RTVSPost2010Prop51ColorRGB
 90
-16777216
102
RTVSPost2010PropOp51
 70
     0
102
RTVSPost2010Prop52
140
1.0
102
RTVSPost2010PropOp52
 70
     0
102
RTVSPost2010Prop53
 90
        2
102
RTVSPost2010PropOp53
 70
     1
102
RTVSPost2010Prop54
  1
strokes_ogs.tif
102
RTVSPost2010PropOp54
 70
     1
102
RTVSPost2010Prop55
280
     0
102
RTVSPost2010PropOp55
 70
     1
102
RTVSPost2010Prop56
140
1.0
102
RTVSPost2010PropOp56
 70
     1
102
RTVSPost2010Prop57
140
1.0
102
RTVSPost2010PropOp57
 70
     1
  0
XRECORD
  5
44FC
102
{ACAD_REACTORS
330
44FB
102
}
330
44FB
100
AcDbXrecord
280
     1
102
RTVSPropertyOp0
 70
     1
102
RTVSPropertyOp1
 70
     1
102
RTVSPropertyOp2
 70
     1
102
RTVSPropertyOp3
 70
     1
102
RTVSPropertyOp4
 70
     1
102
RTVSPropertyOp5
 70
     1
102
RTVSPropertyOp6
 70
     1
102
RTVSPropertyOp7
 70
     1
102
RTVSPropertyOp8
 70
     1
102
RTVSPropertyOp9
 70
     1
102
RTVSPropertyOp10
 70
     1
102
RTVSPropertyOp11
 70
     1
102
RTVSPropertyOp12
 70
     1
102
RTVSPropertyOp13
 70
     1
102
RTVSPropertyOp14
 70
     1
102
RTVSPropertyOp15
 70
     1
102
RTVSPropertyOp16
 70
     1
102
RTVSPropertyOp17
 70
     1
102
RTVSPropertyOp18
 70
     1
102
RTVSPropertyOp19
 70
     1
102
RTVSPropertyOp20
 70
     1
102
RTVSPropertyOp21
 70
     1
102
RTVSPropertyOp22
 70
     1
102
RTVSPropertyOp23
 70
     1
102
RTVSPropertyOp24
 70
     1
102
RTVSPropertyOp25
 70
     1
102
RTVSPropertyOp26
 70
     1
102
RTVSPropertyOp27
 70
     1
102
RTVSPropertyOp28
 70
     1
102
RTVSPropertyOp29
 70
     1
102
RTVSPropertyOp30
 70
     1
102
RTVSPropertyOp31
 70
     1
102
RTVSPropertyOp32
 70
     1
102
RTVSPropertyOp33
 70
     1
102
RTVSPropertyOp34
 70
     1
102
RTVSPropertyOp35
 70
     1
102
RTVSPropertyOp36
 70
     1
102
RTVSPropertyOp37
 70
     1
102
RTVSPropertyOp38
 70
     1
102
RTVSPropertyOp39
 70
     1
102
RTVSPropertyOp40
 70
     1
102
RTVSPropertyOp41
 70
     1
102
RTVSPropertyOp42
 70
     1
102
RTVSPropertyOp43
 70
     1
102
RTVSPropertyOp44
 70
     1
102
RTVSPropertyOp45
 70
     1
102
RTVSPropertyOp46
 70
     1
102
RTVSPropertyOp47
 70
     1
102
RTVSPropertyOp48
 70
     1
102
RTVSPropertyOp49
 70
     1
102
RTVSPropertyOp50
 70
     1
102
RTVSPropertyOp51
 70
     0
102
RTVSPropertyOp52
 70
     0
102
RTVSPropertyOp53
 70
     1
102
RTVSPropertyOp54
 70
     1
102
RTVSPropertyOp55
 70
     1
102
RTVSPropertyOp56
 70
     1
102
RTVSPropertyOp57
 70
     1
102
RTVSPost2010Prop28
280
     0
102
RTVSPost2010PropOp28
 70
     1
102
RTVSPost2010Prop29
280
     1
102
RTVSPost2010PropOp29
 70
     1
102
RTVSPost2010Prop30
280
     1
102
RTVSPost2010PropOp30
 70
     1
102
RTVSPost2010Prop31
280
     0
102
RTVSPost2010PropOp31
 70
     1
102
RTVSPost2010Prop32
280
     0
102
RTVSPost2010PropOp32
 70
     1
102
RTVSPost2010Prop33
280
     0
102
RTVSPost2010PropOp33
 70
     1
102
RTVSPost2010Prop34
280
     0
102
RTVSPost2010PropOp34
 70
     1
102
RTVSPost2010Prop35
280
     0
102
RTVSPost2010PropOp35
 70
     1
102
RTVSPost2010Prop36
280
     0
102
RTVSPost2010PropOp36
 70
     1
102
RTVSPost2010Prop37
 90
       50
102
RTVSPost2010PropOp37
 70
     1
102
RTVSPost2010Prop38
140
0.0
102
RTVSPost2010PropOp38
 70
     1
102
RTVSPost2010Prop39
140
1.0
102
RTVSPost2010PropOp39
 70
     1
102
RTVSPost2010Prop40
 90
        0
102
RTVSPost2010PropOp40
 70
     1
102
RTVSPost2010Prop41ColorIndex
 90
       18
102
RTVSPost2010Prop41ColorRGB
 90
        0
102
RTVSPost2010PropOp41
 70
     1
102
RTVSPost2010Prop42
 90
       50
102
RTVSPost2010PropOp42
 70
     1
102
RTVSPost2010Prop43
 90
        3
102
RTVSPost2010PropOp43
 70
     1
102
RTVSPost2010Prop44ColorIndex
 90
        5
102
RTVSPost2010Prop44ColorRGB
 90
      255
102
RTVSPost2010PropOp44
 70
     1
102
RTVSPost2010Prop45
280
     0
102
RTVSPost2010PropOp45
 70
     1
102
RTVSPost2010Prop46
 90
       50
102
RTVSPost2010PropOp46
 70
     1
102
RTVSPost2010Prop47
 90
       50
102
RTVSPost2010PropOp47
 70
     1
102
RTVSPost2010Prop48
 90
       50
102
RTVSPost2010PropOp48
 70
     1
102
RTVSPost2010Prop49
280
     0
102
RTVSPost2010PropOp49
 70
     1
102
RTVSPost2010Prop50
 90
       50
102
RTVSPost2010PropOp50
 70
     1
102
RTVSPost2010Prop51ColorIndex
 90
      256
102
RTVSPost2010Prop51ColorRGB
 90
-16777216
102
RTVSPost2010PropOp51
 70
     0
102
RTVSPost2010Prop52
140
1.0
102
RTVSPost2010PropOp52
 70
     0
102
RTVSPost2010Prop53
 90
        2
102
RTVSPost2010PropOp53
 70
     1
102
RTVSPost2010Prop54
  1
strokes_ogs.tif
102
RTVSPost2010PropOp54
 70
     1
102
RTVSPost2010Prop55
280
     0
102
RTVSPost2010PropOp55
 70
     1
102
RTVSPost2010Prop56
140
1.0
102
RTVSPost2010PropOp56
 70
     1
102
RTVSPost2010Prop57
140
1.0
102
RTVSPost2010PropOp57
 70
     1
  0
XRECORD
  5
4504
102
{ACAD_REACTORS
330
4503
102
}
330
4503
100
AcDbXrecord
280
     1
102
RTVSPropertyOp0
 70
     1
102
RTVSPropertyOp1
 70
     1
102
RTVSPropertyOp2
 70
     1
102
RTVSPropertyOp3
 70
     1
102
RTVSPropertyOp4
 70
     1
102
RTVSPropertyOp5
 70
     1
102
RTVSPropertyOp6
 70
     1
102
RTVSPropertyOp7
 70
     1
102
RTVSPropertyOp8
 70
     1
102
RTVSPropertyOp9
 70
     1
102
RTVSPropertyOp10
 70
     1
102
RTVSPropertyOp11
 70
     1
102
RTVSPropertyOp12
 70
     1
102
RTVSPropertyOp13
 70
     1
102
RTVSPropertyOp14
 70
     1
102
RTVSPropertyOp15
 70
     1
102
RTVSPropertyOp16
 70
     1
102
RTVSPropertyOp17
 70
     1
102
RTVSPropertyOp18
 70
     1
102
RTVSPropertyOp19
 70
     1
102
RTVSPropertyOp20
 70
     1
102
RTVSPropertyOp21
 70
     1
102
RTVSPropertyOp22
 70
     1
102
RTVSPropertyOp23
 70
     1
102
RTVSPropertyOp24
 70
     1
102
RTVSPropertyOp25
 70
     1
102
RTVSPropertyOp26
 70
     1
102
RTVSPropertyOp27
 70
     1
102
RTVSPropertyOp28
 70
     1
102
RTVSPropertyOp29
 70
     1
102
RTVSPropertyOp30
 70
     1
102
RTVSPropertyOp31
 70
     1
102
RTVSPropertyOp32
 70
     1
102
RTVSPropertyOp33
 70
     1
102
RTVSPropertyOp34
 70
     1
102
RTVSPropertyOp35
 70
     1
102
RTVSPropertyOp36
 70
     1
102
RTVSPropertyOp37
 70
     1
102
RTVSPropertyOp38
 70
     1
102
RTVSPropertyOp39
 70
     1
102
RTVSPropertyOp40
 70
     1
102
RTVSPropertyOp41
 70
     1
102
RTVSPropertyOp42
 70
     1
102
RTVSPropertyOp43
 70
     1
102
RTVSPropertyOp44
 70
     1
102
RTVSPropertyOp45
 70
     1
102
RTVSPropertyOp46
 70
     1
102
RTVSPropertyOp47
 70
     1
102
RTVSPropertyOp48
 70
     1
102
RTVSPropertyOp49
 70
     1
102
RTVSPropertyOp50
 70
     1
102
RTVSPropertyOp51
 70
     0
102
RTVSPropertyOp52
 70
     0
102
RTVSPropertyOp53
 70
     1
102
RTVSPropertyOp54
 70
     1
102
RTVSPropertyOp55
 70
     1
102
RTVSPropertyOp56
 70
     1
102
RTVSPropertyOp57
 70
     1
102
RTVSPost2010Prop28
280
     0
102
RTVSPost2010PropOp28
 70
     1
102
RTVSPost2010Prop29
280
     1
102
RTVSPost2010PropOp29
 70
     1
102
RTVSPost2010Prop30
280
     1
102
RTVSPost2010PropOp30
 70
     1
102
RTVSPost2010Prop31
280
     0
102
RTVSPost2010PropOp31
 70
     1
102
RTVSPost2010Prop32
280
     0
102
RTVSPost2010PropOp32
 70
     1
102
RTVSPost2010Prop33
280
     0
102
RTVSPost2010PropOp33
 70
     1
102
RTVSPost2010Prop34
280
     0
102
RTVSPost2010PropOp34
 70
     1
102
RTVSPost2010Prop35
280
     0
102
RTVSPost2010PropOp35
 70
     1
102
RTVSPost2010Prop36
280
     0
102
RTVSPost2010PropOp36
 70
     1
102
RTVSPost2010Prop37
 90
       50
102
RTVSPost2010PropOp37
 70
     1
102
RTVSPost2010Prop38
140
0.0
102
RTVSPost2010PropOp38
 70
     1
102
RTVSPost2010Prop39
140
1.0
102
RTVSPost2010PropOp39
 70
     1
102
RTVSPost2010Prop40
 90
        0
102
RTVSPost2010PropOp40
 70
     1
102
RTVSPost2010Prop41ColorIndex
 90
       18
102
RTVSPost2010Prop41ColorRGB
 90
        0
102
RTVSPost2010PropOp41
 70
     1
102
RTVSPost2010Prop42
 90
       50
102
RTVSPost2010PropOp42
 70
     1
102
RTVSPost2010Prop43
 90
        3
102
RTVSPost2010PropOp43
 70
     1
102
RTVSPost2010Prop44ColorIndex
 90
        5
102
RTVSPost2010Prop44ColorRGB
 90
      255
102
RTVSPost2010PropOp44
 70
     1
102
RTVSPost2010Prop45
280
     0
102
RTVSPost2010PropOp45
 70
     1
102
RTVSPost2010Prop46
 90
       50
102
RTVSPost2010PropOp46
 70
     1
102
RTVSPost2010Prop47
 90
       50
102
RTVSPost2010PropOp47
 70
     1
102
RTVSPost2010Prop48
 90
       50
102
RTVSPost2010PropOp48
 70
     1
102
RTVSPost2010Prop49
280
     0
102
RTVSPost2010PropOp49
 70
     1
102
RTVSPost2010Prop50
 90
       50
102
RTVSPost2010PropOp50
 70
     1
102
RTVSPost2010Prop51ColorIndex
 90
      256
102
RTVSPost2010Prop51ColorRGB
 90
-16777216
102
RTVSPost2010PropOp51
 70
     0
102
RTVSPost2010Prop52
140
1.0
102
RTVSPost2010PropOp52
 70
     0
102
RTVSPost2010Prop53
 90
        2
102
RTVSPost2010PropOp53
 70
     1
102
RTVSPost2010Prop54
  1
strokes_ogs.tif
102
RTVSPost2010PropOp54
 70
     1
102
RTVSPost2010Prop55
280
     0
102
RTVSPost2010PropOp55
 70
     1
102
RTVSPost2010Prop56
140
1.0
102
RTVSPost2010PropOp56
 70
     1
102
RTVSPost2010Prop57
140
1.0
102
RTVSPost2010PropOp57
 70
     1
  0
XRECORD
  5
450C
102
{ACAD_REACTORS
330
450B
102
}
330
450B
100
AcDbXrecord
280
     1
102
RTVSPropertyOp0
 70
     1
102
RTVSPropertyOp1
 70
     1
102
RTVSPropertyOp2
 70
     1
102
RTVSPropertyOp3
 70
     1
102
RTVSPropertyOp4
 70
     1
102
RTVSPropertyOp5
 70
     1
102
RTVSPropertyOp6
 70
     1
102
RTVSPropertyOp7
 70
     1
102
RTVSPropertyOp8
 70
     1
102
RTVSPropertyOp9
 70
     1
102
RTVSPropertyOp10
 70
     1
102
RTVSPropertyOp11
 70
     1
102
RTVSPropertyOp12
 70
     1
102
RTVSPropertyOp13
 70
     1
102
RTVSPropertyOp14
 70
     1
102
RTVSPropertyOp15
 70
     1
102
RTVSPropertyOp16
 70
     1
102
RTVSPropertyOp17
 70
     1
102
RTVSPropertyOp18
 70
     1
102
RTVSPropertyOp19
 70
     1
102
RTVSPropertyOp20
 70
     1
102
RTVSPropertyOp21
 70
     1
102
RTVSPropertyOp22
 70
     1
102
RTVSPropertyOp23
 70
     1
102
RTVSPropertyOp24
 70
     1
102
RTVSPropertyOp25
 70
     1
102
RTVSPropertyOp26
 70
     1
102
RTVSPropertyOp27
 70
     1
102
RTVSPropertyOp28
 70
     1
102
RTVSPropertyOp29
 70
     1
102
RTVSPropertyOp30
 70
     1
102
RTVSPropertyOp31
 70
     1
102
RTVSPropertyOp32
 70
     1
102
RTVSPropertyOp33
 70
     1
102
RTVSPropertyOp34
 70
     1
102
RTVSPropertyOp35
 70
     1
102
RTVSPropertyOp36
 70
     1
102
RTVSPropertyOp37
 70
     1
102
RTVSPropertyOp38
 70
     1
102
RTVSPropertyOp39
 70
     1
102
RTVSPropertyOp40
 70
     1
102
RTVSPropertyOp41
 70
     1
102
RTVSPropertyOp42
 70
     1
102
RTVSPropertyOp43
 70
     1
102
RTVSPropertyOp44
 70
     1
102
RTVSPropertyOp45
 70
     1
102
RTVSPropertyOp46
 70
     1
102
RTVSPropertyOp47
 70
     1
102
RTVSPropertyOp48
 70
     1
102
RTVSPropertyOp49
 70
     1
102
RTVSPropertyOp50
 70
     1
102
RTVSPropertyOp51
 70
     0
102
RTVSPropertyOp52
 70
     0
102
RTVSPropertyOp53
 70
     1
102
RTVSPropertyOp54
 70
     1
102
RTVSPropertyOp55
 70
     1
102
RTVSPropertyOp56
 70
     1
102
RTVSPropertyOp57
 70
     1
102
RTVSPost2010Prop28
280
     0
102
RTVSPost2010PropOp28
 70
     1
102
RTVSPost2010Prop29
280
     1
102
RTVSPost2010PropOp29
 70
     1
102
RTVSPost2010Prop30
280
     1
102
RTVSPost2010PropOp30
 70
     1
102
RTVSPost2010Prop31
280
     0
102
RTVSPost2010PropOp31
 70
     1
102
RTVSPost2010Prop32
280
     0
102
RTVSPost2010PropOp32
 70
     1
102
RTVSPost2010Prop33
280
     0
102
RTVSPost2010PropOp33
 70
     1
102
RTVSPost2010Prop34
280
     0
102
RTVSPost2010PropOp34
 70
     1
102
RTVSPost2010Prop35
280
     0
102
RTVSPost2010PropOp35
 70
     1
102
RTVSPost2010Prop36
280
     0
102
RTVSPost2010PropOp36
 70
     1
102
RTVSPost2010Prop37
 90
       50
102
RTVSPost2010PropOp37
 70
     1
102
RTVSPost2010Prop38
140
0.0
102
RTVSPost2010PropOp38
 70
     1
102
RTVSPost2010Prop39
140
1.0
102
RTVSPost2010PropOp39
 70
     1
102
RTVSPost2010Prop40
 90
        0
102
RTVSPost2010PropOp40
 70
     1
102
RTVSPost2010Prop41ColorIndex
 90
       18
102
RTVSPost2010Prop41ColorRGB
 90
        0
102
RTVSPost2010PropOp41
 70
     1
102
RTVSPost2010Prop42
 90
       50
102
RTVSPost2010PropOp42
 70
     1
102
RTVSPost2010Prop43
 90
        3
102
RTVSPost2010PropOp43
 70
     1
102
RTVSPost2010Prop44ColorIndex
 90
        5
102
RTVSPost2010Prop44ColorRGB
 90
      255
102
RTVSPost2010PropOp44
 70
     1
102
RTVSPost2010Prop45
280
     0
102
RTVSPost2010PropOp45
 70
     1
102
RTVSPost2010Prop46
 90
       50
102
RTVSPost2010PropOp46
 70
     1
102
RTVSPost2010Prop47
 90
       50
102
RTVSPost2010PropOp47
 70
     1
102
RTVSPost2010Prop48
 90
       50
102
RTVSPost2010PropOp48
 70
     1
102
RTVSPost2010Prop49
280
     0
102
RTVSPost2010PropOp49
 70
     1
102
RTVSPost2010Prop50
 90
       50
102
RTVSPost2010PropOp50
 70
     1
102
RTVSPost2010Prop51ColorIndex
 90
      256
102
RTVSPost2010Prop51ColorRGB
 90
-16777216
102
RTVSPost2010PropOp51
 70
     0
102
RTVSPost2010Prop52
140
1.0
102
RTVSPost2010PropOp52
 70
     0
102
RTVSPost2010Prop53
 90
        2
102
RTVSPost2010PropOp53
 70
     1
102
RTVSPost2010Prop54
  1
strokes_ogs.tif
102
RTVSPost2010PropOp54
 70
     1
102
RTVSPost2010Prop55
280
     0
102
RTVSPost2010PropOp55
 70
     1
102
RTVSPost2010Prop56
140
1.0
102
RTVSPost2010PropOp56
 70
     1
102
RTVSPost2010Prop57
140
1.0
102
RTVSPost2010PropOp57
 70
     1
  0
XRECORD
  5
4500
102
{ACAD_REACTORS
330
44FF
102
}
330
44FF
100
AcDbXrecord
280
     1
102
RTVSPropertyOp0
 70
     1
102
RTVSPropertyOp1
 70
     1
102
RTVSPropertyOp2
 70
     1
102
RTVSPropertyOp3
 70
     1
102
RTVSPropertyOp4
 70
     1
102
RTVSPropertyOp5
 70
     1
102
RTVSPropertyOp6
 70
     1
102
RTVSPropertyOp7
 70
     1
102
RTVSPropertyOp8
 70
     1
102
RTVSPropertyOp9
 70
     1
102
RTVSPropertyOp10
 70
     1
102
RTVSPropertyOp11
 70
     1
102
RTVSPropertyOp12
 70
     1
102
RTVSPropertyOp13
 70
     1
102
RTVSPropertyOp14
 70
     1
102
RTVSPropertyOp15
 70
     1
102
RTVSPropertyOp16
 70
     1
102
RTVSPropertyOp17
 70
     1
102
RTVSPropertyOp18
 70
     1
102
RTVSPropertyOp19
 70
     1
102
RTVSPropertyOp20
 70
     1
102
RTVSPropertyOp21
 70
     1
102
RTVSPropertyOp22
 70
     1
102
RTVSPropertyOp23
 70
     1
102
RTVSPropertyOp24
 70
     1
102
RTVSPropertyOp25
 70
     1
102
RTVSPropertyOp26
 70
     1
102
RTVSPropertyOp27
 70
     1
102
RTVSPropertyOp28
 70
     1
102
RTVSPropertyOp29
 70
     1
102
RTVSPropertyOp30
 70
     1
102
RTVSPropertyOp31
 70
     1
102
RTVSPropertyOp32
 70
     1
102
RTVSPropertyOp33
 70
     1
102
RTVSPropertyOp34
 70
     1
102
RTVSPropertyOp35
 70
     1
102
RTVSPropertyOp36
 70
     1
102
RTVSPropertyOp37
 70
     1
102
RTVSPropertyOp38
 70
     1
102
RTVSPropertyOp39
 70
     1
102
RTVSPropertyOp40
 70
     1
102
RTVSPropertyOp41
 70
     1
102
RTVSPropertyOp42
 70
     1
102
RTVSPropertyOp43
 70
     1
102
RTVSPropertyOp44
 70
     1
102
RTVSPropertyOp45
 70
     1
102
RTVSPropertyOp46
 70
     1
102
RTVSPropertyOp47
 70
     1
102
RTVSPropertyOp48
 70
     1
102
RTVSPropertyOp49
 70
     1
102
RTVSPropertyOp50
 70
     1
102
RTVSPropertyOp51
 70
     0
102
RTVSPropertyOp52
 70
     0
102
RTVSPropertyOp53
 70
     1
102
RTVSPropertyOp54
 70
     1
102
RTVSPropertyOp55
 70
     1
102
RTVSPropertyOp56
 70
     1
102
RTVSPropertyOp57
 70
     1
102
RTVSPost2010Prop28
280
     0
102
RTVSPost2010PropOp28
 70
     1
102
RTVSPost2010Prop29
280
     1
102
RTVSPost2010PropOp29
 70
     1
102
RTVSPost2010Prop30
280
     1
102
RTVSPost2010PropOp30
 70
     1
102
RTVSPost2010Prop31
280
     0
102
RTVSPost2010PropOp31
 70
     1
102
RTVSPost2010Prop32
280
     0
102
RTVSPost2010PropOp32
 70
     1
102
RTVSPost2010Prop33
280
     0
102
RTVSPost2010PropOp33
 70
     1
102
RTVSPost2010Prop34
280
     0
102
RTVSPost2010PropOp34
 70
     1
102
RTVSPost2010Prop35
280
     0
102
RTVSPost2010PropOp35
 70
     1
102
RTVSPost2010Prop36
280
     0
102
RTVSPost2010PropOp36
 70
     1
102
RTVSPost2010Prop37
 90
       50
102
RTVSPost2010PropOp37
 70
     1
102
RTVSPost2010Prop38
140
0.0
102
RTVSPost2010PropOp38
 70
     1
102
RTVSPost2010Prop39
140
1.0
102
RTVSPost2010PropOp39
 70
     1
102
RTVSPost2010Prop40
 90
        0
102
RTVSPost2010PropOp40
 70
     1
102
RTVSPost2010Prop41ColorIndex
 90
       18
102
RTVSPost2010Prop41ColorRGB
 90
        0
102
RTVSPost2010PropOp41
 70
     1
102
RTVSPost2010Prop42
 90
       50
102
RTVSPost2010PropOp42
 70
     1
102
RTVSPost2010Prop43
 90
        3
102
RTVSPost2010PropOp43
 70
     1
102
RTVSPost2010Prop44ColorIndex
 90
        5
102
RTVSPost2010Prop44ColorRGB
 90
      255
102
RTVSPost2010PropOp44
 70
     1
102
RTVSPost2010Prop45
280
     0
102
RTVSPost2010PropOp45
 70
     1
102
RTVSPost2010Prop46
 90
       50
102
RTVSPost2010PropOp46
 70
     1
102
RTVSPost2010Prop47
 90
       50
102
RTVSPost2010PropOp47
 70
     1
102
RTVSPost2010Prop48
 90
       50
102
RTVSPost2010PropOp48
 70
     1
102
RTVSPost2010Prop49
280
     0
102
RTVSPost2010PropOp49
 70
     1
102
RTVSPost2010Prop50
 90
       50
102
RTVSPost2010PropOp50
 70
     1
102
RTVSPost2010Prop51ColorIndex
 90
      256
102
RTVSPost2010Prop51ColorRGB
 90
-16777216
102
RTVSPost2010PropOp51
 70
     0
102
RTVSPost2010Prop52
140
1.0
102
RTVSPost2010PropOp52
 70
     0
102
RTVSPost2010Prop53
 90
        2
102
RTVSPost2010PropOp53
 70
     1
102
RTVSPost2010Prop54
  1
strokes_ogs.tif
102
RTVSPost2010PropOp54
 70
     1
102
RTVSPost2010Prop55
280
     0
102
RTVSPost2010PropOp55
 70
     1
102
RTVSPost2010Prop56
140
1.0
102
RTVSPost2010PropOp56
 70
     1
102
RTVSPost2010Prop57
140
1.0
102
RTVSPost2010PropOp57
 70
     1
  0
XRECORD
  5
4502
102
{ACAD_REACTORS
330
4501
102
}
330
4501
100
AcDbXrecord
280
     1
102
RTVSPropertyOp0
 70
     1
102
RTVSPropertyOp1
 70
     1
102
RTVSPropertyOp2
 70
     1
102
RTVSPropertyOp3
 70
     1
102
RTVSPropertyOp4
 70
     1
102
RTVSPropertyOp5
 70
     1
102
RTVSPropertyOp6
 70
     1
102
RTVSPropertyOp7
 70
     1
102
RTVSPropertyOp8
 70
     1
102
RTVSPropertyOp9
 70
     1
102
RTVSPropertyOp10
 70
     1
102
RTVSPropertyOp11
 70
     1
102
RTVSPropertyOp12
 70
     1
102
RTVSPropertyOp13
 70
     1
102
RTVSPropertyOp14
 70
     1
102
RTVSPropertyOp15
 70
     1
102
RTVSPropertyOp16
 70
     1
102
RTVSPropertyOp17
 70
     1
102
RTVSPropertyOp18
 70
     1
102
RTVSPropertyOp19
 70
     1
102
RTVSPropertyOp20
 70
     1
102
RTVSPropertyOp21
 70
     1
102
RTVSPropertyOp22
 70
     1
102
RTVSPropertyOp23
 70
     1
102
RTVSPropertyOp24
 70
     1
102
RTVSPropertyOp25
 70
     1
102
RTVSPropertyOp26
 70
     1
102
RTVSPropertyOp27
 70
     1
102
RTVSPropertyOp28
 70
     1
102
RTVSPropertyOp29
 70
     1
102
RTVSPropertyOp30
 70
     1
102
RTVSPropertyOp31
 70
     1
102
RTVSPropertyOp32
 70
     1
102
RTVSPropertyOp33
 70
     1
102
RTVSPropertyOp34
 70
     1
102
RTVSPropertyOp35
 70
     1
102
RTVSPropertyOp36
 70
     1
102
RTVSPropertyOp37
 70
     1
102
RTVSPropertyOp38
 70
     1
102
RTVSPropertyOp39
 70
     1
102
RTVSPropertyOp40
 70
     1
102
RTVSPropertyOp41
 70
     1
102
RTVSPropertyOp42
 70
     1
102
RTVSPropertyOp43
 70
     1
102
RTVSPropertyOp44
 70
     1
102
RTVSPropertyOp45
 70
     1
102
RTVSPropertyOp46
 70
     1
102
RTVSPropertyOp47
 70
     1
102
RTVSPropertyOp48
 70
     1
102
RTVSPropertyOp49
 70
     1
102
RTVSPropertyOp50
 70
     1
102
RTVSPropertyOp51
 70
     0
102
RTVSPropertyOp52
 70
     0
102
RTVSPropertyOp53
 70
     1
102
RTVSPropertyOp54
 70
     1
102
RTVSPropertyOp55
 70
     1
102
RTVSPropertyOp56
 70
     1
102
RTVSPropertyOp57
 70
     1
102
RTVSPost2010Prop28
280
     0
102
RTVSPost2010PropOp28
 70
     1
102
RTVSPost2010Prop29
280
     1
102
RTVSPost2010PropOp29
 70
     1
102
RTVSPost2010Prop30
280
     1
102
RTVSPost2010PropOp30
 70
     1
102
RTVSPost2010Prop31
280
     0
102
RTVSPost2010PropOp31
 70
     1
102
RTVSPost2010Prop32
280
     0
102
RTVSPost2010PropOp32
 70
     1
102
RTVSPost2010Prop33
280
     0
102
RTVSPost2010PropOp33
 70
     1
102
RTVSPost2010Prop34
280
     0
102
RTVSPost2010PropOp34
 70
     1
102
RTVSPost2010Prop35
280
     0
102
RTVSPost2010PropOp35
 70
     1
102
RTVSPost2010Prop36
280
     0
102
RTVSPost2010PropOp36
 70
     1
102
RTVSPost2010Prop37
 90
       50
102
RTVSPost2010PropOp37
 70
     1
102
RTVSPost2010Prop38
140
0.0
102
RTVSPost2010PropOp38
 70
     1
102
RTVSPost2010Prop39
140
1.0
102
RTVSPost2010PropOp39
 70
     1
102
RTVSPost2010Prop40
 90
        0
102
RTVSPost2010PropOp40
 70
     1
102
RTVSPost2010Prop41ColorIndex
 90
       18
102
RTVSPost2010Prop41ColorRGB
 90
        0
102
RTVSPost2010PropOp41
 70
     1
102
RTVSPost2010Prop42
 90
       50
102
RTVSPost2010PropOp42
 70
     1
102
RTVSPost2010Prop43
 90
        3
102
RTVSPost2010PropOp43
 70
     1
102
RTVSPost2010Prop44ColorIndex
 90
        5
102
RTVSPost2010Prop44ColorRGB
 90
      255
102
RTVSPost2010PropOp44
 70
     1
102
RTVSPost2010Prop45
280
     0
102
RTVSPost2010PropOp45
 70
     1
102
RTVSPost2010Prop46
 90
       50
102
RTVSPost2010PropOp46
 70
     1
102
RTVSPost2010Prop47
 90
       50
102
RTVSPost2010PropOp47
 70
     1
102
RTVSPost2010Prop48
 90
       50
102
RTVSPost2010PropOp48
 70
     1
102
RTVSPost2010Prop49
280
     0
102
RTVSPost2010PropOp49
 70
     1
102
RTVSPost2010Prop50
 90
       50
102
RTVSPost2010PropOp50
 70
     1
102
RTVSPost2010Prop51ColorIndex
 90
      256
102
RTVSPost2010Prop51ColorRGB
 90
-16777216
102
RTVSPost2010PropOp51
 70
     0
102
RTVSPost2010Prop52
140
1.0
102
RTVSPost2010PropOp52
 70
     0
102
RTVSPost2010Prop53
 90
        2
102
RTVSPost2010PropOp53
 70
     1
102
RTVSPost2010Prop54
  1
strokes_ogs.tif
102
RTVSPost2010PropOp54
 70
     1
102
RTVSPost2010Prop55
280
     0
102
RTVSPost2010PropOp55
 70
     1
102
RTVSPost2010Prop56
140
1.0
102
RTVSPost2010PropOp56
 70
     1
102
RTVSPost2010Prop57
140
1.0
102
RTVSPost2010PropOp57
 70
     1
  0
XRECORD
  5
4512
102
{ACAD_REACTORS
330
4511
102
}
330
4511
100
AcDbXrecord
280
     1
102
RTVSPropertyOp0
 70
     0
102
RTVSPropertyOp1
 70
     0
102
RTVSPropertyOp2
 70
     0
102
RTVSPropertyOp3
 70
     0
102
RTVSPropertyOp4
 70
     0
102
RTVSPropertyOp5
 70
     0
102
RTVSPropertyOp6
 70
     0
102
RTVSPropertyOp7
 70
     0
102
RTVSPropertyOp8
 70
     0
102
RTVSPropertyOp9
 70
     0
102
RTVSPropertyOp10
 70
     0
102
RTVSPropertyOp11
 70
     0
102
RTVSPropertyOp12
 70
     0
102
RTVSPropertyOp13
 70
     0
102
RTVSPropertyOp14
 70
     2
102
RTVSPropertyOp15
 70
     0
102
RTVSPropertyOp16
 70
     0
102
RTVSPropertyOp17
 70
     0
102
RTVSPropertyOp18
 70
     0
102
RTVSPropertyOp19
 70
     0
102
RTVSPropertyOp20
 70
     0
102
RTVSPropertyOp21
 70
     0
102
RTVSPropertyOp22
 70
     0
102
RTVSPropertyOp23
 70
     0
102
RTVSPropertyOp24
 70
     0
102
RTVSPropertyOp25
 70
     0
102
RTVSPropertyOp26
 70
     0
102
RTVSPropertyOp27
 70
     0
102
RTVSPropertyOp28
 70
     0
102
RTVSPropertyOp29
 70
     0
102
RTVSPropertyOp30
 70
     0
102
RTVSPropertyOp31
 70
     0
102
RTVSPropertyOp32
 70
     0
102
RTVSPropertyOp33
 70
     0
102
RTVSPropertyOp34
 70
     0
102
RTVSPropertyOp35
 70
     0
102
RTVSPropertyOp36
 70
     0
102
RTVSPropertyOp37
 70
     0
102
RTVSPropertyOp38
 70
     0
102
RTVSPropertyOp39
 70
     0
102
RTVSPropertyOp40
 70
     0
102
RTVSPropertyOp41
 70
     0
102
RTVSPropertyOp42
 70
     0
102
RTVSPropertyOp43
 70
     0
102
RTVSPropertyOp44
 70
     0
102
RTVSPropertyOp45
 70
     0
102
RTVSPropertyOp46
 70
     0
102
RTVSPropertyOp47
 70
     0
102
RTVSPropertyOp48
 70
     0
102
RTVSPropertyOp49
 70
     0
102
RTVSPropertyOp50
 70
     0
102
RTVSPropertyOp51
 70
     0
102
RTVSPropertyOp52
 70
     0
102
RTVSPropertyOp53
 70
     0
102
RTVSPropertyOp54
 70
     0
102
RTVSPropertyOp55
 70
     0
102
RTVSPropertyOp56
 70
     0
102
RTVSPropertyOp57
 70
     0
102
RTVSPost2010Prop28
280
     0
102
RTVSPost2010PropOp28
 70
     0
102
RTVSPost2010Prop29
280
     1
102
RTVSPost2010PropOp29
 70
     0
102
RTVSPost2010Prop30
280
     1
102
RTVSPost2010PropOp30
 70
     0
102
RTVSPost2010Prop31
280
     0
102
RTVSPost2010PropOp31
 70
     0
102
RTVSPost2010Prop32
280
     0
102
RTVSPost2010PropOp32
 70
     0
102
RTVSPost2010Prop33
280
     0
102
RTVSPost2010PropOp33
 70
     0
102
RTVSPost2010Prop34
280
     0
102
RTVSPost2010PropOp34
 70
     0
102
RTVSPost2010Prop35
280
     0
102
RTVSPost2010PropOp35
 70
     0
102
RTVSPost2010Prop36
280
     0
102
RTVSPost2010PropOp36
 70
     0
102
RTVSPost2010Prop37
 90
       50
102
RTVSPost2010PropOp37
 70
     0
102
RTVSPost2010Prop38
140
0.0
102
RTVSPost2010PropOp38
 70
     0
102
RTVSPost2010Prop39
140
1.0
102
RTVSPost2010PropOp39
 70
     0
102
RTVSPost2010Prop40
 90
        0
102
RTVSPost2010PropOp40
 70
     0
102
RTVSPost2010Prop41ColorIndex
 90
       18
102
RTVSPost2010Prop41ColorRGB
 90
        0
102
RTVSPost2010PropOp41
 70
     0
102
RTVSPost2010Prop42
 90
       50
102
RTVSPost2010PropOp42
 70
     0
102
RTVSPost2010Prop43
 90
        3
102
RTVSPost2010PropOp43
 70
     0
102
RTVSPost2010Prop44ColorIndex
 90
        5
102
RTVSPost2010Prop44ColorRGB
 90
      255
102
RTVSPost2010PropOp44
 70
     0
102
RTVSPost2010Prop45
280
     0
102
RTVSPost2010PropOp45
 70
     0
102
RTVSPost2010Prop46
 90
       50
102
RTVSPost2010PropOp46
 70
     0
102
RTVSPost2010Prop47
 90
       50
102
RTVSPost2010PropOp47
 70
     0
102
RTVSPost2010Prop48
 90
       50
102
RTVSPost2010PropOp48
 70
     0
102
RTVSPost2010Prop49
280
     0
102
RTVSPost2010PropOp49
 70
     0
102
RTVSPost2010Prop50
 90
       50
102
RTVSPost2010PropOp50
 70
     0
102
RTVSPost2010Prop51ColorIndex
 90
      256
102
RTVSPost2010Prop51ColorRGB
 90
-16777216
102
RTVSPost2010PropOp51
 70
     0
102
RTVSPost2010Prop52
140
1.0
102
RTVSPost2010PropOp52
 70
     0
102
RTVSPost2010Prop53
 90
        2
102
RTVSPost2010PropOp53
 70
     0
102
RTVSPost2010Prop54
  1
strokes_ogs.tif
102
RTVSPost2010PropOp54
 70
     0
102
RTVSPost2010Prop55
280
     0
102
RTVSPost2010PropOp55
 70
     0
102
RTVSPost2010Prop56
140
1.0
102
RTVSPost2010PropOp56
 70
     0
102
RTVSPost2010Prop57
140
1.0
102
RTVSPost2010PropOp57
 70
     0
  0
XRECORD
  5
450A
102
{ACAD_REACTORS
330
4509
102
}
330
4509
100
AcDbXrecord
280
     1
102
RTVSPropertyOp0
 70
     1
102
RTVSPropertyOp1
 70
     1
102
RTVSPropertyOp2
 70
     1
102
RTVSPropertyOp3
 70
     1
102
RTVSPropertyOp4
 70
     1
102
RTVSPropertyOp5
 70
     1
102
RTVSPropertyOp6
 70
     1
102
RTVSPropertyOp7
 70
     1
102
RTVSPropertyOp8
 70
     1
102
RTVSPropertyOp9
 70
     1
102
RTVSPropertyOp10
 70
     1
102
RTVSPropertyOp11
 70
     1
102
RTVSPropertyOp12
 70
     1
102
RTVSPropertyOp13
 70
     1
102
RTVSPropertyOp14
 70
     1
102
RTVSPropertyOp15
 70
     1
102
RTVSPropertyOp16
 70
     1
102
RTVSPropertyOp17
 70
     1
102
RTVSPropertyOp18
 70
     1
102
RTVSPropertyOp19
 70
     1
102
RTVSPropertyOp20
 70
     1
102
RTVSPropertyOp21
 70
     1
102
RTVSPropertyOp22
 70
     1
102
RTVSPropertyOp23
 70
     1
102
RTVSPropertyOp24
 70
     1
102
RTVSPropertyOp25
 70
     1
102
RTVSPropertyOp26
 70
     1
102
RTVSPropertyOp27
 70
     1
102
RTVSPropertyOp28
 70
     1
102
RTVSPropertyOp29
 70
     1
102
RTVSPropertyOp30
 70
     1
102
RTVSPropertyOp31
 70
     1
102
RTVSPropertyOp32
 70
     1
102
RTVSPropertyOp33
 70
     1
102
RTVSPropertyOp34
 70
     1
102
RTVSPropertyOp35
 70
     1
102
RTVSPropertyOp36
 70
     1
102
RTVSPropertyOp37
 70
     1
102
RTVSPropertyOp38
 70
     1
102
RTVSPropertyOp39
 70
     1
102
RTVSPropertyOp40
 70
     1
102
RTVSPropertyOp41
 70
     1
102
RTVSPropertyOp42
 70
     1
102
RTVSPropertyOp43
 70
     1
102
RTVSPropertyOp44
 70
     1
102
RTVSPropertyOp45
 70
     1
102
RTVSPropertyOp46
 70
     1
102
RTVSPropertyOp47
 70
     1
102
RTVSPropertyOp48
 70
     1
102
RTVSPropertyOp49
 70
     1
102
RTVSPropertyOp50
 70
     1
102
RTVSPropertyOp51
 70
     0
102
RTVSPropertyOp52
 70
     0
102
RTVSPropertyOp53
 70
     1
102
RTVSPropertyOp54
 70
     1
102
RTVSPropertyOp55
 70
     1
102
RTVSPropertyOp56
 70
     1
102
RTVSPropertyOp57
 70
     1
102
RTVSPost2010Prop28
280
     0
102
RTVSPost2010PropOp28
 70
     1
102
RTVSPost2010Prop29
280
     1
102
RTVSPost2010PropOp29
 70
     1
102
RTVSPost2010Prop30
280
     1
102
RTVSPost2010PropOp30
 70
     1
102
RTVSPost2010Prop31
280
     0
102
RTVSPost2010PropOp31
 70
     1
102
RTVSPost2010Prop32
280
     0
102
RTVSPost2010PropOp32
 70
     1
102
RTVSPost2010Prop33
280
     0
102
RTVSPost2010PropOp33
 70
     1
102
RTVSPost2010Prop34
280
     0
102
RTVSPost2010PropOp34
 70
     1
102
RTVSPost2010Prop35
280
     0
102
RTVSPost2010PropOp35
 70
     1
102
RTVSPost2010Prop36
280
     0
102
RTVSPost2010PropOp36
 70
     1
102
RTVSPost2010Prop37
 90
       50
102
RTVSPost2010PropOp37
 70
     1
102
RTVSPost2010Prop38
140
0.0
102
RTVSPost2010PropOp38
 70
     1
102
RTVSPost2010Prop39
140
1.0
102
RTVSPost2010PropOp39
 70
     1
102
RTVSPost2010Prop40
 90
        0
102
RTVSPost2010PropOp40
 70
     1
102
RTVSPost2010Prop41ColorIndex
 90
       18
102
RTVSPost2010Prop41ColorRGB
 90
        0
102
RTVSPost2010PropOp41
 70
     1
102
RTVSPost2010Prop42
 90
       50
102
RTVSPost2010PropOp42
 70
     1
102
RTVSPost2010Prop43
 90
        3
102
RTVSPost2010PropOp43
 70
     1
102
RTVSPost2010Prop44ColorIndex
 90
        5
102
RTVSPost2010Prop44ColorRGB
 90
      255
102
RTVSPost2010PropOp44
 70
     1
102
RTVSPost2010Prop45
280
     0
102
RTVSPost2010PropOp45
 70
     1
102
RTVSPost2010Prop46
 90
       50
102
RTVSPost2010PropOp46
 70
     1
102
RTVSPost2010Prop47
 90
       50
102
RTVSPost2010PropOp47
 70
     1
102
RTVSPost2010Prop48
 90
       50
102
RTVSPost2010PropOp48
 70
     1
102
RTVSPost2010Prop49
280
     0
102
RTVSPost2010PropOp49
 70
     1
102
RTVSPost2010Prop50
 90
       50
102
RTVSPost2010PropOp50
 70
     1
102
RTVSPost2010Prop51ColorIndex
 90
      256
102
RTVSPost2010Prop51ColorRGB
 90
-16777216
102
RTVSPost2010PropOp51
 70
     0
102
RTVSPost2010Prop52
140
1.0
102
RTVSPost2010PropOp52
 70
     0
102
RTVSPost2010Prop53
 90
        2
102
RTVSPost2010PropOp53
 70
     1
102
RTVSPost2010Prop54
  1
strokes_ogs.tif
102
RTVSPost2010PropOp54
 70
     1
102
RTVSPost2010Prop55
280
     0
102
RTVSPost2010PropOp55
 70
     1
102
RTVSPost2010Prop56
140
1.0
102
RTVSPost2010PropOp56
 70
     1
102
RTVSPost2010Prop57
140
1.0
102
RTVSPost2010PropOp57
 70
     1
  0
XRECORD
  5
44EE
102
{ACAD_REACTORS
330
44ED
102
}
330
44ED
100
AcDbXrecord
280
     1
102
RTVSPropertyOp0
 70
     1
102
RTVSPropertyOp1
 70
     1
102
RTVSPropertyOp2
 70
     1
102
RTVSPropertyOp3
 70
     1
102
RTVSPropertyOp4
 70
     1
102
RTVSPropertyOp5
 70
     1
102
RTVSPropertyOp6
 70
     1
102
RTVSPropertyOp7
 70
     1
102
RTVSPropertyOp8
 70
     1
102
RTVSPropertyOp9
 70
     1
102
RTVSPropertyOp10
 70
     1
102
RTVSPropertyOp11
 70
     1
102
RTVSPropertyOp12
 70
     1
102
RTVSPropertyOp13
 70
     1
102
RTVSPropertyOp14
 70
     1
102
RTVSPropertyOp15
 70
     1
102
RTVSPropertyOp16
 70
     1
102
RTVSPropertyOp17
 70
     1
102
RTVSPropertyOp18
 70
     1
102
RTVSPropertyOp19
 70
     1
102
RTVSPropertyOp20
 70
     1
102
RTVSPropertyOp21
 70
     1
102
RTVSPropertyOp22
 70
     1
102
RTVSPropertyOp23
 70
     1
102
RTVSPropertyOp24
 70
     1
102
RTVSPropertyOp25
 70
     1
102
RTVSPropertyOp26
 70
     1
102
RTVSPropertyOp27
 70
     1
102
RTVSPropertyOp28
 70
     1
102
RTVSPropertyOp29
 70
     1
102
RTVSPropertyOp30
 70
     1
102
RTVSPropertyOp31
 70
     1
102
RTVSPropertyOp32
 70
     1
102
RTVSPropertyOp33
 70
     1
102
RTVSPropertyOp34
 70
     1
102
RTVSPropertyOp35
 70
     1
102
RTVSPropertyOp36
 70
     1
102
RTVSPropertyOp37
 70
     1
102
RTVSPropertyOp38
 70
     1
102
RTVSPropertyOp39
 70
     1
102
RTVSPropertyOp40
 70
     1
102
RTVSPropertyOp41
 70
     1
102
RTVSPropertyOp42
 70
     1
102
RTVSPropertyOp43
 70
     1
102
RTVSPropertyOp44
 70
     1
102
RTVSPropertyOp45
 70
     1
102
RTVSPropertyOp46
 70
     1
102
RTVSPropertyOp47
 70
     1
102
RTVSPropertyOp48
 70
     1
102
RTVSPropertyOp49
 70
     1
102
RTVSPropertyOp50
 70
     1
102
RTVSPropertyOp51
 70
     0
102
RTVSPropertyOp52
 70
     0
102
RTVSPropertyOp53
 70
     1
102
RTVSPropertyOp54
 70
     1
102
RTVSPropertyOp55
 70
     1
102
RTVSPropertyOp56
 70
     1
102
RTVSPropertyOp57
 70
     1
102
RTVSPost2010Prop28
280
     0
102
RTVSPost2010PropOp28
 70
     1
102
RTVSPost2010Prop29
280
     1
102
RTVSPost2010PropOp29
 70
     1
102
RTVSPost2010Prop30
280
     1
102
RTVSPost2010PropOp30
 70
     1
102
RTVSPost2010Prop31
280
     0
102
RTVSPost2010PropOp31
 70
     1
102
RTVSPost2010Prop32
280
     0
102
RTVSPost2010PropOp32
 70
     1
102
RTVSPost2010Prop33
280
     0
102
RTVSPost2010PropOp33
 70
     1
102
RTVSPost2010Prop34
280
     0
102
RTVSPost2010PropOp34
 70
     1
102
RTVSPost2010Prop35
280
     0
102
RTVSPost2010PropOp35
 70
     1
102
RTVSPost2010Prop36
280
     0
102
RTVSPost2010PropOp36
 70
     1
102
RTVSPost2010Prop37
 90
       50
102
RTVSPost2010PropOp37
 70
     1
102
RTVSPost2010Prop38
140
0.0
102
RTVSPost2010PropOp38
 70
     1
102
RTVSPost2010Prop39
140
1.0
102
RTVSPost2010PropOp39
 70
     1
102
RTVSPost2010Prop40
 90
        0
102
RTVSPost2010PropOp40
 70
     1
102
RTVSPost2010Prop41ColorIndex
 90
       18
102
RTVSPost2010Prop41ColorRGB
 90
        0
102
RTVSPost2010PropOp41
 70
     1
102
RTVSPost2010Prop42
 90
       50
102
RTVSPost2010PropOp42
 70
     1
102
RTVSPost2010Prop43
 90
        3
102
RTVSPost2010PropOp43
 70
     1
102
RTVSPost2010Prop44ColorIndex
 90
        5
102
RTVSPost2010Prop44ColorRGB
 90
      255
102
RTVSPost2010PropOp44
 70
     1
102
RTVSPost2010Prop45
280
     0
102
RTVSPost2010PropOp45
 70
     1
102
RTVSPost2010Prop46
 90
       50
102
RTVSPost2010PropOp46
 70
     1
102
RTVSPost2010Prop47
 90
       50
102
RTVSPost2010PropOp47
 70
     1
102
RTVSPost2010Prop48
 90
       50
102
RTVSPost2010PropOp48
 70
     1
102
RTVSPost2010Prop49
280
     0
102
RTVSPost2010PropOp49
 70
     1
102
RTVSPost2010Prop50
 90
       50
102
RTVSPost2010PropOp50
 70
     1
102
RTVSPost2010Prop51ColorIndex
 90
      256
102
RTVSPost2010Prop51ColorRGB
 90
-16777216
102
RTVSPost2010PropOp51
 70
     0
102
RTVSPost2010Prop52
140
1.0
102
RTVSPost2010PropOp52
 70
     0
102
RTVSPost2010Prop53
 90
        2
102
RTVSPost2010PropOp53
 70
     1
102
RTVSPost2010Prop54
  1
strokes_ogs.tif
102
RTVSPost2010PropOp54
 70
     1
102
RTVSPost2010Prop55
280
     0
102
RTVSPost2010PropOp55
 70
     1
102
RTVSPost2010Prop56
140
1.0
102
RTVSPost2010PropOp56
 70
     1
102
RTVSPost2010Prop57
140
1.0
102
RTVSPost2010PropOp57
 70
     1
  0
XRECORD
  5
44F0
102
{ACAD_REACTORS
330
44EF
102
}
330
44EF
100
AcDbXrecord
280
     1
102
RTVSPropertyOp0
 70
     1
102
RTVSPropertyOp1
 70
     1
102
RTVSPropertyOp2
 70
     1
102
RTVSPropertyOp3
 70
     1
102
RTVSPropertyOp4
 70
     1
102
RTVSPropertyOp5
 70
     1
102
RTVSPropertyOp6
 70
     1
102
RTVSPropertyOp7
 70
     1
102
RTVSPropertyOp8
 70
     1
102
RTVSPropertyOp9
 70
     1
102
RTVSPropertyOp10
 70
     1
102
RTVSPropertyOp11
 70
     1
102
RTVSPropertyOp12
 70
     1
102
RTVSPropertyOp13
 70
     1
102
RTVSPropertyOp14
 70
     1
102
RTVSPropertyOp15
 70
     1
102
RTVSPropertyOp16
 70
     1
102
RTVSPropertyOp17
 70
     1
102
RTVSPropertyOp18
 70
     1
102
RTVSPropertyOp19
 70
     1
102
RTVSPropertyOp20
 70
     1
102
RTVSPropertyOp21
 70
     1
102
RTVSPropertyOp22
 70
     1
102
RTVSPropertyOp23
 70
     1
102
RTVSPropertyOp24
 70
     1
102
RTVSPropertyOp25
 70
     1
102
RTVSPropertyOp26
 70
     1
102
RTVSPropertyOp27
 70
     1
102
RTVSPropertyOp28
 70
     1
102
RTVSPropertyOp29
 70
     1
102
RTVSPropertyOp30
 70
     1
102
RTVSPropertyOp31
 70
     1
102
RTVSPropertyOp32
 70
     1
102
RTVSPropertyOp33
 70
     1
102
RTVSPropertyOp34
 70
     1
102
RTVSPropertyOp35
 70
     1
102
RTVSPropertyOp36
 70
     1
102
RTVSPropertyOp37
 70
     1
102
RTVSPropertyOp38
 70
     1
102
RTVSPropertyOp39
 70
     1
102
RTVSPropertyOp40
 70
     1
102
RTVSPropertyOp41
 70
     1
102
RTVSPropertyOp42
 70
     1
102
RTVSPropertyOp43
 70
     1
102
RTVSPropertyOp44
 70
     1
102
RTVSPropertyOp45
 70
     1
102
RTVSPropertyOp46
 70
     1
102
RTVSPropertyOp47
 70
     1
102
RTVSPropertyOp48
 70
     1
102
RTVSPropertyOp49
 70
     1
102
RTVSPropertyOp50
 70
     1
102
RTVSPropertyOp51
 70
     0
102
RTVSPropertyOp52
 70
     0
102
RTVSPropertyOp53
 70
     1
102
RTVSPropertyOp54
 70
     1
102
RTVSPropertyOp55
 70
     1
102
RTVSPropertyOp56
 70
     1
102
RTVSPropertyOp57
 70
     1
102
RTVSPost2010Prop28
280
     0
102
RTVSPost2010PropOp28
 70
     1
102
RTVSPost2010Prop29
280
     1
102
RTVSPost2010PropOp29
 70
     1
102
RTVSPost2010Prop30
280
     1
102
RTVSPost2010PropOp30
 70
     1
102
RTVSPost2010Prop31
280
     0
102
RTVSPost2010PropOp31
 70
     1
102
RTVSPost2010Prop32
280
     0
102
RTVSPost2010PropOp32
 70
     1
102
RTVSPost2010Prop33
280
     0
102
RTVSPost2010PropOp33
 70
     1
102
RTVSPost2010Prop34
280
     0
102
RTVSPost2010PropOp34
 70
     1
102
RTVSPost2010Prop35
280
     0
102
RTVSPost2010PropOp35
 70
     1
102
RTVSPost2010Prop36
280
     0
102
RTVSPost2010PropOp36
 70
     1
102
RTVSPost2010Prop37
 90
       50
102
RTVSPost2010PropOp37
 70
     1
102
RTVSPost2010Prop38
140
0.0
102
RTVSPost2010PropOp38
 70
     1
102
RTVSPost2010Prop39
140
1.0
102
RTVSPost2010PropOp39
 70
     1
102
RTVSPost2010Prop40
 90
        0
102
RTVSPost2010PropOp40
 70
     1
102
RTVSPost2010Prop41ColorIndex
 90
       18
102
RTVSPost2010Prop41ColorRGB
 90
        0
102
RTVSPost2010PropOp41
 70
     1
102
RTVSPost2010Prop42
 90
       50
102
RTVSPost2010PropOp42
 70
     1
102
RTVSPost2010Prop43
 90
        3
102
RTVSPost2010PropOp43
 70
     1
102
RTVSPost2010Prop44ColorIndex
 90
        5
102
RTVSPost2010Prop44ColorRGB
 90
      255
102
RTVSPost2010PropOp44
 70
     1
102
RTVSPost2010Prop45
280
     0
102
RTVSPost2010PropOp45
 70
     1
102
RTVSPost2010Prop46
 90
       50
102
RTVSPost2010PropOp46
 70
     1
102
RTVSPost2010Prop47
 90
       50
102
RTVSPost2010PropOp47
 70
     1
102
RTVSPost2010Prop48
 90
       50
102
RTVSPost2010PropOp48
 70
     1
102
RTVSPost2010Prop49
280
     0
102
RTVSPost2010PropOp49
 70
     1
102
RTVSPost2010Prop50
 90
       50
102
RTVSPost2010PropOp50
 70
     1
102
RTVSPost2010Prop51ColorIndex
 90
      256
102
RTVSPost2010Prop51ColorRGB
 90
-16777216
102
RTVSPost2010PropOp51
 70
     0
102
RTVSPost2010Prop52
140
1.0
102
RTVSPost2010PropOp52
 70
     0
102
RTVSPost2010Prop53
 90
        2
102
RTVSPost2010PropOp53
 70
     1
102
RTVSPost2010Prop54
  1
strokes_ogs.tif
102
RTVSPost2010PropOp54
 70
     1
102
RTVSPost2010Prop55
280
     0
102
RTVSPost2010PropOp55
 70
     1
102
RTVSPost2010Prop56
140
1.0
102
RTVSPost2010PropOp56
 70
     1
102
RTVSPost2010Prop57
140
1.0
102
RTVSPost2010PropOp57
 70
     1
  0
XRECORD
  5
44F2
102
{ACAD_REACTORS
330
44F1
102
}
330
44F1
100
AcDbXrecord
280
     1
102
RTVSPropertyOp0
 70
     1
102
RTVSPropertyOp1
 70
     1
102
RTVSPropertyOp2
 70
     1
102
RTVSPropertyOp3
 70
     1
102
RTVSPropertyOp4
 70
     1
102
RTVSPropertyOp5
 70
     1
102
RTVSPropertyOp6
 70
     1
102
RTVSPropertyOp7
 70
     1
102
RTVSPropertyOp8
 70
     1
102
RTVSPropertyOp9
 70
     1
102
RTVSPropertyOp10
 70
     1
102
RTVSPropertyOp11
 70
     1
102
RTVSPropertyOp12
 70
     1
102
RTVSPropertyOp13
 70
     1
102
RTVSPropertyOp14
 70
     1
102
RTVSPropertyOp15
 70
     1
102
RTVSPropertyOp16
 70
     1
102
RTVSPropertyOp17
 70
     1
102
RTVSPropertyOp18
 70
     1
102
RTVSPropertyOp19
 70
     1
102
RTVSPropertyOp20
 70
     1
102
RTVSPropertyOp21
 70
     1
102
RTVSPropertyOp22
 70
     1
102
RTVSPropertyOp23
 70
     1
102
RTVSPropertyOp24
 70
     1
102
RTVSPropertyOp25
 70
     1
102
RTVSPropertyOp26
 70
     1
102
RTVSPropertyOp27
 70
     1
102
RTVSPropertyOp28
 70
     1
102
RTVSPropertyOp29
 70
     1
102
RTVSPropertyOp30
 70
     1
102
RTVSPropertyOp31
 70
     1
102
RTVSPropertyOp32
 70
     1
102
RTVSPropertyOp33
 70
     1
102
RTVSPropertyOp34
 70
     1
102
RTVSPropertyOp35
 70
     1
102
RTVSPropertyOp36
 70
     1
102
RTVSPropertyOp37
 70
     1
102
RTVSPropertyOp38
 70
     1
102
RTVSPropertyOp39
 70
     1
102
RTVSPropertyOp40
 70
     1
102
RTVSPropertyOp41
 70
     1
102
RTVSPropertyOp42
 70
     1
102
RTVSPropertyOp43
 70
     1
102
RTVSPropertyOp44
 70
     1
102
RTVSPropertyOp45
 70
     1
102
RTVSPropertyOp46
 70
     1
102
RTVSPropertyOp47
 70
     1
102
RTVSPropertyOp48
 70
     1
102
RTVSPropertyOp49
 70
     1
102
RTVSPropertyOp50
 70
     1
102
RTVSPropertyOp51
 70
     0
102
RTVSPropertyOp52
 70
     0
102
RTVSPropertyOp53
 70
     1
102
RTVSPropertyOp54
 70
     1
102
RTVSPropertyOp55
 70
     1
102
RTVSPropertyOp56
 70
     1
102
RTVSPropertyOp57
 70
     1
102
RTVSPost2010Prop28
280
     0
102
RTVSPost2010PropOp28
 70
     1
102
RTVSPost2010Prop29
280
     1
102
RTVSPost2010PropOp29
 70
     1
102
RTVSPost2010Prop30
280
     1
102
RTVSPost2010PropOp30
 70
     1
102
RTVSPost2010Prop31
280
     0
102
RTVSPost2010PropOp31
 70
     1
102
RTVSPost2010Prop32
280
     0
102
RTVSPost2010PropOp32
 70
     1
102
RTVSPost2010Prop33
280
     0
102
RTVSPost2010PropOp33
 70
     1
102
RTVSPost2010Prop34
280
     0
102
RTVSPost2010PropOp34
 70
     1
102
RTVSPost2010Prop35
280
     0
102
RTVSPost2010PropOp35
 70
     1
102
RTVSPost2010Prop36
280
     0
102
RTVSPost2010PropOp36
 70
     1
102
RTVSPost2010Prop37
 90
       50
102
RTVSPost2010PropOp37
 70
     1
102
RTVSPost2010Prop38
140
0.0
102
RTVSPost2010PropOp38
 70
     1
102
RTVSPost2010Prop39
140
1.0
102
RTVSPost2010PropOp39
 70
     1
102
RTVSPost2010Prop40
 90
        0
102
RTVSPost2010PropOp40
 70
     1
102
RTVSPost2010Prop41ColorIndex
 90
       18
102
RTVSPost2010Prop41ColorRGB
 90
        0
102
RTVSPost2010PropOp41
 70
     1
102
RTVSPost2010Prop42
 90
       50
102
RTVSPost2010PropOp42
 70
     1
102
RTVSPost2010Prop43
 90
        3
102
RTVSPost2010PropOp43
 70
     1
102
RTVSPost2010Prop44ColorIndex
 90
        5
102
RTVSPost2010Prop44ColorRGB
 90
      255
102
RTVSPost2010PropOp44
 70
     1
102
RTVSPost2010Prop45
280
     0
102
RTVSPost2010PropOp45
 70
     1
102
RTVSPost2010Prop46
 90
       50
102
RTVSPost2010PropOp46
 70
     1
102
RTVSPost2010Prop47
 90
       50
102
RTVSPost2010PropOp47
 70
     1
102
RTVSPost2010Prop48
 90
       50
102
RTVSPost2010PropOp48
 70
     1
102
RTVSPost2010Prop49
280
     0
102
RTVSPost2010PropOp49
 70
     1
102
RTVSPost2010Prop50
 90
       50
102
RTVSPost2010PropOp50
 70
     1
102
RTVSPost2010Prop51ColorIndex
 90
      256
102
RTVSPost2010Prop51ColorRGB
 90
-16777216
102
RTVSPost2010PropOp51
 70
     0
102
RTVSPost2010Prop52
140
1.0
102
RTVSPost2010PropOp52
 70
     0
102
RTVSPost2010Prop53
 90
        2
102
RTVSPost2010PropOp53
 70
     1
102
RTVSPost2010Prop54
  1
strokes_ogs.tif
102
RTVSPost2010PropOp54
 70
     1
102
RTVSPost2010Prop55
280
     0
102
RTVSPost2010PropOp55
 70
     1
102
RTVSPost2010Prop56
140
1.0
102
RTVSPost2010PropOp56
 70
     1
102
RTVSPost2010Prop57
140
1.0
102
RTVSPost2010PropOp57
 70
     1
  0
XRECORD
  5
44F4
102
{ACAD_REACTORS
330
44F3
102
}
330
44F3
100
AcDbXrecord
280
     1
102
RTVSPropertyOp0
 70
     1
102
RTVSPropertyOp1
 70
     1
102
RTVSPropertyOp2
 70
     1
102
RTVSPropertyOp3
 70
     1
102
RTVSPropertyOp4
 70
     1
102
RTVSPropertyOp5
 70
     1
102
RTVSPropertyOp6
 70
     1
102
RTVSPropertyOp7
 70
     1
102
RTVSPropertyOp8
 70
     1
102
RTVSPropertyOp9
 70
     1
102
RTVSPropertyOp10
 70
     1
102
RTVSPropertyOp11
 70
     1
102
RTVSPropertyOp12
 70
     1
102
RTVSPropertyOp13
 70
     1
102
RTVSPropertyOp14
 70
     1
102
RTVSPropertyOp15
 70
     1
102
RTVSPropertyOp16
 70
     1
102
RTVSPropertyOp17
 70
     1
102
RTVSPropertyOp18
 70
     1
102
RTVSPropertyOp19
 70
     1
102
RTVSPropertyOp20
 70
     1
102
RTVSPropertyOp21
 70
     1
102
RTVSPropertyOp22
 70
     1
102
RTVSPropertyOp23
 70
     1
102
RTVSPropertyOp24
 70
     1
102
RTVSPropertyOp25
 70
     1
102
RTVSPropertyOp26
 70
     1
102
RTVSPropertyOp27
 70
     1
102
RTVSPropertyOp28
 70
     1
102
RTVSPropertyOp29
 70
     1
102
RTVSPropertyOp30
 70
     1
102
RTVSPropertyOp31
 70
     1
102
RTVSPropertyOp32
 70
     1
102
RTVSPropertyOp33
 70
     1
102
RTVSPropertyOp34
 70
     1
102
RTVSPropertyOp35
 70
     1
102
RTVSPropertyOp36
 70
     1
102
RTVSPropertyOp37
 70
     1
102
RTVSPropertyOp38
 70
     1
102
RTVSPropertyOp39
 70
     1
102
RTVSPropertyOp40
 70
     1
102
RTVSPropertyOp41
 70
     1
102
RTVSPropertyOp42
 70
     1
102
RTVSPropertyOp43
 70
     1
102
RTVSPropertyOp44
 70
     1
102
RTVSPropertyOp45
 70
     1
102
RTVSPropertyOp46
 70
     1
102
RTVSPropertyOp47
 70
     1
102
RTVSPropertyOp48
 70
     1
102
RTVSPropertyOp49
 70
     1
102
RTVSPropertyOp50
 70
     1
102
RTVSPropertyOp51
 70
     0
102
RTVSPropertyOp52
 70
     0
102
RTVSPropertyOp53
 70
     1
102
RTVSPropertyOp54
 70
     1
102
RTVSPropertyOp55
 70
     1
102
RTVSPropertyOp56
 70
     1
102
RTVSPropertyOp57
 70
     1
102
RTVSPost2010Prop28
280
     0
102
RTVSPost2010PropOp28
 70
     1
102
RTVSPost2010Prop29
280
     1
102
RTVSPost2010PropOp29
 70
     1
102
RTVSPost2010Prop30
280
     1
102
RTVSPost2010PropOp30
 70
     1
102
RTVSPost2010Prop31
280
     0
102
RTVSPost2010PropOp31
 70
     1
102
RTVSPost2010Prop32
280
     0
102
RTVSPost2010PropOp32
 70
     1
102
RTVSPost2010Prop33
280
     0
102
RTVSPost2010PropOp33
 70
     1
102
RTVSPost2010Prop34
280
     0
102
RTVSPost2010PropOp34
 70
     1
102
RTVSPost2010Prop35
280
     0
102
RTVSPost2010PropOp35
 70
     1
102
RTVSPost2010Prop36
280
     0
102
RTVSPost2010PropOp36
 70
     1
102
RTVSPost2010Prop37
 90
       50
102
RTVSPost2010PropOp37
 70
     1
102
RTVSPost2010Prop38
140
0.0
102
RTVSPost2010PropOp38
 70
     1
102
RTVSPost2010Prop39
140
1.0
102
RTVSPost2010PropOp39
 70
     1
102
RTVSPost2010Prop40
 90
        0
102
RTVSPost2010PropOp40
 70
     1
102
RTVSPost2010Prop41ColorIndex
 90
       18
102
RTVSPost2010Prop41ColorRGB
 90
        0
102
RTVSPost2010PropOp41
 70
     1
102
RTVSPost2010Prop42
 90
       50
102
RTVSPost2010PropOp42
 70
     1
102
RTVSPost2010Prop43
 90
        3
102
RTVSPost2010PropOp43
 70
     1
102
RTVSPost2010Prop44ColorIndex
 90
        5
102
RTVSPost2010Prop44ColorRGB
 90
      255
102
RTVSPost2010PropOp44
 70
     1
102
RTVSPost2010Prop45
280
     0
102
RTVSPost2010PropOp45
 70
     1
102
RTVSPost2010Prop46
 90
       50
102
RTVSPost2010PropOp46
 70
     1
102
RTVSPost2010Prop47
 90
       50
102
RTVSPost2010PropOp47
 70
     1
102
RTVSPost2010Prop48
 90
       50
102
RTVSPost2010PropOp48
 70
     1
102
RTVSPost2010Prop49
280
     0
102
RTVSPost2010PropOp49
 70
     1
102
RTVSPost2010Prop50
 90
       50
102
RTVSPost2010PropOp50
 70
     1
102
RTVSPost2010Prop51ColorIndex
 90
      256
102
RTVSPost2010Prop51ColorRGB
 90
-16777216
102
RTVSPost2010PropOp51
 70
     0
102
RTVSPost2010Prop52
140
1.0
102
RTVSPost2010PropOp52
 70
     0
102
RTVSPost2010Prop53
 90
        2
102
RTVSPost2010PropOp53
 70
     1
102
RTVSPost2010Prop54
  1
strokes_ogs.tif
102
RTVSPost2010PropOp54
 70
     1
102
RTVSPost2010Prop55
280
     0
102
RTVSPost2010PropOp55
 70
     1
102
RTVSPost2010Prop56
140
1.0
102
RTVSPost2010PropOp56
 70
     1
102
RTVSPost2010Prop57
140
1.0
102
RTVSPost2010PropOp57
 70
     1
  0
XRECORD
  5
44FA
102
{ACAD_REACTORS
330
44F9
102
}
330
44F9
100
AcDbXrecord
280
     1
102
RTVSPropertyOp0
 70
     1
102
RTVSPropertyOp1
 70
     1
102
RTVSPropertyOp2
 70
     1
102
RTVSPropertyOp3
 70
     1
102
RTVSPropertyOp4
 70
     1
102
RTVSPropertyOp5
 70
     1
102
RTVSPropertyOp6
 70
     1
102
RTVSPropertyOp7
 70
     1
102
RTVSPropertyOp8
 70
     1
102
RTVSPropertyOp9
 70
     1
102
RTVSPropertyOp10
 70
     1
102
RTVSPropertyOp11
 70
     1
102
RTVSPropertyOp12
 70
     1
102
RTVSPropertyOp13
 70
     1
102
RTVSPropertyOp14
 70
     1
102
RTVSPropertyOp15
 70
     1
102
RTVSPropertyOp16
 70
     1
102
RTVSPropertyOp17
 70
     1
102
RTVSPropertyOp18
 70
     1
102
RTVSPropertyOp19
 70
     1
102
RTVSPropertyOp20
 70
     1
102
RTVSPropertyOp21
 70
     1
102
RTVSPropertyOp22
 70
     1
102
RTVSPropertyOp23
 70
     1
102
RTVSPropertyOp24
 70
     1
102
RTVSPropertyOp25
 70
     1
102
RTVSPropertyOp26
 70
     1
102
RTVSPropertyOp27
 70
     1
102
RTVSPropertyOp28
 70
     1
102
RTVSPropertyOp29
 70
     1
102
RTVSPropertyOp30
 70
     1
102
RTVSPropertyOp31
 70
     1
102
RTVSPropertyOp32
 70
     1
102
RTVSPropertyOp33
 70
     1
102
RTVSPropertyOp34
 70
     1
102
RTVSPropertyOp35
 70
     1
102
RTVSPropertyOp36
 70
     1
102
RTVSPropertyOp37
 70
     1
102
RTVSPropertyOp38
 70
     1
102
RTVSPropertyOp39
 70
     1
102
RTVSPropertyOp40
 70
     1
102
RTVSPropertyOp41
 70
     1
102
RTVSPropertyOp42
 70
     1
102
RTVSPropertyOp43
 70
     1
102
RTVSPropertyOp44
 70
     1
102
RTVSPropertyOp45
 70
     1
102
RTVSPropertyOp46
 70
     1
102
RTVSPropertyOp47
 70
     1
102
RTVSPropertyOp48
 70
     1
102
RTVSPropertyOp49
 70
     1
102
RTVSPropertyOp50
 70
     1
102
RTVSPropertyOp51
 70
     0
102
RTVSPropertyOp52
 70
     0
102
RTVSPropertyOp53
 70
     1
102
RTVSPropertyOp54
 70
     1
102
RTVSPropertyOp55
 70
     1
102
RTVSPropertyOp56
 70
     1
102
RTVSPropertyOp57
 70
     1
102
RTVSPost2010Prop28
280
     0
102
RTVSPost2010PropOp28
 70
     1
102
RTVSPost2010Prop29
280
     1
102
RTVSPost2010PropOp29
 70
     1
102
RTVSPost2010Prop30
280
     1
102
RTVSPost2010PropOp30
 70
     1
102
RTVSPost2010Prop31
280
     0
102
RTVSPost2010PropOp31
 70
     1
102
RTVSPost2010Prop32
280
     0
102
RTVSPost2010PropOp32
 70
     1
102
RTVSPost2010Prop33
280
     0
102
RTVSPost2010PropOp33
 70
     1
102
RTVSPost2010Prop34
280
     0
102
RTVSPost2010PropOp34
 70
     1
102
RTVSPost2010Prop35
280
     0
102
RTVSPost2010PropOp35
 70
     1
102
RTVSPost2010Prop36
280
     0
102
RTVSPost2010PropOp36
 70
     1
102
RTVSPost2010Prop37
 90
       50
102
RTVSPost2010PropOp37
 70
     1
102
RTVSPost2010Prop38
140
0.0
102
RTVSPost2010PropOp38
 70
     1
102
RTVSPost2010Prop39
140
1.0
102
RTVSPost2010PropOp39
 70
     1
102
RTVSPost2010Prop40
 90
        0
102
RTVSPost2010PropOp40
 70
     1
102
RTVSPost2010Prop41ColorIndex
 90
       18
102
RTVSPost2010Prop41ColorRGB
 90
        0
102
RTVSPost2010PropOp41
 70
     1
102
RTVSPost2010Prop42
 90
       50
102
RTVSPost2010PropOp42
 70
     1
102
RTVSPost2010Prop43
 90
        3
102
RTVSPost2010PropOp43
 70
     1
102
RTVSPost2010Prop44ColorIndex
 90
        5
102
RTVSPost2010Prop44ColorRGB
 90
      255
102
RTVSPost2010PropOp44
 70
     1
102
RTVSPost2010Prop45
280
     0
102
RTVSPost2010PropOp45
 70
     1
102
RTVSPost2010Prop46
 90
       50
102
RTVSPost2010PropOp46
 70
     1
102
RTVSPost2010Prop47
 90
       50
102
RTVSPost2010PropOp47
 70
     1
102
RTVSPost2010Prop48
 90
       50
102
RTVSPost2010PropOp48
 70
     1
102
RTVSPost2010Prop49
280
     0
102
RTVSPost2010PropOp49
 70
     1
102
RTVSPost2010Prop50
 90
       50
102
RTVSPost2010PropOp50
 70
     1
102
RTVSPost2010Prop51ColorIndex
 90
      256
102
RTVSPost2010Prop51ColorRGB
 90
-16777216
102
RTVSPost2010PropOp51
 70
     0
102
RTVSPost2010Prop52
140
1.0
102
RTVSPost2010PropOp52
 70
     0
102
RTVSPost2010Prop53
 90
        2
102
RTVSPost2010PropOp53
 70
     1
102
RTVSPost2010Prop54
  1
strokes_ogs.tif
102
RTVSPost2010PropOp54
 70
     1
102
RTVSPost2010Prop55
280
     0
102
RTVSPost2010PropOp55
 70
     1
102
RTVSPost2010Prop56
140
1.0
102
RTVSPost2010PropOp56
 70
     1
102
RTVSPost2010Prop57
140
1.0
102
RTVSPost2010PropOp57
 70
     1
  0
XRECORD
  5
450E
102
{ACAD_REACTORS
330
450D
102
}
330
450D
100
AcDbXrecord
280
     1
102
RTVSPropertyOp0
 70
     0
102
RTVSPropertyOp1
 70
     0
102
RTVSPropertyOp2
 70
     0
102
RTVSPropertyOp3
 70
     0
102
RTVSPropertyOp4
 70
     0
102
RTVSPropertyOp5
 70
     0
102
RTVSPropertyOp6
 70
     0
102
RTVSPropertyOp7
 70
     0
102
RTVSPropertyOp8
 70
     0
102
RTVSPropertyOp9
 70
     0
102
RTVSPropertyOp10
 70
     0
102
RTVSPropertyOp11
 70
     0
102
RTVSPropertyOp12
 70
     0
102
RTVSPropertyOp13
 70
     0
102
RTVSPropertyOp14
 70
     2
102
RTVSPropertyOp15
 70
     0
102
RTVSPropertyOp16
 70
     0
102
RTVSPropertyOp17
 70
     0
102
RTVSPropertyOp18
 70
     0
102
RTVSPropertyOp19
 70
     0
102
RTVSPropertyOp20
 70
     0
102
RTVSPropertyOp21
 70
     0
102
RTVSPropertyOp22
 70
     0
102
RTVSPropertyOp23
 70
     0
102
RTVSPropertyOp24
 70
     0
102
RTVSPropertyOp25
 70
     0
102
RTVSPropertyOp26
 70
     0
102
RTVSPropertyOp27
 70
     0
102
RTVSPropertyOp28
 70
     0
102
RTVSPropertyOp29
 70
     0
102
RTVSPropertyOp30
 70
     0
102
RTVSPropertyOp31
 70
     0
102
RTVSPropertyOp32
 70
     0
102
RTVSPropertyOp33
 70
     0
102
RTVSPropertyOp34
 70
     0
102
RTVSPropertyOp35
 70
     0
102
RTVSPropertyOp36
 70
     0
102
RTVSPropertyOp37
 70
     0
102
RTVSPropertyOp38
 70
     0
102
RTVSPropertyOp39
 70
     0
102
RTVSPropertyOp40
 70
     0
102
RTVSPropertyOp41
 70
     0
102
RTVSPropertyOp42
 70
     0
102
RTVSPropertyOp43
 70
     0
102
RTVSPropertyOp44
 70
     0
102
RTVSPropertyOp45
 70
     0
102
RTVSPropertyOp46
 70
     0
102
RTVSPropertyOp47
 70
     0
102
RTVSPropertyOp48
 70
     0
102
RTVSPropertyOp49
 70
     0
102
RTVSPropertyOp50
 70
     0
102
RTVSPropertyOp51
 70
     0
102
RTVSPropertyOp52
 70
     0
102
RTVSPropertyOp53
 70
     0
102
RTVSPropertyOp54
 70
     0
102
RTVSPropertyOp55
 70
     0
102
RTVSPropertyOp56
 70
     0
102
RTVSPropertyOp57
 70
     0
102
RTVSPost2010Prop28
280
     0
102
RTVSPost2010PropOp28
 70
     0
102
RTVSPost2010Prop29
280
     1
102
RTVSPost2010PropOp29
 70
     0
102
RTVSPost2010Prop30
280
     1
102
RTVSPost2010PropOp30
 70
     0
102
RTVSPost2010Prop31
280
     0
102
RTVSPost2010PropOp31
 70
     0
102
RTVSPost2010Prop32
280
     0
102
RTVSPost2010PropOp32
 70
     0
102
RTVSPost2010Prop33
280
     0
102
RTVSPost2010PropOp33
 70
     0
102
RTVSPost2010Prop34
280
     0
102
RTVSPost2010PropOp34
 70
     0
102
RTVSPost2010Prop35
280
     0
102
RTVSPost2010PropOp35
 70
     0
102
RTVSPost2010Prop36
280
     0
102
RTVSPost2010PropOp36
 70
     0
102
RTVSPost2010Prop37
 90
       50
102
RTVSPost2010PropOp37
 70
     0
102
RTVSPost2010Prop38
140
0.0
102
RTVSPost2010PropOp38
 70
     0
102
RTVSPost2010Prop39
140
1.0
102
RTVSPost2010PropOp39
 70
     0
102
RTVSPost2010Prop40
 90
        0
102
RTVSPost2010PropOp40
 70
     0
102
RTVSPost2010Prop41ColorIndex
 90
       18
102
RTVSPost2010Prop41ColorRGB
 90
        0
102
RTVSPost2010PropOp41
 70
     0
102
RTVSPost2010Prop42
 90
       50
102
RTVSPost2010PropOp42
 70
     0
102
RTVSPost2010Prop43
 90
        3
102
RTVSPost2010PropOp43
 70
     0
102
RTVSPost2010Prop44ColorIndex
 90
        5
102
RTVSPost2010Prop44ColorRGB
 90
      255
102
RTVSPost2010PropOp44
 70
     0
102
RTVSPost2010Prop45
280
     0
102
RTVSPost2010PropOp45
 70
     0
102
RTVSPost2010Prop46
 90
       50
102
RTVSPost2010PropOp46
 70
     0
102
RTVSPost2010Prop47
 90
       50
102
RTVSPost2010PropOp47
 70
     0
102
RTVSPost2010Prop48
 90
       50
102
RTVSPost2010PropOp48
 70
     0
102
RTVSPost2010Prop49
280
     0
102
RTVSPost2010PropOp49
 70
     0
102
RTVSPost2010Prop50
 90
       50
102
RTVSPost2010PropOp50
 70
     0
102
RTVSPost2010Prop51ColorIndex
 90
      256
102
RTVSPost2010Prop51ColorRGB
 90
-16777216
102
RTVSPost2010PropOp51
 70
     0
102
RTVSPost2010Prop52
140
1.0
102
RTVSPost2010PropOp52
 70
     0
102
RTVSPost2010Prop53
 90
        2
102
RTVSPost2010PropOp53
 70
     0
102
RTVSPost2010Prop54
  1
strokes_ogs.tif
102
RTVSPost2010PropOp54
 70
     0
102
RTVSPost2010Prop55
280
     0
102
RTVSPost2010PropOp55
 70
     0
102
RTVSPost2010Prop56
140
1.0
102
RTVSPost2010PropOp56
 70
     0
102
RTVSPost2010Prop57
140
1.0
102
RTVSPost2010PropOp57
 70
     0
  0
XRECORD
  5
4508
102
{ACAD_REACTORS
330
4507
102
}
330
4507
100
AcDbXrecord
280
     1
102
RTVSPropertyOp0
 70
     1
102
RTVSPropertyOp1
 70
     1
102
RTVSPropertyOp2
 70
     1
102
RTVSPropertyOp3
 70
     1
102
RTVSPropertyOp4
 70
     1
102
RTVSPropertyOp5
 70
     1
102
RTVSPropertyOp6
 70
     1
102
RTVSPropertyOp7
 70
     1
102
RTVSPropertyOp8
 70
     1
102
RTVSPropertyOp9
 70
     1
102
RTVSPropertyOp10
 70
     1
102
RTVSPropertyOp11
 70
     1
102
RTVSPropertyOp12
 70
     1
102
RTVSPropertyOp13
 70
     1
102
RTVSPropertyOp14
 70
     1
102
RTVSPropertyOp15
 70
     1
102
RTVSPropertyOp16
 70
     1
102
RTVSPropertyOp17
 70
     1
102
RTVSPropertyOp18
 70
     1
102
RTVSPropertyOp19
 70
     1
102
RTVSPropertyOp20
 70
     1
102
RTVSPropertyOp21
 70
     1
102
RTVSPropertyOp22
 70
     1
102
RTVSPropertyOp23
 70
     1
102
RTVSPropertyOp24
 70
     1
102
RTVSPropertyOp25
 70
     1
102
RTVSPropertyOp26
 70
     1
102
RTVSPropertyOp27
 70
     1
102
RTVSPropertyOp28
 70
     1
102
RTVSPropertyOp29
 70
     1
102
RTVSPropertyOp30
 70
     1
102
RTVSPropertyOp31
 70
     1
102
RTVSPropertyOp32
 70
     1
102
RTVSPropertyOp33
 70
     1
102
RTVSPropertyOp34
 70
     1
102
RTVSPropertyOp35
 70
     1
102
RTVSPropertyOp36
 70
     1
102
RTVSPropertyOp37
 70
     1
102
RTVSPropertyOp38
 70
     1
102
RTVSPropertyOp39
 70
     1
102
RTVSPropertyOp40
 70
     1
102
RTVSPropertyOp41
 70
     1
102
RTVSPropertyOp42
 70
     1
102
RTVSPropertyOp43
 70
     1
102
RTVSPropertyOp44
 70
     1
102
RTVSPropertyOp45
 70
     1
102
RTVSPropertyOp46
 70
     1
102
RTVSPropertyOp47
 70
     1
102
RTVSPropertyOp48
 70
     1
102
RTVSPropertyOp49
 70
     1
102
RTVSPropertyOp50
 70
     1
102
RTVSPropertyOp51
 70
     0
102
RTVSPropertyOp52
 70
     0
102
RTVSPropertyOp53
 70
     1
102
RTVSPropertyOp54
 70
     1
102
RTVSPropertyOp55
 70
     1
102
RTVSPropertyOp56
 70
     1
102
RTVSPropertyOp57
 70
     1
102
RTVSPost2010Prop28
280
     0
102
RTVSPost2010PropOp28
 70
     1
102
RTVSPost2010Prop29
280
     1
102
RTVSPost2010PropOp29
 70
     1
102
RTVSPost2010Prop30
280
     1
102
RTVSPost2010PropOp30
 70
     1
102
RTVSPost2010Prop31
280
     0
102
RTVSPost2010PropOp31
 70
     1
102
RTVSPost2010Prop32
280
     0
102
RTVSPost2010PropOp32
 70
     1
102
RTVSPost2010Prop33
280
     0
102
RTVSPost2010PropOp33
 70
     1
102
RTVSPost2010Prop34
280
     0
102
RTVSPost2010PropOp34
 70
     1
102
RTVSPost2010Prop35
280
     0
102
RTVSPost2010PropOp35
 70
     1
102
RTVSPost2010Prop36
280
     0
102
RTVSPost2010PropOp36
 70
     1
102
RTVSPost2010Prop37
 90
       50
102
RTVSPost2010PropOp37
 70
     1
102
RTVSPost2010Prop38
140
0.0
102
RTVSPost2010PropOp38
 70
     1
102
RTVSPost2010Prop39
140
1.0
102
RTVSPost2010PropOp39
 70
     1
102
RTVSPost2010Prop40
 90
        0
102
RTVSPost2010PropOp40
 70
     1
102
RTVSPost2010Prop41ColorIndex
 90
       18
102
RTVSPost2010Prop41ColorRGB
 90
        0
102
RTVSPost2010PropOp41
 70
     1
102
RTVSPost2010Prop42
 90
       50
102
RTVSPost2010PropOp42
 70
     1
102
RTVSPost2010Prop43
 90
        3
102
RTVSPost2010PropOp43
 70
     1
102
RTVSPost2010Prop44ColorIndex
 90
        5
102
RTVSPost2010Prop44ColorRGB
 90
      255
102
RTVSPost2010PropOp44
 70
     1
102
RTVSPost2010Prop45
280
     0
102
RTVSPost2010PropOp45
 70
     1
102
RTVSPost2010Prop46
 90
       50
102
RTVSPost2010PropOp46
 70
     1
102
RTVSPost2010Prop47
 90
       50
102
RTVSPost2010PropOp47
 70
     1
102
RTVSPost2010Prop48
 90
       50
102
RTVSPost2010PropOp48
 70
     1
102
RTVSPost2010Prop49
280
     0
102
RTVSPost2010PropOp49
 70
     1
102
RTVSPost2010Prop50
 90
       50
102
RTVSPost2010PropOp50
 70
     1
102
RTVSPost2010Prop51ColorIndex
 90
      256
102
RTVSPost2010Prop51ColorRGB
 90
-16777216
102
RTVSPost2010PropOp51
 70
     0
102
RTVSPost2010Prop52
140
1.0
102
RTVSPost2010PropOp52
 70
     0
102
RTVSPost2010Prop53
 90
        2
102
RTVSPost2010PropOp53
 70
     1
102
RTVSPost2010Prop54
  1
strokes_ogs.tif
102
RTVSPost2010PropOp54
 70
     1
102
RTVSPost2010Prop55
280
     0
102
RTVSPost2010PropOp55
 70
     1
102
RTVSPost2010Prop56
140
1.0
102
RTVSPost2010PropOp56
 70
     1
102
RTVSPost2010Prop57
140
1.0
102
RTVSPost2010PropOp57
 70
     1
  0
XRECORD
  5
4510
102
{ACAD_REACTORS
330
450F
102
}
330
450F
100
AcDbXrecord
280
     1
102
RTVSPropertyOp0
 70
     0
102
RTVSPropertyOp1
 70
     0
102
RTVSPropertyOp2
 70
     0
102
RTVSPropertyOp3
 70
     0
102
RTVSPropertyOp4
 70
     0
102
RTVSPropertyOp5
 70
     0
102
RTVSPropertyOp6
 70
     0
102
RTVSPropertyOp7
 70
     0
102
RTVSPropertyOp8
 70
     0
102
RTVSPropertyOp9
 70
     0
102
RTVSPropertyOp10
 70
     0
102
RTVSPropertyOp11
 70
     0
102
RTVSPropertyOp12
 70
     0
102
RTVSPropertyOp13
 70
     0
102
RTVSPropertyOp14
 70
     2
102
RTVSPropertyOp15
 70
     0
102
RTVSPropertyOp16
 70
     0
102
RTVSPropertyOp17
 70
     0
102
RTVSPropertyOp18
 70
     0
102
RTVSPropertyOp19
 70
     0
102
RTVSPropertyOp20
 70
     0
102
RTVSPropertyOp21
 70
     0
102
RTVSPropertyOp22
 70
     0
102
RTVSPropertyOp23
 70
     0
102
RTVSPropertyOp24
 70
     0
102
RTVSPropertyOp25
 70
     0
102
RTVSPropertyOp26
 70
     0
102
RTVSPropertyOp27
 70
     0
102
RTVSPropertyOp28
 70
     0
102
RTVSPropertyOp29
 70
     0
102
RTVSPropertyOp30
 70
     0
102
RTVSPropertyOp31
 70
     0
102
RTVSPropertyOp32
 70
     0
102
RTVSPropertyOp33
 70
     0
102
RTVSPropertyOp34
 70
     0
102
RTVSPropertyOp35
 70
     0
102
RTVSPropertyOp36
 70
     0
102
RTVSPropertyOp37
 70
     0
102
RTVSPropertyOp38
 70
     0
102
RTVSPropertyOp39
 70
     0
102
RTVSPropertyOp40
 70
     0
102
RTVSPropertyOp41
 70
     0
102
RTVSPropertyOp42
 70
     0
102
RTVSPropertyOp43
 70
     0
102
RTVSPropertyOp44
 70
     0
102
RTVSPropertyOp45
 70
     0
102
RTVSPropertyOp46
 70
     0
102
RTVSPropertyOp47
 70
     0
102
RTVSPropertyOp48
 70
     0
102
RTVSPropertyOp49
 70
     0
102
RTVSPropertyOp50
 70
     0
102
RTVSPropertyOp51
 70
     0
102
RTVSPropertyOp52
 70
     0
102
RTVSPropertyOp53
 70
     0
102
RTVSPropertyOp54
 70
     0
102
RTVSPropertyOp55
 70
     0
102
RTVSPropertyOp56
 70
     0
102
RTVSPropertyOp57
 70
     0
102
RTVSPost2010Prop28
280
     0
102
RTVSPost2010PropOp28
 70
     0
102
RTVSPost2010Prop29
280
     1
102
RTVSPost2010PropOp29
 70
     0
102
RTVSPost2010Prop30
280
     1
102
RTVSPost2010PropOp30
 70
     0
102
RTVSPost2010Prop31
280
     0
102
RTVSPost2010PropOp31
 70
     0
102
RTVSPost2010Prop32
280
     0
102
RTVSPost2010PropOp32
 70
     0
102
RTVSPost2010Prop33
280
     0
102
RTVSPost2010PropOp33
 70
     0
102
RTVSPost2010Prop34
280
     0
102
RTVSPost2010PropOp34
 70
     0
102
RTVSPost2010Prop35
280
     0
102
RTVSPost2010PropOp35
 70
     0
102
RTVSPost2010Prop36
280
     0
102
RTVSPost2010PropOp36
 70
     0
102
RTVSPost2010Prop37
 90
       50
102
RTVSPost2010PropOp37
 70
     0
102
RTVSPost2010Prop38
140
0.0
102
RTVSPost2010PropOp38
 70
     0
102
RTVSPost2010Prop39
140
1.0
102
RTVSPost2010PropOp39
 70
     0
102
RTVSPost2010Prop40
 90
        0
102
RTVSPost2010PropOp40
 70
     0
102
RTVSPost2010Prop41ColorIndex
 90
       18
102
RTVSPost2010Prop41ColorRGB
 90
        0
102
RTVSPost2010PropOp41
 70
     0
102
RTVSPost2010Prop42
 90
       50
102
RTVSPost2010PropOp42
 70
     0
102
RTVSPost2010Prop43
 90
        3
102
RTVSPost2010PropOp43
 70
     0
102
RTVSPost2010Prop44ColorIndex
 90
        5
102
RTVSPost2010Prop44ColorRGB
 90
      255
102
RTVSPost2010PropOp44
 70
     0
102
RTVSPost2010Prop45
280
     0
102
RTVSPost2010PropOp45
 70
     0
102
RTVSPost2010Prop46
 90
       50
102
RTVSPost2010PropOp46
 70
     0
102
RTVSPost2010Prop47
 90
       50
102
RTVSPost2010PropOp47
 70
     0
102
RTVSPost2010Prop48
 90
       50
102
RTVSPost2010PropOp48
 70
     0
102
RTVSPost2010Prop49
280
     0
102
RTVSPost2010PropOp49
 70
     0
102
RTVSPost2010Prop50
 90
       50
102
RTVSPost2010PropOp50
 70
     0
102
RTVSPost2010Prop51ColorIndex
 90
      256
102
RTVSPost2010Prop51ColorRGB
 90
-16777216
102
RTVSPost2010PropOp51
 70
     0
102
RTVSPost2010Prop52
140
1.0
102
RTVSPost2010PropOp52
 70
     0
102
RTVSPost2010Prop53
 90
        2
102
RTVSPost2010PropOp53
 70
     0
102
RTVSPost2010Prop54
  1
strokes_ogs.tif
102
RTVSPost2010PropOp54
 70
     0
102
RTVSPost2010Prop55
280
     0
102
RTVSPost2010PropOp55
 70
     0
102
RTVSPost2010Prop56
140
1.0
102
RTVSPost2010PropOp56
 70
     0
102
RTVSPost2010Prop57
140
1.0
102
RTVSPost2010PropOp57
 70
     0
  0
XRECORD
  5
44FE
102
{ACAD_REACTORS
330
44FD
102
}
330
44FD
100
AcDbXrecord
280
     1
102
RTVSPropertyOp0
 70
     1
102
RTVSPropertyOp1
 70
     1
102
RTVSPropertyOp2
 70
     1
102
RTVSPropertyOp3
 70
     1
102
RTVSPropertyOp4
 70
     1
102
RTVSPropertyOp5
 70
     1
102
RTVSPropertyOp6
 70
     1
102
RTVSPropertyOp7
 70
     1
102
RTVSPropertyOp8
 70
     1
102
RTVSPropertyOp9
 70
     1
102
RTVSPropertyOp10
 70
     1
102
RTVSPropertyOp11
 70
     1
102
RTVSPropertyOp12
 70
     1
102
RTVSPropertyOp13
 70
     1
102
RTVSPropertyOp14
 70
     1
102
RTVSPropertyOp15
 70
     1
102
RTVSPropertyOp16
 70
     1
102
RTVSPropertyOp17
 70
     1
102
RTVSPropertyOp18
 70
     1
102
RTVSPropertyOp19
 70
     1
102
RTVSPropertyOp20
 70
     1
102
RTVSPropertyOp21
 70
     1
102
RTVSPropertyOp22
 70
     1
102
RTVSPropertyOp23
 70
     1
102
RTVSPropertyOp24
 70
     1
102
RTVSPropertyOp25
 70
     1
102
RTVSPropertyOp26
 70
     1
102
RTVSPropertyOp27
 70
     1
102
RTVSPropertyOp28
 70
     1
102
RTVSPropertyOp29
 70
     1
102
RTVSPropertyOp30
 70
     1
102
RTVSPropertyOp31
 70
     1
102
RTVSPropertyOp32
 70
     1
102
RTVSPropertyOp33
 70
     1
102
RTVSPropertyOp34
 70
     1
102
RTVSPropertyOp35
 70
     1
102
RTVSPropertyOp36
 70
     1
102
RTVSPropertyOp37
 70
     1
102
RTVSPropertyOp38
 70
     1
102
RTVSPropertyOp39
 70
     1
102
RTVSPropertyOp40
 70
     1
102
RTVSPropertyOp41
 70
     1
102
RTVSPropertyOp42
 70
     1
102
RTVSPropertyOp43
 70
     1
102
RTVSPropertyOp44
 70
     1
102
RTVSPropertyOp45
 70
     1
102
RTVSPropertyOp46
 70
     1
102
RTVSPropertyOp47
 70
     1
102
RTVSPropertyOp48
 70
     1
102
RTVSPropertyOp49
 70
     1
102
RTVSPropertyOp50
 70
     1
102
RTVSPropertyOp51
 70
     0
102
RTVSPropertyOp52
 70
     0
102
RTVSPropertyOp53
 70
     1
102
RTVSPropertyOp54
 70
     1
102
RTVSPropertyOp55
 70
     1
102
RTVSPropertyOp56
 70
     1
102
RTVSPropertyOp57
 70
     1
102
RTVSPost2010Prop28
280
     0
102
RTVSPost2010PropOp28
 70
     1
102
RTVSPost2010Prop29
280
     1
102
RTVSPost2010PropOp29
 70
     1
102
RTVSPost2010Prop30
280
     1
102
RTVSPost2010PropOp30
 70
     1
102
RTVSPost2010Prop31
280
     0
102
RTVSPost2010PropOp31
 70
     1
102
RTVSPost2010Prop32
280
     0
102
RTVSPost2010PropOp32
 70
     1
102
RTVSPost2010Prop33
280
     0
102
RTVSPost2010PropOp33
 70
     1
102
RTVSPost2010Prop34
280
     0
102
RTVSPost2010PropOp34
 70
     1
102
RTVSPost2010Prop35
280
     0
102
RTVSPost2010PropOp35
 70
     1
102
RTVSPost2010Prop36
280
     0
102
RTVSPost2010PropOp36
 70
     1
102
RTVSPost2010Prop37
 90
       50
102
RTVSPost2010PropOp37
 70
     1
102
RTVSPost2010Prop38
140
0.0
102
RTVSPost2010PropOp38
 70
     1
102
RTVSPost2010Prop39
140
1.0
102
RTVSPost2010PropOp39
 70
     1
102
RTVSPost2010Prop40
 90
        0
102
RTVSPost2010PropOp40
 70
     1
102
RTVSPost2010Prop41ColorIndex
 90
       18
102
RTVSPost2010Prop41ColorRGB
 90
        0
102
RTVSPost2010PropOp41
 70
     1
102
RTVSPost2010Prop42
 90
       50
102
RTVSPost2010PropOp42
 70
     1
102
RTVSPost2010Prop43
 90
        3
102
RTVSPost2010PropOp43
 70
     1
102
RTVSPost2010Prop44ColorIndex
 90
        5
102
RTVSPost2010Prop44ColorRGB
 90
      255
102
RTVSPost2010PropOp44
 70
     1
102
RTVSPost2010Prop45
280
     0
102
RTVSPost2010PropOp45
 70
     1
102
RTVSPost2010Prop46
 90
       50
102
RTVSPost2010PropOp46
 70
     1
102
RTVSPost2010Prop47
 90
       50
102
RTVSPost2010PropOp47
 70
     1
102
RTVSPost2010Prop48
 90
       50
102
RTVSPost2010PropOp48
 70
     1
102
RTVSPost2010Prop49
280
     0
102
RTVSPost2010PropOp49
 70
     1
102
RTVSPost2010Prop50
 90
       50
102
RTVSPost2010PropOp50
 70
     1
102
RTVSPost2010Prop51ColorIndex
 90
      256
102
RTVSPost2010Prop51ColorRGB
 90
-16777216
102
RTVSPost2010PropOp51
 70
     0
102
RTVSPost2010Prop52
140
1.0
102
RTVSPost2010PropOp52
 70
     0
102
RTVSPost2010Prop53
 90
        2
102
RTVSPost2010PropOp53
 70
     1
102
RTVSPost2010Prop54
  1
strokes_ogs.tif
102
RTVSPost2010PropOp54
 70
     1
102
RTVSPost2010Prop55
280
     0
102
RTVSPost2010PropOp55
 70
     1
102
RTVSPost2010Prop56
140
1.0
102
RTVSPost2010PropOp56
 70
     1
102
RTVSPost2010Prop57
140
1.0
102
RTVSPost2010PropOp57
 70
     1
  0
XRECORD
  5
451C
102
{ACAD_REACTORS
330
451B
102
}
330
451B
100
AcDbXrecord
280
     1
102
RTVSPropertyOp0
 70
     1
102
RTVSPropertyOp1
 70
     1
102
RTVSPropertyOp2
 70
     1
102
RTVSPropertyOp3
 70
     1
102
RTVSPropertyOp4
 70
     1
102
RTVSPropertyOp5
 70
     1
102
RTVSPropertyOp6
 70
     1
102
RTVSPropertyOp7
 70
     1
102
RTVSPropertyOp8
 70
     1
102
RTVSPropertyOp9
 70
     1
102
RTVSPropertyOp10
 70
     1
102
RTVSPropertyOp11
 70
     1
102
RTVSPropertyOp12
 70
     1
102
RTVSPropertyOp13
 70
     1
102
RTVSPropertyOp14
 70
     1
102
RTVSPropertyOp15
 70
     1
102
RTVSPropertyOp16
 70
     1
102
RTVSPropertyOp17
 70
     1
102
RTVSPropertyOp18
 70
     1
102
RTVSPropertyOp19
 70
     1
102
RTVSPropertyOp20
 70
     1
102
RTVSPropertyOp21
 70
     1
102
RTVSPropertyOp22
 70
     1
102
RTVSPropertyOp23
 70
     1
102
RTVSPropertyOp24
 70
     1
102
RTVSPropertyOp25
 70
     1
102
RTVSPropertyOp26
 70
     1
102
RTVSPropertyOp27
 70
     1
102
RTVSPropertyOp28
 70
     1
102
RTVSPropertyOp29
 70
     1
102
RTVSPropertyOp30
 70
     1
102
RTVSPropertyOp31
 70
     1
102
RTVSPropertyOp32
 70
     1
102
RTVSPropertyOp33
 70
     1
102
RTVSPropertyOp34
 70
     1
102
RTVSPropertyOp35
 70
     1
102
RTVSPropertyOp36
 70
     1
102
RTVSPropertyOp37
 70
     1
102
RTVSPropertyOp38
 70
     1
102
RTVSPropertyOp39
 70
     1
102
RTVSPropertyOp40
 70
     1
102
RTVSPropertyOp41
 70
     1
102
RTVSPropertyOp42
 70
     1
102
RTVSPropertyOp43
 70
     1
102
RTVSPropertyOp44
 70
     1
102
RTVSPropertyOp45
 70
     1
102
RTVSPropertyOp46
 70
     1
102
RTVSPropertyOp47
 70
     1
102
RTVSPropertyOp48
 70
     1
102
RTVSPropertyOp49
 70
     1
102
RTVSPropertyOp50
 70
     1
102
RTVSPropertyOp51
 70
     0
102
RTVSPropertyOp52
 70
     0
102
RTVSPropertyOp53
 70
     1
102
RTVSPropertyOp54
 70
     1
102
RTVSPropertyOp55
 70
     1
102
RTVSPropertyOp56
 70
     1
102
RTVSPropertyOp57
 70
     1
102
RTVSPost2010Prop28
280
     0
102
RTVSPost2010PropOp28
 70
     1
102
RTVSPost2010Prop29
280
     1
102
RTVSPost2010PropOp29
 70
     1
102
RTVSPost2010Prop30
280
     1
102
RTVSPost2010PropOp30
 70
     1
102
RTVSPost2010Prop31
280
     0
102
RTVSPost2010PropOp31
 70
     1
102
RTVSPost2010Prop32
280
     0
102
RTVSPost2010PropOp32
 70
     1
102
RTVSPost2010Prop33
280
     0
102
RTVSPost2010PropOp33
 70
     1
102
RTVSPost2010Prop34
280
     0
102
RTVSPost2010PropOp34
 70
     1
102
RTVSPost2010Prop35
280
     0
102
RTVSPost2010PropOp35
 70
     1
102
RTVSPost2010Prop36
280
     0
102
RTVSPost2010PropOp36
 70
     1
102
RTVSPost2010Prop37
 90
       50
102
RTVSPost2010PropOp37
 70
     1
102
RTVSPost2010Prop38
140
0.0
102
RTVSPost2010PropOp38
 70
     1
102
RTVSPost2010Prop39
140
1.0
102
RTVSPost2010PropOp39
 70
     1
102
RTVSPost2010Prop40
 90
        0
102
RTVSPost2010PropOp40
 70
     1
102
RTVSPost2010Prop41ColorIndex
 90
       18
102
RTVSPost2010Prop41ColorRGB
 90
        0
102
RTVSPost2010PropOp41
 70
     1
102
RTVSPost2010Prop42
 90
       50
102
RTVSPost2010PropOp42
 70
     1
102
RTVSPost2010Prop43
 90
        3
102
RTVSPost2010PropOp43
 70
     1
102
RTVSPost2010Prop44ColorIndex
 90
        5
102
RTVSPost2010Prop44ColorRGB
 90
      255
102
RTVSPost2010PropOp44
 70
     1
102
RTVSPost2010Prop45
280
     0
102
RTVSPost2010PropOp45
 70
     1
102
RTVSPost2010Prop46
 90
       50
102
RTVSPost2010PropOp46
 70
     1
102
RTVSPost2010Prop47
 90
       50
102
RTVSPost2010PropOp47
 70
     1
102
RTVSPost2010Prop48
 90
       50
102
RTVSPost2010PropOp48
 70
     1
102
RTVSPost2010Prop49
280
     0
102
RTVSPost2010PropOp49
 70
     1
102
RTVSPost2010Prop50
 90
       50
102
RTVSPost2010PropOp50
 70
     1
102
RTVSPost2010Prop51ColorIndex
 90
      256
102
RTVSPost2010Prop51ColorRGB
 90
-16777216
102
RTVSPost2010PropOp51
 70
     0
102
RTVSPost2010Prop52
140
1.0
102
RTVSPost2010PropOp52
 70
     0
102
RTVSPost2010Prop53
 90
        2
102
RTVSPost2010PropOp53
 70
     1
102
RTVSPost2010Prop54
  1
strokes_ogs.tif
102
RTVSPost2010PropOp54
 70
     1
102
RTVSPost2010Prop55
280
     0
102
RTVSPost2010PropOp55
 70
     1
102
RTVSPost2010Prop56
140
1.0
102
RTVSPost2010PropOp56
 70
     1
102
RTVSPost2010Prop57
140
1.0
102
RTVSPost2010PropOp57
 70
     1
  0
XRECORD
  5
451A
102
{ACAD_REACTORS
330
4519
102
}
330
4519
100
AcDbXrecord
280
     1
102
RTVSPropertyOp0
 70
     1
102
RTVSPropertyOp1
 70
     1
102
RTVSPropertyOp2
 70
     1
102
RTVSPropertyOp3
 70
     1
102
RTVSPropertyOp4
 70
     1
102
RTVSPropertyOp5
 70
     1
102
RTVSPropertyOp6
 70
     1
102
RTVSPropertyOp7
 70
     1
102
RTVSPropertyOp8
 70
     1
102
RTVSPropertyOp9
 70
     1
102
RTVSPropertyOp10
 70
     1
102
RTVSPropertyOp11
 70
     1
102
RTVSPropertyOp12
 70
     1
102
RTVSPropertyOp13
 70
     1
102
RTVSPropertyOp14
 70
     1
102
RTVSPropertyOp15
 70
     1
102
RTVSPropertyOp16
 70
     1
102
RTVSPropertyOp17
 70
     1
102
RTVSPropertyOp18
 70
     1
102
RTVSPropertyOp19
 70
     1
102
RTVSPropertyOp20
 70
     1
102
RTVSPropertyOp21
 70
     1
102
RTVSPropertyOp22
 70
     1
102
RTVSPropertyOp23
 70
     1
102
RTVSPropertyOp24
 70
     1
102
RTVSPropertyOp25
 70
     1
102
RTVSPropertyOp26
 70
     1
102
RTVSPropertyOp27
 70
     1
102
RTVSPropertyOp28
 70
     1
102
RTVSPropertyOp29
 70
     1
102
RTVSPropertyOp30
 70
     1
102
RTVSPropertyOp31
 70
     1
102
RTVSPropertyOp32
 70
     1
102
RTVSPropertyOp33
 70
     1
102
RTVSPropertyOp34
 70
     1
102
RTVSPropertyOp35
 70
     1
102
RTVSPropertyOp36
 70
     1
102
RTVSPropertyOp37
 70
     1
102
RTVSPropertyOp38
 70
     1
102
RTVSPropertyOp39
 70
     1
102
RTVSPropertyOp40
 70
     1
102
RTVSPropertyOp41
 70
     1
102
RTVSPropertyOp42
 70
     1
102
RTVSPropertyOp43
 70
     1
102
RTVSPropertyOp44
 70
     1
102
RTVSPropertyOp45
 70
     1
102
RTVSPropertyOp46
 70
     1
102
RTVSPropertyOp47
 70
     1
102
RTVSPropertyOp48
 70
     1
102
RTVSPropertyOp49
 70
     1
102
RTVSPropertyOp50
 70
     1
102
RTVSPropertyOp51
 70
     0
102
RTVSPropertyOp52
 70
     0
102
RTVSPropertyOp53
 70
     1
102
RTVSPropertyOp54
 70
     1
102
RTVSPropertyOp55
 70
     1
102
RTVSPropertyOp56
 70
     1
102
RTVSPropertyOp57
 70
     1
102
RTVSPost2010Prop28
280
     0
102
RTVSPost2010PropOp28
 70
     1
102
RTVSPost2010Prop29
280
     1
102
RTVSPost2010PropOp29
 70
     1
102
RTVSPost2010Prop30
280
     1
102
RTVSPost2010PropOp30
 70
     1
102
RTVSPost2010Prop31
280
     0
102
RTVSPost2010PropOp31
 70
     1
102
RTVSPost2010Prop32
280
     0
102
RTVSPost2010PropOp32
 70
     1
102
RTVSPost2010Prop33
280
     0
102
RTVSPost2010PropOp33
 70
     1
102
RTVSPost2010Prop34
280
     0
102
RTVSPost2010PropOp34
 70
     1
102
RTVSPost2010Prop35
280
     0
102
RTVSPost2010PropOp35
 70
     1
102
RTVSPost2010Prop36
280
     0
102
RTVSPost2010PropOp36
 70
     1
102
RTVSPost2010Prop37
 90
       50
102
RTVSPost2010PropOp37
 70
     1
102
RTVSPost2010Prop38
140
0.0
102
RTVSPost2010PropOp38
 70
     1
102
RTVSPost2010Prop39
140
1.0
102
RTVSPost2010PropOp39
 70
     1
102
RTVSPost2010Prop40
 90
        0
102
RTVSPost2010PropOp40
 70
     1
102
RTVSPost2010Prop41ColorIndex
 90
       18
102
RTVSPost2010Prop41ColorRGB
 90
        0
102
RTVSPost2010PropOp41
 70
     1
102
RTVSPost2010Prop42
 90
       50
102
RTVSPost2010PropOp42
 70
     1
102
RTVSPost2010Prop43
 90
        3
102
RTVSPost2010PropOp43
 70
     1
102
RTVSPost2010Prop44ColorIndex
 90
        5
102
RTVSPost2010Prop44ColorRGB
 90
      255
102
RTVSPost2010PropOp44
 70
     1
102
RTVSPost2010Prop45
280
     0
102
RTVSPost2010PropOp45
 70
     1
102
RTVSPost2010Prop46
 90
       50
102
RTVSPost2010PropOp46
 70
     1
102
RTVSPost2010Prop47
 90
       50
102
RTVSPost2010PropOp47
 70
     1
102
RTVSPost2010Prop48
 90
       50
102
RTVSPost2010PropOp48
 70
     1
102
RTVSPost2010Prop49
280
     0
102
RTVSPost2010PropOp49
 70
     1
102
RTVSPost2010Prop50
 90
       50
102
RTVSPost2010PropOp50
 70
     1
102
RTVSPost2010Prop51ColorIndex
 90
      256
102
RTVSPost2010Prop51ColorRGB
 90
-16777216
102
RTVSPost2010PropOp51
 70
     0
102
RTVSPost2010Prop52
140
1.0
102
RTVSPost2010PropOp52
 70
     0
102
RTVSPost2010Prop53
 90
        2
102
RTVSPost2010PropOp53
 70
     1
102
RTVSPost2010Prop54
  1
strokes_ogs.tif
102
RTVSPost2010PropOp54
 70
     1
102
RTVSPost2010Prop55
280
     0
102
RTVSPost2010PropOp55
 70
     1
102
RTVSPost2010Prop56
140
1.0
102
RTVSPost2010PropOp56
 70
     1
102
RTVSPost2010Prop57
140
1.0
102
RTVSPost2010PropOp57
 70
     1
  0
XRECORD
  5
4514
102
{ACAD_REACTORS
330
4513
102
}
330
4513
100
AcDbXrecord
280
     1
102
RTVSPropertyOp0
 70
     1
102
RTVSPropertyOp1
 70
     1
102
RTVSPropertyOp2
 70
     1
102
RTVSPropertyOp3
 70
     1
102
RTVSPropertyOp4
 70
     1
102
RTVSPropertyOp5
 70
     1
102
RTVSPropertyOp6
 70
     1
102
RTVSPropertyOp7
 70
     1
102
RTVSPropertyOp8
 70
     1
102
RTVSPropertyOp9
 70
     1
102
RTVSPropertyOp10
 70
     1
102
RTVSPropertyOp11
 70
     1
102
RTVSPropertyOp12
 70
     1
102
RTVSPropertyOp13
 70
     1
102
RTVSPropertyOp14
 70
     1
102
RTVSPropertyOp15
 70
     1
102
RTVSPropertyOp16
 70
     1
102
RTVSPropertyOp17
 70
     1
102
RTVSPropertyOp18
 70
     1
102
RTVSPropertyOp19
 70
     1
102
RTVSPropertyOp20
 70
     1
102
RTVSPropertyOp21
 70
     1
102
RTVSPropertyOp22
 70
     1
102
RTVSPropertyOp23
 70
     1
102
RTVSPropertyOp24
 70
     1
102
RTVSPropertyOp25
 70
     1
102
RTVSPropertyOp26
 70
     1
102
RTVSPropertyOp27
 70
     1
102
RTVSPropertyOp28
 70
     1
102
RTVSPropertyOp29
 70
     1
102
RTVSPropertyOp30
 70
     1
102
RTVSPropertyOp31
 70
     1
102
RTVSPropertyOp32
 70
     1
102
RTVSPropertyOp33
 70
     1
102
RTVSPropertyOp34
 70
     1
102
RTVSPropertyOp35
 70
     1
102
RTVSPropertyOp36
 70
     1
102
RTVSPropertyOp37
 70
     1
102
RTVSPropertyOp38
 70
     1
102
RTVSPropertyOp39
 70
     1
102
RTVSPropertyOp40
 70
     1
102
RTVSPropertyOp41
 70
     1
102
RTVSPropertyOp42
 70
     1
102
RTVSPropertyOp43
 70
     1
102
RTVSPropertyOp44
 70
     1
102
RTVSPropertyOp45
 70
     1
102
RTVSPropertyOp46
 70
     1
102
RTVSPropertyOp47
 70
     1
102
RTVSPropertyOp48
 70
     1
102
RTVSPropertyOp49
 70
     1
102
RTVSPropertyOp50
 70
     1
102
RTVSPropertyOp51
 70
     0
102
RTVSPropertyOp52
 70
     0
102
RTVSPropertyOp53
 70
     1
102
RTVSPropertyOp54
 70
     1
102
RTVSPropertyOp55
 70
     1
102
RTVSPropertyOp56
 70
     1
102
RTVSPropertyOp57
 70
     1
102
RTVSPost2010Prop28
280
     0
102
RTVSPost2010PropOp28
 70
     1
102
RTVSPost2010Prop29
280
     1
102
RTVSPost2010PropOp29
 70
     1
102
RTVSPost2010Prop30
280
     1
102
RTVSPost2010PropOp30
 70
     1
102
RTVSPost2010Prop31
280
     0
102
RTVSPost2010PropOp31
 70
     1
102
RTVSPost2010Prop32
280
     0
102
RTVSPost2010PropOp32
 70
     1
102
RTVSPost2010Prop33
280
     0
102
RTVSPost2010PropOp33
 70
     1
102
RTVSPost2010Prop34
280
     0
102
RTVSPost2010PropOp34
 70
     1
102
RTVSPost2010Prop35
280
     0
102
RTVSPost2010PropOp35
 70
     1
102
RTVSPost2010Prop36
280
     0
102
RTVSPost2010PropOp36
 70
     1
102
RTVSPost2010Prop37
 90
       50
102
RTVSPost2010PropOp37
 70
     1
102
RTVSPost2010Prop38
140
0.0
102
RTVSPost2010PropOp38
 70
     1
102
RTVSPost2010Prop39
140
1.0
102
RTVSPost2010PropOp39
 70
     1
102
RTVSPost2010Prop40
 90
        0
102
RTVSPost2010PropOp40
 70
     1
102
RTVSPost2010Prop41ColorIndex
 90
       18
102
RTVSPost2010Prop41ColorRGB
 90
        0
102
RTVSPost2010PropOp41
 70
     1
102
RTVSPost2010Prop42
 90
       50
102
RTVSPost2010PropOp42
 70
     1
102
RTVSPost2010Prop43
 90
        3
102
RTVSPost2010PropOp43
 70
     1
102
RTVSPost2010Prop44ColorIndex
 90
        5
102
RTVSPost2010Prop44ColorRGB
 90
      255
102
RTVSPost2010PropOp44
 70
     1
102
RTVSPost2010Prop45
280
     0
102
RTVSPost2010PropOp45
 70
     1
102
RTVSPost2010Prop46
 90
       50
102
RTVSPost2010PropOp46
 70
     1
102
RTVSPost2010Prop47
 90
       50
102
RTVSPost2010PropOp47
 70
     1
102
RTVSPost2010Prop48
 90
       50
102
RTVSPost2010PropOp48
 70
     1
102
RTVSPost2010Prop49
280
     0
102
RTVSPost2010PropOp49
 70
     1
102
RTVSPost2010Prop50
 90
       50
102
RTVSPost2010PropOp50
 70
     1
102
RTVSPost2010Prop51ColorIndex
 90
      256
102
RTVSPost2010Prop51ColorRGB
 90
-16777216
102
RTVSPost2010PropOp51
 70
     0
102
RTVSPost2010Prop52
140
1.0
102
RTVSPost2010PropOp52
 70
     0
102
RTVSPost2010Prop53
 90
        2
102
RTVSPost2010PropOp53
 70
     1
102
RTVSPost2010Prop54
  1
strokes_ogs.tif
102
RTVSPost2010PropOp54
 70
     1
102
RTVSPost2010Prop55
280
     0
102
RTVSPost2010PropOp55
 70
     1
102
RTVSPost2010Prop56
140
1.0
102
RTVSPost2010PropOp56
 70
     1
102
RTVSPost2010Prop57
140
1.0
102
RTVSPost2010PropOp57
 70
     1
  0
XRECORD
  5
4516
102
{ACAD_REACTORS
330
4515
102
}
330
4515
100
AcDbXrecord
280
     1
102
RTVSPropertyOp0
 70
     1
102
RTVSPropertyOp1
 70
     1
102
RTVSPropertyOp2
 70
     1
102
RTVSPropertyOp3
 70
     1
102
RTVSPropertyOp4
 70
     1
102
RTVSPropertyOp5
 70
     1
102
RTVSPropertyOp6
 70
     1
102
RTVSPropertyOp7
 70
     1
102
RTVSPropertyOp8
 70
     1
102
RTVSPropertyOp9
 70
     1
102
RTVSPropertyOp10
 70
     1
102
RTVSPropertyOp11
 70
     1
102
RTVSPropertyOp12
 70
     1
102
RTVSPropertyOp13
 70
     1
102
RTVSPropertyOp14
 70
     1
102
RTVSPropertyOp15
 70
     1
102
RTVSPropertyOp16
 70
     1
102
RTVSPropertyOp17
 70
     1
102
RTVSPropertyOp18
 70
     1
102
RTVSPropertyOp19
 70
     1
102
RTVSPropertyOp20
 70
     1
102
RTVSPropertyOp21
 70
     1
102
RTVSPropertyOp22
 70
     1
102
RTVSPropertyOp23
 70
     1
102
RTVSPropertyOp24
 70
     1
102
RTVSPropertyOp25
 70
     1
102
RTVSPropertyOp26
 70
     1
102
RTVSPropertyOp27
 70
     1
102
RTVSPropertyOp28
 70
     1
102
RTVSPropertyOp29
 70
     1
102
RTVSPropertyOp30
 70
     1
102
RTVSPropertyOp31
 70
     1
102
RTVSPropertyOp32
 70
     1
102
RTVSPropertyOp33
 70
     1
102
RTVSPropertyOp34
 70
     1
102
RTVSPropertyOp35
 70
     1
102
RTVSPropertyOp36
 70
     1
102
RTVSPropertyOp37
 70
     1
102
RTVSPropertyOp38
 70
     1
102
RTVSPropertyOp39
 70
     1
102
RTVSPropertyOp40
 70
     1
102
RTVSPropertyOp41
 70
     1
102
RTVSPropertyOp42
 70
     1
102
RTVSPropertyOp43
 70
     1
102
RTVSPropertyOp44
 70
     1
102
RTVSPropertyOp45
 70
     1
102
RTVSPropertyOp46
 70
     1
102
RTVSPropertyOp47
 70
     1
102
RTVSPropertyOp48
 70
     1
102
RTVSPropertyOp49
 70
     1
102
RTVSPropertyOp50
 70
     1
102
RTVSPropertyOp51
 70
     0
102
RTVSPropertyOp52
 70
     0
102
RTVSPropertyOp53
 70
     1
102
RTVSPropertyOp54
 70
     1
102
RTVSPropertyOp55
 70
     1
102
RTVSPropertyOp56
 70
     1
102
RTVSPropertyOp57
 70
     1
102
RTVSPost2010Prop28
280
     0
102
RTVSPost2010PropOp28
 70
     1
102
RTVSPost2010Prop29
280
     1
102
RTVSPost2010PropOp29
 70
     1
102
RTVSPost2010Prop30
280
     1
102
RTVSPost2010PropOp30
 70
     1
102
RTVSPost2010Prop31
280
     0
102
RTVSPost2010PropOp31
 70
     1
102
RTVSPost2010Prop32
280
     0
102
RTVSPost2010PropOp32
 70
     1
102
RTVSPost2010Prop33
280
     0
102
RTVSPost2010PropOp33
 70
     1
102
RTVSPost2010Prop34
280
     0
102
RTVSPost2010PropOp34
 70
     1
102
RTVSPost2010Prop35
280
     0
102
RTVSPost2010PropOp35
 70
     1
102
RTVSPost2010Prop36
280
     0
102
RTVSPost2010PropOp36
 70
     1
102
RTVSPost2010Prop37
 90
       50
102
RTVSPost2010PropOp37
 70
     1
102
RTVSPost2010Prop38
140
0.0
102
RTVSPost2010PropOp38
 70
     1
102
RTVSPost2010Prop39
140
1.0
102
RTVSPost2010PropOp39
 70
     1
102
RTVSPost2010Prop40
 90
        0
102
RTVSPost2010PropOp40
 70
     1
102
RTVSPost2010Prop41ColorIndex
 90
       18
102
RTVSPost2010Prop41ColorRGB
 90
        0
102
RTVSPost2010PropOp41
 70
     1
102
RTVSPost2010Prop42
 90
       50
102
RTVSPost2010PropOp42
 70
     1
102
RTVSPost2010Prop43
 90
        3
102
RTVSPost2010PropOp43
 70
     1
102
RTVSPost2010Prop44ColorIndex
 90
        5
102
RTVSPost2010Prop44ColorRGB
 90
      255
102
RTVSPost2010PropOp44
 70
     1
102
RTVSPost2010Prop45
280
     0
102
RTVSPost2010PropOp45
 70
     1
102
RTVSPost2010Prop46
 90
       50
102
RTVSPost2010PropOp46
 70
     1
102
RTVSPost2010Prop47
 90
       50
102
RTVSPost2010PropOp47
 70
     1
102
RTVSPost2010Prop48
 90
       50
102
RTVSPost2010PropOp48
 70
     1
102
RTVSPost2010Prop49
280
     0
102
RTVSPost2010PropOp49
 70
     1
102
RTVSPost2010Prop50
 90
       50
102
RTVSPost2010PropOp50
 70
     1
102
RTVSPost2010Prop51ColorIndex
 90
      256
102
RTVSPost2010Prop51ColorRGB
 90
-16777216
102
RTVSPost2010PropOp51
 70
     0
102
RTVSPost2010Prop52
140
1.0
102
RTVSPost2010PropOp52
 70
     0
102
RTVSPost2010Prop53
 90
        2
102
RTVSPost2010PropOp53
 70
     1
102
RTVSPost2010Prop54
  1
strokes_ogs.tif
102
RTVSPost2010PropOp54
 70
     1
102
RTVSPost2010Prop55
280
     0
102
RTVSPost2010PropOp55
 70
     1
102
RTVSPost2010Prop56
140
1.0
102
RTVSPost2010PropOp56
 70
     1
102
RTVSPost2010Prop57
140
1.0
102
RTVSPost2010PropOp57
 70
     1
  0
XRECORD
  5
4506
102
{ACAD_REACTORS
330
4505
102
}
330
4505
100
AcDbXrecord
280
     1
102
RTVSPropertyOp0
 70
     1
102
RTVSPropertyOp1
 70
     1
102
RTVSPropertyOp2
 70
     1
102
RTVSPropertyOp3
 70
     1
102
RTVSPropertyOp4
 70
     1
102
RTVSPropertyOp5
 70
     1
102
RTVSPropertyOp6
 70
     1
102
RTVSPropertyOp7
 70
     1
102
RTVSPropertyOp8
 70
     1
102
RTVSPropertyOp9
 70
     1
102
RTVSPropertyOp10
 70
     1
102
RTVSPropertyOp11
 70
     1
102
RTVSPropertyOp12
 70
     1
102
RTVSPropertyOp13
 70
     1
102
RTVSPropertyOp14
 70
     1
102
RTVSPropertyOp15
 70
     1
102
RTVSPropertyOp16
 70
     1
102
RTVSPropertyOp17
 70
     1
102
RTVSPropertyOp18
 70
     1
102
RTVSPropertyOp19
 70
     1
102
RTVSPropertyOp20
 70
     1
102
RTVSPropertyOp21
 70
     1
102
RTVSPropertyOp22
 70
     1
102
RTVSPropertyOp23
 70
     1
102
RTVSPropertyOp24
 70
     1
102
RTVSPropertyOp25
 70
     1
102
RTVSPropertyOp26
 70
     1
102
RTVSPropertyOp27
 70
     1
102
RTVSPropertyOp28
 70
     1
102
RTVSPropertyOp29
 70
     1
102
RTVSPropertyOp30
 70
     1
102
RTVSPropertyOp31
 70
     1
102
RTVSPropertyOp32
 70
     1
102
RTVSPropertyOp33
 70
     1
102
RTVSPropertyOp34
 70
     1
102
RTVSPropertyOp35
 70
     1
102
RTVSPropertyOp36
 70
     1
102
RTVSPropertyOp37
 70
     1
102
RTVSPropertyOp38
 70
     1
102
RTVSPropertyOp39
 70
     1
102
RTVSPropertyOp40
 70
     1
102
RTVSPropertyOp41
 70
     1
102
RTVSPropertyOp42
 70
     1
102
RTVSPropertyOp43
 70
     1
102
RTVSPropertyOp44
 70
     1
102
RTVSPropertyOp45
 70
     1
102
RTVSPropertyOp46
 70
     1
102
RTVSPropertyOp47
 70
     1
102
RTVSPropertyOp48
 70
     1
102
RTVSPropertyOp49
 70
     1
102
RTVSPropertyOp50
 70
     1
102
RTVSPropertyOp51
 70
     0
102
RTVSPropertyOp52
 70
     0
102
RTVSPropertyOp53
 70
     1
102
RTVSPropertyOp54
 70
     1
102
RTVSPropertyOp55
 70
     1
102
RTVSPropertyOp56
 70
     1
102
RTVSPropertyOp57
 70
     1
102
RTVSPost2010Prop28
280
     0
102
RTVSPost2010PropOp28
 70
     1
102
RTVSPost2010Prop29
280
     1
102
RTVSPost2010PropOp29
 70
     1
102
RTVSPost2010Prop30
280
     1
102
RTVSPost2010PropOp30
 70
     1
102
RTVSPost2010Prop31
280
     0
102
RTVSPost2010PropOp31
 70
     1
102
RTVSPost2010Prop32
280
     0
102
RTVSPost2010PropOp32
 70
     1
102
RTVSPost2010Prop33
280
     0
102
RTVSPost2010PropOp33
 70
     1
102
RTVSPost2010Prop34
280
     0
102
RTVSPost2010PropOp34
 70
     1
102
RTVSPost2010Prop35
280
     0
102
RTVSPost2010PropOp35
 70
     1
102
RTVSPost2010Prop36
280
     0
102
RTVSPost2010PropOp36
 70
     1
102
RTVSPost2010Prop37
 90
       50
102
RTVSPost2010PropOp37
 70
     1
102
RTVSPost2010Prop38
140
0.0
102
RTVSPost2010PropOp38
 70
     1
102
RTVSPost2010Prop39
140
1.0
102
RTVSPost2010PropOp39
 70
     1
102
RTVSPost2010Prop40
 90
        0
102
RTVSPost2010PropOp40
 70
     1
102
RTVSPost2010Prop41ColorIndex
 90
       18
102
RTVSPost2010Prop41ColorRGB
 90
        0
102
RTVSPost2010PropOp41
 70
     1
102
RTVSPost2010Prop42
 90
       50
102
RTVSPost2010PropOp42
 70
     1
102
RTVSPost2010Prop43
 90
        3
102
RTVSPost2010PropOp43
 70
     1
102
RTVSPost2010Prop44ColorIndex
 90
        5
102
RTVSPost2010Prop44ColorRGB
 90
      255
102
RTVSPost2010PropOp44
 70
     1
102
RTVSPost2010Prop45
280
     0
102
RTVSPost2010PropOp45
 70
     1
102
RTVSPost2010Prop46
 90
       50
102
RTVSPost2010PropOp46
 70
     1
102
RTVSPost2010Prop47
 90
       50
102
RTVSPost2010PropOp47
 70
     1
102
RTVSPost2010Prop48
 90
       50
102
RTVSPost2010PropOp48
 70
     1
102
RTVSPost2010Prop49
280
     0
102
RTVSPost2010PropOp49
 70
     1
102
RTVSPost2010Prop50
 90
       50
102
RTVSPost2010PropOp50
 70
     1
102
RTVSPost2010Prop51ColorIndex
 90
      256
102
RTVSPost2010Prop51ColorRGB
 90
-16777216
102
RTVSPost2010PropOp51
 70
     0
102
RTVSPost2010Prop52
140
1.0
102
RTVSPost2010PropOp52
 70
     0
102
RTVSPost2010Prop53
 90
        2
102
RTVSPost2010PropOp53
 70
     1
102
RTVSPost2010Prop54
  1
strokes_ogs.tif
102
RTVSPost2010PropOp54
 70
     1
102
RTVSPost2010Prop55
280
     0
102
RTVSPost2010PropOp55
 70
     1
102
RTVSPost2010Prop56
140
1.0
102
RTVSPost2010PropOp56
 70
     1
102
RTVSPost2010Prop57
140
1.0
102
RTVSPost2010PropOp57
 70
     1
  0
XRECORD
  5
44F8
102
{ACAD_REACTORS
330
44F7
102
}
330
44F7
100
AcDbXrecord
280
     1
102
RTVSPropertyOp0
 70
     1
102
RTVSPropertyOp1
 70
     1
102
RTVSPropertyOp2
 70
     1
102
RTVSPropertyOp3
 70
     1
102
RTVSPropertyOp4
 70
     1
102
RTVSPropertyOp5
 70
     1
102
RTVSPropertyOp6
 70
     1
102
RTVSPropertyOp7
 70
     1
102
RTVSPropertyOp8
 70
     1
102
RTVSPropertyOp9
 70
     1
102
RTVSPropertyOp10
 70
     1
102
RTVSPropertyOp11
 70
     1
102
RTVSPropertyOp12
 70
     1
102
RTVSPropertyOp13
 70
     1
102
RTVSPropertyOp14
 70
     1
102
RTVSPropertyOp15
 70
     1
102
RTVSPropertyOp16
 70
     1
102
RTVSPropertyOp17
 70
     1
102
RTVSPropertyOp18
 70
     1
102
RTVSPropertyOp19
 70
     1
102
RTVSPropertyOp20
 70
     1
102
RTVSPropertyOp21
 70
     1
102
RTVSPropertyOp22
 70
     1
102
RTVSPropertyOp23
 70
     1
102
RTVSPropertyOp24
 70
     1
102
RTVSPropertyOp25
 70
     1
102
RTVSPropertyOp26
 70
     1
102
RTVSPropertyOp27
 70
     1
102
RTVSPropertyOp28
 70
     1
102
RTVSPropertyOp29
 70
     1
102
RTVSPropertyOp30
 70
     1
102
RTVSPropertyOp31
 70
     1
102
RTVSPropertyOp32
 70
     1
102
RTVSPropertyOp33
 70
     1
102
RTVSPropertyOp34
 70
     1
102
RTVSPropertyOp35
 70
     1
102
RTVSPropertyOp36
 70
     1
102
RTVSPropertyOp37
 70
     1
102
RTVSPropertyOp38
 70
     1
102
RTVSPropertyOp39
 70
     1
102
RTVSPropertyOp40
 70
     1
102
RTVSPropertyOp41
 70
     1
102
RTVSPropertyOp42
 70
     1
102
RTVSPropertyOp43
 70
     1
102
RTVSPropertyOp44
 70
     1
102
RTVSPropertyOp45
 70
     1
102
RTVSPropertyOp46
 70
     1
102
RTVSPropertyOp47
 70
     1
102
RTVSPropertyOp48
 70
     1
102
RTVSPropertyOp49
 70
     1
102
RTVSPropertyOp50
 70
     1
102
RTVSPropertyOp51
 70
     0
102
RTVSPropertyOp52
 70
     0
102
RTVSPropertyOp53
 70
     1
102
RTVSPropertyOp54
 70
     1
102
RTVSPropertyOp55
 70
     1
102
RTVSPropertyOp56
 70
     1
102
RTVSPropertyOp57
 70
     1
102
RTVSPost2010Prop28
280
     0
102
RTVSPost2010PropOp28
 70
     1
102
RTVSPost2010Prop29
280
     1
102
RTVSPost2010PropOp29
 70
     1
102
RTVSPost2010Prop30
280
     1
102
RTVSPost2010PropOp30
 70
     1
102
RTVSPost2010Prop31
280
     0
102
RTVSPost2010PropOp31
 70
     1
102
RTVSPost2010Prop32
280
     0
102
RTVSPost2010PropOp32
 70
     1
102
RTVSPost2010Prop33
280
     0
102
RTVSPost2010PropOp33
 70
     1
102
RTVSPost2010Prop34
280
     0
102
RTVSPost2010PropOp34
 70
     1
102
RTVSPost2010Prop35
280
     0
102
RTVSPost2010PropOp35
 70
     1
102
RTVSPost2010Prop36
280
     0
102
RTVSPost2010PropOp36
 70
     1
102
RTVSPost2010Prop37
 90
       50
102
RTVSPost2010PropOp37
 70
     1
102
RTVSPost2010Prop38
140
0.0
102
RTVSPost2010PropOp38
 70
     1
102
RTVSPost2010Prop39
140
1.0
102
RTVSPost2010PropOp39
 70
     1
102
RTVSPost2010Prop40
 90
        0
102
RTVSPost2010PropOp40
 70
     1
102
RTVSPost2010Prop41ColorIndex
 90
       18
102
RTVSPost2010Prop41ColorRGB
 90
        0
102
RTVSPost2010PropOp41
 70
     1
102
RTVSPost2010Prop42
 90
       50
102
RTVSPost2010PropOp42
 70
     1
102
RTVSPost2010Prop43
 90
        3
102
RTVSPost2010PropOp43
 70
     1
102
RTVSPost2010Prop44ColorIndex
 90
        5
102
RTVSPost2010Prop44ColorRGB
 90
      255
102
RTVSPost2010PropOp44
 70
     1
102
RTVSPost2010Prop45
280
     0
102
RTVSPost2010PropOp45
 70
     1
102
RTVSPost2010Prop46
 90
       50
102
RTVSPost2010PropOp46
 70
     1
102
RTVSPost2010Prop47
 90
       50
102
RTVSPost2010PropOp47
 70
     1
102
RTVSPost2010Prop48
 90
       50
102
RTVSPost2010PropOp48
 70
     1
102
RTVSPost2010Prop49
280
     0
102
RTVSPost2010PropOp49
 70
     1
102
RTVSPost2010Prop50
 90
       50
102
RTVSPost2010PropOp50
 70
     1
102
RTVSPost2010Prop51ColorIndex
 90
      256
102
RTVSPost2010Prop51ColorRGB
 90
-16777216
102
RTVSPost2010PropOp51
 70
     0
102
RTVSPost2010Prop52
140
1.0
102
RTVSPost2010PropOp52
 70
     0
102
RTVSPost2010Prop53
 90
        2
102
RTVSPost2010PropOp53
 70
     1
102
RTVSPost2010Prop54
  1
strokes_ogs.tif
102
RTVSPost2010PropOp54
 70
     1
102
RTVSPost2010Prop55
280
     0
102
RTVSPost2010PropOp55
 70
     1
102
RTVSPost2010Prop56
140
1.0
102
RTVSPost2010PropOp56
 70
     1
102
RTVSPost2010Prop57
140
1.0
102
RTVSPost2010PropOp57
 70
     1
  0
XRECORD
  5
4518
102
{ACAD_REACTORS
330
4517
102
}
330
4517
100
AcDbXrecord
280
     1
102
RTVSPropertyOp0
 70
     1
102
RTVSPropertyOp1
 70
     1
102
RTVSPropertyOp2
 70
     1
102
RTVSPropertyOp3
 70
     1
102
RTVSPropertyOp4
 70
     1
102
RTVSPropertyOp5
 70
     1
102
RTVSPropertyOp6
 70
     1
102
RTVSPropertyOp7
 70
     1
102
RTVSPropertyOp8
 70
     1
102
RTVSPropertyOp9
 70
     1
102
RTVSPropertyOp10
 70
     1
102
RTVSPropertyOp11
 70
     1
102
RTVSPropertyOp12
 70
     1
102
RTVSPropertyOp13
 70
     1
102
RTVSPropertyOp14
 70
     1
102
RTVSPropertyOp15
 70
     1
102
RTVSPropertyOp16
 70
     1
102
RTVSPropertyOp17
 70
     1
102
RTVSPropertyOp18
 70
     1
102
RTVSPropertyOp19
 70
     1
102
RTVSPropertyOp20
 70
     1
102
RTVSPropertyOp21
 70
     1
102
RTVSPropertyOp22
 70
     1
102
RTVSPropertyOp23
 70
     1
102
RTVSPropertyOp24
 70
     1
102
RTVSPropertyOp25
 70
     1
102
RTVSPropertyOp26
 70
     1
102
RTVSPropertyOp27
 70
     1
102
RTVSPropertyOp28
 70
     1
102
RTVSPropertyOp29
 70
     1
102
RTVSPropertyOp30
 70
     1
102
RTVSPropertyOp31
 70
     1
102
RTVSPropertyOp32
 70
     1
102
RTVSPropertyOp33
 70
     1
102
RTVSPropertyOp34
 70
     1
102
RTVSPropertyOp35
 70
     1
102
RTVSPropertyOp36
 70
     1
102
RTVSPropertyOp37
 70
     1
102
RTVSPropertyOp38
 70
     1
102
RTVSPropertyOp39
 70
     1
102
RTVSPropertyOp40
 70
     1
102
RTVSPropertyOp41
 70
     1
102
RTVSPropertyOp42
 70
     1
102
RTVSPropertyOp43
 70
     1
102
RTVSPropertyOp44
 70
     1
102
RTVSPropertyOp45
 70
     1
102
RTVSPropertyOp46
 70
     1
102
RTVSPropertyOp47
 70
     1
102
RTVSPropertyOp48
 70
     1
102
RTVSPropertyOp49
 70
     1
102
RTVSPropertyOp50
 70
     1
102
RTVSPropertyOp51
 70
     0
102
RTVSPropertyOp52
 70
     0
102
RTVSPropertyOp53
 70
     1
102
RTVSPropertyOp54
 70
     1
102
RTVSPropertyOp55
 70
     1
102
RTVSPropertyOp56
 70
     1
102
RTVSPropertyOp57
 70
     1
102
RTVSPost2010Prop28
280
     0
102
RTVSPost2010PropOp28
 70
     1
102
RTVSPost2010Prop29
280
     1
102
RTVSPost2010PropOp29
 70
     1
102
RTVSPost2010Prop30
280
     1
102
RTVSPost2010PropOp30
 70
     1
102
RTVSPost2010Prop31
280
     0
102
RTVSPost2010PropOp31
 70
     1
102
RTVSPost2010Prop32
280
     0
102
RTVSPost2010PropOp32
 70
     1
102
RTVSPost2010Prop33
280
     0
102
RTVSPost2010PropOp33
 70
     1
102
RTVSPost2010Prop34
280
     0
102
RTVSPost2010PropOp34
 70
     1
102
RTVSPost2010Prop35
280
     0
102
RTVSPost2010PropOp35
 70
     1
102
RTVSPost2010Prop36
280
     0
102
RTVSPost2010PropOp36
 70
     1
102
RTVSPost2010Prop37
 90
       50
102
RTVSPost2010PropOp37
 70
     1
102
RTVSPost2010Prop38
140
0.0
102
RTVSPost2010PropOp38
 70
     1
102
RTVSPost2010Prop39
140
1.0
102
RTVSPost2010PropOp39
 70
     1
102
RTVSPost2010Prop40
 90
        0
102
RTVSPost2010PropOp40
 70
     1
102
RTVSPost2010Prop41ColorIndex
 90
       18
102
RTVSPost2010Prop41ColorRGB
 90
        0
102
RTVSPost2010PropOp41
 70
     1
102
RTVSPost2010Prop42
 90
       50
102
RTVSPost2010PropOp42
 70
     1
102
RTVSPost2010Prop43
 90
        3
102
RTVSPost2010PropOp43
 70
     1
102
RTVSPost2010Prop44ColorIndex
 90
        5
102
RTVSPost2010Prop44ColorRGB
 90
      255
102
RTVSPost2010PropOp44
 70
     1
102
RTVSPost2010Prop45
280
     0
102
RTVSPost2010PropOp45
 70
     1
102
RTVSPost2010Prop46
 90
       50
102
RTVSPost2010PropOp46
 70
     1
102
RTVSPost2010Prop47
 90
       50
102
RTVSPost2010PropOp47
 70
     1
102
RTVSPost2010Prop48
 90
       50
102
RTVSPost2010PropOp48
 70
     1
102
RTVSPost2010Prop49
280
     0
102
RTVSPost2010PropOp49
 70
     1
102
RTVSPost2010Prop50
 90
       50
102
RTVSPost2010PropOp50
 70
     1
102
RTVSPost2010Prop51ColorIndex
 90
      256
102
RTVSPost2010Prop51ColorRGB
 90
-16777216
102
RTVSPost2010PropOp51
 70
     0
102
RTVSPost2010Prop52
140
1.0
102
RTVSPost2010PropOp52
 70
     0
102
RTVSPost2010Prop53
 90
        2
102
RTVSPost2010PropOp53
 70
     1
102
RTVSPost2010Prop54
  1
strokes_ogs.tif
102
RTVSPost2010PropOp54
 70
     1
102
RTVSPost2010Prop55
280
     0
102
RTVSPost2010PropOp55
 70
     1
102
RTVSPost2010Prop56
140
1.0
102
RTVSPost2010PropOp56
 70
     1
102
RTVSPost2010Prop57
140
1.0
102
RTVSPost2010PropOp57
 70
     1
  0
ENDSEC
  0
SECTION
  2
THUMBNAILIMAGE
 90
    17448
310
28000000800000008000000001000800000000000000000000000000000000000000000000000000FFFFFF000000FF0000FFFF0000FF0000FFFF0000FF000000FF00FF000000000080808000C0C0C0000000FF007F7FFF000000A5005252A50000007F003F3F7F0000004C0026264C000000260013132600003FFF007F9FFF
310
000029A5005267A500001F7F003F4F7F0000134C00262F4C000009260013172600007FFF007FBFFF000052A500527CA500003F7F003F5F7F0000264C0026394C0000132600131C260000BFFF007FDFFF00007CA5005291A500005F7F003F6F7F0000394C0026424C00001C26001321260000FFFF007FFFFF0000A5A50052A5
310
A500007F7F003F7F7F00004C4C00264C4C00002626001326260000FFBF007FFFDF0000A57C0052A59100007F5F003F7F6F00004C3900264C420000261C001326210000FF7F007FFFBF0000A5520052A57C00007F3F003F7F5F00004C2600264C39000026130013261C0000FF3F007FFF9F0000A5290052A56700007F1F003F
310
7F4F00004C1300264C2F00002609001326170000FF00007FFF7F0000A5000052A55200007F00003F7F3F00004C0000264C260000260000132613003FFF00009FFF7F0029A5000067A552001F7F00004F7F3F00134C00002F4C260009260000172613007FFF0000BFFF7F0052A500007CA552003F7F00005F7F3F00264C0000
310
394C2600132600001C261300BFFF0000DFFF7F007CA5000091A552005F7F00006F7F3F00394C0000424C26001C26000021261300FFFF0000FFFF7F00A5A50000A5A552007F7F00007F7F3F004C4C00004C4C26002626000026261300FFBF0000FFDF7F00A57C0000A59152007F5F00007F6F3F004C3900004C422600261C00
310
0026211300FF7F0000FFBF7F00A5520000A57C52007F3F00007F5F3F004C2600004C39260026130000261C1300FF3F0000FF9F7F00A5290000A56752007F1F00007F4F3F004C1300004C2F26002609000026171300FF000000FF7F7F00A5000000A55252007F0000007F3F3F004C0000004C2626002600000026131300FF00
310
3F00FF7F9F00A5002900A55267007F001F007F3F4F004C0013004C262F002600090026131700FF007F00FF7FBF00A5005200A5527C007F003F007F3F5F004C0026004C2639002600130026131C00FF00BF00FF7FDF00A5007C00A55291007F005F007F3F6F004C0039004C26420026001C0026132100FF00FF00FF7FFF00A5
310
00A500A552A5007F007F007F3F7F004C004C004C264C002600260026132600BF00FF00DF7FFF007C00A5009152A5005F007F006F3F7F0039004C0042264C001C002600211326007F00FF00BF7FFF005200A5007C52A5003F007F005F3F7F0026004C0039264C00130026001C1326003F00FF009F7FFF002900A5006752A500
310
1F007F004F3F7F0013004C002F264C000900260017132600000000002D2D2D005B5B5B0089898900B7B7B700B3B3B30000000000000000000000000000000000000000000000000000000000000000000000000000000000000000000000000000000000000000000000000000000000000000000000000000000000000000
310
00000000000000000000000000000000000000000000000000000000000000000000000000000000000000000000000000000000000000000000000000000000000000000000000000000000000000000000000000000000000000000000000000000000000000000000000000000000000000000000000000000000000000
310
00000000000000000000000000000000000000000000000000000000000000000000000000000000000000000000000000000000000000000000000000000000000000000000000000000000000000000000000000000000000000000000000000000000000000000000000000000000000000000000000000000000000000
310
00000000000000000000000000000000000000000000000000000000000000000000000000000000000000000000000000000000000000000000000000000000000000000000000000000000000000000000000000000000000000000000000000000000000000000000000000000000000000000000000000000000000000
310
00000000000000000000000000000000000000000000000000000000000000000000000000000000000000000000000000000000000000000000000000000000000000000000000000000000000000000000000000000000000000000000000000000000000000000000000000000000000000000000000000000000000000
310
00000000000000000000000000000000000000000000000000000000000000000000000000000000000000000000000000000000000000000000000000000000000000000000000000000000000000000000000000000000000000000000000000000000000000000000000000000000000000000000000000000000000000
310
00000000000000000000000000000000000000000000000000000000000000000000000000000000000000000000000000000000000000000000000000000000000000000000000000000000000000000000000000000000000000000000000000000000000000000000000000000000000000000000000000000000000000
310
00000000000000000000000000000000000000000000000000000000000000000000000000000000000000000000000000000000000000000000000000000000000000000000000000000000000000000000000000000000000000000000000000000000000000000000000000000000000000000000000000000000000000
310
00000000000000000000000000000000000000000000000000000000000000000000000000000000000000000000000000000000000000000000000000000000000000000000000000000000000000000000000000000000000000000000000000000000000000000000000000000000000000000000000000000000000000
310
00000000000000000000000000000000000000000000000000000000000000000000000000000000000000000000000000000000000000000000000000000000000000000000000000000000000000000000000000000000000000000000000000000000000000000000000000000000000000000000000000000000000000
310
00000000000000000000000000000000000000000000000000000000000000000000000000000000000000000000000000000000000000000000000000000000000000000000000000000000000000000000000000000000000000000000000000000000000000000000000000000000000000000000000000000000000000
310
00000000000000000000000000000000000000000000000000000000000000000000000000000000000000000000000000000000000000000000000000000000000000000000000000000000000000000000000000000000000000000000000000000000000000000000000000000000000000000000000000000000000000
310
00000000000000000000000000000000000000000000000000000000000000000000000000000000000000000000000000000000000000000000000000000000000000000000000000000000000000000000000000000000000000000000000000000000000000000000000000000000000000000000000000000000000000
310
00000000000000000000000000000000000000000000000000000000000000000000000000000000000000000000000000000000000000000000000000000000000000000000000000000000000000000000000000000000000000000000000000000000000000000000000000000000000000000000000000000000000000
310
00000000000000000000000000000000000000000000000000000000000000000000000000000000000000000000000000000000000000000000000000000000000000000000000000000000000000000000000000000000000000000000000000000000000000000000000000000000000000000000000000000000000000
310
00000000000000000000000000000000000000000000000000000000000000000000000000000000000000000000000000000000000000000000000000000000000000000000000000000000000000000000000000000000000000000000000000000000000000000000000000000000000000000000000000000000000000
310
00000000000000000000000000000000000000000000000000000000000000000000000000000000000000000000000000000000000000000000000000000000000000000000000000000000000000000000000000070707070707070707070707070707070707070707070707070707070707070707070707070707070707
310
07070707070707070707070707070707070707070707070707070707070707070700000000000000000000000000000000000000000000000000000000000000000000000000000000000000000000000000000000000700000000000000000000000000000000000000000000000000000000000000000000000000000000
310
0000000000000000000000000000000000000000000000000000000000000000000700000000000000000000000000000000000000000000000000000000000000000000000000000000000000000000000000000000000700FBFBFBFBFBFBFBFBFBFBFBFBFBFBFBFBFBFBFBFBFBFBFBFBFBFBFBFBFBFBFBFBFBFBFBFBFBFB
310
FBFBFBFBFBFBFBFBFBFBFBFBFBFBFBFBFBFBFBFBFBFBFBFBFBFBFBFBFBFBFBFBFB070700000000000000000000000000000000000000000000000000000000000000000000000000000000000000000000000000000000000700FB0000000000000000000000000000000000FBFCFCFCFCFCFC01010100FC010101010101FC
310
FCFCFCFCFCFCFCFCFCFCFCFCFCFCFCFC0000000000000000000000000000000000FB070700000000000000000000000000000000000000000000000000000000000000000000000000000000000000000000000000000000000700FBFCFCFCFCFCFCFCFCFCFCFCFCFCFCFCFCFCFBFCFCFCFCFCFC01000100FC010101010101
310
FDFDFDFDFDFDFDFDFDFCFDFDFDFDFDFDFDFCFCFCFCFC000101000101010101000000FB070700000000000000000000000000000000000000000000000000000000000000000000000000000000000000000000000000000000000700FBFCFCFCFCFCFCFCFCFCFCFCFCFCFCFCFCFCFB00FCFCFC00FCFCFCFCFCFCFCFCFCFC00
310
FBFDFDFDFDFDFDFDFDFDFDFDFDFDFDFDFDFDFCFCFCFC00000001000000000100000000FB070700000000000000000000000000000000000000000000000000000000000000000000000000000000000000000000000000000000000700FBFCFCFCFCFCFCFCFCFCFCFCFCFCFCFCFCFCFCFCFCFCFCFCFCFCFCFCFCFCFCFCFCFC
310
FCFBFBFBFBFBFBFBFBFBFBFBFBFBFBFBFBFBFCFCFCFCFCFCFCFCFCFCFCFCFCFCFCFCFCFCFB000700000000000000000000000000000000000000000000000000000000000000000000000000000000000000000000000000000000000700FBFCFCFCFCFCFCFCFCFCFCFCFCFCFCFCFCFCFB0000000000FC00000000FC000101
310
0100FB01010101010101010101010101010101010001010100010101010101010101010101FB000700000000000000000000000000000000000000000000000000000000000000000000000000000000000000000000000000000000000700FB0000000000000000000000000000000000FB0000000000FC00000000FC0001
310
010100FCFCFCFCFCFCFCFCFCFCFCFCFCFCFCFCFCFB0001010101010101010101010101010101FB000700000000000000000000000000000000000000000000000000000000000000000000000000000000000000000000000000000000000700FBFCFCFCFCFCFCFCFCFCFCFCFCFCFCFCFCFCFCFCFCFCFCFCFCFCFCFCFCFCFC
310
FCFCFC00FB01010101010101010101010101010101FBFCFCFCFCFC010101010100000101010100FB000700000000000000000000000000000000000000000000000000000000000000000000000000000000000000000000000000000000000700FBFBFBFBFBFBFBFBFBFBFBFBFBFBFBFBFBFBFBFBFBFBFBFBFCFBFBFBFBFC
310
FBFBFBFBFBFBFBFBFBFBFBFBFBFBFBFBFBFBFBFBFBFBFBFBFBFBFBFBFBFBFBFBFBFBFB010101FBFBFB070700000000000000000000000000000000000000000000000000000000000000000000000000000000000000000000000000000000000700FB00000000000000000000000000000000000000000000000000000000
310
0000000000000000000000000000000000000000000000000000000000000000000000000101010000FB070700000000000000000000000000000000000000000000000000000000000000000000000000000000000000000000000000000000000700FB000000000000000000000000000000000000000000000000000000
310
000000000000000000000000000000000000000000000000000000000000000000000000000000000000FB070700000000000000000000000000000000000000000000000000000000000000000000000000000000000000000000000000000000000700FB0000000000000000000000000000000000000000000000000000
310
00000101010101010101000000000000000000000000000000000000000000000000000000000000000000FB000700000000000000000000000000000000000000000000000000000000000000000000000000000000000000000000000000000000000700FB00000000000000000000000000000000000000000000000000
310
0000000100000000000101010101010000000000000000000000000000000000000000000000000000000000FB000700000000000000000000000000000000000000000000000000000000000000000000000000000000000000000000000000000000000700FB000000000000000000000000000000000000000000000000
310
000000000100000000000000010000010101010100000000000000000000000000000000000000000000000000FB000700000000000000000000000000000000000000000000000000000000000000000000000000000000000000000000000000000000000700FB0000000000000000000000000000000000000000000000
310
00000000000100000000000000000000000000000001010101000000000000000000000000000000000000000000FB070700000000000000000000000000000000000000000000000000000000000000000000000000000000000000000000000000000000000700FB00000000000000000000000000000000000000000000
310
0000000000000100000000000000000000000000000000000001000000000000000000000000000000000000000000FB070700000000000000000000000000000000000000000000000000000000000000000000000000000000000000000000000000000000000700FB000000000000000000000000000000000000000000
310
000000000000000100000000000000000000000000000000000100000000000000000000000000000000000000000000FB070700000000000000000000000000000000000000000000000000000000000000000000000000000000000000000000000000000000000700FB0000000000000000000000000000000000000000
310
00000000000000000100000000000000000000000000000000000100000000000000000000000000000000000000000000FB070700000000000000000000000000000000000000000000000000000000000000000000000000000000000000000000000000000000000700FB00000000000000000000000000000000000000
310
0000000000000000000100000000000000000000000000000000000100000000000000000000000000000000000000000000FB000700000000000000000000000000000000000000000000000000000000000000000000000000000000000000000000000000000000000700FB000000000000000000000000000000000000
310
000000000000000000000100000000000000000000000000000000010000000000000000000000000000000000000000000000FB000700000000000000000000000000000000000000000000000000000000000000000000000000000000000000000000000000000000000700FB0000000000000000000000000000000000
310
00000000000000000000000100000000000000000000000000000000010000000000000000000000000000000000000000000000FB000700000000000000000000000000000000000000000000000000000000000000000000000000000000000000000000000000000000000700FB00000000000000000000000000000000
310
0000000000000000000000000100000000000000000000000000000004000000000000000000000000000000000000000000000000FB070700000000000000000000000000000000000000000000000000000000000000000000000000000000000000000000000000000000000700FB000000000000000000000000000000
310
000000000000000000000000000100000000000000000101010000000004000000000000000000000000000000000000000000000000FB070700000000000000000000000000000000000000000000000000000000000000000000000000000000000000000000000000000000000700FB0000000000000000000000000000
310
00000000000000000000000000000100000000000000000100000101000400000000000000000000000000000000000000000000000000FB070700000000000000000000000000000000000000000000000000000000000000000000000000000000000000000000000000000000000700FB00000000000000000000000000
310
0000000000000000000000000000000100000000000000010000000000010401000000000000000000000000000000000000000000000000FB000700000000000000000000000000000000000000000000000000000000000000000000000000000000000000000000000000000000000700FB000000000000000000000000
310
000000000000000000000000000000000100000000000000010000000000000101010100000000000000000000000000000000000000000000FB000700000000000000000000000000000000000000000000000000000000000000000000000000000000000000000000000000000000000700FB0000000000000000010101
310
01010101010101010101010101010101010101010101010101010700000000000401000001010100000000000000000000000000000000000000FB000700000000000000000000000000000000000000000000000000000000000000000000000000000000000000000000000000000000000700FB00000000000000000100
310
0000000000000000000000000000000000000100000000000000070007070700040000000000000100000000000000000000000000000000000000FB070700000000000000000000000000000000000000000000000000000000000000000000000000000000000000000000000000000000000700FB000000000000000001
310
000000000000000000000000000000000000000100000000000007000000000007040600000000010000000000000000000000000000000000000000FB070700000000000000000000000000000000000000000000000000000000000000000000000000000000000000000000000000000000000700FB0000000000000000
310
01000000000000000000000000000000000000000100000000000007000000000004000707010100010000000000000000000000000000000000000000FB070700000000000000000000000000000000000000000000000000000000000000000000000000000000000000000000000000000000000700FB00000000000000
310
0001000000000000000000000000000000000000000100000000000007000000000000000000000701010100000000000000000000000000000000000000FB070700000000000000000000000000000000000000000000000000000000000000000000000000000000000000000000000000000000000700FB000000000000
310
000001000000000000000000000000000000000000000100000000000007000000000004000000000000070001010100000000000000000000000000000000FB000700000000000000000000000000000000000000000000000000000000000000000000000000000000000000000000000000000000000700FB0000000000
310
00000001000000000000000000000000000000000000000100000000000706000000000400000000000007000000000001010000000000000000000000000000FB000700000000000000000000000000000000000000000000000000000000000000000000000000000000000000000000000000000000000700FB00000000
310
0000000001000000000000000000000000000000000000000100000000000707060600000400000000000007000000000000000101010000000000000000000000FB000700000000000000000000000000000000000000000000000000000000000000000000000000000000000000000000000000000000000700FB000000
310
000000000001000000000000000000000000000000000000000100000000000000070707060400000000000700000000000000000000000101010000000000000000FB070700000000000000000000000000000000000000000000000000000000000000000000000000000000000000000000000000000000000700FB0000
310
00000000000001000000000000000000000000000000000000000100000000000000000707040706000000000700000000000000000000000001000101010000000000FB070700000000000000000000000000000000000000000000000000000000000000000000000000000000000000000000000000000000000700FB00
310
0000000000000001000000000000000000000000000000000000000100000000000000000704070707070600070000000000000000000000000100000000000101000000FB070700000000000000000000000000000000000000000000000000000000000000000000000000000000000000000000000000000000000700FB
310
000000000000000001000000000000000000000000000000000000000100000000000000070704070007060607070100000000000000000000010101000000000100000000FB000700000000000000000000000000000000000000000000000000000000000000000000000000000000000000000000000000000000000700
310
FB000000000000000001000000000000000000000000000000000000000100000000000000070704070700000000000001010100000000000000010000000000000100000000FB0007000000000000000000000000000000000000000000000000000000000000000000000000000000000000000000000000000000000007
310
00FB000000000000000001000000000000000000000000000000000000000100000000000007070707070700000000000000000001010000000001000000000000010000000000FB00070000000000000000000000000000000000000000000000000000000000000000000000000000000000000000000000000000000000
310
0700FB000000000000000001000000000000000000000000000000000000000400000000000007070704070000000000000000000000000101010001000000000000010000000000FB070700000000000000000000000000000000000000000000000000000000000000000000000000000000000000000000000000000000
310
000700FB000000000000000001000000000000000000000000000000000000000400000000000707000407070700000000000000000000000000000101000000000000010000000000FB0707000000000000000000000000000000000000000000000000000000000000000000000000000000000000000000000000000000
310
00000700FB000000000000000001000000000000000000000000000000000000000000000000000707070407070000000000000000000000000000000000000000000001000000000000FB07070000000000000000000000000000000000000000000000000000000000000000000000000000000000000000000000000000
310
0000000700FB000000000000000001000000000000000000000000000000000000000400000000000700040707070000000000000000000000000000000000000000000001000000000000FB070700000000000000000000000000000000000000000000000000000000000000000000000000000000000000000000000000
310
000000000700FB000000000000000001000000000000000000000000000000000000000400000000000707010107070000000000000000000000000000000000000000000100000000000000FB0007000000000000000000000000000000000000000000000000000000000000000000000000000000000000000000000000
310
00000000000700FB000000000000000001000000000000000000000000000000000000000400000000000004070701010100000000000000000000000000000000000000000100000000000000FB00070000000000000000000000000000000000000000000000000000000000000000000000000000000000000000000000
310
0000000000000700FB000000000000000001000000000000000000000000000000000000000400000000000704000700000001010100000000000000000000000000000000000100000000000000FB000700000000000000000000000000000000000000000000000000000000000000000000000000000000000000000000
310
000000000000000700FB000000000000000001000000000000000000000000000000000000000000000000000700070000000000000001010000000000000000000000000000010000000000000000FB0707000000000000000000000000000000000000000000000000000000000000000000000000000000000000000000
310
00000000000000000700FB000000000000000001000000000000000000000000000000000000000400000000000704070000000000000000000101010000000000000000000000010000000000000000FB07070000000000000000000000000000000000000000000000000000000000000000000000000000000000000000
310
0000000000000000000700FB000000000000000001000000000000000000000000000000000000000400000000070407000000000000000000000000000101010000000000000000010000000000000000FB070700000000000000000000000000000000000000000000000000000000000000000000000000000000000000
310
000000000000000000000700FB000000000000000001000000000000000000000000000000000000000400000000040007000000000000000000000000000000000100000000000001000000000000000000FB0007000000000000000000000000000000000000000000000000000000000000000000000000000000000000
310
00000000000000000000000700FB000000000000000001000000000000000000000000000000000000000400000007040007000000000000000000000000000000000100000000000001000000000000000000FB00070000000000000000000000000000000000000000000000000000000000000000000000000000000000
310
0000000000000000000000000700FB000000000000000001000000000000000000000000000000000000000400000007040700000000000000000000000000000000000100000000000100000000000000000000FB000700000000000000000000000000000000000000000000000000000000000000000000000000000000
310
000000000000000000000000000700FB000000000000000001000000000000000000000000000000000000000000000007000700000000000000000000000000000000010000000000000100000000000000000000FB0707000000000000000000000000000000000000000000000000000000000000000000000000000000
310
00000000000000000000000000000700FB000000000000000001000000000000000000000000000000000000000400000700070000000000000000000000000000000000010000000000000100000000000000000000FB07070000000000000000000000000000000000000000000000000000000000000000000000000000
310
0000000000000000000000000000000700FB000000000000000001000000000000000000000000000000000000000400010704070000000000000000000000000000000000010000000000010000000000000000000000FB070700000000000000000000000000000000000000000000000000000000000000000000000000
310
000000000000000000000000000000000700FB000000000000000001000000000000000000000000000000000000000400000704070100000000000000000000000000000001000000000000010000000000000000000000FB0707000000000000000000000000000000000000000000000000000000000000000000000000
310
00000000000000000000000000000000000700FB000000000000000101000000000000000000000000000000000000000400070407000101010000000000000000000000000001000000000000010000000000000000000000FB00070000000000000000000000000000000000000000000000000000000000000000000000
310
0000000000000000000000000000000000000700FB000000000000000101000000000000000000000000000000000000000000070407000000000000000000000000000000000100000000000001000000000000000000000000FB000700000000000000000000000000000000000000000000000000000000000000000000
310
000000000000000000000000000000000000000700FB000000000000000101000000000000000000000000000000000000000407040007000000000000000000000000000000000100000000000001000000000000000000000000FB0007000000000000000000000000000000000000000000000000000000000000000000
310
00000000000000000000000000000000000000000700FB000000000000000001000000000000000000000000000000000000000407040700000000000000000000000000000000000100000000000001000000000000000000000000FB07070000000000000000000000000000000000000000000000000000000000000000
310
0000000000000000000000000000000000000000000700FB000000000000000001000000000000000000000000000000000000000407040700000000000000000000000000000000010101000000000100000000000000000000000000FB070700000000000000000000000000000000000000000000000000000000000000
310
000000000000000000000000000000000000000000000700FB000000000000000001000000000000000000000000000000000000000700070000000000000000000000000000000000010101000000000100000000000000000000000000FB0707000000000000000000000000000000000000000000000000000000000000
310
00000000000000000000000000000000000000000000000700FB000000000000000001000000000000000000000000000707070707070707070707070700000000000000000000000000010100000000010000000000000000000000000000FB00070000000000000000000000000000000000000000000000000000000000
310
0000000000000000000000000000000000000000000000000700FB000000000000000001000000000000000000000000000700000000070707070000000700000000000000000000000001010100000000010000000000000000000000000000FB000700000000000000000000000000000000000000000000000000000000
310
000000000000000000000000000000000000000000000000000700FB000000000000000001000000000000000000000000000707070707070707070707070000000000000000000000000001010000000000010000000000000000000000000000FB0007000000000000000000000000000000000000000000000000000000
310
00000000000000000000000000000000000000000000000000000700FB000000000000000001000000000000000000000000000000000007070707070701000000000000000000000000000001010000000001010000000000000000000000000000FB00070000000000000000000000000000000000000000000000000000
310
0000000000000000000000000000000000000000000000000000000700FB000000000000000001000000000000000000000000000000000007000707000001000000000000000000000000000101000000000001010000000000000000000000000000FB070700000000000000000000000000000000000000000000000000
310
000000000000000000000000000000000000000000000000000000000700FB000000000000000001000000000000000000000000000000000700000407000000010000000000000000000000000101000000000001010000000000000000000000000000FB0707000000000000000000000000000000000000000000000000
310
00000000000000000000000000000000000000000000000000000000000700FB000000000000000001000000000000000000000000000000000700040700000000010101010101010100000000010101000000000100000000000000000000000000000000FB07070000000000000000000000000000000000000000000000
310
0000000000000000000000000000000000000000000000000000000000000700FB000000000000000001000000000000000000000000000000000700040700000000000101000101010000000000010101000000000100000000000000000000000000000000FB000700000000000000000000000000000000000000000000
310
000000000000000000000000000000000000000000000000000000000000000700FB000000000000000001000001010101010100000000000000070004070000000000000000000000000000000000010100000000000100000000000000000000000000000000FB0007000000000000000000000000000000000000000000
310
00000000000000000000000000000000000000000000000000000000000000000700FB000000000000000001000000010101010100000000000000070004070000000000000000000000000000000001010100000000010000000000000000000000000000000000FB00070000000000000000000000000000000000000000
310
0000000000000000000000000000000000000000000000000000000000000000000700FB000000000000000001000000000000000100000000000000070400070000000000000000000000000000000001010100000000010000000000000000000000000000000000FB070700000000000000000000000000000000000000
310
000000000000000000000000000000000000000000000000000000000000000000000700FB000000000000000001000000000000000001000000000000070407000000000000000000000000000000000001010000000001000000000000000000000000000000000000FB0707000000000000000000000000000000000000
310
00000000000000000000000000000000000000000000000000000000000000000000000700FB000000000000000001010101010101000001000000000007040007000000000000000000000000000000000101010000000001000000000000000000000000000000000000FB07070000000000000000000000000000000000
310
0000000000000000000000000000000000000000000000000000000000000000000000000700FB000000000000000001010101010101000001000000000007000007000000000000000000000000000000000101000000000001000000000000000000000000000000000000FB000700000000000000000000000000000000
310
000000000000000000000000000000000000000000000000000000000000000000000000000700FB000000000000000001010101010101000001000000000007040700000000000000000000000000000000000100000000000100000000000000000000000000000000000000FB0007000000000000000000000000000000
310
00000000000000000000000000000000000000000000000000000000000000000000000000000700FB000000000000000001000000000000010000010000070704000700000000000000000000000000000000010000000000000100000000000000000000000000000000000000FB00070000000000000000000000000000
310
0000000000000000000000000000000000000000000000000000000000000000000000000000000700FB000000000000000001000000000000010000010007070604070000000000000000000000000000000000010000000000000100000000000000000000000000000000000000FB000700000000000000000000000000
310
000000000000000000000000000000000000000000000000000000000000000000000000000000000700FB000000000000000001000000000000070707070707000704070701010000000000000000000000000001000000000000010000000000000000000000000000000000000000FB0707000000000000000000000000
310
00000000000000000000000000000000000000000000000000000000000000000000000000000000000700FB000000000000000001000000000007070607070706070707070701010101010000000000000000000001000000000000010000000000000000000000000000000000000000FB07070000000000000000000000
310
0000000000000000000000000000000000000000000000000000000000000000000000000000000000000700FB000000000000000001000000000007070707060700000004000707000001010101000000000000000001000000000001000000000000000000000000000000000000000000FB070700000000000000000000
310
000000000000000000000000000000000000000000000000000000000000000000000000000000000000000700FB000000000000000001000000000000000707070600000400000007000000000001010101000000000100000000000001000000000000000000000000000000000000000000FB0007000000000000000000
310
00000000000000000000000000000000000000000000000000000000000000000000000000000000000000000700FB000000000000000001000000000000070700060606000400000707000000000000000000010101000100000000000001000000000000000000000000000000000000000000FB00070000000000000000
310
0000000000000000000000000000000000000000000000000000000000000000000000000000000000000000000700FB000000000000000001000000000000070000060006040606000707000000000000000000000000010100000000000100000000000000000000000000000000000000000000FB000700000000000000
310
000000000000000000000000000000000000000000000000000000000000000000000000000000000000000000000700FB000000000000000001000000000000000107070000040606060700000000000000000000000000010100000000000100000000000000000000000000000000000000000000FB0707000000000000
310
00000000000000000000000000000000000000000000000000000000000000000000000000000000000000000000000700FB000000000000000001000000000000000107070704070700070700000000000000000000000000010000000000000100000000000000000000000000000000000000000000FB07070000000000
310
0000000000000000000000000000000000000000000000000000000000000000000000000000000000000000000000000700FB000000000000000001000000000000000100060704070707070700000000000000000000000001000000000000010000000000000000000000000000000000000000000000FB070700000000
310
000000000000000000000000000000000000000000000000000000000000000000000000000000000000000000000000000700FB000000000000000001000000000000010606070407070707010000000000000000000000000001000000000000010000000000000000000000000000000000000000000000FB0007000000
310
00000000000000000000000000000000000000000000000000000000000000000000000000000000000000000000000000000700FB000000000000000101000000000000010000000607070707010000000000000000000000000001010000000000010000000000000000000000000000000000000000000000FB00070000
310
0000000000000000000000000000000000000000000000000000000000000000000000000000000000000000000000000000000700FB000000000000000001010101010101010101010401070701000000000000000000000000000101000000000001000000000000000000000000000000000000000000000000FB000700
310
000000000000000000000000000000000000000000000000000000000000000000000000000000000000000000000000000000000700FB000000000000000000000000000001000000040000000001010101000000000000000000000100010000000001000000000000000000000000000000000000000000000000FB0007
310
00000000000000000000000000000000000000000000000000000000000000000000000000000000000000000000000000000000000700FB000000000000000000000000000001010100040000000001000000010101000000000000000100000000000100000000000000000000000000000000000000000000000000FB07
310
0700000000000000000000000000000000000000000000000000000000000000000000000000000000000000000000000000000000000700FB000000000000000000000000000000000101010100000001000000000000010100000000010000000000000100000000000000000000000000000000000000000000000000FB
310
070700000000000000000000000000000000000000000000000000000000000000000000000000000000000000000000000000000000000700FB000000000000000000000000000000000100010101010100000000000000000001010100010000000000000100000000000000000000000000000000000000000000000000
310
FB070700000000000000000000000000000000000000000000000000000000000000000000000000000000000000000000000000000000000700FB0000000000000000000000000000000000000101000000000000000000000000000000010101000000000100000000000000000000000000000000000000000000000000
310
00FB000700000000000000000000000000000000000000000000000000000000000000000000000000000000000000000000000000000000000700FB00000000000000000000000000000000000000000000000000000000000000000000000000000101010001000000000000000000000000000000000000000000000000
310
0000FB000700000000000000000000000000000000000000000000000000000000000000000000000000000000000000000000000000000000000700FB000000000000000000000000000000000000000000000000000000000000000000000000000000000001010000000000000000000000000000000000000000000000
310
000000FB000700000000000000000000000000000000000000000000000000000000000000000000000000000000000000000000000000000000000700FB0000000000000000000000000000000000000000000000000000000000000000000000000000000000000000000000000000000000000000000000000000000000
310
00000000FB070700000000000000000000000000000000000000000000000000000000000000000000000000000000000000000000000000000000000700FBFBFBFBFBFBFBFBFBFBFBFBFBFBFBFBFBFBFBFBFBFBFBFBFBFBFBFBFBFBFBFBFBFBFBFBFBFBFBFBFBFBFBFBFBFBFBFBFBFBFBFBFBFBFBFBFBFBFBFBFBFBFBFBFB
310
FBFBFBFBFBFB07070000000000000000000000000000000000000000000000000000000000000000000000000000000000000000000000000000000000070007070700000000070707000000000707070000000707070700000007070700000000070707000000070707070000000707070700000007070700000000070707
310
00000007070707070700000000000000000000000000000000000000000000000000000000000000000000000000000000000000000000000000000000000700000000000000000000000000000000000000000000000000000000000000000000000000000000000000000000000000000000000000000000000000000000
310
00000000000000000007000000000000000000000000000000000000000000000000000000000000000000000000000000000000000000000000000000000007070707070707070707070707070707070707070707070707070707070707070707070707070707070707070707070707070707070707070707070707070707
310
07070707070707070707070000000000000000000000000000000000000000000000000000000000000000000000000000000000000000000000000000000000000000000000000000000000000000000000000000000000000000000000000000000000000000000000000000000000000000000000000000000000000000
310
00000000000000000000000000000000000000000000000000000000000000000000000000000000000000000000000000000000000000000000000000000000000000000000000000000000000000000000000000000000000000000000000000000000000000000000000000000000000000000000000000000000000000
310
00000000000000000000000000000000000000000000000000000000000000000000000000000000000000000000000000000000000000000000000000000000000000000000000000000000000000000000000000000000000000000000000000000000000000000000000000000000000000000000000000000000000000
310
00000000000000000000000000000000000000000000000000000000000000000000000000000000000000000000000000000000000000000000000000000000000000000000000000000000000000000000000000000000000000000000000000000000000000000000000000000000000000000000000000000000000000
310
00000000000000000000000000000000000000000000000000000000000000000000000000000000000000000000000000000000000000000000000000000000000000000000000000000000000000000000000000000000000000000000000000000000000000000000000000000000000000000000000000000000000000
310
00000000000000000000000000000000000000000000000000000000000000000000000000000000000000000000000000000000000000000000000000000000000000000000000000000000000000000000000000000000000000000000000000000000000000000000000000000000000000000000000000000000000000
310
00000000000000000000000000000000000000000000000000000000000000000000000000000000000000000000000000
  0
ENDSEC
  0
EOF
