  0
SECTION
  2
HEADER
  9
$ACADVER
  1
AC1018
  9
$ACADMAINTVER
 70
     0
  9
$DWGCODEPAGE
  3
ANSI_932
  9
$LASTSAVEDBY
  1
y-ohno
  9
$INSBASE
 10
0.0
 20
0.0
 30
0.0
  9
$EXTMIN
 10
-24.58511640544
 20
210.501074544709
 30
0.0
  9
$EXTMAX
 10
627.030039571169
 20
1210.704860583507
 30
0.0
  9
$LIMMIN
 10
-360.747566795242
 20
4.457354754526
  9
$LIMMAX
 10
-162.153696144267
 20
287.675440264018
  9
$ORTHOMODE
 70
     0
  9
$REGENMODE
 70
     1
  9
$FILLMODE
 70
     1
  9
$QTEXTMODE
 70
     0
  9
$MIRRTEXT
 70
     1
  9
$LTSCALE
 40
1.0
  9
$ATTMODE
 70
     1
  9
$TEXTSIZE
 40
2.333873885063
  9
$TRACEWID
 40
1.0
  9
$TEXTSTYLE
  7
STANDARD
  9
$CLAYER
  8
寸法線
  9
$CELTYPE
  6
BYLAYER
  9
$CECOLOR
 62
   256
  9
$CELTSCALE
 40
10.0
  9
$DISPSILH
 70
     0
  9
$DIMSCALE
 40
1.0
  9
$DIMASZ
 40
13.0
  9
$DIMEXO
 40
0.625
  9
$DIMDLI
 40
3.75
  9
$DIMRND
 40
0.0
  9
$DIMDLE
 40
0.0
  9
$DIMEXE
 40
1.25
  9
$DIMTP
 40
0.1
  9
$DIMTM
 40
0.1
  9
$DIMTXT
 40
14.0
  9
$DIMCEN
 40
2.5
  9
$DIMTSZ
 40
0.0
  9
$DIMTOL
 70
     0
  9
$DIMLIM
 70
     0
  9
$DIMTIH
 70
     0
  9
$DIMTOH
 70
     0
  9
$DIMSE1
 70
     0
  9
$DIMSE2
 70
     0
  9
$DIMTAD
 70
     1
  9
$DIMZIN
 70
     8
  9
$DIMBLK
  1
Open30
  9
$DIMASO
 70
     1
  9
$DIMSHO
 70
     1
  9
$DIMPOST
  1

  9
$DIMAPOST
  1

  9
$DIMALT
 70
     0
  9
$DIMALTD
 70
     2
  9
$DIMALTF
 40
0.0394
  9
$DIMLFAC
 40
1.0
  9
$DIMTOFL
 70
     1
  9
$DIMTVP
 40
1.0
  9
$DIMTIX
 70
     0
  9
$DIMSOXD
 70
     0
  9
$DIMSAH
 70
     0
  9
$DIMBLK1
  1

  9
$DIMBLK2
  1

  9
$DIMSTYLE
  2
ISO-25
  9
$DIMCLRD
 70
     0
  9
$DIMCLRE
 70
     0
  9
$DIMCLRT
 70
     0
  9
$DIMTFAC
 40
1.0
  9
$DIMGAP
 40
0.625
  9
$DIMJUST
 70
     0
  9
$DIMSD1
 70
     0
  9
$DIMSD2
 70
     0
  9
$DIMTOLJ
 70
     1
  9
$DIMTZIN
 70
     0
  9
$DIMALTZ
 70
     0
  9
$DIMALTTZ
 70
     0
  9
$DIMUPT
 70
     0
  9
$DIMDEC
 70
     1
  9
$DIMTDEC
 70
     1
  9
$DIMALTU
 70
     2
  9
$DIMALTTD
 70
     2
  9
$DIMTXSTY
  7
STANDARD
  9
$DIMAUNIT
 70
     0
  9
$DIMADEC
 70
     0
  9
$DIMALTRND
 40
0.0
  9
$DIMAZIN
 70
     0
  9
$DIMDSEP
 70
    46
  9
$DIMATFIT
 70
     3
  9
$DIMFRAC
 70
     0
  9
$DIMLDRBLK
  1
Open30
  9
$DIMLUNIT
 70
     2
  9
$DIMLWD
 70
    -2
  9
$DIMLWE
 70
    -2
  9
$DIMTMOVE
 70
     0
  9
$LUNITS
 70
     2
  9
$LUPREC
 70
     4
  9
$SKETCHINC
 40
1.0
  9
$FILLETRAD
 40
6.5
  9
$AUNITS
 70
     0
  9
$AUPREC
 70
     0
  9
$MENU
  1
.
  9
$ELEVATION
 40
0.0
  9
$PELEVATION
 40
0.0
  9
$THICKNESS
 40
0.0
  9
$LIMCHECK
 70
     0
  9
$CHAMFERA
 40
10.0
  9
$CHAMFERB
 40
10.0
  9
$CHAMFERC
 40
20.0
  9
$CHAMFERD
 40
0.0
  9
$SKPOLY
 70
     0
  9
$TDCREATE
 40
2450576.597302431
  9
$TDUCREATE
 40
2450576.222302431
  9
$TDUPDATE
 40
2457529.563309352
  9
$TDUUPDATE
 40
2457529.188309352
  9
$TDINDWG
 40
1.2864114005
  9
$TDUSRTIMER
 40
1.2864114005
  9
$USRTIMER
 70
     1
  9
$ANGBASE
 50
0.0
  9
$ANGDIR
 70
     0
  9
$PDMODE
 70
     0
  9
$PDSIZE
 40
0.0
  9
$PLINEWID
 40
0.0
  9
$SPLFRAME
 70
     0
  9
$SPLINETYPE
 70
     6
  9
$SPLINESEGS
 70
     8
  9
$HANDSEED
  5
41AD
  9
$SURFTAB1
 70
     6
  9
$SURFTAB2
 70
     6
  9
$SURFTYPE
 70
     6
  9
$SURFU
 70
     6
  9
$SURFV
 70
     6
  9
$UCSBASE
  2

  9
$UCSNAME
  2

  9
$UCSORG
 10
0.0
 20
0.0
 30
0.0
  9
$UCSXDIR
 10
1.0
 20
0.0
 30
0.0
  9
$UCSYDIR
 10
0.0
 20
1.0
 30
0.0
  9
$UCSORTHOREF
  2

  9
$UCSORTHOVIEW
 70
     0
  9
$UCSORGTOP
 10
0.0
 20
0.0
 30
0.0
  9
$UCSORGBOTTOM
 10
0.0
 20
0.0
 30
0.0
  9
$UCSORGLEFT
 10
0.0
 20
0.0
 30
0.0
  9
$UCSORGRIGHT
 10
0.0
 20
0.0
 30
0.0
  9
$UCSORGFRONT
 10
0.0
 20
0.0
 30
0.0
  9
$UCSORGBACK
 10
0.0
 20
0.0
 30
0.0
  9
$PUCSBASE
  2

  9
$PUCSNAME
  2

  9
$PUCSORG
 10
0.0
 20
0.0
 30
0.0
  9
$PUCSXDIR
 10
1.0
 20
0.0
 30
0.0
  9
$PUCSYDIR
 10
0.0
 20
1.0
 30
0.0
  9
$PUCSORTHOREF
  2

  9
$PUCSORTHOVIEW
 70
     0
  9
$PUCSORGTOP
 10
0.0
 20
0.0
 30
0.0
  9
$PUCSORGBOTTOM
 10
0.0
 20
0.0
 30
0.0
  9
$PUCSORGLEFT
 10
0.0
 20
0.0
 30
0.0
  9
$PUCSORGRIGHT
 10
0.0
 20
0.0
 30
0.0
  9
$PUCSORGFRONT
 10
0.0
 20
0.0
 30
0.0
  9
$PUCSORGBACK
 10
0.0
 20
0.0
 30
0.0
  9
$USERI1
 70
     0
  9
$USERI2
 70
     0
  9
$USERI3
 70
     0
  9
$USERI4
 70
     0
  9
$USERI5
 70
     0
  9
$USERR1
 40
0.0
  9
$USERR2
 40
0.0
  9
$USERR3
 40
0.0
  9
$USERR4
 40
0.0
  9
$USERR5
 40
0.0
  9
$WORLDVIEW
 70
     1
  9
$SHADEDGE
 70
     3
  9
$SHADEDIF
 70
    70
  9
$TILEMODE
 70
     0
  9
$MAXACTVP
 70
    16
  9
$PINSBASE
 10
0.0
 20
0.0
 30
0.0
  9
$PLIMCHECK
 70
     0
  9
$PEXTMIN
 10
1.494923295415
 20
0.952498281072
 30
0.0
  9
$PEXTMAX
 10
281.494923295415
 20
405.952497602501
 30
0.0
  9
$PLIMMIN
 10
-7.733559317589
 20
-7.733552498817
  9
$PLIMMAX
 10
292.588849892616
 20
416.991677908897
  9
$UNITMODE
 70
     0
  9
$VISRETAIN
 70
     0
  9
$PLINEGEN
 70
     0
  9
$PSLTSCALE
 70
     1
  9
$TREEDEPTH
 70
  3020
  9
$CMLSTYLE
  2
STANDARD
  9
$CMLJUST
 70
     0
  9
$CMLSCALE
 40
1.0
  9
$PROXYGRAPHICS
 70
     1
  9
$MEASUREMENT
 70
     1
  9
$CELWEIGHT
370
    -1
  9
$ENDCAPS
280
     0
  9
$JOINSTYLE
280
     0
  9
$LWDISPLAY
290
     0
  9
$INSUNITS
 70
     0
  9
$HYPERLINKBASE
  1

  9
$STYLESHEET
  1

  9
$XEDIT
290
     1
  9
$CEPSNTYPE
380
     0
  9
$PSTYLEMODE
290
     1
  9
$FINGERPRINTGUID
  2
{23698909-1D67-4744-B0E2-8DE11E3ED422}
  9
$VERSIONGUID
  2
{513A5DE7-D79F-4431-9B3C-4448D4D3AFA7}
  9
$EXTNAMES
290
     1
  9
$PSVPSCALE
 40
0.25
  9
$OLESTARTUP
290
     0
  9
$SORTENTS
280
   127
  9
$INDEXCTL
280
     0
  9
$HIDETEXT
280
     0
  9
$XCLIPFRAME
290
     0
  9
$HALOGAP
280
     0
  9
$OBSCOLOR
 70
   257
  9
$OBSLTYPE
280
     0
  9
$INTERSECTIONDISPLAY
280
     0
  9
$INTERSECTIONCOLOR
 70
   257
  9
$DIMASSOC
280
     1
  9
$PROJECTNAME
  1

  0
ENDSEC
  0
SECTION
  2
CLASSES
  0
CLASS
  1
ACDBDICTIONARYWDFLT
  2
AcDbDictionaryWithDefault
  3
ObjectDBX Classes
 90
        0
 91
        8
280
     0
281
     0
  0
CLASS
  1
ACDBPLACEHOLDER
  2
AcDbPlaceHolder
  3
ObjectDBX Classes
 90
        0
 91
        1
280
     0
281
     0
  0
CLASS
  1
LAYOUT
  2
AcDbLayout
  3
ObjectDBX Classes
 90
        0
 91
        1
280
     0
281
     0
  0
CLASS
  1
VISUALSTYLE
  2
AcDbVisualStyle
  3
ObjectDBX Classes
 90
     4095
 91
        8
280
     0
281
     0
  0
CLASS
  1
SCALE
  2
AcDbScale
  3
ObjectDBX Classes
 90
     1153
 91
        8
280
     0
281
     0
  0
CLASS
  1
MATERIAL
  2
AcDbMaterial
  3
ObjectDBX Classes
 90
     1153
 91
        8
280
     0
281
     0
  0
CLASS
  1
TABLESTYLE
  2
AcDbTableStyle
  3
ObjectDBX Classes
 90
     4095
 91
        8
280
     0
281
     0
  0
CLASS
  1
MLEADERSTYLE
  2
AcDbMLeaderStyle
  3
ACDB_MLEADERSTYLE_CLASS
 90
     4095
 91
        8
280
     0
281
     0
  0
CLASS
  1
SUN
  2
AcDbSun
  3
SCENEOE
 90
     1153
 91
        8
280
     0
281
     0
  0
CLASS
  1
DICTIONARYVAR
  2
AcDbDictionaryVar
  3
ObjectDBX Classes
 90
        0
 91
        7
280
     0
281
     0
  0
CLASS
  1
CELLSTYLEMAP
  2
AcDbCellStyleMap
  3
ObjectDBX Classes
 90
     1152
 91
        7
280
     0
281
     0
  0
ENDSEC
  0
SECTION
  2
TABLES
  0
TABLE
  2
VPORT
  5
8
102
{ACAD_XDICTIONARY
360
416F
102
}
330
0
100
AcDbSymbolTable
 70
     2
  0
VPORT
  5
404C
330
8
100
AcDbSymbolTableRecord
100
AcDbViewportTableRecord
  2
*Active
 70
     0
 10
0.0
 20
0.0
 11
1.0
 21
1.0
 12
228.324732693992
 22
752.061231943421
 13
0.0
 23
0.0
 14
1.0
 24
1.0
 15
0.0
 25
0.0
 16
0.0
 26
0.0
 36
1.0
 17
0.0
 27
0.0
 37
0.0
 40
950.071692715448
 41
1.405303030303
 42
50.0
 43
0.0
 44
0.0
 50
0.0
 51
0.0
 71
    16
 72
   100
 73
     1
 74
     0
 75
     0
 76
     0
 77
     0
 78
     0
281
     0
 65
     1
110
0.0
120
0.0
130
0.0
111
1.0
121
0.0
131
0.0
112
0.0
122
1.0
132
0.0
 79
     0
146
0.0
  0
ENDTAB
  0
TABLE
  2
LTYPE
  5
5
330
0
100
AcDbSymbolTable
 70
     3
  0
LTYPE
  5
14
330
5
100
AcDbSymbolTableRecord
100
AcDbLinetypeTableRecord
  2
BYBLOCK
 70
     0
  3

 72
    65
 73
     0
 40
0.0
  0
LTYPE
  5
15
330
5
100
AcDbSymbolTableRecord
100
AcDbLinetypeTableRecord
  2
BYLAYER
 70
     0
  3

 72
    65
 73
     0
 40
0.0
  0
LTYPE
  5
16
330
5
100
AcDbSymbolTableRecord
100
AcDbLinetypeTableRecord
  2
CONTINUOUS
 70
     0
  3
Solid line
 72
    65
 73
     0
 40
0.0
  0
LTYPE
  5
1EC
330
5
100
AcDbSymbolTableRecord
100
AcDbLinetypeTableRecord
  2
CENTER
 70
     0
  3
____ _ ____ _ ____ _ ____ _ ____ _ ____ _ ____ 
 72
    65
 73
     4
 40
2.0
 49
1.25
 74
     0
 49
-0.25
 74
     0
 49
0.25
 74
     0
 49
-0.25
 74
     0
  0
LTYPE
  5
1ED
330
5
100
AcDbSymbolTableRecord
100
AcDbLinetypeTableRecord
  2
DASHED
 70
     0
  3
__ __ __ __ __ __ __ __ __ __ __ __ __ __ __ __
 72
    65
 73
     2
 40
0.75
 49
0.5
 74
     0
 49
-0.25
 74
     0
  0
ENDTAB
  0
TABLE
  2
LAYER
  5
2
102
{ACAD_XDICTIONARY
360
29EA
102
}
330
0
100
AcDbSymbolTable
 70
    12
  0
LAYER
  5
F
330
2
100
AcDbSymbolTableRecord
100
AcDbLayerTableRecord
  2
0
 70
     0
 62
     7
  6
CONTINUOUS
370
    -3
390
2815
  0
LAYER
  5
61
330
2
100
AcDbSymbolTableRecord
100
AcDbLayerTableRecord
  2
図枠太線
 70
     0
 62
   251
  6
CONTINUOUS
370
    -3
390
2815
  0
LAYER
  5
62
330
2
100
AcDbSymbolTableRecord
100
AcDbLayerTableRecord
  2
図枠細線
 70
     0
 62
   252
  6
CONTINUOUS
370
    -3
390
2815
  0
LAYER
  5
63
330
2
100
AcDbSymbolTableRecord
100
AcDbLayerTableRecord
  2
図枠ロゴマーク
 70
     0
 62
   253
  6
CONTINUOUS
370
    -3
390
2815
  0
LAYER
  5
1EF
330
2
100
AcDbSymbolTableRecord
100
AcDbLayerTableRecord
  2
外形線
 70
     0
 62
     7
  6
CONTINUOUS
370
    -3
390
2815
  0
LAYER
  5
1F4
330
2
100
AcDbSymbolTableRecord
100
AcDbLayerTableRecord
  2
DEFPOINTS
 70
     0
 62
     7
  6
CONTINUOUS
290
     0
370
    -3
390
2815
  0
LAYER
  5
2B20
330
2
100
AcDbSymbolTableRecord
100
AcDbLayerTableRecord
  2
寸法線
 70
     0
 62
     1
  6
CONTINUOUS
370
    -3
390
2815
  0
LAYER
  5
2B21
330
2
100
AcDbSymbolTableRecord
100
AcDbLayerTableRecord
  2
中心線
 70
     0
 62
     4
  6
CENTER
370
    -3
390
2815
  0
LAYER
  5
2B24
330
2
100
AcDbSymbolTableRecord
100
AcDbLayerTableRecord
  2
細線
 70
     0
 62
     6
  6
CONTINUOUS
370
    -3
390
2815
  0
LAYER
  5
3A06
330
2
100
AcDbSymbolTableRecord
100
AcDbLayerTableRecord
  2
下書線
 70
     0
 62
     2
  6
CONTINUOUS
290
     0
370
    -3
390
2815
  0
LAYER
  5
3A07
330
2
100
AcDbSymbolTableRecord
100
AcDbLayerTableRecord
  2
隠れ線
 70
     0
 62
     3
  6
DASHED
370
    -3
390
2815
  0
LAYER
  5
3A08
330
2
100
AcDbSymbolTableRecord
100
AcDbLayerTableRecord
  2
太線
 70
     0
 62
   190
  6
CONTINUOUS
370
    -3
390
2815
  0
ENDTAB
  0
TABLE
  2
STYLE
  5
3
330
0
100
AcDbSymbolTable
 70
     3
  0
STYLE
  5
10
330
3
100
AcDbSymbolTableRecord
100
AcDbTextStyleTableRecord
  2
STANDARD
 70
     0
 40
0.0
 41
1.0
 50
0.0
 71
     0
 42
2.333873885063
  3
ISOCP
  4
bigfont.shx
  0
STYLE
  5
64
330
3
100
AcDbSymbolTableRecord
100
AcDbTextStyleTableRecord
  2
EXCADSTD
 70
     0
 40
0.0
 41
1.0
 50
0.0
 71
     0
 42
0.2
  3
monotxt
  4
bigfont
  0
STYLE
  5
2B7E
330
3
100
AcDbSymbolTableRecord
100
AcDbTextStyleTableRecord
  2
ROMANS
 70
     0
 40
0.0
 41
1.0
 50
0.0
 71
     0
 42
10.0
  3
romans
  4

  0
ENDTAB
  0
TABLE
  2
VIEW
  5
6
330
0
100
AcDbSymbolTable
 70
     0
  0
ENDTAB
  0
TABLE
  2
UCS
  5
7
330
0
100
AcDbSymbolTable
 70
     0
  0
ENDTAB
  0
TABLE
  2
APPID
  5
9
330
0
100
AcDbSymbolTable
 70
     3
  0
APPID
  5
11
330
9
100
AcDbSymbolTableRecord
100
AcDbRegAppTableRecord
  2
ACAD
 70
     0
  0
APPID
  5
4090
330
9
100
AcDbSymbolTableRecord
100
AcDbRegAppTableRecord
  2
AcadAnnotative
 70
     0
  0
APPID
  5
4167
330
9
100
AcDbSymbolTableRecord
100
AcDbRegAppTableRecord
  2
ACAD_MLEADERVER
 70
     0
  0
ENDTAB
  0
TABLE
  2
DIMSTYLE
  5
A
330
0
100
AcDbSymbolTable
 70
     3
100
AcDbDimStyleTable
  0
DIMSTYLE
105
1D
330
A
100
AcDbSymbolTableRecord
100
AcDbDimStyleTableRecord
  2
STANDARD
 70
     0
178
     0
340
10
  0
DIMSTYLE
105
24
102
{ACAD_REACTORS
330
313C
330
3156
330
3183
330
32D2
330
38FA
330
3A15
330
3A3E
330
3A54
330
4006
102
}
330
A
100
AcDbSymbolTableRecord
100
AcDbDimStyleTableRecord
  2
ISO-25
 70
     0
 41
2.5
 42
0.625
 43
3.75
 44
1.25
 74
     0
 77
     1
 78
     8
140
2.5
141
2.5
143
0.0394
145
1.0
147
0.625
172
     1
178
     0
340
10
  0
DIMSTYLE
105
345D
330
A
100
AcDbSymbolTableRecord
100
AcDbDimStyleTableRecord
  2
NORMAL
 70
     0
 41
2.5
 42
0.5
 43
0.5
 44
0.5
 73
     0
 74
     0
 77
     1
 78
     8
140
2.5
141
5.0
147
1.0
172
     1
176
     7
177
     7
178
     4
284
     8
285
     8
286
     8
340
2B7E
  0
ENDTAB
  0
TABLE
  2
BLOCK_RECORD
  5
1
330
0
100
AcDbSymbolTable
 70
    12
  0
BLOCK_RECORD
  5
1A
330
1
100
AcDbSymbolTableRecord
100
AcDbBlockTableRecord
  2
*MODEL_SPACE
340
2818
  0
BLOCK_RECORD
  5
3968
330
1
100
AcDbSymbolTableRecord
100
AcDbBlockTableRecord
  2
*Paper_Space
340
39B8
  0
BLOCK_RECORD
  5
2A6C
330
1
100
AcDbSymbolTableRecord
100
AcDbBlockTableRecord
  2
A3縦用　タイトル
340
0
310
2800000020000000200000000100080000000000000400000000000000000000000000000000000000000000000080000080000000808000800000008000800080800000C0C0C000C0DCC000F0CAA6000020400000206000002080000020A0000020C0000020E00000400000004020000040400000406000004080000040A0
310
000040C0000040E00000600000006020000060400000606000006080000060A0000060C0000060E00000800000008020000080400000806000008080000080A0000080C0000080E00000A0000000A0200000A0400000A0600000A0800000A0A00000A0C00000A0E00000C0000000C0200000C0400000C0600000C0800000C0
310
A00000C0C00000C0E00000E0000000E0200000E0400000E0600000E0800000E0A00000E0C00000E0E00040000000400020004000400040006000400080004000A0004000C0004000E00040200000402020004020400040206000402080004020A0004020C0004020E000404000004040200040404000404060004040800040
310
40A0004040C0004040E00040600000406020004060400040606000406080004060A0004060C0004060E00040800000408020004080400040806000408080004080A0004080C0004080E00040A0000040A0200040A0400040A0600040A0800040A0A00040A0C00040A0E00040C0000040C0200040C0400040C0600040C08000
310
40C0A00040C0C00040C0E00040E0000040E0200040E0400040E0600040E0800040E0A00040E0C00040E0E00080000000800020008000400080006000800080008000A0008000C0008000E00080200000802020008020400080206000802080008020A0008020C0008020E00080400000804020008040400080406000804080
310
008040A0008040C0008040E00080600000806020008060400080606000806080008060A0008060C0008060E00080800000808020008080400080806000808080008080A0008080C0008080E00080A0000080A0200080A0400080A0600080A0800080A0A00080A0C00080A0E00080C0000080C0200080C0400080C0600080C0
310
800080C0A00080C0C00080C0E00080E0000080E0200080E0400080E0600080E0800080E0A00080E0C00080E0E000C0000000C0002000C0004000C0006000C0008000C000A000C000C000C000E000C0200000C0202000C0204000C0206000C0208000C020A000C020C000C020E000C0400000C0402000C0404000C0406000C0
310
408000C040A000C040C000C040E000C0600000C0602000C0604000C0606000C0608000C060A000C060C000C060E000C0800000C0802000C0804000C0806000C0808000C080A000C080C000C080E000C0A00000C0A02000C0A04000C0A06000C0A08000C0A0A000C0A0C000C0A0E000C0C00000C0C02000C0C04000C0C06000
310
C0C08000C0C0A000F0FBFF00A4A0A000808080000000FF0000FF000000FFFF00FF000000FF00FF00FFFF0000FFFFFF0000000000000000000000000000000000000000000000000000000000000000000000000000000000000000000000000000000000000000000000000000000000000000000000000000000000000000
310
00000000000000000000000000000000000000000000000000000000000000000000000000000000000000000000000000000000000000000000000000000000000000000000000000000000000000000000000000000000000000000000000000000000000000000000000000000000000000000000000000000000000000
310
00000000000000000000000000000000000000000000000000000000000000000000000000000000000000000000000000000000000000000000000000000000000000000000000000000000000000000000000000000000000000000000000000000000000000000000000000000000000000000000000000000000000000
310
00000000000000000000000000000000000000000000000000000000000000000000000000000000000000000000000000000000000000000000000000000000000000000000000000000000000000000000000000000000000000000000000000000000000000000000000000000000000000005B5B5B5B5B5B5B5B5B5B5B
310
5B5B5B5B5B5B5B5B5B5B5B5B5B5B5B5B5B5B5B00005BA4A4A4A4A4A4A4A4A4A4A4A4A4A45B5B5B5B5B5B5BA4A4A4A4A4A4A4A400005BA4A4A4A4A4A4A4A4A4A4A4A400A4A4A4A4A4A4A4A4A40000000000005B00005BA4A4A4A4A4A4A4A4A4A4A4A4A4A4000000000000005BA4A4000000005B000000000000000000000000
310
00000000000000000000000000000000000000000000000000000000000000000000000000000000000000000000000000000000000000000000000000000000000000000000000000000000000000000000000000000000000000000000000000000000000000000000000000000000000000000000000000000000000000
310
00000000000000000000000000000000000000000000000000000000000000000000000000000000000000000000000000000000000000000000000000000000000000000000000000000000000000000000000000000000000000000000000000000000000000000000000000000000000000000000000000000000000000
310
00000000000000000000000000000000000000000000000000000000000000000000000000000000000000000000000000000000000000000000000000000000000000000000000000000000000000000000000000000000000000000000000000000000000000000000000000000000000000000000000000000000000000
310
0000000000000000000000000000000000000000000000000000000000000000000000000000000000000000000000000000000000000000
102
{BLKREFS
331
396C
102
}
1001
ACAD
1000
DesignCenter Data
1002
{
1070
     1
1070
     4
1002
}
  0
BLOCK_RECORD
  5
2AEC
330
1
100
AcDbSymbolTableRecord
100
AcDbBlockTableRecord
  2
_Open30
340
0
102
{BLKREFS
331
39DF
331
39E0
331
3932
331
3933
331
3AC3
331
3AC4
331
32E3
331
32E4
331
3ABA
331
3ABB
331
3FEA
331
3FEB
331
3A9B
331
3A9C
331
3FFC
331
3FFD
331
4016
331
4017
102
}
  0
BLOCK_RECORD
  5
313D
330
1
100
AcDbSymbolTableRecord
100
AcDbBlockTableRecord
  2
*D2
340
0
  0
BLOCK_RECORD
  5
3157
330
1
100
AcDbSymbolTableRecord
100
AcDbBlockTableRecord
  2
*D3
340
0
  0
BLOCK_RECORD
  5
3184
330
1
100
AcDbSymbolTableRecord
100
AcDbBlockTableRecord
  2
*D4
340
0
  0
BLOCK_RECORD
  5
32D3
330
1
100
AcDbSymbolTableRecord
100
AcDbBlockTableRecord
  2
*D5
340
0
  0
BLOCK_RECORD
  5
3817
330
1
100
AcDbSymbolTableRecord
100
AcDbBlockTableRecord
  2
A$C2F307867
340
0
  0
BLOCK_RECORD
  5
38FB
330
1
100
AcDbSymbolTableRecord
100
AcDbBlockTableRecord
  2
*D7
340
0
  0
BLOCK_RECORD
  5
3A16
330
1
100
AcDbSymbolTableRecord
100
AcDbBlockTableRecord
  2
*D8
340
0
  0
BLOCK_RECORD
  5
3A3F
330
1
100
AcDbSymbolTableRecord
100
AcDbBlockTableRecord
  2
*D9
340
0
  0
BLOCK_RECORD
  5
3A55
330
1
100
AcDbSymbolTableRecord
100
AcDbBlockTableRecord
  2
*D10
340
0
  0
BLOCK_RECORD
  5
4007
330
1
100
AcDbSymbolTableRecord
100
AcDbBlockTableRecord
  2
*D11
340
0
  0
ENDTAB
  0
ENDSEC
  0
SECTION
  2
BLOCKS
  0
BLOCK
  5
1B
330
1A
100
AcDbEntity
  8
0
100
AcDbBlockBegin
  2
*MODEL_SPACE
 70
     0
 10
0.0
 20
0.0
 30
0.0
  3
*MODEL_SPACE
  1
*MODEL_SPACE
  0
ENDBLK
  5
1C
330
1A
100
AcDbEntity
  8
0
100
AcDbBlockEnd
  0
BLOCK
  5
3969
330
3968
100
AcDbEntity
 67
     1
  8
0
 48
10.0
100
AcDbBlockBegin
  2
*Paper_Space
 70
     0
 10
0.0
 20
0.0
 30
0.0
  3
*Paper_Space
  1
*Paper_Space
  0
ENDBLK
  5
39B7
330
3968
100
AcDbEntity
 67
     1
  8
0
 48
10.0
100
AcDbBlockEnd
  0
BLOCK
  5
2A6D
330
2A6C
100
AcDbEntity
  8
0
100
AcDbBlockBegin
  2
A3縦用　タイトル
 70
     0
 10
0.0
 20
0.0
 30
0.0
  3
A3縦用　タイトル
  1
A3縦用　タイトル
  0
MTEXT
  5
2A6E
330
2A6C
100
AcDbEntity
  8
図枠細線
100
AcDbMText
 10
5.040804501593
 20
31.626098649005
 30
0.0
 40
2.5
 41
49.938282706292
 71
     1
 72
     5
  1
{\Fmonotxt.shx,bigfont.shx|c128;図暦　CHANGE　NOTICE}
 73
     1
 44
1.0
  0
LINE
  5
2A6F
330
2A6C
100
AcDbEntity
  8
図枠太線
  6
Continuous
 62
   251
100
AcDbLine
 10
283.577871882961
 20
2.820844689254
 30
0.0
 11
283.577871882961
 21
32.820842689254
 31
0.0
  0
MTEXT
  5
2A70
330
2A6C
100
AcDbEntity
  8
図枠細線
 48
10.0
100
AcDbMText
 10
214.912458947454
 20
31.621488632308
 30
0.0
 40
2.5
 41
28.002809618823
 71
     1
 72
     5
  1
{\Fmonotxt.shx,bigfont.shx|c128;名称　TITLE}
 73
     1
 44
1.0
  0
MTEXT
  5
2A71
330
2A6C
100
AcDbEntity
  8
図枠細線
 48
10.0
100
AcDbMText
 10
214.740030458938
 20
16.310225796722
 30
0.0
 40
2.5
 41
24.385612216707
 71
     1
 72
     5
  1
{\Fmonotxt.shx,bigfont.shx|c128;図面番号\PDRG.　No.}
 73
     1
 44
1.0
  0
LINE
  5
2A72
330
2A6C
100
AcDbEntity
  8
図枠太線
  6
Continuous
 62
   251
100
AcDbLine
 10
213.577871882961
 20
2.820844689254
 30
0.0
 11
213.577871882961
 21
32.820842689254
 31
0.0
  0
LINE
  5
2A73
330
2A6C
100
AcDbEntity
  8
図枠太線
  6
Continuous
 62
   251
100
AcDbLine
 10
143.577871882961
 20
2.820844689254
 30
0.0
 11
143.577871882961
 21
32.820842689254
 31
0.0
  0
TEXT
  5
2A74
330
2A6C
100
AcDbEntity
  8
図枠細線
  6
Continuous
 62
   252
100
AcDbText
 10
145.716454488093
 20
4.468335689254
 30
0.0
 40
3.5
  1
ＴＯＷＡ　ＳＥＩＤＥＮ　ＩＮＤＵＳＴＲＩＡＬ　ＣＯ．，ＬＴＤ．
 41
0.528937826907
  7
EXCADSTD
 72
     5
 11
212.856295983498
 21
4.468335689254
 31
0.0
100
AcDbText
  0
TEXT
  5
2A75
330
2A6C
100
AcDbEntity
  8
図枠ロゴマーク
  6
Continuous
 62
   253
100
AcDbText
 10
145.950637593507
 20
9.413236689254
 30
0.0
 40
7.0
  1
東和制電工業株式会社
 41
0.80361088462
  7
EXCADSTD
 72
     5
 11
211.953878250259
 21
9.413236689254
 31
0.0
100
AcDbText
  0
LINE
  5
2A76
330
2A6C
100
AcDbEntity
  8
図枠細線
  6
Continuous
 62
   252
100
AcDbLine
 10
143.577871882961
 20
25.320842689254
 30
0.0
 11
213.577871882961
 21
25.320842689254
 31
0.0
  0
LINE
  5
2A77
330
2A6C
100
AcDbEntity
  8
図枠太線
  6
Continuous
 62
   251
100
AcDbLine
 10
143.577863882961
 20
17.820842689254
 30
0.0
 11
213.577871882961
 21
17.820842689254
 31
0.0
  0
LINE
  5
2A78
330
2A6C
100
AcDbEntity
  8
図枠細線
  6
Continuous
 62
   252
100
AcDbLine
 10
213.577871882961
 20
17.820842689254
 30
0.0
 11
283.577871882961
 21
17.820842689254
 31
0.0
  0
LINE
  5
2A79
330
2A6C
100
AcDbEntity
  8
図枠細線
  6
Continuous
 62
   252
100
AcDbLine
 10
120.577871882961
 20
32.820842689254
 30
0.0
 11
120.577871882961
 21
17.820842689254
 31
0.0
  0
MTEXT
  5
2A7A
330
2A6C
100
AcDbEntity
  8
図枠細線
 48
10.0
100
AcDbMText
 10
121.100885670352
 20
16.33785922638
 30
0.0
 40
2.0
 41
17.705978285068
 71
     1
 72
     5
  1
{\Fmonotxt.shx,bigfont.shx|c128;日付 DATE}
 73
     1
 44
1.0
  0
MTEXT
  5
2A7B
330
2A6C
100
AcDbEntity
  8
図枠細線
 48
10.0
100
AcDbMText
 10
121.254842273491
 20
31.208993514037
 30
0.0
 40
2.0
 41
18.363799568758
 71
     1
 72
     5
  1
{\Fmonotxt.shx,bigfont.shx|c128;製図　DRAWN}
 73
     1
 44
1.0
  0
LINE
  5
2A7C
330
2A6C
100
AcDbEntity
  8
図枠細線
  6
Continuous
 62
   252
100
AcDbLine
 10
97.577871882961
 20
32.820842689254
 30
0.0
 11
97.577871882961
 21
17.820842689254
 31
0.0
  0
MTEXT
  5
2A7D
330
2A6C
100
AcDbEntity
  8
図枠細線
 48
10.0
100
AcDbMText
 10
98.239734796872
 20
16.467764839281
 30
0.0
 40
2.0
 41
17.757791689903
 71
     1
 72
     5
  1
{\Fmonotxt.shx,bigfont.shx|c128;尺度　SCALE}
 73
     1
 44
1.0
  0
MTEXT
  5
2A7E
330
2A6C
100
AcDbEntity
  8
図枠細線
 48
10.0
100
AcDbMText
 10
97.864744625154
 20
31.298433377664
 30
0.0
 40
2.0
 41
23.162655920976
 71
     1
 72
     5
  1
{\Fmonotxt.shx,bigfont.shx|c128;検図  CHECKED}
 73
     1
 44
1.0
  0
LINE
  5
2A7F
330
2A6C
100
AcDbEntity
  8
図枠細線
  6
Continuous
 62
   252
100
AcDbLine
 10
97.577871882961
 20
2.820843367826
 30
0.0
 11
97.577871882961
 21
17.820841367826
 31
0.0
  0
LINE
  5
2A80
330
2A6C
100
AcDbEntity
  8
図枠細線
  6
Continuous
 62
   252
100
AcDbLine
 10
120.577871882961
 20
2.820844010683
 30
0.0
 11
120.577871882961
 21
17.820842010683
 31
0.0
  0
MTEXT
  5
2A81
330
2A6C
100
AcDbEntity
  8
図枠細線
 48
10.0
100
AcDbMText
 10
81.402399084102
 20
16.316484117426
 30
0.0
 40
2.0
 41
12.920322819369
 71
     1
 72
     5
  1
{\Fmonotxt.shx,bigfont.shx|c128;第三角法}
 73
     1
 44
1.0
  0
MTEXT
  5
2A82
330
2A6C
100
AcDbEntity
  8
図枠細線
 48
10.0
100
AcDbMText
 10
75.736576535096
 20
11.080410931319
 30
0.0
 40
2.0
 41
21.072870671471
 71
     1
 72
     5
  1
{\Fmonotxt.shx,bigfont.shx|c128;THIRD ANGLE\PPROJECTION}
 73
     1
 44
1.0
  0
LINE
  5
2A83
330
2A6C
100
AcDbEntity
  8
図枠太線
  6
Continuous
 62
   251
100
AcDbLine
 10
74.577871882961
 20
2.820844689254
 30
0.0
 11
74.577871882961
 21
32.820842689254
 31
0.0
  0
MTEXT
  5
2A84
330
2A6C
100
AcDbEntity
  8
図枠細線
 48
10.0
100
AcDbMText
 10
75.060214781573
 20
31.298434778555
 30
0.0
 40
2.0
 41
22.240928805967
 71
     1
 72
     5
  1
{\Fmonotxt.shx,bigfont.shx|c128;承認 APPROVED}
 73
     1
 44
1.0
  0
LINE
  5
2A85
330
2A6C
100
AcDbEntity
  8
図枠細線
  6
Continuous
100
AcDbLine
 10
3.577871882961
 20
17.820844689254
 30
0.0
 11
74.577871882961
 21
17.820844689254
 31
0.0
  0
LINE
  5
2A86
330
2A6C
100
AcDbEntity
  8
図枠細線
  6
Continuous
 62
   252
100
AcDbLine
 10
3.577871882961
 20
27.820842689254
 30
0.0
 11
74.577871882961
 21
27.820842689254
 31
0.0
  0
LINE
  5
2A87
330
2A6C
100
AcDbEntity
  8
図枠細線
  6
Continuous
 62
   252
100
AcDbLine
 10
3.577871882961
 20
22.820842689254
 30
0.0
 11
74.577871882961
 21
22.820842689254
 31
0.0
  0
LINE
  5
2A88
330
2A6C
100
AcDbEntity
  8
図枠細線
  6
Continuous
 62
   252
100
AcDbLine
 10
3.577871882961
 20
12.820842689254
 30
0.0
 11
74.577871882961
 21
12.820842689254
 31
0.0
  0
LINE
  5
2A89
330
2A6C
100
AcDbEntity
  8
図枠細線
  6
Continuous
 62
   252
100
AcDbLine
 10
3.577871882961
 20
7.820844689254
 30
0.0
 11
74.577871882961
 21
7.820844689254
 31
0.0
  0
LINE
  5
2A8A
330
2A6C
100
AcDbEntity
  8
図枠細線
  6
Continuous
100
AcDbLine
 10
74.577871882961
 20
17.820843689254
 30
0.0
 11
143.577871882961
 21
17.820841224969
 31
0.0
  0
LINE
  5
2A8B
330
2A6C
100
AcDbEntity
  8
図枠太線
  6
Continuous
 62
   251
100
AcDbLine
 10
3.577871882961
 20
2.820844689254
 30
0.0
 11
283.577871882961
 21
2.820844689254
 31
0.0
  0
LINE
  5
2A8C
330
2A6C
100
AcDbEntity
  8
図枠太線
  6
Continuous
 62
   251
100
AcDbLine
 10
3.577871882961
 20
2.820844689254
 30
0.0
 11
3.577871882961
 21
32.820842689254
 31
0.0
  0
ENDBLK
  5
2A8D
330
2A6C
100
AcDbEntity
  8
0
100
AcDbBlockEnd
  0
BLOCK
  5
2AF0
330
2AEC
100
AcDbEntity
  8
0
 48
10.0
100
AcDbBlockBegin
  2
_Open30
 70
     0
 10
0.0
 20
0.0
 30
0.0
  3
_Open30
  1
_Open30
  0
LINE
  5
2AED
330
2AEC
100
AcDbEntity
  8
0
  6
ByBlock
 62
     0
370
    -2
100
AcDbLine
 10
-1.0
 20
0.26794919
 30
0.0
 11
0.0
 21
0.0
 31
0.0
  0
LINE
  5
2AEE
330
2AEC
100
AcDbEntity
  8
0
  6
ByBlock
 62
     0
370
    -2
100
AcDbLine
 10
0.0
 20
0.0
 30
0.0
 11
-1.0
 21
-0.26794919
 31
0.0
  0
LINE
  5
2AEF
330
2AEC
100
AcDbEntity
  8
0
  6
ByBlock
 62
     0
370
    -2
100
AcDbLine
 10
0.0
 20
0.0
 30
0.0
 11
-1.0
 21
0.0
 31
0.0
  0
ENDBLK
  5
2AF1
330
2AEC
100
AcDbEntity
  8
0
 48
10.0
100
AcDbBlockEnd
  0
BLOCK
  5
3149
330
313D
100
AcDbEntity
  8
0
 48
10.0
100
AcDbBlockBegin
  2
*D2
 70
     1
 10
0.0
 20
0.0
 30
0.0
  3
*D2
  1
*D2
  0
LINE
  5
39DC
330
313D
100
AcDbEntity
  8
寸法線
 62
     0
 48
10.0
370
    -2
100
AcDbLine
 10
240.848674355596
 20
515.860606428696
 30
0.0
 11
240.848674355596
 21
212.598221616063
 31
0.0
  0
LINE
  5
39DD
330
313D
100
AcDbEntity
  8
寸法線
 62
     0
 48
10.0
370
    -2
100
AcDbLine
 10
433.853572221787
 20
304.887050267798
 30
0.0
 11
453.778591062868
 21
250.143510953027
 31
0.0
  0
ARC
  5
39DE
330
313D
100
AcDbEntity
  8
寸法線
 62
     0
 48
10.0
370
    -2
100
AcDbCircle
 10
240.848674355596
 20
835.163648676665
 30
0.0
 40
621.3154270606022
100
AcDbArc
 50
271.198841504166
 51
288.801158507038
  0
INSERT
  5
39DF
330
313D
100
AcDbEntity
  8
寸法線
 62
     0
 48
10.0
370
    -2
100
AcDbBlockReference
  2
_Open30
 10
240.848674355596
 20
213.848221616063
 30
0.0
 41
13.0
 42
13.0
 43
13.0
 50
180.599420752083
  0
INSERT
  5
39E0
330
313D
100
AcDbEntity
  8
寸法線
 62
     0
 48
10.0
370
    -2
100
AcDbBlockReference
  2
_Open30
 10
453.351065883481
 20
251.318126728926
 30
0.0
 41
13.0
 42
13.0
 43
13.0
 50
19.400579259121
  0
MTEXT
  5
39E1
330
313D
100
AcDbEntity
  8
寸法線
 62
     0
 48
10.0
100
AcDbMText
 10
342.314627948777
 20
229.920797206018
 30
0.0
 40
14.0
 41
0.0
 71
     5
 72
     1
  1
\A1;Max.20°
 11
0.9862370077330229
 21
0.165337728839528
 31
0.0
 73
     1
 44
1.0
  0
POINT
  5
39E2
330
313D
100
AcDbEntity
  8
DEFPOINTS
 62
     0
 48
10.0
100
AcDbPoint
 10
384.133872651702
 20
230.595859381913
 30
0.0
  0
POINT
  5
39E3
330
313D
100
AcDbEntity
  8
DEFPOINTS
 62
     0
 48
10.0
100
AcDbPoint
 10
240.848674355596
 20
829.615323428696
 30
0.0
  0
POINT
  5
39E4
330
313D
100
AcDbEntity
  8
DEFPOINTS
 62
     0
 48
10.0
100
AcDbPoint
 10
116.808020355596
 20
1175.962544428696
 30
0.0
  0
POINT
  5
39E5
330
313D
100
AcDbEntity
  8
DEFPOINTS
 62
     0
 48
10.0
100
AcDbPoint
 10
433.639809632094
 20
305.474358155748
 30
0.0
  0
POINT
  5
39E6
330
313D
100
AcDbEntity
  8
DEFPOINTS
 62
     0
 48
10.0
100
AcDbPoint
 10
240.848674355596
 20
516.485606428696
 30
0.0
  0
ENDBLK
  5
314A
330
313D
100
AcDbEntity
  8
0
 48
10.0
100
AcDbBlockEnd
  0
BLOCK
  5
3161
330
3157
100
AcDbEntity
  8
0
 48
10.0
100
AcDbBlockBegin
  2
*D3
 70
     1
 10
0.0
 20
0.0
 30
0.0
  3
*D3
  1
*D3
  0
LINE
  5
392F
330
3157
100
AcDbEntity
  8
寸法線
 62
     0
 48
10.0
370
    -2
100
AcDbLine
 10
282.139260730144
 20
291.919448541421
 30
0.0
 11
290.219438619509
 21
269.719342476649
 31
0.0
  0
LINE
  5
3930
330
3157
100
AcDbEntity
  8
寸法線
 62
     0
 48
10.0
370
    -2
100
AcDbLine
 10
558.408890730144
 20
392.473371541421
 30
0.0
 11
566.489068619509
 21
370.273265476649
 31
0.0
  0
LINE
  5
3931
330
3157
100
AcDbEntity
  8
寸法線
 62
     0
 48
10.0
370
    -2
100
AcDbLine
 10
302.007917491736
 20
275.340220155363
 30
0.0
 11
553.845539381097
 21
367.001619347036
 31
0.0
  0
INSERT
  5
3932
330
3157
100
AcDbEntity
  8
寸法線
 62
     0
 48
10.0
370
    -2
100
AcDbBlockReference
  2
_Open30
 10
289.791913436416
 20
270.893958251199
 30
0.0
 41
13.0
 42
13.0
 43
13.0
 50
200.000000191969
  0
INSERT
  5
3933
330
3157
100
AcDbEntity
  8
寸法線
 62
     0
 48
10.0
370
    -2
100
AcDbBlockReference
  2
_Open30
 10
566.061543436416
 20
371.447881251199
 30
0.0
 41
13.0
 42
13.0
 43
13.0
 50
20.000000191969
  0
MTEXT
  5
3934
330
3157
100
AcDbEntity
  8
寸法線
 62
     0
 48
10.0
100
AcDbMText
 10
447.467441656035
 20
336.398979705337
 30
0.0
 40
14.0
 41
0.0
 71
     5
 72
     1
  1
\A1;φ294
 11
0.9396926196399723
 21
0.3420201464741023
 31
0.0
 73
     1
 44
1.0
  0
POINT
  5
3935
330
3157
100
AcDbEntity
  8
DEFPOINTS
 62
     0
 48
10.0
100
AcDbPoint
 10
281.925498138598
 20
292.506756428696
 30
0.0
  0
POINT
  5
3936
330
3157
100
AcDbEntity
  8
DEFPOINTS
 62
     0
 48
10.0
100
AcDbPoint
 10
558.195128138598
 20
393.060679428696
 30
0.0
  0
POINT
  5
3937
330
3157
100
AcDbEntity
  8
DEFPOINTS
 62
     0
 48
10.0
100
AcDbPoint
 10
566.061543436416
 20
371.447881251199
 30
0.0
  0
ENDBLK
  5
3162
330
3157
100
AcDbEntity
  8
0
 48
10.0
100
AcDbBlockEnd
  0
BLOCK
  5
318E
330
3184
100
AcDbEntity
  8
0
 48
10.0
100
AcDbBlockBegin
  2
*D4
 70
     1
 10
0.0
 20
0.0
 30
0.0
  3
*D4
  1
*D4
  0
LINE
  5
3AC0
330
3184
100
AcDbEntity
  8
寸法線
 62
     0
 48
10.0
370
    -2
100
AcDbLine
 10
167.388522355596
 20
1150.454233428696
 30
0.0
 11
-11.91011640544
 21
1150.454233428696
 31
0.0
  0
LINE
  5
3AC1
330
3184
100
AcDbEntity
  8
寸法線
 62
     0
 48
10.0
370
    -2
100
AcDbLine
 10
281.300498138598
 20
292.506756428696
 30
0.0
 11
-11.91011640544
 21
292.506756428696
 31
0.0
  0
LINE
  5
3AC2
330
3184
100
AcDbEntity
  8
寸法線
 62
     0
 48
10.0
370
    -2
100
AcDbLine
 10
-10.66011640544
 20
1137.454233428696
 30
0.0
 11
-10.66011640544
 21
305.506756428696
 31
0.0
  0
INSERT
  5
3AC3
330
3184
100
AcDbEntity
  8
寸法線
 62
     0
 48
10.0
370
    -2
100
AcDbBlockReference
  2
_Open30
 10
-10.66011640544
 20
1150.454233428696
 30
0.0
 41
13.0
 42
13.0
 43
13.0
 50
90.0
  0
INSERT
  5
3AC4
330
3184
100
AcDbEntity
  8
寸法線
 62
     0
 48
10.0
370
    -2
100
AcDbBlockReference
  2
_Open30
 10
-10.66011640544
 20
292.506756428696
 30
0.0
 41
13.0
 42
13.0
 43
13.0
 50
270.0
  0
MTEXT
  5
3AC5
330
3184
100
AcDbEntity
  8
寸法線
 62
     0
 48
10.0
100
AcDbMText
 10
-18.28511640544
 20
739.262842123305
 30
0.0
 40
14.0
 41
0.0
 71
     5
 72
     1
  1
\A1;860
 11
6.123031769111886E-17
 21
1.0
 31
0.0
 73
     1
 44
1.0
  0
POINT
  5
3AC6
330
3184
100
AcDbEntity
  8
DEFPOINTS
 62
     0
 48
10.0
100
AcDbPoint
 10
168.013522355596
 20
1150.454233428696
 30
0.0
  0
POINT
  5
3AC7
330
3184
100
AcDbEntity
  8
DEFPOINTS
 62
     0
 48
10.0
100
AcDbPoint
 10
281.925498138598
 20
292.506756428696
 30
0.0
  0
POINT
  5
3AC8
330
3184
100
AcDbEntity
  8
DEFPOINTS
 62
     0
 48
10.0
100
AcDbPoint
 10
-10.66011640544
 20
292.506756428696
 30
0.0
  0
ENDBLK
  5
318F
330
3184
100
AcDbEntity
  8
0
 48
10.0
100
AcDbBlockEnd
  0
BLOCK
  5
32DD
330
32D3
100
AcDbEntity
  8
0
 48
10.0
100
AcDbBlockBegin
  2
*D5
 70
     1
 10
0.0
 20
0.0
 30
0.0
  3
*D5
  1
*D5
  0
LINE
  5
32DF
330
32D3
100
AcDbEntity
  8
寸法線
 62
     0
 48
10.0
370
    -2
100
AcDbLine
 10
269.096305141701
 20
710.773050106621
 30
0.0
 11
268.88254255109
 21
711.360357994236
 31
0.0
  0
LINE
  5
32E0
330
32D3
100
AcDbEntity
  8
寸法線
 62
     0
 48
10.0
370
    -2
100
AcDbLine
 10
299.166468715319
 20
721.71769464677
 30
0.0
 11
298.952706124709
 21
722.305002534385
 31
0.0
  0
LINE
  5
32E1
330
32D3
100
AcDbEntity
  8
寸法線
 62
     0
 48
10.0
370
    -2
100
AcDbLine
 10
281.526071794716
 20
714.632004103704
 30
0.0
 11
287.164227243525
 21
716.684124874456
 31
0.0
  0
LINE
  5
32E2
330
32D3
100
AcDbEntity
  8
寸法線
 62
     0
 48
10.0
370
    -2
100
AcDbLine
 10
299.38023130593
 20
721.130386759154
 30
0.0
 11
343.161287391568
 21
737.065388086184
 31
0.0
  0
INSERT
  5
32E3
330
32D3
100
AcDbEntity
  8
寸法線
 62
     0
 48
10.0
370
    -2
100
AcDbBlockReference
  2
_Open30
 10
269.310067732311
 20
710.185742219005
 30
0.0
 41
13.0
 42
13.0
 43
13.0
 50
200.000000100675
  0
INSERT
  5
32E4
330
32D3
100
AcDbEntity
  8
寸法線
 62
     0
 48
10.0
370
    -2
100
AcDbBlockReference
  2
_Open30
 10
299.38023130593
 20
721.130386759154
 30
0.0
 41
13.0
 42
13.0
 43
13.0
 50
20.000000100675
  0
MTEXT
  5
32E5
330
32D3
100
AcDbEntity
  8
寸法線
 62
     0
 48
10.0
100
AcDbMText
 10
324.770386486901
 20
738.487469445964
 30
0.0
 40
14.0
 41
0.0
 71
     5
 72
     1
  1
\A1;φ32
 11
0.9396926201849432
 21
0.3420201449768071
 31
0.0
 73
     1
 44
1.0
  0
POINT
  5
32E6
330
32D3
100
AcDbEntity
  8
DEFPOINTS
 62
     0
 48
10.0
100
AcDbPoint
 10
269.310067732311
 20
710.185742219005
 30
0.0
  0
POINT
  5
32E7
330
32D3
100
AcDbEntity
  8
DEFPOINTS
 62
     0
 48
10.0
100
AcDbPoint
 10
299.38023130593
 20
721.130386759154
 30
0.0
  0
POINT
  5
32E8
330
32D3
100
AcDbEntity
  8
DEFPOINTS
 62
     0
 48
10.0
100
AcDbPoint
 10
299.38023130593
 20
721.130386759154
 30
0.0
  0
ENDBLK
  5
32DE
330
32D3
100
AcDbEntity
  8
0
 48
10.0
100
AcDbBlockEnd
  0
BLOCK
  5
38F1
330
3817
100
AcDbEntity
  8
0
 48
10.0
100
AcDbBlockBegin
  2
A$C2F307867
 70
     0
 10
0.0
 20
0.0
 30
0.0
  3
A$C2F307867
  1
A$C2F307867
  0
ARC
  5
3818
330
3817
100
AcDbEntity
  8
0
 62
     3
100
AcDbCircle
 10
239.113864399505
 20
317.016398510056
 30
0.0
 40
1.0
100
AcDbArc
 50
20.0
 51
110.0
  0
LINE
  5
3819
330
3817
100
AcDbEntity
  8
0
 62
     3
100
AcDbLine
 10
247.318896399505
 20
306.168474510056
 30
0.0
 11
239.750189399505
 21
303.413690510056
 31
0.0
  0
LINE
  5
381A
330
3817
100
AcDbEntity
  8
0
 62
     3
100
AcDbLine
 10
240.911204399505
 20
301.888884510056
 30
0.0
 11
235.309001399505
 21
309.246474510056
 31
0.0
  0
ARC
  5
381B
330
3817
100
AcDbEntity
  8
0
 62
     3
100
AcDbCircle
 10
246.292836399505
 20
308.987552510056
 30
0.0
 40
3.0
100
AcDbArc
 50
200.0
 51
290.0
  0
LINE
  5
381C
330
3817
100
AcDbEntity
  8
0
 62
     3
100
AcDbLine
 10
242.105678399505
 20
311.720262510056
 30
0.0
 11
250.716862399505
 21
307.748203510056
 31
0.0
  0
LINE
  5
381D
330
3817
100
AcDbEntity
  8
0
 62
     3
100
AcDbLine
 10
247.318896399505
 20
306.168474510056
 30
0.0
 11
247.412866399505
 21
306.202677510056
 31
0.0
  0
ARC
  5
381E
330
3817
100
AcDbEntity
  8
0
 62
     3
100
AcDbCircle
 10
248.780946399505
 20
302.443906510056
 30
0.0
 40
4.0
100
AcDbArc
 50
20.0
 51
110.0
  0
ARC
  5
381F
330
3817
100
AcDbEntity
  8
0
 62
     3
100
AcDbCircle
 10
247.366019399505
 20
300.483779510056
 30
0.0
 40
8.0
100
AcDbArc
 50
20.0
 51
65.237656999999
  0
LINE
  5
3820
330
3817
100
AcDbEntity
  8
0
 62
     3
100
AcDbLine
 10
258.547174399505
 20
270.348567510056
 30
0.0
 11
258.034144399505
 21
271.758106510056
 31
0.0
  0
LINE
  5
3821
330
3817
100
AcDbEntity
  8
0
 62
     3
100
AcDbLine
 10
234.677256399505
 20
267.513605510056
 30
0.0
 11
263.995666399505
 21
278.184634510056
 31
0.0
  0
LINE
  5
3822
330
3817
100
AcDbEntity
  8
0
 62
     3
100
AcDbLine
 10
262.116281399505
 20
277.500593510056
 30
0.0
 11
252.539717399505
 21
303.811987510056
 31
0.0
  0
LINE
  5
3823
330
3817
100
AcDbEntity
  8
0
 62
     3
100
AcDbLine
 10
265.363747399505
 20
274.425863510056
 30
0.0
 11
254.883560399505
 21
303.219940510056
 31
0.0
  0
LINE
  5
3824
330
3817
100
AcDbEntity
  8
0
 62
     3
100
AcDbLine
 10
247.471202399505
 20
272.170220510056
 30
0.0
 11
237.079321399505
 21
300.721678510056
 31
0.0
  0
LINE
  5
3825
330
3817
100
AcDbEntity
  8
0
 62
     3
100
AcDbLine
 10
251.229972399505
 20
273.538301510056
 30
0.0
 11
240.911204399505
 21
301.888884510056
 31
0.0
  0
LINE
  5
3826
330
3817
100
AcDbEntity
  8
0
 62
     3
100
AcDbLine
 10
243.473758399505
 20
307.961492510056
 30
0.0
 11
240.053557399505
 21
317.358418510056
 31
0.0
  0
LINE
  5
3827
330
3817
100
AcDbEntity
  8
0
 62
     3
100
AcDbLine
 10
377.071748399505
 20
213.987362510056
 30
0.0
 11
383.582625399505
 21
211.037511510056
 31
0.0
  0
LINE
  5
3828
330
3817
100
AcDbEntity
  8
0
 62
     3
100
AcDbLine
 10
381.746431399505
 20
215.758606510056
 30
0.0
 11
398.388663399505
 21
172.969267510056
 31
0.0
  0
ARC
  5
3829
330
3817
100
AcDbEntity
  8
0
 62
     3
100
AcDbCircle
 10
378.950459399505
 20
214.671157510056
 30
0.0
 40
3.0
100
AcDbArc
 50
21.252754
 51
110.0
  0
LINE
  5
382A
330
3817
100
AcDbEntity
  8
0
 62
     3
100
AcDbLine
 10
429.929435399505
 20
160.861898510056
 30
0.0
 11
441.387110399505
 21
129.382196510056
 31
0.0
  0
LINE
  5
382B
330
3817
100
AcDbEntity
  8
0
 62
     3
100
AcDbLine
 10
429.929435399505
 20
160.861898510056
 30
0.0
 11
398.388663399505
 21
172.969267510056
 31
0.0
  0
LINE
  5
382C
330
3817
100
AcDbEntity
  8
0
 62
     3
100
AcDbLine
 10
337.262638399505
 20
200.562209510056
 30
0.0
 11
326.166674399505
 21
199.591438510056
 31
0.0
  0
LINE
  5
382D
330
3817
100
AcDbEntity
  8
0
 62
     3
100
AcDbLine
 10
326.166674399505
 20
199.591438510056
 30
0.0
 11
337.262638399505
 21
200.562209510056
 31
0.0
  0
LINE
  5
382E
330
3817
100
AcDbEntity
  8
0
 62
     3
100
AcDbLine
 10
325.139825399505
 20
200.245612510056
 30
0.0
 11
324.404052399505
 21
202.267133510056
 31
0.0
  0
ARC
  5
382F
330
3817
100
AcDbEntity
  8
0
 62
     3
100
AcDbCircle
 10
326.079518399505
 20
200.587632510056
 30
0.0
 40
1.0
100
AcDbArc
 50
200.0
 51
275.0
  0
LINE
  5
3830
330
3817
100
AcDbEntity
  8
0
 62
     3
100
AcDbLine
 10
324.404052399505
 20
202.267133510056
 30
0.0
 11
325.139825399505
 21
200.245612510056
 31
0.0
  0
ARC
  5
3831
330
3817
100
AcDbEntity
  8
0
 62
     3
100
AcDbCircle
 10
326.079518399505
 20
200.587632510056
 30
0.0
 40
1.0
100
AcDbArc
 50
200.0
 51
275.0
  0
LINE
  5
3832
330
3817
100
AcDbEntity
  8
0
 62
     3
100
AcDbLine
 10
338.202331399505
 20
200.904229510056
 30
0.0
 11
338.544351399505
 21
199.964536510056
 31
0.0
  0
LINE
  5
3833
330
3817
100
AcDbEntity
  8
0
 62
     3
100
AcDbLine
 10
337.262638399505
 20
200.562209510056
 30
0.0
 11
338.202331399505
 21
200.904229510056
 31
0.0
  0
LINE
  5
3834
330
3817
100
AcDbEntity
  8
0
 62
     3
100
AcDbLine
 10
338.330157399505
 20
202.014932510056
 30
0.0
 11
338.927829399505
 21
203.296644510056
 31
0.0
  0
LINE
  5
3835
330
3817
100
AcDbEntity
  8
0
 62
     3
100
AcDbLine
 10
338.330157399505
 20
202.014932510056
 30
0.0
 11
339.014197399505
 21
200.135546510056
 31
0.0
  0
LINE
  5
3836
330
3817
100
AcDbEntity
  8
0
 62
     3
100
AcDbLine
 10
321.840626399505
 20
203.462478510056
 30
0.0
 11
310.564315399505
 21
199.358236510056
 31
0.0
  0
ARC
  5
3837
330
3817
100
AcDbEntity
  8
0
 62
     3
100
AcDbCircle
 10
311.972991399505
 20
202.797441510056
 30
0.0
 40
1.5
100
AcDbArc
 50
290.0
 51
20.0
  0
ARC
  5
3838
330
3817
100
AcDbEntity
  8
0
 62
     3
100
AcDbCircle
 10
309.407840399505
 20
209.845136510056
 30
0.0
 40
1.5
100
AcDbArc
 50
20.0
 51
110.0
  0
LINE
  5
3839
330
3817
100
AcDbEntity
  8
0
 62
     3
100
AcDbLine
 10
309.282602399505
 20
199.955909510056
 30
0.0
 11
306.033411399505
 21
208.882988510056
 31
0.0
  0
LINE
  5
383A
330
3817
100
AcDbEntity
  8
0
 62
     3
100
AcDbLine
 10
308.410451399505
 20
202.352125510056
 30
0.0
 11
309.282602399505
 21
199.955909510056
 31
0.0
  0
ARC
  5
383B
330
3817
100
AcDbEntity
  8
0
 62
     3
100
AcDbCircle
 10
310.222295399505
 20
200.297929510056
 30
0.0
 40
1.0
100
AcDbArc
 50
200.0
 51
290.0
  0
ARC
  5
383C
330
3817
100
AcDbEntity
  8
0
 62
     3
100
AcDbCircle
 10
310.222295399505
 20
200.297929510056
 30
0.0
 40
1.0
100
AcDbArc
 50
200.0
 51
290.0
  0
LINE
  5
383D
330
3817
100
AcDbEntity
  8
0
 62
     3
100
AcDbLine
 10
308.769572399505
 20
201.365447510056
 30
0.0
 11
312.465395399505
 21
202.710617510056
 31
0.0
  0
LINE
  5
383E
330
3817
100
AcDbEntity
  8
0
 62
     3
100
AcDbLine
 10
306.033411399505
 20
208.882988510056
 30
0.0
 11
309.729234399505
 21
210.228158510056
 31
0.0
  0
LINE
  5
383F
330
3817
100
AcDbEntity
  8
0
 62
     3
100
AcDbLine
 10
306.033411399505
 20
208.882988510056
 30
0.0
 11
306.392532399505
 21
207.896311510056
 31
0.0
  0
LINE
  5
3840
330
3817
100
AcDbEntity
  8
0
 62
     3
100
AcDbLine
 10
306.033411399505
 20
208.882988510056
 30
0.0
 11
308.769572399505
 21
201.365447510056
 31
0.0
  0
LINE
  5
3841
330
3817
100
AcDbEntity
  8
0
 62
     3
100
AcDbLine
 10
309.877686399505
 20
210.016146510056
 30
0.0
 11
312.442837399505
 21
202.968451510056
 31
0.0
  0
LINE
  5
3842
330
3817
100
AcDbEntity
  8
0
 62
     3
100
AcDbLine
 10
310.136790399505
 20
200.532852510056
 30
0.0
 11
312.486021399505
 21
201.387902510056
 31
0.0
  0
LINE
  5
3843
330
3817
100
AcDbEntity
  8
0
 62
     3
100
AcDbLine
 10
309.794770399505
 20
201.472544510056
 30
0.0
 11
312.144001399505
 21
202.327595510056
 31
0.0
  0
LINE
  5
3844
330
3817
100
AcDbEntity
  8
0
 62
     3
100
AcDbLine
 10
309.794770399505
 20
201.472544510056
 30
0.0
 11
310.136790399505
 21
200.532852510056
 31
0.0
  0
LINE
  5
3845
330
3817
100
AcDbEntity
  8
0
  6
Continuous
 62
     3
100
AcDbLine
 10
310.209880399505
 20
201.623632510056
 30
0.0
 11
310.125226399505
 21
201.858865510056
 31
0.0
  0
LINE
  5
3846
330
3817
100
AcDbEntity
  8
0
  6
Continuous
 62
     3
100
AcDbLine
 10
308.770942399505
 20
205.622083510056
 30
0.0
 11
308.769252399505
 21
205.626780510056
 31
0.0
  0
LINE
  5
3847
330
3817
100
AcDbEntity
  8
0
 62
     3
100
AcDbLine
 10
308.769252399505
 20
205.626780510056
 30
0.0
 11
308.770938399505
 21
205.622082510056
 31
0.0
  0
ARC
  5
3848
330
3817
100
AcDbEntity
  8
0
 62
     3
100
AcDbCircle
 10
311.972991399505
 20
202.797441510056
 30
0.0
 40
0.5
100
AcDbArc
 50
290.0
 51
20.0
  0
LINE
  5
3849
330
3817
100
AcDbEntity
  8
0
 62
     3
100
AcDbLine
 10
306.545578399505
 20
210.399624510056
 30
0.0
 11
306.887598399505
 21
209.459932510056
 31
0.0
  0
LINE
  5
384A
330
3817
100
AcDbEntity
  8
0
 62
     3
100
AcDbLine
 10
306.887598399505
 20
209.459932510056
 30
0.0
 11
309.236830399505
 21
210.314982510056
 31
0.0
  0
LINE
  5
384B
330
3817
100
AcDbEntity
  8
0
  6
Continuous
 62
     3
100
AcDbLine
 10
307.416293399505
 20
209.386316510056
 30
0.0
 11
307.331639399505
 21
209.621549510056
 31
0.0
  0
ARC
  5
384C
330
3817
100
AcDbEntity
  8
0
 62
     3
100
AcDbCircle
 10
309.407840399505
 20
209.845136510056
 30
0.0
 40
0.5
100
AcDbArc
 50
20.0
 51
110.0
  0
LINE
  5
384D
330
3817
100
AcDbEntity
  8
0
 62
     3
100
AcDbLine
 10
306.545578399505
 20
210.399624510056
 30
0.0
 11
308.894810399505
 21
211.254675510056
 31
0.0
  0
POINT
  5
384E
330
3817
100
AcDbEntity
  8
0
  6
ByBlock
 62
     0
100
AcDbPoint
 10
317.410946399505
 20
195.468828510056
 30
0.0
  0
ARC
  5
384F
330
3817
100
AcDbEntity
  8
0
  6
Continuous
 62
     3
100
AcDbCircle
 10
316.347612399505
 20
205.397292510056
 30
0.0
 40
0.5
100
AcDbArc
 50
289.978785
 51
20.0
  0
LINE
  5
3850
330
3817
100
AcDbEntity
  8
0
  6
Continuous
 62
     3
100
AcDbLine
 10
314.150942399505
 20
208.216408510056
 30
0.0
 11
315.654653399505
 21
208.763083510056
 31
0.0
  0
LINE
  5
3851
330
3817
100
AcDbEntity
  8
0
  6
Continuous
 62
     3
100
AcDbLine
 10
314.561366399505
 20
207.088777510056
 30
0.0
 11
316.065077399505
 21
207.635452510056
 31
0.0
  0
ARC
  5
3852
330
3817
100
AcDbEntity
  8
0
  6
Continuous
 62
     3
100
AcDbCircle
 10
314.432299399505
 20
210.659571510056
 30
0.0
 40
0.5
100
AcDbArc
 50
20.0
 51
109.978785
  0
LINE
  5
3853
330
3817
100
AcDbEntity
  8
0
 62
     3
100
AcDbLine
 10
311.774932399505
 20
210.651114510056
 30
0.0
 11
314.305882399505
 21
203.697388510056
 31
0.0
  0
LINE
  5
3854
330
3817
100
AcDbEntity
  8
0
 62
     3
100
AcDbLine
 10
310.817379399505
 20
210.358166510056
 30
0.0
 11
313.382530399505
 21
203.310471510056
 31
0.0
  0
LINE
  5
3855
330
3817
100
AcDbEntity
  8
0
  6
Continuous
 62
     3
100
AcDbLine
 10
314.169073399505
 20
204.073265510056
 30
0.0
 11
316.518448399505
 21
204.927383510056
 31
0.0
  0
LINE
  5
3856
330
3817
100
AcDbEntity
  8
0
  6
Continuous
 62
     3
100
AcDbLine
 10
313.366062399505
 20
203.355716510056
 30
0.0
 11
314.305882399505
 21
203.697388510056
 31
0.0
  0
LINE
  5
3857
330
3817
100
AcDbEntity
  8
0
 62
     3
100
AcDbLine
 10
314.150942399505
 20
208.216408510056
 30
0.0
 11
314.561366399505
 21
207.088777510056
 31
0.0
  0
LINE
  5
3858
330
3817
100
AcDbEntity
  8
0
  6
Continuous
 62
     3
100
AcDbLine
 10
312.036686399505
 20
207.008147510056
 30
0.0
 11
312.628701399505
 21
208.305404510056
 31
0.0
  0
LINE
  5
3859
330
3817
100
AcDbEntity
  8
0
  6
Continuous
 62
     3
100
AcDbLine
 10
312.258912399505
 20
206.397585510056
 30
0.0
 11
312.850927399505
 21
207.694842510056
 31
0.0
  0
LINE
  5
385A
330
3817
100
AcDbEntity
  8
0
  6
Continuous
 62
     3
100
AcDbLine
 10
311.911740399505
 20
210.275237510056
 30
0.0
 11
314.261463399505
 21
211.129481510056
 31
0.0
  0
LINE
  5
385B
330
3817
100
AcDbEntity
  8
0
  6
Continuous
 62
     3
100
AcDbLine
 10
310.835113399505
 20
210.309442510056
 30
0.0
 11
311.774932399505
 21
210.651114510056
 31
0.0
  0
LINE
  5
385C
330
3817
100
AcDbEntity
  8
0
 62
     3
100
AcDbLine
 10
316.065077399505
 20
207.635452510056
 30
0.0
 11
316.817458399505
 21
205.568302510056
 31
0.0
  0
LINE
  5
385D
330
3817
100
AcDbEntity
  8
0
 62
     3
100
AcDbLine
 10
314.902145399505
 20
210.830581510056
 30
0.0
 11
315.654653399505
 21
208.763083510056
 31
0.0
  0
LINE
  5
385E
330
3817
100
AcDbEntity
  8
0
 62
     3
100
AcDbLine
 10
324.404052399505
 20
202.267133510056
 30
0.0
 11
321.840626399505
 21
203.462478510056
 31
0.0
  0
LINE
  5
385F
330
3817
100
AcDbEntity
  8
0
 62
     3
100
AcDbLine
 10
321.840626399505
 20
203.462478510056
 30
0.0
 11
324.404052399505
 21
202.267133510056
 31
0.0
  0
LINE
  5
3860
330
3817
100
AcDbEntity
  8
0
 62
     3
100
AcDbLine
 10
276.939221399505
 20
220.109214510056
 30
0.0
 11
269.756798399505
 21
239.842759510056
 31
0.0
  0
ARC
  5
3861
330
3817
100
AcDbEntity
  8
0
 62
     3
100
AcDbCircle
 10
275.999529399505
 20
219.767194510056
 30
0.0
 40
1.0
100
AcDbArc
 50
290.0
 51
20.0
  0
LINE
  5
3862
330
3817
100
AcDbEntity
  8
0
 62
     3
100
AcDbLine
 10
260.225144399505
 20
258.721253510056
 30
0.0
 11
260.225144399505
 21
251.704123510056
 31
0.0
  0
LINE
  5
3863
330
3817
100
AcDbEntity
  8
0
 62
     3
100
AcDbLine
 10
267.328800399505
 20
245.344106510056
 30
0.0
 11
262.198498399505
 21
259.439496510056
 31
0.0
  0
LINE
  5
3864
330
3817
100
AcDbEntity
  8
0
 62
     7
100
AcDbLine
 10
260.015787399505
 20
251.627923510056
 30
0.0
 11
253.764169399505
 21
249.352521510056
 31
0.0
  0
LINE
  5
3865
330
3817
100
AcDbEntity
  8
0
 62
     7
100
AcDbLine
 10
236.211459399505
 20
242.963857510056
 30
0.0
 11
242.746861399505
 21
245.342548510056
 31
0.0
  0
LINE
  5
3866
330
3817
100
AcDbEntity
  8
0
 62
     3
100
AcDbLine
 10
248.310773399505
 20
254.384777510056
 30
0.0
 11
249.755319399505
 21
247.893419510056
 31
0.0
  0
LINE
  5
3867
330
3817
100
AcDbEntity
  8
0
 62
     7
100
AcDbLine
 10
249.282263399505
 20
247.721240510056
 30
0.0
 11
242.746861399505
 21
245.342548510056
 31
0.0
  0
LINE
  5
3868
330
3817
100
AcDbEntity
  8
0
 62
     3
100
AcDbLine
 10
240.491599399505
 20
251.538830510056
 30
0.0
 11
262.198498399505
 21
259.439496510056
 31
0.0
  0
LINE
  5
3869
330
3817
100
AcDbEntity
  8
0
 62
     3
100
AcDbLine
 10
255.414429399505
 20
241.007630510056
 30
0.0
 11
254.819568399505
 21
236.209628510056
 31
0.0
  0
LINE
  5
386A
330
3817
100
AcDbEntity
  8
0
 62
     3
100
AcDbLine
 10
256.441972399505
 20
241.108284510056
 30
0.0
 11
255.742729399505
 21
236.597069510056
 31
0.0
  0
LINE
  5
386B
330
3817
100
AcDbEntity
  8
0
 62
     3
100
AcDbLine
 10
255.399226399505
 20
234.617030510056
 30
0.0
 11
254.819568399505
 21
236.209628510056
 31
0.0
  0
LINE
  5
386C
330
3817
100
AcDbEntity
  8
0
 62
     3
100
AcDbLine
 10
256.338919399505
 20
234.959050510056
 30
0.0
 11
255.742729399505
 21
236.597069510056
 31
0.0
  0
LINE
  5
386D
330
3817
100
AcDbEntity
  8
0
 62
     3
100
AcDbLine
 10
267.313597399505
 20
238.953506510056
 30
0.0
 11
266.629557399505
 21
240.832892510056
 31
0.0
  0
LINE
  5
386E
330
3817
100
AcDbEntity
  8
0
 62
     3
100
AcDbLine
 10
234.977530399505
 20
233.295866510056
 30
0.0
 11
238.412934399505
 21
230.289540510056
 31
0.0
  0
LINE
  5
386F
330
3817
100
AcDbEntity
  8
0
 62
     3
100
AcDbLine
 10
235.829372399505
 20
233.879252510056
 30
0.0
 11
239.369158399505
 21
230.586139510056
 31
0.0
  0
LINE
  5
3870
330
3817
100
AcDbEntity
  8
0
 62
     3
100
AcDbLine
 10
239.009124399505
 20
228.651521510056
 30
0.0
 11
238.412934399505
 21
230.289540510056
 31
0.0
  0
LINE
  5
3871
330
3817
100
AcDbEntity
  8
0
 62
     3
100
AcDbLine
 10
239.948817399505
 20
228.993541510056
 30
0.0
 11
239.369158399505
 21
230.586139510056
 31
0.0
  0
LINE
  5
3872
330
3817
100
AcDbEntity
  8
0
 62
     3
100
AcDbLine
 10
265.152304399505
 20
238.166860510056
 30
0.0
 11
260.225144399505
 21
251.704123510056
 31
0.0
  0
LINE
  5
3873
330
3817
100
AcDbEntity
  8
0
 62
     3
100
AcDbLine
 10
267.328800399505
 20
245.344106510056
 30
0.0
 11
266.629557399505
 21
240.832892510056
 31
0.0
  0
LINE
  5
3874
330
3817
100
AcDbEntity
  8
0
 62
     3
100
AcDbLine
 10
255.414429399505
 20
241.007630510056
 30
0.0
 11
250.284127399505
 21
255.103019510056
 31
0.0
  0
LINE
  5
3875
330
3817
100
AcDbEntity
  8
0
 62
     3
100
AcDbLine
 10
256.441972399505
 20
241.108284510056
 30
0.0
 11
251.223820399505
 21
255.445040510056
 31
0.0
  0
LINE
  5
3876
330
3817
100
AcDbEntity
  8
0
 62
     3
100
AcDbLine
 10
254.682480399505
 20
234.356156510056
 30
0.0
 11
249.755319399505
 21
247.893419510056
 31
0.0
  0
LINE
  5
3877
330
3817
100
AcDbEntity
  8
0
 62
     3
100
AcDbLine
 10
240.665563399505
 20
229.254415510056
 30
0.0
 11
235.738402399505
 21
242.791678510056
 31
0.0
  0
LINE
  5
3878
330
3817
100
AcDbEntity
  8
0
 62
     3
100
AcDbLine
 10
247.674022399505
 20
231.805285510056
 30
0.0
 11
269.756798399505
 21
239.842759510056
 31
0.0
  0
CIRCLE
  5
3879
330
3817
100
AcDbEntity
  8
0
 62
     3
100
AcDbCircle
 10
293.306102399505
 20
199.993916510056
 30
0.0
 40
3.0
  0
LINE
  5
387A
330
3817
100
AcDbEntity
  8
0
 62
     3
100
AcDbLine
 10
276.645562399505
 20
201.911308510056
 30
0.0
 11
279.602748399505
 21
202.987636510056
 31
0.0
  0
LINE
  5
387B
330
3817
100
AcDbEntity
  8
0
 62
     3
100
AcDbLine
 10
276.645562399505
 20
201.911308510056
 30
0.0
 11
279.602748399505
 21
202.987636510056
 31
0.0
  0
ARC
  5
387C
330
3817
100
AcDbEntity
  8
0
 62
     3
100
AcDbCircle
 10
281.251445399505
 20
204.119802510056
 30
0.0
 40
2.0
100
AcDbArc
 50
214.477512
 51
290.0
  0
ARC
  5
387D
330
3817
100
AcDbEntity
  8
0
 62
     3
100
AcDbCircle
 10
281.251445399505
 20
204.119802510056
 30
0.0
 40
2.0
100
AcDbArc
 50
214.477512
 51
290.0
  0
LINE
  5
387E
330
3817
100
AcDbEntity
  8
0
 62
     3
100
AcDbLine
 10
276.645562399505
 20
201.911308510056
 30
0.0
 11
271.173239399505
 21
216.946390510056
 31
0.0
  0
LINE
  5
387F
330
3817
100
AcDbEntity
  8
0
 62
     3
100
AcDbLine
 10
303.469985399505
 20
210.078333510056
 30
0.0
 11
281.935485399505
 21
202.240416510056
 31
0.0
  0
LINE
  5
3880
330
3817
100
AcDbEntity
  8
0
 62
     3
100
AcDbLine
 10
281.935485399505
 20
202.240416510056
 30
0.0
 11
303.469985399505
 21
210.078333510056
 31
0.0
  0
ARC
  5
3881
330
3817
100
AcDbEntity
  8
0
 62
     3
100
AcDbCircle
 10
285.533075399505
 20
191.311788510056
 30
0.0
 40
1.0
100
AcDbArc
 50
202.836483
 51
290.0
  0
LINE
  5
3882
330
3817
100
AcDbEntity
  8
0
 62
     3
100
AcDbLine
 10
284.611459399505
 20
190.923685510056
 30
0.0
 11
279.540708399505
 21
202.965056510056
 31
0.0
  0
LINE
  5
3883
330
3817
100
AcDbEntity
  8
0
 62
     3
100
AcDbLine
 10
241.800866399505
 20
189.228876510056
 30
0.0
 11
245.656489399505
 21
176.745236510056
 31
0.0
  0
LINE
  5
3884
330
3817
100
AcDbEntity
  8
0
 62
     3
100
AcDbLine
 10
245.656489399505
 20
176.745236510056
 30
0.0
 11
241.800866399505
 21
189.228876510056
 31
0.0
  0
LINE
  5
3885
330
3817
100
AcDbEntity
  8
0
 62
     3
100
AcDbLine
 10
245.656489399505
 20
176.745236510056
 30
0.0
 11
241.800866399505
 21
189.228876510056
 31
0.0
  0
LINE
  5
3886
330
3817
100
AcDbEntity
  8
0
 62
     3
100
AcDbLine
 10
245.043043399505
 20
175.510443510056
 30
0.0
 11
244.315985399505
 21
175.245816510056
 31
0.0
  0
LINE
  5
3887
330
3817
100
AcDbEntity
  8
0
 62
     3
100
AcDbLine
 10
244.315985399505
 20
175.245816510056
 30
0.0
 11
244.315985399505
 21
175.245816510056
 31
0.0
  0
ARC
  5
3888
330
3817
100
AcDbEntity
  8
0
 62
     3
100
AcDbCircle
 10
244.701023399505
 20
176.450136510056
 30
0.0
 40
1.0
100
AcDbArc
 50
290.0
 51
17.163517
  0
LINE
  5
3889
330
3817
100
AcDbEntity
  8
0
 62
     3
100
AcDbLine
 10
244.315985399505
 20
175.245816510056
 30
0.0
 11
245.043043399505
 21
175.510443510056
 31
0.0
  0
ARC
  5
388A
330
3817
100
AcDbEntity
  8
0
 62
     3
100
AcDbCircle
 10
244.701023399505
 20
176.450136510056
 30
0.0
 40
1.0
100
AcDbArc
 50
290.0
 51
17.163517
  0
LINE
  5
388B
330
3817
100
AcDbEntity
  8
0
 62
     3
100
AcDbLine
 10
244.315985399505
 20
175.245816510056
 30
0.0
 11
245.043043399505
 21
175.510443510056
 31
0.0
  0
ARC
  5
388C
330
3817
100
AcDbEntity
  8
0
 62
     3
100
AcDbCircle
 10
244.701023399505
 20
176.450136510056
 30
0.0
 40
1.0
100
AcDbArc
 50
290.0
 51
17.163517
  0
LINE
  5
388D
330
3817
100
AcDbEntity
  8
0
 62
     3
100
AcDbLine
 10
244.696013399505
 20
190.282623510056
 30
0.0
 11
241.800866399505
 21
189.228876510056
 31
0.0
  0
LINE
  5
388E
330
3817
100
AcDbEntity
  8
0
 62
     3
100
AcDbLine
 10
241.800866399505
 20
189.228876510056
 30
0.0
 11
244.696013399505
 21
190.282623510056
 31
0.0
  0
LINE
  5
388F
330
3817
100
AcDbEntity
  8
0
 62
     3
100
AcDbLine
 10
241.800866399505
 20
189.228876510056
 30
0.0
 11
244.696013399505
 21
190.282623510056
 31
0.0
  0
ARC
  5
3890
330
3817
100
AcDbEntity
  8
0
 62
     3
100
AcDbCircle
 10
257.425837399505
 20
175.559492510056
 30
0.0
 40
18.225891
100
AcDbArc
 50
76.447422
 51
143.552578
  0
LINE
  5
3891
330
3817
100
AcDbEntity
  8
0
 62
     3
100
AcDbLine
 10
261.696848399505
 20
193.277888510056
 30
0.0
 11
265.459069399505
 21
182.941269510056
 31
0.0
  0
LINE
  5
3892
330
3817
100
AcDbEntity
  8
0
 62
     3
100
AcDbLine
 10
239.223690399505
 20
205.317705510056
 30
0.0
 11
244.696013399505
 21
190.282623510056
 31
0.0
  0
LINE
  5
3893
330
3817
100
AcDbEntity
  8
0
 62
     3
100
AcDbLine
 10
241.800866399505
 20
189.228876510056
 30
0.0
 11
279.602748399505
 21
202.987636510056
 31
0.0
  0
ARC
  5
3894
330
3817
100
AcDbEntity
  8
0
 62
     3
100
AcDbCircle
 10
276.357797399505
 20
182.450162510056
 30
0.0
 40
18.225891
100
AcDbArc
 50
76.447422
 51
143.552578
  0
LINE
  5
3895
330
3817
100
AcDbEntity
  8
0
 62
     3
100
AcDbLine
 10
234.055381399505
 20
203.436595510056
 30
0.0
 11
276.341549399505
 21
218.827501510056
 31
0.0
  0
LINE
  5
3896
330
3817
100
AcDbEntity
  8
0
 62
     3
100
AcDbLine
 10
265.459069399505
 20
182.941269510056
 30
0.0
 11
321.840626399505
 21
203.462478510056
 31
0.0
  0
ARC
  5
3897
330
3817
100
AcDbEntity
  8
0
 62
     3
100
AcDbCircle
 10
-304.154026399505
 20
208.198948510056
 30
0.0
 40
2.0
210
0.0
220
0.0
230
-1.0
100
AcDbArc
 50
70.0
 51
160.0
  0
LINE
  5
3898
330
3817
100
AcDbEntity
  8
0
 62
     3
100
AcDbLine
 10
336.430042399505
 20
199.194991510056
 30
0.0
 11
377.071748399505
 21
213.987362510056
 31
0.0
  0
LINE
  5
3899
330
3817
100
AcDbEntity
  8
0
  6
Continuous
 62
     3
100
AcDbLine
 10
377.924399399505
 20
217.490235510056
 30
0.0
 11
338.927829399505
 21
203.296644510056
 31
0.0
  0
LINE
  5
389A
330
3817
100
AcDbEntity
  8
0
 62
     3
100
AcDbLine
 10
236.558367399505
 20
262.345296510056
 30
0.0
 11
258.547174399505
 21
270.348567510056
 31
0.0
  0
LINE
  5
389B
330
3817
100
AcDbEntity
  8
0
 62
     3
100
AcDbLine
 10
236.045337399505
 20
263.754835510056
 30
0.0
 11
265.363747399505
 21
274.425863510056
 31
0.0
  0
LINE
  5
389C
330
3817
100
AcDbEntity
  8
0
 62
     3
100
AcDbLine
 10
260.225144399505
 20
258.721253510056
 30
0.0
 11
256.291912399505
 21
269.527719510056
 31
0.0
  0
LINE
  5
389D
330
3817
100
AcDbEntity
  8
0
 62
     3
100
AcDbLine
 10
221.338471399505
 20
304.161617510056
 30
0.0
 11
219.177178399505
 21
303.374971510056
 31
0.0
  0
LINE
  5
389E
330
3817
100
AcDbEntity
  8
0
 62
     3
100
AcDbLine
 10
221.338471399505
 20
304.161617510056
 30
0.0
 11
223.499764399505
 21
304.948264510056
 31
0.0
  0
LINE
  5
389F
330
3817
100
AcDbEntity
  8
0
 62
     3
100
AcDbLine
 10
211.491430399505
 20
291.408448510056
 30
0.0
 11
210.403666399505
 21
300.181674510056
 31
0.0
  0
LINE
  5
38A0
330
3817
100
AcDbEntity
  8
0
 62
     3
100
AcDbLine
 10
210.403666399505
 20
300.181674510056
 30
0.0
 11
207.367940399505
 21
299.076760510056
 31
0.0
  0
LINE
  5
38A1
330
3817
100
AcDbEntity
  8
0
 62
     3
100
AcDbLine
 10
221.571319399505
 20
296.797123510056
 30
0.0
 11
212.797807399505
 21
293.603826510056
 31
0.0
  0
LINE
  5
38A2
330
3817
100
AcDbEntity
  8
0
 62
     3
100
AcDbLine
 10
218.944330399505
 20
310.739466510056
 30
0.0
 11
199.116815399505
 21
303.522841510056
 31
0.0
  0
LINE
  5
38A3
330
3817
100
AcDbEntity
  8
0
 62
     3
100
AcDbLine
 10
200.146327399505
 20
288.999063510056
 30
0.0
 11
200.052358399505
 21
288.964861510056
 31
0.0
  0
LINE
  5
38A4
330
3817
100
AcDbEntity
  8
0
 62
     3
100
AcDbLine
 10
232.517016399505
 20
266.724066510056
 30
0.0
 11
219.177178399505
 21
303.374971510056
 31
0.0
  0
LINE
  5
38A5
330
3817
100
AcDbEntity
  8
0
 62
     3
100
AcDbLine
 10
207.805772399505
 20
289.839492510056
 30
0.0
 11
207.367940399505
 21
299.076760510056
 31
0.0
  0
LINE
  5
38A6
330
3817
100
AcDbEntity
  8
0
 62
     3
100
AcDbLine
 10
207.715035399505
 20
291.753848510056
 30
0.0
 11
200.146327399505
 21
288.999063510056
 31
0.0
  0
ARC
  5
38A7
330
3817
100
AcDbEntity
  8
0
 62
     3
100
AcDbCircle
 10
199.120266399505
 20
291.818141510056
 30
0.0
 40
3.0
100
AcDbArc
 50
290.0
 51
20.0
  0
ARC
  5
38A8
330
3817
100
AcDbEntity
  8
0
 62
     3
100
AcDbCircle
 10
203.764281399505
 20
284.614044510056
 30
0.0
 40
8.0
100
AcDbArc
 50
154.762343
 51
200.0
  0
LINE
  5
38A9
330
3817
100
AcDbEntity
  8
0
 62
     3
100
AcDbLine
 10
201.939344399505
 20
292.844202510056
 30
0.0
 11
198.519143399505
 21
302.241128510056
 31
0.0
  0
LINE
  5
38AA
330
3817
100
AcDbEntity
  8
0
 62
     3
100
AcDbLine
 10
200.571264399505
 20
296.602972510056
 30
0.0
 11
196.527905399505
 21
288.025035510056
 31
0.0
  0
ARC
  5
38AB
330
3817
100
AcDbEntity
  8
0
 62
     3
100
AcDbCircle
 10
201.420438399505
 20
285.206091510056
 30
0.0
 40
4.0
100
AcDbArc
 50
110.0
 51
200.0
  0
ARC
  5
38AC
330
3817
100
AcDbEntity
  8
0
 62
     3
100
AcDbCircle
 10
199.458835399505
 20
302.583148510056
 30
0.0
 40
1.0
100
AcDbArc
 50
110.0
 51
200.0
  0
LINE
  5
38AD
330
3817
100
AcDbEntity
  8
0
 62
     3
100
AcDbLine
 10
220.758054399505
 20
244.356407510056
 30
0.0
 11
216.824822399505
 21
255.162873510056
 31
0.0
  0
LINE
  5
38AE
330
3817
100
AcDbEntity
  8
0
 62
     3
100
AcDbLine
 10
214.569560399505
 20
254.342024510056
 30
0.0
 11
214.056529399505
 21
255.751563510056
 31
0.0
  0
LINE
  5
38AF
330
3817
100
AcDbEntity
  8
0
 62
     3
100
AcDbLine
 10
223.915001399505
 20
229.542776510056
 30
0.0
 11
227.350406399505
 21
226.536450510056
 31
0.0
  0
LINE
  5
38B0
330
3817
100
AcDbEntity
  8
0
 62
     3
100
AcDbLine
 10
230.195739399505
 20
225.443711510056
 30
0.0
 11
225.268578399505
 21
238.980974510056
 31
0.0
  0
LINE
  5
38B1
330
3817
100
AcDbEntity
  8
0
 62
     7
100
AcDbLine
 10
225.477935399505
 20
239.057173510056
 30
0.0
 11
231.729552399505
 21
241.332576510056
 31
0.0
  0
LINE
  5
38B2
330
3817
100
AcDbEntity
  8
0
 62
     3
100
AcDbLine
 10
228.034446399505
 20
224.657064510056
 30
0.0
 11
227.350406399505
 21
226.536450510056
 31
0.0
  0
LINE
  5
38B3
330
3817
100
AcDbEntity
  8
0
 62
     3
100
AcDbLine
 10
220.758054399505
 20
244.356407510056
 30
0.0
 11
225.268578399505
 21
238.980974510056
 31
0.0
  0
LINE
  5
38B4
330
3817
100
AcDbEntity
  8
0
 62
     3
100
AcDbLine
 10
223.915001399505
 20
229.542776510056
 30
0.0
 11
218.784699399505
 21
243.638165510056
 31
0.0
  0
LINE
  5
38B5
330
3817
100
AcDbEntity
  8
0
 62
     3
100
AcDbLine
 10
232.773668399505
 20
204.034267510056
 30
0.0
 11
225.591245399505
 21
223.767812510056
 31
0.0
  0
LINE
  5
38B6
330
3817
100
AcDbEntity
  8
0
 62
     3
100
AcDbLine
 10
208.251824399505
 20
156.673942510056
 30
0.0
 11
199.127823399505
 21
150.285248510056
 31
0.0
  0
LINE
  5
38B7
330
3817
100
AcDbEntity
  8
0
 62
     3
100
AcDbLine
 10
199.127823399505
 20
150.285248510056
 30
0.0
 11
208.251824399505
 21
156.673942510056
 31
0.0
  0
LINE
  5
38B8
330
3817
100
AcDbEntity
  8
0
 62
     3
100
AcDbLine
 10
199.127823399505
 20
150.285248510056
 30
0.0
 11
208.251824399505
 21
156.673942510056
 31
0.0
  0
LINE
  5
38B9
330
3817
100
AcDbEntity
  8
0
 62
     3
100
AcDbLine
 10
215.185514399505
 20
164.643191510056
 30
0.0
 11
209.077512399505
 21
162.420061510056
 31
0.0
  0
LINE
  5
38BA
330
3817
100
AcDbEntity
  8
0
 62
     3
100
AcDbLine
 10
209.077512399505
 20
162.420061510056
 30
0.0
 11
215.185514399505
 21
164.643191510056
 31
0.0
  0
LINE
  5
38BB
330
3817
100
AcDbEntity
  8
0
 62
     3
100
AcDbLine
 10
209.077512399505
 20
162.420061510056
 30
0.0
 11
215.185514399505
 21
164.643191510056
 31
0.0
  0
ARC
  5
38BC
330
3817
100
AcDbEntity
  8
0
 62
     3
100
AcDbCircle
 10
207.678248399505
 20
157.493094510056
 30
0.0
 40
1.0
100
AcDbArc
 50
305.0
 51
20.0
  0
ARC
  5
38BD
330
3817
100
AcDbEntity
  8
0
 62
     3
100
AcDbCircle
 10
207.678248399505
 20
157.493094510056
 30
0.0
 40
1.0
100
AcDbArc
 50
305.0
 51
20.0
  0
ARC
  5
38BE
330
3817
100
AcDbEntity
  8
0
 62
     3
100
AcDbCircle
 10
207.678248399505
 20
157.493094510056
 30
0.0
 40
1.0
100
AcDbArc
 50
305.0
 51
20.0
  0
LINE
  5
38BF
330
3817
100
AcDbEntity
  8
0
 62
     3
100
AcDbLine
 10
209.077512399505
 20
162.420061510056
 30
0.0
 11
207.882167399505
 21
159.856635510056
 31
0.0
  0
LINE
  5
38C0
330
3817
100
AcDbEntity
  8
0
 62
     3
100
AcDbLine
 10
207.882167399505
 20
159.856635510056
 30
0.0
 11
208.617940399505
 21
157.835114510056
 31
0.0
  0
LINE
  5
38C1
330
3817
100
AcDbEntity
  8
0
 62
     3
100
AcDbLine
 10
208.617940399505
 20
157.835114510056
 30
0.0
 11
207.882167399505
 21
159.856635510056
 31
0.0
  0
LINE
  5
38C2
330
3817
100
AcDbEntity
  8
0
 62
     3
100
AcDbLine
 10
207.882167399505
 20
159.856635510056
 30
0.0
 11
209.077512399505
 21
162.420061510056
 31
0.0
  0
LINE
  5
38C3
330
3817
100
AcDbEntity
  8
0
 62
     3
100
AcDbLine
 10
208.617940399505
 20
157.835114510056
 30
0.0
 11
207.882167399505
 21
159.856635510056
 31
0.0
  0
LINE
  5
38C4
330
3817
100
AcDbEntity
  8
0
 62
     3
100
AcDbLine
 10
207.882167399505
 20
159.856635510056
 30
0.0
 11
209.077512399505
 21
162.420061510056
 31
0.0
  0
LINE
  5
38C5
330
3817
100
AcDbEntity
  8
0
 62
     3
100
AcDbLine
 10
215.185514399505
 20
164.643191510056
 30
0.0
 11
215.185514399505
 21
164.643191510056
 31
0.0
  0
LINE
  5
38C6
330
3817
100
AcDbEntity
  8
0
 62
     3
100
AcDbLine
 10
196.094551399505
 20
151.309583510056
 30
0.0
 11
197.376264399505
 21
150.711910510056
 31
0.0
  0
LINE
  5
38C7
330
3817
100
AcDbEntity
  8
0
 62
     3
100
AcDbLine
 10
198.188130399505
 20
149.943228510056
 30
0.0
 11
198.530150399505
 21
149.003535510056
 31
0.0
  0
LINE
  5
38C8
330
3817
100
AcDbEntity
  8
0
 62
     3
100
AcDbLine
 10
197.376264399505
 20
150.711910510056
 30
0.0
 11
198.060304399505
 21
148.832525510056
 31
0.0
  0
LINE
  5
38C9
330
3817
100
AcDbEntity
  8
0
 62
     3
100
AcDbLine
 10
199.127823399505
 20
150.285248510056
 30
0.0
 11
198.188130399505
 21
149.943228510056
 31
0.0
  0
ARC
  5
38CA
330
3817
100
AcDbEntity
  8
0
 62
     3
100
AcDbCircle
 10
158.124041399505
 20
134.296914510056
 30
0.0
 40
3.0
100
AcDbArc
 50
110.0
 51
198.747246
  0
LINE
  5
38CB
330
3817
100
AcDbEntity
  8
0
 62
     3
100
AcDbLine
 10
160.002753399505
 20
134.980709510056
 30
0.0
 11
156.911259399505
 21
128.535880510056
 31
0.0
  0
LINE
  5
38CC
330
3817
100
AcDbEntity
  8
0
 62
     3
100
AcDbLine
 10
155.283205399505
 20
133.332732510056
 30
0.0
 11
170.038972399505
 21
89.856776510056
 31
0.0
  0
LINE
  5
38CD
330
3817
100
AcDbEntity
  8
0
  6
Continuous
 62
     3
100
AcDbLine
 10
196.094551399505
 20
151.309583510056
 30
0.0
 11
157.097981399505
 21
137.115992510056
 31
0.0
  0
LINE
  5
38CE
330
3817
100
AcDbEntity
  8
0
 62
     3
100
AcDbLine
 10
160.002753399505
 20
134.980709510056
 30
0.0
 11
200.644459399505
 21
149.773080510056
 31
0.0
  0
LINE
  5
38CF
330
3817
100
AcDbEntity
  8
0
 62
     3
100
AcDbLine
 10
218.132297399505
 20
261.467597510056
 30
0.0
 11
207.805772399505
 21
289.839492510056
 31
0.0
  0
LINE
  5
38D0
330
3817
100
AcDbEntity
  8
0
 62
     3
100
AcDbLine
 10
221.889317399505
 20
262.840489510056
 30
0.0
 11
211.491430399505
 21
291.408448510056
 31
0.0
  0
LINE
  5
38D1
330
3817
100
AcDbEntity
  8
0
 62
     3
100
AcDbLine
 10
206.726927399505
 20
253.083806510056
 30
0.0
 11
196.246740399505
 21
281.877883510056
 31
0.0
  0
LINE
  5
38D2
330
3817
100
AcDbEntity
  8
0
 62
     3
100
AcDbLine
 10
207.251060399505
 20
257.491372510056
 30
0.0
 11
197.661668399505
 21
283.838010510056
 31
0.0
  0
LINE
  5
38D3
330
3817
100
AcDbEntity
  8
0
 62
     7
100
AcDbLine
 10
210.403666399505
 20
300.181674510056
 30
0.0
 11
223.747591399505
 21
263.519540510056
 31
0.0
  0
LINE
  5
38D4
330
3817
100
AcDbEntity
  8
0
 62
     3
100
AcDbLine
 10
153.659805399505
 20
60.307976510056
 30
0.0
 11
165.117480399505
 21
28.828273510056
 31
0.0
  0
LINE
  5
38D5
330
3817
100
AcDbEntity
  8
0
 62
     3
100
AcDbLine
 10
153.659805399505
 20
60.307976510056
 30
0.0
 11
170.038972399505
 21
89.856776510056
 31
0.0
  0
LINE
  5
38D6
330
3817
100
AcDbEntity
  8
0
 62
     3
100
AcDbLine
 10
165.117480399505
 20
28.828273510056
 30
0.0
 11
441.387110399505
 21
129.382196510056
 31
0.0
  0
LINE
  5
38D7
330
3817
100
AcDbEntity
  8
0
 62
     3
100
AcDbLine
 10
265.459069399505
 20
182.941269510056
 30
0.0
 11
215.185514399505
 21
164.643191510056
 31
0.0
  0
LINE
  5
38D8
330
3817
100
AcDbEntity
  8
0
 62
     3
100
AcDbLine
 10
429.929435399505
 20
160.861898510056
 30
0.0
 11
153.659805399505
 21
60.307976510056
 31
0.0
  0
LINE
  5
38D9
330
3817
100
AcDbEntity
  8
0
 62
     3
100
AcDbLine
 10
398.388663399505
 20
172.969267510056
 30
0.0
 11
170.038972399505
 21
89.856776510056
 31
0.0
  0
LINE
  5
38DA
330
3817
100
AcDbEntity
  8
0
 62
     7
100
AcDbLine
 10
207.882167399505
 20
159.856635510056
 30
0.0
 11
324.404052399505
 21
202.267133510056
 31
0.0
  0
LINE
  5
38DB
330
3817
100
AcDbEntity
  8
0
 62
     7
100
AcDbLine
 10
326.166674399505
 20
199.591438510056
 30
0.0
 11
208.251824399505
 21
156.673942510056
 31
0.0
  0
LINE
  5
38DC
330
3817
100
AcDbEntity
  8
0
 62
     7
100
AcDbLine
 10
338.202331399505
 20
200.904229510056
 30
0.0
 11
199.127823399505
 21
150.285248510056
 31
0.0
  0
LINE
  5
38DD
330
3817
100
AcDbEntity
  8
0
  6
Continuous
 62
     3
100
AcDbLine
 10
338.544351399505
 20
199.964536510056
 30
0.0
 11
198.530150399505
 21
149.003535510056
 31
0.0
  0
LINE
  5
38DE
330
3817
100
AcDbEntity
  8
0
 62
     3
100
AcDbLine
 10
236.838549399505
 20
268.300251510056
 30
0.0
 11
223.499764399505
 21
304.948264510056
 31
0.0
  0
LINE
  5
38DF
330
3817
100
AcDbEntity
  8
0
 62
     3
100
AcDbLine
 10
234.875531399505
 20
267.585915510056
 30
0.0
 11
205.570802399505
 21
256.877372510056
 31
0.0
  0
LINE
  5
38E0
330
3817
100
AcDbEntity
  8
0
 62
     3
100
AcDbLine
 10
236.045337399505
 20
263.754835510056
 30
0.0
 11
206.726927399505
 21
253.083806510056
 31
0.0
  0
LINE
  5
38E1
330
3817
100
AcDbEntity
  8
0
 62
     3
100
AcDbLine
 10
236.558367399505
 20
262.345296510056
 30
0.0
 11
214.569560399505
 21
254.342024510056
 31
0.0
  0
LINE
  5
38E2
330
3817
100
AcDbEntity
  8
0
 62
     3
100
AcDbLine
 10
240.491599399505
 20
251.538830510056
 30
0.0
 11
218.784699399505
 21
243.638165510056
 31
0.0
  0
LINE
  5
38E3
330
3817
100
AcDbEntity
  8
0
 62
     3
100
AcDbLine
 10
247.674022399505
 20
231.805285510056
 30
0.0
 11
225.591245399505
 21
223.767812510056
 31
0.0
  0
LINE
  5
38E4
330
3817
100
AcDbEntity
  8
0
 62
     3
100
AcDbLine
 10
235.829372399505
 20
233.879252510056
 30
0.0
 11
230.699070399505
 21
247.974642510056
 31
0.0
  0
LINE
  5
38E5
330
3817
100
AcDbEntity
  8
0
 62
     3
100
AcDbLine
 10
234.977530399505
 20
233.295866510056
 30
0.0
 11
229.759377399505
 21
247.632621510056
 31
0.0
  0
LINE
  5
38E6
330
3817
100
AcDbEntity
  8
0
 62
     3
100
AcDbLine
 10
232.672425399505
 20
248.692884510056
 30
0.0
 11
235.738402399505
 21
242.791678510056
 31
0.0
  0
LINE
  5
38E7
330
3817
100
AcDbEntity
  8
0
 62
     3
100
AcDbLine
 10
218.944330399505
 20
310.739466510056
 30
0.0
 11
238.771844399505
 21
317.956091510056
 31
0.0
  0
LINE
  5
38E8
330
3817
100
AcDbEntity
  8
0
 62
     3
100
AcDbLine
 10
234.667416399505
 20
301.563712510056
 30
0.0
 11
225.893905399505
 21
298.370415510056
 31
0.0
  0
LINE
  5
38E9
330
3817
100
AcDbEntity
  8
0
 62
     7
100
AcDbLine
 10
232.273275399505
 20
308.141561510056
 30
0.0
 11
245.612061399505
 21
271.493548510056
 31
0.0
  0
LINE
  5
38EA
330
3817
100
AcDbEntity
  8
0
 62
     3
100
AcDbLine
 10
237.079321399505
 20
300.721678510056
 30
0.0
 11
232.273275399505
 21
308.141561510056
 31
0.0
  0
LINE
  5
38EB
330
3817
100
AcDbEntity
  8
0
 62
     3
100
AcDbLine
 10
232.273275399505
 20
308.141561510056
 30
0.0
 11
235.309001399505
 21
309.246474510056
 31
0.0
  0
ARC
  5
38EC
330
3817
100
AcDbEntity
  8
0
 62
     3
100
AcDbCircle
 10
233.713361399505
 20
204.376287510056
 30
0.0
 40
1.0
100
AcDbArc
 50
200.0
 51
290.0
  0
LINE
  5
38ED
330
3817
100
AcDbEntity
  8
0
 62
     3
100
AcDbLine
 10
203.909248399505
 20
305.267143510056
 30
0.0
 11
116.858597399505
 21
544.436840510056
 31
0.0
  0
LINE
  5
38EE
330
3817
100
AcDbEntity
  8
0
 62
     1
100
AcDbLine
 10
0.000002399505
 20
912.284061510056
 30
0.0
 11
332.044246399505
 21
-0.000000489944
 31
0.0
  0
LINE
  5
38EF
330
3817
100
AcDbEntity
  8
0
 62
     3
100
AcDbLine
 10
150.912286399505
 20
544.436840510056
 30
0.0
 11
233.979412399505
 21
316.211788510056
 31
0.0
  0
ENDBLK
  5
38F2
330
3817
100
AcDbEntity
  8
0
 48
10.0
100
AcDbBlockEnd
  0
BLOCK
  5
3905
330
38FB
100
AcDbEntity
  8
0
 48
10.0
100
AcDbBlockBegin
  2
*D7
 70
     1
 10
0.0
 20
0.0
 30
0.0
  3
*D7
  1
*D7
  0
LINE
  5
3AB7
330
38FB
100
AcDbEntity
  8
寸法線
 62
     0
 48
10.0
370
    -2
100
AcDbLine
 10
454.892141398025
 20
355.461466737673
 30
0.0
 11
627.030039571169
 21
418.114534208967
 31
0.0
  0
LINE
  5
3AB8
330
38FB
100
AcDbEntity
  8
寸法線
 62
     0
 48
10.0
370
    -2
100
AcDbLine
 10
166.412871449632
 20
1148.051793112213
 30
0.0
 11
338.550769622775
 21
1210.704860583507
 31
0.0
  0
LINE
  5
3AB9
330
38FB
100
AcDbEntity
  8
寸法線
 62
     0
 48
10.0
370
    -2
100
AcDbLine
 10
621.409162152849
 20
429.903013205353
 30
0.0
 11
341.822415473108
 21
1198.061331272828
 31
0.0
  0
INSERT
  5
3ABA
330
38FB
100
AcDbEntity
  8
寸法線
 62
     0
 48
10.0
370
    -2
100
AcDbBlockReference
  2
_Open30
 10
625.855423787176
 20
417.687009051821
 30
0.0
 41
13.0
 42
13.0
 43
13.0
 50
289.999998926375
  0
INSERT
  5
3ABB
330
38FB
100
AcDbEntity
  8
寸法線
 62
     0
 48
10.0
370
    -2
100
AcDbBlockReference
  2
_Open30
 10
337.376153838782
 20
1210.27733542636
 30
0.0
 41
13.0
 42
13.0
 43
13.0
 50
109.999998926375
  0
MTEXT
  5
3ABC
330
38FB
100
AcDbEntity
  8
寸法線
 62
     0
 48
10.0
100
AcDbMText
 10
488.780945095339
 20
816.590075697686
 30
0.0
 40
14.0
 41
0.0
 71
     5
 72
     1
  1
\A1;845
 11
0.3420201257174305
 21
-0.939692627194783
 31
0.0
 73
     1
 44
1.0
  0
POINT
  5
3ABD
330
38FB
100
AcDbEntity
  8
DEFPOINTS
 62
     0
 48
10.0
100
AcDbPoint
 10
454.304833506029
 20
355.247704159099
 30
0.0
  0
POINT
  5
3ABE
330
38FB
100
AcDbEntity
  8
DEFPOINTS
 62
     0
 48
10.0
100
AcDbPoint
 10
165.825563557635
 20
1147.838030533639
 30
0.0
  0
POINT
  5
3ABF
330
38FB
100
AcDbEntity
  8
DEFPOINTS
 62
     0
 48
10.0
100
AcDbPoint
 10
337.376153838782
 20
1210.27733542636
 30
0.0
  0
ENDBLK
  5
3906
330
38FB
100
AcDbEntity
  8
0
 48
10.0
100
AcDbBlockEnd
  0
BLOCK
  5
3A20
330
3A16
100
AcDbEntity
  8
0
 48
10.0
100
AcDbBlockBegin
  2
*D8
 70
     1
 10
0.0
 20
0.0
 30
0.0
  3
*D8
  1
*D8
  0
LINE
  5
3FE7
330
3A16
100
AcDbEntity
  8
寸法線
 62
     0
 48
10.0
370
    -2
100
AcDbLine
 10
155.110185246376
 20
1143.937952010613
 30
0.0
 11
268.840162560822
 21
1185.332276816788
 31
0.0
  0
LINE
  5
3FE8
330
3A16
100
AcDbEntity
  8
寸法線
 62
     0
 48
10.0
370
    -2
100
AcDbLine
 10
202.993003595904
 20
1012.38098447599
 30
0.0
 11
316.72298091035
 21
1053.775309282164
 31
0.0
  0
LINE
  5
3FE9
330
3A16
100
AcDbEntity
  8
寸法線
 62
     0
 48
10.0
370
    -2
100
AcDbLine
 10
272.111808483147
 20
1172.688747524738
 30
0.0
 11
311.102103424906
 21
1065.563788246544
 31
0.0
  0
INSERT
  5
3FEA
330
3A16
100
AcDbEntity
  8
寸法線
 62
     0
 48
10.0
370
    -2
100
AcDbBlockReference
  2
_Open30
 10
267.665546779262
 20
1184.904751652953
 30
0.0
 41
13.0
 42
13.0
 43
13.0
 50
109.999999252618
  0
INSERT
  5
3FEB
330
3A16
100
AcDbEntity
  8
寸法線
 62
     0
 48
10.0
370
    -2
100
AcDbBlockReference
  2
_Open30
 10
315.548365128791
 20
1053.347784118329
 30
0.0
 41
13.0
 42
13.0
 43
13.0
 50
289.999999252618
  0
MTEXT
  5
3FEC
330
3A16
100
AcDbEntity
  8
寸法線
 62
     0
 48
10.0
100
AcDbMText
 10
298.772112221537
 20
1121.734171385035
 30
0.0
 40
14.0
 41
0.0
 71
     5
 72
     1
  1
\A1;140
 11
0.3420201310680586
 21
-0.9396926252473136
 31
0.0
 73
     1
 44
1.0
  0
POINT
  5
3FED
330
3A16
100
AcDbEntity
  8
DEFPOINTS
 62
     0
 48
10.0
100
AcDbPoint
 10
154.522877355596
 20
1143.724189428696
 30
0.0
  0
POINT
  5
3FEE
330
3A16
100
AcDbEntity
  8
DEFPOINTS
 62
     0
 48
10.0
100
AcDbPoint
 10
202.405695705124
 20
1012.167221894072
 30
0.0
  0
POINT
  5
3FEF
330
3A16
100
AcDbEntity
  8
DEFPOINTS
 62
     0
 48
10.0
100
AcDbPoint
 10
315.548365128791
 20
1053.347784118329
 30
0.0
  0
ENDBLK
  5
3A21
330
3A16
100
AcDbEntity
  8
0
 48
10.0
100
AcDbBlockEnd
  0
BLOCK
  5
3A49
330
3A3F
100
AcDbEntity
  8
0
 48
10.0
100
AcDbBlockBegin
  2
*D9
 70
     1
 10
0.0
 20
0.0
 30
0.0
  3
*D9
  1
*D9
  0
LINE
  5
3A98
330
3A3F
100
AcDbEntity
  8
寸法線
 62
     0
 48
10.0
370
    -2
100
AcDbLine
 10
439.235952026589
 20
467.354724018275
 30
0.0
 11
545.183276942679
 21
505.916396687861
 31
0.0
  0
LINE
  5
3A99
330
3A3F
100
AcDbEntity
  8
寸法線
 62
     0
 48
10.0
370
    -2
100
AcDbLine
 10
477.029178118796
 20
363.518688721592
 30
0.0
 11
582.976503034886
 21
402.080361391179
 31
0.0
  0
LINE
  5
3A9A
330
3A3F
100
AcDbEntity
  8
寸法線
 62
     0
 48
10.0
370
    -2
100
AcDbLine
 10
548.45492302993
 20
493.272867438487
 30
0.0
 11
577.35562539567
 21
413.868840282238
 31
0.0
  0
INSERT
  5
3A9B
330
3A3F
100
AcDbEntity
  8
寸法線
 62
     0
 48
10.0
370
    -2
100
AcDbBlockReference
  2
_Open30
 10
544.008661166696
 20
505.488871508704
 30
0.0
 41
13.0
 42
13.0
 43
13.0
 50
110.0
  0
INSERT
  5
3A9C
330
3A3F
100
AcDbEntity
  8
寸法線
 62
     0
 48
10.0
370
    -2
100
AcDbBlockReference
  2
_Open30
 10
581.801887258903
 20
401.652836212021
 30
0.0
 41
13.0
 42
13.0
 43
13.0
 50
290.0
  0
MTEXT
  5
3A9D
330
3A3F
100
AcDbEntity
  8
寸法線
 62
     0
 48
10.0
100
AcDbMText
 10
570.070430446292
 20
456.178757453221
 30
0.0
 40
14.0
 41
0.0
 71
     5
 72
     1
  1
\A1;110
 11
0.3420201433256684
 21
-0.9396926207859085
 31
0.0
 73
     1
 44
1.0
  0
POINT
  5
3A9E
330
3A3F
100
AcDbEntity
  8
DEFPOINTS
 62
     0
 48
10.0
100
AcDbPoint
 10
438.648644138598
 20
467.140961428696
 30
0.0
  0
POINT
  5
3A9F
330
3A3F
100
AcDbEntity
  8
DEFPOINTS
 62
     0
 48
10.0
100
AcDbPoint
 10
476.441870230805
 20
363.304926132014
 30
0.0
  0
POINT
  5
3AA0
330
3A3F
100
AcDbEntity
  8
DEFPOINTS
 62
     0
 48
10.0
100
AcDbPoint
 10
581.801887258903
 20
401.652836212021
 30
0.0
  0
ENDBLK
  5
3A4A
330
3A3F
100
AcDbEntity
  8
0
 48
10.0
100
AcDbBlockEnd
  0
BLOCK
  5
3A5F
330
3A55
100
AcDbEntity
  8
0
 48
10.0
100
AcDbBlockBegin
  2
*D10
 70
     1
 10
0.0
 20
0.0
 30
0.0
  3
*D10
  1
*D10
  0
LINE
  5
3FF9
330
3A55
100
AcDbEntity
  8
寸法線
 62
     0
 48
10.0
370
    -2
100
AcDbLine
 10
336.339650171726
 20
574.631709879001
 30
0.0
 11
473.01147505421
 21
624.376184072694
 31
0.0
  0
LINE
  5
3FFA
330
3A55
100
AcDbEntity
  8
寸法線
 62
     0
 48
10.0
370
    -2
100
AcDbLine
 10
180.051156266961
 20
1004.030834431563
 30
0.0
 11
316.722981149445
 21
1053.775308625256
 31
0.0
  0
LINE
  5
3FFB
330
3A55
100
AcDbEntity
  8
寸法線
 62
     0
 48
10.0
370
    -2
100
AcDbLine
 10
467.390597561715
 20
636.164663033712
 30
0.0
 11
319.994627079333
 21
1041.131779335162
 31
0.0
  0
INSERT
  5
3FFC
330
3A55
100
AcDbEntity
  8
寸法線
 62
     0
370
    -2
100
AcDbBlockReference
  2
_Open30
 10
471.836859272907
 20
623.948658908156
 30
0.0
 41
13.0
 42
13.0
 43
13.0
 50
289.999999286891
  0
INSERT
  5
3FFD
330
3A55
100
AcDbEntity
  8
寸法線
 62
     0
370
    -2
100
AcDbBlockReference
  2
_Open30
 10
315.548365368141
 20
1053.347783460718
 30
0.0
 41
13.0
 42
13.0
 43
13.0
 50
109.999999286891
  0
MTEXT
  5
3FFE
330
3A55
100
AcDbEntity
  8
寸法線
 62
     0
 48
10.0
100
AcDbMText
 10
402.5022306803
 20
841.85465991847
 30
0.0
 40
14.0
 41
0.0
 71
     5
 72
     1
  1
\A1;460（Movable range 380）
 11
0.3420201316301612
 21
-0.9396926250427251
 31
0.0
 73
     1
 44
1.0
  0
POINT
  5
3FFF
330
3A55
100
AcDbEntity
  8
DEFPOINTS
 62
     0
100
AcDbPoint
 10
335.752342281075
 20
574.417947296732
 30
0.0
  0
POINT
  5
4000
330
3A55
100
AcDbEntity
  8
DEFPOINTS
 62
     0
100
AcDbPoint
 10
179.463848376309
 20
1003.817071849294
 30
0.0
  0
POINT
  5
4001
330
3A55
100
AcDbEntity
  8
DEFPOINTS
 62
     0
100
AcDbPoint
 10
315.548365368141
 20
1053.347783460718
 30
0.0
  0
ENDBLK
  5
3A60
330
3A55
100
AcDbEntity
  8
0
 48
10.0
100
AcDbBlockEnd
  0
BLOCK
  5
4011
330
4007
100
AcDbEntity
  8
0
 48
10.0
100
AcDbBlockBegin
  2
*D11
 70
     1
 10
0.0
 20
0.0
 30
0.0
  3
*D11
  1
*D11
  0
LINE
  5
4013
330
4007
100
AcDbEntity
  8
寸法線
 62
     0
 48
10.0
370
    -2
100
AcDbLine
 10
93.3822552092
 20
1093.403134196644
 30
0.0
 11
65.441492150261
 21
1170.16977579889
 31
0.0
  0
LINE
  5
4014
330
4007
100
AcDbEntity
  8
寸法線
 62
     0
 48
10.0
370
    -2
100
AcDbLine
 10
187.821367462832
 20
1127.776148358802
 30
0.0
 11
159.880604403893
 21
1204.542789961048
 31
0.0
  0
LINE
  5
4015
330
4007
100
AcDbEntity
  8
寸法線
 62
     0
 48
10.0
370
    -2
100
AcDbLine
 10
78.085021755973
 20
1173.441420509043
 30
0.0
 11
148.092124900623
 21
1198.921913605801
 31
0.0
  0
INSERT
  5
4016
330
4007
100
AcDbEntity
  8
寸法線
 62
     0
 48
10.0
370
    -2
100
AcDbBlockReference
  2
_Open30
 10
65.869017201482
 20
1168.995159976343
 30
0.0
 41
13.0
 42
13.0
 43
13.0
 50
199.999993759499
  0
INSERT
  5
4017
330
4007
100
AcDbEntity
  8
寸法線
 62
     0
 48
10.0
370
    -2
100
AcDbBlockReference
  2
_Open30
 10
160.308129455114
 20
1203.368174138501
 30
0.0
 41
13.0
 42
13.0
 43
13.0
 50
19.999993759499
  0
MTEXT
  5
4018
330
4007
100
AcDbEntity
  8
寸法線
 62
     0
 48
10.0
100
AcDbMText
 10
110.480670515849
 20
1193.34682357496
 30
0.0
 40
14.0
 41
0.0
 71
     5
 72
     1
  1
\A1;φ100
 11
0.9396926580378081
 21
0.3420200409768986
 31
0.0
 73
     1
 44
1.0
  0
POINT
  5
4019
330
4007
100
AcDbEntity
  8
DEFPOINTS
 62
     0
 48
10.0
100
AcDbPoint
 10
93.59601773481
 20
1092.81582628537
 30
0.0
  0
POINT
  5
401A
330
4007
100
AcDbEntity
  8
DEFPOINTS
 62
     0
 48
10.0
100
AcDbPoint
 10
188.035129988443
 20
1127.188840447528
 30
0.0
  0
POINT
  5
401B
330
4007
100
AcDbEntity
  8
DEFPOINTS
 62
     0
 48
10.0
100
AcDbPoint
 10
160.308129455114
 20
1203.368174138501
 30
0.0
  0
ENDBLK
  5
4012
330
4007
100
AcDbEntity
  8
0
 48
10.0
100
AcDbBlockEnd
  0
ENDSEC
  0
SECTION
  2
ENTITIES
  0
LINE
  5
2D94
330
1A
100
AcDbEntity
  8
中心線
 48
10.0
100
AcDbLine
 10
116.808020355596
 20
1175.962544428696
 30
0.0
 11
433.639809632094
 21
305.474358155748
 31
0.0
  0
LINE
  5
2D99
330
1A
100
AcDbEntity
  8
外形線
100
AcDbLine
 10
249.722056355596
 20
808.115323428696
 30
0.0
 11
315.848674355596
 21
808.115323428696
 31
0.0
  0
LINE
  5
2D9A
330
1A
100
AcDbEntity
  8
外形線
100
AcDbLine
 10
165.848674355596
 20
829.615323428696
 30
0.0
 11
315.848674355596
 21
829.615323428696
 31
0.0
  0
ARC
  5
2D9D
330
1A
100
AcDbEntity
  8
外形線
100
AcDbCircle
 10
138.763451355596
 20
1115.640494428696
 30
0.0
 40
5.0
100
AcDbArc
 50
290.000000000003
 51
20.0
  0
LINE
  5
2DA0
330
1A
100
AcDbEntity
  8
外形線
100
AcDbLine
 10
134.064987355596
 20
1113.930393428696
 30
0.0
 11
127.224585355596
 21
1132.724245428696
 31
0.0
  0
LINE
  5
2DA1
330
1A
100
AcDbEntity
  8
外形線
100
AcDbLine
 10
186.753413355596
 20
1127.786523428696
 30
0.0
 11
140.473551355596
 21
1110.942031428696
 31
0.0
  0
ARC
  5
2DA3
330
1A
100
AcDbEntity
  8
細線
100
AcDbCircle
 10
94.181610355596
 20
1116.440875428696
 30
0.0
 40
2.0
100
AcDbArc
 50
110.000000000003
 51
200.0
  0
ARC
  5
2DA4
330
1A
100
AcDbEntity
  8
外形線
100
AcDbCircle
 10
91.800237355596
 20
1116.389020428696
 30
0.0
 40
4.234383
100
AcDbArc
 50
109.547582000004
 51
193.986654
  0
LINE
  5
2DA5
330
1A
100
AcDbEntity
  8
細線
100
AcDbLine
 10
112.543666355596
 20
1106.097273428696
 30
0.0
 11
106.900334355596
 21
1121.602201428696
 31
0.0
  0
LINE
  5
2DA6
330
1A
100
AcDbEntity
  8
外形線
100
AcDbLine
 10
112.030904355596
 20
1105.910643428696
 30
0.0
 11
105.874542355596
 21
1122.825110428696
 31
0.0
  0
LINE
  5
2DA7
330
1A
100
AcDbEntity
  8
外形線
100
AcDbLine
 10
120.168881355596
 20
1108.872624428696
 30
0.0
 11
113.328478355596
 21
1127.666476428696
 31
0.0
  0
LINE
  5
2DA8
330
1A
100
AcDbEntity
  8
外形線
100
AcDbLine
 10
102.550796355596
 20
1102.460165428696
 30
0.0
 11
96.394434355596
 21
1119.374632428696
 31
0.0
  0
LINE
  5
2DA9
330
1A
100
AcDbEntity
  8
外形線
100
AcDbLine
 10
97.033890355596
 20
1100.452176428696
 30
0.0
 11
90.877528355596
 21
1117.366643428696
 31
0.0
  0
LINE
  5
2DAA
330
1A
100
AcDbEntity
  8
外形線
100
AcDbLine
 10
189.916236355596
 20
1122.020541428696
 30
0.0
 11
95.477128355596
 21
1087.647516428696
 31
0.0
  0
LINE
  5
2DAB
330
1A
100
AcDbEntity
  8
外形線
100
AcDbLine
 10
248.631858355596
 20
857.891487428696
 30
0.0
 11
193.641159190977
 21
1008.977190778342
 31
0.0
  0
LINE
  5
2DAC
330
1A
100
AcDbEntity
  8
外形線
100
AcDbLine
 10
218.500372355596
 20
847.115323428696
 30
0.0
 11
163.570995250631
 21
998.032546608756
 31
0.0
  0
LINE
  5
2DAE
330
1A
100
AcDbEntity
  8
外形線
100
AcDbLine
 10
165.848674355596
 20
808.115323428696
 30
0.0
 11
165.848674355596
 21
829.615323428696
 31
0.0
  0
LINE
  5
2DAF
330
1A
100
AcDbEntity
  8
外形線
100
AcDbLine
 10
249.848674355596
 20
808.115323428696
 30
0.0
 11
249.848674355596
 21
829.615323428696
 31
0.0
  0
LINE
  5
2DB0
330
1A
100
AcDbEntity
  8
外形線
100
AcDbLine
 10
231.848674355596
 20
808.115323428696
 30
0.0
 11
231.848674355596
 21
829.615323428696
 31
0.0
  0
LINE
  5
2DB1
330
1A
100
AcDbEntity
  8
外形線
100
AcDbLine
 10
234.848674355596
 20
808.115323428696
 30
0.0
 11
234.848674355596
 21
829.615323428696
 31
0.0
  0
LINE
  5
2DB2
330
1A
100
AcDbEntity
  8
外形線
100
AcDbLine
 10
246.848674355596
 20
808.115323428696
 30
0.0
 11
246.848674355596
 21
829.615323428696
 31
0.0
  0
LINE
  5
2DB3
330
1A
100
AcDbEntity
  8
外形線
100
AcDbLine
 10
257.848674355596
 20
808.115323428696
 30
0.0
 11
257.848674355596
 21
829.615323428696
 31
0.0
  0
LINE
  5
2DB4
330
1A
100
AcDbEntity
  8
外形線
100
AcDbLine
 10
223.848674355596
 20
808.115323428696
 30
0.0
 11
223.848674355596
 21
829.615323428696
 31
0.0
  0
LINE
  5
2DB5
330
1A
100
AcDbEntity
  8
外形線
100
AcDbLine
 10
168.567052355596
 20
808.115323428696
 30
0.0
 11
168.567052355596
 21
829.615323428696
 31
0.0
  0
LINE
  5
2DB6
330
1A
100
AcDbEntity
  8
外形線
100
AcDbLine
 10
249.722056355596
 20
808.115323428696
 30
0.0
 11
165.848674355596
 21
808.115323428696
 31
0.0
  0
LINE
  5
2DB7
330
1A
100
AcDbEntity
  8
外形線
100
AcDbLine
 10
212.688030355596
 20
847.115323428696
 30
0.0
 11
240.848674355596
 21
847.115323428696
 31
0.0
  0
LINE
  5
2DB8
330
1A
100
AcDbEntity
  8
外形線
100
AcDbLine
 10
219.024591355596
 20
847.115323428696
 30
0.0
 11
249.884502355596
 21
858.347412428696
 31
0.0
  0
ARC
  5
2DB9
330
1A
100
AcDbEntity
  8
外形線
100
AcDbCircle
 10
212.688030355596
 20
844.115323428696
 30
0.0
 40
3.0
100
AcDbArc
 50
90.0
 51
160.116751
  0
ARC
  5
2DBA
330
1A
100
AcDbEntity
  8
外形線
100
AcDbCircle
 10
200.764148355596
 20
834.615323428696
 30
0.0
 40
5.0
100
AcDbArc
 50
270.0
 51
344.969569
  0
LINE
  5
2DBB
330
1A
100
AcDbEntity
  8
外形線
100
AcDbLine
 10
209.866867355596
 20
845.135637428696
 30
0.0
 11
205.593090355596
 21
833.318663428696
 31
0.0
  0
ARC
  5
2DBC
330
1A
100
AcDbEntity
  8
外形線
100
AcDbCircle
 10
240.916665355596
 20
832.615323428696
 30
0.0
 40
27.25
100
AcDbArc
 50
32.148135999999
 51
70.786149000002
  0
LINE
  5
2DBD
330
1A
100
AcDbEntity
  8
外形線
100
AcDbLine
 10
240.848674355596
 20
847.115323428696
 30
0.0
 11
269.009318355596
 21
847.115323428696
 31
0.0
  0
POLYLINE
  5
2DBE
330
1A
100
AcDbEntity
  8
0
 62
     7
100
AcDb3dPolyline
 66
     1
 10
0.0
 20
0.0
 30
0.0
 70
     8
  0
VERTEX
  5
2DBF
330
2DBE
100
AcDbEntity
  8
0
 62
     7
100
AcDbVertex
100
AcDb3dPolylineVertex
 10
228.848674355596
 20
829.615323428696
 30
0.0
 70
    32
  0
VERTEX
  5
2DC0
330
2DBE
100
AcDbEntity
  8
0
 62
     7
100
AcDbVertex
100
AcDb3dPolylineVertex
 10
252.848674355596
 20
829.615323428696
 30
0.0
 70
    32
  0
SEQEND
  5
2DC1
330
2DBE
100
AcDbEntity
  8
0
 62
     7
  0
ARC
  5
2DC2
330
1A
100
AcDbEntity
  8
外形線
100
AcDbCircle
 10
269.009318355596
 20
844.115323428696
 30
0.0
 40
3.0
100
AcDbArc
 50
19.883249
 51
90.0
  0
LINE
  5
2DC3
330
1A
100
AcDbEntity
  8
外形線
100
AcDbLine
 10
271.830481355596
 20
845.135637428696
 30
0.0
 11
276.104259355596
 21
833.318663428696
 31
0.0
  0
ARC
  5
2DC4
330
1A
100
AcDbEntity
  8
外形線
100
AcDbCircle
 10
280.933200355596
 20
834.615323428696
 30
0.0
 40
5.0
100
AcDbArc
 50
195.030431
 51
270.0
  0
LWPOLYLINE
  5
2E0A
330
1A
100
AcDbEntity
  8
細線
100
AcDbPolyline
 90
        8
 70
   128
 43
0.0
 10
112.543666355596
 20
1106.097273428696
 10
112.939714355596
 20
1105.224788428696
 10
113.460887355596
 20
1104.432479428696
 10
114.089429355596
 20
1103.747335428696
 10
114.803929355596
 20
1103.192698428696
 10
115.580046355596
 20
1102.787462428696
 10
116.391340355596
 20
1102.545432428696
 10
117.210174355596
 20
1102.474854428696
  0
LWPOLYLINE
  5
2E0B
330
1A
100
AcDbEntity
  8
外形線
100
AcDbPolyline
 90
       18
 70
   128
 43
0.0
 10
112.030904355596
 20
1105.910643428696
 10
112.414695355596
 20
1105.071755428696
 10
112.923980355596
 20
1104.311869428696
 10
113.541417355596
 20
1103.656860428696
 10
114.245980355596
 20
1103.129035428696
 10
115.013676355596
 20
1102.746367428696
 10
115.818362355596
 20
1102.521888428696
 10
116.632634355596
 20
1102.463243428696
 10
117.428765355596
 20
1102.572427428696
 10
118.179643355596
 20
1102.845725428696
 10
118.859697355596
 20
1103.273827428696
 10
119.445770355596
 20
1103.842157428696
 10
119.917903355596
 20
1104.531360428696
 10
120.260018355596
 20
1105.317965428696
 10
120.460464355596
 20
1106.175188428696
 10
120.512417355596
 20
1107.073834428696
 10
120.414107355596
 20
1107.983303428696
 10
120.168881355596
 20
1108.872624428696
  0
LINE
  5
2E0F
330
1A
100
AcDbEntity
  8
外形線
100
AcDbLine
 10
94.193690355596
 20
1094.097538428696
 30
0.0
 11
140.473551355596
 21
1110.942031428696
 31
0.0
  0
LINE
  5
2E12
330
1A
100
AcDbEntity
  8
外形線
100
AcDbLine
 10
95.477128355596
 20
1087.647516428696
 30
0.0
 11
93.596017355596
 21
1092.815826428696
 31
0.0
  0
LINE
  5
2E14
330
1A
100
AcDbEntity
  8
細線
100
AcDbLine
 10
97.774547355596
 20
1100.721753428696
 30
0.0
 11
92.302225355596
 21
1115.756835428696
 31
0.0
  0
ARC
  5
2E15
330
1A
100
AcDbEntity
  8
外形線
100
AcDbCircle
 10
94.535710355596
 20
1093.157846428696
 30
0.0
 40
1.0
100
AcDbArc
 50
110.000000000003
 51
200.0
  0
LINE
  5
2E16
330
1A
100
AcDbEntity
  8
外形線
100
AcDbLine
 10
94.193690355596
 20
1094.097538428696
 30
0.0
 11
87.691395355596
 21
1115.365587428696
 31
0.0
  0
LWPOLYLINE
  5
2E17
330
1A
100
AcDbEntity
  8
細線
100
AcDbPolyline
 90
        8
 70
   128
 43
0.0
 10
97.774547355596
 20
1100.721753428696
 10
98.159999355596
 20
1099.826529428696
 10
98.636024355596
 20
1099.003794428696
 10
99.184454355596
 20
1098.284953428696
 10
99.784355355596
 20
1097.697441428696
 10
100.412831355596
 20
1097.263682428696
 10
101.045894355596
 20
1097.000234428696
 10
101.659381355596
 20
1096.917151428696
  0
LWPOLYLINE
  5
2E18
330
1A
100
AcDbEntity
  8
外形線
100
AcDbPolyline
 90
       18
 70
   128
 43
0.0
 10
97.033890355596
 20
1100.452176428696
 10
97.395380355596
 20
1099.605128428696
 10
97.838496355596
 20
1098.821116428696
 10
98.348148355596
 20
1098.126837428696
 10
98.906980355596
 20
1097.545935428696
 10
99.495962355596
 20
1097.098191428696
 10
100.095037355596
 20
1096.798852428696
 10
100.683804355596
 20
1096.658114428696
 10
101.242213355596
 20
1096.680767428696
 10
101.751249355596
 20
1096.866041428696
 10
102.193577355596
 20
1097.207626428696
 10
102.554133355596
 20
1097.693890428696
 10
102.820640355596
 20
1098.308275428696
 10
102.984022355596
 20
1099.029857428696
 10
103.038716355596
 20
1099.834064428696
 10
102.982858355596
 20
1100.693510428696
 10
102.818350355596
 20
1101.578928428696
 10
102.550796355596
 20
1102.460165428696
  0
ARC
  5
2E1D
330
1A
100
AcDbEntity
  8
外形線
100
AcDbCircle
 10
138.763451355596
 20
1115.640494428696
 30
0.0
 40
5.0
100
AcDbArc
 50
200.0
 51
290.000000000003
  0
LINE
  5
2EAC
330
1A
100
AcDbEntity
  8
外形線
100
AcDbLine
 10
149.235904355596
 20
1141.799888428696
 30
0.0
 11
137.219183355596
 21
1137.426160428696
 31
0.0
  0
ARC
  5
2EAD
330
1A
100
AcDbEntity
  8
外形線
100
AcDbCircle
 10
114.268171355596
 20
1128.008496428696
 30
0.0
 40
1.0
100
AcDbArc
 50
110.000000000003
 51
200.0
  0
LINE
  5
2EAE
330
1A
100
AcDbEntity
  8
細線
100
AcDbLine
 10
107.796843355596
 20
1123.524770428696
 30
0.0
 11
114.012519355596
 21
1125.787091428696
 31
0.0
  0
ARC
  5
2EAF
330
1A
100
AcDbEntity
  8
外形線
100
AcDbCircle
 10
99.213511355596
 20
1120.400693428696
 30
0.0
 40
3.0
100
AcDbArc
 50
110.000000000003
 51
200.0
  0
LINE
  5
2EB0
330
1A
100
AcDbEntity
  8
細線
100
AcDbLine
 10
93.497570355596
 20
1118.320260428696
 30
0.0
 11
96.394434355596
 21
1119.374632428696
 31
0.0
  0
LINE
  5
2EB1
330
1A
100
AcDbEntity
  8
外形線
100
AcDbLine
 10
108.639179355596
 20
1127.023889428696
 30
0.0
 11
90.383456355596
 21
1120.379349428696
 31
0.0
  0
ARC
  5
2EB2
330
1A
100
AcDbEntity
  8
外形線
100
AcDbCircle
 10
93.696606355596
 20
1118.392703428696
 30
0.0
 40
3.0
100
AcDbArc
 50
110.000000000003
 51
200.0
  0
ARC
  5
2EB3
330
1A
100
AcDbEntity
  8
外形線
100
AcDbCircle
 10
108.693620355596
 20
1123.851170428696
 30
0.0
 40
3.0
100
AcDbArc
 50
110.000000000003
 51
200.0
  0
ARC
  5
2EB4
330
1A
100
AcDbEntity
  8
細線
100
AcDbCircle
 10
108.309873355596
 20
1122.115231428696
 30
0.0
 40
1.5
100
AcDbArc
 50
110.000000000003
 51
200.0
  0
ARC
  5
2EB5
330
1A
100
AcDbEntity
  8
外形線
100
AcDbCircle
 10
108.981199355596
 20
1126.084196428696
 30
0.0
 40
1.0
100
AcDbArc
 50
57.135435999996
 51
110.000000000003
  0
LINE
  5
2EB6
330
1A
100
AcDbEntity
  8
外形線
100
AcDbLine
 10
109.523854355596
 20
1126.924152428696
 30
0.0
 11
112.267161355596
 21
1125.151833428696
 31
0.0
  0
LINE
  5
2EB7
330
1A
100
AcDbEntity
  8
細線
100
AcDbLine
 10
127.908625355596
 20
1130.844860428696
 30
0.0
 11
132.607088355596
 21
1132.554961428696
 31
0.0
  0
ARC
  5
2EB8
330
1A
100
AcDbEntity
  8
外形線
100
AcDbCircle
 10
126.284892355596
 20
1132.382225428696
 30
0.0
 40
1.0
100
AcDbArc
 50
20.0
 51
110.000000000003
  0
LINE
  5
2EB9
330
1A
100
AcDbEntity
  8
外形線
100
AcDbLine
 10
113.926151355596
 20
1128.948189428696
 30
0.0
 11
125.942872355596
 21
1133.321918428696
 31
0.0
  0
ARC
  5
2EBA
330
1A
100
AcDbEntity
  8
外形線
100
AcDbCircle
 10
137.561203355596
 20
1136.486467428696
 30
0.0
 40
1.0
100
AcDbArc
 50
110.000000000003
 51
200.0
  0
LINE
  5
2EBB
330
1A
100
AcDbEntity
  8
細線
100
AcDbLine
 10
137.305551355596
 20
1134.265062428696
 30
0.0
 11
132.607088355596
 21
1132.554961428696
 31
0.0
  0
LINE
  5
2EBC
330
1A
100
AcDbEntity
  8
外形線
100
AcDbLine
 10
143.461914355596
 20
1117.350594428696
 30
0.0
 11
136.621511355596
 21
1136.144447428696
 31
0.0
  0
LINE
  5
2EBD
330
1A
100
AcDbEntity
  8
外形線
100
AcDbLine
 10
186.753413355596
 20
1127.786523428696
 30
0.0
 11
178.063622355596
 21
1148.258387428696
 31
0.0
  0
LINE
  5
2EBE
330
1A
100
AcDbEntity
  8
細線
100
AcDbLine
 10
157.417333355596
 20
1141.585152428696
 30
0.0
 11
151.201657355596
 21
1139.322831428696
 31
0.0
  0
LINE
  5
2EBF
330
1A
100
AcDbEntity
  8
外形線
100
AcDbLine
 10
153.909286355596
 20
1143.079128428696
 30
0.0
 11
152.947016355596
 21
1139.958089428696
 31
0.0
  0
LINE
  5
2EC0
330
1A
100
AcDbEntity
  8
細線
100
AcDbLine
 10
164.983235355596
 20
1125.183715428696
 30
0.0
 11
159.339902355596
 21
1140.688643428696
 31
0.0
  0
LINE
  5
2EC1
330
1A
100
AcDbEntity
  8
外形線
100
AcDbLine
 10
165.495997355596
 20
1125.370345428696
 30
0.0
 11
159.339634355596
 21
1142.284812428696
 31
0.0
  0
LINE
  5
2EC2
330
1A
100
AcDbEntity
  8
外形線
100
AcDbLine
 10
175.211028355596
 20
1128.906327428696
 30
0.0
 11
169.054666355596
 21
1145.820794428696
 31
0.0
  0
LINE
  5
2EC3
330
1A
100
AcDbEntity
  8
細線
100
AcDbLine
 10
179.987277355596
 20
1130.644739428696
 30
0.0
 11
174.514955355596
 21
1145.679821428696
 31
0.0
  0
LINE
  5
2EC4
330
1A
100
AcDbEntity
  8
外形線
100
AcDbLine
 10
180.727934355596
 20
1130.914316428696
 30
0.0
 11
174.571571355596
 21
1147.828784428696
 31
0.0
  0
LINE
  5
2EC5
330
1A
100
AcDbEntity
  8
外形線
100
AcDbLine
 10
157.358020355596
 20
1122.408363428696
 30
0.0
 11
150.517617355596
 21
1141.202216428696
 31
0.0
  0
LWPOLYLINE
  5
2EC6
330
1A
100
AcDbEntity
  8
細線
100
AcDbPolyline
 90
        8
 70
   128
 43
0.0
 10
-164.983235355596
 20
1125.183715428696
 10
-165.240666355596
 20
1124.260778428696
 10
-165.350712355596
 20
1123.318831428696
 10
-165.309622355596
 20
1122.389961428696
 10
-165.118798355596
 20
1121.505813428696
 10
-164.784738355596
 20
1120.696506428696
 10
-164.318825355596
 20
1119.989610428696
 10
-163.736929355596
 20
1119.409208428696
210
0.0
220
0.0
230
-1.0
  0
LWPOLYLINE
  5
2EC7
330
1A
100
AcDbEntity
  8
外形線
100
AcDbPolyline
 90
       18
 70
   128
 43
0.0
 10
-165.495997355596
 20
1125.370345428696
 10
-165.741223355596
 20
1124.481024428696
 10
-165.839533355596
 20
1123.571555428696
 10
-165.787580355596
 20
1122.672909428696
 10
-165.587133355596
 20
1121.815686428696
 10
-165.245018355596
 20
1121.029080428696
 10
-164.772886355596
 20
1120.339878428696
 10
-164.186813355596
 20
1119.771548428696
 10
-163.506759355596
 20
1119.343446428696
 10
-162.755881355596
 20
1119.070148428696
 10
-161.959750355596
 20
1118.960964428696
 10
-161.145477355596
 20
1119.019609428696
 10
-160.340792355596
 20
1119.244088428696
 10
-159.573096355596
 20
1119.626756428696
 10
-158.868533355596
 20
1120.154581428696
 10
-158.251096355596
 20
1120.809590428696
 10
-157.741810355596
 20
1121.569476428696
 10
-157.358020355596
 20
1122.408363428696
210
0.0
220
0.0
230
-1.0
  0
LWPOLYLINE
  5
2EC8
330
1A
100
AcDbEntity
  8
外形線
100
AcDbPolyline
 90
       18
 70
   128
 43
0.0
 10
-180.727934355596
 20
1130.914316428696
 10
-180.995488355596
 20
1130.033079428696
 10
-181.159995355596
 20
1129.147661428696
 10
-181.215853355596
 20
1128.288215428696
 10
-181.161160355596
 20
1127.484008428696
 10
-180.997778355596
 20
1126.762426428696
 10
-180.731271355596
 20
1126.148042428696
 10
-180.370714355596
 20
1125.661777428696
 10
-179.928387355596
 20
1125.320192428696
 10
-179.419351355596
 20
1125.134918428696
 10
-178.860941355596
 20
1125.112265428696
 10
-178.272174355596
 20
1125.253004428696
 10
-177.673100355596
 20
1125.552342428696
 10
-177.084118355596
 20
1126.000086428696
 10
-176.525286355596
 20
1126.580988428696
 10
-176.015634355596
 20
1127.275267428696
 10
-175.572518355596
 20
1128.059279428696
 10
-175.211028355596
 20
1128.906327428696
210
0.0
220
0.0
230
-1.0
  0
LWPOLYLINE
  5
2EC9
330
1A
100
AcDbEntity
  8
細線
100
AcDbPolyline
 90
        8
 70
   128
 43
0.0
 10
-179.987277355596
 20
1130.644739428696
 10
-180.267443355596
 20
1129.711194428696
 10
-180.431630355596
 20
1128.774960428696
 10
-180.473571355596
 20
1127.871772428696
 10
-180.391665355596
 20
1127.036102428696
 10
-180.189039355596
 20
1126.299847428696
 10
-179.873426355596
 20
1125.691109428696
 10
-179.456873355596
 20
1125.233122428696
210
0.0
220
0.0
230
-1.0
  0
ARC
  5
2ECA
330
1A
100
AcDbEntity
  8
外形線
100
AcDbCircle
 10
166.235588355596
 20
1144.794734428696
 30
0.0
 40
3.0
100
AcDbArc
 50
20.0
 51
110.000000000003
  0
LINE
  5
2ECB
330
1A
100
AcDbEntity
  8
外形線
100
AcDbLine
 10
154.522877355596
 20
1143.724189428696
 30
0.0
 11
173.013522355596
 21
1150.454233428696
 31
0.0
  0
ARC
  5
2ECC
330
1A
100
AcDbEntity
  8
外形線
100
AcDbCircle
 10
156.520556355596
 20
1141.258752428696
 30
0.0
 40
3.0
100
AcDbArc
 50
20.0
 51
110.000000000003
  0
ARC
  5
2ECD
330
1A
100
AcDbEntity
  8
外形線
100
AcDbCircle
 10
154.864897355596
 20
1142.784496428696
 30
0.0
 40
1.0
100
AcDbArc
 50
110.000000000003
 51
162.864564
  0
ARC
  5
2ECE
330
1A
100
AcDbEntity
  8
外形線
100
AcDbCircle
 10
149.577925355596
 20
1140.860196428696
 30
0.0
 40
1.0
100
AcDbArc
 50
20.0
 51
110.000000000003
  0
ARC
  5
2ECF
330
1A
100
AcDbEntity
  8
細線
100
AcDbCircle
 10
157.930364355596
 20
1140.175613428696
 30
0.0
 40
1.5
100
AcDbArc
 50
20.0
 51
110.000000000003
  0
ARC
  5
2ED0
330
1A
100
AcDbEntity
  8
外形線
100
AcDbCircle
 10
174.381602355596
 20
1146.695463428696
 30
0.0
 40
4.0
100
AcDbArc
 50
22.999999999999
 51
110.000000000003
  0
ARC
  5
2ED1
330
1A
100
AcDbEntity
  8
外形線
100
AcDbCircle
 10
171.752494355596
 20
1146.802723428696
 30
0.0
 40
3.0
100
AcDbArc
 50
20.0
 51
110.000000000003
  0
LINE
  5
2ED2
330
1A
100
AcDbEntity
  8
細線
100
AcDbLine
 10
171.951529355596
 20
1146.875166428696
 30
0.0
 11
169.054666355596
 21
1145.820794428696
 31
0.0
  0
ARC
  5
2ED3
330
1A
100
AcDbEntity
  8
細線
100
AcDbCircle
 10
172.635570355596
 20
1144.995781428696
 30
0.0
 40
2.0
100
AcDbArc
 50
20.0
 51
110.000000000003
  0
LINE
  5
2ED4
330
1A
100
AcDbEntity
  8
外形線
100
AcDbLine
 10
189.916236355596
 20
1122.020541428696
 30
0.0
 11
188.035126355596
 21
1127.188850428696
 31
0.0
  0
ARC
  5
2ED5
330
1A
100
AcDbEntity
  8
外形線
100
AcDbCircle
 10
187.095433355596
 20
1126.846830428696
 30
0.0
 40
1.0
100
AcDbArc
 50
20.0
 51
110.000000000003
  0
LINE
  5
2F2F
330
1A
100
AcDbEntity
  8
0
100
AcDbLine
 10
376.015162355596
 20
463.796774428696
 30
0.0
 11
379.777384355596
 21
453.460155428696
 31
0.0
  0
LINE
  5
2F9E
330
1A
100
AcDbEntity
  8
外形線
100
AcDbLine
 10
315.848674355596
 20
808.115323428696
 30
0.0
 11
315.848674355596
 21
829.615323428696
 31
0.0
  0
LINE
  5
2F9F
330
1A
100
AcDbEntity
  8
外形線
100
AcDbLine
 10
313.130296355596
 20
808.115323428696
 30
0.0
 11
313.130296355596
 21
829.615323428696
 31
0.0
  0
LINE
  5
30E7
330
1A
100
AcDbEntity
  8
中心線
 48
10.0
100
AcDbLine
 10
240.848674355596
 20
829.615323428696
 30
0.0
 11
240.848674355596
 21
516.485606428696
 31
0.0
  0
DIMENSION
  5
313C
330
1A
100
AcDbEntity
  8
寸法線
 48
10.0
100
AcDbDimension
  2
*D2
 10
240.848674355596
 20
516.485606428696
 30
0.0
 11
343.575555958758
 21
222.399381034051
 31
0.0
 70
   162
  1
Max.<>
 71
     5
 42
0.349065850594
  3
ISO-25
100
AcDb2LineAngularDimension
 13
116.808020355596
 23
1175.962544428696
 33
0.0
 14
433.639809632094
 24
305.474358155748
 34
0.0
 15
240.848674355596
 25
829.615323428696
 35
0.0
 16
384.133872651702
 26
230.595859381913
 36
0.0
1001
ACAD
1000
DSTYLE
1002
{
1070
    41
1040
13.0
1070
    47
1040
0.1
1070
    48
1040
0.1
1070
    73
1070
     0
1070
   140
1040
14.0
1070
   271
1070
     1
1070
   272
1070
     1
1070
   341
1005
2AEC
1070
   342
1005
2AEC
1002
}
  0
DIMENSION
  5
3156
330
1A
100
AcDbEntity
  8
寸法線
 48
10.0
100
AcDbDimension
  2
*D3
 10
566.061543436416
 20
371.447881251199
 30
0.0
 11
450.075816560504
 21
329.232528628548
 31
0.0
 70
   161
  1
φ<>
 71
     5
 42
293.999999814672
  3
ISO-25
100
AcDbAlignedDimension
 13
281.925498138598
 23
292.506756428696
 33
0.0
 14
558.195128138598
 24
393.060679428696
 34
0.0
1001
ACAD
1000
DSTYLE
1002
{
1070
    41
1040
13.0
1070
    47
1040
0.1
1070
    48
1040
0.1
1070
    73
1070
     0
1070
   140
1040
14.0
1070
   271
1070
     1
1070
   272
1070
     1
1070
   341
1005
2AEC
1070
   342
1005
2AEC
1002
}
  0
DIMENSION
  5
3183
330
1A
100
AcDbEntity
  8
寸法線
 48
10.0
100
AcDbDimension
  2
*D4
 10
-10.66011640544
 20
292.506756428696
 30
0.0
 11
-10.66011640544
 21
739.262842123305
 31
0.0
 70
   160
  1
860
 71
     5
 42
857.947477
  3
ISO-25
100
AcDbAlignedDimension
 13
168.013522355596
 23
1150.454233428696
 33
0.0
 14
281.925498138598
 24
292.506756428696
 34
0.0
 50
90.0
100
AcDbRotatedDimension
1001
ACAD
1000
DSTYLE
1002
{
1070
    41
1040
13.0
1070
    47
1040
0.1
1070
    48
1040
0.1
1070
    73
1070
     0
1070
   140
1040
14.0
1070
   271
1070
     1
1070
   272
1070
     1
1070
   341
1005
2AEC
1070
   342
1005
2AEC
1002
}
  0
LINE
  5
31A5
330
1A
100
AcDbEntity
  8
中心線
 48
10.0
100
AcDbLine
 10
178.348674355596
 20
829.615323428696
 30
0.0
 11
178.348674355596
 21
807.382777428696
 31
0.0
  0
LINE
  5
31A6
330
1A
100
AcDbEntity
  8
中心線
 48
10.0
100
AcDbLine
 10
303.348674355596
 20
829.615323428696
 30
0.0
 11
303.348674355596
 21
807.382777428696
 31
0.0
  0
DIMENSION
  5
32D2
330
1A
100
AcDbEntity
  8
寸法線
 48
10.0
100
AcDbDimension
  2
*D5
 10
299.38023130593
 20
721.130386759154
 30
0.0
 11
324.770386486901
 21
738.487469445964
 31
0.0
 70
    33
  1
φ<>
 71
     5
 42
31.999999710225
  3
ISO-25
100
AcDbAlignedDimension
 13
269.310067732311
 23
710.185742219005
 33
0.0
 14
299.38023130593
 24
721.130386759154
 34
0.0
1001
ACAD
1000
DSTYLE
1002
{
1070
    41
1040
13.0
1070
    47
1040
0.1
1070
    48
1040
0.1
1070
    73
1070
     0
1070
   140
1040
14.0
1070
   271
1070
     1
1070
   272
1070
     1
1070
   341
1005
2AEC
1070
   342
1005
2AEC
1002
}
  0
LINE
  5
3519
330
1A
100
AcDbEntity
  8
外形線
100
AcDbLine
 10
189.810865766461
 20
1117.193389078238
 30
0.0
 11
188.317596766461
 21
1121.296111078238
 31
0.0
  0
ARC
  5
351A
330
1A
100
AcDbEntity
  8
外形線
100
AcDbCircle
 10
192.545524766461
 20
1113.250638078238
 30
0.0
 40
1.0
100
AcDbArc
 50
200.999999999998
 51
232.911075999997
  0
LINE
  5
351B
330
1A
100
AcDbEntity
  8
外形線
100
AcDbLine
 10
189.512028766461
 20
1116.552532078238
 30
0.0
 11
189.810865766461
 21
1117.193389078238
 31
0.0
  0
ARC
  5
351C
330
1A
100
AcDbEntity
  8
外形線
100
AcDbCircle
 10
188.143948766461
 20
1120.311303078238
 30
0.0
 40
1.0
100
AcDbArc
 50
80.000000000001
 51
110.000000000004
  0
ARC
  5
3535
330
1A
100
AcDbEntity
  8
外形線
100
AcDbCircle
 10
211.884704766461
 20
1044.850796078238
 30
0.0
 40
1.0
100
AcDbArc
 50
290.000000000004
 51
19.999999999998
  0
LINE
  5
3536
330
1A
100
AcDbEntity
  8
外形線
100
AcDbLine
 10
211.171481766461
 20
1043.527026078238
 30
0.0
 11
212.226724766461
 21
1043.911103078238
 31
0.0
  0
LINE
  5
3537
330
1A
100
AcDbEntity
  8
外形線
100
AcDbLine
 10
193.457588766461
 20
1101.976540078238
 30
0.0
 11
197.921234766461
 21
1090.348344078238
 31
0.0
  0
ARC
  5
3538
330
1A
100
AcDbEntity
  8
外形線
100
AcDbCircle
 10
176.459491766461
 20
1089.471387078238
 30
0.0
 40
30.0
100
AcDbArc
 50
19.999999999998
 51
27.803102999996
  0
LINE
  5
3539
330
1A
100
AcDbEntity
  8
外形線
100
AcDbLine
 10
206.707958766461
 20
1094.078539078238
 30
0.0
 11
204.650270766461
 21
1099.731992078238
 31
0.0
  0
ARC
  5
353A
330
1A
100
AcDbEntity
  8
外形線
100
AcDbCircle
 10
206.436099766461
 20
1091.851235078238
 30
0.0
 40
1.0
100
AcDbArc
 50
18.023891999998
 51
110.000000000004
  0
ARC
  5
353B
330
1A
100
AcDbEntity
  8
外形線
100
AcDbCircle
 10
205.768265766461
 20
1093.736519078238
 30
0.0
 40
1.0
100
AcDbArc
 50
350.000000000001
 51
19.999999999998
  0
LINE
  5
353C
330
1A
100
AcDbEntity
  8
外形線
100
AcDbLine
 10
197.055320766461
 20
1089.533423078238
 30
0.0
 11
197.055320766461
 21
1089.533423078238
 31
0.0
  0
ARC
  5
353D
330
1A
100
AcDbEntity
  8
外形線
100
AcDbCircle
 10
197.337033766461
 20
1090.667802078238
 30
0.0
 40
1.0
100
AcDbArc
 50
229.999999999997
 51
290.000000000004
  0
LINE
  5
353E
330
1A
100
AcDbEntity
  8
外形線
100
AcDbLine
 10
206.094079766461
 20
1092.790928078238
 30
0.0
 11
197.679053766461
 21
1089.728109078238
 31
0.0
  0
LINE
  5
353F
330
1A
100
AcDbEntity
  8
外形線
100
AcDbLine
 10
200.204721766461
 20
1109.753184078238
 30
0.0
 11
202.256841766461
 21
1104.115028078238
 31
0.0
  0
ARC
  5
3540
330
1A
100
AcDbEntity
  8
外形線
100
AcDbCircle
 10
202.111607766461
 20
1102.997989078238
 30
0.0
 40
1.0
100
AcDbArc
 50
27.803102999996
 51
110.000000000004
  0
LINE
  5
3541
330
1A
100
AcDbEntity
  8
外形線
100
AcDbLine
 10
201.769586766461
 20
1103.937682078238
 30
0.0
 11
197.719981766461
 21
1102.463746078238
 31
0.0
  0
LINE
  5
3542
330
1A
100
AcDbEntity
  8
外形線
100
AcDbLine
 10
202.256841766461
 20
1104.115028078238
 30
0.0
 11
197.719981766461
 21
1102.463746078238
 31
0.0
  0
ARC
  5
3543
330
1A
100
AcDbEntity
  8
外形線
100
AcDbCircle
 10
199.734874766461
 20
1109.582174078238
 30
0.0
 40
0.5
100
AcDbArc
 50
19.999999999998
 51
110.000000000004
  0
ARC
  5
3544
330
1A
100
AcDbEntity
  8
外形線
100
AcDbCircle
 10
197.035941766461
 20
1104.343131078238
 30
0.0
 40
2.0
100
AcDbArc
 50
200.999999999998
 51
290.000000000004
  0
LINE
  5
3545
330
1A
100
AcDbEntity
  8
外形線
100
AcDbLine
 10
199.563864766461
 20
1110.052020078238
 30
0.0
 11
193.543368766461
 21
1107.860739078238
 31
0.0
  0
LINE
  5
3546
330
1A
100
AcDbEntity
  8
外形線
100
AcDbLine
 10
201.743811766461
 20
1105.524567078238
 30
0.0
 11
195.387244766461
 21
1103.210966078238
 31
0.0
  0
ARC
  5
3547
330
1A
100
AcDbEntity
  8
外形線
100
AcDbCircle
 10
207.962548766461
 20
1067.322050078238
 30
0.0
 40
3.0
100
AcDbArc
 50
151.874802000002
 51
199.999999999998
  0
ARC
  5
3548
330
1A
100
AcDbEntity
  8
外形線
100
AcDbCircle
 10
198.401491766461
 20
1085.043522078238
 30
0.0
 40
2.0
100
AcDbArc
 50
333.908267999999
 51
19.999999999998
  0
LINE
  5
3549
330
1A
100
AcDbEntity
  8
外形線
100
AcDbLine
 10
200.197673766461
 20
1084.163903078238
 30
0.0
 11
199.678370766461
 21
1083.103485078238
 31
0.0
  0
ARC
  5
354A
330
1A
100
AcDbEntity
  8
外形線
100
AcDbCircle
 10
201.474552766461
 20
1082.223866078238
 30
0.0
 40
2.0
100
AcDbArc
 50
153.908267999999
 51
199.999999999998
  0
ARC
  5
354B
330
1A
100
AcDbEntity
  8
外形線
100
AcDbCircle
 10
178.859200766461
 20
1082.878242078238
 30
0.0
 40
30.0
100
AcDbArc
 50
331.874802000002
 51
18.023891999998
  0
LINE
  5
354C
330
1A
100
AcDbEntity
  8
外形線
100
AcDbLine
 10
198.861780766461
 20
1089.626497078238
 30
0.0
 11
200.280877766461
 21
1085.727562078238
 31
0.0
  0
LINE
  5
354E
330
1A
100
AcDbEntity
  8
外形線
100
AcDbLine
 10
207.405612766461
 20
1023.533251078238
 30
0.0
 11
206.558219766461
 21
1025.861442078238
 31
0.0
  0
ARC
  5
354F
330
1A
100
AcDbEntity
  8
外形線
100
AcDbCircle
 10
206.465919766461
 20
1023.191231078238
 30
0.0
 40
1.0
100
AcDbArc
 50
350.000000000001
 51
19.999999999998
  0
ARC
  5
3550
330
1A
100
AcDbEntity
  8
外形線
100
AcDbCircle
 10
209.377297766461
 20
1026.887503078238
 30
0.0
 40
3.0
100
AcDbArc
 50
164.999999999999
 51
199.999999999998
  0
LINE
  5
3553
330
1A
100
AcDbEntity
  8
外形線
100
AcDbLine
 10
206.479519766461
 20
1027.663960078238
 30
0.0
 11
210.547576766461
 21
1042.846153078238
 31
0.0
  0
LINE
  5
3556
330
1A
100
AcDbEntity
  8
細線
100
AcDbLine
 10
124.681865766461
 20
1063.691394078238
 30
0.0
 11
115.293194766461
 21
1089.539086078238
 31
0.0
  0
ARC
  5
355A
330
1A
100
AcDbEntity
  8
外形線
100
AcDbCircle
 10
97.933456766461
 20
1087.477369078238
 30
0.0
 40
1.0
100
AcDbArc
 50
110.000000000004
 51
139.999999999997
  0
LINE
  5
355B
330
1A
100
AcDbEntity
  8
外形線
100
AcDbLine
 10
87.429053766461
 20
1064.327128078238
 30
0.0
 11
87.429053766461
 21
1064.327128078238
 31
0.0
  0
LINE
  5
355C
330
1A
100
AcDbEntity
  8
外形線
100
AcDbLine
 10
99.301537766461
 20
1083.718599078238
 30
0.0
 11
98.660680766461
 21
1084.017435078238
 31
0.0
  0
LINE
  5
355D
330
1A
100
AcDbEntity
  8
外形線
100
AcDbLine
 10
102.590461766461
 20
1084.915669078238
 30
0.0
 11
98.507110766461
 21
1083.429451078238
 31
0.0
  0
LINE
  5
355E
330
1A
100
AcDbEntity
  8
外形線
100
AcDbLine
 10
98.660680766461
 20
1084.017435078238
 30
0.0
 11
97.167412766461
 21
1088.120157078238
 31
0.0
  0
LINE
  5
3561
330
1A
100
AcDbEntity
  8
細線
100
AcDbLine
 10
127.302550766461
 20
1057.876902078238
 30
0.0
 11
130.363993766461
 21
1056.927413078238
 31
0.0
  0
ARC
  5
3562
330
1A
100
AcDbEntity
  8
細線
100
AcDbCircle
 10
127.658019766461
 20
1059.023044078238
 30
0.0
 40
1.2
100
AcDbArc
 50
199.999999999998
 51
252.769032000001
  0
LINE
  5
3563
330
1A
100
AcDbEntity
  8
細線
100
AcDbLine
 10
125.023885766461
 20
1062.751701078238
 30
0.0
 11
126.530388766461
 21
1058.612620078238
 31
0.0
  0
ARC
  5
3564
330
1A
100
AcDbEntity
  8
細線
100
AcDbCircle
 10
130.008523766461
 20
1055.781271078238
 30
0.0
 40
1.2
100
AcDbArc
 50
19.999999999998
 51
72.769032000001
  0
LINE
  5
3565
330
1A
100
AcDbEntity
  8
細線
100
AcDbLine
 10
124.412730766461
 20
1048.791927078238
 30
0.0
 11
122.124813766461
 21
1049.799615078238
 31
0.0
  0
ARC
  5
3566
330
1A
100
AcDbEntity
  8
外形線
100
AcDbCircle
 10
111.071156766461
 20
1020.681890078238
 30
0.0
 40
3.0
100
AcDbArc
 50
210.752126999997
 51
245.000000000001
  0
ARC
  5
3567
330
1A
100
AcDbEntity
  8
外形線
100
AcDbCircle
 10
109.273658766461
 20
1019.772866078238
 30
0.0
 40
1.0
100
AcDbArc
 50
199.999999999998
 51
290.000000000004
  0
LINE
  5
3568
330
1A
100
AcDbEntity
  8
細線
100
AcDbLine
 10
117.761989766461
 20
1033.691674078238
 30
0.0
 11
115.474071766461
 21
1034.699362078238
 31
0.0
  0
LINE
  5
3569
330
1A
100
AcDbEntity
  8
外形線
100
AcDbLine
 10
106.496589766461
 20
1023.017094078238
 30
0.0
 11
106.966435766461
 21
1023.188104078238
 31
0.0
  0
LINE
  5
356A
330
1A
100
AcDbEntity
  8
外形線
100
AcDbLine
 10
106.496589766461
 20
1023.017094078238
 30
0.0
 11
106.966435766461
 21
1023.188104078238
 31
0.0
  0
ARC
  5
356B
330
1A
100
AcDbEntity
  8
外形線
100
AcDbCircle
 10
122.515723766461
 20
1021.400050078238
 30
0.0
 40
2.0
100
AcDbArc
 50
19.999999999998
 51
110.000000000004
  0
LINE
  5
356C
330
1A
100
AcDbEntity
  8
細線
100
AcDbLine
 10
115.474071766461
 20
1034.699362078238
 30
0.0
 11
122.124813766461
 21
1049.799615078238
 31
0.0
  0
CIRCLE
  5
356D
330
1A
100
AcDbEntity
  8
外形線
100
AcDbCircle
 10
119.943401766461
 20
1041.745645078238
 30
0.0
 40
13.802115
  0
LINE
  5
356E
330
1A
100
AcDbEntity
  8
細線
100
AcDbLine
 10
117.761989766461
 20
1033.691674078238
 30
0.0
 11
124.412730766461
 21
1048.791927078238
 31
0.0
  0
ARC
  5
356F
330
1A
100
AcDbEntity
  8
外形線
100
AcDbCircle
 10
88.081006766461
 20
1060.456372078238
 30
0.0
 40
1.0
100
AcDbArc
 50
19.999999999998
 51
59.999999999999
  0
ARC
  5
3570
330
1A
100
AcDbEntity
  8
外形線
100
AcDbCircle
 10
95.549668766461
 20
1058.941119078238
 30
0.0
 40
5.5
100
AcDbArc
 50
199.999999999998
 51
290.000000000004
  0
ARC
  5
3571
330
1A
100
AcDbEntity
  8
外形線
100
AcDbCircle
 10
97.644973766461
 20
1051.722415078238
 30
0.0
 40
1.0
100
AcDbArc
 50
110.000000000004
 51
199.999999999998
  0
ARC
  5
3572
330
1A
100
AcDbEntity
  8
外形線
100
AcDbCircle
 10
95.612033766461
 20
1051.460263078238
 30
0.0
 40
1.0
100
AcDbArc
 50
292.999999999999
 51
19.999999999998
  0
LINE
  5
3573
330
1A
100
AcDbEntity
  8
外形線
100
AcDbLine
 10
94.611657766461
 20
1048.488310078238
 30
0.0
 11
94.475636766461
 21
1048.862026078238
 31
0.0
  0
LINE
  5
3574
330
1A
100
AcDbEntity
  8
外形線
100
AcDbLine
 10
96.002764766461
 20
1050.539758078238
 30
0.0
 11
95.024597766461
 21
1050.124551078238
 31
0.0
  0
ARC
  5
3575
330
1A
100
AcDbEntity
  8
外形線
100
AcDbCircle
 10
95.415328766461
 20
1049.204046078238
 30
0.0
 40
1.0
100
AcDbArc
 50
112.999999999999
 51
199.999999999998
  0
ARC
  5
3576
330
1A
100
AcDbEntity
  8
外形線
100
AcDbCircle
 10
94.556076766461
 20
1051.437675078238
 30
0.0
 40
2.0
100
AcDbArc
 50
19.999999999998
 51
78.034281
  0
LINE
  5
3577
330
1A
100
AcDbEntity
  8
外形線
100
AcDbLine
 10
96.551726766461
 20
1051.802283078238
 30
0.0
 11
96.435462766461
 21
1052.121716078238
 31
0.0
  0
LINE
  5
3578
330
1A
100
AcDbEntity
  8
外形線
100
AcDbLine
 10
97.604065766461
 20
1047.449102078238
 30
0.0
 11
98.073911766461
 21
1047.620113078238
 31
0.0
  0
CIRCLE
  5
3579
330
1A
100
AcDbEntity
  8
外形線
100
AcDbCircle
 10
95.549668766461
 20
1058.941119078238
 30
0.0
 40
2.0
  0
LINE
  5
357A
330
1A
100
AcDbEntity
  8
外形線
100
AcDbLine
 10
90.381359766461
 20
1057.060009078238
 30
0.0
 11
89.020699766461
 21
1060.798392078238
 31
0.0
  0
LINE
  5
357B
330
1A
100
AcDbEntity
  8
外形線
100
AcDbLine
 10
90.941574766461
 20
1042.363710078238
 30
0.0
 11
92.820960766461
 21
1043.047750078238
 31
0.0
  0
LINE
  5
357C
330
1A
100
AcDbEntity
  8
外形線
100
AcDbLine
 10
91.281869766461
 20
1047.276367078238
 30
0.0
 11
96.920025766461
 21
1049.328488078238
 31
0.0
  0
LINE
  5
357D
330
1A
100
AcDbEntity
  8
細線
100
AcDbLine
 10
93.333990766461
 20
1041.638211078238
 30
0.0
 11
98.972146766461
 21
1043.690332078238
 31
0.0
  0
LINE
  5
357E
330
1A
100
AcDbEntity
  8
外形線
100
AcDbLine
 10
88.581006766461
 20
1061.322398078238
 30
0.0
 11
87.314913766461
 21
1062.075862078238
 31
0.0
  0
LINE
  5
357F
330
1A
100
AcDbEntity
  8
外形線
100
AcDbLine
 10
76.828221766461
 20
1040.206567078238
 30
0.0
 11
79.647299766461
 21
1041.232627078238
 31
0.0
  0
LINE
  5
3580
330
1A
100
AcDbEntity
  8
外形線
100
AcDbLine
 10
79.647299766461
 20
1041.232627078238
 30
0.0
 11
80.569373766461
 21
1043.377337078238
 31
0.0
  0
LINE
  5
3581
330
1A
100
AcDbEntity
  8
外形線
100
AcDbLine
 10
89.402484766461
 20
1046.592327078238
 30
0.0
 11
80.569373766461
 21
1043.377337078238
 31
0.0
  0
ARC
  5
3582
330
1A
100
AcDbEntity
  8
外形線
100
AcDbCircle
 10
87.825456766461
 20
1062.935714078238
 30
0.0
 40
1.0
100
AcDbArc
 50
148.857721999997
 51
239.3
  0
LINE
  5
3583
330
1A
100
AcDbEntity
  8
細線
100
AcDbLine
 10
88.777857766461
 20
1020.824714078238
 30
0.0
 11
97.610967766461
 21
1024.039704078238
 31
0.0
  0
LINE
  5
3584
330
1A
100
AcDbEntity
  8
細線
100
AcDbLine
 10
87.922806766461
 20
1023.173946078238
 30
0.0
 11
96.755917766461
 21
1026.388935078238
 31
0.0
  0
LINE
  5
3585
330
1A
100
AcDbEntity
  8
外形線
100
AcDbLine
 10
99.663088766461
 20
1018.401548078238
 30
0.0
 11
90.829977766461
 21
1015.186559078238
 31
0.0
  0
LINE
  5
3586
330
1A
100
AcDbEntity
  8
外形線
100
AcDbLine
 10
88.745035766461
 20
1016.236804078238
 30
0.0
 11
90.829977766461
 21
1015.186559078238
 31
0.0
  0
LINE
  5
3587
330
1A
100
AcDbEntity
  8
細線
100
AcDbLine
 10
87.922806766461
 20
1023.173946078238
 30
0.0
 11
88.777857766461
 21
1020.824714078238
 31
0.0
  0
LINE
  5
3588
330
1A
100
AcDbEntity
  8
外形線
100
AcDbLine
 10
98.123997766461
 20
1022.630165078238
 30
0.0
 11
100.003383766461
 21
1023.314205078238
 31
0.0
  0
LINE
  5
3589
330
1A
100
AcDbEntity
  8
細線
100
AcDbLine
 10
83.476544766461
 20
1035.389950078238
 30
0.0
 11
82.621494766461
 21
1037.739181078238
 31
0.0
  0
LINE
  5
358A
330
1A
100
AcDbEntity
  8
外形線
100
AcDbLine
 10
73.839859766461
 20
1033.798003078238
 30
0.0
 11
79.517393766461
 21
1018.199106078238
 31
0.0
  0
LINE
  5
358B
330
1A
100
AcDbEntity
  8
細線
100
AcDbLine
 10
83.476544766461
 20
1035.389950078238
 30
0.0
 11
92.309655766461
 21
1038.604939078238
 31
0.0
  0
ARC
  5
358C
330
1A
100
AcDbEntity
  8
細線
100
AcDbCircle
 10
100.458894766461
 20
1034.653864078238
 30
0.0
 40
16.998295
100
AcDbArc
 50
177.518116000003
 51
222.481884
  0
LINE
  5
358D
330
1A
100
AcDbEntity
  8
外形線
100
AcDbLine
 10
85.925957766461
 20
1015.210743078238
 30
0.0
 11
88.745035766461
 21
1016.236804078238
 31
0.0
  0
LINE
  5
358E
330
1A
100
AcDbEntity
  8
外形線
100
AcDbLine
 10
91.281869766461
 20
1047.276367078238
 30
0.0
 11
101.542473766461
 21
1019.085588078238
 31
0.0
  0
LINE
  5
358F
330
1A
100
AcDbEntity
  8
外形線
100
AcDbLine
 10
89.402484766461
 20
1046.592327078238
 30
0.0
 11
99.663088766461
 21
1018.401548078238
 31
0.0
  0
LINE
  5
3590
330
1A
100
AcDbEntity
  8
外形線
100
AcDbLine
 10
79.647299766461
 20
1041.232627078238
 30
0.0
 11
88.745035766461
 21
1016.236804078238
 31
0.0
  0
LINE
  5
3591
330
1A
100
AcDbEntity
  8
細線
100
AcDbLine
 10
82.621494766461
 20
1037.739181078238
 30
0.0
 11
91.454605766461
 21
1040.954171078238
 31
0.0
  0
ARC
  5
3592
330
1A
100
AcDbEntity
  8
細線
100
AcDbCircle
 10
84.247959766461
 20
1041.523700078238
 30
0.0
 40
4.119219
100
AcDbArc
 50
153.256486999997
 51
246.743512999998
  0
ARC
  5
3593
330
1A
100
AcDbEntity
  8
外形線
100
AcDbCircle
 10
78.538322766461
 20
1035.508104078238
 30
0.0
 40
5.0
100
AcDbArc
 50
110.000000000004
 51
199.999999999998
  0
LINE
  5
3594
330
1A
100
AcDbEntity
  8
外形線
100
AcDbLine
 10
108.333965766461
 20
1019.430845078238
 30
0.0
 11
96.705281766461
 21
1051.380394078238
 31
0.0
  0
LINE
  5
3595
330
1A
100
AcDbEntity
  8
外形線
100
AcDbLine
 10
96.920025766461
 20
1049.328488078238
 30
0.0
 11
107.180629766461
 21
1021.137709078238
 31
0.0
  0
LINE
  5
3596
330
1A
100
AcDbEntity
  8
外形線
100
AcDbLine
 10
98.073911766461
 20
1047.620113078238
 30
0.0
 11
106.966435766461
 21
1023.188104078238
 31
0.0
  0
LINE
  5
3597
330
1A
100
AcDbEntity
  8
外形線
100
AcDbLine
 10
101.542473766461
 20
1019.085588078238
 30
0.0
 11
107.180629766461
 21
1021.137709078238
 31
0.0
  0
LINE
  5
3598
330
1A
100
AcDbEntity
  8
細線
100
AcDbLine
 10
99.490352766461
 20
1024.723744078238
 30
0.0
 11
105.128508766461
 21
1026.775865078238
 31
0.0
  0
LINE
  5
3599
330
1A
100
AcDbEntity
  8
外形線
100
AcDbLine
 10
98.507110766461
 20
1083.429451078238
 30
0.0
 11
86.969570766461
 21
1063.452879078238
 31
0.0
  0
LINE
  5
359A
330
1A
100
AcDbEntity
  8
外形線
100
AcDbLine
 10
97.591436766461
 20
1088.417062078238
 30
0.0
 11
142.696682766461
 21
1104.834029078238
 31
0.0
  0
LINE
  5
359B
330
1A
100
AcDbEntity
  8
外形線
100
AcDbLine
 10
99.301537766461
 20
1083.718599078238
 30
0.0
 11
144.406783766461
 21
1100.135566078238
 31
0.0
  0
LINE
  5
359C
330
1A
100
AcDbEntity
  8
外形線
100
AcDbLine
 10
109.615678766461
 20
1018.833173078238
 30
0.0
 11
140.625535766461
 21
1030.119838078238
 31
0.0
  0
LINE
  5
359D
330
1A
100
AcDbEntity
  8
細線
100
AcDbLine
 10
97.302953766461
 20
1052.662107078238
 30
0.0
 11
198.861780766461
 21
1089.626497078238
 31
0.0
  0
LINE
  5
359E
330
1A
100
AcDbEntity
  8
細線
100
AcDbLine
 10
206.753073766461
 20
1093.562871078238
 30
0.0
 11
97.430779766461
 21
1053.772810078238
 31
0.0
  0
LINE
  5
359F
330
1A
100
AcDbEntity
  8
外形線
100
AcDbLine
 10
127.881084766461
 20
1058.470748078238
 30
0.0
 11
199.092282766461
 21
1084.389504078238
 31
0.0
  0
LINE
  5
35A0
330
1A
100
AcDbEntity
  8
細線
100
AcDbLine
 10
140.625535766461
 20
1030.119838078238
 30
0.0
 11
131.136154766461
 21
1056.191695078238
 31
0.0
  0
LINE
  5
35A1
330
1A
100
AcDbEntity
  8
細線
100
AcDbLine
 10
199.595167766461
 20
1081.539826078238
 30
0.0
 11
131.851629766461
 21
1056.883195078238
 31
0.0
  0
ARC
  5
35AA
330
1A
100
AcDbEntity
  8
外形線
100
AcDbCircle
 10
128.252061766461
 20
1014.411003078238
 30
0.0
 40
1.0
100
AcDbArc
 50
199.999999999998
 51
290.000000000004
  0
ARC
  5
35AB
330
1A
100
AcDbEntity
  8
外形線
100
AcDbCircle
 10
129.991344766461
 20
1012.915695078238
 30
0.0
 40
1.0
100
AcDbArc
 50
55.000000000003
 51
110.000000000004
  0
LINE
  5
35AC
330
1A
100
AcDbEntity
  8
外形線
100
AcDbLine
 10
129.649324766461
 20
1013.855387078238
 30
0.0
 11
128.594081766461
 21
1013.471310078238
 31
0.0
  0
ARC
  5
35AD
330
1A
100
AcDbEntity
  8
外形線
100
AcDbCircle
 10
133.148715766461
 20
1008.263330078238
 30
0.0
 40
3.0
100
AcDbArc
 50
55.000000000003
 51
110.000000000004
  0
LINE
  5
35AE
330
1A
100
AcDbEntity
  8
外形線
100
AcDbLine
 10
132.122655766461
 20
1011.082408078238
 30
0.0
 11
129.042227766461
 21
1009.961224078238
 31
0.0
  0
ARC
  5
35AF
330
1A
100
AcDbEntity
  8
外形線
100
AcDbCircle
 10
128.016167766461
 20
1012.780302078238
 30
0.0
 40
3.0
100
AcDbArc
 50
245.000000000001
 51
290.000000000004
  0
LINE
  5
35B0
330
1A
100
AcDbEntity
  8
外形線
100
AcDbLine
 10
143.440158766461
 20
1004.719508078238
 30
0.0
 11
134.869445766461
 21
1010.720786078238
 31
0.0
  0
LINE
  5
35B1
330
1A
100
AcDbEntity
  8
外形線
100
AcDbLine
 10
143.440158766461
 20
1004.719508078238
 30
0.0
 11
130.564920766461
 21
1013.734847078238
 31
0.0
  0
LINE
  5
35B2
330
1A
100
AcDbEntity
  8
外形線
100
AcDbLine
 10
207.450727766461
 20
1023.017582078238
 30
0.0
 11
145.682804766461
 21
1000.535897078238
 31
0.0
  0
LINE
  5
35B3
330
1A
100
AcDbEntity
  8
外形線
100
AcDbLine
 10
206.380152766461
 20
1026.756644078238
 30
0.0
 11
144.099488766461
 21
1004.088337078238
 31
0.0
  0
ARC
  5
35B4
330
1A
100
AcDbEntity
  8
細線
100
AcDbCircle
 10
92.456442766461
 20
1018.971077078238
 30
0.0
 40
4.119219
100
AcDbArc
 50
153.256486999997
 51
246.743512999998
  0
ARC
  5
35B5
330
1A
100
AcDbEntity
  8
外形線
100
AcDbCircle
 10
84.215856766461
 20
1019.909206078238
 30
0.0
 40
5.0
100
AcDbArc
 50
199.999999999998
 51
290.000000000004
  0
LINE
  5
35B6
330
1A
100
AcDbEntity
  8
外形線
100
AcDbLine
 10
109.803301766461
 20
1017.962967078238
 30
0.0
 11
126.748312766461
 21
1010.061379078238
 31
0.0
  0
LINE
  5
35B7
330
1A
100
AcDbEntity
  8
外形線
100
AcDbLine
 10
127.312368766461
 20
1014.068983078238
 30
0.0
 11
124.395108766461
 21
1022.084090078238
 31
0.0
  0
LINE
  5
35BB
330
1A
100
AcDbEntity
  8
外形線
100
AcDbLine
 10
211.171481766461
 20
1043.527026078238
 30
0.0
 11
129.649324766461
 21
1013.855387078238
 31
0.0
  0
LINE
  5
35BC
330
1A
100
AcDbEntity
  8
外形線
100
AcDbLine
 10
212.824397766461
 20
1045.192816078238
 30
0.0
 11
199.595167766461
 21
1081.539826078238
 31
0.0
  0
ARC
  5
35BD
330
1A
100
AcDbEntity
  8
外形線
100
AcDbCircle
 10
211.513502766461
 20
1042.587334078238
 30
0.0
 40
1.0
100
AcDbArc
 50
110.000000000004
 51
164.999999999999
  0
LINE
  5
35BF
330
1A
100
AcDbEntity
  8
外形線
100
AcDbLine
 10
102.590461766461
 20
1084.915669078238
 30
0.0
 11
190.121718766461
 21
1116.774441078238
 31
0.0
  0
LINE
  5
35C4
330
1A
100
AcDbEntity
  8
外形線
100
AcDbLine
 10
189.512028766461
 20
1116.552532078238
 30
0.0
 11
144.406783766461
 21
1100.135566078238
 31
0.0
  0
LINE
  5
35C5
330
1A
100
AcDbEntity
  8
外形線
100
AcDbLine
 10
193.457588766461
 20
1101.976540078238
 30
0.0
 11
188.064614766461
 21
1116.025717078238
 31
0.0
  0
LINE
  5
35C6
330
1A
100
AcDbEntity
  8
外形線
100
AcDbLine
 10
190.121718766461
 20
1116.774441078238
 30
0.0
 11
195.168780766461
 21
1103.626395078238
 31
0.0
  0
ARC
  5
35C7
330
1A
100
AcDbEntity
  8
外形線
100
AcDbCircle
 10
173.850857766461
 20
1088.521922078238
 30
0.0
 40
30.0
100
AcDbArc
 50
42.410735000001
 51
52.911075999997
  0
LINE
  5
35C8
330
1A
100
AcDbEntity
  8
外形線
100
AcDbLine
 10
187.801928766461
 20
1121.250996078238
 30
0.0
 11
142.696682766461
 21
1104.834029078238
 31
0.0
  0
LINE
  5
35E0
330
1A
100
AcDbEntity
  8
外形線
100
AcDbLine
 10
145.385900376147
 20
1000.959921521357
 30
0.0
 11
144.538507376147
 21
1003.288113521357
 31
0.0
  0
ARC
  5
35E1
330
1A
100
AcDbEntity
  8
外形線
100
AcDbCircle
 10
146.325592376147
 20
1001.301941521357
 30
0.0
 40
1.0
100
AcDbArc
 50
199.999999999996
 51
230.0
  0
ARC
  5
35E2
330
1A
100
AcDbEntity
  8
外形線
100
AcDbCircle
 10
141.719429376147
 20
1002.262052521357
 30
0.0
 40
3.0
100
AcDbArc
 50
19.999999999996
 51
55.000000000001
  0
LINE
  5
35FB
330
1A
100
AcDbEntity
  8
外形線
100
AcDbLine
 10
155.735611920373
 20
1001.575003612633
 30
0.0
 11
152.788707920373
 21
999.438240612633
 31
0.0
  0
ARC
  5
35FC
330
1A
100
AcDbEntity
  8
細線
100
AcDbCircle
 10
167.800149920373
 20
978.814472612633
 30
0.0
 40
25.528454
100
AcDbArc
 50
93.795219999999
 51
126.204779999998
  0
LINE
  5
35FD
330
1A
100
AcDbEntity
  8
外形線
100
AcDbLine
 10
157.723174726586
 20
995.904114903577
 30
0.0
 11
154.092230726586
 21
995.646736903577
 31
0.0
  0
LINE
  5
35FE
330
1A
100
AcDbEntity
  8
外形線
100
AcDbLine
 10
154.092230726586
 20
995.646736903577
 30
0.0
 11
152.721181726586
 21
999.413663903577
 31
0.0
  0
LINE
  5
35FF
330
1A
100
AcDbEntity
  8
外形線
100
AcDbLine
 10
153.919909920373
 20
1000.914142612633
 30
0.0
 11
153.077917306067
 21
1003.227497873281
 31
0.0
  0
LINE
  5
3600
330
1A
100
AcDbEntity
  8
外形線
100
AcDbLine
 10
155.735611920373
 20
1001.575003612633
 30
0.0
 11
153.919909920373
 21
1000.914142612633
 31
0.0
  0
ARC
  5
3601
330
1A
100
AcDbEntity
  8
細線
100
AcDbCircle
 10
152.402486920373
 20
1021.119205612634
 30
0.0
 40
25.528454
100
AcDbArc
 50
273.795219999999
 51
306.204779999998
  0
LINE
  5
3602
330
1A
100
AcDbEntity
  8
外形線
100
AcDbLine
 10
201.211453920373
 20
1011.732552612633
 30
0.0
 11
157.790700920373
 21
995.928691612633
 31
0.0
  0
LINE
  5
3603
330
1A
100
AcDbEntity
  8
外形線
100
AcDbLine
 10
200.904540920373
 20
1018.015149612633
 30
0.0
 11
155.735611920373
 21
1001.575003612633
 31
0.0
  0
LINE
  5
3604
330
1A
100
AcDbEntity
  8
細線
100
AcDbLine
 10
167.481454920373
 20
1000.520014612633
 30
0.0
 11
166.110404920373
 21
1004.286942612633
 31
0.0
  0
ARC
  5
3605
330
1A
100
AcDbEntity
  8
細線
100
AcDbCircle
 10
153.039459920373
 20
1076.428268612633
 30
0.0
 40
77.269879
100
AcDbArc
 50
280.772118999998
 51
299.227881
  0
ARC
  5
3606
330
1A
100
AcDbEntity
  8
細線
100
AcDbCircle
 10
203.840079920373
 20
936.854711612633
 30
0.0
 40
77.269879
100
AcDbArc
 50
100.772118999998
 51
119.227881
  0
LINE
  5
3607
330
1A
100
AcDbEntity
  8
外形線
100
AcDbLine
 10
200.904540920373
 20
1018.015149612633
 30
0.0
 11
200.062548356097
 21
1020.328504735824
 31
0.0
  0
LINE
  5
3608
330
1A
100
AcDbEntity
  8
外形線
100
AcDbLine
 10
199.156363920373
 20
1017.378865612633
 30
0.0
 11
202.787307920373
 21
1017.636243612633
 31
0.0
  0
ARC
  5
3609
330
1A
100
AcDbEntity
  8
細線
100
AcDbCircle
 10
189.079389920373
 20
1034.468506612634
 30
0.0
 40
25.528454
100
AcDbArc
 50
273.795219999999
 51
306.204779999998
  0
LINE
  5
360A
330
1A
100
AcDbEntity
  8
外形線
100
AcDbLine
 10
201.211453920373
 20
1011.732552612633
 30
0.0
 11
204.158357920373
 21
1013.869315612633
 31
0.0
  0
ARC
  5
360B
330
1A
100
AcDbEntity
  8
細線
100
AcDbCircle
 10
204.477053920373
 20
992.163773612633
 30
0.0
 40
25.528454
100
AcDbArc
 50
93.795219999999
 51
126.204779999998
  0
LINE
  5
360C
330
1A
100
AcDbEntity
  8
外形線
100
AcDbLine
 10
204.158357920373
 20
1013.869315612633
 30
0.0
 11
202.787307920373
 21
1017.636243612633
 31
0.0
  0
LINE
  5
360D
330
1A
100
AcDbEntity
  8
細線
100
AcDbLine
 10
190.769134768871
 20
1008.996037176167
 30
0.0
 11
189.398085768871
 21
1012.762964176167
 31
0.0
  0
LEADER
  5
3618
330
1A
100
AcDbEntity
  8
寸法線
 48
10.0
100
AcDbLeader
  3
ISO-25
 76
     3
 10
85.925957766461
 20
1015.210743078238
 30
0.0
 10
71.441439739218
 20
950.270449793406
 30
0.0
 10
22.82726857408
 20
950.270262561616
 30
0.0
1001
ACAD
1000
DSTYLE
1002
{
1070
   147
1040
0.625
1070
    77
1070
     0
1070
    41
1040
13.0
1070
    47
1040
0.1
1070
    48
1040
0.1
1070
    73
1070
     0
1070
   140
1040
14.0
1070
   271
1070
     1
1070
   272
1070
     1
1070
   341
1005
2AEC
1070
   342
1005
2AEC
1002
}
  0
LEADER
  5
361F
330
1A
100
AcDbEntity
  8
寸法線
 48
10.0
100
AcDbLeader
  3
ISO-25
 76
     3
 10
207.785365355596
 20
808.115323428696
 30
0.0
 10
177.816838756054
 20
750.304831714266
 30
0.0
 10
118.001554046882
 20
750.304831714266
 30
0.0
1001
ACAD
1000
DSTYLE
1002
{
1070
   147
1040
0.625
1070
    77
1070
     0
1070
    41
1040
13.0
1070
    47
1040
0.1
1070
    48
1040
0.1
1070
    73
1070
     0
1070
   140
1040
14.0
1070
   271
1070
     1
1070
   272
1070
     1
1070
   341
1005
2AEC
1070
   342
1005
2AEC
1002
}
  0
ARC
  5
3721
330
1A
100
AcDbEntity
  8
外形線
100
AcDbCircle
 10
355.921882138598
 20
580.694881428696
 30
0.0
 40
1.0
100
AcDbArc
 50
20.0
 51
110.0
  0
LINE
  5
3722
330
1A
100
AcDbEntity
  8
外形線
100
AcDbLine
 10
364.126914138598
 20
569.846957428696
 30
0.0
 11
356.558207138598
 21
567.092173428696
 31
0.0
  0
LINE
  5
3723
330
1A
100
AcDbEntity
  8
外形線
100
AcDbLine
 10
357.719222138598
 20
565.567367428696
 30
0.0
 11
352.117019138598
 21
572.924957428696
 31
0.0
  0
ARC
  5
3724
330
1A
100
AcDbEntity
  8
外形線
100
AcDbCircle
 10
363.100854138598
 20
572.666035428696
 30
0.0
 40
3.0
100
AcDbArc
 50
200.0
 51
290.0
  0
LINE
  5
3725
330
1A
100
AcDbEntity
  8
外形線
100
AcDbLine
 10
358.913696138598
 20
575.398745428696
 30
0.0
 11
367.524880138598
 21
571.426686428696
 31
0.0
  0
LINE
  5
3726
330
1A
100
AcDbEntity
  8
外形線
100
AcDbLine
 10
364.126914138598
 20
569.846957428696
 30
0.0
 11
364.220884138598
 21
569.881160428696
 31
0.0
  0
ARC
  5
3727
330
1A
100
AcDbEntity
  8
外形線
100
AcDbCircle
 10
365.588964138598
 20
566.122389428696
 30
0.0
 40
4.0
100
AcDbArc
 50
20.0
 51
110.0
  0
ARC
  5
3728
330
1A
100
AcDbEntity
  8
外形線
100
AcDbCircle
 10
364.174037138598
 20
564.162262428696
 30
0.0
 40
8.0
100
AcDbArc
 50
20.0
 51
65.237656999999
  0
LINE
  5
3729
330
1A
100
AcDbEntity
  8
外形線
100
AcDbLine
 10
375.355192138598
 20
534.027050428696
 30
0.0
 11
374.842162138598
 21
535.436589428696
 31
0.0
  0
LINE
  5
372A
330
1A
100
AcDbEntity
  8
外形線
100
AcDbLine
 10
351.485274138598
 20
531.192088428696
 30
0.0
 11
380.803684138598
 21
541.863117428696
 31
0.0
  0
LINE
  5
372B
330
1A
100
AcDbEntity
  8
外形線
100
AcDbLine
 10
378.924299138598
 20
541.179076428696
 30
0.0
 11
369.347735138598
 21
567.490470428696
 31
0.0
  0
LINE
  5
372C
330
1A
100
AcDbEntity
  8
外形線
100
AcDbLine
 10
382.171765138598
 20
538.104346428696
 30
0.0
 11
371.691578138598
 21
566.898423428696
 31
0.0
  0
LINE
  5
372D
330
1A
100
AcDbEntity
  8
外形線
100
AcDbLine
 10
364.279220138598
 20
535.848703428696
 30
0.0
 11
353.887339138598
 21
564.400161428696
 31
0.0
  0
LINE
  5
372E
330
1A
100
AcDbEntity
  8
外形線
100
AcDbLine
 10
368.037990138598
 20
537.216784428696
 30
0.0
 11
357.719222138598
 21
565.567367428696
 31
0.0
  0
LINE
  5
372F
330
1A
100
AcDbEntity
  8
外形線
100
AcDbLine
 10
360.281776138598
 20
571.639975428696
 30
0.0
 11
356.861575138598
 21
581.036901428696
 31
0.0
  0
LINE
  5
3730
330
1A
100
AcDbEntity
  8
外形線
100
AcDbLine
 10
493.879766138598
 20
477.665845428696
 30
0.0
 11
500.390643138598
 21
474.715994428696
 31
0.0
  0
LINE
  5
3731
330
1A
100
AcDbEntity
  8
外形線
100
AcDbLine
 10
498.554449138598
 20
479.437089428696
 30
0.0
 11
515.196681138598
 21
436.647750428696
 31
0.0
  0
ARC
  5
3732
330
1A
100
AcDbEntity
  8
外形線
100
AcDbCircle
 10
495.758477138598
 20
478.349640428696
 30
0.0
 40
3.0
100
AcDbArc
 50
21.252754
 51
110.0
  0
LINE
  5
3733
330
1A
100
AcDbEntity
  8
外形線
100
AcDbLine
 10
546.737453138598
 20
424.540381428696
 30
0.0
 11
558.195128138598
 21
393.060679428696
 31
0.0
  0
LINE
  5
3734
330
1A
100
AcDbEntity
  8
外形線
100
AcDbLine
 10
546.737453138598
 20
424.540381428696
 30
0.0
 11
515.196681138598
 21
436.647750428696
 31
0.0
  0
LINE
  5
3735
330
1A
100
AcDbEntity
  8
外形線
100
AcDbLine
 10
454.070656138598
 20
464.240692428696
 30
0.0
 11
442.974692138598
 21
463.269921428696
 31
0.0
  0
LINE
  5
3736
330
1A
100
AcDbEntity
  8
外形線
100
AcDbLine
 10
442.974692138598
 20
463.269921428696
 30
0.0
 11
454.070656138598
 21
464.240692428696
 31
0.0
  0
LINE
  5
3737
330
1A
100
AcDbEntity
  8
外形線
100
AcDbLine
 10
441.947843138598
 20
463.924095428696
 30
0.0
 11
441.212070138598
 21
465.945616428696
 31
0.0
  0
ARC
  5
3738
330
1A
100
AcDbEntity
  8
外形線
100
AcDbCircle
 10
442.887536138598
 20
464.266115428696
 30
0.0
 40
1.0
100
AcDbArc
 50
200.0
 51
275.0
  0
LINE
  5
3739
330
1A
100
AcDbEntity
  8
外形線
100
AcDbLine
 10
441.212070138598
 20
465.945616428696
 30
0.0
 11
441.947843138598
 21
463.924095428696
 31
0.0
  0
ARC
  5
373A
330
1A
100
AcDbEntity
  8
外形線
100
AcDbCircle
 10
442.887536138598
 20
464.266115428696
 30
0.0
 40
1.0
100
AcDbArc
 50
200.0
 51
275.0
  0
LINE
  5
373B
330
1A
100
AcDbEntity
  8
外形線
100
AcDbLine
 10
455.010349138598
 20
464.582712428696
 30
0.0
 11
455.352369138598
 21
463.643019428696
 31
0.0
  0
LINE
  5
373C
330
1A
100
AcDbEntity
  8
0
100
AcDbLine
 10
454.070656138598
 20
464.240692428696
 30
0.0
 11
455.010349138598
 21
464.582712428696
 31
0.0
  0
LINE
  5
373D
330
1A
100
AcDbEntity
  8
外形線
100
AcDbLine
 10
455.138175138598
 20
465.693415428696
 30
0.0
 11
455.735847138598
 21
466.975127428696
 31
0.0
  0
LINE
  5
373E
330
1A
100
AcDbEntity
  8
外形線
100
AcDbLine
 10
455.138175138598
 20
465.693415428696
 30
0.0
 11
455.822215138598
 21
463.814029428696
 31
0.0
  0
LINE
  5
373F
330
1A
100
AcDbEntity
  8
外形線
100
AcDbLine
 10
438.648644138598
 20
467.140961428696
 30
0.0
 11
427.372333138598
 21
463.036719428696
 31
0.0
  0
ARC
  5
3740
330
1A
100
AcDbEntity
  8
細線
100
AcDbCircle
 10
428.781009138598
 20
466.475924428696
 30
0.0
 40
1.5
100
AcDbArc
 50
290.0
 51
20.0
  0
ARC
  5
3741
330
1A
100
AcDbEntity
  8
細線
100
AcDbCircle
 10
426.215858138598
 20
473.523619428696
 30
0.0
 40
1.5
100
AcDbArc
 50
20.0
 51
110.0
  0
LINE
  5
3742
330
1A
100
AcDbEntity
  8
外形線
100
AcDbLine
 10
426.090620138598
 20
463.634392428696
 30
0.0
 11
422.841429138598
 21
472.561471428696
 31
0.0
  0
LINE
  5
3743
330
1A
100
AcDbEntity
  8
外形線
100
AcDbLine
 10
425.218469138598
 20
466.030608428696
 30
0.0
 11
426.090620138598
 21
463.634392428696
 31
0.0
  0
ARC
  5
3744
330
1A
100
AcDbEntity
  8
外形線
100
AcDbCircle
 10
427.030313138598
 20
463.976412428696
 30
0.0
 40
1.0
100
AcDbArc
 50
200.0
 51
290.0
  0
ARC
  5
3745
330
1A
100
AcDbEntity
  8
外形線
100
AcDbCircle
 10
427.030313138598
 20
463.976412428696
 30
0.0
 40
1.0
100
AcDbArc
 50
200.0
 51
290.0
  0
LINE
  5
3746
330
1A
100
AcDbEntity
  8
細線
100
AcDbLine
 10
425.577590138598
 20
465.043930428696
 30
0.0
 11
429.273413138598
 21
466.389100428696
 31
0.0
  0
LINE
  5
3747
330
1A
100
AcDbEntity
  8
細線
100
AcDbLine
 10
422.841429138598
 20
472.561471428696
 30
0.0
 11
426.537252138598
 21
473.906641428696
 31
0.0
  0
LINE
  5
3748
330
1A
100
AcDbEntity
  8
外形線
100
AcDbLine
 10
422.841429138598
 20
472.561471428696
 30
0.0
 11
423.200550138598
 21
471.574794428696
 31
0.0
  0
LINE
  5
3749
330
1A
100
AcDbEntity
  8
外形線
100
AcDbLine
 10
422.841429138598
 20
472.561471428696
 30
0.0
 11
425.577590138598
 21
465.043930428696
 31
0.0
  0
LINE
  5
374A
330
1A
100
AcDbEntity
  8
細線
100
AcDbLine
 10
426.685704138598
 20
473.694629428696
 30
0.0
 11
429.250855138598
 21
466.646934428696
 31
0.0
  0
LINE
  5
374B
330
1A
100
AcDbEntity
  8
細線
100
AcDbLine
 10
426.944808138598
 20
464.211335428696
 30
0.0
 11
429.294039138598
 21
465.066385428696
 31
0.0
  0
LINE
  5
374C
330
1A
100
AcDbEntity
  8
細線
100
AcDbLine
 10
426.602788138598
 20
465.151027428696
 30
0.0
 11
428.952019138598
 21
466.006078428696
 31
0.0
  0
LINE
  5
374D
330
1A
100
AcDbEntity
  8
細線
100
AcDbLine
 10
426.602788138598
 20
465.151027428696
 30
0.0
 11
426.944808138598
 21
464.211335428696
 31
0.0
  0
LINE
  5
374E
330
1A
100
AcDbEntity
  8
細線
100
AcDbLine
 10
427.017898138598
 20
465.302115428696
 30
0.0
 11
426.933244138598
 21
465.537348428696
 31
0.0
  0
ARC
  5
3751
330
1A
100
AcDbEntity
  8
細線
100
AcDbCircle
 10
428.781009138598
 20
466.475924428696
 30
0.0
 40
0.5
100
AcDbArc
 50
290.0
 51
20.0
  0
LINE
  5
3752
330
1A
100
AcDbEntity
  8
細線
100
AcDbLine
 10
423.353596138598
 20
474.078107428696
 30
0.0
 11
423.695616138598
 21
473.138415428696
 31
0.0
  0
LINE
  5
3753
330
1A
100
AcDbEntity
  8
細線
100
AcDbLine
 10
423.695616138598
 20
473.138415428696
 30
0.0
 11
426.044848138598
 21
473.993465428696
 31
0.0
  0
LINE
  5
3754
330
1A
100
AcDbEntity
  8
細線
100
AcDbLine
 10
424.224311138598
 20
473.064799428696
 30
0.0
 11
424.139657138598
 21
473.300032428696
 31
0.0
  0
ARC
  5
3755
330
1A
100
AcDbEntity
  8
細線
100
AcDbCircle
 10
426.215858138598
 20
473.523619428696
 30
0.0
 40
0.5
100
AcDbArc
 50
20.0
 51
110.0
  0
LINE
  5
3756
330
1A
100
AcDbEntity
  8
細線
100
AcDbLine
 10
423.353596138598
 20
474.078107428696
 30
0.0
 11
425.702828138598
 21
474.933158428696
 31
0.0
  0
ARC
  5
3758
330
1A
100
AcDbEntity
  8
細線
100
AcDbCircle
 10
433.155630138598
 20
469.075775428696
 30
0.0
 40
0.5
100
AcDbArc
 50
289.978785000001
 51
20.0
  0
LINE
  5
3759
330
1A
100
AcDbEntity
  8
細線
100
AcDbLine
 10
430.958960138598
 20
471.894891428696
 30
0.0
 11
432.462671138598
 21
472.441566428696
 31
0.0
  0
LINE
  5
375A
330
1A
100
AcDbEntity
  8
細線
100
AcDbLine
 10
431.369384138598
 20
470.767260428696
 30
0.0
 11
432.873095138598
 21
471.313935428696
 31
0.0
  0
ARC
  5
375B
330
1A
100
AcDbEntity
  8
細線
100
AcDbCircle
 10
431.240317138598
 20
474.338054428696
 30
0.0
 40
0.5
100
AcDbArc
 50
20.0
 51
109.978785000001
  0
LINE
  5
375C
330
1A
100
AcDbEntity
  8
細線
100
AcDbLine
 10
428.582950138598
 20
474.329597428696
 30
0.0
 11
431.113900138598
 21
467.375871428696
 31
0.0
  0
LINE
  5
375D
330
1A
100
AcDbEntity
  8
細線
100
AcDbLine
 10
427.625397138598
 20
474.036649428696
 30
0.0
 11
430.190548138598
 21
466.988954428696
 31
0.0
  0
LINE
  5
375E
330
1A
100
AcDbEntity
  8
細線
100
AcDbLine
 10
430.977091138598
 20
467.751748428696
 30
0.0
 11
433.326466138598
 21
468.605866428696
 31
0.0
  0
LINE
  5
375F
330
1A
100
AcDbEntity
  8
細線
100
AcDbLine
 10
430.174080138598
 20
467.034199428696
 30
0.0
 11
431.113900138598
 21
467.375871428696
 31
0.0
  0
LINE
  5
3760
330
1A
100
AcDbEntity
  8
細線
100
AcDbLine
 10
430.958960138598
 20
471.894891428696
 30
0.0
 11
431.369384138598
 21
470.767260428696
 31
0.0
  0
LINE
  5
3761
330
1A
100
AcDbEntity
  8
細線
100
AcDbLine
 10
428.844704138598
 20
470.686630428696
 30
0.0
 11
429.436719138598
 21
471.983887428696
 31
0.0
  0
LINE
  5
3762
330
1A
100
AcDbEntity
  8
細線
100
AcDbLine
 10
429.066930138598
 20
470.076068428696
 30
0.0
 11
429.658945138598
 21
471.373325428696
 31
0.0
  0
LINE
  5
3763
330
1A
100
AcDbEntity
  8
細線
100
AcDbLine
 10
428.719758138598
 20
473.953720428696
 30
0.0
 11
431.069481138598
 21
474.807964428696
 31
0.0
  0
LINE
  5
3764
330
1A
100
AcDbEntity
  8
細線
100
AcDbLine
 10
427.643131138598
 20
473.987925428696
 30
0.0
 11
428.582950138598
 21
474.329597428696
 31
0.0
  0
LINE
  5
3765
330
1A
100
AcDbEntity
  8
細線
100
AcDbLine
 10
432.873095138598
 20
471.313935428696
 30
0.0
 11
433.625476138598
 21
469.246785428696
 31
0.0
  0
LINE
  5
3766
330
1A
100
AcDbEntity
  8
細線
100
AcDbLine
 10
431.710163138598
 20
474.509064428696
 30
0.0
 11
432.462671138598
 21
472.441566428696
 31
0.0
  0
LINE
  5
3767
330
1A
100
AcDbEntity
  8
外形線
100
AcDbLine
 10
441.212070138598
 20
465.945616428696
 30
0.0
 11
438.648644138598
 21
467.140961428696
 31
0.0
  0
LINE
  5
3768
330
1A
100
AcDbEntity
  8
外形線
100
AcDbLine
 10
438.648644138598
 20
467.140961428696
 30
0.0
 11
441.212070138598
 21
465.945616428696
 31
0.0
  0
LINE
  5
3769
330
1A
100
AcDbEntity
  8
外形線
100
AcDbLine
 10
393.747239138598
 20
483.787697428696
 30
0.0
 11
386.564816138598
 21
503.521242428696
 31
0.0
  0
ARC
  5
376A
330
1A
100
AcDbEntity
  8
外形線
100
AcDbCircle
 10
392.807547138598
 20
483.445677428696
 30
0.0
 40
1.0
100
AcDbArc
 50
290.0
 51
20.0
  0
LINE
  5
376B
330
1A
100
AcDbEntity
  8
細線
100
AcDbLine
 10
377.033162138598
 20
522.399736428696
 30
0.0
 11
377.033162138598
 21
515.382606428696
 31
0.0
  0
LINE
  5
376C
330
1A
100
AcDbEntity
  8
外形線
100
AcDbLine
 10
384.136818138598
 20
509.022589428696
 30
0.0
 11
379.006516138598
 21
523.117979428696
 31
0.0
  0
LINE
  5
376D
330
1A
100
AcDbEntity
  8
細線
100
AcDbLine
 10
376.823805138598
 20
515.306406428696
 30
0.0
 11
370.572187138598
 21
513.031004428696
 31
0.0
  0
LINE
  5
376E
330
1A
100
AcDbEntity
  8
細線
100
AcDbLine
 10
353.019477138598
 20
506.642340428696
 30
0.0
 11
359.554879138598
 21
509.021031428696
 31
0.0
  0
LINE
  5
376F
330
1A
100
AcDbEntity
  8
細線
100
AcDbLine
 10
365.118791138598
 20
518.063260428696
 30
0.0
 11
366.563337138598
 21
511.571902428696
 31
0.0
  0
LINE
  5
3770
330
1A
100
AcDbEntity
  8
細線
100
AcDbLine
 10
366.090281138598
 20
511.399723428696
 30
0.0
 11
359.554879138598
 21
509.021031428696
 31
0.0
  0
LINE
  5
3771
330
1A
100
AcDbEntity
  8
外形線
100
AcDbLine
 10
357.299617138598
 20
515.217313428696
 30
0.0
 11
379.006516138598
 21
523.117979428696
 31
0.0
  0
LINE
  5
3772
330
1A
100
AcDbEntity
  8
細線
100
AcDbLine
 10
372.222447138598
 20
504.686113428696
 30
0.0
 11
371.627586138598
 21
499.888111428696
 31
0.0
  0
LINE
  5
3773
330
1A
100
AcDbEntity
  8
細線
100
AcDbLine
 10
373.249990138598
 20
504.786767428696
 30
0.0
 11
372.550747138598
 21
500.275552428696
 31
0.0
  0
LINE
  5
3774
330
1A
100
AcDbEntity
  8
細線
100
AcDbLine
 10
372.207244138598
 20
498.295513428696
 30
0.0
 11
371.627586138598
 21
499.888111428696
 31
0.0
  0
LINE
  5
3775
330
1A
100
AcDbEntity
  8
細線
100
AcDbLine
 10
373.146937138598
 20
498.637533428696
 30
0.0
 11
372.550747138598
 21
500.275552428696
 31
0.0
  0
LINE
  5
3776
330
1A
100
AcDbEntity
  8
外形線
100
AcDbLine
 10
384.121615138598
 20
502.631989428696
 30
0.0
 11
383.437575138598
 21
504.511375428696
 31
0.0
  0
LINE
  5
3777
330
1A
100
AcDbEntity
  8
細線
100
AcDbLine
 10
351.785548138598
 20
496.974349428696
 30
0.0
 11
355.220952138598
 21
493.968023428696
 31
0.0
  0
LINE
  5
3778
330
1A
100
AcDbEntity
  8
細線
100
AcDbLine
 10
352.637390138598
 20
497.557735428696
 30
0.0
 11
356.177176138598
 21
494.264622428696
 31
0.0
  0
LINE
  5
3779
330
1A
100
AcDbEntity
  8
細線
100
AcDbLine
 10
355.817142138598
 20
492.330004428696
 30
0.0
 11
355.220952138598
 21
493.968023428696
 31
0.0
  0
LINE
  5
377A
330
1A
100
AcDbEntity
  8
細線
100
AcDbLine
 10
356.756835138598
 20
492.672024428696
 30
0.0
 11
356.177176138598
 21
494.264622428696
 31
0.0
  0
LINE
  5
377B
330
1A
100
AcDbEntity
  8
細線
100
AcDbLine
 10
381.960322138598
 20
501.845343428696
 30
0.0
 11
377.033162138598
 21
515.382606428696
 31
0.0
  0
LINE
  5
377C
330
1A
100
AcDbEntity
  8
外形線
100
AcDbLine
 10
384.136818138598
 20
509.022589428696
 30
0.0
 11
383.437575138598
 21
504.511375428696
 31
0.0
  0
LINE
  5
377D
330
1A
100
AcDbEntity
  8
細線
100
AcDbLine
 10
372.222447138598
 20
504.686113428696
 30
0.0
 11
367.092145138598
 21
518.781502428696
 31
0.0
  0
LINE
  5
377E
330
1A
100
AcDbEntity
  8
細線
100
AcDbLine
 10
373.249990138598
 20
504.786767428696
 30
0.0
 11
368.031838138598
 21
519.123523428696
 31
0.0
  0
LINE
  5
377F
330
1A
100
AcDbEntity
  8
細線
100
AcDbLine
 10
371.490498138598
 20
498.034639428696
 30
0.0
 11
366.563337138598
 21
511.571902428696
 31
0.0
  0
LINE
  5
3780
330
1A
100
AcDbEntity
  8
細線
100
AcDbLine
 10
357.473581138598
 20
492.932898428696
 30
0.0
 11
352.546420138598
 21
506.470161428696
 31
0.0
  0
LINE
  5
3781
330
1A
100
AcDbEntity
  8
外形線
100
AcDbLine
 10
364.482040138598
 20
495.483768428696
 30
0.0
 11
386.564816138598
 21
503.521242428696
 31
0.0
  0
CIRCLE
  5
3782
330
1A
100
AcDbEntity
  8
外形線
100
AcDbCircle
 10
410.114120138598
 20
463.672399428696
 30
0.0
 40
3.0
  0
LINE
  5
3783
330
1A
100
AcDbEntity
  8
外形線
100
AcDbLine
 10
393.453580138598
 20
465.589791428696
 30
0.0
 11
396.410766138598
 21
466.666119428696
 31
0.0
  0
LINE
  5
3784
330
1A
100
AcDbEntity
  8
外形線
100
AcDbLine
 10
393.453580138598
 20
465.589791428696
 30
0.0
 11
396.410766138598
 21
466.666119428696
 31
0.0
  0
ARC
  5
3785
330
1A
100
AcDbEntity
  8
外形線
100
AcDbCircle
 10
398.059463138598
 20
467.798285428696
 30
0.0
 40
2.0
100
AcDbArc
 50
214.477511999998
 51
290.0
  0
ARC
  5
3786
330
1A
100
AcDbEntity
  8
外形線
100
AcDbCircle
 10
398.059463138598
 20
467.798285428696
 30
0.0
 40
2.0
100
AcDbArc
 50
214.477511999998
 51
290.0
  0
LINE
  5
3787
330
1A
100
AcDbEntity
  8
外形線
100
AcDbLine
 10
393.453580138598
 20
465.589791428696
 30
0.0
 11
387.981257138598
 21
480.624873428696
 31
0.0
  0
LINE
  5
3788
330
1A
100
AcDbEntity
  8
外形線
100
AcDbLine
 10
420.278003138598
 20
473.756816428696
 30
0.0
 11
398.743503138598
 21
465.918899428696
 31
0.0
  0
LINE
  5
3789
330
1A
100
AcDbEntity
  8
外形線
100
AcDbLine
 10
398.743503138598
 20
465.918899428696
 30
0.0
 11
420.278003138598
 21
473.756816428696
 31
0.0
  0
ARC
  5
378A
330
1A
100
AcDbEntity
  8
外形線
100
AcDbCircle
 10
402.341093138598
 20
454.990271428696
 30
0.0
 40
1.0
100
AcDbArc
 50
202.836482999999
 51
290.0
  0
LINE
  5
378B
330
1A
100
AcDbEntity
  8
外形線
100
AcDbLine
 10
401.419477138598
 20
454.602168428696
 30
0.0
 11
396.348726138598
 21
466.643539428696
 31
0.0
  0
LINE
  5
378C
330
1A
100
AcDbEntity
  8
外形線
100
AcDbLine
 10
358.608884138598
 20
452.907359428696
 30
0.0
 11
362.464507138598
 21
440.423719428696
 31
0.0
  0
LINE
  5
378D
330
1A
100
AcDbEntity
  8
外形線
100
AcDbLine
 10
362.464507138598
 20
440.423719428696
 30
0.0
 11
358.608884138598
 21
452.907359428696
 31
0.0
  0
LINE
  5
378E
330
1A
100
AcDbEntity
  8
外形線
100
AcDbLine
 10
362.464507138598
 20
440.423719428696
 30
0.0
 11
358.608884138598
 21
452.907359428696
 31
0.0
  0
LINE
  5
378F
330
1A
100
AcDbEntity
  8
外形線
100
AcDbLine
 10
361.851061138598
 20
439.188926428696
 30
0.0
 11
361.124003138598
 21
438.924299428696
 31
0.0
  0
LINE
  5
3790
330
1A
100
AcDbEntity
  8
0
100
AcDbLine
 10
361.124003138598
 20
438.924299428696
 30
0.0
 11
361.124003138598
 21
438.924299428696
 31
0.0
  0
ARC
  5
3791
330
1A
100
AcDbEntity
  8
外形線
100
AcDbCircle
 10
361.509041138598
 20
440.128619428696
 30
0.0
 40
1.0
100
AcDbArc
 50
290.0
 51
17.163517000001
  0
LINE
  5
3792
330
1A
100
AcDbEntity
  8
外形線
100
AcDbLine
 10
361.124003138598
 20
438.924299428696
 30
0.0
 11
361.851061138598
 21
439.188926428696
 31
0.0
  0
ARC
  5
3793
330
1A
100
AcDbEntity
  8
外形線
100
AcDbCircle
 10
361.509041138598
 20
440.128619428696
 30
0.0
 40
1.0
100
AcDbArc
 50
290.0
 51
17.163517000001
  0
LINE
  5
3794
330
1A
100
AcDbEntity
  8
外形線
100
AcDbLine
 10
361.124003138598
 20
438.924299428696
 30
0.0
 11
361.851061138598
 21
439.188926428696
 31
0.0
  0
ARC
  5
3795
330
1A
100
AcDbEntity
  8
外形線
100
AcDbCircle
 10
361.509041138598
 20
440.128619428696
 30
0.0
 40
1.0
100
AcDbArc
 50
290.0
 51
17.163517000001
  0
LINE
  5
3796
330
1A
100
AcDbEntity
  8
外形線
100
AcDbLine
 10
361.504031138598
 20
453.961106428696
 30
0.0
 11
358.608884138598
 21
452.907359428696
 31
0.0
  0
LINE
  5
3797
330
1A
100
AcDbEntity
  8
外形線
100
AcDbLine
 10
358.608884138598
 20
452.907359428696
 30
0.0
 11
361.504031138598
 21
453.961106428696
 31
0.0
  0
LINE
  5
3798
330
1A
100
AcDbEntity
  8
外形線
100
AcDbLine
 10
358.608884138598
 20
452.907359428696
 30
0.0
 11
361.504031138598
 21
453.961106428696
 31
0.0
  0
ARC
  5
3799
330
1A
100
AcDbEntity
  8
外形線
100
AcDbCircle
 10
374.233855138598
 20
439.237975428696
 30
0.0
 40
18.225891
100
AcDbArc
 50
76.447422
 51
143.552578
  0
LINE
  5
379A
330
1A
100
AcDbEntity
  8
0
100
AcDbLine
 10
378.504866138598
 20
456.956371428696
 30
0.0
 11
382.267087138598
 21
446.619752428696
 31
0.0
  0
LINE
  5
379B
330
1A
100
AcDbEntity
  8
外形線
100
AcDbLine
 10
356.031708138598
 20
468.996188428696
 30
0.0
 11
361.504031138598
 21
453.961106428696
 31
0.0
  0
LINE
  5
379C
330
1A
100
AcDbEntity
  8
外形線
100
AcDbLine
 10
358.608884138598
 20
452.907359428696
 30
0.0
 11
396.410766138598
 21
466.666119428696
 31
0.0
  0
ARC
  5
379D
330
1A
100
AcDbEntity
  8
外形線
100
AcDbCircle
 10
393.165815138598
 20
446.128645428696
 30
0.0
 40
18.225891
100
AcDbArc
 50
76.447422
 51
143.552578
  0
LINE
  5
379E
330
1A
100
AcDbEntity
  8
外形線
100
AcDbLine
 10
350.863399138598
 20
467.115078428696
 30
0.0
 11
393.149567138598
 21
482.505984428696
 31
0.0
  0
LINE
  5
379F
330
1A
100
AcDbEntity
  8
外形線
100
AcDbLine
 10
382.267087138598
 20
446.619752428696
 30
0.0
 11
438.648644138598
 21
467.140961428696
 31
0.0
  0
ARC
  5
37A0
330
1A
100
AcDbEntity
  8
外形線
100
AcDbCircle
 10
-420.962044138598
 20
471.877431428696
 30
0.0
 40
2.0
210
0.0
220
0.0
230
-1.0
100
AcDbArc
 50
70.0
 51
160.0
  0
LINE
  5
37A1
330
1A
100
AcDbEntity
  8
外形線
100
AcDbLine
 10
453.238060138598
 20
462.873474428696
 30
0.0
 11
493.879766138598
 21
477.665845428696
 31
0.0
  0
LINE
  5
37A2
330
1A
100
AcDbEntity
  8
外形線
100
AcDbLine
 10
494.732417138598
 20
481.168718428696
 30
0.0
 11
455.735847138598
 21
466.975127428696
 31
0.0
  0
LINE
  5
37A3
330
1A
100
AcDbEntity
  8
外形線
100
AcDbLine
 10
353.366385138598
 20
526.023779428696
 30
0.0
 11
375.355192138598
 21
534.027050428696
 31
0.0
  0
LINE
  5
37A4
330
1A
100
AcDbEntity
  8
外形線
100
AcDbLine
 10
352.853355138598
 20
527.433318428696
 30
0.0
 11
382.171765138598
 21
538.104346428696
 31
0.0
  0
LINE
  5
37A5
330
1A
100
AcDbEntity
  8
外形線
100
AcDbLine
 10
377.033162138598
 20
522.399736428696
 30
0.0
 11
373.099930138598
 21
533.206202428696
 31
0.0
  0
LINE
  5
37A6
330
1A
100
AcDbEntity
  8
外形線
100
AcDbLine
 10
338.146489138598
 20
567.840100428696
 30
0.0
 11
335.985196138598
 21
567.053454428696
 31
0.0
  0
LINE
  5
37A7
330
1A
100
AcDbEntity
  8
外形線
100
AcDbLine
 10
338.146489138598
 20
567.840100428696
 30
0.0
 11
340.307782138598
 21
568.626747428696
 31
0.0
  0
LINE
  5
37A8
330
1A
100
AcDbEntity
  8
外形線
100
AcDbLine
 10
328.299448138598
 20
555.086931428696
 30
0.0
 11
327.211684138598
 21
563.860157428696
 31
0.0
  0
LINE
  5
37A9
330
1A
100
AcDbEntity
  8
外形線
100
AcDbLine
 10
327.211684138598
 20
563.860157428696
 30
0.0
 11
324.175958138598
 21
562.755243428696
 31
0.0
  0
LINE
  5
37AA
330
1A
100
AcDbEntity
  8
外形線
100
AcDbLine
 10
338.379337138598
 20
560.475606428696
 30
0.0
 11
329.605825138598
 21
557.282309428696
 31
0.0
  0
LINE
  5
37AB
330
1A
100
AcDbEntity
  8
外形線
100
AcDbLine
 10
335.752348138598
 20
574.417949428696
 30
0.0
 11
315.924833138598
 21
567.201324428696
 31
0.0
  0
LINE
  5
37AC
330
1A
100
AcDbEntity
  8
外形線
100
AcDbLine
 10
316.954345138598
 20
552.677546428696
 30
0.0
 11
316.860376138598
 21
552.643344428696
 31
0.0
  0
LINE
  5
37AD
330
1A
100
AcDbEntity
  8
外形線
100
AcDbLine
 10
349.325034138598
 20
530.402549428696
 30
0.0
 11
335.985196138598
 21
567.053454428696
 31
0.0
  0
LINE
  5
37AE
330
1A
100
AcDbEntity
  8
外形線
100
AcDbLine
 10
324.613790138598
 20
553.517975428696
 30
0.0
 11
324.175958138598
 21
562.755243428696
 31
0.0
  0
LINE
  5
37AF
330
1A
100
AcDbEntity
  8
外形線
100
AcDbLine
 10
324.523053138598
 20
555.432331428696
 30
0.0
 11
316.954345138598
 21
552.677546428696
 31
0.0
  0
ARC
  5
37B0
330
1A
100
AcDbEntity
  8
外形線
100
AcDbCircle
 10
315.928284138598
 20
555.496624428696
 30
0.0
 40
3.0
100
AcDbArc
 50
290.0
 51
20.0
  0
ARC
  5
37B1
330
1A
100
AcDbEntity
  8
外形線
100
AcDbCircle
 10
320.572299138598
 20
548.292527428696
 30
0.0
 40
8.0
100
AcDbArc
 50
154.762342999999
 51
200.0
  0
LINE
  5
37B2
330
1A
100
AcDbEntity
  8
外形線
100
AcDbLine
 10
318.747362138598
 20
556.522685428696
 30
0.0
 11
315.327161138598
 21
565.919611428696
 31
0.0
  0
LINE
  5
37B3
330
1A
100
AcDbEntity
  8
外形線
100
AcDbLine
 10
317.379282138598
 20
560.281455428696
 30
0.0
 11
313.335923138598
 21
551.703518428696
 31
0.0
  0
ARC
  5
37B4
330
1A
100
AcDbEntity
  8
外形線
100
AcDbCircle
 10
318.228456138598
 20
548.884574428696
 30
0.0
 40
4.0
100
AcDbArc
 50
110.0
 51
200.0
  0
ARC
  5
37B5
330
1A
100
AcDbEntity
  8
外形線
100
AcDbCircle
 10
316.266853138598
 20
566.261631428696
 30
0.0
 40
1.0
100
AcDbArc
 50
110.0
 51
200.0
  0
LINE
  5
37B6
330
1A
100
AcDbEntity
  8
外形線
100
AcDbLine
 10
337.566072138598
 20
508.034890428696
 30
0.0
 11
333.632840138598
 21
518.841356428696
 31
0.0
  0
LINE
  5
37B7
330
1A
100
AcDbEntity
  8
外形線
100
AcDbLine
 10
331.377578138598
 20
518.020507428696
 30
0.0
 11
330.864547138598
 21
519.430046428696
 31
0.0
  0
LINE
  5
37B8
330
1A
100
AcDbEntity
  8
外形線
100
AcDbLine
 10
340.723019138598
 20
493.221259428696
 30
0.0
 11
344.158424138598
 21
490.214933428696
 31
0.0
  0
LINE
  5
37B9
330
1A
100
AcDbEntity
  8
細線
100
AcDbLine
 10
347.003757138598
 20
489.122194428696
 30
0.0
 11
342.076596138598
 21
502.659457428696
 31
0.0
  0
LINE
  5
37BA
330
1A
100
AcDbEntity
  8
細線
100
AcDbLine
 10
342.285953138598
 20
502.735656428696
 30
0.0
 11
348.537570138598
 21
505.011059428696
 31
0.0
  0
LINE
  5
37BB
330
1A
100
AcDbEntity
  8
外形線
100
AcDbLine
 10
344.842464138598
 20
488.335547428696
 30
0.0
 11
344.158424138598
 21
490.214933428696
 31
0.0
  0
LINE
  5
37BC
330
1A
100
AcDbEntity
  8
細線
100
AcDbLine
 10
337.566072138598
 20
508.034890428696
 30
0.0
 11
342.076596138598
 21
502.659457428696
 31
0.0
  0
LINE
  5
37BD
330
1A
100
AcDbEntity
  8
外形線
100
AcDbLine
 10
340.723019138598
 20
493.221259428696
 30
0.0
 11
335.592717138598
 21
507.316648428696
 31
0.0
  0
LINE
  5
37BE
330
1A
100
AcDbEntity
  8
外形線
100
AcDbLine
 10
349.581686138598
 20
467.712750428696
 30
0.0
 11
342.399263138598
 21
487.446295428696
 31
0.0
  0
LINE
  5
37BF
330
1A
100
AcDbEntity
  8
外形線
100
AcDbLine
 10
325.059842138598
 20
420.352425428696
 30
0.0
 11
315.935841138598
 21
413.963731428696
 31
0.0
  0
LINE
  5
37C0
330
1A
100
AcDbEntity
  8
外形線
100
AcDbLine
 10
315.935841138598
 20
413.963731428696
 30
0.0
 11
325.059842138598
 21
420.352425428696
 31
0.0
  0
LINE
  5
37C1
330
1A
100
AcDbEntity
  8
外形線
100
AcDbLine
 10
315.935841138598
 20
413.963731428696
 30
0.0
 11
325.059842138598
 21
420.352425428696
 31
0.0
  0
LINE
  5
37C2
330
1A
100
AcDbEntity
  8
外形線
100
AcDbLine
 10
331.993532138598
 20
428.321674428696
 30
0.0
 11
325.885530138598
 21
426.098544428696
 31
0.0
  0
LINE
  5
37C3
330
1A
100
AcDbEntity
  8
外形線
100
AcDbLine
 10
325.885530138598
 20
426.098544428696
 30
0.0
 11
331.993532138598
 21
428.321674428696
 31
0.0
  0
LINE
  5
37C4
330
1A
100
AcDbEntity
  8
外形線
100
AcDbLine
 10
325.885530138598
 20
426.098544428696
 30
0.0
 11
331.993532138598
 21
428.321674428696
 31
0.0
  0
ARC
  5
37C5
330
1A
100
AcDbEntity
  8
外形線
100
AcDbCircle
 10
324.486266138598
 20
421.171577428696
 30
0.0
 40
1.0
100
AcDbArc
 50
305.0
 51
20.0
  0
ARC
  5
37C6
330
1A
100
AcDbEntity
  8
外形線
100
AcDbCircle
 10
324.486266138598
 20
421.171577428696
 30
0.0
 40
1.0
100
AcDbArc
 50
305.0
 51
20.0
  0
ARC
  5
37C7
330
1A
100
AcDbEntity
  8
外形線
100
AcDbCircle
 10
324.486266138598
 20
421.171577428696
 30
0.0
 40
1.0
100
AcDbArc
 50
305.0
 51
20.0
  0
LINE
  5
37C8
330
1A
100
AcDbEntity
  8
外形線
100
AcDbLine
 10
325.885530138598
 20
426.098544428696
 30
0.0
 11
324.690185138598
 21
423.535118428696
 31
0.0
  0
LINE
  5
37C9
330
1A
100
AcDbEntity
  8
外形線
100
AcDbLine
 10
324.690185138598
 20
423.535118428696
 30
0.0
 11
325.425958138598
 21
421.513597428696
 31
0.0
  0
LINE
  5
37CA
330
1A
100
AcDbEntity
  8
外形線
100
AcDbLine
 10
325.425958138598
 20
421.513597428696
 30
0.0
 11
324.690185138598
 21
423.535118428696
 31
0.0
  0
LINE
  5
37CB
330
1A
100
AcDbEntity
  8
外形線
100
AcDbLine
 10
324.690185138598
 20
423.535118428696
 30
0.0
 11
325.885530138598
 21
426.098544428696
 31
0.0
  0
LINE
  5
37CC
330
1A
100
AcDbEntity
  8
外形線
100
AcDbLine
 10
325.425958138598
 20
421.513597428696
 30
0.0
 11
324.690185138598
 21
423.535118428696
 31
0.0
  0
LINE
  5
37CD
330
1A
100
AcDbEntity
  8
外形線
100
AcDbLine
 10
324.690185138598
 20
423.535118428696
 30
0.0
 11
325.885530138598
 21
426.098544428696
 31
0.0
  0
LINE
  5
37CE
330
1A
100
AcDbEntity
  8
0
100
AcDbLine
 10
331.993532138598
 20
428.321674428696
 30
0.0
 11
331.993532138598
 21
428.321674428696
 31
0.0
  0
LINE
  5
37CF
330
1A
100
AcDbEntity
  8
外形線
100
AcDbLine
 10
312.902569138598
 20
414.988066428696
 30
0.0
 11
314.184282138598
 21
414.390393428696
 31
0.0
  0
LINE
  5
37D0
330
1A
100
AcDbEntity
  8
外形線
100
AcDbLine
 10
314.996148138598
 20
413.621711428696
 30
0.0
 11
315.338168138598
 21
412.682018428696
 31
0.0
  0
LINE
  5
37D1
330
1A
100
AcDbEntity
  8
外形線
100
AcDbLine
 10
314.184282138598
 20
414.390393428696
 30
0.0
 11
314.868322138598
 21
412.511008428696
 31
0.0
  0
LINE
  5
37D2
330
1A
100
AcDbEntity
  8
外形線
100
AcDbLine
 10
315.935841138598
 20
413.963731428696
 30
0.0
 11
314.996148138598
 21
413.621711428696
 31
0.0
  0
ARC
  5
37D3
330
1A
100
AcDbEntity
  8
外形線
100
AcDbCircle
 10
274.932059138598
 20
397.975397428696
 30
0.0
 40
3.0
100
AcDbArc
 50
110.0
 51
198.747246
  0
LINE
  5
37D4
330
1A
100
AcDbEntity
  8
外形線
100
AcDbLine
 10
276.810771138598
 20
398.659192428696
 30
0.0
 11
273.719277138598
 21
392.214363428696
 31
0.0
  0
LINE
  5
37D5
330
1A
100
AcDbEntity
  8
外形線
100
AcDbLine
 10
272.091223138598
 20
397.011215428696
 30
0.0
 11
286.846990138598
 21
353.535259428696
 31
0.0
  0
LINE
  5
37D6
330
1A
100
AcDbEntity
  8
外形線
100
AcDbLine
 10
312.902569138598
 20
414.988066428696
 30
0.0
 11
273.905999138598
 21
400.794475428696
 31
0.0
  0
LINE
  5
37D7
330
1A
100
AcDbEntity
  8
外形線
100
AcDbLine
 10
276.810771138598
 20
398.659192428696
 30
0.0
 11
317.452477138598
 21
413.451563428696
 31
0.0
  0
LINE
  5
37D8
330
1A
100
AcDbEntity
  8
外形線
100
AcDbLine
 10
334.940315138598
 20
525.146080428696
 30
0.0
 11
324.613790138598
 21
553.517975428696
 31
0.0
  0
LINE
  5
37D9
330
1A
100
AcDbEntity
  8
外形線
100
AcDbLine
 10
338.697335138598
 20
526.518972428696
 30
0.0
 11
328.299448138598
 21
555.086931428696
 31
0.0
  0
LINE
  5
37DA
330
1A
100
AcDbEntity
  8
外形線
100
AcDbLine
 10
323.534945138598
 20
516.762289428696
 30
0.0
 11
313.054758138598
 21
545.556366428696
 31
0.0
  0
LINE
  5
37DB
330
1A
100
AcDbEntity
  8
外形線
100
AcDbLine
 10
324.059078138598
 20
521.169855428696
 30
0.0
 11
314.469686138598
 21
547.516493428696
 31
0.0
  0
LINE
  5
37DC
330
1A
100
AcDbEntity
  8
細線
100
AcDbLine
 10
327.211684138598
 20
563.860157428696
 30
0.0
 11
340.555609138598
 21
527.198023428696
 31
0.0
  0
LINE
  5
37DD
330
1A
100
AcDbEntity
  8
外形線
100
AcDbLine
 10
270.467823138598
 20
323.986459428696
 30
0.0
 11
281.925498138598
 21
292.506756428696
 31
0.0
  0
LINE
  5
37DE
330
1A
100
AcDbEntity
  8
外形線
100
AcDbLine
 10
270.467823138598
 20
323.986459428696
 30
0.0
 11
286.846990138598
 21
353.535259428696
 31
0.0
  0
LINE
  5
37DF
330
1A
100
AcDbEntity
  8
外形線
100
AcDbLine
 10
281.925498138598
 20
292.506756428696
 30
0.0
 11
558.195128138598
 21
393.060679428696
 31
0.0
  0
LINE
  5
37E0
330
1A
100
AcDbEntity
  8
外形線
100
AcDbLine
 10
382.267087138598
 20
446.619752428696
 30
0.0
 11
331.993532138598
 21
428.321674428696
 31
0.0
  0
LINE
  5
37E1
330
1A
100
AcDbEntity
  8
外形線
100
AcDbLine
 10
546.737453138598
 20
424.540381428696
 30
0.0
 11
270.467823138598
 21
323.986459428696
 31
0.0
  0
LINE
  5
37E2
330
1A
100
AcDbEntity
  8
外形線
100
AcDbLine
 10
515.196681138598
 20
436.647750428696
 30
0.0
 11
286.846990138598
 21
353.535259428696
 31
0.0
  0
LINE
  5
37E3
330
1A
100
AcDbEntity
  8
細線
100
AcDbLine
 10
324.690185138598
 20
423.535118428696
 30
0.0
 11
441.212070138598
 21
465.945616428696
 31
0.0
  0
LINE
  5
37E4
330
1A
100
AcDbEntity
  8
細線
100
AcDbLine
 10
442.974692138598
 20
463.269921428696
 30
0.0
 11
325.059842138598
 21
420.352425428696
 31
0.0
  0
LINE
  5
37E5
330
1A
100
AcDbEntity
  8
細線
100
AcDbLine
 10
455.010349138598
 20
464.582712428696
 30
0.0
 11
315.935841138598
 21
413.963731428696
 31
0.0
  0
LINE
  5
37E6
330
1A
100
AcDbEntity
  8
外形線
100
AcDbLine
 10
455.352369138598
 20
463.643019428696
 30
0.0
 11
315.338168138598
 21
412.682018428696
 31
0.0
  0
LINE
  5
37E7
330
1A
100
AcDbEntity
  8
外形線
100
AcDbLine
 10
353.646567138598
 20
531.978734428696
 30
0.0
 11
340.307782138598
 21
568.626747428696
 31
0.0
  0
LINE
  5
37E8
330
1A
100
AcDbEntity
  8
外形線
100
AcDbLine
 10
351.683549138598
 20
531.264398428696
 30
0.0
 11
322.378820138598
 21
520.555855428696
 31
0.0
  0
LINE
  5
37E9
330
1A
100
AcDbEntity
  8
外形線
100
AcDbLine
 10
352.853355138598
 20
527.433318428696
 30
0.0
 11
323.534945138598
 21
516.762289428696
 31
0.0
  0
LINE
  5
37EA
330
1A
100
AcDbEntity
  8
外形線
100
AcDbLine
 10
353.366385138598
 20
526.023779428696
 30
0.0
 11
331.377578138598
 21
518.020507428696
 31
0.0
  0
LINE
  5
37EB
330
1A
100
AcDbEntity
  8
外形線
100
AcDbLine
 10
357.299617138598
 20
515.217313428696
 30
0.0
 11
335.592717138598
 21
507.316648428696
 31
0.0
  0
LINE
  5
37EC
330
1A
100
AcDbEntity
  8
外形線
100
AcDbLine
 10
364.482040138598
 20
495.483768428696
 30
0.0
 11
342.399263138598
 21
487.446295428696
 31
0.0
  0
LINE
  5
37ED
330
1A
100
AcDbEntity
  8
細線
100
AcDbLine
 10
352.637390138598
 20
497.557735428696
 30
0.0
 11
347.507088138598
 21
511.653125428696
 31
0.0
  0
LINE
  5
37EE
330
1A
100
AcDbEntity
  8
細線
100
AcDbLine
 10
351.785548138598
 20
496.974349428696
 30
0.0
 11
346.567395138598
 21
511.311104428696
 31
0.0
  0
LINE
  5
37EF
330
1A
100
AcDbEntity
  8
細線
100
AcDbLine
 10
349.480443138598
 20
512.371367428696
 30
0.0
 11
352.546420138598
 21
506.470161428696
 31
0.0
  0
LINE
  5
37F0
330
1A
100
AcDbEntity
  8
外形線
100
AcDbLine
 10
335.752348138598
 20
574.417949428696
 30
0.0
 11
355.579862138598
 21
581.634574428696
 31
0.0
  0
LINE
  5
37F1
330
1A
100
AcDbEntity
  8
外形線
100
AcDbLine
 10
351.475434138598
 20
565.242195428696
 30
0.0
 11
342.701923138598
 21
562.048898428696
 31
0.0
  0
LINE
  5
37F2
330
1A
100
AcDbEntity
  8
細線
100
AcDbLine
 10
349.081293138598
 20
571.820044428696
 30
0.0
 11
362.420079138598
 21
535.172031428696
 31
0.0
  0
LINE
  5
37F3
330
1A
100
AcDbEntity
  8
外形線
100
AcDbLine
 10
353.887339138598
 20
564.400161428696
 30
0.0
 11
349.081293138598
 21
571.820044428696
 31
0.0
  0
LINE
  5
37F4
330
1A
100
AcDbEntity
  8
外形線
100
AcDbLine
 10
349.081293138598
 20
571.820044428696
 30
0.0
 11
352.117019138598
 21
572.924957428696
 31
0.0
  0
ARC
  5
37F5
330
1A
100
AcDbEntity
  8
外形線
100
AcDbCircle
 10
350.521379138598
 20
468.054770428696
 30
0.0
 40
1.0
100
AcDbArc
 50
200.0
 51
290.0
  0
LINE
  5
37F6
330
1A
100
AcDbEntity
  8
外形線
100
AcDbLine
 10
320.717266138598
 20
568.945626428696
 30
0.0
 11
233.666615138598
 21
808.115323428696
 31
0.0
  0
LINE
  5
37F8
330
1A
100
AcDbEntity
  8
外形線
100
AcDbLine
 10
267.720304138598
 20
808.115323428696
 30
0.0
 11
350.787430138598
 21
579.890271428696
 31
0.0
  0
DIMENSION
  5
38FA
330
1A
100
AcDbEntity
  8
寸法線
 48
10.0
100
AcDbDimension
  2
*D7
 10
337.376153838782
 20
1210.27733542636
 30
0.0
 11
481.615788812979
 21
813.98217223909
 31
0.0
 70
   161
  1
845
 71
     5
 42
843.457002254684
  3
ISO-25
100
AcDbAlignedDimension
 13
454.304833506029
 23
355.247704159099
 33
0.0
 14
165.825563557635
 24
1147.838030533639
 34
0.0
1001
ACAD
1000
DSTYLE
1002
{
1070
    41
1040
13.0
1070
    47
1040
0.1
1070
    48
1040
0.1
1070
    73
1070
     0
1070
   140
1040
14.0
1070
   271
1070
     1
1070
   272
1070
     1
1070
   341
1005
2AEC
1070
   342
1005
2AEC
1002
}
  0
LEADER
  5
39D1
330
1A
100
AcDbEntity
  8
寸法線
 48
10.0
100
AcDbLeader
  3
ISO-25
 76
     3
 10
118.768749859053
 20
1032.192801743927
 30
0.0
 10
88.363378452695
 20
903.836646573386
 30
0.0
 10
31.89625610934
 20
903.836646573386
 30
0.0
1001
ACAD
1000
DSTYLE
1002
{
1070
   147
1040
0.625
1070
    77
1070
     0
1070
    41
1040
13.0
1070
    47
1040
0.1
1070
    48
1040
0.1
1070
    73
1070
     0
1070
   140
1040
14.0
1070
   271
1070
     1
1070
   272
1070
     1
1070
   341
1005
2AEC
1070
   342
1005
2AEC
1002
}
  0
MTEXT
  5
39D2
330
1A
100
AcDbEntity
  8
寸法線
 48
10.0
100
AcDbMText
 10
33.13729534987
 20
919.64863416348
 30
0.0
 40
10.0
 41
54.295306484509
 71
     1
 72
     5
  1
\A1;2×{\H0.7x;\S1#2;"}NPT
 73
     1
 44
1.0
  0
DIMENSION
  5
3A15
330
1A
100
AcDbEntity
  8
寸法線
 48
10.0
100
AcDbDimension
  2
*D8
 10
315.548365128791
 20
1053.347784118329
 30
0.0
 11
291.606955954027
 21
1119.126267885641
 31
0.0
 70
   161
 71
     5
 42
140.0
  3
ISO-25
100
AcDbAlignedDimension
 13
154.522877355596
 23
1143.724189428696
 33
0.0
 14
202.405695705124
 24
1012.167221894072
 34
0.0
1001
ACAD
1000
DSTYLE
1002
{
1070
    41
1040
13.0
1070
    47
1040
0.1
1070
    48
1040
0.1
1070
    73
1070
     0
1070
   140
1040
14.0
1070
   271
1070
     1
1070
   272
1070
     1
1070
   341
1005
2AEC
1070
   342
1005
2AEC
1002
}
  0
DIMENSION
  5
3A3E
330
1A
100
AcDbEntity
  8
寸法線
 48
10.0
100
AcDbDimension
  2
*D9
 10
581.801887258903
 20
401.652836212021
 30
0.0
 11
562.9052742128
 21
453.570853860363
 31
0.0
 70
   161
  1
110
 71
     5
 42
110.500000744754
  3
ISO-25
100
AcDbAlignedDimension
 13
438.648644138598
 23
467.140961428696
 33
0.0
 14
476.441870230805
 24
363.304926132014
 34
0.0
1001
ACAD
1000
DSTYLE
1002
{
1070
    41
1040
13.0
1070
    47
1040
0.1
1070
    48
1040
0.1
1070
    73
1070
     0
1070
   140
1040
14.0
1070
   271
1070
     1
1070
   272
1070
     1
1070
   341
1005
2AEC
1070
   342
1005
2AEC
1002
}
  0
DIMENSION
  5
3A54
330
1A
100
AcDbEntity
  8
寸法線
 48
10.0
100
AcDbDimension
  2
*D10
 10
315.548365368141
 20
1053.347783460718
 30
0.0
 11
393.692612320524
 21
838.648221184437
 31
0.0
 70
   161
  1
460（Movable range 380）
 71
     5
 42
456.957001799432
  3
ISO-25
100
AcDbAlignedDimension
 13
335.752342281075
 23
574.417947296732
 33
0.0
 14
179.463848376309
 24
1003.817071849294
 34
0.0
1001
ACAD
1000
DSTYLE
1002
{
1070
    41
1040
13.0
1070
    47
1040
0.1
1070
    48
1040
0.1
1070
    73
1070
     0
1070
   140
1040
14.0
1070
   271
1070
     1
1070
   272
1070
     1
1070
   341
1005
2AEC
1070
   342
1005
2AEC
1002
}
  0
DIMENSION
  5
4006
330
1A
100
AcDbEntity
  8
寸法線
 48
10.0
100
AcDbDimension
  2
*D11
 10
160.308129455114
 20
1203.368174138501
 30
0.0
 11
110.480670515849
 21
1193.34682357496
 31
0.0
 70
    33
  1
φ100
 71
     5
 42
100.500000128588
  3
ISO-25
100
AcDbAlignedDimension
 13
93.59601773481
 23
1092.81582628537
 33
0.0
 14
188.035129988443
 24
1127.188840447528
 34
0.0
1001
ACAD
1000
DSTYLE
1002
{
1070
    41
1040
13.0
1070
    47
1040
0.1
1070
    48
1040
0.1
1070
    73
1070
     0
1070
   140
1040
14.0
1070
   271
1070
     1
1070
   272
1070
     1
1070
   341
1005
2AEC
1070
   342
1005
2AEC
1002
}
  0
MTEXT
  5
4103
330
1A
100
AcDbEntity
  8
寸法線
 48
10.0
100
AcDbMText
 10
10.24191248598
 20
979.284809787581
 30
0.0
 40
10.0
 41
75.33908472822
 71
     1
 72
     5
  1
Code Lock\P   2×M20
 73
     1
 44
1.0
  0
MTEXT
  5
4104
330
1A
100
AcDbEntity
  8
寸法線
 48
10.0
100
AcDbMText
 10
94.428691402415
 20
765.172180129433
 30
0.0
 40
10.0
 41
160.711111111111
 71
     1
 72
     5
  1
Aiming Device
 73
     1
 44
1.0
  0
VIEWPORT
  5
396A
102
{ACAD_XDICTIONARY
360
416B
102
}
330
3968
100
AcDbEntity
 67
     1
  8
0
 48
10.0
100
AcDbViewport
 10
0.0
 20
0.0
 30
0.0
 40
481.489494561258
 41
342.623252194534
 68
     1
 69
     1
 12
120.229300823919
 22
98.254024589271
 13
0.0
 23
0.0
 14
10.0
 24
10.0
 15
10.0
 25
10.0
 16
0.0
 26
0.0
 36
1.0
 17
0.0
 27
0.0
 37
0.0
 42
50.0
 43
0.0
 44
0.0
 45
342.623252194534
 50
0.0
 51
0.0
 72
   100
 90
    32816
  1

281
     0
 71
     1
 74
     0
110
0.0
120
0.0
130
0.0
111
1.0
121
0.0
131
0.0
112
0.0
122
1.0
132
0.0
 79
     0
146
0.0
170
     0
  0
VIEWPORT
  5
396B
102
{ACAD_XDICTIONARY
360
416D
102
}
330
3968
100
AcDbEntity
 67
     1
  8
図枠太線
 48
10.0
100
AcDbViewport
 10
141.494923295415
 20
218.452497602501
 30
0.0
 40
280.0
 41
375.0
 68
     2
 69
     2
 12
308.23058444226
 22
713.397177217393
 13
0.0
 23
0.0
 14
1.0
 24
1.0
 15
0.0
 25
0.0
 16
0.0
 26
0.0
 36
1.0
 17
0.0
 27
0.0
 37
0.0
 42
50.0
 43
0.0
 44
0.0
 45
1071.428573255748
 50
0.0
 51
0.0
 72
   100
 90
    32768
  1

281
     0
 71
     1
 74
     0
110
0.0
120
0.0
130
0.0
111
1.0
121
0.0
131
0.0
112
0.0
122
1.0
132
0.0
 79
     0
146
0.0
170
     0
  0
INSERT
  5
396C
330
3968
100
AcDbEntity
 67
     1
  8
図枠太線
100
AcDbBlockReference
  2
A3縦用　タイトル
 10
-2.082948587547
 20
-1.868345086753
 30
0.0
  0
MTEXT
  5
39B1
330
3968
100
AcDbEntity
 67
     1
  8
寸法線
 48
10.0
100
AcDbMText
 10
229.56934581043
 20
24.597665810882
 30
0.0
 40
4.5
 41
30.300369104503
 71
     1
 72
     5
  1
SBD-31J/STD-31J
 73
     1
 44
1.0
  0
MTEXT
  5
39B2
102
{ACAD_XDICTIONARY
360
410D
102
}
330
3968
100
AcDbEntity
 67
     1
  8
寸法線
 48
10.0
100
AcDbMText
 10
237.990759715731
 20
11.959897812941
 30
0.0
 40
5.0
 41
42.491982512418
 71
     1
 72
     5
  1
\H1.2x;HX-1136
 73
     1
 44
1.0
1001
AcadAnnotative
1000
AnnotativeData
1002
{
1070
     1
1070
     0
1002
}
  0
MTEXT
  5
39B3
102
{ACAD_XDICTIONARY
360
4091
102
}
330
3968
100
AcDbEntity
 67
     1
  8
寸法線
 48
10.0
100
AcDbMText
 10
213.217630681101
 20
24.865601887044
 30
0.0
 40
4.5
 41
15.924803918693
 71
     1
 72
     5
  1
Type：
 73
     1
 44
1.0
1001
AcadAnnotative
1000
AnnotativeData
1002
{
1070
     1
1070
     0
1002
}
  0
MTEXT
  5
39B4
102
{ACAD_XDICTIONARY
360
409A
102
}
330
3968
100
AcDbEntity
 67
     1
  8
寸法線
 48
10.0
100
AcDbMText
 10
100.402197893441
 20
9.470801403391
 30
0.0
 40
4.0
 41
14.375063652514
 71
     1
 72
     5
  1
NTS
 73
     1
 44
1.0
1001
AcadAnnotative
1000
AnnotativeData
1002
{
1070
     1
1070
     0
1002
}
  0
MTEXT
  5
39B5
102
{ACAD_XDICTIONARY
360
4094
102
}
330
3968
100
AcDbEntity
 67
     1
  8
寸法線
 48
10.0
100
AcDbMText
 10
120.382216312329
 20
9.350085024457
 30
0.0
 40
2.3
 41
16.791040104149
 71
     1
 72
     5
  1
\H1.333x;May,18,2016
 73
     1
 44
1.0
1001
AcadAnnotative
1000
AnnotativeData
1002
{
1070
     1
1070
     0
1002
}
  0
MTEXT
  5
39B6
102
{ACAD_XDICTIONARY
360
4097
102
}
330
3968
100
AcDbEntity
 67
     1
  8
寸法線
 48
10.0
100
AcDbMText
 10
123.815058561995
 20
24.077320121645
 30
0.0
 40
4.0
 41
28.879773130102
 71
     1
 72
     5
  1
ohno
 73
     1
 44
1.0
1001
AcadAnnotative
1000
AnnotativeData
1002
{
1070
     1
1070
     0
1002
}
  0
MTEXT
  5
40D0
330
3968
100
AcDbEntity
 67
     1
  8
寸法線
 48
10.0
100
AcDbMText
 10
144.076170803656
 20
28.297029682599
 30
0.0
 40
2.7
 41
170.08
 71
     1
 72
     5
  1
Ultrasonic Level Transmitter For Solids
 73
     1
 44
1.0
  0
MTEXT
  5
40D1
330
3968
100
AcDbEntity
 67
     1
  8
寸法線
 48
10.0
100
AcDbMText
 10
144.496307137648
 20
20.635237450792
 30
0.0
 40
2.5
 41
92.516666666667
 71
     1
 72
     5
  1
Manufacture：NIVELCO Process Control Co.
 73
     1
 44
1.0
  0
MTEXT
  5
40D2
102
{ACAD_XDICTIONARY
360
40D3
102
}
330
3968
100
AcDbEntity
 67
     1
  8
寸法線
 48
10.0
100
AcDbMText
 10
258.277308949359
 20
38.288468625069
 30
0.0
 40
4.0
 41
136.304347826087
 71
     1
 72
     5
  1
Q'ty:
 73
     1
 44
1.0
1001
AcadAnnotative
1000
AnnotativeData
1002
{
1070
     1
1070
     0
1002
}
  0
ENDSEC
  0
SECTION
  2
OBJECTS
  0
DICTIONARY
  5
C
330
0
100
AcDbDictionary
281
     1
  3
ACAD_COLOR
350
2948
  3
ACAD_DETAILVIEWSTYLE
350
410B
  3
ACAD_GROUP
350
D
  3
ACAD_LAYOUT
350
2816
  3
ACAD_MATERIAL
350
2947
  3
ACAD_MLEADERSTYLE
350
408D
  3
ACAD_MLINESTYLE
350
E
  3
ACAD_PLOTSETTINGS
350
2817
  3
ACAD_PLOTSTYLENAME
350
2814
  3
ACAD_SCALELIST
350
4066
  3
ACAD_SECTIONVIEWSTYLE
350
410C
  3
ACAD_TABLESTYLE
350
408B
  3
ACAD_VISUALSTYLE
350
404D
  3
ACDB_RECOMPOSE_DATA
350
41AC
  3
AcDbVariableDictionary
350
4105
  0
DICTIONARY
  5
416F
330
8
100
AcDbDictionary
280
     1
281
     1
  3
ACAD_XREC_ROUNDTRIP
360
4170
  0
DICTIONARY
  5
29EA
330
2
100
AcDbDictionary
280
     1
281
     1
  3
ACAD_LAYERFILTERS
360
2B04
  3
ACAD_LAYERSTATES
360
29EB
  0
DICTIONARY
  5
416B
330
396A
100
AcDbDictionary
280
     1
281
     1
  3
ACAD_XREC_ROUNDTRIP
360
416C
  0
DICTIONARY
  5
416D
330
396B
100
AcDbDictionary
280
     1
281
     1
  3
ACAD_XREC_ROUNDTRIP
360
416E
  0
DICTIONARY
  5
410D
330
39B2
100
AcDbDictionary
280
     1
281
     1
  3
AcDbContextDataManager
360
410E
  0
DICTIONARY
  5
4091
330
39B3
100
AcDbDictionary
280
     1
281
     1
  3
AcDbContextDataManager
360
4092
  0
DICTIONARY
  5
409A
330
39B4
100
AcDbDictionary
280
     1
281
     1
  3
AcDbContextDataManager
360
409B
  0
DICTIONARY
  5
4094
330
39B5
100
AcDbDictionary
280
     1
281
     1
  3
AcDbContextDataManager
360
4095
  0
DICTIONARY
  5
4097
330
39B6
100
AcDbDictionary
280
     1
281
     1
  3
AcDbContextDataManager
360
4098
  0
DICTIONARY
  5
40D3
330
40D2
100
AcDbDictionary
280
     1
281
     1
  3
AcDbContextDataManager
360
40D4
  0
DICTIONARY
  5
2948
102
{ACAD_REACTORS
330
C
102
}
330
C
100
AcDbDictionary
281
     1
  0
DICTIONARY
  5
410B
102
{ACAD_REACTORS
330
C
102
}
330
C
100
AcDbDictionary
281
     1
  0
DICTIONARY
  5
D
102
{ACAD_REACTORS
330
C
102
}
330
C
100
AcDbDictionary
281
     1
  0
DICTIONARY
  5
2816
102
{ACAD_REACTORS
330
C
102
}
330
C
100
AcDbDictionary
281
     1
  3
Model
350
2818
  3
NX-1012
350
39B8
  0
DICTIONARY
  5
2947
102
{ACAD_REACTORS
330
C
102
}
330
C
100
AcDbDictionary
281
     1
  3
ByBlock
350
4089
  3
ByLayer
350
4088
  3
Global
350
408A
  0
DICTIONARY
  5
408D
102
{ACAD_REACTORS
330
C
102
}
330
C
100
AcDbDictionary
281
     1
  3
Standard
350
408E
  0
DICTIONARY
  5
E
102
{ACAD_REACTORS
330
C
102
}
330
C
100
AcDbDictionary
281
     1
  3
STANDARD
350
13
  0
DICTIONARY
  5
2817
102
{ACAD_REACTORS
330
C
102
}
330
C
100
AcDbDictionary
281
     1
  0
ACDBDICTIONARYWDFLT
  5
2814
102
{ACAD_REACTORS
330
C
102
}
330
C
100
AcDbDictionary
281
     1
  3
Normal
350
2815
100
AcDbDictionaryWithDefault
340
2815
  0
DICTIONARY
  5
4066
102
{ACAD_REACTORS
330
C
102
}
330
C
100
AcDbDictionary
281
     1
  3
A0
350
4067
  3
A1
350
4068
  3
A2
350
4069
  3
A3
350
406A
  3
A4
350
406B
  3
A5
350
406C
  3
A6
350
406D
  3
A7
350
406E
  3
A8
350
406F
  3
A9
350
4070
  3
B0
350
4071
  3
B1
350
4072
  3
B2
350
4073
  3
B3
350
4074
  3
B4
350
4075
  3
B5
350
4076
  3
B6
350
4077
  3
B7
350
4078
  3
B8
350
4079
  3
B9
350
407A
  3
C0
350
407B
  3
C1
350
407C
  3
C2
350
407D
  3
C3
350
407E
  3
C4
350
407F
  3
C5
350
4080
  3
C6
350
4081
  3
C7
350
4082
  3
C8
350
4083
  3
C9
350
4084
  3
D0
350
4085
  3
D1
350
4086
  3
D2
350
4087
  0
DICTIONARY
  5
410C
102
{ACAD_REACTORS
330
C
102
}
330
C
100
AcDbDictionary
281
     1
  0
DICTIONARY
  5
408B
102
{ACAD_REACTORS
330
C
102
}
330
C
100
AcDbDictionary
281
     1
  3
Standard
350
408C
  0
DICTIONARY
  5
404D
102
{ACAD_REACTORS
330
C
102
}
330
C
100
AcDbDictionary
281
     1
  3
2dWireframe
350
4052
  3
Basic
350
4055
  3
Brighten
350
4059
  3
ColorChange
350
405D
  3
Conceptual
350
4057
  3
Dim
350
4058
  3
EdgeColorOff
350
4060
  3
Facepattern
350
405C
  3
Flat
350
404E
  3
FlatWithEdges
350
404F
  3
Gouraud
350
4050
  3
GouraudWithEdges
350
4051
  3
Hidden
350
4054
  3
JitterOff
350
405E
  3
Linepattern
350
405B
  3
OverhangOff
350
405F
  3
Realistic
350
4056
  3
Shaded
350
4065
  3
Shaded with edges
350
4064
  3
Shades of Gray
350
4061
  3
Sketchy
350
4062
  3
Thicken
350
405A
  3
Wireframe
350
4053
  3
X-Ray
350
4063
  0
XRECORD
  5
41AC
102
{ACAD_REACTORS
330
C
102
}
330
C
100
AcDbXrecord
280
     1
 90
        1
330
408C
  0
DICTIONARY
  5
4105
102
{ACAD_REACTORS
330
C
102
}
330
C
100
AcDbDictionary
281
     1
  3
CANNOSCALE
350
4106
  3
CMLEADERSTYLE
350
4108
  3
CTABLESTYLE
350
4107
  3
MSLTSCALE
350
4109
  3
XCLIPFRAME
350
410A
  0
XRECORD
  5
4170
102
{ACAD_REACTORS
330
416F
102
}
330
416F
100
AcDbXrecord
280
     1
102
VTR_0.000_0.000_1.000_1.000_VISUALSTYLE
340
4052
102
VTR_0.000_0.000_1.000_1.000_GRIDDISPLAY
 70
     3
102
VTR_0.000_0.000_1.000_1.000_GRIDMAJOR
 70
     5
102
VTR_0.000_0.000_1.000_1.000_DEFAULTLIGHTING
280
     1
102
VTR_0.000_0.000_1.000_1.000_DEFAULTLIGHTINGTYPE
 70
     1
102
VTR_0.000_0.000_1.000_1.000_BRIGHTNESS
141
0.0
102
VTR_0.000_0.000_1.000_1.000_CONTRAST
142
0.0
  0
DICTIONARY
  5
2B04
102
{ACAD_REACTORS
330
29EA
102
}
330
29EA
100
AcDbDictionary
281
     1
  0
DICTIONARY
  5
29EB
102
{ACAD_REACTORS
330
29EA
102
}
330
29EA
100
AcDbDictionary
281
     1
  0
XRECORD
  5
416C
102
{ACAD_REACTORS
330
416B
102
}
330
416B
100
AcDbXrecord
280
     1
102
VISUALSTYLE
340
4052
102
GRIDDISPLAY
 70
     0
102
GRIDMAJOR
 70
     5
102
DEFAULTLIGHTING
280
     1
102
DEFAULTLIGHTINGTYPE
 70
     1
102
BRIGHTNESS
141
0.0
102
CONTRAST
142
0.0
102
SUNID
360
0
  0
XRECORD
  5
416E
102
{ACAD_REACTORS
330
416D
102
}
330
416D
100
AcDbXrecord
280
     1
102
VISUALSTYLE
340
4052
102
GRIDDISPLAY
 70
     0
102
GRIDMAJOR
 70
     5
102
DEFAULTLIGHTING
280
     1
102
DEFAULTLIGHTINGTYPE
 70
     1
102
BRIGHTNESS
141
0.0
102
CONTRAST
142
0.0
  0
DICTIONARY
  5
410E
102
{ACAD_REACTORS
330
410D
102
}
330
410D
100
AcDbDictionary
281
     1
  3
ACDB_ANNOTATIONSCALES
350
410F
  0
DICTIONARY
  5
4092
102
{ACAD_REACTORS
330
4091
102
}
330
4091
100
AcDbDictionary
281
     1
  3
ACDB_ANNOTATIONSCALES
350
4093
  0
DICTIONARY
  5
409B
102
{ACAD_REACTORS
330
409A
102
}
330
409A
100
AcDbDictionary
281
     1
  3
ACDB_ANNOTATIONSCALES
350
409C
  0
DICTIONARY
  5
4095
102
{ACAD_REACTORS
330
4094
102
}
330
4094
100
AcDbDictionary
281
     1
  3
ACDB_ANNOTATIONSCALES
350
4096
  0
DICTIONARY
  5
4098
102
{ACAD_REACTORS
330
4097
102
}
330
4097
100
AcDbDictionary
281
     1
  3
ACDB_ANNOTATIONSCALES
350
4099
  0
DICTIONARY
  5
40D4
102
{ACAD_REACTORS
330
40D3
102
}
330
40D3
100
AcDbDictionary
281
     1
  3
ACDB_ANNOTATIONSCALES
350
40D5
  0
LAYOUT
  5
2818
102
{ACAD_REACTORS
330
2816
102
}
330
2816
100
AcDbPlotSettings
  1

  2
EPSON LP-8000S
  4

  6

 40
0.0
 41
0.0
 42
0.0
 43
0.0
 44
0.0
 45
0.0
 46
0.0
 47
0.0
 48
0.0
 49
0.0
140
0.0
141
0.0
142
1.0
143
1.0
 70
  1712
 72
     0
 73
     0
 74
     0
  7
TOWA.ctb
 75
     0
 76
     0
 77
     2
 78
   300
147
1.0
148
0.0
149
0.0
100
AcDbLayout
  1
Model
 70
     1
 71
     0
 10
0.0
 20
0.0
 11
12.0
 21
9.0
 12
0.0
 22
0.0
 32
0.0
 14
-24.58511640544
 24
210.501074544709
 34
0.0
 15
0.0
 25
0.0
 35
0.0
146
0.0
 13
0.0
 23
0.0
 33
0.0
 16
1.0
 26
0.0
 36
0.0
 17
0.0
 27
1.0
 37
0.0
 76
     0
330
1A
331
404C
  0
LAYOUT
  5
39B8
102
{ACAD_REACTORS
330
2816
102
}
330
2816
100
AcDbPlotSettings
  1

  2
DocuWorks Printer
  4
A4
  6

 40
5.408083438873
 41
5.408078670502
 42
5.408096313477
 43
5.408081054688
 44
210.015670776367
 45
297.010650634766
 46
0.0
 47
0.0
 48
0.0
 49
0.0
140
0.0
141
0.0
142
1.0
143
1.43
 70
   736
 72
     1
 73
     0
 74
     5
  7
TOWA.ctb
 75
     0
 76
     1
 77
     2
 78
   300
147
1.0
148
0.0
149
0.0
100
AcDbLayout
  1
NX-1012
 70
     1
 71
     1
 10
-7.733559317589
 20
-7.733552498817
 11
292.588849892616
 21
416.991677908897
 12
0.0
 22
0.0
 32
0.0
 14
1.494923295415
 24
0.952498281072
 34
0.0
 15
281.494923295415
 25
405.952497602501
 35
0.0
146
0.0
 13
0.0
 23
0.0
 33
0.0
 16
1.0
 26
0.0
 36
0.0
 17
0.0
 27
1.0
 37
0.0
 76
     0
330
3968
331
396A
  0
MATERIAL
  5
4089
102
{ACAD_REACTORS
330
2947
102
}
102
{ACAD_XDICTIONARY
360
4173
102
}
330
2947
100
AcDbMaterial
  1
ByBlock
  0
MATERIAL
  5
4088
102
{ACAD_REACTORS
330
2947
102
}
102
{ACAD_XDICTIONARY
360
4171
102
}
330
2947
100
AcDbMaterial
  1
ByLayer
  0
MATERIAL
  5
408A
102
{ACAD_REACTORS
330
2947
102
}
102
{ACAD_XDICTIONARY
360
4175
102
}
330
2947
100
AcDbMaterial
  1
Global
  0
MLEADERSTYLE
  5
408E
102
{ACAD_REACTORS
330
408D
102
}
102
{ACAD_XDICTIONARY
360
41AA
102
}
330
408D
100
AcDbMLeaderStyle
170
     2
171
     1
172
     0
 90
        2
 40
0.0
 41
0.0
173
     1
 91
-1056964608
340
14
 92
       -2
290
     1
 42
2.0
291
     1
 43
8.0
  3
Standard
341
0
 44
4.0
300

342
10
174
     1
178
     6
175
     1
176
     0
 93
-1056964608
 45
4.0
292
     0
297
     0
 46
4.0
343
0
 94
-1056964608
 47
1.0
 49
1.0
140
1.0
293
     1
141
0.0
294
     1
177
     0
142
1.0
295
     0
296
     0
143
3.75
1001
ACAD_MLEADERVER
1070
     2
  0
MLINESTYLE
  5
13
102
{ACAD_REACTORS
330
E
102
}
330
E
100
AcDbMlineStyle
  2
STANDARD
 70
     0
  3

 62
     0
 51
90.0
 52
90.0
 71
     2
 49
0.5
 62
   256
  6
BYLAYER
 49
-0.5
 62
   256
  6
BYLAYER
  0
ACDBPLACEHOLDER
  5
2815
102
{ACAD_REACTORS
330
2814
102
}
330
2814
  0
SCALE
  5
4067
102
{ACAD_REACTORS
330
4066
102
}
330
4066
100
AcDbScale
 70
     0
300
1:1
140
1.0
141
1.0
290
     1
  0
SCALE
  5
4068
102
{ACAD_REACTORS
330
4066
102
}
330
4066
100
AcDbScale
 70
     0
300
1:2
140
1.0
141
2.0
290
     0
  0
SCALE
  5
4069
102
{ACAD_REACTORS
330
4066
102
}
330
4066
100
AcDbScale
 70
     0
300
1:4
140
1.0
141
4.0
290
     0
  0
SCALE
  5
406A
102
{ACAD_REACTORS
330
4066
102
}
330
4066
100
AcDbScale
 70
     0
300
1:5
140
1.0
141
5.0
290
     0
  0
SCALE
  5
406B
102
{ACAD_REACTORS
330
4066
102
}
330
4066
100
AcDbScale
 70
     0
300
1:8
140
1.0
141
8.0
290
     0
  0
SCALE
  5
406C
102
{ACAD_REACTORS
330
4066
102
}
330
4066
100
AcDbScale
 70
     0
300
1:10
140
1.0
141
10.0
290
     0
  0
SCALE
  5
406D
102
{ACAD_REACTORS
330
4066
102
}
330
4066
100
AcDbScale
 70
     0
300
1:16
140
1.0
141
16.0
290
     0
  0
SCALE
  5
406E
102
{ACAD_REACTORS
330
4066
102
}
330
4066
100
AcDbScale
 70
     0
300
1:20
140
1.0
141
20.0
290
     0
  0
SCALE
  5
406F
102
{ACAD_REACTORS
330
4066
102
}
330
4066
100
AcDbScale
 70
     0
300
1:30
140
1.0
141
30.0
290
     0
  0
SCALE
  5
4070
102
{ACAD_REACTORS
330
4066
102
}
330
4066
100
AcDbScale
 70
     0
300
1:40
140
1.0
141
40.0
290
     0
  0
SCALE
  5
4071
102
{ACAD_REACTORS
330
4066
102
}
330
4066
100
AcDbScale
 70
     0
300
1:50
140
1.0
141
50.0
290
     0
  0
SCALE
  5
4072
102
{ACAD_REACTORS
330
4066
102
}
330
4066
100
AcDbScale
 70
     0
300
1:100
140
1.0
141
100.0
290
     0
  0
SCALE
  5
4073
102
{ACAD_REACTORS
330
4066
102
}
330
4066
100
AcDbScale
 70
     0
300
2:1
140
2.0
141
1.0
290
     0
  0
SCALE
  5
4074
102
{ACAD_REACTORS
330
4066
102
}
330
4066
100
AcDbScale
 70
     0
300
4:1
140
4.0
141
1.0
290
     0
  0
SCALE
  5
4075
102
{ACAD_REACTORS
330
4066
102
}
330
4066
100
AcDbScale
 70
     0
300
8:1
140
8.0
141
1.0
290
     0
  0
SCALE
  5
4076
102
{ACAD_REACTORS
330
4066
102
}
330
4066
100
AcDbScale
 70
     0
300
10:1
140
10.0
141
1.0
290
     0
  0
SCALE
  5
4077
102
{ACAD_REACTORS
330
4066
102
}
330
4066
100
AcDbScale
 70
     0
300
100:1
140
100.0
141
1.0
290
     0
  0
SCALE
  5
4078
102
{ACAD_REACTORS
330
4066
102
}
330
4066
100
AcDbScale
 70
     0
300
1/128" = 1'-0"
140
0.0078125
141
12.0
290
     0
  0
SCALE
  5
4079
102
{ACAD_REACTORS
330
4066
102
}
330
4066
100
AcDbScale
 70
     0
300
1/64" = 1'-0"
140
0.015625
141
12.0
290
     0
  0
SCALE
  5
407A
102
{ACAD_REACTORS
330
4066
102
}
330
4066
100
AcDbScale
 70
     0
300
1/32" = 1'-0"
140
0.03125
141
12.0
290
     0
  0
SCALE
  5
407B
102
{ACAD_REACTORS
330
4066
102
}
330
4066
100
AcDbScale
 70
     0
300
1/16" = 1'-0"
140
0.0625
141
12.0
290
     0
  0
SCALE
  5
407C
102
{ACAD_REACTORS
330
4066
102
}
330
4066
100
AcDbScale
 70
     0
300
3/32" = 1'-0"
140
0.09375
141
12.0
290
     0
  0
SCALE
  5
407D
102
{ACAD_REACTORS
330
4066
102
}
330
4066
100
AcDbScale
 70
     0
300
1/8" = 1'-0"
140
0.125
141
12.0
290
     0
  0
SCALE
  5
407E
102
{ACAD_REACTORS
330
4066
102
}
330
4066
100
AcDbScale
 70
     0
300
3/16" = 1'-0"
140
0.1875
141
12.0
290
     0
  0
SCALE
  5
407F
102
{ACAD_REACTORS
330
4066
102
}
330
4066
100
AcDbScale
 70
     0
300
1/4" = 1'-0"
140
0.25
141
12.0
290
     0
  0
SCALE
  5
4080
102
{ACAD_REACTORS
330
4066
102
}
330
4066
100
AcDbScale
 70
     0
300
3/8" = 1'-0"
140
0.375
141
12.0
290
     0
  0
SCALE
  5
4081
102
{ACAD_REACTORS
330
4066
102
}
330
4066
100
AcDbScale
 70
     0
300
1/2" = 1'-0"
140
0.5
141
12.0
290
     0
  0
SCALE
  5
4082
102
{ACAD_REACTORS
330
4066
102
}
330
4066
100
AcDbScale
 70
     0
300
3/4" = 1'-0"
140
0.75
141
12.0
290
     0
  0
SCALE
  5
4083
102
{ACAD_REACTORS
330
4066
102
}
330
4066
100
AcDbScale
 70
     0
300
1" = 1'-0"
140
1.0
141
12.0
290
     0
  0
SCALE
  5
4084
102
{ACAD_REACTORS
330
4066
102
}
330
4066
100
AcDbScale
 70
     0
300
1-1/2" = 1'-0"
140
1.5
141
12.0
290
     0
  0
SCALE
  5
4085
102
{ACAD_REACTORS
330
4066
102
}
330
4066
100
AcDbScale
 70
     0
300
3" = 1'-0"
140
3.0
141
12.0
290
     0
  0
SCALE
  5
4086
102
{ACAD_REACTORS
330
4066
102
}
330
4066
100
AcDbScale
 70
     0
300
6" = 1'-0"
140
6.0
141
12.0
290
     0
  0
SCALE
  5
4087
102
{ACAD_REACTORS
330
4066
102
}
330
4066
100
AcDbScale
 70
     0
300
1'-0" = 1'-0"
140
12.0
141
12.0
290
     0
  0
TABLESTYLE
  5
408C
102
{ACAD_REACTORS
330
408B
102
}
102
{ACAD_XDICTIONARY
360
41A7
102
}
330
408B
100
AcDbTableStyle
  3
Standard
 70
     0
 71
     0
 40
1.5
 41
1.5
280
     0
281
     0
  7
STANDARD
140
4.5
170
     2
 62
     0
 63
   257
283
     0
274
    -2
284
     1
 64
     0
275
    -2
285
     1
 65
     0
276
    -2
286
     1
 66
     0
277
    -2
287
     1
 67
     0
278
    -2
288
     1
 68
     0
279
    -2
289
     1
 69
     0
  7
STANDARD
140
6.0
170
     5
 62
     0
 63
   257
283
     0
274
    -2
284
     1
 64
     0
275
    -2
285
     1
 65
     0
276
    -2
286
     1
 66
     0
277
    -2
287
     1
 67
     0
278
    -2
288
     1
 68
     0
279
    -2
289
     1
 69
     0
  7
STANDARD
140
4.5
170
     5
 62
     0
 63
   257
283
     0
274
    -2
284
     1
 64
     0
275
    -2
285
     1
 65
     0
276
    -2
286
     1
 66
     0
277
    -2
287
     1
 67
     0
278
    -2
288
     1
 68
     0
279
    -2
289
     1
 69
     0
  0
VISUALSTYLE
  5
4052
102
{ACAD_REACTORS
330
404D
102
}
102
{ACAD_XDICTIONARY
360
417F
102
}
330
404D
100
AcDbVisualStyle
  2
2dWireframe
 70
     4
 71
     0
 72
     2
 73
     0
 90
        0
 40
0.6
 41
30.0
 62
     5
 63
     7
421
 16777215
 74
     1
 91
        4
 64
     7
 65
   257
 75
     1
175
     1
 42
1.0
 92
        0
 66
   257
 43
1.0
 76
     1
 77
     6
 78
     2
 67
     7
 79
     5
170
     0
171
     0
290
     0
174
     0
 93
        1
 44
0.0
173
     0
291
     0
 45
0.0
1001
ACAD
1000
AcDbSavedByObjectVersion
1070
     0
  0
VISUALSTYLE
  5
4055
102
{ACAD_REACTORS
330
404D
102
}
102
{ACAD_XDICTIONARY
360
4185
102
}
330
404D
100
AcDbVisualStyle
  2
Basic
 70
     7
 71
     1
 72
     0
 73
     1
 90
        0
 40
0.6
 41
30.0
 62
     5
 63
     7
421
 16777215
 74
     0
 91
        4
 64
     7
 65
   257
 75
     1
175
     1
 42
1.0
 92
        8
 66
     7
 43
1.0
 76
     1
 77
     6
 78
     2
 67
     7
 79
     5
170
     0
171
     0
290
     0
174
     0
 93
        1
 44
0.0
173
     0
291
     1
 45
0.0
1001
ACAD
1000
AcDbSavedByObjectVersion
1070
     0
  0
VISUALSTYLE
  5
4059
102
{ACAD_REACTORS
330
404D
102
}
102
{ACAD_XDICTIONARY
360
418D
102
}
330
404D
100
AcDbVisualStyle
  2
Brighten
 70
    12
 71
     2
 72
     2
 73
     0
 90
        0
 40
0.6
 41
30.0
 62
     5
 63
     7
421
 16777215
 74
     1
 91
        4
 64
     7
 65
   257
 75
     1
175
     1
 42
1.0
 92
        8
 66
     7
 43
1.0
 76
     1
 77
     6
 78
     2
 67
     7
 79
     5
170
     0
171
     0
290
     0
174
     0
 93
        1
 44
50.0
173
     0
291
     1
 45
0.0
1001
ACAD
1000
AcDbSavedByObjectVersion
1070
     0
  0
VISUALSTYLE
  5
405D
102
{ACAD_REACTORS
330
404D
102
}
102
{ACAD_XDICTIONARY
360
4195
102
}
330
404D
100
AcDbVisualStyle
  2
ColorChange
 70
    16
 71
     2
 72
     2
 73
     3
 90
        0
 40
0.6
 41
30.0
 62
     5
 63
     8
421
  8421504
 74
     1
 91
        4
 64
     7
 65
   257
 75
     1
175
     1
 42
1.0
 92
        8
 66
     8
424
  8421504
 43
1.0
 76
     1
 77
     6
 78
     2
 67
     7
 79
     5
170
     0
171
     0
290
     0
174
     0
 93
        1
 44
0.0
173
     0
291
     1
 45
0.0
1001
ACAD
1000
AcDbSavedByObjectVersion
1070
     0
  0
VISUALSTYLE
  5
4057
102
{ACAD_REACTORS
330
404D
102
}
102
{ACAD_XDICTIONARY
360
4189
102
}
330
404D
100
AcDbVisualStyle
  2
Conceptual
 70
     9
 71
     3
 72
     2
 73
     0
 90
        0
 40
0.6
 41
30.0
 62
     5
 63
     7
421
 16777215
 74
     2
 91
        2
 64
     7
 65
   257
 75
     1
175
     1
 42
179.0
 92
        8
 66
     7
 43
1.0
 76
     1
 77
     6
 78
     2
 67
     7
 79
     3
170
     0
171
     0
290
     0
174
     0
 93
        1
 44
0.0
173
     0
291
     0
 45
0.0
1001
ACAD
1000
AcDbSavedByObjectVersion
1070
     0
  0
VISUALSTYLE
  5
4058
102
{ACAD_REACTORS
330
404D
102
}
102
{ACAD_XDICTIONARY
360
418B
102
}
330
404D
100
AcDbVisualStyle
  2
Dim
 70
    11
 71
     2
 72
     2
 73
     0
 90
        0
 40
0.6
 41
30.0
 62
     5
 63
     7
421
 16777215
 74
     1
 91
        4
 64
     7
 65
   257
 75
     1
175
     1
 42
1.0
 92
        8
 66
     7
 43
1.0
 76
     1
 77
     6
 78
     2
 67
     7
 79
     5
170
     0
171
     0
290
     0
174
     0
 93
        1
 44
-50.0
173
     0
291
     1
 45
0.0
1001
ACAD
1000
AcDbSavedByObjectVersion
1070
     0
  0
VISUALSTYLE
  5
4060
102
{ACAD_REACTORS
330
404D
102
}
102
{ACAD_XDICTIONARY
360
419B
102
}
330
404D
100
AcDbVisualStyle
  2
EdgeColorOff
 70
    22
 71
     2
 72
     2
 73
     0
 90
        0
 40
0.6
 41
30.0
 62
     5
 63
     7
421
 16777215
 74
     1
 91
        4
 64
     7
 65
   257
 75
     1
175
     1
 42
1.0
 92
        8
 66
     7
 43
1.0
 76
     1
 77
     6
 78
     2
 67
     7
 79
     5
170
     0
171
     0
290
     0
174
     0
 93
        1
 44
0.0
173
     0
291
     1
 45
0.0
1001
ACAD
1000
AcDbSavedByObjectVersion
1070
     0
  0
VISUALSTYLE
  5
405C
102
{ACAD_REACTORS
330
404D
102
}
102
{ACAD_XDICTIONARY
360
4193
102
}
330
404D
100
AcDbVisualStyle
  2
Facepattern
 70
    15
 71
     2
 72
     2
 73
     0
 90
        0
 40
0.6
 41
30.0
 62
     5
 63
     7
421
 16777215
 74
     1
 91
        4
 64
     7
 65
   257
 75
     1
175
     1
 42
1.0
 92
        8
 66
     7
 43
1.0
 76
     1
 77
     6
 78
     2
 67
     7
 79
     5
170
     0
171
     0
290
     0
174
     0
 93
        1
 44
0.0
173
     0
291
     1
 45
0.0
1001
ACAD
1000
AcDbSavedByObjectVersion
1070
     0
  0
VISUALSTYLE
  5
404E
102
{ACAD_REACTORS
330
404D
102
}
102
{ACAD_XDICTIONARY
360
4177
102
}
330
404D
100
AcDbVisualStyle
  2
Flat
 70
     0
 71
     2
 72
     1
 73
     1
 90
        2
 40
0.6
 41
30.0
 62
     5
 63
     7
421
 16777215
 74
     0
 91
        0
 64
     7
 65
   257
 75
     1
175
     1
 42
1.0
 92
        8
 66
     7
 43
1.0
 76
     1
 77
     6
 78
     2
 67
     7
 79
     5
170
     0
171
     0
290
     0
174
     0
 93
       13
 44
0.0
173
     0
291
     1
 45
0.0
1001
ACAD
1000
AcDbSavedByObjectVersion
1070
     0
  0
VISUALSTYLE
  5
404F
102
{ACAD_REACTORS
330
404D
102
}
102
{ACAD_XDICTIONARY
360
4179
102
}
330
404D
100
AcDbVisualStyle
  2
FlatWithEdges
 70
     1
 71
     2
 72
     1
 73
     1
 90
        2
 40
0.6
 41
30.0
 62
     5
 63
     7
421
 16777215
 74
     1
 91
        0
 64
     7
 65
   257
 75
     1
175
     1
 42
1.0
 92
        0
 66
   257
 43
1.0
 76
     1
 77
     6
 78
     2
 67
     7
 79
     5
170
     0
171
     0
290
     0
174
     0
 93
       13
 44
0.0
173
     0
291
     1
 45
0.0
1001
ACAD
1000
AcDbSavedByObjectVersion
1070
     0
  0
VISUALSTYLE
  5
4050
102
{ACAD_REACTORS
330
404D
102
}
102
{ACAD_XDICTIONARY
360
417B
102
}
330
404D
100
AcDbVisualStyle
  2
Gouraud
 70
     2
 71
     2
 72
     2
 73
     1
 90
        2
 40
0.6
 41
30.0
 62
     5
 63
     7
421
 16777215
 74
     0
 91
        0
 64
     7
 65
   257
 75
     1
175
     1
 42
1.0
 92
        0
 66
     7
 43
1.0
 76
     1
 77
     6
 78
     2
 67
     7
 79
     5
170
     0
171
     0
290
     0
174
     0
 93
       13
 44
0.0
173
     0
291
     1
 45
0.0
1001
ACAD
1000
AcDbSavedByObjectVersion
1070
     0
  0
VISUALSTYLE
  5
4051
102
{ACAD_REACTORS
330
404D
102
}
102
{ACAD_XDICTIONARY
360
417D
102
}
330
404D
100
AcDbVisualStyle
  2
GouraudWithEdges
 70
     3
 71
     2
 72
     2
 73
     1
 90
        2
 40
0.6
 41
30.0
 62
     5
 63
     7
421
 16777215
 74
     1
 91
        0
 64
     7
 65
   257
 75
     1
175
     1
 42
1.0
 92
        0
 66
   257
 43
1.0
 76
     1
 77
     6
 78
     2
 67
     7
 79
     5
170
     0
171
     0
290
     0
174
     0
 93
       13
 44
0.0
173
     0
291
     1
 45
0.0
1001
ACAD
1000
AcDbSavedByObjectVersion
1070
     0
  0
VISUALSTYLE
  5
4054
102
{ACAD_REACTORS
330
404D
102
}
102
{ACAD_XDICTIONARY
360
4183
102
}
330
404D
100
AcDbVisualStyle
  2
Hidden
 70
     6
 71
     1
 72
     2
 73
     2
 90
        0
 40
0.6
 41
30.0
 62
     5
 63
     7
421
 16777215
 74
     2
 91
        2
 64
     7
 65
   257
 75
     2
175
     1
 42
40.0
 92
        0
 66
   257
 43
1.0
 76
     1
 77
     6
 78
     2
 67
     7
 79
     3
170
     0
171
     0
290
     0
174
     0
 93
        1
 44
0.0
173
     0
291
     0
 45
0.0
1001
ACAD
1000
AcDbSavedByObjectVersion
1070
     0
  0
VISUALSTYLE
  5
405E
102
{ACAD_REACTORS
330
404D
102
}
102
{ACAD_XDICTIONARY
360
4197
102
}
330
404D
100
AcDbVisualStyle
  2
JitterOff
 70
    20
 71
     2
 72
     2
 73
     0
 90
        0
 40
0.6
 41
30.0
 62
     5
 63
     7
421
 16777215
 74
     1
 91
        4
 64
     7
 65
   257
 75
     1
175
     1
 42
1.0
 92
       10
 66
     7
 43
1.0
 76
     1
 77
     6
 78
     2
 67
     7
 79
     5
170
     0
171
     0
290
     0
174
     0
 93
        1
 44
0.0
173
     0
291
     1
 45
0.0
1001
ACAD
1000
AcDbSavedByObjectVersion
1070
     0
  0
VISUALSTYLE
  5
405B
102
{ACAD_REACTORS
330
404D
102
}
102
{ACAD_XDICTIONARY
360
4191
102
}
330
404D
100
AcDbVisualStyle
  2
Linepattern
 70
    14
 71
     2
 72
     2
 73
     0
 90
        0
 40
0.6
 41
30.0
 62
     5
 63
     7
421
 16777215
 74
     1
 91
        4
 64
     7
 65
   257
 75
     7
175
     7
 42
1.0
 92
        8
 66
     7
 43
1.0
 76
     1
 77
     6
 78
     2
 67
     7
 79
     5
170
     0
171
     0
290
     0
174
     0
 93
        1
 44
0.0
173
     0
291
     1
 45
0.0
1001
ACAD
1000
AcDbSavedByObjectVersion
1070
     0
  0
VISUALSTYLE
  5
405F
102
{ACAD_REACTORS
330
404D
102
}
102
{ACAD_XDICTIONARY
360
4199
102
}
330
404D
100
AcDbVisualStyle
  2
OverhangOff
 70
    21
 71
     2
 72
     2
 73
     0
 90
        0
 40
0.6
 41
30.0
 62
     5
 63
     7
421
 16777215
 74
     1
 91
        4
 64
     7
 65
   257
 75
     1
175
     1
 42
1.0
 92
        9
 66
     7
 43
1.0
 76
     1
 77
     6
 78
     2
 67
     7
 79
     5
170
     0
171
     0
290
     0
174
     0
 93
        1
 44
0.0
173
     0
291
     1
 45
0.0
1001
ACAD
1000
AcDbSavedByObjectVersion
1070
     0
  0
VISUALSTYLE
  5
4056
102
{ACAD_REACTORS
330
404D
102
}
102
{ACAD_XDICTIONARY
360
4187
102
}
330
404D
100
AcDbVisualStyle
  2
Realistic
 70
     8
 71
     2
 72
     3
 73
     0
 90
        2
 40
0.6
 41
30.0
 62
     5
 63
     7
421
 16777215
 74
     0
 91
        0
 64
     7
 65
   257
 75
     1
175
     1
 42
1.0
 92
        8
 66
   257
 43
1.0
 76
     1
 77
     6
 78
     2
 67
     7
 79
     3
170
     0
171
     0
290
     0
174
     0
 93
       13
 44
0.0
173
     0
291
     0
 45
0.0
1001
ACAD
1000
AcDbSavedByObjectVersion
1070
     0
  0
VISUALSTYLE
  5
4065
102
{ACAD_REACTORS
330
404D
102
}
102
{ACAD_XDICTIONARY
360
41A5
102
}
330
404D
100
AcDbVisualStyle
  2
Shaded
 70
    27
 71
     2
 72
     2
 73
     1
 90
        2
 40
0.6
 41
30.0
 62
     5
 63
     7
421
 16777215
 74
     0
 91
        4
 64
     7
 65
   257
 75
     1
175
     1
 42
1.0
 92
        8
 66
   257
 43
1.0
 76
     1
 77
     6
 78
     2
 67
     8
425
  7895160
 79
     3
170
     0
171
     0
290
     0
174
     0
 93
        5
 44
0.0
173
     0
291
     0
 45
0.0
1001
ACAD
1000
AcDbSavedByObjectVersion
1070
     0
  0
VISUALSTYLE
  5
4064
102
{ACAD_REACTORS
330
404D
102
}
102
{ACAD_XDICTIONARY
360
41A3
102
}
330
404D
100
AcDbVisualStyle
  2
Shaded with edges
 70
    26
 71
     2
 72
     2
 73
     1
 90
        2
 40
0.6
 41
30.0
 62
     5
 63
     7
421
 16777215
 74
     1
 91
       10
 64
     7
 65
   257
 75
     2
175
     1
 42
1.0
 92
        8
 66
   257
 43
1.0
 76
     1
 77
     6
 78
     2
 67
     7
 79
     3
170
     0
171
     0
290
     0
174
     0
 93
        5
 44
0.0
173
     0
291
     0
 45
0.0
1001
ACAD
1000
AcDbSavedByObjectVersion
1070
     0
  0
VISUALSTYLE
  5
4061
102
{ACAD_REACTORS
330
404D
102
}
102
{ACAD_XDICTIONARY
360
419D
102
}
330
404D
100
AcDbVisualStyle
  2
Shades of Gray
 70
    23
 71
     2
 72
     2
 73
     3
 90
        0
 40
0.6
 41
30.0
 62
     5
 63
     7
421
 16777215
 74
     2
 91
        2
 64
     7
 65
     7
 75
     1
175
     1
 42
40.0
 92
        8
 66
     7
 43
1.0
 76
     1
 77
     6
 78
     2
 67
     7
 79
     3
170
     0
171
     0
290
     0
174
     0
 93
        1
 44
0.0
173
     0
291
     0
 45
0.0
1001
ACAD
1000
AcDbSavedByObjectVersion
1070
     0
  0
VISUALSTYLE
  5
4062
102
{ACAD_REACTORS
330
404D
102
}
102
{ACAD_XDICTIONARY
360
419F
102
}
330
404D
100
AcDbVisualStyle
  2
Sketchy
 70
    24
 71
     1
 72
     2
 73
     2
 90
        0
 40
0.6
 41
30.0
 62
     5
 63
     7
421
 16777215
 74
     2
 91
        2
 64
     7
 65
     7
 75
     1
175
     1
 42
40.0
 92
       11
 66
     7
 43
1.0
 76
     1
 77
     6
 78
     2
 67
     7
 79
     6
170
     0
171
     0
290
     0
174
     0
 93
        1
 44
0.0
173
     0
291
     0
 45
0.0
1001
ACAD
1000
AcDbSavedByObjectVersion
1070
     0
  0
VISUALSTYLE
  5
405A
102
{ACAD_REACTORS
330
404D
102
}
102
{ACAD_XDICTIONARY
360
418F
102
}
330
404D
100
AcDbVisualStyle
  2
Thicken
 70
    13
 71
     2
 72
     2
 73
     0
 90
        0
 40
0.6
 41
30.0
 62
     5
 63
     7
421
 16777215
 74
     1
 91
        4
 64
     7
 65
   257
 75
     1
175
     1
 42
1.0
 92
       12
 66
     7
 43
1.0
 76
     1
 77
     6
 78
     2
 67
     7
 79
     5
170
     0
171
     0
290
     0
174
     0
 93
        1
 44
0.0
173
     0
291
     1
 45
0.0
1001
ACAD
1000
AcDbSavedByObjectVersion
1070
     0
  0
VISUALSTYLE
  5
4053
102
{ACAD_REACTORS
330
404D
102
}
102
{ACAD_XDICTIONARY
360
4181
102
}
330
404D
100
AcDbVisualStyle
  2
Wireframe
 70
     5
 71
     0
 72
     2
 73
     0
 90
        0
 40
0.6
 41
30.0
 62
     5
 63
     7
421
 16777215
 74
     1
 91
        4
 64
     7
 65
   257
 75
     1
175
     1
 42
1.0
 92
        0
 66
   257
 43
1.0
 76
     1
 77
     6
 78
     2
 67
     7
 79
     3
170
     0
171
     0
290
     0
174
     0
 93
        1
 44
0.0
173
     0
291
     0
 45
0.0
1001
ACAD
1000
AcDbSavedByObjectVersion
1070
     0
  0
VISUALSTYLE
  5
4063
102
{ACAD_REACTORS
330
404D
102
}
102
{ACAD_XDICTIONARY
360
41A1
102
}
330
404D
100
AcDbVisualStyle
  2
X-Ray
 70
    25
 71
     2
 72
     2
 73
     1
 90
        1
 40
0.5
 41
30.0
 62
     5
 63
     7
421
 16777215
 74
     1
 91
        0
 64
     7
 65
   257
 75
     1
175
     1
 42
1.0
 92
        8
 66
     7
 43
1.0
 76
     1
 77
     6
 78
     2
 67
     7
 79
     3
170
     0
171
     0
290
     0
174
     0
 93
       13
 44
0.0
173
     0
291
     0
 45
0.0
1001
ACAD
1000
AcDbSavedByObjectVersion
1070
     0
  0
DICTIONARYVAR
  5
4106
102
{ACAD_REACTORS
330
4105
102
}
330
4105
100
DictionaryVariables
280
     0
  1
1:1
  0
DICTIONARYVAR
  5
4108
102
{ACAD_REACTORS
330
4105
102
}
330
4105
100
DictionaryVariables
280
     0
  1
Standard
  0
DICTIONARYVAR
  5
4107
102
{ACAD_REACTORS
330
4105
102
}
330
4105
100
DictionaryVariables
280
     0
  1
Standard
  0
DICTIONARYVAR
  5
4109
102
{ACAD_REACTORS
330
4105
102
}
330
4105
100
DictionaryVariables
280
     0
  1
0
  0
DICTIONARYVAR
  5
410A
102
{ACAD_REACTORS
330
4105
102
}
330
4105
100
DictionaryVariables
280
     0
  1
0
  0
DICTIONARY
  5
410F
102
{ACAD_REACTORS
330
410E
102
}
330
410E
100
AcDbDictionary
281
     1
  0
DICTIONARY
  5
4093
102
{ACAD_REACTORS
330
4092
102
}
330
4092
100
AcDbDictionary
281
     1
  0
DICTIONARY
  5
409C
102
{ACAD_REACTORS
330
409B
102
}
330
409B
100
AcDbDictionary
281
     1
  0
DICTIONARY
  5
4096
102
{ACAD_REACTORS
330
4095
102
}
330
4095
100
AcDbDictionary
281
     1
  0
DICTIONARY
  5
4099
102
{ACAD_REACTORS
330
4098
102
}
330
4098
100
AcDbDictionary
281
     1
  0
DICTIONARY
  5
40D5
102
{ACAD_REACTORS
330
40D4
102
}
330
40D4
100
AcDbDictionary
281
     1
  0
DICTIONARY
  5
4173
330
4089
100
AcDbDictionary
280
     1
281
     1
  3
ACAD_XREC_ROUNDTRIP
360
4174
  0
DICTIONARY
  5
4171
330
4088
100
AcDbDictionary
280
     1
281
     1
  3
ACAD_XREC_ROUNDTRIP
360
4172
  0
DICTIONARY
  5
4175
330
408A
100
AcDbDictionary
280
     1
281
     1
  3
ACAD_XREC_ROUNDTRIP
360
4176
  0
DICTIONARY
  5
41AA
330
408E
100
AcDbDictionary
280
     1
281
     1
  3
ACAD_XREC_ROUNDTRIP
360
41AB
  0
DICTIONARY
  5
41A7
330
408C
100
AcDbDictionary
280
     1
281
     1
  3
ACAD_ROUNDTRIP_2008_TABLESTYLE_CELLSTYLEMAP
360
41A9
  3
ACAD_XREC_ROUNDTRIP
360
41A8
  0
DICTIONARY
  5
417F
330
4052
100
AcDbDictionary
280
     1
281
     1
  3
ACAD_XREC_ROUNDTRIP
360
4180
  0
DICTIONARY
  5
4185
330
4055
100
AcDbDictionary
280
     1
281
     1
  3
ACAD_XREC_ROUNDTRIP
360
4186
  0
DICTIONARY
  5
418D
330
4059
100
AcDbDictionary
280
     1
281
     1
  3
ACAD_XREC_ROUNDTRIP
360
418E
  0
DICTIONARY
  5
4195
330
405D
100
AcDbDictionary
280
     1
281
     1
  3
ACAD_XREC_ROUNDTRIP
360
4196
  0
DICTIONARY
  5
4189
330
4057
100
AcDbDictionary
280
     1
281
     1
  3
ACAD_XREC_ROUNDTRIP
360
418A
  0
DICTIONARY
  5
418B
330
4058
100
AcDbDictionary
280
     1
281
     1
  3
ACAD_XREC_ROUNDTRIP
360
418C
  0
DICTIONARY
  5
419B
330
4060
100
AcDbDictionary
280
     1
281
     1
  3
ACAD_XREC_ROUNDTRIP
360
419C
  0
DICTIONARY
  5
4193
330
405C
100
AcDbDictionary
280
     1
281
     1
  3
ACAD_XREC_ROUNDTRIP
360
4194
  0
DICTIONARY
  5
4177
330
404E
100
AcDbDictionary
280
     1
281
     1
  3
ACAD_XREC_ROUNDTRIP
360
4178
  0
DICTIONARY
  5
4179
330
404F
100
AcDbDictionary
280
     1
281
     1
  3
ACAD_XREC_ROUNDTRIP
360
417A
  0
DICTIONARY
  5
417B
330
4050
100
AcDbDictionary
280
     1
281
     1
  3
ACAD_XREC_ROUNDTRIP
360
417C
  0
DICTIONARY
  5
417D
330
4051
100
AcDbDictionary
280
     1
281
     1
  3
ACAD_XREC_ROUNDTRIP
360
417E
  0
DICTIONARY
  5
4183
330
4054
100
AcDbDictionary
280
     1
281
     1
  3
ACAD_XREC_ROUNDTRIP
360
4184
  0
DICTIONARY
  5
4197
330
405E
100
AcDbDictionary
280
     1
281
     1
  3
ACAD_XREC_ROUNDTRIP
360
4198
  0
DICTIONARY
  5
4191
330
405B
100
AcDbDictionary
280
     1
281
     1
  3
ACAD_XREC_ROUNDTRIP
360
4192
  0
DICTIONARY
  5
4199
330
405F
100
AcDbDictionary
280
     1
281
     1
  3
ACAD_XREC_ROUNDTRIP
360
419A
  0
DICTIONARY
  5
4187
330
4056
100
AcDbDictionary
280
     1
281
     1
  3
ACAD_XREC_ROUNDTRIP
360
4188
  0
DICTIONARY
  5
41A5
330
4065
100
AcDbDictionary
280
     1
281
     1
  3
ACAD_XREC_ROUNDTRIP
360
41A6
  0
DICTIONARY
  5
41A3
330
4064
100
AcDbDictionary
280
     1
281
     1
  3
ACAD_XREC_ROUNDTRIP
360
41A4
  0
DICTIONARY
  5
419D
330
4061
100
AcDbDictionary
280
     1
281
     1
  3
ACAD_XREC_ROUNDTRIP
360
419E
  0
DICTIONARY
  5
419F
330
4062
100
AcDbDictionary
280
     1
281
     1
  3
ACAD_XREC_ROUNDTRIP
360
41A0
  0
DICTIONARY
  5
418F
330
405A
100
AcDbDictionary
280
     1
281
     1
  3
ACAD_XREC_ROUNDTRIP
360
4190
  0
DICTIONARY
  5
4181
330
4053
100
AcDbDictionary
280
     1
281
     1
  3
ACAD_XREC_ROUNDTRIP
360
4182
  0
DICTIONARY
  5
41A1
330
4063
100
AcDbDictionary
280
     1
281
     1
  3
ACAD_XREC_ROUNDTRIP
360
41A2
  0
XRECORD
  5
4174
102
{ACAD_REACTORS
330
4173
102
}
330
4173
100
AcDbXrecord
280
     1
102
MATERIAL
148
0.0
149
0.0
149
0.0
 93
        0
 94
      127
282
     0
 72
     1
 77
     1
171
     1
175
     1
179
     1
273
     0
  0
XRECORD
  5
4172
102
{ACAD_REACTORS
330
4171
102
}
330
4171
100
AcDbXrecord
280
     1
102
MATERIAL
148
0.0
149
0.0
149
0.0
 93
        0
 94
      127
282
     0
 72
     1
 77
     1
171
     1
175
     1
179
     1
273
     0
  0
XRECORD
  5
4176
102
{ACAD_REACTORS
330
4175
102
}
330
4175
100
AcDbXrecord
280
     1
102
MATERIAL
148
0.0
149
0.0
149
0.0
 93
        0
 94
      127
282
     0
 72
     1
 77
     1
171
     1
175
     1
179
     1
273
     0
  0
XRECORD
  5
41AB
102
{ACAD_REACTORS
330
41AA
102
}
330
41AA
100
AcDbXrecord
280
     1
102
ACAD_ROUNDTRIP_2010_MLEADER_STYLE
  0
CELLSTYLEMAP
  5
41A9
102
{ACAD_REACTORS
330
41A7
102
}
330
41A7
100
AcDbCellStyleMap
 90
        3
300
CELLSTYLE
  1
TABLEFORMAT_BEGIN
 90
        5
170
     1
 91
        0
 92
        0
 62
   257
 93
        1
300
CONTENTFORMAT
  1
CONTENTFORMAT_BEGIN
 90
        0
 91
        0
 92
        4
 93
        0
300

 40
0.0
140
1.0
 94
        5
 62
     0
340
10
144
6.0
309
CONTENTFORMAT_END
171
     1
301
MARGIN
  1
CELLMARGIN_BEGIN
 40
1.5
 40
1.5
 40
1.5
 40
1.5
 40
1.5
 40
1.5
309
CELLMARGIN_END
 94
        6
 95
        1
302
GRIDFORMAT
  1
GRIDFORMAT_BEGIN
 90
        0
 91
        1
 62
     0
 92
       -2
340
14
 93
        0
 40
0.045
309
GRIDFORMAT_END
 95
        2
302
GRIDFORMAT
  1
GRIDFORMAT_BEGIN
 90
        0
 91
        1
 62
     0
 92
       -2
340
14
 93
        0
 40
0.045
309
GRIDFORMAT_END
 95
        4
302
GRIDFORMAT
  1
GRIDFORMAT_BEGIN
 90
        0
 91
        1
 62
     0
 92
       -2
340
14
 93
        0
 40
0.045
309
GRIDFORMAT_END
 95
        8
302
GRIDFORMAT
  1
GRIDFORMAT_BEGIN
 90
        0
 91
        1
 62
     0
 92
       -2
340
14
 93
        0
 40
0.045
309
GRIDFORMAT_END
 95
       16
302
GRIDFORMAT
  1
GRIDFORMAT_BEGIN
 90
        0
 91
        1
 62
     0
 92
       -2
340
14
 93
        0
 40
0.045
309
GRIDFORMAT_END
 95
       32
302
GRIDFORMAT
  1
GRIDFORMAT_BEGIN
 90
        0
 91
        1
 62
     0
 92
       -2
340
14
 93
        0
 40
0.045
309
GRIDFORMAT_END
309
TABLEFORMAT_END
  1
CELLSTYLE_BEGIN
 90
        1
 91
        1
300
_TITLE
309
CELLSTYLE_END
300
CELLSTYLE
  1
TABLEFORMAT_BEGIN
 90
        5
170
     1
 91
        0
 92
        0
 62
   257
 93
        1
300
CONTENTFORMAT
  1
CONTENTFORMAT_BEGIN
 90
        0
 91
        0
 92
        4
 93
        0
300

 40
0.0
140
1.0
 94
        5
 62
     0
340
10
144
4.5
309
CONTENTFORMAT_END
171
     1
301
MARGIN
  1
CELLMARGIN_BEGIN
 40
1.5
 40
1.5
 40
1.5
 40
1.5
 40
1.5
 40
1.5
309
CELLMARGIN_END
 94
        6
 95
        1
302
GRIDFORMAT
  1
GRIDFORMAT_BEGIN
 90
        0
 91
        1
 62
     0
 92
       -2
340
14
 93
        0
 40
0.045
309
GRIDFORMAT_END
 95
        2
302
GRIDFORMAT
  1
GRIDFORMAT_BEGIN
 90
        0
 91
        1
 62
     0
 92
       -2
340
14
 93
        0
 40
0.045
309
GRIDFORMAT_END
 95
        4
302
GRIDFORMAT
  1
GRIDFORMAT_BEGIN
 90
        0
 91
        1
 62
     0
 92
       -2
340
14
 93
        0
 40
0.045
309
GRIDFORMAT_END
 95
        8
302
GRIDFORMAT
  1
GRIDFORMAT_BEGIN
 90
        0
 91
        1
 62
     0
 92
       -2
340
14
 93
        0
 40
0.045
309
GRIDFORMAT_END
 95
       16
302
GRIDFORMAT
  1
GRIDFORMAT_BEGIN
 90
        0
 91
        1
 62
     0
 92
       -2
340
14
 93
        0
 40
0.045
309
GRIDFORMAT_END
 95
       32
302
GRIDFORMAT
  1
GRIDFORMAT_BEGIN
 90
        0
 91
        1
 62
     0
 92
       -2
340
14
 93
        0
 40
0.045
309
GRIDFORMAT_END
309
TABLEFORMAT_END
  1
CELLSTYLE_BEGIN
 90
        2
 91
        1
300
_HEADER
309
CELLSTYLE_END
300
CELLSTYLE
  1
TABLEFORMAT_BEGIN
 90
        5
170
     1
 91
        0
 92
        0
 62
   257
 93
        1
300
CONTENTFORMAT
  1
CONTENTFORMAT_BEGIN
 90
        0
 91
        0
 92
        4
 93
        0
300

 40
0.0
140
1.0
 94
        2
 62
     0
340
10
144
4.5
309
CONTENTFORMAT_END
171
     1
301
MARGIN
  1
CELLMARGIN_BEGIN
 40
1.5
 40
1.5
 40
1.5
 40
1.5
 40
1.5
 40
1.5
309
CELLMARGIN_END
 94
        6
 95
        1
302
GRIDFORMAT
  1
GRIDFORMAT_BEGIN
 90
        0
 91
        1
 62
     0
 92
       -2
340
14
 93
        0
 40
0.045
309
GRIDFORMAT_END
 95
        2
302
GRIDFORMAT
  1
GRIDFORMAT_BEGIN
 90
        0
 91
        1
 62
     0
 92
       -2
340
14
 93
        0
 40
0.045
309
GRIDFORMAT_END
 95
        4
302
GRIDFORMAT
  1
GRIDFORMAT_BEGIN
 90
        0
 91
        1
 62
     0
 92
       -2
340
14
 93
        0
 40
0.045
309
GRIDFORMAT_END
 95
        8
302
GRIDFORMAT
  1
GRIDFORMAT_BEGIN
 90
        0
 91
        1
 62
     0
 92
       -2
340
14
 93
        0
 40
0.045
309
GRIDFORMAT_END
 95
       16
302
GRIDFORMAT
  1
GRIDFORMAT_BEGIN
 90
        0
 91
        1
 62
     0
 92
       -2
340
14
 93
        0
 40
0.045
309
GRIDFORMAT_END
 95
       32
302
GRIDFORMAT
  1
GRIDFORMAT_BEGIN
 90
        0
 91
        1
 62
     0
 92
       -2
340
14
 93
        0
 40
0.045
309
GRIDFORMAT_END
309
TABLEFORMAT_END
  1
CELLSTYLE_BEGIN
 90
        3
 91
        2
300
_DATA
309
CELLSTYLE_END
  0
XRECORD
  5
41A8
102
{ACAD_REACTORS
330
41A7
102
}
330
41A7
100
AcDbXrecord
280
     1
102
ACAD_ROUNDTRIP_PRE2007_TABLESTYLE
 90
        4
 91
        0
  1

 92
        4
 93
        0
  2

 94
        4
 95
        0
  3

  0
XRECORD
  5
4180
102
{ACAD_REACTORS
330
417F
102
}
330
417F
100
AcDbXrecord
280
     1
102
RTVSPropertyOp0
 70
     1
102
RTVSPropertyOp1
 70
     1
102
RTVSPropertyOp2
 70
     1
102
RTVSPropertyOp3
 70
     1
102
RTVSPropertyOp4
 70
     1
102
RTVSPropertyOp5
 70
     1
102
RTVSPropertyOp6
 70
     1
102
RTVSPropertyOp7
 70
     1
102
RTVSPropertyOp8
 70
     1
102
RTVSPropertyOp9
 70
     1
102
RTVSPropertyOp10
 70
     1
102
RTVSPropertyOp11
 70
     1
102
RTVSPropertyOp12
 70
     1
102
RTVSPropertyOp13
 70
     1
102
RTVSPropertyOp14
 70
     1
102
RTVSPropertyOp15
 70
     1
102
RTVSPropertyOp16
 70
     1
102
RTVSPropertyOp17
 70
     1
102
RTVSPropertyOp18
 70
     1
102
RTVSPropertyOp19
 70
     1
102
RTVSPropertyOp20
 70
     1
102
RTVSPropertyOp21
 70
     1
102
RTVSPropertyOp22
 70
     1
102
RTVSPropertyOp23
 70
     1
102
RTVSPropertyOp24
 70
     1
102
RTVSPropertyOp25
 70
     1
102
RTVSPropertyOp26
 70
     1
102
RTVSPropertyOp27
 70
     1
102
RTVSPropertyOp28
 70
     1
102
RTVSPropertyOp29
 70
     1
102
RTVSPropertyOp30
 70
     1
102
RTVSPropertyOp31
 70
     1
102
RTVSPropertyOp32
 70
     1
102
RTVSPropertyOp33
 70
     1
102
RTVSPropertyOp34
 70
     1
102
RTVSPropertyOp35
 70
     1
102
RTVSPropertyOp36
 70
     1
102
RTVSPropertyOp37
 70
     1
102
RTVSPropertyOp38
 70
     1
102
RTVSPropertyOp39
 70
     1
102
RTVSPropertyOp40
 70
     1
102
RTVSPropertyOp41
 70
     1
102
RTVSPropertyOp42
 70
     1
102
RTVSPropertyOp43
 70
     1
102
RTVSPropertyOp44
 70
     1
102
RTVSPropertyOp45
 70
     1
102
RTVSPropertyOp46
 70
     1
102
RTVSPropertyOp47
 70
     1
102
RTVSPropertyOp48
 70
     1
102
RTVSPropertyOp49
 70
     1
102
RTVSPropertyOp50
 70
     1
102
RTVSPropertyOp51
 70
     0
102
RTVSPropertyOp52
 70
     0
102
RTVSPropertyOp53
 70
     1
102
RTVSPropertyOp54
 70
     1
102
RTVSPropertyOp55
 70
     1
102
RTVSPropertyOp56
 70
     1
102
RTVSPropertyOp57
 70
     1
102
RTVSPost2010Prop28
280
     1
102
RTVSPost2010PropOp28
 70
     1
102
RTVSPost2010Prop29
280
     1
102
RTVSPost2010PropOp29
 70
     1
102
RTVSPost2010Prop30
280
     0
102
RTVSPost2010PropOp30
 70
     1
102
RTVSPost2010Prop31
280
     0
102
RTVSPost2010PropOp31
 70
     1
102
RTVSPost2010Prop32
280
     0
102
RTVSPost2010PropOp32
 70
     1
102
RTVSPost2010Prop33
280
     0
102
RTVSPost2010PropOp33
 70
     1
102
RTVSPost2010Prop34
280
     0
102
RTVSPost2010PropOp34
 70
     1
102
RTVSPost2010Prop35
280
     0
102
RTVSPost2010PropOp35
 70
     1
102
RTVSPost2010Prop36
280
     0
102
RTVSPost2010PropOp36
 70
     1
102
RTVSPost2010Prop37
 90
       50
102
RTVSPost2010PropOp37
 70
     1
102
RTVSPost2010Prop38
140
0.0
102
RTVSPost2010PropOp38
 70
     1
102
RTVSPost2010Prop39
140
1.0
102
RTVSPost2010PropOp39
 70
     1
102
RTVSPost2010Prop40
 90
        0
102
RTVSPost2010PropOp40
 70
     1
102
RTVSPost2010Prop41ColorIndex
 90
       18
102
RTVSPost2010Prop41ColorRGB
 90
        0
102
RTVSPost2010PropOp41
 70
     1
102
RTVSPost2010Prop42
 90
       50
102
RTVSPost2010PropOp42
 70
     1
102
RTVSPost2010Prop43
 90
        3
102
RTVSPost2010PropOp43
 70
     1
102
RTVSPost2010Prop44ColorIndex
 90
        5
102
RTVSPost2010Prop44ColorRGB
 90
      255
102
RTVSPost2010PropOp44
 70
     1
102
RTVSPost2010Prop45
280
     0
102
RTVSPost2010PropOp45
 70
     1
102
RTVSPost2010Prop46
 90
       50
102
RTVSPost2010PropOp46
 70
     1
102
RTVSPost2010Prop47
 90
       50
102
RTVSPost2010PropOp47
 70
     1
102
RTVSPost2010Prop48
 90
       50
102
RTVSPost2010PropOp48
 70
     1
102
RTVSPost2010Prop49
280
     0
102
RTVSPost2010PropOp49
 70
     1
102
RTVSPost2010Prop50
 90
       50
102
RTVSPost2010PropOp50
 70
     1
102
RTVSPost2010Prop51ColorIndex
 90
      256
102
RTVSPost2010Prop51ColorRGB
 90
-16777216
102
RTVSPost2010PropOp51
 70
     0
102
RTVSPost2010Prop52
140
1.0
102
RTVSPost2010PropOp52
 70
     0
102
RTVSPost2010Prop53
 90
        2
102
RTVSPost2010PropOp53
 70
     1
102
RTVSPost2010Prop54
  1
strokes_ogs.tif
102
RTVSPost2010PropOp54
 70
     1
102
RTVSPost2010Prop55
280
     0
102
RTVSPost2010PropOp55
 70
     1
102
RTVSPost2010Prop56
140
1.0
102
RTVSPost2010PropOp56
 70
     1
102
RTVSPost2010Prop57
140
1.0
102
RTVSPost2010PropOp57
 70
     1
  0
XRECORD
  5
4186
102
{ACAD_REACTORS
330
4185
102
}
330
4185
100
AcDbXrecord
280
     1
102
RTVSPropertyOp0
 70
     1
102
RTVSPropertyOp1
 70
     1
102
RTVSPropertyOp2
 70
     1
102
RTVSPropertyOp3
 70
     1
102
RTVSPropertyOp4
 70
     1
102
RTVSPropertyOp5
 70
     1
102
RTVSPropertyOp6
 70
     1
102
RTVSPropertyOp7
 70
     1
102
RTVSPropertyOp8
 70
     1
102
RTVSPropertyOp9
 70
     1
102
RTVSPropertyOp10
 70
     1
102
RTVSPropertyOp11
 70
     1
102
RTVSPropertyOp12
 70
     1
102
RTVSPropertyOp13
 70
     1
102
RTVSPropertyOp14
 70
     1
102
RTVSPropertyOp15
 70
     1
102
RTVSPropertyOp16
 70
     1
102
RTVSPropertyOp17
 70
     1
102
RTVSPropertyOp18
 70
     1
102
RTVSPropertyOp19
 70
     1
102
RTVSPropertyOp20
 70
     1
102
RTVSPropertyOp21
 70
     1
102
RTVSPropertyOp22
 70
     1
102
RTVSPropertyOp23
 70
     1
102
RTVSPropertyOp24
 70
     1
102
RTVSPropertyOp25
 70
     1
102
RTVSPropertyOp26
 70
     1
102
RTVSPropertyOp27
 70
     1
102
RTVSPropertyOp28
 70
     1
102
RTVSPropertyOp29
 70
     1
102
RTVSPropertyOp30
 70
     1
102
RTVSPropertyOp31
 70
     1
102
RTVSPropertyOp32
 70
     1
102
RTVSPropertyOp33
 70
     1
102
RTVSPropertyOp34
 70
     1
102
RTVSPropertyOp35
 70
     1
102
RTVSPropertyOp36
 70
     1
102
RTVSPropertyOp37
 70
     1
102
RTVSPropertyOp38
 70
     1
102
RTVSPropertyOp39
 70
     1
102
RTVSPropertyOp40
 70
     1
102
RTVSPropertyOp41
 70
     1
102
RTVSPropertyOp42
 70
     1
102
RTVSPropertyOp43
 70
     1
102
RTVSPropertyOp44
 70
     1
102
RTVSPropertyOp45
 70
     1
102
RTVSPropertyOp46
 70
     1
102
RTVSPropertyOp47
 70
     1
102
RTVSPropertyOp48
 70
     1
102
RTVSPropertyOp49
 70
     1
102
RTVSPropertyOp50
 70
     1
102
RTVSPropertyOp51
 70
     0
102
RTVSPropertyOp52
 70
     0
102
RTVSPropertyOp53
 70
     1
102
RTVSPropertyOp54
 70
     1
102
RTVSPropertyOp55
 70
     1
102
RTVSPropertyOp56
 70
     1
102
RTVSPropertyOp57
 70
     1
102
RTVSPost2010Prop28
280
     0
102
RTVSPost2010PropOp28
 70
     1
102
RTVSPost2010Prop29
280
     1
102
RTVSPost2010PropOp29
 70
     1
102
RTVSPost2010Prop30
280
     1
102
RTVSPost2010PropOp30
 70
     1
102
RTVSPost2010Prop31
280
     0
102
RTVSPost2010PropOp31
 70
     1
102
RTVSPost2010Prop32
280
     0
102
RTVSPost2010PropOp32
 70
     1
102
RTVSPost2010Prop33
280
     0
102
RTVSPost2010PropOp33
 70
     1
102
RTVSPost2010Prop34
280
     0
102
RTVSPost2010PropOp34
 70
     1
102
RTVSPost2010Prop35
280
     0
102
RTVSPost2010PropOp35
 70
     1
102
RTVSPost2010Prop36
280
     0
102
RTVSPost2010PropOp36
 70
     1
102
RTVSPost2010Prop37
 90
       50
102
RTVSPost2010PropOp37
 70
     1
102
RTVSPost2010Prop38
140
0.0
102
RTVSPost2010PropOp38
 70
     1
102
RTVSPost2010Prop39
140
1.0
102
RTVSPost2010PropOp39
 70
     1
102
RTVSPost2010Prop40
 90
        0
102
RTVSPost2010PropOp40
 70
     1
102
RTVSPost2010Prop41ColorIndex
 90
       18
102
RTVSPost2010Prop41ColorRGB
 90
        0
102
RTVSPost2010PropOp41
 70
     1
102
RTVSPost2010Prop42
 90
       50
102
RTVSPost2010PropOp42
 70
     1
102
RTVSPost2010Prop43
 90
        3
102
RTVSPost2010PropOp43
 70
     1
102
RTVSPost2010Prop44ColorIndex
 90
        5
102
RTVSPost2010Prop44ColorRGB
 90
      255
102
RTVSPost2010PropOp44
 70
     1
102
RTVSPost2010Prop45
280
     0
102
RTVSPost2010PropOp45
 70
     1
102
RTVSPost2010Prop46
 90
       50
102
RTVSPost2010PropOp46
 70
     1
102
RTVSPost2010Prop47
 90
       50
102
RTVSPost2010PropOp47
 70
     1
102
RTVSPost2010Prop48
 90
       50
102
RTVSPost2010PropOp48
 70
     1
102
RTVSPost2010Prop49
280
     0
102
RTVSPost2010PropOp49
 70
     1
102
RTVSPost2010Prop50
 90
       50
102
RTVSPost2010PropOp50
 70
     1
102
RTVSPost2010Prop51ColorIndex
 90
      256
102
RTVSPost2010Prop51ColorRGB
 90
-16777216
102
RTVSPost2010PropOp51
 70
     0
102
RTVSPost2010Prop52
140
1.0
102
RTVSPost2010PropOp52
 70
     0
102
RTVSPost2010Prop53
 90
        2
102
RTVSPost2010PropOp53
 70
     1
102
RTVSPost2010Prop54
  1
strokes_ogs.tif
102
RTVSPost2010PropOp54
 70
     1
102
RTVSPost2010Prop55
280
     0
102
RTVSPost2010PropOp55
 70
     1
102
RTVSPost2010Prop56
140
1.0
102
RTVSPost2010PropOp56
 70
     1
102
RTVSPost2010Prop57
140
1.0
102
RTVSPost2010PropOp57
 70
     1
  0
XRECORD
  5
418E
102
{ACAD_REACTORS
330
418D
102
}
330
418D
100
AcDbXrecord
280
     1
102
RTVSPropertyOp0
 70
     1
102
RTVSPropertyOp1
 70
     1
102
RTVSPropertyOp2
 70
     1
102
RTVSPropertyOp3
 70
     1
102
RTVSPropertyOp4
 70
     1
102
RTVSPropertyOp5
 70
     1
102
RTVSPropertyOp6
 70
     1
102
RTVSPropertyOp7
 70
     1
102
RTVSPropertyOp8
 70
     1
102
RTVSPropertyOp9
 70
     1
102
RTVSPropertyOp10
 70
     1
102
RTVSPropertyOp11
 70
     1
102
RTVSPropertyOp12
 70
     1
102
RTVSPropertyOp13
 70
     1
102
RTVSPropertyOp14
 70
     1
102
RTVSPropertyOp15
 70
     1
102
RTVSPropertyOp16
 70
     1
102
RTVSPropertyOp17
 70
     1
102
RTVSPropertyOp18
 70
     1
102
RTVSPropertyOp19
 70
     1
102
RTVSPropertyOp20
 70
     1
102
RTVSPropertyOp21
 70
     1
102
RTVSPropertyOp22
 70
     1
102
RTVSPropertyOp23
 70
     1
102
RTVSPropertyOp24
 70
     1
102
RTVSPropertyOp25
 70
     1
102
RTVSPropertyOp26
 70
     1
102
RTVSPropertyOp27
 70
     1
102
RTVSPropertyOp28
 70
     1
102
RTVSPropertyOp29
 70
     1
102
RTVSPropertyOp30
 70
     1
102
RTVSPropertyOp31
 70
     1
102
RTVSPropertyOp32
 70
     1
102
RTVSPropertyOp33
 70
     1
102
RTVSPropertyOp34
 70
     1
102
RTVSPropertyOp35
 70
     1
102
RTVSPropertyOp36
 70
     1
102
RTVSPropertyOp37
 70
     1
102
RTVSPropertyOp38
 70
     1
102
RTVSPropertyOp39
 70
     1
102
RTVSPropertyOp40
 70
     1
102
RTVSPropertyOp41
 70
     1
102
RTVSPropertyOp42
 70
     1
102
RTVSPropertyOp43
 70
     1
102
RTVSPropertyOp44
 70
     1
102
RTVSPropertyOp45
 70
     1
102
RTVSPropertyOp46
 70
     1
102
RTVSPropertyOp47
 70
     1
102
RTVSPropertyOp48
 70
     1
102
RTVSPropertyOp49
 70
     1
102
RTVSPropertyOp50
 70
     1
102
RTVSPropertyOp51
 70
     0
102
RTVSPropertyOp52
 70
     0
102
RTVSPropertyOp53
 70
     1
102
RTVSPropertyOp54
 70
     1
102
RTVSPropertyOp55
 70
     1
102
RTVSPropertyOp56
 70
     1
102
RTVSPropertyOp57
 70
     1
102
RTVSPost2010Prop28
280
     0
102
RTVSPost2010PropOp28
 70
     1
102
RTVSPost2010Prop29
280
     1
102
RTVSPost2010PropOp29
 70
     1
102
RTVSPost2010Prop30
280
     1
102
RTVSPost2010PropOp30
 70
     1
102
RTVSPost2010Prop31
280
     0
102
RTVSPost2010PropOp31
 70
     1
102
RTVSPost2010Prop32
280
     0
102
RTVSPost2010PropOp32
 70
     1
102
RTVSPost2010Prop33
280
     0
102
RTVSPost2010PropOp33
 70
     1
102
RTVSPost2010Prop34
280
     0
102
RTVSPost2010PropOp34
 70
     1
102
RTVSPost2010Prop35
280
     0
102
RTVSPost2010PropOp35
 70
     1
102
RTVSPost2010Prop36
280
     0
102
RTVSPost2010PropOp36
 70
     1
102
RTVSPost2010Prop37
 90
       50
102
RTVSPost2010PropOp37
 70
     1
102
RTVSPost2010Prop38
140
0.0
102
RTVSPost2010PropOp38
 70
     1
102
RTVSPost2010Prop39
140
1.0
102
RTVSPost2010PropOp39
 70
     1
102
RTVSPost2010Prop40
 90
        0
102
RTVSPost2010PropOp40
 70
     1
102
RTVSPost2010Prop41ColorIndex
 90
       18
102
RTVSPost2010Prop41ColorRGB
 90
        0
102
RTVSPost2010PropOp41
 70
     1
102
RTVSPost2010Prop42
 90
       50
102
RTVSPost2010PropOp42
 70
     1
102
RTVSPost2010Prop43
 90
        3
102
RTVSPost2010PropOp43
 70
     1
102
RTVSPost2010Prop44ColorIndex
 90
        5
102
RTVSPost2010Prop44ColorRGB
 90
      255
102
RTVSPost2010PropOp44
 70
     1
102
RTVSPost2010Prop45
280
     0
102
RTVSPost2010PropOp45
 70
     1
102
RTVSPost2010Prop46
 90
       50
102
RTVSPost2010PropOp46
 70
     1
102
RTVSPost2010Prop47
 90
       50
102
RTVSPost2010PropOp47
 70
     1
102
RTVSPost2010Prop48
 90
       50
102
RTVSPost2010PropOp48
 70
     1
102
RTVSPost2010Prop49
280
     0
102
RTVSPost2010PropOp49
 70
     1
102
RTVSPost2010Prop50
 90
       50
102
RTVSPost2010PropOp50
 70
     1
102
RTVSPost2010Prop51ColorIndex
 90
      256
102
RTVSPost2010Prop51ColorRGB
 90
-16777216
102
RTVSPost2010PropOp51
 70
     0
102
RTVSPost2010Prop52
140
1.0
102
RTVSPost2010PropOp52
 70
     0
102
RTVSPost2010Prop53
 90
        2
102
RTVSPost2010PropOp53
 70
     1
102
RTVSPost2010Prop54
  1
strokes_ogs.tif
102
RTVSPost2010PropOp54
 70
     1
102
RTVSPost2010Prop55
280
     0
102
RTVSPost2010PropOp55
 70
     1
102
RTVSPost2010Prop56
140
1.0
102
RTVSPost2010PropOp56
 70
     1
102
RTVSPost2010Prop57
140
1.0
102
RTVSPost2010PropOp57
 70
     1
  0
XRECORD
  5
4196
102
{ACAD_REACTORS
330
4195
102
}
330
4195
100
AcDbXrecord
280
     1
102
RTVSPropertyOp0
 70
     1
102
RTVSPropertyOp1
 70
     1
102
RTVSPropertyOp2
 70
     1
102
RTVSPropertyOp3
 70
     1
102
RTVSPropertyOp4
 70
     1
102
RTVSPropertyOp5
 70
     1
102
RTVSPropertyOp6
 70
     1
102
RTVSPropertyOp7
 70
     1
102
RTVSPropertyOp8
 70
     1
102
RTVSPropertyOp9
 70
     1
102
RTVSPropertyOp10
 70
     1
102
RTVSPropertyOp11
 70
     1
102
RTVSPropertyOp12
 70
     1
102
RTVSPropertyOp13
 70
     1
102
RTVSPropertyOp14
 70
     1
102
RTVSPropertyOp15
 70
     1
102
RTVSPropertyOp16
 70
     1
102
RTVSPropertyOp17
 70
     1
102
RTVSPropertyOp18
 70
     1
102
RTVSPropertyOp19
 70
     1
102
RTVSPropertyOp20
 70
     1
102
RTVSPropertyOp21
 70
     1
102
RTVSPropertyOp22
 70
     1
102
RTVSPropertyOp23
 70
     1
102
RTVSPropertyOp24
 70
     1
102
RTVSPropertyOp25
 70
     1
102
RTVSPropertyOp26
 70
     1
102
RTVSPropertyOp27
 70
     1
102
RTVSPropertyOp28
 70
     1
102
RTVSPropertyOp29
 70
     1
102
RTVSPropertyOp30
 70
     1
102
RTVSPropertyOp31
 70
     1
102
RTVSPropertyOp32
 70
     1
102
RTVSPropertyOp33
 70
     1
102
RTVSPropertyOp34
 70
     1
102
RTVSPropertyOp35
 70
     1
102
RTVSPropertyOp36
 70
     1
102
RTVSPropertyOp37
 70
     1
102
RTVSPropertyOp38
 70
     1
102
RTVSPropertyOp39
 70
     1
102
RTVSPropertyOp40
 70
     1
102
RTVSPropertyOp41
 70
     1
102
RTVSPropertyOp42
 70
     1
102
RTVSPropertyOp43
 70
     1
102
RTVSPropertyOp44
 70
     1
102
RTVSPropertyOp45
 70
     1
102
RTVSPropertyOp46
 70
     1
102
RTVSPropertyOp47
 70
     1
102
RTVSPropertyOp48
 70
     1
102
RTVSPropertyOp49
 70
     1
102
RTVSPropertyOp50
 70
     1
102
RTVSPropertyOp51
 70
     0
102
RTVSPropertyOp52
 70
     0
102
RTVSPropertyOp53
 70
     1
102
RTVSPropertyOp54
 70
     1
102
RTVSPropertyOp55
 70
     1
102
RTVSPropertyOp56
 70
     1
102
RTVSPropertyOp57
 70
     1
102
RTVSPost2010Prop28
280
     0
102
RTVSPost2010PropOp28
 70
     1
102
RTVSPost2010Prop29
280
     1
102
RTVSPost2010PropOp29
 70
     1
102
RTVSPost2010Prop30
280
     1
102
RTVSPost2010PropOp30
 70
     1
102
RTVSPost2010Prop31
280
     0
102
RTVSPost2010PropOp31
 70
     1
102
RTVSPost2010Prop32
280
     0
102
RTVSPost2010PropOp32
 70
     1
102
RTVSPost2010Prop33
280
     0
102
RTVSPost2010PropOp33
 70
     1
102
RTVSPost2010Prop34
280
     0
102
RTVSPost2010PropOp34
 70
     1
102
RTVSPost2010Prop35
280
     0
102
RTVSPost2010PropOp35
 70
     1
102
RTVSPost2010Prop36
280
     0
102
RTVSPost2010PropOp36
 70
     1
102
RTVSPost2010Prop37
 90
       50
102
RTVSPost2010PropOp37
 70
     1
102
RTVSPost2010Prop38
140
0.0
102
RTVSPost2010PropOp38
 70
     1
102
RTVSPost2010Prop39
140
1.0
102
RTVSPost2010PropOp39
 70
     1
102
RTVSPost2010Prop40
 90
        0
102
RTVSPost2010PropOp40
 70
     1
102
RTVSPost2010Prop41ColorIndex
 90
       18
102
RTVSPost2010Prop41ColorRGB
 90
        0
102
RTVSPost2010PropOp41
 70
     1
102
RTVSPost2010Prop42
 90
       50
102
RTVSPost2010PropOp42
 70
     1
102
RTVSPost2010Prop43
 90
        3
102
RTVSPost2010PropOp43
 70
     1
102
RTVSPost2010Prop44ColorIndex
 90
        5
102
RTVSPost2010Prop44ColorRGB
 90
      255
102
RTVSPost2010PropOp44
 70
     1
102
RTVSPost2010Prop45
280
     0
102
RTVSPost2010PropOp45
 70
     1
102
RTVSPost2010Prop46
 90
       50
102
RTVSPost2010PropOp46
 70
     1
102
RTVSPost2010Prop47
 90
       50
102
RTVSPost2010PropOp47
 70
     1
102
RTVSPost2010Prop48
 90
       50
102
RTVSPost2010PropOp48
 70
     1
102
RTVSPost2010Prop49
280
     0
102
RTVSPost2010PropOp49
 70
     1
102
RTVSPost2010Prop50
 90
       50
102
RTVSPost2010PropOp50
 70
     1
102
RTVSPost2010Prop51ColorIndex
 90
      256
102
RTVSPost2010Prop51ColorRGB
 90
-16777216
102
RTVSPost2010PropOp51
 70
     0
102
RTVSPost2010Prop52
140
1.0
102
RTVSPost2010PropOp52
 70
     0
102
RTVSPost2010Prop53
 90
        2
102
RTVSPost2010PropOp53
 70
     1
102
RTVSPost2010Prop54
  1
strokes_ogs.tif
102
RTVSPost2010PropOp54
 70
     1
102
RTVSPost2010Prop55
280
     0
102
RTVSPost2010PropOp55
 70
     1
102
RTVSPost2010Prop56
140
1.0
102
RTVSPost2010PropOp56
 70
     1
102
RTVSPost2010Prop57
140
1.0
102
RTVSPost2010PropOp57
 70
     1
  0
XRECORD
  5
418A
102
{ACAD_REACTORS
330
4189
102
}
330
4189
100
AcDbXrecord
280
     1
102
RTVSPropertyOp0
 70
     1
102
RTVSPropertyOp1
 70
     1
102
RTVSPropertyOp2
 70
     1
102
RTVSPropertyOp3
 70
     1
102
RTVSPropertyOp4
 70
     1
102
RTVSPropertyOp5
 70
     1
102
RTVSPropertyOp6
 70
     1
102
RTVSPropertyOp7
 70
     1
102
RTVSPropertyOp8
 70
     1
102
RTVSPropertyOp9
 70
     1
102
RTVSPropertyOp10
 70
     1
102
RTVSPropertyOp11
 70
     1
102
RTVSPropertyOp12
 70
     1
102
RTVSPropertyOp13
 70
     1
102
RTVSPropertyOp14
 70
     1
102
RTVSPropertyOp15
 70
     1
102
RTVSPropertyOp16
 70
     1
102
RTVSPropertyOp17
 70
     1
102
RTVSPropertyOp18
 70
     1
102
RTVSPropertyOp19
 70
     1
102
RTVSPropertyOp20
 70
     1
102
RTVSPropertyOp21
 70
     1
102
RTVSPropertyOp22
 70
     1
102
RTVSPropertyOp23
 70
     1
102
RTVSPropertyOp24
 70
     1
102
RTVSPropertyOp25
 70
     1
102
RTVSPropertyOp26
 70
     1
102
RTVSPropertyOp27
 70
     1
102
RTVSPropertyOp28
 70
     1
102
RTVSPropertyOp29
 70
     1
102
RTVSPropertyOp30
 70
     1
102
RTVSPropertyOp31
 70
     1
102
RTVSPropertyOp32
 70
     1
102
RTVSPropertyOp33
 70
     1
102
RTVSPropertyOp34
 70
     1
102
RTVSPropertyOp35
 70
     1
102
RTVSPropertyOp36
 70
     1
102
RTVSPropertyOp37
 70
     1
102
RTVSPropertyOp38
 70
     1
102
RTVSPropertyOp39
 70
     1
102
RTVSPropertyOp40
 70
     1
102
RTVSPropertyOp41
 70
     1
102
RTVSPropertyOp42
 70
     1
102
RTVSPropertyOp43
 70
     1
102
RTVSPropertyOp44
 70
     1
102
RTVSPropertyOp45
 70
     1
102
RTVSPropertyOp46
 70
     1
102
RTVSPropertyOp47
 70
     1
102
RTVSPropertyOp48
 70
     1
102
RTVSPropertyOp49
 70
     1
102
RTVSPropertyOp50
 70
     1
102
RTVSPropertyOp51
 70
     0
102
RTVSPropertyOp52
 70
     0
102
RTVSPropertyOp53
 70
     1
102
RTVSPropertyOp54
 70
     1
102
RTVSPropertyOp55
 70
     1
102
RTVSPropertyOp56
 70
     1
102
RTVSPropertyOp57
 70
     1
102
RTVSPost2010Prop28
280
     0
102
RTVSPost2010PropOp28
 70
     1
102
RTVSPost2010Prop29
280
     1
102
RTVSPost2010PropOp29
 70
     1
102
RTVSPost2010Prop30
280
     1
102
RTVSPost2010PropOp30
 70
     1
102
RTVSPost2010Prop31
280
     0
102
RTVSPost2010PropOp31
 70
     1
102
RTVSPost2010Prop32
280
     0
102
RTVSPost2010PropOp32
 70
     1
102
RTVSPost2010Prop33
280
     0
102
RTVSPost2010PropOp33
 70
     1
102
RTVSPost2010Prop34
280
     0
102
RTVSPost2010PropOp34
 70
     1
102
RTVSPost2010Prop35
280
     0
102
RTVSPost2010PropOp35
 70
     1
102
RTVSPost2010Prop36
280
     0
102
RTVSPost2010PropOp36
 70
     1
102
RTVSPost2010Prop37
 90
       50
102
RTVSPost2010PropOp37
 70
     1
102
RTVSPost2010Prop38
140
0.0
102
RTVSPost2010PropOp38
 70
     1
102
RTVSPost2010Prop39
140
1.0
102
RTVSPost2010PropOp39
 70
     1
102
RTVSPost2010Prop40
 90
        0
102
RTVSPost2010PropOp40
 70
     1
102
RTVSPost2010Prop41ColorIndex
 90
       18
102
RTVSPost2010Prop41ColorRGB
 90
        0
102
RTVSPost2010PropOp41
 70
     1
102
RTVSPost2010Prop42
 90
       50
102
RTVSPost2010PropOp42
 70
     1
102
RTVSPost2010Prop43
 90
        3
102
RTVSPost2010PropOp43
 70
     1
102
RTVSPost2010Prop44ColorIndex
 90
        5
102
RTVSPost2010Prop44ColorRGB
 90
      255
102
RTVSPost2010PropOp44
 70
     1
102
RTVSPost2010Prop45
280
     0
102
RTVSPost2010PropOp45
 70
     1
102
RTVSPost2010Prop46
 90
       50
102
RTVSPost2010PropOp46
 70
     1
102
RTVSPost2010Prop47
 90
       50
102
RTVSPost2010PropOp47
 70
     1
102
RTVSPost2010Prop48
 90
       50
102
RTVSPost2010PropOp48
 70
     1
102
RTVSPost2010Prop49
280
     0
102
RTVSPost2010PropOp49
 70
     1
102
RTVSPost2010Prop50
 90
       50
102
RTVSPost2010PropOp50
 70
     1
102
RTVSPost2010Prop51ColorIndex
 90
      256
102
RTVSPost2010Prop51ColorRGB
 90
-16777216
102
RTVSPost2010PropOp51
 70
     0
102
RTVSPost2010Prop52
140
1.0
102
RTVSPost2010PropOp52
 70
     0
102
RTVSPost2010Prop53
 90
        2
102
RTVSPost2010PropOp53
 70
     1
102
RTVSPost2010Prop54
  1
strokes_ogs.tif
102
RTVSPost2010PropOp54
 70
     1
102
RTVSPost2010Prop55
280
     0
102
RTVSPost2010PropOp55
 70
     1
102
RTVSPost2010Prop56
140
1.0
102
RTVSPost2010PropOp56
 70
     1
102
RTVSPost2010Prop57
140
1.0
102
RTVSPost2010PropOp57
 70
     1
  0
XRECORD
  5
418C
102
{ACAD_REACTORS
330
418B
102
}
330
418B
100
AcDbXrecord
280
     1
102
RTVSPropertyOp0
 70
     1
102
RTVSPropertyOp1
 70
     1
102
RTVSPropertyOp2
 70
     1
102
RTVSPropertyOp3
 70
     1
102
RTVSPropertyOp4
 70
     1
102
RTVSPropertyOp5
 70
     1
102
RTVSPropertyOp6
 70
     1
102
RTVSPropertyOp7
 70
     1
102
RTVSPropertyOp8
 70
     1
102
RTVSPropertyOp9
 70
     1
102
RTVSPropertyOp10
 70
     1
102
RTVSPropertyOp11
 70
     1
102
RTVSPropertyOp12
 70
     1
102
RTVSPropertyOp13
 70
     1
102
RTVSPropertyOp14
 70
     1
102
RTVSPropertyOp15
 70
     1
102
RTVSPropertyOp16
 70
     1
102
RTVSPropertyOp17
 70
     1
102
RTVSPropertyOp18
 70
     1
102
RTVSPropertyOp19
 70
     1
102
RTVSPropertyOp20
 70
     1
102
RTVSPropertyOp21
 70
     1
102
RTVSPropertyOp22
 70
     1
102
RTVSPropertyOp23
 70
     1
102
RTVSPropertyOp24
 70
     1
102
RTVSPropertyOp25
 70
     1
102
RTVSPropertyOp26
 70
     1
102
RTVSPropertyOp27
 70
     1
102
RTVSPropertyOp28
 70
     1
102
RTVSPropertyOp29
 70
     1
102
RTVSPropertyOp30
 70
     1
102
RTVSPropertyOp31
 70
     1
102
RTVSPropertyOp32
 70
     1
102
RTVSPropertyOp33
 70
     1
102
RTVSPropertyOp34
 70
     1
102
RTVSPropertyOp35
 70
     1
102
RTVSPropertyOp36
 70
     1
102
RTVSPropertyOp37
 70
     1
102
RTVSPropertyOp38
 70
     1
102
RTVSPropertyOp39
 70
     1
102
RTVSPropertyOp40
 70
     1
102
RTVSPropertyOp41
 70
     1
102
RTVSPropertyOp42
 70
     1
102
RTVSPropertyOp43
 70
     1
102
RTVSPropertyOp44
 70
     1
102
RTVSPropertyOp45
 70
     1
102
RTVSPropertyOp46
 70
     1
102
RTVSPropertyOp47
 70
     1
102
RTVSPropertyOp48
 70
     1
102
RTVSPropertyOp49
 70
     1
102
RTVSPropertyOp50
 70
     1
102
RTVSPropertyOp51
 70
     0
102
RTVSPropertyOp52
 70
     0
102
RTVSPropertyOp53
 70
     1
102
RTVSPropertyOp54
 70
     1
102
RTVSPropertyOp55
 70
     1
102
RTVSPropertyOp56
 70
     1
102
RTVSPropertyOp57
 70
     1
102
RTVSPost2010Prop28
280
     0
102
RTVSPost2010PropOp28
 70
     1
102
RTVSPost2010Prop29
280
     1
102
RTVSPost2010PropOp29
 70
     1
102
RTVSPost2010Prop30
280
     1
102
RTVSPost2010PropOp30
 70
     1
102
RTVSPost2010Prop31
280
     0
102
RTVSPost2010PropOp31
 70
     1
102
RTVSPost2010Prop32
280
     0
102
RTVSPost2010PropOp32
 70
     1
102
RTVSPost2010Prop33
280
     0
102
RTVSPost2010PropOp33
 70
     1
102
RTVSPost2010Prop34
280
     0
102
RTVSPost2010PropOp34
 70
     1
102
RTVSPost2010Prop35
280
     0
102
RTVSPost2010PropOp35
 70
     1
102
RTVSPost2010Prop36
280
     0
102
RTVSPost2010PropOp36
 70
     1
102
RTVSPost2010Prop37
 90
       50
102
RTVSPost2010PropOp37
 70
     1
102
RTVSPost2010Prop38
140
0.0
102
RTVSPost2010PropOp38
 70
     1
102
RTVSPost2010Prop39
140
1.0
102
RTVSPost2010PropOp39
 70
     1
102
RTVSPost2010Prop40
 90
        0
102
RTVSPost2010PropOp40
 70
     1
102
RTVSPost2010Prop41ColorIndex
 90
       18
102
RTVSPost2010Prop41ColorRGB
 90
        0
102
RTVSPost2010PropOp41
 70
     1
102
RTVSPost2010Prop42
 90
       50
102
RTVSPost2010PropOp42
 70
     1
102
RTVSPost2010Prop43
 90
        3
102
RTVSPost2010PropOp43
 70
     1
102
RTVSPost2010Prop44ColorIndex
 90
        5
102
RTVSPost2010Prop44ColorRGB
 90
      255
102
RTVSPost2010PropOp44
 70
     1
102
RTVSPost2010Prop45
280
     0
102
RTVSPost2010PropOp45
 70
     1
102
RTVSPost2010Prop46
 90
       50
102
RTVSPost2010PropOp46
 70
     1
102
RTVSPost2010Prop47
 90
       50
102
RTVSPost2010PropOp47
 70
     1
102
RTVSPost2010Prop48
 90
       50
102
RTVSPost2010PropOp48
 70
     1
102
RTVSPost2010Prop49
280
     0
102
RTVSPost2010PropOp49
 70
     1
102
RTVSPost2010Prop50
 90
       50
102
RTVSPost2010PropOp50
 70
     1
102
RTVSPost2010Prop51ColorIndex
 90
      256
102
RTVSPost2010Prop51ColorRGB
 90
-16777216
102
RTVSPost2010PropOp51
 70
     0
102
RTVSPost2010Prop52
140
1.0
102
RTVSPost2010PropOp52
 70
     0
102
RTVSPost2010Prop53
 90
        2
102
RTVSPost2010PropOp53
 70
     1
102
RTVSPost2010Prop54
  1
strokes_ogs.tif
102
RTVSPost2010PropOp54
 70
     1
102
RTVSPost2010Prop55
280
     0
102
RTVSPost2010PropOp55
 70
     1
102
RTVSPost2010Prop56
140
1.0
102
RTVSPost2010PropOp56
 70
     1
102
RTVSPost2010Prop57
140
1.0
102
RTVSPost2010PropOp57
 70
     1
  0
XRECORD
  5
419C
102
{ACAD_REACTORS
330
419B
102
}
330
419B
100
AcDbXrecord
280
     1
102
RTVSPropertyOp0
 70
     0
102
RTVSPropertyOp1
 70
     0
102
RTVSPropertyOp2
 70
     0
102
RTVSPropertyOp3
 70
     0
102
RTVSPropertyOp4
 70
     0
102
RTVSPropertyOp5
 70
     0
102
RTVSPropertyOp6
 70
     0
102
RTVSPropertyOp7
 70
     0
102
RTVSPropertyOp8
 70
     0
102
RTVSPropertyOp9
 70
     0
102
RTVSPropertyOp10
 70
     0
102
RTVSPropertyOp11
 70
     0
102
RTVSPropertyOp12
 70
     0
102
RTVSPropertyOp13
 70
     0
102
RTVSPropertyOp14
 70
     2
102
RTVSPropertyOp15
 70
     0
102
RTVSPropertyOp16
 70
     0
102
RTVSPropertyOp17
 70
     0
102
RTVSPropertyOp18
 70
     0
102
RTVSPropertyOp19
 70
     0
102
RTVSPropertyOp20
 70
     0
102
RTVSPropertyOp21
 70
     0
102
RTVSPropertyOp22
 70
     0
102
RTVSPropertyOp23
 70
     0
102
RTVSPropertyOp24
 70
     0
102
RTVSPropertyOp25
 70
     0
102
RTVSPropertyOp26
 70
     0
102
RTVSPropertyOp27
 70
     0
102
RTVSPropertyOp28
 70
     0
102
RTVSPropertyOp29
 70
     0
102
RTVSPropertyOp30
 70
     0
102
RTVSPropertyOp31
 70
     0
102
RTVSPropertyOp32
 70
     0
102
RTVSPropertyOp33
 70
     0
102
RTVSPropertyOp34
 70
     0
102
RTVSPropertyOp35
 70
     0
102
RTVSPropertyOp36
 70
     0
102
RTVSPropertyOp37
 70
     0
102
RTVSPropertyOp38
 70
     0
102
RTVSPropertyOp39
 70
     0
102
RTVSPropertyOp40
 70
     0
102
RTVSPropertyOp41
 70
     0
102
RTVSPropertyOp42
 70
     0
102
RTVSPropertyOp43
 70
     0
102
RTVSPropertyOp44
 70
     0
102
RTVSPropertyOp45
 70
     0
102
RTVSPropertyOp46
 70
     0
102
RTVSPropertyOp47
 70
     0
102
RTVSPropertyOp48
 70
     0
102
RTVSPropertyOp49
 70
     0
102
RTVSPropertyOp50
 70
     0
102
RTVSPropertyOp51
 70
     0
102
RTVSPropertyOp52
 70
     0
102
RTVSPropertyOp53
 70
     0
102
RTVSPropertyOp54
 70
     0
102
RTVSPropertyOp55
 70
     0
102
RTVSPropertyOp56
 70
     0
102
RTVSPropertyOp57
 70
     0
102
RTVSPost2010Prop28
280
     0
102
RTVSPost2010PropOp28
 70
     0
102
RTVSPost2010Prop29
280
     1
102
RTVSPost2010PropOp29
 70
     0
102
RTVSPost2010Prop30
280
     1
102
RTVSPost2010PropOp30
 70
     0
102
RTVSPost2010Prop31
280
     0
102
RTVSPost2010PropOp31
 70
     0
102
RTVSPost2010Prop32
280
     0
102
RTVSPost2010PropOp32
 70
     0
102
RTVSPost2010Prop33
280
     0
102
RTVSPost2010PropOp33
 70
     0
102
RTVSPost2010Prop34
280
     0
102
RTVSPost2010PropOp34
 70
     0
102
RTVSPost2010Prop35
280
     0
102
RTVSPost2010PropOp35
 70
     0
102
RTVSPost2010Prop36
280
     0
102
RTVSPost2010PropOp36
 70
     0
102
RTVSPost2010Prop37
 90
       50
102
RTVSPost2010PropOp37
 70
     0
102
RTVSPost2010Prop38
140
0.0
102
RTVSPost2010PropOp38
 70
     0
102
RTVSPost2010Prop39
140
1.0
102
RTVSPost2010PropOp39
 70
     0
102
RTVSPost2010Prop40
 90
        0
102
RTVSPost2010PropOp40
 70
     0
102
RTVSPost2010Prop41ColorIndex
 90
       18
102
RTVSPost2010Prop41ColorRGB
 90
        0
102
RTVSPost2010PropOp41
 70
     0
102
RTVSPost2010Prop42
 90
       50
102
RTVSPost2010PropOp42
 70
     0
102
RTVSPost2010Prop43
 90
        3
102
RTVSPost2010PropOp43
 70
     0
102
RTVSPost2010Prop44ColorIndex
 90
        5
102
RTVSPost2010Prop44ColorRGB
 90
      255
102
RTVSPost2010PropOp44
 70
     0
102
RTVSPost2010Prop45
280
     0
102
RTVSPost2010PropOp45
 70
     0
102
RTVSPost2010Prop46
 90
       50
102
RTVSPost2010PropOp46
 70
     0
102
RTVSPost2010Prop47
 90
       50
102
RTVSPost2010PropOp47
 70
     0
102
RTVSPost2010Prop48
 90
       50
102
RTVSPost2010PropOp48
 70
     0
102
RTVSPost2010Prop49
280
     0
102
RTVSPost2010PropOp49
 70
     0
102
RTVSPost2010Prop50
 90
       50
102
RTVSPost2010PropOp50
 70
     0
102
RTVSPost2010Prop51ColorIndex
 90
      256
102
RTVSPost2010Prop51ColorRGB
 90
-16777216
102
RTVSPost2010PropOp51
 70
     0
102
RTVSPost2010Prop52
140
1.0
102
RTVSPost2010PropOp52
 70
     0
102
RTVSPost2010Prop53
 90
        2
102
RTVSPost2010PropOp53
 70
     0
102
RTVSPost2010Prop54
  1
strokes_ogs.tif
102
RTVSPost2010PropOp54
 70
     0
102
RTVSPost2010Prop55
280
     0
102
RTVSPost2010PropOp55
 70
     0
102
RTVSPost2010Prop56
140
1.0
102
RTVSPost2010PropOp56
 70
     0
102
RTVSPost2010Prop57
140
1.0
102
RTVSPost2010PropOp57
 70
     0
  0
XRECORD
  5
4194
102
{ACAD_REACTORS
330
4193
102
}
330
4193
100
AcDbXrecord
280
     1
102
RTVSPropertyOp0
 70
     1
102
RTVSPropertyOp1
 70
     1
102
RTVSPropertyOp2
 70
     1
102
RTVSPropertyOp3
 70
     1
102
RTVSPropertyOp4
 70
     1
102
RTVSPropertyOp5
 70
     1
102
RTVSPropertyOp6
 70
     1
102
RTVSPropertyOp7
 70
     1
102
RTVSPropertyOp8
 70
     1
102
RTVSPropertyOp9
 70
     1
102
RTVSPropertyOp10
 70
     1
102
RTVSPropertyOp11
 70
     1
102
RTVSPropertyOp12
 70
     1
102
RTVSPropertyOp13
 70
     1
102
RTVSPropertyOp14
 70
     1
102
RTVSPropertyOp15
 70
     1
102
RTVSPropertyOp16
 70
     1
102
RTVSPropertyOp17
 70
     1
102
RTVSPropertyOp18
 70
     1
102
RTVSPropertyOp19
 70
     1
102
RTVSPropertyOp20
 70
     1
102
RTVSPropertyOp21
 70
     1
102
RTVSPropertyOp22
 70
     1
102
RTVSPropertyOp23
 70
     1
102
RTVSPropertyOp24
 70
     1
102
RTVSPropertyOp25
 70
     1
102
RTVSPropertyOp26
 70
     1
102
RTVSPropertyOp27
 70
     1
102
RTVSPropertyOp28
 70
     1
102
RTVSPropertyOp29
 70
     1
102
RTVSPropertyOp30
 70
     1
102
RTVSPropertyOp31
 70
     1
102
RTVSPropertyOp32
 70
     1
102
RTVSPropertyOp33
 70
     1
102
RTVSPropertyOp34
 70
     1
102
RTVSPropertyOp35
 70
     1
102
RTVSPropertyOp36
 70
     1
102
RTVSPropertyOp37
 70
     1
102
RTVSPropertyOp38
 70
     1
102
RTVSPropertyOp39
 70
     1
102
RTVSPropertyOp40
 70
     1
102
RTVSPropertyOp41
 70
     1
102
RTVSPropertyOp42
 70
     1
102
RTVSPropertyOp43
 70
     1
102
RTVSPropertyOp44
 70
     1
102
RTVSPropertyOp45
 70
     1
102
RTVSPropertyOp46
 70
     1
102
RTVSPropertyOp47
 70
     1
102
RTVSPropertyOp48
 70
     1
102
RTVSPropertyOp49
 70
     1
102
RTVSPropertyOp50
 70
     1
102
RTVSPropertyOp51
 70
     0
102
RTVSPropertyOp52
 70
     0
102
RTVSPropertyOp53
 70
     1
102
RTVSPropertyOp54
 70
     1
102
RTVSPropertyOp55
 70
     1
102
RTVSPropertyOp56
 70
     1
102
RTVSPropertyOp57
 70
     1
102
RTVSPost2010Prop28
280
     0
102
RTVSPost2010PropOp28
 70
     1
102
RTVSPost2010Prop29
280
     1
102
RTVSPost2010PropOp29
 70
     1
102
RTVSPost2010Prop30
280
     1
102
RTVSPost2010PropOp30
 70
     1
102
RTVSPost2010Prop31
280
     0
102
RTVSPost2010PropOp31
 70
     1
102
RTVSPost2010Prop32
280
     0
102
RTVSPost2010PropOp32
 70
     1
102
RTVSPost2010Prop33
280
     0
102
RTVSPost2010PropOp33
 70
     1
102
RTVSPost2010Prop34
280
     0
102
RTVSPost2010PropOp34
 70
     1
102
RTVSPost2010Prop35
280
     0
102
RTVSPost2010PropOp35
 70
     1
102
RTVSPost2010Prop36
280
     0
102
RTVSPost2010PropOp36
 70
     1
102
RTVSPost2010Prop37
 90
       50
102
RTVSPost2010PropOp37
 70
     1
102
RTVSPost2010Prop38
140
0.0
102
RTVSPost2010PropOp38
 70
     1
102
RTVSPost2010Prop39
140
1.0
102
RTVSPost2010PropOp39
 70
     1
102
RTVSPost2010Prop40
 90
        0
102
RTVSPost2010PropOp40
 70
     1
102
RTVSPost2010Prop41ColorIndex
 90
       18
102
RTVSPost2010Prop41ColorRGB
 90
        0
102
RTVSPost2010PropOp41
 70
     1
102
RTVSPost2010Prop42
 90
       50
102
RTVSPost2010PropOp42
 70
     1
102
RTVSPost2010Prop43
 90
        3
102
RTVSPost2010PropOp43
 70
     1
102
RTVSPost2010Prop44ColorIndex
 90
        5
102
RTVSPost2010Prop44ColorRGB
 90
      255
102
RTVSPost2010PropOp44
 70
     1
102
RTVSPost2010Prop45
280
     0
102
RTVSPost2010PropOp45
 70
     1
102
RTVSPost2010Prop46
 90
       50
102
RTVSPost2010PropOp46
 70
     1
102
RTVSPost2010Prop47
 90
       50
102
RTVSPost2010PropOp47
 70
     1
102
RTVSPost2010Prop48
 90
       50
102
RTVSPost2010PropOp48
 70
     1
102
RTVSPost2010Prop49
280
     0
102
RTVSPost2010PropOp49
 70
     1
102
RTVSPost2010Prop50
 90
       50
102
RTVSPost2010PropOp50
 70
     1
102
RTVSPost2010Prop51ColorIndex
 90
      256
102
RTVSPost2010Prop51ColorRGB
 90
-16777216
102
RTVSPost2010PropOp51
 70
     0
102
RTVSPost2010Prop52
140
1.0
102
RTVSPost2010PropOp52
 70
     0
102
RTVSPost2010Prop53
 90
        2
102
RTVSPost2010PropOp53
 70
     1
102
RTVSPost2010Prop54
  1
strokes_ogs.tif
102
RTVSPost2010PropOp54
 70
     1
102
RTVSPost2010Prop55
280
     0
102
RTVSPost2010PropOp55
 70
     1
102
RTVSPost2010Prop56
140
1.0
102
RTVSPost2010PropOp56
 70
     1
102
RTVSPost2010Prop57
140
1.0
102
RTVSPost2010PropOp57
 70
     1
  0
XRECORD
  5
4178
102
{ACAD_REACTORS
330
4177
102
}
330
4177
100
AcDbXrecord
280
     1
102
RTVSPropertyOp0
 70
     1
102
RTVSPropertyOp1
 70
     1
102
RTVSPropertyOp2
 70
     1
102
RTVSPropertyOp3
 70
     1
102
RTVSPropertyOp4
 70
     1
102
RTVSPropertyOp5
 70
     1
102
RTVSPropertyOp6
 70
     1
102
RTVSPropertyOp7
 70
     1
102
RTVSPropertyOp8
 70
     1
102
RTVSPropertyOp9
 70
     1
102
RTVSPropertyOp10
 70
     1
102
RTVSPropertyOp11
 70
     1
102
RTVSPropertyOp12
 70
     1
102
RTVSPropertyOp13
 70
     1
102
RTVSPropertyOp14
 70
     1
102
RTVSPropertyOp15
 70
     1
102
RTVSPropertyOp16
 70
     1
102
RTVSPropertyOp17
 70
     1
102
RTVSPropertyOp18
 70
     1
102
RTVSPropertyOp19
 70
     1
102
RTVSPropertyOp20
 70
     1
102
RTVSPropertyOp21
 70
     1
102
RTVSPropertyOp22
 70
     1
102
RTVSPropertyOp23
 70
     1
102
RTVSPropertyOp24
 70
     1
102
RTVSPropertyOp25
 70
     1
102
RTVSPropertyOp26
 70
     1
102
RTVSPropertyOp27
 70
     1
102
RTVSPropertyOp28
 70
     1
102
RTVSPropertyOp29
 70
     1
102
RTVSPropertyOp30
 70
     1
102
RTVSPropertyOp31
 70
     1
102
RTVSPropertyOp32
 70
     1
102
RTVSPropertyOp33
 70
     1
102
RTVSPropertyOp34
 70
     1
102
RTVSPropertyOp35
 70
     1
102
RTVSPropertyOp36
 70
     1
102
RTVSPropertyOp37
 70
     1
102
RTVSPropertyOp38
 70
     1
102
RTVSPropertyOp39
 70
     1
102
RTVSPropertyOp40
 70
     1
102
RTVSPropertyOp41
 70
     1
102
RTVSPropertyOp42
 70
     1
102
RTVSPropertyOp43
 70
     1
102
RTVSPropertyOp44
 70
     1
102
RTVSPropertyOp45
 70
     1
102
RTVSPropertyOp46
 70
     1
102
RTVSPropertyOp47
 70
     1
102
RTVSPropertyOp48
 70
     1
102
RTVSPropertyOp49
 70
     1
102
RTVSPropertyOp50
 70
     1
102
RTVSPropertyOp51
 70
     0
102
RTVSPropertyOp52
 70
     0
102
RTVSPropertyOp53
 70
     1
102
RTVSPropertyOp54
 70
     1
102
RTVSPropertyOp55
 70
     1
102
RTVSPropertyOp56
 70
     1
102
RTVSPropertyOp57
 70
     1
102
RTVSPost2010Prop28
280
     0
102
RTVSPost2010PropOp28
 70
     1
102
RTVSPost2010Prop29
280
     1
102
RTVSPost2010PropOp29
 70
     1
102
RTVSPost2010Prop30
280
     1
102
RTVSPost2010PropOp30
 70
     1
102
RTVSPost2010Prop31
280
     0
102
RTVSPost2010PropOp31
 70
     1
102
RTVSPost2010Prop32
280
     0
102
RTVSPost2010PropOp32
 70
     1
102
RTVSPost2010Prop33
280
     0
102
RTVSPost2010PropOp33
 70
     1
102
RTVSPost2010Prop34
280
     0
102
RTVSPost2010PropOp34
 70
     1
102
RTVSPost2010Prop35
280
     0
102
RTVSPost2010PropOp35
 70
     1
102
RTVSPost2010Prop36
280
     0
102
RTVSPost2010PropOp36
 70
     1
102
RTVSPost2010Prop37
 90
       50
102
RTVSPost2010PropOp37
 70
     1
102
RTVSPost2010Prop38
140
0.0
102
RTVSPost2010PropOp38
 70
     1
102
RTVSPost2010Prop39
140
1.0
102
RTVSPost2010PropOp39
 70
     1
102
RTVSPost2010Prop40
 90
        0
102
RTVSPost2010PropOp40
 70
     1
102
RTVSPost2010Prop41ColorIndex
 90
       18
102
RTVSPost2010Prop41ColorRGB
 90
        0
102
RTVSPost2010PropOp41
 70
     1
102
RTVSPost2010Prop42
 90
       50
102
RTVSPost2010PropOp42
 70
     1
102
RTVSPost2010Prop43
 90
        3
102
RTVSPost2010PropOp43
 70
     1
102
RTVSPost2010Prop44ColorIndex
 90
        5
102
RTVSPost2010Prop44ColorRGB
 90
      255
102
RTVSPost2010PropOp44
 70
     1
102
RTVSPost2010Prop45
280
     0
102
RTVSPost2010PropOp45
 70
     1
102
RTVSPost2010Prop46
 90
       50
102
RTVSPost2010PropOp46
 70
     1
102
RTVSPost2010Prop47
 90
       50
102
RTVSPost2010PropOp47
 70
     1
102
RTVSPost2010Prop48
 90
       50
102
RTVSPost2010PropOp48
 70
     1
102
RTVSPost2010Prop49
280
     0
102
RTVSPost2010PropOp49
 70
     1
102
RTVSPost2010Prop50
 90
       50
102
RTVSPost2010PropOp50
 70
     1
102
RTVSPost2010Prop51ColorIndex
 90
      256
102
RTVSPost2010Prop51ColorRGB
 90
-16777216
102
RTVSPost2010PropOp51
 70
     0
102
RTVSPost2010Prop52
140
1.0
102
RTVSPost2010PropOp52
 70
     0
102
RTVSPost2010Prop53
 90
        2
102
RTVSPost2010PropOp53
 70
     1
102
RTVSPost2010Prop54
  1
strokes_ogs.tif
102
RTVSPost2010PropOp54
 70
     1
102
RTVSPost2010Prop55
280
     0
102
RTVSPost2010PropOp55
 70
     1
102
RTVSPost2010Prop56
140
1.0
102
RTVSPost2010PropOp56
 70
     1
102
RTVSPost2010Prop57
140
1.0
102
RTVSPost2010PropOp57
 70
     1
  0
XRECORD
  5
417A
102
{ACAD_REACTORS
330
4179
102
}
330
4179
100
AcDbXrecord
280
     1
102
RTVSPropertyOp0
 70
     1
102
RTVSPropertyOp1
 70
     1
102
RTVSPropertyOp2
 70
     1
102
RTVSPropertyOp3
 70
     1
102
RTVSPropertyOp4
 70
     1
102
RTVSPropertyOp5
 70
     1
102
RTVSPropertyOp6
 70
     1
102
RTVSPropertyOp7
 70
     1
102
RTVSPropertyOp8
 70
     1
102
RTVSPropertyOp9
 70
     1
102
RTVSPropertyOp10
 70
     1
102
RTVSPropertyOp11
 70
     1
102
RTVSPropertyOp12
 70
     1
102
RTVSPropertyOp13
 70
     1
102
RTVSPropertyOp14
 70
     1
102
RTVSPropertyOp15
 70
     1
102
RTVSPropertyOp16
 70
     1
102
RTVSPropertyOp17
 70
     1
102
RTVSPropertyOp18
 70
     1
102
RTVSPropertyOp19
 70
     1
102
RTVSPropertyOp20
 70
     1
102
RTVSPropertyOp21
 70
     1
102
RTVSPropertyOp22
 70
     1
102
RTVSPropertyOp23
 70
     1
102
RTVSPropertyOp24
 70
     1
102
RTVSPropertyOp25
 70
     1
102
RTVSPropertyOp26
 70
     1
102
RTVSPropertyOp27
 70
     1
102
RTVSPropertyOp28
 70
     1
102
RTVSPropertyOp29
 70
     1
102
RTVSPropertyOp30
 70
     1
102
RTVSPropertyOp31
 70
     1
102
RTVSPropertyOp32
 70
     1
102
RTVSPropertyOp33
 70
     1
102
RTVSPropertyOp34
 70
     1
102
RTVSPropertyOp35
 70
     1
102
RTVSPropertyOp36
 70
     1
102
RTVSPropertyOp37
 70
     1
102
RTVSPropertyOp38
 70
     1
102
RTVSPropertyOp39
 70
     1
102
RTVSPropertyOp40
 70
     1
102
RTVSPropertyOp41
 70
     1
102
RTVSPropertyOp42
 70
     1
102
RTVSPropertyOp43
 70
     1
102
RTVSPropertyOp44
 70
     1
102
RTVSPropertyOp45
 70
     1
102
RTVSPropertyOp46
 70
     1
102
RTVSPropertyOp47
 70
     1
102
RTVSPropertyOp48
 70
     1
102
RTVSPropertyOp49
 70
     1
102
RTVSPropertyOp50
 70
     1
102
RTVSPropertyOp51
 70
     0
102
RTVSPropertyOp52
 70
     0
102
RTVSPropertyOp53
 70
     1
102
RTVSPropertyOp54
 70
     1
102
RTVSPropertyOp55
 70
     1
102
RTVSPropertyOp56
 70
     1
102
RTVSPropertyOp57
 70
     1
102
RTVSPost2010Prop28
280
     0
102
RTVSPost2010PropOp28
 70
     1
102
RTVSPost2010Prop29
280
     1
102
RTVSPost2010PropOp29
 70
     1
102
RTVSPost2010Prop30
280
     1
102
RTVSPost2010PropOp30
 70
     1
102
RTVSPost2010Prop31
280
     0
102
RTVSPost2010PropOp31
 70
     1
102
RTVSPost2010Prop32
280
     0
102
RTVSPost2010PropOp32
 70
     1
102
RTVSPost2010Prop33
280
     0
102
RTVSPost2010PropOp33
 70
     1
102
RTVSPost2010Prop34
280
     0
102
RTVSPost2010PropOp34
 70
     1
102
RTVSPost2010Prop35
280
     0
102
RTVSPost2010PropOp35
 70
     1
102
RTVSPost2010Prop36
280
     0
102
RTVSPost2010PropOp36
 70
     1
102
RTVSPost2010Prop37
 90
       50
102
RTVSPost2010PropOp37
 70
     1
102
RTVSPost2010Prop38
140
0.0
102
RTVSPost2010PropOp38
 70
     1
102
RTVSPost2010Prop39
140
1.0
102
RTVSPost2010PropOp39
 70
     1
102
RTVSPost2010Prop40
 90
        0
102
RTVSPost2010PropOp40
 70
     1
102
RTVSPost2010Prop41ColorIndex
 90
       18
102
RTVSPost2010Prop41ColorRGB
 90
        0
102
RTVSPost2010PropOp41
 70
     1
102
RTVSPost2010Prop42
 90
       50
102
RTVSPost2010PropOp42
 70
     1
102
RTVSPost2010Prop43
 90
        3
102
RTVSPost2010PropOp43
 70
     1
102
RTVSPost2010Prop44ColorIndex
 90
        5
102
RTVSPost2010Prop44ColorRGB
 90
      255
102
RTVSPost2010PropOp44
 70
     1
102
RTVSPost2010Prop45
280
     0
102
RTVSPost2010PropOp45
 70
     1
102
RTVSPost2010Prop46
 90
       50
102
RTVSPost2010PropOp46
 70
     1
102
RTVSPost2010Prop47
 90
       50
102
RTVSPost2010PropOp47
 70
     1
102
RTVSPost2010Prop48
 90
       50
102
RTVSPost2010PropOp48
 70
     1
102
RTVSPost2010Prop49
280
     0
102
RTVSPost2010PropOp49
 70
     1
102
RTVSPost2010Prop50
 90
       50
102
RTVSPost2010PropOp50
 70
     1
102
RTVSPost2010Prop51ColorIndex
 90
      256
102
RTVSPost2010Prop51ColorRGB
 90
-16777216
102
RTVSPost2010PropOp51
 70
     0
102
RTVSPost2010Prop52
140
1.0
102
RTVSPost2010PropOp52
 70
     0
102
RTVSPost2010Prop53
 90
        2
102
RTVSPost2010PropOp53
 70
     1
102
RTVSPost2010Prop54
  1
strokes_ogs.tif
102
RTVSPost2010PropOp54
 70
     1
102
RTVSPost2010Prop55
280
     0
102
RTVSPost2010PropOp55
 70
     1
102
RTVSPost2010Prop56
140
1.0
102
RTVSPost2010PropOp56
 70
     1
102
RTVSPost2010Prop57
140
1.0
102
RTVSPost2010PropOp57
 70
     1
  0
XRECORD
  5
417C
102
{ACAD_REACTORS
330
417B
102
}
330
417B
100
AcDbXrecord
280
     1
102
RTVSPropertyOp0
 70
     1
102
RTVSPropertyOp1
 70
     1
102
RTVSPropertyOp2
 70
     1
102
RTVSPropertyOp3
 70
     1
102
RTVSPropertyOp4
 70
     1
102
RTVSPropertyOp5
 70
     1
102
RTVSPropertyOp6
 70
     1
102
RTVSPropertyOp7
 70
     1
102
RTVSPropertyOp8
 70
     1
102
RTVSPropertyOp9
 70
     1
102
RTVSPropertyOp10
 70
     1
102
RTVSPropertyOp11
 70
     1
102
RTVSPropertyOp12
 70
     1
102
RTVSPropertyOp13
 70
     1
102
RTVSPropertyOp14
 70
     1
102
RTVSPropertyOp15
 70
     1
102
RTVSPropertyOp16
 70
     1
102
RTVSPropertyOp17
 70
     1
102
RTVSPropertyOp18
 70
     1
102
RTVSPropertyOp19
 70
     1
102
RTVSPropertyOp20
 70
     1
102
RTVSPropertyOp21
 70
     1
102
RTVSPropertyOp22
 70
     1
102
RTVSPropertyOp23
 70
     1
102
RTVSPropertyOp24
 70
     1
102
RTVSPropertyOp25
 70
     1
102
RTVSPropertyOp26
 70
     1
102
RTVSPropertyOp27
 70
     1
102
RTVSPropertyOp28
 70
     1
102
RTVSPropertyOp29
 70
     1
102
RTVSPropertyOp30
 70
     1
102
RTVSPropertyOp31
 70
     1
102
RTVSPropertyOp32
 70
     1
102
RTVSPropertyOp33
 70
     1
102
RTVSPropertyOp34
 70
     1
102
RTVSPropertyOp35
 70
     1
102
RTVSPropertyOp36
 70
     1
102
RTVSPropertyOp37
 70
     1
102
RTVSPropertyOp38
 70
     1
102
RTVSPropertyOp39
 70
     1
102
RTVSPropertyOp40
 70
     1
102
RTVSPropertyOp41
 70
     1
102
RTVSPropertyOp42
 70
     1
102
RTVSPropertyOp43
 70
     1
102
RTVSPropertyOp44
 70
     1
102
RTVSPropertyOp45
 70
     1
102
RTVSPropertyOp46
 70
     1
102
RTVSPropertyOp47
 70
     1
102
RTVSPropertyOp48
 70
     1
102
RTVSPropertyOp49
 70
     1
102
RTVSPropertyOp50
 70
     1
102
RTVSPropertyOp51
 70
     0
102
RTVSPropertyOp52
 70
     0
102
RTVSPropertyOp53
 70
     1
102
RTVSPropertyOp54
 70
     1
102
RTVSPropertyOp55
 70
     1
102
RTVSPropertyOp56
 70
     1
102
RTVSPropertyOp57
 70
     1
102
RTVSPost2010Prop28
280
     0
102
RTVSPost2010PropOp28
 70
     1
102
RTVSPost2010Prop29
280
     1
102
RTVSPost2010PropOp29
 70
     1
102
RTVSPost2010Prop30
280
     1
102
RTVSPost2010PropOp30
 70
     1
102
RTVSPost2010Prop31
280
     0
102
RTVSPost2010PropOp31
 70
     1
102
RTVSPost2010Prop32
280
     0
102
RTVSPost2010PropOp32
 70
     1
102
RTVSPost2010Prop33
280
     0
102
RTVSPost2010PropOp33
 70
     1
102
RTVSPost2010Prop34
280
     0
102
RTVSPost2010PropOp34
 70
     1
102
RTVSPost2010Prop35
280
     0
102
RTVSPost2010PropOp35
 70
     1
102
RTVSPost2010Prop36
280
     0
102
RTVSPost2010PropOp36
 70
     1
102
RTVSPost2010Prop37
 90
       50
102
RTVSPost2010PropOp37
 70
     1
102
RTVSPost2010Prop38
140
0.0
102
RTVSPost2010PropOp38
 70
     1
102
RTVSPost2010Prop39
140
1.0
102
RTVSPost2010PropOp39
 70
     1
102
RTVSPost2010Prop40
 90
        0
102
RTVSPost2010PropOp40
 70
     1
102
RTVSPost2010Prop41ColorIndex
 90
       18
102
RTVSPost2010Prop41ColorRGB
 90
        0
102
RTVSPost2010PropOp41
 70
     1
102
RTVSPost2010Prop42
 90
       50
102
RTVSPost2010PropOp42
 70
     1
102
RTVSPost2010Prop43
 90
        3
102
RTVSPost2010PropOp43
 70
     1
102
RTVSPost2010Prop44ColorIndex
 90
        5
102
RTVSPost2010Prop44ColorRGB
 90
      255
102
RTVSPost2010PropOp44
 70
     1
102
RTVSPost2010Prop45
280
     0
102
RTVSPost2010PropOp45
 70
     1
102
RTVSPost2010Prop46
 90
       50
102
RTVSPost2010PropOp46
 70
     1
102
RTVSPost2010Prop47
 90
       50
102
RTVSPost2010PropOp47
 70
     1
102
RTVSPost2010Prop48
 90
       50
102
RTVSPost2010PropOp48
 70
     1
102
RTVSPost2010Prop49
280
     0
102
RTVSPost2010PropOp49
 70
     1
102
RTVSPost2010Prop50
 90
       50
102
RTVSPost2010PropOp50
 70
     1
102
RTVSPost2010Prop51ColorIndex
 90
      256
102
RTVSPost2010Prop51ColorRGB
 90
-16777216
102
RTVSPost2010PropOp51
 70
     0
102
RTVSPost2010Prop52
140
1.0
102
RTVSPost2010PropOp52
 70
     0
102
RTVSPost2010Prop53
 90
        2
102
RTVSPost2010PropOp53
 70
     1
102
RTVSPost2010Prop54
  1
strokes_ogs.tif
102
RTVSPost2010PropOp54
 70
     1
102
RTVSPost2010Prop55
280
     0
102
RTVSPost2010PropOp55
 70
     1
102
RTVSPost2010Prop56
140
1.0
102
RTVSPost2010PropOp56
 70
     1
102
RTVSPost2010Prop57
140
1.0
102
RTVSPost2010PropOp57
 70
     1
  0
XRECORD
  5
417E
102
{ACAD_REACTORS
330
417D
102
}
330
417D
100
AcDbXrecord
280
     1
102
RTVSPropertyOp0
 70
     1
102
RTVSPropertyOp1
 70
     1
102
RTVSPropertyOp2
 70
     1
102
RTVSPropertyOp3
 70
     1
102
RTVSPropertyOp4
 70
     1
102
RTVSPropertyOp5
 70
     1
102
RTVSPropertyOp6
 70
     1
102
RTVSPropertyOp7
 70
     1
102
RTVSPropertyOp8
 70
     1
102
RTVSPropertyOp9
 70
     1
102
RTVSPropertyOp10
 70
     1
102
RTVSPropertyOp11
 70
     1
102
RTVSPropertyOp12
 70
     1
102
RTVSPropertyOp13
 70
     1
102
RTVSPropertyOp14
 70
     1
102
RTVSPropertyOp15
 70
     1
102
RTVSPropertyOp16
 70
     1
102
RTVSPropertyOp17
 70
     1
102
RTVSPropertyOp18
 70
     1
102
RTVSPropertyOp19
 70
     1
102
RTVSPropertyOp20
 70
     1
102
RTVSPropertyOp21
 70
     1
102
RTVSPropertyOp22
 70
     1
102
RTVSPropertyOp23
 70
     1
102
RTVSPropertyOp24
 70
     1
102
RTVSPropertyOp25
 70
     1
102
RTVSPropertyOp26
 70
     1
102
RTVSPropertyOp27
 70
     1
102
RTVSPropertyOp28
 70
     1
102
RTVSPropertyOp29
 70
     1
102
RTVSPropertyOp30
 70
     1
102
RTVSPropertyOp31
 70
     1
102
RTVSPropertyOp32
 70
     1
102
RTVSPropertyOp33
 70
     1
102
RTVSPropertyOp34
 70
     1
102
RTVSPropertyOp35
 70
     1
102
RTVSPropertyOp36
 70
     1
102
RTVSPropertyOp37
 70
     1
102
RTVSPropertyOp38
 70
     1
102
RTVSPropertyOp39
 70
     1
102
RTVSPropertyOp40
 70
     1
102
RTVSPropertyOp41
 70
     1
102
RTVSPropertyOp42
 70
     1
102
RTVSPropertyOp43
 70
     1
102
RTVSPropertyOp44
 70
     1
102
RTVSPropertyOp45
 70
     1
102
RTVSPropertyOp46
 70
     1
102
RTVSPropertyOp47
 70
     1
102
RTVSPropertyOp48
 70
     1
102
RTVSPropertyOp49
 70
     1
102
RTVSPropertyOp50
 70
     1
102
RTVSPropertyOp51
 70
     0
102
RTVSPropertyOp52
 70
     0
102
RTVSPropertyOp53
 70
     1
102
RTVSPropertyOp54
 70
     1
102
RTVSPropertyOp55
 70
     1
102
RTVSPropertyOp56
 70
     1
102
RTVSPropertyOp57
 70
     1
102
RTVSPost2010Prop28
280
     0
102
RTVSPost2010PropOp28
 70
     1
102
RTVSPost2010Prop29
280
     1
102
RTVSPost2010PropOp29
 70
     1
102
RTVSPost2010Prop30
280
     1
102
RTVSPost2010PropOp30
 70
     1
102
RTVSPost2010Prop31
280
     0
102
RTVSPost2010PropOp31
 70
     1
102
RTVSPost2010Prop32
280
     0
102
RTVSPost2010PropOp32
 70
     1
102
RTVSPost2010Prop33
280
     0
102
RTVSPost2010PropOp33
 70
     1
102
RTVSPost2010Prop34
280
     0
102
RTVSPost2010PropOp34
 70
     1
102
RTVSPost2010Prop35
280
     0
102
RTVSPost2010PropOp35
 70
     1
102
RTVSPost2010Prop36
280
     0
102
RTVSPost2010PropOp36
 70
     1
102
RTVSPost2010Prop37
 90
       50
102
RTVSPost2010PropOp37
 70
     1
102
RTVSPost2010Prop38
140
0.0
102
RTVSPost2010PropOp38
 70
     1
102
RTVSPost2010Prop39
140
1.0
102
RTVSPost2010PropOp39
 70
     1
102
RTVSPost2010Prop40
 90
        0
102
RTVSPost2010PropOp40
 70
     1
102
RTVSPost2010Prop41ColorIndex
 90
       18
102
RTVSPost2010Prop41ColorRGB
 90
        0
102
RTVSPost2010PropOp41
 70
     1
102
RTVSPost2010Prop42
 90
       50
102
RTVSPost2010PropOp42
 70
     1
102
RTVSPost2010Prop43
 90
        3
102
RTVSPost2010PropOp43
 70
     1
102
RTVSPost2010Prop44ColorIndex
 90
        5
102
RTVSPost2010Prop44ColorRGB
 90
      255
102
RTVSPost2010PropOp44
 70
     1
102
RTVSPost2010Prop45
280
     0
102
RTVSPost2010PropOp45
 70
     1
102
RTVSPost2010Prop46
 90
       50
102
RTVSPost2010PropOp46
 70
     1
102
RTVSPost2010Prop47
 90
       50
102
RTVSPost2010PropOp47
 70
     1
102
RTVSPost2010Prop48
 90
       50
102
RTVSPost2010PropOp48
 70
     1
102
RTVSPost2010Prop49
280
     0
102
RTVSPost2010PropOp49
 70
     1
102
RTVSPost2010Prop50
 90
       50
102
RTVSPost2010PropOp50
 70
     1
102
RTVSPost2010Prop51ColorIndex
 90
      256
102
RTVSPost2010Prop51ColorRGB
 90
-16777216
102
RTVSPost2010PropOp51
 70
     0
102
RTVSPost2010Prop52
140
1.0
102
RTVSPost2010PropOp52
 70
     0
102
RTVSPost2010Prop53
 90
        2
102
RTVSPost2010PropOp53
 70
     1
102
RTVSPost2010Prop54
  1
strokes_ogs.tif
102
RTVSPost2010PropOp54
 70
     1
102
RTVSPost2010Prop55
280
     0
102
RTVSPost2010PropOp55
 70
     1
102
RTVSPost2010Prop56
140
1.0
102
RTVSPost2010PropOp56
 70
     1
102
RTVSPost2010Prop57
140
1.0
102
RTVSPost2010PropOp57
 70
     1
  0
XRECORD
  5
4184
102
{ACAD_REACTORS
330
4183
102
}
330
4183
100
AcDbXrecord
280
     1
102
RTVSPropertyOp0
 70
     1
102
RTVSPropertyOp1
 70
     1
102
RTVSPropertyOp2
 70
     1
102
RTVSPropertyOp3
 70
     1
102
RTVSPropertyOp4
 70
     1
102
RTVSPropertyOp5
 70
     1
102
RTVSPropertyOp6
 70
     1
102
RTVSPropertyOp7
 70
     1
102
RTVSPropertyOp8
 70
     1
102
RTVSPropertyOp9
 70
     1
102
RTVSPropertyOp10
 70
     1
102
RTVSPropertyOp11
 70
     1
102
RTVSPropertyOp12
 70
     1
102
RTVSPropertyOp13
 70
     1
102
RTVSPropertyOp14
 70
     1
102
RTVSPropertyOp15
 70
     1
102
RTVSPropertyOp16
 70
     1
102
RTVSPropertyOp17
 70
     1
102
RTVSPropertyOp18
 70
     1
102
RTVSPropertyOp19
 70
     1
102
RTVSPropertyOp20
 70
     1
102
RTVSPropertyOp21
 70
     1
102
RTVSPropertyOp22
 70
     1
102
RTVSPropertyOp23
 70
     1
102
RTVSPropertyOp24
 70
     1
102
RTVSPropertyOp25
 70
     1
102
RTVSPropertyOp26
 70
     1
102
RTVSPropertyOp27
 70
     1
102
RTVSPropertyOp28
 70
     1
102
RTVSPropertyOp29
 70
     1
102
RTVSPropertyOp30
 70
     1
102
RTVSPropertyOp31
 70
     1
102
RTVSPropertyOp32
 70
     1
102
RTVSPropertyOp33
 70
     1
102
RTVSPropertyOp34
 70
     1
102
RTVSPropertyOp35
 70
     1
102
RTVSPropertyOp36
 70
     1
102
RTVSPropertyOp37
 70
     1
102
RTVSPropertyOp38
 70
     1
102
RTVSPropertyOp39
 70
     1
102
RTVSPropertyOp40
 70
     1
102
RTVSPropertyOp41
 70
     1
102
RTVSPropertyOp42
 70
     1
102
RTVSPropertyOp43
 70
     1
102
RTVSPropertyOp44
 70
     1
102
RTVSPropertyOp45
 70
     1
102
RTVSPropertyOp46
 70
     1
102
RTVSPropertyOp47
 70
     1
102
RTVSPropertyOp48
 70
     1
102
RTVSPropertyOp49
 70
     1
102
RTVSPropertyOp50
 70
     1
102
RTVSPropertyOp51
 70
     0
102
RTVSPropertyOp52
 70
     0
102
RTVSPropertyOp53
 70
     1
102
RTVSPropertyOp54
 70
     1
102
RTVSPropertyOp55
 70
     1
102
RTVSPropertyOp56
 70
     1
102
RTVSPropertyOp57
 70
     1
102
RTVSPost2010Prop28
280
     0
102
RTVSPost2010PropOp28
 70
     1
102
RTVSPost2010Prop29
280
     1
102
RTVSPost2010PropOp29
 70
     1
102
RTVSPost2010Prop30
280
     1
102
RTVSPost2010PropOp30
 70
     1
102
RTVSPost2010Prop31
280
     0
102
RTVSPost2010PropOp31
 70
     1
102
RTVSPost2010Prop32
280
     0
102
RTVSPost2010PropOp32
 70
     1
102
RTVSPost2010Prop33
280
     0
102
RTVSPost2010PropOp33
 70
     1
102
RTVSPost2010Prop34
280
     0
102
RTVSPost2010PropOp34
 70
     1
102
RTVSPost2010Prop35
280
     0
102
RTVSPost2010PropOp35
 70
     1
102
RTVSPost2010Prop36
280
     0
102
RTVSPost2010PropOp36
 70
     1
102
RTVSPost2010Prop37
 90
       50
102
RTVSPost2010PropOp37
 70
     1
102
RTVSPost2010Prop38
140
0.0
102
RTVSPost2010PropOp38
 70
     1
102
RTVSPost2010Prop39
140
1.0
102
RTVSPost2010PropOp39
 70
     1
102
RTVSPost2010Prop40
 90
        0
102
RTVSPost2010PropOp40
 70
     1
102
RTVSPost2010Prop41ColorIndex
 90
       18
102
RTVSPost2010Prop41ColorRGB
 90
        0
102
RTVSPost2010PropOp41
 70
     1
102
RTVSPost2010Prop42
 90
       50
102
RTVSPost2010PropOp42
 70
     1
102
RTVSPost2010Prop43
 90
        3
102
RTVSPost2010PropOp43
 70
     1
102
RTVSPost2010Prop44ColorIndex
 90
        5
102
RTVSPost2010Prop44ColorRGB
 90
      255
102
RTVSPost2010PropOp44
 70
     1
102
RTVSPost2010Prop45
280
     0
102
RTVSPost2010PropOp45
 70
     1
102
RTVSPost2010Prop46
 90
       50
102
RTVSPost2010PropOp46
 70
     1
102
RTVSPost2010Prop47
 90
       50
102
RTVSPost2010PropOp47
 70
     1
102
RTVSPost2010Prop48
 90
       50
102
RTVSPost2010PropOp48
 70
     1
102
RTVSPost2010Prop49
280
     0
102
RTVSPost2010PropOp49
 70
     1
102
RTVSPost2010Prop50
 90
       50
102
RTVSPost2010PropOp50
 70
     1
102
RTVSPost2010Prop51ColorIndex
 90
      256
102
RTVSPost2010Prop51ColorRGB
 90
-16777216
102
RTVSPost2010PropOp51
 70
     0
102
RTVSPost2010Prop52
140
1.0
102
RTVSPost2010PropOp52
 70
     0
102
RTVSPost2010Prop53
 90
        2
102
RTVSPost2010PropOp53
 70
     1
102
RTVSPost2010Prop54
  1
strokes_ogs.tif
102
RTVSPost2010PropOp54
 70
     1
102
RTVSPost2010Prop55
280
     0
102
RTVSPost2010PropOp55
 70
     1
102
RTVSPost2010Prop56
140
1.0
102
RTVSPost2010PropOp56
 70
     1
102
RTVSPost2010Prop57
140
1.0
102
RTVSPost2010PropOp57
 70
     1
  0
XRECORD
  5
4198
102
{ACAD_REACTORS
330
4197
102
}
330
4197
100
AcDbXrecord
280
     1
102
RTVSPropertyOp0
 70
     0
102
RTVSPropertyOp1
 70
     0
102
RTVSPropertyOp2
 70
     0
102
RTVSPropertyOp3
 70
     0
102
RTVSPropertyOp4
 70
     0
102
RTVSPropertyOp5
 70
     0
102
RTVSPropertyOp6
 70
     0
102
RTVSPropertyOp7
 70
     0
102
RTVSPropertyOp8
 70
     0
102
RTVSPropertyOp9
 70
     0
102
RTVSPropertyOp10
 70
     0
102
RTVSPropertyOp11
 70
     0
102
RTVSPropertyOp12
 70
     0
102
RTVSPropertyOp13
 70
     0
102
RTVSPropertyOp14
 70
     2
102
RTVSPropertyOp15
 70
     0
102
RTVSPropertyOp16
 70
     0
102
RTVSPropertyOp17
 70
     0
102
RTVSPropertyOp18
 70
     0
102
RTVSPropertyOp19
 70
     0
102
RTVSPropertyOp20
 70
     0
102
RTVSPropertyOp21
 70
     0
102
RTVSPropertyOp22
 70
     0
102
RTVSPropertyOp23
 70
     0
102
RTVSPropertyOp24
 70
     0
102
RTVSPropertyOp25
 70
     0
102
RTVSPropertyOp26
 70
     0
102
RTVSPropertyOp27
 70
     0
102
RTVSPropertyOp28
 70
     0
102
RTVSPropertyOp29
 70
     0
102
RTVSPropertyOp30
 70
     0
102
RTVSPropertyOp31
 70
     0
102
RTVSPropertyOp32
 70
     0
102
RTVSPropertyOp33
 70
     0
102
RTVSPropertyOp34
 70
     0
102
RTVSPropertyOp35
 70
     0
102
RTVSPropertyOp36
 70
     0
102
RTVSPropertyOp37
 70
     0
102
RTVSPropertyOp38
 70
     0
102
RTVSPropertyOp39
 70
     0
102
RTVSPropertyOp40
 70
     0
102
RTVSPropertyOp41
 70
     0
102
RTVSPropertyOp42
 70
     0
102
RTVSPropertyOp43
 70
     0
102
RTVSPropertyOp44
 70
     0
102
RTVSPropertyOp45
 70
     0
102
RTVSPropertyOp46
 70
     0
102
RTVSPropertyOp47
 70
     0
102
RTVSPropertyOp48
 70
     0
102
RTVSPropertyOp49
 70
     0
102
RTVSPropertyOp50
 70
     0
102
RTVSPropertyOp51
 70
     0
102
RTVSPropertyOp52
 70
     0
102
RTVSPropertyOp53
 70
     0
102
RTVSPropertyOp54
 70
     0
102
RTVSPropertyOp55
 70
     0
102
RTVSPropertyOp56
 70
     0
102
RTVSPropertyOp57
 70
     0
102
RTVSPost2010Prop28
280
     0
102
RTVSPost2010PropOp28
 70
     0
102
RTVSPost2010Prop29
280
     1
102
RTVSPost2010PropOp29
 70
     0
102
RTVSPost2010Prop30
280
     1
102
RTVSPost2010PropOp30
 70
     0
102
RTVSPost2010Prop31
280
     0
102
RTVSPost2010PropOp31
 70
     0
102
RTVSPost2010Prop32
280
     0
102
RTVSPost2010PropOp32
 70
     0
102
RTVSPost2010Prop33
280
     0
102
RTVSPost2010PropOp33
 70
     0
102
RTVSPost2010Prop34
280
     0
102
RTVSPost2010PropOp34
 70
     0
102
RTVSPost2010Prop35
280
     0
102
RTVSPost2010PropOp35
 70
     0
102
RTVSPost2010Prop36
280
     0
102
RTVSPost2010PropOp36
 70
     0
102
RTVSPost2010Prop37
 90
       50
102
RTVSPost2010PropOp37
 70
     0
102
RTVSPost2010Prop38
140
0.0
102
RTVSPost2010PropOp38
 70
     0
102
RTVSPost2010Prop39
140
1.0
102
RTVSPost2010PropOp39
 70
     0
102
RTVSPost2010Prop40
 90
        0
102
RTVSPost2010PropOp40
 70
     0
102
RTVSPost2010Prop41ColorIndex
 90
       18
102
RTVSPost2010Prop41ColorRGB
 90
        0
102
RTVSPost2010PropOp41
 70
     0
102
RTVSPost2010Prop42
 90
       50
102
RTVSPost2010PropOp42
 70
     0
102
RTVSPost2010Prop43
 90
        3
102
RTVSPost2010PropOp43
 70
     0
102
RTVSPost2010Prop44ColorIndex
 90
        5
102
RTVSPost2010Prop44ColorRGB
 90
      255
102
RTVSPost2010PropOp44
 70
     0
102
RTVSPost2010Prop45
280
     0
102
RTVSPost2010PropOp45
 70
     0
102
RTVSPost2010Prop46
 90
       50
102
RTVSPost2010PropOp46
 70
     0
102
RTVSPost2010Prop47
 90
       50
102
RTVSPost2010PropOp47
 70
     0
102
RTVSPost2010Prop48
 90
       50
102
RTVSPost2010PropOp48
 70
     0
102
RTVSPost2010Prop49
280
     0
102
RTVSPost2010PropOp49
 70
     0
102
RTVSPost2010Prop50
 90
       50
102
RTVSPost2010PropOp50
 70
     0
102
RTVSPost2010Prop51ColorIndex
 90
      256
102
RTVSPost2010Prop51ColorRGB
 90
-16777216
102
RTVSPost2010PropOp51
 70
     0
102
RTVSPost2010Prop52
140
1.0
102
RTVSPost2010PropOp52
 70
     0
102
RTVSPost2010Prop53
 90
        2
102
RTVSPost2010PropOp53
 70
     0
102
RTVSPost2010Prop54
  1
strokes_ogs.tif
102
RTVSPost2010PropOp54
 70
     0
102
RTVSPost2010Prop55
280
     0
102
RTVSPost2010PropOp55
 70
     0
102
RTVSPost2010Prop56
140
1.0
102
RTVSPost2010PropOp56
 70
     0
102
RTVSPost2010Prop57
140
1.0
102
RTVSPost2010PropOp57
 70
     0
  0
XRECORD
  5
4192
102
{ACAD_REACTORS
330
4191
102
}
330
4191
100
AcDbXrecord
280
     1
102
RTVSPropertyOp0
 70
     1
102
RTVSPropertyOp1
 70
     1
102
RTVSPropertyOp2
 70
     1
102
RTVSPropertyOp3
 70
     1
102
RTVSPropertyOp4
 70
     1
102
RTVSPropertyOp5
 70
     1
102
RTVSPropertyOp6
 70
     1
102
RTVSPropertyOp7
 70
     1
102
RTVSPropertyOp8
 70
     1
102
RTVSPropertyOp9
 70
     1
102
RTVSPropertyOp10
 70
     1
102
RTVSPropertyOp11
 70
     1
102
RTVSPropertyOp12
 70
     1
102
RTVSPropertyOp13
 70
     1
102
RTVSPropertyOp14
 70
     1
102
RTVSPropertyOp15
 70
     1
102
RTVSPropertyOp16
 70
     1
102
RTVSPropertyOp17
 70
     1
102
RTVSPropertyOp18
 70
     1
102
RTVSPropertyOp19
 70
     1
102
RTVSPropertyOp20
 70
     1
102
RTVSPropertyOp21
 70
     1
102
RTVSPropertyOp22
 70
     1
102
RTVSPropertyOp23
 70
     1
102
RTVSPropertyOp24
 70
     1
102
RTVSPropertyOp25
 70
     1
102
RTVSPropertyOp26
 70
     1
102
RTVSPropertyOp27
 70
     1
102
RTVSPropertyOp28
 70
     1
102
RTVSPropertyOp29
 70
     1
102
RTVSPropertyOp30
 70
     1
102
RTVSPropertyOp31
 70
     1
102
RTVSPropertyOp32
 70
     1
102
RTVSPropertyOp33
 70
     1
102
RTVSPropertyOp34
 70
     1
102
RTVSPropertyOp35
 70
     1
102
RTVSPropertyOp36
 70
     1
102
RTVSPropertyOp37
 70
     1
102
RTVSPropertyOp38
 70
     1
102
RTVSPropertyOp39
 70
     1
102
RTVSPropertyOp40
 70
     1
102
RTVSPropertyOp41
 70
     1
102
RTVSPropertyOp42
 70
     1
102
RTVSPropertyOp43
 70
     1
102
RTVSPropertyOp44
 70
     1
102
RTVSPropertyOp45
 70
     1
102
RTVSPropertyOp46
 70
     1
102
RTVSPropertyOp47
 70
     1
102
RTVSPropertyOp48
 70
     1
102
RTVSPropertyOp49
 70
     1
102
RTVSPropertyOp50
 70
     1
102
RTVSPropertyOp51
 70
     0
102
RTVSPropertyOp52
 70
     0
102
RTVSPropertyOp53
 70
     1
102
RTVSPropertyOp54
 70
     1
102
RTVSPropertyOp55
 70
     1
102
RTVSPropertyOp56
 70
     1
102
RTVSPropertyOp57
 70
     1
102
RTVSPost2010Prop28
280
     0
102
RTVSPost2010PropOp28
 70
     1
102
RTVSPost2010Prop29
280
     1
102
RTVSPost2010PropOp29
 70
     1
102
RTVSPost2010Prop30
280
     1
102
RTVSPost2010PropOp30
 70
     1
102
RTVSPost2010Prop31
280
     0
102
RTVSPost2010PropOp31
 70
     1
102
RTVSPost2010Prop32
280
     0
102
RTVSPost2010PropOp32
 70
     1
102
RTVSPost2010Prop33
280
     0
102
RTVSPost2010PropOp33
 70
     1
102
RTVSPost2010Prop34
280
     0
102
RTVSPost2010PropOp34
 70
     1
102
RTVSPost2010Prop35
280
     0
102
RTVSPost2010PropOp35
 70
     1
102
RTVSPost2010Prop36
280
     0
102
RTVSPost2010PropOp36
 70
     1
102
RTVSPost2010Prop37
 90
       50
102
RTVSPost2010PropOp37
 70
     1
102
RTVSPost2010Prop38
140
0.0
102
RTVSPost2010PropOp38
 70
     1
102
RTVSPost2010Prop39
140
1.0
102
RTVSPost2010PropOp39
 70
     1
102
RTVSPost2010Prop40
 90
        0
102
RTVSPost2010PropOp40
 70
     1
102
RTVSPost2010Prop41ColorIndex
 90
       18
102
RTVSPost2010Prop41ColorRGB
 90
        0
102
RTVSPost2010PropOp41
 70
     1
102
RTVSPost2010Prop42
 90
       50
102
RTVSPost2010PropOp42
 70
     1
102
RTVSPost2010Prop43
 90
        3
102
RTVSPost2010PropOp43
 70
     1
102
RTVSPost2010Prop44ColorIndex
 90
        5
102
RTVSPost2010Prop44ColorRGB
 90
      255
102
RTVSPost2010PropOp44
 70
     1
102
RTVSPost2010Prop45
280
     0
102
RTVSPost2010PropOp45
 70
     1
102
RTVSPost2010Prop46
 90
       50
102
RTVSPost2010PropOp46
 70
     1
102
RTVSPost2010Prop47
 90
       50
102
RTVSPost2010PropOp47
 70
     1
102
RTVSPost2010Prop48
 90
       50
102
RTVSPost2010PropOp48
 70
     1
102
RTVSPost2010Prop49
280
     0
102
RTVSPost2010PropOp49
 70
     1
102
RTVSPost2010Prop50
 90
       50
102
RTVSPost2010PropOp50
 70
     1
102
RTVSPost2010Prop51ColorIndex
 90
      256
102
RTVSPost2010Prop51ColorRGB
 90
-16777216
102
RTVSPost2010PropOp51
 70
     0
102
RTVSPost2010Prop52
140
1.0
102
RTVSPost2010PropOp52
 70
     0
102
RTVSPost2010Prop53
 90
        2
102
RTVSPost2010PropOp53
 70
     1
102
RTVSPost2010Prop54
  1
strokes_ogs.tif
102
RTVSPost2010PropOp54
 70
     1
102
RTVSPost2010Prop55
280
     0
102
RTVSPost2010PropOp55
 70
     1
102
RTVSPost2010Prop56
140
1.0
102
RTVSPost2010PropOp56
 70
     1
102
RTVSPost2010Prop57
140
1.0
102
RTVSPost2010PropOp57
 70
     1
  0
XRECORD
  5
419A
102
{ACAD_REACTORS
330
4199
102
}
330
4199
100
AcDbXrecord
280
     1
102
RTVSPropertyOp0
 70
     0
102
RTVSPropertyOp1
 70
     0
102
RTVSPropertyOp2
 70
     0
102
RTVSPropertyOp3
 70
     0
102
RTVSPropertyOp4
 70
     0
102
RTVSPropertyOp5
 70
     0
102
RTVSPropertyOp6
 70
     0
102
RTVSPropertyOp7
 70
     0
102
RTVSPropertyOp8
 70
     0
102
RTVSPropertyOp9
 70
     0
102
RTVSPropertyOp10
 70
     0
102
RTVSPropertyOp11
 70
     0
102
RTVSPropertyOp12
 70
     0
102
RTVSPropertyOp13
 70
     0
102
RTVSPropertyOp14
 70
     2
102
RTVSPropertyOp15
 70
     0
102
RTVSPropertyOp16
 70
     0
102
RTVSPropertyOp17
 70
     0
102
RTVSPropertyOp18
 70
     0
102
RTVSPropertyOp19
 70
     0
102
RTVSPropertyOp20
 70
     0
102
RTVSPropertyOp21
 70
     0
102
RTVSPropertyOp22
 70
     0
102
RTVSPropertyOp23
 70
     0
102
RTVSPropertyOp24
 70
     0
102
RTVSPropertyOp25
 70
     0
102
RTVSPropertyOp26
 70
     0
102
RTVSPropertyOp27
 70
     0
102
RTVSPropertyOp28
 70
     0
102
RTVSPropertyOp29
 70
     0
102
RTVSPropertyOp30
 70
     0
102
RTVSPropertyOp31
 70
     0
102
RTVSPropertyOp32
 70
     0
102
RTVSPropertyOp33
 70
     0
102
RTVSPropertyOp34
 70
     0
102
RTVSPropertyOp35
 70
     0
102
RTVSPropertyOp36
 70
     0
102
RTVSPropertyOp37
 70
     0
102
RTVSPropertyOp38
 70
     0
102
RTVSPropertyOp39
 70
     0
102
RTVSPropertyOp40
 70
     0
102
RTVSPropertyOp41
 70
     0
102
RTVSPropertyOp42
 70
     0
102
RTVSPropertyOp43
 70
     0
102
RTVSPropertyOp44
 70
     0
102
RTVSPropertyOp45
 70
     0
102
RTVSPropertyOp46
 70
     0
102
RTVSPropertyOp47
 70
     0
102
RTVSPropertyOp48
 70
     0
102
RTVSPropertyOp49
 70
     0
102
RTVSPropertyOp50
 70
     0
102
RTVSPropertyOp51
 70
     0
102
RTVSPropertyOp52
 70
     0
102
RTVSPropertyOp53
 70
     0
102
RTVSPropertyOp54
 70
     0
102
RTVSPropertyOp55
 70
     0
102
RTVSPropertyOp56
 70
     0
102
RTVSPropertyOp57
 70
     0
102
RTVSPost2010Prop28
280
     0
102
RTVSPost2010PropOp28
 70
     0
102
RTVSPost2010Prop29
280
     1
102
RTVSPost2010PropOp29
 70
     0
102
RTVSPost2010Prop30
280
     1
102
RTVSPost2010PropOp30
 70
     0
102
RTVSPost2010Prop31
280
     0
102
RTVSPost2010PropOp31
 70
     0
102
RTVSPost2010Prop32
280
     0
102
RTVSPost2010PropOp32
 70
     0
102
RTVSPost2010Prop33
280
     0
102
RTVSPost2010PropOp33
 70
     0
102
RTVSPost2010Prop34
280
     0
102
RTVSPost2010PropOp34
 70
     0
102
RTVSPost2010Prop35
280
     0
102
RTVSPost2010PropOp35
 70
     0
102
RTVSPost2010Prop36
280
     0
102
RTVSPost2010PropOp36
 70
     0
102
RTVSPost2010Prop37
 90
       50
102
RTVSPost2010PropOp37
 70
     0
102
RTVSPost2010Prop38
140
0.0
102
RTVSPost2010PropOp38
 70
     0
102
RTVSPost2010Prop39
140
1.0
102
RTVSPost2010PropOp39
 70
     0
102
RTVSPost2010Prop40
 90
        0
102
RTVSPost2010PropOp40
 70
     0
102
RTVSPost2010Prop41ColorIndex
 90
       18
102
RTVSPost2010Prop41ColorRGB
 90
        0
102
RTVSPost2010PropOp41
 70
     0
102
RTVSPost2010Prop42
 90
       50
102
RTVSPost2010PropOp42
 70
     0
102
RTVSPost2010Prop43
 90
        3
102
RTVSPost2010PropOp43
 70
     0
102
RTVSPost2010Prop44ColorIndex
 90
        5
102
RTVSPost2010Prop44ColorRGB
 90
      255
102
RTVSPost2010PropOp44
 70
     0
102
RTVSPost2010Prop45
280
     0
102
RTVSPost2010PropOp45
 70
     0
102
RTVSPost2010Prop46
 90
       50
102
RTVSPost2010PropOp46
 70
     0
102
RTVSPost2010Prop47
 90
       50
102
RTVSPost2010PropOp47
 70
     0
102
RTVSPost2010Prop48
 90
       50
102
RTVSPost2010PropOp48
 70
     0
102
RTVSPost2010Prop49
280
     0
102
RTVSPost2010PropOp49
 70
     0
102
RTVSPost2010Prop50
 90
       50
102
RTVSPost2010PropOp50
 70
     0
102
RTVSPost2010Prop51ColorIndex
 90
      256
102
RTVSPost2010Prop51ColorRGB
 90
-16777216
102
RTVSPost2010PropOp51
 70
     0
102
RTVSPost2010Prop52
140
1.0
102
RTVSPost2010PropOp52
 70
     0
102
RTVSPost2010Prop53
 90
        2
102
RTVSPost2010PropOp53
 70
     0
102
RTVSPost2010Prop54
  1
strokes_ogs.tif
102
RTVSPost2010PropOp54
 70
     0
102
RTVSPost2010Prop55
280
     0
102
RTVSPost2010PropOp55
 70
     0
102
RTVSPost2010Prop56
140
1.0
102
RTVSPost2010PropOp56
 70
     0
102
RTVSPost2010Prop57
140
1.0
102
RTVSPost2010PropOp57
 70
     0
  0
XRECORD
  5
4188
102
{ACAD_REACTORS
330
4187
102
}
330
4187
100
AcDbXrecord
280
     1
102
RTVSPropertyOp0
 70
     1
102
RTVSPropertyOp1
 70
     1
102
RTVSPropertyOp2
 70
     1
102
RTVSPropertyOp3
 70
     1
102
RTVSPropertyOp4
 70
     1
102
RTVSPropertyOp5
 70
     1
102
RTVSPropertyOp6
 70
     1
102
RTVSPropertyOp7
 70
     1
102
RTVSPropertyOp8
 70
     1
102
RTVSPropertyOp9
 70
     1
102
RTVSPropertyOp10
 70
     1
102
RTVSPropertyOp11
 70
     1
102
RTVSPropertyOp12
 70
     1
102
RTVSPropertyOp13
 70
     1
102
RTVSPropertyOp14
 70
     1
102
RTVSPropertyOp15
 70
     1
102
RTVSPropertyOp16
 70
     1
102
RTVSPropertyOp17
 70
     1
102
RTVSPropertyOp18
 70
     1
102
RTVSPropertyOp19
 70
     1
102
RTVSPropertyOp20
 70
     1
102
RTVSPropertyOp21
 70
     1
102
RTVSPropertyOp22
 70
     1
102
RTVSPropertyOp23
 70
     1
102
RTVSPropertyOp24
 70
     1
102
RTVSPropertyOp25
 70
     1
102
RTVSPropertyOp26
 70
     1
102
RTVSPropertyOp27
 70
     1
102
RTVSPropertyOp28
 70
     1
102
RTVSPropertyOp29
 70
     1
102
RTVSPropertyOp30
 70
     1
102
RTVSPropertyOp31
 70
     1
102
RTVSPropertyOp32
 70
     1
102
RTVSPropertyOp33
 70
     1
102
RTVSPropertyOp34
 70
     1
102
RTVSPropertyOp35
 70
     1
102
RTVSPropertyOp36
 70
     1
102
RTVSPropertyOp37
 70
     1
102
RTVSPropertyOp38
 70
     1
102
RTVSPropertyOp39
 70
     1
102
RTVSPropertyOp40
 70
     1
102
RTVSPropertyOp41
 70
     1
102
RTVSPropertyOp42
 70
     1
102
RTVSPropertyOp43
 70
     1
102
RTVSPropertyOp44
 70
     1
102
RTVSPropertyOp45
 70
     1
102
RTVSPropertyOp46
 70
     1
102
RTVSPropertyOp47
 70
     1
102
RTVSPropertyOp48
 70
     1
102
RTVSPropertyOp49
 70
     1
102
RTVSPropertyOp50
 70
     1
102
RTVSPropertyOp51
 70
     0
102
RTVSPropertyOp52
 70
     0
102
RTVSPropertyOp53
 70
     1
102
RTVSPropertyOp54
 70
     1
102
RTVSPropertyOp55
 70
     1
102
RTVSPropertyOp56
 70
     1
102
RTVSPropertyOp57
 70
     1
102
RTVSPost2010Prop28
280
     0
102
RTVSPost2010PropOp28
 70
     1
102
RTVSPost2010Prop29
280
     1
102
RTVSPost2010PropOp29
 70
     1
102
RTVSPost2010Prop30
280
     1
102
RTVSPost2010PropOp30
 70
     1
102
RTVSPost2010Prop31
280
     0
102
RTVSPost2010PropOp31
 70
     1
102
RTVSPost2010Prop32
280
     0
102
RTVSPost2010PropOp32
 70
     1
102
RTVSPost2010Prop33
280
     0
102
RTVSPost2010PropOp33
 70
     1
102
RTVSPost2010Prop34
280
     0
102
RTVSPost2010PropOp34
 70
     1
102
RTVSPost2010Prop35
280
     0
102
RTVSPost2010PropOp35
 70
     1
102
RTVSPost2010Prop36
280
     0
102
RTVSPost2010PropOp36
 70
     1
102
RTVSPost2010Prop37
 90
       50
102
RTVSPost2010PropOp37
 70
     1
102
RTVSPost2010Prop38
140
0.0
102
RTVSPost2010PropOp38
 70
     1
102
RTVSPost2010Prop39
140
1.0
102
RTVSPost2010PropOp39
 70
     1
102
RTVSPost2010Prop40
 90
        0
102
RTVSPost2010PropOp40
 70
     1
102
RTVSPost2010Prop41ColorIndex
 90
       18
102
RTVSPost2010Prop41ColorRGB
 90
        0
102
RTVSPost2010PropOp41
 70
     1
102
RTVSPost2010Prop42
 90
       50
102
RTVSPost2010PropOp42
 70
     1
102
RTVSPost2010Prop43
 90
        3
102
RTVSPost2010PropOp43
 70
     1
102
RTVSPost2010Prop44ColorIndex
 90
        5
102
RTVSPost2010Prop44ColorRGB
 90
      255
102
RTVSPost2010PropOp44
 70
     1
102
RTVSPost2010Prop45
280
     0
102
RTVSPost2010PropOp45
 70
     1
102
RTVSPost2010Prop46
 90
       50
102
RTVSPost2010PropOp46
 70
     1
102
RTVSPost2010Prop47
 90
       50
102
RTVSPost2010PropOp47
 70
     1
102
RTVSPost2010Prop48
 90
       50
102
RTVSPost2010PropOp48
 70
     1
102
RTVSPost2010Prop49
280
     0
102
RTVSPost2010PropOp49
 70
     1
102
RTVSPost2010Prop50
 90
       50
102
RTVSPost2010PropOp50
 70
     1
102
RTVSPost2010Prop51ColorIndex
 90
      256
102
RTVSPost2010Prop51ColorRGB
 90
-16777216
102
RTVSPost2010PropOp51
 70
     0
102
RTVSPost2010Prop52
140
1.0
102
RTVSPost2010PropOp52
 70
     0
102
RTVSPost2010Prop53
 90
        2
102
RTVSPost2010PropOp53
 70
     1
102
RTVSPost2010Prop54
  1
strokes_ogs.tif
102
RTVSPost2010PropOp54
 70
     1
102
RTVSPost2010Prop55
280
     0
102
RTVSPost2010PropOp55
 70
     1
102
RTVSPost2010Prop56
140
1.0
102
RTVSPost2010PropOp56
 70
     1
102
RTVSPost2010Prop57
140
1.0
102
RTVSPost2010PropOp57
 70
     1
  0
XRECORD
  5
41A6
102
{ACAD_REACTORS
330
41A5
102
}
330
41A5
100
AcDbXrecord
280
     1
102
RTVSPropertyOp0
 70
     1
102
RTVSPropertyOp1
 70
     1
102
RTVSPropertyOp2
 70
     1
102
RTVSPropertyOp3
 70
     1
102
RTVSPropertyOp4
 70
     1
102
RTVSPropertyOp5
 70
     1
102
RTVSPropertyOp6
 70
     1
102
RTVSPropertyOp7
 70
     1
102
RTVSPropertyOp8
 70
     1
102
RTVSPropertyOp9
 70
     1
102
RTVSPropertyOp10
 70
     1
102
RTVSPropertyOp11
 70
     1
102
RTVSPropertyOp12
 70
     1
102
RTVSPropertyOp13
 70
     1
102
RTVSPropertyOp14
 70
     1
102
RTVSPropertyOp15
 70
     1
102
RTVSPropertyOp16
 70
     1
102
RTVSPropertyOp17
 70
     1
102
RTVSPropertyOp18
 70
     1
102
RTVSPropertyOp19
 70
     1
102
RTVSPropertyOp20
 70
     1
102
RTVSPropertyOp21
 70
     1
102
RTVSPropertyOp22
 70
     1
102
RTVSPropertyOp23
 70
     1
102
RTVSPropertyOp24
 70
     1
102
RTVSPropertyOp25
 70
     1
102
RTVSPropertyOp26
 70
     1
102
RTVSPropertyOp27
 70
     1
102
RTVSPropertyOp28
 70
     1
102
RTVSPropertyOp29
 70
     1
102
RTVSPropertyOp30
 70
     1
102
RTVSPropertyOp31
 70
     1
102
RTVSPropertyOp32
 70
     1
102
RTVSPropertyOp33
 70
     1
102
RTVSPropertyOp34
 70
     1
102
RTVSPropertyOp35
 70
     1
102
RTVSPropertyOp36
 70
     1
102
RTVSPropertyOp37
 70
     1
102
RTVSPropertyOp38
 70
     1
102
RTVSPropertyOp39
 70
     1
102
RTVSPropertyOp40
 70
     1
102
RTVSPropertyOp41
 70
     1
102
RTVSPropertyOp42
 70
     1
102
RTVSPropertyOp43
 70
     1
102
RTVSPropertyOp44
 70
     1
102
RTVSPropertyOp45
 70
     1
102
RTVSPropertyOp46
 70
     1
102
RTVSPropertyOp47
 70
     1
102
RTVSPropertyOp48
 70
     1
102
RTVSPropertyOp49
 70
     1
102
RTVSPropertyOp50
 70
     1
102
RTVSPropertyOp51
 70
     0
102
RTVSPropertyOp52
 70
     0
102
RTVSPropertyOp53
 70
     1
102
RTVSPropertyOp54
 70
     1
102
RTVSPropertyOp55
 70
     1
102
RTVSPropertyOp56
 70
     1
102
RTVSPropertyOp57
 70
     1
102
RTVSPost2010Prop28
280
     0
102
RTVSPost2010PropOp28
 70
     1
102
RTVSPost2010Prop29
280
     1
102
RTVSPost2010PropOp29
 70
     1
102
RTVSPost2010Prop30
280
     1
102
RTVSPost2010PropOp30
 70
     1
102
RTVSPost2010Prop31
280
     0
102
RTVSPost2010PropOp31
 70
     1
102
RTVSPost2010Prop32
280
     0
102
RTVSPost2010PropOp32
 70
     1
102
RTVSPost2010Prop33
280
     0
102
RTVSPost2010PropOp33
 70
     1
102
RTVSPost2010Prop34
280
     0
102
RTVSPost2010PropOp34
 70
     1
102
RTVSPost2010Prop35
280
     0
102
RTVSPost2010PropOp35
 70
     1
102
RTVSPost2010Prop36
280
     0
102
RTVSPost2010PropOp36
 70
     1
102
RTVSPost2010Prop37
 90
       50
102
RTVSPost2010PropOp37
 70
     1
102
RTVSPost2010Prop38
140
0.0
102
RTVSPost2010PropOp38
 70
     1
102
RTVSPost2010Prop39
140
1.0
102
RTVSPost2010PropOp39
 70
     1
102
RTVSPost2010Prop40
 90
        0
102
RTVSPost2010PropOp40
 70
     1
102
RTVSPost2010Prop41ColorIndex
 90
       18
102
RTVSPost2010Prop41ColorRGB
 90
        0
102
RTVSPost2010PropOp41
 70
     1
102
RTVSPost2010Prop42
 90
       50
102
RTVSPost2010PropOp42
 70
     1
102
RTVSPost2010Prop43
 90
        3
102
RTVSPost2010PropOp43
 70
     1
102
RTVSPost2010Prop44ColorIndex
 90
        5
102
RTVSPost2010Prop44ColorRGB
 90
      255
102
RTVSPost2010PropOp44
 70
     1
102
RTVSPost2010Prop45
280
     0
102
RTVSPost2010PropOp45
 70
     1
102
RTVSPost2010Prop46
 90
       50
102
RTVSPost2010PropOp46
 70
     1
102
RTVSPost2010Prop47
 90
       50
102
RTVSPost2010PropOp47
 70
     1
102
RTVSPost2010Prop48
 90
       50
102
RTVSPost2010PropOp48
 70
     1
102
RTVSPost2010Prop49
280
     0
102
RTVSPost2010PropOp49
 70
     1
102
RTVSPost2010Prop50
 90
       50
102
RTVSPost2010PropOp50
 70
     1
102
RTVSPost2010Prop51ColorIndex
 90
      256
102
RTVSPost2010Prop51ColorRGB
 90
-16777216
102
RTVSPost2010PropOp51
 70
     0
102
RTVSPost2010Prop52
140
1.0
102
RTVSPost2010PropOp52
 70
     0
102
RTVSPost2010Prop53
 90
        2
102
RTVSPost2010PropOp53
 70
     1
102
RTVSPost2010Prop54
  1
strokes_ogs.tif
102
RTVSPost2010PropOp54
 70
     1
102
RTVSPost2010Prop55
280
     0
102
RTVSPost2010PropOp55
 70
     1
102
RTVSPost2010Prop56
140
1.0
102
RTVSPost2010PropOp56
 70
     1
102
RTVSPost2010Prop57
140
1.0
102
RTVSPost2010PropOp57
 70
     1
  0
XRECORD
  5
41A4
102
{ACAD_REACTORS
330
41A3
102
}
330
41A3
100
AcDbXrecord
280
     1
102
RTVSPropertyOp0
 70
     1
102
RTVSPropertyOp1
 70
     1
102
RTVSPropertyOp2
 70
     1
102
RTVSPropertyOp3
 70
     1
102
RTVSPropertyOp4
 70
     1
102
RTVSPropertyOp5
 70
     1
102
RTVSPropertyOp6
 70
     1
102
RTVSPropertyOp7
 70
     1
102
RTVSPropertyOp8
 70
     1
102
RTVSPropertyOp9
 70
     1
102
RTVSPropertyOp10
 70
     1
102
RTVSPropertyOp11
 70
     1
102
RTVSPropertyOp12
 70
     1
102
RTVSPropertyOp13
 70
     1
102
RTVSPropertyOp14
 70
     1
102
RTVSPropertyOp15
 70
     1
102
RTVSPropertyOp16
 70
     1
102
RTVSPropertyOp17
 70
     1
102
RTVSPropertyOp18
 70
     1
102
RTVSPropertyOp19
 70
     1
102
RTVSPropertyOp20
 70
     1
102
RTVSPropertyOp21
 70
     1
102
RTVSPropertyOp22
 70
     1
102
RTVSPropertyOp23
 70
     1
102
RTVSPropertyOp24
 70
     1
102
RTVSPropertyOp25
 70
     1
102
RTVSPropertyOp26
 70
     1
102
RTVSPropertyOp27
 70
     1
102
RTVSPropertyOp28
 70
     1
102
RTVSPropertyOp29
 70
     1
102
RTVSPropertyOp30
 70
     1
102
RTVSPropertyOp31
 70
     1
102
RTVSPropertyOp32
 70
     1
102
RTVSPropertyOp33
 70
     1
102
RTVSPropertyOp34
 70
     1
102
RTVSPropertyOp35
 70
     1
102
RTVSPropertyOp36
 70
     1
102
RTVSPropertyOp37
 70
     1
102
RTVSPropertyOp38
 70
     1
102
RTVSPropertyOp39
 70
     1
102
RTVSPropertyOp40
 70
     1
102
RTVSPropertyOp41
 70
     1
102
RTVSPropertyOp42
 70
     1
102
RTVSPropertyOp43
 70
     1
102
RTVSPropertyOp44
 70
     1
102
RTVSPropertyOp45
 70
     1
102
RTVSPropertyOp46
 70
     1
102
RTVSPropertyOp47
 70
     1
102
RTVSPropertyOp48
 70
     1
102
RTVSPropertyOp49
 70
     1
102
RTVSPropertyOp50
 70
     1
102
RTVSPropertyOp51
 70
     0
102
RTVSPropertyOp52
 70
     0
102
RTVSPropertyOp53
 70
     1
102
RTVSPropertyOp54
 70
     1
102
RTVSPropertyOp55
 70
     1
102
RTVSPropertyOp56
 70
     1
102
RTVSPropertyOp57
 70
     1
102
RTVSPost2010Prop28
280
     0
102
RTVSPost2010PropOp28
 70
     1
102
RTVSPost2010Prop29
280
     1
102
RTVSPost2010PropOp29
 70
     1
102
RTVSPost2010Prop30
280
     1
102
RTVSPost2010PropOp30
 70
     1
102
RTVSPost2010Prop31
280
     0
102
RTVSPost2010PropOp31
 70
     1
102
RTVSPost2010Prop32
280
     0
102
RTVSPost2010PropOp32
 70
     1
102
RTVSPost2010Prop33
280
     0
102
RTVSPost2010PropOp33
 70
     1
102
RTVSPost2010Prop34
280
     0
102
RTVSPost2010PropOp34
 70
     1
102
RTVSPost2010Prop35
280
     0
102
RTVSPost2010PropOp35
 70
     1
102
RTVSPost2010Prop36
280
     0
102
RTVSPost2010PropOp36
 70
     1
102
RTVSPost2010Prop37
 90
       50
102
RTVSPost2010PropOp37
 70
     1
102
RTVSPost2010Prop38
140
0.0
102
RTVSPost2010PropOp38
 70
     1
102
RTVSPost2010Prop39
140
1.0
102
RTVSPost2010PropOp39
 70
     1
102
RTVSPost2010Prop40
 90
        0
102
RTVSPost2010PropOp40
 70
     1
102
RTVSPost2010Prop41ColorIndex
 90
       18
102
RTVSPost2010Prop41ColorRGB
 90
        0
102
RTVSPost2010PropOp41
 70
     1
102
RTVSPost2010Prop42
 90
       50
102
RTVSPost2010PropOp42
 70
     1
102
RTVSPost2010Prop43
 90
        3
102
RTVSPost2010PropOp43
 70
     1
102
RTVSPost2010Prop44ColorIndex
 90
        5
102
RTVSPost2010Prop44ColorRGB
 90
      255
102
RTVSPost2010PropOp44
 70
     1
102
RTVSPost2010Prop45
280
     0
102
RTVSPost2010PropOp45
 70
     1
102
RTVSPost2010Prop46
 90
       50
102
RTVSPost2010PropOp46
 70
     1
102
RTVSPost2010Prop47
 90
       50
102
RTVSPost2010PropOp47
 70
     1
102
RTVSPost2010Prop48
 90
       50
102
RTVSPost2010PropOp48
 70
     1
102
RTVSPost2010Prop49
280
     0
102
RTVSPost2010PropOp49
 70
     1
102
RTVSPost2010Prop50
 90
       50
102
RTVSPost2010PropOp50
 70
     1
102
RTVSPost2010Prop51ColorIndex
 90
      256
102
RTVSPost2010Prop51ColorRGB
 90
-16777216
102
RTVSPost2010PropOp51
 70
     0
102
RTVSPost2010Prop52
140
1.0
102
RTVSPost2010PropOp52
 70
     0
102
RTVSPost2010Prop53
 90
        2
102
RTVSPost2010PropOp53
 70
     1
102
RTVSPost2010Prop54
  1
strokes_ogs.tif
102
RTVSPost2010PropOp54
 70
     1
102
RTVSPost2010Prop55
280
     0
102
RTVSPost2010PropOp55
 70
     1
102
RTVSPost2010Prop56
140
1.0
102
RTVSPost2010PropOp56
 70
     1
102
RTVSPost2010Prop57
140
1.0
102
RTVSPost2010PropOp57
 70
     1
  0
XRECORD
  5
419E
102
{ACAD_REACTORS
330
419D
102
}
330
419D
100
AcDbXrecord
280
     1
102
RTVSPropertyOp0
 70
     1
102
RTVSPropertyOp1
 70
     1
102
RTVSPropertyOp2
 70
     1
102
RTVSPropertyOp3
 70
     1
102
RTVSPropertyOp4
 70
     1
102
RTVSPropertyOp5
 70
     1
102
RTVSPropertyOp6
 70
     1
102
RTVSPropertyOp7
 70
     1
102
RTVSPropertyOp8
 70
     1
102
RTVSPropertyOp9
 70
     1
102
RTVSPropertyOp10
 70
     1
102
RTVSPropertyOp11
 70
     1
102
RTVSPropertyOp12
 70
     1
102
RTVSPropertyOp13
 70
     1
102
RTVSPropertyOp14
 70
     1
102
RTVSPropertyOp15
 70
     1
102
RTVSPropertyOp16
 70
     1
102
RTVSPropertyOp17
 70
     1
102
RTVSPropertyOp18
 70
     1
102
RTVSPropertyOp19
 70
     1
102
RTVSPropertyOp20
 70
     1
102
RTVSPropertyOp21
 70
     1
102
RTVSPropertyOp22
 70
     1
102
RTVSPropertyOp23
 70
     1
102
RTVSPropertyOp24
 70
     1
102
RTVSPropertyOp25
 70
     1
102
RTVSPropertyOp26
 70
     1
102
RTVSPropertyOp27
 70
     1
102
RTVSPropertyOp28
 70
     1
102
RTVSPropertyOp29
 70
     1
102
RTVSPropertyOp30
 70
     1
102
RTVSPropertyOp31
 70
     1
102
RTVSPropertyOp32
 70
     1
102
RTVSPropertyOp33
 70
     1
102
RTVSPropertyOp34
 70
     1
102
RTVSPropertyOp35
 70
     1
102
RTVSPropertyOp36
 70
     1
102
RTVSPropertyOp37
 70
     1
102
RTVSPropertyOp38
 70
     1
102
RTVSPropertyOp39
 70
     1
102
RTVSPropertyOp40
 70
     1
102
RTVSPropertyOp41
 70
     1
102
RTVSPropertyOp42
 70
     1
102
RTVSPropertyOp43
 70
     1
102
RTVSPropertyOp44
 70
     1
102
RTVSPropertyOp45
 70
     1
102
RTVSPropertyOp46
 70
     1
102
RTVSPropertyOp47
 70
     1
102
RTVSPropertyOp48
 70
     1
102
RTVSPropertyOp49
 70
     1
102
RTVSPropertyOp50
 70
     1
102
RTVSPropertyOp51
 70
     0
102
RTVSPropertyOp52
 70
     0
102
RTVSPropertyOp53
 70
     1
102
RTVSPropertyOp54
 70
     1
102
RTVSPropertyOp55
 70
     1
102
RTVSPropertyOp56
 70
     1
102
RTVSPropertyOp57
 70
     1
102
RTVSPost2010Prop28
280
     0
102
RTVSPost2010PropOp28
 70
     1
102
RTVSPost2010Prop29
280
     1
102
RTVSPost2010PropOp29
 70
     1
102
RTVSPost2010Prop30
280
     1
102
RTVSPost2010PropOp30
 70
     1
102
RTVSPost2010Prop31
280
     0
102
RTVSPost2010PropOp31
 70
     1
102
RTVSPost2010Prop32
280
     0
102
RTVSPost2010PropOp32
 70
     1
102
RTVSPost2010Prop33
280
     0
102
RTVSPost2010PropOp33
 70
     1
102
RTVSPost2010Prop34
280
     0
102
RTVSPost2010PropOp34
 70
     1
102
RTVSPost2010Prop35
280
     0
102
RTVSPost2010PropOp35
 70
     1
102
RTVSPost2010Prop36
280
     0
102
RTVSPost2010PropOp36
 70
     1
102
RTVSPost2010Prop37
 90
       50
102
RTVSPost2010PropOp37
 70
     1
102
RTVSPost2010Prop38
140
0.0
102
RTVSPost2010PropOp38
 70
     1
102
RTVSPost2010Prop39
140
1.0
102
RTVSPost2010PropOp39
 70
     1
102
RTVSPost2010Prop40
 90
        0
102
RTVSPost2010PropOp40
 70
     1
102
RTVSPost2010Prop41ColorIndex
 90
       18
102
RTVSPost2010Prop41ColorRGB
 90
        0
102
RTVSPost2010PropOp41
 70
     1
102
RTVSPost2010Prop42
 90
       50
102
RTVSPost2010PropOp42
 70
     1
102
RTVSPost2010Prop43
 90
        3
102
RTVSPost2010PropOp43
 70
     1
102
RTVSPost2010Prop44ColorIndex
 90
        5
102
RTVSPost2010Prop44ColorRGB
 90
      255
102
RTVSPost2010PropOp44
 70
     1
102
RTVSPost2010Prop45
280
     0
102
RTVSPost2010PropOp45
 70
     1
102
RTVSPost2010Prop46
 90
       50
102
RTVSPost2010PropOp46
 70
     1
102
RTVSPost2010Prop47
 90
       50
102
RTVSPost2010PropOp47
 70
     1
102
RTVSPost2010Prop48
 90
       50
102
RTVSPost2010PropOp48
 70
     1
102
RTVSPost2010Prop49
280
     0
102
RTVSPost2010PropOp49
 70
     1
102
RTVSPost2010Prop50
 90
       50
102
RTVSPost2010PropOp50
 70
     1
102
RTVSPost2010Prop51ColorIndex
 90
      256
102
RTVSPost2010Prop51ColorRGB
 90
-16777216
102
RTVSPost2010PropOp51
 70
     0
102
RTVSPost2010Prop52
140
1.0
102
RTVSPost2010PropOp52
 70
     0
102
RTVSPost2010Prop53
 90
        2
102
RTVSPost2010PropOp53
 70
     1
102
RTVSPost2010Prop54
  1
strokes_ogs.tif
102
RTVSPost2010PropOp54
 70
     1
102
RTVSPost2010Prop55
280
     0
102
RTVSPost2010PropOp55
 70
     1
102
RTVSPost2010Prop56
140
1.0
102
RTVSPost2010PropOp56
 70
     1
102
RTVSPost2010Prop57
140
1.0
102
RTVSPost2010PropOp57
 70
     1
  0
XRECORD
  5
41A0
102
{ACAD_REACTORS
330
419F
102
}
330
419F
100
AcDbXrecord
280
     1
102
RTVSPropertyOp0
 70
     1
102
RTVSPropertyOp1
 70
     1
102
RTVSPropertyOp2
 70
     1
102
RTVSPropertyOp3
 70
     1
102
RTVSPropertyOp4
 70
     1
102
RTVSPropertyOp5
 70
     1
102
RTVSPropertyOp6
 70
     1
102
RTVSPropertyOp7
 70
     1
102
RTVSPropertyOp8
 70
     1
102
RTVSPropertyOp9
 70
     1
102
RTVSPropertyOp10
 70
     1
102
RTVSPropertyOp11
 70
     1
102
RTVSPropertyOp12
 70
     1
102
RTVSPropertyOp13
 70
     1
102
RTVSPropertyOp14
 70
     1
102
RTVSPropertyOp15
 70
     1
102
RTVSPropertyOp16
 70
     1
102
RTVSPropertyOp17
 70
     1
102
RTVSPropertyOp18
 70
     1
102
RTVSPropertyOp19
 70
     1
102
RTVSPropertyOp20
 70
     1
102
RTVSPropertyOp21
 70
     1
102
RTVSPropertyOp22
 70
     1
102
RTVSPropertyOp23
 70
     1
102
RTVSPropertyOp24
 70
     1
102
RTVSPropertyOp25
 70
     1
102
RTVSPropertyOp26
 70
     1
102
RTVSPropertyOp27
 70
     1
102
RTVSPropertyOp28
 70
     1
102
RTVSPropertyOp29
 70
     1
102
RTVSPropertyOp30
 70
     1
102
RTVSPropertyOp31
 70
     1
102
RTVSPropertyOp32
 70
     1
102
RTVSPropertyOp33
 70
     1
102
RTVSPropertyOp34
 70
     1
102
RTVSPropertyOp35
 70
     1
102
RTVSPropertyOp36
 70
     1
102
RTVSPropertyOp37
 70
     1
102
RTVSPropertyOp38
 70
     1
102
RTVSPropertyOp39
 70
     1
102
RTVSPropertyOp40
 70
     1
102
RTVSPropertyOp41
 70
     1
102
RTVSPropertyOp42
 70
     1
102
RTVSPropertyOp43
 70
     1
102
RTVSPropertyOp44
 70
     1
102
RTVSPropertyOp45
 70
     1
102
RTVSPropertyOp46
 70
     1
102
RTVSPropertyOp47
 70
     1
102
RTVSPropertyOp48
 70
     1
102
RTVSPropertyOp49
 70
     1
102
RTVSPropertyOp50
 70
     1
102
RTVSPropertyOp51
 70
     0
102
RTVSPropertyOp52
 70
     0
102
RTVSPropertyOp53
 70
     1
102
RTVSPropertyOp54
 70
     1
102
RTVSPropertyOp55
 70
     1
102
RTVSPropertyOp56
 70
     1
102
RTVSPropertyOp57
 70
     1
102
RTVSPost2010Prop28
280
     0
102
RTVSPost2010PropOp28
 70
     1
102
RTVSPost2010Prop29
280
     1
102
RTVSPost2010PropOp29
 70
     1
102
RTVSPost2010Prop30
280
     1
102
RTVSPost2010PropOp30
 70
     1
102
RTVSPost2010Prop31
280
     0
102
RTVSPost2010PropOp31
 70
     1
102
RTVSPost2010Prop32
280
     0
102
RTVSPost2010PropOp32
 70
     1
102
RTVSPost2010Prop33
280
     0
102
RTVSPost2010PropOp33
 70
     1
102
RTVSPost2010Prop34
280
     0
102
RTVSPost2010PropOp34
 70
     1
102
RTVSPost2010Prop35
280
     0
102
RTVSPost2010PropOp35
 70
     1
102
RTVSPost2010Prop36
280
     0
102
RTVSPost2010PropOp36
 70
     1
102
RTVSPost2010Prop37
 90
       50
102
RTVSPost2010PropOp37
 70
     1
102
RTVSPost2010Prop38
140
0.0
102
RTVSPost2010PropOp38
 70
     1
102
RTVSPost2010Prop39
140
1.0
102
RTVSPost2010PropOp39
 70
     1
102
RTVSPost2010Prop40
 90
        0
102
RTVSPost2010PropOp40
 70
     1
102
RTVSPost2010Prop41ColorIndex
 90
       18
102
RTVSPost2010Prop41ColorRGB
 90
        0
102
RTVSPost2010PropOp41
 70
     1
102
RTVSPost2010Prop42
 90
       50
102
RTVSPost2010PropOp42
 70
     1
102
RTVSPost2010Prop43
 90
        3
102
RTVSPost2010PropOp43
 70
     1
102
RTVSPost2010Prop44ColorIndex
 90
        5
102
RTVSPost2010Prop44ColorRGB
 90
      255
102
RTVSPost2010PropOp44
 70
     1
102
RTVSPost2010Prop45
280
     0
102
RTVSPost2010PropOp45
 70
     1
102
RTVSPost2010Prop46
 90
       50
102
RTVSPost2010PropOp46
 70
     1
102
RTVSPost2010Prop47
 90
       50
102
RTVSPost2010PropOp47
 70
     1
102
RTVSPost2010Prop48
 90
       50
102
RTVSPost2010PropOp48
 70
     1
102
RTVSPost2010Prop49
280
     0
102
RTVSPost2010PropOp49
 70
     1
102
RTVSPost2010Prop50
 90
       50
102
RTVSPost2010PropOp50
 70
     1
102
RTVSPost2010Prop51ColorIndex
 90
      256
102
RTVSPost2010Prop51ColorRGB
 90
-16777216
102
RTVSPost2010PropOp51
 70
     0
102
RTVSPost2010Prop52
140
1.0
102
RTVSPost2010PropOp52
 70
     0
102
RTVSPost2010Prop53
 90
        2
102
RTVSPost2010PropOp53
 70
     1
102
RTVSPost2010Prop54
  1
strokes_ogs.tif
102
RTVSPost2010PropOp54
 70
     1
102
RTVSPost2010Prop55
280
     0
102
RTVSPost2010PropOp55
 70
     1
102
RTVSPost2010Prop56
140
1.0
102
RTVSPost2010PropOp56
 70
     1
102
RTVSPost2010Prop57
140
1.0
102
RTVSPost2010PropOp57
 70
     1
  0
XRECORD
  5
4190
102
{ACAD_REACTORS
330
418F
102
}
330
418F
100
AcDbXrecord
280
     1
102
RTVSPropertyOp0
 70
     1
102
RTVSPropertyOp1
 70
     1
102
RTVSPropertyOp2
 70
     1
102
RTVSPropertyOp3
 70
     1
102
RTVSPropertyOp4
 70
     1
102
RTVSPropertyOp5
 70
     1
102
RTVSPropertyOp6
 70
     1
102
RTVSPropertyOp7
 70
     1
102
RTVSPropertyOp8
 70
     1
102
RTVSPropertyOp9
 70
     1
102
RTVSPropertyOp10
 70
     1
102
RTVSPropertyOp11
 70
     1
102
RTVSPropertyOp12
 70
     1
102
RTVSPropertyOp13
 70
     1
102
RTVSPropertyOp14
 70
     1
102
RTVSPropertyOp15
 70
     1
102
RTVSPropertyOp16
 70
     1
102
RTVSPropertyOp17
 70
     1
102
RTVSPropertyOp18
 70
     1
102
RTVSPropertyOp19
 70
     1
102
RTVSPropertyOp20
 70
     1
102
RTVSPropertyOp21
 70
     1
102
RTVSPropertyOp22
 70
     1
102
RTVSPropertyOp23
 70
     1
102
RTVSPropertyOp24
 70
     1
102
RTVSPropertyOp25
 70
     1
102
RTVSPropertyOp26
 70
     1
102
RTVSPropertyOp27
 70
     1
102
RTVSPropertyOp28
 70
     1
102
RTVSPropertyOp29
 70
     1
102
RTVSPropertyOp30
 70
     1
102
RTVSPropertyOp31
 70
     1
102
RTVSPropertyOp32
 70
     1
102
RTVSPropertyOp33
 70
     1
102
RTVSPropertyOp34
 70
     1
102
RTVSPropertyOp35
 70
     1
102
RTVSPropertyOp36
 70
     1
102
RTVSPropertyOp37
 70
     1
102
RTVSPropertyOp38
 70
     1
102
RTVSPropertyOp39
 70
     1
102
RTVSPropertyOp40
 70
     1
102
RTVSPropertyOp41
 70
     1
102
RTVSPropertyOp42
 70
     1
102
RTVSPropertyOp43
 70
     1
102
RTVSPropertyOp44
 70
     1
102
RTVSPropertyOp45
 70
     1
102
RTVSPropertyOp46
 70
     1
102
RTVSPropertyOp47
 70
     1
102
RTVSPropertyOp48
 70
     1
102
RTVSPropertyOp49
 70
     1
102
RTVSPropertyOp50
 70
     1
102
RTVSPropertyOp51
 70
     0
102
RTVSPropertyOp52
 70
     0
102
RTVSPropertyOp53
 70
     1
102
RTVSPropertyOp54
 70
     1
102
RTVSPropertyOp55
 70
     1
102
RTVSPropertyOp56
 70
     1
102
RTVSPropertyOp57
 70
     1
102
RTVSPost2010Prop28
280
     0
102
RTVSPost2010PropOp28
 70
     1
102
RTVSPost2010Prop29
280
     1
102
RTVSPost2010PropOp29
 70
     1
102
RTVSPost2010Prop30
280
     1
102
RTVSPost2010PropOp30
 70
     1
102
RTVSPost2010Prop31
280
     0
102
RTVSPost2010PropOp31
 70
     1
102
RTVSPost2010Prop32
280
     0
102
RTVSPost2010PropOp32
 70
     1
102
RTVSPost2010Prop33
280
     0
102
RTVSPost2010PropOp33
 70
     1
102
RTVSPost2010Prop34
280
     0
102
RTVSPost2010PropOp34
 70
     1
102
RTVSPost2010Prop35
280
     0
102
RTVSPost2010PropOp35
 70
     1
102
RTVSPost2010Prop36
280
     0
102
RTVSPost2010PropOp36
 70
     1
102
RTVSPost2010Prop37
 90
       50
102
RTVSPost2010PropOp37
 70
     1
102
RTVSPost2010Prop38
140
0.0
102
RTVSPost2010PropOp38
 70
     1
102
RTVSPost2010Prop39
140
1.0
102
RTVSPost2010PropOp39
 70
     1
102
RTVSPost2010Prop40
 90
        0
102
RTVSPost2010PropOp40
 70
     1
102
RTVSPost2010Prop41ColorIndex
 90
       18
102
RTVSPost2010Prop41ColorRGB
 90
        0
102
RTVSPost2010PropOp41
 70
     1
102
RTVSPost2010Prop42
 90
       50
102
RTVSPost2010PropOp42
 70
     1
102
RTVSPost2010Prop43
 90
        3
102
RTVSPost2010PropOp43
 70
     1
102
RTVSPost2010Prop44ColorIndex
 90
        5
102
RTVSPost2010Prop44ColorRGB
 90
      255
102
RTVSPost2010PropOp44
 70
     1
102
RTVSPost2010Prop45
280
     0
102
RTVSPost2010PropOp45
 70
     1
102
RTVSPost2010Prop46
 90
       50
102
RTVSPost2010PropOp46
 70
     1
102
RTVSPost2010Prop47
 90
       50
102
RTVSPost2010PropOp47
 70
     1
102
RTVSPost2010Prop48
 90
       50
102
RTVSPost2010PropOp48
 70
     1
102
RTVSPost2010Prop49
280
     0
102
RTVSPost2010PropOp49
 70
     1
102
RTVSPost2010Prop50
 90
       50
102
RTVSPost2010PropOp50
 70
     1
102
RTVSPost2010Prop51ColorIndex
 90
      256
102
RTVSPost2010Prop51ColorRGB
 90
-16777216
102
RTVSPost2010PropOp51
 70
     0
102
RTVSPost2010Prop52
140
1.0
102
RTVSPost2010PropOp52
 70
     0
102
RTVSPost2010Prop53
 90
        2
102
RTVSPost2010PropOp53
 70
     1
102
RTVSPost2010Prop54
  1
strokes_ogs.tif
102
RTVSPost2010PropOp54
 70
     1
102
RTVSPost2010Prop55
280
     0
102
RTVSPost2010PropOp55
 70
     1
102
RTVSPost2010Prop56
140
1.0
102
RTVSPost2010PropOp56
 70
     1
102
RTVSPost2010Prop57
140
1.0
102
RTVSPost2010PropOp57
 70
     1
  0
XRECORD
  5
4182
102
{ACAD_REACTORS
330
4181
102
}
330
4181
100
AcDbXrecord
280
     1
102
RTVSPropertyOp0
 70
     1
102
RTVSPropertyOp1
 70
     1
102
RTVSPropertyOp2
 70
     1
102
RTVSPropertyOp3
 70
     1
102
RTVSPropertyOp4
 70
     1
102
RTVSPropertyOp5
 70
     1
102
RTVSPropertyOp6
 70
     1
102
RTVSPropertyOp7
 70
     1
102
RTVSPropertyOp8
 70
     1
102
RTVSPropertyOp9
 70
     1
102
RTVSPropertyOp10
 70
     1
102
RTVSPropertyOp11
 70
     1
102
RTVSPropertyOp12
 70
     1
102
RTVSPropertyOp13
 70
     1
102
RTVSPropertyOp14
 70
     1
102
RTVSPropertyOp15
 70
     1
102
RTVSPropertyOp16
 70
     1
102
RTVSPropertyOp17
 70
     1
102
RTVSPropertyOp18
 70
     1
102
RTVSPropertyOp19
 70
     1
102
RTVSPropertyOp20
 70
     1
102
RTVSPropertyOp21
 70
     1
102
RTVSPropertyOp22
 70
     1
102
RTVSPropertyOp23
 70
     1
102
RTVSPropertyOp24
 70
     1
102
RTVSPropertyOp25
 70
     1
102
RTVSPropertyOp26
 70
     1
102
RTVSPropertyOp27
 70
     1
102
RTVSPropertyOp28
 70
     1
102
RTVSPropertyOp29
 70
     1
102
RTVSPropertyOp30
 70
     1
102
RTVSPropertyOp31
 70
     1
102
RTVSPropertyOp32
 70
     1
102
RTVSPropertyOp33
 70
     1
102
RTVSPropertyOp34
 70
     1
102
RTVSPropertyOp35
 70
     1
102
RTVSPropertyOp36
 70
     1
102
RTVSPropertyOp37
 70
     1
102
RTVSPropertyOp38
 70
     1
102
RTVSPropertyOp39
 70
     1
102
RTVSPropertyOp40
 70
     1
102
RTVSPropertyOp41
 70
     1
102
RTVSPropertyOp42
 70
     1
102
RTVSPropertyOp43
 70
     1
102
RTVSPropertyOp44
 70
     1
102
RTVSPropertyOp45
 70
     1
102
RTVSPropertyOp46
 70
     1
102
RTVSPropertyOp47
 70
     1
102
RTVSPropertyOp48
 70
     1
102
RTVSPropertyOp49
 70
     1
102
RTVSPropertyOp50
 70
     1
102
RTVSPropertyOp51
 70
     0
102
RTVSPropertyOp52
 70
     0
102
RTVSPropertyOp53
 70
     1
102
RTVSPropertyOp54
 70
     1
102
RTVSPropertyOp55
 70
     1
102
RTVSPropertyOp56
 70
     1
102
RTVSPropertyOp57
 70
     1
102
RTVSPost2010Prop28
280
     0
102
RTVSPost2010PropOp28
 70
     1
102
RTVSPost2010Prop29
280
     1
102
RTVSPost2010PropOp29
 70
     1
102
RTVSPost2010Prop30
280
     1
102
RTVSPost2010PropOp30
 70
     1
102
RTVSPost2010Prop31
280
     0
102
RTVSPost2010PropOp31
 70
     1
102
RTVSPost2010Prop32
280
     0
102
RTVSPost2010PropOp32
 70
     1
102
RTVSPost2010Prop33
280
     0
102
RTVSPost2010PropOp33
 70
     1
102
RTVSPost2010Prop34
280
     0
102
RTVSPost2010PropOp34
 70
     1
102
RTVSPost2010Prop35
280
     0
102
RTVSPost2010PropOp35
 70
     1
102
RTVSPost2010Prop36
280
     0
102
RTVSPost2010PropOp36
 70
     1
102
RTVSPost2010Prop37
 90
       50
102
RTVSPost2010PropOp37
 70
     1
102
RTVSPost2010Prop38
140
0.0
102
RTVSPost2010PropOp38
 70
     1
102
RTVSPost2010Prop39
140
1.0
102
RTVSPost2010PropOp39
 70
     1
102
RTVSPost2010Prop40
 90
        0
102
RTVSPost2010PropOp40
 70
     1
102
RTVSPost2010Prop41ColorIndex
 90
       18
102
RTVSPost2010Prop41ColorRGB
 90
        0
102
RTVSPost2010PropOp41
 70
     1
102
RTVSPost2010Prop42
 90
       50
102
RTVSPost2010PropOp42
 70
     1
102
RTVSPost2010Prop43
 90
        3
102
RTVSPost2010PropOp43
 70
     1
102
RTVSPost2010Prop44ColorIndex
 90
        5
102
RTVSPost2010Prop44ColorRGB
 90
      255
102
RTVSPost2010PropOp44
 70
     1
102
RTVSPost2010Prop45
280
     0
102
RTVSPost2010PropOp45
 70
     1
102
RTVSPost2010Prop46
 90
       50
102
RTVSPost2010PropOp46
 70
     1
102
RTVSPost2010Prop47
 90
       50
102
RTVSPost2010PropOp47
 70
     1
102
RTVSPost2010Prop48
 90
       50
102
RTVSPost2010PropOp48
 70
     1
102
RTVSPost2010Prop49
280
     0
102
RTVSPost2010PropOp49
 70
     1
102
RTVSPost2010Prop50
 90
       50
102
RTVSPost2010PropOp50
 70
     1
102
RTVSPost2010Prop51ColorIndex
 90
      256
102
RTVSPost2010Prop51ColorRGB
 90
-16777216
102
RTVSPost2010PropOp51
 70
     0
102
RTVSPost2010Prop52
140
1.0
102
RTVSPost2010PropOp52
 70
     0
102
RTVSPost2010Prop53
 90
        2
102
RTVSPost2010PropOp53
 70
     1
102
RTVSPost2010Prop54
  1
strokes_ogs.tif
102
RTVSPost2010PropOp54
 70
     1
102
RTVSPost2010Prop55
280
     0
102
RTVSPost2010PropOp55
 70
     1
102
RTVSPost2010Prop56
140
1.0
102
RTVSPost2010PropOp56
 70
     1
102
RTVSPost2010Prop57
140
1.0
102
RTVSPost2010PropOp57
 70
     1
  0
XRECORD
  5
41A2
102
{ACAD_REACTORS
330
41A1
102
}
330
41A1
100
AcDbXrecord
280
     1
102
RTVSPropertyOp0
 70
     1
102
RTVSPropertyOp1
 70
     1
102
RTVSPropertyOp2
 70
     1
102
RTVSPropertyOp3
 70
     1
102
RTVSPropertyOp4
 70
     1
102
RTVSPropertyOp5
 70
     1
102
RTVSPropertyOp6
 70
     1
102
RTVSPropertyOp7
 70
     1
102
RTVSPropertyOp8
 70
     1
102
RTVSPropertyOp9
 70
     1
102
RTVSPropertyOp10
 70
     1
102
RTVSPropertyOp11
 70
     1
102
RTVSPropertyOp12
 70
     1
102
RTVSPropertyOp13
 70
     1
102
RTVSPropertyOp14
 70
     1
102
RTVSPropertyOp15
 70
     1
102
RTVSPropertyOp16
 70
     1
102
RTVSPropertyOp17
 70
     1
102
RTVSPropertyOp18
 70
     1
102
RTVSPropertyOp19
 70
     1
102
RTVSPropertyOp20
 70
     1
102
RTVSPropertyOp21
 70
     1
102
RTVSPropertyOp22
 70
     1
102
RTVSPropertyOp23
 70
     1
102
RTVSPropertyOp24
 70
     1
102
RTVSPropertyOp25
 70
     1
102
RTVSPropertyOp26
 70
     1
102
RTVSPropertyOp27
 70
     1
102
RTVSPropertyOp28
 70
     1
102
RTVSPropertyOp29
 70
     1
102
RTVSPropertyOp30
 70
     1
102
RTVSPropertyOp31
 70
     1
102
RTVSPropertyOp32
 70
     1
102
RTVSPropertyOp33
 70
     1
102
RTVSPropertyOp34
 70
     1
102
RTVSPropertyOp35
 70
     1
102
RTVSPropertyOp36
 70
     1
102
RTVSPropertyOp37
 70
     1
102
RTVSPropertyOp38
 70
     1
102
RTVSPropertyOp39
 70
     1
102
RTVSPropertyOp40
 70
     1
102
RTVSPropertyOp41
 70
     1
102
RTVSPropertyOp42
 70
     1
102
RTVSPropertyOp43
 70
     1
102
RTVSPropertyOp44
 70
     1
102
RTVSPropertyOp45
 70
     1
102
RTVSPropertyOp46
 70
     1
102
RTVSPropertyOp47
 70
     1
102
RTVSPropertyOp48
 70
     1
102
RTVSPropertyOp49
 70
     1
102
RTVSPropertyOp50
 70
     1
102
RTVSPropertyOp51
 70
     0
102
RTVSPropertyOp52
 70
     0
102
RTVSPropertyOp53
 70
     1
102
RTVSPropertyOp54
 70
     1
102
RTVSPropertyOp55
 70
     1
102
RTVSPropertyOp56
 70
     1
102
RTVSPropertyOp57
 70
     1
102
RTVSPost2010Prop28
280
     0
102
RTVSPost2010PropOp28
 70
     1
102
RTVSPost2010Prop29
280
     1
102
RTVSPost2010PropOp29
 70
     1
102
RTVSPost2010Prop30
280
     1
102
RTVSPost2010PropOp30
 70
     1
102
RTVSPost2010Prop31
280
     0
102
RTVSPost2010PropOp31
 70
     1
102
RTVSPost2010Prop32
280
     0
102
RTVSPost2010PropOp32
 70
     1
102
RTVSPost2010Prop33
280
     0
102
RTVSPost2010PropOp33
 70
     1
102
RTVSPost2010Prop34
280
     0
102
RTVSPost2010PropOp34
 70
     1
102
RTVSPost2010Prop35
280
     0
102
RTVSPost2010PropOp35
 70
     1
102
RTVSPost2010Prop36
280
     0
102
RTVSPost2010PropOp36
 70
     1
102
RTVSPost2010Prop37
 90
       50
102
RTVSPost2010PropOp37
 70
     1
102
RTVSPost2010Prop38
140
0.0
102
RTVSPost2010PropOp38
 70
     1
102
RTVSPost2010Prop39
140
1.0
102
RTVSPost2010PropOp39
 70
     1
102
RTVSPost2010Prop40
 90
        0
102
RTVSPost2010PropOp40
 70
     1
102
RTVSPost2010Prop41ColorIndex
 90
       18
102
RTVSPost2010Prop41ColorRGB
 90
        0
102
RTVSPost2010PropOp41
 70
     1
102
RTVSPost2010Prop42
 90
       50
102
RTVSPost2010PropOp42
 70
     1
102
RTVSPost2010Prop43
 90
        3
102
RTVSPost2010PropOp43
 70
     1
102
RTVSPost2010Prop44ColorIndex
 90
        5
102
RTVSPost2010Prop44ColorRGB
 90
      255
102
RTVSPost2010PropOp44
 70
     1
102
RTVSPost2010Prop45
280
     0
102
RTVSPost2010PropOp45
 70
     1
102
RTVSPost2010Prop46
 90
       50
102
RTVSPost2010PropOp46
 70
     1
102
RTVSPost2010Prop47
 90
       50
102
RTVSPost2010PropOp47
 70
     1
102
RTVSPost2010Prop48
 90
       50
102
RTVSPost2010PropOp48
 70
     1
102
RTVSPost2010Prop49
280
     0
102
RTVSPost2010PropOp49
 70
     1
102
RTVSPost2010Prop50
 90
       50
102
RTVSPost2010PropOp50
 70
     1
102
RTVSPost2010Prop51ColorIndex
 90
      256
102
RTVSPost2010Prop51ColorRGB
 90
-16777216
102
RTVSPost2010PropOp51
 70
     0
102
RTVSPost2010Prop52
140
1.0
102
RTVSPost2010PropOp52
 70
     0
102
RTVSPost2010Prop53
 90
        2
102
RTVSPost2010PropOp53
 70
     1
102
RTVSPost2010Prop54
  1
strokes_ogs.tif
102
RTVSPost2010PropOp54
 70
     1
102
RTVSPost2010Prop55
280
     0
102
RTVSPost2010PropOp55
 70
     1
102
RTVSPost2010Prop56
140
1.0
102
RTVSPost2010PropOp56
 70
     1
102
RTVSPost2010Prop57
140
1.0
102
RTVSPost2010PropOp57
 70
     1
  0
ENDSEC
  0
SECTION
  2
THUMBNAILIMAGE
 90
    17448
310
28000000800000008000000001000800000000000000000000000000000000000000000000000000FFFFFF000000FF0000FFFF0000FF0000FFFF0000FF000000FF00FF000000000080808000C0C0C0000000FF007F7FFF000000A5005252A50000007F003F3F7F0000004C0026264C000000260013132600003FFF007F9FFF
310
000029A5005267A500001F7F003F4F7F0000134C00262F4C000009260013172600007FFF007FBFFF000052A500527CA500003F7F003F5F7F0000264C0026394C0000132600131C260000BFFF007FDFFF00007CA5005291A500005F7F003F6F7F0000394C0026424C00001C26001321260000FFFF007FFFFF0000A5A50052A5
310
A500007F7F003F7F7F00004C4C00264C4C00002626001326260000FFBF007FFFDF0000A57C0052A59100007F5F003F7F6F00004C3900264C420000261C001326210000FF7F007FFFBF0000A5520052A57C00007F3F003F7F5F00004C2600264C39000026130013261C0000FF3F007FFF9F0000A5290052A56700007F1F003F
310
7F4F00004C1300264C2F00002609001326170000FF00007FFF7F0000A5000052A55200007F00003F7F3F00004C0000264C260000260000132613003FFF00009FFF7F0029A5000067A552001F7F00004F7F3F00134C00002F4C260009260000172613007FFF0000BFFF7F0052A500007CA552003F7F00005F7F3F00264C0000
310
394C2600132600001C261300BFFF0000DFFF7F007CA5000091A552005F7F00006F7F3F00394C0000424C26001C26000021261300FFFF0000FFFF7F00A5A50000A5A552007F7F00007F7F3F004C4C00004C4C26002626000026261300FFBF0000FFDF7F00A57C0000A59152007F5F00007F6F3F004C3900004C422600261C00
310
0026211300FF7F0000FFBF7F00A5520000A57C52007F3F00007F5F3F004C2600004C39260026130000261C1300FF3F0000FF9F7F00A5290000A56752007F1F00007F4F3F004C1300004C2F26002609000026171300FF000000FF7F7F00A5000000A55252007F0000007F3F3F004C0000004C2626002600000026131300FF00
310
3F00FF7F9F00A5002900A55267007F001F007F3F4F004C0013004C262F002600090026131700FF007F00FF7FBF00A5005200A5527C007F003F007F3F5F004C0026004C2639002600130026131C00FF00BF00FF7FDF00A5007C00A55291007F005F007F3F6F004C0039004C26420026001C0026132100FF00FF00FF7FFF00A5
310
00A500A552A5007F007F007F3F7F004C004C004C264C002600260026132600BF00FF00DF7FFF007C00A5009152A5005F007F006F3F7F0039004C0042264C001C002600211326007F00FF00BF7FFF005200A5007C52A5003F007F005F3F7F0026004C0039264C00130026001C1326003F00FF009F7FFF002900A5006752A500
310
1F007F004F3F7F0013004C002F264C000900260017132600000000002D2D2D005B5B5B0089898900B7B7B700B3B3B30000000000000000000000000000000000000000000000000000000000000000000000000000000000000000000000000000000000000000000000000000000000000000000000000000000000000000
310
00000000000000000000000000000000000000000000000000000000000000000000000000000000000000000000000000000000000000000000000000000000000000000000000000000000000000000000000000000000000000000000000000000000000000000000000000000000000000000000000000000000000000
310
00000000000000000000000000000000000000000000000000000000000000000000000000000000000000000000000000000000000000000000000000000000000000000000000000000000000000000000000000000000000000000000000000000000000000000000000000000000000000000000000000000000000000
310
00000000000000000000000000000000000000000000000000000000000000000000000000000000000000000000000000000000000000000000000000000000000000000000000000000000000000000000000000000000000000000000000000000000000000000000000000000000000000000000000000000000000000
310
00000000000000000000000000000000000000000000000000000000000000000000000000000000000000000000000000000000000000000000000000000000000000000000000000000000000000000000000000000000000000000000000000000000000000000000000000000000000000000000000000000000000000
310
00000000000000000000000000000000000000000000000000000000000000000000000000000000000000000000000000000000000000000000000000000000000000000000000000000000000000000000000000000000000000000000000000000000000000000000000000000000000000000000000000000000000000
310
00000000000000000000000000000000000000000000000000000000000000000000000000000000000000000000000000000000000000000000000000000000000000000000000000000000000000000000000000000000000000000000000000000000000000000000000000000000000000000000000000000000000000
310
00000000000000000000000000000000000000000000000000000000000000000000000000000000000000000000000000000000000000000000000000000000000000000000000000000000000000000000000000000000000000000000000000000000000000000000000000000000000000000000000000000000000000
310
00000000000000000000000000000000000000000000000000000000000000000000000000000000000000000000000000000000000000000000000000000000000000000000000000000000000000000000000000000000000000000000000000000000000000000000000000000000000000000000000000000000000000
310
00000000000000000000000000000000000000000000000000000000000000000000000000000000000000000000000000000000000000000000000000000000000000000000000000000000000000000000000000000000000000000000000000000000000000000000000000000000000000000000000000000000000000
310
00000000000000000000000000000000000000000000000000000000000000000000000000000000000000000000000000000000000000000000000000000000000000000000000000000000000000000000000000000000000000000000000000000000000000000000000000000000000000000000000000000000000000
310
00000000000000000000000000000000000000000000000000000000000000000000000000000000000000000000000000000000000000000000000000000000000000000000000000000000000000000000000000000000000000000000000000000000000000000000000000000000000000000000000000000000000000
310
00000000000000000000000000000000000000000000000000000000000000000000000000000000000000000000000000000000000000000000000000000000000000000000000000000000000000000000000000000000000000000000000000000000000000000000000000000000000000000000000000000000000000
310
00000000000000000000000000000000000000000000000000000000000000000000000000000000000000000000000000000000000000000000000000000000000000000000000000000000000000000000000000000000000000000000000000000000000000000000000000000000000000000000000000000000000000
310
00000000000000000000000000000000000000000000000000000000000000000000000000000000000000000000000000000000000000000000000000000000000000000000000000000000000000000000000000000000000000000000000000000000000000000000000000000000000000000000000000000000000000
310
00000000000000000000000000000000000000000000000000000000000000000000000000000000000000000000000000000000000000000000000000000000000000000000000000000000000000000000000000000000000000000000000000000000000000000000000000000000000000000000000000000000000000
310
00000000000000000000000000000000000000000000000000000000000000000000000000000000000000000000000000000000000000000000000000000000000000000000000000000000000000000000000000000000000000000000000000000000000000000000000000000000000000000000000000000000000000
310
00000000000000000000000000000000000000000000000000000000000000000000000000000000000000000000000000000000000000000000000000000000000000000000000000000000000000000000000000000000000000000000000000000000000000000000000000000000000000000000000000000000000000
310
00000000000000000000000000000000000000000000000000000000000000000000000000000000000000000000000000000000000000000000000000000000000000000000000000000000000000000000000000000000000000000000000000000000000000000000000000000000000000000000000000000000000000
310
00000000000000000000000000000000000000000000000000000000000000000000000000000000000000000000000000000000000000000000000000000000000000000000000000000000000000000000000000000000000000000000000000000000000000000000000000000000000000000000000000000000000000
310
00000000000000000000000000000000000000000000000000000000000000000000000000000000000000000000000000000000000000000000000000000000000000000000000000000000000000000000000000000000000000000000000000000000000000000000000000000000000000000000000000000000000000
310
00000000000000000000000000000000000000000000000000000000000000000000000000000000000000000000000000000000000000000000000000000000000000000000000000000000000000000000000000000000000000000000000000000000000000000000000000000000000000000000000000000000000000
310
00000000000000000000000000000000000000000000000000000000000000000000000000000000000000000000000000000000000000000000000000000000000000000000000000000000000000000000000000000000000000000000000000000000000000000000000000000000000000000000000000000000000000
310
00000000000000000000000000000000000000000000000000000000000000000000000000000000000000000000000000000000000000000000000000000000000000000000000000000000000000000000000000000000000000000000000000000000000000000000000000000000000000000000000000000000000000
310
00000000000000000000000000000000000000000000000000000000000000000000000000000000000000000000000000000000000000000000000000000000000000000000000000000000000000000000000000000000000000000000000000000000000000000000000000000000000000000000000000000000000000
310
00000000000000000000000000000000000000000000000000000000000000000000000000000000000000000000000000000000000000000000000000000000000000000000000000000000000000000000000000000000000000000000000000000000000000000000000000000000000000000000000000000000000000
310
00000000000000000000000000000000000000000000000000000000000000000000000000000000000000000000000000000000000000000000000000000000000000000000000000000000000000000000000000000000000000000000000000000000000000000000000000000000000000000000000000000000000000
310
00000000000000000000000000000000000000000000000000000000000000000000000000000000000000000000000000000000000000000000000000000000000000000000000000000000000000000000000000000000000000000000000000000000000000000000000000000000000000000000000000000000000000
310
00000000000000000000000000000000000000000000000000000000000000000000000000000000000000000000000000000000000000000000000000000000000000000000000000000000000000000000000000000000000000000000000000000000000000000000000000000000000000000000000000000000000000
310
00000000000000000000000000000000000000000000000000000000000000000000000000000000000000000000000000000000000000000000000000000000000000000000000000000000000000000000000000000000000000000000000000000000000000000000000000000000000000000000000000000000000000
310
00000000000000000000000000000000000000000000000000000000000000000000000000000000000000000000000000000000000000000000000000000000000000000000000000000000000000000000000000000000000000000000000000000000000000000000000000000000000000000000000000000000000000
310
00000000000000000000000000000000000000000000000000000000000000000000000000000000000000000000000000000000000000000000000000000000000000000000000000000000000000000000000000000000000000000000000000000000000000000000000000000000000000000000000000000000000000
310
00000000000000000000000000000000000000000000000000000000000000000000000000000000000000000000000000000000000000000000000000000000000000000000000000000000000000000000000000000000000000000000000000000000000000000000000000000000000000000000000000000000000000
310
00000000000000000000000000000000000000000000000000000000000000000000000000000000000000000000000000000000000000000000000000000000000000000000000000000000000000000000000000000000000000000000000000000000000000000000000000000000000000000000000000000000000000
310
00000000000000000000000000000000000000000000000000000000000000000000000000000000000000000000000000000000000000000000000000000000000000000000000000000000000000000000000000000000000000000000000000000000000000000000000000000000000000000000000000000000000000
310
00000000000000000000000000000000000000000000000000000000000000000000000000000000000000000000000000000000000000000000000000000000000000000000000000000000000000000000000000000000000000000000000000000000000000000000000000000000000707070707070707070707070707
310
07070707070707070707070707070707070707070707070707070707070707070707070707070707070707070707070707070707070707070707070707070707070707000000000000000000000000000000000000000000000000000000000000000000000000000000000000000000000007000000000000000000000000
310
000000000000000000000000000000000000000000000000000000000000000000000000000000000000000000000000000000000000000000000000000000000000000700000000000000000000000000000000000000000000000000000000000000000000000000000000000000000000000700FBFBFBFBFBFBFBFBFBFB
310
FBFBFBFBFBFBFBFBFBFBFBFBFBFBFBFBFBFBFBFBFBFBFBFBFBFBFBFBFBFBFBFBFBFBFBFBFBFBFBFBFBFBFBFBFBFBFBFBFBFBFBFBFBFBFBFBFBFBFBFBFBFBFBFBFBFB07000700000000000000000000000000000000000000000000000000000000000000000000000000000000000000000000000700FBFCFCFCFCFCFCFCFC
310
FCFCFCFCFCFCFCFCFCFCFBFCFCFCFCFCFC000101010000FC0100000000FCFCFCFCFCFCFC00FCFCFCFCFCFCFCFCFCFCFC000000000000000000000000000000000000FB07000700000000000000000000000000000000000000000000000000000000000000000000000000000000000000000000000700FB00000000000000
310
0000000000000000000000FBFCFCFCFCFCFC000101010000010101010101FDFDFDFDFDFDFDFDFDFD00FDFDFD00FDFDFDFDFCFCFCFCFCFC010001010101010100000000FB07000700000000000000000000000000000000000000000000000000000000000000000000000000000000000000000000000700FBFCFCFCFCFCFC
310
FCFCFCFCFCFCFCFCFCFCFCFCFB00FCFCFCFCFCFCFCFCFCFC00FCFCFCFC0000FBFDFDFDFDFDFDFDFDFDFDFDFDFDFDFDFDFDFBFCFCFCFC0000000101000000000000000000FB07000700000000000000000000000000000000000000000000000000000000000000000000000000000000000000000000000700FBFCFCFCFCFC
310
FCFCFCFCFCFCFCFCFCFCFCFCFCFCFCFCFCFCFCFCFCFCFCFCFCFCFCFCFCFCFCFCFBFBFBFBFBFBFBFBFBFBFBFBFBFBFBFBFBFBFCFCFCFCFCFCFCFCFCFCFCFCFCFCFCFCFCFCFCFB00000700000000000000000000000000000000000000000000000000000000000000000000000000000000000000000000000700FBFCFCFCFC
310
FCFCFCFCFCFCFCFCFCFCFCFCFCFCFB0000000000FC000000000000FC010101010001010101010101010101010101010101010101010101000101010101010101010101010100FB00000700000000000000000000000000000000000000000000000000000000000000000000000000000000000000000000000700FB000000
310
000000000000000000000000000000FB0000000000FC000000000000FC0101010100FCFCFCFCFCFCFCFCFCFCFCFCFCFCFCFCFCFCFB010101010101010101000000010101010100FB00000700000000000000000000000000000000000000000000000000000000000000000000000000000000000000000000000700FBFCFC
310
FCFCFCFCFCFCFCFCFCFCFCFCFCFCFCFCFCFCFCFCFCFCFCFCFCFCFCFCFCFCFCFCFCFC0001010101010101010101010101010101010101FCFCFCFCFCFC000000000000000000000000FB00000700000000000000000000000000000000000000000000000000000000000000000000000000000000000000000000000700FBFC
310
FCFCFCFCFBFBFCFCFCFCFBFBFBFBFBFBFBFBFCFCFCFCFCFCFCFCFCFBFCFCFCFCFCFCFCFBFBFBFBFBFBFBFBFBFBFBFBFBFBFBFBFBFBFBFBFCFCFCFCFBFBFBFBFBFBFBFBFBFBFBFBFBFBFB07000700000000000000000000000000000000000000000000000000000000000000000000000000000000000000000000000700FB
310
0000000000000000000000000000000000000000000000000000000000000000000000000000000000000000000000000000000000000000000000000000000000000000010101000000FB07000700000000000000000000000000000000000000000000000000000000000000000000000000000000000000000000000700
310
FB0000000000000000000000000000000000000000000000000000000000000000000000000000000000000000000000000000000000000000000000000000000000000000010101000000FB070007000000000000000000000000000000000000000000000000000000000000000000000000000000000000000000000007
310
00FB0000000000000000000000000000000000000000000000000000000000000101010101010000000000000000000000000000000000000000000000000000000000000000000000000000FB0000070000000000000000000000000000000000000000000000000000000000000000000000000000000000000000000000
310
0700FB0000000000000000000000000000000000000000000000000000000000000101000000000101010101010000000000000000000000000000000000000000000000000000000000000000FB00000700000000000000000000000000000000000000000000000000000000000000000000000000000000000000000000
310
000700FB0000000000000000000000000000000000000000000000000000000000000100000000000001010100010101010000000000000000000000000000000000000000000000000000000000FB000007000000000000000000000000000000000000000000000000000000000000000000000000000000000000000000
310
00000700FB0000000000000000000000000000000000000000000000000000000000000100000000000000000001010101000101010000000000000000000000000000000000000000000000000000FB0000070000000000000000000000000000000000000000000000000000000000000000000000000000000000000000
310
0000000700FB0000000000000000000000000000000000000000000000000000000000000100000000000000000000000000000000000101010000000000000000000000000000000000000000000000FB07000700000000000000000000000000000000000000000000000000000000000000000000000000000000000000
310
000000000700FB0000000000000000000000000000000000000000000000000000000000000100000000000000000000000000000000000000010000000000000000000000000000000000000000000000FB070007000000000000000000000000000000000000000000000000000000000000000000000000000000000000
310
00000000000700FB0000000000000000000000000000000000000000000000000000000000000100000000010101000000000000000000000001000000000000000000000000000000000000000000000000FB0700070000000000000000000000000000000000000000000000000000000000000000000000000000000000
310
0000000000000700FB0000000000000000000000000000000000000000000000000000000000000100000001000000010100000000000000000001000000000000000000000000000000000000000000000000FB00000700000000000000000000000000000000000000000000000000000000000000000000000000000000
310
000000000000000700FB0000000000000001010101010101010101010101010101010101010101010101010107070000000001010100000000000100000000000000000000000000000000000000000000000000FB000007000000000000000000000000000000000000000000000000000000000000000000000000000000
310
00000000000000000700FB0000000000000001000000000000000000000000000000000000000000000100000007000707070000000001010100000100000000000000000000000000000000000000000000000000FB0000070000000000000000000000000000000000000000000000000000000000000000000000000000
310
0000000000000000000700FB0000000000000001000000000000000000000000000000000000000000000100000700000000000707070000000001010400000000000000000000000000000000000000000000000000FB00000700000000000000000000000000000000000000000000000000000000000000000000000000
310
000000000000000000000700FB0000000000000001000000000000000000000000000000000000000000000100000707000000000000000707070000000101010000000000000000000000000000000000000000000000FB070007000000000000000000000000000000000000000000000000000000000000000000000000
310
00000000000000000000000700FB0000000000000001000000000000000000000000000000000000000000000100000007070707000000000000000707040100010101010000000000000000000000000000000000000000FB0700070000000000000000000000000000000000000000000000000000000000000000000000
310
0000000000000000000000000700FB0000000000000001000000000000000000000000000000000000000000000100000000000700070707000000000000070707010000000101000000000000000000000000000000000000FB07000700000000000000000000000000000000000000000000000000000000000000000000
310
000000000000000000000000000700FB0000000000000001000000000000000000000000000000000000000000000100000000070007070000070707000000040000010101010000010101000000000000000000000000000000FB000007000000000000000000000000000000000000000000000000000000000000000000
310
00000000000000000000000000000700FB0000000000000001000000000000000000000000000000000000000000000100000007000000000707070000070704000000000001010101000000010101000000000000000000000000FB0000070000000000000000000000000000000000000000000000000000000000000000
310
0000000000000000000000000000000700FB0000000000000001000000000000000000000000000000000000000000000100000007000000000000000707070007070700000000000001010101000100000000000000000000000000FB00000700000000000000000000000000000000000000000000000000000000000000
310
000000000000000000000000000000000700FB0000000000000001000000000000000000000000000000000000000000000100000700000000000000000000000707000007070700000000000001010101000000000000000000000000FB000007000000000000000000000000000000000000000000000000000000000000
310
00000000000000000000000000000000000700FB0000000000000001000000000000000000000000000000000000000000000100000707070000000000000000000000070707000007070700000000000701010101000000000000000000FB0700070000000000000000000000000000000000000000000000000000000000
310
0000000000000000000000000000000000000700FB0000000000000001000000000000000000000000000000000000000000000100000000070707070000000000000400000000070707000007070700070000010000010100000000000000FB07000700000000000000000000000000000000000000000000000000000000
310
000000000000000000000000000000000000000700FB0000000000000001000000000000000000000000000000000000000000000100000000000000060707000000040000000000000000070700000007070000010000000100000000000000FB070007000000000000000000000000000000000000000000000000000000
310
00000000000000000000000000000000000000000700FB0000000000000001000000000000000000000000000000000000000000000100000000000000000006070707040000000000000000000007070700000001000000000100000000000000FB0000070000000000000000000000000000000000000000000000000000
310
0000000000000000000000000000000000000000000700FB0000000000000001000000000000000000000000000000000000000000000100000000000000000000000706070707000000000000000007000000000001010000000100000000000000FB00000700000000000000000000000000000000000000000000000000
310
000000000000000000000000000000000000000000000700FB0000000000000001000000000000000000000000000000000000000000000100000000000000000000070707000606070700000000000007000000000101010000010000000000000000FB000007000000000000000000000000000000000000000000000000
310
00000000000000000000000000000000000000000000000700FB0000000000000001000000000000000000000000000000000000000000000100000000000000000000070707070707000601010700000700000000000100000000010000000000000000FB0000070000000000000000000000000000000000000000000000
310
0000000000000000000000000000000000000000000000000700FB0000000000000001000000000000000000000000000000000000000000000100000000000000000007000407070707070600000101070700000000010000000000010000000000000000FB07000700000000000000000000000000000000000000000000
310
000000000000000000000000000000000000000000000000000700FB0000000000000001000000000000000000000000000000000000000000000100000000000000000007060400000700000000000000010101000000010000000001000000000000000000FB070007000000000000000000000000000000000000000000
310
00000000000000000000000000000000000000000000000000000700FB0000000000000001000000000000000000000000000000000000000000000100000000000000000706060707060000000000000000000000010100010000000001000000000000000000FB0700070000000000000000000000000000000000000000
310
0000000000000000000000000000000000000000000000000000000700FB0000000000000001000000000000000000000000000000000000000000000100000000000000000606060606070000000000000000000000000001010000000100000000000000000000FB00000700000000000000000000000000000000000000
310
000000000000000000000000000000000000000000000000000000000700FB0000000000000001000000000000000000000000000000000000000000000100000000000000070707070707000000000000000000000000000000000000000100000000000000000000FB000007000000000000000000000000000000000000
310
00000000000000000000000000000000000000000000000000000000000700FB0000000000000001000000000000000000000000000000000000000000000400000000000007070707070707000000000000000000000000000000000000000100000000000000000000FB0000070000000000000000000000000000000000
310
0000000000000000000000000000000000000000000000000000000000000700FB0000000000000001000000000000000000000000000000000000000000000400000000000007070607060707070000000000000000000000000000000000010000000000000000000000FB00000700000000000000000000000000000000
310
000000000000000000000000000000000000000000000000000000000000000700FB0000000000000001000000000000000000000000000000000000000000000400000000000007070607060707000000000000000000000000000000000000010000000000000000000000FB070007000000000000000000000000000000
310
00000000000000000000000000000000000000000000000000000000000000000700FB0000000000000001000000000000000000000000000000000000000000000400000000000007060706070707000000000000000000000000000000000000010000000000000000000000FB0700070000000000000000000000000000
310
0000000000000000000000000000000000000000000000000000000000000000000700FB0000000000000001000000000000000000000000000000000000000000000000000000000000070101070700000000000000000000000000000000000001000000000000000000000000FB07000700000000000000000000000000
310
000000000000000000000000000000000000000000000000000000000000000000000700FB0000000000000001000000000000000000000000000000000000000000000400000000000000070407010100000000000000000000000000000000000001000000000000000000000000FB070007000000000000000000000000
310
00000000000000000000000000000000000000000000000000000000000000000000000700FB0000000000000001000000000000000000000000000000000000000000000400000000000007040000070001010100000000000000000000000000000001000000000000000000000000FB0000070000000000000000000000
310
0000000000000000000000000000000000000000000000000000000000000000000000000700FB0000000000000001000000000000000000000000000000000000000000000400000000000007040007000000000001010100000000000000000000000100000000000000000000000000FB00000700000000000000000000
310
000000000000000000000000000000000000000000000000000000000000000000000000000700FB0000000000000001000000000000000000000000000000000000000000000400000000000007000007000000000000000001010000000000000000000100000000000000000000000000FB000007000000000000000000
310
00000000000000000000000000000000000000000000000000000000000000000000000000000700FB0000000000000001000000000000000000000000000000000000000000000000000000000700040700000000000000000000000101000000000000010000000000000000000000000000FB0700070000000000000000
310
0000000000000000000000000000000000000000000000000000000000000000000000000000000700FB0000000000000001000000000000000000000000000000000000000000000400000000000704000700000000000000000000000101000000000000010000000000000000000000000000FB07000700000000000000
310
000000000000000000000000000000000000000000000000000000000000000000000000000000000700FB0000000000000001000000000000000000000000000000000000000000000400000000070004000700000000000000000000000100000000000000010000000000000000000000000000FB070007000000000000
310
00000000000000000000000000000000000000000000000000000000000000000000000000000000000700FB0000000000000001000000000000000000000000000000000000000000000400000000070400070000000000000000000000010000000000000001000000000000000000000000000000FB0700070000000000
310
0000000000000000000000000000000000000000000000000000000000000000000000000000000000000700FB0000000000000001000000000000000000000000000000000000000000000000000000070000070000000000000000000000010000000000000001000000000000000000000000000000FB00000700000000
310
000000000000000000000000000000000000000000000000000000000000000000000000000000000000000700FB0000000000000001000000000000000000000000000000000000000000000400000007000400070000000000000000000000010000000000000001000000000000000000000000000000FB000007000000
310
00000000000000000000000000000000000000000000000000000000000000000000000000000000000000000700FB0000000000000001000000000000000000000000000000000000000000000400000007040007000000000000000000000001000000000000000100000000000000000000000000000000FB0000070000
310
0000000000000000000000000000000000000000000000000000000000000000000000000000000000000000000700FB0000000000000001000000000000000000000000000000000000000000000400000007040007000000000000000000000001000000000000000100000000000000000000000000000000FB07000700
310
000000000000000000000000000000000000000000000000000000000000000000000000000000000000000000000700FB0000000000000001000000000000000000000000000000000000000000000400000701000700000000000000000000000001000000000000000100000000000000000000000000000000FB070007
310
00000000000000000000000000000000000000000000000000000000000000000000000000000000000000000000000700FB0000000000000101000000000000000000000000000000000000000000000400000700010701000000000000000000000100000000000000010000000000000000000000000000000000FB0700
310
0700000000000000000000000000000000000000000000000000000000000000000000000000000000000000000000000700FB0000000000000101000000000000000000000000000000000000000000000400000704000701010101000000000000000100000000000000010000000000000000000000000000000000FB07
310
000700000000000000000000000000000000000000000000000000000000000000000000000000000000000000000000000700FB0000000000000101000000000000000000000000010101010101000000000000070400070000000100000000000000010101000000000001000000000000000000000000000000000000FB
310
00000700000000000000000000000000000000000000000000000000000000000000000000000000000000000000000000000700FB0000000000000101000000000000000000010101010101010101000000000400070400070000000000000000000000010101000000000001000000000000000000000000000000000000
310
FB00000700000000000000000000000000000000000000000000000000000000000000000000000000000000000000000000000700FB00000000000000010000000000000000000101010001000100000100000004070004000700000000000000000000000101010000000000010000000000000000000000000000000000
310
00FB00000700000000000000000000000000000000000000000000000000000000000000000000000000000000000000000000000700FB000000000000000100000000000000000000000000000000000001000000040700000700000000000000000000000100000000000000010000000000000000000000000000000000
310
0000FB07000700000000000000000000000000000000000000000000000000000000000000000000000000000000000000000000000700FB0000000000000001000000000000000000000000000000000000000100000407040007000000000000000000000001010100000000000100000000000000000000000000000000
310
000000FB07000700000000000000000000000000000000000000000000000000000000000000000000000000000000000000000000000700FB00000000000000010000000000000000000000000000000000000101000007040007000000000000000000000000010100000000000101000000000000000000000000000000
310
00000000FB07000700000000000000000000000000000000000000000000000000000000000000000000000000000000000000000000000700FB000000000000000100000000000000000000000000000007070707010707040707070707070700000000000000010101000000000001000000000000000000000000000000
310
0000000000FB07000700000000000000000000000000000000000000000000000000000000000000000000000000000000000000000000000700FB0000000000000001000000000000000000000000000000070704000000070407070000000407000000000000000101000000000000010100000000000000000000000000
310
000000000000FB00000700000000000000000000000000000000000000000000000000000000000000000000000000000000000000000000000700FB00000000000000010000000000000000000000000000000707040707070701070707070704000000000000000001010000000000000101000000000000000000000000
310
00000000000000FB00000700000000000000000000000000000000000000000000000000000000000000000000000000000000000000000000000700FB000000000000000100000000000000000000000000000000000000000707070707070000000000000000000001010100000000000100000000000000000000000000
310
0000000000000000FB00000700000000000000000000000000000000000000000000000000000000000000000000000000000000000000000000000700FB0000000000000001000000000000000000000000000000000000000007000707070000000000000000000000010100000000000001000000000000000000000000
310
000000000000000000FB07000700000000000000000000000000000000000000000000000000000000000000000000000000000000000000000000000700FB00000000000000010000000000000000000000000000000000000007000400070000000000000000000000000101000000000000010000000000000000000000
310
00000000000000000000FB07000700000000000000000000000000000000000000000000000000000000000000000000000000000000000000000000000700FB000000000000000100000000000000000000000000000000000000070004070000000000000000000000000101010000000000010000000000000000000000
310
0000000000000000000000FB07000700000000000000000000000000000000000000000000000000000000000000000000000000000000000000000000000700FB0000000000000001000000000000000000000000000000000000000700000700000000000000000000000001010100000000000100000000000000000000
310
000000000000000000000000FB07000700000000000000000000000000000000000000000000000000000000000000000000000000000000000000000000000700FB00000000000000010000000000000000000000000000000000000700000407000000000000000000000000010100000000000100000000000000000000
310
00000000000000000000000000FB00000700000000000000000000000000000000000000000000000000000000000000000000000000000000000000000000000700FB000000000000000100000001010101010100000000000000000007000407000000000000000000000000010100000000000001000000000000000000
310
0000000000000000000000000000FB00000700000000000000000000000000000000000000000000000000000000000000000000000000000000000000000000000700FB0000000000000001000000000101010101000000000000000007000004070000000000000000000000000101010000000000010000000000000000
310
000000000000000000000000000000FB00000700000000000000000000000000000000000000000000000000000000000000000000000000000000000000000000000700FB00000000000000010000000000000000000100000000000000070004070000000000000000000000000001010000000000010000000000000000
310
00000000000000000000000000000000FB07000700000000000000000000000000000000000000000000000000000000000000000000000000000000000000000000000700FB000000000000000100000000000000000001000000000000000700000700000000000000000000000001010000000000000100000000000000
310
0000000000000000000000000000000000FB07000700000000000000000000000000000000000000000000000000000000000000000000000000000000000000000000000700FB0000000000000001000000010101010100010000000000000700000407000000000000000000000000010000000000000001000000000000
310
000000000000000000000000000000000000FB07000700000000000000000000000000000000000000000000000000000000000000000000000000000000000000000000000700FB00000000000000010000000100010101000100000000000007000407000000000000000000000000010000000000000001000000000000
310
00000000000000000000000000000000000000FB07000700000000000000000000000000000000000000000000000000000000000000000000000000000000000000000000000700FB000000000000000100010101010101010000010000000000070004070000000000000000000000000100000000000000010000000000
310
0000000000000000000000000000000000000000FB00000700000000000000000000000000000000000000000000000000000000000000000000000000000000000000000000000700FB0000000000000001000000010000000001000100000000070004000700000000000000000000000001000000000000000100000000
310
000000000000000000000000000000000000000000FB00000700000000000000000000000000000000000000000000000000000000000000000000000000000000000000000000000700FB00000000000000010000000000000000010001000000060700000700000000000000000000000001000000000000000100000000
310
00000000000000000000000000000000000000000000FB00000700000000000000000000000000000000000000000000000000000000000000000000000000000000000000000000000700FB000000000000000100000000000000010100000100070707060101000000000000000000000000010000000000000001000000
310
0000000000000000000000000000000000000000000000FB07000700000000000000000000000000000000000000000000000000000000000000000000000000000000000000000000000700FB0000000000000001000000000000000701070701070700070706060101000000000000000000000100000000000001000000
310
000000000000000000000000000000000000000000000000FB07000700000000000000000000000000000000000000000000000000000000000000000000000000000000000000000000000700FB00000000000000010000000000000007060601010706070704000707000101000000000000000100000000000000010000
310
00000000000000000000000000000000000000000000000000FB07000700000000000000000000000000000000000000000000000000000000000000000000000000000000000000000000000700FB000000000000000100000000000000070607070107060004070707070000000101010000000100000000000000000100
310
0000000000000000000000000000000000000000000000000000FB07000700000000000000000000000000000000000000000000000000000000000000000000000000000000000000000000000700FB0000000000000001000000000000000607070700060000000000000707000000000001010001000000000000000100
310
000000000000000000000000000000000000000000000000000000FB00000700000000000000000000000000000000000000000000000000000000000000000000000000000000000000000000000700FB00000000000000010000000000000000070606070600000400000000000000000000000001010000000000000000
310
00000000000000000000000000000000000000000000000000000000FB0000070000000000000000000000000000000000
  0
ENDSEC
  0
EOF
