  0
SECTION
  2
HEADER
  9
$ACADVER
  1
AC1018
  9
$ACADMAINTVER
 70
     0
  9
$DWGCODEPAGE
  3
ANSI_932
  9
$LASTSAVEDBY
  1
y-ohno
  9
$INSBASE
 10
0.0
 20
0.0
 30
0.0
  9
$EXTMIN
 10
356.006889840777
 20
-81.085767062822
 30
0.0
  9
$EXTMAX
 10
605.223739987086
 20
362.045483062957
 30
0.0
  9
$LIMMIN
 10
-360.747566795242
 20
4.457354754526
  9
$LIMMAX
 10
-162.153696144267
 20
287.675440264018
  9
$ORTHOMODE
 70
     0
  9
$REGENMODE
 70
     1
  9
$FILLMODE
 70
     1
  9
$QTEXTMODE
 70
     0
  9
$MIRRTEXT
 70
     1
  9
$LTSCALE
 40
1.0
  9
$ATTMODE
 70
     1
  9
$TEXTSIZE
 40
2.333873885063
  9
$TRACEWID
 40
1.0
  9
$TEXTSTYLE
  7
STANDARD
  9
$CLAYER
  8
寸法線
  9
$CELTYPE
  6
BYLAYER
  9
$CECOLOR
 62
   256
  9
$CELTSCALE
 40
10.0
  9
$DISPSILH
 70
     0
  9
$DIMSCALE
 40
1.0
  9
$DIMASZ
 40
4.3
  9
$DIMEXO
 40
0.625
  9
$DIMDLI
 40
3.75
  9
$DIMRND
 40
0.0
  9
$DIMDLE
 40
0.0
  9
$DIMEXE
 40
1.25
  9
$DIMTP
 40
0.1
  9
$DIMTM
 40
0.1
  9
$DIMTXT
 40
3.6
  9
$DIMCEN
 40
2.5
  9
$DIMTSZ
 40
0.0
  9
$DIMTOL
 70
     0
  9
$DIMLIM
 70
     0
  9
$DIMTIH
 70
     0
  9
$DIMTOH
 70
     0
  9
$DIMSE1
 70
     0
  9
$DIMSE2
 70
     0
  9
$DIMTAD
 70
     1
  9
$DIMZIN
 70
     8
  9
$DIMBLK
  1
Open30
  9
$DIMASO
 70
     1
  9
$DIMSHO
 70
     1
  9
$DIMPOST
  1

  9
$DIMAPOST
  1

  9
$DIMALT
 70
     0
  9
$DIMALTD
 70
     2
  9
$DIMALTF
 40
0.0394
  9
$DIMLFAC
 40
1.0
  9
$DIMTOFL
 70
     1
  9
$DIMTVP
 40
1.0
  9
$DIMTIX
 70
     0
  9
$DIMSOXD
 70
     0
  9
$DIMSAH
 70
     0
  9
$DIMBLK1
  1

  9
$DIMBLK2
  1

  9
$DIMSTYLE
  2
ISO-25
  9
$DIMCLRD
 70
     0
  9
$DIMCLRE
 70
     0
  9
$DIMCLRT
 70
     0
  9
$DIMTFAC
 40
1.0
  9
$DIMGAP
 40
0.625
  9
$DIMJUST
 70
     0
  9
$DIMSD1
 70
     0
  9
$DIMSD2
 70
     0
  9
$DIMTOLJ
 70
     1
  9
$DIMTZIN
 70
     0
  9
$DIMALTZ
 70
     0
  9
$DIMALTTZ
 70
     0
  9
$DIMUPT
 70
     0
  9
$DIMDEC
 70
     1
  9
$DIMTDEC
 70
     1
  9
$DIMALTU
 70
     2
  9
$DIMALTTD
 70
     2
  9
$DIMTXSTY
  7
STANDARD
  9
$DIMAUNIT
 70
     0
  9
$DIMADEC
 70
     0
  9
$DIMALTRND
 40
0.0
  9
$DIMAZIN
 70
     0
  9
$DIMDSEP
 70
    46
  9
$DIMATFIT
 70
     3
  9
$DIMFRAC
 70
     0
  9
$DIMLDRBLK
  1
Open30
  9
$DIMLUNIT
 70
     2
  9
$DIMLWD
 70
    -2
  9
$DIMLWE
 70
    -2
  9
$DIMTMOVE
 70
     0
  9
$LUNITS
 70
     2
  9
$LUPREC
 70
     4
  9
$SKETCHINC
 40
1.0
  9
$FILLETRAD
 40
6.5
  9
$AUNITS
 70
     0
  9
$AUPREC
 70
     0
  9
$MENU
  1
.
  9
$ELEVATION
 40
0.0
  9
$PELEVATION
 40
0.0
  9
$THICKNESS
 40
0.0
  9
$LIMCHECK
 70
     0
  9
$CHAMFERA
 40
10.0
  9
$CHAMFERB
 40
10.0
  9
$CHAMFERC
 40
20.0
  9
$CHAMFERD
 40
0.0
  9
$SKPOLY
 70
     0
  9
$TDCREATE
 40
2450576.597302431
  9
$TDUCREATE
 40
2450576.222302431
  9
$TDUPDATE
 40
2457529.563862049
  9
$TDUUPDATE
 40
2457529.188862049
  9
$TDINDWG
 40
1.0495314468
  9
$TDUSRTIMER
 40
1.0495314468
  9
$USRTIMER
 70
     1
  9
$ANGBASE
 50
0.0
  9
$ANGDIR
 70
     0
  9
$PDMODE
 70
     0
  9
$PDSIZE
 40
0.0
  9
$PLINEWID
 40
0.0
  9
$SPLFRAME
 70
     0
  9
$SPLINETYPE
 70
     6
  9
$SPLINESEGS
 70
     8
  9
$HANDSEED
  5
3EC0
  9
$SURFTAB1
 70
     6
  9
$SURFTAB2
 70
     6
  9
$SURFTYPE
 70
     6
  9
$SURFU
 70
     6
  9
$SURFV
 70
     6
  9
$UCSBASE
  2

  9
$UCSNAME
  2

  9
$UCSORG
 10
0.0
 20
0.0
 30
0.0
  9
$UCSXDIR
 10
1.0
 20
0.0
 30
0.0
  9
$UCSYDIR
 10
0.0
 20
1.0
 30
0.0
  9
$UCSORTHOREF
  2

  9
$UCSORTHOVIEW
 70
     0
  9
$UCSORGTOP
 10
0.0
 20
0.0
 30
0.0
  9
$UCSORGBOTTOM
 10
0.0
 20
0.0
 30
0.0
  9
$UCSORGLEFT
 10
0.0
 20
0.0
 30
0.0
  9
$UCSORGRIGHT
 10
0.0
 20
0.0
 30
0.0
  9
$UCSORGFRONT
 10
0.0
 20
0.0
 30
0.0
  9
$UCSORGBACK
 10
0.0
 20
0.0
 30
0.0
  9
$PUCSBASE
  2

  9
$PUCSNAME
  2

  9
$PUCSORG
 10
0.0
 20
0.0
 30
0.0
  9
$PUCSXDIR
 10
1.0
 20
0.0
 30
0.0
  9
$PUCSYDIR
 10
0.0
 20
1.0
 30
0.0
  9
$PUCSORTHOREF
  2

  9
$PUCSORTHOVIEW
 70
     0
  9
$PUCSORGTOP
 10
0.0
 20
0.0
 30
0.0
  9
$PUCSORGBOTTOM
 10
0.0
 20
0.0
 30
0.0
  9
$PUCSORGLEFT
 10
0.0
 20
0.0
 30
0.0
  9
$PUCSORGRIGHT
 10
0.0
 20
0.0
 30
0.0
  9
$PUCSORGFRONT
 10
0.0
 20
0.0
 30
0.0
  9
$PUCSORGBACK
 10
0.0
 20
0.0
 30
0.0
  9
$USERI1
 70
     0
  9
$USERI2
 70
     0
  9
$USERI3
 70
     0
  9
$USERI4
 70
     0
  9
$USERI5
 70
     0
  9
$USERR1
 40
0.0
  9
$USERR2
 40
0.0
  9
$USERR3
 40
0.0
  9
$USERR4
 40
0.0
  9
$USERR5
 40
0.0
  9
$WORLDVIEW
 70
     1
  9
$SHADEDGE
 70
     3
  9
$SHADEDIF
 70
    70
  9
$TILEMODE
 70
     0
  9
$MAXACTVP
 70
    16
  9
$PINSBASE
 10
0.0
 20
0.0
 30
0.0
  9
$PLIMCHECK
 70
     0
  9
$PEXTMIN
 10
7.843451901197
 20
2.161110131738
 30
0.0
  9
$PEXTMAX
 10
197.847066687274
 20
282.160335911262
 30
0.0
  9
$PLIMMIN
 10
-4.857749938965
 20
-4.900062561035
  9
$PLIMMAX
 10
205.115577697754
 20
292.068260192871
  9
$UNITMODE
 70
     0
  9
$VISRETAIN
 70
     0
  9
$PLINEGEN
 70
     0
  9
$PSLTSCALE
 70
     1
  9
$TREEDEPTH
 70
  3020
  9
$CMLSTYLE
  2
STANDARD
  9
$CMLJUST
 70
     0
  9
$CMLSCALE
 40
1.0
  9
$PROXYGRAPHICS
 70
     1
  9
$MEASUREMENT
 70
     1
  9
$CELWEIGHT
370
    -1
  9
$ENDCAPS
280
     0
  9
$JOINSTYLE
280
     0
  9
$LWDISPLAY
290
     0
  9
$INSUNITS
 70
     0
  9
$HYPERLINKBASE
  1

  9
$STYLESHEET
  1

  9
$XEDIT
290
     1
  9
$CEPSNTYPE
380
     0
  9
$PSTYLEMODE
290
     1
  9
$FINGERPRINTGUID
  2
{23698909-1D67-4744-B0E2-8DE11E3ED422}
  9
$VERSIONGUID
  2
{629E2679-BA7A-43D8-B834-9912A204DEE2}
  9
$EXTNAMES
290
     1
  9
$PSVPSCALE
 40
0.25
  9
$OLESTARTUP
290
     0
  9
$SORTENTS
280
   127
  9
$INDEXCTL
280
     0
  9
$HIDETEXT
280
     0
  9
$XCLIPFRAME
290
     0
  9
$HALOGAP
280
     0
  9
$OBSCOLOR
 70
   257
  9
$OBSLTYPE
280
     0
  9
$INTERSECTIONDISPLAY
280
     0
  9
$INTERSECTIONCOLOR
 70
   257
  9
$DIMASSOC
280
     1
  9
$PROJECTNAME
  1

  0
ENDSEC
  0
SECTION
  2
CLASSES
  0
CLASS
  1
ACDBDICTIONARYWDFLT
  2
AcDbDictionaryWithDefault
  3
ObjectDBX Classes
 90
        0
 91
        6
280
     0
281
     0
  0
CLASS
  1
ACDBPLACEHOLDER
  2
AcDbPlaceHolder
  3
ObjectDBX Classes
 90
        0
 91
        1
280
     0
281
     0
  0
CLASS
  1
LAYOUT
  2
AcDbLayout
  3
ObjectDBX Classes
 90
        0
 91
        1
280
     0
281
     0
  0
CLASS
  1
VISUALSTYLE
  2
AcDbVisualStyle
  3
ObjectDBX Classes
 90
     4095
 91
        6
280
     0
281
     0
  0
CLASS
  1
SCALE
  2
AcDbScale
  3
ObjectDBX Classes
 90
     1153
 91
        6
280
     0
281
     0
  0
CLASS
  1
MATERIAL
  2
AcDbMaterial
  3
ObjectDBX Classes
 90
     1153
 91
        6
280
     0
281
     0
  0
CLASS
  1
TABLESTYLE
  2
AcDbTableStyle
  3
ObjectDBX Classes
 90
     4095
 91
        6
280
     0
281
     0
  0
CLASS
  1
MLEADERSTYLE
  2
AcDbMLeaderStyle
  3
ACDB_MLEADERSTYLE_CLASS
 90
     4095
 91
        6
280
     0
281
     0
  0
CLASS
  1
SUN
  2
AcDbSun
  3
SCENEOE
 90
     1153
 91
        6
280
     0
281
     0
  0
CLASS
  1
DICTIONARYVAR
  2
AcDbDictionaryVar
  3
ObjectDBX Classes
 90
        0
 91
        5
280
     0
281
     0
  0
CLASS
  1
CELLSTYLEMAP
  2
AcDbCellStyleMap
  3
ObjectDBX Classes
 90
     1152
 91
        5
280
     0
281
     0
  0
ENDSEC
  0
SECTION
  2
TABLES
  0
TABLE
  2
VPORT
  5
8
102
{ACAD_XDICTIONARY
360
3E82
102
}
330
0
100
AcDbSymbolTable
 70
     2
  0
VPORT
  5
3CD6
330
8
100
AcDbSymbolTableRecord
100
AcDbViewportTableRecord
  2
*Active
 70
     0
 10
0.0
 20
0.0
 11
1.0
 21
1.0
 12
484.133251478375
 22
1.55390268878
 13
0.0
 23
0.0
 14
1.0
 24
1.0
 15
0.0
 25
0.0
 16
0.0
 26
0.0
 36
1.0
 17
0.0
 27
0.0
 37
0.0
 40
226.096584206976
 41
1.405303030303
 42
50.0
 43
0.0
 44
0.0
 50
0.0
 51
0.0
 71
    16
 72
   100
 73
     1
 74
     0
 75
     0
 76
     0
 77
     0
 78
     0
281
     0
 65
     1
110
0.0
120
0.0
130
0.0
111
1.0
121
0.0
131
0.0
112
0.0
122
1.0
132
0.0
 79
     0
146
0.0
  0
ENDTAB
  0
TABLE
  2
LTYPE
  5
5
330
0
100
AcDbSymbolTable
 70
     3
  0
LTYPE
  5
14
330
5
100
AcDbSymbolTableRecord
100
AcDbLinetypeTableRecord
  2
BYBLOCK
 70
     0
  3

 72
    65
 73
     0
 40
0.0
  0
LTYPE
  5
15
330
5
100
AcDbSymbolTableRecord
100
AcDbLinetypeTableRecord
  2
BYLAYER
 70
     0
  3

 72
    65
 73
     0
 40
0.0
  0
LTYPE
  5
16
330
5
100
AcDbSymbolTableRecord
100
AcDbLinetypeTableRecord
  2
CONTINUOUS
 70
     0
  3
Solid line
 72
    65
 73
     0
 40
0.0
  0
LTYPE
  5
1EC
330
5
100
AcDbSymbolTableRecord
100
AcDbLinetypeTableRecord
  2
CENTER
 70
     0
  3
____ _ ____ _ ____ _ ____ _ ____ _ ____ _ ____ 
 72
    65
 73
     4
 40
2.0
 49
1.25
 74
     0
 49
-0.25
 74
     0
 49
0.25
 74
     0
 49
-0.25
 74
     0
  0
LTYPE
  5
1ED
330
5
100
AcDbSymbolTableRecord
100
AcDbLinetypeTableRecord
  2
DASHED
 70
     0
  3
__ __ __ __ __ __ __ __ __ __ __ __ __ __ __ __
 72
    65
 73
     2
 40
0.75
 49
0.5
 74
     0
 49
-0.25
 74
     0
  0
ENDTAB
  0
TABLE
  2
LAYER
  5
2
102
{ACAD_XDICTIONARY
360
29EA
102
}
330
0
100
AcDbSymbolTable
 70
    12
  0
LAYER
  5
F
330
2
100
AcDbSymbolTableRecord
100
AcDbLayerTableRecord
  2
0
 70
     0
 62
     7
  6
CONTINUOUS
370
    -3
390
2815
  0
LAYER
  5
61
330
2
100
AcDbSymbolTableRecord
100
AcDbLayerTableRecord
  2
図枠太線
 70
     0
 62
   251
  6
CONTINUOUS
370
    -3
390
2815
  0
LAYER
  5
62
330
2
100
AcDbSymbolTableRecord
100
AcDbLayerTableRecord
  2
図枠細線
 70
     0
 62
   252
  6
CONTINUOUS
370
    -3
390
2815
  0
LAYER
  5
63
330
2
100
AcDbSymbolTableRecord
100
AcDbLayerTableRecord
  2
図枠ロゴマーク
 70
     0
 62
   253
  6
CONTINUOUS
370
    -3
390
2815
  0
LAYER
  5
1F4
330
2
100
AcDbSymbolTableRecord
100
AcDbLayerTableRecord
  2
DEFPOINTS
 70
     0
 62
     7
  6
CONTINUOUS
290
     0
370
    -3
390
2815
  0
LAYER
  5
2AA2
330
2
100
AcDbSymbolTableRecord
100
AcDbLayerTableRecord
  2
下書線
 70
     0
 62
     2
  6
CONTINUOUS
290
     0
370
    -3
390
2815
  0
LAYER
  5
2B1F
330
2
100
AcDbSymbolTableRecord
100
AcDbLayerTableRecord
  2
外形線
 70
     0
 62
     7
  6
CONTINUOUS
370
    -3
390
2815
  0
LAYER
  5
2B20
330
2
100
AcDbSymbolTableRecord
100
AcDbLayerTableRecord
  2
寸法線
 70
     0
 62
     1
  6
CONTINUOUS
370
    -3
390
2815
  0
LAYER
  5
2B21
330
2
100
AcDbSymbolTableRecord
100
AcDbLayerTableRecord
  2
中心線
 70
     0
 62
     4
  6
CENTER
370
    -3
390
2815
  0
LAYER
  5
2B22
330
2
100
AcDbSymbolTableRecord
100
AcDbLayerTableRecord
  2
隠れ線
 70
     0
 62
     3
  6
DASHED
370
    -3
390
2815
  0
LAYER
  5
2B23
330
2
100
AcDbSymbolTableRecord
100
AcDbLayerTableRecord
  2
細線
 70
     0
 62
     6
  6
CONTINUOUS
370
    -3
390
2815
  0
LAYER
  5
2B24
330
2
100
AcDbSymbolTableRecord
100
AcDbLayerTableRecord
  2
太線
 70
     0
 62
   190
  6
CONTINUOUS
370
    -3
390
2815
  0
ENDTAB
  0
TABLE
  2
STYLE
  5
3
330
0
100
AcDbSymbolTable
 70
     2
  0
STYLE
  5
10
330
3
100
AcDbSymbolTableRecord
100
AcDbTextStyleTableRecord
  2
STANDARD
 70
     0
 40
0.0
 41
1.0
 50
0.0
 71
     0
 42
2.333873885063
  3
ISOCP
  4
bigfont.shx
  0
STYLE
  5
64
330
3
100
AcDbSymbolTableRecord
100
AcDbTextStyleTableRecord
  2
EXCADSTD
 70
     0
 40
0.0
 41
1.0
 50
0.0
 71
     0
 42
0.2
  3
monotxt
  4
bigfont
  0
ENDTAB
  0
TABLE
  2
VIEW
  5
6
330
0
100
AcDbSymbolTable
 70
     0
  0
ENDTAB
  0
TABLE
  2
UCS
  5
7
330
0
100
AcDbSymbolTable
 70
     0
  0
ENDTAB
  0
TABLE
  2
APPID
  5
9
330
0
100
AcDbSymbolTable
 70
     3
  0
APPID
  5
11
330
9
100
AcDbSymbolTableRecord
100
AcDbRegAppTableRecord
  2
ACAD
 70
     0
  0
APPID
  5
3D1B
330
9
100
AcDbSymbolTableRecord
100
AcDbRegAppTableRecord
  2
AcadAnnotative
 70
     0
  0
APPID
  5
3DC3
330
9
100
AcDbSymbolTableRecord
100
AcDbRegAppTableRecord
  2
ACAD_MLEADERVER
 70
     0
  0
ENDTAB
  0
TABLE
  2
DIMSTYLE
  5
A
330
0
100
AcDbSymbolTable
 70
     5
100
AcDbDimStyleTable
  0
DIMSTYLE
105
1D
330
A
100
AcDbSymbolTableRecord
100
AcDbDimStyleTableRecord
  2
STANDARD
 70
     0
178
     0
340
10
  0
DIMSTYLE
105
24
102
{ACAD_REACTORS
330
3AD1
330
3AD8
330
3AFB
330
3AFC
330
3AFE
102
}
330
A
100
AcDbSymbolTableRecord
100
AcDbDimStyleTableRecord
  2
ISO-25
 70
     0
 41
2.5
 42
0.625
 43
3.75
 44
1.25
 74
     0
 77
     1
 78
     8
140
2.5
141
2.5
143
0.0394
145
1.0
147
0.625
172
     1
178
     0
340
10
  0
DIMSTYLE
105
38EC
330
A
100
AcDbSymbolTableRecord
100
AcDbDimStyleTableRecord
  2
文字5ｐｔ
 70
     0
 41
6.0
 42
0.625
 43
3.75
 44
1.25
 47
0.1
 48
0.1
 73
     0
 74
     0
 77
     1
 78
     8
140
5.0
141
2.5
143
0.0394
145
1.0
147
0.625
172
     1
178
     0
271
     1
272
     1
340
10
341
2AEB
342
2AEB
  0
DIMSTYLE
105
38ED
330
A
100
AcDbSymbolTableRecord
100
AcDbDimStyleTableRecord
  2
文字8ｐｔ
 70
     0
 41
6.0
 42
0.625
 43
3.75
 44
1.25
 47
0.1
 48
0.1
 73
     0
 74
     0
 77
     1
 78
     8
140
8.0
141
2.5
143
0.0394
145
1.0
147
0.625
172
     1
178
     0
271
     1
272
     1
340
10
341
2AEB
342
2AEB
  0
DIMSTYLE
105
38EE
330
A
100
AcDbSymbolTableRecord
100
AcDbDimStyleTableRecord
  2
文字10ｐｔ
 70
     0
 41
6.0
 42
0.625
 43
3.75
 44
1.25
 47
0.1
 48
0.1
 73
     0
 74
     0
 77
     1
 78
     8
140
10.0
141
2.5
143
0.0394
145
1.0
147
0.625
172
     1
178
     0
271
     1
272
     1
340
10
341
2AEB
342
2AEB
  0
ENDTAB
  0
TABLE
  2
BLOCK_RECORD
  5
1
330
0
100
AcDbSymbolTable
 70
     7
  0
BLOCK_RECORD
  5
1A
330
1
100
AcDbSymbolTableRecord
100
AcDbBlockTableRecord
  2
*MODEL_SPACE
340
2818
  0
BLOCK_RECORD
  5
2963
330
1
100
AcDbSymbolTableRecord
100
AcDbBlockTableRecord
  2
*PAPER_SPACE
340
2994
  0
BLOCK_RECORD
  5
29F4
330
1
100
AcDbSymbolTableRecord
100
AcDbBlockTableRecord
  2
A4縦用　タイトル
340
0
310
2800000020000000200000000100080000000000000400000000000000000000000000000000000000000000000080000080000000808000800000008000800080800000C0C0C000C0DCC000F0CAA6000020400000206000002080000020A0000020C0000020E00000400000004020000040400000406000004080000040A0
310
000040C0000040E00000600000006020000060400000606000006080000060A0000060C0000060E00000800000008020000080400000806000008080000080A0000080C0000080E00000A0000000A0200000A0400000A0600000A0800000A0A00000A0C00000A0E00000C0000000C0200000C0400000C0600000C0800000C0
310
A00000C0C00000C0E00000E0000000E0200000E0400000E0600000E0800000E0A00000E0C00000E0E00040000000400020004000400040006000400080004000A0004000C0004000E00040200000402020004020400040206000402080004020A0004020C0004020E000404000004040200040404000404060004040800040
310
40A0004040C0004040E00040600000406020004060400040606000406080004060A0004060C0004060E00040800000408020004080400040806000408080004080A0004080C0004080E00040A0000040A0200040A0400040A0600040A0800040A0A00040A0C00040A0E00040C0000040C0200040C0400040C0600040C08000
310
40C0A00040C0C00040C0E00040E0000040E0200040E0400040E0600040E0800040E0A00040E0C00040E0E00080000000800020008000400080006000800080008000A0008000C0008000E00080200000802020008020400080206000802080008020A0008020C0008020E00080400000804020008040400080406000804080
310
008040A0008040C0008040E00080600000806020008060400080606000806080008060A0008060C0008060E00080800000808020008080400080806000808080008080A0008080C0008080E00080A0000080A0200080A0400080A0600080A0800080A0A00080A0C00080A0E00080C0000080C0200080C0400080C0600080C0
310
800080C0A00080C0C00080C0E00080E0000080E0200080E0400080E0600080E0800080E0A00080E0C00080E0E000C0000000C0002000C0004000C0006000C0008000C000A000C000C000C000E000C0200000C0202000C0204000C0206000C0208000C020A000C020C000C020E000C0400000C0402000C0404000C0406000C0
310
408000C040A000C040C000C040E000C0600000C0602000C0604000C0606000C0608000C060A000C060C000C060E000C0800000C0802000C0804000C0806000C0808000C080A000C080C000C080E000C0A00000C0A02000C0A04000C0A06000C0A08000C0A0A000C0A0C000C0A0E000C0C00000C0C02000C0C04000C0C06000
310
C0C08000C0C0A000F0FBFF00A4A0A000808080000000FF0000FF000000FFFF00FF000000FF00FF00FFFF0000FFFFFF0000000000000000000000000000000000000000000000000000000000000000000000000000000000000000000000000000000000000000000000000000000000000000000000000000000000000000
310
00000000000000000000000000000000000000000000000000000000000000000000000000000000000000000000000000000000000000000000000000000000000000000000000000000000000000000000000000000000000000000000000000000000000000000000000000000000000000000000000000000000000000
310
00000000000000000000000000000000000000000000000000000000000000000000000000000000000000000000000000000000000000000000000000000000000000000000000000000000000000000000000000000000000000000000000000000000000000000000000000000000000000000000000000000000000000
310
0000000000000000000000000000000000000000000000000000000000000000000000000000000000000000000000000000000000000000000000000000000000000000000000000000000000000000000000005B5B5B5B5B5BA45B5BA45B5B5B5B5B5B5B5B5B5B5B5B5B5B5B5B5B5B5B5B0000A4A4A45BA4A4A40000A400
310
005BA4A4A4A4A4A4A45B00000000000000005B0000A4A4A45BA4A4A4A4A4A4A4A45BF7F7F7F7F7F7F7A4A4A4A4A4A4A4A4A45B0000A4A4A45BA4A4A4A400A400005B000000000000005B00000000000000005B0000A4A4A4A4A4A4A4A4A4A4A4A45BA4A4A4A4A4A4A4A4A4A4A400000000005B00005BA4A4A4A400A4A400A4
310
A4005B00000000000000A4A4A4A400000000005B0000000000000000000000000000000000000000000000000000000000000000000000000000000000000000000000000000000000000000000000000000000000000000000000000000000000000000000000000000000000000000000000000000000000000000000000
310
00000000000000000000000000000000000000000000000000000000000000000000000000000000000000000000000000000000000000000000000000000000000000000000000000000000000000000000000000000000000000000000000000000000000000000000000000000000000000000000000000000000000000
310
00000000000000000000000000000000000000000000000000000000000000000000000000000000000000000000000000000000000000000000000000000000000000000000000000000000000000000000000000000000000000000000000000000000000000000000000000000000000000000000000000000000000000
310
0000000000000000000000000000000000000000000000000000000000000000000000000000000000000000000000000000000000000000
102
{BLKREFS
331
2A23
102
}
1001
ACAD
1000
DesignCenter Data
1002
{
1070
     1
1070
     4
1002
}
  0
BLOCK_RECORD
  5
2AEB
330
1
100
AcDbSymbolTableRecord
100
AcDbBlockTableRecord
  2
_Open30
340
0
102
{BLKREFS
331
3CC7
331
3CC8
331
3CD0
331
3CD1
331
3CBE
331
3CBF
331
3CA3
331
3CA4
331
3C3E
331
3C3F
102
}
  0
BLOCK_RECORD
  5
3B11
330
1
100
AcDbSymbolTableRecord
100
AcDbBlockTableRecord
  2
*D2
340
0
  0
BLOCK_RECORD
  5
3B1D
330
1
100
AcDbSymbolTableRecord
100
AcDbBlockTableRecord
  2
*D3
340
0
  0
BLOCK_RECORD
  5
3B29
330
1
100
AcDbSymbolTableRecord
100
AcDbBlockTableRecord
  2
*D4
340
0
  0
BLOCK_RECORD
  5
3B35
330
1
100
AcDbSymbolTableRecord
100
AcDbBlockTableRecord
  2
*D5
340
0
  0
BLOCK_RECORD
  5
3B41
330
1
100
AcDbSymbolTableRecord
100
AcDbBlockTableRecord
  2
*D6
340
0
  0
ENDTAB
  0
ENDSEC
  0
SECTION
  2
BLOCKS
  0
BLOCK
  5
1B
330
1A
100
AcDbEntity
  8
0
100
AcDbBlockBegin
  2
*MODEL_SPACE
 70
     0
 10
0.0
 20
0.0
 30
0.0
  3
*MODEL_SPACE
  1
*MODEL_SPACE
  0
ENDBLK
  5
1C
330
1A
100
AcDbEntity
  8
0
100
AcDbBlockEnd
  0
BLOCK
  5
2964
330
2963
100
AcDbEntity
 67
     1
  8
0
100
AcDbBlockBegin
  2
*PAPER_SPACE
 70
     0
 10
0.0
 20
0.0
 30
0.0
  3
*PAPER_SPACE
  1
*PAPER_SPACE
  0
ENDBLK
  5
2993
330
2963
100
AcDbEntity
 67
     1
  8
0
100
AcDbBlockEnd
  0
BLOCK
  5
29F5
330
29F4
100
AcDbEntity
  8
0
100
AcDbBlockBegin
  2
A4縦用　タイトル
 70
     0
 10
0.0
 20
0.0
 30
0.0
  3
A4縦用　タイトル
  1
A4縦用　タイトル
  0
LINE
  5
29F6
330
29F4
100
AcDbEntity
  8
図枠太線
  6
Continuous
 62
   251
100
AcDbLine
 10
2.368253864267
 20
4.525433224584
 30
0.0
 11
192.368245864267
 21
4.525433224584
 31
0.0
  0
LINE
  5
29F7
330
29F4
100
AcDbEntity
  8
図枠太線
  6
Continuous
 62
   251
100
AcDbLine
 10
78.368245864267
 20
19.525431224584
 30
0.0
 11
135.368253864267
 21
19.525431224584
 31
0.0
  0
LINE
  5
29F8
330
29F4
100
AcDbEntity
  8
図枠細線
  6
Continuous
 62
   252
100
AcDbLine
 10
78.368253864267
 20
27.025431224584
 30
0.0
 11
135.368253864267
 21
27.025431224584
 31
0.0
  0
TEXT
  5
29F9
330
29F4
100
AcDbEntity
  8
図枠ロゴマーク
  6
Continuous
 62
   253
100
AcDbText
 10
80.617009864267
 20
11.117825224584
 30
0.0
 40
7.0
  1
東和制電工業株式会社
 41
0.639204545455
  7
EXCADSTD
 72
     5
 11
133.117009864267
 21
11.117825224584
 31
0.0
100
AcDbText
  0
TEXT
  5
29FA
330
29F4
100
AcDbEntity
  8
図枠細線
  6
Continuous
 62
   252
100
AcDbText
 10
80.579549864267
 20
6.172924224584
 30
0.0
 40
3.5
  1
ＴＯＷＡ　ＳＥＩＤＥＮ　ＩＮＤＵＳＴＲＩＡＬ　ＣＯ．，ＬＴＤ．
 41
0.414568012377
  7
EXCADSTD
 72
     5
 11
133.202049568628
 21
6.172924224584
 31
0.0
100
AcDbText
  0
LINE
  5
29FB
330
29F4
100
AcDbEntity
  8
図枠太線
  6
Continuous
 62
   251
100
AcDbLine
 10
2.368253864267
 20
4.525433224584
 30
0.0
 11
2.368253864267
 21
34.525431224584
 31
0.0
  0
TEXT
  5
29FC
330
29F4
100
AcDbEntity
  8
図枠細線
  6
Continuous
 62
   252
100
AcDbText
 10
22.504308136501
 20
12.279133224584
 30
0.0
 40
2.0
  1
ＴＨＩＲＤ　ＡＮＧＬＥ
 41
0.691099486738
  7
EXCADSTD
 72
     5
 11
40.104308398762
 21
12.279133224584
 31
0.0
100
AcDbText
  0
TEXT
  5
29FD
330
29F4
100
AcDbEntity
  8
図枠細線
  6
Continuous
 62
   252
100
AcDbText
 10
22.429384136501
 20
9.357144224584
 30
0.0
 40
2.0
  1
ＰＲＯＪＥＣＴＩＯＮ
 41
0.754285710199
  7
EXCADSTD
 72
     5
 11
40.029384041134
 21
9.357144224584
 31
0.0
100
AcDbText
  0
LINE
  5
29FE
330
29F4
100
AcDbEntity
  8
図枠細線
  6
Continuous
100
AcDbLine
 10
22.368253864267
 20
19.525433224584
 30
0.0
 11
78.368253864267
 21
19.525431224584
 31
0.0
  0
TEXT
  5
29FF
330
29F4
100
AcDbEntity
  8
図枠細線
  6
Continuous
 62
   252
100
AcDbText
 10
22.868253864267
 20
17.025433224584
 30
0.0
 40
2.0
  1
第三角法
 41
1.102941176471
  7
EXCADSTD
 72
     5
 11
32.868253864267
 21
17.025433224584
 31
0.0
100
AcDbText
  0
TEXT
  5
2A00
330
29F4
100
AcDbEntity
  8
図枠細線
  6
Continuous
 62
   252
100
AcDbText
 10
22.868253864267
 20
29.525433224584
 30
0.0
 40
2.0
  1
ＡＰＰＲＯＶＥＤ
 41
0.695652184279
  7
EXCADSTD
 72
     5
 11
35.668254055002
 21
29.525433224584
 31
0.0
100
AcDbText
  0
LINE
  5
2A01
330
29F4
100
AcDbEntity
  8
図枠細線
  6
Continuous
 62
   252
100
AcDbLine
 10
2.368253864267
 20
9.525433224584
 30
0.0
 11
22.368253864267
 21
9.525433224584
 31
0.0
  0
LINE
  5
2A02
330
29F4
100
AcDbEntity
  8
図枠細線
  6
Continuous
 62
   252
100
AcDbLine
 10
2.368253864267
 20
14.525431224584
 30
0.0
 11
22.368253864267
 21
14.525431224584
 31
0.0
  0
LINE
  5
2A03
330
29F4
100
AcDbEntity
  8
図枠細線
  6
Continuous
 62
   252
100
AcDbLine
 10
2.368253864267
 20
24.525431224584
 30
0.0
 11
22.368253864267
 21
24.525431224584
 31
0.0
  0
LINE
  5
2A04
330
29F4
100
AcDbEntity
  8
図枠細線
  6
Continuous
 62
   252
100
AcDbLine
 10
2.368253864267
 20
29.525431224584
 30
0.0
 11
22.368253864267
 21
29.525431224584
 31
0.0
  0
LINE
  5
2A05
330
29F4
100
AcDbEntity
  8
図枠細線
  6
Continuous
100
AcDbLine
 10
2.368253864267
 20
19.525433224584
 30
0.0
 11
22.368253864267
 21
19.525433224584
 31
0.0
  0
TEXT
  5
2A06
330
29F4
100
AcDbEntity
  8
図枠細線
  6
Continuous
 62
   252
100
AcDbText
 10
2.868253864267
 20
32.025433224584
 30
0.0
 40
2.0
  1
ＮＯＴＥ
 41
0.923076923077
  7
EXCADSTD
 72
     5
 11
10.868253864267
 21
32.025433224584
 31
0.0
100
AcDbText
  0
LINE
  5
2A07
330
29F4
100
AcDbEntity
  8
図枠太線
  6
Continuous
 62
   251
100
AcDbLine
 10
22.368253864267
 20
4.525433224584
 30
0.0
 11
22.368253864267
 21
34.525431224584
 31
0.0
  0
TEXT
  5
2A08
330
29F4
100
AcDbEntity
  8
図枠細線
  6
Continuous
 62
   252
100
AcDbText
 10
22.868253864267
 20
32.025433224584
 30
0.0
 40
2.0
  1
承認
 41
1.171875
  7
EXCADSTD
 72
     5
 11
27.868253864267
 21
32.025433224584
 31
0.0
100
AcDbText
  0
TEXT
  5
2A09
330
29F4
100
AcDbEntity
  8
図枠細線
  6
Continuous
 62
   252
100
AcDbText
 10
60.711709035982
 20
32.025433224584
 30
0.0
 40
2.0
  1
製図
 41
1.209677419355
  7
EXCADSTD
 72
     5
 11
65.711709035982
 21
32.025433224584
 31
0.0
100
AcDbText
  0
TEXT
  5
2A0A
330
29F4
100
AcDbEntity
  8
図枠細線
  6
Continuous
 62
   252
100
AcDbText
 10
60.711709035982
 20
29.525433224584
 30
0.0
 40
2.0
  1
ＤＲＡＷＮ
 41
0.882352941176
  7
EXCADSTD
 72
     5
 11
70.711709035982
 21
29.525433224584
 31
0.0
100
AcDbText
  0
TEXT
  5
2A0B
330
29F4
100
AcDbEntity
  8
図枠細線
  6
Continuous
 62
   252
100
AcDbText
 10
60.834891743877
 20
17.025433224584
 30
0.0
 40
2.0
  1
日付
 41
1.171875
  7
EXCADSTD
 72
     5
 11
65.834891743877
 21
17.025433224584
 31
0.0
100
AcDbText
  0
TEXT
  5
2A0C
330
29F4
100
AcDbEntity
  8
図枠細線
  6
Continuous
 62
   252
100
AcDbText
 10
47.333660864267
 20
17.025433224584
 30
0.0
 40
2.0
  1
ＳＣＡＬＥ
 41
0.903614457831
  7
EXCADSTD
 72
     5
 11
57.333660864267
 21
17.025433224584
 31
0.0
100
AcDbText
  0
TEXT
  5
2A0D
330
29F4
100
AcDbEntity
  8
図枠細線
  6
Continuous
 62
   252
100
AcDbText
 10
42.281425990082
 20
29.525433224584
 30
0.0
 40
2.0
  1
ＣＨＥＣＫＥＤ
 41
0.831249989569
  7
EXCADSTD
 72
     5
 11
55.581425823189
 21
29.525433224584
 31
0.0
100
AcDbText
  0
LINE
  5
2A0E
330
29F4
100
AcDbEntity
  8
図枠細線
  6
Continuous
 62
   252
100
AcDbLine
 10
40.968253864267
 20
34.525431224584
 30
0.0
 11
40.968253864267
 21
19.525431224584
 31
0.0
  0
LINE
  5
2A0F
330
29F4
100
AcDbEntity
  8
図枠細線
  6
Continuous
 62
   252
100
AcDbLine
 10
40.968253864267
 20
4.525433224584
 30
0.0
 11
40.968253864267
 21
19.525431224584
 31
0.0
  0
TEXT
  5
2A10
330
29F4
100
AcDbEntity
  8
図枠細線
  6
Continuous
 62
   252
100
AcDbText
 10
41.961173864267
 20
17.025433224584
 30
0.0
 40
2.0
  1
尺度
 41
1.171875
  7
EXCADSTD
 72
     5
 11
46.961173864267
 21
17.025433224584
 31
0.0
100
AcDbText
  0
TEXT
  5
2A11
330
29F4
100
AcDbEntity
  8
図枠細線
  6
Continuous
 62
   252
100
AcDbText
 10
42.281425990082
 20
32.025433224584
 30
0.0
 40
2.0
  1
検図
 41
1.209677419355
  7
EXCADSTD
 72
     5
 11
47.281425990082
 21
32.025433224584
 31
0.0
100
AcDbText
  0
LINE
  5
2A12
330
29F4
100
AcDbEntity
  8
図枠細線
  6
Continuous
 62
   252
100
AcDbLine
 10
59.768253864267
 20
34.525431224584
 30
0.0
 11
59.768253864267
 21
19.525431224584
 31
0.0
  0
LINE
  5
2A13
330
29F4
100
AcDbEntity
  8
図枠細線
  6
Continuous
 62
   252
100
AcDbLine
 10
59.768253864267
 20
4.525433224584
 30
0.0
 11
59.768253864267
 21
19.525431224584
 31
0.0
  0
LINE
  5
2A14
330
29F4
100
AcDbEntity
  8
図枠太線
  6
Continuous
 62
   251
100
AcDbLine
 10
78.368253864267
 20
4.525433224584
 30
0.0
 11
78.368253864267
 21
34.525431224584
 31
0.0
  0
TEXT
  5
2A15
330
29F4
100
AcDbEntity
  8
図枠細線
  6
Continuous
 62
   252
100
AcDbText
 10
66.334891743877
 20
17.025433224584
 30
0.0
 40
2.0
  1
ＤＡＴＥ
 41
0.923076923077
  7
EXCADSTD
 72
     5
 11
74.334891743877
 21
17.025433224584
 31
0.0
100
AcDbText
  0
LINE
  5
2A16
330
29F4
100
AcDbEntity
  8
図枠細線
  6
Continuous
 62
   252
100
AcDbLine
 10
135.368253864267
 20
19.525431224584
 30
0.0
 11
192.368245864267
 21
19.525431224584
 31
0.0
  0
TEXT
  5
2A17
330
29F4
100
AcDbEntity
  8
図枠細線
  6
Continuous
 62
   252
100
AcDbText
 10
141.868253864267
 20
32.025433224584
 30
0.0
 40
2.0
  1
ＴＩＴＬＥ
 41
0.903614457831
  7
EXCADSTD
 72
     5
 11
151.868253864267
 21
32.025433224584
 31
0.0
100
AcDbText
  0
LINE
  5
2A18
330
29F4
100
AcDbEntity
  8
図枠太線
  6
Continuous
 62
   251
100
AcDbLine
 10
135.368253864267
 20
4.525433224584
 30
0.0
 11
135.368253864267
 21
34.525431224584
 31
0.0
  0
TEXT
  5
2A19
330
29F4
100
AcDbEntity
  8
図枠細線
  6
Continuous
 62
   252
100
AcDbText
 10
135.868253864267
 20
17.025433224584
 30
0.0
 40
2.0
  1
図面番号
 41
1.102941176471
  7
EXCADSTD
 72
     5
 11
145.868253864267
 21
17.025433224584
 31
0.0
100
AcDbText
  0
TEXT
  5
2A1A
330
29F4
100
AcDbEntity
  8
図枠細線
  6
Continuous
 62
   252
100
AcDbText
 10
135.868253864267
 20
32.025433224584
 30
0.0
 40
2.0
  1
名称
 41
1.171875
  7
EXCADSTD
 72
     5
 11
140.868253864267
 21
32.025433224584
 31
0.0
100
AcDbText
  0
TEXT
  5
2A1B
330
29F4
100
AcDbEntity
  8
図枠細線
  6
Continuous
 62
   252
100
AcDbText
 10
146.868253864267
 20
17.025433224584
 30
0.0
 40
2.0
  1
ＤＲＧ．ＮＯ．
 41
0.9375
  7
EXCADSTD
 72
     5
 11
160.868253864267
 21
17.025433224584
 31
0.0
100
AcDbText
  0
LINE
  5
2A1C
330
29F4
100
AcDbEntity
  8
図枠太線
  6
Continuous
 62
   251
100
AcDbLine
 10
192.368245864267
 20
4.525433224584
 30
0.0
 11
192.368245864267
 21
34.525431224584
 31
0.0
  0
ENDBLK
  5
2A1D
330
29F4
100
AcDbEntity
  8
0
100
AcDbBlockEnd
  0
BLOCK
  5
2AEF
330
2AEB
100
AcDbEntity
  8
0
 48
10.0
100
AcDbBlockBegin
  2
_Open30
 70
     0
 10
0.0
 20
0.0
 30
0.0
  3
_Open30
  1
_Open30
  0
LINE
  5
2AEC
330
2AEB
100
AcDbEntity
  8
0
  6
ByBlock
 62
     0
370
    -2
100
AcDbLine
 10
-1.0
 20
0.26794919
 30
0.0
 11
0.0
 21
0.0
 31
0.0
  0
LINE
  5
2AED
330
2AEB
100
AcDbEntity
  8
0
  6
ByBlock
 62
     0
370
    -2
100
AcDbLine
 10
0.0
 20
0.0
 30
0.0
 11
-1.0
 21
-0.26794919
 31
0.0
  0
LINE
  5
2AEE
330
2AEB
100
AcDbEntity
  8
0
  6
ByBlock
 62
     0
370
    -2
100
AcDbLine
 10
0.0
 20
0.0
 30
0.0
 11
-1.0
 21
0.0
 31
0.0
  0
ENDBLK
  5
2AF0
330
2AEB
100
AcDbEntity
  8
0
 48
10.0
100
AcDbBlockEnd
  0
BLOCK
  5
3B1B
330
3B11
100
AcDbEntity
  8
0
 48
10.0
100
AcDbBlockBegin
  2
*D2
 70
     1
 10
0.0
 20
0.0
 30
0.0
  3
*D2
  1
*D2
  0
LINE
  5
3CC4
330
3B11
100
AcDbEntity
  8
寸法線
 62
     0
 48
10.0
370
    -2
100
AcDbLine
 10
430.956857068864
 20
272.021160864393
 30
0.0
 11
430.956857068864
 21
355.07881639629
 31
0.0
  0
LINE
  5
3CC5
330
3B11
100
AcDbEntity
  8
寸法線
 62
     0
 48
10.0
370
    -2
100
AcDbLine
 10
518.4152301343
 20
332.901184880971
 30
0.0
 11
518.4152301343
 21
355.07881639629
 31
0.0
  0
LINE
  5
3CC6
330
3B11
100
AcDbEntity
  8
寸法線
 62
     0
 48
10.0
370
    -2
100
AcDbLine
 10
436.956857068864
 20
353.82881639629
 30
0.0
 11
512.4152301343
 21
353.82881639629
 31
0.0
  0
INSERT
  5
3CC7
330
3B11
100
AcDbEntity
  8
寸法線
 62
     0
 48
10.0
370
    -2
100
AcDbBlockReference
  2
_Open30
 10
430.956857068864
 20
353.82881639629
 30
0.0
 41
6.0
 42
6.0
 43
6.0
 50
180.0
  0
INSERT
  5
3CC8
330
3B11
100
AcDbEntity
  8
寸法線
 62
     0
 48
10.0
370
    -2
100
AcDbBlockReference
  2
_Open30
 10
518.4152301343
 20
353.82881639629
 30
0.0
 41
6.0
 42
6.0
 43
6.0
  0
MTEXT
  5
3CC9
330
3B11
100
AcDbEntity
  8
寸法線
 62
     0
 48
10.0
100
AcDbMText
 10
474.686043601582
 20
358.45381639629
 30
0.0
 40
8.0
 41
0.0
 71
     5
 72
     1
  1
\A1;84
 73
     1
 44
1.0
  0
POINT
  5
3CCA
330
3B11
100
AcDbEntity
  8
DEFPOINTS
 62
     0
 48
10.0
100
AcDbPoint
 10
430.956857068864
 20
271.396160864393
 30
0.0
  0
POINT
  5
3CCB
330
3B11
100
AcDbEntity
  8
DEFPOINTS
 62
     0
 48
10.0
100
AcDbPoint
 10
518.4152301343
 20
332.276184880971
 30
0.0
  0
POINT
  5
3CCC
330
3B11
100
AcDbEntity
  8
DEFPOINTS
 62
     0
 48
10.0
100
AcDbPoint
 10
518.4152301343
 20
353.82881639629
 30
0.0
  0
ENDBLK
  5
3B1C
330
3B11
100
AcDbEntity
  8
0
 48
10.0
100
AcDbBlockEnd
  0
BLOCK
  5
3B27
330
3B1D
100
AcDbEntity
  8
0
 48
10.0
100
AcDbBlockBegin
  2
*D3
 70
     1
 10
0.0
 20
0.0
 30
0.0
  3
*D3
  1
*D3
  0
LINE
  5
3CCD
330
3B1D
100
AcDbEntity
  8
寸法線
 62
     0
 48
10.0
370
    -2
100
AcDbLine
 10
567.315688823869
 20
335.276184880971
 30
0.0
 11
604.866044847086
 21
335.276184880971
 31
0.0
  0
LINE
  5
3CCE
330
3B1D
100
AcDbEntity
  8
寸法線
 62
     0
 48
10.0
370
    -2
100
AcDbLine
 10
551.551857068863
 20
188.946686284643
 30
0.0
 11
604.866044847086
 21
188.946686284643
 31
0.0
  0
LINE
  5
3CCF
330
3B1D
100
AcDbEntity
  8
寸法線
 62
     0
 48
10.0
370
    -2
100
AcDbLine
 10
603.616044847086
 20
329.276184880971
 30
0.0
 11
603.616044847086
 21
194.946686284643
 31
0.0
  0
INSERT
  5
3CD0
330
3B1D
100
AcDbEntity
  8
寸法線
 62
     0
 48
10.0
370
    -2
100
AcDbBlockReference
  2
_Open30
 10
603.616044847086
 20
335.276184880971
 30
0.0
 41
6.0
 42
6.0
 43
6.0
 50
90.0
  0
INSERT
  5
3CD1
330
3B1D
100
AcDbEntity
  8
寸法線
 62
     0
 48
10.0
370
    -2
100
AcDbBlockReference
  2
_Open30
 10
603.616044847086
 20
188.946686284643
 30
0.0
 41
6.0
 42
6.0
 43
6.0
 50
270.0
  0
MTEXT
  5
3CD2
330
3B1D
100
AcDbEntity
  8
寸法線
 62
     0
 48
10.0
100
AcDbMText
 10
598.991044847086
 20
253.337154684647
 30
0.0
 40
8.0
 41
0.0
 71
     5
 72
     1
  1
\A1;148
 11
6.123031769111886E-17
 21
1.0
 31
0.0
 73
     1
 44
1.0
  0
POINT
  5
3CD3
330
3B1D
100
AcDbEntity
  8
DEFPOINTS
 62
     0
 48
10.0
100
AcDbPoint
 10
566.690688823869
 20
335.276184880971
 30
0.0
  0
POINT
  5
3CD4
330
3B1D
100
AcDbEntity
  8
DEFPOINTS
 62
     0
 48
10.0
100
AcDbPoint
 10
550.926857068863
 20
188.946686284643
 30
0.0
  0
POINT
  5
3CD5
330
3B1D
100
AcDbEntity
  8
DEFPOINTS
 62
     0
 48
10.0
100
AcDbPoint
 10
603.616044847086
 20
188.946686284643
 30
0.0
  0
ENDBLK
  5
3B28
330
3B1D
100
AcDbEntity
  8
0
 48
10.0
100
AcDbBlockEnd
  0
BLOCK
  5
3B33
330
3B29
100
AcDbEntity
  8
0
 48
10.0
100
AcDbBlockBegin
  2
*D4
 70
     1
 10
0.0
 20
0.0
 30
0.0
  3
*D4
  1
*D4
  0
LINE
  5
3CBB
330
3B29
100
AcDbEntity
  8
寸法線
 62
     0
 48
10.0
370
    -2
100
AcDbLine
 10
548.801857068863
 20
173.946686284643
 30
0.0
 11
586.94444170303
 21
173.946686284643
 31
0.0
  0
LINE
  5
3CBC
330
3B29
100
AcDbEntity
  8
寸法線
 62
     0
 48
10.0
370
    -2
100
AcDbLine
 10
554.071275426567
 20
188.946686284643
 30
0.0
 11
586.94444170303
 21
188.946686284643
 31
0.0
  0
LINE
  5
3CBD
330
3B29
100
AcDbEntity
  8
寸法線
 62
     0
 48
10.0
370
    -2
100
AcDbLine
 10
585.69444170303
 20
179.946686284643
 30
0.0
 11
585.69444170303
 21
182.946686284643
 31
0.0
  0
INSERT
  5
3CBE
330
3B29
100
AcDbEntity
  8
寸法線
 62
     0
 48
10.0
370
    -2
100
AcDbBlockReference
  2
_Open30
 10
585.69444170303
 20
173.946686284643
 30
0.0
 41
6.0
 42
6.0
 43
6.0
 50
270.0
  0
INSERT
  5
3CBF
330
3B29
100
AcDbEntity
  8
寸法線
 62
     0
 48
10.0
370
    -2
100
AcDbBlockReference
  2
_Open30
 10
585.69444170303
 20
188.946686284643
 30
0.0
 41
6.0
 42
6.0
 43
6.0
 50
90.0
  0
MTEXT
  5
3CC0
330
3B29
100
AcDbEntity
  8
寸法線
 62
     0
 48
10.0
100
AcDbMText
 10
581.06944170303
 20
181.446686284643
 30
0.0
 40
8.0
 41
0.0
 71
     5
 72
     1
  1
\A1;15
 11
6.123031769111886E-17
 21
1.0
 31
0.0
 73
     1
 44
1.0
  0
POINT
  5
3CC1
330
3B29
100
AcDbEntity
  8
DEFPOINTS
 62
     0
 48
10.0
100
AcDbPoint
 10
548.176857068863
 20
173.946686284643
 30
0.0
  0
POINT
  5
3CC2
330
3B29
100
AcDbEntity
  8
DEFPOINTS
 62
     0
 48
10.0
100
AcDbPoint
 10
553.446275426567
 20
188.946686284643
 30
0.0
  0
POINT
  5
3CC3
330
3B29
100
AcDbEntity
  8
DEFPOINTS
 62
     0
 48
10.0
100
AcDbPoint
 10
585.69444170303
 20
188.946686284643
 30
0.0
  0
ENDBLK
  5
3B34
330
3B29
100
AcDbEntity
  8
0
 48
10.0
100
AcDbBlockEnd
  0
BLOCK
  5
3B3F
330
3B35
100
AcDbEntity
  8
0
 48
10.0
100
AcDbBlockBegin
  2
*D5
 70
     1
 10
0.0
 20
0.0
 30
0.0
  3
*D5
  1
*D5
  0
LINE
  5
3CA0
330
3B35
100
AcDbEntity
  8
寸法線
 62
     0
 48
10.0
370
    -2
100
AcDbLine
 10
553.516092874501
 20
188.946686284643
 30
0.0
 11
604.866044847086
 21
188.946686284643
 31
0.0
  0
LINE
  5
3CA1
330
3B35
100
AcDbEntity
  8
寸法線
 62
     0
 48
10.0
370
    -2
100
AcDbLine
 10
548.294730297428
 20
128.946686284643
 30
0.0
 11
604.866044847086
 21
128.946686284643
 31
0.0
  0
LINE
  5
3CA2
330
3B35
100
AcDbEntity
  8
寸法線
 62
     0
 48
10.0
370
    -2
100
AcDbLine
 10
603.616044847086
 20
182.946686284643
 30
0.0
 11
603.616044847086
 21
134.946686284643
 31
0.0
  0
INSERT
  5
3CA3
330
3B35
100
AcDbEntity
  8
寸法線
 62
     0
 48
10.0
370
    -2
100
AcDbBlockReference
  2
_Open30
 10
603.616044847086
 20
188.946686284643
 30
0.0
 41
6.0
 42
6.0
 43
6.0
 50
90.0
  0
INSERT
  5
3CA4
330
3B35
100
AcDbEntity
  8
寸法線
 62
     0
 48
10.0
370
    -2
100
AcDbBlockReference
  2
_Open30
 10
603.616044847086
 20
128.946686284643
 30
0.0
 41
6.0
 42
6.0
 43
6.0
 50
270.0
  0
MTEXT
  5
3CA5
330
3B35
100
AcDbEntity
  8
寸法線
 62
     0
 48
10.0
100
AcDbMText
 10
598.991044847086
 20
157.536397995322
 30
0.0
 40
8.0
 41
0.0
 71
     5
 72
     1
  1
\A1;60
 11
6.123031769111886E-17
 21
1.0
 31
0.0
 73
     1
 44
1.0
  0
POINT
  5
3CA6
330
3B35
100
AcDbEntity
  8
DEFPOINTS
 62
     0
 48
10.0
100
AcDbPoint
 10
552.891092874501
 20
188.946686284643
 30
0.0
  0
POINT
  5
3CA7
330
3B35
100
AcDbEntity
  8
DEFPOINTS
 62
     0
 48
10.0
100
AcDbPoint
 10
547.669730297428
 20
128.946686284643
 30
0.0
  0
POINT
  5
3CA8
330
3B35
100
AcDbEntity
  8
DEFPOINTS
 62
     0
 48
10.0
100
AcDbPoint
 10
603.616044847086
 20
128.946686284643
 30
0.0
  0
ENDBLK
  5
3B40
330
3B35
100
AcDbEntity
  8
0
 48
10.0
100
AcDbBlockEnd
  0
BLOCK
  5
3B4B
330
3B41
100
AcDbEntity
  8
0
 48
10.0
100
AcDbBlockBegin
  2
*D6
 70
     1
 10
0.0
 20
0.0
 30
0.0
  3
*D6
  1
*D6
  0
LINE
  5
3C3B
330
3B41
100
AcDbEntity
  8
寸法線
 62
     0
 48
10.0
370
    -2
100
AcDbLine
 10
491.376857068864
 20
128.321686284643
 30
0.0
 11
491.376857068864
 21
103.459454705297
 31
0.0
  0
LINE
  5
3C3C
330
3B41
100
AcDbEntity
  8
寸法線
 62
     0
 48
10.0
370
    -2
100
AcDbLine
 10
545.376857068864
 20
128.321686284643
 30
0.0
 11
545.376857068864
 21
103.459454705297
 31
0.0
  0
LINE
  5
3C3D
330
3B41
100
AcDbEntity
  8
寸法線
 62
     0
 48
10.0
370
    -2
100
AcDbLine
 10
497.376857068864
 20
104.709454705297
 30
0.0
 11
539.376857068864
 21
104.709454705297
 31
0.0
  0
INSERT
  5
3C3E
330
3B41
100
AcDbEntity
  8
寸法線
 62
     0
 48
10.0
370
    -2
100
AcDbBlockReference
  2
_Open30
 10
491.376857068864
 20
104.709454705297
 30
0.0
 41
6.0
 42
6.0
 43
6.0
 50
180.0
  0
INSERT
  5
3C3F
330
3B41
100
AcDbEntity
  8
寸法線
 62
     0
 48
10.0
370
    -2
100
AcDbBlockReference
  2
_Open30
 10
545.376857068864
 20
104.709454705297
 30
0.0
 41
6.0
 42
6.0
 43
6.0
  0
MTEXT
  5
3C40
330
3B41
100
AcDbEntity
  8
寸法線
 62
     0
 48
10.0
100
AcDbMText
 10
518.376857068864
 20
109.334454705297
 30
0.0
 40
8.0
 41
0.0
 71
     5
 72
     1
  1
\A1;φ54
 73
     1
 44
1.0
  0
POINT
  5
3C41
330
3B41
100
AcDbEntity
  8
DEFPOINTS
 62
     0
 48
10.0
100
AcDbPoint
 10
491.376857068864
 20
128.946686284643
 30
0.0
  0
POINT
  5
3C42
330
3B41
100
AcDbEntity
  8
DEFPOINTS
 62
     0
 48
10.0
100
AcDbPoint
 10
545.376857068864
 20
128.946686284643
 30
0.0
  0
POINT
  5
3C43
330
3B41
100
AcDbEntity
  8
DEFPOINTS
 62
     0
 48
10.0
100
AcDbPoint
 10
545.376857068864
 20
104.709454705297
 30
0.0
  0
ENDBLK
  5
3B4C
330
3B41
100
AcDbEntity
  8
0
 48
10.0
100
AcDbBlockEnd
  0
ENDSEC
  0
SECTION
  2
ENTITIES
  0
MTEXT
  5
3A02
330
1A
100
AcDbEntity
  8
寸法線
 48
10.0
100
AcDbMText
 10
486.317176351435
 20
65.9546487428
 30
0.0
 40
8.0
 41
36.313583597831
 71
     1
 72
     5
  1
   I\P＋ 　－
 73
     1
 44
1.0
  0
LINE
  5
3A03
330
1A
100
AcDbEntity
  8
寸法線
 48
10.0
100
AcDbLine
 10
556.652664929448
 20
40.984305405305
 30
0.0
 11
570.139658328687
 21
53.024080778804
 31
0.0
  0
LINE
  5
3A04
330
1A
100
AcDbEntity
  8
寸法線
 48
10.0
100
AcDbLine
 10
567.911709071481
 20
51.035200988752
 30
0.0
 11
583.011414577395
 21
51.035200988752
 31
0.0
  0
LINE
  5
3A05
330
1A
100
AcDbEntity
  8
寸法線
 48
10.0
100
AcDbLine
 10
543.011414577395
 20
20.478128398748
 30
0.0
 11
543.011414577395
 21
40.984305405305
 31
0.0
  0
LINE
  5
3A06
330
1A
100
AcDbEntity
  8
寸法線
 48
10.0
100
AcDbLine
 10
543.011414577395
 20
40.984305405305
 30
0.0
 11
556.652664929448
 21
40.984305405305
 31
0.0
  0
LINE
  5
3A07
330
1A
100
AcDbEntity
  8
寸法線
 48
10.0
100
AcDbLine
 10
492.00268894235
 20
20.478128398748
 30
0.0
 11
492.00268894235
 21
40.627818039074
 31
0.0
  0
LINE
  5
3A08
330
1A
100
AcDbEntity
  8
寸法線
 48
10.0
100
AcDbLine
 10
512.00268894235
 20
20.478128398748
 30
0.0
 11
512.00268894235
 21
40.817441412177
 31
0.0
  0
LINE
  5
3A09
330
1A
100
AcDbEntity
  8
寸法線
 48
10.0
100
AcDbLine
 10
442.636998692636
 20
20.478128398748
 30
0.0
 11
442.636998692636
 21
40.817441412177
 31
0.0
  0
LINE
  5
3A0A
330
1A
100
AcDbEntity
  8
寸法線
 48
10.0
100
AcDbLine
 10
462.636998692636
 20
20.478128398748
 30
0.0
 11
462.636998692636
 21
41.95518336275
 31
0.0
  0
LINE
  5
3A0B
330
1A
100
AcDbEntity
  8
寸法線
 48
10.0
100
AcDbLine
 10
583.011414577395
 20
20.478128398748
 30
0.0
 11
583.011414577395
 21
51.035200988752
 31
0.0
  0
LINE
  5
3A0C
330
1A
100
AcDbEntity
  8
寸法線
 48
10.0
100
AcDbLine
 10
563.011414577395
 20
20.478128398748
 30
0.0
 11
563.011414577395
 21
30.933409821859
 31
0.0
  0
MTEXT
  5
3A0D
330
1A
100
AcDbEntity
  8
寸法線
 48
10.0
100
AcDbMText
 10
563.441390794341
 20
9.922263689346
 30
0.0
 40
8.0
 41
56.076986670848
 71
     5
 72
     1
  1
{\H1.5x;7\H0.8333x;　\H1.2x;8\H0.8333x;　\H1.2x;9}
 73
     1
 44
1.0
  0
MTEXT
  5
3A0E
330
1A
100
AcDbEntity
  8
寸法線
 48
10.0
100
AcDbMText
 10
501.623980397067
 20
9.922263689346
 30
0.0
 40
8.0
 41
33.394742934292
 71
     5
 72
     1
  1
{\H1.5x;4　5}
 73
     1
 44
1.0
  0
MTEXT
  5
3A0F
330
1A
100
AcDbEntity
  8
寸法線
 48
10.0
100
AcDbMText
 10
553.680696713395
 20
-59.906912417818
 30
0.0
 40
8.0
 41
57.934586791311
 71
     5
 72
     1
  1
{\H1.5x;13 14 15}
 73
     1
 44
1.0
  0
MTEXT
  5
3A10
102
{ACAD_XDICTIONARY
360
3D25
102
}
330
1A
100
AcDbEntity
  8
寸法線
 48
10.0
100
AcDbMText
 10
453.811855661951
 20
-15.02565187278
 30
0.0
 40
8.0
 41
33.394742934292
 71
     5
 72
     1
  1
Power supply
 73
     1
 44
1.0
1001
AcadAnnotative
1000
AnnotativeData
1002
{
1070
     1
1070
     0
1002
}
  0
MTEXT
  5
3A11
102
{ACAD_XDICTIONARY
360
3D1F
102
}
330
1A
100
AcDbEntity
  8
寸法線
 48
10.0
100
AcDbMText
 10
561.307663915456
 20
-7.403456420348
 30
0.0
 40
8.0
 41
53.661409600959
 71
     5
 72
     1
  1
relayー1
 73
     1
 44
1.0
1001
AcadAnnotative
1000
AnnotativeData
1002
{
1070
     1
1070
     0
1002
}
  0
MTEXT
  5
3A12
330
1A
100
AcDbEntity
  8
寸法線
 48
10.0
100
AcDbMText
 10
501.05693044189
 20
-8.544899724212
 30
0.0
 40
8.0
 41
60.710855099696
 71
     5
 72
     1
  1
4-20mA
 73
     1
 44
1.0
  0
LINE
  5
3A13
330
1A
100
AcDbEntity
  8
外形線
 48
10.0
100
AcDbLine
 10
593.011414577395
 20
0.478128398748
 30
0.0
 11
593.011414577395
 21
20.478128398748
 31
0.0
  0
LINE
  5
3A14
330
1A
100
AcDbEntity
  8
外形線
 48
10.0
100
AcDbLine
 10
564.034253680834
 20
-69.351047708415
 30
0.0
 11
564.034253680834
 21
-49.351047708415
 31
0.0
  0
LINE
  5
3A15
330
1A
100
AcDbEntity
  8
外形線
 48
10.0
100
AcDbLine
 10
544.034253680834
 20
-69.351047708415
 30
0.0
 11
544.034253680834
 21
-49.351047708415
 31
0.0
  0
LINE
  5
3A16
330
1A
100
AcDbEntity
  8
外形線
 48
10.0
100
AcDbLine
 10
524.034253680834
 20
-49.351047708415
 30
0.0
 11
584.034253680833
 21
-49.351047708415
 31
0.0
  0
LINE
  5
3A17
330
1A
100
AcDbEntity
  8
外形線
 48
10.0
100
AcDbLine
 10
524.034253680834
 20
-49.351047708415
 30
0.0
 11
524.034253680834
 21
-69.351047708415
 31
0.0
  0
LINE
  5
3A18
330
1A
100
AcDbEntity
  8
外形線
 48
10.0
100
AcDbLine
 10
524.034253680834
 20
-69.351047708415
 30
0.0
 11
584.034253680833
 21
-69.351047708414
 31
0.0
  0
LINE
  5
3A19
330
1A
100
AcDbEntity
  8
外形線
 48
10.0
100
AcDbLine
 10
533.011414577395
 20
0.478128398748
 30
0.0
 11
593.011414577395
 21
0.478128398748
 31
0.0
  0
LINE
  5
3A1A
330
1A
100
AcDbEntity
  8
外形線
 48
10.0
100
AcDbLine
 10
533.011414577395
 20
20.478128398748
 30
0.0
 11
533.011414577395
 21
0.478128398748
 31
0.0
  0
LINE
  5
3A1B
330
1A
100
AcDbEntity
  8
外形線
 48
10.0
100
AcDbLine
 10
533.011414577395
 20
20.478128398748
 30
0.0
 11
593.011414577395
 21
20.478128398748
 31
0.0
  0
LINE
  5
3A1C
330
1A
100
AcDbEntity
  8
外形線
 48
10.0
100
AcDbLine
 10
553.011414577395
 20
0.478128398748
 30
0.0
 11
553.011414577395
 21
20.478128398748
 31
0.0
  0
LINE
  5
3A1D
330
1A
100
AcDbEntity
  8
外形線
 48
10.0
100
AcDbLine
 10
573.011414577395
 20
0.478128398748
 30
0.0
 11
573.011414577395
 21
20.478128398748
 31
0.0
  0
LINE
  5
3A1E
330
1A
100
AcDbEntity
  8
外形線
 48
10.0
100
AcDbLine
 10
521.903175286294
 20
0.478128398748
 30
0.0
 11
521.903175286294
 21
20.478128398748
 31
0.0
  0
LINE
  5
3A1F
330
1A
100
AcDbEntity
  8
外形線
 48
10.0
100
AcDbLine
 10
501.903175286294
 20
0.478128398748
 30
0.0
 11
501.903175286294
 21
20.478128398748
 31
0.0
  0
LINE
  5
3A20
330
1A
100
AcDbEntity
  8
外形線
 48
10.0
100
AcDbLine
 10
481.903175286295
 20
20.478128398748
 30
0.0
 11
521.903175286294
 21
20.478128398748
 31
0.0
  0
LINE
  5
3A21
330
1A
100
AcDbEntity
  8
外形線
 48
10.0
100
AcDbLine
 10
481.903175286294
 20
20.478128398748
 30
0.0
 11
481.903175286295
 21
0.478128398748
 31
0.0
  0
LINE
  5
3A22
330
1A
100
AcDbEntity
  8
外形線
 48
10.0
100
AcDbLine
 10
481.903175286295
 20
0.478128398748
 30
0.0
 11
521.903175286294
 21
0.478128398748
 31
0.0
  0
LINE
  5
3A23
330
1A
100
AcDbEntity
  8
外形線
100
AcDbLine
 10
492.012718587807
 20
332.276184880971
 30
0.0
 11
498.627302618608
 21
332.276184880971
 31
0.0
  0
LWPOLYLINE
  5
3A24
330
1A
100
AcDbEntity
  8
外形線
100
AcDbPolyline
 90
       18
 70
   128
 43
0.0
 10
489.967048580763
 20
314.276184880971
 10
490.040777221871
 20
313.35662490047
 10
490.259452404747
 20
312.468379432213
 10
490.615627408312
 20
311.641696610291
 10
491.097173120004
 20
310.904728126706
 10
491.687691078161
 20
310.282570559271
 10
492.367071901968
 20
309.796410737749
 10
493.112180092295
 20
309.462804251777
 10
493.897641883382
 20
309.293111670119
 10
494.696709315989
 20
309.293111670119
 10
495.482171107076
 20
309.462804251777
 10
496.227279297404
 20
309.796410737749
 10
496.90666012121
 20
310.282570559271
 10
497.497178079367
 20
310.904728126706
 10
497.978723791059
 20
311.641696610291
 10
498.334898794624
 20
312.468379432213
 10
498.553573977501
 20
313.35662490047
 10
498.627302618608
 20
314.276184880971
  0
LINE
  5
3A25
330
1A
100
AcDbEntity
  8
外形線
100
AcDbLine
 10
468.219009511074
 20
309.276184880971
 30
0.0
 11
518.4152301343
 21
309.276184880971
 31
0.0
  0
LINE
  5
3A26
330
1A
100
AcDbEntity
  8
外形線
100
AcDbLine
 10
486.376857068863
 20
210.246686284643
 30
0.0
 11
550.376857068863
 21
210.246686284643
 31
0.0
  0
LINE
  5
3A27
330
1A
100
AcDbEntity
  8
外形線
100
AcDbLine
 10
467.469009511074
 20
276.776184880972
 30
0.0
 11
518.4152301343
 21
276.776184880971
 31
0.0
  0
LINE
  5
3A28
330
1A
100
AcDbEntity
  8
外形線
100
AcDbLine
 10
457.376857068863
 20
276.276184880971
 30
0.0
 11
518.4152301343
 21
276.276184880971
 31
0.0
  0
LINE
  5
3A29
330
1A
100
AcDbEntity
  8
外形線
100
AcDbLine
 10
569.376857068864
 20
272.104612005717
 30
0.0
 11
485.801847661246
 21
272.104612005717
 31
0.0
  0
LINE
  5
3A2A
330
1A
100
AcDbEntity
  8
外形線
100
AcDbLine
 10
550.5020264842
 20
268.007035733387
 30
0.0
 11
491.065674611986
 21
268.007035733387
 31
0.0
  0
LINE
  5
3A2B
330
1A
100
AcDbEntity
  8
外形線
100
AcDbLine
 10
473.076568977756
 20
228.746686284642
 30
0.0
 11
561.753891290844
 21
228.746686284643
 31
0.0
  0
LINE
  5
3A2C
330
1A
100
AcDbEntity
  8
外形線
100
AcDbLine
 10
485.376857068863
 20
213.724295973611
 30
0.0
 11
551.376857068864
 21
213.724295973611
 31
0.0
  0
LINE
  5
3A2D
330
1A
100
AcDbEntity
  8
外形線
100
AcDbLine
 10
489.967048580763
 20
314.276184880971
 30
0.0
 11
489.967048580763
 21
332.276184880971
 31
0.0
  0
LINE
  5
3A2E
330
1A
100
AcDbEntity
  8
外形線
100
AcDbLine
 10
479.628528222179
 20
314.276184880972
 30
0.0
 11
479.628528222179
 21
332.276184880971
 31
0.0
  0
LINE
  5
3A2F
330
1A
100
AcDbEntity
  8
外形線
100
AcDbLine
 10
473.757559704416
 20
314.276184880971
 30
0.0
 11
473.757559704416
 21
332.276184880971
 31
0.0
  0
LINE
  5
3A30
330
1A
100
AcDbEntity
  8
外形線
100
AcDbLine
 10
474.545750092595
 20
314.276184880971
 30
0.0
 11
474.545750092595
 21
330.276184880971
 31
0.0
  0
LINE
  5
3A31
330
1A
100
AcDbEntity
  8
外形線
100
AcDbLine
 10
490.512718587807
 20
314.276184880971
 30
0.0
 11
490.512718587807
 21
330.776184880971
 31
0.0
  0
LINE
  5
3A32
330
1A
100
AcDbEntity
  8
外形線
100
AcDbLine
 10
469.1652301343
 20
309.276184880971
 30
0.0
 11
470.3291725235
 21
331.485528705943
 31
0.0
  0
ARC
  5
3A33
330
1A
100
AcDbEntity
  8
外形線
100
AcDbCircle
 10
476.375579339734
 20
222.295008800373
 30
0.0
 40
3.0
100
AcDbArc
 50
34.999999999999
 51
90.0
  0
LINE
  5
3A34
330
1A
100
AcDbEntity
  8
外形線
100
AcDbLine
 10
484.83431320173
 20
215.445025282664
 30
0.0
 11
475.520389897435
 21
228.746686284642
 31
0.0
  0
ARC
  5
3A35
330
1A
100
AcDbEntity
  8
外形線
100
AcDbCircle
 10
486.376857068863
 20
211.246686284643
 30
0.0
 40
1.0
100
AcDbArc
 50
180.0
 51
270.0
  0
ARC
  5
3A36
330
1A
100
AcDbEntity
  8
外形線
100
AcDbCircle
 10
482.376857068863
 20
213.724295973611
 30
0.0
 40
3.0
100
AcDbArc
 50
0.0
 51
34.999999999999
  0
LINE
  5
3A37
330
1A
100
AcDbEntity
  8
外形線
100
AcDbLine
 10
485.376857068863
 20
211.246686284643
 30
0.0
 11
485.376857068863
 21
213.724295973611
 31
0.0
  0
LINE
  5
3A38
330
1A
100
AcDbEntity
  8
外形線
100
AcDbLine
 10
485.801847661246
 20
272.104612005717
 30
0.0
 11
485.801847661246
 21
276.276184880971
 31
0.0
  0
LINE
  5
3A39
330
1A
100
AcDbEntity
  8
外形線
100
AcDbLine
 10
453.920343274156
 20
273.626184880971
 30
0.0
 11
453.920343274156
 21
273.672275991856
 31
0.0
  0
ARC
  5
3A3A
330
1A
100
AcDbEntity
  8
外形線
100
AcDbCircle
 10
459.876857068863
 20
241.515608576821
 30
0.0
 40
3.0
100
AcDbArc
 50
180.0
 51
225.0
  0
LINE
  5
3A3B
330
1A
100
AcDbEntity
  8
外形線
100
AcDbLine
 10
457.376857068863
 20
240.276184880971
 30
0.0
 11
491.168048975477
 21
240.276184880971
 31
0.0
  0
LINE
  5
3A3C
330
1A
100
AcDbEntity
  8
外形線
100
AcDbLine
 10
456.876857068863
 20
275.776184880971
 30
0.0
 11
456.876857068863
 21
245.274576385336
 31
0.0
  0
LINE
  5
3A3D
330
1A
100
AcDbEntity
  8
外形線
100
AcDbLine
 10
456.876857068863
 20
241.515608576821
 30
0.0
 11
456.876857068863
 21
263.482314132294
 31
0.0
  0
CIRCLE
  5
3A3E
330
1A
100
AcDbEntity
  8
外形線
100
AcDbCircle
 10
475.379420886483
 20
258.249225909986
 30
0.0
 40
13.71781647250892
  0
LINE
  5
3A3F
330
1A
100
AcDbEntity
  8
外形線
100
AcDbLine
 10
491.168048975477
 20
240.276184880971
 30
0.0
 11
491.065674611986
 21
268.007035733387
 31
0.0
  0
CIRCLE
  5
3A40
330
1A
100
AcDbEntity
  8
外形線
100
AcDbCircle
 10
475.418268453779
 20
258.274576385336
 30
0.0
 40
10.50883980613986
  0
LINE
  5
3A41
330
1A
100
AcDbEntity
  8
外形線
100
AcDbLine
 10
476.375579339734
 20
225.295008800373
 30
0.0
 11
473.097456845312
 21
225.295008800373
 31
0.0
  0
ARC
  5
3A42
330
1A
100
AcDbEntity
  8
外形線
100
AcDbCircle
 10
470.076568977755
 20
239.276184880971
 30
0.0
 40
1.0
100
AcDbArc
 50
0.0
 51
90.0
  0
LINE
  5
3A43
330
1A
100
AcDbEntity
  8
外形線
100
AcDbLine
 10
457.755536725304
 20
239.394288233261
 30
0.0
 11
470.976136501752
 21
226.173688456813
 31
0.0
  0
LINE
  5
3A44
330
1A
100
AcDbEntity
  8
外形線
100
AcDbLine
 10
471.076568977755
 20
239.276184880971
 30
0.0
 11
471.076568977756
 21
230.746686284642
 31
0.0
  0
ARC
  5
3A45
330
1A
100
AcDbEntity
  8
外形線
100
AcDbCircle
 10
473.076568977755
 20
230.746686284642
 30
0.0
 40
2.0
100
AcDbArc
 50
180.0
 51
270.0
  0
ARC
  5
3A46
330
1A
100
AcDbEntity
  8
外形線
100
AcDbCircle
 10
473.097456845311
 20
228.295008800373
 30
0.0
 40
3.0
100
AcDbArc
 50
225.0
 51
270.0
  0
LINE
  5
3A47
330
1A
100
AcDbEntity
  8
外形線
100
AcDbLine
 10
479.130471268481
 20
263.400992762488
 30
0.0
 11
474.701906964605
 21
258.972428458612
 31
0.0
  0
LINE
  5
3A48
330
1A
100
AcDbEntity
  8
外形線
100
AcDbLine
 10
480.544684830854
 20
261.986779200114
 30
0.0
 11
476.116120526978
 21
257.558214896239
 31
0.0
  0
LINE
  5
3A49
330
1A
100
AcDbEntity
  8
外形線
100
AcDbLine
 10
470.27334266073
 20
254.543864154737
 30
0.0
 11
474.701906964605
 21
258.972428458612
 31
0.0
  0
LINE
  5
3A4A
330
1A
100
AcDbEntity
  8
外形線
100
AcDbLine
 10
471.687556223103
 20
253.129650592364
 30
0.0
 11
476.116120526978
 21
257.558214896239
 31
0.0
  0
ARC
  5
3A4B
330
1A
100
AcDbEntity
  8
外形線
100
AcDbCircle
 10
470.980449441917
 20
253.836757373551
 30
0.0
 40
1.0
100
AcDbArc
 50
135.0
 51
315.0
  0
LINE
  5
3A4C
330
1A
100
AcDbEntity
  8
外形線
100
AcDbLine
 10
491.065674611986
 20
268.007035733387
 30
0.0
 11
485.801847661246
 21
272.104612005717
 31
0.0
  0
ARC
  5
3A4D
330
1A
100
AcDbEntity
  8
外形線
100
AcDbCircle
 10
479.837578049667
 20
262.693885981301
 30
0.0
 40
1.0
100
AcDbArc
 50
315.0
 51
135.0
  0
LINE
  5
3A4E
330
1A
100
AcDbEntity
  8
外形線
100
AcDbLine
 10
455.929193025106
 20
274.726519912932
 30
0.0
 11
454.868007317914
 21
274.670905526611
 31
0.0
  0
ARC
  5
3A4F
330
1A
100
AcDbEntity
  8
外形線
100
AcDbCircle
 10
454.920343274156
 20
273.672275991856
 30
0.0
 40
1.0
100
AcDbArc
 50
92.999999999999
 51
180.0
  0
ARC
  5
3A50
330
1A
100
AcDbEntity
  8
外形線
100
AcDbCircle
 10
455.876857068863
 20
275.725149447686
 30
0.0
 40
1.0
100
AcDbArc
 50
272.999999999999
 51
0.0
  0
LINE
  5
3A51
330
1A
100
AcDbEntity
  8
外形線
100
AcDbLine
 10
456.876857068863
 20
275.725149447686
 30
0.0
 11
456.876857068863
 21
275.776184880971
 31
0.0
  0
ARC
  5
3A52
330
1A
100
AcDbEntity
  8
外形線
100
AcDbCircle
 10
457.376857068863
 20
275.776184880971
 30
0.0
 40
0.5
100
AcDbArc
 50
90.0
 51
180.0
  0
LINE
  5
3A53
330
1A
100
AcDbEntity
  8
外形線
100
AcDbLine
 10
467.469009511074
 20
276.776184880972
 30
0.0
 11
467.469009511074
 21
308.937622708738
 31
0.0
  0
LINE
  5
3A54
330
1A
100
AcDbEntity
  8
外形線
100
AcDbLine
 10
467.47304686778
 20
276.776184880971
 30
0.0
 11
467.97304686778
 21
276.276184880971
 31
0.0
  0
LINE
  5
3A55
330
1A
100
AcDbEntity
  8
外形線
100
AcDbLine
 10
467.469009511074
 20
276.776184880972
 30
0.0
 11
467.969009511074
 21
276.276184880972
 31
0.0
  0
LINE
  5
3A56
330
1A
100
AcDbEntity
  8
外形線
100
AcDbLine
 10
471.772419853134
 20
276.276184880971
 30
0.0
 11
471.515502443611
 21
276.276184880971
 31
0.0
  0
LINE
  5
3A57
330
1A
100
AcDbEntity
  8
外形線
100
AcDbLine
 10
472.610282241416
 20
276.276184880971
 30
0.0
 11
468.9152301343
 21
276.276184880971
 31
0.0
  0
LWPOLYLINE
  5
3A58
330
1A
100
AcDbEntity
  8
外形線
100
AcDbPolyline
 90
       18
 70
   128
 43
0.0
 10
473.757559704416
 20
314.276184880971
 10
473.807541902271
 20
313.356583735778
 10
473.955786412037
 20
312.468298504643
 10
474.197244944732
 20
311.641578675734
 10
474.523694919623
 20
310.904577201283
 10
474.924019474349
 20
310.282391782565
 10
475.384586036336
 20
309.796210197787
 10
475.889710563702
 20
309.462588777707
 10
476.4221916465
 20
309.292888599652
 10
476.963896280095
 20
309.292888599652
 10
477.496377362892
 20
309.462588777707
 10
478.001501890259
 20
309.796210197787
 10
478.462068452246
 20
310.282391782565
 10
478.862393006972
 20
310.904577201283
 10
479.188842981863
 20
311.641578675734
 10
479.430301514558
 20
312.468298504643
 10
479.578546024324
 20
313.356583735778
 10
479.628528222179
 20
314.276184880971
  0
LWPOLYLINE
  5
3A59
330
1A
100
AcDbEntity
  8
外形線
100
AcDbPolyline
 90
        8
 70
   128
 43
0.0
 10
474.545750092595
 20
314.276184880971
 10
474.601771422709
 20
313.30311700617
 10
474.767697169987
 20
312.367189549664
 10
475.037194218497
 20
311.504125340383
 10
475.399976304178
 20
310.746866135608
 10
475.842196624806
 20
310.124315287666
 10
476.346976349918
 20
309.660234549978
 10
476.895048858323
 20
309.372337129573
  0
ARC
  5
3A5A
330
1A
100
AcDbEntity
  8
外形線
100
AcDbCircle
 10
468.219009511074
 20
308.276184880971
 30
0.0
 40
1.0
100
AcDbArc
 50
90.0
 51
138.59037789073
  0
LWPOLYLINE
  5
3A5B
330
1A
100
AcDbEntity
  8
外形線
100
AcDbPolyline
 90
        8
 70
   128
 43
0.0
 10
490.512718587807
 20
314.276184880971
 10
490.586474814796
 20
313.320861466548
 10
490.805230876157
 20
312.398082617351
 10
491.161534509338
 20
311.539284217807
 10
491.643247681652
 20
310.773722559668
 10
492.233960091079
 20
310.12747768132
 10
492.913548208513
 20
309.622564911055
 10
493.658860816803
 20
309.276184880971
  0
LINE
  5
3A5C
330
1A
100
AcDbEntity
  8
外形線
100
AcDbLine
 10
494.001024350975
 20
335.276184880971
 30
0.0
 11
474.323690662518
 21
335.276184880971
 31
0.0
  0
LINE
  5
3A5D
330
1A
100
AcDbEntity
  8
外形線
100
AcDbLine
 10
476.545750092595
 20
332.276184880971
 30
0.0
 11
479.628528222179
 21
332.276184880971
 31
0.0
  0
ARC
  5
3A5E
330
1A
100
AcDbEntity
  8
外形線
100
AcDbCircle
 10
476.545750092595
 20
330.276184880971
 30
0.0
 40
2.0
100
AcDbArc
 50
90.0
 51
180.0
  0
ARC
  5
3A5F
330
1A
100
AcDbEntity
  8
外形線
100
AcDbCircle
 10
474.323690662518
 20
331.276184880971
 30
0.0
 40
4.0
100
AcDbArc
 50
90.0
 51
177.000000000001
  0
ARC
  5
3A60
330
1A
100
AcDbEntity
  8
外形線
100
AcDbCircle
 10
476.757559704416
 20
332.276184880971
 30
0.0
 40
3.0
100
AcDbArc
 50
90.0
 51
180.0
  0
ARC
  5
3A61
330
1A
100
AcDbEntity
  8
外形線
100
AcDbCircle
 10
494.001024350975
 20
334.276184880971
 30
0.0
 40
1.0
100
AcDbArc
 50
37.135436470277
 51
90.0
  0
ARC
  5
3A62
330
1A
100
AcDbEntity
  8
外形線
100
AcDbCircle
 10
492.012718587807
 20
330.776184880971
 30
0.0
 40
1.5
100
AcDbArc
 50
90.0
 51
180.0
  0
ARC
  5
3A63
330
1A
100
AcDbEntity
  8
外形線
100
AcDbCircle
 10
482.628528222179
 20
332.276184880971
 30
0.0
 40
3.0
100
AcDbArc
 50
90.0
 51
180.0
  0
ARC
  5
3A64
330
1A
100
AcDbEntity
  8
外形線
100
AcDbCircle
 10
492.967048580763
 20
332.276184880971
 30
0.0
 40
3.0
100
AcDbArc
 50
90.0
 51
180.0
  0
LINE
  5
3A65
330
1A
100
AcDbEntity
  8
外形線
100
AcDbLine
 10
494.798235053343
 20
334.879886045481
 30
0.0
 11
496.769931394577
 21
332.276184880971
 31
0.0
  0
LINE
  5
3A66
330
1A
100
AcDbEntity
  8
外形線
100
AcDbLine
 10
567.6652301343
 20
309.276184880971
 30
0.0
 11
566.501287745099
 21
331.485528705943
 31
0.0
  0
LINE
  5
3A67
330
1A
100
AcDbEntity
  8
外形線
100
AcDbLine
 10
562.284710176004
 20
314.276184880971
 30
0.0
 11
562.284710176004
 21
330.276184880971
 31
0.0
  0
LINE
  5
3A68
330
1A
100
AcDbEntity
  8
外形線
100
AcDbLine
 10
563.072900564184
 20
314.276184880971
 30
0.0
 11
563.072900564184
 21
332.276184880971
 31
0.0
  0
LINE
  5
3A69
330
1A
100
AcDbEntity
  8
外形線
100
AcDbLine
 10
538.203157649991
 20
314.276184880972
 30
0.0
 11
538.203157649991
 21
334.276184880971
 31
0.0
  0
LINE
  5
3A6A
330
1A
100
AcDbEntity
  8
外形線
100
AcDbLine
 10
546.317741680792
 20
314.276184880971
 30
0.0
 11
546.317741680792
 21
330.776184880971
 31
0.0
  0
LINE
  5
3A6B
330
1A
100
AcDbEntity
  8
外形線
100
AcDbLine
 10
557.20193204642
 20
314.276184880972
 30
0.0
 11
557.20193204642
 21
332.276184880971
 31
0.0
  0
LINE
  5
3A6C
330
1A
100
AcDbEntity
  8
外形線
100
AcDbLine
 10
546.863411687836
 20
314.276184880971
 30
0.0
 11
546.863411687836
 21
332.276184880971
 31
0.0
  0
LINE
  5
3A6D
330
1A
100
AcDbEntity
  8
外形線
100
AcDbLine
 10
513.4152301343
 20
314.276184880971
 30
0.0
 11
513.4152301343
 21
334.276184880971
 31
0.0
  0
LINE
  5
3A6E
330
1A
100
AcDbEntity
  8
外形線
100
AcDbLine
 10
523.4152301343
 20
314.276184880971
 30
0.0
 11
523.4152301343
 21
334.276184880971
 31
0.0
  0
LINE
  5
3A6F
330
1A
100
AcDbEntity
  8
外形線
100
AcDbLine
 10
498.627302618608
 20
314.276184880972
 30
0.0
 11
498.627302618608
 21
334.276184880971
 31
0.0
  0
LINE
  5
3A70
330
1A
100
AcDbEntity
  8
外形線
100
AcDbLine
 10
551.919400935996
 20
215.445025282664
 30
0.0
 11
560.934739246555
 21
228.320262720994
 31
0.0
  0
LINE
  5
3A71
330
1A
100
AcDbEntity
  8
外形線
100
AcDbLine
 10
551.376857068864
 20
211.246686284643
 30
0.0
 11
551.376857068864
 21
213.724295973611
 31
0.0
  0
ARC
  5
3A72
330
1A
100
AcDbEntity
  8
外形線
100
AcDbCircle
 10
550.376857068863
 20
211.246686284643
 30
0.0
 40
1.0
100
AcDbArc
 50
270.0
 51
0.0
  0
ARC
  5
3A73
330
1A
100
AcDbEntity
  8
外形線
100
AcDbCircle
 10
554.376857068863
 20
213.724295973611
 30
0.0
 40
3.0
100
AcDbArc
 50
145.000000000001
 51
180.0
  0
LINE
  5
3A74
330
1A
100
AcDbEntity
  8
外形線
100
AcDbLine
 10
569.376857068864
 20
272.104612005717
 30
0.0
 11
569.376857068864
 21
276.276184880971
 31
0.0
  0
LINE
  5
3A75
330
1A
100
AcDbEntity
  8
外形線
100
AcDbLine
 10
566.243536054879
 20
230.007035733387
 30
0.0
 11
566.243536054879
 21
268.007035733387
 31
0.0
  0
LWPOLYLINE
  5
3A76
330
1A
100
AcDbEntity
  8
外形線
100
AcDbPolyline
 90
       18
 70
   128
 43
0.0
 10
559.024152849507
 20
251.507035733387
 10
558.841484810027
 20
251.464468482597
 10
558.665037311546
 20
251.338216306898
 10
558.500819061998
 20
251.132578572711
 10
558.354422316914
 20
250.854558026439
 10
558.230832441865
 20
250.513622324335
 10
558.134258141814
 20
250.121381622828
 10
558.067988138723
 20
249.691193208567
 10
558.034279178065
 20
249.237706632045
 10
558.034279178065
 20
248.776364834729
 10
558.067988138723
 20
248.322878258207
 10
558.134258141814
 20
247.892689843946
 10
558.230832441865
 20
247.500449142439
 10
558.354422316914
 20
247.159513440336
 10
558.500819061998
 20
246.881492894063
 10
558.665037311546
 20
246.675855159876
 10
558.841484810027
 20
246.549602984177
 10
559.024152849507
 20
246.507035733387
  0
LINE
  5
3A77
330
1A
100
AcDbEntity
  8
外形線
100
AcDbLine
 10
557.393176157377
 20
228.746686284643
 30
0.0
 11
557.393176157377
 21
268.746686284643
 31
0.0
  0
LINE
  5
3A78
330
1A
100
AcDbEntity
  8
外形線
100
AcDbLine
 10
555.669108199878
 20
228.746686284643
 30
0.0
 11
555.669108199878
 21
272.104612005717
 31
0.0
  0
LINE
  5
3A79
330
1A
100
AcDbEntity
  8
外形線
100
AcDbLine
 10
550.502026484201
 20
228.746686284643
 30
0.0
 11
550.5020264842
 21
268.007035733387
 31
0.0
  0
LINE
  5
3A7A
330
1A
100
AcDbEntity
  8
外形線
100
AcDbLine
 10
557.590796137117
 20
231.007035733387
 30
0.0
 11
557.590796137117
 21
267.007035733387
 31
0.0
  0
LWPOLYLINE
  5
3A7B
330
1A
100
AcDbEntity
  8
外形線
100
AcDbPolyline
 90
       18
 70
   128
 43
0.0
 10
559.024152849507
 20
246.507035733387
 10
559.392028023458
 20
246.549602984177
 10
559.747375649579
 20
246.675855159876
 10
560.078094790653
 20
246.881492894063
 10
560.372923202985
 20
247.159513440336
 10
560.621820858601
 20
247.500449142439
 10
560.81631184636
 20
247.892689843946
 10
560.949773008938
 20
248.322878258207
 10
561.017659486513
 20
248.776364834729
 10
561.017659486513
 20
249.237706632046
 10
560.949773008938
 20
249.691193208567
 10
560.816311846359
 20
250.121381622829
 10
560.621820858601
 20
250.513622324335
 10
560.372923202985
 20
250.854558026439
 10
560.078094790653
 20
251.132578572711
 10
559.747375649579
 20
251.338216306898
 10
559.392028023458
 20
251.464468482597
 10
559.024152849506
 20
251.507035733387
  0
LINE
  5
3A7C
330
1A
100
AcDbEntity
  8
外形線
100
AcDbLine
 10
566.243536054879
 20
230.007035733387
 30
0.0
 11
558.590796137117
 21
230.007035733387
 31
0.0
  0
ARC
  5
3A7D
330
1A
100
AcDbEntity
  8
外形線
100
AcDbCircle
 10
558.590796137117
 20
231.007035733387
 30
0.0
 40
1.0
100
AcDbArc
 50
180.0
 51
270.0
  0
LINE
  5
3A7E
330
1A
100
AcDbEntity
  8
外形線
100
AcDbLine
 10
565.753891290844
 20
229.746686284643
 30
0.0
 11
565.753891290844
 21
230.007035733387
 31
0.0
  0
LINE
  5
3A7F
330
1A
100
AcDbEntity
  8
外形線
100
AcDbLine
 10
561.753891290844
 20
228.746686284643
 30
0.0
 11
564.753891290844
 21
228.746686284643
 31
0.0
  0
ARC
  5
3A80
330
1A
100
AcDbEntity
  8
外形線
100
AcDbCircle
 10
564.753891290844
 20
229.746686284643
 30
0.0
 40
1.0
100
AcDbArc
 50
270.0
 51
0.0
  0
ARC
  5
3A81
330
1A
100
AcDbEntity
  8
外形線
100
AcDbCircle
 10
561.753891290844
 20
227.746686284643
 30
0.0
 40
1.0
100
AcDbArc
 50
90.0
 51
145.000000000001
  0
LINE
  5
3A82
330
1A
100
AcDbEntity
  8
外形線
100
AcDbLine
 10
566.847358472535
 20
268.746686284643
 30
0.0
 11
557.393176157377
 21
268.746686284643
 31
0.0
  0
LINE
  5
3A83
330
1A
100
AcDbEntity
  8
外形線
100
AcDbLine
 10
566.243536054879
 20
268.007035733387
 30
0.0
 11
558.590796137117
 21
268.007035733387
 31
0.0
  0
LINE
  5
3A84
330
1A
100
AcDbEntity
  8
外形線
100
AcDbLine
 10
561.630959134252
 20
249.007035733387
 30
0.0
 11
555.129794491682
 21
249.007035733387
 31
0.0
  0
LINE
  5
3A85
330
1A
100
AcDbEntity
  8
外形線
100
AcDbLine
 10
555.669108199878
 20
272.104612005717
 30
0.0
 11
550.5020264842
 21
268.007035733387
 31
0.0
  0
ARC
  5
3A86
330
1A
100
AcDbEntity
  8
外形線
100
AcDbCircle
 10
558.590796137117
 20
267.007035733387
 30
0.0
 40
1.0
100
AcDbArc
 50
90.0
 51
180.0
  0
ARC
  5
3A87
330
1A
100
AcDbEntity
  8
外形線
100
AcDbCircle
 10
567.376857068863
 20
272.104612005717
 30
0.0
 40
2.0
100
AcDbArc
 50
315.0
 51
0.0
  0
LINE
  5
3A88
330
1A
100
AcDbEntity
  8
外形線
100
AcDbLine
 10
565.753891290844
 20
268.746686284643
 30
0.0
 11
565.753891290844
 21
268.007035733387
 31
0.0
  0
LINE
  5
3A89
330
1A
100
AcDbEntity
  8
外形線
100
AcDbLine
 10
568.791070631237
 20
270.690398443344
 30
0.0
 11
566.847358472535
 21
268.746686284643
 31
0.0
  0
LWPOLYLINE
  5
3A8A
330
1A
100
AcDbEntity
  8
外形線
100
AcDbPolyline
 90
       18
 70
   128
 43
0.0
 10
-546.863411687836
 20
314.276184880971
 10
-546.789683046729
 20
313.35662490047
 10
-546.571007863852
 20
312.468379432213
 10
-546.214832860287
 20
311.641696610291
 10
-545.733287148595
 20
310.904728126706
 10
-545.142769190438
 20
310.282570559271
 10
-544.463388366632
 20
309.796410737749
 10
-543.718280176304
 20
309.462804251777
 10
-542.932818385217
 20
309.293111670119
 10
-542.13375095261
 20
309.293111670119
 10
-541.348289161523
 20
309.462804251777
 10
-540.603180971196
 20
309.796410737749
 10
-539.923800147389
 20
310.282570559271
 10
-539.333282189232
 20
310.904728126706
 10
-538.85173647754
 20
311.641696610291
 10
-538.495561473975
 20
312.468379432213
 10
-538.276886291099
 20
313.35662490047
 10
-538.203157649991
 20
314.276184880971
210
0.0
220
0.0
230
-1.0
  0
LINE
  5
3A8B
330
1A
100
AcDbEntity
  8
外形線
100
AcDbLine
 10
568.611450757526
 20
309.276184880971
 30
0.0
 11
518.4152301343
 21
309.276184880971
 31
0.0
  0
LINE
  5
3A8C
330
1A
100
AcDbEntity
  8
外形線
100
AcDbLine
 10
567.9152301343
 20
276.276184880972
 30
0.0
 11
518.4152301343
 21
276.276184880971
 31
0.0
  0
LINE
  5
3A8D
330
1A
100
AcDbEntity
  8
外形線
100
AcDbLine
 10
569.361450757526
 20
276.776184880972
 30
0.0
 11
518.4152301343
 21
276.776184880971
 31
0.0
  0
ARC
  5
3A8E
330
1A
100
AcDbEntity
  8
外形線
100
AcDbCircle
 10
518.4152301343
 20
314.276184880971
 30
0.0
 40
5.0
100
AcDbArc
 50
180.0
 51
270.0
  0
ARC
  5
3A8F
330
1A
100
AcDbEntity
  8
外形線
100
AcDbCircle
 10
518.4152301343
 20
314.276184880971
 30
0.0
 40
5.0
100
AcDbArc
 50
270.0
 51
0.0
  0
LINE
  5
3A90
330
1A
100
AcDbEntity
  8
外形線
100
AcDbLine
 10
569.361450757526
 20
276.776184880972
 30
0.0
 11
569.361450757526
 21
308.937622708738
 31
0.0
  0
LINE
  5
3A91
330
1A
100
AcDbEntity
  8
外形線
100
AcDbLine
 10
569.361450757526
 20
276.776184880972
 30
0.0
 11
568.861450757526
 21
276.276184880972
 31
0.0
  0
LINE
  5
3A92
330
1A
100
AcDbEntity
  8
外形線
100
AcDbLine
 10
567.058497965262
 20
276.276184880971
 30
0.0
 11
564.210282241416
 21
276.276184880971
 31
0.0
  0
LINE
  5
3A93
330
1A
100
AcDbEntity
  8
外形線
100
AcDbLine
 10
564.210282241416
 20
276.276184880971
 30
0.0
 11
567.9152301343
 21
276.276184880971
 31
0.0
  0
LINE
  5
3A94
330
1A
100
AcDbEntity
  8
外形線
100
AcDbLine
 10
568.876857068864
 20
276.276184880971
 30
0.0
 11
566.276857068863
 21
276.276184880971
 31
0.0
  0
LINE
  5
3A95
330
1A
100
AcDbEntity
  8
外形線
100
AcDbLine
 10
569.376857068864
 20
276.276184880971
 30
0.0
 11
564.63502000893
 21
276.276184880971
 31
0.0
  0
LINE
  5
3A96
330
1A
100
AcDbEntity
  8
外形線
100
AcDbLine
 10
569.376857068864
 20
276.276184880971
 30
0.0
 11
567.373333467795
 21
276.276184880971
 31
0.0
  0
LINE
  5
3A97
330
1A
100
AcDbEntity
  8
外形線
100
AcDbLine
 10
569.376857068864
 20
276.276184880971
 30
0.0
 11
567.849186893968
 21
276.276184880971
 31
0.0
  0
LWPOLYLINE
  5
3A98
330
1A
100
AcDbEntity
  8
外形線
100
AcDbPolyline
 90
       18
 70
   128
 43
0.0
 10
-563.072900564184
 20
314.276184880971
 10
-563.022918366328
 20
313.356583735778
 10
-562.874673856563
 20
312.468298504643
 10
-562.633215323868
 20
311.641578675734
 10
-562.306765348976
 20
310.904577201283
 10
-561.90644079425
 20
310.282391782565
 10
-561.445874232264
 20
309.796210197787
 10
-560.940749704897
 20
309.462588777707
 10
-560.408268622099
 20
309.292888599652
 10
-559.866563988505
 20
309.292888599652
 10
-559.334082905707
 20
309.462588777707
 10
-558.82895837834
 20
309.796210197787
 10
-558.368391816354
 20
310.282391782565
 10
-557.968067261628
 20
310.904577201283
 10
-557.641617286736
 20
311.641578675734
 10
-557.400158754041
 20
312.468298504643
 10
-557.251914244276
 20
313.356583735778
 10
-557.20193204642
 20
314.276184880971
210
0.0
220
0.0
230
-1.0
  0
LWPOLYLINE
  5
3A99
330
1A
100
AcDbEntity
  8
外形線
100
AcDbPolyline
 90
        8
 70
   128
 43
0.0
 10
-546.317741680792
 20
314.276184880971
 10
-546.243985453804
 20
313.320861466548
 10
-546.025229392442
 20
312.398082617351
 10
-545.668925759261
 20
311.539284217807
 10
-545.187212586947
 20
310.773722559668
 10
-544.59650017752
 20
310.12747768132
 10
-543.916912060086
 20
309.622564911055
 10
-543.171599451797
 20
309.276184880971
210
0.0
220
0.0
230
-1.0
  0
ARC
  5
3A9A
330
1A
100
AcDbEntity
  8
外形線
100
AcDbCircle
 10
568.611450757526
 20
308.276184880971
 30
0.0
 40
1.0
100
AcDbArc
 50
41.40962210927
 51
90.0
  0
LWPOLYLINE
  5
3A9B
330
1A
100
AcDbEntity
  8
外形線
100
AcDbPolyline
 90
        8
 70
   128
 43
0.0
 10
-562.284710176004
 20
314.276184880971
 10
-562.22868884589
 20
313.30311700617
 10
-562.062763098613
 20
312.367189549664
 10
-561.793266050102
 20
311.504125340383
 10
-561.430483964421
 20
310.746866135608
 10
-560.988263643794
 20
310.124315287666
 10
-560.483483918681
 20
309.660234549978
 10
-559.935411410276
 20
309.372337129573
210
0.0
220
0.0
230
-1.0
  0
LINE
  5
3A9C
330
1A
100
AcDbEntity
  8
外形線
100
AcDbLine
 10
544.817741680792
 20
332.276184880971
 30
0.0
 11
538.203157649991
 21
332.276184880971
 31
0.0
  0
LINE
  5
3A9D
330
1A
100
AcDbEntity
  8
外形線
100
AcDbLine
 10
513.4152301343
 20
332.276184880971
 30
0.0
 11
518.4152301343
 21
332.276184880971
 31
0.0
  0
ARC
  5
3A9E
330
1A
100
AcDbEntity
  8
外形線
100
AcDbCircle
 10
512.4152301343
 20
334.276184880971
 30
0.0
 40
1.0
100
AcDbArc
 50
0.0
 51
90.0
  0
ARC
  5
3A9F
330
1A
100
AcDbEntity
  8
外形線
100
AcDbCircle
 10
499.627302618608
 20
334.276184880971
 30
0.0
 40
1.0
100
AcDbArc
 50
90.0
 51
180.0
  0
LINE
  5
3AA0
330
1A
100
AcDbEntity
  8
外形線
100
AcDbLine
 10
499.627302618608
 20
335.276184880971
 30
0.0
 11
512.4152301343
 21
335.276184880971
 31
0.0
  0
LINE
  5
3AA1
330
1A
100
AcDbEntity
  8
外形線
100
AcDbLine
 10
537.203157649991
 20
335.276184880971
 30
0.0
 11
524.4152301343
 21
335.276184880971
 31
0.0
  0
LINE
  5
3AA2
330
1A
100
AcDbEntity
  8
外形線
100
AcDbLine
 10
523.4152301343
 20
332.276184880971
 30
0.0
 11
518.4152301343
 21
332.276184880971
 31
0.0
  0
ARC
  5
3AA3
330
1A
100
AcDbEntity
  8
外形線
100
AcDbCircle
 10
524.4152301343
 20
334.276184880971
 30
0.0
 40
1.0
100
AcDbArc
 50
90.0
 51
180.0
  0
ARC
  5
3AA4
330
1A
100
AcDbEntity
  8
外形線
100
AcDbCircle
 10
537.203157649991
 20
334.276184880971
 30
0.0
 40
1.0
100
AcDbArc
 50
0.0
 51
90.0
  0
LINE
  5
3AA5
330
1A
100
AcDbEntity
  8
外形線
100
AcDbLine
 10
560.284710176004
 20
332.276184880971
 30
0.0
 11
557.20193204642
 21
332.276184880971
 31
0.0
  0
LINE
  5
3AA6
330
1A
100
AcDbEntity
  8
外形線
100
AcDbLine
 10
542.829435917624
 20
335.276184880971
 30
0.0
 11
562.506769606081
 21
335.276184880971
 31
0.0
  0
ARC
  5
3AA7
330
1A
100
AcDbEntity
  8
外形線
100
AcDbCircle
 10
542.829435917624
 20
334.276184880971
 30
0.0
 40
1.0
100
AcDbArc
 50
90.0
 51
142.864563529723
  0
ARC
  5
3AA8
330
1A
100
AcDbEntity
  8
外形線
100
AcDbCircle
 10
544.817741680792
 20
330.776184880971
 30
0.0
 40
1.5
100
AcDbArc
 50
0.0
 51
90.0
  0
ARC
  5
3AA9
330
1A
100
AcDbEntity
  8
外形線
100
AcDbCircle
 10
543.863411687836
 20
332.276184880971
 30
0.0
 40
3.0
100
AcDbArc
 50
0.0
 51
90.0
  0
LINE
  5
3AAA
330
1A
100
AcDbEntity
  8
外形線
100
AcDbLine
 10
542.032225215256
 20
334.879886045481
 30
0.0
 11
540.060528874022
 21
332.276184880971
 31
0.0
  0
ARC
  5
3AAB
330
1A
100
AcDbEntity
  8
外形線
100
AcDbCircle
 10
554.20193204642
 20
332.276184880971
 30
0.0
 40
3.0
100
AcDbArc
 50
0.0
 51
90.0
  0
ARC
  5
3AAC
330
1A
100
AcDbEntity
  8
外形線
100
AcDbCircle
 10
562.506769606081
 20
331.276184880971
 30
0.0
 40
4.0
100
AcDbArc
 50
2.999999999999
 51
90.0
  0
ARC
  5
3AAD
330
1A
100
AcDbEntity
  8
外形線
100
AcDbCircle
 10
560.072900564184
 20
332.276184880971
 30
0.0
 40
3.0
100
AcDbArc
 50
0.0
 51
90.0
  0
ARC
  5
3AAE
330
1A
100
AcDbEntity
  8
外形線
100
AcDbCircle
 10
560.284710176004
 20
330.276184880971
 30
0.0
 40
2.0
100
AcDbArc
 50
0.0
 51
90.0
  0
LINE
  5
3AAF
330
1A
100
AcDbEntity
  8
外形線
 48
10.0
100
AcDbLine
 10
449.876857068863
 20
242.926184880971
 30
0.0
 11
449.876857068863
 21
273.626184880971
 31
0.0
  0
LINE
  5
3AB0
330
1A
100
AcDbEntity
  8
外形線
 48
10.0
100
AcDbLine
 10
437.956857068863
 20
244.076184880971
 30
0.0
 11
437.956857068863
 21
272.476184880971
 31
0.0
  0
LINE
  5
3AB1
330
1A
100
AcDbEntity
  8
外形線
 48
10.0
100
AcDbLine
 10
437.956857068863
 20
272.476184880971
 30
0.0
 11
437.956857068863
 21
244.076184880971
 31
0.0
  0
LINE
  5
3AB2
330
1A
100
AcDbEntity
  8
外形線
 48
10.0
100
AcDbLine
 10
448.476857068864
 20
249.526184880971
 30
0.0
 11
439.856857068863
 21
249.526184880971
 31
0.0
  0
LINE
  5
3AB3
330
1A
100
AcDbEntity
  8
外形線
 48
10.0
100
AcDbLine
 10
448.476857068864
 20
242.926184880971
 30
0.0
 11
439.856857068863
 21
242.926184880971
 31
0.0
  0
LINE
  5
3AB4
330
1A
100
AcDbEntity
  8
外形線
 48
10.0
100
AcDbLine
 10
448.476857068864
 20
251.926184880971
 30
0.0
 11
439.856857068863
 21
251.926184880971
 31
0.0
  0
LINE
  5
3AB5
330
1A
100
AcDbEntity
  8
外形線
 48
10.0
100
AcDbLine
 10
430.956857068863
 20
267.746184880971
 30
0.0
 11
430.956857068863
 21
248.806184880971
 31
0.0
  0
LINE
  5
3AB6
330
1A
100
AcDbEntity
  8
外形線
 48
10.0
100
AcDbLine
 10
437.956857068863
 20
264.626184880971
 30
0.0
 11
437.956857068863
 21
251.926184880971
 31
0.0
  0
ARC
  5
3AB7
330
1A
100
AcDbEntity
  8
外形線
 48
10.0
100
AcDbCircle
 10
449.51804127939
 20
258.276184880971
 30
0.0
 40
11.56118421052643
100
AcDbArc
 50
146.684308886848
 51
213.315691113152
  0
ARC
  5
3AB8
330
1A
100
AcDbEntity
  8
外形線
 48
10.0
100
AcDbCircle
 10
435.686857068864
 20
248.806184880971
 30
0.0
 40
4.73
100
AcDbArc
 50
180.0
 51
270.0
  0
LINE
  5
3AB9
330
1A
100
AcDbEntity
  8
外形線
 48
10.0
100
AcDbLine
 10
437.956857068863
 20
244.076184880971
 30
0.0
 11
435.686857068864
 21
244.076184880971
 31
0.0
  0
LINE
  5
3ABA
330
1A
100
AcDbEntity
  8
外形線
 48
10.0
100
AcDbLine
 10
439.856857068863
 20
251.926184880971
 30
0.0
 11
439.856857068863
 21
249.526184880971
 31
0.0
  0
ARC
  5
3ABB
330
1A
100
AcDbEntity
  8
外形線
 48
10.0
100
AcDbCircle
 10
441.772646542548
 20
246.226184880971
 30
0.0
 40
3.815789473684265
100
AcDbArc
 50
120.136976318989
 51
239.863023681011
  0
LINE
  5
3ABC
330
1A
100
AcDbEntity
  8
外形線
 48
10.0
100
AcDbLine
 10
437.956857068863
 20
244.076184880971
 30
0.0
 11
439.856857068863
 21
242.926184880971
 31
0.0
  0
LINE
  5
3ABD
330
1A
100
AcDbEntity
  8
外形線
 48
10.0
100
AcDbLine
 10
449.876857068863
 20
270.076184880971
 30
0.0
 11
449.876857068863
 21
246.476184880971
 31
0.0
  0
LINE
  5
3ABE
330
1A
100
AcDbEntity
  8
外形線
 48
10.0
100
AcDbLine
 10
448.476857068864
 20
242.926184880971
 30
0.0
 11
448.476857068864
 21
264.626184880972
 31
0.0
  0
LINE
  5
3ABF
330
1A
100
AcDbEntity
  8
外形線
 48
10.0
100
AcDbLine
 10
449.876857068863
 20
246.476184880971
 30
0.0
 11
448.476857068864
 21
246.476184880971
 31
0.0
  0
LINE
  5
3AC0
330
1A
100
AcDbEntity
  8
外形線
 48
10.0
100
AcDbLine
 10
456.876857068863
 20
242.926184880971
 30
0.0
 11
449.876857068863
 21
242.926184880971
 31
0.0
  0
LINE
  5
3AC1
330
1A
100
AcDbEntity
  8
外形線
 48
10.0
100
AcDbLine
 10
456.876857068863
 20
249.526184880971
 30
0.0
 11
449.876857068863
 21
249.526184880971
 31
0.0
  0
LINE
  5
3AC2
330
1A
100
AcDbEntity
  8
外形線
 48
10.0
100
AcDbLine
 10
456.876857068863
 20
251.926184880971
 30
0.0
 11
449.876857068863
 21
251.926184880971
 31
0.0
  0
LINE
  5
3AC3
330
1A
100
AcDbEntity
  8
外形線
 48
10.0
100
AcDbLine
 10
448.476857068864
 20
264.627629571977
 30
0.0
 11
448.476857068864
 21
273.626184880971
 31
0.0
  0
ARC
  5
3AC4
330
1A
100
AcDbEntity
  8
外形線
 48
10.0
100
AcDbCircle
 10
435.686857068864
 20
267.746184880971
 30
0.0
 40
4.73
100
AcDbArc
 50
90.0
 51
180.0
  0
ARC
  5
3AC5
330
1A
100
AcDbEntity
  8
外形線
 48
10.0
100
AcDbCircle
 10
441.772646542548
 20
270.326184880971
 30
0.0
 40
3.815789473684249
100
AcDbArc
 50
120.136976318989
 51
239.863023681011
  0
LINE
  5
3AC6
330
1A
100
AcDbEntity
  8
外形線
 48
10.0
100
AcDbLine
 10
448.476857068864
 20
264.626184880971
 30
0.0
 11
439.856857068863
 21
264.626184880971
 31
0.0
  0
LINE
  5
3AC7
330
1A
100
AcDbEntity
  8
外形線
 48
10.0
100
AcDbLine
 10
448.476857068864
 20
267.026184880971
 30
0.0
 11
439.856857068863
 21
267.026184880971
 31
0.0
  0
LINE
  5
3AC8
330
1A
100
AcDbEntity
  8
外形線
 48
10.0
100
AcDbLine
 10
439.856857068863
 20
267.026184880971
 30
0.0
 11
439.856857068863
 21
264.626184880971
 31
0.0
  0
LINE
  5
3AC9
330
1A
100
AcDbEntity
  8
外形線
 48
10.0
100
AcDbLine
 10
449.876857068863
 20
270.076184880971
 30
0.0
 11
448.476857068864
 21
270.076184880971
 31
0.0
  0
LINE
  5
3ACA
330
1A
100
AcDbEntity
  8
外形線
 48
10.0
100
AcDbLine
 10
456.876857068863
 20
264.626184880971
 30
0.0
 11
449.876857068863
 21
264.626184880971
 31
0.0
  0
LINE
  5
3ACB
330
1A
100
AcDbEntity
  8
外形線
 48
10.0
100
AcDbLine
 10
456.876857068863
 20
267.026184880971
 30
0.0
 11
449.876857068863
 21
267.026184880971
 31
0.0
  0
LINE
  5
3ACC
330
1A
100
AcDbEntity
  8
外形線
 48
10.0
100
AcDbLine
 10
439.856857068863
 20
273.626184880971
 30
0.0
 11
448.476857068864
 21
273.626184880971
 31
0.0
  0
LINE
  5
3ACD
330
1A
100
AcDbEntity
  8
外形線
 48
10.0
100
AcDbLine
 10
437.956857068863
 20
272.476184880971
 30
0.0
 11
435.686857068864
 21
272.476184880971
 31
0.0
  0
LINE
  5
3ACE
330
1A
100
AcDbEntity
  8
外形線
 48
10.0
100
AcDbLine
 10
437.956857068863
 20
272.476184880971
 30
0.0
 11
439.856857068863
 21
273.626184880971
 31
0.0
  0
LINE
  5
3ACF
330
1A
100
AcDbEntity
  8
外形線
 48
10.0
100
AcDbLine
 10
449.876857068863
 20
273.626184880971
 30
0.0
 11
456.876857068863
 21
273.626184880971
 31
0.0
  0
DIMENSION
  5
3AD1
330
1A
100
AcDbEntity
  8
寸法線
 48
10.0
100
AcDbDimension
  2
*D2
 10
518.4152301343
 20
353.82881639629
 30
0.0
 11
474.686043601582
 21
358.45381639629
 31
0.0
 70
    32
  1
84
 71
     5
 42
87.458373065436
  3
ISO-25
100
AcDbAlignedDimension
 13
430.956857068864
 23
271.396160864393
 33
0.0
 14
518.4152301343
 24
332.276184880971
 34
0.0
100
AcDbRotatedDimension
1001
ACAD
1000
DSTYLE
1002
{
1070
    41
1040
6.0
1070
    47
1040
0.1
1070
    48
1040
0.1
1070
    73
1070
     0
1070
   140
1040
8.0
1070
   271
1070
     1
1070
   272
1070
     1
1070
   341
1005
2AEB
1070
   342
1005
2AEB
1002
}
  0
MTEXT
  5
3AD2
330
1A
100
AcDbEntity
  8
寸法線
 48
10.0
100
AcDbMText
 10
401.664889917459
 20
196.064248289167
 30
0.0
 40
8.0
 41
74.879508185316
 71
     9
 72
     1
  1
\A1;2×NPT{\H0.7x;\S1#2;"}
 73
     1
 44
1.0
  0
MTEXT
  5
3AD3
102
{ACAD_XDICTIONARY
360
3D28
102
}
330
1A
100
AcDbEntity
  8
寸法線
 48
10.0
100
AcDbMText
 10
399.21272317411
 20
238.409453189421
 30
0.0
 40
8.0
 41
86.860231521005
 71
     9
 72
     1
  1
code lock\P2× M20
 73
     1
 44
1.0
1001
AcadAnnotative
1000
AnnotativeData
1002
{
1070
     1
1070
     0
1002
}
  0
LEADER
  5
3AD4
330
1A
100
AcDbEntity
  8
寸法線
 48
10.0
100
AcDbLeader
  3
ISO-25
 76
     3
 10
430.956857068863
 20
258.297200512927
 30
0.0
 10
400.320827467255
 20
237.499201713781
 30
0.0
 10
361.507333548503
 20
237.499201713781
 30
0.0
1001
ACAD
1000
DSTYLE
1002
{
1070
   147
1040
0.625
1070
    77
1070
     0
1070
    41
1040
6.0
1070
    47
1040
0.1
1070
    48
1040
0.1
1070
    73
1070
     0
1070
   140
1040
5.0
1070
   271
1070
     1
1070
   272
1070
     1
1070
   341
1005
2AEB
1070
   342
1005
2AEB
1002
}
  0
LEADER
  5
3AD5
330
1A
100
AcDbEntity
  8
寸法線
 48
10.0
100
AcDbLeader
  3
ISO-25
 76
     3
 10
467.416504682602
 20
251.462272030613
 30
0.0
 10
402.33950894931
 20
195.034660211192
 30
0.0
 10
357.898601100945
 20
195.034660211192
 30
0.0
1001
ACAD
1000
DSTYLE
1002
{
1070
   147
1040
0.625
1070
    77
1070
     0
1070
    41
1040
6.0
1070
    47
1040
0.1
1070
    48
1040
0.1
1070
    73
1070
     0
1070
   140
1040
5.0
1070
   271
1070
     1
1070
   272
1070
     1
1070
   341
1005
2AEB
1070
   342
1005
2AEB
1002
}
  0
LINE
  5
3AD6
330
1A
100
AcDbEntity
  8
外形線
 48
10.0
100
AcDbLine
 10
518.376857068863
 20
210.246686284643
 30
0.0
 11
551.476857068862
 21
210.246686284643
 31
0.0
  0
LINE
  5
3AD7
330
1A
100
AcDbEntity
  8
外形線
 48
10.0
100
AcDbLine
 10
551.476857068862
 20
210.246686284643
 30
0.0
 11
485.276857068863
 21
210.246686284643
 31
0.0
  0
DIMENSION
  5
3AD8
330
1A
100
AcDbEntity
  8
寸法線
 48
10.0
100
AcDbDimension
  2
*D3
 10
603.616044847086
 20
188.946686284643
 30
0.0
 11
603.616044847086
 21
253.337154684647
 31
0.0
 70
   160
  1
148
 71
     5
 42
146.329498596329
  3
ISO-25
100
AcDbAlignedDimension
 13
566.690688823869
 23
335.276184880971
 33
0.0
 14
550.926857068863
 24
188.946686284643
 34
0.0
 50
90.0
100
AcDbRotatedDimension
1001
ACAD
1000
DSTYLE
1002
{
1070
    41
1040
6.0
1070
    47
1040
0.1
1070
    48
1040
0.1
1070
    73
1070
     0
1070
   140
1040
8.0
1070
   271
1070
     1
1070
   272
1070
     1
1070
   341
1005
2AEB
1070
   342
1005
2AEB
1002
}
  0
LINE
  5
3AD9
330
1A
100
AcDbEntity
  8
中心線
 48
10.0
100
AcDbLine
 10
518.376857068864
 20
120.930248627344
 30
0.0
 11
518.376857068863
 21
336.659701798463
 31
0.0
  0
LINE
  5
3ADA
330
1A
100
AcDbEntity
  8
外形線
 48
10.0
100
AcDbLine
 10
479.076857068863
 20
206.696686284643
 30
0.0
 11
479.076857068863
 21
192.496686284643
 31
0.0
  0
LINE
  5
3ADB
330
1A
100
AcDbEntity
  8
外形線
 48
10.0
100
AcDbLine
 10
479.076857068863
 20
192.496686284643
 30
0.0
 11
479.076857068863
 21
206.696686284643
 31
0.0
  0
LINE
  5
3ADC
330
1A
100
AcDbEntity
  8
外形線
 48
10.0
100
AcDbLine
 10
557.676857068863
 20
206.696686284643
 30
0.0
 11
557.676857068863
 21
192.496686284643
 31
0.0
  0
LINE
  5
3ADD
330
1A
100
AcDbEntity
  8
外形線
 48
10.0
100
AcDbLine
 10
557.676857068863
 20
192.496686284643
 30
0.0
 11
557.676857068863
 21
206.696686284643
 31
0.0
  0
LINE
  5
3ADE
330
1A
100
AcDbEntity
  8
外形線
 48
10.0
100
AcDbLine
 10
538.001857068863
 20
192.496686284643
 30
0.0
 11
538.001857068863
 21
206.696686284643
 31
0.0
  0
LINE
  5
3ADF
330
1A
100
AcDbEntity
  8
外形線
 48
10.0
100
AcDbLine
 10
498.751857068863
 20
192.496686284643
 30
0.0
 11
498.751857068863
 21
206.696686284643
 31
0.0
  0
LINE
  5
3AE0
330
1A
100
AcDbEntity
  8
外形線
 48
10.0
100
AcDbLine
 10
488.576857068863
 20
188.946686284643
 30
0.0
 11
548.176857068863
 21
188.946686284643
 31
0.0
  0
ARC
  5
3AE1
330
1A
100
AcDbEntity
  8
外形線
 48
10.0
100
AcDbCircle
 10
518.376857068863
 20
244.966844735347
 30
0.0
 40
56.02015845070423
100
AcDbArc
 50
249.493091256475
 51
290.506908743518
  0
ARC
  5
3AE2
330
1A
100
AcDbEntity
  8
外形線
 48
10.0
100
AcDbCircle
 10
488.914357068863
 20
204.352166038163
 30
0.0
 40
15.4054797535208
100
AcDbArc
 50
230.314619378406
 51
309.685380621594
  0
ARC
  5
3AE3
330
1A
100
AcDbEntity
  8
外形線
 48
10.0
100
AcDbCircle
 10
547.839357068864
 20
204.352166038164
 30
0.0
 40
15.40547975352116
100
AcDbArc
 50
230.314619378406
 51
309.685380621594
  0
ARC
  5
3AE4
330
1A
100
AcDbEntity
  8
外形線
 48
10.0
100
AcDbCircle
 10
488.914357068863
 20
194.841206531122
 30
0.0
 40
15.40547975352081
100
AcDbArc
 50
50.314619378406
 51
129.685380621594
  0
LINE
  5
3AE5
330
1A
100
AcDbEntity
  8
外形線
 48
10.0
100
AcDbLine
 10
479.076857068863
 20
206.696686284643
 30
0.0
 11
485.276857068864
 21
210.246686284643
 31
0.0
  0
ARC
  5
3AE6
330
1A
100
AcDbEntity
  8
外形線
 48
10.0
100
AcDbCircle
 10
518.376857068863
 20
154.226527833938
 30
0.0
 40
56.02015845070423
100
AcDbArc
 50
69.493091256482
 51
110.506908743518
  0
ARC
  5
3AE7
330
1A
100
AcDbEntity
  8
外形線
 48
10.0
100
AcDbCircle
 10
547.839357068864
 20
194.841206531121
 30
0.0
 40
15.40547975352145
100
AcDbArc
 50
50.314619378414
 51
129.685380621586
  0
LINE
  5
3AE8
330
1A
100
AcDbEntity
  8
外形線
 48
10.0
100
AcDbLine
 10
551.476857068863
 20
210.246686284643
 30
0.0
 11
557.676857068863
 21
206.696686284643
 31
0.0
  0
LINE
  5
3AE9
330
1A
100
AcDbEntity
  8
外形線
 48
10.0
100
AcDbLine
 10
518.376857068863
 20
210.246686284643
 30
0.0
 11
551.476857068863
 21
210.246686284643
 31
0.0
  0
LINE
  5
3AEA
330
1A
100
AcDbEntity
  8
外形線
 48
10.0
100
AcDbLine
 10
551.476857068863
 20
210.246686284643
 30
0.0
 11
485.276857068864
 21
210.246686284643
 31
0.0
  0
LINE
  5
3AEB
330
1A
100
AcDbEntity
  8
外形線
 48
10.0
100
AcDbLine
 10
432.53748503658
 20
20.478128398748
 30
0.0
 11
472.53748503658
 21
20.478128398748
 31
0.0
  0
LINE
  5
3AEC
330
1A
100
AcDbEntity
  8
外形線
 48
10.0
100
AcDbLine
 10
452.53748503658
 20
0.478128398748
 30
0.0
 11
452.53748503658
 21
20.478128398748
 31
0.0
  0
LINE
  5
3AED
330
1A
100
AcDbEntity
  8
外形線
 48
10.0
100
AcDbLine
 10
432.53748503658
 20
0.478128398748
 30
0.0
 11
472.53748503658
 21
0.478128398748
 31
0.0
  0
LINE
  5
3AEE
330
1A
100
AcDbEntity
  8
外形線
 48
10.0
100
AcDbLine
 10
472.53748503658
 20
0.478128398748
 30
0.0
 11
472.53748503658
 21
20.478128398748
 31
0.0
  0
LINE
  5
3AEF
330
1A
100
AcDbEntity
  8
外形線
 48
10.0
100
AcDbLine
 10
432.53748503658
 20
20.478128398748
 30
0.0
 11
432.53748503658
 21
0.478128398748
 31
0.0
  0
MTEXT
  5
3AF0
330
1A
100
AcDbEntity
  8
寸法線
 48
10.0
100
AcDbMText
 10
452.747752869849
 20
9.922263689346
 30
0.0
 40
8.0
 41
33.394742934292
 71
     5
 72
     1
  1
{\H1.5x;1　2}
 73
     1
 44
1.0
  0
MTEXT
  5
3AF1
330
1A
100
AcDbEntity
  8
寸法線
 48
10.0
100
AcDbMText
 10
451.305885247975
 20
54.834971514278
 30
0.0
 40
8.0
 41
5.627771529093
 71
     1
 72
     5
  1
u
 73
     1
 44
1.0
  0
LINE
  5
3AF2
330
1A
100
AcDbEntity
  8
外形線
 48
10.0
100
AcDbLine
 10
584.034253680834
 20
-69.351047708415
 30
0.0
 11
584.034253680833
 21
-49.351047708415
 31
0.0
  0
LINE
  5
3AF3
330
1A
100
AcDbEntity
  8
寸法線
 48
10.0
100
AcDbLine
 10
554.034253680834
 20
-49.351047708415
 30
0.0
 11
554.034253680834
 21
-38.895766285304
 31
0.0
  0
LINE
  5
3AF4
330
1A
100
AcDbEntity
  8
寸法線
 48
10.0
100
AcDbLine
 10
574.034253680834
 20
-49.351047708415
 30
0.0
 11
574.034253680834
 21
-26.893353851933
 31
0.0
  0
LINE
  5
3AF5
330
1A
100
AcDbEntity
  8
寸法線
 48
10.0
100
AcDbLine
 10
534.034253680834
 20
-49.351047708415
 30
0.0
 11
534.034253680834
 21
-26.893353851933
 31
0.0
  0
LINE
  5
3AF6
330
1A
100
AcDbEntity
  8
寸法線
 48
10.0
100
AcDbLine
 10
534.034253680834
 20
-26.893353851933
 30
0.0
 11
544.652661841473
 21
-26.893353851933
 31
0.0
  0
LINE
  5
3AF7
330
1A
100
AcDbEntity
  8
寸法線
 48
10.0
100
AcDbLine
 10
554.034253680834
 20
-38.895766285304
 30
0.0
 11
565.263575970843
 21
-24.529445539344
 31
0.0
  0
LINE
  5
3AF8
330
1A
100
AcDbEntity
  8
寸法線
 48
10.0
100
AcDbLine
 10
563.415845520195
 20
-26.893353851933
 30
0.0
 11
574.034253680834
 21
-26.893353851933
 31
0.0
  0
MTEXT
  5
3AF9
102
{ACAD_XDICTIONARY
360
3D22
102
}
330
1A
100
AcDbEntity
  8
寸法線
 48
10.0
100
AcDbMText
 10
552.177971110603
 20
-76.093267062822
 30
0.0
 40
8.0
 41
61.128076267626
 71
     5
 72
     1
  1
relayー2
 73
     1
 44
1.0
1001
AcadAnnotative
1000
AnnotativeData
1002
{
1070
     1
1070
     0
1002
}
  0
LINE
  5
3AFA
330
1A
100
AcDbEntity
  8
寸法線
 48
10.0
100
AcDbLine
 10
563.011414577395
 20
30.933409821859
 30
0.0
 11
567.911709071481
 21
30.933409821859
 31
0.0
  0
DIMENSION
  5
3AFB
330
1A
100
AcDbEntity
  8
寸法線
 48
10.0
100
AcDbDimension
  2
*D4
 10
585.69444170303
 20
188.946686284643
 30
0.0
 11
585.69444170303
 21
181.446686284643
 31
0.0
 70
   160
 71
     5
 42
15.0
  3
ISO-25
100
AcDbAlignedDimension
 13
548.176857068863
 23
173.946686284643
 33
0.0
 14
553.446275426567
 24
188.946686284643
 34
0.0
 50
90.0
100
AcDbRotatedDimension
1001
ACAD
1000
DSTYLE
1002
{
1070
    41
1040
6.0
1070
    47
1040
0.1
1070
    48
1040
0.1
1070
    73
1070
     0
1070
   140
1040
8.0
1070
   271
1070
     1
1070
   272
1070
     1
1070
   341
1005
2AEB
1070
   342
1005
2AEB
1002
}
  0
DIMENSION
  5
3AFC
330
1A
100
AcDbEntity
  8
寸法線
 48
10.0
100
AcDbDimension
  2
*D5
 10
603.616044847086
 20
128.946686284643
 30
0.0
 11
603.616044847086
 21
157.536397995322
 31
0.0
 70
   160
 71
     5
 42
60.0
  3
ISO-25
100
AcDbAlignedDimension
 13
552.891092874501
 23
188.946686284643
 33
0.0
 14
547.669730297428
 24
128.946686284643
 34
0.0
 50
90.0
100
AcDbRotatedDimension
1001
ACAD
1000
DSTYLE
1002
{
1070
    41
1040
6.0
1070
    47
1040
0.1
1070
    48
1040
0.1
1070
    73
1070
     0
1070
   140
1040
8.0
1070
   271
1070
     1
1070
   272
1070
     1
1070
   341
1005
2AEB
1070
   342
1005
2AEB
1002
}
  0
LEADER
  5
3AFD
330
1A
100
AcDbEntity
  8
寸法線
 48
10.0
100
AcDbLeader
  3
ISO-25
 76
     3
 10
488.779205924598
 20
181.117740551819
 30
0.0
 10
446.560918421765
 20
154.815098144142
 30
0.0
 10
433.902225126344
 20
154.815098144142
 30
0.0
1001
ACAD
1000
DSTYLE
1002
{
1070
   147
1040
0.625
1070
    77
1070
     0
1070
    41
1040
6.0
1070
    47
1040
0.1
1070
    48
1040
0.1
1070
    73
1070
     0
1070
   140
1040
5.0
1070
   271
1070
     1
1070
   272
1070
     1
1070
   341
1005
2AEB
1070
   342
1005
2AEB
1002
}
  0
DIMENSION
  5
3AFE
330
1A
100
AcDbEntity
  8
寸法線
 48
10.0
100
AcDbDimension
  2
*D6
 10
545.376857068864
 20
104.709454705297
 30
0.0
 11
518.376857068864
 21
109.334454705297
 31
0.0
 70
    32
  1
φ<>
 71
     5
 42
54.0
  3
ISO-25
100
AcDbAlignedDimension
 13
491.376857068864
 23
128.946686284643
 33
0.0
 14
545.376857068864
 24
128.946686284643
 34
0.0
100
AcDbRotatedDimension
1001
ACAD
1000
DSTYLE
1002
{
1070
    41
1040
6.0
1070
    47
1040
0.1
1070
    48
1040
0.1
1070
    73
1070
     0
1070
   140
1040
8.0
1070
   271
1070
     1
1070
   272
1070
     1
1070
   341
1005
2AEB
1070
   342
1005
2AEB
1002
}
  0
LINE
  5
3AFF
330
1A
100
AcDbEntity
  8
外形線
 48
10.0
100
AcDbLine
 10
550.301857068863
 20
186.586686284643
 30
0.0
 11
550.301857068863
 21
188.946686284643
 31
0.0
  0
LINE
  5
3B00
330
1A
100
AcDbEntity
  8
外形線
 48
10.0
100
AcDbLine
 10
548.176857068863
 20
186.586686284643
 30
0.0
 11
548.176857068863
 21
173.946686284643
 31
0.0
  0
LINE
  5
3B01
330
1A
100
AcDbEntity
  8
細線
 48
10.0
100
AcDbLine
 10
546.701857068864
 20
186.586686284643
 30
0.0
 11
546.701857068864
 21
173.946686284643
 31
0.0
  0
LINE
  5
3B02
330
1A
100
AcDbEntity
  8
外形線
 48
10.0
100
AcDbLine
 10
545.376857068864
 20
128.946686284643
 30
0.0
 11
545.376857068864
 21
173.946686284643
 31
0.0
  0
LINE
  5
3B03
330
1A
100
AcDbEntity
  8
外形線
 48
10.0
100
AcDbLine
 10
486.451857068863
 20
186.586686284643
 30
0.0
 11
486.451857068863
 21
188.946686284643
 31
0.0
  0
LINE
  5
3B04
330
1A
100
AcDbEntity
  8
外形線
 48
10.0
100
AcDbLine
 10
488.576857068864
 20
186.586686284643
 30
0.0
 11
488.576857068864
 21
173.946686284643
 31
0.0
  0
LINE
  5
3B05
330
1A
100
AcDbEntity
  8
細線
 48
10.0
100
AcDbLine
 10
490.051857068863
 20
186.586686284643
 30
0.0
 11
490.051857068863
 21
173.946686284643
 31
0.0
  0
MTEXT
  5
3B06
330
1A
100
AcDbEntity
  8
寸法線
 48
10.0
100
AcDbMText
 10
449.239039244285
 20
155.182924134943
 30
0.0
 40
8.0
 41
86.8602
 71
     9
 72
     1
  1
G2"
 73
     1
 44
1.0
  0
LINE
  5
3B07
330
1A
100
AcDbEntity
  8
外形線
 48
10.0
100
AcDbLine
 10
491.376857068864
 20
173.946686284643
 30
0.0
 11
491.376857068864
 21
128.946686284643
 31
0.0
  0
LINE
  5
3B08
330
1A
100
AcDbEntity
  8
外形線
 48
10.0
100
AcDbLine
 10
491.376857068864
 20
173.946686284643
 30
0.0
 11
491.376857068864
 21
141.946686284643
 31
0.0
  0
LINE
  5
3B09
330
1A
100
AcDbEntity
  8
外形線
 48
10.0
100
AcDbLine
 10
488.576857068863
 20
186.586686284643
 30
0.0
 11
548.176857068863
 21
186.586686284643
 31
0.0
  0
LINE
  5
3B0A
330
1A
100
AcDbEntity
  8
外形線
 48
10.0
100
AcDbLine
 10
486.451857068863
 20
186.586686284643
 30
0.0
 11
550.301857068863
 21
186.586686284643
 31
0.0
  0
LINE
  5
3B0B
330
1A
100
AcDbEntity
  8
外形線
 48
10.0
100
AcDbLine
 10
486.451857068863
 20
188.946686284643
 30
0.0
 11
550.301857068863
 21
188.946686284643
 31
0.0
  0
LINE
  5
3B0C
330
1A
100
AcDbEntity
  8
外形線
 48
10.0
100
AcDbLine
 10
486.451857068864
 20
186.586686284643
 30
0.0
 11
550.301857068863
 21
186.586686284643
 31
0.0
  0
LINE
  5
3B0D
330
1A
100
AcDbEntity
  8
外形線
 48
10.0
100
AcDbLine
 10
488.576857068864
 20
188.946686284643
 30
0.0
 11
548.176857068863
 21
188.946686284643
 31
0.0
  0
LINE
  5
3B0E
330
1A
100
AcDbEntity
  8
外形線
 48
10.0
100
AcDbLine
 10
488.576857068864
 20
173.946686284643
 30
0.0
 11
548.176857068863
 21
173.946686284643
 31
0.0
  0
LINE
  5
3B0F
330
1A
100
AcDbEntity
  8
外形線
 48
10.0
100
AcDbLine
 10
545.376857068864
 20
173.946686284643
 30
0.0
 11
491.376857068864
 21
173.946686284643
 31
0.0
  0
LINE
  5
3B10
330
1A
100
AcDbEntity
  8
外形線
 48
10.0
100
AcDbLine
 10
491.376857068864
 20
128.946686284643
 30
0.0
 11
545.376857068864
 21
128.946686284643
 31
0.0
  0
VIEWPORT
  5
2965
102
{ACAD_XDICTIONARY
360
3E7E
102
}
330
2963
100
AcDbEntity
 67
     1
  8
0
100
AcDbViewport
 10
0.0
 20
0.0
 30
0.0
 40
335.860487944646
 41
238.995064197807
 68
     1
 69
     1
 12
120.04698497075
 22
71.529383209467
 13
0.0
 23
0.0
 14
10.0
 24
10.0
 15
10.0
 25
10.0
 16
0.0
 26
0.0
 36
1.0
 17
0.0
 27
0.0
 37
0.0
 42
50.0
 43
0.0
 44
0.0
 45
238.995064197807
 50
0.0
 51
0.0
 72
   100
 90
    32784
  1

281
     0
 71
     1
 74
     0
110
0.0
120
0.0
130
0.0
111
1.0
121
0.0
131
0.0
112
0.0
122
1.0
132
0.0
 79
     0
146
0.0
170
     0
  0
VIEWPORT
  5
2966
102
{ACAD_XDICTIONARY
360
3E80
102
}
330
2963
100
AcDbEntity
 67
     1
  8
図枠太線
 48
10.0
100
AcDbViewport
 10
102.845259294236
 20
157.1607220215
 30
0.0
 40
190.003614786078
 41
249.999227779523
 68
     2
 69
     2
 12
510.175658696181
 22
147.360632014199
 13
0.0
 23
0.0
 14
1.0
 24
1.0
 15
0.0
 25
0.0
 16
0.0
 26
0.0
 36
1.0
 17
0.0
 27
0.0
 37
0.0
 42
50.0
 43
0.0
 44
0.0
 45
499.998457023874
 50
0.0
 51
0.0
 72
   100
 90
    32768
  1

281
     0
 71
     1
 74
     0
110
0.0
120
0.0
130
0.0
111
1.0
121
0.0
131
0.0
112
0.0
122
1.0
132
0.0
 79
     0
146
0.0
170
     0
  0
INSERT
  5
2A23
330
2963
100
AcDbEntity
 67
     1
  8
図枠太線
100
AcDbBlockReference
  2
A4縦用　タイトル
 10
5.478820823007
 20
-2.364323092846
 30
0.0
  0
MTEXT
  5
2DA1
102
{ACAD_XDICTIONARY
360
3D39
102
}
330
2963
100
AcDbEntity
 67
     1
  8
寸法線
 48
10.0
100
AcDbMText
 10
158.449131229562
 20
12.207980540526
 30
0.0
 40
6.0
 41
33.802411590034
 71
     1
 72
     5
  1
HX-1134
 73
     1
 44
1.0
1001
AcadAnnotative
1000
AnnotativeData
1002
{
1070
     1
1070
     0
1002
}
  0
MTEXT
  5
2DA2
330
2963
100
AcDbEntity
 67
     1
  8
寸法線
 48
10.0
100
AcDbMText
 10
52.553610248465
 20
11.481638943946
 30
0.0
 40
5.0
 41
7.592808079748
 71
     1
 72
     5
  1
1:2
 73
     1
 44
1.0
  0
MTEXT
  5
2DA4
330
2963
100
AcDbEntity
 67
     1
  8
寸法線
 48
10.0
100
AcDbMText
 10
69.828056691625
 20
25.089116837899
 30
0.0
 40
3.0
 41
13.833818709511
 71
     1
 72
     5
  1
ohno
 73
     1
 44
1.0
  0
MTEXT
  5
2DA7
102
{ACAD_XDICTIONARY
360
3D2B
102
}
330
2963
100
AcDbEntity
 67
     1
  8
寸法線
 48
10.0
100
AcDbMText
 10
143.379329441985
 20
27.525901817964
 30
0.0
 40
6.0
 41
54.467737245289
 71
     1
 72
     5
  1
\H0.8333x;Type：SBA-480
 73
     1
 44
1.0
1001
AcadAnnotative
1000
AnnotativeData
1002
{
1070
     1
1070
     0
1002
}
  0
MTEXT
  5
3874
102
{ACAD_XDICTIONARY
360
3D2E
102
}
330
2963
100
AcDbEntity
 67
     1
  8
寸法線
 48
10.0
100
AcDbMText
 10
167.745501199167
 20
39.377000438711
 30
0.0
 40
4.5
 41
49.369323732206
 71
     1
 72
     5
  1
Q'ty：
 73
     1
 44
1.0
1001
AcadAnnotative
1000
AnnotativeData
1002
{
1070
     1
1070
     0
1002
}
  0
MTEXT
  5
3C31
102
{ACAD_XDICTIONARY
360
3D1C
102
}
330
2963
100
AcDbEntity
 67
     1
  8
寸法線
 48
10.0
100
AcDbMText
 10
27.538375723785
 20
110.0450595816
 30
0.0
 40
2.333873885063
 41
46.483464473868
 71
     1
 72
     5
  1
\H2.142x;Terminal arrangement
 73
     1
 44
1.0
1001
AcadAnnotative
1000
AnnotativeData
1002
{
1070
     1
1070
     0
1002
}
  0
MTEXT
  5
3D3C
330
2963
100
AcDbEntity
 67
     1
  8
寸法線
 48
10.0
100
AcDbMText
 10
66.888168861285
 20
9.589190002809
 30
0.0
 40
2.333873885063
 41
12.921517094219
 71
     1
 72
     1
  1
May,18,2016
 73
     1
 44
1.0
  0
MTEXT
  5
3D6A
102
{ACAD_XDICTIONARY
360
3DC7
102
}
330
2963
100
AcDbEntity
 67
     1
  8
寸法線
 48
10.0
100
AcDbMText
 10
85.181676539267
 20
29.677907511926
 30
0.0
 40
2.2
 41
170.08
 71
     1
 72
     5
  1
Ultrasonic Level Transmitter For liquids
 73
     1
 44
1.0
1001
AcadAnnotative
1000
AnnotativeData
1002
{
1070
     1
1070
     0
1002
}
  0
MTEXT
  5
3D6B
330
2963
100
AcDbEntity
 67
     1
  8
寸法線
 48
10.0
100
AcDbMText
 10
85.659041124689
 20
21.492978906834
 30
0.0
 40
2.0
 41
92.516666666667
 71
     1
 72
     5
  1
Manufacture：NIVELCO Process Control Co.
 73
     1
 44
1.0
  0
ENDSEC
  0
SECTION
  2
OBJECTS
  0
DICTIONARY
  5
C
330
0
100
AcDbDictionary
281
     1
  3
ACAD_COLOR
350
2948
  3
ACAD_DETAILVIEWSTYLE
350
3D37
  3
ACAD_GROUP
350
D
  3
ACAD_LAYOUT
350
2816
  3
ACAD_MATERIAL
350
2947
  3
ACAD_MLEADERSTYLE
350
3D17
  3
ACAD_MLINESTYLE
350
E
  3
ACAD_PLOTSETTINGS
350
2817
  3
ACAD_PLOTSTYLENAME
350
2814
  3
ACAD_SCALELIST
350
3CF0
  3
ACAD_SECTIONVIEWSTYLE
350
3D38
  3
ACAD_TABLESTYLE
350
3D15
  3
ACAD_VISUALSTYLE
350
3CD7
  3
ACDB_RECOMPOSE_DATA
350
3EBF
  3
AcDbVariableDictionary
350
3D31
  0
DICTIONARY
  5
3E82
330
8
100
AcDbDictionary
280
     1
281
     1
  3
ACAD_XREC_ROUNDTRIP
360
3E83
  0
DICTIONARY
  5
29EA
330
2
100
AcDbDictionary
280
     1
281
     1
  3
ACAD_LAYERFILTERS
360
2B03
  3
ACAD_LAYERSTATES
360
29EB
  0
DICTIONARY
  5
3D25
330
3A10
100
AcDbDictionary
280
     1
281
     1
  3
AcDbContextDataManager
360
3D26
  0
DICTIONARY
  5
3D1F
330
3A11
100
AcDbDictionary
280
     1
281
     1
  3
AcDbContextDataManager
360
3D20
  0
DICTIONARY
  5
3D28
330
3AD3
100
AcDbDictionary
280
     1
281
     1
  3
AcDbContextDataManager
360
3D29
  0
DICTIONARY
  5
3D22
330
3AF9
100
AcDbDictionary
280
     1
281
     1
  3
AcDbContextDataManager
360
3D23
  0
DICTIONARY
  5
3E7E
330
2965
100
AcDbDictionary
280
     1
281
     1
  3
ACAD_XREC_ROUNDTRIP
360
3E7F
  0
DICTIONARY
  5
3E80
330
2966
100
AcDbDictionary
280
     1
281
     1
  3
ACAD_XREC_ROUNDTRIP
360
3E81
  0
DICTIONARY
  5
3D39
330
2DA1
100
AcDbDictionary
280
     1
281
     1
  3
AcDbContextDataManager
360
3D3A
  0
DICTIONARY
  5
3D2B
330
2DA7
100
AcDbDictionary
280
     1
281
     1
  3
AcDbContextDataManager
360
3D2C
  0
DICTIONARY
  5
3D2E
330
3874
100
AcDbDictionary
280
     1
281
     1
  3
AcDbContextDataManager
360
3D2F
  0
DICTIONARY
  5
3D1C
330
3C31
100
AcDbDictionary
280
     1
281
     1
  3
AcDbContextDataManager
360
3D1D
  0
DICTIONARY
  5
3DC7
330
3D6A
100
AcDbDictionary
280
     1
281
     1
  3
AcDbContextDataManager
360
3DC8
  0
DICTIONARY
  5
2948
102
{ACAD_REACTORS
330
C
102
}
330
C
100
AcDbDictionary
281
     1
  0
DICTIONARY
  5
3D37
102
{ACAD_REACTORS
330
C
102
}
330
C
100
AcDbDictionary
281
     1
  0
DICTIONARY
  5
D
102
{ACAD_REACTORS
330
C
102
}
330
C
100
AcDbDictionary
281
     1
  0
DICTIONARY
  5
2816
102
{ACAD_REACTORS
330
C
102
}
330
C
100
AcDbDictionary
281
     1
  3
A4縦
350
2994
  3
Model
350
2818
  0
DICTIONARY
  5
2947
102
{ACAD_REACTORS
330
C
102
}
330
C
100
AcDbDictionary
281
     1
  3
ByBlock
350
3D13
  3
ByLayer
350
3D12
  3
Global
350
3D14
  0
DICTIONARY
  5
3D17
102
{ACAD_REACTORS
330
C
102
}
330
C
100
AcDbDictionary
281
     1
  3
Standard
350
3D18
  0
DICTIONARY
  5
E
102
{ACAD_REACTORS
330
C
102
}
330
C
100
AcDbDictionary
281
     1
  3
STANDARD
350
13
  0
DICTIONARY
  5
2817
102
{ACAD_REACTORS
330
C
102
}
330
C
100
AcDbDictionary
281
     1
  0
ACDBDICTIONARYWDFLT
  5
2814
102
{ACAD_REACTORS
330
C
102
}
330
C
100
AcDbDictionary
281
     1
  3
Normal
350
2815
100
AcDbDictionaryWithDefault
340
2815
  0
DICTIONARY
  5
3CF0
102
{ACAD_REACTORS
330
C
102
}
330
C
100
AcDbDictionary
281
     1
  3
A0
350
3CF1
  3
A1
350
3CF2
  3
A2
350
3CF3
  3
A3
350
3CF4
  3
A4
350
3CF5
  3
A5
350
3CF6
  3
A6
350
3CF7
  3
A7
350
3CF8
  3
A8
350
3CF9
  3
A9
350
3CFA
  3
B0
350
3CFB
  3
B1
350
3CFC
  3
B2
350
3CFD
  3
B3
350
3CFE
  3
B4
350
3CFF
  3
B5
350
3D00
  3
B6
350
3D01
  3
B7
350
3D02
  3
B8
350
3D03
  3
B9
350
3D04
  3
C0
350
3D05
  3
C1
350
3D06
  3
C2
350
3D07
  3
C3
350
3D08
  3
C4
350
3D09
  3
C5
350
3D0A
  3
C6
350
3D0B
  3
C7
350
3D0C
  3
C8
350
3D0D
  3
C9
350
3D0E
  3
D0
350
3D0F
  3
D1
350
3D10
  3
D2
350
3D11
  0
DICTIONARY
  5
3D38
102
{ACAD_REACTORS
330
C
102
}
330
C
100
AcDbDictionary
281
     1
  0
DICTIONARY
  5
3D15
102
{ACAD_REACTORS
330
C
102
}
330
C
100
AcDbDictionary
281
     1
  3
Standard
350
3D16
  0
DICTIONARY
  5
3CD7
102
{ACAD_REACTORS
330
C
102
}
330
C
100
AcDbDictionary
281
     1
  3
2dWireframe
350
3CDC
  3
Basic
350
3CDF
  3
Brighten
350
3CE3
  3
ColorChange
350
3CE7
  3
Conceptual
350
3CE1
  3
Dim
350
3CE2
  3
EdgeColorOff
350
3CEA
  3
Facepattern
350
3CE6
  3
Flat
350
3CD8
  3
FlatWithEdges
350
3CD9
  3
Gouraud
350
3CDA
  3
GouraudWithEdges
350
3CDB
  3
Hidden
350
3CDE
  3
JitterOff
350
3CE8
  3
Linepattern
350
3CE5
  3
OverhangOff
350
3CE9
  3
Realistic
350
3CE0
  3
Shaded
350
3CEF
  3
Shaded with edges
350
3CEE
  3
Shades of Gray
350
3CEB
  3
Sketchy
350
3CEC
  3
Thicken
350
3CE4
  3
Wireframe
350
3CDD
  3
X-Ray
350
3CED
  0
XRECORD
  5
3EBF
102
{ACAD_REACTORS
330
C
102
}
330
C
100
AcDbXrecord
280
     1
 90
        1
330
3D16
  0
DICTIONARY
  5
3D31
102
{ACAD_REACTORS
330
C
102
}
330
C
100
AcDbDictionary
281
     1
  3
CANNOSCALE
350
3D32
  3
CMLEADERSTYLE
350
3D34
  3
CTABLESTYLE
350
3D33
  3
MSLTSCALE
350
3D35
  3
XCLIPFRAME
350
3D36
  0
XRECORD
  5
3E83
102
{ACAD_REACTORS
330
3E82
102
}
330
3E82
100
AcDbXrecord
280
     1
102
VTR_0.000_0.000_1.000_1.000_VISUALSTYLE
340
3CDC
102
VTR_0.000_0.000_1.000_1.000_GRIDDISPLAY
 70
     3
102
VTR_0.000_0.000_1.000_1.000_GRIDMAJOR
 70
     5
102
VTR_0.000_0.000_1.000_1.000_DEFAULTLIGHTING
280
     1
102
VTR_0.000_0.000_1.000_1.000_DEFAULTLIGHTINGTYPE
 70
     1
102
VTR_0.000_0.000_1.000_1.000_BRIGHTNESS
141
0.0
102
VTR_0.000_0.000_1.000_1.000_CONTRAST
142
0.0
  0
DICTIONARY
  5
2B03
102
{ACAD_REACTORS
330
29EA
102
}
330
29EA
100
AcDbDictionary
281
     1
  0
DICTIONARY
  5
29EB
102
{ACAD_REACTORS
330
29EA
102
}
330
29EA
100
AcDbDictionary
281
     1
  0
DICTIONARY
  5
3D26
102
{ACAD_REACTORS
330
3D25
102
}
330
3D25
100
AcDbDictionary
281
     1
  3
ACDB_ANNOTATIONSCALES
350
3D27
  0
DICTIONARY
  5
3D20
102
{ACAD_REACTORS
330
3D1F
102
}
330
3D1F
100
AcDbDictionary
281
     1
  3
ACDB_ANNOTATIONSCALES
350
3D21
  0
DICTIONARY
  5
3D29
102
{ACAD_REACTORS
330
3D28
102
}
330
3D28
100
AcDbDictionary
281
     1
  3
ACDB_ANNOTATIONSCALES
350
3D2A
  0
DICTIONARY
  5
3D23
102
{ACAD_REACTORS
330
3D22
102
}
330
3D22
100
AcDbDictionary
281
     1
  3
ACDB_ANNOTATIONSCALES
350
3D24
  0
XRECORD
  5
3E7F
102
{ACAD_REACTORS
330
3E7E
102
}
330
3E7E
100
AcDbXrecord
280
     1
102
VISUALSTYLE
340
3CDC
102
GRIDDISPLAY
 70
     0
102
GRIDMAJOR
 70
     5
102
DEFAULTLIGHTING
280
     1
102
DEFAULTLIGHTINGTYPE
 70
     1
102
BRIGHTNESS
141
0.0
102
CONTRAST
142
0.0
102
SUNID
360
0
  0
XRECORD
  5
3E81
102
{ACAD_REACTORS
330
3E80
102
}
330
3E80
100
AcDbXrecord
280
     1
102
VISUALSTYLE
340
3CDC
102
GRIDDISPLAY
 70
     0
102
GRIDMAJOR
 70
     5
102
DEFAULTLIGHTING
280
     1
102
DEFAULTLIGHTINGTYPE
 70
     1
102
BRIGHTNESS
141
0.0
102
CONTRAST
142
0.0
  0
DICTIONARY
  5
3D3A
102
{ACAD_REACTORS
330
3D39
102
}
330
3D39
100
AcDbDictionary
281
     1
  3
ACDB_ANNOTATIONSCALES
350
3D3B
  0
DICTIONARY
  5
3D2C
102
{ACAD_REACTORS
330
3D2B
102
}
330
3D2B
100
AcDbDictionary
281
     1
  3
ACDB_ANNOTATIONSCALES
350
3D2D
  0
DICTIONARY
  5
3D2F
102
{ACAD_REACTORS
330
3D2E
102
}
330
3D2E
100
AcDbDictionary
281
     1
  3
ACDB_ANNOTATIONSCALES
350
3D30
  0
DICTIONARY
  5
3D1D
102
{ACAD_REACTORS
330
3D1C
102
}
330
3D1C
100
AcDbDictionary
281
     1
  3
ACDB_ANNOTATIONSCALES
350
3D1E
  0
DICTIONARY
  5
3DC8
102
{ACAD_REACTORS
330
3DC7
102
}
330
3DC7
100
AcDbDictionary
281
     1
  3
ACDB_ANNOTATIONSCALES
350
3DC9
  0
LAYOUT
  5
2994
102
{ACAD_REACTORS
330
2816
102
}
330
2816
100
AcDbPlotSettings
  1

  2
DocuCentre 352
  4
A4
  6

 40
4.857749938965
 41
4.900062561035
 42
4.942413330078
 43
4.857757568359
 44
209.973327636719
 45
296.968322753906
 46
0.0
 47
0.0
 48
0.0
 49
0.0
140
0.0
141
0.0
142
1.0
143
1.0
 70
   688
 72
     1
 73
     0
 74
     5
  7
TOWA.ctb
 75
    16
 76
     1
 77
     2
 78
   300
147
1.0
148
0.0
149
0.0
100
AcDbLayout
  1
A4縦
 70
     1
 71
     1
 10
-4.857749938965
 20
-4.900062561035
 11
205.115577697754
 21
292.068260192871
 12
0.0
 22
0.0
 32
0.0
 14
7.843451901197
 24
2.161110131738
 34
0.0
 15
197.847066687274
 25
282.160335911262
 35
0.0
146
0.0
 13
0.0
 23
0.0
 33
0.0
 16
1.0
 26
0.0
 36
0.0
 17
0.0
 27
1.0
 37
0.0
 76
     0
330
2963
331
2965
  0
LAYOUT
  5
2818
102
{ACAD_REACTORS
330
2816
102
}
330
2816
100
AcDbPlotSettings
  1

  2
EPSON LP-8000S
  4

  6

 40
0.0
 41
0.0
 42
0.0
 43
0.0
 44
0.0
 45
0.0
 46
0.0
 47
0.0
 48
0.0
 49
0.0
140
0.0
141
0.0
142
1.0
143
1.0
 70
  1712
 72
     0
 73
     0
 74
     0
  7
TOWA.ctb
 75
     0
 76
     0
 77
     2
 78
   300
147
1.0
148
0.0
149
0.0
100
AcDbLayout
  1
Model
 70
     1
 71
     0
 10
0.0
 20
0.0
 11
12.0
 21
9.0
 12
0.0
 22
0.0
 32
0.0
 14
356.006889840777
 24
-81.085767062822
 34
0.0
 15
605.223739987086
 25
362.045483062957
 35
0.0
146
0.0
 13
0.0
 23
0.0
 33
0.0
 16
1.0
 26
0.0
 36
0.0
 17
0.0
 27
1.0
 37
0.0
 76
     0
330
1A
331
3CD6
  0
MATERIAL
  5
3D13
102
{ACAD_REACTORS
330
2947
102
}
102
{ACAD_XDICTIONARY
360
3E86
102
}
330
2947
100
AcDbMaterial
  1
ByBlock
  0
MATERIAL
  5
3D12
102
{ACAD_REACTORS
330
2947
102
}
102
{ACAD_XDICTIONARY
360
3E84
102
}
330
2947
100
AcDbMaterial
  1
ByLayer
  0
MATERIAL
  5
3D14
102
{ACAD_REACTORS
330
2947
102
}
102
{ACAD_XDICTIONARY
360
3E88
102
}
330
2947
100
AcDbMaterial
  1
Global
  0
MLEADERSTYLE
  5
3D18
102
{ACAD_REACTORS
330
3D17
102
}
102
{ACAD_XDICTIONARY
360
3EBD
102
}
330
3D17
100
AcDbMLeaderStyle
170
     2
171
     1
172
     0
 90
        2
 40
0.0
 41
0.0
173
     1
 91
-1056964608
340
14
 92
       -2
290
     1
 42
2.0
291
     1
 43
8.0
  3
Standard
341
0
 44
4.0
300

342
10
174
     1
178
     6
175
     1
176
     0
 93
-1056964608
 45
4.0
292
     0
297
     0
 46
4.0
343
0
 94
-1056964608
 47
1.0
 49
1.0
140
1.0
293
     1
141
0.0
294
     1
177
     0
142
1.0
295
     0
296
     0
143
3.75
1001
ACAD_MLEADERVER
1070
     2
  0
MLINESTYLE
  5
13
102
{ACAD_REACTORS
330
E
102
}
330
E
100
AcDbMlineStyle
  2
STANDARD
 70
     0
  3

 62
     0
 51
90.0
 52
90.0
 71
     2
 49
0.5
 62
   256
  6
BYLAYER
 49
-0.5
 62
   256
  6
BYLAYER
  0
ACDBPLACEHOLDER
  5
2815
102
{ACAD_REACTORS
330
2814
102
}
330
2814
  0
SCALE
  5
3CF1
102
{ACAD_REACTORS
330
3CF0
102
}
330
3CF0
100
AcDbScale
 70
     0
300
1:1
140
1.0
141
1.0
290
     1
  0
SCALE
  5
3CF2
102
{ACAD_REACTORS
330
3CF0
102
}
330
3CF0
100
AcDbScale
 70
     0
300
1:2
140
1.0
141
2.0
290
     0
  0
SCALE
  5
3CF3
102
{ACAD_REACTORS
330
3CF0
102
}
330
3CF0
100
AcDbScale
 70
     0
300
1:4
140
1.0
141
4.0
290
     0
  0
SCALE
  5
3CF4
102
{ACAD_REACTORS
330
3CF0
102
}
330
3CF0
100
AcDbScale
 70
     0
300
1:5
140
1.0
141
5.0
290
     0
  0
SCALE
  5
3CF5
102
{ACAD_REACTORS
330
3CF0
102
}
330
3CF0
100
AcDbScale
 70
     0
300
1:8
140
1.0
141
8.0
290
     0
  0
SCALE
  5
3CF6
102
{ACAD_REACTORS
330
3CF0
102
}
330
3CF0
100
AcDbScale
 70
     0
300
1:10
140
1.0
141
10.0
290
     0
  0
SCALE
  5
3CF7
102
{ACAD_REACTORS
330
3CF0
102
}
330
3CF0
100
AcDbScale
 70
     0
300
1:16
140
1.0
141
16.0
290
     0
  0
SCALE
  5
3CF8
102
{ACAD_REACTORS
330
3CF0
102
}
330
3CF0
100
AcDbScale
 70
     0
300
1:20
140
1.0
141
20.0
290
     0
  0
SCALE
  5
3CF9
102
{ACAD_REACTORS
330
3CF0
102
}
330
3CF0
100
AcDbScale
 70
     0
300
1:30
140
1.0
141
30.0
290
     0
  0
SCALE
  5
3CFA
102
{ACAD_REACTORS
330
3CF0
102
}
330
3CF0
100
AcDbScale
 70
     0
300
1:40
140
1.0
141
40.0
290
     0
  0
SCALE
  5
3CFB
102
{ACAD_REACTORS
330
3CF0
102
}
330
3CF0
100
AcDbScale
 70
     0
300
1:50
140
1.0
141
50.0
290
     0
  0
SCALE
  5
3CFC
102
{ACAD_REACTORS
330
3CF0
102
}
330
3CF0
100
AcDbScale
 70
     0
300
1:100
140
1.0
141
100.0
290
     0
  0
SCALE
  5
3CFD
102
{ACAD_REACTORS
330
3CF0
102
}
330
3CF0
100
AcDbScale
 70
     0
300
2:1
140
2.0
141
1.0
290
     0
  0
SCALE
  5
3CFE
102
{ACAD_REACTORS
330
3CF0
102
}
330
3CF0
100
AcDbScale
 70
     0
300
4:1
140
4.0
141
1.0
290
     0
  0
SCALE
  5
3CFF
102
{ACAD_REACTORS
330
3CF0
102
}
330
3CF0
100
AcDbScale
 70
     0
300
8:1
140
8.0
141
1.0
290
     0
  0
SCALE
  5
3D00
102
{ACAD_REACTORS
330
3CF0
102
}
330
3CF0
100
AcDbScale
 70
     0
300
10:1
140
10.0
141
1.0
290
     0
  0
SCALE
  5
3D01
102
{ACAD_REACTORS
330
3CF0
102
}
330
3CF0
100
AcDbScale
 70
     0
300
100:1
140
100.0
141
1.0
290
     0
  0
SCALE
  5
3D02
102
{ACAD_REACTORS
330
3CF0
102
}
330
3CF0
100
AcDbScale
 70
     0
300
1/128" = 1'-0"
140
0.0078125
141
12.0
290
     0
  0
SCALE
  5
3D03
102
{ACAD_REACTORS
330
3CF0
102
}
330
3CF0
100
AcDbScale
 70
     0
300
1/64" = 1'-0"
140
0.015625
141
12.0
290
     0
  0
SCALE
  5
3D04
102
{ACAD_REACTORS
330
3CF0
102
}
330
3CF0
100
AcDbScale
 70
     0
300
1/32" = 1'-0"
140
0.03125
141
12.0
290
     0
  0
SCALE
  5
3D05
102
{ACAD_REACTORS
330
3CF0
102
}
330
3CF0
100
AcDbScale
 70
     0
300
1/16" = 1'-0"
140
0.0625
141
12.0
290
     0
  0
SCALE
  5
3D06
102
{ACAD_REACTORS
330
3CF0
102
}
330
3CF0
100
AcDbScale
 70
     0
300
3/32" = 1'-0"
140
0.09375
141
12.0
290
     0
  0
SCALE
  5
3D07
102
{ACAD_REACTORS
330
3CF0
102
}
330
3CF0
100
AcDbScale
 70
     0
300
1/8" = 1'-0"
140
0.125
141
12.0
290
     0
  0
SCALE
  5
3D08
102
{ACAD_REACTORS
330
3CF0
102
}
330
3CF0
100
AcDbScale
 70
     0
300
3/16" = 1'-0"
140
0.1875
141
12.0
290
     0
  0
SCALE
  5
3D09
102
{ACAD_REACTORS
330
3CF0
102
}
330
3CF0
100
AcDbScale
 70
     0
300
1/4" = 1'-0"
140
0.25
141
12.0
290
     0
  0
SCALE
  5
3D0A
102
{ACAD_REACTORS
330
3CF0
102
}
330
3CF0
100
AcDbScale
 70
     0
300
3/8" = 1'-0"
140
0.375
141
12.0
290
     0
  0
SCALE
  5
3D0B
102
{ACAD_REACTORS
330
3CF0
102
}
330
3CF0
100
AcDbScale
 70
     0
300
1/2" = 1'-0"
140
0.5
141
12.0
290
     0
  0
SCALE
  5
3D0C
102
{ACAD_REACTORS
330
3CF0
102
}
330
3CF0
100
AcDbScale
 70
     0
300
3/4" = 1'-0"
140
0.75
141
12.0
290
     0
  0
SCALE
  5
3D0D
102
{ACAD_REACTORS
330
3CF0
102
}
330
3CF0
100
AcDbScale
 70
     0
300
1" = 1'-0"
140
1.0
141
12.0
290
     0
  0
SCALE
  5
3D0E
102
{ACAD_REACTORS
330
3CF0
102
}
330
3CF0
100
AcDbScale
 70
     0
300
1-1/2" = 1'-0"
140
1.5
141
12.0
290
     0
  0
SCALE
  5
3D0F
102
{ACAD_REACTORS
330
3CF0
102
}
330
3CF0
100
AcDbScale
 70
     0
300
3" = 1'-0"
140
3.0
141
12.0
290
     0
  0
SCALE
  5
3D10
102
{ACAD_REACTORS
330
3CF0
102
}
330
3CF0
100
AcDbScale
 70
     0
300
6" = 1'-0"
140
6.0
141
12.0
290
     0
  0
SCALE
  5
3D11
102
{ACAD_REACTORS
330
3CF0
102
}
330
3CF0
100
AcDbScale
 70
     0
300
1'-0" = 1'-0"
140
12.0
141
12.0
290
     0
  0
TABLESTYLE
  5
3D16
102
{ACAD_REACTORS
330
3D15
102
}
102
{ACAD_XDICTIONARY
360
3EBA
102
}
330
3D15
100
AcDbTableStyle
  3
Standard
 70
     0
 71
     0
 40
1.5
 41
1.5
280
     0
281
     0
  7
STANDARD
140
4.5
170
     2
 62
     0
 63
   257
283
     0
274
    -2
284
     1
 64
     0
275
    -2
285
     1
 65
     0
276
    -2
286
     1
 66
     0
277
    -2
287
     1
 67
     0
278
    -2
288
     1
 68
     0
279
    -2
289
     1
 69
     0
  7
STANDARD
140
6.0
170
     5
 62
     0
 63
   257
283
     0
274
    -2
284
     1
 64
     0
275
    -2
285
     1
 65
     0
276
    -2
286
     1
 66
     0
277
    -2
287
     1
 67
     0
278
    -2
288
     1
 68
     0
279
    -2
289
     1
 69
     0
  7
STANDARD
140
4.5
170
     5
 62
     0
 63
   257
283
     0
274
    -2
284
     1
 64
     0
275
    -2
285
     1
 65
     0
276
    -2
286
     1
 66
     0
277
    -2
287
     1
 67
     0
278
    -2
288
     1
 68
     0
279
    -2
289
     1
 69
     0
  0
VISUALSTYLE
  5
3CDC
102
{ACAD_REACTORS
330
3CD7
102
}
102
{ACAD_XDICTIONARY
360
3E92
102
}
330
3CD7
100
AcDbVisualStyle
  2
2dWireframe
 70
     4
 71
     0
 72
     2
 73
     0
 90
        0
 40
0.6
 41
30.0
 62
     5
 63
     7
421
 16777215
 74
     1
 91
        4
 64
     7
 65
   257
 75
     1
175
     1
 42
1.0
 92
        0
 66
   257
 43
1.0
 76
     1
 77
     6
 78
     2
 67
     7
 79
     5
170
     0
171
     0
290
     0
174
     0
 93
        1
 44
0.0
173
     0
291
     0
 45
0.0
1001
ACAD
1000
AcDbSavedByObjectVersion
1070
     0
  0
VISUALSTYLE
  5
3CDF
102
{ACAD_REACTORS
330
3CD7
102
}
102
{ACAD_XDICTIONARY
360
3E98
102
}
330
3CD7
100
AcDbVisualStyle
  2
Basic
 70
     7
 71
     1
 72
     0
 73
     1
 90
        0
 40
0.6
 41
30.0
 62
     5
 63
     7
421
 16777215
 74
     0
 91
        4
 64
     7
 65
   257
 75
     1
175
     1
 42
1.0
 92
        8
 66
     7
 43
1.0
 76
     1
 77
     6
 78
     2
 67
     7
 79
     5
170
     0
171
     0
290
     0
174
     0
 93
        1
 44
0.0
173
     0
291
     1
 45
0.0
1001
ACAD
1000
AcDbSavedByObjectVersion
1070
     0
  0
VISUALSTYLE
  5
3CE3
102
{ACAD_REACTORS
330
3CD7
102
}
102
{ACAD_XDICTIONARY
360
3EA0
102
}
330
3CD7
100
AcDbVisualStyle
  2
Brighten
 70
    12
 71
     2
 72
     2
 73
     0
 90
        0
 40
0.6
 41
30.0
 62
     5
 63
     7
421
 16777215
 74
     1
 91
        4
 64
     7
 65
   257
 75
     1
175
     1
 42
1.0
 92
        8
 66
     7
 43
1.0
 76
     1
 77
     6
 78
     2
 67
     7
 79
     5
170
     0
171
     0
290
     0
174
     0
 93
        1
 44
50.0
173
     0
291
     1
 45
0.0
1001
ACAD
1000
AcDbSavedByObjectVersion
1070
     0
  0
VISUALSTYLE
  5
3CE7
102
{ACAD_REACTORS
330
3CD7
102
}
102
{ACAD_XDICTIONARY
360
3EA8
102
}
330
3CD7
100
AcDbVisualStyle
  2
ColorChange
 70
    16
 71
     2
 72
     2
 73
     3
 90
        0
 40
0.6
 41
30.0
 62
     5
 63
     8
421
  8421504
 74
     1
 91
        4
 64
     7
 65
   257
 75
     1
175
     1
 42
1.0
 92
        8
 66
     8
424
  8421504
 43
1.0
 76
     1
 77
     6
 78
     2
 67
     7
 79
     5
170
     0
171
     0
290
     0
174
     0
 93
        1
 44
0.0
173
     0
291
     1
 45
0.0
1001
ACAD
1000
AcDbSavedByObjectVersion
1070
     0
  0
VISUALSTYLE
  5
3CE1
102
{ACAD_REACTORS
330
3CD7
102
}
102
{ACAD_XDICTIONARY
360
3E9C
102
}
330
3CD7
100
AcDbVisualStyle
  2
Conceptual
 70
     9
 71
     3
 72
     2
 73
     0
 90
        0
 40
0.6
 41
30.0
 62
     5
 63
     7
421
 16777215
 74
     2
 91
        2
 64
     7
 65
   257
 75
     1
175
     1
 42
179.0
 92
        8
 66
     7
 43
1.0
 76
     1
 77
     6
 78
     2
 67
     7
 79
     3
170
     0
171
     0
290
     0
174
     0
 93
        1
 44
0.0
173
     0
291
     0
 45
0.0
1001
ACAD
1000
AcDbSavedByObjectVersion
1070
     0
  0
VISUALSTYLE
  5
3CE2
102
{ACAD_REACTORS
330
3CD7
102
}
102
{ACAD_XDICTIONARY
360
3E9E
102
}
330
3CD7
100
AcDbVisualStyle
  2
Dim
 70
    11
 71
     2
 72
     2
 73
     0
 90
        0
 40
0.6
 41
30.0
 62
     5
 63
     7
421
 16777215
 74
     1
 91
        4
 64
     7
 65
   257
 75
     1
175
     1
 42
1.0
 92
        8
 66
     7
 43
1.0
 76
     1
 77
     6
 78
     2
 67
     7
 79
     5
170
     0
171
     0
290
     0
174
     0
 93
        1
 44
-50.0
173
     0
291
     1
 45
0.0
1001
ACAD
1000
AcDbSavedByObjectVersion
1070
     0
  0
VISUALSTYLE
  5
3CEA
102
{ACAD_REACTORS
330
3CD7
102
}
102
{ACAD_XDICTIONARY
360
3EAE
102
}
330
3CD7
100
AcDbVisualStyle
  2
EdgeColorOff
 70
    22
 71
     2
 72
     2
 73
     0
 90
        0
 40
0.6
 41
30.0
 62
     5
 63
     7
421
 16777215
 74
     1
 91
        4
 64
     7
 65
   257
 75
     1
175
     1
 42
1.0
 92
        8
 66
     7
 43
1.0
 76
     1
 77
     6
 78
     2
 67
     7
 79
     5
170
     0
171
     0
290
     0
174
     0
 93
        1
 44
0.0
173
     0
291
     1
 45
0.0
1001
ACAD
1000
AcDbSavedByObjectVersion
1070
     0
  0
VISUALSTYLE
  5
3CE6
102
{ACAD_REACTORS
330
3CD7
102
}
102
{ACAD_XDICTIONARY
360
3EA6
102
}
330
3CD7
100
AcDbVisualStyle
  2
Facepattern
 70
    15
 71
     2
 72
     2
 73
     0
 90
        0
 40
0.6
 41
30.0
 62
     5
 63
     7
421
 16777215
 74
     1
 91
        4
 64
     7
 65
   257
 75
     1
175
     1
 42
1.0
 92
        8
 66
     7
 43
1.0
 76
     1
 77
     6
 78
     2
 67
     7
 79
     5
170
     0
171
     0
290
     0
174
     0
 93
        1
 44
0.0
173
     0
291
     1
 45
0.0
1001
ACAD
1000
AcDbSavedByObjectVersion
1070
     0
  0
VISUALSTYLE
  5
3CD8
102
{ACAD_REACTORS
330
3CD7
102
}
102
{ACAD_XDICTIONARY
360
3E8A
102
}
330
3CD7
100
AcDbVisualStyle
  2
Flat
 70
     0
 71
     2
 72
     1
 73
     1
 90
        2
 40
0.6
 41
30.0
 62
     5
 63
     7
421
 16777215
 74
     0
 91
        0
 64
     7
 65
   257
 75
     1
175
     1
 42
1.0
 92
        8
 66
     7
 43
1.0
 76
     1
 77
     6
 78
     2
 67
     7
 79
     5
170
     0
171
     0
290
     0
174
     0
 93
       13
 44
0.0
173
     0
291
     1
 45
0.0
1001
ACAD
1000
AcDbSavedByObjectVersion
1070
     0
  0
VISUALSTYLE
  5
3CD9
102
{ACAD_REACTORS
330
3CD7
102
}
102
{ACAD_XDICTIONARY
360
3E8C
102
}
330
3CD7
100
AcDbVisualStyle
  2
FlatWithEdges
 70
     1
 71
     2
 72
     1
 73
     1
 90
        2
 40
0.6
 41
30.0
 62
     5
 63
     7
421
 16777215
 74
     1
 91
        0
 64
     7
 65
   257
 75
     1
175
     1
 42
1.0
 92
        0
 66
   257
 43
1.0
 76
     1
 77
     6
 78
     2
 67
     7
 79
     5
170
     0
171
     0
290
     0
174
     0
 93
       13
 44
0.0
173
     0
291
     1
 45
0.0
1001
ACAD
1000
AcDbSavedByObjectVersion
1070
     0
  0
VISUALSTYLE
  5
3CDA
102
{ACAD_REACTORS
330
3CD7
102
}
102
{ACAD_XDICTIONARY
360
3E8E
102
}
330
3CD7
100
AcDbVisualStyle
  2
Gouraud
 70
     2
 71
     2
 72
     2
 73
     1
 90
        2
 40
0.6
 41
30.0
 62
     5
 63
     7
421
 16777215
 74
     0
 91
        0
 64
     7
 65
   257
 75
     1
175
     1
 42
1.0
 92
        0
 66
     7
 43
1.0
 76
     1
 77
     6
 78
     2
 67
     7
 79
     5
170
     0
171
     0
290
     0
174
     0
 93
       13
 44
0.0
173
     0
291
     1
 45
0.0
1001
ACAD
1000
AcDbSavedByObjectVersion
1070
     0
  0
VISUALSTYLE
  5
3CDB
102
{ACAD_REACTORS
330
3CD7
102
}
102
{ACAD_XDICTIONARY
360
3E90
102
}
330
3CD7
100
AcDbVisualStyle
  2
GouraudWithEdges
 70
     3
 71
     2
 72
     2
 73
     1
 90
        2
 40
0.6
 41
30.0
 62
     5
 63
     7
421
 16777215
 74
     1
 91
        0
 64
     7
 65
   257
 75
     1
175
     1
 42
1.0
 92
        0
 66
   257
 43
1.0
 76
     1
 77
     6
 78
     2
 67
     7
 79
     5
170
     0
171
     0
290
     0
174
     0
 93
       13
 44
0.0
173
     0
291
     1
 45
0.0
1001
ACAD
1000
AcDbSavedByObjectVersion
1070
     0
  0
VISUALSTYLE
  5
3CDE
102
{ACAD_REACTORS
330
3CD7
102
}
102
{ACAD_XDICTIONARY
360
3E96
102
}
330
3CD7
100
AcDbVisualStyle
  2
Hidden
 70
     6
 71
     1
 72
     2
 73
     2
 90
        0
 40
0.6
 41
30.0
 62
     5
 63
     7
421
 16777215
 74
     2
 91
        2
 64
     7
 65
   257
 75
     2
175
     1
 42
40.0
 92
        0
 66
   257
 43
1.0
 76
     1
 77
     6
 78
     2
 67
     7
 79
     3
170
     0
171
     0
290
     0
174
     0
 93
        1
 44
0.0
173
     0
291
     0
 45
0.0
1001
ACAD
1000
AcDbSavedByObjectVersion
1070
     0
  0
VISUALSTYLE
  5
3CE8
102
{ACAD_REACTORS
330
3CD7
102
}
102
{ACAD_XDICTIONARY
360
3EAA
102
}
330
3CD7
100
AcDbVisualStyle
  2
JitterOff
 70
    20
 71
     2
 72
     2
 73
     0
 90
        0
 40
0.6
 41
30.0
 62
     5
 63
     7
421
 16777215
 74
     1
 91
        4
 64
     7
 65
   257
 75
     1
175
     1
 42
1.0
 92
       10
 66
     7
 43
1.0
 76
     1
 77
     6
 78
     2
 67
     7
 79
     5
170
     0
171
     0
290
     0
174
     0
 93
        1
 44
0.0
173
     0
291
     1
 45
0.0
1001
ACAD
1000
AcDbSavedByObjectVersion
1070
     0
  0
VISUALSTYLE
  5
3CE5
102
{ACAD_REACTORS
330
3CD7
102
}
102
{ACAD_XDICTIONARY
360
3EA4
102
}
330
3CD7
100
AcDbVisualStyle
  2
Linepattern
 70
    14
 71
     2
 72
     2
 73
     0
 90
        0
 40
0.6
 41
30.0
 62
     5
 63
     7
421
 16777215
 74
     1
 91
        4
 64
     7
 65
   257
 75
     7
175
     7
 42
1.0
 92
        8
 66
     7
 43
1.0
 76
     1
 77
     6
 78
     2
 67
     7
 79
     5
170
     0
171
     0
290
     0
174
     0
 93
        1
 44
0.0
173
     0
291
     1
 45
0.0
1001
ACAD
1000
AcDbSavedByObjectVersion
1070
     0
  0
VISUALSTYLE
  5
3CE9
102
{ACAD_REACTORS
330
3CD7
102
}
102
{ACAD_XDICTIONARY
360
3EAC
102
}
330
3CD7
100
AcDbVisualStyle
  2
OverhangOff
 70
    21
 71
     2
 72
     2
 73
     0
 90
        0
 40
0.6
 41
30.0
 62
     5
 63
     7
421
 16777215
 74
     1
 91
        4
 64
     7
 65
   257
 75
     1
175
     1
 42
1.0
 92
        9
 66
     7
 43
1.0
 76
     1
 77
     6
 78
     2
 67
     7
 79
     5
170
     0
171
     0
290
     0
174
     0
 93
        1
 44
0.0
173
     0
291
     1
 45
0.0
1001
ACAD
1000
AcDbSavedByObjectVersion
1070
     0
  0
VISUALSTYLE
  5
3CE0
102
{ACAD_REACTORS
330
3CD7
102
}
102
{ACAD_XDICTIONARY
360
3E9A
102
}
330
3CD7
100
AcDbVisualStyle
  2
Realistic
 70
     8
 71
     2
 72
     3
 73
     0
 90
        2
 40
0.6
 41
30.0
 62
     5
 63
     7
421
 16777215
 74
     0
 91
        0
 64
     7
 65
   257
 75
     1
175
     1
 42
1.0
 92
        8
 66
   257
 43
1.0
 76
     1
 77
     6
 78
     2
 67
     7
 79
     3
170
     0
171
     0
290
     0
174
     0
 93
       13
 44
0.0
173
     0
291
     0
 45
0.0
1001
ACAD
1000
AcDbSavedByObjectVersion
1070
     0
  0
VISUALSTYLE
  5
3CEF
102
{ACAD_REACTORS
330
3CD7
102
}
102
{ACAD_XDICTIONARY
360
3EB8
102
}
330
3CD7
100
AcDbVisualStyle
  2
Shaded
 70
    27
 71
     2
 72
     2
 73
     1
 90
        2
 40
0.6
 41
30.0
 62
     5
 63
     7
421
 16777215
 74
     0
 91
        4
 64
     7
 65
   257
 75
     1
175
     1
 42
1.0
 92
        8
 66
   257
 43
1.0
 76
     1
 77
     6
 78
     2
 67
     8
425
  7895160
 79
     3
170
     0
171
     0
290
     0
174
     0
 93
        5
 44
0.0
173
     0
291
     0
 45
0.0
1001
ACAD
1000
AcDbSavedByObjectVersion
1070
     0
  0
VISUALSTYLE
  5
3CEE
102
{ACAD_REACTORS
330
3CD7
102
}
102
{ACAD_XDICTIONARY
360
3EB6
102
}
330
3CD7
100
AcDbVisualStyle
  2
Shaded with edges
 70
    26
 71
     2
 72
     2
 73
     1
 90
        2
 40
0.6
 41
30.0
 62
     5
 63
     7
421
 16777215
 74
     1
 91
       10
 64
     7
 65
   257
 75
     2
175
     1
 42
1.0
 92
        8
 66
   257
 43
1.0
 76
     1
 77
     6
 78
     2
 67
     7
 79
     3
170
     0
171
     0
290
     0
174
     0
 93
        5
 44
0.0
173
     0
291
     0
 45
0.0
1001
ACAD
1000
AcDbSavedByObjectVersion
1070
     0
  0
VISUALSTYLE
  5
3CEB
102
{ACAD_REACTORS
330
3CD7
102
}
102
{ACAD_XDICTIONARY
360
3EB0
102
}
330
3CD7
100
AcDbVisualStyle
  2
Shades of Gray
 70
    23
 71
     2
 72
     2
 73
     3
 90
        0
 40
0.6
 41
30.0
 62
     5
 63
     7
421
 16777215
 74
     2
 91
        2
 64
     7
 65
     7
 75
     1
175
     1
 42
40.0
 92
        8
 66
     7
 43
1.0
 76
     1
 77
     6
 78
     2
 67
     7
 79
     3
170
     0
171
     0
290
     0
174
     0
 93
        1
 44
0.0
173
     0
291
     0
 45
0.0
1001
ACAD
1000
AcDbSavedByObjectVersion
1070
     0
  0
VISUALSTYLE
  5
3CEC
102
{ACAD_REACTORS
330
3CD7
102
}
102
{ACAD_XDICTIONARY
360
3EB2
102
}
330
3CD7
100
AcDbVisualStyle
  2
Sketchy
 70
    24
 71
     1
 72
     2
 73
     2
 90
        0
 40
0.6
 41
30.0
 62
     5
 63
     7
421
 16777215
 74
     2
 91
        2
 64
     7
 65
     7
 75
     1
175
     1
 42
40.0
 92
       11
 66
     7
 43
1.0
 76
     1
 77
     6
 78
     2
 67
     7
 79
     6
170
     0
171
     0
290
     0
174
     0
 93
        1
 44
0.0
173
     0
291
     0
 45
0.0
1001
ACAD
1000
AcDbSavedByObjectVersion
1070
     0
  0
VISUALSTYLE
  5
3CE4
102
{ACAD_REACTORS
330
3CD7
102
}
102
{ACAD_XDICTIONARY
360
3EA2
102
}
330
3CD7
100
AcDbVisualStyle
  2
Thicken
 70
    13
 71
     2
 72
     2
 73
     0
 90
        0
 40
0.6
 41
30.0
 62
     5
 63
     7
421
 16777215
 74
     1
 91
        4
 64
     7
 65
   257
 75
     1
175
     1
 42
1.0
 92
       12
 66
     7
 43
1.0
 76
     1
 77
     6
 78
     2
 67
     7
 79
     5
170
     0
171
     0
290
     0
174
     0
 93
        1
 44
0.0
173
     0
291
     1
 45
0.0
1001
ACAD
1000
AcDbSavedByObjectVersion
1070
     0
  0
VISUALSTYLE
  5
3CDD
102
{ACAD_REACTORS
330
3CD7
102
}
102
{ACAD_XDICTIONARY
360
3E94
102
}
330
3CD7
100
AcDbVisualStyle
  2
Wireframe
 70
     5
 71
     0
 72
     2
 73
     0
 90
        0
 40
0.6
 41
30.0
 62
     5
 63
     7
421
 16777215
 74
     1
 91
        4
 64
     7
 65
   257
 75
     1
175
     1
 42
1.0
 92
        0
 66
   257
 43
1.0
 76
     1
 77
     6
 78
     2
 67
     7
 79
     3
170
     0
171
     0
290
     0
174
     0
 93
        1
 44
0.0
173
     0
291
     0
 45
0.0
1001
ACAD
1000
AcDbSavedByObjectVersion
1070
     0
  0
VISUALSTYLE
  5
3CED
102
{ACAD_REACTORS
330
3CD7
102
}
102
{ACAD_XDICTIONARY
360
3EB4
102
}
330
3CD7
100
AcDbVisualStyle
  2
X-Ray
 70
    25
 71
     2
 72
     2
 73
     1
 90
        1
 40
0.5
 41
30.0
 62
     5
 63
     7
421
 16777215
 74
     1
 91
        0
 64
     7
 65
   257
 75
     1
175
     1
 42
1.0
 92
        8
 66
     7
 43
1.0
 76
     1
 77
     6
 78
     2
 67
     7
 79
     3
170
     0
171
     0
290
     0
174
     0
 93
       13
 44
0.0
173
     0
291
     0
 45
0.0
1001
ACAD
1000
AcDbSavedByObjectVersion
1070
     0
  0
DICTIONARYVAR
  5
3D32
102
{ACAD_REACTORS
330
3D31
102
}
330
3D31
100
DictionaryVariables
280
     0
  1
1:1
  0
DICTIONARYVAR
  5
3D34
102
{ACAD_REACTORS
330
3D31
102
}
330
3D31
100
DictionaryVariables
280
     0
  1
Standard
  0
DICTIONARYVAR
  5
3D33
102
{ACAD_REACTORS
330
3D31
102
}
330
3D31
100
DictionaryVariables
280
     0
  1
Standard
  0
DICTIONARYVAR
  5
3D35
102
{ACAD_REACTORS
330
3D31
102
}
330
3D31
100
DictionaryVariables
280
     0
  1
0
  0
DICTIONARYVAR
  5
3D36
102
{ACAD_REACTORS
330
3D31
102
}
330
3D31
100
DictionaryVariables
280
     0
  1
0
  0
DICTIONARY
  5
3D27
102
{ACAD_REACTORS
330
3D26
102
}
330
3D26
100
AcDbDictionary
281
     1
  0
DICTIONARY
  5
3D21
102
{ACAD_REACTORS
330
3D20
102
}
330
3D20
100
AcDbDictionary
281
     1
  0
DICTIONARY
  5
3D2A
102
{ACAD_REACTORS
330
3D29
102
}
330
3D29
100
AcDbDictionary
281
     1
  0
DICTIONARY
  5
3D24
102
{ACAD_REACTORS
330
3D23
102
}
330
3D23
100
AcDbDictionary
281
     1
  0
DICTIONARY
  5
3D3B
102
{ACAD_REACTORS
330
3D3A
102
}
330
3D3A
100
AcDbDictionary
281
     1
  0
DICTIONARY
  5
3D2D
102
{ACAD_REACTORS
330
3D2C
102
}
330
3D2C
100
AcDbDictionary
281
     1
  0
DICTIONARY
  5
3D30
102
{ACAD_REACTORS
330
3D2F
102
}
330
3D2F
100
AcDbDictionary
281
     1
  0
DICTIONARY
  5
3D1E
102
{ACAD_REACTORS
330
3D1D
102
}
330
3D1D
100
AcDbDictionary
281
     1
  0
DICTIONARY
  5
3DC9
102
{ACAD_REACTORS
330
3DC8
102
}
330
3DC8
100
AcDbDictionary
281
     1
  0
DICTIONARY
  5
3E86
330
3D13
100
AcDbDictionary
280
     1
281
     1
  3
ACAD_XREC_ROUNDTRIP
360
3E87
  0
DICTIONARY
  5
3E84
330
3D12
100
AcDbDictionary
280
     1
281
     1
  3
ACAD_XREC_ROUNDTRIP
360
3E85
  0
DICTIONARY
  5
3E88
330
3D14
100
AcDbDictionary
280
     1
281
     1
  3
ACAD_XREC_ROUNDTRIP
360
3E89
  0
DICTIONARY
  5
3EBD
330
3D18
100
AcDbDictionary
280
     1
281
     1
  3
ACAD_XREC_ROUNDTRIP
360
3EBE
  0
DICTIONARY
  5
3EBA
330
3D16
100
AcDbDictionary
280
     1
281
     1
  3
ACAD_ROUNDTRIP_2008_TABLESTYLE_CELLSTYLEMAP
360
3EBC
  3
ACAD_XREC_ROUNDTRIP
360
3EBB
  0
DICTIONARY
  5
3E92
330
3CDC
100
AcDbDictionary
280
     1
281
     1
  3
ACAD_XREC_ROUNDTRIP
360
3E93
  0
DICTIONARY
  5
3E98
330
3CDF
100
AcDbDictionary
280
     1
281
     1
  3
ACAD_XREC_ROUNDTRIP
360
3E99
  0
DICTIONARY
  5
3EA0
330
3CE3
100
AcDbDictionary
280
     1
281
     1
  3
ACAD_XREC_ROUNDTRIP
360
3EA1
  0
DICTIONARY
  5
3EA8
330
3CE7
100
AcDbDictionary
280
     1
281
     1
  3
ACAD_XREC_ROUNDTRIP
360
3EA9
  0
DICTIONARY
  5
3E9C
330
3CE1
100
AcDbDictionary
280
     1
281
     1
  3
ACAD_XREC_ROUNDTRIP
360
3E9D
  0
DICTIONARY
  5
3E9E
330
3CE2
100
AcDbDictionary
280
     1
281
     1
  3
ACAD_XREC_ROUNDTRIP
360
3E9F
  0
DICTIONARY
  5
3EAE
330
3CEA
100
AcDbDictionary
280
     1
281
     1
  3
ACAD_XREC_ROUNDTRIP
360
3EAF
  0
DICTIONARY
  5
3EA6
330
3CE6
100
AcDbDictionary
280
     1
281
     1
  3
ACAD_XREC_ROUNDTRIP
360
3EA7
  0
DICTIONARY
  5
3E8A
330
3CD8
100
AcDbDictionary
280
     1
281
     1
  3
ACAD_XREC_ROUNDTRIP
360
3E8B
  0
DICTIONARY
  5
3E8C
330
3CD9
100
AcDbDictionary
280
     1
281
     1
  3
ACAD_XREC_ROUNDTRIP
360
3E8D
  0
DICTIONARY
  5
3E8E
330
3CDA
100
AcDbDictionary
280
     1
281
     1
  3
ACAD_XREC_ROUNDTRIP
360
3E8F
  0
DICTIONARY
  5
3E90
330
3CDB
100
AcDbDictionary
280
     1
281
     1
  3
ACAD_XREC_ROUNDTRIP
360
3E91
  0
DICTIONARY
  5
3E96
330
3CDE
100
AcDbDictionary
280
     1
281
     1
  3
ACAD_XREC_ROUNDTRIP
360
3E97
  0
DICTIONARY
  5
3EAA
330
3CE8
100
AcDbDictionary
280
     1
281
     1
  3
ACAD_XREC_ROUNDTRIP
360
3EAB
  0
DICTIONARY
  5
3EA4
330
3CE5
100
AcDbDictionary
280
     1
281
     1
  3
ACAD_XREC_ROUNDTRIP
360
3EA5
  0
DICTIONARY
  5
3EAC
330
3CE9
100
AcDbDictionary
280
     1
281
     1
  3
ACAD_XREC_ROUNDTRIP
360
3EAD
  0
DICTIONARY
  5
3E9A
330
3CE0
100
AcDbDictionary
280
     1
281
     1
  3
ACAD_XREC_ROUNDTRIP
360
3E9B
  0
DICTIONARY
  5
3EB8
330
3CEF
100
AcDbDictionary
280
     1
281
     1
  3
ACAD_XREC_ROUNDTRIP
360
3EB9
  0
DICTIONARY
  5
3EB6
330
3CEE
100
AcDbDictionary
280
     1
281
     1
  3
ACAD_XREC_ROUNDTRIP
360
3EB7
  0
DICTIONARY
  5
3EB0
330
3CEB
100
AcDbDictionary
280
     1
281
     1
  3
ACAD_XREC_ROUNDTRIP
360
3EB1
  0
DICTIONARY
  5
3EB2
330
3CEC
100
AcDbDictionary
280
     1
281
     1
  3
ACAD_XREC_ROUNDTRIP
360
3EB3
  0
DICTIONARY
  5
3EA2
330
3CE4
100
AcDbDictionary
280
     1
281
     1
  3
ACAD_XREC_ROUNDTRIP
360
3EA3
  0
DICTIONARY
  5
3E94
330
3CDD
100
AcDbDictionary
280
     1
281
     1
  3
ACAD_XREC_ROUNDTRIP
360
3E95
  0
DICTIONARY
  5
3EB4
330
3CED
100
AcDbDictionary
280
     1
281
     1
  3
ACAD_XREC_ROUNDTRIP
360
3EB5
  0
XRECORD
  5
3E87
102
{ACAD_REACTORS
330
3E86
102
}
330
3E86
100
AcDbXrecord
280
     1
102
MATERIAL
148
0.0
149
0.0
149
0.0
 93
        0
 94
      127
282
     0
 72
     1
 77
     1
171
     1
175
     1
179
     1
273
     0
  0
XRECORD
  5
3E85
102
{ACAD_REACTORS
330
3E84
102
}
330
3E84
100
AcDbXrecord
280
     1
102
MATERIAL
148
0.0
149
0.0
149
0.0
 93
        0
 94
      127
282
     0
 72
     1
 77
     1
171
     1
175
     1
179
     1
273
     0
  0
XRECORD
  5
3E89
102
{ACAD_REACTORS
330
3E88
102
}
330
3E88
100
AcDbXrecord
280
     1
102
MATERIAL
148
0.0
149
0.0
149
0.0
 93
        0
 94
      127
282
     0
 72
     1
 77
     1
171
     1
175
     1
179
     1
273
     0
  0
XRECORD
  5
3EBE
102
{ACAD_REACTORS
330
3EBD
102
}
330
3EBD
100
AcDbXrecord
280
     1
102
ACAD_ROUNDTRIP_2010_MLEADER_STYLE
  0
CELLSTYLEMAP
  5
3EBC
102
{ACAD_REACTORS
330
3EBA
102
}
330
3EBA
100
AcDbCellStyleMap
 90
        3
300
CELLSTYLE
  1
TABLEFORMAT_BEGIN
 90
        5
170
     1
 91
        0
 92
        0
 62
   257
 93
        1
300
CONTENTFORMAT
  1
CONTENTFORMAT_BEGIN
 90
        0
 91
        0
 92
        4
 93
        0
300

 40
0.0
140
1.0
 94
        5
 62
     0
340
10
144
6.0
309
CONTENTFORMAT_END
171
     1
301
MARGIN
  1
CELLMARGIN_BEGIN
 40
1.5
 40
1.5
 40
1.5
 40
1.5
 40
1.5
 40
1.5
309
CELLMARGIN_END
 94
        6
 95
        1
302
GRIDFORMAT
  1
GRIDFORMAT_BEGIN
 90
        0
 91
        1
 62
     0
 92
       -2
340
14
 93
        0
 40
0.045
309
GRIDFORMAT_END
 95
        2
302
GRIDFORMAT
  1
GRIDFORMAT_BEGIN
 90
        0
 91
        1
 62
     0
 92
       -2
340
14
 93
        0
 40
0.045
309
GRIDFORMAT_END
 95
        4
302
GRIDFORMAT
  1
GRIDFORMAT_BEGIN
 90
        0
 91
        1
 62
     0
 92
       -2
340
14
 93
        0
 40
0.045
309
GRIDFORMAT_END
 95
        8
302
GRIDFORMAT
  1
GRIDFORMAT_BEGIN
 90
        0
 91
        1
 62
     0
 92
       -2
340
14
 93
        0
 40
0.045
309
GRIDFORMAT_END
 95
       16
302
GRIDFORMAT
  1
GRIDFORMAT_BEGIN
 90
        0
 91
        1
 62
     0
 92
       -2
340
14
 93
        0
 40
0.045
309
GRIDFORMAT_END
 95
       32
302
GRIDFORMAT
  1
GRIDFORMAT_BEGIN
 90
        0
 91
        1
 62
     0
 92
       -2
340
14
 93
        0
 40
0.045
309
GRIDFORMAT_END
309
TABLEFORMAT_END
  1
CELLSTYLE_BEGIN
 90
        1
 91
        1
300
_TITLE
309
CELLSTYLE_END
300
CELLSTYLE
  1
TABLEFORMAT_BEGIN
 90
        5
170
     1
 91
        0
 92
        0
 62
   257
 93
        1
300
CONTENTFORMAT
  1
CONTENTFORMAT_BEGIN
 90
        0
 91
        0
 92
        4
 93
        0
300

 40
0.0
140
1.0
 94
        5
 62
     0
340
10
144
4.5
309
CONTENTFORMAT_END
171
     1
301
MARGIN
  1
CELLMARGIN_BEGIN
 40
1.5
 40
1.5
 40
1.5
 40
1.5
 40
1.5
 40
1.5
309
CELLMARGIN_END
 94
        6
 95
        1
302
GRIDFORMAT
  1
GRIDFORMAT_BEGIN
 90
        0
 91
        1
 62
     0
 92
       -2
340
14
 93
        0
 40
0.045
309
GRIDFORMAT_END
 95
        2
302
GRIDFORMAT
  1
GRIDFORMAT_BEGIN
 90
        0
 91
        1
 62
     0
 92
       -2
340
14
 93
        0
 40
0.045
309
GRIDFORMAT_END
 95
        4
302
GRIDFORMAT
  1
GRIDFORMAT_BEGIN
 90
        0
 91
        1
 62
     0
 92
       -2
340
14
 93
        0
 40
0.045
309
GRIDFORMAT_END
 95
        8
302
GRIDFORMAT
  1
GRIDFORMAT_BEGIN
 90
        0
 91
        1
 62
     0
 92
       -2
340
14
 93
        0
 40
0.045
309
GRIDFORMAT_END
 95
       16
302
GRIDFORMAT
  1
GRIDFORMAT_BEGIN
 90
        0
 91
        1
 62
     0
 92
       -2
340
14
 93
        0
 40
0.045
309
GRIDFORMAT_END
 95
       32
302
GRIDFORMAT
  1
GRIDFORMAT_BEGIN
 90
        0
 91
        1
 62
     0
 92
       -2
340
14
 93
        0
 40
0.045
309
GRIDFORMAT_END
309
TABLEFORMAT_END
  1
CELLSTYLE_BEGIN
 90
        2
 91
        1
300
_HEADER
309
CELLSTYLE_END
300
CELLSTYLE
  1
TABLEFORMAT_BEGIN
 90
        5
170
     1
 91
        0
 92
        0
 62
   257
 93
        1
300
CONTENTFORMAT
  1
CONTENTFORMAT_BEGIN
 90
        0
 91
        0
 92
        4
 93
        0
300

 40
0.0
140
1.0
 94
        2
 62
     0
340
10
144
4.5
309
CONTENTFORMAT_END
171
     1
301
MARGIN
  1
CELLMARGIN_BEGIN
 40
1.5
 40
1.5
 40
1.5
 40
1.5
 40
1.5
 40
1.5
309
CELLMARGIN_END
 94
        6
 95
        1
302
GRIDFORMAT
  1
GRIDFORMAT_BEGIN
 90
        0
 91
        1
 62
     0
 92
       -2
340
14
 93
        0
 40
0.045
309
GRIDFORMAT_END
 95
        2
302
GRIDFORMAT
  1
GRIDFORMAT_BEGIN
 90
        0
 91
        1
 62
     0
 92
       -2
340
14
 93
        0
 40
0.045
309
GRIDFORMAT_END
 95
        4
302
GRIDFORMAT
  1
GRIDFORMAT_BEGIN
 90
        0
 91
        1
 62
     0
 92
       -2
340
14
 93
        0
 40
0.045
309
GRIDFORMAT_END
 95
        8
302
GRIDFORMAT
  1
GRIDFORMAT_BEGIN
 90
        0
 91
        1
 62
     0
 92
       -2
340
14
 93
        0
 40
0.045
309
GRIDFORMAT_END
 95
       16
302
GRIDFORMAT
  1
GRIDFORMAT_BEGIN
 90
        0
 91
        1
 62
     0
 92
       -2
340
14
 93
        0
 40
0.045
309
GRIDFORMAT_END
 95
       32
302
GRIDFORMAT
  1
GRIDFORMAT_BEGIN
 90
        0
 91
        1
 62
     0
 92
       -2
340
14
 93
        0
 40
0.045
309
GRIDFORMAT_END
309
TABLEFORMAT_END
  1
CELLSTYLE_BEGIN
 90
        3
 91
        2
300
_DATA
309
CELLSTYLE_END
  0
XRECORD
  5
3EBB
102
{ACAD_REACTORS
330
3EBA
102
}
330
3EBA
100
AcDbXrecord
280
     1
102
ACAD_ROUNDTRIP_PRE2007_TABLESTYLE
 90
        4
 91
        0
  1

 92
        4
 93
        0
  2

 94
        4
 95
        0
  3

  0
XRECORD
  5
3E93
102
{ACAD_REACTORS
330
3E92
102
}
330
3E92
100
AcDbXrecord
280
     1
102
RTVSPropertyOp0
 70
     1
102
RTVSPropertyOp1
 70
     1
102
RTVSPropertyOp2
 70
     1
102
RTVSPropertyOp3
 70
     1
102
RTVSPropertyOp4
 70
     1
102
RTVSPropertyOp5
 70
     1
102
RTVSPropertyOp6
 70
     1
102
RTVSPropertyOp7
 70
     1
102
RTVSPropertyOp8
 70
     1
102
RTVSPropertyOp9
 70
     1
102
RTVSPropertyOp10
 70
     1
102
RTVSPropertyOp11
 70
     1
102
RTVSPropertyOp12
 70
     1
102
RTVSPropertyOp13
 70
     1
102
RTVSPropertyOp14
 70
     1
102
RTVSPropertyOp15
 70
     1
102
RTVSPropertyOp16
 70
     1
102
RTVSPropertyOp17
 70
     1
102
RTVSPropertyOp18
 70
     1
102
RTVSPropertyOp19
 70
     1
102
RTVSPropertyOp20
 70
     1
102
RTVSPropertyOp21
 70
     1
102
RTVSPropertyOp22
 70
     1
102
RTVSPropertyOp23
 70
     1
102
RTVSPropertyOp24
 70
     1
102
RTVSPropertyOp25
 70
     1
102
RTVSPropertyOp26
 70
     1
102
RTVSPropertyOp27
 70
     1
102
RTVSPropertyOp28
 70
     1
102
RTVSPropertyOp29
 70
     1
102
RTVSPropertyOp30
 70
     1
102
RTVSPropertyOp31
 70
     1
102
RTVSPropertyOp32
 70
     1
102
RTVSPropertyOp33
 70
     1
102
RTVSPropertyOp34
 70
     1
102
RTVSPropertyOp35
 70
     1
102
RTVSPropertyOp36
 70
     1
102
RTVSPropertyOp37
 70
     1
102
RTVSPropertyOp38
 70
     1
102
RTVSPropertyOp39
 70
     1
102
RTVSPropertyOp40
 70
     1
102
RTVSPropertyOp41
 70
     1
102
RTVSPropertyOp42
 70
     1
102
RTVSPropertyOp43
 70
     1
102
RTVSPropertyOp44
 70
     1
102
RTVSPropertyOp45
 70
     1
102
RTVSPropertyOp46
 70
     1
102
RTVSPropertyOp47
 70
     1
102
RTVSPropertyOp48
 70
     1
102
RTVSPropertyOp49
 70
     1
102
RTVSPropertyOp50
 70
     1
102
RTVSPropertyOp51
 70
     0
102
RTVSPropertyOp52
 70
     0
102
RTVSPropertyOp53
 70
     1
102
RTVSPropertyOp54
 70
     1
102
RTVSPropertyOp55
 70
     1
102
RTVSPropertyOp56
 70
     1
102
RTVSPropertyOp57
 70
     1
102
RTVSPost2010Prop28
280
     1
102
RTVSPost2010PropOp28
 70
     1
102
RTVSPost2010Prop29
280
     1
102
RTVSPost2010PropOp29
 70
     1
102
RTVSPost2010Prop30
280
     0
102
RTVSPost2010PropOp30
 70
     1
102
RTVSPost2010Prop31
280
     0
102
RTVSPost2010PropOp31
 70
     1
102
RTVSPost2010Prop32
280
     0
102
RTVSPost2010PropOp32
 70
     1
102
RTVSPost2010Prop33
280
     0
102
RTVSPost2010PropOp33
 70
     1
102
RTVSPost2010Prop34
280
     0
102
RTVSPost2010PropOp34
 70
     1
102
RTVSPost2010Prop35
280
     0
102
RTVSPost2010PropOp35
 70
     1
102
RTVSPost2010Prop36
280
     0
102
RTVSPost2010PropOp36
 70
     1
102
RTVSPost2010Prop37
 90
       50
102
RTVSPost2010PropOp37
 70
     1
102
RTVSPost2010Prop38
140
0.0
102
RTVSPost2010PropOp38
 70
     1
102
RTVSPost2010Prop39
140
1.0
102
RTVSPost2010PropOp39
 70
     1
102
RTVSPost2010Prop40
 90
        0
102
RTVSPost2010PropOp40
 70
     1
102
RTVSPost2010Prop41ColorIndex
 90
       18
102
RTVSPost2010Prop41ColorRGB
 90
        0
102
RTVSPost2010PropOp41
 70
     1
102
RTVSPost2010Prop42
 90
       50
102
RTVSPost2010PropOp42
 70
     1
102
RTVSPost2010Prop43
 90
        3
102
RTVSPost2010PropOp43
 70
     1
102
RTVSPost2010Prop44ColorIndex
 90
        5
102
RTVSPost2010Prop44ColorRGB
 90
      255
102
RTVSPost2010PropOp44
 70
     1
102
RTVSPost2010Prop45
280
     0
102
RTVSPost2010PropOp45
 70
     1
102
RTVSPost2010Prop46
 90
       50
102
RTVSPost2010PropOp46
 70
     1
102
RTVSPost2010Prop47
 90
       50
102
RTVSPost2010PropOp47
 70
     1
102
RTVSPost2010Prop48
 90
       50
102
RTVSPost2010PropOp48
 70
     1
102
RTVSPost2010Prop49
280
     0
102
RTVSPost2010PropOp49
 70
     1
102
RTVSPost2010Prop50
 90
       50
102
RTVSPost2010PropOp50
 70
     1
102
RTVSPost2010Prop51ColorIndex
 90
      256
102
RTVSPost2010Prop51ColorRGB
 90
-16777216
102
RTVSPost2010PropOp51
 70
     0
102
RTVSPost2010Prop52
140
1.0
102
RTVSPost2010PropOp52
 70
     0
102
RTVSPost2010Prop53
 90
        2
102
RTVSPost2010PropOp53
 70
     1
102
RTVSPost2010Prop54
  1
strokes_ogs.tif
102
RTVSPost2010PropOp54
 70
     1
102
RTVSPost2010Prop55
280
     0
102
RTVSPost2010PropOp55
 70
     1
102
RTVSPost2010Prop56
140
1.0
102
RTVSPost2010PropOp56
 70
     1
102
RTVSPost2010Prop57
140
1.0
102
RTVSPost2010PropOp57
 70
     1
  0
XRECORD
  5
3E99
102
{ACAD_REACTORS
330
3E98
102
}
330
3E98
100
AcDbXrecord
280
     1
102
RTVSPropertyOp0
 70
     1
102
RTVSPropertyOp1
 70
     1
102
RTVSPropertyOp2
 70
     1
102
RTVSPropertyOp3
 70
     1
102
RTVSPropertyOp4
 70
     1
102
RTVSPropertyOp5
 70
     1
102
RTVSPropertyOp6
 70
     1
102
RTVSPropertyOp7
 70
     1
102
RTVSPropertyOp8
 70
     1
102
RTVSPropertyOp9
 70
     1
102
RTVSPropertyOp10
 70
     1
102
RTVSPropertyOp11
 70
     1
102
RTVSPropertyOp12
 70
     1
102
RTVSPropertyOp13
 70
     1
102
RTVSPropertyOp14
 70
     1
102
RTVSPropertyOp15
 70
     1
102
RTVSPropertyOp16
 70
     1
102
RTVSPropertyOp17
 70
     1
102
RTVSPropertyOp18
 70
     1
102
RTVSPropertyOp19
 70
     1
102
RTVSPropertyOp20
 70
     1
102
RTVSPropertyOp21
 70
     1
102
RTVSPropertyOp22
 70
     1
102
RTVSPropertyOp23
 70
     1
102
RTVSPropertyOp24
 70
     1
102
RTVSPropertyOp25
 70
     1
102
RTVSPropertyOp26
 70
     1
102
RTVSPropertyOp27
 70
     1
102
RTVSPropertyOp28
 70
     1
102
RTVSPropertyOp29
 70
     1
102
RTVSPropertyOp30
 70
     1
102
RTVSPropertyOp31
 70
     1
102
RTVSPropertyOp32
 70
     1
102
RTVSPropertyOp33
 70
     1
102
RTVSPropertyOp34
 70
     1
102
RTVSPropertyOp35
 70
     1
102
RTVSPropertyOp36
 70
     1
102
RTVSPropertyOp37
 70
     1
102
RTVSPropertyOp38
 70
     1
102
RTVSPropertyOp39
 70
     1
102
RTVSPropertyOp40
 70
     1
102
RTVSPropertyOp41
 70
     1
102
RTVSPropertyOp42
 70
     1
102
RTVSPropertyOp43
 70
     1
102
RTVSPropertyOp44
 70
     1
102
RTVSPropertyOp45
 70
     1
102
RTVSPropertyOp46
 70
     1
102
RTVSPropertyOp47
 70
     1
102
RTVSPropertyOp48
 70
     1
102
RTVSPropertyOp49
 70
     1
102
RTVSPropertyOp50
 70
     1
102
RTVSPropertyOp51
 70
     0
102
RTVSPropertyOp52
 70
     0
102
RTVSPropertyOp53
 70
     1
102
RTVSPropertyOp54
 70
     1
102
RTVSPropertyOp55
 70
     1
102
RTVSPropertyOp56
 70
     1
102
RTVSPropertyOp57
 70
     1
102
RTVSPost2010Prop28
280
     0
102
RTVSPost2010PropOp28
 70
     1
102
RTVSPost2010Prop29
280
     1
102
RTVSPost2010PropOp29
 70
     1
102
RTVSPost2010Prop30
280
     1
102
RTVSPost2010PropOp30
 70
     1
102
RTVSPost2010Prop31
280
     0
102
RTVSPost2010PropOp31
 70
     1
102
RTVSPost2010Prop32
280
     0
102
RTVSPost2010PropOp32
 70
     1
102
RTVSPost2010Prop33
280
     0
102
RTVSPost2010PropOp33
 70
     1
102
RTVSPost2010Prop34
280
     0
102
RTVSPost2010PropOp34
 70
     1
102
RTVSPost2010Prop35
280
     0
102
RTVSPost2010PropOp35
 70
     1
102
RTVSPost2010Prop36
280
     0
102
RTVSPost2010PropOp36
 70
     1
102
RTVSPost2010Prop37
 90
       50
102
RTVSPost2010PropOp37
 70
     1
102
RTVSPost2010Prop38
140
0.0
102
RTVSPost2010PropOp38
 70
     1
102
RTVSPost2010Prop39
140
1.0
102
RTVSPost2010PropOp39
 70
     1
102
RTVSPost2010Prop40
 90
        0
102
RTVSPost2010PropOp40
 70
     1
102
RTVSPost2010Prop41ColorIndex
 90
       18
102
RTVSPost2010Prop41ColorRGB
 90
        0
102
RTVSPost2010PropOp41
 70
     1
102
RTVSPost2010Prop42
 90
       50
102
RTVSPost2010PropOp42
 70
     1
102
RTVSPost2010Prop43
 90
        3
102
RTVSPost2010PropOp43
 70
     1
102
RTVSPost2010Prop44ColorIndex
 90
        5
102
RTVSPost2010Prop44ColorRGB
 90
      255
102
RTVSPost2010PropOp44
 70
     1
102
RTVSPost2010Prop45
280
     0
102
RTVSPost2010PropOp45
 70
     1
102
RTVSPost2010Prop46
 90
       50
102
RTVSPost2010PropOp46
 70
     1
102
RTVSPost2010Prop47
 90
       50
102
RTVSPost2010PropOp47
 70
     1
102
RTVSPost2010Prop48
 90
       50
102
RTVSPost2010PropOp48
 70
     1
102
RTVSPost2010Prop49
280
     0
102
RTVSPost2010PropOp49
 70
     1
102
RTVSPost2010Prop50
 90
       50
102
RTVSPost2010PropOp50
 70
     1
102
RTVSPost2010Prop51ColorIndex
 90
      256
102
RTVSPost2010Prop51ColorRGB
 90
-16777216
102
RTVSPost2010PropOp51
 70
     0
102
RTVSPost2010Prop52
140
1.0
102
RTVSPost2010PropOp52
 70
     0
102
RTVSPost2010Prop53
 90
        2
102
RTVSPost2010PropOp53
 70
     1
102
RTVSPost2010Prop54
  1
strokes_ogs.tif
102
RTVSPost2010PropOp54
 70
     1
102
RTVSPost2010Prop55
280
     0
102
RTVSPost2010PropOp55
 70
     1
102
RTVSPost2010Prop56
140
1.0
102
RTVSPost2010PropOp56
 70
     1
102
RTVSPost2010Prop57
140
1.0
102
RTVSPost2010PropOp57
 70
     1
  0
XRECORD
  5
3EA1
102
{ACAD_REACTORS
330
3EA0
102
}
330
3EA0
100
AcDbXrecord
280
     1
102
RTVSPropertyOp0
 70
     1
102
RTVSPropertyOp1
 70
     1
102
RTVSPropertyOp2
 70
     1
102
RTVSPropertyOp3
 70
     1
102
RTVSPropertyOp4
 70
     1
102
RTVSPropertyOp5
 70
     1
102
RTVSPropertyOp6
 70
     1
102
RTVSPropertyOp7
 70
     1
102
RTVSPropertyOp8
 70
     1
102
RTVSPropertyOp9
 70
     1
102
RTVSPropertyOp10
 70
     1
102
RTVSPropertyOp11
 70
     1
102
RTVSPropertyOp12
 70
     1
102
RTVSPropertyOp13
 70
     1
102
RTVSPropertyOp14
 70
     1
102
RTVSPropertyOp15
 70
     1
102
RTVSPropertyOp16
 70
     1
102
RTVSPropertyOp17
 70
     1
102
RTVSPropertyOp18
 70
     1
102
RTVSPropertyOp19
 70
     1
102
RTVSPropertyOp20
 70
     1
102
RTVSPropertyOp21
 70
     1
102
RTVSPropertyOp22
 70
     1
102
RTVSPropertyOp23
 70
     1
102
RTVSPropertyOp24
 70
     1
102
RTVSPropertyOp25
 70
     1
102
RTVSPropertyOp26
 70
     1
102
RTVSPropertyOp27
 70
     1
102
RTVSPropertyOp28
 70
     1
102
RTVSPropertyOp29
 70
     1
102
RTVSPropertyOp30
 70
     1
102
RTVSPropertyOp31
 70
     1
102
RTVSPropertyOp32
 70
     1
102
RTVSPropertyOp33
 70
     1
102
RTVSPropertyOp34
 70
     1
102
RTVSPropertyOp35
 70
     1
102
RTVSPropertyOp36
 70
     1
102
RTVSPropertyOp37
 70
     1
102
RTVSPropertyOp38
 70
     1
102
RTVSPropertyOp39
 70
     1
102
RTVSPropertyOp40
 70
     1
102
RTVSPropertyOp41
 70
     1
102
RTVSPropertyOp42
 70
     1
102
RTVSPropertyOp43
 70
     1
102
RTVSPropertyOp44
 70
     1
102
RTVSPropertyOp45
 70
     1
102
RTVSPropertyOp46
 70
     1
102
RTVSPropertyOp47
 70
     1
102
RTVSPropertyOp48
 70
     1
102
RTVSPropertyOp49
 70
     1
102
RTVSPropertyOp50
 70
     1
102
RTVSPropertyOp51
 70
     0
102
RTVSPropertyOp52
 70
     0
102
RTVSPropertyOp53
 70
     1
102
RTVSPropertyOp54
 70
     1
102
RTVSPropertyOp55
 70
     1
102
RTVSPropertyOp56
 70
     1
102
RTVSPropertyOp57
 70
     1
102
RTVSPost2010Prop28
280
     0
102
RTVSPost2010PropOp28
 70
     1
102
RTVSPost2010Prop29
280
     1
102
RTVSPost2010PropOp29
 70
     1
102
RTVSPost2010Prop30
280
     1
102
RTVSPost2010PropOp30
 70
     1
102
RTVSPost2010Prop31
280
     0
102
RTVSPost2010PropOp31
 70
     1
102
RTVSPost2010Prop32
280
     0
102
RTVSPost2010PropOp32
 70
     1
102
RTVSPost2010Prop33
280
     0
102
RTVSPost2010PropOp33
 70
     1
102
RTVSPost2010Prop34
280
     0
102
RTVSPost2010PropOp34
 70
     1
102
RTVSPost2010Prop35
280
     0
102
RTVSPost2010PropOp35
 70
     1
102
RTVSPost2010Prop36
280
     0
102
RTVSPost2010PropOp36
 70
     1
102
RTVSPost2010Prop37
 90
       50
102
RTVSPost2010PropOp37
 70
     1
102
RTVSPost2010Prop38
140
0.0
102
RTVSPost2010PropOp38
 70
     1
102
RTVSPost2010Prop39
140
1.0
102
RTVSPost2010PropOp39
 70
     1
102
RTVSPost2010Prop40
 90
        0
102
RTVSPost2010PropOp40
 70
     1
102
RTVSPost2010Prop41ColorIndex
 90
       18
102
RTVSPost2010Prop41ColorRGB
 90
        0
102
RTVSPost2010PropOp41
 70
     1
102
RTVSPost2010Prop42
 90
       50
102
RTVSPost2010PropOp42
 70
     1
102
RTVSPost2010Prop43
 90
        3
102
RTVSPost2010PropOp43
 70
     1
102
RTVSPost2010Prop44ColorIndex
 90
        5
102
RTVSPost2010Prop44ColorRGB
 90
      255
102
RTVSPost2010PropOp44
 70
     1
102
RTVSPost2010Prop45
280
     0
102
RTVSPost2010PropOp45
 70
     1
102
RTVSPost2010Prop46
 90
       50
102
RTVSPost2010PropOp46
 70
     1
102
RTVSPost2010Prop47
 90
       50
102
RTVSPost2010PropOp47
 70
     1
102
RTVSPost2010Prop48
 90
       50
102
RTVSPost2010PropOp48
 70
     1
102
RTVSPost2010Prop49
280
     0
102
RTVSPost2010PropOp49
 70
     1
102
RTVSPost2010Prop50
 90
       50
102
RTVSPost2010PropOp50
 70
     1
102
RTVSPost2010Prop51ColorIndex
 90
      256
102
RTVSPost2010Prop51ColorRGB
 90
-16777216
102
RTVSPost2010PropOp51
 70
     0
102
RTVSPost2010Prop52
140
1.0
102
RTVSPost2010PropOp52
 70
     0
102
RTVSPost2010Prop53
 90
        2
102
RTVSPost2010PropOp53
 70
     1
102
RTVSPost2010Prop54
  1
strokes_ogs.tif
102
RTVSPost2010PropOp54
 70
     1
102
RTVSPost2010Prop55
280
     0
102
RTVSPost2010PropOp55
 70
     1
102
RTVSPost2010Prop56
140
1.0
102
RTVSPost2010PropOp56
 70
     1
102
RTVSPost2010Prop57
140
1.0
102
RTVSPost2010PropOp57
 70
     1
  0
XRECORD
  5
3EA9
102
{ACAD_REACTORS
330
3EA8
102
}
330
3EA8
100
AcDbXrecord
280
     1
102
RTVSPropertyOp0
 70
     1
102
RTVSPropertyOp1
 70
     1
102
RTVSPropertyOp2
 70
     1
102
RTVSPropertyOp3
 70
     1
102
RTVSPropertyOp4
 70
     1
102
RTVSPropertyOp5
 70
     1
102
RTVSPropertyOp6
 70
     1
102
RTVSPropertyOp7
 70
     1
102
RTVSPropertyOp8
 70
     1
102
RTVSPropertyOp9
 70
     1
102
RTVSPropertyOp10
 70
     1
102
RTVSPropertyOp11
 70
     1
102
RTVSPropertyOp12
 70
     1
102
RTVSPropertyOp13
 70
     1
102
RTVSPropertyOp14
 70
     1
102
RTVSPropertyOp15
 70
     1
102
RTVSPropertyOp16
 70
     1
102
RTVSPropertyOp17
 70
     1
102
RTVSPropertyOp18
 70
     1
102
RTVSPropertyOp19
 70
     1
102
RTVSPropertyOp20
 70
     1
102
RTVSPropertyOp21
 70
     1
102
RTVSPropertyOp22
 70
     1
102
RTVSPropertyOp23
 70
     1
102
RTVSPropertyOp24
 70
     1
102
RTVSPropertyOp25
 70
     1
102
RTVSPropertyOp26
 70
     1
102
RTVSPropertyOp27
 70
     1
102
RTVSPropertyOp28
 70
     1
102
RTVSPropertyOp29
 70
     1
102
RTVSPropertyOp30
 70
     1
102
RTVSPropertyOp31
 70
     1
102
RTVSPropertyOp32
 70
     1
102
RTVSPropertyOp33
 70
     1
102
RTVSPropertyOp34
 70
     1
102
RTVSPropertyOp35
 70
     1
102
RTVSPropertyOp36
 70
     1
102
RTVSPropertyOp37
 70
     1
102
RTVSPropertyOp38
 70
     1
102
RTVSPropertyOp39
 70
     1
102
RTVSPropertyOp40
 70
     1
102
RTVSPropertyOp41
 70
     1
102
RTVSPropertyOp42
 70
     1
102
RTVSPropertyOp43
 70
     1
102
RTVSPropertyOp44
 70
     1
102
RTVSPropertyOp45
 70
     1
102
RTVSPropertyOp46
 70
     1
102
RTVSPropertyOp47
 70
     1
102
RTVSPropertyOp48
 70
     1
102
RTVSPropertyOp49
 70
     1
102
RTVSPropertyOp50
 70
     1
102
RTVSPropertyOp51
 70
     0
102
RTVSPropertyOp52
 70
     0
102
RTVSPropertyOp53
 70
     1
102
RTVSPropertyOp54
 70
     1
102
RTVSPropertyOp55
 70
     1
102
RTVSPropertyOp56
 70
     1
102
RTVSPropertyOp57
 70
     1
102
RTVSPost2010Prop28
280
     0
102
RTVSPost2010PropOp28
 70
     1
102
RTVSPost2010Prop29
280
     1
102
RTVSPost2010PropOp29
 70
     1
102
RTVSPost2010Prop30
280
     1
102
RTVSPost2010PropOp30
 70
     1
102
RTVSPost2010Prop31
280
     0
102
RTVSPost2010PropOp31
 70
     1
102
RTVSPost2010Prop32
280
     0
102
RTVSPost2010PropOp32
 70
     1
102
RTVSPost2010Prop33
280
     0
102
RTVSPost2010PropOp33
 70
     1
102
RTVSPost2010Prop34
280
     0
102
RTVSPost2010PropOp34
 70
     1
102
RTVSPost2010Prop35
280
     0
102
RTVSPost2010PropOp35
 70
     1
102
RTVSPost2010Prop36
280
     0
102
RTVSPost2010PropOp36
 70
     1
102
RTVSPost2010Prop37
 90
       50
102
RTVSPost2010PropOp37
 70
     1
102
RTVSPost2010Prop38
140
0.0
102
RTVSPost2010PropOp38
 70
     1
102
RTVSPost2010Prop39
140
1.0
102
RTVSPost2010PropOp39
 70
     1
102
RTVSPost2010Prop40
 90
        0
102
RTVSPost2010PropOp40
 70
     1
102
RTVSPost2010Prop41ColorIndex
 90
       18
102
RTVSPost2010Prop41ColorRGB
 90
        0
102
RTVSPost2010PropOp41
 70
     1
102
RTVSPost2010Prop42
 90
       50
102
RTVSPost2010PropOp42
 70
     1
102
RTVSPost2010Prop43
 90
        3
102
RTVSPost2010PropOp43
 70
     1
102
RTVSPost2010Prop44ColorIndex
 90
        5
102
RTVSPost2010Prop44ColorRGB
 90
      255
102
RTVSPost2010PropOp44
 70
     1
102
RTVSPost2010Prop45
280
     0
102
RTVSPost2010PropOp45
 70
     1
102
RTVSPost2010Prop46
 90
       50
102
RTVSPost2010PropOp46
 70
     1
102
RTVSPost2010Prop47
 90
       50
102
RTVSPost2010PropOp47
 70
     1
102
RTVSPost2010Prop48
 90
       50
102
RTVSPost2010PropOp48
 70
     1
102
RTVSPost2010Prop49
280
     0
102
RTVSPost2010PropOp49
 70
     1
102
RTVSPost2010Prop50
 90
       50
102
RTVSPost2010PropOp50
 70
     1
102
RTVSPost2010Prop51ColorIndex
 90
      256
102
RTVSPost2010Prop51ColorRGB
 90
-16777216
102
RTVSPost2010PropOp51
 70
     0
102
RTVSPost2010Prop52
140
1.0
102
RTVSPost2010PropOp52
 70
     0
102
RTVSPost2010Prop53
 90
        2
102
RTVSPost2010PropOp53
 70
     1
102
RTVSPost2010Prop54
  1
strokes_ogs.tif
102
RTVSPost2010PropOp54
 70
     1
102
RTVSPost2010Prop55
280
     0
102
RTVSPost2010PropOp55
 70
     1
102
RTVSPost2010Prop56
140
1.0
102
RTVSPost2010PropOp56
 70
     1
102
RTVSPost2010Prop57
140
1.0
102
RTVSPost2010PropOp57
 70
     1
  0
XRECORD
  5
3E9D
102
{ACAD_REACTORS
330
3E9C
102
}
330
3E9C
100
AcDbXrecord
280
     1
102
RTVSPropertyOp0
 70
     1
102
RTVSPropertyOp1
 70
     1
102
RTVSPropertyOp2
 70
     1
102
RTVSPropertyOp3
 70
     1
102
RTVSPropertyOp4
 70
     1
102
RTVSPropertyOp5
 70
     1
102
RTVSPropertyOp6
 70
     1
102
RTVSPropertyOp7
 70
     1
102
RTVSPropertyOp8
 70
     1
102
RTVSPropertyOp9
 70
     1
102
RTVSPropertyOp10
 70
     1
102
RTVSPropertyOp11
 70
     1
102
RTVSPropertyOp12
 70
     1
102
RTVSPropertyOp13
 70
     1
102
RTVSPropertyOp14
 70
     1
102
RTVSPropertyOp15
 70
     1
102
RTVSPropertyOp16
 70
     1
102
RTVSPropertyOp17
 70
     1
102
RTVSPropertyOp18
 70
     1
102
RTVSPropertyOp19
 70
     1
102
RTVSPropertyOp20
 70
     1
102
RTVSPropertyOp21
 70
     1
102
RTVSPropertyOp22
 70
     1
102
RTVSPropertyOp23
 70
     1
102
RTVSPropertyOp24
 70
     1
102
RTVSPropertyOp25
 70
     1
102
RTVSPropertyOp26
 70
     1
102
RTVSPropertyOp27
 70
     1
102
RTVSPropertyOp28
 70
     1
102
RTVSPropertyOp29
 70
     1
102
RTVSPropertyOp30
 70
     1
102
RTVSPropertyOp31
 70
     1
102
RTVSPropertyOp32
 70
     1
102
RTVSPropertyOp33
 70
     1
102
RTVSPropertyOp34
 70
     1
102
RTVSPropertyOp35
 70
     1
102
RTVSPropertyOp36
 70
     1
102
RTVSPropertyOp37
 70
     1
102
RTVSPropertyOp38
 70
     1
102
RTVSPropertyOp39
 70
     1
102
RTVSPropertyOp40
 70
     1
102
RTVSPropertyOp41
 70
     1
102
RTVSPropertyOp42
 70
     1
102
RTVSPropertyOp43
 70
     1
102
RTVSPropertyOp44
 70
     1
102
RTVSPropertyOp45
 70
     1
102
RTVSPropertyOp46
 70
     1
102
RTVSPropertyOp47
 70
     1
102
RTVSPropertyOp48
 70
     1
102
RTVSPropertyOp49
 70
     1
102
RTVSPropertyOp50
 70
     1
102
RTVSPropertyOp51
 70
     0
102
RTVSPropertyOp52
 70
     0
102
RTVSPropertyOp53
 70
     1
102
RTVSPropertyOp54
 70
     1
102
RTVSPropertyOp55
 70
     1
102
RTVSPropertyOp56
 70
     1
102
RTVSPropertyOp57
 70
     1
102
RTVSPost2010Prop28
280
     0
102
RTVSPost2010PropOp28
 70
     1
102
RTVSPost2010Prop29
280
     1
102
RTVSPost2010PropOp29
 70
     1
102
RTVSPost2010Prop30
280
     1
102
RTVSPost2010PropOp30
 70
     1
102
RTVSPost2010Prop31
280
     0
102
RTVSPost2010PropOp31
 70
     1
102
RTVSPost2010Prop32
280
     0
102
RTVSPost2010PropOp32
 70
     1
102
RTVSPost2010Prop33
280
     0
102
RTVSPost2010PropOp33
 70
     1
102
RTVSPost2010Prop34
280
     0
102
RTVSPost2010PropOp34
 70
     1
102
RTVSPost2010Prop35
280
     0
102
RTVSPost2010PropOp35
 70
     1
102
RTVSPost2010Prop36
280
     0
102
RTVSPost2010PropOp36
 70
     1
102
RTVSPost2010Prop37
 90
       50
102
RTVSPost2010PropOp37
 70
     1
102
RTVSPost2010Prop38
140
0.0
102
RTVSPost2010PropOp38
 70
     1
102
RTVSPost2010Prop39
140
1.0
102
RTVSPost2010PropOp39
 70
     1
102
RTVSPost2010Prop40
 90
        0
102
RTVSPost2010PropOp40
 70
     1
102
RTVSPost2010Prop41ColorIndex
 90
       18
102
RTVSPost2010Prop41ColorRGB
 90
        0
102
RTVSPost2010PropOp41
 70
     1
102
RTVSPost2010Prop42
 90
       50
102
RTVSPost2010PropOp42
 70
     1
102
RTVSPost2010Prop43
 90
        3
102
RTVSPost2010PropOp43
 70
     1
102
RTVSPost2010Prop44ColorIndex
 90
        5
102
RTVSPost2010Prop44ColorRGB
 90
      255
102
RTVSPost2010PropOp44
 70
     1
102
RTVSPost2010Prop45
280
     0
102
RTVSPost2010PropOp45
 70
     1
102
RTVSPost2010Prop46
 90
       50
102
RTVSPost2010PropOp46
 70
     1
102
RTVSPost2010Prop47
 90
       50
102
RTVSPost2010PropOp47
 70
     1
102
RTVSPost2010Prop48
 90
       50
102
RTVSPost2010PropOp48
 70
     1
102
RTVSPost2010Prop49
280
     0
102
RTVSPost2010PropOp49
 70
     1
102
RTVSPost2010Prop50
 90
       50
102
RTVSPost2010PropOp50
 70
     1
102
RTVSPost2010Prop51ColorIndex
 90
      256
102
RTVSPost2010Prop51ColorRGB
 90
-16777216
102
RTVSPost2010PropOp51
 70
     0
102
RTVSPost2010Prop52
140
1.0
102
RTVSPost2010PropOp52
 70
     0
102
RTVSPost2010Prop53
 90
        2
102
RTVSPost2010PropOp53
 70
     1
102
RTVSPost2010Prop54
  1
strokes_ogs.tif
102
RTVSPost2010PropOp54
 70
     1
102
RTVSPost2010Prop55
280
     0
102
RTVSPost2010PropOp55
 70
     1
102
RTVSPost2010Prop56
140
1.0
102
RTVSPost2010PropOp56
 70
     1
102
RTVSPost2010Prop57
140
1.0
102
RTVSPost2010PropOp57
 70
     1
  0
XRECORD
  5
3E9F
102
{ACAD_REACTORS
330
3E9E
102
}
330
3E9E
100
AcDbXrecord
280
     1
102
RTVSPropertyOp0
 70
     1
102
RTVSPropertyOp1
 70
     1
102
RTVSPropertyOp2
 70
     1
102
RTVSPropertyOp3
 70
     1
102
RTVSPropertyOp4
 70
     1
102
RTVSPropertyOp5
 70
     1
102
RTVSPropertyOp6
 70
     1
102
RTVSPropertyOp7
 70
     1
102
RTVSPropertyOp8
 70
     1
102
RTVSPropertyOp9
 70
     1
102
RTVSPropertyOp10
 70
     1
102
RTVSPropertyOp11
 70
     1
102
RTVSPropertyOp12
 70
     1
102
RTVSPropertyOp13
 70
     1
102
RTVSPropertyOp14
 70
     1
102
RTVSPropertyOp15
 70
     1
102
RTVSPropertyOp16
 70
     1
102
RTVSPropertyOp17
 70
     1
102
RTVSPropertyOp18
 70
     1
102
RTVSPropertyOp19
 70
     1
102
RTVSPropertyOp20
 70
     1
102
RTVSPropertyOp21
 70
     1
102
RTVSPropertyOp22
 70
     1
102
RTVSPropertyOp23
 70
     1
102
RTVSPropertyOp24
 70
     1
102
RTVSPropertyOp25
 70
     1
102
RTVSPropertyOp26
 70
     1
102
RTVSPropertyOp27
 70
     1
102
RTVSPropertyOp28
 70
     1
102
RTVSPropertyOp29
 70
     1
102
RTVSPropertyOp30
 70
     1
102
RTVSPropertyOp31
 70
     1
102
RTVSPropertyOp32
 70
     1
102
RTVSPropertyOp33
 70
     1
102
RTVSPropertyOp34
 70
     1
102
RTVSPropertyOp35
 70
     1
102
RTVSPropertyOp36
 70
     1
102
RTVSPropertyOp37
 70
     1
102
RTVSPropertyOp38
 70
     1
102
RTVSPropertyOp39
 70
     1
102
RTVSPropertyOp40
 70
     1
102
RTVSPropertyOp41
 70
     1
102
RTVSPropertyOp42
 70
     1
102
RTVSPropertyOp43
 70
     1
102
RTVSPropertyOp44
 70
     1
102
RTVSPropertyOp45
 70
     1
102
RTVSPropertyOp46
 70
     1
102
RTVSPropertyOp47
 70
     1
102
RTVSPropertyOp48
 70
     1
102
RTVSPropertyOp49
 70
     1
102
RTVSPropertyOp50
 70
     1
102
RTVSPropertyOp51
 70
     0
102
RTVSPropertyOp52
 70
     0
102
RTVSPropertyOp53
 70
     1
102
RTVSPropertyOp54
 70
     1
102
RTVSPropertyOp55
 70
     1
102
RTVSPropertyOp56
 70
     1
102
RTVSPropertyOp57
 70
     1
102
RTVSPost2010Prop28
280
     0
102
RTVSPost2010PropOp28
 70
     1
102
RTVSPost2010Prop29
280
     1
102
RTVSPost2010PropOp29
 70
     1
102
RTVSPost2010Prop30
280
     1
102
RTVSPost2010PropOp30
 70
     1
102
RTVSPost2010Prop31
280
     0
102
RTVSPost2010PropOp31
 70
     1
102
RTVSPost2010Prop32
280
     0
102
RTVSPost2010PropOp32
 70
     1
102
RTVSPost2010Prop33
280
     0
102
RTVSPost2010PropOp33
 70
     1
102
RTVSPost2010Prop34
280
     0
102
RTVSPost2010PropOp34
 70
     1
102
RTVSPost2010Prop35
280
     0
102
RTVSPost2010PropOp35
 70
     1
102
RTVSPost2010Prop36
280
     0
102
RTVSPost2010PropOp36
 70
     1
102
RTVSPost2010Prop37
 90
       50
102
RTVSPost2010PropOp37
 70
     1
102
RTVSPost2010Prop38
140
0.0
102
RTVSPost2010PropOp38
 70
     1
102
RTVSPost2010Prop39
140
1.0
102
RTVSPost2010PropOp39
 70
     1
102
RTVSPost2010Prop40
 90
        0
102
RTVSPost2010PropOp40
 70
     1
102
RTVSPost2010Prop41ColorIndex
 90
       18
102
RTVSPost2010Prop41ColorRGB
 90
        0
102
RTVSPost2010PropOp41
 70
     1
102
RTVSPost2010Prop42
 90
       50
102
RTVSPost2010PropOp42
 70
     1
102
RTVSPost2010Prop43
 90
        3
102
RTVSPost2010PropOp43
 70
     1
102
RTVSPost2010Prop44ColorIndex
 90
        5
102
RTVSPost2010Prop44ColorRGB
 90
      255
102
RTVSPost2010PropOp44
 70
     1
102
RTVSPost2010Prop45
280
     0
102
RTVSPost2010PropOp45
 70
     1
102
RTVSPost2010Prop46
 90
       50
102
RTVSPost2010PropOp46
 70
     1
102
RTVSPost2010Prop47
 90
       50
102
RTVSPost2010PropOp47
 70
     1
102
RTVSPost2010Prop48
 90
       50
102
RTVSPost2010PropOp48
 70
     1
102
RTVSPost2010Prop49
280
     0
102
RTVSPost2010PropOp49
 70
     1
102
RTVSPost2010Prop50
 90
       50
102
RTVSPost2010PropOp50
 70
     1
102
RTVSPost2010Prop51ColorIndex
 90
      256
102
RTVSPost2010Prop51ColorRGB
 90
-16777216
102
RTVSPost2010PropOp51
 70
     0
102
RTVSPost2010Prop52
140
1.0
102
RTVSPost2010PropOp52
 70
     0
102
RTVSPost2010Prop53
 90
        2
102
RTVSPost2010PropOp53
 70
     1
102
RTVSPost2010Prop54
  1
strokes_ogs.tif
102
RTVSPost2010PropOp54
 70
     1
102
RTVSPost2010Prop55
280
     0
102
RTVSPost2010PropOp55
 70
     1
102
RTVSPost2010Prop56
140
1.0
102
RTVSPost2010PropOp56
 70
     1
102
RTVSPost2010Prop57
140
1.0
102
RTVSPost2010PropOp57
 70
     1
  0
XRECORD
  5
3EAF
102
{ACAD_REACTORS
330
3EAE
102
}
330
3EAE
100
AcDbXrecord
280
     1
102
RTVSPropertyOp0
 70
     0
102
RTVSPropertyOp1
 70
     0
102
RTVSPropertyOp2
 70
     0
102
RTVSPropertyOp3
 70
     0
102
RTVSPropertyOp4
 70
     0
102
RTVSPropertyOp5
 70
     0
102
RTVSPropertyOp6
 70
     0
102
RTVSPropertyOp7
 70
     0
102
RTVSPropertyOp8
 70
     0
102
RTVSPropertyOp9
 70
     0
102
RTVSPropertyOp10
 70
     0
102
RTVSPropertyOp11
 70
     0
102
RTVSPropertyOp12
 70
     0
102
RTVSPropertyOp13
 70
     0
102
RTVSPropertyOp14
 70
     2
102
RTVSPropertyOp15
 70
     0
102
RTVSPropertyOp16
 70
     0
102
RTVSPropertyOp17
 70
     0
102
RTVSPropertyOp18
 70
     0
102
RTVSPropertyOp19
 70
     0
102
RTVSPropertyOp20
 70
     0
102
RTVSPropertyOp21
 70
     0
102
RTVSPropertyOp22
 70
     0
102
RTVSPropertyOp23
 70
     0
102
RTVSPropertyOp24
 70
     0
102
RTVSPropertyOp25
 70
     0
102
RTVSPropertyOp26
 70
     0
102
RTVSPropertyOp27
 70
     0
102
RTVSPropertyOp28
 70
     0
102
RTVSPropertyOp29
 70
     0
102
RTVSPropertyOp30
 70
     0
102
RTVSPropertyOp31
 70
     0
102
RTVSPropertyOp32
 70
     0
102
RTVSPropertyOp33
 70
     0
102
RTVSPropertyOp34
 70
     0
102
RTVSPropertyOp35
 70
     0
102
RTVSPropertyOp36
 70
     0
102
RTVSPropertyOp37
 70
     0
102
RTVSPropertyOp38
 70
     0
102
RTVSPropertyOp39
 70
     0
102
RTVSPropertyOp40
 70
     0
102
RTVSPropertyOp41
 70
     0
102
RTVSPropertyOp42
 70
     0
102
RTVSPropertyOp43
 70
     0
102
RTVSPropertyOp44
 70
     0
102
RTVSPropertyOp45
 70
     0
102
RTVSPropertyOp46
 70
     0
102
RTVSPropertyOp47
 70
     0
102
RTVSPropertyOp48
 70
     0
102
RTVSPropertyOp49
 70
     0
102
RTVSPropertyOp50
 70
     0
102
RTVSPropertyOp51
 70
     0
102
RTVSPropertyOp52
 70
     0
102
RTVSPropertyOp53
 70
     0
102
RTVSPropertyOp54
 70
     0
102
RTVSPropertyOp55
 70
     0
102
RTVSPropertyOp56
 70
     0
102
RTVSPropertyOp57
 70
     0
102
RTVSPost2010Prop28
280
     0
102
RTVSPost2010PropOp28
 70
     0
102
RTVSPost2010Prop29
280
     1
102
RTVSPost2010PropOp29
 70
     0
102
RTVSPost2010Prop30
280
     1
102
RTVSPost2010PropOp30
 70
     0
102
RTVSPost2010Prop31
280
     0
102
RTVSPost2010PropOp31
 70
     0
102
RTVSPost2010Prop32
280
     0
102
RTVSPost2010PropOp32
 70
     0
102
RTVSPost2010Prop33
280
     0
102
RTVSPost2010PropOp33
 70
     0
102
RTVSPost2010Prop34
280
     0
102
RTVSPost2010PropOp34
 70
     0
102
RTVSPost2010Prop35
280
     0
102
RTVSPost2010PropOp35
 70
     0
102
RTVSPost2010Prop36
280
     0
102
RTVSPost2010PropOp36
 70
     0
102
RTVSPost2010Prop37
 90
       50
102
RTVSPost2010PropOp37
 70
     0
102
RTVSPost2010Prop38
140
0.0
102
RTVSPost2010PropOp38
 70
     0
102
RTVSPost2010Prop39
140
1.0
102
RTVSPost2010PropOp39
 70
     0
102
RTVSPost2010Prop40
 90
        0
102
RTVSPost2010PropOp40
 70
     0
102
RTVSPost2010Prop41ColorIndex
 90
       18
102
RTVSPost2010Prop41ColorRGB
 90
        0
102
RTVSPost2010PropOp41
 70
     0
102
RTVSPost2010Prop42
 90
       50
102
RTVSPost2010PropOp42
 70
     0
102
RTVSPost2010Prop43
 90
        3
102
RTVSPost2010PropOp43
 70
     0
102
RTVSPost2010Prop44ColorIndex
 90
        5
102
RTVSPost2010Prop44ColorRGB
 90
      255
102
RTVSPost2010PropOp44
 70
     0
102
RTVSPost2010Prop45
280
     0
102
RTVSPost2010PropOp45
 70
     0
102
RTVSPost2010Prop46
 90
       50
102
RTVSPost2010PropOp46
 70
     0
102
RTVSPost2010Prop47
 90
       50
102
RTVSPost2010PropOp47
 70
     0
102
RTVSPost2010Prop48
 90
       50
102
RTVSPost2010PropOp48
 70
     0
102
RTVSPost2010Prop49
280
     0
102
RTVSPost2010PropOp49
 70
     0
102
RTVSPost2010Prop50
 90
       50
102
RTVSPost2010PropOp50
 70
     0
102
RTVSPost2010Prop51ColorIndex
 90
      256
102
RTVSPost2010Prop51ColorRGB
 90
-16777216
102
RTVSPost2010PropOp51
 70
     0
102
RTVSPost2010Prop52
140
1.0
102
RTVSPost2010PropOp52
 70
     0
102
RTVSPost2010Prop53
 90
        2
102
RTVSPost2010PropOp53
 70
     0
102
RTVSPost2010Prop54
  1
strokes_ogs.tif
102
RTVSPost2010PropOp54
 70
     0
102
RTVSPost2010Prop55
280
     0
102
RTVSPost2010PropOp55
 70
     0
102
RTVSPost2010Prop56
140
1.0
102
RTVSPost2010PropOp56
 70
     0
102
RTVSPost2010Prop57
140
1.0
102
RTVSPost2010PropOp57
 70
     0
  0
XRECORD
  5
3EA7
102
{ACAD_REACTORS
330
3EA6
102
}
330
3EA6
100
AcDbXrecord
280
     1
102
RTVSPropertyOp0
 70
     1
102
RTVSPropertyOp1
 70
     1
102
RTVSPropertyOp2
 70
     1
102
RTVSPropertyOp3
 70
     1
102
RTVSPropertyOp4
 70
     1
102
RTVSPropertyOp5
 70
     1
102
RTVSPropertyOp6
 70
     1
102
RTVSPropertyOp7
 70
     1
102
RTVSPropertyOp8
 70
     1
102
RTVSPropertyOp9
 70
     1
102
RTVSPropertyOp10
 70
     1
102
RTVSPropertyOp11
 70
     1
102
RTVSPropertyOp12
 70
     1
102
RTVSPropertyOp13
 70
     1
102
RTVSPropertyOp14
 70
     1
102
RTVSPropertyOp15
 70
     1
102
RTVSPropertyOp16
 70
     1
102
RTVSPropertyOp17
 70
     1
102
RTVSPropertyOp18
 70
     1
102
RTVSPropertyOp19
 70
     1
102
RTVSPropertyOp20
 70
     1
102
RTVSPropertyOp21
 70
     1
102
RTVSPropertyOp22
 70
     1
102
RTVSPropertyOp23
 70
     1
102
RTVSPropertyOp24
 70
     1
102
RTVSPropertyOp25
 70
     1
102
RTVSPropertyOp26
 70
     1
102
RTVSPropertyOp27
 70
     1
102
RTVSPropertyOp28
 70
     1
102
RTVSPropertyOp29
 70
     1
102
RTVSPropertyOp30
 70
     1
102
RTVSPropertyOp31
 70
     1
102
RTVSPropertyOp32
 70
     1
102
RTVSPropertyOp33
 70
     1
102
RTVSPropertyOp34
 70
     1
102
RTVSPropertyOp35
 70
     1
102
RTVSPropertyOp36
 70
     1
102
RTVSPropertyOp37
 70
     1
102
RTVSPropertyOp38
 70
     1
102
RTVSPropertyOp39
 70
     1
102
RTVSPropertyOp40
 70
     1
102
RTVSPropertyOp41
 70
     1
102
RTVSPropertyOp42
 70
     1
102
RTVSPropertyOp43
 70
     1
102
RTVSPropertyOp44
 70
     1
102
RTVSPropertyOp45
 70
     1
102
RTVSPropertyOp46
 70
     1
102
RTVSPropertyOp47
 70
     1
102
RTVSPropertyOp48
 70
     1
102
RTVSPropertyOp49
 70
     1
102
RTVSPropertyOp50
 70
     1
102
RTVSPropertyOp51
 70
     0
102
RTVSPropertyOp52
 70
     0
102
RTVSPropertyOp53
 70
     1
102
RTVSPropertyOp54
 70
     1
102
RTVSPropertyOp55
 70
     1
102
RTVSPropertyOp56
 70
     1
102
RTVSPropertyOp57
 70
     1
102
RTVSPost2010Prop28
280
     0
102
RTVSPost2010PropOp28
 70
     1
102
RTVSPost2010Prop29
280
     1
102
RTVSPost2010PropOp29
 70
     1
102
RTVSPost2010Prop30
280
     1
102
RTVSPost2010PropOp30
 70
     1
102
RTVSPost2010Prop31
280
     0
102
RTVSPost2010PropOp31
 70
     1
102
RTVSPost2010Prop32
280
     0
102
RTVSPost2010PropOp32
 70
     1
102
RTVSPost2010Prop33
280
     0
102
RTVSPost2010PropOp33
 70
     1
102
RTVSPost2010Prop34
280
     0
102
RTVSPost2010PropOp34
 70
     1
102
RTVSPost2010Prop35
280
     0
102
RTVSPost2010PropOp35
 70
     1
102
RTVSPost2010Prop36
280
     0
102
RTVSPost2010PropOp36
 70
     1
102
RTVSPost2010Prop37
 90
       50
102
RTVSPost2010PropOp37
 70
     1
102
RTVSPost2010Prop38
140
0.0
102
RTVSPost2010PropOp38
 70
     1
102
RTVSPost2010Prop39
140
1.0
102
RTVSPost2010PropOp39
 70
     1
102
RTVSPost2010Prop40
 90
        0
102
RTVSPost2010PropOp40
 70
     1
102
RTVSPost2010Prop41ColorIndex
 90
       18
102
RTVSPost2010Prop41ColorRGB
 90
        0
102
RTVSPost2010PropOp41
 70
     1
102
RTVSPost2010Prop42
 90
       50
102
RTVSPost2010PropOp42
 70
     1
102
RTVSPost2010Prop43
 90
        3
102
RTVSPost2010PropOp43
 70
     1
102
RTVSPost2010Prop44ColorIndex
 90
        5
102
RTVSPost2010Prop44ColorRGB
 90
      255
102
RTVSPost2010PropOp44
 70
     1
102
RTVSPost2010Prop45
280
     0
102
RTVSPost2010PropOp45
 70
     1
102
RTVSPost2010Prop46
 90
       50
102
RTVSPost2010PropOp46
 70
     1
102
RTVSPost2010Prop47
 90
       50
102
RTVSPost2010PropOp47
 70
     1
102
RTVSPost2010Prop48
 90
       50
102
RTVSPost2010PropOp48
 70
     1
102
RTVSPost2010Prop49
280
     0
102
RTVSPost2010PropOp49
 70
     1
102
RTVSPost2010Prop50
 90
       50
102
RTVSPost2010PropOp50
 70
     1
102
RTVSPost2010Prop51ColorIndex
 90
      256
102
RTVSPost2010Prop51ColorRGB
 90
-16777216
102
RTVSPost2010PropOp51
 70
     0
102
RTVSPost2010Prop52
140
1.0
102
RTVSPost2010PropOp52
 70
     0
102
RTVSPost2010Prop53
 90
        2
102
RTVSPost2010PropOp53
 70
     1
102
RTVSPost2010Prop54
  1
strokes_ogs.tif
102
RTVSPost2010PropOp54
 70
     1
102
RTVSPost2010Prop55
280
     0
102
RTVSPost2010PropOp55
 70
     1
102
RTVSPost2010Prop56
140
1.0
102
RTVSPost2010PropOp56
 70
     1
102
RTVSPost2010Prop57
140
1.0
102
RTVSPost2010PropOp57
 70
     1
  0
XRECORD
  5
3E8B
102
{ACAD_REACTORS
330
3E8A
102
}
330
3E8A
100
AcDbXrecord
280
     1
102
RTVSPropertyOp0
 70
     1
102
RTVSPropertyOp1
 70
     1
102
RTVSPropertyOp2
 70
     1
102
RTVSPropertyOp3
 70
     1
102
RTVSPropertyOp4
 70
     1
102
RTVSPropertyOp5
 70
     1
102
RTVSPropertyOp6
 70
     1
102
RTVSPropertyOp7
 70
     1
102
RTVSPropertyOp8
 70
     1
102
RTVSPropertyOp9
 70
     1
102
RTVSPropertyOp10
 70
     1
102
RTVSPropertyOp11
 70
     1
102
RTVSPropertyOp12
 70
     1
102
RTVSPropertyOp13
 70
     1
102
RTVSPropertyOp14
 70
     1
102
RTVSPropertyOp15
 70
     1
102
RTVSPropertyOp16
 70
     1
102
RTVSPropertyOp17
 70
     1
102
RTVSPropertyOp18
 70
     1
102
RTVSPropertyOp19
 70
     1
102
RTVSPropertyOp20
 70
     1
102
RTVSPropertyOp21
 70
     1
102
RTVSPropertyOp22
 70
     1
102
RTVSPropertyOp23
 70
     1
102
RTVSPropertyOp24
 70
     1
102
RTVSPropertyOp25
 70
     1
102
RTVSPropertyOp26
 70
     1
102
RTVSPropertyOp27
 70
     1
102
RTVSPropertyOp28
 70
     1
102
RTVSPropertyOp29
 70
     1
102
RTVSPropertyOp30
 70
     1
102
RTVSPropertyOp31
 70
     1
102
RTVSPropertyOp32
 70
     1
102
RTVSPropertyOp33
 70
     1
102
RTVSPropertyOp34
 70
     1
102
RTVSPropertyOp35
 70
     1
102
RTVSPropertyOp36
 70
     1
102
RTVSPropertyOp37
 70
     1
102
RTVSPropertyOp38
 70
     1
102
RTVSPropertyOp39
 70
     1
102
RTVSPropertyOp40
 70
     1
102
RTVSPropertyOp41
 70
     1
102
RTVSPropertyOp42
 70
     1
102
RTVSPropertyOp43
 70
     1
102
RTVSPropertyOp44
 70
     1
102
RTVSPropertyOp45
 70
     1
102
RTVSPropertyOp46
 70
     1
102
RTVSPropertyOp47
 70
     1
102
RTVSPropertyOp48
 70
     1
102
RTVSPropertyOp49
 70
     1
102
RTVSPropertyOp50
 70
     1
102
RTVSPropertyOp51
 70
     0
102
RTVSPropertyOp52
 70
     0
102
RTVSPropertyOp53
 70
     1
102
RTVSPropertyOp54
 70
     1
102
RTVSPropertyOp55
 70
     1
102
RTVSPropertyOp56
 70
     1
102
RTVSPropertyOp57
 70
     1
102
RTVSPost2010Prop28
280
     0
102
RTVSPost2010PropOp28
 70
     1
102
RTVSPost2010Prop29
280
     1
102
RTVSPost2010PropOp29
 70
     1
102
RTVSPost2010Prop30
280
     1
102
RTVSPost2010PropOp30
 70
     1
102
RTVSPost2010Prop31
280
     0
102
RTVSPost2010PropOp31
 70
     1
102
RTVSPost2010Prop32
280
     0
102
RTVSPost2010PropOp32
 70
     1
102
RTVSPost2010Prop33
280
     0
102
RTVSPost2010PropOp33
 70
     1
102
RTVSPost2010Prop34
280
     0
102
RTVSPost2010PropOp34
 70
     1
102
RTVSPost2010Prop35
280
     0
102
RTVSPost2010PropOp35
 70
     1
102
RTVSPost2010Prop36
280
     0
102
RTVSPost2010PropOp36
 70
     1
102
RTVSPost2010Prop37
 90
       50
102
RTVSPost2010PropOp37
 70
     1
102
RTVSPost2010Prop38
140
0.0
102
RTVSPost2010PropOp38
 70
     1
102
RTVSPost2010Prop39
140
1.0
102
RTVSPost2010PropOp39
 70
     1
102
RTVSPost2010Prop40
 90
        0
102
RTVSPost2010PropOp40
 70
     1
102
RTVSPost2010Prop41ColorIndex
 90
       18
102
RTVSPost2010Prop41ColorRGB
 90
        0
102
RTVSPost2010PropOp41
 70
     1
102
RTVSPost2010Prop42
 90
       50
102
RTVSPost2010PropOp42
 70
     1
102
RTVSPost2010Prop43
 90
        3
102
RTVSPost2010PropOp43
 70
     1
102
RTVSPost2010Prop44ColorIndex
 90
        5
102
RTVSPost2010Prop44ColorRGB
 90
      255
102
RTVSPost2010PropOp44
 70
     1
102
RTVSPost2010Prop45
280
     0
102
RTVSPost2010PropOp45
 70
     1
102
RTVSPost2010Prop46
 90
       50
102
RTVSPost2010PropOp46
 70
     1
102
RTVSPost2010Prop47
 90
       50
102
RTVSPost2010PropOp47
 70
     1
102
RTVSPost2010Prop48
 90
       50
102
RTVSPost2010PropOp48
 70
     1
102
RTVSPost2010Prop49
280
     0
102
RTVSPost2010PropOp49
 70
     1
102
RTVSPost2010Prop50
 90
       50
102
RTVSPost2010PropOp50
 70
     1
102
RTVSPost2010Prop51ColorIndex
 90
      256
102
RTVSPost2010Prop51ColorRGB
 90
-16777216
102
RTVSPost2010PropOp51
 70
     0
102
RTVSPost2010Prop52
140
1.0
102
RTVSPost2010PropOp52
 70
     0
102
RTVSPost2010Prop53
 90
        2
102
RTVSPost2010PropOp53
 70
     1
102
RTVSPost2010Prop54
  1
strokes_ogs.tif
102
RTVSPost2010PropOp54
 70
     1
102
RTVSPost2010Prop55
280
     0
102
RTVSPost2010PropOp55
 70
     1
102
RTVSPost2010Prop56
140
1.0
102
RTVSPost2010PropOp56
 70
     1
102
RTVSPost2010Prop57
140
1.0
102
RTVSPost2010PropOp57
 70
     1
  0
XRECORD
  5
3E8D
102
{ACAD_REACTORS
330
3E8C
102
}
330
3E8C
100
AcDbXrecord
280
     1
102
RTVSPropertyOp0
 70
     1
102
RTVSPropertyOp1
 70
     1
102
RTVSPropertyOp2
 70
     1
102
RTVSPropertyOp3
 70
     1
102
RTVSPropertyOp4
 70
     1
102
RTVSPropertyOp5
 70
     1
102
RTVSPropertyOp6
 70
     1
102
RTVSPropertyOp7
 70
     1
102
RTVSPropertyOp8
 70
     1
102
RTVSPropertyOp9
 70
     1
102
RTVSPropertyOp10
 70
     1
102
RTVSPropertyOp11
 70
     1
102
RTVSPropertyOp12
 70
     1
102
RTVSPropertyOp13
 70
     1
102
RTVSPropertyOp14
 70
     1
102
RTVSPropertyOp15
 70
     1
102
RTVSPropertyOp16
 70
     1
102
RTVSPropertyOp17
 70
     1
102
RTVSPropertyOp18
 70
     1
102
RTVSPropertyOp19
 70
     1
102
RTVSPropertyOp20
 70
     1
102
RTVSPropertyOp21
 70
     1
102
RTVSPropertyOp22
 70
     1
102
RTVSPropertyOp23
 70
     1
102
RTVSPropertyOp24
 70
     1
102
RTVSPropertyOp25
 70
     1
102
RTVSPropertyOp26
 70
     1
102
RTVSPropertyOp27
 70
     1
102
RTVSPropertyOp28
 70
     1
102
RTVSPropertyOp29
 70
     1
102
RTVSPropertyOp30
 70
     1
102
RTVSPropertyOp31
 70
     1
102
RTVSPropertyOp32
 70
     1
102
RTVSPropertyOp33
 70
     1
102
RTVSPropertyOp34
 70
     1
102
RTVSPropertyOp35
 70
     1
102
RTVSPropertyOp36
 70
     1
102
RTVSPropertyOp37
 70
     1
102
RTVSPropertyOp38
 70
     1
102
RTVSPropertyOp39
 70
     1
102
RTVSPropertyOp40
 70
     1
102
RTVSPropertyOp41
 70
     1
102
RTVSPropertyOp42
 70
     1
102
RTVSPropertyOp43
 70
     1
102
RTVSPropertyOp44
 70
     1
102
RTVSPropertyOp45
 70
     1
102
RTVSPropertyOp46
 70
     1
102
RTVSPropertyOp47
 70
     1
102
RTVSPropertyOp48
 70
     1
102
RTVSPropertyOp49
 70
     1
102
RTVSPropertyOp50
 70
     1
102
RTVSPropertyOp51
 70
     0
102
RTVSPropertyOp52
 70
     0
102
RTVSPropertyOp53
 70
     1
102
RTVSPropertyOp54
 70
     1
102
RTVSPropertyOp55
 70
     1
102
RTVSPropertyOp56
 70
     1
102
RTVSPropertyOp57
 70
     1
102
RTVSPost2010Prop28
280
     0
102
RTVSPost2010PropOp28
 70
     1
102
RTVSPost2010Prop29
280
     1
102
RTVSPost2010PropOp29
 70
     1
102
RTVSPost2010Prop30
280
     1
102
RTVSPost2010PropOp30
 70
     1
102
RTVSPost2010Prop31
280
     0
102
RTVSPost2010PropOp31
 70
     1
102
RTVSPost2010Prop32
280
     0
102
RTVSPost2010PropOp32
 70
     1
102
RTVSPost2010Prop33
280
     0
102
RTVSPost2010PropOp33
 70
     1
102
RTVSPost2010Prop34
280
     0
102
RTVSPost2010PropOp34
 70
     1
102
RTVSPost2010Prop35
280
     0
102
RTVSPost2010PropOp35
 70
     1
102
RTVSPost2010Prop36
280
     0
102
RTVSPost2010PropOp36
 70
     1
102
RTVSPost2010Prop37
 90
       50
102
RTVSPost2010PropOp37
 70
     1
102
RTVSPost2010Prop38
140
0.0
102
RTVSPost2010PropOp38
 70
     1
102
RTVSPost2010Prop39
140
1.0
102
RTVSPost2010PropOp39
 70
     1
102
RTVSPost2010Prop40
 90
        0
102
RTVSPost2010PropOp40
 70
     1
102
RTVSPost2010Prop41ColorIndex
 90
       18
102
RTVSPost2010Prop41ColorRGB
 90
        0
102
RTVSPost2010PropOp41
 70
     1
102
RTVSPost2010Prop42
 90
       50
102
RTVSPost2010PropOp42
 70
     1
102
RTVSPost2010Prop43
 90
        3
102
RTVSPost2010PropOp43
 70
     1
102
RTVSPost2010Prop44ColorIndex
 90
        5
102
RTVSPost2010Prop44ColorRGB
 90
      255
102
RTVSPost2010PropOp44
 70
     1
102
RTVSPost2010Prop45
280
     0
102
RTVSPost2010PropOp45
 70
     1
102
RTVSPost2010Prop46
 90
       50
102
RTVSPost2010PropOp46
 70
     1
102
RTVSPost2010Prop47
 90
       50
102
RTVSPost2010PropOp47
 70
     1
102
RTVSPost2010Prop48
 90
       50
102
RTVSPost2010PropOp48
 70
     1
102
RTVSPost2010Prop49
280
     0
102
RTVSPost2010PropOp49
 70
     1
102
RTVSPost2010Prop50
 90
       50
102
RTVSPost2010PropOp50
 70
     1
102
RTVSPost2010Prop51ColorIndex
 90
      256
102
RTVSPost2010Prop51ColorRGB
 90
-16777216
102
RTVSPost2010PropOp51
 70
     0
102
RTVSPost2010Prop52
140
1.0
102
RTVSPost2010PropOp52
 70
     0
102
RTVSPost2010Prop53
 90
        2
102
RTVSPost2010PropOp53
 70
     1
102
RTVSPost2010Prop54
  1
strokes_ogs.tif
102
RTVSPost2010PropOp54
 70
     1
102
RTVSPost2010Prop55
280
     0
102
RTVSPost2010PropOp55
 70
     1
102
RTVSPost2010Prop56
140
1.0
102
RTVSPost2010PropOp56
 70
     1
102
RTVSPost2010Prop57
140
1.0
102
RTVSPost2010PropOp57
 70
     1
  0
XRECORD
  5
3E8F
102
{ACAD_REACTORS
330
3E8E
102
}
330
3E8E
100
AcDbXrecord
280
     1
102
RTVSPropertyOp0
 70
     1
102
RTVSPropertyOp1
 70
     1
102
RTVSPropertyOp2
 70
     1
102
RTVSPropertyOp3
 70
     1
102
RTVSPropertyOp4
 70
     1
102
RTVSPropertyOp5
 70
     1
102
RTVSPropertyOp6
 70
     1
102
RTVSPropertyOp7
 70
     1
102
RTVSPropertyOp8
 70
     1
102
RTVSPropertyOp9
 70
     1
102
RTVSPropertyOp10
 70
     1
102
RTVSPropertyOp11
 70
     1
102
RTVSPropertyOp12
 70
     1
102
RTVSPropertyOp13
 70
     1
102
RTVSPropertyOp14
 70
     1
102
RTVSPropertyOp15
 70
     1
102
RTVSPropertyOp16
 70
     1
102
RTVSPropertyOp17
 70
     1
102
RTVSPropertyOp18
 70
     1
102
RTVSPropertyOp19
 70
     1
102
RTVSPropertyOp20
 70
     1
102
RTVSPropertyOp21
 70
     1
102
RTVSPropertyOp22
 70
     1
102
RTVSPropertyOp23
 70
     1
102
RTVSPropertyOp24
 70
     1
102
RTVSPropertyOp25
 70
     1
102
RTVSPropertyOp26
 70
     1
102
RTVSPropertyOp27
 70
     1
102
RTVSPropertyOp28
 70
     1
102
RTVSPropertyOp29
 70
     1
102
RTVSPropertyOp30
 70
     1
102
RTVSPropertyOp31
 70
     1
102
RTVSPropertyOp32
 70
     1
102
RTVSPropertyOp33
 70
     1
102
RTVSPropertyOp34
 70
     1
102
RTVSPropertyOp35
 70
     1
102
RTVSPropertyOp36
 70
     1
102
RTVSPropertyOp37
 70
     1
102
RTVSPropertyOp38
 70
     1
102
RTVSPropertyOp39
 70
     1
102
RTVSPropertyOp40
 70
     1
102
RTVSPropertyOp41
 70
     1
102
RTVSPropertyOp42
 70
     1
102
RTVSPropertyOp43
 70
     1
102
RTVSPropertyOp44
 70
     1
102
RTVSPropertyOp45
 70
     1
102
RTVSPropertyOp46
 70
     1
102
RTVSPropertyOp47
 70
     1
102
RTVSPropertyOp48
 70
     1
102
RTVSPropertyOp49
 70
     1
102
RTVSPropertyOp50
 70
     1
102
RTVSPropertyOp51
 70
     0
102
RTVSPropertyOp52
 70
     0
102
RTVSPropertyOp53
 70
     1
102
RTVSPropertyOp54
 70
     1
102
RTVSPropertyOp55
 70
     1
102
RTVSPropertyOp56
 70
     1
102
RTVSPropertyOp57
 70
     1
102
RTVSPost2010Prop28
280
     0
102
RTVSPost2010PropOp28
 70
     1
102
RTVSPost2010Prop29
280
     1
102
RTVSPost2010PropOp29
 70
     1
102
RTVSPost2010Prop30
280
     1
102
RTVSPost2010PropOp30
 70
     1
102
RTVSPost2010Prop31
280
     0
102
RTVSPost2010PropOp31
 70
     1
102
RTVSPost2010Prop32
280
     0
102
RTVSPost2010PropOp32
 70
     1
102
RTVSPost2010Prop33
280
     0
102
RTVSPost2010PropOp33
 70
     1
102
RTVSPost2010Prop34
280
     0
102
RTVSPost2010PropOp34
 70
     1
102
RTVSPost2010Prop35
280
     0
102
RTVSPost2010PropOp35
 70
     1
102
RTVSPost2010Prop36
280
     0
102
RTVSPost2010PropOp36
 70
     1
102
RTVSPost2010Prop37
 90
       50
102
RTVSPost2010PropOp37
 70
     1
102
RTVSPost2010Prop38
140
0.0
102
RTVSPost2010PropOp38
 70
     1
102
RTVSPost2010Prop39
140
1.0
102
RTVSPost2010PropOp39
 70
     1
102
RTVSPost2010Prop40
 90
        0
102
RTVSPost2010PropOp40
 70
     1
102
RTVSPost2010Prop41ColorIndex
 90
       18
102
RTVSPost2010Prop41ColorRGB
 90
        0
102
RTVSPost2010PropOp41
 70
     1
102
RTVSPost2010Prop42
 90
       50
102
RTVSPost2010PropOp42
 70
     1
102
RTVSPost2010Prop43
 90
        3
102
RTVSPost2010PropOp43
 70
     1
102
RTVSPost2010Prop44ColorIndex
 90
        5
102
RTVSPost2010Prop44ColorRGB
 90
      255
102
RTVSPost2010PropOp44
 70
     1
102
RTVSPost2010Prop45
280
     0
102
RTVSPost2010PropOp45
 70
     1
102
RTVSPost2010Prop46
 90
       50
102
RTVSPost2010PropOp46
 70
     1
102
RTVSPost2010Prop47
 90
       50
102
RTVSPost2010PropOp47
 70
     1
102
RTVSPost2010Prop48
 90
       50
102
RTVSPost2010PropOp48
 70
     1
102
RTVSPost2010Prop49
280
     0
102
RTVSPost2010PropOp49
 70
     1
102
RTVSPost2010Prop50
 90
       50
102
RTVSPost2010PropOp50
 70
     1
102
RTVSPost2010Prop51ColorIndex
 90
      256
102
RTVSPost2010Prop51ColorRGB
 90
-16777216
102
RTVSPost2010PropOp51
 70
     0
102
RTVSPost2010Prop52
140
1.0
102
RTVSPost2010PropOp52
 70
     0
102
RTVSPost2010Prop53
 90
        2
102
RTVSPost2010PropOp53
 70
     1
102
RTVSPost2010Prop54
  1
strokes_ogs.tif
102
RTVSPost2010PropOp54
 70
     1
102
RTVSPost2010Prop55
280
     0
102
RTVSPost2010PropOp55
 70
     1
102
RTVSPost2010Prop56
140
1.0
102
RTVSPost2010PropOp56
 70
     1
102
RTVSPost2010Prop57
140
1.0
102
RTVSPost2010PropOp57
 70
     1
  0
XRECORD
  5
3E91
102
{ACAD_REACTORS
330
3E90
102
}
330
3E90
100
AcDbXrecord
280
     1
102
RTVSPropertyOp0
 70
     1
102
RTVSPropertyOp1
 70
     1
102
RTVSPropertyOp2
 70
     1
102
RTVSPropertyOp3
 70
     1
102
RTVSPropertyOp4
 70
     1
102
RTVSPropertyOp5
 70
     1
102
RTVSPropertyOp6
 70
     1
102
RTVSPropertyOp7
 70
     1
102
RTVSPropertyOp8
 70
     1
102
RTVSPropertyOp9
 70
     1
102
RTVSPropertyOp10
 70
     1
102
RTVSPropertyOp11
 70
     1
102
RTVSPropertyOp12
 70
     1
102
RTVSPropertyOp13
 70
     1
102
RTVSPropertyOp14
 70
     1
102
RTVSPropertyOp15
 70
     1
102
RTVSPropertyOp16
 70
     1
102
RTVSPropertyOp17
 70
     1
102
RTVSPropertyOp18
 70
     1
102
RTVSPropertyOp19
 70
     1
102
RTVSPropertyOp20
 70
     1
102
RTVSPropertyOp21
 70
     1
102
RTVSPropertyOp22
 70
     1
102
RTVSPropertyOp23
 70
     1
102
RTVSPropertyOp24
 70
     1
102
RTVSPropertyOp25
 70
     1
102
RTVSPropertyOp26
 70
     1
102
RTVSPropertyOp27
 70
     1
102
RTVSPropertyOp28
 70
     1
102
RTVSPropertyOp29
 70
     1
102
RTVSPropertyOp30
 70
     1
102
RTVSPropertyOp31
 70
     1
102
RTVSPropertyOp32
 70
     1
102
RTVSPropertyOp33
 70
     1
102
RTVSPropertyOp34
 70
     1
102
RTVSPropertyOp35
 70
     1
102
RTVSPropertyOp36
 70
     1
102
RTVSPropertyOp37
 70
     1
102
RTVSPropertyOp38
 70
     1
102
RTVSPropertyOp39
 70
     1
102
RTVSPropertyOp40
 70
     1
102
RTVSPropertyOp41
 70
     1
102
RTVSPropertyOp42
 70
     1
102
RTVSPropertyOp43
 70
     1
102
RTVSPropertyOp44
 70
     1
102
RTVSPropertyOp45
 70
     1
102
RTVSPropertyOp46
 70
     1
102
RTVSPropertyOp47
 70
     1
102
RTVSPropertyOp48
 70
     1
102
RTVSPropertyOp49
 70
     1
102
RTVSPropertyOp50
 70
     1
102
RTVSPropertyOp51
 70
     0
102
RTVSPropertyOp52
 70
     0
102
RTVSPropertyOp53
 70
     1
102
RTVSPropertyOp54
 70
     1
102
RTVSPropertyOp55
 70
     1
102
RTVSPropertyOp56
 70
     1
102
RTVSPropertyOp57
 70
     1
102
RTVSPost2010Prop28
280
     0
102
RTVSPost2010PropOp28
 70
     1
102
RTVSPost2010Prop29
280
     1
102
RTVSPost2010PropOp29
 70
     1
102
RTVSPost2010Prop30
280
     1
102
RTVSPost2010PropOp30
 70
     1
102
RTVSPost2010Prop31
280
     0
102
RTVSPost2010PropOp31
 70
     1
102
RTVSPost2010Prop32
280
     0
102
RTVSPost2010PropOp32
 70
     1
102
RTVSPost2010Prop33
280
     0
102
RTVSPost2010PropOp33
 70
     1
102
RTVSPost2010Prop34
280
     0
102
RTVSPost2010PropOp34
 70
     1
102
RTVSPost2010Prop35
280
     0
102
RTVSPost2010PropOp35
 70
     1
102
RTVSPost2010Prop36
280
     0
102
RTVSPost2010PropOp36
 70
     1
102
RTVSPost2010Prop37
 90
       50
102
RTVSPost2010PropOp37
 70
     1
102
RTVSPost2010Prop38
140
0.0
102
RTVSPost2010PropOp38
 70
     1
102
RTVSPost2010Prop39
140
1.0
102
RTVSPost2010PropOp39
 70
     1
102
RTVSPost2010Prop40
 90
        0
102
RTVSPost2010PropOp40
 70
     1
102
RTVSPost2010Prop41ColorIndex
 90
       18
102
RTVSPost2010Prop41ColorRGB
 90
        0
102
RTVSPost2010PropOp41
 70
     1
102
RTVSPost2010Prop42
 90
       50
102
RTVSPost2010PropOp42
 70
     1
102
RTVSPost2010Prop43
 90
        3
102
RTVSPost2010PropOp43
 70
     1
102
RTVSPost2010Prop44ColorIndex
 90
        5
102
RTVSPost2010Prop44ColorRGB
 90
      255
102
RTVSPost2010PropOp44
 70
     1
102
RTVSPost2010Prop45
280
     0
102
RTVSPost2010PropOp45
 70
     1
102
RTVSPost2010Prop46
 90
       50
102
RTVSPost2010PropOp46
 70
     1
102
RTVSPost2010Prop47
 90
       50
102
RTVSPost2010PropOp47
 70
     1
102
RTVSPost2010Prop48
 90
       50
102
RTVSPost2010PropOp48
 70
     1
102
RTVSPost2010Prop49
280
     0
102
RTVSPost2010PropOp49
 70
     1
102
RTVSPost2010Prop50
 90
       50
102
RTVSPost2010PropOp50
 70
     1
102
RTVSPost2010Prop51ColorIndex
 90
      256
102
RTVSPost2010Prop51ColorRGB
 90
-16777216
102
RTVSPost2010PropOp51
 70
     0
102
RTVSPost2010Prop52
140
1.0
102
RTVSPost2010PropOp52
 70
     0
102
RTVSPost2010Prop53
 90
        2
102
RTVSPost2010PropOp53
 70
     1
102
RTVSPost2010Prop54
  1
strokes_ogs.tif
102
RTVSPost2010PropOp54
 70
     1
102
RTVSPost2010Prop55
280
     0
102
RTVSPost2010PropOp55
 70
     1
102
RTVSPost2010Prop56
140
1.0
102
RTVSPost2010PropOp56
 70
     1
102
RTVSPost2010Prop57
140
1.0
102
RTVSPost2010PropOp57
 70
     1
  0
XRECORD
  5
3E97
102
{ACAD_REACTORS
330
3E96
102
}
330
3E96
100
AcDbXrecord
280
     1
102
RTVSPropertyOp0
 70
     1
102
RTVSPropertyOp1
 70
     1
102
RTVSPropertyOp2
 70
     1
102
RTVSPropertyOp3
 70
     1
102
RTVSPropertyOp4
 70
     1
102
RTVSPropertyOp5
 70
     1
102
RTVSPropertyOp6
 70
     1
102
RTVSPropertyOp7
 70
     1
102
RTVSPropertyOp8
 70
     1
102
RTVSPropertyOp9
 70
     1
102
RTVSPropertyOp10
 70
     1
102
RTVSPropertyOp11
 70
     1
102
RTVSPropertyOp12
 70
     1
102
RTVSPropertyOp13
 70
     1
102
RTVSPropertyOp14
 70
     1
102
RTVSPropertyOp15
 70
     1
102
RTVSPropertyOp16
 70
     1
102
RTVSPropertyOp17
 70
     1
102
RTVSPropertyOp18
 70
     1
102
RTVSPropertyOp19
 70
     1
102
RTVSPropertyOp20
 70
     1
102
RTVSPropertyOp21
 70
     1
102
RTVSPropertyOp22
 70
     1
102
RTVSPropertyOp23
 70
     1
102
RTVSPropertyOp24
 70
     1
102
RTVSPropertyOp25
 70
     1
102
RTVSPropertyOp26
 70
     1
102
RTVSPropertyOp27
 70
     1
102
RTVSPropertyOp28
 70
     1
102
RTVSPropertyOp29
 70
     1
102
RTVSPropertyOp30
 70
     1
102
RTVSPropertyOp31
 70
     1
102
RTVSPropertyOp32
 70
     1
102
RTVSPropertyOp33
 70
     1
102
RTVSPropertyOp34
 70
     1
102
RTVSPropertyOp35
 70
     1
102
RTVSPropertyOp36
 70
     1
102
RTVSPropertyOp37
 70
     1
102
RTVSPropertyOp38
 70
     1
102
RTVSPropertyOp39
 70
     1
102
RTVSPropertyOp40
 70
     1
102
RTVSPropertyOp41
 70
     1
102
RTVSPropertyOp42
 70
     1
102
RTVSPropertyOp43
 70
     1
102
RTVSPropertyOp44
 70
     1
102
RTVSPropertyOp45
 70
     1
102
RTVSPropertyOp46
 70
     1
102
RTVSPropertyOp47
 70
     1
102
RTVSPropertyOp48
 70
     1
102
RTVSPropertyOp49
 70
     1
102
RTVSPropertyOp50
 70
     1
102
RTVSPropertyOp51
 70
     0
102
RTVSPropertyOp52
 70
     0
102
RTVSPropertyOp53
 70
     1
102
RTVSPropertyOp54
 70
     1
102
RTVSPropertyOp55
 70
     1
102
RTVSPropertyOp56
 70
     1
102
RTVSPropertyOp57
 70
     1
102
RTVSPost2010Prop28
280
     0
102
RTVSPost2010PropOp28
 70
     1
102
RTVSPost2010Prop29
280
     1
102
RTVSPost2010PropOp29
 70
     1
102
RTVSPost2010Prop30
280
     1
102
RTVSPost2010PropOp30
 70
     1
102
RTVSPost2010Prop31
280
     0
102
RTVSPost2010PropOp31
 70
     1
102
RTVSPost2010Prop32
280
     0
102
RTVSPost2010PropOp32
 70
     1
102
RTVSPost2010Prop33
280
     0
102
RTVSPost2010PropOp33
 70
     1
102
RTVSPost2010Prop34
280
     0
102
RTVSPost2010PropOp34
 70
     1
102
RTVSPost2010Prop35
280
     0
102
RTVSPost2010PropOp35
 70
     1
102
RTVSPost2010Prop36
280
     0
102
RTVSPost2010PropOp36
 70
     1
102
RTVSPost2010Prop37
 90
       50
102
RTVSPost2010PropOp37
 70
     1
102
RTVSPost2010Prop38
140
0.0
102
RTVSPost2010PropOp38
 70
     1
102
RTVSPost2010Prop39
140
1.0
102
RTVSPost2010PropOp39
 70
     1
102
RTVSPost2010Prop40
 90
        0
102
RTVSPost2010PropOp40
 70
     1
102
RTVSPost2010Prop41ColorIndex
 90
       18
102
RTVSPost2010Prop41ColorRGB
 90
        0
102
RTVSPost2010PropOp41
 70
     1
102
RTVSPost2010Prop42
 90
       50
102
RTVSPost2010PropOp42
 70
     1
102
RTVSPost2010Prop43
 90
        3
102
RTVSPost2010PropOp43
 70
     1
102
RTVSPost2010Prop44ColorIndex
 90
        5
102
RTVSPost2010Prop44ColorRGB
 90
      255
102
RTVSPost2010PropOp44
 70
     1
102
RTVSPost2010Prop45
280
     0
102
RTVSPost2010PropOp45
 70
     1
102
RTVSPost2010Prop46
 90
       50
102
RTVSPost2010PropOp46
 70
     1
102
RTVSPost2010Prop47
 90
       50
102
RTVSPost2010PropOp47
 70
     1
102
RTVSPost2010Prop48
 90
       50
102
RTVSPost2010PropOp48
 70
     1
102
RTVSPost2010Prop49
280
     0
102
RTVSPost2010PropOp49
 70
     1
102
RTVSPost2010Prop50
 90
       50
102
RTVSPost2010PropOp50
 70
     1
102
RTVSPost2010Prop51ColorIndex
 90
      256
102
RTVSPost2010Prop51ColorRGB
 90
-16777216
102
RTVSPost2010PropOp51
 70
     0
102
RTVSPost2010Prop52
140
1.0
102
RTVSPost2010PropOp52
 70
     0
102
RTVSPost2010Prop53
 90
        2
102
RTVSPost2010PropOp53
 70
     1
102
RTVSPost2010Prop54
  1
strokes_ogs.tif
102
RTVSPost2010PropOp54
 70
     1
102
RTVSPost2010Prop55
280
     0
102
RTVSPost2010PropOp55
 70
     1
102
RTVSPost2010Prop56
140
1.0
102
RTVSPost2010PropOp56
 70
     1
102
RTVSPost2010Prop57
140
1.0
102
RTVSPost2010PropOp57
 70
     1
  0
XRECORD
  5
3EAB
102
{ACAD_REACTORS
330
3EAA
102
}
330
3EAA
100
AcDbXrecord
280
     1
102
RTVSPropertyOp0
 70
     0
102
RTVSPropertyOp1
 70
     0
102
RTVSPropertyOp2
 70
     0
102
RTVSPropertyOp3
 70
     0
102
RTVSPropertyOp4
 70
     0
102
RTVSPropertyOp5
 70
     0
102
RTVSPropertyOp6
 70
     0
102
RTVSPropertyOp7
 70
     0
102
RTVSPropertyOp8
 70
     0
102
RTVSPropertyOp9
 70
     0
102
RTVSPropertyOp10
 70
     0
102
RTVSPropertyOp11
 70
     0
102
RTVSPropertyOp12
 70
     0
102
RTVSPropertyOp13
 70
     0
102
RTVSPropertyOp14
 70
     2
102
RTVSPropertyOp15
 70
     0
102
RTVSPropertyOp16
 70
     0
102
RTVSPropertyOp17
 70
     0
102
RTVSPropertyOp18
 70
     0
102
RTVSPropertyOp19
 70
     0
102
RTVSPropertyOp20
 70
     0
102
RTVSPropertyOp21
 70
     0
102
RTVSPropertyOp22
 70
     0
102
RTVSPropertyOp23
 70
     0
102
RTVSPropertyOp24
 70
     0
102
RTVSPropertyOp25
 70
     0
102
RTVSPropertyOp26
 70
     0
102
RTVSPropertyOp27
 70
     0
102
RTVSPropertyOp28
 70
     0
102
RTVSPropertyOp29
 70
     0
102
RTVSPropertyOp30
 70
     0
102
RTVSPropertyOp31
 70
     0
102
RTVSPropertyOp32
 70
     0
102
RTVSPropertyOp33
 70
     0
102
RTVSPropertyOp34
 70
     0
102
RTVSPropertyOp35
 70
     0
102
RTVSPropertyOp36
 70
     0
102
RTVSPropertyOp37
 70
     0
102
RTVSPropertyOp38
 70
     0
102
RTVSPropertyOp39
 70
     0
102
RTVSPropertyOp40
 70
     0
102
RTVSPropertyOp41
 70
     0
102
RTVSPropertyOp42
 70
     0
102
RTVSPropertyOp43
 70
     0
102
RTVSPropertyOp44
 70
     0
102
RTVSPropertyOp45
 70
     0
102
RTVSPropertyOp46
 70
     0
102
RTVSPropertyOp47
 70
     0
102
RTVSPropertyOp48
 70
     0
102
RTVSPropertyOp49
 70
     0
102
RTVSPropertyOp50
 70
     0
102
RTVSPropertyOp51
 70
     0
102
RTVSPropertyOp52
 70
     0
102
RTVSPropertyOp53
 70
     0
102
RTVSPropertyOp54
 70
     0
102
RTVSPropertyOp55
 70
     0
102
RTVSPropertyOp56
 70
     0
102
RTVSPropertyOp57
 70
     0
102
RTVSPost2010Prop28
280
     0
102
RTVSPost2010PropOp28
 70
     0
102
RTVSPost2010Prop29
280
     1
102
RTVSPost2010PropOp29
 70
     0
102
RTVSPost2010Prop30
280
     1
102
RTVSPost2010PropOp30
 70
     0
102
RTVSPost2010Prop31
280
     0
102
RTVSPost2010PropOp31
 70
     0
102
RTVSPost2010Prop32
280
     0
102
RTVSPost2010PropOp32
 70
     0
102
RTVSPost2010Prop33
280
     0
102
RTVSPost2010PropOp33
 70
     0
102
RTVSPost2010Prop34
280
     0
102
RTVSPost2010PropOp34
 70
     0
102
RTVSPost2010Prop35
280
     0
102
RTVSPost2010PropOp35
 70
     0
102
RTVSPost2010Prop36
280
     0
102
RTVSPost2010PropOp36
 70
     0
102
RTVSPost2010Prop37
 90
       50
102
RTVSPost2010PropOp37
 70
     0
102
RTVSPost2010Prop38
140
0.0
102
RTVSPost2010PropOp38
 70
     0
102
RTVSPost2010Prop39
140
1.0
102
RTVSPost2010PropOp39
 70
     0
102
RTVSPost2010Prop40
 90
        0
102
RTVSPost2010PropOp40
 70
     0
102
RTVSPost2010Prop41ColorIndex
 90
       18
102
RTVSPost2010Prop41ColorRGB
 90
        0
102
RTVSPost2010PropOp41
 70
     0
102
RTVSPost2010Prop42
 90
       50
102
RTVSPost2010PropOp42
 70
     0
102
RTVSPost2010Prop43
 90
        3
102
RTVSPost2010PropOp43
 70
     0
102
RTVSPost2010Prop44ColorIndex
 90
        5
102
RTVSPost2010Prop44ColorRGB
 90
      255
102
RTVSPost2010PropOp44
 70
     0
102
RTVSPost2010Prop45
280
     0
102
RTVSPost2010PropOp45
 70
     0
102
RTVSPost2010Prop46
 90
       50
102
RTVSPost2010PropOp46
 70
     0
102
RTVSPost2010Prop47
 90
       50
102
RTVSPost2010PropOp47
 70
     0
102
RTVSPost2010Prop48
 90
       50
102
RTVSPost2010PropOp48
 70
     0
102
RTVSPost2010Prop49
280
     0
102
RTVSPost2010PropOp49
 70
     0
102
RTVSPost2010Prop50
 90
       50
102
RTVSPost2010PropOp50
 70
     0
102
RTVSPost2010Prop51ColorIndex
 90
      256
102
RTVSPost2010Prop51ColorRGB
 90
-16777216
102
RTVSPost2010PropOp51
 70
     0
102
RTVSPost2010Prop52
140
1.0
102
RTVSPost2010PropOp52
 70
     0
102
RTVSPost2010Prop53
 90
        2
102
RTVSPost2010PropOp53
 70
     0
102
RTVSPost2010Prop54
  1
strokes_ogs.tif
102
RTVSPost2010PropOp54
 70
     0
102
RTVSPost2010Prop55
280
     0
102
RTVSPost2010PropOp55
 70
     0
102
RTVSPost2010Prop56
140
1.0
102
RTVSPost2010PropOp56
 70
     0
102
RTVSPost2010Prop57
140
1.0
102
RTVSPost2010PropOp57
 70
     0
  0
XRECORD
  5
3EA5
102
{ACAD_REACTORS
330
3EA4
102
}
330
3EA4
100
AcDbXrecord
280
     1
102
RTVSPropertyOp0
 70
     1
102
RTVSPropertyOp1
 70
     1
102
RTVSPropertyOp2
 70
     1
102
RTVSPropertyOp3
 70
     1
102
RTVSPropertyOp4
 70
     1
102
RTVSPropertyOp5
 70
     1
102
RTVSPropertyOp6
 70
     1
102
RTVSPropertyOp7
 70
     1
102
RTVSPropertyOp8
 70
     1
102
RTVSPropertyOp9
 70
     1
102
RTVSPropertyOp10
 70
     1
102
RTVSPropertyOp11
 70
     1
102
RTVSPropertyOp12
 70
     1
102
RTVSPropertyOp13
 70
     1
102
RTVSPropertyOp14
 70
     1
102
RTVSPropertyOp15
 70
     1
102
RTVSPropertyOp16
 70
     1
102
RTVSPropertyOp17
 70
     1
102
RTVSPropertyOp18
 70
     1
102
RTVSPropertyOp19
 70
     1
102
RTVSPropertyOp20
 70
     1
102
RTVSPropertyOp21
 70
     1
102
RTVSPropertyOp22
 70
     1
102
RTVSPropertyOp23
 70
     1
102
RTVSPropertyOp24
 70
     1
102
RTVSPropertyOp25
 70
     1
102
RTVSPropertyOp26
 70
     1
102
RTVSPropertyOp27
 70
     1
102
RTVSPropertyOp28
 70
     1
102
RTVSPropertyOp29
 70
     1
102
RTVSPropertyOp30
 70
     1
102
RTVSPropertyOp31
 70
     1
102
RTVSPropertyOp32
 70
     1
102
RTVSPropertyOp33
 70
     1
102
RTVSPropertyOp34
 70
     1
102
RTVSPropertyOp35
 70
     1
102
RTVSPropertyOp36
 70
     1
102
RTVSPropertyOp37
 70
     1
102
RTVSPropertyOp38
 70
     1
102
RTVSPropertyOp39
 70
     1
102
RTVSPropertyOp40
 70
     1
102
RTVSPropertyOp41
 70
     1
102
RTVSPropertyOp42
 70
     1
102
RTVSPropertyOp43
 70
     1
102
RTVSPropertyOp44
 70
     1
102
RTVSPropertyOp45
 70
     1
102
RTVSPropertyOp46
 70
     1
102
RTVSPropertyOp47
 70
     1
102
RTVSPropertyOp48
 70
     1
102
RTVSPropertyOp49
 70
     1
102
RTVSPropertyOp50
 70
     1
102
RTVSPropertyOp51
 70
     0
102
RTVSPropertyOp52
 70
     0
102
RTVSPropertyOp53
 70
     1
102
RTVSPropertyOp54
 70
     1
102
RTVSPropertyOp55
 70
     1
102
RTVSPropertyOp56
 70
     1
102
RTVSPropertyOp57
 70
     1
102
RTVSPost2010Prop28
280
     0
102
RTVSPost2010PropOp28
 70
     1
102
RTVSPost2010Prop29
280
     1
102
RTVSPost2010PropOp29
 70
     1
102
RTVSPost2010Prop30
280
     1
102
RTVSPost2010PropOp30
 70
     1
102
RTVSPost2010Prop31
280
     0
102
RTVSPost2010PropOp31
 70
     1
102
RTVSPost2010Prop32
280
     0
102
RTVSPost2010PropOp32
 70
     1
102
RTVSPost2010Prop33
280
     0
102
RTVSPost2010PropOp33
 70
     1
102
RTVSPost2010Prop34
280
     0
102
RTVSPost2010PropOp34
 70
     1
102
RTVSPost2010Prop35
280
     0
102
RTVSPost2010PropOp35
 70
     1
102
RTVSPost2010Prop36
280
     0
102
RTVSPost2010PropOp36
 70
     1
102
RTVSPost2010Prop37
 90
       50
102
RTVSPost2010PropOp37
 70
     1
102
RTVSPost2010Prop38
140
0.0
102
RTVSPost2010PropOp38
 70
     1
102
RTVSPost2010Prop39
140
1.0
102
RTVSPost2010PropOp39
 70
     1
102
RTVSPost2010Prop40
 90
        0
102
RTVSPost2010PropOp40
 70
     1
102
RTVSPost2010Prop41ColorIndex
 90
       18
102
RTVSPost2010Prop41ColorRGB
 90
        0
102
RTVSPost2010PropOp41
 70
     1
102
RTVSPost2010Prop42
 90
       50
102
RTVSPost2010PropOp42
 70
     1
102
RTVSPost2010Prop43
 90
        3
102
RTVSPost2010PropOp43
 70
     1
102
RTVSPost2010Prop44ColorIndex
 90
        5
102
RTVSPost2010Prop44ColorRGB
 90
      255
102
RTVSPost2010PropOp44
 70
     1
102
RTVSPost2010Prop45
280
     0
102
RTVSPost2010PropOp45
 70
     1
102
RTVSPost2010Prop46
 90
       50
102
RTVSPost2010PropOp46
 70
     1
102
RTVSPost2010Prop47
 90
       50
102
RTVSPost2010PropOp47
 70
     1
102
RTVSPost2010Prop48
 90
       50
102
RTVSPost2010PropOp48
 70
     1
102
RTVSPost2010Prop49
280
     0
102
RTVSPost2010PropOp49
 70
     1
102
RTVSPost2010Prop50
 90
       50
102
RTVSPost2010PropOp50
 70
     1
102
RTVSPost2010Prop51ColorIndex
 90
      256
102
RTVSPost2010Prop51ColorRGB
 90
-16777216
102
RTVSPost2010PropOp51
 70
     0
102
RTVSPost2010Prop52
140
1.0
102
RTVSPost2010PropOp52
 70
     0
102
RTVSPost2010Prop53
 90
        2
102
RTVSPost2010PropOp53
 70
     1
102
RTVSPost2010Prop54
  1
strokes_ogs.tif
102
RTVSPost2010PropOp54
 70
     1
102
RTVSPost2010Prop55
280
     0
102
RTVSPost2010PropOp55
 70
     1
102
RTVSPost2010Prop56
140
1.0
102
RTVSPost2010PropOp56
 70
     1
102
RTVSPost2010Prop57
140
1.0
102
RTVSPost2010PropOp57
 70
     1
  0
XRECORD
  5
3EAD
102
{ACAD_REACTORS
330
3EAC
102
}
330
3EAC
100
AcDbXrecord
280
     1
102
RTVSPropertyOp0
 70
     0
102
RTVSPropertyOp1
 70
     0
102
RTVSPropertyOp2
 70
     0
102
RTVSPropertyOp3
 70
     0
102
RTVSPropertyOp4
 70
     0
102
RTVSPropertyOp5
 70
     0
102
RTVSPropertyOp6
 70
     0
102
RTVSPropertyOp7
 70
     0
102
RTVSPropertyOp8
 70
     0
102
RTVSPropertyOp9
 70
     0
102
RTVSPropertyOp10
 70
     0
102
RTVSPropertyOp11
 70
     0
102
RTVSPropertyOp12
 70
     0
102
RTVSPropertyOp13
 70
     0
102
RTVSPropertyOp14
 70
     2
102
RTVSPropertyOp15
 70
     0
102
RTVSPropertyOp16
 70
     0
102
RTVSPropertyOp17
 70
     0
102
RTVSPropertyOp18
 70
     0
102
RTVSPropertyOp19
 70
     0
102
RTVSPropertyOp20
 70
     0
102
RTVSPropertyOp21
 70
     0
102
RTVSPropertyOp22
 70
     0
102
RTVSPropertyOp23
 70
     0
102
RTVSPropertyOp24
 70
     0
102
RTVSPropertyOp25
 70
     0
102
RTVSPropertyOp26
 70
     0
102
RTVSPropertyOp27
 70
     0
102
RTVSPropertyOp28
 70
     0
102
RTVSPropertyOp29
 70
     0
102
RTVSPropertyOp30
 70
     0
102
RTVSPropertyOp31
 70
     0
102
RTVSPropertyOp32
 70
     0
102
RTVSPropertyOp33
 70
     0
102
RTVSPropertyOp34
 70
     0
102
RTVSPropertyOp35
 70
     0
102
RTVSPropertyOp36
 70
     0
102
RTVSPropertyOp37
 70
     0
102
RTVSPropertyOp38
 70
     0
102
RTVSPropertyOp39
 70
     0
102
RTVSPropertyOp40
 70
     0
102
RTVSPropertyOp41
 70
     0
102
RTVSPropertyOp42
 70
     0
102
RTVSPropertyOp43
 70
     0
102
RTVSPropertyOp44
 70
     0
102
RTVSPropertyOp45
 70
     0
102
RTVSPropertyOp46
 70
     0
102
RTVSPropertyOp47
 70
     0
102
RTVSPropertyOp48
 70
     0
102
RTVSPropertyOp49
 70
     0
102
RTVSPropertyOp50
 70
     0
102
RTVSPropertyOp51
 70
     0
102
RTVSPropertyOp52
 70
     0
102
RTVSPropertyOp53
 70
     0
102
RTVSPropertyOp54
 70
     0
102
RTVSPropertyOp55
 70
     0
102
RTVSPropertyOp56
 70
     0
102
RTVSPropertyOp57
 70
     0
102
RTVSPost2010Prop28
280
     0
102
RTVSPost2010PropOp28
 70
     0
102
RTVSPost2010Prop29
280
     1
102
RTVSPost2010PropOp29
 70
     0
102
RTVSPost2010Prop30
280
     1
102
RTVSPost2010PropOp30
 70
     0
102
RTVSPost2010Prop31
280
     0
102
RTVSPost2010PropOp31
 70
     0
102
RTVSPost2010Prop32
280
     0
102
RTVSPost2010PropOp32
 70
     0
102
RTVSPost2010Prop33
280
     0
102
RTVSPost2010PropOp33
 70
     0
102
RTVSPost2010Prop34
280
     0
102
RTVSPost2010PropOp34
 70
     0
102
RTVSPost2010Prop35
280
     0
102
RTVSPost2010PropOp35
 70
     0
102
RTVSPost2010Prop36
280
     0
102
RTVSPost2010PropOp36
 70
     0
102
RTVSPost2010Prop37
 90
       50
102
RTVSPost2010PropOp37
 70
     0
102
RTVSPost2010Prop38
140
0.0
102
RTVSPost2010PropOp38
 70
     0
102
RTVSPost2010Prop39
140
1.0
102
RTVSPost2010PropOp39
 70
     0
102
RTVSPost2010Prop40
 90
        0
102
RTVSPost2010PropOp40
 70
     0
102
RTVSPost2010Prop41ColorIndex
 90
       18
102
RTVSPost2010Prop41ColorRGB
 90
        0
102
RTVSPost2010PropOp41
 70
     0
102
RTVSPost2010Prop42
 90
       50
102
RTVSPost2010PropOp42
 70
     0
102
RTVSPost2010Prop43
 90
        3
102
RTVSPost2010PropOp43
 70
     0
102
RTVSPost2010Prop44ColorIndex
 90
        5
102
RTVSPost2010Prop44ColorRGB
 90
      255
102
RTVSPost2010PropOp44
 70
     0
102
RTVSPost2010Prop45
280
     0
102
RTVSPost2010PropOp45
 70
     0
102
RTVSPost2010Prop46
 90
       50
102
RTVSPost2010PropOp46
 70
     0
102
RTVSPost2010Prop47
 90
       50
102
RTVSPost2010PropOp47
 70
     0
102
RTVSPost2010Prop48
 90
       50
102
RTVSPost2010PropOp48
 70
     0
102
RTVSPost2010Prop49
280
     0
102
RTVSPost2010PropOp49
 70
     0
102
RTVSPost2010Prop50
 90
       50
102
RTVSPost2010PropOp50
 70
     0
102
RTVSPost2010Prop51ColorIndex
 90
      256
102
RTVSPost2010Prop51ColorRGB
 90
-16777216
102
RTVSPost2010PropOp51
 70
     0
102
RTVSPost2010Prop52
140
1.0
102
RTVSPost2010PropOp52
 70
     0
102
RTVSPost2010Prop53
 90
        2
102
RTVSPost2010PropOp53
 70
     0
102
RTVSPost2010Prop54
  1
strokes_ogs.tif
102
RTVSPost2010PropOp54
 70
     0
102
RTVSPost2010Prop55
280
     0
102
RTVSPost2010PropOp55
 70
     0
102
RTVSPost2010Prop56
140
1.0
102
RTVSPost2010PropOp56
 70
     0
102
RTVSPost2010Prop57
140
1.0
102
RTVSPost2010PropOp57
 70
     0
  0
XRECORD
  5
3E9B
102
{ACAD_REACTORS
330
3E9A
102
}
330
3E9A
100
AcDbXrecord
280
     1
102
RTVSPropertyOp0
 70
     1
102
RTVSPropertyOp1
 70
     1
102
RTVSPropertyOp2
 70
     1
102
RTVSPropertyOp3
 70
     1
102
RTVSPropertyOp4
 70
     1
102
RTVSPropertyOp5
 70
     1
102
RTVSPropertyOp6
 70
     1
102
RTVSPropertyOp7
 70
     1
102
RTVSPropertyOp8
 70
     1
102
RTVSPropertyOp9
 70
     1
102
RTVSPropertyOp10
 70
     1
102
RTVSPropertyOp11
 70
     1
102
RTVSPropertyOp12
 70
     1
102
RTVSPropertyOp13
 70
     1
102
RTVSPropertyOp14
 70
     1
102
RTVSPropertyOp15
 70
     1
102
RTVSPropertyOp16
 70
     1
102
RTVSPropertyOp17
 70
     1
102
RTVSPropertyOp18
 70
     1
102
RTVSPropertyOp19
 70
     1
102
RTVSPropertyOp20
 70
     1
102
RTVSPropertyOp21
 70
     1
102
RTVSPropertyOp22
 70
     1
102
RTVSPropertyOp23
 70
     1
102
RTVSPropertyOp24
 70
     1
102
RTVSPropertyOp25
 70
     1
102
RTVSPropertyOp26
 70
     1
102
RTVSPropertyOp27
 70
     1
102
RTVSPropertyOp28
 70
     1
102
RTVSPropertyOp29
 70
     1
102
RTVSPropertyOp30
 70
     1
102
RTVSPropertyOp31
 70
     1
102
RTVSPropertyOp32
 70
     1
102
RTVSPropertyOp33
 70
     1
102
RTVSPropertyOp34
 70
     1
102
RTVSPropertyOp35
 70
     1
102
RTVSPropertyOp36
 70
     1
102
RTVSPropertyOp37
 70
     1
102
RTVSPropertyOp38
 70
     1
102
RTVSPropertyOp39
 70
     1
102
RTVSPropertyOp40
 70
     1
102
RTVSPropertyOp41
 70
     1
102
RTVSPropertyOp42
 70
     1
102
RTVSPropertyOp43
 70
     1
102
RTVSPropertyOp44
 70
     1
102
RTVSPropertyOp45
 70
     1
102
RTVSPropertyOp46
 70
     1
102
RTVSPropertyOp47
 70
     1
102
RTVSPropertyOp48
 70
     1
102
RTVSPropertyOp49
 70
     1
102
RTVSPropertyOp50
 70
     1
102
RTVSPropertyOp51
 70
     0
102
RTVSPropertyOp52
 70
     0
102
RTVSPropertyOp53
 70
     1
102
RTVSPropertyOp54
 70
     1
102
RTVSPropertyOp55
 70
     1
102
RTVSPropertyOp56
 70
     1
102
RTVSPropertyOp57
 70
     1
102
RTVSPost2010Prop28
280
     0
102
RTVSPost2010PropOp28
 70
     1
102
RTVSPost2010Prop29
280
     1
102
RTVSPost2010PropOp29
 70
     1
102
RTVSPost2010Prop30
280
     1
102
RTVSPost2010PropOp30
 70
     1
102
RTVSPost2010Prop31
280
     0
102
RTVSPost2010PropOp31
 70
     1
102
RTVSPost2010Prop32
280
     0
102
RTVSPost2010PropOp32
 70
     1
102
RTVSPost2010Prop33
280
     0
102
RTVSPost2010PropOp33
 70
     1
102
RTVSPost2010Prop34
280
     0
102
RTVSPost2010PropOp34
 70
     1
102
RTVSPost2010Prop35
280
     0
102
RTVSPost2010PropOp35
 70
     1
102
RTVSPost2010Prop36
280
     0
102
RTVSPost2010PropOp36
 70
     1
102
RTVSPost2010Prop37
 90
       50
102
RTVSPost2010PropOp37
 70
     1
102
RTVSPost2010Prop38
140
0.0
102
RTVSPost2010PropOp38
 70
     1
102
RTVSPost2010Prop39
140
1.0
102
RTVSPost2010PropOp39
 70
     1
102
RTVSPost2010Prop40
 90
        0
102
RTVSPost2010PropOp40
 70
     1
102
RTVSPost2010Prop41ColorIndex
 90
       18
102
RTVSPost2010Prop41ColorRGB
 90
        0
102
RTVSPost2010PropOp41
 70
     1
102
RTVSPost2010Prop42
 90
       50
102
RTVSPost2010PropOp42
 70
     1
102
RTVSPost2010Prop43
 90
        3
102
RTVSPost2010PropOp43
 70
     1
102
RTVSPost2010Prop44ColorIndex
 90
        5
102
RTVSPost2010Prop44ColorRGB
 90
      255
102
RTVSPost2010PropOp44
 70
     1
102
RTVSPost2010Prop45
280
     0
102
RTVSPost2010PropOp45
 70
     1
102
RTVSPost2010Prop46
 90
       50
102
RTVSPost2010PropOp46
 70
     1
102
RTVSPost2010Prop47
 90
       50
102
RTVSPost2010PropOp47
 70
     1
102
RTVSPost2010Prop48
 90
       50
102
RTVSPost2010PropOp48
 70
     1
102
RTVSPost2010Prop49
280
     0
102
RTVSPost2010PropOp49
 70
     1
102
RTVSPost2010Prop50
 90
       50
102
RTVSPost2010PropOp50
 70
     1
102
RTVSPost2010Prop51ColorIndex
 90
      256
102
RTVSPost2010Prop51ColorRGB
 90
-16777216
102
RTVSPost2010PropOp51
 70
     0
102
RTVSPost2010Prop52
140
1.0
102
RTVSPost2010PropOp52
 70
     0
102
RTVSPost2010Prop53
 90
        2
102
RTVSPost2010PropOp53
 70
     1
102
RTVSPost2010Prop54
  1
strokes_ogs.tif
102
RTVSPost2010PropOp54
 70
     1
102
RTVSPost2010Prop55
280
     0
102
RTVSPost2010PropOp55
 70
     1
102
RTVSPost2010Prop56
140
1.0
102
RTVSPost2010PropOp56
 70
     1
102
RTVSPost2010Prop57
140
1.0
102
RTVSPost2010PropOp57
 70
     1
  0
XRECORD
  5
3EB9
102
{ACAD_REACTORS
330
3EB8
102
}
330
3EB8
100
AcDbXrecord
280
     1
102
RTVSPropertyOp0
 70
     1
102
RTVSPropertyOp1
 70
     1
102
RTVSPropertyOp2
 70
     1
102
RTVSPropertyOp3
 70
     1
102
RTVSPropertyOp4
 70
     1
102
RTVSPropertyOp5
 70
     1
102
RTVSPropertyOp6
 70
     1
102
RTVSPropertyOp7
 70
     1
102
RTVSPropertyOp8
 70
     1
102
RTVSPropertyOp9
 70
     1
102
RTVSPropertyOp10
 70
     1
102
RTVSPropertyOp11
 70
     1
102
RTVSPropertyOp12
 70
     1
102
RTVSPropertyOp13
 70
     1
102
RTVSPropertyOp14
 70
     1
102
RTVSPropertyOp15
 70
     1
102
RTVSPropertyOp16
 70
     1
102
RTVSPropertyOp17
 70
     1
102
RTVSPropertyOp18
 70
     1
102
RTVSPropertyOp19
 70
     1
102
RTVSPropertyOp20
 70
     1
102
RTVSPropertyOp21
 70
     1
102
RTVSPropertyOp22
 70
     1
102
RTVSPropertyOp23
 70
     1
102
RTVSPropertyOp24
 70
     1
102
RTVSPropertyOp25
 70
     1
102
RTVSPropertyOp26
 70
     1
102
RTVSPropertyOp27
 70
     1
102
RTVSPropertyOp28
 70
     1
102
RTVSPropertyOp29
 70
     1
102
RTVSPropertyOp30
 70
     1
102
RTVSPropertyOp31
 70
     1
102
RTVSPropertyOp32
 70
     1
102
RTVSPropertyOp33
 70
     1
102
RTVSPropertyOp34
 70
     1
102
RTVSPropertyOp35
 70
     1
102
RTVSPropertyOp36
 70
     1
102
RTVSPropertyOp37
 70
     1
102
RTVSPropertyOp38
 70
     1
102
RTVSPropertyOp39
 70
     1
102
RTVSPropertyOp40
 70
     1
102
RTVSPropertyOp41
 70
     1
102
RTVSPropertyOp42
 70
     1
102
RTVSPropertyOp43
 70
     1
102
RTVSPropertyOp44
 70
     1
102
RTVSPropertyOp45
 70
     1
102
RTVSPropertyOp46
 70
     1
102
RTVSPropertyOp47
 70
     1
102
RTVSPropertyOp48
 70
     1
102
RTVSPropertyOp49
 70
     1
102
RTVSPropertyOp50
 70
     1
102
RTVSPropertyOp51
 70
     0
102
RTVSPropertyOp52
 70
     0
102
RTVSPropertyOp53
 70
     1
102
RTVSPropertyOp54
 70
     1
102
RTVSPropertyOp55
 70
     1
102
RTVSPropertyOp56
 70
     1
102
RTVSPropertyOp57
 70
     1
102
RTVSPost2010Prop28
280
     0
102
RTVSPost2010PropOp28
 70
     1
102
RTVSPost2010Prop29
280
     1
102
RTVSPost2010PropOp29
 70
     1
102
RTVSPost2010Prop30
280
     1
102
RTVSPost2010PropOp30
 70
     1
102
RTVSPost2010Prop31
280
     0
102
RTVSPost2010PropOp31
 70
     1
102
RTVSPost2010Prop32
280
     0
102
RTVSPost2010PropOp32
 70
     1
102
RTVSPost2010Prop33
280
     0
102
RTVSPost2010PropOp33
 70
     1
102
RTVSPost2010Prop34
280
     0
102
RTVSPost2010PropOp34
 70
     1
102
RTVSPost2010Prop35
280
     0
102
RTVSPost2010PropOp35
 70
     1
102
RTVSPost2010Prop36
280
     0
102
RTVSPost2010PropOp36
 70
     1
102
RTVSPost2010Prop37
 90
       50
102
RTVSPost2010PropOp37
 70
     1
102
RTVSPost2010Prop38
140
0.0
102
RTVSPost2010PropOp38
 70
     1
102
RTVSPost2010Prop39
140
1.0
102
RTVSPost2010PropOp39
 70
     1
102
RTVSPost2010Prop40
 90
        0
102
RTVSPost2010PropOp40
 70
     1
102
RTVSPost2010Prop41ColorIndex
 90
       18
102
RTVSPost2010Prop41ColorRGB
 90
        0
102
RTVSPost2010PropOp41
 70
     1
102
RTVSPost2010Prop42
 90
       50
102
RTVSPost2010PropOp42
 70
     1
102
RTVSPost2010Prop43
 90
        3
102
RTVSPost2010PropOp43
 70
     1
102
RTVSPost2010Prop44ColorIndex
 90
        5
102
RTVSPost2010Prop44ColorRGB
 90
      255
102
RTVSPost2010PropOp44
 70
     1
102
RTVSPost2010Prop45
280
     0
102
RTVSPost2010PropOp45
 70
     1
102
RTVSPost2010Prop46
 90
       50
102
RTVSPost2010PropOp46
 70
     1
102
RTVSPost2010Prop47
 90
       50
102
RTVSPost2010PropOp47
 70
     1
102
RTVSPost2010Prop48
 90
       50
102
RTVSPost2010PropOp48
 70
     1
102
RTVSPost2010Prop49
280
     0
102
RTVSPost2010PropOp49
 70
     1
102
RTVSPost2010Prop50
 90
       50
102
RTVSPost2010PropOp50
 70
     1
102
RTVSPost2010Prop51ColorIndex
 90
      256
102
RTVSPost2010Prop51ColorRGB
 90
-16777216
102
RTVSPost2010PropOp51
 70
     0
102
RTVSPost2010Prop52
140
1.0
102
RTVSPost2010PropOp52
 70
     0
102
RTVSPost2010Prop53
 90
        2
102
RTVSPost2010PropOp53
 70
     1
102
RTVSPost2010Prop54
  1
strokes_ogs.tif
102
RTVSPost2010PropOp54
 70
     1
102
RTVSPost2010Prop55
280
     0
102
RTVSPost2010PropOp55
 70
     1
102
RTVSPost2010Prop56
140
1.0
102
RTVSPost2010PropOp56
 70
     1
102
RTVSPost2010Prop57
140
1.0
102
RTVSPost2010PropOp57
 70
     1
  0
XRECORD
  5
3EB7
102
{ACAD_REACTORS
330
3EB6
102
}
330
3EB6
100
AcDbXrecord
280
     1
102
RTVSPropertyOp0
 70
     1
102
RTVSPropertyOp1
 70
     1
102
RTVSPropertyOp2
 70
     1
102
RTVSPropertyOp3
 70
     1
102
RTVSPropertyOp4
 70
     1
102
RTVSPropertyOp5
 70
     1
102
RTVSPropertyOp6
 70
     1
102
RTVSPropertyOp7
 70
     1
102
RTVSPropertyOp8
 70
     1
102
RTVSPropertyOp9
 70
     1
102
RTVSPropertyOp10
 70
     1
102
RTVSPropertyOp11
 70
     1
102
RTVSPropertyOp12
 70
     1
102
RTVSPropertyOp13
 70
     1
102
RTVSPropertyOp14
 70
     1
102
RTVSPropertyOp15
 70
     1
102
RTVSPropertyOp16
 70
     1
102
RTVSPropertyOp17
 70
     1
102
RTVSPropertyOp18
 70
     1
102
RTVSPropertyOp19
 70
     1
102
RTVSPropertyOp20
 70
     1
102
RTVSPropertyOp21
 70
     1
102
RTVSPropertyOp22
 70
     1
102
RTVSPropertyOp23
 70
     1
102
RTVSPropertyOp24
 70
     1
102
RTVSPropertyOp25
 70
     1
102
RTVSPropertyOp26
 70
     1
102
RTVSPropertyOp27
 70
     1
102
RTVSPropertyOp28
 70
     1
102
RTVSPropertyOp29
 70
     1
102
RTVSPropertyOp30
 70
     1
102
RTVSPropertyOp31
 70
     1
102
RTVSPropertyOp32
 70
     1
102
RTVSPropertyOp33
 70
     1
102
RTVSPropertyOp34
 70
     1
102
RTVSPropertyOp35
 70
     1
102
RTVSPropertyOp36
 70
     1
102
RTVSPropertyOp37
 70
     1
102
RTVSPropertyOp38
 70
     1
102
RTVSPropertyOp39
 70
     1
102
RTVSPropertyOp40
 70
     1
102
RTVSPropertyOp41
 70
     1
102
RTVSPropertyOp42
 70
     1
102
RTVSPropertyOp43
 70
     1
102
RTVSPropertyOp44
 70
     1
102
RTVSPropertyOp45
 70
     1
102
RTVSPropertyOp46
 70
     1
102
RTVSPropertyOp47
 70
     1
102
RTVSPropertyOp48
 70
     1
102
RTVSPropertyOp49
 70
     1
102
RTVSPropertyOp50
 70
     1
102
RTVSPropertyOp51
 70
     0
102
RTVSPropertyOp52
 70
     0
102
RTVSPropertyOp53
 70
     1
102
RTVSPropertyOp54
 70
     1
102
RTVSPropertyOp55
 70
     1
102
RTVSPropertyOp56
 70
     1
102
RTVSPropertyOp57
 70
     1
102
RTVSPost2010Prop28
280
     0
102
RTVSPost2010PropOp28
 70
     1
102
RTVSPost2010Prop29
280
     1
102
RTVSPost2010PropOp29
 70
     1
102
RTVSPost2010Prop30
280
     1
102
RTVSPost2010PropOp30
 70
     1
102
RTVSPost2010Prop31
280
     0
102
RTVSPost2010PropOp31
 70
     1
102
RTVSPost2010Prop32
280
     0
102
RTVSPost2010PropOp32
 70
     1
102
RTVSPost2010Prop33
280
     0
102
RTVSPost2010PropOp33
 70
     1
102
RTVSPost2010Prop34
280
     0
102
RTVSPost2010PropOp34
 70
     1
102
RTVSPost2010Prop35
280
     0
102
RTVSPost2010PropOp35
 70
     1
102
RTVSPost2010Prop36
280
     0
102
RTVSPost2010PropOp36
 70
     1
102
RTVSPost2010Prop37
 90
       50
102
RTVSPost2010PropOp37
 70
     1
102
RTVSPost2010Prop38
140
0.0
102
RTVSPost2010PropOp38
 70
     1
102
RTVSPost2010Prop39
140
1.0
102
RTVSPost2010PropOp39
 70
     1
102
RTVSPost2010Prop40
 90
        0
102
RTVSPost2010PropOp40
 70
     1
102
RTVSPost2010Prop41ColorIndex
 90
       18
102
RTVSPost2010Prop41ColorRGB
 90
        0
102
RTVSPost2010PropOp41
 70
     1
102
RTVSPost2010Prop42
 90
       50
102
RTVSPost2010PropOp42
 70
     1
102
RTVSPost2010Prop43
 90
        3
102
RTVSPost2010PropOp43
 70
     1
102
RTVSPost2010Prop44ColorIndex
 90
        5
102
RTVSPost2010Prop44ColorRGB
 90
      255
102
RTVSPost2010PropOp44
 70
     1
102
RTVSPost2010Prop45
280
     0
102
RTVSPost2010PropOp45
 70
     1
102
RTVSPost2010Prop46
 90
       50
102
RTVSPost2010PropOp46
 70
     1
102
RTVSPost2010Prop47
 90
       50
102
RTVSPost2010PropOp47
 70
     1
102
RTVSPost2010Prop48
 90
       50
102
RTVSPost2010PropOp48
 70
     1
102
RTVSPost2010Prop49
280
     0
102
RTVSPost2010PropOp49
 70
     1
102
RTVSPost2010Prop50
 90
       50
102
RTVSPost2010PropOp50
 70
     1
102
RTVSPost2010Prop51ColorIndex
 90
      256
102
RTVSPost2010Prop51ColorRGB
 90
-16777216
102
RTVSPost2010PropOp51
 70
     0
102
RTVSPost2010Prop52
140
1.0
102
RTVSPost2010PropOp52
 70
     0
102
RTVSPost2010Prop53
 90
        2
102
RTVSPost2010PropOp53
 70
     1
102
RTVSPost2010Prop54
  1
strokes_ogs.tif
102
RTVSPost2010PropOp54
 70
     1
102
RTVSPost2010Prop55
280
     0
102
RTVSPost2010PropOp55
 70
     1
102
RTVSPost2010Prop56
140
1.0
102
RTVSPost2010PropOp56
 70
     1
102
RTVSPost2010Prop57
140
1.0
102
RTVSPost2010PropOp57
 70
     1
  0
XRECORD
  5
3EB1
102
{ACAD_REACTORS
330
3EB0
102
}
330
3EB0
100
AcDbXrecord
280
     1
102
RTVSPropertyOp0
 70
     1
102
RTVSPropertyOp1
 70
     1
102
RTVSPropertyOp2
 70
     1
102
RTVSPropertyOp3
 70
     1
102
RTVSPropertyOp4
 70
     1
102
RTVSPropertyOp5
 70
     1
102
RTVSPropertyOp6
 70
     1
102
RTVSPropertyOp7
 70
     1
102
RTVSPropertyOp8
 70
     1
102
RTVSPropertyOp9
 70
     1
102
RTVSPropertyOp10
 70
     1
102
RTVSPropertyOp11
 70
     1
102
RTVSPropertyOp12
 70
     1
102
RTVSPropertyOp13
 70
     1
102
RTVSPropertyOp14
 70
     1
102
RTVSPropertyOp15
 70
     1
102
RTVSPropertyOp16
 70
     1
102
RTVSPropertyOp17
 70
     1
102
RTVSPropertyOp18
 70
     1
102
RTVSPropertyOp19
 70
     1
102
RTVSPropertyOp20
 70
     1
102
RTVSPropertyOp21
 70
     1
102
RTVSPropertyOp22
 70
     1
102
RTVSPropertyOp23
 70
     1
102
RTVSPropertyOp24
 70
     1
102
RTVSPropertyOp25
 70
     1
102
RTVSPropertyOp26
 70
     1
102
RTVSPropertyOp27
 70
     1
102
RTVSPropertyOp28
 70
     1
102
RTVSPropertyOp29
 70
     1
102
RTVSPropertyOp30
 70
     1
102
RTVSPropertyOp31
 70
     1
102
RTVSPropertyOp32
 70
     1
102
RTVSPropertyOp33
 70
     1
102
RTVSPropertyOp34
 70
     1
102
RTVSPropertyOp35
 70
     1
102
RTVSPropertyOp36
 70
     1
102
RTVSPropertyOp37
 70
     1
102
RTVSPropertyOp38
 70
     1
102
RTVSPropertyOp39
 70
     1
102
RTVSPropertyOp40
 70
     1
102
RTVSPropertyOp41
 70
     1
102
RTVSPropertyOp42
 70
     1
102
RTVSPropertyOp43
 70
     1
102
RTVSPropertyOp44
 70
     1
102
RTVSPropertyOp45
 70
     1
102
RTVSPropertyOp46
 70
     1
102
RTVSPropertyOp47
 70
     1
102
RTVSPropertyOp48
 70
     1
102
RTVSPropertyOp49
 70
     1
102
RTVSPropertyOp50
 70
     1
102
RTVSPropertyOp51
 70
     0
102
RTVSPropertyOp52
 70
     0
102
RTVSPropertyOp53
 70
     1
102
RTVSPropertyOp54
 70
     1
102
RTVSPropertyOp55
 70
     1
102
RTVSPropertyOp56
 70
     1
102
RTVSPropertyOp57
 70
     1
102
RTVSPost2010Prop28
280
     0
102
RTVSPost2010PropOp28
 70
     1
102
RTVSPost2010Prop29
280
     1
102
RTVSPost2010PropOp29
 70
     1
102
RTVSPost2010Prop30
280
     1
102
RTVSPost2010PropOp30
 70
     1
102
RTVSPost2010Prop31
280
     0
102
RTVSPost2010PropOp31
 70
     1
102
RTVSPost2010Prop32
280
     0
102
RTVSPost2010PropOp32
 70
     1
102
RTVSPost2010Prop33
280
     0
102
RTVSPost2010PropOp33
 70
     1
102
RTVSPost2010Prop34
280
     0
102
RTVSPost2010PropOp34
 70
     1
102
RTVSPost2010Prop35
280
     0
102
RTVSPost2010PropOp35
 70
     1
102
RTVSPost2010Prop36
280
     0
102
RTVSPost2010PropOp36
 70
     1
102
RTVSPost2010Prop37
 90
       50
102
RTVSPost2010PropOp37
 70
     1
102
RTVSPost2010Prop38
140
0.0
102
RTVSPost2010PropOp38
 70
     1
102
RTVSPost2010Prop39
140
1.0
102
RTVSPost2010PropOp39
 70
     1
102
RTVSPost2010Prop40
 90
        0
102
RTVSPost2010PropOp40
 70
     1
102
RTVSPost2010Prop41ColorIndex
 90
       18
102
RTVSPost2010Prop41ColorRGB
 90
        0
102
RTVSPost2010PropOp41
 70
     1
102
RTVSPost2010Prop42
 90
       50
102
RTVSPost2010PropOp42
 70
     1
102
RTVSPost2010Prop43
 90
        3
102
RTVSPost2010PropOp43
 70
     1
102
RTVSPost2010Prop44ColorIndex
 90
        5
102
RTVSPost2010Prop44ColorRGB
 90
      255
102
RTVSPost2010PropOp44
 70
     1
102
RTVSPost2010Prop45
280
     0
102
RTVSPost2010PropOp45
 70
     1
102
RTVSPost2010Prop46
 90
       50
102
RTVSPost2010PropOp46
 70
     1
102
RTVSPost2010Prop47
 90
       50
102
RTVSPost2010PropOp47
 70
     1
102
RTVSPost2010Prop48
 90
       50
102
RTVSPost2010PropOp48
 70
     1
102
RTVSPost2010Prop49
280
     0
102
RTVSPost2010PropOp49
 70
     1
102
RTVSPost2010Prop50
 90
       50
102
RTVSPost2010PropOp50
 70
     1
102
RTVSPost2010Prop51ColorIndex
 90
      256
102
RTVSPost2010Prop51ColorRGB
 90
-16777216
102
RTVSPost2010PropOp51
 70
     0
102
RTVSPost2010Prop52
140
1.0
102
RTVSPost2010PropOp52
 70
     0
102
RTVSPost2010Prop53
 90
        2
102
RTVSPost2010PropOp53
 70
     1
102
RTVSPost2010Prop54
  1
strokes_ogs.tif
102
RTVSPost2010PropOp54
 70
     1
102
RTVSPost2010Prop55
280
     0
102
RTVSPost2010PropOp55
 70
     1
102
RTVSPost2010Prop56
140
1.0
102
RTVSPost2010PropOp56
 70
     1
102
RTVSPost2010Prop57
140
1.0
102
RTVSPost2010PropOp57
 70
     1
  0
XRECORD
  5
3EB3
102
{ACAD_REACTORS
330
3EB2
102
}
330
3EB2
100
AcDbXrecord
280
     1
102
RTVSPropertyOp0
 70
     1
102
RTVSPropertyOp1
 70
     1
102
RTVSPropertyOp2
 70
     1
102
RTVSPropertyOp3
 70
     1
102
RTVSPropertyOp4
 70
     1
102
RTVSPropertyOp5
 70
     1
102
RTVSPropertyOp6
 70
     1
102
RTVSPropertyOp7
 70
     1
102
RTVSPropertyOp8
 70
     1
102
RTVSPropertyOp9
 70
     1
102
RTVSPropertyOp10
 70
     1
102
RTVSPropertyOp11
 70
     1
102
RTVSPropertyOp12
 70
     1
102
RTVSPropertyOp13
 70
     1
102
RTVSPropertyOp14
 70
     1
102
RTVSPropertyOp15
 70
     1
102
RTVSPropertyOp16
 70
     1
102
RTVSPropertyOp17
 70
     1
102
RTVSPropertyOp18
 70
     1
102
RTVSPropertyOp19
 70
     1
102
RTVSPropertyOp20
 70
     1
102
RTVSPropertyOp21
 70
     1
102
RTVSPropertyOp22
 70
     1
102
RTVSPropertyOp23
 70
     1
102
RTVSPropertyOp24
 70
     1
102
RTVSPropertyOp25
 70
     1
102
RTVSPropertyOp26
 70
     1
102
RTVSPropertyOp27
 70
     1
102
RTVSPropertyOp28
 70
     1
102
RTVSPropertyOp29
 70
     1
102
RTVSPropertyOp30
 70
     1
102
RTVSPropertyOp31
 70
     1
102
RTVSPropertyOp32
 70
     1
102
RTVSPropertyOp33
 70
     1
102
RTVSPropertyOp34
 70
     1
102
RTVSPropertyOp35
 70
     1
102
RTVSPropertyOp36
 70
     1
102
RTVSPropertyOp37
 70
     1
102
RTVSPropertyOp38
 70
     1
102
RTVSPropertyOp39
 70
     1
102
RTVSPropertyOp40
 70
     1
102
RTVSPropertyOp41
 70
     1
102
RTVSPropertyOp42
 70
     1
102
RTVSPropertyOp43
 70
     1
102
RTVSPropertyOp44
 70
     1
102
RTVSPropertyOp45
 70
     1
102
RTVSPropertyOp46
 70
     1
102
RTVSPropertyOp47
 70
     1
102
RTVSPropertyOp48
 70
     1
102
RTVSPropertyOp49
 70
     1
102
RTVSPropertyOp50
 70
     1
102
RTVSPropertyOp51
 70
     0
102
RTVSPropertyOp52
 70
     0
102
RTVSPropertyOp53
 70
     1
102
RTVSPropertyOp54
 70
     1
102
RTVSPropertyOp55
 70
     1
102
RTVSPropertyOp56
 70
     1
102
RTVSPropertyOp57
 70
     1
102
RTVSPost2010Prop28
280
     0
102
RTVSPost2010PropOp28
 70
     1
102
RTVSPost2010Prop29
280
     1
102
RTVSPost2010PropOp29
 70
     1
102
RTVSPost2010Prop30
280
     1
102
RTVSPost2010PropOp30
 70
     1
102
RTVSPost2010Prop31
280
     0
102
RTVSPost2010PropOp31
 70
     1
102
RTVSPost2010Prop32
280
     0
102
RTVSPost2010PropOp32
 70
     1
102
RTVSPost2010Prop33
280
     0
102
RTVSPost2010PropOp33
 70
     1
102
RTVSPost2010Prop34
280
     0
102
RTVSPost2010PropOp34
 70
     1
102
RTVSPost2010Prop35
280
     0
102
RTVSPost2010PropOp35
 70
     1
102
RTVSPost2010Prop36
280
     0
102
RTVSPost2010PropOp36
 70
     1
102
RTVSPost2010Prop37
 90
       50
102
RTVSPost2010PropOp37
 70
     1
102
RTVSPost2010Prop38
140
0.0
102
RTVSPost2010PropOp38
 70
     1
102
RTVSPost2010Prop39
140
1.0
102
RTVSPost2010PropOp39
 70
     1
102
RTVSPost2010Prop40
 90
        0
102
RTVSPost2010PropOp40
 70
     1
102
RTVSPost2010Prop41ColorIndex
 90
       18
102
RTVSPost2010Prop41ColorRGB
 90
        0
102
RTVSPost2010PropOp41
 70
     1
102
RTVSPost2010Prop42
 90
       50
102
RTVSPost2010PropOp42
 70
     1
102
RTVSPost2010Prop43
 90
        3
102
RTVSPost2010PropOp43
 70
     1
102
RTVSPost2010Prop44ColorIndex
 90
        5
102
RTVSPost2010Prop44ColorRGB
 90
      255
102
RTVSPost2010PropOp44
 70
     1
102
RTVSPost2010Prop45
280
     0
102
RTVSPost2010PropOp45
 70
     1
102
RTVSPost2010Prop46
 90
       50
102
RTVSPost2010PropOp46
 70
     1
102
RTVSPost2010Prop47
 90
       50
102
RTVSPost2010PropOp47
 70
     1
102
RTVSPost2010Prop48
 90
       50
102
RTVSPost2010PropOp48
 70
     1
102
RTVSPost2010Prop49
280
     0
102
RTVSPost2010PropOp49
 70
     1
102
RTVSPost2010Prop50
 90
       50
102
RTVSPost2010PropOp50
 70
     1
102
RTVSPost2010Prop51ColorIndex
 90
      256
102
RTVSPost2010Prop51ColorRGB
 90
-16777216
102
RTVSPost2010PropOp51
 70
     0
102
RTVSPost2010Prop52
140
1.0
102
RTVSPost2010PropOp52
 70
     0
102
RTVSPost2010Prop53
 90
        2
102
RTVSPost2010PropOp53
 70
     1
102
RTVSPost2010Prop54
  1
strokes_ogs.tif
102
RTVSPost2010PropOp54
 70
     1
102
RTVSPost2010Prop55
280
     0
102
RTVSPost2010PropOp55
 70
     1
102
RTVSPost2010Prop56
140
1.0
102
RTVSPost2010PropOp56
 70
     1
102
RTVSPost2010Prop57
140
1.0
102
RTVSPost2010PropOp57
 70
     1
  0
XRECORD
  5
3EA3
102
{ACAD_REACTORS
330
3EA2
102
}
330
3EA2
100
AcDbXrecord
280
     1
102
RTVSPropertyOp0
 70
     1
102
RTVSPropertyOp1
 70
     1
102
RTVSPropertyOp2
 70
     1
102
RTVSPropertyOp3
 70
     1
102
RTVSPropertyOp4
 70
     1
102
RTVSPropertyOp5
 70
     1
102
RTVSPropertyOp6
 70
     1
102
RTVSPropertyOp7
 70
     1
102
RTVSPropertyOp8
 70
     1
102
RTVSPropertyOp9
 70
     1
102
RTVSPropertyOp10
 70
     1
102
RTVSPropertyOp11
 70
     1
102
RTVSPropertyOp12
 70
     1
102
RTVSPropertyOp13
 70
     1
102
RTVSPropertyOp14
 70
     1
102
RTVSPropertyOp15
 70
     1
102
RTVSPropertyOp16
 70
     1
102
RTVSPropertyOp17
 70
     1
102
RTVSPropertyOp18
 70
     1
102
RTVSPropertyOp19
 70
     1
102
RTVSPropertyOp20
 70
     1
102
RTVSPropertyOp21
 70
     1
102
RTVSPropertyOp22
 70
     1
102
RTVSPropertyOp23
 70
     1
102
RTVSPropertyOp24
 70
     1
102
RTVSPropertyOp25
 70
     1
102
RTVSPropertyOp26
 70
     1
102
RTVSPropertyOp27
 70
     1
102
RTVSPropertyOp28
 70
     1
102
RTVSPropertyOp29
 70
     1
102
RTVSPropertyOp30
 70
     1
102
RTVSPropertyOp31
 70
     1
102
RTVSPropertyOp32
 70
     1
102
RTVSPropertyOp33
 70
     1
102
RTVSPropertyOp34
 70
     1
102
RTVSPropertyOp35
 70
     1
102
RTVSPropertyOp36
 70
     1
102
RTVSPropertyOp37
 70
     1
102
RTVSPropertyOp38
 70
     1
102
RTVSPropertyOp39
 70
     1
102
RTVSPropertyOp40
 70
     1
102
RTVSPropertyOp41
 70
     1
102
RTVSPropertyOp42
 70
     1
102
RTVSPropertyOp43
 70
     1
102
RTVSPropertyOp44
 70
     1
102
RTVSPropertyOp45
 70
     1
102
RTVSPropertyOp46
 70
     1
102
RTVSPropertyOp47
 70
     1
102
RTVSPropertyOp48
 70
     1
102
RTVSPropertyOp49
 70
     1
102
RTVSPropertyOp50
 70
     1
102
RTVSPropertyOp51
 70
     0
102
RTVSPropertyOp52
 70
     0
102
RTVSPropertyOp53
 70
     1
102
RTVSPropertyOp54
 70
     1
102
RTVSPropertyOp55
 70
     1
102
RTVSPropertyOp56
 70
     1
102
RTVSPropertyOp57
 70
     1
102
RTVSPost2010Prop28
280
     0
102
RTVSPost2010PropOp28
 70
     1
102
RTVSPost2010Prop29
280
     1
102
RTVSPost2010PropOp29
 70
     1
102
RTVSPost2010Prop30
280
     1
102
RTVSPost2010PropOp30
 70
     1
102
RTVSPost2010Prop31
280
     0
102
RTVSPost2010PropOp31
 70
     1
102
RTVSPost2010Prop32
280
     0
102
RTVSPost2010PropOp32
 70
     1
102
RTVSPost2010Prop33
280
     0
102
RTVSPost2010PropOp33
 70
     1
102
RTVSPost2010Prop34
280
     0
102
RTVSPost2010PropOp34
 70
     1
102
RTVSPost2010Prop35
280
     0
102
RTVSPost2010PropOp35
 70
     1
102
RTVSPost2010Prop36
280
     0
102
RTVSPost2010PropOp36
 70
     1
102
RTVSPost2010Prop37
 90
       50
102
RTVSPost2010PropOp37
 70
     1
102
RTVSPost2010Prop38
140
0.0
102
RTVSPost2010PropOp38
 70
     1
102
RTVSPost2010Prop39
140
1.0
102
RTVSPost2010PropOp39
 70
     1
102
RTVSPost2010Prop40
 90
        0
102
RTVSPost2010PropOp40
 70
     1
102
RTVSPost2010Prop41ColorIndex
 90
       18
102
RTVSPost2010Prop41ColorRGB
 90
        0
102
RTVSPost2010PropOp41
 70
     1
102
RTVSPost2010Prop42
 90
       50
102
RTVSPost2010PropOp42
 70
     1
102
RTVSPost2010Prop43
 90
        3
102
RTVSPost2010PropOp43
 70
     1
102
RTVSPost2010Prop44ColorIndex
 90
        5
102
RTVSPost2010Prop44ColorRGB
 90
      255
102
RTVSPost2010PropOp44
 70
     1
102
RTVSPost2010Prop45
280
     0
102
RTVSPost2010PropOp45
 70
     1
102
RTVSPost2010Prop46
 90
       50
102
RTVSPost2010PropOp46
 70
     1
102
RTVSPost2010Prop47
 90
       50
102
RTVSPost2010PropOp47
 70
     1
102
RTVSPost2010Prop48
 90
       50
102
RTVSPost2010PropOp48
 70
     1
102
RTVSPost2010Prop49
280
     0
102
RTVSPost2010PropOp49
 70
     1
102
RTVSPost2010Prop50
 90
       50
102
RTVSPost2010PropOp50
 70
     1
102
RTVSPost2010Prop51ColorIndex
 90
      256
102
RTVSPost2010Prop51ColorRGB
 90
-16777216
102
RTVSPost2010PropOp51
 70
     0
102
RTVSPost2010Prop52
140
1.0
102
RTVSPost2010PropOp52
 70
     0
102
RTVSPost2010Prop53
 90
        2
102
RTVSPost2010PropOp53
 70
     1
102
RTVSPost2010Prop54
  1
strokes_ogs.tif
102
RTVSPost2010PropOp54
 70
     1
102
RTVSPost2010Prop55
280
     0
102
RTVSPost2010PropOp55
 70
     1
102
RTVSPost2010Prop56
140
1.0
102
RTVSPost2010PropOp56
 70
     1
102
RTVSPost2010Prop57
140
1.0
102
RTVSPost2010PropOp57
 70
     1
  0
XRECORD
  5
3E95
102
{ACAD_REACTORS
330
3E94
102
}
330
3E94
100
AcDbXrecord
280
     1
102
RTVSPropertyOp0
 70
     1
102
RTVSPropertyOp1
 70
     1
102
RTVSPropertyOp2
 70
     1
102
RTVSPropertyOp3
 70
     1
102
RTVSPropertyOp4
 70
     1
102
RTVSPropertyOp5
 70
     1
102
RTVSPropertyOp6
 70
     1
102
RTVSPropertyOp7
 70
     1
102
RTVSPropertyOp8
 70
     1
102
RTVSPropertyOp9
 70
     1
102
RTVSPropertyOp10
 70
     1
102
RTVSPropertyOp11
 70
     1
102
RTVSPropertyOp12
 70
     1
102
RTVSPropertyOp13
 70
     1
102
RTVSPropertyOp14
 70
     1
102
RTVSPropertyOp15
 70
     1
102
RTVSPropertyOp16
 70
     1
102
RTVSPropertyOp17
 70
     1
102
RTVSPropertyOp18
 70
     1
102
RTVSPropertyOp19
 70
     1
102
RTVSPropertyOp20
 70
     1
102
RTVSPropertyOp21
 70
     1
102
RTVSPropertyOp22
 70
     1
102
RTVSPropertyOp23
 70
     1
102
RTVSPropertyOp24
 70
     1
102
RTVSPropertyOp25
 70
     1
102
RTVSPropertyOp26
 70
     1
102
RTVSPropertyOp27
 70
     1
102
RTVSPropertyOp28
 70
     1
102
RTVSPropertyOp29
 70
     1
102
RTVSPropertyOp30
 70
     1
102
RTVSPropertyOp31
 70
     1
102
RTVSPropertyOp32
 70
     1
102
RTVSPropertyOp33
 70
     1
102
RTVSPropertyOp34
 70
     1
102
RTVSPropertyOp35
 70
     1
102
RTVSPropertyOp36
 70
     1
102
RTVSPropertyOp37
 70
     1
102
RTVSPropertyOp38
 70
     1
102
RTVSPropertyOp39
 70
     1
102
RTVSPropertyOp40
 70
     1
102
RTVSPropertyOp41
 70
     1
102
RTVSPropertyOp42
 70
     1
102
RTVSPropertyOp43
 70
     1
102
RTVSPropertyOp44
 70
     1
102
RTVSPropertyOp45
 70
     1
102
RTVSPropertyOp46
 70
     1
102
RTVSPropertyOp47
 70
     1
102
RTVSPropertyOp48
 70
     1
102
RTVSPropertyOp49
 70
     1
102
RTVSPropertyOp50
 70
     1
102
RTVSPropertyOp51
 70
     0
102
RTVSPropertyOp52
 70
     0
102
RTVSPropertyOp53
 70
     1
102
RTVSPropertyOp54
 70
     1
102
RTVSPropertyOp55
 70
     1
102
RTVSPropertyOp56
 70
     1
102
RTVSPropertyOp57
 70
     1
102
RTVSPost2010Prop28
280
     0
102
RTVSPost2010PropOp28
 70
     1
102
RTVSPost2010Prop29
280
     1
102
RTVSPost2010PropOp29
 70
     1
102
RTVSPost2010Prop30
280
     1
102
RTVSPost2010PropOp30
 70
     1
102
RTVSPost2010Prop31
280
     0
102
RTVSPost2010PropOp31
 70
     1
102
RTVSPost2010Prop32
280
     0
102
RTVSPost2010PropOp32
 70
     1
102
RTVSPost2010Prop33
280
     0
102
RTVSPost2010PropOp33
 70
     1
102
RTVSPost2010Prop34
280
     0
102
RTVSPost2010PropOp34
 70
     1
102
RTVSPost2010Prop35
280
     0
102
RTVSPost2010PropOp35
 70
     1
102
RTVSPost2010Prop36
280
     0
102
RTVSPost2010PropOp36
 70
     1
102
RTVSPost2010Prop37
 90
       50
102
RTVSPost2010PropOp37
 70
     1
102
RTVSPost2010Prop38
140
0.0
102
RTVSPost2010PropOp38
 70
     1
102
RTVSPost2010Prop39
140
1.0
102
RTVSPost2010PropOp39
 70
     1
102
RTVSPost2010Prop40
 90
        0
102
RTVSPost2010PropOp40
 70
     1
102
RTVSPost2010Prop41ColorIndex
 90
       18
102
RTVSPost2010Prop41ColorRGB
 90
        0
102
RTVSPost2010PropOp41
 70
     1
102
RTVSPost2010Prop42
 90
       50
102
RTVSPost2010PropOp42
 70
     1
102
RTVSPost2010Prop43
 90
        3
102
RTVSPost2010PropOp43
 70
     1
102
RTVSPost2010Prop44ColorIndex
 90
        5
102
RTVSPost2010Prop44ColorRGB
 90
      255
102
RTVSPost2010PropOp44
 70
     1
102
RTVSPost2010Prop45
280
     0
102
RTVSPost2010PropOp45
 70
     1
102
RTVSPost2010Prop46
 90
       50
102
RTVSPost2010PropOp46
 70
     1
102
RTVSPost2010Prop47
 90
       50
102
RTVSPost2010PropOp47
 70
     1
102
RTVSPost2010Prop48
 90
       50
102
RTVSPost2010PropOp48
 70
     1
102
RTVSPost2010Prop49
280
     0
102
RTVSPost2010PropOp49
 70
     1
102
RTVSPost2010Prop50
 90
       50
102
RTVSPost2010PropOp50
 70
     1
102
RTVSPost2010Prop51ColorIndex
 90
      256
102
RTVSPost2010Prop51ColorRGB
 90
-16777216
102
RTVSPost2010PropOp51
 70
     0
102
RTVSPost2010Prop52
140
1.0
102
RTVSPost2010PropOp52
 70
     0
102
RTVSPost2010Prop53
 90
        2
102
RTVSPost2010PropOp53
 70
     1
102
RTVSPost2010Prop54
  1
strokes_ogs.tif
102
RTVSPost2010PropOp54
 70
     1
102
RTVSPost2010Prop55
280
     0
102
RTVSPost2010PropOp55
 70
     1
102
RTVSPost2010Prop56
140
1.0
102
RTVSPost2010PropOp56
 70
     1
102
RTVSPost2010Prop57
140
1.0
102
RTVSPost2010PropOp57
 70
     1
  0
XRECORD
  5
3EB5
102
{ACAD_REACTORS
330
3EB4
102
}
330
3EB4
100
AcDbXrecord
280
     1
102
RTVSPropertyOp0
 70
     1
102
RTVSPropertyOp1
 70
     1
102
RTVSPropertyOp2
 70
     1
102
RTVSPropertyOp3
 70
     1
102
RTVSPropertyOp4
 70
     1
102
RTVSPropertyOp5
 70
     1
102
RTVSPropertyOp6
 70
     1
102
RTVSPropertyOp7
 70
     1
102
RTVSPropertyOp8
 70
     1
102
RTVSPropertyOp9
 70
     1
102
RTVSPropertyOp10
 70
     1
102
RTVSPropertyOp11
 70
     1
102
RTVSPropertyOp12
 70
     1
102
RTVSPropertyOp13
 70
     1
102
RTVSPropertyOp14
 70
     1
102
RTVSPropertyOp15
 70
     1
102
RTVSPropertyOp16
 70
     1
102
RTVSPropertyOp17
 70
     1
102
RTVSPropertyOp18
 70
     1
102
RTVSPropertyOp19
 70
     1
102
RTVSPropertyOp20
 70
     1
102
RTVSPropertyOp21
 70
     1
102
RTVSPropertyOp22
 70
     1
102
RTVSPropertyOp23
 70
     1
102
RTVSPropertyOp24
 70
     1
102
RTVSPropertyOp25
 70
     1
102
RTVSPropertyOp26
 70
     1
102
RTVSPropertyOp27
 70
     1
102
RTVSPropertyOp28
 70
     1
102
RTVSPropertyOp29
 70
     1
102
RTVSPropertyOp30
 70
     1
102
RTVSPropertyOp31
 70
     1
102
RTVSPropertyOp32
 70
     1
102
RTVSPropertyOp33
 70
     1
102
RTVSPropertyOp34
 70
     1
102
RTVSPropertyOp35
 70
     1
102
RTVSPropertyOp36
 70
     1
102
RTVSPropertyOp37
 70
     1
102
RTVSPropertyOp38
 70
     1
102
RTVSPropertyOp39
 70
     1
102
RTVSPropertyOp40
 70
     1
102
RTVSPropertyOp41
 70
     1
102
RTVSPropertyOp42
 70
     1
102
RTVSPropertyOp43
 70
     1
102
RTVSPropertyOp44
 70
     1
102
RTVSPropertyOp45
 70
     1
102
RTVSPropertyOp46
 70
     1
102
RTVSPropertyOp47
 70
     1
102
RTVSPropertyOp48
 70
     1
102
RTVSPropertyOp49
 70
     1
102
RTVSPropertyOp50
 70
     1
102
RTVSPropertyOp51
 70
     0
102
RTVSPropertyOp52
 70
     0
102
RTVSPropertyOp53
 70
     1
102
RTVSPropertyOp54
 70
     1
102
RTVSPropertyOp55
 70
     1
102
RTVSPropertyOp56
 70
     1
102
RTVSPropertyOp57
 70
     1
102
RTVSPost2010Prop28
280
     0
102
RTVSPost2010PropOp28
 70
     1
102
RTVSPost2010Prop29
280
     1
102
RTVSPost2010PropOp29
 70
     1
102
RTVSPost2010Prop30
280
     1
102
RTVSPost2010PropOp30
 70
     1
102
RTVSPost2010Prop31
280
     0
102
RTVSPost2010PropOp31
 70
     1
102
RTVSPost2010Prop32
280
     0
102
RTVSPost2010PropOp32
 70
     1
102
RTVSPost2010Prop33
280
     0
102
RTVSPost2010PropOp33
 70
     1
102
RTVSPost2010Prop34
280
     0
102
RTVSPost2010PropOp34
 70
     1
102
RTVSPost2010Prop35
280
     0
102
RTVSPost2010PropOp35
 70
     1
102
RTVSPost2010Prop36
280
     0
102
RTVSPost2010PropOp36
 70
     1
102
RTVSPost2010Prop37
 90
       50
102
RTVSPost2010PropOp37
 70
     1
102
RTVSPost2010Prop38
140
0.0
102
RTVSPost2010PropOp38
 70
     1
102
RTVSPost2010Prop39
140
1.0
102
RTVSPost2010PropOp39
 70
     1
102
RTVSPost2010Prop40
 90
        0
102
RTVSPost2010PropOp40
 70
     1
102
RTVSPost2010Prop41ColorIndex
 90
       18
102
RTVSPost2010Prop41ColorRGB
 90
        0
102
RTVSPost2010PropOp41
 70
     1
102
RTVSPost2010Prop42
 90
       50
102
RTVSPost2010PropOp42
 70
     1
102
RTVSPost2010Prop43
 90
        3
102
RTVSPost2010PropOp43
 70
     1
102
RTVSPost2010Prop44ColorIndex
 90
        5
102
RTVSPost2010Prop44ColorRGB
 90
      255
102
RTVSPost2010PropOp44
 70
     1
102
RTVSPost2010Prop45
280
     0
102
RTVSPost2010PropOp45
 70
     1
102
RTVSPost2010Prop46
 90
       50
102
RTVSPost2010PropOp46
 70
     1
102
RTVSPost2010Prop47
 90
       50
102
RTVSPost2010PropOp47
 70
     1
102
RTVSPost2010Prop48
 90
       50
102
RTVSPost2010PropOp48
 70
     1
102
RTVSPost2010Prop49
280
     0
102
RTVSPost2010PropOp49
 70
     1
102
RTVSPost2010Prop50
 90
       50
102
RTVSPost2010PropOp50
 70
     1
102
RTVSPost2010Prop51ColorIndex
 90
      256
102
RTVSPost2010Prop51ColorRGB
 90
-16777216
102
RTVSPost2010PropOp51
 70
     0
102
RTVSPost2010Prop52
140
1.0
102
RTVSPost2010PropOp52
 70
     0
102
RTVSPost2010Prop53
 90
        2
102
RTVSPost2010PropOp53
 70
     1
102
RTVSPost2010Prop54
  1
strokes_ogs.tif
102
RTVSPost2010PropOp54
 70
     1
102
RTVSPost2010Prop55
280
     0
102
RTVSPost2010PropOp55
 70
     1
102
RTVSPost2010Prop56
140
1.0
102
RTVSPost2010PropOp56
 70
     1
102
RTVSPost2010Prop57
140
1.0
102
RTVSPost2010PropOp57
 70
     1
  0
ENDSEC
  0
SECTION
  2
THUMBNAILIMAGE
 90
    17448
310
28000000800000008000000001000800000000000000000000000000000000000000000000000000FFFFFF000000FF0000FFFF0000FF0000FFFF0000FF000000FF00FF000000000080808000C0C0C0000000FF007F7FFF000000A5005252A50000007F003F3F7F0000004C0026264C000000260013132600003FFF007F9FFF
310
000029A5005267A500001F7F003F4F7F0000134C00262F4C000009260013172600007FFF007FBFFF000052A500527CA500003F7F003F5F7F0000264C0026394C0000132600131C260000BFFF007FDFFF00007CA5005291A500005F7F003F6F7F0000394C0026424C00001C26001321260000FFFF007FFFFF0000A5A50052A5
310
A500007F7F003F7F7F00004C4C00264C4C00002626001326260000FFBF007FFFDF0000A57C0052A59100007F5F003F7F6F00004C3900264C420000261C001326210000FF7F007FFFBF0000A5520052A57C00007F3F003F7F5F00004C2600264C39000026130013261C0000FF3F007FFF9F0000A5290052A56700007F1F003F
310
7F4F00004C1300264C2F00002609001326170000FF00007FFF7F0000A5000052A55200007F00003F7F3F00004C0000264C260000260000132613003FFF00009FFF7F0029A5000067A552001F7F00004F7F3F00134C00002F4C260009260000172613007FFF0000BFFF7F0052A500007CA552003F7F00005F7F3F00264C0000
310
394C2600132600001C261300BFFF0000DFFF7F007CA5000091A552005F7F00006F7F3F00394C0000424C26001C26000021261300FFFF0000FFFF7F00A5A50000A5A552007F7F00007F7F3F004C4C00004C4C26002626000026261300FFBF0000FFDF7F00A57C0000A59152007F5F00007F6F3F004C3900004C422600261C00
310
0026211300FF7F0000FFBF7F00A5520000A57C52007F3F00007F5F3F004C2600004C39260026130000261C1300FF3F0000FF9F7F00A5290000A56752007F1F00007F4F3F004C1300004C2F26002609000026171300FF000000FF7F7F00A5000000A55252007F0000007F3F3F004C0000004C2626002600000026131300FF00
310
3F00FF7F9F00A5002900A55267007F001F007F3F4F004C0013004C262F002600090026131700FF007F00FF7FBF00A5005200A5527C007F003F007F3F5F004C0026004C2639002600130026131C00FF00BF00FF7FDF00A5007C00A55291007F005F007F3F6F004C0039004C26420026001C0026132100FF00FF00FF7FFF00A5
310
00A500A552A5007F007F007F3F7F004C004C004C264C002600260026132600BF00FF00DF7FFF007C00A5009152A5005F007F006F3F7F0039004C0042264C001C002600211326007F00FF00BF7FFF005200A5007C52A5003F007F005F3F7F0026004C0039264C00130026001C1326003F00FF009F7FFF002900A5006752A500
310
1F007F004F3F7F0013004C002F264C000900260017132600000000002D2D2D005B5B5B0089898900B7B7B700B3B3B30000000000000000000000000000000000000000000000000000000000000000000000000000000000000000000000000000000000000000000000000000000000000000000000000000000000000000
310
00000000000000000000000000000000000000000000000000000000000000000000000000000000000000000000000000000000000000000000000000000000000000000000000000000000000000000000000000000000000000000000000000000000000000000000000000000000000000000000000000000000000000
310
00000000000000000000000000000000000000000000000000000000000000000000000000000000000000000000000000000000000000000000000000000000000000000000000000000000000000000000000000000000000000000000000000000000000000000000000000000000000000000000000000000000000000
310
00000000000000000000000000000000000000000000000000000000000000000000000000000000000000000000000000000000000000000000000000000000000000000000000000000000000000000000000000000000000000000000000000000000000000000000000000000000000000000000000000000000000000
310
00000000000000000000000000000000000000000000000000000000000000000000000000000000000000000000000000000000000000000000000000000000000000000000000000000000000000000000000000000000000000000000000000000000000000000000000000000000000000000000000000000000000000
310
00000000000000000000000000000000000000000000000000000000000000000000000000000000000000000000000000000000000000000000000000000000000000000000000000000000000000000000000000000000000000000000000000000000000000000000000000000000000000000000000000000000000000
310
00000000000000000000000000000000000000000000000000000000000000000000000000000000000000000000000000000000000000000000000000000000000000000000000000000000000000000000000000000000000000000000000000000000000000000000000000000000000000000000000000000000000000
310
00000000000000000000000000000000000000000000000000000000000000000000000000000000000000000000000000000000000000000000000000000000000000000000000000000000000000000000000000000000000000000000000000000000000000000000000000000000000000000000000000000000000000
310
00000000000000000000000000000000000000000000000000000000000000000000000000000000000000000000000000000000000000000000000000000000000000000000000000000000000000000000000000000000000000000000000000000000000000000000000000000000000000000000000000000000000000
310
00000000000000000000000000000000000000000000000000000000000000000000000000000000000000000000000000000000000000000000000000000000000000000000000000000000000000000000000000000000000000000000000000000000000000000000000000000000000000000000000000000000000000
310
00000000000000000000000000000000000000000000000000000000000000000000000000000000000000000000000000000000000000000000000000000000000000000000000000000000000000000000000000000000000000000000000000000000000000000000000000000000000000000000000000000000000000
310
00000000000000000000000000000000000000000000000000000000000000000000000000000000000000000000000000000000000000000000000000000000000000000000000000000000000000000000000000000000000000000000000000000000000000000000000000000000000000000000000000000000000000
310
00000000000000000000000000000000000000000000000000000000000000000000000000000000000000000000000000000000000000000000000000000000000000000000000000000000000000000000000000000000000000000000000000000000000000000000000000000000000000000000000000000000000000
310
00000000000000000000000000000000000000000000000000000000000000000000000000000000000000000000000000000000000000000000000000000000000000000000000000000000000000000000000000000000000000000000000000000000000000000000000000000000000000000000000000000000000000
310
00000000000000000000000000000000000000000000000000000000000000000000000000000000000000000000000000000000000000000000000000000000000000000000000000000000000000000000000000000000000000000000000000000000000000000000000000000000000000000000000000000000000000
310
00000000000000000000000000000000000000000000000000000000000000000000000000000000000000000000000000000000000000000000000000000000000000000000000000000000000000000000000000000000000000000000000000000000000000000000000000000000000000000000000000000000000000
310
00000000000000000000000000000000000000000000000000000000000000000000000000000000000000000000000000000000000000000000000000000000000000000000000000000000000000000000000000000000000000000000000000000000000000000000000000000000000000000000000000000000000000
310
00000000000000000000000000000000000000000000000000000000000000000000000000000000000000000000000000000000000000000000000000000000000000000000000000000000000000000000000000000000000000000000000000000000000000000000000000000000000000000000000000000000000000
310
00000000000000000000000000000000000000000000000000000000000000000000000000000000000000000000000000000000000000000000000000000000000000000000000000000000000000000000000000000000000000000000000000000000000000000000000000000000000000000000000000000000000000
310
00000000000000000000000000000000000000000000000000000000000000000000000000000000000000000000000000000000000000000000000000000000000000000000000000000000000000000000000000000000000000000000000000000000000000000000000000000000000000000000000000000000000000
310
00000000000000000000000000000000000000000000000000000000000000000000000000000000000000000000000000000000000000000000000000000000000000000000000000000000000000000000000000000000000000000000000000000000000000000000000000000000000000000000000000000000000000
310
00000000000000000000000000000000000000000000000000000000000000000000000000000000000000000000000000000000000000000000000000000000000000000000000000000000000000000000000000000000000000000000000000000000000000000000000000000000000000000000000000000000000000
310
00000000000000000000000000000000000000000000000000000000000000000000000000000000000000000000000000000000000000000000000000000000000000000000000000000000000000000000000000000000000000000000000000000000000000000000000000000000000000000000000000000000000000
310
00000000000000000000000000000000000000000000000000000000000000000000000000000000000000000000000000000000000000000000000000000000000000000000000000000000000000000000000000000000000000000000000000000000000000000000000000000000000000000000000000000000000000
310
00000000000000000000000000000000000000000000000000000000000000000000000000000000000000000000000000000000000000000000000000000000000000000000000000000000000000000000000000000000000000000000000000000000000000000000000000000000000000000000000000000000000000
310
00000000000000000000000000000000000000000000000000000000000000000000000000000000000000000000000000000000000000000000000000000000000000000000000000000000000000000000000000000000000000000000000000000000000000000000000000000000000000000000000000000000000000
310
00000000000000000000000000000000000000000000000000000000000000000000000000000000000000000000000000000000000000000000000000000000000000000000000000000000000000000000000000000000000000000000000000000000000000000000000000000000000000000000000000000000000000
310
00000000000000000000000000000000000000000000000000000000000000000000000000000000000000000000000000000000000000000000000000000000000000000000000000000000000000000000000000000000000000000000000000000000000000000000000000000000000000000000000000000000000000
310
00000000000000000000000000000000000000000000000000000000000000000000000000000000000000000000000000000000000000000000000000000000000000000000000000000000000000000000000000000000000000000000000000000000000000000000000000000000000000000000000000000000000000
310
00000000000000000000000000000000000000000000000000000000000000000000000000000000000000000000000000000000000000000000000000000000000000000000000000000000000000000000000000000000000000000000000000000000000000000000000000000000000000000000000000000000000000
310
00000000000000000000000000000000000000000000000000000000000000000000000000000000000000000000000000000000000000000000000000000000000000000000000000000000000000000000000000000000000000000000000000000000000000000000000000000000000000000000000000000000000000
310
00000000000000000000000000000000000000000000000000000000000000000000000000000000000000000000000000000000000000000000000000000000000000000000000000000000000000000000000000000000000000000000000000000000000000000000000000000000000000000000000000000000000000
310
00000000000000000000000000000000000000000000000000000000000000000000000000000000000000000000000000000000000000000000000000000000000000000000000000000000000000000000000000000000000000000000000000000000000000000000000000000000000000000000000000000000000000
310
00000000000000000000000000000000000000000000000000000000000000000000000000000000000000000000000000000000000000000000000000000000000000000000000000000000000000000000000000000000000000000000000000000000000000000000000000000000000000000000000000000000000000
310
00000000000000000000000000000000000000000000000000000000000000000000000000000000000000000000000000000000000000000000000000000000000000000000000000000000000000000000000000000000000000000000000000000707070707070707070707070707070707070707070707070707070707
310
07070707070707070707070707070707070707070707070707070707070707070707070707070707070707070707070707070707000000000000000000000000000000000000000000000000000000000000000000000000000000000000000000000007000000000000000000000000000000000000000000000000000000
310
00000000000000000000000000000000000000000000000000000000000000000000000000000000000000000000000000000000070000000000000000000000000000000000000000000000000000000000000000000000000000000000000000000000070007070707070000000007070700000000070707000000000707
310
07070000000707070700000000070707000000000707070000000007070707000000070707070000000007070700000000070707070700000000000000000000000000000000000000000000000000000000000000000000000000000000000000000000000700070000FBFBFBFBFBFBFBFBFBFBFBFBFBFBFBFCFBFBFBFBFB
310
FBFCFBFBFBFBFBFBFBFCFCFCFBFCFCFCFCFCFCFCFCFCFCFCFBFCFCFCFCFCFBFBFBFBFBFBFBFBFBFBFBFBFBFBFBFBFBFBFBFBFBFBFB070700000000000000000000000000000000000000000000000000000000000000000000000000000000000000000000000700070000FCFCFCFCFCFCFCFCFBFCFC00FC00FCFC00000101
310
0100FC000100000000FBFCFCFCFCFC00FCFC00FCFCFCFC00FCFCFCFC00FCFCFB000000000000010100000000010101000100000000FB070700000000000000000000000000000000000000000000000000000000000000000000000000000000000000000000000700000000FB00000000000000FBFCFCFCFCFCFCFC000001
310
000100FC01010101010101FDFD00FDFDFDFDFDFDFDFD0000FDFD0000FDFDFDFDFB000000000000010101000100010101010100000000FB070700000000000000000000000000000000000000000000000000000000000000000000000000000000000000000000000700000000FCFCFCFCFCFCFCFCFBFCFCFCFCFCFCFC0000
310
01000100FC000000000000FBFDFDFDFDFDFDFDFDFDFD00FDFDFDFDFDFDFDFDFDFDFB000000000000000100000000010101000000000000FB000700000000000000000000000000000000000000000000000000000000000000000000000000000000000000000000000700000000FB00000000000000FBFCFCFCFC0000FCFC
310
00FCFCFCFCFCFCFCFCFCFC00FBFDFDFDFDFDFDFDFDFDFDFDFDFDFDFDFDFDFDFDFDFDFCFCFCFC00FCFCFCFCFCFC0000000000000000000000FB000700000000000000000000000000000000000000000000000000000000000000000000000000000000000000000000000700000000FCFCFCFCFCFCFCFCFBFCFCFCFCFCFCFC
310
FCFCFCFCFCFCFCFCFCFCFCFCFCFBFBFDFBFBFDFBFBFDFBFBFBFDFDFBFBFDFBFDFBFBFDFCFCFCFCFCFCFCFCFCFCFCFCFCFCFCFCFCFCFCFCFCFCFB000700000000000000000000000000000000000000000000000000000000000000000000000000000000000000000000000700070000FB00000000000000FB000000000000
310
FC000000000000FC000000000000FB010101010101010101010101010101010101010101FB000000000000000000000000000000000000000000FB000700000000000000000000000000000000000000000000000000000000000000000000000000000000000000000000000700070000FCFCFCFCFCFCFCFCFB0000000000
310
00FC000000000000FC000101010100FB010101000101010101000101010100010101010100FB010101010100000001010101000001000101000000FB070700000000000000000000000000000000000000000000000000000000000000000000000000000000000000000000000700070000FB00000000000000FB00000000
310
0000FC000000000000FC000101010100FBFCFCFCFCFCFCFCFCFCFCFCFCFCFCFCFCFCFCFCFCFCFB010101010101010001010101010001010101000000FB070700000000000000000000000000000000000000000000000000000000000000000000000000000000000000000000000700000000FCFCFCFCFCFCFCFCFBFCFCFC
310
FCFC00FCFCFCFCFCFCFCFCFCFCFCFC0000FB010101010101010101010101010101010101010101FB000100010101010001010101000000010101000000FB070700000000000000000000000000000000000000000000000000000000000000000000000000000000000000000000000700000000FBFCFCFC00000000FCFCFC
310
FC00FC00FCFCFC00FCFCFCFCFCFCFCFC0000FB010101010100000100010101010101010100010101FCFCFCFCFCFCFC000000000000000000000000000000FB000700000000000000000000000000000000000000000000000000000000000000000000000000000000000000000000000700000000FBFCFCFCFBFBFBFBFCFC
310
FCFBFBFBFBFCFCFCFBFBFBFBFCFCFCFBFBFBFBFBFBFBFBFBFBFBFBFBFBFBFBFBFBFBFBFBFBFBFBFBFBFCFCFCFCFCFBFBFBFBFBFBFBFBFBFBFBFBFBFBFBFBFBFB000700000000000000000000000000000000000000000000000000000000000000000000000000000000000000000000000700000000FB0000000000000000
310
00000000000000000000000000000000000000000000000000000000000000000000000000000000000000000000000000000000010101010100000000000000FB000700000000000000000000000000000000000000000000000000000000000000000000000000000000000000000000000700070000FB00000000000000
310
0000000000000000000000000000000000000000000000000000000000000000000000000000000000000000000000000000000000010101010001000000000000FB000700000000000000000000000000000000000000000000000000000000000000000000000000000000000000000000000700070000FB000000000000
310
000000000000000000000000000000000000000000000000000000000000000000000000000000000000000000000000000000000000010100000000000000000000FB070700000000000000000000000000000000000000000000000000000000000000000000000000000000000000000000000700070000FB0000000000
310
00000000000000000000000000000000000000000000000000000000000000000000000000000001000000000000000000000000000000000000000000000000000000FB070700000000000000000000000000000000000000000000000000000000000000000000000000000000000000000000000700000000FB00000000
310
0000000000000000000000000000000000000000000000000000000000000000000000000101010101010101000000000000000000000000000000000000000000000000FB070700000000000000000000000000000000000000000000000000000000000000000000000000000000000000000000000700000000FB000000
310
000000000000000000000000000000000000000000000000000000000000000000000007070707070707070701070707000000000000000000000000000000000000000000FB000700000000000000000000000000000000000000000000000000000000000000000000000000000000000000000000000700000000FB0000
310
00000000000000000000000000000000000000000000000000000000000000000000000007010100070100010701010107000000000000000000000000000000000000000000FB000700000000000000000000000000000000000000000000000000000000000000000000000000000000000000000000000700000000FB00
310
0000000000000000000000000000000000000000000000000000000000000000000000000007010101070101010701010107000000000000000000000000000000000000000000FB000700000000000000000000000000000000000000000000000000000000000000000000000000000000000000000000000700070000FB
310
000000000000000000000000000000000000000000000000000000000000000000000000000007010001070000000700010007000000000000000000000000000000000000000000FB000700000000000000000000000000000000000000000000000000000000000000000000000000000000000000000000000700070000
310
FB000000000000000000000000000000000000000000000000000000000000000000000000000007070107070701070707010700000000000000000000000000000000000000000000FB0707000000000000000000000000000000000000000000000000000000000000000000000000000000000000000000000007000700
310
00FB000000000000000000000000000000000000000000000000000000000000000000000000000000000100000001000000010000000000000000000000000000000000000000000000FB07070000000000000000000000000000000000000000000000000000000000000000000000000000000000000000000000070000
310
0000FB000000000000000000000000000000000000000000000000000000000000000000000000000000000100000001000000010000000000000000000000000000000000000000000000FB070700000000000000000000000000000000000000000000000000000000000000000000000000000000000000000000000700
310
000000FB000000000000000000000000000000000000000000000000000000000000000000000000000000000100000000010000010000000000000000000000000000000000000000000000FB0007000000000000000000000000000000000000000000000000000000000000000000000000000000000000000000000007
310
00000000FB000000000000000000000000000000000000000000000000000000010000000000000000000000000101000000010101000000000000000000000000000000000000000000000000FB00070000000000000000000000000000000000000000000000000000000000000000000000000000000000000000000000
310
0700000000FB000000000000000000000000000000000000000000000101010101010000000000000000000000000000000000000000000000000000000000000000000000000000000000000000FB000700000000000000000000000000000000000000000000000000000000000000000000000000000000000000000000
310
000700070000FB000000000000000000000000000000000000000000000000010101010000000000000000000000000000000000000000000000000000000000000000000000000000000000000000FB0007000000000000000000000000000000000000000000000000000000000000000000000000000000000000000000
310
00000700070000FB000000000000000000000000000000000000000000000100010100010000000100010101010000000000000000010100000000000000000000000000000000000000000000000000FB07070000000000000000000000000000000000000000000000000000000000000000000000000000000000000000
310
0000000700070000FB000000000000000000000000000000000000000000000101010101000000010101010101010100000000010101010101000100000000000000000000000000000000000000000000FB070700000000000000000000000000000000000000000000000000000000000000000000000000000000000000
310
000000000700070000FB000000000000000000000000000000000000000000000101000000000000000000010100000100000000010100010000000100000000000000000000000000000000000000000000FB0707000000000000000000000000000000000000000000000000000000000000000000000000000000000000
310
00000000000700000000FB000000000000000000000000000000000000000000070701070701010700070707070707070707000707070707070707070707070000000000000000000000000000000000000000FB07070000000000000000000000000000000000000000000000000000000000000000000000000000000000
310
0000000000000700000000FB000000000000000000000000000000000000000000070001070001000700070101000700010107000700010007010107000101070000000000000000000000000000000000000000FB000700000000000000000000000000000000000000000000000000000000000000000000000000000000
310
000000000000000700000000FB000000000000000000000000000000000000000000070001070000010700070000000700000007000700010007010107000101070000000000000000000000000000000000000000FB0007000000000000000000000000000000000000000000000000000000000000000000000000000000
310
00000000000000000700070000FB000000000000000000000000000000000000000000070707070707070000070707070707070700000707070707070707070707000000000000000000000000000000000000000000FB00070000000000000000000000000000000000000000000000000000000000000000000000000000
310
0000000000000000000700070000FB000000000000000000000000000000000000000000000001000001000000000001000000010000000000010000000100000100000000000000000000000000000000000000000000FB070700000000000000000000000000000000000000000000000000000000000000000000000000
310
000000000000000000000700070000FB000000000000000101010101010101000101000101000001000001000000000001000000010000000000010000000100000100000000000000000000000000000000000000000000FB0707000000000000000000000000000000000000000000000000000000000000000000000000
310
00000000000000000000000700070000FB000000000000000101010001010101010101010101000001000001000000000001000000010000000000010000000000000100000000000000000000000000000000000000000000FB07070000000000000000000000000000000000000000000000000000000000000000000000
310
0000000000000000000000000700000000FB000000000000000000000000000000000000000000000000000001000000000000000000000000000000010101000000000100000000000000000000000000000000000000000000FB070700000000000000000000000000000000000000000000000000000000000000000000
310
000000000000000000000000000700000000FB000000000000000101010101010101010100000000000000000000000000000100000000000000000000000000010000000100000000000000000000000000000000000000000000FB0007000000000000000000000000000000000000000000000000000000000000000000
310
00000000000000000000000000000700000000FB000000000000000101010001010101010100000000000000010100000000000100000001010000000000000000000101010000000000000000000000000000000000000000000000FB00070000000000000000000000000000000000000000000000000000000000000000
310
0000000000000000000000000000000700070000FB000000000000000001000000000000000000000000000000000000000000000000000000000000000000000000000000000000000000000000000000000000000000000000000000FB000700000000000000000000000000000000000000000000000000000000000000
310
000000000000000000000000000000000700070000FB000000000000000000000000000000000000000000000000000000000000000000000100000000000000000000000000000000000000000000000000000000000000000000000000FB0707000000000000000000000000000000000000000000000000000000000000
310
00000000000000000000000000000000000700070000FB000000000000000000000000000000000000000000000000000000000000000000000000000000000000000000000000000000000000000000000000000000000000000000000000FB07070000000000000000000000000000000000000000000000000000000000
310
0000000000000000000000000000000000000700070000FB000000000000000000000000000000000000000000000000000000000000000000000000000000000000000000000000000000000000000000000000000000000000000000000000FB070700000000000000000000000000000000000000000000000000000000
310
000000000000000000000000000000000000000700000000FB000000000000000000000000000000000000000000000000000000000000000000000000000000000000000000000000000000000000000000000000000000000000000000000000FB0707000000000000000000000000000000000000000000000000000000
310
00000000000000000000000000000000000000000700000000FB000000000000000000000000000000000000000000000000000000000000000000000000000000000000000000000000000000000000000000000000000000000000000000000000FB00070000000000000000000000000000000000000000000000000000
310
0000000000000000000000000000000000000000000700000000FB000000000000000000000000000000000000000000000000000000000000000000000000000000000000000000000000000000000000000000000000000000000000000000000000FB000700000000000000000000000000000000000000000000000000
310
000000000000000000000000000000000000000000000700070000FB000000000000000000000000000000000000000000000000000000000000000000000000000000000000000000000000000000000000000000000000000000000000000000000000FB0007000000000000000000000000000000000000000000000000
310
00000000000000000000000000000000000000000000000700070000FB000000000000000000000000000000000000000000000000000000000000000000000000000000000000000000000000000000000000000000000000000000000000000000000000FB07070000000000000000000000000000000000000000000000
310
0000000000000000000000000000000000000000000000000700070000FB000000000000000000000000000000000000000000000000000000000000000000010000000000000000000000000000000000000000000000000000000000000000000000000000FB070700000000000000000000000000000000000000000000
310
000000000000000000000000000000000000000000000000000700070000FB000000000000000000000000000000000000000000000000000000000000000001010101010101010101010000000000000000000000000000000000000000000000000000000000FB0707000000000000000000000000000000000000000000
310
00000000000000000000000000000000000000000000000000000700000000FB000000000000000000000000000000000000000000000000000000000000000001000001010000000000010000000000000000000000000000000000000000000000000000000000FB07070000000000000000000000000000000000000000
310
0000000000000000000000000000000000000000000000000000000700000000FB000000000000000000000000000000000000000000000000000000000000000001000000000000000000010000000000000000000000000000000000000000000000000000000000FB000700000000000000000000000000000000000000
310
000000000000000000000000000000000000000000000000000000000700000000FB000000000000000000000000000000000000000000000000000000000000000001000000000400000000010000000000000000000000000000000000000000000000000000000000FB0007000000000000000000000000000000000000
310
00000000000000000000000000000000000000000000000000000000000700070000FB000000000000000000000000000000000000000000000000000000000000000007070707070707070707070101010101010101010101000000000000000000000000000000000000FB00070000000000000000000000000000000000
310
0000000000000000000000000000000000000000000000000000000000000700070000FB000000000000000000000000000000000000000000000000000000000000000007000000000400000000070000000000000000000000010000000000000000000000000000000000FB070700000000000000000000000000000000
310
000000000000000000000000000000000000000000000000000000000000000700070000FB000000000000000000000000000000000000000000000000000000000000000007000000000000000000070000000000000000000001000000000000000000000000000000000000FB0707000000000000000000000000000000
310
00000000000000000000000000000000000000000000000000000000000000000700070000FB000000000000000000000000000000000000000000000000000000000000000007000000000400000000070000000000000000000001000000000000000000000000000000000000FB07070000000000000000000000000000
310
0000000000000000000000000000000000000000000000000000000000000000000700000000FB000000000000000000000000000000000000000000000000000000000000000007000000000000000000070000000000000000000001000000000000000000000000000000000000FB070700000000000000000000000000
310
000000000000000000000000000000000000000000000000000000000000000000000700000000FB000000000000000000000000000000000000000000010101000000000000000007000000000400000000070000000000000000000101000000000000000000000000000000000000FB0007000000000000000000000000
310
00000000000000000000000000000000000000000000000000000000000000000000000700000000FB000000000000000000000000000000000000000000010101010100000000000007000000000400000000070000000000000000000101000000000000000000000000000000000000FB00070000000000000000000000
310
0000000000000000000000000000000000000000000000000000000000000000000000000700070000FB000000000000000000000000000000000000000000010101010001010000000007000000000400000000070000000000000000000001000000000000000000000000000000000000FB000700000000000000000000
310
000000000000000000000000000000000000000000000000000000000000000000000000000700070000FB000000000000000000000000000000000000000000000000000000000101000007000000000400000000070000000000000000000001000000000000000000000000000000000000FB0707000000000000000000
310
00000000000000000000000000000000000000000000000000000000000000000000000000000700070000FB000000000000000000000000000000000000000000000000000000000000010707070707070707070707070101010101010101000001000000000000000000000000000000000000FB07070000000000000000
310
0000000000000000000000000000000000000000000000000000000000000000000000000000000700070000FB000000000000000000000000000000000000000000000000000000000000010706000000000000000000060700000000010101000001000000000000000000000000000000000000FB070700000000000000
310
000000000000000000000000000000000000000000000000000000000000000000000000000000000700000000FB000000000000000000000000000000000000000000000000000000000000000707070707070707070707070700000000000101000001000000000000000000000000000000000000FB0707000000000000
310
00000000000000000000000000000000000000000000000000000000000000000000000000000000000700000000FB000000000000000000000000000000000000000000000000000000000000070707070707070707070707070701010101010101010101000000000000000000000000000000000000FB00070000000000
310
0000000000000000000000000000000000000000000000000000000000000000000000000000000000000700000000FB000000000000000101010101010101010000000000000000000000000000070000070000000400000007000007000000000000000000010000000000000000000000000000000000FB000700000000
310
000000000000000000000000000000000000000000000000000000000000000000000000000000000000000700070000FB000000000000000101000101010101010100000000000000000000000000070000070000000400000007000007000000000000000001000000000000000000000000000000000000FB0007000000
310
00000000000000000000000000000000000000000000000000000000000000000000000000000000000000000700070000FB000000000000000100000101000100000001000000000000000000000000070000070700000400000707000007000000000000000001000000000000000000000000000000000000FB07070000
310
0000000000000000000000000000000000000000000000000000000000000000000000000000000000000000000700070000FB000000000000000000000000000000000000010000000000000000000000000707070707070707070707070700000000000000000001000000000000000000000000000000000000FB070700
310
000000000000000000000000000000000000000000000000000000000000000000000000000000000000000000000700070000FB000000000000000000000000000000000000000100000000000000000000000700000000000400000000000700000000000000000001000000000000000000000000000000000000FB0707
310
00000000000000000000000000000000000000000000000000000000000000000000000000000000000000000000000700000000FB000000000000000000000000000000000000000001010000000000000007070000000000000000000000000007000000000000000001000000000000000000000000000000000000FB07
310
0700000000000000000000000000000000000000000000000000000000000000000000000000000000000000000000000700000000FB000000000000000000000000000000000000000000000100000000000707070707070707070407070707070707070700000000000001000000000000000000000000000000000000FB
310
000700000000000000000000000000000000000000000000000000000000000000000000000000000000000000000000000700000000FB000000000000000000000000000000000000000000000001000007070700000000000000000000000000000707000700000000000001000000000000000000000000000000000000
310
FB000700000000000000000000000000000000000000000000000000000000000000000000000000000000000000000000000700070000FB0000000000000001010101010101010100000000000000000107070707070707070000000004000000000007070007000000000000010000000000000000000000000000000000
310
00FB000700000000000000000000000000000000000000000000000000000000000000000000000000000000000000000000000700070000FB00000000000000000101000101000100010000000000070707010000000700000700000000040000000000070700070000000000000100000000000000000000000000000000
310
0000FB070700000000000000000000000000000000000000000000000000000000000000000000000000000000000000000000000700070000FB000000000000000000000000000000000001010007000707070701010707070707000000000400000000000707070700000000000001000000000000000000000000000000
310
000000FB070700000000000000000000000000000000000000000000000000000000000000000000000000000000000000000000000700070000FB0000000000000101010101010101010000000001070007070707070707000707070000000004000000000007070007000000000000010000000000000000000000000000
310
00000000FB070700000000000000000000000000000000000000000000000000000000000000000000000000000000000000000000000700000000FB00000000000001010101000001000000000000000100070007070707000007070700000000000000000000070700070000000000010100000000000000000000000000
310
0000000000FB070700000000000000000000000000000000000000000000000000000000000000000000000000000000000000000000000700000000FB000000000000000000000000000000000000000007000707070707070000070707000000000400000000000707000700000000000001000000000000000000000000
310
000000000000FB000700000000000000000000000000000000000000000000000000000000000000000000000000000000000000000000000700000000FB0000000000000000000000000000000000000000010707000707000707070707070707070707070707070707070707070000000000010000000000000000000000
310
00000000000000FB000700000000000000000000000000000000000000000000000000000000000000000000000000000000000000000000000700070000FB00000000000000000000000000000000000000000100070707070707070707070707070707040707070707070707070700000000000100000000000000000000
310
0000000000000000FB000700000000000000000000000000000000000000000000000000000000000000000000000000000000000000000000000700070000FB000000000000000000000000000000000000000001000000000000070000000000000000000400000000000000000007000000000001000000000000000000
310
000000000000000000FB070700000000000000000000000000000000000000000000000000000000000000000000000000000000000000000000000700070000FB0000000000000000000000000000000000000000010000000000000700000000000000000004000000000000000000070000000000010000000000000000
310
00000000000000000000FB070700000000000000000000000000000000000000000000000000000000000000000000000000000000000000000000000700070000FB00000000000000000000000000000000000000000100000000000007000000000000000000040000000000000000000700000000000100000000000000
310
0000000000000000000000FB070700000000000000000000000000000000000000000000000000000000000000000000000000000000000000000000000700000000FB000000000000000000000000000000000000000001000000000000070000000000000000000400000000000000000007000000000001000000000000
310
000000000000000000000000FB070700000000000000000000000000000000000000000000000000000000000000000000000000000000000000000000000700000000FB0000000000000000000000000000000000000000010000000000000700000000000000000000000000000000000000070000000000010000000000
310
00000000000000000000000000FB000700000000000000000000000000000000000000000000000000000000000000000000000000000000000000000000000700000000FB00000000000000000000000000000000000000000100000000000007070707070707070707040707070707070707070700000000000100000000
310
0000000000000000000000000000FB000700000000000000000000000000000000000000000000000000000000000000000000000000000000000000000000000700000000FB000000000000000000000000000000000000000000000000000000000007070007070000070000000007070007070000000000000001000000
310
000000000000000000000000000000FB000700000000000000000000000000000000000000000000000000000000000000
  0
ENDSEC
  0
EOF
