  0
SECTION
  2
HEADER
  9
$ACADVER
  1
AC1018
  9
$ACADMAINTVER
 70
     0
  9
$DWGCODEPAGE
  3
ANSI_932
  9
$LASTSAVEDBY
  1
y-ohno
  9
$INSBASE
 10
0.0
 20
0.0
 30
0.0
  9
$EXTMIN
 10
-73.895454842556
 20
87.082463062443
 30
0.0
  9
$EXTMAX
 10
542.16315629384
 20
501.566094199125
 30
0.0
  9
$LIMMIN
 10
-360.747566795242
 20
4.457354754526
  9
$LIMMAX
 10
-162.153696144267
 20
287.675440264018
  9
$ORTHOMODE
 70
     0
  9
$REGENMODE
 70
     1
  9
$FILLMODE
 70
     1
  9
$QTEXTMODE
 70
     0
  9
$MIRRTEXT
 70
     1
  9
$LTSCALE
 40
1.0
  9
$ATTMODE
 70
     1
  9
$TEXTSIZE
 40
2.333873885063
  9
$TRACEWID
 40
1.0
  9
$TEXTSTYLE
  7
STANDARD
  9
$CLAYER
  8
寸法線
  9
$CELTYPE
  6
BYLAYER
  9
$CECOLOR
 62
     1
  9
$CELTSCALE
 40
10.0
  9
$DISPSILH
 70
     0
  9
$DIMSCALE
 40
1.0
  9
$DIMASZ
 40
6.0
  9
$DIMEXO
 40
0.625
  9
$DIMDLI
 40
3.75
  9
$DIMRND
 40
0.0
  9
$DIMDLE
 40
0.0
  9
$DIMEXE
 40
1.25
  9
$DIMTP
 40
0.1
  9
$DIMTM
 40
0.1
  9
$DIMTXT
 40
8.0
  9
$DIMCEN
 40
2.5
  9
$DIMTSZ
 40
0.0
  9
$DIMTOL
 70
     0
  9
$DIMLIM
 70
     0
  9
$DIMTIH
 70
     0
  9
$DIMTOH
 70
     0
  9
$DIMSE1
 70
     0
  9
$DIMSE2
 70
     0
  9
$DIMTAD
 70
     1
  9
$DIMZIN
 70
     8
  9
$DIMBLK
  1
Open30
  9
$DIMASO
 70
     1
  9
$DIMSHO
 70
     1
  9
$DIMPOST
  1

  9
$DIMAPOST
  1

  9
$DIMALT
 70
     0
  9
$DIMALTD
 70
     2
  9
$DIMALTF
 40
0.0394
  9
$DIMLFAC
 40
1.0
  9
$DIMTOFL
 70
     1
  9
$DIMTVP
 40
1.0
  9
$DIMTIX
 70
     0
  9
$DIMSOXD
 70
     0
  9
$DIMSAH
 70
     0
  9
$DIMBLK1
  1

  9
$DIMBLK2
  1

  9
$DIMSTYLE
  2
ISO-25
  9
$DIMCLRD
 70
     0
  9
$DIMCLRE
 70
     0
  9
$DIMCLRT
 70
     0
  9
$DIMTFAC
 40
1.0
  9
$DIMGAP
 40
0.625
  9
$DIMJUST
 70
     0
  9
$DIMSD1
 70
     0
  9
$DIMSD2
 70
     0
  9
$DIMTOLJ
 70
     1
  9
$DIMTZIN
 70
     0
  9
$DIMALTZ
 70
     0
  9
$DIMALTTZ
 70
     0
  9
$DIMUPT
 70
     0
  9
$DIMDEC
 70
     1
  9
$DIMTDEC
 70
     1
  9
$DIMALTU
 70
     2
  9
$DIMALTTD
 70
     2
  9
$DIMTXSTY
  7
STANDARD
  9
$DIMAUNIT
 70
     0
  9
$DIMADEC
 70
     0
  9
$DIMALTRND
 40
0.0
  9
$DIMAZIN
 70
     0
  9
$DIMDSEP
 70
    46
  9
$DIMATFIT
 70
     3
  9
$DIMFRAC
 70
     0
  9
$DIMLDRBLK
  1
Open30
  9
$DIMLUNIT
 70
     2
  9
$DIMLWD
 70
    -2
  9
$DIMLWE
 70
    -2
  9
$DIMTMOVE
 70
     0
  9
$LUNITS
 70
     2
  9
$LUPREC
 70
     4
  9
$SKETCHINC
 40
1.0
  9
$FILLETRAD
 40
6.5
  9
$AUNITS
 70
     0
  9
$AUPREC
 70
     0
  9
$MENU
  1
.
  9
$ELEVATION
 40
0.0
  9
$PELEVATION
 40
0.0
  9
$THICKNESS
 40
0.0
  9
$LIMCHECK
 70
     0
  9
$CHAMFERA
 40
10.0
  9
$CHAMFERB
 40
10.0
  9
$CHAMFERC
 40
20.0
  9
$CHAMFERD
 40
0.0
  9
$SKPOLY
 70
     0
  9
$TDCREATE
 40
2450576.597302431
  9
$TDUCREATE
 40
2450576.222302431
  9
$TDUPDATE
 40
2457452.46846206
  9
$TDUUPDATE
 40
2457452.09346206
  9
$TDINDWG
 40
1.1932401736
  9
$TDUSRTIMER
 40
1.1932401736
  9
$USRTIMER
 70
     1
  9
$ANGBASE
 50
0.0
  9
$ANGDIR
 70
     0
  9
$PDMODE
 70
     0
  9
$PDSIZE
 40
0.0
  9
$PLINEWID
 40
0.0
  9
$SPLFRAME
 70
     0
  9
$SPLINETYPE
 70
     6
  9
$SPLINESEGS
 70
     8
  9
$HANDSEED
  5
4E01
  9
$SURFTAB1
 70
     6
  9
$SURFTAB2
 70
     6
  9
$SURFTYPE
 70
     6
  9
$SURFU
 70
     6
  9
$SURFV
 70
     6
  9
$UCSBASE
  2

  9
$UCSNAME
  2

  9
$UCSORG
 10
0.0
 20
0.0
 30
0.0
  9
$UCSXDIR
 10
1.0
 20
0.0
 30
0.0
  9
$UCSYDIR
 10
0.0
 20
1.0
 30
0.0
  9
$UCSORTHOREF
  2

  9
$UCSORTHOVIEW
 70
     0
  9
$UCSORGTOP
 10
0.0
 20
0.0
 30
0.0
  9
$UCSORGBOTTOM
 10
0.0
 20
0.0
 30
0.0
  9
$UCSORGLEFT
 10
0.0
 20
0.0
 30
0.0
  9
$UCSORGRIGHT
 10
0.0
 20
0.0
 30
0.0
  9
$UCSORGFRONT
 10
0.0
 20
0.0
 30
0.0
  9
$UCSORGBACK
 10
0.0
 20
0.0
 30
0.0
  9
$PUCSBASE
  2

  9
$PUCSNAME
  2

  9
$PUCSORG
 10
0.0
 20
0.0
 30
0.0
  9
$PUCSXDIR
 10
1.0
 20
0.0
 30
0.0
  9
$PUCSYDIR
 10
0.0
 20
1.0
 30
0.0
  9
$PUCSORTHOREF
  2

  9
$PUCSORTHOVIEW
 70
     0
  9
$PUCSORGTOP
 10
0.0
 20
0.0
 30
0.0
  9
$PUCSORGBOTTOM
 10
0.0
 20
0.0
 30
0.0
  9
$PUCSORGLEFT
 10
0.0
 20
0.0
 30
0.0
  9
$PUCSORGRIGHT
 10
0.0
 20
0.0
 30
0.0
  9
$PUCSORGFRONT
 10
0.0
 20
0.0
 30
0.0
  9
$PUCSORGBACK
 10
0.0
 20
0.0
 30
0.0
  9
$USERI1
 70
     0
  9
$USERI2
 70
     0
  9
$USERI3
 70
     0
  9
$USERI4
 70
     0
  9
$USERI5
 70
     0
  9
$USERR1
 40
0.0
  9
$USERR2
 40
0.0
  9
$USERR3
 40
0.0
  9
$USERR4
 40
0.0
  9
$USERR5
 40
0.0
  9
$WORLDVIEW
 70
     1
  9
$SHADEDGE
 70
     3
  9
$SHADEDIF
 70
    70
  9
$TILEMODE
 70
     0
  9
$MAXACTVP
 70
    16
  9
$PINSBASE
 10
0.0
 20
0.0
 30
0.0
  9
$PLIMCHECK
 70
     0
  9
$PEXTMIN
 10
4.746305129083
 20
3.137385422292
 30
0.0
  9
$PEXTMAX
 10
404.746305129083
 20
283.137385422292
 30
0.0
  9
$PLIMMIN
 10
-7.007122192383
 20
-7.007118782997
  9
$PLIMMAX
 10
417.718108215332
 20
293.315290427208
  9
$UNITMODE
 70
     0
  9
$VISRETAIN
 70
     0
  9
$PLINEGEN
 70
     0
  9
$PSLTSCALE
 70
     1
  9
$TREEDEPTH
 70
  3020
  9
$CMLSTYLE
  2
STANDARD
  9
$CMLJUST
 70
     0
  9
$CMLSCALE
 40
1.0
  9
$PROXYGRAPHICS
 70
     1
  9
$MEASUREMENT
 70
     1
  9
$CELWEIGHT
370
    -1
  9
$ENDCAPS
280
     0
  9
$JOINSTYLE
280
     0
  9
$LWDISPLAY
290
     0
  9
$INSUNITS
 70
     0
  9
$HYPERLINKBASE
  1

  9
$STYLESHEET
  1

  9
$XEDIT
290
     1
  9
$CEPSNTYPE
380
     0
  9
$PSTYLEMODE
290
     1
  9
$FINGERPRINTGUID
  2
{23698909-1D67-4744-B0E2-8DE11E3ED422}
  9
$VERSIONGUID
  2
{5B9D289E-86F5-4984-8864-977A2F81B4D2}
  9
$EXTNAMES
290
     1
  9
$PSVPSCALE
 40
0.25
  9
$OLESTARTUP
290
     0
  9
$SORTENTS
280
   127
  9
$INDEXCTL
280
     0
  9
$HIDETEXT
280
     0
  9
$XCLIPFRAME
290
     0
  9
$HALOGAP
280
     0
  9
$OBSCOLOR
 70
   257
  9
$OBSLTYPE
280
     0
  9
$INTERSECTIONDISPLAY
280
     0
  9
$INTERSECTIONCOLOR
 70
   257
  9
$DIMASSOC
280
     1
  9
$PROJECTNAME
  1

  0
ENDSEC
  0
SECTION
  2
CLASSES
  0
CLASS
  1
ACDBDICTIONARYWDFLT
  2
AcDbDictionaryWithDefault
  3
ObjectDBX Classes
 90
        0
 91
        5
280
     0
281
     0
  0
CLASS
  1
ACDBPLACEHOLDER
  2
AcDbPlaceHolder
  3
ObjectDBX Classes
 90
        0
 91
        1
280
     0
281
     0
  0
CLASS
  1
LAYOUT
  2
AcDbLayout
  3
ObjectDBX Classes
 90
        0
 91
        1
280
     0
281
     0
  0
CLASS
  1
DIMASSOC
  2
AcDbDimAssoc
  3
"AcDbDimAssoc|Product Desc:     AcDim ARX App For Dimension|Company:          Autodesk, Inc.|WEB Address:      www.autodesk.com"
 90
        0
 91
        4
280
     0
281
     0
  0
CLASS
  1
VISUALSTYLE
  2
AcDbVisualStyle
  3
ObjectDBX Classes
 90
     4095
 91
        5
280
     0
281
     0
  0
CLASS
  1
SCALE
  2
AcDbScale
  3
ObjectDBX Classes
 90
     1153
 91
        5
280
     0
281
     0
  0
CLASS
  1
MATERIAL
  2
AcDbMaterial
  3
ObjectDBX Classes
 90
     1153
 91
        5
280
     0
281
     0
  0
CLASS
  1
TABLESTYLE
  2
AcDbTableStyle
  3
ObjectDBX Classes
 90
     4095
 91
        5
280
     0
281
     0
  0
CLASS
  1
MLEADERSTYLE
  2
AcDbMLeaderStyle
  3
ACDB_MLEADERSTYLE_CLASS
 90
     4095
 91
        5
280
     0
281
     0
  0
CLASS
  1
SUN
  2
AcDbSun
  3
SCENEOE
 90
     1153
 91
        5
280
     0
281
     0
  0
CLASS
  1
DICTIONARYVAR
  2
AcDbDictionaryVar
  3
ObjectDBX Classes
 90
        0
 91
        4
280
     0
281
     0
  0
CLASS
  1
CELLSTYLEMAP
  2
AcDbCellStyleMap
  3
ObjectDBX Classes
 90
     1152
 91
        4
280
     0
281
     0
  0
ENDSEC
  0
SECTION
  2
TABLES
  0
TABLE
  2
VPORT
  5
8
102
{ACAD_XDICTIONARY
360
4DC1
102
}
330
0
100
AcDbSymbolTable
 70
     1
  0
VPORT
  5
463A
330
8
100
AcDbSymbolTableRecord
100
AcDbViewportTableRecord
  2
*Active
 70
     0
 10
0.0
 20
0.0
 11
1.0
 21
1.0
 12
339.481134973846
 22
189.777560373383
 13
0.0
 23
0.0
 14
1.0
 24
1.0
 15
0.0
 25
0.0
 16
0.0
 26
0.0
 36
1.0
 17
0.0
 27
0.0
 37
0.0
 40
632.922282650277
 41
1.392991239049
 42
50.0
 43
0.0
 44
0.0
 50
0.0
 51
0.0
 71
    16
 72
   100
 73
     1
 74
     0
 75
     0
 76
     0
 77
     0
 78
     0
281
     0
 65
     1
110
0.0
120
0.0
130
0.0
111
1.0
121
0.0
131
0.0
112
0.0
122
1.0
132
0.0
 79
     0
146
0.0
  0
ENDTAB
  0
TABLE
  2
LTYPE
  5
5
330
0
100
AcDbSymbolTable
 70
     4
  0
LTYPE
  5
14
330
5
100
AcDbSymbolTableRecord
100
AcDbLinetypeTableRecord
  2
BYBLOCK
 70
     0
  3

 72
    65
 73
     0
 40
0.0
  0
LTYPE
  5
15
330
5
100
AcDbSymbolTableRecord
100
AcDbLinetypeTableRecord
  2
BYLAYER
 70
     0
  3

 72
    65
 73
     0
 40
0.0
  0
LTYPE
  5
16
330
5
100
AcDbSymbolTableRecord
100
AcDbLinetypeTableRecord
  2
CONTINUOUS
 70
     0
  3
Solid line
 72
    65
 73
     0
 40
0.0
  0
LTYPE
  5
1EC
330
5
100
AcDbSymbolTableRecord
100
AcDbLinetypeTableRecord
  2
CENTER
 70
     0
  3
____ _ ____ _ ____ _ ____ _ ____ _ ____ _ ____ 
 72
    65
 73
     4
 40
2.0
 49
1.25
 74
     0
 49
-0.25
 74
     0
 49
0.25
 74
     0
 49
-0.25
 74
     0
  0
LTYPE
  5
1ED
330
5
100
AcDbSymbolTableRecord
100
AcDbLinetypeTableRecord
  2
DASHED
 70
     0
  3
__ __ __ __ __ __ __ __ __ __ __ __ __ __ __ __
 72
    65
 73
     2
 40
0.75
 49
0.5
 74
     0
 49
-0.25
 74
     0
  0
LTYPE
  5
3BD7
330
5
100
AcDbSymbolTableRecord
100
AcDbLinetypeTableRecord
  2
CENTER2
 70
     0
  3
Center (.5x) ___ _ ___ _ ___ _ ___ _ ___ _ ___
 72
    65
 73
     4
 40
28.575
 49
19.05
 74
     0
 49
-3.175
 74
     0
 49
3.175
 74
     0
 49
-3.175
 74
     0
  0
ENDTAB
  0
TABLE
  2
LAYER
  5
2
102
{ACAD_XDICTIONARY
360
29EA
102
}
330
0
100
AcDbSymbolTable
 70
    11
  0
LAYER
  5
F
330
2
100
AcDbSymbolTableRecord
100
AcDbLayerTableRecord
  2
0
 70
     0
 62
     7
  6
CONTINUOUS
370
    -3
390
2815
  0
LAYER
  5
61
330
2
100
AcDbSymbolTableRecord
100
AcDbLayerTableRecord
  2
図枠太線
 70
     0
 62
   251
  6
CONTINUOUS
370
    -3
390
2815
  0
LAYER
  5
62
330
2
100
AcDbSymbolTableRecord
100
AcDbLayerTableRecord
  2
図枠細線
 70
     0
 62
   252
  6
CONTINUOUS
370
    -3
390
2815
  0
LAYER
  5
63
330
2
100
AcDbSymbolTableRecord
100
AcDbLayerTableRecord
  2
図枠ロゴマーク
 70
     0
 62
   253
  6
CONTINUOUS
370
    -3
390
2815
  0
LAYER
  5
1EF
330
2
100
AcDbSymbolTableRecord
100
AcDbLayerTableRecord
  2
外形線
 70
     0
 62
     7
  6
CONTINUOUS
370
    -3
390
2815
  0
LAYER
  5
1F0
330
2
100
AcDbSymbolTableRecord
100
AcDbLayerTableRecord
  2
寸法線
 70
     0
 62
     1
  6
CONTINUOUS
370
    -3
390
2815
  0
LAYER
  5
1F1
330
2
100
AcDbSymbolTableRecord
100
AcDbLayerTableRecord
  2
中心線
 70
     0
 62
     4
  6
CENTER
370
    -3
390
2815
  0
LAYER
  5
1F4
330
2
100
AcDbSymbolTableRecord
100
AcDbLayerTableRecord
  2
DEFPOINTS
 70
     0
 62
     7
  6
CONTINUOUS
290
     0
370
    -3
390
2815
  0
LAYER
  5
2AA2
330
2
100
AcDbSymbolTableRecord
100
AcDbLayerTableRecord
  2
下書線
 70
     0
 62
     2
  6
CONTINUOUS
290
     0
370
    -3
390
2815
  0
LAYER
  5
2AA4
330
2
100
AcDbSymbolTableRecord
100
AcDbLayerTableRecord
  2
細線
 70
     0
 62
     6
  6
CONTINUOUS
370
    -3
390
2815
  0
LAYER
  5
3BD8
330
2
100
AcDbSymbolTableRecord
100
AcDbLayerTableRecord
  2
寸法線・文字
 70
     0
 62
     1
  6
CONTINUOUS
370
    -3
390
2815
  0
ENDTAB
  0
TABLE
  2
STYLE
  5
3
330
0
100
AcDbSymbolTable
 70
     3
  0
STYLE
  5
10
330
3
100
AcDbSymbolTableRecord
100
AcDbTextStyleTableRecord
  2
STANDARD
 70
     0
 40
0.0
 41
1.0
 50
0.0
 71
     0
 42
2.333873885063
  3
ISOCP
  4
bigfont.shx
  0
STYLE
  5
64
330
3
100
AcDbSymbolTableRecord
100
AcDbTextStyleTableRecord
  2
EXCADSTD
 70
     0
 40
0.0
 41
1.0
 50
0.0
 71
     0
 42
0.2
  3
monotxt
  4
bigfont
  0
STYLE
  5
2B21
330
3
100
AcDbSymbolTableRecord
100
AcDbTextStyleTableRecord
  2
EXCADVERT
 70
     4
 40
0.0
 41
1.0
 50
0.0
 71
     0
 42
0.286885
  3
monotxt
  4
bigfont
  0
ENDTAB
  0
TABLE
  2
VIEW
  5
6
330
0
100
AcDbSymbolTable
 70
     0
  0
ENDTAB
  0
TABLE
  2
UCS
  5
7
330
0
100
AcDbSymbolTable
 70
     0
  0
ENDTAB
  0
TABLE
  2
APPID
  5
9
330
0
100
AcDbSymbolTable
 70
     3
  0
APPID
  5
11
330
9
100
AcDbSymbolTableRecord
100
AcDbRegAppTableRecord
  2
ACAD
 70
     0
  0
APPID
  5
4693
330
9
100
AcDbSymbolTableRecord
100
AcDbRegAppTableRecord
  2
AcadAnnotative
 70
     0
  0
APPID
  5
46EE
330
9
100
AcDbSymbolTableRecord
100
AcDbRegAppTableRecord
  2
ACAD_MLEADERVER
 70
     0
  0
ENDTAB
  0
TABLE
  2
DIMSTYLE
  5
A
330
0
100
AcDbSymbolTable
 70
     2
100
AcDbDimStyleTable
  0
DIMSTYLE
105
1D
330
A
100
AcDbSymbolTableRecord
100
AcDbDimStyleTableRecord
  2
STANDARD
 70
     0
178
     0
340
10
  0
DIMSTYLE
105
24
102
{ACAD_REACTORS
330
372D
330
379C
330
379D
330
379E
330
379F
330
37A2
330
37A3
330
37A4
330
37B0
330
427A
330
45B9
330
45D3
102
}
330
A
100
AcDbSymbolTableRecord
100
AcDbDimStyleTableRecord
  2
ISO-25
 70
     0
 41
2.5
 42
0.625
 43
3.75
 44
1.25
 74
     0
 77
     1
 78
     8
140
2.5
141
2.5
143
0.0394
145
1.0
147
0.625
172
     1
178
     0
340
10
  0
ENDTAB
  0
TABLE
  2
BLOCK_RECORD
  5
1
330
0
100
AcDbSymbolTable
 70
    27
  0
BLOCK_RECORD
  5
1A
330
1
100
AcDbSymbolTableRecord
100
AcDbBlockTableRecord
  2
*MODEL_SPACE
340
2818
  0
BLOCK_RECORD
  5
28FB
330
1
100
AcDbSymbolTableRecord
100
AcDbBlockTableRecord
  2
*Paper_Space
340
28FC
  0
BLOCK_RECORD
  5
2A32
330
1
100
AcDbSymbolTableRecord
100
AcDbBlockTableRecord
  2
A3横用　タイトル
340
0
310
2800000020000000200000000100080000000000000400000000000000000000000000000000000000000000000080000080000000808000800000008000800080800000C0C0C000C0DCC000F0CAA6000020400000206000002080000020A0000020C0000020E00000400000004020000040400000406000004080000040A0
310
000040C0000040E00000600000006020000060400000606000006080000060A0000060C0000060E00000800000008020000080400000806000008080000080A0000080C0000080E00000A0000000A0200000A0400000A0600000A0800000A0A00000A0C00000A0E00000C0000000C0200000C0400000C0600000C0800000C0
310
A00000C0C00000C0E00000E0000000E0200000E0400000E0600000E0800000E0A00000E0C00000E0E00040000000400020004000400040006000400080004000A0004000C0004000E00040200000402020004020400040206000402080004020A0004020C0004020E000404000004040200040404000404060004040800040
310
40A0004040C0004040E00040600000406020004060400040606000406080004060A0004060C0004060E00040800000408020004080400040806000408080004080A0004080C0004080E00040A0000040A0200040A0400040A0600040A0800040A0A00040A0C00040A0E00040C0000040C0200040C0400040C0600040C08000
310
40C0A00040C0C00040C0E00040E0000040E0200040E0400040E0600040E0800040E0A00040E0C00040E0E00080000000800020008000400080006000800080008000A0008000C0008000E00080200000802020008020400080206000802080008020A0008020C0008020E00080400000804020008040400080406000804080
310
008040A0008040C0008040E00080600000806020008060400080606000806080008060A0008060C0008060E00080800000808020008080400080806000808080008080A0008080C0008080E00080A0000080A0200080A0400080A0600080A0800080A0A00080A0C00080A0E00080C0000080C0200080C0400080C0600080C0
310
800080C0A00080C0C00080C0E00080E0000080E0200080E0400080E0600080E0800080E0A00080E0C00080E0E000C0000000C0002000C0004000C0006000C0008000C000A000C000C000C000E000C0200000C0202000C0204000C0206000C0208000C020A000C020C000C020E000C0400000C0402000C0404000C0406000C0
310
408000C040A000C040C000C040E000C0600000C0602000C0604000C0606000C0608000C060A000C060C000C060E000C0800000C0802000C0804000C0806000C0808000C080A000C080C000C080E000C0A00000C0A02000C0A04000C0A06000C0A08000C0A0A000C0A0C000C0A0E000C0C00000C0C02000C0C04000C0C06000
310
C0C08000C0C0A000F0FBFF00A4A0A000808080000000FF0000FF000000FFFF00FF000000FF00FF00FFFF0000FFFFFF0000000000000000000000000000000000000000000000000000000000000000000000000000000000000000000000000000000000000000000000000000000000000000000000000000000000000000
310
00000000000000000000000000000000000000000000000000000000000000000000000000000000000000000000000000000000000000000000000000000000000000000000000000000000000000000000000000000000000000000000000000000000000000000000000000000000000000000000000000000000000000
310
00000000000000000000000000000000000000000000000000000000000000000000000000000000000000000000000000000000000000000000000000000000000000000000000000000000000000000000000000000000000000000000000000000000000000000000000000000000000000000000000000000000000000
310
00000000000000000000000000000000000000000000000000000000000000000000000000000000000000000000000000000000000000000000000000000000000000000000000000000000000000000000000000000000000000000000000000000000000000000000000000000000000000005B5B5B5B5B5B5B5B5B5BA4
310
5BA45B5BA4A4A4A4A4A4A45B5B5B5B5B5B5B5B00005BA4A4A4A4A4A45BA4A4A4A4A4A45BA4A4A4A4A4A4A45BA400000000005B00005BA4A4A4A4A4A45BA4A4A4A4A4A45B5B5B5B5B5B5B5B5BA4A4A4A4A4A45B00005BA4A4A40000005BA4A4A4A4A4A45B000000000000005BA400000000005B000000000000000000000000
310
00000000000000000000000000000000000000000000000000000000000000000000000000000000000000000000000000000000000000000000000000000000000000000000000000000000000000000000000000000000000000000000000000000000000000000000000000000000000000000000000000000000000000
310
00000000000000000000000000000000000000000000000000000000000000000000000000000000000000000000000000000000000000000000000000000000000000000000000000000000000000000000000000000000000000000000000000000000000000000000000000000000000000000000000000000000000000
310
00000000000000000000000000000000000000000000000000000000000000000000000000000000000000000000000000000000000000000000000000000000000000000000000000000000000000000000000000000000000000000000000000000000000000000000000000000000000000000000000000000000000000
310
0000000000000000000000000000000000000000000000000000000000000000000000000000000000000000000000000000000000000000
102
{BLKREFS
331
2A59
102
}
1001
ACAD
1000
DesignCenter Data
1002
{
1070
     1
1070
     4
1002
}
  0
BLOCK_RECORD
  5
2AF4
330
1
100
AcDbSymbolTableRecord
100
AcDbBlockTableRecord
  2
_Open30
340
0
102
{BLKREFS
331
2E7F
331
2E80
331
45FD
331
45FE
331
4582
331
4583
331
4578
331
4579
331
456F
331
4570
331
4566
331
4567
331
455D
331
455E
331
4552
331
4553
331
4549
331
454A
331
452E
331
452F
331
4523
331
4524
331
45CF
331
45D0
331
45E9
331
45EA
102
}
  0
BLOCK_RECORD
  5
2E7A
330
1
100
AcDbSymbolTableRecord
100
AcDbBlockTableRecord
  2
*D2
340
0
  0
BLOCK_RECORD
  5
2E86
330
1
100
AcDbSymbolTableRecord
100
AcDbBlockTableRecord
  2
ケース外形図　PRL-500N
340
0
310
2800000020000000200000000100080000000000000400000000000000000000000000000000000000000000000080000080000000808000800000008000800080800000C0C0C000C0DCC000F0CAA6000020400000206000002080000020A0000020C0000020E00000400000004020000040400000406000004080000040A0
310
000040C0000040E00000600000006020000060400000606000006080000060A0000060C0000060E00000800000008020000080400000806000008080000080A0000080C0000080E00000A0000000A0200000A0400000A0600000A0800000A0A00000A0C00000A0E00000C0000000C0200000C0400000C0600000C0800000C0
310
A00000C0C00000C0E00000E0000000E0200000E0400000E0600000E0800000E0A00000E0C00000E0E00040000000400020004000400040006000400080004000A0004000C0004000E00040200000402020004020400040206000402080004020A0004020C0004020E000404000004040200040404000404060004040800040
310
40A0004040C0004040E00040600000406020004060400040606000406080004060A0004060C0004060E00040800000408020004080400040806000408080004080A0004080C0004080E00040A0000040A0200040A0400040A0600040A0800040A0A00040A0C00040A0E00040C0000040C0200040C0400040C0600040C08000
310
40C0A00040C0C00040C0E00040E0000040E0200040E0400040E0600040E0800040E0A00040E0C00040E0E00080000000800020008000400080006000800080008000A0008000C0008000E00080200000802020008020400080206000802080008020A0008020C0008020E00080400000804020008040400080406000804080
310
008040A0008040C0008040E00080600000806020008060400080606000806080008060A0008060C0008060E00080800000808020008080400080806000808080008080A0008080C0008080E00080A0000080A0200080A0400080A0600080A0800080A0A00080A0C00080A0E00080C0000080C0200080C0400080C0600080C0
310
800080C0A00080C0C00080C0E00080E0000080E0200080E0400080E0600080E0800080E0A00080E0C00080E0E000C0000000C0002000C0004000C0006000C0008000C000A000C000C000C000E000C0200000C0202000C0204000C0206000C0208000C020A000C020C000C020E000C0400000C0402000C0404000C0406000C0
310
408000C040A000C040C000C040E000C0600000C0602000C0604000C0606000C0608000C060A000C060C000C060E000C0800000C0802000C0804000C0806000C0808000C080A000C080C000C080E000C0A00000C0A02000C0A04000C0A06000C0A08000C0A0A000C0A0C000C0A0E000C0C00000C0C02000C0C04000C0C06000
310
C0C08000C0C0A000F0FBFF00A4A0A000808080000000FF0000FF000000FFFF00FF000000FF00FF00FFFF0000FFFFFF0000000000000000000000000000000000000000000000000000000000000000000000000000000000000000000000000000000000000000000000000000000000000000000000000000000000000000
310
00000000000000000000000000000000000000000000000000000000000000000000FE000000000000000000000000000000000000000000FFFF000000000000FFFDFDFDFF00000000000000000000000000000000000000FFFF000000000000FFFFFEFFFF000000000000000000000000000000000000FEFEFEFE00000000
310
00FFFFFEFFFF00000000000000000000000000000000000000FFFF000000000000FF00FE00FF00000000000000000000000000000000000000FFFF000000000000FF00FE00FDFFFFFFFFFF0000000000000000000000000000FFFF00000000FFFFFFFDFEFDFDFFFFFFFD00FFFFFFFF00000000000000000000FFFF00000000
310
FF000000FE00FDFF0000FD00000000FF00000000000000000000FFFF000000FFFD000000FE00FDFFFFFFFD00000000FFFF000000FFFFFFFFFFFFF9FFFFFFFF00FD0000000000FDFFFFFFFD00000000FFFFFF0000FF00F9F9F900FFFF0000FD00FD0000000000FDFF0000FD00000000FF00FF0000FF00F9F90000FFFF0000FD
310
00FD0000000000FDFF0000FD00000000FF00FF0000FF0000F90000FFFF0000FD00FD0000000000FDFFFFFFFD00000000FFFFFF0000FF0000F90000FFFF0000FD00FD0000000000FDFFFFFFFD00000000FFFF000000FF00F9F90000FFFF0000FD00FD0000000000FDFF0000FD00000000FF00FF0000FF0000F90000FFFF0000
310
FD00FD0000000000FDFF0000FD00000000FF00FF0000FFFFFFF90000FFFF0000FD00FD0000000000FDFFFFFFFD00000000FF00FF0000000000FFFFFFFFFFFFFFFF00FD0000000000FDFF0000FF00000000FFFF0000000000F9F9F9F9FFFF000000FFFD0000000000FDFFFFFFFF00000000FFFF0000000000F9F90000FFFF00
310
000000FF0000000000FDFFFFFFFF00000000FF00000000000000000000FFFF00000000FFFFFFFFFFFFFFFFFFFFFDFFFFFFFF0000000000000000000000FFFF00000000000000000000FFFFFFFFFD000000000000000000000000000000FFFF0000000000000000000000000000000000000000000000000000000000FEFEFE
310
FE0000000000000000000000000000000000000000000000000000000000FFFF000000000000000000000000000000000000000000000000000000000000FFFF000000000000000000000000000000000000000000000000000000000000000000000000000000000000000000000000000000000000000000000000000000
310
0000000000000000000000000000000000000000000000000000000000000000000000000000000000000000000000000000000000000000
  0
BLOCK_RECORD
  5
2F2A
330
1
100
AcDbSymbolTableRecord
100
AcDbBlockTableRecord
  2
A$C5F435AFC
340
0
102
{BLKREFS
331
37C6
102
}
  0
BLOCK_RECORD
  5
2F6C
330
1
100
AcDbSymbolTableRecord
100
AcDbBlockTableRecord
  2
A$C2AA85C5D
340
0
102
{BLKREFS
331
37B7
102
}
  0
BLOCK_RECORD
  5
37C7
330
1
100
AcDbSymbolTableRecord
100
AcDbBlockTableRecord
  2
*D6
340
0
  0
BLOCK_RECORD
  5
37DD
330
1
100
AcDbSymbolTableRecord
100
AcDbBlockTableRecord
  2
*D7
340
0
  0
BLOCK_RECORD
  5
37EA
330
1
100
AcDbSymbolTableRecord
100
AcDbBlockTableRecord
  2
*D8
340
0
  0
BLOCK_RECORD
  5
37F6
330
1
100
AcDbSymbolTableRecord
100
AcDbBlockTableRecord
  2
*D9
340
0
  0
BLOCK_RECORD
  5
3802
330
1
100
AcDbSymbolTableRecord
100
AcDbBlockTableRecord
  2
*D10
340
0
  0
BLOCK_RECORD
  5
3826
330
1
100
AcDbSymbolTableRecord
100
AcDbBlockTableRecord
  2
*D11
340
0
  0
BLOCK_RECORD
  5
3834
330
1
100
AcDbSymbolTableRecord
100
AcDbBlockTableRecord
  2
*D12
340
0
  0
BLOCK_RECORD
  5
3840
330
1
100
AcDbSymbolTableRecord
100
AcDbBlockTableRecord
  2
*D13
340
0
  0
BLOCK_RECORD
  5
3864
330
1
100
AcDbSymbolTableRecord
100
AcDbBlockTableRecord
  2
*D14
340
0
  0
BLOCK_RECORD
  5
3A01
330
1
100
AcDbSymbolTableRecord
100
AcDbBlockTableRecord
  2
A$C025D1C44
340
0
  0
BLOCK_RECORD
  5
3A1E
330
1
100
AcDbSymbolTableRecord
100
AcDbBlockTableRecord
  2
_DotSmall
340
0
  0
BLOCK_RECORD
  5
40B4
330
1
100
AcDbSymbolTableRecord
100
AcDbBlockTableRecord
  2
パドル　W1
340
0
310
2800000020000000200000000100080000000000000400000000000000000000000000000000000000000000000080000080000000808000800000008000800080800000C0C0C000C0DCC000F0CAA6000020400000206000002080000020A0000020C0000020E00000400000004020000040400000406000004080000040A0
310
000040C0000040E00000600000006020000060400000606000006080000060A0000060C0000060E00000800000008020000080400000806000008080000080A0000080C0000080E00000A0000000A0200000A0400000A0600000A0800000A0A00000A0C00000A0E00000C0000000C0200000C0400000C0600000C0800000C0
310
A00000C0C00000C0E00000E0000000E0200000E0400000E0600000E0800000E0A00000E0C00000E0E00040000000400020004000400040006000400080004000A0004000C0004000E00040200000402020004020400040206000402080004020A0004020C0004020E000404000004040200040404000404060004040800040
310
40A0004040C0004040E00040600000406020004060400040606000406080004060A0004060C0004060E00040800000408020004080400040806000408080004080A0004080C0004080E00040A0000040A0200040A0400040A0600040A0800040A0A00040A0C00040A0E00040C0000040C0200040C0400040C0600040C08000
310
40C0A00040C0C00040C0E00040E0000040E0200040E0400040E0600040E0800040E0A00040E0C00040E0E00080000000800020008000400080006000800080008000A0008000C0008000E00080200000802020008020400080206000802080008020A0008020C0008020E00080400000804020008040400080406000804080
310
008040A0008040C0008040E00080600000806020008060400080606000806080008060A0008060C0008060E00080800000808020008080400080806000808080008080A0008080C0008080E00080A0000080A0200080A0400080A0600080A0800080A0A00080A0C00080A0E00080C0000080C0200080C0400080C0600080C0
310
800080C0A00080C0C00080C0E00080E0000080E0200080E0400080E0600080E0800080E0A00080E0C00080E0E000C0000000C0002000C0004000C0006000C0008000C000A000C000C000C000E000C0200000C0202000C0204000C0206000C0208000C020A000C020C000C020E000C0400000C0402000C0404000C0406000C0
310
408000C040A000C040C000C040E000C0600000C0602000C0604000C0606000C0608000C060A000C060C000C060E000C0800000C0802000C0804000C0806000C0808000C080A000C080C000C080E000C0A00000C0A02000C0A04000C0A06000C0A08000C0A0A000C0A0C000C0A0E000C0C00000C0C02000C0C04000C0C06000
310
C0C08000C0C0A000F0FBFF00A4A0A000808080000000FF0000FF000000FFFF00FF000000FF00FF00FFFF0000FFFFFF0000000000000000000000000000000000000000000000000000000000000000000000000000000000000000000000000000000000000000000000000000000000000000000000000000000000000000
310
0000000000000000000000000000000000000000000000000000000000000000000000000000000000000000000000000000FFFFFFFFFFFFFFFFFFFFFFFFFFFFFFFFFFFFFFFFFF0000000000000000000000FF0000000000000000000000000000000000000000FF00000000000000000000FF000000000000000000000000
310
0000000000000000FF00000000000000000000FF000000000000000000000000000000000000000000FF000000000000000000FF000000000000000000000000000000000000000000FF000000000000000000FF00000000000000000000000000000000000000000000FF0000000000000000FF0000000000000000000000
310
0000000000000000000000FF0000000000000000FF0000000000000000000000000000000000000000000000FF00000000000000FF0000000000000000000000000000000000000000000000FF00000000000000FF00000000000000000000000000000000000000FFFFFFFFFFFFFFFFFFFF0000FF00000000000000000000
310
000000000000000000FFFEFDFDFDFDFDFDFDFD0000FF00000000000000000000000000000000000000FDFE00000000000000FF0000FF00000000000000000000000000000000000000FDFEFF000000000000FF0000FF00000000000000000000000000000000000000FDFEFDFDFDFDFDFDFDFD0000FF000000000000000000
310
00000000000000000000FFFFFFFFFFFFFFFFFFFF0000FF0000000000000000000000000000000000000000000000FF00000000000000FF0000000000000000000000000000000000000000000000FF00000000000000FF00000000000000000000000000000000000000000000FF0000000000000000FF0000000000000000
310
0000000000000000000000000000FF0000000000000000FF000000000000000000000000000000000000000000FF000000000000000000FF000000000000000000000000000000000000000000FF000000000000000000FF0000000000000000000000000000000000000000FF00000000000000000000FF00000000000000
310
00000000000000000000000000FF00000000000000000000FFFFFFFFFFFFFFFFFFFFFFFFFFFFFFFFFFFFFFFFFF00000000000000000000000000000000000000000000000000000000000000000000000000000000000000000000000000000000000000000000000000000000000000000000000000000000000000000000
310
0000000000000000000000000000000000000000000000000000000000000000000000000000000000000000000000000000000000000000
  0
BLOCK_RECORD
  5
413A
330
1
100
AcDbSymbolTableRecord
100
AcDbBlockTableRecord
  2
A$C480F1F2B
340
0
  0
BLOCK_RECORD
  5
42A7
330
1
100
AcDbSymbolTableRecord
100
AcDbBlockTableRecord
  2
*D19
340
0
  0
BLOCK_RECORD
  5
43DC
330
1
100
AcDbSymbolTableRecord
100
AcDbBlockTableRecord
  2
A$C2B5425E7
340
0
  0
BLOCK_RECORD
  5
45BA
330
1
100
AcDbSymbolTableRecord
100
AcDbBlockTableRecord
  2
*D21
340
0
  0
BLOCK_RECORD
  5
45D4
330
1
100
AcDbSymbolTableRecord
100
AcDbBlockTableRecord
  2
*D22
340
0
  0
BLOCK_RECORD
  5
4891
330
1
100
AcDbSymbolTableRecord
100
AcDbBlockTableRecord
  2
パドル　W1立面図
340
0
310
2800000020000000200000000100080000000000000400000000000000000000000000000000000000000000000080000080000000808000800000008000800080800000C0C0C000C0DCC000F0CAA6000020400000206000002080000020A0000020C0000020E00000400000004020000040400000406000004080000040A0
310
000040C0000040E00000600000006020000060400000606000006080000060A0000060C0000060E00000800000008020000080400000806000008080000080A0000080C0000080E00000A0000000A0200000A0400000A0600000A0800000A0A00000A0C00000A0E00000C0000000C0200000C0400000C0600000C0800000C0
310
A00000C0C00000C0E00000E0000000E0200000E0400000E0600000E0800000E0A00000E0C00000E0E00040000000400020004000400040006000400080004000A0004000C0004000E00040200000402020004020400040206000402080004020A0004020C0004020E000404000004040200040404000404060004040800040
310
40A0004040C0004040E00040600000406020004060400040606000406080004060A0004060C0004060E00040800000408020004080400040806000408080004080A0004080C0004080E00040A0000040A0200040A0400040A0600040A0800040A0A00040A0C00040A0E00040C0000040C0200040C0400040C0600040C08000
310
40C0A00040C0C00040C0E00040E0000040E0200040E0400040E0600040E0800040E0A00040E0C00040E0E00080000000800020008000400080006000800080008000A0008000C0008000E00080200000802020008020400080206000802080008020A0008020C0008020E00080400000804020008040400080406000804080
310
008040A0008040C0008040E00080600000806020008060400080606000806080008060A0008060C0008060E00080800000808020008080400080806000808080008080A0008080C0008080E00080A0000080A0200080A0400080A0600080A0800080A0A00080A0C00080A0E00080C0000080C0200080C0400080C0600080C0
310
800080C0A00080C0C00080C0E00080E0000080E0200080E0400080E0600080E0800080E0A00080E0C00080E0E000C0000000C0002000C0004000C0006000C0008000C000A000C000C000C000E000C0200000C0202000C0204000C0206000C0208000C020A000C020C000C020E000C0400000C0402000C0404000C0406000C0
310
408000C040A000C040C000C040E000C0600000C0602000C0604000C0606000C0608000C060A000C060C000C060E000C0800000C0802000C0804000C0806000C0808000C080A000C080C000C080E000C0A00000C0A02000C0A04000C0A06000C0A08000C0A0A000C0A0C000C0A0E000C0C00000C0C02000C0C04000C0C06000
310
C0C08000C0C0A000F0FBFF00A4A0A000808080000000FF0000FF000000FFFF00FF000000FF00FF00FFFF0000FFFFFF000000000000000000000000000000000000000000000000000000000000000000000000000000000000000000000000FFFF000000000000000000000000000000000000000000000000000000000000
310
FFFF000000000000000000000000000000000000000000000000000000000000FFFF000000000000000000000000000000000000000000000000000000000000FFFF000000000000000000000000000000000000000000000000000000000000FFFF0000000000000000000000000000000000000000000000000000000000
310
00FFFF000000000000000000000000000000000000000000000000000000000000FFFF000000000000000000000000000000000000000000000000000000000000FFFF000000000000000000000000000000000000000000000000000000000000FFFF00000000000000000000000000000000000000000000000000000000
310
0000FFFF000000000000000000000000000000000000000000000000000000000000FFFF000000000000000000000000000000000000000000000000000000000000FFFF000000000000000000000000000000000000000000000000000000000000FDFD000000000000000000000000000000000000000000000000000000
310
00FDFDFFFFFDFD0000000000000000000000000000000000000000000000000000FD00FFFF00FD0000000000000000000000000000000000000000000000000000FD00FFFF00FD0000000000000000000000000000000000000000000000000000FD00FFFF00FD000000000000000000000000000000000000000000000000
310
000000FDFDFDFD0000000000000000000000000000000000000000000000000000000000FFFF000000000000000000000000000000000000000000000000000000000000FFFF000000000000000000000000000000000000000000000000000000000000FFFF00000000000000000000000000000000000000000000000000
310
0000000000FFFF000000000000000000000000000000000000000000000000000000000000FFFF000000000000000000000000000000000000000000000000000000000000FFFF000000000000000000000000000000000000000000000000000000000000FFFF000000000000000000000000000000000000000000000000
310
000000000000FFFF000000000000000000000000000000000000000000000000000000000000FFFF000000000000000000000000000000000000000000000000000000000000FFFF000000000000000000000000000000000000000000000000000000000000FFFF0000000000000000000000000000000000000000000000
310
00000000000000FFFF0000000000000000000000000000000000000000000000000000000000000000000000000000000000000000000000
  0
ENDTAB
  0
ENDSEC
  0
SECTION
  2
BLOCKS
  0
BLOCK
  5
1B
330
1A
100
AcDbEntity
  8
0
100
AcDbBlockBegin
  2
*MODEL_SPACE
 70
     0
 10
0.0
 20
0.0
 30
0.0
  3
*MODEL_SPACE
  1
*MODEL_SPACE
  0
ENDBLK
  5
1C
330
1A
100
AcDbEntity
  8
0
100
AcDbBlockEnd
  0
BLOCK
  5
28FD
330
28FB
100
AcDbEntity
 67
     1
  8
0
 48
10.0
100
AcDbBlockBegin
  2
*Paper_Space
 70
     0
 10
0.0
 20
0.0
 30
0.0
  3
*Paper_Space
  1
*Paper_Space
  0
ENDBLK
  5
28FE
330
28FB
100
AcDbEntity
 67
     1
  8
0
 48
10.0
100
AcDbBlockEnd
  0
BLOCK
  5
2A33
330
2A32
100
AcDbEntity
  8
0
100
AcDbBlockBegin
  2
A3横用　タイトル
 70
     0
 10
0.0
 20
0.0
 30
0.0
  3
A3横用　タイトル
  1
A3横用　タイトル
  0
LINE
  5
2A34
330
2A32
100
AcDbEntity
  8
図枠細線
  6
Continuous
 62
   252
100
AcDbLine
 10
205.098414535793
 20
33.525959753527
 30
0.0
 11
305.098414535793
 21
33.525959753527
 31
0.0
  0
LINE
  5
2A35
330
2A32
100
AcDbEntity
  8
図枠太線
  6
Continuous
 62
   251
100
AcDbLine
 10
205.098414535793
 20
23.525959753527
 30
0.0
 11
305.098414535793
 21
23.525959753527
 31
0.0
  0
LINE
  5
2A36
330
2A32
100
AcDbEntity
  8
図枠細線
  6
Continuous
100
AcDbLine
 10
5.098414535793
 20
23.525959753527
 30
0.0
 11
105.098414535793
 21
23.525959753527
 31
0.0
  0
LINE
  5
2A37
330
2A32
100
AcDbEntity
  8
図枠細線
  6
Continuous
 62
   252
100
AcDbLine
 10
5.098414535793
 20
36.725957753527
 30
0.0
 11
105.098414535793
 21
36.725957753527
 31
0.0
  0
LINE
  5
2A38
330
2A32
100
AcDbEntity
  8
図枠細線
  6
Continuous
 62
   252
100
AcDbLine
 10
5.098414535793
 20
30.125957753527
 30
0.0
 11
105.098414535793
 21
30.125957753527
 31
0.0
  0
LINE
  5
2A39
330
2A32
100
AcDbEntity
  8
図枠細線
  6
Continuous
 62
   252
100
AcDbLine
 10
5.098414535793
 20
16.725959753527
 30
0.0
 11
105.098414535793
 21
16.725959753527
 31
0.0
  0
LINE
  5
2A3A
330
2A32
100
AcDbEntity
  8
図枠細線
  6
Continuous
 62
   252
100
AcDbLine
 10
5.098414535793
 20
10.125959753527
 30
0.0
 11
105.098414535793
 21
10.125959753527
 31
0.0
  0
LINE
  5
2A3B
330
2A32
100
AcDbEntity
  8
図枠細線
  6
Continuous
100
AcDbLine
 10
105.098414535793
 20
23.525961753527
 30
0.0
 11
205.098414535793
 21
23.525959753527
 31
0.0
  0
LINE
  5
2A3C
330
2A32
100
AcDbEntity
  8
図枠細線
  6
Continuous
 62
   252
100
AcDbLine
 10
138.398414535793
 20
43.525959753527
 30
0.0
 11
138.398414535793
 21
18.525957753527
 31
0.0
  0
LINE
  5
2A3D
330
2A32
100
AcDbEntity
  8
図枠細線
  6
Continuous
 62
   252
100
AcDbLine
 10
171.698414535793
 20
43.525959753527
 30
0.0
 11
171.698414535793
 21
18.525957753527
 31
0.0
  0
LINE
  5
2A3E
330
2A32
100
AcDbEntity
  8
図枠細線
  6
Continuous
 62
   252
100
AcDbLine
 10
305.098414535793
 20
23.525959753527
 30
0.0
 11
405.098414535793
 21
23.525959753527
 31
0.0
  0
TEXT
  5
2A3F
330
2A32
100
AcDbEntity
  8
図枠ロゴマーク
  6
Continuous
 62
   253
100
AcDbText
 10
206.102509212755
 20
13.294257570546
 30
0.0
 40
7.0
  1
東和制電工業株式会社
 50
0.016555220185
 41
1.186384129432
  7
EXCADSTD
 72
     5
 11
303.544188309143
 21
13.322412672217
 31
0.0
100
AcDbText
  0
MTEXT
  5
2A40
330
2A32
100
AcDbEntity
  8
図枠細線
100
AcDbMText
 10
6.356764112375
 20
41.976594175478
 30
0.0
 40
2.5
 41
49.938282706292
 71
     1
 72
     5
  1
{\Fmonotxt.shx,bigfont.shx|c128;図暦　CHANGE　NOTICE}
 73
     1
 44
1.0
  0
MTEXT
  5
2A41
330
2A32
100
AcDbEntity
  8
図枠細線
 48
10.0
100
AcDbMText
 10
306.544114926828
 20
41.701835800934
 30
0.0
 40
2.5
 41
28.002809618823
 71
     1
 72
     5
  1
{\Fmonotxt.shx,bigfont.shx|c128;名称　TITLE}
 73
     1
 44
1.0
  0
MTEXT
  5
2A42
330
2A32
100
AcDbEntity
  8
図枠細線
 48
10.0
100
AcDbMText
 10
307.329617114284
 20
21.606206797226
 30
0.0
 40
2.5
 41
24.385612216707
 71
     1
 72
     5
  1
{\Fmonotxt.shx,bigfont.shx|c128;図面番号\PDRG.　No.}
 73
     1
 44
1.0
  0
MTEXT
  5
2A43
330
2A32
100
AcDbEntity
  8
図枠細線
 48
10.0
100
AcDbMText
 10
173.726349404609
 20
21.73680662198
 30
0.0
 40
2.5
 41
25.735090160813
 71
     1
 72
     5
  1
{\Fmonotxt.shx,bigfont.shx|c128;日付 DATE}
 73
     1
 44
1.0
  0
MTEXT
  5
2A44
330
2A32
100
AcDbEntity
  8
図枠細線
 48
10.0
100
AcDbMText
 10
173.48708833982
 20
41.621592044998
 30
0.0
 40
2.5
 41
24.983741184205
 71
     1
 72
     5
  1
{\Fmonotxt.shx,bigfont.shx|c128;製図　DRAWN}
 73
     1
 44
1.0
  0
MTEXT
  5
2A45
330
2A32
100
AcDbEntity
  8
図枠細線
 48
10.0
100
AcDbMText
 10
139.28009927741
 20
21.866713069868
 30
0.0
 40
2.5
 41
22.629632913243
 71
     1
 72
     5
  1
{\Fmonotxt.shx,bigfont.shx|c128;尺度　SCALE}
 73
     1
 44
1.0
  0
MTEXT
  5
2A46
330
2A32
100
AcDbEntity
  8
図枠細線
 48
10.0
100
AcDbMText
 10
139.910091179835
 20
41.311840415554
 30
0.0
 40
2.5
 41
28.998753428368
 71
     1
 72
     5
  1
{\Fmonotxt.shx,bigfont.shx|c128;検図  CHECKED}
 73
     1
 44
1.0
  0
MTEXT
  5
2A47
330
2A32
100
AcDbEntity
  8
図枠細線
 48
10.0
100
AcDbMText
 10
114.253294667728
 20
21.916124850174
 30
0.0
 40
3.0
 41
19.692400475383
 71
     1
 72
     5
  1
{\Fmonotxt.shx,bigfont.shx|c128;第三角法}
 73
     1
 44
1.0
  0
MTEXT
  5
2A48
330
2A32
100
AcDbEntity
  8
図枠細線
 48
10.0
100
AcDbMText
 10
108.986959929915
 20
15.282880185837
 30
0.0
 40
2.5
 41
27.954882823547
 71
     1
 72
     5
  1
{\Fmonotxt.shx,bigfont.shx|c128;THIRD ANGLE\PPROJECTION}
 73
     1
 44
1.0
  0
MTEXT
  5
2A49
330
2A32
100
AcDbEntity
  8
図枠細線
 48
10.0
100
AcDbMText
 10
106.319432640184
 20
41.511437145487
 30
0.0
 40
2.5
 41
28.233595265074
 71
     1
 72
     5
  1
{\Fmonotxt.shx,bigfont.shx|c128;承認 APPROVED}
 73
     1
 44
1.0
  0
LINE
  5
2A4A
330
2A32
100
AcDbEntity
  8
図枠太線
  6
Continuous
 62
   251
100
AcDbLine
 10
5.098414535793
 20
3.525959753527
 30
0.0
 11
405.098414535793
 21
3.525959753527
 31
0.0
  0
LINE
  5
2A4B
330
2A32
100
AcDbEntity
  8
図枠太線
 48
10.0
100
AcDbLine
 10
5.098414535793
 20
3.525959753527
 30
0.0
 11
5.098414535793
 21
43.525959753527
 31
0.0
  0
LINE
  5
2A4C
330
2A32
100
AcDbEntity
  8
図枠太線
  6
Continuous
 62
   251
100
AcDbLine
 10
105.098414535793
 20
3.525959753527
 30
0.0
 11
105.098414535793
 21
43.525959753527
 31
0.0
  0
LINE
  5
2A4D
330
2A32
100
AcDbEntity
  8
図枠細線
  6
Continuous
 62
   252
100
AcDbLine
 10
138.398414535793
 20
3.525959753527
 30
0.0
 11
138.398414535793
 21
18.525957753527
 31
0.0
  0
LINE
  5
2A4E
330
2A32
100
AcDbEntity
  8
図枠細線
  6
Continuous
 62
   252
100
AcDbLine
 10
171.698414535793
 20
3.525959753527
 30
0.0
 11
171.698414535793
 21
18.525957753527
 31
0.0
  0
LINE
  5
2A4F
330
2A32
100
AcDbEntity
  8
図枠太線
  6
Continuous
 62
   251
100
AcDbLine
 10
205.098414535793
 20
3.525959753527
 30
0.0
 11
205.098414535793
 21
43.525959753527
 31
0.0
  0
LINE
  5
2A50
330
2A32
100
AcDbEntity
  8
図枠太線
 48
10.0
100
AcDbLine
 10
405.098414535793
 20
43.525959753527
 30
0.0
 11
405.098414535793
 21
3.525959753527
 31
0.0
  0
TEXT
  5
2A51
330
2A32
100
AcDbEntity
  8
図枠細線
  6
Continuous
 62
   252
100
AcDbText
 10
208.519754474572
 20
6.482358407285
 30
0.0
 40
3.5
  1
ＴＯＷＡ　ＳＥＩＤＥＮ　ＩＮＤＵＳＴＲＩＡＬ　ＣＯ．，ＬＴＤ．
 41
0.746656297509
  7
EXCADSTD
 72
     5
 11
303.295327171727
 21
6.482358407285
 31
0.0
100
AcDbText
  0
LINE
  5
2A52
330
2A32
100
AcDbEntity
  8
図枠太線
  6
Continuous
 62
   251
100
AcDbLine
 10
305.098414535793
 20
3.525959753527
 30
0.0
 11
305.098414535793
 21
43.525959753527
 31
0.0
  0
ENDBLK
  5
2A53
330
2A32
100
AcDbEntity
  8
0
100
AcDbBlockEnd
  0
BLOCK
  5
2AF8
330
2AF4
100
AcDbEntity
  8
0
 48
10.0
100
AcDbBlockBegin
  2
_Open30
 70
     0
 10
0.0
 20
0.0
 30
0.0
  3
_Open30
  1
_Open30
  0
LINE
  5
2AF5
330
2AF4
100
AcDbEntity
  8
0
  6
ByBlock
 62
     0
370
    -2
100
AcDbLine
 10
-1.0
 20
0.26794919
 30
0.0
 11
0.0
 21
0.0
 31
0.0
  0
LINE
  5
2AF6
330
2AF4
100
AcDbEntity
  8
0
  6
ByBlock
 62
     0
370
    -2
100
AcDbLine
 10
0.0
 20
0.0
 30
0.0
 11
-1.0
 21
-0.26794919
 31
0.0
  0
LINE
  5
2AF7
330
2AF4
100
AcDbEntity
  8
0
  6
ByBlock
 62
     0
370
    -2
100
AcDbLine
 10
0.0
 20
0.0
 30
0.0
 11
-1.0
 21
0.0
 31
0.0
  0
ENDBLK
  5
2AF9
330
2AF4
100
AcDbEntity
  8
0
 48
10.0
100
AcDbBlockEnd
  0
BLOCK
  5
2E7B
330
2E7A
100
AcDbEntity
  8
0
 48
10.0
100
AcDbBlockBegin
  2
*D2
 70
     1
 10
0.0
 20
0.0
 30
0.0
  3
*D2
  1
*D2
  0
LINE
  5
2E7C
330
2E7A
100
AcDbEntity
  8
寸法線
 62
     0
 48
10.0
370
    -2
100
AcDbLine
 10
-2758.836345131417
 20
832.47277548805
 30
0.0
 11
-2759.461345131417
 21
832.47277548805
 31
0.0
  0
LINE
  5
2E7D
330
2E7A
100
AcDbEntity
  8
寸法線
 62
     0
 48
10.0
370
    -2
100
AcDbLine
 10
-2758.836345131417
 20
776.47277548805
 30
0.0
 11
-2759.461345131417
 21
776.47277548805
 31
0.0
  0
LINE
  5
2E7E
330
2E7A
100
AcDbEntity
  8
寸法線
 62
     0
 48
10.0
370
    -2
100
AcDbLine
 10
-2758.211345131417
 20
827.47277548805
 30
0.0
 11
-2758.211345131417
 21
781.47277548805
 31
0.0
  0
INSERT
  5
2E7F
330
2E7A
100
AcDbEntity
  8
寸法線
 62
     0
 48
10.0
370
    -2
100
AcDbBlockReference
  2
_Open30
 10
-2758.211345131417
 20
832.47277548805
 30
0.0
 41
5.0
 42
5.0
 43
5.0
 50
90.0
  0
INSERT
  5
2E80
330
2E7A
100
AcDbEntity
  8
寸法線
 62
     0
 48
10.0
370
    -2
100
AcDbBlockReference
  2
_Open30
 10
-2758.211345131417
 20
776.47277548805
 30
0.0
 41
5.0
 42
5.0
 43
5.0
 50
270.0
  0
MTEXT
  5
2E81
330
2E7A
100
AcDbEntity
  8
寸法線
 62
     0
 48
10.0
100
AcDbMText
 10
-2761.336345131417
 20
804.472775488049
 30
0.0
 40
5.0
 41
0.0
 71
     5
 72
     1
  1
\A1;56
 11
6.123031769111886E-17
 21
1.0
 31
0.0
 73
     1
 44
1.0
  0
POINT
  5
2E82
330
2E7A
100
AcDbEntity
  8
DEFPOINTS
 62
     0
 48
10.0
100
AcDbPoint
 10
-2758.211345131417
 20
832.47277548805
 30
0.0
  0
POINT
  5
2E83
330
2E7A
100
AcDbEntity
  8
DEFPOINTS
 62
     0
 48
10.0
100
AcDbPoint
 10
-2758.211345131417
 20
776.47277548805
 30
0.0
  0
POINT
  5
2E84
330
2E7A
100
AcDbEntity
  8
DEFPOINTS
 62
     0
 48
10.0
100
AcDbPoint
 10
-2758.211345131417
 20
776.47277548805
 30
0.0
  0
ENDBLK
  5
2E85
330
2E7A
100
AcDbEntity
  8
0
 48
10.0
100
AcDbBlockEnd
  0
BLOCK
  5
2E87
330
2E86
100
AcDbEntity
  8
0
 48
10.0
100
AcDbBlockBegin
  2
ケース外形図　PRL-500N
 70
     0
 10
0.0
 20
0.0
 30
0.0
  3
ケース外形図　PRL-500N
  1
ケース外形図　PRL-500N
  0
ARC
  5
2E88
330
2E86
100
AcDbEntity
  8
外形線
100
AcDbCircle
 10
-2596.407869023793
 20
798.534998263293
 30
0.0
 40
2.15556
100
AcDbArc
 50
95.512637406103
 51
178.08903371374
  0
ARC
  5
2E89
330
2E86
100
AcDbEntity
  8
外形線
100
AcDbCircle
 10
-2590.851107023792
 20
802.679650263293
 30
0.0
 40
1.9992
100
AcDbArc
 50
270.0
 51
359.999982399908
  0
ARC
  5
2E8A
330
2E86
100
AcDbEntity
  8
外形線
100
AcDbCircle
 10
-2633.735079023793
 20
796.682154263293
 30
0.0
 40
4.32794
100
AcDbArc
 50
278.171639789583
 51
81.828325010231
  0
LINE
  5
2E8B
330
2E86
100
AcDbEntity
  8
外形線
100
AcDbLine
 10
-2598.562289023792
 20
796.682092263293
 30
0.0
 11
-2598.562289023792
 21
839.170496263293
 31
0.0
  0
LINE
  5
2E8C
330
2E86
100
AcDbEntity
  8
細線
100
AcDbLine
 10
-2709.567111023793
 20
819.473444263292
 30
0.0
 11
-2709.567111023793
 21
773.890742263293
 31
0.0
  0
LINE
  5
2E8D
330
2E86
100
AcDbEntity
  8
外形線
100
AcDbLine
 10
-2773.167087023793
 20
820.282098263293
 30
0.0
 11
-2773.167087023793
 21
773.082086263293
 31
0.0
  0
DIMENSION
  5
2E8E
330
2E86
100
AcDbEntity
  8
寸法線
 48
10.0
100
AcDbDimension
  2
*D2
 10
-2758.211345131417
 20
776.47277548805
 30
0.0
 11
-2761.336345131417
 21
804.472775488049
 31
0.0
 71
     5
 42
56.0
  3
ISO-25
100
AcDbAlignedDimension
 13
-2758.211345131417
 23
832.47277548805
 33
0.0
 14
-2758.211345131417
 24
776.47277548805
 34
0.0
 50
90.0
100
AcDbRotatedDimension
  0
LINE
  5
2E8F
330
2E86
100
AcDbEntity
  8
細線
100
AcDbLine
 10
-2657.967073023793
 20
753.674402263293
 30
0.0
 11
-2657.967073023793
 21
842.378138263293
 31
0.0
  0
LINE
  5
2E90
330
2E86
100
AcDbEntity
  8
細線
100
AcDbLine
 10
-2655.111117023792
 20
848.090174263293
 30
0.0
 11
-2655.111117023792
 21
745.274134263292
 31
0.0
  0
LINE
  5
2E91
330
2E86
100
AcDbEntity
  8
細線
100
AcDbLine
 10
-2629.407137023793
 20
748.130090263293
 30
0.0
 11
-2629.407137023793
 21
845.234094263293
 31
0.0
  0
LINE
  5
2E92
330
2E86
100
AcDbEntity
  8
細線
100
AcDbLine
 10
-2698.767061023792
 20
835.809290263293
 30
0.0
 11
-2698.767061023792
 21
757.554896263293
 31
0.0
  0
LINE
  5
2E93
330
2E86
100
AcDbEntity
  8
外形線
100
AcDbLine
 10
-2648.827913023793
 20
745.274134263292
 30
0.0
 11
-2648.827913023793
 21
848.090174263293
 31
0.0
  0
LINE
  5
2E94
330
2E86
100
AcDbEntity
  8
外形線
100
AcDbLine
 10
-2650.827059023792
 20
848.090174263293
 30
0.0
 11
-2650.827059023792
 21
745.274134263292
 31
0.0
  0
LINE
  5
2E95
330
2E86
100
AcDbEntity
  8
外形線
100
AcDbLine
 10
-2727.167087023793
 20
874.182092263293
 30
0.0
 11
-2727.167087023793
 21
719.182092263293
 31
0.0
  0
LINE
  5
2E96
330
2E86
100
AcDbEntity
  8
外形線
100
AcDbLine
 10
-2739.167087023793
 20
719.182092263293
 30
0.0
 11
-2739.167087023793
 21
874.182092263293
 31
0.0
  0
ARC
  5
2E97
330
2E86
100
AcDbEntity
  8
細線
100
AcDbCircle
 10
-2652.981051023793
 20
758.555414263293
 30
0.0
 40
38.097766
100
AcDbArc
 50
252.34442125848
 51
262.046372899211
  0
ARC
  5
2E98
330
2E86
100
AcDbEntity
  8
細線
100
AcDbCircle
 10
-2670.203647023792
 20
719.481958263293
 30
0.0
 40
36.766532
100
AcDbArc
 50
72.054026400074
 51
115.211785839402
  0
LINE
  5
2E99
330
2E86
100
AcDbEntity
  8
外形線
100
AcDbLine
 10
-2684.813509023792
 20
725.964930263293
 30
0.0
 11
-2656.824617023793
 21
725.964930263293
 31
0.0
  0
LINE
  5
2E9A
330
2E86
100
AcDbEntity
  8
外形線
100
AcDbLine
 10
-2682.013949023793
 20
730.248956263293
 30
0.0
 11
-2659.611483023793
 21
730.248956263293
 31
0.0
  0
LINE
  5
2E9B
330
2E86
100
AcDbEntity
  8
外形線
100
AcDbLine
 10
-2683.385531023793
 20
720.824122263293
 30
0.0
 11
-2658.252719023793
 21
720.824122263293
 31
0.0
  0
LINE
  5
2E9C
330
2E86
100
AcDbEntity
  8
外形線
100
AcDbLine
 10
-2687.081943023793
 20
750.215296263293
 30
0.0
 11
-2684.846835023792
 21
732.742578263293
 31
0.0
  0
LINE
  5
2E9D
330
2E86
100
AcDbEntity
  8
中心線
 48
10.0
100
AcDbLine
 10
-2670.819125023793
 20
714.862202263292
 30
0.0
 11
-2670.819125023793
 21
767.062140263293
 31
0.0
  0
LINE
  5
2E9E
330
2E86
100
AcDbEntity
  8
中心線
 48
10.0
100
AcDbLine
 10
-2745.575967023793
 20
731.682092263293
 30
0.0
 11
-2722.775967023792
 21
731.682092263293
 31
0.0
  0
LINE
  5
2E9F
330
2E86
100
AcDbEntity
  8
外形線
100
AcDbLine
 10
-2727.167087023793
 20
719.182092263293
 30
0.0
 11
-2739.167087023793
 21
719.182092263293
 31
0.0
  0
LINE
  5
2EA0
330
2E86
100
AcDbEntity
  8
細線
100
AcDbLine
 10
-2664.535921023793
 20
722.252160263293
 30
0.0
 11
-2664.535921023793
 21
725.964930263293
 31
0.0
  0
LINE
  5
2EA1
330
2E86
100
AcDbEntity
  8
細線
100
AcDbLine
 10
-2677.102327023792
 20
722.252160263293
 30
0.0
 11
-2677.102327023792
 21
725.964930263293
 31
0.0
  0
LINE
  5
2EA2
330
2E86
100
AcDbEntity
  8
細線
100
AcDbLine
 10
-2677.959139023792
 20
730.248926263293
 30
0.0
 11
-2677.959139023792
 21
725.964930263293
 31
0.0
  0
LINE
  5
2EA3
330
2E86
100
AcDbEntity
  8
外形線
100
AcDbLine
 10
-2684.813509023792
 20
725.964930263293
 30
0.0
 11
-2684.813509023792
 21
722.252160263293
 31
0.0
  0
LINE
  5
2EA4
330
2E86
100
AcDbEntity
  8
外形線
100
AcDbLine
 10
-2680.243929023793
 20
725.964930263293
 30
0.0
 11
-2680.243929023793
 21
730.248926263293
 31
0.0
  0
ARC
  5
2EA5
330
2E86
100
AcDbEntity
  8
外形線
100
AcDbCircle
 10
-2682.013949023793
 20
733.104944263293
 30
0.0
 40
2.856
100
AcDbArc
 50
187.289418100615
 51
270.0
  0
ARC
  5
2EA6
330
2E86
100
AcDbEntity
  8
細線
100
AcDbCircle
 10
-2688.657199023792
 20
758.555414263293
 30
0.0
 40
38.097766
100
AcDbArc
 50
277.953629348533
 51
287.655580989282
  0
LINE
  5
2EA7
330
2E86
100
AcDbEntity
  8
外形線
100
AcDbLine
 10
-2684.813509023792
 20
722.252160263293
 30
0.0
 11
-2683.385531023793
 21
720.824122263293
 31
0.0
  0
ARC
  5
2EA8
330
2E86
100
AcDbEntity
  8
細線
100
AcDbCircle
 10
-2670.819125023793
 20
735.360804263293
 30
0.0
 40
14.53669
100
AcDbArc
 50
244.3907930338
 51
295.609209213942
  0
LINE
  5
2EA9
330
2E86
100
AcDbEntity
  8
外形線
100
AcDbLine
 10
-2725.167087023793
 20
771.182092263293
 30
0.0
 11
-2711.830259891121
 21
771.182092263293
 31
0.0
  0
LINE
  5
2EAA
330
2E86
100
AcDbEntity
  8
外形線
100
AcDbLine
 10
-2773.167087023793
 20
773.082086263293
 30
0.0
 11
-2740.910433023793
 21
768.907708263293
 31
0.0
  0
LINE
  5
2EAB
330
2E86
100
AcDbEntity
  8
寸法線
100
AcDbLine
 10
-2739.664827023792
 20
769.119592263293
 30
0.0
 11
-2763.743685023792
 21
778.603204263293
 31
0.0
  0
ARC
  5
2EAC
330
2E86
100
AcDbEntity
  8
外形線
100
AcDbCircle
 10
-2725.167087023793
 20
769.182092263293
 30
0.0
 40
2.0
100
AcDbArc
 50
90.0
 51
180.0
  0
ARC
  5
2EAD
330
2E86
100
AcDbEntity
  8
外形線
100
AcDbCircle
 10
-2741.167087023793
 20
766.924250263292
 30
0.0
 40
2.0
100
AcDbArc
 50
0.0
 51
82.626243635811
  0
ARC
  5
2EAE
330
2E86
100
AcDbEntity
  8
外形線
100
AcDbCircle
 10
-2711.830259891121
 20
767.182092263293
 30
0.0
 40
4.0
100
AcDbArc
 50
30.998746657089
 51
90.0
  0
LINE
  5
2EAF
330
2E86
100
AcDbEntity
  8
外形線
100
AcDbLine
 10
-2695.578128665481
 20
753.019135597582
 30
0.0
 11
-2689.760671330091
 21
752.704704868377
 31
0.0
  0
LINE
  5
2EB0
330
2E86
100
AcDbEntity
  8
外形線
100
AcDbLine
 10
-2700.397339100389
 20
755.920272782411
 30
0.0
 11
-2708.401545623382
 21
769.242169560437
 31
0.0
  0
ARC
  5
2EB1
330
2E86
100
AcDbEntity
  8
外形線
100
AcDbCircle
 10
-2695.254267698781
 20
759.010388728126
 30
0.0
 40
6.0
100
AcDbArc
 50
210.998746657089
 51
266.905851868664
  0
ARC
  5
2EB2
330
2E86
100
AcDbEntity
  8
外形線
100
AcDbCircle
 10
-2689.914827023792
 20
749.852868263293
 30
0.0
 40
2.856
100
AcDbArc
 50
7.289398252773
 51
86.905894590757
  0
LINE
  5
2EB3
330
2E86
100
AcDbEntity
  8
外形線
100
AcDbLine
 10
-2655.111117023792
 20
745.274134263292
 30
0.0
 11
-2656.780429023792
 21
732.728234263293
 31
0.0
  0
LINE
  5
2EB4
330
2E86
100
AcDbEntity
  8
細線
100
AcDbLine
 10
-2663.679111023792
 20
730.248926263293
 30
0.0
 11
-2663.679111023792
 21
725.964930263293
 31
0.0
  0
LINE
  5
2EB5
330
2E86
100
AcDbEntity
  8
外形線
100
AcDbLine
 10
-2656.824617023793
 20
725.964930263293
 30
0.0
 11
-2656.824617023793
 21
722.252160263293
 31
0.0
  0
LINE
  5
2EB6
330
2E86
100
AcDbEntity
  8
外形線
100
AcDbLine
 10
-2661.394321023793
 20
725.964930263293
 30
0.0
 11
-2661.394321023793
 21
730.248926263293
 31
0.0
  0
ARC
  5
2EB7
330
2E86
100
AcDbEntity
  8
外形線
100
AcDbCircle
 10
-2659.611483023793
 20
733.104944263293
 30
0.0
 40
2.856
100
AcDbArc
 50
270.0
 51
352.421011277475
  0
LINE
  5
2EB8
330
2E86
100
AcDbEntity
  8
外形線
100
AcDbLine
 10
-2656.824617023793
 20
722.252160263293
 30
0.0
 11
-2658.252719023793
 21
720.824122263293
 31
0.0
  0
LINE
  5
2EB9
330
2E86
100
AcDbEntity
  8
外形線
100
AcDbLine
 10
-2629.407137023793
 20
748.130090263293
 30
0.0
 11
-2603.192905023793
 21
749.343774263293
 31
0.0
  0
ARC
  5
2EBA
330
2E86
100
AcDbEntity
  8
外形線
100
AcDbCircle
 10
-2633.445955023793
 20
769.831628263293
 30
0.0
 40
4.015794000000001
100
AcDbArc
 50
275.934583374273
 51
85.343077308665
  0
LINE
  5
2EBB
330
2E86
100
AcDbEntity
  8
外形線
100
AcDbLine
 10
-2648.827913023793
 20
765.837366263293
 30
0.0
 11
-2633.030795023793
 21
765.837366263293
 31
0.0
  0
LINE
  5
2EBC
330
2E86
100
AcDbEntity
  8
外形線
100
AcDbLine
 10
-2631.079805023792
 20
754.413294263293
 30
0.0
 11
-2648.827913023793
 21
754.413294263293
 31
0.0
  0
LINE
  5
2EBD
330
2E86
100
AcDbEntity
  8
外形線
100
AcDbLine
 10
-2631.079805023792
 20
750.986170263293
 30
0.0
 11
-2648.827913023793
 21
750.986170263293
 31
0.0
  0
LINE
  5
2EBE
330
2E86
100
AcDbEntity
  8
外形線
100
AcDbLine
 10
-2655.111117023792
 20
745.274134263292
 30
0.0
 11
-2633.119905023792
 21
745.274134263292
 31
0.0
  0
LINE
  5
2EBF
330
2E86
100
AcDbEntity
  8
細線
100
AcDbLine
 10
-2657.967073023793
 20
753.674402263293
 30
0.0
 11
-2655.111117023792
 21
745.274134263292
 31
0.0
  0
LINE
  5
2EC0
330
2E86
100
AcDbEntity
  8
細線
100
AcDbLine
 10
-2633.119905023792
 20
765.837366263293
 30
0.0
 11
-2633.119905023792
 21
754.413294263293
 31
0.0
  0
ARC
  5
2EC1
330
2E86
100
AcDbEntity
  8
外形線
100
AcDbCircle
 10
-2631.133821023792
 20
752.699670263293
 30
0.0
 40
1.714446
100
AcDbArc
 50
271.804703586974
 51
88.195318508631
  0
LINE
  5
2EC2
330
2E86
100
AcDbEntity
  8
細線
100
AcDbLine
 10
-2633.119905023792
 20
750.986170263293
 30
0.0
 11
-2633.119905023792
 21
745.274134263292
 31
0.0
  0
LINE
  5
2EC3
330
2E86
100
AcDbEntity
  8
外形線
100
AcDbLine
 10
-2633.119905023792
 20
745.274134263292
 30
0.0
 11
-2629.407137023793
 21
748.130090263293
 31
0.0
  0
LINE
  5
2EC4
330
2E86
100
AcDbEntity
  8
外形線
100
AcDbLine
 10
-2648.827913023793
 20
792.398156263293
 30
0.0
 11
-2633.119905023792
 21
792.398156263293
 31
0.0
  0
LINE
  5
2EC5
330
2E86
100
AcDbEntity
  8
外形線
100
AcDbLine
 10
-2648.827913023793
 20
773.834070263293
 30
0.0
 11
-2633.119905023792
 21
773.834070263293
 31
0.0
  0
LINE
  5
2EC6
330
2E86
100
AcDbEntity
  8
細線
100
AcDbLine
 10
-2633.119905023792
 20
792.398156263293
 30
0.0
 11
-2633.119905023792
 21
773.834070263293
 31
0.0
  0
ARC
  5
2EC7
330
2E86
100
AcDbEntity
  8
外形線
100
AcDbCircle
 10
-2596.576083023793
 20
769.249476263293
 30
0.0
 40
1.986266
100
AcDbArc
 50
84.716336376667
 51
272.672276280362
  0
LINE
  5
2EC8
330
2E86
100
AcDbEntity
  8
外形線
100
AcDbLine
 10
-2598.562289023792
 20
796.682092263293
 30
0.0
 11
-2598.562289023792
 21
754.193812263293
 31
0.0
  0
LINE
  5
2EC9
330
2E86
100
AcDbEntity
  8
外形線
100
AcDbLine
 10
-2596.483553023793
 20
767.265344263293
 30
0.0
 11
-2590.763339023793
 21
767.265344263293
 31
0.0
  0
ARC
  5
2ECA
330
2E86
100
AcDbEntity
  8
外形線
100
AcDbCircle
 10
-2590.714023023792
 20
765.414026263293
 30
0.0
 40
1.86215
100
AcDbArc
 50
268.482178628784
 51
83.815801009983
  0
LINE
  5
2ECB
330
2E86
100
AcDbEntity
  8
外形線
100
AcDbLine
 10
-2598.562289023792
 20
763.552576263293
 30
0.0
 11
-2590.763339023793
 21
763.552576263293
 31
0.0
  0
ARC
  5
2ECC
330
2E86
100
AcDbEntity
  8
外形線
100
AcDbCircle
 10
-2603.417513023792
 20
754.193812263293
 30
0.0
 40
4.8552
100
AcDbArc
 50
272.650733067261
 51
359.999982399908
  0
LINE
  5
2ECD
330
2E86
100
AcDbEntity
  8
外形線
100
AcDbLine
 10
-2596.614901023793
 20
792.683802263293
 30
0.0
 11
-2590.851107023792
 21
792.683802263293
 31
0.0
  0
ARC
  5
2ECE
330
2E86
100
AcDbEntity
  8
外形線
100
AcDbCircle
 10
-2590.851107023792
 20
790.684534263293
 30
0.0
 40
1.9992
100
AcDbArc
 50
0.0
 51
89.999981276047
  0
LINE
  5
2ECF
330
2E86
100
AcDbEntity
  8
外形線
100
AcDbLine
 10
-2596.483493023793
 20
771.263758263293
 30
0.0
 11
-2590.851107023792
 21
771.263758263293
 31
0.0
  0
ARC
  5
2ED0
330
2E86
100
AcDbEntity
  8
外形線
100
AcDbCircle
 10
-2590.851107023792
 20
773.262902263293
 30
0.0
 40
1.9992
100
AcDbArc
 50
270.0
 51
359.999982399908
  0
LINE
  5
2ED1
330
2E86
100
AcDbEntity
  8
外形線
100
AcDbLine
 10
-2588.851839023793
 20
773.262902263293
 30
0.0
 11
-2588.851839023793
 21
790.684534263293
 31
0.0
  0
ARC
  5
2ED2
330
2E86
100
AcDbEntity
  8
外形線
100
AcDbCircle
 10
-2596.407869023793
 20
794.829310263293
 30
0.0
 40
2.15556
100
AcDbArc
 50
181.910948686163
 51
264.487402289583
  0
LINE
  5
2ED3
330
2E86
100
AcDbEntity
  8
外形線
100
AcDbLine
 10
-2695.578128665481
 20
840.345048929002
 30
0.0
 11
-2657.967073023793
 21
842.378138263293
 31
0.0
  0
LINE
  5
2ED4
330
2E86
100
AcDbEntity
  8
外形線
100
AcDbLine
 10
-2725.167087023793
 20
822.182092263293
 30
0.0
 11
-2711.830259891121
 21
822.182092263293
 31
0.0
  0
LINE
  5
2ED5
330
2E86
100
AcDbEntity
  8
寸法線
100
AcDbLine
 10
-2739.664827023792
 20
825.119592263293
 30
0.0
 11
-2763.743685023792
 21
834.603204263293
 31
0.0
  0
LINE
  5
2ED6
330
2E86
100
AcDbEntity
  8
外形線
100
AcDbLine
 10
-2773.167087023793
 20
820.282098263293
 30
0.0
 11
-2740.910433023793
 21
824.456476263293
 31
0.0
  0
ARC
  5
2ED7
330
2E86
100
AcDbEntity
  8
外形線
100
AcDbCircle
 10
-2741.167087023793
 20
826.439936263292
 30
0.0
 40
2.0
100
AcDbArc
 50
277.373738764089
 51
359.999982399908
  0
ARC
  5
2ED8
330
2E86
100
AcDbEntity
  8
外形線
100
AcDbCircle
 10
-2725.167087023793
 20
824.182092263293
 30
0.0
 40
2.0
100
AcDbArc
 50
180.0
 51
270.0
  0
LINE
  5
2ED9
330
2E86
100
AcDbEntity
  8
外形線
100
AcDbLine
 10
-2700.397339100389
 20
837.443911744175
 30
0.0
 11
-2708.401545623382
 21
824.122014966149
 31
0.0
  0
ARC
  5
2EDA
330
2E86
100
AcDbEntity
  8
外形線
100
AcDbCircle
 10
-2711.830259891121
 20
826.182092263293
 30
0.0
 40
4.0
100
AcDbArc
 50
270.0
 51
329.001253342911
  0
ARC
  5
2EDB
330
2E86
100
AcDbEntity
  8
外形線
100
AcDbCircle
 10
-2695.254267698781
 20
834.353795798458
 30
0.0
 40
6.0
100
AcDbArc
 50
93.094148131336
 51
149.001253342911
  0
LINE
  5
2EDC
330
2E86
100
AcDbEntity
  8
外形線
100
AcDbLine
 10
-2727.167087023793
 20
874.182092263293
 30
0.0
 11
-2739.167087023793
 21
874.182092263293
 31
0.0
  0
LINE
  5
2EDD
330
2E86
100
AcDbEntity
  8
中心線
 48
10.0
100
AcDbLine
 10
-2745.575967023793
 20
861.682092263293
 30
0.0
 11
-2722.775967023792
 21
861.682092263293
 31
0.0
  0
LINE
  5
2EDE
330
2E86
100
AcDbEntity
  8
外形線
100
AcDbLine
 10
-2629.407137023793
 20
845.234094263293
 30
0.0
 11
-2603.192905023793
 21
844.020472263293
 31
0.0
  0
LINE
  5
2EDF
330
2E86
100
AcDbEntity
  8
細線
100
AcDbLine
 10
-2633.119905023792
 20
827.526942263293
 30
0.0
 11
-2633.119905023792
 21
838.950892263293
 31
0.0
  0
LINE
  5
2EE0
330
2E86
100
AcDbEntity
  8
外形線
100
AcDbLine
 10
-2648.827913023793
 20
819.530114263293
 30
0.0
 11
-2633.119905023792
 21
819.530114263293
 31
0.0
  0
LINE
  5
2EE1
330
2E86
100
AcDbEntity
  8
外形線
100
AcDbLine
 10
-2648.827913023793
 20
827.526942263293
 30
0.0
 11
-2633.030795023793
 21
827.526942263293
 31
0.0
  0
LINE
  5
2EE2
330
2E86
100
AcDbEntity
  8
外形線
100
AcDbLine
 10
-2648.827913023793
 20
800.966150263293
 30
0.0
 11
-2633.119905023792
 21
800.966150263293
 31
0.0
  0
ARC
  5
2EE3
330
2E86
100
AcDbEntity
  8
外形線
100
AcDbCircle
 10
-2633.445955023793
 20
823.532678263292
 30
0.0
 40
4.015794000000001
100
AcDbArc
 50
274.656944786913
 51
84.065438721313
  0
LINE
  5
2EE4
330
2E86
100
AcDbEntity
  8
細線
100
AcDbLine
 10
-2633.119905023792
 20
800.966150263293
 30
0.0
 11
-2633.119905023792
 21
819.530114263293
 31
0.0
  0
LINE
  5
2EE5
330
2E86
100
AcDbEntity
  8
外形線
100
AcDbLine
 10
-2655.111117023792
 20
848.090174263293
 30
0.0
 11
-2633.119905023792
 21
848.090174263293
 31
0.0
  0
LINE
  5
2EE6
330
2E86
100
AcDbEntity
  8
外形線
100
AcDbLine
 10
-2631.079805023792
 20
838.950892263293
 30
0.0
 11
-2648.827913023793
 21
838.950892263293
 31
0.0
  0
LINE
  5
2EE7
330
2E86
100
AcDbEntity
  8
外形線
100
AcDbLine
 10
-2631.079805023792
 20
842.378138263293
 30
0.0
 11
-2648.827913023793
 21
842.378138263293
 31
0.0
  0
LINE
  5
2EE8
330
2E86
100
AcDbEntity
  8
外形線
100
AcDbLine
 10
-2657.967073023793
 20
842.378138263293
 30
0.0
 11
-2655.111117023792
 21
848.090174263293
 31
0.0
  0
LINE
  5
2EE9
330
2E86
100
AcDbEntity
  8
外形線
100
AcDbLine
 10
-2633.119905023792
 20
848.090174263293
 30
0.0
 11
-2629.407137023793
 21
845.234094263293
 31
0.0
  0
ARC
  5
2EEA
330
2E86
100
AcDbEntity
  8
外形線
100
AcDbCircle
 10
-2631.133821023792
 20
840.664514263293
 30
0.0
 40
1.714446
100
AcDbArc
 50
271.804703586974
 51
88.195318508631
  0
LINE
  5
2EEB
330
2E86
100
AcDbEntity
  8
細線
100
AcDbLine
 10
-2633.119905023792
 20
842.378138263293
 30
0.0
 11
-2633.119905023792
 21
848.090174263293
 31
0.0
  0
LINE
  5
2EEC
330
2E86
100
AcDbEntity
  8
外形線
100
AcDbLine
 10
-2596.483493023793
 20
826.098932263293
 30
0.0
 11
-2590.513461023792
 21
826.098932263293
 31
0.0
  0
ARC
  5
2EED
330
2E86
100
AcDbEntity
  8
外形線
100
AcDbCircle
 10
-2596.576083023793
 20
824.114832263292
 30
0.0
 40
1.986266
100
AcDbArc
 50
87.327706119557
 51
275.283646023236
  0
LINE
  5
2EEE
330
2E86
100
AcDbEntity
  8
外形線
100
AcDbLine
 10
-2596.389803023793
 20
822.100550263293
 30
0.0
 11
-2590.851107023792
 21
822.100550263293
 31
0.0
  0
ARC
  5
2EEF
330
2E86
100
AcDbEntity
  8
外形線
100
AcDbCircle
 10
-2590.714023023792
 20
827.950280263292
 30
0.0
 40
1.86215
100
AcDbArc
 50
276.18422108563
 51
91.517843466792
  0
LINE
  5
2EF0
330
2E86
100
AcDbEntity
  8
外形線
100
AcDbLine
 10
-2598.562289023792
 20
829.811732263293
 30
0.0
 11
-2590.763339023793
 21
829.811732263293
 31
0.0
  0
ARC
  5
2EF1
330
2E86
100
AcDbEntity
  8
外形線
100
AcDbCircle
 10
-2590.851107023792
 20
820.101282263293
 30
0.0
 40
1.9992
100
AcDbArc
 50
0.0
 51
89.999981276047
  0
LINE
  5
2EF2
330
2E86
100
AcDbEntity
  8
外形線
100
AcDbLine
 10
-2596.614901023793
 20
800.680506263293
 30
0.0
 11
-2590.851107023792
 21
800.680506263293
 31
0.0
  0
LINE
  5
2EF3
330
2E86
100
AcDbEntity
  8
外形線
100
AcDbLine
 10
-2588.851839023793
 20
820.101282263293
 30
0.0
 11
-2588.851839023793
 21
802.679650263293
 31
0.0
  0
ARC
  5
2EF4
330
2E86
100
AcDbEntity
  8
外形線
100
AcDbCircle
 10
-2603.417513023792
 20
839.170496263293
 30
0.0
 40
4.8552
100
AcDbArc
 50
0.0
 51
87.349306628423
  0
ENDBLK
  5
2EF5
330
2E86
100
AcDbEntity
  8
0
 48
10.0
100
AcDbBlockEnd
  0
BLOCK
  5
2F2B
330
2F2A
100
AcDbEntity
  8
0
 48
10.0
100
AcDbBlockBegin
  2
A$C5F435AFC
 70
     0
 10
0.0
 20
0.0
 30
0.0
  3
A$C5F435AFC
  1
A$C5F435AFC
  0
LINE
  5
2F2C
330
2F2A
100
AcDbEntity
  8
外形線
 48
10.0
100
AcDbLine
 10
48.799987606332
 20
59.999999460263
 30
0.0
 11
48.799987606332
 21
35.999999460263
 31
0.0
  0
LINE
  5
2F2D
330
2F2A
100
AcDbEntity
  8
中心線
 48
10.0
100
AcDbLine
 10
22.999999606332
 20
53.999999460263
 30
0.0
 11
22.999999606332
 21
41.999999460263
 31
0.0
  0
LINE
  5
2F2E
330
2F2A
100
AcDbEntity
  8
中心線
 48
10.0
100
AcDbLine
 10
10.999999606332
 20
53.999999460263
 30
0.0
 11
10.999999606332
 21
41.999999460263
 31
0.0
  0
CIRCLE
  5
2F2F
330
2F2A
100
AcDbEntity
  8
外形線
100
AcDbCircle
 10
22.999999606332
 20
47.999999460263
 30
0.0
 40
2.4
  0
CIRCLE
  5
2F30
330
2F2A
100
AcDbEntity
  8
外形線
100
AcDbCircle
 10
10.999999606332
 20
47.999999460263
 30
0.0
 40
2.4
  0
LINE
  5
2F31
330
2F2A
100
AcDbEntity
  8
外形線
100
AcDbLine
 10
3.999999606332
 20
57.399993460263
 30
0.0
 11
3.999999606332
 21
47.999999460263
 31
0.0
  0
LINE
  5
2F32
330
2F2A
100
AcDbEntity
  8
外形線
100
AcDbLine
 10
48.799987606332
 20
59.999999460263
 30
0.0
 11
7.399993606332
 21
59.999999460263
 31
0.0
  0
LINE
  5
2F33
330
2F2A
100
AcDbEntity
  8
細線
100
AcDbLine
 10
5.991119606332
 20
53.999999460263
 30
0.0
 11
48.799987606332
 21
53.999999460263
 31
0.0
  0
LINE
  5
2F34
330
2F2A
100
AcDbEntity
  8
外形線
100
AcDbLine
 10
3.999999606332
 20
57.399993460263
 30
0.0
 11
7.399993606332
 21
59.999999460263
 31
0.0
  0
LINE
  5
2F35
330
2F2A
100
AcDbEntity
  8
外形線
100
AcDbLine
 10
-0.000000393668
 20
59.999999460263
 30
0.0
 11
7.399993606332
 21
59.999999460263
 31
0.0
  0
ARC
  5
2F36
330
2F2A
100
AcDbEntity
  8
細線
100
AcDbCircle
 10
7.751899987068
 20
57.314177090845
 30
0.0
 40
3.75288168161888
100
AcDbArc
 50
178.689715050974
 51
242.018860308436
  0
LINE
  5
2F37
330
2F2A
100
AcDbEntity
  8
外形線
100
AcDbLine
 10
48.799987606332
 20
35.999999460263
 30
0.0
 11
7.399993606332
 21
35.999999460263
 31
0.0
  0
LINE
  5
2F38
330
2F2A
100
AcDbEntity
  8
外形線
100
AcDbLine
 10
3.999999606332
 20
38.600005460263
 30
0.0
 11
3.999999606332
 21
47.999999460263
 31
0.0
  0
LINE
  5
2F39
330
2F2A
100
AcDbEntity
  8
細線
100
AcDbLine
 10
5.991119606332
 20
41.999999460263
 30
0.0
 11
48.799987606332
 21
41.999999460263
 31
0.0
  0
LINE
  5
2F3A
330
2F2A
100
AcDbEntity
  8
外形線
100
AcDbLine
 10
3.999999606332
 20
38.600005460263
 30
0.0
 11
7.399993606332
 21
35.999999460263
 31
0.0
  0
ARC
  5
2F3B
330
2F2A
100
AcDbEntity
  8
細線
100
AcDbCircle
 10
14.035697820002
 20
47.999999460263
 30
0.0
 40
10.03569821366904
100
AcDbArc
 50
143.282806020859
 51
216.717193979141
  0
ARC
  5
2F3C
330
2F2A
100
AcDbEntity
  8
細線
100
AcDbCircle
 10
7.751899987068
 20
38.685821829683
 30
0.0
 40
3.75288168161888
100
AcDbArc
 50
117.981139691564
 51
181.310284949026
  0
LINE
  5
2F3D
330
2F2A
100
AcDbEntity
  8
外形線
100
AcDbLine
 10
-0.000000393668
 20
-0.000000539737
 30
0.0
 11
29.999999606332
 21
-0.000000539737
 31
0.0
  0
LINE
  5
2F3E
330
2F2A
100
AcDbEntity
  8
外形線
100
AcDbLine
 10
-0.000000393668
 20
59.999999460263
 30
0.0
 11
-0.000000393668
 21
-0.000000539737
 31
0.0
  0
LINE
  5
2F3F
330
2F2A
100
AcDbEntity
  8
外形線
100
AcDbLine
 10
29.999999606332
 20
-0.000000539737
 30
0.0
 11
29.999999606332
 21
35.999999460263
 31
0.0
  0
ENDBLK
  5
2F40
330
2F2A
100
AcDbEntity
  8
0
 48
10.0
100
AcDbBlockEnd
  0
BLOCK
  5
2F6D
330
2F6C
100
AcDbEntity
  8
0
 48
10.0
100
AcDbBlockBegin
  2
A$C2AA85C5D
 70
     0
 10
0.0
 20
0.0
 30
0.0
  3
A$C2AA85C5D
  1
A$C2AA85C5D
  0
LINE
  5
2F6E
330
2F6C
100
AcDbEntity
  8
外形線
100
AcDbLine
 10
10.570220168629
 20
59.914734238971
 30
0.0
 11
13.49823016863
 21
59.914734238971
 31
0.0
  0
LINE
  5
2F6F
330
2F6C
100
AcDbEntity
  8
外形線
100
AcDbLine
 10
13.49823016863
 20
59.133972238971
 30
0.0
 11
22.390532168629
 21
54.000000238971
 31
0.0
  0
LINE
  5
2F70
330
2F6C
100
AcDbEntity
  8
外形線
100
AcDbLine
 10
10.49823016863
 20
59.133972238971
 30
0.0
 11
1.60592616863
 21
54.000000238971
 31
0.0
  0
LINE
  5
2F71
330
2F6C
100
AcDbEntity
  8
外形線
100
AcDbLine
 10
1.60592616863
 20
42.000000238971
 30
0.0
 11
1.60592616863
 21
54.000000238971
 31
0.0
  0
LINE
  5
2F72
330
2F6C
100
AcDbEntity
  8
外形線
100
AcDbLine
 10
10.49823016863
 20
36.866028238971
 30
0.0
 11
1.60592616863
 21
42.000000238971
 31
0.0
  0
ARC
  5
2F73
330
2F6C
100
AcDbEntity
  8
細線
100
AcDbCircle
 10
11.99823016863
 20
48.000000238971
 30
0.0
 40
10.392304
100
AcDbArc
 50
98.298931163823
 51
261.701051236085
  0
LINE
  5
2F74
330
2F6C
100
AcDbEntity
  8
外形線
100
AcDbLine
 10
22.390532168629
 20
54.000000238971
 30
0.0
 11
22.390532168629
 21
42.000000238971
 31
0.0
  0
LINE
  5
2F75
330
2F6C
100
AcDbEntity
  8
外形線
100
AcDbLine
 10
13.49823016863
 20
36.866058238971
 30
0.0
 11
22.390532168629
 21
42.000000238971
 31
0.0
  0
ARC
  5
2F76
330
2F6C
100
AcDbEntity
  8
細線
100
AcDbCircle
 10
11.99823016863
 20
48.000000238971
 30
0.0
 40
12.0
100
AcDbArc
 50
277.180766578687
 51
261.701051236085
  0
ARC
  5
2F77
330
2F6C
100
AcDbEntity
  8
細線
100
AcDbCircle
 10
11.99823016863
 20
48.000000238971
 30
0.0
 40
10.392304
100
AcDbArc
 50
278.298951011672
 51
81.701088684012
  0
LINE
  5
2F78
330
2F6C
100
AcDbEntity
  8
外形線
100
AcDbLine
 10
10.49823016863
 20
0.000000238971
 30
0.0
 11
13.49823016863
 21
0.000000238971
 31
0.0
  0
LINE
  5
2F79
330
2F6C
100
AcDbEntity
  8
外形線
100
AcDbLine
 10
10.49823016863
 20
59.914734238971
 30
0.0
 11
10.49823016863
 21
0.000000238971
 31
0.0
  0
LINE
  5
2F7A
330
2F6C
100
AcDbEntity
  8
外形線
100
AcDbLine
 10
13.49823016863
 20
59.914734238971
 30
0.0
 11
13.49823016863
 21
0.000000238971
 31
0.0
  0
ENDBLK
  5
2F7B
330
2F6C
100
AcDbEntity
  8
0
 48
10.0
100
AcDbBlockEnd
  0
BLOCK
  5
37CF
330
37C7
100
AcDbEntity
  8
0
 48
10.0
100
AcDbBlockBegin
  2
*D6
 70
     1
 10
0.0
 20
0.0
 30
0.0
  3
*D6
  1
*D6
  0
LINE
  5
45FB
330
37C7
100
AcDbEntity
  8
寸法線
 62
     0
 48
10.0
370
    -2
100
AcDbLine
 10
316.186930842361
 20
389.819787266281
 30
0.0
 11
316.186930842361
 21
345.863674333474
 31
0.0
  0
MTEXT
  5
45FC
330
37C7
100
AcDbEntity
  8
寸法線
 62
     0
 48
10.0
100
AcDbMText
 10
310.741135071222
 20
372.455573730298
 30
0.0
 40
8.0
 41
0.0
 71
     5
 72
     1
  1
\A1;φ56
 11
6.123031769111886E-17
 21
1.0
 31
0.0
 73
     1
 44
1.0
  0
INSERT
  5
45FD
330
37C7
100
AcDbEntity
  8
寸法線
 62
     0
 48
10.0
370
    -2
100
AcDbBlockReference
  2
_Open30
 10
316.186930842361
 20
395.819787266281
 30
0.0
 41
6.0
 42
6.0
 43
6.0
 50
90.0
  0
INSERT
  5
45FE
330
37C7
100
AcDbEntity
  8
寸法線
 62
     0
 48
10.0
370
    -2
100
AcDbBlockReference
  2
_Open30
 10
316.186930842361
 20
339.863674333474
 30
0.0
 41
6.0
 42
6.0
 43
6.0
 50
270.0
  0
POINT
  5
45FF
330
37C7
100
AcDbEntity
  8
DEFPOINTS
 62
     0
 48
10.0
100
AcDbPoint
 10
316.175171338256
 20
395.819787266281
 30
0.0
  0
POINT
  5
4600
330
37C7
100
AcDbEntity
  8
DEFPOINTS
 62
     0
 48
10.0
100
AcDbPoint
 10
316.186930842361
 20
339.863674333474
 30
0.0
  0
POINT
  5
4601
330
37C7
100
AcDbEntity
  8
DEFPOINTS
 62
     0
 48
10.0
100
AcDbPoint
 10
316.186930842361
 20
339.863674333474
 30
0.0
  0
ENDBLK
  5
37D0
330
37C7
100
AcDbEntity
  8
0
 48
10.0
100
AcDbBlockEnd
  0
BLOCK
  5
37E8
330
37DD
100
AcDbEntity
  8
0
 48
10.0
100
AcDbBlockBegin
  2
*D7
 70
     1
 10
0.0
 20
0.0
 30
0.0
  3
*D7
  1
*D7
  0
LINE
  5
457E
330
37DD
100
AcDbEntity
  8
寸法線
 62
     0
 48
10.0
370
    -2
100
AcDbLine
 10
290.056185949985
 20
367.572991108717
 30
0.0
 11
290.733848418702
 21
367.572991108717
 31
0.0
  0
LINE
  5
457F
330
37DD
100
AcDbEntity
  8
寸法線
 62
     0
 48
10.0
370
    -2
100
AcDbLine
 10
290.056185949985
 20
352.572991108717
 30
0.0
 11
290.733848418702
 21
352.572991108717
 31
0.0
  0
LINE
  5
4580
330
37DD
100
AcDbEntity
  8
寸法線
 62
     0
 48
10.0
370
    -2
100
AcDbLine
 10
289.483848418702
 20
358.572991108717
 30
0.0
 11
289.483848418702
 21
361.572991108717
 31
0.0
  0
LINE
  5
4581
330
37DD
100
AcDbEntity
  8
寸法線
 62
     0
 48
10.0
370
    -2
100
AcDbLine
 10
289.483848418702
 20
367.572991108717
 30
0.0
 11
289.483848418702
 21
391.554361958615
 31
0.0
  0
INSERT
  5
4582
330
37DD
100
AcDbEntity
  8
寸法線
 62
     0
 48
10.0
370
    -2
100
AcDbBlockReference
  2
_Open30
 10
289.483848418702
 20
352.572991108717
 30
0.0
 41
6.0
 42
6.0
 43
6.0
 50
270.0
  0
INSERT
  5
4583
330
37DD
100
AcDbEntity
  8
寸法線
 62
     0
 48
10.0
370
    -2
100
AcDbBlockReference
  2
_Open30
 10
289.483848418702
 20
367.572991108717
 30
0.0
 41
6.0
 42
6.0
 43
6.0
 50
90.0
  0
MTEXT
  5
4584
330
37DD
100
AcDbEntity
  8
寸法線
 62
     0
 48
10.0
100
AcDbMText
 10
284.858848418702
 20
382.563676533666
 30
0.0
 40
8.0
 41
0.0
 71
     5
 72
     1
  1
\A1;φ15
 11
6.123031769111886E-17
 21
1.0
 31
0.0
 73
     1
 44
1.0
  0
POINT
  5
4585
330
37DD
100
AcDbEntity
  8
DEFPOINTS
 62
     0
 48
10.0
100
AcDbPoint
 10
289.431185949985
 20
367.572991108717
 30
0.0
  0
POINT
  5
4586
330
37DD
100
AcDbEntity
  8
DEFPOINTS
 62
     0
 48
10.0
100
AcDbPoint
 10
289.431185949985
 20
352.572991108717
 30
0.0
  0
POINT
  5
4587
330
37DD
100
AcDbEntity
  8
DEFPOINTS
 62
     0
 48
10.0
100
AcDbPoint
 10
289.483848418702
 20
352.572991108717
 30
0.0
  0
ENDBLK
  5
37E9
330
37DD
100
AcDbEntity
  8
0
 48
10.0
100
AcDbBlockEnd
  0
BLOCK
  5
37F4
330
37EA
100
AcDbEntity
  8
0
 48
10.0
100
AcDbBlockBegin
  2
*D8
 70
     1
 10
0.0
 20
0.0
 30
0.0
  3
*D8
  1
*D8
  0
LINE
  5
4575
330
37EA
100
AcDbEntity
  8
寸法線
 62
     0
 48
10.0
370
    -2
100
AcDbLine
 10
215.231188949985
 20
296.293645538221
 30
0.0
 11
215.231188949985
 21
236.27833675906
 31
0.0
  0
LINE
  5
4576
330
37EA
100
AcDbEntity
  8
寸法線
 62
     0
 48
10.0
370
    -2
100
AcDbLine
 10
335.231188949985
 20
255.702202407855
 30
0.0
 11
335.231188949985
 21
236.27833675906
 31
0.0
  0
LINE
  5
4577
330
37EA
100
AcDbEntity
  8
寸法線
 62
     0
 48
10.0
370
    -2
100
AcDbLine
 10
221.231188949985
 20
237.52833675906
 30
0.0
 11
329.231188949985
 21
237.52833675906
 31
0.0
  0
INSERT
  5
4578
330
37EA
100
AcDbEntity
  8
寸法線
 62
     0
 48
10.0
370
    -2
100
AcDbBlockReference
  2
_Open30
 10
215.231188949985
 20
237.52833675906
 30
0.0
 41
6.0
 42
6.0
 43
6.0
 50
180.0
  0
INSERT
  5
4579
330
37EA
100
AcDbEntity
  8
寸法線
 62
     0
 48
10.0
370
    -2
100
AcDbBlockReference
  2
_Open30
 10
335.231188949985
 20
237.52833675906
 30
0.0
 41
6.0
 42
6.0
 43
6.0
  0
MTEXT
  5
457A
330
37EA
100
AcDbEntity
  8
寸法線
 62
     0
 48
10.0
100
AcDbMText
 10
275.231188949985
 20
242.154124160634
 30
0.0
 40
8.0
 41
0.0
 71
     5
 72
     1
  1
\A1;120
 73
     1
 44
1.0
  0
POINT
  5
457B
330
37EA
100
AcDbEntity
  8
DEFPOINTS
 62
     0
 48
10.0
100
AcDbPoint
 10
215.231188949985
 20
296.918645538221
 30
0.0
  0
POINT
  5
457C
330
37EA
100
AcDbEntity
  8
DEFPOINTS
 62
     0
 48
10.0
100
AcDbPoint
 10
335.231188949985
 20
256.327202407855
 30
0.0
  0
POINT
  5
457D
330
37EA
100
AcDbEntity
  8
DEFPOINTS
 62
     0
 48
10.0
100
AcDbPoint
 10
335.231188949985
 20
237.52833675906
 30
0.0
  0
ENDBLK
  5
37F5
330
37EA
100
AcDbEntity
  8
0
 48
10.0
100
AcDbBlockEnd
  0
BLOCK
  5
3800
330
37F6
100
AcDbEntity
  8
0
 48
10.0
100
AcDbBlockBegin
  2
*D9
 70
     1
 10
0.0
 20
0.0
 30
0.0
  3
*D9
  1
*D9
  0
LINE
  5
456C
330
37F6
100
AcDbEntity
  8
寸法線
 62
     0
 48
10.0
370
    -2
100
AcDbLine
 10
335.231188949985
 20
255.702202407855
 30
0.0
 11
335.231188949985
 21
236.27833675906
 31
0.0
  0
LINE
  5
456D
330
37F6
100
AcDbEntity
  8
寸法線
 62
     0
 48
10.0
370
    -2
100
AcDbLine
 10
485.247334251779
 20
256.952202407855
 30
0.0
 11
485.247334251779
 21
236.27833675906
 31
0.0
  0
LINE
  5
456E
330
37F6
100
AcDbEntity
  8
寸法線
 62
     0
 48
10.0
370
    -2
100
AcDbLine
 10
341.231188949985
 20
237.52833675906
 30
0.0
 11
479.247334251779
 21
237.52833675906
 31
0.0
  0
INSERT
  5
456F
330
37F6
100
AcDbEntity
  8
寸法線
 62
     0
 48
10.0
370
    -2
100
AcDbBlockReference
  2
_Open30
 10
335.231188949985
 20
237.52833675906
 30
0.0
 41
6.0
 42
6.0
 43
6.0
 50
180.0
  0
INSERT
  5
4570
330
37F6
100
AcDbEntity
  8
寸法線
 62
     0
 48
10.0
370
    -2
100
AcDbBlockReference
  2
_Open30
 10
485.247334251779
 20
237.52833675906
 30
0.0
 41
6.0
 42
6.0
 43
6.0
  0
MTEXT
  5
4571
330
37F6
100
AcDbEntity
  8
寸法線
 62
     0
 48
10.0
100
AcDbMText
 10
410.239261600882
 20
242.15333675906
 30
0.0
 40
8.0
 41
0.0
 71
     5
 72
     1
  1
\A1;150
 73
     1
 44
1.0
  0
POINT
  5
4572
330
37F6
100
AcDbEntity
  8
DEFPOINTS
 62
     0
 48
10.0
100
AcDbPoint
 10
335.231188949985
 20
256.327202407855
 30
0.0
  0
POINT
  5
4573
330
37F6
100
AcDbEntity
  8
DEFPOINTS
 62
     0
 48
10.0
100
AcDbPoint
 10
485.247334251779
 20
257.577202407855
 30
0.0
  0
POINT
  5
4574
330
37F6
100
AcDbEntity
  8
DEFPOINTS
 62
     0
 48
10.0
100
AcDbPoint
 10
485.247334251779
 20
237.52833675906
 30
0.0
  0
ENDBLK
  5
3801
330
37F6
100
AcDbEntity
  8
0
 48
10.0
100
AcDbBlockEnd
  0
BLOCK
  5
380C
330
3802
100
AcDbEntity
  8
0
 48
10.0
100
AcDbBlockBegin
  2
*D10
 70
     1
 10
0.0
 20
0.0
 30
0.0
  3
*D10
  1
*D10
  0
LINE
  5
4563
330
3802
100
AcDbEntity
  8
寸法線
 62
     0
 48
10.0
370
    -2
100
AcDbLine
 10
485.247334251779
 20
327.396790235524
 30
0.0
 11
485.247334251779
 21
256.327202407855
 31
0.0
  0
LINE
  5
4564
330
3802
100
AcDbEntity
  8
寸法線
 62
     0
 48
10.0
370
    -2
100
AcDbLine
 10
402.247334251779
 20
280.571865571275
 30
0.0
 11
402.247334251779
 21
256.327202407855
 31
0.0
  0
LINE
  5
4565
330
3802
100
AcDbEntity
  8
寸法線
 62
     0
 48
10.0
370
    -2
100
AcDbLine
 10
479.247334251779
 20
257.577202407855
 30
0.0
 11
408.247334251779
 21
257.577202407855
 31
0.0
  0
INSERT
  5
4566
330
3802
100
AcDbEntity
  8
寸法線
 62
     0
 48
10.0
370
    -2
100
AcDbBlockReference
  2
_Open30
 10
485.247334251779
 20
257.577202407855
 30
0.0
 41
6.0
 42
6.0
 43
6.0
  0
INSERT
  5
4567
330
3802
100
AcDbEntity
  8
寸法線
 62
     0
 48
10.0
370
    -2
100
AcDbBlockReference
  2
_Open30
 10
402.247334251779
 20
257.577202407855
 30
0.0
 41
6.0
 42
6.0
 43
6.0
 50
180.0
  0
MTEXT
  5
4568
330
3802
100
AcDbEntity
  8
寸法線
 62
     0
 48
10.0
100
AcDbMText
 10
443.747334251779
 20
262.202202407855
 30
0.0
 40
8.0
 41
0.0
 71
     5
 72
     1
  1
\A1;83
 73
     1
 44
1.0
  0
POINT
  5
4569
330
3802
100
AcDbEntity
  8
DEFPOINTS
 62
     0
 48
10.0
100
AcDbPoint
 10
485.247334251779
 20
328.021790235524
 30
0.0
  0
POINT
  5
456A
330
3802
100
AcDbEntity
  8
DEFPOINTS
 62
     0
 48
10.0
100
AcDbPoint
 10
402.247334251779
 20
281.196865571275
 30
0.0
  0
POINT
  5
456B
330
3802
100
AcDbEntity
  8
DEFPOINTS
 62
     0
 48
10.0
100
AcDbPoint
 10
402.247334251779
 20
257.577202407855
 30
0.0
  0
ENDBLK
  5
380D
330
3802
100
AcDbEntity
  8
0
 48
10.0
100
AcDbBlockEnd
  0
BLOCK
  5
3832
330
3826
100
AcDbEntity
  8
0
 48
10.0
100
AcDbBlockBegin
  2
*D11
 70
     1
 10
0.0
 20
0.0
 30
0.0
  3
*D11
  1
*D11
  0
LINE
  5
4558
330
3826
100
AcDbEntity
  8
寸法線
 62
     0
 48
10.0
370
    -2
100
AcDbLine
 10
335.231188949985
 20
281.947991108717
 30
0.0
 11
335.231188949985
 21
256.327202407855
 31
0.0
  0
LINE
  5
4559
330
3826
100
AcDbEntity
  8
寸法線
 62
     0
 48
10.0
370
    -2
100
AcDbLine
 10
347.231188949985
 20
281.947991108717
 30
0.0
 11
347.231188949985
 21
256.327202407855
 31
0.0
  0
LINE
  5
455A
330
3826
100
AcDbEntity
  8
寸法線
 62
     0
 48
10.0
370
    -2
100
AcDbLine
 10
329.231188949985
 20
257.577202407855
 30
0.0
 11
323.231188949985
 21
257.577202407855
 31
0.0
  0
LINE
  5
455B
330
3826
100
AcDbEntity
  8
寸法線
 62
     0
 48
10.0
370
    -2
100
AcDbLine
 10
353.231188949985
 20
257.577202407855
 30
0.0
 11
359.231188949985
 21
257.577202407855
 31
0.0
  0
LINE
  5
455C
330
3826
100
AcDbEntity
  8
寸法線
 62
     0
 48
10.0
370
    -2
100
AcDbLine
 10
335.231188949985
 20
257.577202407855
 30
0.0
 11
347.231188949985
 21
257.577202407855
 31
0.0
  0
INSERT
  5
455D
330
3826
100
AcDbEntity
  8
寸法線
 62
     0
 48
10.0
370
    -2
100
AcDbBlockReference
  2
_Open30
 10
335.231188949985
 20
257.577202407855
 30
0.0
 41
6.0
 42
6.0
 43
6.0
  0
INSERT
  5
455E
330
3826
100
AcDbEntity
  8
寸法線
 62
     0
 48
10.0
370
    -2
100
AcDbBlockReference
  2
_Open30
 10
347.231188949985
 20
257.577202407855
 30
0.0
 41
6.0
 42
6.0
 43
6.0
 50
180.0
  0
MTEXT
  5
455F
330
3826
100
AcDbEntity
  8
寸法線
 62
     0
 48
10.0
100
AcDbMText
 10
341.231188949985
 20
262.20298980943
 30
0.0
 40
8.0
 41
0.0
 71
     5
 72
     1
  1
\A1;12
 73
     1
 44
1.0
  0
POINT
  5
4560
330
3826
100
AcDbEntity
  8
DEFPOINTS
 62
     0
 48
10.0
100
AcDbPoint
 10
335.231188949985
 20
282.572991108717
 30
0.0
  0
POINT
  5
4561
330
3826
100
AcDbEntity
  8
DEFPOINTS
 62
     0
 48
10.0
100
AcDbPoint
 10
347.231188949985
 20
282.572991108717
 30
0.0
  0
POINT
  5
4562
330
3826
100
AcDbEntity
  8
DEFPOINTS
 62
     0
 48
10.0
100
AcDbPoint
 10
347.231188949985
 20
257.577202407855
 30
0.0
  0
ENDBLK
  5
3833
330
3826
100
AcDbEntity
  8
0
 48
10.0
100
AcDbBlockEnd
  0
BLOCK
  5
383E
330
3834
100
AcDbEntity
  8
0
 48
10.0
100
AcDbBlockBegin
  2
*D12
 70
     1
 10
0.0
 20
0.0
 30
0.0
  3
*D12
  1
*D12
  0
LINE
  5
454F
330
3834
100
AcDbEntity
  8
寸法線
 62
     0
 48
10.0
370
    -2
100
AcDbLine
 10
215.231188949985
 20
311.447991108717
 30
0.0
 11
215.231188949985
 21
292.657884818729
 31
0.0
  0
LINE
  5
4550
330
3834
100
AcDbEntity
  8
寸法線
 62
     0
 48
10.0
370
    -2
100
AcDbLine
 10
245.231188949985
 20
311.447991108717
 30
0.0
 11
245.231188949985
 21
292.657884818729
 31
0.0
  0
LINE
  5
4551
330
3834
100
AcDbEntity
  8
寸法線
 62
     0
 48
10.0
370
    -2
100
AcDbLine
 10
221.231188949985
 20
293.907884818729
 30
0.0
 11
239.231188949985
 21
293.907884818729
 31
0.0
  0
INSERT
  5
4552
330
3834
100
AcDbEntity
  8
寸法線
 62
     0
 48
10.0
370
    -2
100
AcDbBlockReference
  2
_Open30
 10
215.231188949985
 20
293.907884818729
 30
0.0
 41
6.0
 42
6.0
 43
6.0
 50
180.0
  0
INSERT
  5
4553
330
3834
100
AcDbEntity
  8
寸法線
 62
     0
 48
10.0
370
    -2
100
AcDbBlockReference
  2
_Open30
 10
245.231188949985
 20
293.907884818729
 30
0.0
 41
6.0
 42
6.0
 43
6.0
  0
MTEXT
  5
4554
330
3834
100
AcDbEntity
  8
寸法線
 62
     0
 48
10.0
100
AcDbMText
 10
230.231188949985
 20
298.532884818729
 30
0.0
 40
8.0
 41
0.0
 71
     5
 72
     1
  1
\A1;30
 73
     1
 44
1.0
  0
POINT
  5
4555
330
3834
100
AcDbEntity
  8
DEFPOINTS
 62
     0
 48
10.0
100
AcDbPoint
 10
215.231188949985
 20
312.072991108717
 30
0.0
  0
POINT
  5
4556
330
3834
100
AcDbEntity
  8
DEFPOINTS
 62
     0
 48
10.0
100
AcDbPoint
 10
245.231188949985
 20
312.072991108717
 30
0.0
  0
POINT
  5
4557
330
3834
100
AcDbEntity
  8
DEFPOINTS
 62
     0
 48
10.0
100
AcDbPoint
 10
245.231188949985
 20
293.907884818729
 30
0.0
  0
ENDBLK
  5
383F
330
3834
100
AcDbEntity
  8
0
 48
10.0
100
AcDbBlockEnd
  0
BLOCK
  5
384A
330
3840
100
AcDbEntity
  8
0
 48
10.0
100
AcDbBlockBegin
  2
*D13
 70
     1
 10
0.0
 20
0.0
 30
0.0
  3
*D13
  1
*D13
  0
LINE
  5
4546
330
3840
100
AcDbEntity
  8
寸法線
 62
     0
 48
10.0
370
    -2
100
AcDbLine
 10
214.606188949985
 20
372.072991108717
 30
0.0
 11
194.640956560493
 21
372.072991108717
 31
0.0
  0
LINE
  5
4547
330
3840
100
AcDbEntity
  8
寸法線
 62
     0
 48
10.0
370
    -2
100
AcDbLine
 10
214.606188949985
 20
312.072991108717
 30
0.0
 11
194.640956560493
 21
312.072991108717
 31
0.0
  0
LINE
  5
4548
330
3840
100
AcDbEntity
  8
寸法線
 62
     0
 48
10.0
370
    -2
100
AcDbLine
 10
195.890956560493
 20
366.072991108717
 30
0.0
 11
195.890956560493
 21
318.072991108717
 31
0.0
  0
INSERT
  5
4549
330
3840
100
AcDbEntity
  8
寸法線
 62
     0
 48
10.0
370
    -2
100
AcDbBlockReference
  2
_Open30
 10
195.890956560493
 20
372.072991108717
 30
0.0
 41
6.0
 42
6.0
 43
6.0
 50
90.0
  0
INSERT
  5
454A
330
3840
100
AcDbEntity
  8
寸法線
 62
     0
 48
10.0
370
    -2
100
AcDbBlockReference
  2
_Open30
 10
195.890956560493
 20
312.072991108717
 30
0.0
 41
6.0
 42
6.0
 43
6.0
 50
270.0
  0
MTEXT
  5
454B
330
3840
100
AcDbEntity
  8
寸法線
 62
     0
 48
10.0
100
AcDbMText
 10
191.265956560493
 20
342.072991108717
 30
0.0
 40
8.0
 41
0.0
 71
     5
 72
     1
  1
\A1;60
 11
6.123031769111886E-17
 21
1.0
 31
0.0
 73
     1
 44
1.0
  0
POINT
  5
454C
330
3840
100
AcDbEntity
  8
DEFPOINTS
 62
     0
 48
10.0
100
AcDbPoint
 10
215.231188949985
 20
372.072991108717
 30
0.0
  0
POINT
  5
454D
330
3840
100
AcDbEntity
  8
DEFPOINTS
 62
     0
 48
10.0
100
AcDbPoint
 10
215.231188949985
 20
312.072991108717
 30
0.0
  0
POINT
  5
454E
330
3840
100
AcDbEntity
  8
DEFPOINTS
 62
     0
 48
10.0
100
AcDbPoint
 10
195.890956560493
 20
312.072991108717
 30
0.0
  0
ENDBLK
  5
384B
330
3840
100
AcDbEntity
  8
0
 48
10.0
100
AcDbBlockEnd
  0
BLOCK
  5
3870
330
3864
100
AcDbEntity
  8
0
 48
10.0
100
AcDbBlockBegin
  2
*D14
 70
     1
 10
0.0
 20
0.0
 30
0.0
  3
*D14
  1
*D14
  0
LINE
  5
4529
330
3864
100
AcDbEntity
  8
寸法線
 62
     0
 48
10.0
370
    -2
100
AcDbLine
 10
30.488292065877
 20
324.622033094659
 30
0.0
 11
30.488292065877
 21
325.247033094659
 31
0.0
  0
LINE
  5
452A
330
3864
100
AcDbEntity
  8
寸法線
 62
     0
 48
10.0
370
    -2
100
AcDbLine
 10
33.488292065877
 20
324.622033094659
 30
0.0
 11
33.488292065877
 21
325.247033094659
 31
0.0
  0
LINE
  5
452B
330
3864
100
AcDbEntity
  8
寸法線
 62
     0
 48
10.0
370
    -2
100
AcDbLine
 10
24.488292065877
 20
323.997033094659
 30
0.0
 11
18.488292065877
 21
323.997033094659
 31
0.0
  0
LINE
  5
452C
330
3864
100
AcDbEntity
  8
寸法線
 62
     0
 48
10.0
370
    -2
100
AcDbLine
 10
39.488292065877
 20
323.997033094659
 30
0.0
 11
50.269662915775
 21
323.997033094659
 31
0.0
  0
LINE
  5
452D
330
3864
100
AcDbEntity
  8
寸法線
 62
     0
 48
10.0
370
    -2
100
AcDbLine
 10
30.488292065877
 20
323.997033094659
 30
0.0
 11
33.488292065877
 21
323.997033094659
 31
0.0
  0
INSERT
  5
452E
330
3864
100
AcDbEntity
  8
寸法線
 62
     0
 48
10.0
370
    -2
100
AcDbBlockReference
  2
_Open30
 10
30.488292065877
 20
323.997033094659
 30
0.0
 41
6.0
 42
6.0
 43
6.0
  0
INSERT
  5
452F
330
3864
100
AcDbEntity
  8
寸法線
 62
     0
 48
10.0
370
    -2
100
AcDbBlockReference
  2
_Open30
 10
33.488292065877
 20
323.997033094659
 30
0.0
 41
6.0
 42
6.0
 43
6.0
 50
180.0
  0
MTEXT
  5
4530
330
3864
100
AcDbEntity
  8
寸法線
 62
     0
 48
10.0
100
AcDbMText
 10
47.878977490826
 20
328.622033094659
 30
0.0
 40
8.0
 41
0.0
 71
     5
 72
     1
  1
\A1;3
 73
     1
 44
1.0
  0
POINT
  5
4531
330
3864
100
AcDbEntity
  8
DEFPOINTS
 62
     0
 48
10.0
100
AcDbPoint
 10
30.488292065877
 20
323.997033094659
 30
0.0
  0
POINT
  5
4532
330
3864
100
AcDbEntity
  8
DEFPOINTS
 62
     0
 48
10.0
100
AcDbPoint
 10
33.488292065877
 20
323.997033094659
 30
0.0
  0
POINT
  5
4533
330
3864
100
AcDbEntity
  8
DEFPOINTS
 62
     0
 48
10.0
100
AcDbPoint
 10
33.488292065877
 20
323.997033094659
 30
0.0
  0
ENDBLK
  5
3871
330
3864
100
AcDbEntity
  8
0
 48
10.0
100
AcDbBlockEnd
  0
BLOCK
  5
3A03
330
3A01
100
AcDbEntity
  8
0
 48
10.0
100
AcDbBlockBegin
  2
A$C025D1C44
 70
     0
 10
0.0
 20
0.0
 30
0.0
  3
A$C025D1C44
  1
A$C025D1C44
  0
MTEXT
  5
3A02
330
3A01
100
AcDbEntity
  8
寸法線
 48
10.0
100
AcDbMText
 10
34.400000678006
 20
-0.396850192054
 30
0.0
 40
8.0
 41
0.0
 71
     9
 72
     1
  1
\A1;SUS304
 73
     1
 44
1.0
  0
ENDBLK
  5
3A04
330
3A01
100
AcDbEntity
  8
0
 48
10.0
100
AcDbBlockEnd
  0
BLOCK
  5
3A1F
330
3A1E
100
AcDbEntity
  8
0
100
AcDbBlockBegin
  2
_DotSmall
 70
     0
 10
0.0
 20
0.0
 30
0.0
  3
_DotSmall
  1
_DotSmall
  0
LWPOLYLINE
  5
3A20
330
3A1E
100
AcDbEntity
  8
0
  6
ByBlock
 62
     0
100
AcDbPolyline
 90
        2
 70
     1
 43
0.5
 10
-0.0625
 20
0.0
 42
1.0
 10
0.0625
 20
0.0
 42
1.0
  0
ENDBLK
  5
3A21
330
3A1E
100
AcDbEntity
  8
0
100
AcDbBlockEnd
  0
BLOCK
  5
40B5
330
40B4
100
AcDbEntity
  8
0
 48
10.0
100
AcDbBlockBegin
  2
パドル　W1
 70
     0
 10
0.0
 20
0.0
 30
0.0
  3
パドル　W1
  1
パドル　W1
  0
LINE
  5
40B6
330
40B4
100
AcDbEntity
  8
中心線
 48
10.0
100
AcDbLine
 10
124.6832879095
 20
220.674073777677
 30
0.0
 11
131.9189439095
 21
220.674073777677
 31
0.0
  0
LINE
  5
40B7
330
40B4
100
AcDbEntity
  8
外形線
 48
10.0
100
AcDbLine
 10
58.3011159095
 20
260.651761921811
 30
0.0
 11
58.3011159095
 21
180.651761921811
 31
0.0
  0
LINE
  5
40B8
330
40B4
100
AcDbEntity
  8
外形線
 48
10.0
100
AcDbLine
 10
58.3011159095
 20
180.651761921811
 30
0.0
 11
123.3011159095
 21
180.651761921811
 31
0.0
  0
LINE
  5
40B9
330
40B4
100
AcDbEntity
  8
外形線
 48
10.0
100
AcDbLine
 10
138.3011159095
 20
208.651761921811
 30
0.0
 11
138.3011159095
 21
212.376811207105
 31
0.0
  0
LINE
  5
40BA
330
40B4
100
AcDbEntity
  8
外形線
 48
10.0
100
AcDbLine
 10
123.3011159095
 20
260.651761921811
 30
0.0
 11
58.3011159095
 21
260.651761921811
 31
0.0
  0
LINE
  5
40BB
330
40B4
100
AcDbEntity
  8
外形線
 48
10.0
100
AcDbLine
 10
138.3011159095
 20
232.651761921811
 30
0.0
 11
123.3011159095
 21
260.651761921811
 31
0.0
  0
LINE
  5
40BC
330
40B4
100
AcDbEntity
  8
外形線
 48
10.0
100
AcDbLine
 10
138.3011159095
 20
208.651761921811
 30
0.0
 11
123.3011159095
 21
180.651761921811
 31
0.0
  0
LINE
  5
40BD
330
40B4
100
AcDbEntity
  8
外形線
 48
10.0
100
AcDbLine
 10
153.3011159095
 20
212.376811207105
 30
0.0
 11
153.3011159095
 21
228.941629207105
 31
0.0
  0
LINE
  5
40BE
330
40B4
100
AcDbEntity
  8
外形線
100
AcDbLine
 10
125.0147379095
 20
212.376811207105
 30
0.0
 11
153.3011159095
 21
212.376811207105
 31
0.0
  0
LINE
  5
40BF
330
40B4
100
AcDbEntity
  8
細線
100
AcDbLine
 10
153.2891519095
 20
216.518045207105
 30
0.0
 11
124.6692799095
 21
216.518045207105
 31
0.0
  0
LINE
  5
40C0
330
40B4
100
AcDbEntity
  8
外形線
100
AcDbLine
 10
125.0147379095
 20
228.941629207105
 30
0.0
 11
123.3011159095
 21
227.228007207105
 31
0.0
  0
ARC
  5
40C1
330
40B4
100
AcDbEntity
  8
細線
100
AcDbCircle
 10
126.4810479095
 20
227.420755207105
 30
0.0
 40
3.18575
100
AcDbArc
 50
183.469852255156
 51
235.339263082109
  0
LINE
  5
40C2
330
40B4
100
AcDbEntity
  8
細線
100
AcDbLine
 10
153.2891519095
 20
224.800395207105
 30
0.0
 11
124.6692799095
 21
224.800395207105
 31
0.0
  0
ARC
  5
40C3
330
40B4
100
AcDbEntity
  8
細線
100
AcDbCircle
 10
126.4810479095
 20
213.897685207105
 30
0.0
 40
3.18575
100
AcDbArc
 50
124.660776613574
 51
176.530130144749
  0
LINE
  5
40C4
330
40B4
100
AcDbEntity
  8
外形線
100
AcDbLine
 10
123.3011159095
 20
227.228007207105
 30
0.0
 11
123.3011159095
 21
214.090433207105
 31
0.0
  0
CIRCLE
  5
40C5
330
40B4
100
AcDbEntity
  8
外形線
100
AcDbCircle
 10
128.3011159095
 20
220.674073777677
 30
0.0
 40
2.28479
  0
ARC
  5
40C6
330
40B4
100
AcDbEntity
  8
細線
100
AcDbCircle
 10
130.2525019095
 20
220.659219207105
 30
0.0
 40
6.951389999999999
100
AcDbArc
 50
143.43540034864
 51
216.564582051267
  0
LINE
  5
40C7
330
40B4
100
AcDbEntity
  8
中心線
 48
10.0
100
AcDbLine
 10
128.3011159095
 20
224.291901777677
 30
0.0
 11
128.3011159095
 21
217.056245777676
 31
0.0
  0
LINE
  5
40C8
330
40B4
100
AcDbEntity
  8
外形線
100
AcDbLine
 10
125.0147379095
 20
212.376811207105
 30
0.0
 11
123.3011159095
 21
214.090433207105
 31
0.0
  0
LINE
  5
40C9
330
40B4
100
AcDbEntity
  8
外形線
100
AcDbLine
 10
125.0147379095
 20
228.941629207105
 30
0.0
 11
153.3011159095
 21
228.941629207105
 31
0.0
  0
LINE
  5
40CA
330
40B4
100
AcDbEntity
  8
外形線
 48
10.0
100
AcDbLine
 10
138.3011159095
 20
228.941629207105
 30
0.0
 11
138.3011159095
 21
232.651761921811
 31
0.0
  0
ENDBLK
  5
40CB
330
40B4
100
AcDbEntity
  8
0
 48
10.0
100
AcDbBlockEnd
  0
BLOCK
  5
413B
330
413A
100
AcDbEntity
  8
0
 48
10.0
100
AcDbBlockBegin
  2
A$C480F1F2B
 70
     0
 10
0.0
 20
0.0
 30
0.0
  3
A$C480F1F2B
  1
A$C480F1F2B
  0
LINE
  5
413C
330
413A
100
AcDbEntity
  8
外形線
100
AcDbLine
 10
8.500001501512
 20
2.385002184348
 30
0.0
 11
8.500001501512
 21
14.179664684348
 31
0.0
  0
ARC
  5
413D
330
413A
100
AcDbEntity
  8
細線
100
AcDbCircle
 10
1.216144001512
 20
8.282372184348
 30
0.0
 40
7.2838425
100
AcDbArc
 50
326.010120640452
 51
33.98932849733
  0
ARC
  5
413E
330
413A
100
AcDbEntity
  8
細線
100
AcDbCircle
 10
4.911364001511
 20
1.275229684348
 30
0.0
 40
3.7563025
100
AcDbArc
 50
17.184150191555
 51
51.38761061704
  0
LINE
  5
413F
330
413A
100
AcDbEntity
  8
細線
100
AcDbLine
 10
2.000001501511
 20
4.210487184348
 30
0.0
 11
7.255442473881
 21
4.210487184348
 31
0.0
  0
LINE
  5
4140
330
413A
100
AcDbEntity
  8
外形線
100
AcDbLine
 10
2.000001501511
 20
16.564818684348
 30
0.0
 11
2.000001501511
 21
0.000000684348
 31
0.0
  0
LINE
  5
4141
330
413A
100
AcDbEntity
  8
外形線
100
AcDbLine
 10
0.000001501512
 20
16.564818684348
 30
0.0
 11
0.000001501512
 21
0.000000684348
 31
0.0
  0
LINE
  5
4142
330
413A
100
AcDbEntity
  8
外形線
100
AcDbLine
 10
6.114929777464
 20
0.000000684348
 30
0.0
 11
8.499926501511
 21
2.385079684348
 31
0.0
  0
LINE
  5
4143
330
413A
100
AcDbEntity
  8
外形線
100
AcDbLine
 10
0.000001501512
 20
0.000000684348
 30
0.0
 11
6.114929777464
 21
0.000000684348
 31
0.0
  0
ARC
  5
4144
330
413A
100
AcDbEntity
  8
細線
100
AcDbCircle
 10
4.911364001511
 20
15.289437184348
 30
0.0
 40
3.7563025
100
AcDbArc
 50
308.612371782873
 51
342.81588950412
  0
LINE
  5
4145
330
413A
100
AcDbEntity
  8
細線
100
AcDbLine
 10
2.000001501511
 20
12.354369684348
 30
0.0
 11
7.25548242852
 21
12.354369684348
 31
0.0
  0
LINE
  5
4146
330
413A
100
AcDbEntity
  8
外形線
100
AcDbLine
 10
6.11493439904
 20
16.564818684348
 30
0.0
 11
8.499926501511
 21
14.179664684348
 31
0.0
  0
LINE
  5
4147
330
413A
100
AcDbEntity
  8
外形線
100
AcDbLine
 10
0.000001501512
 20
16.564818684348
 30
0.0
 11
6.11493439904
 21
16.564818684348
 31
0.0
  0
ENDBLK
  5
4148
330
413A
100
AcDbEntity
  8
0
 48
10.0
100
AcDbBlockEnd
  0
BLOCK
  5
42B1
330
42A7
100
AcDbEntity
  8
0
 48
10.0
100
AcDbBlockBegin
  2
*D19
 70
     1
 10
0.0
 20
0.0
 30
0.0
  3
*D19
  1
*D19
  0
LINE
  5
4520
330
42A7
100
AcDbEntity
  8
寸法線
 62
     0
 48
10.0
370
    -2
100
AcDbLine
 10
441.574194483696
 20
411.072991108717
 30
0.0
 11
508.837030913575
 21
411.072991108717
 31
0.0
  0
LINE
  5
4521
330
42A7
100
AcDbEntity
  8
寸法線
 62
     0
 48
10.0
370
    -2
100
AcDbLine
 10
441.574194483696
 20
309.072991108717
 30
0.0
 11
508.837030913575
 21
309.072991108717
 31
0.0
  0
LINE
  5
4522
330
42A7
100
AcDbEntity
  8
寸法線
 62
     0
 48
10.0
370
    -2
100
AcDbLine
 10
507.587030913575
 20
405.072991108717
 30
0.0
 11
507.587030913575
 21
315.072991108717
 31
0.0
  0
INSERT
  5
4523
330
42A7
100
AcDbEntity
  8
寸法線
 62
     0
 48
10.0
370
    -2
100
AcDbBlockReference
  2
_Open30
 10
507.587030913575
 20
411.072991108717
 30
0.0
 41
6.0
 42
6.0
 43
6.0
 50
90.0
  0
INSERT
  5
4524
330
42A7
100
AcDbEntity
  8
寸法線
 62
     0
 48
10.0
370
    -2
100
AcDbBlockReference
  2
_Open30
 10
507.587030913575
 20
309.072991108717
 30
0.0
 41
6.0
 42
6.0
 43
6.0
 50
270.0
  0
MTEXT
  5
4525
330
42A7
100
AcDbEntity
  8
寸法線
 62
     0
 48
10.0
100
AcDbMText
 10
502.961243512
 20
359.460991608717
 30
0.0
 40
8.0
 41
0.0
 71
     5
 72
     1
  1
\A1;φ102
 11
6.123031769111886E-17
 21
1.0
 31
0.0
 73
     1
 44
1.0
  0
POINT
  5
4526
330
42A7
100
AcDbEntity
  8
DEFPOINTS
 62
     0
 48
10.0
100
AcDbPoint
 10
440.949194483696
 20
411.072991108717
 30
0.0
  0
POINT
  5
4527
330
42A7
100
AcDbEntity
  8
DEFPOINTS
 62
     0
 48
10.0
100
AcDbPoint
 10
440.949194483696
 20
309.072991108717
 30
0.0
  0
POINT
  5
4528
330
42A7
100
AcDbEntity
  8
DEFPOINTS
 62
     0
 48
10.0
100
AcDbPoint
 10
507.587030913575
 20
309.072991108717
 30
0.0
  0
ENDBLK
  5
42B2
330
42A7
100
AcDbEntity
  8
0
 48
10.0
100
AcDbBlockEnd
  0
BLOCK
  5
43DF
330
43DC
100
AcDbEntity
  8
0
 48
10.0
100
AcDbBlockBegin
  2
A$C2B5425E7
 70
     0
 10
0.0
 20
0.0
 30
0.0
  3
A$C2B5425E7
  1
A$C2B5425E7
  0
MTEXT
  5
43DD
330
43DC
100
AcDbEntity
  8
寸法線
 62
     1
 48
10.0
100
AcDbMText
 10
275.775795300829
 20
48.287740799355
 30
0.0
 40
5.0
 41
84.309437668294
 71
     1
 72
     5
  1
BT(W12×25)、W、P 付
 73
     1
 44
1.0
  0
MTEXT
  5
43DE
330
43DC
100
AcDbEntity
  8
寸法線
 62
     1
 48
10.0
100
AcDbMText
 10
-0.088877577583
 20
3.500688659158
 30
0.0
 40
3.5
 41
104.780441503314
 71
     1
 72
     5
  1
2012.6.12  接点容量変更 6A→5A
 73
     1
 44
1.0
  0
ENDBLK
  5
43E0
330
43DC
100
AcDbEntity
  8
0
 48
10.0
100
AcDbBlockEnd
  0
BLOCK
  5
45C3
330
45BA
100
AcDbEntity
  8
0
 62
     1
 48
10.0
100
AcDbBlockBegin
  2
*D21
 70
     1
 10
0.0
 20
0.0
 30
0.0
  3
*D21
  1
*D21
  0
LINE
  5
45CD
330
45BA
100
AcDbEntity
  8
寸法線
 62
     0
 48
10.0
370
    -2
100
AcDbLine
 10
-19.369364363424
 20
331.031822353919
 30
0.0
 11
83.345980495178
 21
389.114159863515
 31
0.0
  0
MTEXT
  5
45CE
330
45BA
100
AcDbEntity
  8
寸法線
 62
     0
 48
10.0
100
AcDbMText
 10
66.74013650911
 20
385.594390228211
 30
0.0
 40
8.0
 41
0.0
 71
     5
 72
     1
  1
\A1;\U+2205130
 11
0.8704690242254374
 21
0.4922231992338588
 31
0.0
 73
     1
 44
1.0
  0
INSERT
  5
45CF
330
45BA
100
AcDbEntity
  8
寸法線
 62
     0
 48
10.0
370
    -2
100
AcDbBlockReference
  2
_Open30
 10
-24.592178508777
 20
328.078483158516
 30
0.0
 41
6.0
 42
6.0
 43
6.0
 50
209.486811041888
  0
INSERT
  5
45D0
330
45BA
100
AcDbEntity
  8
寸法線
 62
     0
 48
10.0
370
    -2
100
AcDbBlockReference
  2
_Open30
 10
88.56879464053
 20
392.067499058918
 30
0.0
 41
6.0
 42
6.0
 43
6.0
 50
29.486811041888
  0
POINT
  5
45D1
330
45BA
100
AcDbEntity
  8
DEFPOINTS
 62
     0
 48
10.0
100
AcDbPoint
 10
88.56879464053
 20
392.067499058918
 30
0.0
  0
POINT
  5
45D2
330
45BA
100
AcDbEntity
  8
DEFPOINTS
 62
     0
 48
10.0
100
AcDbPoint
 10
-24.592178508777
 20
328.078483158516
 30
0.0
  0
ENDBLK
  5
45C4
330
45BA
100
AcDbEntity
  8
0
 62
     1
 48
10.0
100
AcDbBlockEnd
  0
BLOCK
  5
45DD
330
45D4
100
AcDbEntity
  8
0
 62
     1
 48
10.0
100
AcDbBlockBegin
  2
*D22
 70
     1
 10
0.0
 20
0.0
 30
0.0
  3
*D22
  1
*D22
  0
LINE
  5
45E7
330
45D4
100
AcDbEntity
  8
寸法線
 62
     0
 48
10.0
370
    -2
100
AcDbLine
 10
-38.681142738258
 20
349.20658561584
 30
0.0
 11
102.657758229088
 21
370.939396601594
 31
0.0
  0
MTEXT
  5
45E8
330
45D4
100
AcDbEntity
  8
寸法線
 62
     0
 48
10.0
100
AcDbMText
 10
79.282402169584
 20
372.754388876165
 30
0.0
 40
8.0
 41
0.0
 71
     5
 72
     1
  1
\A1;\U+2205155
 11
0.9883839228485796
 21
0.1519776992010772
 31
0.0
 73
     1
 44
1.0
  0
INSERT
  5
45E9
330
45D4
100
AcDbEntity
  8
寸法線
 62
     0
 48
10.0
370
    -2
100
AcDbBlockReference
  2
_Open30
 10
-44.61144627535
 20
348.294719420633
 30
0.0
 41
6.0
 42
6.0
 43
6.0
 50
188.741554552817
  0
INSERT
  5
45EA
330
45D4
100
AcDbEntity
  8
寸法線
 62
     0
 48
10.0
370
    -2
100
AcDbBlockReference
  2
_Open30
 10
108.58806176618
 20
371.851262796801
 30
0.0
 41
6.0
 42
6.0
 43
6.0
 50
8.741554552817
  0
POINT
  5
45EB
330
45D4
100
AcDbEntity
  8
DEFPOINTS
 62
     0
 48
10.0
100
AcDbPoint
 10
108.58806176618
 20
371.851262796801
 30
0.0
  0
POINT
  5
45EC
330
45D4
100
AcDbEntity
  8
DEFPOINTS
 62
     0
 48
10.0
100
AcDbPoint
 10
-44.61144627535
 20
348.294719420633
 30
0.0
  0
ENDBLK
  5
45DE
330
45D4
100
AcDbEntity
  8
0
 62
     1
 48
10.0
100
AcDbBlockEnd
  0
BLOCK
  5
4A21
330
4891
100
AcDbEntity
  8
0
100
AcDbBlockBegin
  2
パドル　W1立面図
 70
     0
 10
0.0
 20
0.0
 30
0.0
  3
パドル　W1立面図
  1
パドル　W1立面図
  0
LINE
  5
4893
330
4891
100
AcDbEntity
  8
外形線
 48
10.0
100
AcDbLine
 10
-4.385455455444
 20
189.61846140322
 30
0.0
 11
-7.241459969979
 21
189.61846140322
 31
0.0
  0
LINE
  5
4894
330
4891
100
AcDbEntity
  8
外形線
 48
10.0
100
AcDbLine
 10
-4.385455455444
 20
269.61846140322
 30
0.0
 11
-7.241459969979
 21
269.61846140322
 31
0.0
  0
LINE
  5
4895
330
4891
100
AcDbEntity
  8
外形線
 48
10.0
100
AcDbLine
 10
-4.385455455444
 20
189.61846140322
 30
0.0
 11
-4.385455455444
 21
269.61846140322
 31
0.0
  0
LINE
  5
4896
330
4891
100
AcDbEntity
  8
外形線
 48
10.0
100
AcDbLine
 10
-7.241459969979
 20
269.61846140322
 30
0.0
 11
-7.241459969979
 21
189.61846140322
 31
0.0
  0
LINE
  5
4897
330
4891
100
AcDbEntity
  8
外形線
100
AcDbLine
 10
-4.385468503734
 20
237.376935973808
 30
0.0
 11
1.606659496266
 21
233.917433973808
 31
0.0
  0
ARC
  5
4898
330
4891
100
AcDbEntity
  8
細線
100
AcDbCircle
 10
-5.813446503734
 20
229.633375973808
 30
0.0
 40
8.568
100
AcDbArc
 50
279.594007516002
 51
80.406014579591
  0
LINE
  5
4899
330
4891
100
AcDbEntity
  8
外形線
100
AcDbLine
 10
1.606659496266
 20
233.917433973808
 30
0.0
 11
1.606659496266
 21
225.349439973808
 31
0.0
  0
LINE
  5
489A
330
4891
100
AcDbEntity
  8
外形線
100
AcDbLine
 10
-4.385468503734
 20
221.889815973808
 30
0.0
 11
1.606659496266
 21
225.349439973808
 31
0.0
  0
ARC
  5
489B
330
4891
100
AcDbEntity
  8
細線
100
AcDbCircle
 10
-5.813446503734
 20
229.633375973808
 30
0.0
 40
7.458525999999999
100
AcDbArc
 50
281.037746568172
 51
78.962275527419
  0
LINE
  5
489C
330
4891
100
AcDbEntity
  8
外形線
100
AcDbLine
 10
-7.241454503734
 20
221.889845973808
 30
0.0
 11
-13.233550503734
 21
225.349439973808
 31
0.0
  0
LINE
  5
489D
330
4891
100
AcDbEntity
  8
外形線
100
AcDbLine
 10
-13.233550503734
 20
225.349439973808
 30
0.0
 11
-13.233550503734
 21
233.917433973808
 31
0.0
  0
LINE
  5
489E
330
4891
100
AcDbEntity
  8
外形線
100
AcDbLine
 10
-7.241454503734
 20
237.376905973808
 30
0.0
 11
-13.233550503734
 21
233.917433973808
 31
0.0
  0
ARC
  5
489F
330
4891
100
AcDbEntity
  8
細線
100
AcDbCircle
 10
-5.813446503734
 20
229.633375973808
 30
0.0
 40
7.458525999999999
100
AcDbArc
 50
101.038013199227
 51
258.962026496458
  0
ARC
  5
48A0
330
4891
100
AcDbEntity
  8
細線
100
AcDbCircle
 10
-5.813446503734
 20
229.633375973808
 30
0.0
 40
8.568
100
AcDbArc
 50
99.594159555498
 51
260.405880140189
  0
ENDBLK
  5
4A22
330
4891
100
AcDbEntity
  8
0
100
AcDbBlockEnd
  0
ENDSEC
  0
SECTION
  2
ENTITIES
  0
LEADER
  5
371D
330
1A
100
AcDbEntity
  8
寸法線
 62
     1
 48
10.0
100
AcDbLeader
  3
ISO-25
 76
     3
 10
-14.292492861868
 20
306.865505808629
 30
0.0
 10
-14.479049745168
 20
262.862044919449
 30
0.0
 10
-22.314438843785
 20
262.862044919449
 30
0.0
213
14.24197595482948
223
0.0
233
0.0
1001
ACAD
1000
DSTYLE
1002
{
1070
   147
1040
0.625
1070
    77
1070
     0
1070
    41
1040
6.0
1070
    47
1040
0.1
1070
    48
1040
0.1
1070
    73
1070
     0
1070
   140
1040
8.0
1070
   271
1070
     1
1070
   272
1070
     1
1070
   341
1005
2AF4
1070
   342
1005
2AF4
1002
}
  0
MTEXT
  5
371E
330
1A
100
AcDbEntity
  8
寸法線
 48
10.0
100
AcDbMText
 10
188.295546877177
 20
467.384434297127
 30
0.0
 40
8.0
 41
0.0
 71
     9
 72
     1
  1
\A1;SUS304
 73
     1
 44
1.0
  0
MTEXT
  5
3720
330
1A
100
AcDbEntity
  8
寸法線
 48
10.0
100
AcDbMText
 10
253.054621885763
 20
467.384434297127
 30
0.0
 40
8.0
 41
0.0
 71
     9
 72
     1
  1
\A1;SUS304
 73
     1
 44
1.0
  0
DIMENSION
  5
372D
330
1A
100
AcDbEntity
  8
寸法線
 48
10.0
100
AcDbDimension
  2
*D6
 10
316.186930842361
 20
339.863674333474
 30
0.0
 11
310.741135071222
 21
372.455573730298
 31
0.0
 70
   160
  1
φ56
 71
     5
 42
55.956112932807
  3
ISO-25
100
AcDbAlignedDimension
 13
316.175171338256
 23
395.819787266281
 33
0.0
 14
316.186930842361
 24
339.863674333474
 34
0.0
 50
90.0
100
AcDbRotatedDimension
1001
ACAD
1000
DSTYLE
1002
{
1070
    41
1040
6.0
1070
    47
1040
0.1
1070
    48
1040
0.1
1070
    73
1070
     0
1070
    75
1070
     1
1070
    76
1070
     1
1070
   140
1040
8.0
1070
   271
1070
     1
1070
   272
1070
     1
1070
   279
1070
     2
1070
   341
1005
2AF4
1070
   342
1005
2AF4
1002
}
  0
LINE
  5
374D
330
1A
100
AcDbEntity
  8
寸法線
100
AcDbLine
 10
334.733448949986
 20
388.510491108717
 30
0.0
 11
310.654590949986
 21
397.994103108717
 31
0.0
  0
LINE
  5
376A
330
1A
100
AcDbEntity
  8
外形線
100
AcDbLine
 10
416.241842251778
 20
286.076195108886
 30
0.0
 11
414.813740251778
 21
284.648157108886
 31
0.0
  0
LINE
  5
376C
330
1A
100
AcDbEntity
  8
外形線
100
AcDbLine
 10
411.672138251779
 20
289.788965108886
 30
0.0
 11
411.672138251779
 21
294.072961108886
 31
0.0
  0
LINE
  5
376D
330
1A
100
AcDbEntity
  8
外形線
100
AcDbLine
 10
416.241842251778
 20
289.788965108886
 30
0.0
 11
416.241842251778
 21
286.076195108886
 31
0.0
  0
LINE
  5
376E
330
1A
100
AcDbEntity
  8
細線
100
AcDbLine
 10
409.387348251779
 20
294.072961108886
 30
0.0
 11
409.387348251779
 21
289.788965108886
 31
0.0
  0
LINE
  5
3777
330
1A
100
AcDbEntity
  8
寸法線
100
AcDbLine
 10
334.733448949986
 20
332.510491108717
 30
0.0
 11
310.654590949986
 21
341.994103108717
 31
0.0
  0
ARC
  5
377A
330
1A
100
AcDbEntity
  8
細線
100
AcDbCircle
 10
402.247334251779
 20
299.184839108886
 30
0.0
 40
14.53669
100
AcDbArc
 50
244.3907930338
 51
295.609209213942
  0
LINE
  5
377B
330
1A
100
AcDbEntity
  8
外形線
100
AcDbLine
 10
388.252950251779
 20
286.076195108886
 30
0.0
 11
389.680928251779
 21
284.648157108886
 31
0.0
  0
ARC
  5
377C
330
1A
100
AcDbEntity
  8
細線
100
AcDbCircle
 10
384.409260251779
 20
322.379449108886
 30
0.0
 40
38.097766
100
AcDbArc
 50
277.953629348533
 51
287.655580989282
  0
LINE
  5
377E
330
1A
100
AcDbEntity
  8
外形線
100
AcDbLine
 10
392.822530251778
 20
289.788965108886
 30
0.0
 11
392.822530251778
 21
294.072961108886
 31
0.0
  0
LINE
  5
377F
330
1A
100
AcDbEntity
  8
外形線
100
AcDbLine
 10
388.252950251779
 20
289.788965108886
 30
0.0
 11
388.252950251779
 21
286.076195108886
 31
0.0
  0
LINE
  5
3780
330
1A
100
AcDbEntity
  8
細線
100
AcDbLine
 10
395.107320251779
 20
294.072961108886
 30
0.0
 11
395.107320251779
 21
289.788965108886
 31
0.0
  0
LINE
  5
3781
330
1A
100
AcDbEntity
  8
細線
100
AcDbLine
 10
395.964132251779
 20
286.076195108886
 30
0.0
 11
395.964132251779
 21
289.788965108886
 31
0.0
  0
LINE
  5
3782
330
1A
100
AcDbEntity
  8
細線
100
AcDbLine
 10
408.530538251779
 20
286.076195108886
 30
0.0
 11
408.530538251779
 21
289.788965108886
 31
0.0
  0
LINE
  5
3787
330
1A
100
AcDbEntity
  8
外形線
100
AcDbLine
 10
389.680928251779
 20
284.648157108886
 30
0.0
 11
414.813740251778
 21
284.648157108886
 31
0.0
  0
LINE
  5
3789
330
1A
100
AcDbEntity
  8
外形線
100
AcDbLine
 10
388.252950251779
 20
289.788965108886
 30
0.0
 11
416.241842251778
 21
289.788965108886
 31
0.0
  0
ARC
  5
378A
330
1A
100
AcDbEntity
  8
細線
100
AcDbCircle
 10
402.818588822427
 20
283.47795354018
 30
0.0
 40
36.59213005904878
100
AcDbArc
 50
70.152880697386
 51
115.263830550288
  0
ARC
  5
378B
330
1A
100
AcDbEntity
  8
細線
100
AcDbCircle
 10
420.085408251779
 20
322.379449108886
 30
0.0
 40
38.097766
100
AcDbArc
 50
252.344421258481
 51
262.046372899211
  0
LINE
  5
3790
330
1A
100
AcDbEntity
  8
細線
100
AcDbLine
 10
378.751527004136
 20
399.200189108717
 30
0.0
 11
378.751527004136
 21
320.945795108717
 31
0.0
  0
LINE
  5
3795
330
1A
100
AcDbEntity
  8
細線
100
AcDbLine
 10
364.831164949985
 20
382.864343108717
 30
0.0
 11
364.831164949985
 21
337.281641108717
 31
0.0
  0
LINE
  5
379B
330
1A
100
AcDbEntity
  8
下書線
 48
10.0
100
AcDbLine
 10
131.851459361203
 20
466.452967632961
 30
0.0
 11
542.16315629384
 21
466.452967632961
 31
0.0
  0
DIMENSION
  5
379C
330
1A
100
AcDbEntity
  8
寸法線
 48
10.0
100
AcDbDimension
  2
*D7
 10
289.483848418702
 20
352.572991108717
 30
0.0
 11
289.483848418702
 21
382.563676533666
 31
0.0
 70
   160
  1
φ<>
 71
     5
 42
15.0
  3
ISO-25
100
AcDbAlignedDimension
 13
289.431185949985
 23
367.572991108717
 33
0.0
 14
289.431185949985
 24
352.572991108717
 34
0.0
 50
90.0
100
AcDbRotatedDimension
1001
ACAD
1000
DSTYLE
1002
{
1070
    41
1040
6.0
1070
    47
1040
0.1
1070
    48
1040
0.1
1070
    73
1070
     0
1070
   140
1040
8.0
1070
   271
1070
     1
1070
   272
1070
     1
1070
   341
1005
2AF4
1070
   342
1005
2AF4
1002
}
  0
DIMENSION
  5
379D
330
1A
100
AcDbEntity
  8
寸法線
 48
10.0
100
AcDbDimension
  2
*D8
 10
335.231188949985
 20
237.52833675906
 30
0.0
 11
275.231188949985
 21
242.154124160634
 31
0.0
 70
    32
 71
     5
 42
120.0
  3
ISO-25
100
AcDbAlignedDimension
 13
215.231188949985
 23
296.918645538221
 33
0.0
 14
335.231188949985
 24
256.327202407855
 34
0.0
100
AcDbRotatedDimension
1001
ACAD
1000
DSTYLE
1002
{
1070
    41
1040
6.0
1070
    47
1040
0.1
1070
    48
1040
0.1
1070
    73
1070
     0
1070
   140
1040
8.0
1070
   271
1070
     1
1070
   272
1070
     1
1070
   341
1005
2AF4
1070
   342
1005
2AF4
1002
}
  0
DIMENSION
  5
379E
330
1A
100
AcDbEntity
  8
寸法線
 48
10.0
100
AcDbDimension
  2
*D9
 10
485.247334251779
 20
237.52833675906
 30
0.0
 11
410.239261600882
 21
242.15333675906
 31
0.0
 70
    32
  1
150
 71
     5
 42
150.016145301793
  3
ISO-25
100
AcDbAlignedDimension
 13
335.231188949985
 23
256.327202407855
 33
0.0
 14
485.247334251779
 24
257.577202407855
 34
0.0
100
AcDbRotatedDimension
1001
ACAD
1000
DSTYLE
1002
{
1070
    41
1040
6.0
1070
    47
1040
0.1
1070
    48
1040
0.1
1070
    73
1070
     0
1070
   140
1040
8.0
1070
   271
1070
     1
1070
   272
1070
     1
1070
   341
1005
2AF4
1070
   342
1005
2AF4
1002
}
  0
DIMENSION
  5
379F
330
1A
100
AcDbEntity
  8
寸法線
 48
10.0
100
AcDbDimension
  2
*D10
 10
402.247334251779
 20
257.577202407855
 30
0.0
 11
443.747334251779
 21
262.202202407855
 31
0.0
 70
    32
  1
83
 71
     5
 42
83.0
  3
ISO-25
100
AcDbAlignedDimension
 13
485.247334251779
 23
328.021790235524
 33
0.0
 14
402.247334251779
 24
281.196865571275
 34
0.0
100
AcDbRotatedDimension
1001
ACAD
1000
DSTYLE
1002
{
1070
    41
1040
6.0
1070
    47
1040
0.1
1070
    48
1040
0.1
1070
    73
1070
     0
1070
   140
1040
8.0
1070
   271
1070
     1
1070
   272
1070
     1
1070
   341
1005
2AF4
1070
   342
1005
2AF4
1002
}
  0
DIMENSION
  5
37A2
330
1A
100
AcDbEntity
  8
寸法線
 48
10.0
100
AcDbDimension
  2
*D11
 10
347.231188949985
 20
257.577202407855
 30
0.0
 11
341.231188949985
 21
262.20298980943
 31
0.0
 70
    32
 71
     5
 42
12.0
  3
ISO-25
100
AcDbAlignedDimension
 13
335.231188949985
 23
282.572991108717
 33
0.0
 14
347.231188949985
 24
282.572991108717
 34
0.0
100
AcDbRotatedDimension
1001
ACAD
1000
DSTYLE
1002
{
1070
    41
1040
6.0
1070
    47
1040
0.1
1070
    48
1040
0.1
1070
    73
1070
     0
1070
   140
1040
8.0
1070
   271
1070
     1
1070
   272
1070
     1
1070
   341
1005
2AF4
1070
   342
1005
2AF4
1002
}
  0
DIMENSION
  5
37A3
330
1A
100
AcDbEntity
  8
寸法線
 48
10.0
100
AcDbDimension
  2
*D12
 10
245.231188949985
 20
293.907884818729
 30
0.0
 11
230.231188949985
 21
293.907884818729
 31
0.0
 70
   160
 71
     5
 42
30.0
  3
ISO-25
100
AcDbAlignedDimension
 13
215.231188949985
 23
312.072991108717
 33
0.0
 14
245.231188949985
 24
312.072991108717
 34
0.0
100
AcDbRotatedDimension
1001
ACAD
1000
DSTYLE
1002
{
1070
    41
1040
6.0
1070
    47
1040
0.1
1070
    48
1040
0.1
1070
    73
1070
     0
1070
   140
1040
8.0
1070
   271
1070
     1
1070
   272
1070
     1
1070
   341
1005
2AF4
1070
   342
1005
2AF4
1002
}
  0
DIMENSION
  5
37A4
330
1A
100
AcDbEntity
  8
寸法線
 48
10.0
100
AcDbDimension
  2
*D13
 10
195.890956560493
 20
312.072991108717
 30
0.0
 11
195.890956560493
 21
342.072991108717
 31
0.0
 70
   160
 71
     5
 42
60.0
  3
ISO-25
100
AcDbAlignedDimension
 13
215.231188949985
 23
372.072991108717
 33
0.0
 14
215.231188949985
 24
312.072991108717
 34
0.0
 50
90.0
100
AcDbRotatedDimension
1001
ACAD
1000
DSTYLE
1002
{
1070
    41
1040
6.0
1070
    47
1040
0.1
1070
    48
1040
0.1
1070
    73
1070
     0
1070
   140
1040
8.0
1070
   271
1070
     1
1070
   272
1070
     1
1070
   341
1005
2AF4
1070
   342
1005
2AF4
1002
}
  0
CIRCLE
  5
37A5
330
1A
100
AcDbEntity
  8
外形線
 48
10.0
100
AcDbCircle
 10
31.988307745415
 20
360.072991108717
 30
0.0
 40
77.5
  0
LINE
  5
37A9
330
1A
100
AcDbEntity
  8
中心線
 48
10.0
100
AcDbLine
 10
-22.658487482228
 20
305.426211560612
 30
0.0
 11
-5.28880994027
 21
322.79588910257
 31
0.0
  0
LINE
  5
37AA
330
1A
100
AcDbEntity
  8
中心線
 48
10.0
100
AcDbLine
 10
69.265394072024
 20
322.79588910257
 30
0.0
 11
86.635071613982
 21
305.426211560612
 31
0.0
  0
LINE
  5
37AB
330
1A
100
AcDbEntity
  8
中心線
 48
10.0
100
AcDbLine
 10
-22.658487482228
 20
414.719770656822
 30
0.0
 11
-5.28880994027
 21
397.350093114864
 31
0.0
  0
LINE
  5
37AC
330
1A
100
AcDbEntity
  8
中心線
 48
10.0
100
AcDbLine
 10
69.265394072024
 20
397.350093114864
 30
0.0
 11
86.635071613982
 21
414.719770656822
 31
0.0
  0
LINE
  5
37AD
330
1A
100
AcDbEntity
  8
中心線
 48
10.0
100
AcDbLine
 10
31.988307869321
 20
451.76843080614
 30
0.0
 11
31.988307621509
 21
268.377556669591
 31
0.0
  0
LINE
  5
37AE
330
1A
100
AcDbEntity
  8
中心線
 48
10.0
100
AcDbLine
 10
119.096310065877
 20
360.072991108717
 30
0.0
 11
-55.119694822859
 21
360.072991108717
 31
0.0
  0
CIRCLE
  5
37AF
330
1A
100
AcDbEntity
  8
中心線
 48
10.0
100
AcDbCircle
 10
31.988308065877
 20
360.072991108717
 30
0.0
 40
65.0
  0
DIMENSION
  5
37B0
330
1A
100
AcDbEntity
  8
寸法線
 48
10.0
100
AcDbDimension
  2
*D14
 10
33.488292065877
 20
323.997033094659
 30
0.0
 11
47.878977490826
 21
328.622033094659
 31
0.0
 70
    33
 71
     5
 42
3.0
  3
ISO-25
100
AcDbAlignedDimension
 13
30.488292065877
 23
323.997033094659
 33
0.0
 14
33.488292065877
 24
323.997033094659
 34
0.0
1001
ACAD
1000
DSTYLE
1002
{
1070
    41
1040
6.0
1070
    47
1040
0.1
1070
    48
1040
0.1
1070
    73
1070
     0
1070
   140
1040
8.0
1070
   271
1070
     1
1070
   272
1070
     1
1070
   341
1005
2AF4
1070
   342
1005
2AF4
1002
}
  0
ARC
  5
37B1
330
1A
100
AcDbEntity
  8
外形線
100
AcDbCircle
 10
31.988292065877
 20
360.072991108717
 30
0.0
 40
23.600006
100
AcDbArc
 50
273.644184588245
 51
266.355932251063
  0
ARC
  5
37B2
330
1A
100
AcDbEntity
  8
外形線
100
AcDbCircle
 10
31.988292065877
 20
360.072991108717
 30
0.0
 40
28.0
100
AcDbArc
 50
273.070883018437
 51
266.929176525092
  0
CIRCLE
  5
37B3
330
1A
100
AcDbEntity
  8
外形線
100
AcDbCircle
 10
77.950232843003
 20
406.034931885843
 30
0.0
 40
7.5
  0
CIRCLE
  5
37B4
330
1A
100
AcDbEntity
  8
外形線
100
AcDbCircle
 10
-13.973648711249
 20
406.034931885843
 30
0.0
 40
7.5
  0
CIRCLE
  5
37B5
330
1A
100
AcDbEntity
  8
外形線
100
AcDbCircle
 10
-13.973648711249
 20
314.111050331591
 30
0.0
 40
7.5
  0
CIRCLE
  5
37B6
330
1A
100
AcDbEntity
  8
外形線
100
AcDbCircle
 10
77.950232843003
 20
314.111050331591
 30
0.0
 40
7.5
  0
INSERT
  5
37B7
330
1A
100
AcDbEntity
  8
寸法線
 48
10.0
100
AcDbBlockReference
  2
A$C2AA85C5D
 10
19.990061897247
 20
312.072990869746
 30
0.0
  0
LINE
  5
37B8
330
1A
100
AcDbEntity
  8
中心線
 48
10.0
100
AcDbLine
 10
485.414866028786
 20
360.072991108717
 30
0.0
 11
210.980343294126
 21
360.072991108717
 31
0.0
  0
ARC
  5
37B9
330
1A
100
AcDbEntity
  8
細線
100
AcDbCircle
 10
273.879282569249
 20
350.758813478137
 30
0.0
 40
3.75288168161888
100
AcDbArc
 50
358.689715050974
 51
62.018860308432
  0
ARC
  5
37BA
330
1A
100
AcDbEntity
  8
細線
100
AcDbCircle
 10
267.595484736318
 20
360.072991108717
 30
0.0
 40
10.03569821366904
100
AcDbArc
 50
323.282806020859
 51
36.717193979141
  0
LINE
  5
37BB
330
1A
100
AcDbEntity
  8
外形線
100
AcDbLine
 10
277.631182949985
 20
369.472985108717
 30
0.0
 11
277.631182949985
 21
350.672997108717
 31
0.0
  0
LINE
  5
37BC
330
1A
100
AcDbEntity
  8
外形線
100
AcDbLine
 10
274.231188949985
 20
348.072991108717
 30
0.0
 11
277.631182949985
 21
350.672997108717
 31
0.0
  0
LINE
  5
37BD
330
1A
100
AcDbEntity
  8
細線
100
AcDbLine
 10
275.640062949985
 20
354.072991108717
 30
0.0
 11
267.031176949985
 21
354.072991108717
 31
0.0
  0
LINE
  5
37BE
330
1A
100
AcDbEntity
  8
外形線
100
AcDbLine
 10
267.031176949985
 20
372.072991108717
 30
0.0
 11
267.031176949985
 21
348.072991108717
 31
0.0
  0
LINE
  5
37BF
330
1A
100
AcDbEntity
  8
外形線
100
AcDbLine
 10
274.231188949985
 20
348.072991108717
 30
0.0
 11
264.031176949985
 21
348.072991108717
 31
0.0
  0
LINE
  5
37C0
330
1A
100
AcDbEntity
  8
外形線
100
AcDbLine
 10
301.231188949985
 20
352.572991108717
 30
0.0
 11
277.631182949985
 21
352.572991108717
 31
0.0
  0
ARC
  5
37C1
330
1A
100
AcDbEntity
  8
細線
100
AcDbCircle
 10
273.879282569249
 20
369.387168739299
 30
0.0
 40
3.75288168161888
100
AcDbArc
 50
297.981139691568
 51
1.310284949026
  0
LINE
  5
37C2
330
1A
100
AcDbEntity
  8
外形線
100
AcDbLine
 10
274.231188949985
 20
372.072991108717
 30
0.0
 11
277.631182949985
 21
369.472985108717
 31
0.0
  0
LINE
  5
37C3
330
1A
100
AcDbEntity
  8
細線
100
AcDbLine
 10
275.640062949985
 20
366.072991108717
 30
0.0
 11
267.031176949985
 21
366.072991108717
 31
0.0
  0
LINE
  5
37C4
330
1A
100
AcDbEntity
  8
外形線
100
AcDbLine
 10
274.231188949985
 20
372.072991108717
 30
0.0
 11
264.031176949985
 21
372.072991108717
 31
0.0
  0
LINE
  5
37C5
330
1A
100
AcDbEntity
  8
外形線
100
AcDbLine
 10
301.231188949985
 20
367.572991108717
 30
0.0
 11
277.631182949985
 21
367.572991108717
 31
0.0
  0
INSERT
  5
37C6
330
1A
100
AcDbEntity
  8
外形線
 48
10.0
100
AcDbBlockReference
  2
A$C5F435AFC
 10
215.231189343654
 20
312.072991648454
 30
0.0
  0
MTEXT
  5
3CCD
330
1A
100
AcDbEntity
  8
細線
100
AcDbMText
 10
269.609298700395
 20
589.648777635584
 30
0.0
 40
5.0
 41
0.0
 71
     7
 72
     1
  1
 
 73
     1
 44
1.0
  0
ARC
  5
3CF0
330
1A
100
AcDbEntity
  8
外形線
100
AcDbCircle
 10
332.23542123268
 20
330.041681599083
 30
0.0
 40
3.0
100
AcDbArc
 50
0.0
 51
85.235374310871
  0
ARC
  5
3CF1
330
1A
100
AcDbEntity
  8
外形線
100
AcDbCircle
 10
332.242040483695
 20
390.111471101059
 30
0.0
 40
3.0
100
AcDbArc
 50
274.391874408394
 51
0.0
  0
LINE
  5
3CF2
330
1A
100
AcDbEntity
  8
外形線
100
AcDbLine
 10
332.484609016271
 20
333.031314594705
 30
0.0
 11
304.022046154587
 21
334.675197199727
 31
0.0
  0
LINE
  5
3CF3
330
1A
100
AcDbEntity
  8
外形線
100
AcDbLine
 10
332.471773364702
 20
387.120280233965
 30
0.0
 11
304.022046154587
 21
385.675197199727
 31
0.0
  0
ARC
  5
3CF4
330
1A
100
AcDbEntity
  8
外形線
100
AcDbCircle
 10
304.242040483695
 20
337.667120075598
 30
0.0
 40
3.0
100
AcDbArc
 50
180.0
 51
265.794642998291
  0
ARC
  5
3CF5
330
1A
100
AcDbEntity
  8
外形線
100
AcDbCircle
 10
304.242040483695
 20
382.683274323856
 30
0.0
 40
3.0
100
AcDbArc
 50
94.205357001709
 51
180.0
  0
LINE
  5
3CF6
330
1A
100
AcDbEntity
  8
外形線
100
AcDbLine
 10
301.242040483695
 20
382.683274323856
 30
0.0
 11
301.242040483695
 21
337.462707893915
 31
0.0
  0
LINE
  5
3CFA
330
1A
100
AcDbEntity
  8
中心線
100
AcDbLine
 10
330.239553041442
 20
425.072991108886
 30
0.0
 11
352.242040483695
 21
425.072991108886
 31
0.0
  0
LINE
  5
3D06
330
1A
100
AcDbEntity
  8
外形線
100
AcDbLine
 10
365.588534422499
 20
335.072991108886
 30
0.0
 11
350.242040483696
 21
335.072991108886
 31
0.0
  0
ARC
  5
3D07
330
1A
100
AcDbEntity
  8
外形線
100
AcDbCircle
 10
350.242040483696
 20
332.072991108886
 30
0.0
 40
3.0
100
AcDbArc
 50
90.0
 51
180.0
  0
LINE
  5
3D08
330
1A
100
AcDbEntity
  8
外形線
100
AcDbLine
 10
347.242040483696
 20
436.572991108885
 30
0.0
 11
347.242040483695
 21
283.572991108886
 31
0.0
  0
LINE
  5
3D09
330
1A
100
AcDbEntity
  8
外形線
100
AcDbLine
 10
346.242040483695
 20
282.572991108886
 30
0.0
 11
335.742040483695
 21
282.572991108886
 31
0.0
  0
LINE
  5
3D0A
330
1A
100
AcDbEntity
  8
外形線
100
AcDbLine
 10
346.242040483695
 20
282.572991108886
 30
0.0
 11
347.242040483695
 21
283.572991108886
 31
0.0
  0
LINE
  5
3D0B
330
1A
100
AcDbEntity
  8
外形線
100
AcDbLine
 10
335.742040483695
 20
282.572991108886
 30
0.0
 11
335.242040483695
 21
283.072991108886
 31
0.0
  0
LINE
  5
3D0C
330
1A
100
AcDbEntity
  8
外形線
100
AcDbLine
 10
335.742040483695
 20
437.572991108885
 30
0.0
 11
335.242040483695
 21
437.072991108885
 31
0.0
  0
LINE
  5
3D0E
330
1A
100
AcDbEntity
  8
外形線
100
AcDbLine
 10
346.242040483695
 20
437.572991108885
 30
0.0
 11
347.242040483695
 21
436.572991108885
 31
0.0
  0
LINE
  5
3D0F
330
1A
100
AcDbEntity
  8
外形線
100
AcDbLine
 10
346.242040483695
 20
437.572991108885
 30
0.0
 11
335.742040483695
 21
437.572991108885
 31
0.0
  0
ARC
  5
3D10
330
1A
100
AcDbEntity
  8
外形線
100
AcDbCircle
 10
350.242040483696
 20
388.072991108886
 30
0.0
 40
3.0
100
AcDbArc
 50
180.0
 51
270.0
  0
LINE
  5
3D1E
330
1A
100
AcDbEntity
  8
外形線
100
AcDbLine
 10
423.242040483695
 20
309.072991108717
 30
0.0
 11
423.242040483695
 21
411.072991108717
 31
0.0
  0
LINE
  5
3D20
330
1A
100
AcDbEntity
  8
外形線
100
AcDbLine
 10
422.742040483695
 20
411.072991108886
 30
0.0
 11
418.242040483695
 21
411.072991108886
 31
0.0
  0
LINE
  5
3D21
330
1A
100
AcDbEntity
  8
外形線
100
AcDbLine
 10
418.242040483695
 20
411.072991108886
 30
0.0
 11
415.242040483695
 21
406.072991108886
 31
0.0
  0
LINE
  5
3D22
330
1A
100
AcDbEntity
  8
外形線
100
AcDbLine
 10
415.242040483695
 20
406.072991108886
 30
0.0
 11
380.786236010724
 21
404.158779749276
 31
0.0
  0
LINE
  5
3D23
330
1A
100
AcDbEntity
  8
外形線
100
AcDbLine
 10
422.742040483695
 20
309.072991108886
 30
0.0
 11
417.242040483696
 21
309.072991108886
 31
0.0
  0
LINE
  5
3D24
330
1A
100
AcDbEntity
  8
外形線
100
AcDbLine
 10
390.123734203645
 20
294.072991108886
 30
0.0
 11
414.370934299913
 21
294.072991108886
 31
0.0
  0
LINE
  5
3D25
330
1A
100
AcDbEntity
  8
外形線
100
AcDbLine
 10
417.242040483696
 20
309.072991108886
 30
0.0
 11
416.366504615626
 21
295.939953087838
 31
0.0
  0
LINE
  5
3D26
330
1A
100
AcDbEntity
  8
外形線
100
AcDbLine
 10
386.979997772964
 20
314.757914450798
 30
0.0
 11
388.127446390482
 21
295.951192229505
 31
0.0
  0
LINE
  5
3D27
330
1A
100
AcDbEntity
  8
外形線
100
AcDbLine
 10
386.037323886006
 20
315.695475364313
 30
0.0
 11
380.786236010724
 21
315.987202468495
 31
0.0
  0
LINE
  5
3D2D
330
1A
100
AcDbEntity
  8
外形線
100
AcDbLine
 10
378.416179360499
 20
402.765377663824
 30
0.0
 11
368.125001131592
 21
386.471012134722
 31
0.0
  0
LINE
  5
3D2E
330
1A
100
AcDbEntity
  8
外形線
100
AcDbLine
 10
365.588534422499
 20
385.072991108886
 30
0.0
 11
350.242040483696
 21
385.072991108886
 31
0.0
  0
LINE
  5
3D2F
330
1A
100
AcDbEntity
  8
外形線
100
AcDbLine
 10
378.416179360499
 20
317.380604553947
 30
0.0
 11
368.125001131592
 21
333.67497008305
 31
0.0
  0
ARC
  5
3D30
330
1A
100
AcDbEntity
  8
外形線
100
AcDbCircle
 10
365.588534422499
 20
388.072991108886
 30
0.0
 40
3.0
100
AcDbArc
 50
270.0
 51
327.724355685421
  0
ARC
  5
3D31
330
1A
100
AcDbEntity
  8
外形線
100
AcDbCircle
 10
365.588534422499
 20
332.072991108886
 30
0.0
 40
3.0
100
AcDbArc
 50
32.275644314579
 51
90.0
  0
ARC
  5
3D32
330
1A
100
AcDbEntity
  8
外形線
100
AcDbCircle
 10
380.952646069591
 20
401.16339868966
 30
0.0
 40
3.0
100
AcDbArc
 50
93.179830119865
 51
147.724355685421
  0
ARC
  5
3D33
330
1A
100
AcDbEntity
  8
外形線
100
AcDbCircle
 10
380.952646069591
 20
318.982583528111
 30
0.0
 40
3.0
100
AcDbArc
 50
212.275644314579
 51
266.820169880135
  0
ARC
  5
3D34
330
1A
100
AcDbEntity
  8
外形線
100
AcDbCircle
 10
385.981853866383
 20
314.697015011107
 30
0.0
 40
1.0
100
AcDbArc
 50
3.491441283447
 51
86.820169880137
  0
ARC
  5
3D35
330
1A
100
AcDbEntity
  8
外形線
100
AcDbCircle
 10
414.370934299913
 20
296.072991108886
 30
0.0
 40
2.0
100
AcDbArc
 50
270.0
 51
356.185925165712
  0
ARC
  5
3D36
330
1A
100
AcDbEntity
  8
外形線
100
AcDbCircle
 10
390.123734203645
 20
296.072991108886
 30
0.0
 40
2.0
100
AcDbArc
 50
183.491441283447
 51
270.0
  0
LINE
  5
3D50
330
1A
100
AcDbEntity
  8
外形線
100
AcDbLine
 10
422.742040483695
 20
411.072991108886
 30
0.0
 11
423.242040483695
 21
410.572991108886
 31
0.0
  0
LINE
  5
3D51
330
1A
100
AcDbEntity
  8
外形線
100
AcDbLine
 10
422.742040483695
 20
309.072991108886
 30
0.0
 11
423.242040483695
 21
309.572991108886
 31
0.0
  0
LINE
  5
4073
330
1A
100
AcDbEntity
  8
中心線
 48
10.0
100
AcDbLine
 10
402.247334251779
 20
323.582337812197
 30
0.0
 11
402.247334251779
 21
281.196865571275
 31
0.0
  0
LINE
  5
407C
330
1A
100
AcDbEntity
  8
細線
 48
10.0
100
AcDbLine
 10
418.242040483695
 20
411.072991108886
 30
0.0
 11
418.242040483695
 21
309.072991108886
 31
0.0
  0
LINE
  5
407D
330
1A
100
AcDbEntity
  8
細線
 48
10.0
100
AcDbLine
 10
415.242040483695
 20
406.072991108886
 30
0.0
 11
415.242040483695
 21
317.896579763179
 31
0.0
  0
LINE
  5
407F
330
1A
100
AcDbEntity
  8
細線
 48
10.0
100
AcDbLine
 10
415.242040483696
 20
317.896579763179
 30
0.0
 11
418.242040483695
 21
309.072991108886
 31
0.0
  0
LINE
  5
4205
330
1A
100
AcDbEntity
  8
外形線
100
AcDbLine
 10
423.242040483695
 20
411.072991108717
 30
0.0
 11
440.949194483696
 21
411.072991108717
 31
0.0
  0
ARC
  5
4206
330
1A
100
AcDbEntity
  8
外形線
100
AcDbCircle
 10
470.681660251778
 20
402.561395108717
 30
0.0
 40
4.8552
100
AcDbArc
 50
0.0
 51
87.349306628423
  0
LINE
  5
4207
330
1A
100
AcDbEntity
  8
外形線
100
AcDbLine
 10
475.536884251779
 20
393.202631108717
 30
0.0
 11
483.335834251778
 21
393.202631108717
 31
0.0
  0
ARC
  5
4208
330
1A
100
AcDbEntity
  8
外形線
100
AcDbCircle
 10
483.248066251778
 20
383.492181108717
 30
0.0
 40
1.9992
100
AcDbArc
 50
0.0
 51
89.999981276021
  0
ARC
  5
4209
330
1A
100
AcDbEntity
  8
外形線
100
AcDbCircle
 10
477.536092251778
 20
387.490595108717
 30
0.0
 40
2.000726
100
AcDbArc
 50
87.722187561485
 51
272.27785213419
  0
LINE
  5
420A
330
1A
100
AcDbEntity
  8
外形線
100
AcDbLine
 10
477.615620251778
 20
385.491449108717
 30
0.0
 11
483.248066251778
 21
385.491449108717
 31
0.0
  0
LINE
  5
420B
330
1A
100
AcDbEntity
  8
外形線
100
AcDbLine
 10
477.615620251778
 20
389.489739108717
 30
0.0
 11
483.585712251778
 21
389.489739108717
 31
0.0
  0
ARC
  5
420C
330
1A
100
AcDbEntity
  8
外形線
100
AcDbCircle
 10
483.385152251779
 20
391.341181108717
 30
0.0
 40
1.86215
100
AcDbArc
 50
276.18422108563
 51
91.517843466792
  0
LINE
  5
420D
330
1A
100
AcDbEntity
  8
外形線
100
AcDbLine
 10
442.989294483695
 20
402.341791108717
 30
0.0
 11
425.241186483696
 21
402.341791108717
 31
0.0
  0
LINE
  5
420E
330
1A
100
AcDbEntity
  8
外形線
100
AcDbLine
 10
442.989294483695
 20
405.769037108717
 30
0.0
 11
425.241186483696
 21
405.769037108717
 31
0.0
  0
ARC
  5
420F
330
1A
100
AcDbEntity
  8
外形線
100
AcDbCircle
 10
442.935278483696
 20
404.055413108717
 30
0.0
 40
1.714446
100
AcDbArc
 50
271.804703586974
 51
88.195318508605
  0
ARC
  5
4210
330
1A
100
AcDbEntity
  8
外形線
100
AcDbCircle
 10
440.623144483696
 20
386.923577108717
 30
0.0
 40
4.015794000000001
100
AcDbArc
 50
274.656944786913
 51
84.065438721313
  0
LINE
  5
4211
330
1A
100
AcDbEntity
  8
外形線
100
AcDbLine
 10
425.241186483696
 20
382.921015108717
 30
0.0
 11
440.949194483696
 21
382.921015108717
 31
0.0
  0
LINE
  5
4212
330
1A
100
AcDbEntity
  8
外形線
100
AcDbLine
 10
425.241186483696
 20
390.917841108717
 30
0.0
 11
441.038304483696
 21
390.917841108717
 31
0.0
  0
LINE
  5
4213
330
1A
100
AcDbEntity
  8
細線
100
AcDbLine
 10
440.949194483696
 20
390.917841108717
 30
0.0
 11
440.949194483696
 21
402.341791108717
 31
0.0
  0
LINE
  5
4214
330
1A
100
AcDbEntity
  8
外形線
100
AcDbLine
 10
444.661962483696
 20
408.624993108717
 30
0.0
 11
470.876196483696
 21
407.411371108717
 31
0.0
  0
ARC
  5
4215
330
1A
100
AcDbEntity
  8
外形線
100
AcDbCircle
 10
483.248066251778
 20
366.070551108717
 30
0.0
 40
1.9992
100
AcDbArc
 50
270.0
 51
359.999982399908
  0
ARC
  5
4216
330
1A
100
AcDbEntity
  8
外形線
100
AcDbCircle
 10
477.691304251779
 20
361.925897108717
 30
0.0
 40
2.15556
100
AcDbArc
 50
95.512637406103
 51
178.08903371374
  0
LINE
  5
4217
330
1A
100
AcDbEntity
  8
外形線
100
AcDbLine
 10
477.484272251779
 20
364.071405108717
 30
0.0
 11
483.248066251778
 21
364.071405108717
 31
0.0
  0
LINE
  5
4218
330
1A
100
AcDbEntity
  8
外形線
100
AcDbLine
 10
477.484272251779
 20
356.074701108717
 30
0.0
 11
483.248066251778
 21
356.074701108717
 31
0.0
  0
ARC
  5
4219
330
1A
100
AcDbEntity
  8
外形線
100
AcDbCircle
 10
483.248066251778
 20
354.075433108717
 30
0.0
 40
1.9992
100
AcDbArc
 50
0.0
 51
89.999981276021
  0
ARC
  5
421A
330
1A
100
AcDbEntity
  8
外形線
100
AcDbCircle
 10
477.691304251779
 20
358.220209108717
 30
0.0
 40
2.15556
100
AcDbArc
 50
181.910948686163
 51
264.487402289583
  0
LINE
  5
421B
330
1A
100
AcDbEntity
  8
外形線
100
AcDbLine
 10
425.241186483696
 20
364.357049108717
 30
0.0
 11
440.949194483696
 21
364.357049108717
 31
0.0
  0
ARC
  5
421C
330
1A
100
AcDbEntity
  8
外形線
100
AcDbCircle
 10
439.662084483696
 20
359.490595108717
 30
0.0
 40
5.033766
100
AcDbArc
 50
6.644133183896
 51
75.184725088441
  0
LINE
  5
421D
330
1A
100
AcDbEntity
  8
外形線
100
AcDbLine
 10
425.241186483696
 20
355.789057108717
 30
0.0
 11
440.949194483696
 21
355.789057108717
 31
0.0
  0
ARC
  5
421E
330
1A
100
AcDbEntity
  8
外形線
100
AcDbCircle
 10
439.662084483696
 20
360.655511108717
 30
0.0
 40
5.033766
100
AcDbArc
 50
284.815257311476
 51
353.355849216013
  0
LINE
  5
421F
330
1A
100
AcDbEntity
  8
外形線
100
AcDbLine
 10
475.536884251779
 20
360.072991108717
 30
0.0
 11
475.536884251779
 21
402.561395108717
 31
0.0
  0
LINE
  5
4220
330
1A
100
AcDbEntity
  8
細線
100
AcDbLine
 10
440.949194483696
 20
364.357049108717
 30
0.0
 11
440.949194483696
 21
382.921015108717
 31
0.0
  0
LINE
  5
4221
330
1A
100
AcDbEntity
  8
外形線
100
AcDbLine
 10
485.247334251779
 20
383.492181108717
 30
0.0
 11
485.247334251779
 21
366.070551108717
 31
0.0
  0
ARC
  5
4222
330
1A
100
AcDbEntity
  8
外形線
100
AcDbCircle
 10
483.385152251779
 20
328.804925108717
 30
0.0
 40
1.86215
100
AcDbArc
 50
268.482178628784
 51
83.815801009983
  0
ARC
  5
4223
330
1A
100
AcDbEntity
  8
外形線
100
AcDbCircle
 10
483.248066251778
 20
336.653803108717
 30
0.0
 40
1.9992
100
AcDbArc
 50
270.0
 51
359.999982399901
  0
ARC
  5
4224
330
1A
100
AcDbEntity
  8
外形線
100
AcDbCircle
 10
477.537374251778
 20
332.655481108717
 30
0.0
 40
2.000724
100
AcDbArc
 50
87.757023395436
 51
272.242959004484
  0
LINE
  5
4225
330
1A
100
AcDbEntity
  8
外形線
100
AcDbLine
 10
477.615620251778
 20
330.656243108717
 30
0.0
 11
483.585712251778
 21
330.656243108717
 31
0.0
  0
LINE
  5
4226
330
1A
100
AcDbEntity
  8
外形線
100
AcDbLine
 10
475.536884251779
 20
326.943475108717
 30
0.0
 11
483.335834251778
 21
326.943475108717
 31
0.0
  0
LINE
  5
4227
330
1A
100
AcDbEntity
  8
外形線
100
AcDbLine
 10
477.615682251779
 20
334.654657108717
 30
0.0
 11
483.248066251778
 21
334.654657108717
 31
0.0
  0
ARC
  5
4228
330
1A
100
AcDbEntity
  8
外形線
100
AcDbCircle
 10
470.681660251778
 20
317.584711108717
 30
0.0
 40
4.8552
100
AcDbArc
 50
272.650733067261
 51
359.999982399901
  0
ARC
  5
4229
330
1A
100
AcDbEntity
  8
外形線
100
AcDbCircle
 10
440.623144483696
 20
333.222529108717
 30
0.0
 40
4.015794000000001
100
AcDbArc
 50
275.934583374273
 51
85.343077308665
  0
LINE
  5
422A
330
1A
100
AcDbEntity
  8
外形線
100
AcDbLine
 10
425.241186483696
 20
329.228265108717
 30
0.0
 11
441.038304483696
 21
329.228265108717
 31
0.0
  0
LINE
  5
422B
330
1A
100
AcDbEntity
  8
外形線
100
AcDbLine
 10
425.241186483696
 20
337.224969108717
 30
0.0
 11
440.949194483696
 21
337.224969108717
 31
0.0
  0
LINE
  5
422C
330
1A
100
AcDbEntity
  8
細線
100
AcDbLine
 10
440.949194483696
 20
314.377069108717
 30
0.0
 11
440.949194483696
 21
309.072991108717
 31
0.0
  0
LINE
  5
422D
330
1A
100
AcDbEntity
  8
外形線
100
AcDbLine
 10
444.661962483696
 20
311.520989108717
 30
0.0
 11
440.949194483696
 21
309.072991108717
 31
0.0
  0
LINE
  5
422E
330
1A
100
AcDbEntity
  8
外形線
100
AcDbLine
 10
442.989294483695
 20
317.804193108717
 30
0.0
 11
425.241186483696
 21
317.804193108717
 31
0.0
  0
LINE
  5
422F
330
1A
100
AcDbEntity
  8
外形線
100
AcDbLine
 10
442.989294483695
 20
314.377069108717
 30
0.0
 11
425.241186483696
 21
314.377069108717
 31
0.0
  0
ARC
  5
4230
330
1A
100
AcDbEntity
  8
外形線
100
AcDbCircle
 10
442.935278483696
 20
316.090571108717
 30
0.0
 40
1.714446
100
AcDbArc
 50
271.804703586974
 51
88.195318508605
  0
LINE
  5
4231
330
1A
100
AcDbEntity
  8
外形線
100
AcDbLine
 10
423.242040483695
 20
309.072991108717
 30
0.0
 11
440.949194483696
 21
309.072991108717
 31
0.0
  0
LINE
  5
4232
330
1A
100
AcDbEntity
  8
細線
100
AcDbLine
 10
440.949194483696
 20
329.228265108717
 30
0.0
 11
440.949194483696
 21
317.804193108717
 31
0.0
  0
LINE
  5
4233
330
1A
100
AcDbEntity
  8
外形線
100
AcDbLine
 10
444.661962483696
 20
311.520989108717
 30
0.0
 11
470.876196483696
 21
312.734675108717
 31
0.0
  0
LINE
  5
423A
330
1A
100
AcDbEntity
  8
細線
100
AcDbLine
 10
444.661962483696
 20
408.624993108717
 30
0.0
 11
444.661962483696
 21
311.520989108717
 31
0.0
  0
LINE
  5
423B
330
1A
100
AcDbEntity
  8
細線
100
AcDbLine
 10
440.949194483696
 20
355.789057108717
 30
0.0
 11
440.949194483696
 21
337.224969108717
 31
0.0
  0
LINE
  5
423C
330
1A
100
AcDbEntity
  8
外形線
100
AcDbLine
 10
485.247334251779
 20
336.653803108717
 30
0.0
 11
485.247334251779
 21
354.075433108717
 31
0.0
  0
LINE
  5
423D
330
1A
100
AcDbEntity
  8
外形線
100
AcDbLine
 10
475.536884251779
 20
360.072991108717
 30
0.0
 11
475.536884251779
 21
317.584711108717
 31
0.0
  0
LINE
  5
423E
330
1A
100
AcDbEntity
  8
外形線
100
AcDbLine
 10
425.241186483696
 20
309.072991108717
 30
0.0
 11
425.241186483696
 21
411.072991108717
 31
0.0
  0
LINE
  5
4240
330
1A
100
AcDbEntity
  8
細線
100
AcDbLine
 10
440.949194483696
 20
405.769037108717
 30
0.0
 11
440.949194483696
 21
411.072991108717
 31
0.0
  0
LINE
  5
4241
330
1A
100
AcDbEntity
  8
外形線
100
AcDbLine
 10
440.949194483696
 20
411.072991108717
 30
0.0
 11
444.661962483696
 21
408.624993108717
 31
0.0
  0
DIMENSION
  5
427A
330
1A
100
AcDbEntity
  8
寸法線
 48
10.0
100
AcDbDimension
  2
*D19
 10
507.587030913575
 20
309.072991108717
 30
0.0
 11
507.587030913575
 21
359.460991608717
 31
0.0
 70
   160
  1
φ102
 71
     5
 42
102.0
  3
ISO-25
100
AcDbAlignedDimension
 13
440.949194483696
 23
411.072991108717
 33
0.0
 14
440.949194483696
 24
309.072991108717
 34
0.0
 50
90.0
100
AcDbRotatedDimension
1001
ACAD
1000
DSTYLE
1002
{
1070
    41
1040
6.0
1070
    47
1040
0.1
1070
    48
1040
0.1
1070
    73
1070
     0
1070
   140
1040
8.0
1070
   271
1070
     1
1070
   272
1070
     1
1070
   341
1005
2AF4
1070
   342
1005
2AF4
1002
}
  0
LINE
  5
4364
330
1A
100
AcDbEntity
  8
中心線
100
AcDbLine
 10
330.239553042689
 20
295.072991108222
 30
0.0
 11
352.242040484942
 21
295.072991108644
 31
0.0
  0
LINE
  5
4365
330
1A
100
AcDbEntity
  8
外形線
 48
10.0
100
AcDbLine
 10
335.242040483695
 20
437.072991108885
 30
0.0
 11
335.242040483695
 21
283.072991108886
 31
0.0
  0
LEADER
  5
4367
330
1A
100
AcDbEntity
  8
寸法線
 48
10.0
100
AcDbLeader
  3
ISO-25
 76
     3
 10
411.658596210034
 20
292.990326012129
 30
0.0
 10
431.165685382733
 20
275.12537315776
 30
0.0
 10
439.658542843668
 20
275.12537315776
 30
0.0
213
-30.8575892536129
223
0.0
233
0.0
1001
ACAD
1000
DSTYLE
1002
{
1070
   147
1040
0.625
1070
    77
1070
     1
1070
    41
1040
6.0
1070
    47
1040
0.1
1070
    48
1040
0.1
1070
    73
1070
     0
1070
   140
1040
8.0
1070
   271
1070
     1
1070
   272
1070
     1
1070
   341
1005
2AF4
1070
   342
1005
2AF4
1002
}
  0
LEADER
  5
450D
330
1A
100
AcDbEntity
  8
寸法線
 62
     1
 48
10.0
100
AcDbLeader
  3
ISO-25
 76
     3
 10
380.786236010724
 20
404.158779749276
 30
0.0
 10
370.168658471675
 20
466.452967632961
 30
0.0
 10
380.461942637412
 20
466.452967632961
 30
0.0
1001
ACAD
1000
DSTYLE
1002
{
1070
   147
1040
0.625
1070
    77
1070
     1
1070
    41
1040
6.0
1070
    47
1040
0.1
1070
    48
1040
0.1
1070
    73
1070
     0
1070
   140
1040
8.0
1070
   271
1070
     1
1070
   272
1070
     1
1070
   341
1005
2AF4
1070
   342
1005
2AF4
1002
}
  0
LEADER
  5
4510
330
1A
100
AcDbEntity
  8
寸法線
 62
     1
 48
10.0
100
AcDbLeader
  3
ISO-25
 76
     3
 10
218.671247155198
 20
372.072991108717
 30
0.0
 10
188.722175381894
 20
466.452967632961
 30
0.0
 10
178.988377090702
 20
466.452967632961
 30
0.0
1001
ACAD
1000
DSTYLE
1002
{
1070
   147
1040
0.625
1070
    77
1070
     1
1070
    41
1040
6.0
1070
    47
1040
0.1
1070
    48
1040
0.1
1070
    73
1070
     0
1070
   140
1040
8.0
1070
   271
1070
     1
1070
   272
1070
     1
1070
   341
1005
2AF4
1070
   342
1005
2AF4
1002
}
  0
LEADER
  5
4511
330
1A
100
AcDbEntity
  8
寸法線
 62
     1
 48
10.0
100
AcDbLeader
  3
ISO-25
 76
     3
 10
282.384565342081
 20
367.572991108717
 30
0.0
 10
253.108908181485
 20
466.452967632961
 30
0.0
 10
239.929072404737
 20
466.452967632961
 30
0.0
1001
ACAD
1000
DSTYLE
1002
{
1070
   147
1040
0.625
1070
    77
1070
     1
1070
    41
1040
6.0
1070
    47
1040
0.1
1070
    48
1040
0.1
1070
    73
1070
     0
1070
   140
1040
8.0
1070
   271
1070
     1
1070
   272
1070
     1
1070
   341
1005
2AF4
1070
   342
1005
2AF4
1002
}
  0
LEADER
  5
4512
330
1A
100
AcDbEntity
  8
寸法線
 62
     1
 48
10.0
100
AcDbLeader
  3
ISO-25
 76
     3
 10
341.231188949999
 20
437.572991108885
 30
0.0
 10
331.378909541039
 20
466.452967632961
 30
0.0
 10
323.490426587918
 20
466.452967632961
 30
0.0
1001
ACAD
1000
DSTYLE
1002
{
1070
   147
1040
0.625
1070
    77
1070
     1
1070
    41
1040
6.0
1070
    47
1040
0.1
1070
    48
1040
0.1
1070
    73
1070
     0
1070
   140
1040
8.0
1070
   271
1070
     1
1070
   272
1070
     1
1070
   341
1005
2AF4
1070
   342
1005
2AF4
1002
}
  0
LEADER
  5
4513
330
1A
100
AcDbEntity
  8
寸法線
 62
     1
 48
10.0
100
AcDbLeader
  3
ISO-25
 76
     3
 10
424.308538549817
 20
411.072439320862
 30
0.0
 10
429.576798042408
 20
466.452967632961
 30
0.0
 10
441.69292708329
 20
466.452967632961
 30
0.0
1001
ACAD
1000
DSTYLE
1002
{
1070
   147
1040
0.625
1070
    77
1070
     1
1070
    41
1040
6.0
1070
    47
1040
0.1
1070
    48
1040
0.1
1070
    73
1070
     0
1070
   140
1040
8.0
1070
   271
1070
     1
1070
   272
1070
     1
1070
   341
1005
2AF4
1070
   342
1005
2AF4
1002
}
  0
LEADER
  5
4514
330
1A
100
AcDbEntity
  8
寸法線
 62
     1
 48
10.0
100
AcDbLeader
  3
ISO-25
 76
     3
 10
470.876196483696
 20
407.411371108717
 30
0.0
 10
477.482102798391
 20
466.452967632961
 30
0.0
 10
487.734210688779
 20
466.452967632961
 30
0.0
1001
ACAD
1000
DSTYLE
1002
{
1070
   147
1040
0.625
1070
    77
1070
     1
1070
    41
1040
6.0
1070
    47
1040
0.1
1070
    48
1040
0.1
1070
    73
1070
     0
1070
   140
1040
8.0
1070
   271
1070
     1
1070
   272
1070
     1
1070
   341
1005
2AF4
1070
   342
1005
2AF4
1002
}
  0
DIMENSION
  5
45B9
330
1A
100
AcDbEntity
  8
寸法線
 62
     1
 48
10.0
100
AcDbDimension
  2
*D21
 10
-24.592178508777
 20
328.078483158516
 30
0.0
 11
66.74013650911
 21
385.594390228211
 31
0.0
 70
   163
 71
     5
 42
130.0
  3
ISO-25
100
AcDbDiametricDimension
 15
88.56879464053
 25
392.067499058918
 35
0.0
 40
0.0
1001
ACAD
1000
DSTYLE
1002
{
1070
    41
1040
6.0
1070
    47
1040
0.1
1070
    48
1040
0.1
1070
    73
1070
     0
1070
   140
1040
8.0
1070
   271
1070
     1
1070
   272
1070
     1
1070
   279
1070
     2
1070
   288
1070
     1
1070
   341
1005
2AF4
1070
   342
1005
2AF4
1002
}
  0
DIMENSION
  5
45D3
330
1A
100
AcDbEntity
  8
寸法線
 62
     1
 48
10.0
100
AcDbDimension
  2
*D22
 10
-44.61144627535
 20
348.294719420633
 30
0.0
 11
79.282402169584
 21
372.754388876165
 31
0.0
 70
   163
 71
     5
 42
155.0
  3
ISO-25
100
AcDbDiametricDimension
 15
108.58806176618
 25
371.851262796801
 35
0.0
 40
0.0
1001
ACAD
1000
DSTYLE
1002
{
1070
    41
1040
6.0
1070
    47
1040
0.1
1070
    48
1040
0.1
1070
    73
1070
     0
1070
   140
1040
8.0
1070
   271
1070
     1
1070
   272
1070
     1
1070
   279
1070
     2
1070
   288
1070
     1
1070
   341
1005
2AF4
1070
   342
1005
2AF4
1002
}
  0
MTEXT
  5
4A36
330
1A
100
AcDbEntity
  8
寸法線
 48
10.0
100
AcDbMText
 10
430.74667784105
 20
475.664265415803
 30
0.0
 40
8.0
 41
38.931165525765
 71
     1
 72
     5
  1
O-RING
 73
     1
 44
1.0
  0
MTEXT
  5
4A39
330
1A
100
AcDbEntity
  8
寸法線
 48
10.0
100
AcDbMText
 10
291.244859035917
 20
501.966094199125
 30
0.0
 40
8.0
 41
48.29118704016
 71
     1
 72
     5
  1
FLANGE\PALUMINUM\PCASTING
 73
     1
 44
1.0
  0
MTEXT
  5
4A41
330
1A
100
AcDbEntity
  8
寸法線
 48
10.0
100
AcDbMText
 10
432.858033699111
 20
297.642554726878
 30
0.0
 40
8.0
 41
65.843230169923
 71
     1
 72
     5
  1
CONDUIT\PG 1/2"
 73
     1
 44
1.0
  0
MTEXT
  5
4A43
330
1A
100
AcDbEntity
  8
寸法線
 48
10.0
100
AcDbMText
 10
-51.710033730366
 20
285.275229599134
 30
0.0
 40
8.0
 41
29.949871932836
 71
     1
 72
     5
  1
15DIA\P4HOLES
 73
     1
 44
1.0
  0
CIRCLE
  5
4A60
330
1A
100
AcDbEntity
  8
寸法線
100
AcDbCircle
 10
-21.726865402162
 20
127.088306288692
 30
0.0
 40
3.0
  0
CIRCLE
  5
4A61
330
1A
100
AcDbEntity
  8
寸法線
100
AcDbCircle
 10
-21.726865402162
 20
127.088306288692
 30
0.0
 40
1.599998
  0
CIRCLE
  5
4A62
330
1A
100
AcDbEntity
  8
寸法線
100
AcDbCircle
 10
17.971558597838
 20
127.088306288692
 30
0.0
 40
3.0
  0
CIRCLE
  5
4A63
330
1A
100
AcDbEntity
  8
寸法線
100
AcDbCircle
 10
17.971558597838
 20
127.088306288692
 30
0.0
 40
1.599998
  0
CIRCLE
  5
4A64
330
1A
100
AcDbEntity
  8
寸法線
100
AcDbCircle
 10
-2.020507402162
 20
127.088306288692
 30
0.0
 40
3.0
  0
CIRCLE
  5
4A65
330
1A
100
AcDbEntity
  8
寸法線
100
AcDbCircle
 10
-2.020507402162
 20
127.088306288692
 30
0.0
 40
1.599998
  0
CIRCLE
  5
4A66
330
1A
100
AcDbEntity
  8
寸法線
100
AcDbCircle
 10
-42.432859402162
 20
127.088306288692
 30
0.0
 40
3.0
  0
CIRCLE
  5
4A67
330
1A
100
AcDbEntity
  8
寸法線
100
AcDbCircle
 10
-42.432859402162
 20
127.088306288692
 30
0.0
 40
1.599998
  0
CIRCLE
  5
4A68
330
1A
100
AcDbEntity
  8
寸法線
100
AcDbCircle
 10
-63.138853402162
 20
127.088306288692
 30
0.0
 40
3.0
  0
CIRCLE
  5
4A69
330
1A
100
AcDbEntity
  8
寸法線
100
AcDbCircle
 10
17.979126597838
 20
196.809498288692
 30
0.0
 40
9.177798
  0
LINE
  5
4A6A
330
1A
100
AcDbEntity
  8
寸法線
100
AcDbLine
 10
-2.020507402162
 20
191.293080288692
 30
0.0
 11
-0.420469402163
 21
205.913868288692
 31
0.0
  0
LINE
  5
4A6B
330
1A
100
AcDbEntity
  8
寸法線
100
AcDbLine
 10
-42.432859402162
 20
191.293080288692
 30
0.0
 11
-48.686887402162
 21
205.913868288692
 31
0.0
  0
CIRCLE
  5
4A6C
330
1A
100
AcDbEntity
  8
寸法線
100
AcDbCircle
 10
-2.020507402162
 20
205.913868288692
 30
0.0
 40
1.600006
  0
LINE
  5
4A6D
330
1A
100
AcDbEntity
  8
寸法線
100
AcDbLine
 10
-2.020507402162
 20
227.220264288692
 30
0.0
 11
-2.020507402162
 21
207.513844288692
 31
0.0
  0
CIRCLE
  5
4A6E
330
1A
100
AcDbEntity
  8
寸法線
100
AcDbCircle
 10
-34.578855402162
 20
205.913868288692
 30
0.0
 40
1.600006
  0
LINE
  5
4A6F
330
1A
100
AcDbEntity
  8
寸法線
100
AcDbLine
 10
-34.578855402162
 20
227.220264288692
 30
0.0
 11
-34.578855402162
 21
207.513844288692
 31
0.0
  0
CIRCLE
  5
4A70
330
1A
100
AcDbEntity
  8
寸法線
100
AcDbCircle
 10
-50.286863402163
 20
205.913868288692
 30
0.0
 40
1.600006
  0
CIRCLE
  5
4A71
330
1A
100
AcDbEntity
  8
寸法線
100
AcDbCircle
 10
-2.020507402162
 20
189.693104288692
 30
0.0
 40
1.600006
  0
LINE
  5
4A72
330
1A
100
AcDbEntity
  8
寸法線
100
AcDbLine
 10
-2.020507402162
 20
188.093068288692
 30
0.0
 11
-2.020507402162
 21
130.088306288692
 31
0.0
  0
CIRCLE
  5
4A73
330
1A
100
AcDbEntity
  8
寸法線
100
AcDbCircle
 10
-63.138853402162
 20
127.088306288692
 30
0.0
 40
1.599998
  0
LINE
  5
4A74
330
1A
100
AcDbEntity
  8
寸法線
100
AcDbLine
 10
17.971558597838
 20
187.602832288692
 30
0.0
 11
17.971558597838
 21
130.088306288692
 31
0.0
  0
LINE
  5
4A75
330
1A
100
AcDbEntity
  8
寸法線
100
AcDbLine
 10
-21.726865402162
 20
227.220264288692
 30
0.0
 11
-21.726865402162
 21
130.088306288692
 31
0.0
  0
LINE
  5
4A76
330
1A
100
AcDbEntity
  8
寸法線
100
AcDbLine
 10
-42.432859402162
 20
188.093068288692
 30
0.0
 11
-42.432859402162
 21
130.088306288692
 31
0.0
  0
CIRCLE
  5
4A77
330
1A
100
AcDbEntity
  8
寸法線
100
AcDbCircle
 10
-42.432859402162
 20
189.693104288692
 30
0.0
 40
1.600006
  0
LINE
  5
4A78
330
1A
100
AcDbEntity
  8
寸法線
100
AcDbLine
 10
17.971558597838
 20
227.220264288692
 30
0.0
 11
17.971558597838
 21
205.987294288692
 31
0.0
  0
TEXT
  5
4A79
330
1A
100
AcDbEntity
  8
寸法線
100
AcDbText
 10
11.970216597838
 20
190.586720288692
 30
0.0
 40
12.0
  1
Ｍ
 41
1.25
  7
EXCADSTD
 72
     5
 11
23.970216597838
 21
190.586720288692
 31
0.0
100
AcDbText
  0
LINE
  5
4A7A
330
1A
100
AcDbEntity
  8
寸法線
100
AcDbLine
 10
-2.020507402162
 20
227.220264288692
 30
0.0
 11
17.971558597838
 21
227.220264288692
 31
0.0
  0
LINE
  5
4A7B
330
1A
100
AcDbEntity
  8
寸法線
100
AcDbLine
 10
-34.578855402162
 20
227.220264288692
 30
0.0
 11
-21.726865402162
 21
227.220264288692
 31
0.0
  0
LINE
  5
4A7C
330
1A
100
AcDbEntity
  8
寸法線
100
AcDbLine
 10
-50.286863402163
 20
227.220264288692
 30
0.0
 11
-50.286863402163
 21
207.513844288692
 31
0.0
  0
LINE
  5
4A7D
330
1A
100
AcDbEntity
  8
寸法線
100
AcDbLine
 10
-63.138853402162
 20
227.220264288692
 30
0.0
 11
-50.286863402163
 21
227.220264288692
 31
0.0
  0
LINE
  5
4A7E
330
1A
100
AcDbEntity
  8
寸法線
100
AcDbLine
 10
-63.138853402162
 20
130.088306288692
 30
0.0
 11
-63.138853402162
 21
227.220264288692
 31
0.0
  0
MTEXT
  5
4A7F
330
1A
100
AcDbEntity
  8
寸法線
 48
10.0
100
AcDbMText
 10
371.151853767803
 20
488.981597860823
 30
0.0
 40
8.0
 41
46.212924374617
 71
     1
 72
     5
  1
ALUMINUM\PCASTING
 73
     1
 44
1.0
  0
MTEXT
  5
4A81
330
1A
100
AcDbEntity
  8
寸法線
 48
10.0
100
AcDbMText
 10
-4.52016726225
 20
102.794963062443
 30
0.0
 40
6.0
 41
22.662715674224
 71
     1
 72
     5
  1
POWER\PSUPPLY
 73
     1
 44
1.0
  0
MTEXT
  5
4A82
330
1A
100
AcDbEntity
  8
寸法線
 48
10.0
100
AcDbMText
 10
478.728830664765
 20
489.463384004447
 30
0.0
 40
8.0
 41
46.212924374617
 71
     1
 72
     5
  1
ALUMINUM\PCASTING
 73
     1
 44
1.0
  0
MTEXT
  5
4A83
102
{ACAD_XDICTIONARY
360
4A84
102
}
330
1A
100
AcDbEntity
  8
寸法線
 48
10.0
100
AcDbMText
 10
48.747155688165
 20
153.332053350466
 30
0.0
 40
8.0
 41
86.351503502276
 71
     1
 72
     5
  1
REVOLUTION\PTORQUE\PMICRO SWITCH\P\PCOLOR
 73
     1
 44
1.0
1001
AcadAnnotative
1000
AnnotativeData
1002
{
1070
     1
1070
     0
1002
}
  0
MTEXT
  5
4A87
102
{ACAD_XDICTIONARY
360
4A88
102
}
330
1A
100
AcDbEntity
  8
寸法線
 48
10.0
100
AcDbMText
 10
130.781083418413
 20
153.332053350466
 30
0.0
 40
8.0
 41
104.818953793733
 71
     1
 72
     5
  1
:1RPM\P:about10.0N・cm\P:RESISTIVE LOAD\P 5amp 250V AC\P:10YR7.5/14
 73
     1
 44
1.0
1001
AcadAnnotative
1000
AnnotativeData
1002
{
1070
     1
1070
     0
1002
}
  0
MTEXT
  5
4A8B
330
1A
100
AcDbEntity
  8
寸法線
 48
10.0
100
AcDbMText
 10
-74.295454842556
 20
133.576401954777
 30
0.0
 40
8.0
 41
34.320635907425
 71
     1
 72
     5
  1
GREEN
 11
3.061515884555943E-16
 21
1.0
 31
0.0
 73
     1
 44
1.0
  0
MTEXT
  5
4A8C
330
1A
100
AcDbEntity
  8
寸法線
 48
10.0
100
AcDbMText
 10
-52.98339569917
 20
133.576401954777
 30
0.0
 40
8.0
 41
34.320635907425
 71
     1
 72
     5
  1
YELLOW
 11
2.832749226161502E-16
 21
1.0
 31
0.0
 73
     1
 44
1.0
  0
MTEXT
  5
4A8D
330
1A
100
AcDbEntity
  8
寸法線
 48
10.0
100
AcDbMText
 10
-32.347907739562
 20
133.576401954777
 30
0.0
 40
8.0
 41
34.320635907425
 71
     1
 72
     5
  1
RED
 11
2.832749226161502E-16
 21
1.0
 31
0.0
 73
     1
 44
1.0
  0
MTEXT
  5
4B21
102
{ACAD_XDICTIONARY
360
4B22
102
}
330
1A
100
AcDbEntity
  8
寸法線
 48
10.0
100
AcDbMText
 10
-63.09124974741
 20
120.764004821223
 30
0.0
 40
6.0
 41
49.50078544177
 71
     1
 72
     5
  1
L　　C　　 H
 73
     1
 44
1.0
1001
AcadAnnotative
1000
AnnotativeData
1002
{
1070
     1
1070
     0
1002
}
  0
MTEXT
  5
4B25
102
{ACAD_XDICTIONARY
360
4B26
102
}
330
1A
100
AcDbEntity
  8
寸法線
 48
10.0
100
AcDbMText
 10
-13.073634411361
 20
120.233251648815
 30
0.0
 40
6.0
 41
101.805806042976
 71
     1
 72
     5
  1
100/110 0
 73
     1
 44
1.0
1001
AcadAnnotative
1000
AnnotativeData
1002
{
1070
     1
1070
     0
1002
}
  0
MTEXT
  5
4B29
102
{ACAD_XDICTIONARY
360
4B2A
102
}
330
1A
100
AcDbEntity
  8
寸法線
 48
10.0
100
AcDbMText
 10
-17.939654646889
 20
112.403468123113
 30
0.0
 40
6.0
 41
101.805806042976
 71
     1
 72
     5
  1
(200/220 0)
 73
     1
 44
1.0
1001
AcadAnnotative
1000
AnnotativeData
1002
{
1070
     1
1070
     0
1002
}
  0
TEXT
  5
4B3C
330
1A
100
AcDbEntity
  8
寸法線
100
AcDbText
 10
-3.802080655117
 20
129.214467155304
 30
0.0
 40
8.0
  1
WHITE(BLACK)
 50
90.0
 41
0.838818834022
 72
     5
 11
-3.802080655117
 21
184.57651020074
 31
0.0
100
AcDbText
  0
TEXT
  5
4B3D
330
1A
100
AcDbEntity
  8
寸法線
100
AcDbText
 10
16.210091832846
 20
129.214467155304
 30
0.0
 40
8.0
  1
WHITE(BLACK)
 50
90.0
 41
0.838818834022
 72
     5
 11
16.210091832846
 21
184.57651020074
 31
0.0
100
AcDbText
  0
LINE
  5
4C9B
330
1A
100
AcDbEntity
  8
寸法線
 62
     1
 48
10.0
100
AcDbLine
 10
45.992141579694
 20
211.644191457085
 30
0.0
 11
254.507241135139
 21
211.644191457085
 31
0.0
  0
LINE
  5
4C9C
330
1A
100
AcDbEntity
  8
寸法線
 62
     1
 48
10.0
100
AcDbLine
 10
45.992141579694
 20
198.382642692838
 30
0.0
 11
254.507241135139
 21
198.382642692838
 31
0.0
  0
LINE
  5
4C9D
330
1A
100
AcDbEntity
  8
寸法線
 62
     1
 48
10.0
100
AcDbLine
 10
45.992141579694
 20
185.121093928592
 30
0.0
 11
254.507241135139
 21
185.121093928592
 31
0.0
  0
LINE
  5
4C9E
330
1A
100
AcDbEntity
  8
寸法線
 62
     1
 48
10.0
100
AcDbLine
 10
45.992141579694
 20
224.645709853405
 30
0.0
 11
254.507241135139
 21
224.645709853405
 31
0.0
  0
LINE
  5
4C9F
330
1A
100
AcDbEntity
  8
寸法線
 62
     1
 48
10.0
100
AcDbLine
 10
78.755967938421
 20
224.645709853405
 30
0.0
 11
78.755967938421
 21
185.121093928592
 31
0.0
  0
LINE
  5
4CA0
330
1A
100
AcDbEntity
  8
寸法線
 62
     1
 48
10.0
100
AcDbLine
 10
45.992141579694
 20
224.645709853405
 30
0.0
 11
45.992141579694
 21
185.121093928592
 31
0.0
  0
LINE
  5
4CA1
330
1A
100
AcDbEntity
  8
寸法線
 62
     1
 48
10.0
100
AcDbLine
 10
161.527721525057
 20
224.645709853405
 30
0.0
 11
161.527721525057
 21
185.121093928592
 31
0.0
  0
LINE
  5
4CA2
330
1A
100
AcDbEntity
  8
寸法線
 62
     1
 48
10.0
100
AcDbLine
 10
254.507241135139
 20
224.645709853405
 30
0.0
 11
254.507241135139
 21
185.121093928592
 31
0.0
  0
TEXT
  5
4CA3
330
1A
100
AcDbEntity
  8
寸法線
100
AcDbText
 10
97.730361429523
 20
172.270020086861
 30
0.0
 40
8.0
  1
○
 41
1.034482758621
  7
EXCADSTD
 72
     5
 11
105.730361429523
 21
172.270020086861
 31
0.0
100
AcDbText
  0
LINE
  5
4CA4
330
1A
100
AcDbEntity
  8
寸法線
100
AcDbLine
 10
76.429977429523
 20
176.352906086861
 30
0.0
 11
93.731337429523
 21
176.352906086861
 31
0.0
  0
TEXT
  5
4CA5
330
1A
100
AcDbEntity
  8
寸法線
100
AcDbText
 10
107.899251156744
 20
172.370056086861
 30
0.0
 40
8.0
  1
(Required length)
100
AcDbText
  0
LWPOLYLINE
  5
4CA6
330
1A
100
AcDbEntity
  8
寸法線
100
AcDbPolyline
 90
        3
 70
     0
 43
0.0
 10
66.723995429523
 20
183.612890086861
 10
66.723995429523
 20
176.352906086861
 10
76.990015429523
 20
176.352906086861
  0
LINE
  5
4CA7
330
1A
100
AcDbEntity
  8
寸法線
100
AcDbLine
 10
68.276909700139
 20
177.817335129126
 30
0.0
 11
66.723995429523
 21
183.612890086861
 31
0.0
  0
LINE
  5
4CA8
330
1A
100
AcDbEntity
  8
寸法線
100
AcDbLine
 10
66.723995429523
 20
183.612890086861
 30
0.0
 11
65.171081158907
 21
177.817335129126
 31
0.0
  0
MTEXT
  5
4CA9
102
{ACAD_XDICTIONARY
360
4CAA
102
}
330
1A
100
AcDbEntity
  8
寸法線
 48
10.0
100
AcDbMText
 10
49.014510318846
 20
221.784711093128
 30
0.0
 40
8.0
 41
226.341524583173
 71
     1
 72
     5
  1
       POWER SUPPLY LEAD WIRE COLOR\P        100/110V AC      WHITE・WHITE\P        200/220V AC     BLACK・BLACK
 73
     1
 44
1.0
1001
AcadAnnotative
1000
AnnotativeData
1002
{
1070
     1
1070
     0
1002
}
  0
LINE
  5
4D08
330
1A
100
AcDbEntity
  8
寸法線
 62
     1
 48
10.0
100
AcDbLine
 10
45.992141579694
 20
211.644191457085
 30
0.0
 11
78.755967938421
 21
224.645709853405
 31
0.0
  0
VIEWPORT
  5
2902
102
{ACAD_XDICTIONARY
360
4DBD
102
}
330
28FB
100
AcDbEntity
 67
     1
  8
0
 48
10.0
100
AcDbViewport
 10
0.0
 20
0.0
 30
0.0
 40
375.511395635979
 41
269.571972249009
 68
     1
 69
     1
 12
197.569540740552
 22
134.337762279827
 13
0.0
 23
0.0
 14
10.0
 24
10.0
 15
10.0
 25
10.0
 16
0.0
 26
0.0
 36
1.0
 17
0.0
 27
0.0
 37
0.0
 42
50.0
 43
0.0
 44
0.0
 45
269.571972249009
 50
0.0
 51
0.0
 72
   100
 90
    32816
  1

281
     0
 71
     1
 74
     0
110
0.0
120
0.0
130
0.0
111
1.0
121
0.0
131
0.0
112
0.0
122
1.0
132
0.0
 79
     0
146
0.0
170
     0
  0
VIEWPORT
  5
2904
102
{ACAD_XDICTIONARY
360
4DBF
102
}
330
28FB
100
AcDbEntity
 67
     1
  8
図枠太線
 48
10.0
100
AcDbViewport
 10
204.746305129083
 20
163.137385422292
 30
0.0
 40
400.0
 41
240.0
 68
     2
 69
     2
 12
243.21176478119
 22
295.601706462902
 13
0.0
 23
0.0
 14
1.0
 24
1.0
 15
0.0
 25
0.0
 16
0.0
 26
0.0
 36
1.0
 17
0.0
 27
0.0
 37
0.0
 42
50.0
 43
0.0
 44
0.0
 45
480.000002005536
 50
0.0
 51
0.0
 72
   100
 90
    32768
  1

281
     0
 71
     1
 74
     0
110
0.0
120
0.0
130
0.0
111
1.0
121
0.0
131
0.0
112
0.0
122
1.0
132
0.0
 79
     0
146
0.0
170
     0
  0
INSERT
  5
2A59
330
28FB
100
AcDbEntity
 67
     1
  8
図枠太線
100
AcDbBlockReference
  2
A3横用　タイトル
 10
-0.352109406709
 20
-0.388574331235
 30
0.0
  0
MTEXT
  5
3046
330
28FB
100
AcDbEntity
 67
     1
  8
寸法線
 48
10.0
100
AcDbMText
 10
314.291332821371
 20
35.172214093478
 30
0.0
 40
7.0
 41
41.045003631856
 71
     1
 72
     5
  1
PRL-500N
 73
     1
 44
1.0
  0
MTEXT
  5
3048
102
{ACAD_XDICTIONARY
360
4753
102
}
330
28FB
100
AcDbEntity
 67
     1
  8
寸法線
 48
10.0
100
AcDbMText
 10
342.572341883104
 20
17.415889421137
 30
0.0
 40
8.0
 41
38.04171107615
 71
     1
 72
     5
  1
HR-10853
 73
     1
 44
1.0
1001
AcadAnnotative
1000
AnnotativeData
1002
{
1070
     1
1070
     0
1002
}
  0
MTEXT
  5
304A
330
28FB
100
AcDbEntity
 67
     1
  8
寸法線
 48
10.0
100
AcDbMText
 10
150.380468880327
 20
15.464060035646
 30
0.0
 40
7.0
 41
15.363556412778
 71
     1
 72
     5
  1
1:2
 73
     1
 44
1.0
  0
MTEXT
  5
44D1
102
{ACAD_XDICTIONARY
360
4759
102
}
330
28FB
100
AcDbEntity
 67
     1
  8
寸法線
 48
10.0
100
AcDbMText
 10
180.85087130254
 20
32.508493497811
 30
0.0
 40
4.5
 41
21.375384236178
 71
     1
 72
     5
  1
ohno
 73
     1
 44
1.0
1001
AcadAnnotative
1000
AnnotativeData
1002
{
1070
     1
1070
     0
1002
}
  0
MTEXT
  5
4BF8
330
28FB
100
AcDbEntity
 67
     1
  8
寸法線
 48
10.0
100
AcDbMText
 10
359.726282203318
 20
38.562914086866
 30
0.0
 40
5.0
 41
43.047199206047
 71
     1
 72
     5
  1
PADDLE TYPE\PLEVEL SWITCH
 73
     1
 44
1.0
  0
MTEXT
  5
4BF9
102
{ACAD_XDICTIONARY
360
4BFA
102
}
330
28FB
100
AcDbEntity
 67
     1
  8
寸法線
 48
10.0
100
AcDbMText
 10
376.719940597474
 20
51.629255412986
 30
0.0
 40
5.0
 41
20.024459373141
 71
     1
 72
     5
  1
Q'ty: 
 73
     1
 44
1.0
1001
AcadAnnotative
1000
AnnotativeData
1002
{
1070
     1
1070
     0
1002
}
  0
MTEXT
  5
4BFD
102
{ACAD_XDICTIONARY
360
4BFE
102
}
330
28FB
100
AcDbEntity
 67
     1
  8
寸法線
 48
10.0
100
AcDbMText
 10
173.997036113437
 20
13.37869008516
 30
0.0
 40
4.0
 41
32.052538367454
 71
     1
 72
     5
  1
Feb,29,2016
 73
     1
 44
1.0
1001
AcadAnnotative
1000
AnnotativeData
1002
{
1070
     1
1070
     0
1002
}
  0
ENDSEC
  0
SECTION
  2
OBJECTS
  0
DICTIONARY
  5
C
330
0
100
AcDbDictionary
281
     1
  3
ACAD_COLOR
350
2948
  3
ACAD_DETAILVIEWSTYLE
350
46F6
  3
ACAD_GROUP
350
D
  3
ACAD_LAYOUT
350
2816
  3
ACAD_MATERIAL
350
2947
  3
ACAD_MLEADERSTYLE
350
4690
  3
ACAD_MLINESTYLE
350
E
  3
ACAD_PLOTSETTINGS
350
2817
  3
ACAD_PLOTSTYLENAME
350
2814
  3
ACAD_SCALELIST
350
4669
  3
ACAD_SECTIONVIEWSTYLE
350
46F7
  3
ACAD_TABLESTYLE
350
468E
  3
ACAD_VISUALSTYLE
350
4650
  3
AcadDim
350
34C3
  3
ACDB_RECOMPOSE_DATA
350
4E00
  3
AcDbVariableDictionary
350
46B3
  0
DICTIONARY
  5
4DC1
330
8
100
AcDbDictionary
280
     1
281
     1
  3
ACAD_XREC_ROUNDTRIP
360
4DC2
  0
DICTIONARY
  5
29EA
330
2
100
AcDbDictionary
280
     1
281
     1
  3
ACAD_LAYERFILTERS
360
2B0C
  3
ACAD_LAYERSTATES
360
29EB
  0
DICTIONARY
  5
4A84
330
4A83
100
AcDbDictionary
280
     1
281
     1
  3
AcDbContextDataManager
360
4A85
  0
DICTIONARY
  5
4A88
330
4A87
100
AcDbDictionary
280
     1
281
     1
  3
AcDbContextDataManager
360
4A89
  0
DICTIONARY
  5
4B22
330
4B21
100
AcDbDictionary
280
     1
281
     1
  3
AcDbContextDataManager
360
4B23
  0
DICTIONARY
  5
4B26
330
4B25
100
AcDbDictionary
280
     1
281
     1
  3
AcDbContextDataManager
360
4B27
  0
DICTIONARY
  5
4B2A
330
4B29
100
AcDbDictionary
280
     1
281
     1
  3
AcDbContextDataManager
360
4B2B
  0
DICTIONARY
  5
4CAA
330
4CA9
100
AcDbDictionary
280
     1
281
     1
  3
AcDbContextDataManager
360
4CAB
  0
DICTIONARY
  5
4DBD
330
2902
100
AcDbDictionary
280
     1
281
     1
  3
ACAD_XREC_ROUNDTRIP
360
4DBE
  0
DICTIONARY
  5
4DBF
330
2904
100
AcDbDictionary
280
     1
281
     1
  3
ACAD_XREC_ROUNDTRIP
360
4DC0
  0
DICTIONARY
  5
4753
330
3048
100
AcDbDictionary
280
     1
281
     1
  3
AcDbContextDataManager
360
4754
  0
DICTIONARY
  5
4759
330
44D1
100
AcDbDictionary
280
     1
281
     1
  3
AcDbContextDataManager
360
475A
  0
DICTIONARY
  5
4BFA
330
4BF9
100
AcDbDictionary
280
     1
281
     1
  3
AcDbContextDataManager
360
4BFB
  0
DICTIONARY
  5
4BFE
330
4BFD
100
AcDbDictionary
280
     1
281
     1
  3
AcDbContextDataManager
360
4BFF
  0
DICTIONARY
  5
2948
102
{ACAD_REACTORS
330
C
102
}
330
C
100
AcDbDictionary
281
     1
  0
DICTIONARY
  5
46F6
102
{ACAD_REACTORS
330
C
102
}
330
C
100
AcDbDictionary
281
     1
  0
DICTIONARY
  5
D
102
{ACAD_REACTORS
330
C
102
}
330
C
100
AcDbDictionary
281
     1
  0
DICTIONARY
  5
2816
102
{ACAD_REACTORS
330
C
102
}
330
C
100
AcDbDictionary
281
     1
  3
A3横
350
28FC
  3
Model
350
2818
  0
DICTIONARY
  5
2947
102
{ACAD_REACTORS
330
C
102
}
330
C
100
AcDbDictionary
281
     1
  3
ByBlock
350
468C
  3
ByLayer
350
468B
  3
Global
350
468D
  0
DICTIONARY
  5
4690
102
{ACAD_REACTORS
330
C
102
}
330
C
100
AcDbDictionary
281
     1
  3
Standard
350
4691
  0
DICTIONARY
  5
E
102
{ACAD_REACTORS
330
C
102
}
330
C
100
AcDbDictionary
281
     1
  3
STANDARD
350
13
  0
DICTIONARY
  5
2817
102
{ACAD_REACTORS
330
C
102
}
330
C
100
AcDbDictionary
281
     1
  0
ACDBDICTIONARYWDFLT
  5
2814
102
{ACAD_REACTORS
330
C
102
}
330
C
100
AcDbDictionary
281
     1
  3
Normal
350
2815
100
AcDbDictionaryWithDefault
340
2815
  0
DICTIONARY
  5
4669
102
{ACAD_REACTORS
330
C
102
}
330
C
100
AcDbDictionary
281
     1
  3
A0
350
466A
  3
A1
350
466B
  3
A2
350
466C
  3
A3
350
466D
  3
A4
350
466E
  3
A5
350
466F
  3
A6
350
4670
  3
A7
350
4671
  3
A8
350
4672
  3
A9
350
4673
  3
B0
350
4674
  3
B1
350
4675
  3
B2
350
4676
  3
B3
350
4677
  3
B4
350
4678
  3
B5
350
4679
  3
B6
350
467A
  3
B7
350
467B
  3
B8
350
467C
  3
B9
350
467D
  3
C0
350
467E
  3
C1
350
467F
  3
C2
350
4680
  3
C3
350
4681
  3
C4
350
4682
  3
C5
350
4683
  3
C6
350
4684
  3
C7
350
4685
  3
C8
350
4686
  3
C9
350
4687
  3
D0
350
4688
  3
D1
350
4689
  3
D2
350
468A
  0
DICTIONARY
  5
46F7
102
{ACAD_REACTORS
330
C
102
}
330
C
100
AcDbDictionary
281
     1
  0
DICTIONARY
  5
468E
102
{ACAD_REACTORS
330
C
102
}
330
C
100
AcDbDictionary
281
     1
  3
Standard
350
468F
  0
DICTIONARY
  5
4650
102
{ACAD_REACTORS
330
C
102
}
330
C
100
AcDbDictionary
281
     1
  3
2dWireframe
350
4655
  3
Basic
350
4658
  3
Brighten
350
465C
  3
ColorChange
350
4660
  3
Conceptual
350
465A
  3
Dim
350
465B
  3
EdgeColorOff
350
4663
  3
Facepattern
350
465F
  3
Flat
350
4651
  3
FlatWithEdges
350
4652
  3
Gouraud
350
4653
  3
GouraudWithEdges
350
4654
  3
Hidden
350
4657
  3
JitterOff
350
4661
  3
Linepattern
350
465E
  3
Modeling
350
46F8
  3
OverhangOff
350
4662
  3
Realistic
350
4659
  3
Shaded
350
4668
  3
Shaded with edges
350
4667
  3
Shades of Gray
350
4664
  3
Sketchy
350
4665
  3
Thicken
350
465D
  3
Wireframe
350
4656
  3
X-Ray
350
4666
  0
XRECORD
  5
34C3
102
{ACAD_REACTORS
330
C
102
}
330
C
100
AcDbXrecord
280
     1
 90
   990106
  3

 60
     0
 61
     0
 62
     4
 63
     4
 64
     1
 65
     0
 66
     0
 67
     3
 68
     1
 69
     0
 70
     0
 71
     0
 72
     0
 40
0.0
170
     2
  0
XRECORD
  5
4E00
102
{ACAD_REACTORS
330
C
102
}
330
C
100
AcDbXrecord
280
     1
 90
        1
330
468F
  0
DICTIONARY
  5
46B3
102
{ACAD_REACTORS
330
C
102
}
330
C
100
AcDbDictionary
281
     1
  3
CANNOSCALE
350
46B4
  3
CMLEADERSTYLE
350
46F3
  3
CTABLESTYLE
350
46F2
  3
MSLTSCALE
350
46F4
  3
XCLIPFRAME
350
46F5
  0
XRECORD
  5
4DC2
102
{ACAD_REACTORS
330
4DC1
102
}
330
4DC1
100
AcDbXrecord
280
     1
102
VTR_0.000_0.000_1.000_1.000_VISUALSTYLE
340
4655
102
VTR_0.000_0.000_1.000_1.000_GRIDDISPLAY
 70
     3
102
VTR_0.000_0.000_1.000_1.000_GRIDMAJOR
 70
     5
102
VTR_0.000_0.000_1.000_1.000_DEFAULTLIGHTING
280
     1
102
VTR_0.000_0.000_1.000_1.000_DEFAULTLIGHTINGTYPE
 70
     1
102
VTR_0.000_0.000_1.000_1.000_BRIGHTNESS
141
0.0
102
VTR_0.000_0.000_1.000_1.000_CONTRAST
142
0.0
  0
DICTIONARY
  5
2B0C
102
{ACAD_REACTORS
330
29EA
102
}
330
29EA
100
AcDbDictionary
281
     1
  0
DICTIONARY
  5
29EB
102
{ACAD_REACTORS
330
29EA
102
}
330
29EA
100
AcDbDictionary
281
     1
  0
DICTIONARY
  5
4A85
102
{ACAD_REACTORS
330
4A84
102
}
330
4A84
100
AcDbDictionary
281
     1
  3
ACDB_ANNOTATIONSCALES
350
4A86
  0
DICTIONARY
  5
4A89
102
{ACAD_REACTORS
330
4A88
102
}
330
4A88
100
AcDbDictionary
281
     1
  3
ACDB_ANNOTATIONSCALES
350
4A8A
  0
DICTIONARY
  5
4B23
102
{ACAD_REACTORS
330
4B22
102
}
330
4B22
100
AcDbDictionary
281
     1
  3
ACDB_ANNOTATIONSCALES
350
4B24
  0
DICTIONARY
  5
4B27
102
{ACAD_REACTORS
330
4B26
102
}
330
4B26
100
AcDbDictionary
281
     1
  3
ACDB_ANNOTATIONSCALES
350
4B28
  0
DICTIONARY
  5
4B2B
102
{ACAD_REACTORS
330
4B2A
102
}
330
4B2A
100
AcDbDictionary
281
     1
  3
ACDB_ANNOTATIONSCALES
350
4B2C
  0
DICTIONARY
  5
4CAB
102
{ACAD_REACTORS
330
4CAA
102
}
330
4CAA
100
AcDbDictionary
281
     1
  3
ACDB_ANNOTATIONSCALES
350
4CAC
  0
XRECORD
  5
4DBE
102
{ACAD_REACTORS
330
4DBD
102
}
330
4DBD
100
AcDbXrecord
280
     1
102
VISUALSTYLE
340
4655
102
GRIDDISPLAY
 70
     0
102
GRIDMAJOR
 70
     5
102
DEFAULTLIGHTING
280
     1
102
DEFAULTLIGHTINGTYPE
 70
     1
102
BRIGHTNESS
141
0.0
102
CONTRAST
142
0.0
102
SUNID
360
0
  0
XRECORD
  5
4DC0
102
{ACAD_REACTORS
330
4DBF
102
}
330
4DBF
100
AcDbXrecord
280
     1
102
VISUALSTYLE
340
4655
102
GRIDDISPLAY
 70
     0
102
GRIDMAJOR
 70
     5
102
DEFAULTLIGHTING
280
     1
102
DEFAULTLIGHTINGTYPE
 70
     1
102
BRIGHTNESS
141
0.0
102
CONTRAST
142
0.0
  0
DICTIONARY
  5
4754
102
{ACAD_REACTORS
330
4753
102
}
330
4753
100
AcDbDictionary
281
     1
  3
ACDB_ANNOTATIONSCALES
350
4755
  0
DICTIONARY
  5
475A
102
{ACAD_REACTORS
330
4759
102
}
330
4759
100
AcDbDictionary
281
     1
  3
ACDB_ANNOTATIONSCALES
350
475B
  0
DICTIONARY
  5
4BFB
102
{ACAD_REACTORS
330
4BFA
102
}
330
4BFA
100
AcDbDictionary
281
     1
  3
ACDB_ANNOTATIONSCALES
350
4BFC
  0
DICTIONARY
  5
4BFF
102
{ACAD_REACTORS
330
4BFE
102
}
330
4BFE
100
AcDbDictionary
281
     1
  3
ACDB_ANNOTATIONSCALES
350
4C00
  0
LAYOUT
  5
28FC
102
{ACAD_REACTORS
330
2816
102
}
330
2816
100
AcDbPlotSettings
  1

  2
FX DocuCentre-III C2205 西日本
  4
User256
  6

 40
4.064
 41
4.148666666667
 42
4.148666666667
 43
4.064
 44
210.0
 45
297.0
 46
0.0
 47
0.0
 48
0.0
 49
0.0
140
0.0
141
0.0
142
1.0
143
1.43
 70
   736
 72
     1
 73
     1
 74
     5
  7
TOWA.ctb
 75
     0
 76
     1
 77
     2
 78
   300
147
1.0
148
0.0
149
0.0
100
AcDbLayout
  1
A3横
 70
     1
 71
     1
 10
-7.007122192383
 20
-7.007118782997
 11
417.718108215332
 21
293.315290427208
 12
0.0
 22
0.0
 32
0.0
 14
4.746305129083
 24
3.137385422292
 34
0.0
 15
404.746305129083
 25
283.137385422292
 35
0.0
146
0.0
 13
0.0
 23
0.0
 33
0.0
 16
1.0
 26
0.0
 36
0.0
 17
0.0
 27
1.0
 37
0.0
 76
     0
330
28FB
331
2902
  0
LAYOUT
  5
2818
102
{ACAD_REACTORS
330
2816
102
}
330
2816
100
AcDbPlotSettings
  1

  2
EPSON LP-8000S
  4

  6

 40
0.0
 41
0.0
 42
0.0
 43
0.0
 44
0.0
 45
0.0
 46
0.0
 47
0.0
 48
0.0
 49
0.0
140
0.0
141
0.0
142
1.0
143
1.0
 70
  1712
 72
     0
 73
     0
 74
     0
  7
TOWA.ctb
 75
     0
 76
     0
 77
     2
 78
   300
147
1.0
148
0.0
149
0.0
100
AcDbLayout
  1
Model
 70
     1
 71
     0
 10
0.0
 20
0.0
 11
12.0
 21
9.0
 12
0.0
 22
0.0
 32
0.0
 14
-73.895454842556
 24
87.082463062443
 34
0.0
 15
542.16315629384
 25
501.566094199125
 35
0.0
146
0.0
 13
0.0
 23
0.0
 33
0.0
 16
1.0
 26
0.0
 36
0.0
 17
0.0
 27
1.0
 37
0.0
 76
     0
330
1A
331
463A
  0
MATERIAL
  5
468C
102
{ACAD_REACTORS
330
2947
102
}
102
{ACAD_XDICTIONARY
360
4DC5
102
}
330
2947
100
AcDbMaterial
  1
ByBlock
  0
MATERIAL
  5
468B
102
{ACAD_REACTORS
330
2947
102
}
102
{ACAD_XDICTIONARY
360
4DC3
102
}
330
2947
100
AcDbMaterial
  1
ByLayer
  0
MATERIAL
  5
468D
102
{ACAD_REACTORS
330
2947
102
}
102
{ACAD_XDICTIONARY
360
4DC7
102
}
330
2947
100
AcDbMaterial
  1
Global
  0
MLEADERSTYLE
  5
4691
102
{ACAD_REACTORS
330
4690
102
}
102
{ACAD_XDICTIONARY
360
4DFE
102
}
330
4690
100
AcDbMLeaderStyle
170
     2
171
     1
172
     0
 90
        2
 40
0.0
 41
0.0
173
     1
 91
-1056964608
340
14
 92
       -2
290
     1
 42
2.0
291
     1
 43
8.0
  3
Standard
341
0
 44
4.0
300

342
10
174
     1
178
     6
175
     1
176
     0
 93
-1056964608
 45
4.0
292
     0
297
     0
 46
4.0
343
0
 94
-1056964608
 47
1.0
 49
1.0
140
1.0
293
     1
141
0.0
294
     1
177
     0
142
1.0
295
     0
296
     0
143
3.75
1001
ACAD_MLEADERVER
1070
     2
  0
MLINESTYLE
  5
13
102
{ACAD_REACTORS
330
E
102
}
330
E
100
AcDbMlineStyle
  2
STANDARD
 70
     0
  3

 62
     0
 51
90.0
 52
90.0
 71
     2
 49
0.5
 62
   256
  6
BYLAYER
 49
-0.5
 62
   256
  6
BYLAYER
  0
ACDBPLACEHOLDER
  5
2815
102
{ACAD_REACTORS
330
2814
102
}
330
2814
  0
SCALE
  5
466A
102
{ACAD_REACTORS
330
4669
102
}
330
4669
100
AcDbScale
 70
     0
300
1:1
140
1.0
141
1.0
290
     1
  0
SCALE
  5
466B
102
{ACAD_REACTORS
330
4669
102
}
330
4669
100
AcDbScale
 70
     0
300
1:2
140
1.0
141
2.0
290
     0
  0
SCALE
  5
466C
102
{ACAD_REACTORS
330
4669
102
}
330
4669
100
AcDbScale
 70
     0
300
1:4
140
1.0
141
4.0
290
     0
  0
SCALE
  5
466D
102
{ACAD_REACTORS
330
4669
102
}
330
4669
100
AcDbScale
 70
     0
300
1:5
140
1.0
141
5.0
290
     0
  0
SCALE
  5
466E
102
{ACAD_REACTORS
330
4669
102
}
330
4669
100
AcDbScale
 70
     0
300
1:8
140
1.0
141
8.0
290
     0
  0
SCALE
  5
466F
102
{ACAD_REACTORS
330
4669
102
}
330
4669
100
AcDbScale
 70
     0
300
1:10
140
1.0
141
10.0
290
     0
  0
SCALE
  5
4670
102
{ACAD_REACTORS
330
4669
102
}
330
4669
100
AcDbScale
 70
     0
300
1:16
140
1.0
141
16.0
290
     0
  0
SCALE
  5
4671
102
{ACAD_REACTORS
330
4669
102
}
330
4669
100
AcDbScale
 70
     0
300
1:20
140
1.0
141
20.0
290
     0
  0
SCALE
  5
4672
102
{ACAD_REACTORS
330
4669
102
}
330
4669
100
AcDbScale
 70
     0
300
1:30
140
1.0
141
30.0
290
     0
  0
SCALE
  5
4673
102
{ACAD_REACTORS
330
4669
102
}
330
4669
100
AcDbScale
 70
     0
300
1:40
140
1.0
141
40.0
290
     0
  0
SCALE
  5
4674
102
{ACAD_REACTORS
330
4669
102
}
330
4669
100
AcDbScale
 70
     0
300
1:50
140
1.0
141
50.0
290
     0
  0
SCALE
  5
4675
102
{ACAD_REACTORS
330
4669
102
}
330
4669
100
AcDbScale
 70
     0
300
1:100
140
1.0
141
100.0
290
     0
  0
SCALE
  5
4676
102
{ACAD_REACTORS
330
4669
102
}
330
4669
100
AcDbScale
 70
     0
300
2:1
140
2.0
141
1.0
290
     0
  0
SCALE
  5
4677
102
{ACAD_REACTORS
330
4669
102
}
330
4669
100
AcDbScale
 70
     0
300
4:1
140
4.0
141
1.0
290
     0
  0
SCALE
  5
4678
102
{ACAD_REACTORS
330
4669
102
}
330
4669
100
AcDbScale
 70
     0
300
8:1
140
8.0
141
1.0
290
     0
  0
SCALE
  5
4679
102
{ACAD_REACTORS
330
4669
102
}
330
4669
100
AcDbScale
 70
     0
300
10:1
140
10.0
141
1.0
290
     0
  0
SCALE
  5
467A
102
{ACAD_REACTORS
330
4669
102
}
330
4669
100
AcDbScale
 70
     0
300
100:1
140
100.0
141
1.0
290
     0
  0
SCALE
  5
467B
102
{ACAD_REACTORS
330
4669
102
}
330
4669
100
AcDbScale
 70
     0
300
1/128" = 1'-0"
140
0.0078125
141
12.0
290
     0
  0
SCALE
  5
467C
102
{ACAD_REACTORS
330
4669
102
}
330
4669
100
AcDbScale
 70
     0
300
1/64" = 1'-0"
140
0.015625
141
12.0
290
     0
  0
SCALE
  5
467D
102
{ACAD_REACTORS
330
4669
102
}
330
4669
100
AcDbScale
 70
     0
300
1/32" = 1'-0"
140
0.03125
141
12.0
290
     0
  0
SCALE
  5
467E
102
{ACAD_REACTORS
330
4669
102
}
330
4669
100
AcDbScale
 70
     0
300
1/16" = 1'-0"
140
0.0625
141
12.0
290
     0
  0
SCALE
  5
467F
102
{ACAD_REACTORS
330
4669
102
}
330
4669
100
AcDbScale
 70
     0
300
3/32" = 1'-0"
140
0.09375
141
12.0
290
     0
  0
SCALE
  5
4680
102
{ACAD_REACTORS
330
4669
102
}
330
4669
100
AcDbScale
 70
     0
300
1/8" = 1'-0"
140
0.125
141
12.0
290
     0
  0
SCALE
  5
4681
102
{ACAD_REACTORS
330
4669
102
}
330
4669
100
AcDbScale
 70
     0
300
3/16" = 1'-0"
140
0.1875
141
12.0
290
     0
  0
SCALE
  5
4682
102
{ACAD_REACTORS
330
4669
102
}
330
4669
100
AcDbScale
 70
     0
300
1/4" = 1'-0"
140
0.25
141
12.0
290
     0
  0
SCALE
  5
4683
102
{ACAD_REACTORS
330
4669
102
}
330
4669
100
AcDbScale
 70
     0
300
3/8" = 1'-0"
140
0.375
141
12.0
290
     0
  0
SCALE
  5
4684
102
{ACAD_REACTORS
330
4669
102
}
330
4669
100
AcDbScale
 70
     0
300
1/2" = 1'-0"
140
0.5
141
12.0
290
     0
  0
SCALE
  5
4685
102
{ACAD_REACTORS
330
4669
102
}
330
4669
100
AcDbScale
 70
     0
300
3/4" = 1'-0"
140
0.75
141
12.0
290
     0
  0
SCALE
  5
4686
102
{ACAD_REACTORS
330
4669
102
}
330
4669
100
AcDbScale
 70
     0
300
1" = 1'-0"
140
1.0
141
12.0
290
     0
  0
SCALE
  5
4687
102
{ACAD_REACTORS
330
4669
102
}
330
4669
100
AcDbScale
 70
     0
300
1-1/2" = 1'-0"
140
1.5
141
12.0
290
     0
  0
SCALE
  5
4688
102
{ACAD_REACTORS
330
4669
102
}
330
4669
100
AcDbScale
 70
     0
300
3" = 1'-0"
140
3.0
141
12.0
290
     0
  0
SCALE
  5
4689
102
{ACAD_REACTORS
330
4669
102
}
330
4669
100
AcDbScale
 70
     0
300
6" = 1'-0"
140
6.0
141
12.0
290
     0
  0
SCALE
  5
468A
102
{ACAD_REACTORS
330
4669
102
}
330
4669
100
AcDbScale
 70
     0
300
1'-0" = 1'-0"
140
12.0
141
12.0
290
     0
  0
TABLESTYLE
  5
468F
102
{ACAD_REACTORS
330
468E
102
}
102
{ACAD_XDICTIONARY
360
4DFB
102
}
330
468E
100
AcDbTableStyle
  3
Standard
 70
     0
 71
     0
 40
1.5
 41
1.5
280
     0
281
     0
  7
STANDARD
140
4.5
170
     2
 62
     0
 63
   257
283
     0
274
    -2
284
     1
 64
     0
275
    -2
285
     1
 65
     0
276
    -2
286
     1
 66
     0
277
    -2
287
     1
 67
     0
278
    -2
288
     1
 68
     0
279
    -2
289
     1
 69
     0
  7
STANDARD
140
6.0
170
     5
 62
     0
 63
   257
283
     0
274
    -2
284
     1
 64
     0
275
    -2
285
     1
 65
     0
276
    -2
286
     1
 66
     0
277
    -2
287
     1
 67
     0
278
    -2
288
     1
 68
     0
279
    -2
289
     1
 69
     0
  7
STANDARD
140
4.5
170
     5
 62
     0
 63
   257
283
     0
274
    -2
284
     1
 64
     0
275
    -2
285
     1
 65
     0
276
    -2
286
     1
 66
     0
277
    -2
287
     1
 67
     0
278
    -2
288
     1
 68
     0
279
    -2
289
     1
 69
     0
  0
VISUALSTYLE
  5
4655
102
{ACAD_REACTORS
330
4650
102
}
102
{ACAD_XDICTIONARY
360
4DD1
102
}
330
4650
100
AcDbVisualStyle
  2
2dWireframe
 70
     4
 71
     0
 72
     2
 73
     0
 90
        0
 40
0.6
 41
30.0
 62
     5
 63
     7
421
 16777215
 74
     1
 91
        4
 64
     7
 65
   257
 75
     1
175
     1
 42
1.0
 92
        0
 66
   257
 43
1.0
 76
     1
 77
     6
 78
     2
 67
     7
 79
     5
170
     0
171
     0
290
     0
174
     0
 93
        1
 44
0.0
173
     0
291
     0
 45
0.0
1001
ACAD
1000
AcDbSavedByObjectVersion
1070
     0
  0
VISUALSTYLE
  5
4658
102
{ACAD_REACTORS
330
4650
102
}
102
{ACAD_XDICTIONARY
360
4DD7
102
}
330
4650
100
AcDbVisualStyle
  2
Basic
 70
     7
 71
     1
 72
     0
 73
     1
 90
        0
 40
0.6
 41
30.0
 62
     5
 63
     7
421
 16777215
 74
     0
 91
        4
 64
     7
 65
   257
 75
     1
175
     1
 42
1.0
 92
        8
 66
     7
 43
1.0
 76
     1
 77
     6
 78
     2
 67
     7
 79
     5
170
     0
171
     0
290
     0
174
     0
 93
        1
 44
0.0
173
     0
291
     1
 45
0.0
1001
ACAD
1000
AcDbSavedByObjectVersion
1070
     0
  0
VISUALSTYLE
  5
465C
102
{ACAD_REACTORS
330
4650
102
}
102
{ACAD_XDICTIONARY
360
4DDF
102
}
330
4650
100
AcDbVisualStyle
  2
Brighten
 70
    12
 71
     2
 72
     2
 73
     0
 90
        0
 40
0.6
 41
30.0
 62
     5
 63
     7
421
 16777215
 74
     1
 91
        4
 64
     7
 65
   257
 75
     1
175
     1
 42
1.0
 92
        8
 66
     7
 43
1.0
 76
     1
 77
     6
 78
     2
 67
     7
 79
     5
170
     0
171
     0
290
     0
174
     0
 93
        1
 44
50.0
173
     0
291
     1
 45
0.0
1001
ACAD
1000
AcDbSavedByObjectVersion
1070
     0
  0
VISUALSTYLE
  5
4660
102
{ACAD_REACTORS
330
4650
102
}
102
{ACAD_XDICTIONARY
360
4DE7
102
}
330
4650
100
AcDbVisualStyle
  2
ColorChange
 70
    16
 71
     2
 72
     2
 73
     3
 90
        0
 40
0.6
 41
30.0
 62
     5
 63
     8
421
  8421504
 74
     1
 91
        4
 64
     7
 65
   257
 75
     1
175
     1
 42
1.0
 92
        8
 66
     8
424
  8421504
 43
1.0
 76
     1
 77
     6
 78
     2
 67
     7
 79
     5
170
     0
171
     0
290
     0
174
     0
 93
        1
 44
0.0
173
     0
291
     1
 45
0.0
1001
ACAD
1000
AcDbSavedByObjectVersion
1070
     0
  0
VISUALSTYLE
  5
465A
102
{ACAD_REACTORS
330
4650
102
}
102
{ACAD_XDICTIONARY
360
4DDB
102
}
330
4650
100
AcDbVisualStyle
  2
Conceptual
 70
     9
 71
     3
 72
     2
 73
     0
 90
        0
 40
0.6
 41
30.0
 62
     5
 63
     7
421
 16777215
 74
     2
 91
        2
 64
     7
 65
   257
 75
     1
175
     1
 42
179.0
 92
        8
 66
     7
 43
1.0
 76
     1
 77
     6
 78
     2
 67
     7
 79
     3
170
     0
171
     0
290
     0
174
     0
 93
        1
 44
0.0
173
     0
291
     0
 45
0.0
1001
ACAD
1000
AcDbSavedByObjectVersion
1070
     0
  0
VISUALSTYLE
  5
465B
102
{ACAD_REACTORS
330
4650
102
}
102
{ACAD_XDICTIONARY
360
4DDD
102
}
330
4650
100
AcDbVisualStyle
  2
Dim
 70
    11
 71
     2
 72
     2
 73
     0
 90
        0
 40
0.6
 41
30.0
 62
     5
 63
     7
421
 16777215
 74
     1
 91
        4
 64
     7
 65
   257
 75
     1
175
     1
 42
1.0
 92
        8
 66
     7
 43
1.0
 76
     1
 77
     6
 78
     2
 67
     7
 79
     5
170
     0
171
     0
290
     0
174
     0
 93
        1
 44
-50.0
173
     0
291
     1
 45
0.0
1001
ACAD
1000
AcDbSavedByObjectVersion
1070
     0
  0
VISUALSTYLE
  5
4663
102
{ACAD_REACTORS
330
4650
102
}
102
{ACAD_XDICTIONARY
360
4DED
102
}
330
4650
100
AcDbVisualStyle
  2
EdgeColorOff
 70
    22
 71
     2
 72
     2
 73
     0
 90
        0
 40
0.6
 41
30.0
 62
     5
 63
     7
421
 16777215
 74
     1
 91
        4
 64
     7
 65
   257
 75
     1
175
     1
 42
1.0
 92
        8
 66
     7
 43
1.0
 76
     1
 77
     6
 78
     2
 67
     7
 79
     5
170
     0
171
     0
290
     0
174
     0
 93
        1
 44
0.0
173
     0
291
     1
 45
0.0
1001
ACAD
1000
AcDbSavedByObjectVersion
1070
     0
  0
VISUALSTYLE
  5
465F
102
{ACAD_REACTORS
330
4650
102
}
102
{ACAD_XDICTIONARY
360
4DE5
102
}
330
4650
100
AcDbVisualStyle
  2
Facepattern
 70
    15
 71
     2
 72
     2
 73
     0
 90
        0
 40
0.6
 41
30.0
 62
     5
 63
     7
421
 16777215
 74
     1
 91
        4
 64
     7
 65
   257
 75
     1
175
     1
 42
1.0
 92
        8
 66
     7
 43
1.0
 76
     1
 77
     6
 78
     2
 67
     7
 79
     5
170
     0
171
     0
290
     0
174
     0
 93
        1
 44
0.0
173
     0
291
     1
 45
0.0
1001
ACAD
1000
AcDbSavedByObjectVersion
1070
     0
  0
VISUALSTYLE
  5
4651
102
{ACAD_REACTORS
330
4650
102
}
102
{ACAD_XDICTIONARY
360
4DC9
102
}
330
4650
100
AcDbVisualStyle
  2
Flat
 70
     0
 71
     2
 72
     1
 73
     1
 90
        2
 40
0.6
 41
30.0
 62
     5
 63
     7
421
 16777215
 74
     0
 91
        0
 64
     7
 65
   257
 75
     1
175
     1
 42
1.0
 92
        8
 66
     7
 43
1.0
 76
     1
 77
     6
 78
     2
 67
     7
 79
     5
170
     0
171
     0
290
     0
174
     0
 93
       13
 44
0.0
173
     0
291
     1
 45
0.0
1001
ACAD
1000
AcDbSavedByObjectVersion
1070
     0
  0
VISUALSTYLE
  5
4652
102
{ACAD_REACTORS
330
4650
102
}
102
{ACAD_XDICTIONARY
360
4DCB
102
}
330
4650
100
AcDbVisualStyle
  2
FlatWithEdges
 70
     1
 71
     2
 72
     1
 73
     1
 90
        2
 40
0.6
 41
30.0
 62
     5
 63
     7
421
 16777215
 74
     1
 91
        0
 64
     7
 65
   257
 75
     1
175
     1
 42
1.0
 92
        0
 66
   257
 43
1.0
 76
     1
 77
     6
 78
     2
 67
     7
 79
     5
170
     0
171
     0
290
     0
174
     0
 93
       13
 44
0.0
173
     0
291
     1
 45
0.0
1001
ACAD
1000
AcDbSavedByObjectVersion
1070
     0
  0
VISUALSTYLE
  5
4653
102
{ACAD_REACTORS
330
4650
102
}
102
{ACAD_XDICTIONARY
360
4DCD
102
}
330
4650
100
AcDbVisualStyle
  2
Gouraud
 70
     2
 71
     2
 72
     2
 73
     1
 90
        2
 40
0.6
 41
30.0
 62
     5
 63
     7
421
 16777215
 74
     0
 91
        0
 64
     7
 65
   257
 75
     1
175
     1
 42
1.0
 92
        0
 66
     7
 43
1.0
 76
     1
 77
     6
 78
     2
 67
     7
 79
     5
170
     0
171
     0
290
     0
174
     0
 93
       13
 44
0.0
173
     0
291
     1
 45
0.0
1001
ACAD
1000
AcDbSavedByObjectVersion
1070
     0
  0
VISUALSTYLE
  5
4654
102
{ACAD_REACTORS
330
4650
102
}
102
{ACAD_XDICTIONARY
360
4DCF
102
}
330
4650
100
AcDbVisualStyle
  2
GouraudWithEdges
 70
     3
 71
     2
 72
     2
 73
     1
 90
        2
 40
0.6
 41
30.0
 62
     5
 63
     7
421
 16777215
 74
     1
 91
        0
 64
     7
 65
   257
 75
     1
175
     1
 42
1.0
 92
        0
 66
   257
 43
1.0
 76
     1
 77
     6
 78
     2
 67
     7
 79
     5
170
     0
171
     0
290
     0
174
     0
 93
       13
 44
0.0
173
     0
291
     1
 45
0.0
1001
ACAD
1000
AcDbSavedByObjectVersion
1070
     0
  0
VISUALSTYLE
  5
4657
102
{ACAD_REACTORS
330
4650
102
}
102
{ACAD_XDICTIONARY
360
4DD5
102
}
330
4650
100
AcDbVisualStyle
  2
Hidden
 70
     6
 71
     1
 72
     2
 73
     2
 90
        0
 40
0.6
 41
30.0
 62
     5
 63
     7
421
 16777215
 74
     2
 91
        2
 64
     7
 65
   257
 75
     2
175
     1
 42
40.0
 92
        0
 66
   257
 43
1.0
 76
     1
 77
     6
 78
     2
 67
     7
 79
     3
170
     0
171
     0
290
     0
174
     0
 93
        1
 44
0.0
173
     0
291
     0
 45
0.0
1001
ACAD
1000
AcDbSavedByObjectVersion
1070
     0
  0
VISUALSTYLE
  5
4661
102
{ACAD_REACTORS
330
4650
102
}
102
{ACAD_XDICTIONARY
360
4DE9
102
}
330
4650
100
AcDbVisualStyle
  2
JitterOff
 70
    20
 71
     2
 72
     2
 73
     0
 90
        0
 40
0.6
 41
30.0
 62
     5
 63
     7
421
 16777215
 74
     1
 91
        4
 64
     7
 65
   257
 75
     1
175
     1
 42
1.0
 92
       10
 66
     7
 43
1.0
 76
     1
 77
     6
 78
     2
 67
     7
 79
     5
170
     0
171
     0
290
     0
174
     0
 93
        1
 44
0.0
173
     0
291
     1
 45
0.0
1001
ACAD
1000
AcDbSavedByObjectVersion
1070
     0
  0
VISUALSTYLE
  5
465E
102
{ACAD_REACTORS
330
4650
102
}
102
{ACAD_XDICTIONARY
360
4DE3
102
}
330
4650
100
AcDbVisualStyle
  2
Linepattern
 70
    14
 71
     2
 72
     2
 73
     0
 90
        0
 40
0.6
 41
30.0
 62
     5
 63
     7
421
 16777215
 74
     1
 91
        4
 64
     7
 65
   257
 75
     7
175
     7
 42
1.0
 92
        8
 66
     7
 43
1.0
 76
     1
 77
     6
 78
     2
 67
     7
 79
     5
170
     0
171
     0
290
     0
174
     0
 93
        1
 44
0.0
173
     0
291
     1
 45
0.0
1001
ACAD
1000
AcDbSavedByObjectVersion
1070
     0
  0
VISUALSTYLE
  5
46F8
102
{ACAD_REACTORS
330
4650
102
}
102
{ACAD_XDICTIONARY
360
4DF9
102
}
330
4650
100
AcDbVisualStyle
  2

 70
    10
 71
     2
 72
     3
 73
     0
 90
        2
 40
0.6
 41
30.0
 62
     5
 63
     7
421
 16777215
 74
     2
 91
        0
 64
     7
 65
   257
 75
     1
175
     1
 42
180.0
 92
        8
 66
     8
424
  7895160
 43
1.0
 76
     1
 77
     6
 78
     2
 67
     7
 79
     5
170
     0
171
     0
290
     0
174
     0
 93
       13
 44
0.0
173
     0
291
     0
 45
0.0
1001
ACAD
1000
AcDbSavedByObjectVersion
1070
     0
  0
VISUALSTYLE
  5
4662
102
{ACAD_REACTORS
330
4650
102
}
102
{ACAD_XDICTIONARY
360
4DEB
102
}
330
4650
100
AcDbVisualStyle
  2
OverhangOff
 70
    21
 71
     2
 72
     2
 73
     0
 90
        0
 40
0.6
 41
30.0
 62
     5
 63
     7
421
 16777215
 74
     1
 91
        4
 64
     7
 65
   257
 75
     1
175
     1
 42
1.0
 92
        9
 66
     7
 43
1.0
 76
     1
 77
     6
 78
     2
 67
     7
 79
     5
170
     0
171
     0
290
     0
174
     0
 93
        1
 44
0.0
173
     0
291
     1
 45
0.0
1001
ACAD
1000
AcDbSavedByObjectVersion
1070
     0
  0
VISUALSTYLE
  5
4659
102
{ACAD_REACTORS
330
4650
102
}
102
{ACAD_XDICTIONARY
360
4DD9
102
}
330
4650
100
AcDbVisualStyle
  2
Realistic
 70
     8
 71
     2
 72
     3
 73
     0
 90
        2
 40
0.6
 41
30.0
 62
     5
 63
     7
421
 16777215
 74
     0
 91
        0
 64
     7
 65
   257
 75
     1
175
     1
 42
1.0
 92
        8
 66
   257
 43
1.0
 76
     1
 77
     6
 78
     2
 67
     7
 79
     3
170
     0
171
     0
290
     0
174
     0
 93
       13
 44
0.0
173
     0
291
     0
 45
0.0
1001
ACAD
1000
AcDbSavedByObjectVersion
1070
     0
  0
VISUALSTYLE
  5
4668
102
{ACAD_REACTORS
330
4650
102
}
102
{ACAD_XDICTIONARY
360
4DF7
102
}
330
4650
100
AcDbVisualStyle
  2
Shaded
 70
    27
 71
     2
 72
     2
 73
     1
 90
        2
 40
0.6
 41
30.0
 62
     5
 63
     7
421
 16777215
 74
     0
 91
        4
 64
     7
 65
   257
 75
     1
175
     1
 42
1.0
 92
        8
 66
   257
 43
1.0
 76
     1
 77
     6
 78
     2
 67
     8
425
  7895160
 79
     3
170
     0
171
     0
290
     0
174
     0
 93
        5
 44
0.0
173
     0
291
     0
 45
0.0
1001
ACAD
1000
AcDbSavedByObjectVersion
1070
     0
  0
VISUALSTYLE
  5
4667
102
{ACAD_REACTORS
330
4650
102
}
102
{ACAD_XDICTIONARY
360
4DF5
102
}
330
4650
100
AcDbVisualStyle
  2
Shaded with edges
 70
    26
 71
     2
 72
     2
 73
     1
 90
        2
 40
0.6
 41
30.0
 62
     5
 63
     7
421
 16777215
 74
     1
 91
       10
 64
     7
 65
   257
 75
     2
175
     1
 42
1.0
 92
        8
 66
   257
 43
1.0
 76
     1
 77
     6
 78
     2
 67
     7
 79
     3
170
     0
171
     0
290
     0
174
     0
 93
        5
 44
0.0
173
     0
291
     0
 45
0.0
1001
ACAD
1000
AcDbSavedByObjectVersion
1070
     0
  0
VISUALSTYLE
  5
4664
102
{ACAD_REACTORS
330
4650
102
}
102
{ACAD_XDICTIONARY
360
4DEF
102
}
330
4650
100
AcDbVisualStyle
  2
Shades of Gray
 70
    23
 71
     2
 72
     2
 73
     3
 90
        0
 40
0.6
 41
30.0
 62
     5
 63
     7
421
 16777215
 74
     2
 91
        2
 64
     7
 65
     7
 75
     1
175
     1
 42
40.0
 92
        8
 66
     7
 43
1.0
 76
     1
 77
     6
 78
     2
 67
     7
 79
     3
170
     0
171
     0
290
     0
174
     0
 93
        1
 44
0.0
173
     0
291
     0
 45
0.0
1001
ACAD
1000
AcDbSavedByObjectVersion
1070
     0
  0
VISUALSTYLE
  5
4665
102
{ACAD_REACTORS
330
4650
102
}
102
{ACAD_XDICTIONARY
360
4DF1
102
}
330
4650
100
AcDbVisualStyle
  2
Sketchy
 70
    24
 71
     1
 72
     2
 73
     2
 90
        0
 40
0.6
 41
30.0
 62
     5
 63
     7
421
 16777215
 74
     2
 91
        2
 64
     7
 65
     7
 75
     1
175
     1
 42
40.0
 92
       11
 66
     7
 43
1.0
 76
     1
 77
     6
 78
     2
 67
     7
 79
     6
170
     0
171
     0
290
     0
174
     0
 93
        1
 44
0.0
173
     0
291
     0
 45
0.0
1001
ACAD
1000
AcDbSavedByObjectVersion
1070
     0
  0
VISUALSTYLE
  5
465D
102
{ACAD_REACTORS
330
4650
102
}
102
{ACAD_XDICTIONARY
360
4DE1
102
}
330
4650
100
AcDbVisualStyle
  2
Thicken
 70
    13
 71
     2
 72
     2
 73
     0
 90
        0
 40
0.6
 41
30.0
 62
     5
 63
     7
421
 16777215
 74
     1
 91
        4
 64
     7
 65
   257
 75
     1
175
     1
 42
1.0
 92
       12
 66
     7
 43
1.0
 76
     1
 77
     6
 78
     2
 67
     7
 79
     5
170
     0
171
     0
290
     0
174
     0
 93
        1
 44
0.0
173
     0
291
     1
 45
0.0
1001
ACAD
1000
AcDbSavedByObjectVersion
1070
     0
  0
VISUALSTYLE
  5
4656
102
{ACAD_REACTORS
330
4650
102
}
102
{ACAD_XDICTIONARY
360
4DD3
102
}
330
4650
100
AcDbVisualStyle
  2
Wireframe
 70
     5
 71
     0
 72
     2
 73
     0
 90
        0
 40
0.6
 41
30.0
 62
     5
 63
     7
421
 16777215
 74
     1
 91
        4
 64
     7
 65
   257
 75
     1
175
     1
 42
1.0
 92
        0
 66
   257
 43
1.0
 76
     1
 77
     6
 78
     2
 67
     7
 79
     3
170
     0
171
     0
290
     0
174
     0
 93
        1
 44
0.0
173
     0
291
     0
 45
0.0
1001
ACAD
1000
AcDbSavedByObjectVersion
1070
     0
  0
VISUALSTYLE
  5
4666
102
{ACAD_REACTORS
330
4650
102
}
102
{ACAD_XDICTIONARY
360
4DF3
102
}
330
4650
100
AcDbVisualStyle
  2
X-Ray
 70
    25
 71
     2
 72
     2
 73
     1
 90
        1
 40
0.5
 41
30.0
 62
     5
 63
     7
421
 16777215
 74
     1
 91
        0
 64
     7
 65
   257
 75
     1
175
     1
 42
1.0
 92
        8
 66
     7
 43
1.0
 76
     1
 77
     6
 78
     2
 67
     7
 79
     3
170
     0
171
     0
290
     0
174
     0
 93
       13
 44
0.0
173
     0
291
     0
 45
0.0
1001
ACAD
1000
AcDbSavedByObjectVersion
1070
     0
  0
DICTIONARYVAR
  5
46B4
102
{ACAD_REACTORS
330
46B3
102
}
330
46B3
100
DictionaryVariables
280
     0
  1
1:1
  0
DICTIONARYVAR
  5
46F3
102
{ACAD_REACTORS
330
46B3
102
}
330
46B3
100
DictionaryVariables
280
     0
  1
Standard
  0
DICTIONARYVAR
  5
46F2
102
{ACAD_REACTORS
330
46B3
102
}
330
46B3
100
DictionaryVariables
280
     0
  1
Standard
  0
DICTIONARYVAR
  5
46F4
102
{ACAD_REACTORS
330
46B3
102
}
330
46B3
100
DictionaryVariables
280
     0
  1
0
  0
DICTIONARYVAR
  5
46F5
102
{ACAD_REACTORS
330
46B3
102
}
330
46B3
100
DictionaryVariables
280
     0
  1
0
  0
DICTIONARY
  5
4A86
102
{ACAD_REACTORS
330
4A85
102
}
330
4A85
100
AcDbDictionary
281
     1
  0
DICTIONARY
  5
4A8A
102
{ACAD_REACTORS
330
4A89
102
}
330
4A89
100
AcDbDictionary
281
     1
  0
DICTIONARY
  5
4B24
102
{ACAD_REACTORS
330
4B23
102
}
330
4B23
100
AcDbDictionary
281
     1
  0
DICTIONARY
  5
4B28
102
{ACAD_REACTORS
330
4B27
102
}
330
4B27
100
AcDbDictionary
281
     1
  0
DICTIONARY
  5
4B2C
102
{ACAD_REACTORS
330
4B2B
102
}
330
4B2B
100
AcDbDictionary
281
     1
  0
DICTIONARY
  5
4CAC
102
{ACAD_REACTORS
330
4CAB
102
}
330
4CAB
100
AcDbDictionary
281
     1
  0
DICTIONARY
  5
4755
102
{ACAD_REACTORS
330
4754
102
}
330
4754
100
AcDbDictionary
281
     1
  0
DICTIONARY
  5
475B
102
{ACAD_REACTORS
330
475A
102
}
330
475A
100
AcDbDictionary
281
     1
  0
DICTIONARY
  5
4BFC
102
{ACAD_REACTORS
330
4BFB
102
}
330
4BFB
100
AcDbDictionary
281
     1
  0
DICTIONARY
  5
4C00
102
{ACAD_REACTORS
330
4BFF
102
}
330
4BFF
100
AcDbDictionary
281
     1
  0
DICTIONARY
  5
4DC5
330
468C
100
AcDbDictionary
280
     1
281
     1
  3
ACAD_XREC_ROUNDTRIP
360
4DC6
  0
DICTIONARY
  5
4DC3
330
468B
100
AcDbDictionary
280
     1
281
     1
  3
ACAD_XREC_ROUNDTRIP
360
4DC4
  0
DICTIONARY
  5
4DC7
330
468D
100
AcDbDictionary
280
     1
281
     1
  3
ACAD_XREC_ROUNDTRIP
360
4DC8
  0
DICTIONARY
  5
4DFE
330
4691
100
AcDbDictionary
280
     1
281
     1
  3
ACAD_XREC_ROUNDTRIP
360
4DFF
  0
DICTIONARY
  5
4DFB
330
468F
100
AcDbDictionary
280
     1
281
     1
  3
ACAD_ROUNDTRIP_2008_TABLESTYLE_CELLSTYLEMAP
360
4DFD
  3
ACAD_XREC_ROUNDTRIP
360
4DFC
  0
DICTIONARY
  5
4DD1
330
4655
100
AcDbDictionary
280
     1
281
     1
  3
ACAD_XREC_ROUNDTRIP
360
4DD2
  0
DICTIONARY
  5
4DD7
330
4658
100
AcDbDictionary
280
     1
281
     1
  3
ACAD_XREC_ROUNDTRIP
360
4DD8
  0
DICTIONARY
  5
4DDF
330
465C
100
AcDbDictionary
280
     1
281
     1
  3
ACAD_XREC_ROUNDTRIP
360
4DE0
  0
DICTIONARY
  5
4DE7
330
4660
100
AcDbDictionary
280
     1
281
     1
  3
ACAD_XREC_ROUNDTRIP
360
4DE8
  0
DICTIONARY
  5
4DDB
330
465A
100
AcDbDictionary
280
     1
281
     1
  3
ACAD_XREC_ROUNDTRIP
360
4DDC
  0
DICTIONARY
  5
4DDD
330
465B
100
AcDbDictionary
280
     1
281
     1
  3
ACAD_XREC_ROUNDTRIP
360
4DDE
  0
DICTIONARY
  5
4DED
330
4663
100
AcDbDictionary
280
     1
281
     1
  3
ACAD_XREC_ROUNDTRIP
360
4DEE
  0
DICTIONARY
  5
4DE5
330
465F
100
AcDbDictionary
280
     1
281
     1
  3
ACAD_XREC_ROUNDTRIP
360
4DE6
  0
DICTIONARY
  5
4DC9
330
4651
100
AcDbDictionary
280
     1
281
     1
  3
ACAD_XREC_ROUNDTRIP
360
4DCA
  0
DICTIONARY
  5
4DCB
330
4652
100
AcDbDictionary
280
     1
281
     1
  3
ACAD_XREC_ROUNDTRIP
360
4DCC
  0
DICTIONARY
  5
4DCD
330
4653
100
AcDbDictionary
280
     1
281
     1
  3
ACAD_XREC_ROUNDTRIP
360
4DCE
  0
DICTIONARY
  5
4DCF
330
4654
100
AcDbDictionary
280
     1
281
     1
  3
ACAD_XREC_ROUNDTRIP
360
4DD0
  0
DICTIONARY
  5
4DD5
330
4657
100
AcDbDictionary
280
     1
281
     1
  3
ACAD_XREC_ROUNDTRIP
360
4DD6
  0
DICTIONARY
  5
4DE9
330
4661
100
AcDbDictionary
280
     1
281
     1
  3
ACAD_XREC_ROUNDTRIP
360
4DEA
  0
DICTIONARY
  5
4DE3
330
465E
100
AcDbDictionary
280
     1
281
     1
  3
ACAD_XREC_ROUNDTRIP
360
4DE4
  0
DICTIONARY
  5
4DF9
330
46F8
100
AcDbDictionary
280
     1
281
     1
  3
ACAD_XREC_ROUNDTRIP
360
4DFA
  0
DICTIONARY
  5
4DEB
330
4662
100
AcDbDictionary
280
     1
281
     1
  3
ACAD_XREC_ROUNDTRIP
360
4DEC
  0
DICTIONARY
  5
4DD9
330
4659
100
AcDbDictionary
280
     1
281
     1
  3
ACAD_XREC_ROUNDTRIP
360
4DDA
  0
DICTIONARY
  5
4DF7
330
4668
100
AcDbDictionary
280
     1
281
     1
  3
ACAD_XREC_ROUNDTRIP
360
4DF8
  0
DICTIONARY
  5
4DF5
330
4667
100
AcDbDictionary
280
     1
281
     1
  3
ACAD_XREC_ROUNDTRIP
360
4DF6
  0
DICTIONARY
  5
4DEF
330
4664
100
AcDbDictionary
280
     1
281
     1
  3
ACAD_XREC_ROUNDTRIP
360
4DF0
  0
DICTIONARY
  5
4DF1
330
4665
100
AcDbDictionary
280
     1
281
     1
  3
ACAD_XREC_ROUNDTRIP
360
4DF2
  0
DICTIONARY
  5
4DE1
330
465D
100
AcDbDictionary
280
     1
281
     1
  3
ACAD_XREC_ROUNDTRIP
360
4DE2
  0
DICTIONARY
  5
4DD3
330
4656
100
AcDbDictionary
280
     1
281
     1
  3
ACAD_XREC_ROUNDTRIP
360
4DD4
  0
DICTIONARY
  5
4DF3
330
4666
100
AcDbDictionary
280
     1
281
     1
  3
ACAD_XREC_ROUNDTRIP
360
4DF4
  0
XRECORD
  5
4DC6
102
{ACAD_REACTORS
330
4DC5
102
}
330
4DC5
100
AcDbXrecord
280
     1
102
MATERIAL
148
0.0
149
0.0
149
0.0
 93
        0
 94
      127
282
     0
 72
     1
 77
     1
171
     1
175
     1
179
     1
273
     0
  0
XRECORD
  5
4DC4
102
{ACAD_REACTORS
330
4DC3
102
}
330
4DC3
100
AcDbXrecord
280
     1
102
MATERIAL
148
0.0
149
0.0
149
0.0
 93
        0
 94
      127
282
     0
 72
     1
 77
     1
171
     1
175
     1
179
     1
273
     0
  0
XRECORD
  5
4DC8
102
{ACAD_REACTORS
330
4DC7
102
}
330
4DC7
100
AcDbXrecord
280
     1
102
MATERIAL
148
0.0
149
0.0
149
0.0
 93
        0
 94
      127
282
     0
 72
     1
 77
     1
171
     1
175
     1
179
     1
273
     0
  0
XRECORD
  5
4DFF
102
{ACAD_REACTORS
330
4DFE
102
}
330
4DFE
100
AcDbXrecord
280
     1
102
ACAD_ROUNDTRIP_2010_MLEADER_STYLE
  0
CELLSTYLEMAP
  5
4DFD
102
{ACAD_REACTORS
330
4DFB
102
}
330
4DFB
100
AcDbCellStyleMap
 90
        3
300
CELLSTYLE
  1
TABLEFORMAT_BEGIN
 90
        5
170
     1
 91
        0
 92
        0
 62
   257
 93
        1
300
CONTENTFORMAT
  1
CONTENTFORMAT_BEGIN
 90
        0
 91
        0
 92
        4
 93
        0
300

 40
0.0
140
1.0
 94
        5
 62
     0
340
10
144
6.0
309
CONTENTFORMAT_END
171
     1
301
MARGIN
  1
CELLMARGIN_BEGIN
 40
1.5
 40
1.5
 40
1.5
 40
1.5
 40
1.5
 40
1.5
309
CELLMARGIN_END
 94
        6
 95
        1
302
GRIDFORMAT
  1
GRIDFORMAT_BEGIN
 90
        0
 91
        1
 62
     0
 92
       -2
340
14
 93
        0
 40
0.045
309
GRIDFORMAT_END
 95
        2
302
GRIDFORMAT
  1
GRIDFORMAT_BEGIN
 90
        0
 91
        1
 62
     0
 92
       -2
340
14
 93
        0
 40
0.045
309
GRIDFORMAT_END
 95
        4
302
GRIDFORMAT
  1
GRIDFORMAT_BEGIN
 90
        0
 91
        1
 62
     0
 92
       -2
340
14
 93
        0
 40
0.045
309
GRIDFORMAT_END
 95
        8
302
GRIDFORMAT
  1
GRIDFORMAT_BEGIN
 90
        0
 91
        1
 62
     0
 92
       -2
340
14
 93
        0
 40
0.045
309
GRIDFORMAT_END
 95
       16
302
GRIDFORMAT
  1
GRIDFORMAT_BEGIN
 90
        0
 91
        1
 62
     0
 92
       -2
340
14
 93
        0
 40
0.045
309
GRIDFORMAT_END
 95
       32
302
GRIDFORMAT
  1
GRIDFORMAT_BEGIN
 90
        0
 91
        1
 62
     0
 92
       -2
340
14
 93
        0
 40
0.045
309
GRIDFORMAT_END
309
TABLEFORMAT_END
  1
CELLSTYLE_BEGIN
 90
        1
 91
        1
300
_TITLE
309
CELLSTYLE_END
300
CELLSTYLE
  1
TABLEFORMAT_BEGIN
 90
        5
170
     1
 91
        0
 92
        0
 62
   257
 93
        1
300
CONTENTFORMAT
  1
CONTENTFORMAT_BEGIN
 90
        0
 91
        0
 92
        4
 93
        0
300

 40
0.0
140
1.0
 94
        5
 62
     0
340
10
144
4.5
309
CONTENTFORMAT_END
171
     1
301
MARGIN
  1
CELLMARGIN_BEGIN
 40
1.5
 40
1.5
 40
1.5
 40
1.5
 40
1.5
 40
1.5
309
CELLMARGIN_END
 94
        6
 95
        1
302
GRIDFORMAT
  1
GRIDFORMAT_BEGIN
 90
        0
 91
        1
 62
     0
 92
       -2
340
14
 93
        0
 40
0.045
309
GRIDFORMAT_END
 95
        2
302
GRIDFORMAT
  1
GRIDFORMAT_BEGIN
 90
        0
 91
        1
 62
     0
 92
       -2
340
14
 93
        0
 40
0.045
309
GRIDFORMAT_END
 95
        4
302
GRIDFORMAT
  1
GRIDFORMAT_BEGIN
 90
        0
 91
        1
 62
     0
 92
       -2
340
14
 93
        0
 40
0.045
309
GRIDFORMAT_END
 95
        8
302
GRIDFORMAT
  1
GRIDFORMAT_BEGIN
 90
        0
 91
        1
 62
     0
 92
       -2
340
14
 93
        0
 40
0.045
309
GRIDFORMAT_END
 95
       16
302
GRIDFORMAT
  1
GRIDFORMAT_BEGIN
 90
        0
 91
        1
 62
     0
 92
       -2
340
14
 93
        0
 40
0.045
309
GRIDFORMAT_END
 95
       32
302
GRIDFORMAT
  1
GRIDFORMAT_BEGIN
 90
        0
 91
        1
 62
     0
 92
       -2
340
14
 93
        0
 40
0.045
309
GRIDFORMAT_END
309
TABLEFORMAT_END
  1
CELLSTYLE_BEGIN
 90
        2
 91
        1
300
_HEADER
309
CELLSTYLE_END
300
CELLSTYLE
  1
TABLEFORMAT_BEGIN
 90
        5
170
     1
 91
        0
 92
        0
 62
   257
 93
        1
300
CONTENTFORMAT
  1
CONTENTFORMAT_BEGIN
 90
        0
 91
        0
 92
        4
 93
        0
300

 40
0.0
140
1.0
 94
        2
 62
     0
340
10
144
4.5
309
CONTENTFORMAT_END
171
     1
301
MARGIN
  1
CELLMARGIN_BEGIN
 40
1.5
 40
1.5
 40
1.5
 40
1.5
 40
1.5
 40
1.5
309
CELLMARGIN_END
 94
        6
 95
        1
302
GRIDFORMAT
  1
GRIDFORMAT_BEGIN
 90
        0
 91
        1
 62
     0
 92
       -2
340
14
 93
        0
 40
0.045
309
GRIDFORMAT_END
 95
        2
302
GRIDFORMAT
  1
GRIDFORMAT_BEGIN
 90
        0
 91
        1
 62
     0
 92
       -2
340
14
 93
        0
 40
0.045
309
GRIDFORMAT_END
 95
        4
302
GRIDFORMAT
  1
GRIDFORMAT_BEGIN
 90
        0
 91
        1
 62
     0
 92
       -2
340
14
 93
        0
 40
0.045
309
GRIDFORMAT_END
 95
        8
302
GRIDFORMAT
  1
GRIDFORMAT_BEGIN
 90
        0
 91
        1
 62
     0
 92
       -2
340
14
 93
        0
 40
0.045
309
GRIDFORMAT_END
 95
       16
302
GRIDFORMAT
  1
GRIDFORMAT_BEGIN
 90
        0
 91
        1
 62
     0
 92
       -2
340
14
 93
        0
 40
0.045
309
GRIDFORMAT_END
 95
       32
302
GRIDFORMAT
  1
GRIDFORMAT_BEGIN
 90
        0
 91
        1
 62
     0
 92
       -2
340
14
 93
        0
 40
0.045
309
GRIDFORMAT_END
309
TABLEFORMAT_END
  1
CELLSTYLE_BEGIN
 90
        3
 91
        2
300
_DATA
309
CELLSTYLE_END
  0
XRECORD
  5
4DFC
102
{ACAD_REACTORS
330
4DFB
102
}
330
4DFB
100
AcDbXrecord
280
     1
102
ACAD_ROUNDTRIP_PRE2007_TABLESTYLE
 90
        4
 91
        0
  1

 92
        4
 93
        0
  2

 94
        4
 95
        0
  3

  0
XRECORD
  5
4DD2
102
{ACAD_REACTORS
330
4DD1
102
}
330
4DD1
100
AcDbXrecord
280
     1
102
RTVSPropertyOp0
 70
     1
102
RTVSPropertyOp1
 70
     1
102
RTVSPropertyOp2
 70
     1
102
RTVSPropertyOp3
 70
     1
102
RTVSPropertyOp4
 70
     1
102
RTVSPropertyOp5
 70
     1
102
RTVSPropertyOp6
 70
     1
102
RTVSPropertyOp7
 70
     1
102
RTVSPropertyOp8
 70
     1
102
RTVSPropertyOp9
 70
     1
102
RTVSPropertyOp10
 70
     1
102
RTVSPropertyOp11
 70
     1
102
RTVSPropertyOp12
 70
     1
102
RTVSPropertyOp13
 70
     1
102
RTVSPropertyOp14
 70
     1
102
RTVSPropertyOp15
 70
     1
102
RTVSPropertyOp16
 70
     1
102
RTVSPropertyOp17
 70
     1
102
RTVSPropertyOp18
 70
     1
102
RTVSPropertyOp19
 70
     1
102
RTVSPropertyOp20
 70
     1
102
RTVSPropertyOp21
 70
     1
102
RTVSPropertyOp22
 70
     1
102
RTVSPropertyOp23
 70
     1
102
RTVSPropertyOp24
 70
     1
102
RTVSPropertyOp25
 70
     1
102
RTVSPropertyOp26
 70
     1
102
RTVSPropertyOp27
 70
     1
102
RTVSPropertyOp28
 70
     1
102
RTVSPropertyOp29
 70
     1
102
RTVSPropertyOp30
 70
     1
102
RTVSPropertyOp31
 70
     1
102
RTVSPropertyOp32
 70
     1
102
RTVSPropertyOp33
 70
     1
102
RTVSPropertyOp34
 70
     1
102
RTVSPropertyOp35
 70
     1
102
RTVSPropertyOp36
 70
     1
102
RTVSPropertyOp37
 70
     1
102
RTVSPropertyOp38
 70
     1
102
RTVSPropertyOp39
 70
     1
102
RTVSPropertyOp40
 70
     1
102
RTVSPropertyOp41
 70
     1
102
RTVSPropertyOp42
 70
     1
102
RTVSPropertyOp43
 70
     1
102
RTVSPropertyOp44
 70
     1
102
RTVSPropertyOp45
 70
     1
102
RTVSPropertyOp46
 70
     1
102
RTVSPropertyOp47
 70
     1
102
RTVSPropertyOp48
 70
     1
102
RTVSPropertyOp49
 70
     1
102
RTVSPropertyOp50
 70
     1
102
RTVSPropertyOp51
 70
     0
102
RTVSPropertyOp52
 70
     0
102
RTVSPropertyOp53
 70
     1
102
RTVSPropertyOp54
 70
     1
102
RTVSPropertyOp55
 70
     1
102
RTVSPropertyOp56
 70
     1
102
RTVSPropertyOp57
 70
     1
102
RTVSPost2010Prop28
280
     1
102
RTVSPost2010PropOp28
 70
     1
102
RTVSPost2010Prop29
280
     1
102
RTVSPost2010PropOp29
 70
     1
102
RTVSPost2010Prop30
280
     0
102
RTVSPost2010PropOp30
 70
     1
102
RTVSPost2010Prop31
280
     0
102
RTVSPost2010PropOp31
 70
     1
102
RTVSPost2010Prop32
280
     0
102
RTVSPost2010PropOp32
 70
     1
102
RTVSPost2010Prop33
280
     0
102
RTVSPost2010PropOp33
 70
     1
102
RTVSPost2010Prop34
280
     0
102
RTVSPost2010PropOp34
 70
     1
102
RTVSPost2010Prop35
280
     0
102
RTVSPost2010PropOp35
 70
     1
102
RTVSPost2010Prop36
280
     0
102
RTVSPost2010PropOp36
 70
     1
102
RTVSPost2010Prop37
 90
       50
102
RTVSPost2010PropOp37
 70
     1
102
RTVSPost2010Prop38
140
0.0
102
RTVSPost2010PropOp38
 70
     1
102
RTVSPost2010Prop39
140
1.0
102
RTVSPost2010PropOp39
 70
     1
102
RTVSPost2010Prop40
 90
        0
102
RTVSPost2010PropOp40
 70
     1
102
RTVSPost2010Prop41ColorIndex
 90
       18
102
RTVSPost2010Prop41ColorRGB
 90
        0
102
RTVSPost2010PropOp41
 70
     1
102
RTVSPost2010Prop42
 90
       50
102
RTVSPost2010PropOp42
 70
     1
102
RTVSPost2010Prop43
 90
        3
102
RTVSPost2010PropOp43
 70
     1
102
RTVSPost2010Prop44ColorIndex
 90
        5
102
RTVSPost2010Prop44ColorRGB
 90
      255
102
RTVSPost2010PropOp44
 70
     1
102
RTVSPost2010Prop45
280
     0
102
RTVSPost2010PropOp45
 70
     1
102
RTVSPost2010Prop46
 90
       50
102
RTVSPost2010PropOp46
 70
     1
102
RTVSPost2010Prop47
 90
       50
102
RTVSPost2010PropOp47
 70
     1
102
RTVSPost2010Prop48
 90
       50
102
RTVSPost2010PropOp48
 70
     1
102
RTVSPost2010Prop49
280
     0
102
RTVSPost2010PropOp49
 70
     1
102
RTVSPost2010Prop50
 90
       50
102
RTVSPost2010PropOp50
 70
     1
102
RTVSPost2010Prop51ColorIndex
 90
      256
102
RTVSPost2010Prop51ColorRGB
 90
-16777216
102
RTVSPost2010PropOp51
 70
     0
102
RTVSPost2010Prop52
140
1.0
102
RTVSPost2010PropOp52
 70
     0
102
RTVSPost2010Prop53
 90
        2
102
RTVSPost2010PropOp53
 70
     1
102
RTVSPost2010Prop54
  1
strokes_ogs.tif
102
RTVSPost2010PropOp54
 70
     1
102
RTVSPost2010Prop55
280
     0
102
RTVSPost2010PropOp55
 70
     1
102
RTVSPost2010Prop56
140
1.0
102
RTVSPost2010PropOp56
 70
     1
102
RTVSPost2010Prop57
140
1.0
102
RTVSPost2010PropOp57
 70
     1
  0
XRECORD
  5
4DD8
102
{ACAD_REACTORS
330
4DD7
102
}
330
4DD7
100
AcDbXrecord
280
     1
102
RTVSPropertyOp0
 70
     1
102
RTVSPropertyOp1
 70
     1
102
RTVSPropertyOp2
 70
     1
102
RTVSPropertyOp3
 70
     1
102
RTVSPropertyOp4
 70
     1
102
RTVSPropertyOp5
 70
     1
102
RTVSPropertyOp6
 70
     1
102
RTVSPropertyOp7
 70
     1
102
RTVSPropertyOp8
 70
     1
102
RTVSPropertyOp9
 70
     1
102
RTVSPropertyOp10
 70
     1
102
RTVSPropertyOp11
 70
     1
102
RTVSPropertyOp12
 70
     1
102
RTVSPropertyOp13
 70
     1
102
RTVSPropertyOp14
 70
     1
102
RTVSPropertyOp15
 70
     1
102
RTVSPropertyOp16
 70
     1
102
RTVSPropertyOp17
 70
     1
102
RTVSPropertyOp18
 70
     1
102
RTVSPropertyOp19
 70
     1
102
RTVSPropertyOp20
 70
     1
102
RTVSPropertyOp21
 70
     1
102
RTVSPropertyOp22
 70
     1
102
RTVSPropertyOp23
 70
     1
102
RTVSPropertyOp24
 70
     1
102
RTVSPropertyOp25
 70
     1
102
RTVSPropertyOp26
 70
     1
102
RTVSPropertyOp27
 70
     1
102
RTVSPropertyOp28
 70
     1
102
RTVSPropertyOp29
 70
     1
102
RTVSPropertyOp30
 70
     1
102
RTVSPropertyOp31
 70
     1
102
RTVSPropertyOp32
 70
     1
102
RTVSPropertyOp33
 70
     1
102
RTVSPropertyOp34
 70
     1
102
RTVSPropertyOp35
 70
     1
102
RTVSPropertyOp36
 70
     1
102
RTVSPropertyOp37
 70
     1
102
RTVSPropertyOp38
 70
     1
102
RTVSPropertyOp39
 70
     1
102
RTVSPropertyOp40
 70
     1
102
RTVSPropertyOp41
 70
     1
102
RTVSPropertyOp42
 70
     1
102
RTVSPropertyOp43
 70
     1
102
RTVSPropertyOp44
 70
     1
102
RTVSPropertyOp45
 70
     1
102
RTVSPropertyOp46
 70
     1
102
RTVSPropertyOp47
 70
     1
102
RTVSPropertyOp48
 70
     1
102
RTVSPropertyOp49
 70
     1
102
RTVSPropertyOp50
 70
     1
102
RTVSPropertyOp51
 70
     0
102
RTVSPropertyOp52
 70
     0
102
RTVSPropertyOp53
 70
     1
102
RTVSPropertyOp54
 70
     1
102
RTVSPropertyOp55
 70
     1
102
RTVSPropertyOp56
 70
     1
102
RTVSPropertyOp57
 70
     1
102
RTVSPost2010Prop28
280
     0
102
RTVSPost2010PropOp28
 70
     1
102
RTVSPost2010Prop29
280
     1
102
RTVSPost2010PropOp29
 70
     1
102
RTVSPost2010Prop30
280
     1
102
RTVSPost2010PropOp30
 70
     1
102
RTVSPost2010Prop31
280
     0
102
RTVSPost2010PropOp31
 70
     1
102
RTVSPost2010Prop32
280
     0
102
RTVSPost2010PropOp32
 70
     1
102
RTVSPost2010Prop33
280
     0
102
RTVSPost2010PropOp33
 70
     1
102
RTVSPost2010Prop34
280
     0
102
RTVSPost2010PropOp34
 70
     1
102
RTVSPost2010Prop35
280
     0
102
RTVSPost2010PropOp35
 70
     1
102
RTVSPost2010Prop36
280
     0
102
RTVSPost2010PropOp36
 70
     1
102
RTVSPost2010Prop37
 90
       50
102
RTVSPost2010PropOp37
 70
     1
102
RTVSPost2010Prop38
140
0.0
102
RTVSPost2010PropOp38
 70
     1
102
RTVSPost2010Prop39
140
1.0
102
RTVSPost2010PropOp39
 70
     1
102
RTVSPost2010Prop40
 90
        0
102
RTVSPost2010PropOp40
 70
     1
102
RTVSPost2010Prop41ColorIndex
 90
       18
102
RTVSPost2010Prop41ColorRGB
 90
        0
102
RTVSPost2010PropOp41
 70
     1
102
RTVSPost2010Prop42
 90
       50
102
RTVSPost2010PropOp42
 70
     1
102
RTVSPost2010Prop43
 90
        3
102
RTVSPost2010PropOp43
 70
     1
102
RTVSPost2010Prop44ColorIndex
 90
        5
102
RTVSPost2010Prop44ColorRGB
 90
      255
102
RTVSPost2010PropOp44
 70
     1
102
RTVSPost2010Prop45
280
     0
102
RTVSPost2010PropOp45
 70
     1
102
RTVSPost2010Prop46
 90
       50
102
RTVSPost2010PropOp46
 70
     1
102
RTVSPost2010Prop47
 90
       50
102
RTVSPost2010PropOp47
 70
     1
102
RTVSPost2010Prop48
 90
       50
102
RTVSPost2010PropOp48
 70
     1
102
RTVSPost2010Prop49
280
     0
102
RTVSPost2010PropOp49
 70
     1
102
RTVSPost2010Prop50
 90
       50
102
RTVSPost2010PropOp50
 70
     1
102
RTVSPost2010Prop51ColorIndex
 90
      256
102
RTVSPost2010Prop51ColorRGB
 90
-16777216
102
RTVSPost2010PropOp51
 70
     0
102
RTVSPost2010Prop52
140
1.0
102
RTVSPost2010PropOp52
 70
     0
102
RTVSPost2010Prop53
 90
        2
102
RTVSPost2010PropOp53
 70
     1
102
RTVSPost2010Prop54
  1
strokes_ogs.tif
102
RTVSPost2010PropOp54
 70
     1
102
RTVSPost2010Prop55
280
     0
102
RTVSPost2010PropOp55
 70
     1
102
RTVSPost2010Prop56
140
1.0
102
RTVSPost2010PropOp56
 70
     1
102
RTVSPost2010Prop57
140
1.0
102
RTVSPost2010PropOp57
 70
     1
  0
XRECORD
  5
4DE0
102
{ACAD_REACTORS
330
4DDF
102
}
330
4DDF
100
AcDbXrecord
280
     1
102
RTVSPropertyOp0
 70
     1
102
RTVSPropertyOp1
 70
     1
102
RTVSPropertyOp2
 70
     1
102
RTVSPropertyOp3
 70
     1
102
RTVSPropertyOp4
 70
     1
102
RTVSPropertyOp5
 70
     1
102
RTVSPropertyOp6
 70
     1
102
RTVSPropertyOp7
 70
     1
102
RTVSPropertyOp8
 70
     1
102
RTVSPropertyOp9
 70
     1
102
RTVSPropertyOp10
 70
     1
102
RTVSPropertyOp11
 70
     1
102
RTVSPropertyOp12
 70
     1
102
RTVSPropertyOp13
 70
     1
102
RTVSPropertyOp14
 70
     1
102
RTVSPropertyOp15
 70
     1
102
RTVSPropertyOp16
 70
     1
102
RTVSPropertyOp17
 70
     1
102
RTVSPropertyOp18
 70
     1
102
RTVSPropertyOp19
 70
     1
102
RTVSPropertyOp20
 70
     1
102
RTVSPropertyOp21
 70
     1
102
RTVSPropertyOp22
 70
     1
102
RTVSPropertyOp23
 70
     1
102
RTVSPropertyOp24
 70
     1
102
RTVSPropertyOp25
 70
     1
102
RTVSPropertyOp26
 70
     1
102
RTVSPropertyOp27
 70
     1
102
RTVSPropertyOp28
 70
     1
102
RTVSPropertyOp29
 70
     1
102
RTVSPropertyOp30
 70
     1
102
RTVSPropertyOp31
 70
     1
102
RTVSPropertyOp32
 70
     1
102
RTVSPropertyOp33
 70
     1
102
RTVSPropertyOp34
 70
     1
102
RTVSPropertyOp35
 70
     1
102
RTVSPropertyOp36
 70
     1
102
RTVSPropertyOp37
 70
     1
102
RTVSPropertyOp38
 70
     1
102
RTVSPropertyOp39
 70
     1
102
RTVSPropertyOp40
 70
     1
102
RTVSPropertyOp41
 70
     1
102
RTVSPropertyOp42
 70
     1
102
RTVSPropertyOp43
 70
     1
102
RTVSPropertyOp44
 70
     1
102
RTVSPropertyOp45
 70
     1
102
RTVSPropertyOp46
 70
     1
102
RTVSPropertyOp47
 70
     1
102
RTVSPropertyOp48
 70
     1
102
RTVSPropertyOp49
 70
     1
102
RTVSPropertyOp50
 70
     1
102
RTVSPropertyOp51
 70
     0
102
RTVSPropertyOp52
 70
     0
102
RTVSPropertyOp53
 70
     1
102
RTVSPropertyOp54
 70
     1
102
RTVSPropertyOp55
 70
     1
102
RTVSPropertyOp56
 70
     1
102
RTVSPropertyOp57
 70
     1
102
RTVSPost2010Prop28
280
     0
102
RTVSPost2010PropOp28
 70
     1
102
RTVSPost2010Prop29
280
     1
102
RTVSPost2010PropOp29
 70
     1
102
RTVSPost2010Prop30
280
     1
102
RTVSPost2010PropOp30
 70
     1
102
RTVSPost2010Prop31
280
     0
102
RTVSPost2010PropOp31
 70
     1
102
RTVSPost2010Prop32
280
     0
102
RTVSPost2010PropOp32
 70
     1
102
RTVSPost2010Prop33
280
     0
102
RTVSPost2010PropOp33
 70
     1
102
RTVSPost2010Prop34
280
     0
102
RTVSPost2010PropOp34
 70
     1
102
RTVSPost2010Prop35
280
     0
102
RTVSPost2010PropOp35
 70
     1
102
RTVSPost2010Prop36
280
     0
102
RTVSPost2010PropOp36
 70
     1
102
RTVSPost2010Prop37
 90
       50
102
RTVSPost2010PropOp37
 70
     1
102
RTVSPost2010Prop38
140
0.0
102
RTVSPost2010PropOp38
 70
     1
102
RTVSPost2010Prop39
140
1.0
102
RTVSPost2010PropOp39
 70
     1
102
RTVSPost2010Prop40
 90
        0
102
RTVSPost2010PropOp40
 70
     1
102
RTVSPost2010Prop41ColorIndex
 90
       18
102
RTVSPost2010Prop41ColorRGB
 90
        0
102
RTVSPost2010PropOp41
 70
     1
102
RTVSPost2010Prop42
 90
       50
102
RTVSPost2010PropOp42
 70
     1
102
RTVSPost2010Prop43
 90
        3
102
RTVSPost2010PropOp43
 70
     1
102
RTVSPost2010Prop44ColorIndex
 90
        5
102
RTVSPost2010Prop44ColorRGB
 90
      255
102
RTVSPost2010PropOp44
 70
     1
102
RTVSPost2010Prop45
280
     0
102
RTVSPost2010PropOp45
 70
     1
102
RTVSPost2010Prop46
 90
       50
102
RTVSPost2010PropOp46
 70
     1
102
RTVSPost2010Prop47
 90
       50
102
RTVSPost2010PropOp47
 70
     1
102
RTVSPost2010Prop48
 90
       50
102
RTVSPost2010PropOp48
 70
     1
102
RTVSPost2010Prop49
280
     0
102
RTVSPost2010PropOp49
 70
     1
102
RTVSPost2010Prop50
 90
       50
102
RTVSPost2010PropOp50
 70
     1
102
RTVSPost2010Prop51ColorIndex
 90
      256
102
RTVSPost2010Prop51ColorRGB
 90
-16777216
102
RTVSPost2010PropOp51
 70
     0
102
RTVSPost2010Prop52
140
1.0
102
RTVSPost2010PropOp52
 70
     0
102
RTVSPost2010Prop53
 90
        2
102
RTVSPost2010PropOp53
 70
     1
102
RTVSPost2010Prop54
  1
strokes_ogs.tif
102
RTVSPost2010PropOp54
 70
     1
102
RTVSPost2010Prop55
280
     0
102
RTVSPost2010PropOp55
 70
     1
102
RTVSPost2010Prop56
140
1.0
102
RTVSPost2010PropOp56
 70
     1
102
RTVSPost2010Prop57
140
1.0
102
RTVSPost2010PropOp57
 70
     1
  0
XRECORD
  5
4DE8
102
{ACAD_REACTORS
330
4DE7
102
}
330
4DE7
100
AcDbXrecord
280
     1
102
RTVSPropertyOp0
 70
     1
102
RTVSPropertyOp1
 70
     1
102
RTVSPropertyOp2
 70
     1
102
RTVSPropertyOp3
 70
     1
102
RTVSPropertyOp4
 70
     1
102
RTVSPropertyOp5
 70
     1
102
RTVSPropertyOp6
 70
     1
102
RTVSPropertyOp7
 70
     1
102
RTVSPropertyOp8
 70
     1
102
RTVSPropertyOp9
 70
     1
102
RTVSPropertyOp10
 70
     1
102
RTVSPropertyOp11
 70
     1
102
RTVSPropertyOp12
 70
     1
102
RTVSPropertyOp13
 70
     1
102
RTVSPropertyOp14
 70
     1
102
RTVSPropertyOp15
 70
     1
102
RTVSPropertyOp16
 70
     1
102
RTVSPropertyOp17
 70
     1
102
RTVSPropertyOp18
 70
     1
102
RTVSPropertyOp19
 70
     1
102
RTVSPropertyOp20
 70
     1
102
RTVSPropertyOp21
 70
     1
102
RTVSPropertyOp22
 70
     1
102
RTVSPropertyOp23
 70
     1
102
RTVSPropertyOp24
 70
     1
102
RTVSPropertyOp25
 70
     1
102
RTVSPropertyOp26
 70
     1
102
RTVSPropertyOp27
 70
     1
102
RTVSPropertyOp28
 70
     1
102
RTVSPropertyOp29
 70
     1
102
RTVSPropertyOp30
 70
     1
102
RTVSPropertyOp31
 70
     1
102
RTVSPropertyOp32
 70
     1
102
RTVSPropertyOp33
 70
     1
102
RTVSPropertyOp34
 70
     1
102
RTVSPropertyOp35
 70
     1
102
RTVSPropertyOp36
 70
     1
102
RTVSPropertyOp37
 70
     1
102
RTVSPropertyOp38
 70
     1
102
RTVSPropertyOp39
 70
     1
102
RTVSPropertyOp40
 70
     1
102
RTVSPropertyOp41
 70
     1
102
RTVSPropertyOp42
 70
     1
102
RTVSPropertyOp43
 70
     1
102
RTVSPropertyOp44
 70
     1
102
RTVSPropertyOp45
 70
     1
102
RTVSPropertyOp46
 70
     1
102
RTVSPropertyOp47
 70
     1
102
RTVSPropertyOp48
 70
     1
102
RTVSPropertyOp49
 70
     1
102
RTVSPropertyOp50
 70
     1
102
RTVSPropertyOp51
 70
     0
102
RTVSPropertyOp52
 70
     0
102
RTVSPropertyOp53
 70
     1
102
RTVSPropertyOp54
 70
     1
102
RTVSPropertyOp55
 70
     1
102
RTVSPropertyOp56
 70
     1
102
RTVSPropertyOp57
 70
     1
102
RTVSPost2010Prop28
280
     0
102
RTVSPost2010PropOp28
 70
     1
102
RTVSPost2010Prop29
280
     1
102
RTVSPost2010PropOp29
 70
     1
102
RTVSPost2010Prop30
280
     1
102
RTVSPost2010PropOp30
 70
     1
102
RTVSPost2010Prop31
280
     0
102
RTVSPost2010PropOp31
 70
     1
102
RTVSPost2010Prop32
280
     0
102
RTVSPost2010PropOp32
 70
     1
102
RTVSPost2010Prop33
280
     0
102
RTVSPost2010PropOp33
 70
     1
102
RTVSPost2010Prop34
280
     0
102
RTVSPost2010PropOp34
 70
     1
102
RTVSPost2010Prop35
280
     0
102
RTVSPost2010PropOp35
 70
     1
102
RTVSPost2010Prop36
280
     0
102
RTVSPost2010PropOp36
 70
     1
102
RTVSPost2010Prop37
 90
       50
102
RTVSPost2010PropOp37
 70
     1
102
RTVSPost2010Prop38
140
0.0
102
RTVSPost2010PropOp38
 70
     1
102
RTVSPost2010Prop39
140
1.0
102
RTVSPost2010PropOp39
 70
     1
102
RTVSPost2010Prop40
 90
        0
102
RTVSPost2010PropOp40
 70
     1
102
RTVSPost2010Prop41ColorIndex
 90
       18
102
RTVSPost2010Prop41ColorRGB
 90
        0
102
RTVSPost2010PropOp41
 70
     1
102
RTVSPost2010Prop42
 90
       50
102
RTVSPost2010PropOp42
 70
     1
102
RTVSPost2010Prop43
 90
        3
102
RTVSPost2010PropOp43
 70
     1
102
RTVSPost2010Prop44ColorIndex
 90
        5
102
RTVSPost2010Prop44ColorRGB
 90
      255
102
RTVSPost2010PropOp44
 70
     1
102
RTVSPost2010Prop45
280
     0
102
RTVSPost2010PropOp45
 70
     1
102
RTVSPost2010Prop46
 90
       50
102
RTVSPost2010PropOp46
 70
     1
102
RTVSPost2010Prop47
 90
       50
102
RTVSPost2010PropOp47
 70
     1
102
RTVSPost2010Prop48
 90
       50
102
RTVSPost2010PropOp48
 70
     1
102
RTVSPost2010Prop49
280
     0
102
RTVSPost2010PropOp49
 70
     1
102
RTVSPost2010Prop50
 90
       50
102
RTVSPost2010PropOp50
 70
     1
102
RTVSPost2010Prop51ColorIndex
 90
      256
102
RTVSPost2010Prop51ColorRGB
 90
-16777216
102
RTVSPost2010PropOp51
 70
     0
102
RTVSPost2010Prop52
140
1.0
102
RTVSPost2010PropOp52
 70
     0
102
RTVSPost2010Prop53
 90
        2
102
RTVSPost2010PropOp53
 70
     1
102
RTVSPost2010Prop54
  1
strokes_ogs.tif
102
RTVSPost2010PropOp54
 70
     1
102
RTVSPost2010Prop55
280
     0
102
RTVSPost2010PropOp55
 70
     1
102
RTVSPost2010Prop56
140
1.0
102
RTVSPost2010PropOp56
 70
     1
102
RTVSPost2010Prop57
140
1.0
102
RTVSPost2010PropOp57
 70
     1
  0
XRECORD
  5
4DDC
102
{ACAD_REACTORS
330
4DDB
102
}
330
4DDB
100
AcDbXrecord
280
     1
102
RTVSPropertyOp0
 70
     1
102
RTVSPropertyOp1
 70
     1
102
RTVSPropertyOp2
 70
     1
102
RTVSPropertyOp3
 70
     1
102
RTVSPropertyOp4
 70
     1
102
RTVSPropertyOp5
 70
     1
102
RTVSPropertyOp6
 70
     1
102
RTVSPropertyOp7
 70
     1
102
RTVSPropertyOp8
 70
     1
102
RTVSPropertyOp9
 70
     1
102
RTVSPropertyOp10
 70
     1
102
RTVSPropertyOp11
 70
     1
102
RTVSPropertyOp12
 70
     1
102
RTVSPropertyOp13
 70
     1
102
RTVSPropertyOp14
 70
     1
102
RTVSPropertyOp15
 70
     1
102
RTVSPropertyOp16
 70
     1
102
RTVSPropertyOp17
 70
     1
102
RTVSPropertyOp18
 70
     1
102
RTVSPropertyOp19
 70
     1
102
RTVSPropertyOp20
 70
     1
102
RTVSPropertyOp21
 70
     1
102
RTVSPropertyOp22
 70
     1
102
RTVSPropertyOp23
 70
     1
102
RTVSPropertyOp24
 70
     1
102
RTVSPropertyOp25
 70
     1
102
RTVSPropertyOp26
 70
     1
102
RTVSPropertyOp27
 70
     1
102
RTVSPropertyOp28
 70
     1
102
RTVSPropertyOp29
 70
     1
102
RTVSPropertyOp30
 70
     1
102
RTVSPropertyOp31
 70
     1
102
RTVSPropertyOp32
 70
     1
102
RTVSPropertyOp33
 70
     1
102
RTVSPropertyOp34
 70
     1
102
RTVSPropertyOp35
 70
     1
102
RTVSPropertyOp36
 70
     1
102
RTVSPropertyOp37
 70
     1
102
RTVSPropertyOp38
 70
     1
102
RTVSPropertyOp39
 70
     1
102
RTVSPropertyOp40
 70
     1
102
RTVSPropertyOp41
 70
     1
102
RTVSPropertyOp42
 70
     1
102
RTVSPropertyOp43
 70
     1
102
RTVSPropertyOp44
 70
     1
102
RTVSPropertyOp45
 70
     1
102
RTVSPropertyOp46
 70
     1
102
RTVSPropertyOp47
 70
     1
102
RTVSPropertyOp48
 70
     1
102
RTVSPropertyOp49
 70
     1
102
RTVSPropertyOp50
 70
     1
102
RTVSPropertyOp51
 70
     0
102
RTVSPropertyOp52
 70
     0
102
RTVSPropertyOp53
 70
     1
102
RTVSPropertyOp54
 70
     1
102
RTVSPropertyOp55
 70
     1
102
RTVSPropertyOp56
 70
     1
102
RTVSPropertyOp57
 70
     1
102
RTVSPost2010Prop28
280
     0
102
RTVSPost2010PropOp28
 70
     1
102
RTVSPost2010Prop29
280
     1
102
RTVSPost2010PropOp29
 70
     1
102
RTVSPost2010Prop30
280
     1
102
RTVSPost2010PropOp30
 70
     1
102
RTVSPost2010Prop31
280
     0
102
RTVSPost2010PropOp31
 70
     1
102
RTVSPost2010Prop32
280
     0
102
RTVSPost2010PropOp32
 70
     1
102
RTVSPost2010Prop33
280
     0
102
RTVSPost2010PropOp33
 70
     1
102
RTVSPost2010Prop34
280
     0
102
RTVSPost2010PropOp34
 70
     1
102
RTVSPost2010Prop35
280
     0
102
RTVSPost2010PropOp35
 70
     1
102
RTVSPost2010Prop36
280
     0
102
RTVSPost2010PropOp36
 70
     1
102
RTVSPost2010Prop37
 90
       50
102
RTVSPost2010PropOp37
 70
     1
102
RTVSPost2010Prop38
140
0.0
102
RTVSPost2010PropOp38
 70
     1
102
RTVSPost2010Prop39
140
1.0
102
RTVSPost2010PropOp39
 70
     1
102
RTVSPost2010Prop40
 90
        0
102
RTVSPost2010PropOp40
 70
     1
102
RTVSPost2010Prop41ColorIndex
 90
       18
102
RTVSPost2010Prop41ColorRGB
 90
        0
102
RTVSPost2010PropOp41
 70
     1
102
RTVSPost2010Prop42
 90
       50
102
RTVSPost2010PropOp42
 70
     1
102
RTVSPost2010Prop43
 90
        3
102
RTVSPost2010PropOp43
 70
     1
102
RTVSPost2010Prop44ColorIndex
 90
        5
102
RTVSPost2010Prop44ColorRGB
 90
      255
102
RTVSPost2010PropOp44
 70
     1
102
RTVSPost2010Prop45
280
     0
102
RTVSPost2010PropOp45
 70
     1
102
RTVSPost2010Prop46
 90
       50
102
RTVSPost2010PropOp46
 70
     1
102
RTVSPost2010Prop47
 90
       50
102
RTVSPost2010PropOp47
 70
     1
102
RTVSPost2010Prop48
 90
       50
102
RTVSPost2010PropOp48
 70
     1
102
RTVSPost2010Prop49
280
     0
102
RTVSPost2010PropOp49
 70
     1
102
RTVSPost2010Prop50
 90
       50
102
RTVSPost2010PropOp50
 70
     1
102
RTVSPost2010Prop51ColorIndex
 90
      256
102
RTVSPost2010Prop51ColorRGB
 90
-16777216
102
RTVSPost2010PropOp51
 70
     0
102
RTVSPost2010Prop52
140
1.0
102
RTVSPost2010PropOp52
 70
     0
102
RTVSPost2010Prop53
 90
        2
102
RTVSPost2010PropOp53
 70
     1
102
RTVSPost2010Prop54
  1
strokes_ogs.tif
102
RTVSPost2010PropOp54
 70
     1
102
RTVSPost2010Prop55
280
     0
102
RTVSPost2010PropOp55
 70
     1
102
RTVSPost2010Prop56
140
1.0
102
RTVSPost2010PropOp56
 70
     1
102
RTVSPost2010Prop57
140
1.0
102
RTVSPost2010PropOp57
 70
     1
  0
XRECORD
  5
4DDE
102
{ACAD_REACTORS
330
4DDD
102
}
330
4DDD
100
AcDbXrecord
280
     1
102
RTVSPropertyOp0
 70
     1
102
RTVSPropertyOp1
 70
     1
102
RTVSPropertyOp2
 70
     1
102
RTVSPropertyOp3
 70
     1
102
RTVSPropertyOp4
 70
     1
102
RTVSPropertyOp5
 70
     1
102
RTVSPropertyOp6
 70
     1
102
RTVSPropertyOp7
 70
     1
102
RTVSPropertyOp8
 70
     1
102
RTVSPropertyOp9
 70
     1
102
RTVSPropertyOp10
 70
     1
102
RTVSPropertyOp11
 70
     1
102
RTVSPropertyOp12
 70
     1
102
RTVSPropertyOp13
 70
     1
102
RTVSPropertyOp14
 70
     1
102
RTVSPropertyOp15
 70
     1
102
RTVSPropertyOp16
 70
     1
102
RTVSPropertyOp17
 70
     1
102
RTVSPropertyOp18
 70
     1
102
RTVSPropertyOp19
 70
     1
102
RTVSPropertyOp20
 70
     1
102
RTVSPropertyOp21
 70
     1
102
RTVSPropertyOp22
 70
     1
102
RTVSPropertyOp23
 70
     1
102
RTVSPropertyOp24
 70
     1
102
RTVSPropertyOp25
 70
     1
102
RTVSPropertyOp26
 70
     1
102
RTVSPropertyOp27
 70
     1
102
RTVSPropertyOp28
 70
     1
102
RTVSPropertyOp29
 70
     1
102
RTVSPropertyOp30
 70
     1
102
RTVSPropertyOp31
 70
     1
102
RTVSPropertyOp32
 70
     1
102
RTVSPropertyOp33
 70
     1
102
RTVSPropertyOp34
 70
     1
102
RTVSPropertyOp35
 70
     1
102
RTVSPropertyOp36
 70
     1
102
RTVSPropertyOp37
 70
     1
102
RTVSPropertyOp38
 70
     1
102
RTVSPropertyOp39
 70
     1
102
RTVSPropertyOp40
 70
     1
102
RTVSPropertyOp41
 70
     1
102
RTVSPropertyOp42
 70
     1
102
RTVSPropertyOp43
 70
     1
102
RTVSPropertyOp44
 70
     1
102
RTVSPropertyOp45
 70
     1
102
RTVSPropertyOp46
 70
     1
102
RTVSPropertyOp47
 70
     1
102
RTVSPropertyOp48
 70
     1
102
RTVSPropertyOp49
 70
     1
102
RTVSPropertyOp50
 70
     1
102
RTVSPropertyOp51
 70
     0
102
RTVSPropertyOp52
 70
     0
102
RTVSPropertyOp53
 70
     1
102
RTVSPropertyOp54
 70
     1
102
RTVSPropertyOp55
 70
     1
102
RTVSPropertyOp56
 70
     1
102
RTVSPropertyOp57
 70
     1
102
RTVSPost2010Prop28
280
     0
102
RTVSPost2010PropOp28
 70
     1
102
RTVSPost2010Prop29
280
     1
102
RTVSPost2010PropOp29
 70
     1
102
RTVSPost2010Prop30
280
     1
102
RTVSPost2010PropOp30
 70
     1
102
RTVSPost2010Prop31
280
     0
102
RTVSPost2010PropOp31
 70
     1
102
RTVSPost2010Prop32
280
     0
102
RTVSPost2010PropOp32
 70
     1
102
RTVSPost2010Prop33
280
     0
102
RTVSPost2010PropOp33
 70
     1
102
RTVSPost2010Prop34
280
     0
102
RTVSPost2010PropOp34
 70
     1
102
RTVSPost2010Prop35
280
     0
102
RTVSPost2010PropOp35
 70
     1
102
RTVSPost2010Prop36
280
     0
102
RTVSPost2010PropOp36
 70
     1
102
RTVSPost2010Prop37
 90
       50
102
RTVSPost2010PropOp37
 70
     1
102
RTVSPost2010Prop38
140
0.0
102
RTVSPost2010PropOp38
 70
     1
102
RTVSPost2010Prop39
140
1.0
102
RTVSPost2010PropOp39
 70
     1
102
RTVSPost2010Prop40
 90
        0
102
RTVSPost2010PropOp40
 70
     1
102
RTVSPost2010Prop41ColorIndex
 90
       18
102
RTVSPost2010Prop41ColorRGB
 90
        0
102
RTVSPost2010PropOp41
 70
     1
102
RTVSPost2010Prop42
 90
       50
102
RTVSPost2010PropOp42
 70
     1
102
RTVSPost2010Prop43
 90
        3
102
RTVSPost2010PropOp43
 70
     1
102
RTVSPost2010Prop44ColorIndex
 90
        5
102
RTVSPost2010Prop44ColorRGB
 90
      255
102
RTVSPost2010PropOp44
 70
     1
102
RTVSPost2010Prop45
280
     0
102
RTVSPost2010PropOp45
 70
     1
102
RTVSPost2010Prop46
 90
       50
102
RTVSPost2010PropOp46
 70
     1
102
RTVSPost2010Prop47
 90
       50
102
RTVSPost2010PropOp47
 70
     1
102
RTVSPost2010Prop48
 90
       50
102
RTVSPost2010PropOp48
 70
     1
102
RTVSPost2010Prop49
280
     0
102
RTVSPost2010PropOp49
 70
     1
102
RTVSPost2010Prop50
 90
       50
102
RTVSPost2010PropOp50
 70
     1
102
RTVSPost2010Prop51ColorIndex
 90
      256
102
RTVSPost2010Prop51ColorRGB
 90
-16777216
102
RTVSPost2010PropOp51
 70
     0
102
RTVSPost2010Prop52
140
1.0
102
RTVSPost2010PropOp52
 70
     0
102
RTVSPost2010Prop53
 90
        2
102
RTVSPost2010PropOp53
 70
     1
102
RTVSPost2010Prop54
  1
strokes_ogs.tif
102
RTVSPost2010PropOp54
 70
     1
102
RTVSPost2010Prop55
280
     0
102
RTVSPost2010PropOp55
 70
     1
102
RTVSPost2010Prop56
140
1.0
102
RTVSPost2010PropOp56
 70
     1
102
RTVSPost2010Prop57
140
1.0
102
RTVSPost2010PropOp57
 70
     1
  0
XRECORD
  5
4DEE
102
{ACAD_REACTORS
330
4DED
102
}
330
4DED
100
AcDbXrecord
280
     1
102
RTVSPropertyOp0
 70
     0
102
RTVSPropertyOp1
 70
     0
102
RTVSPropertyOp2
 70
     0
102
RTVSPropertyOp3
 70
     0
102
RTVSPropertyOp4
 70
     0
102
RTVSPropertyOp5
 70
     0
102
RTVSPropertyOp6
 70
     0
102
RTVSPropertyOp7
 70
     0
102
RTVSPropertyOp8
 70
     0
102
RTVSPropertyOp9
 70
     0
102
RTVSPropertyOp10
 70
     0
102
RTVSPropertyOp11
 70
     0
102
RTVSPropertyOp12
 70
     0
102
RTVSPropertyOp13
 70
     0
102
RTVSPropertyOp14
 70
     2
102
RTVSPropertyOp15
 70
     0
102
RTVSPropertyOp16
 70
     0
102
RTVSPropertyOp17
 70
     0
102
RTVSPropertyOp18
 70
     0
102
RTVSPropertyOp19
 70
     0
102
RTVSPropertyOp20
 70
     0
102
RTVSPropertyOp21
 70
     0
102
RTVSPropertyOp22
 70
     0
102
RTVSPropertyOp23
 70
     0
102
RTVSPropertyOp24
 70
     0
102
RTVSPropertyOp25
 70
     0
102
RTVSPropertyOp26
 70
     0
102
RTVSPropertyOp27
 70
     0
102
RTVSPropertyOp28
 70
     0
102
RTVSPropertyOp29
 70
     0
102
RTVSPropertyOp30
 70
     0
102
RTVSPropertyOp31
 70
     0
102
RTVSPropertyOp32
 70
     0
102
RTVSPropertyOp33
 70
     0
102
RTVSPropertyOp34
 70
     0
102
RTVSPropertyOp35
 70
     0
102
RTVSPropertyOp36
 70
     0
102
RTVSPropertyOp37
 70
     0
102
RTVSPropertyOp38
 70
     0
102
RTVSPropertyOp39
 70
     0
102
RTVSPropertyOp40
 70
     0
102
RTVSPropertyOp41
 70
     0
102
RTVSPropertyOp42
 70
     0
102
RTVSPropertyOp43
 70
     0
102
RTVSPropertyOp44
 70
     0
102
RTVSPropertyOp45
 70
     0
102
RTVSPropertyOp46
 70
     0
102
RTVSPropertyOp47
 70
     0
102
RTVSPropertyOp48
 70
     0
102
RTVSPropertyOp49
 70
     0
102
RTVSPropertyOp50
 70
     0
102
RTVSPropertyOp51
 70
     0
102
RTVSPropertyOp52
 70
     0
102
RTVSPropertyOp53
 70
     0
102
RTVSPropertyOp54
 70
     0
102
RTVSPropertyOp55
 70
     0
102
RTVSPropertyOp56
 70
     0
102
RTVSPropertyOp57
 70
     0
102
RTVSPost2010Prop28
280
     0
102
RTVSPost2010PropOp28
 70
     0
102
RTVSPost2010Prop29
280
     1
102
RTVSPost2010PropOp29
 70
     0
102
RTVSPost2010Prop30
280
     1
102
RTVSPost2010PropOp30
 70
     0
102
RTVSPost2010Prop31
280
     0
102
RTVSPost2010PropOp31
 70
     0
102
RTVSPost2010Prop32
280
     0
102
RTVSPost2010PropOp32
 70
     0
102
RTVSPost2010Prop33
280
     0
102
RTVSPost2010PropOp33
 70
     0
102
RTVSPost2010Prop34
280
     0
102
RTVSPost2010PropOp34
 70
     0
102
RTVSPost2010Prop35
280
     0
102
RTVSPost2010PropOp35
 70
     0
102
RTVSPost2010Prop36
280
     0
102
RTVSPost2010PropOp36
 70
     0
102
RTVSPost2010Prop37
 90
       50
102
RTVSPost2010PropOp37
 70
     0
102
RTVSPost2010Prop38
140
0.0
102
RTVSPost2010PropOp38
 70
     0
102
RTVSPost2010Prop39
140
1.0
102
RTVSPost2010PropOp39
 70
     0
102
RTVSPost2010Prop40
 90
        0
102
RTVSPost2010PropOp40
 70
     0
102
RTVSPost2010Prop41ColorIndex
 90
       18
102
RTVSPost2010Prop41ColorRGB
 90
        0
102
RTVSPost2010PropOp41
 70
     0
102
RTVSPost2010Prop42
 90
       50
102
RTVSPost2010PropOp42
 70
     0
102
RTVSPost2010Prop43
 90
        3
102
RTVSPost2010PropOp43
 70
     0
102
RTVSPost2010Prop44ColorIndex
 90
        5
102
RTVSPost2010Prop44ColorRGB
 90
      255
102
RTVSPost2010PropOp44
 70
     0
102
RTVSPost2010Prop45
280
     0
102
RTVSPost2010PropOp45
 70
     0
102
RTVSPost2010Prop46
 90
       50
102
RTVSPost2010PropOp46
 70
     0
102
RTVSPost2010Prop47
 90
       50
102
RTVSPost2010PropOp47
 70
     0
102
RTVSPost2010Prop48
 90
       50
102
RTVSPost2010PropOp48
 70
     0
102
RTVSPost2010Prop49
280
     0
102
RTVSPost2010PropOp49
 70
     0
102
RTVSPost2010Prop50
 90
       50
102
RTVSPost2010PropOp50
 70
     0
102
RTVSPost2010Prop51ColorIndex
 90
      256
102
RTVSPost2010Prop51ColorRGB
 90
-16777216
102
RTVSPost2010PropOp51
 70
     0
102
RTVSPost2010Prop52
140
1.0
102
RTVSPost2010PropOp52
 70
     0
102
RTVSPost2010Prop53
 90
        2
102
RTVSPost2010PropOp53
 70
     0
102
RTVSPost2010Prop54
  1
strokes_ogs.tif
102
RTVSPost2010PropOp54
 70
     0
102
RTVSPost2010Prop55
280
     0
102
RTVSPost2010PropOp55
 70
     0
102
RTVSPost2010Prop56
140
1.0
102
RTVSPost2010PropOp56
 70
     0
102
RTVSPost2010Prop57
140
1.0
102
RTVSPost2010PropOp57
 70
     0
  0
XRECORD
  5
4DE6
102
{ACAD_REACTORS
330
4DE5
102
}
330
4DE5
100
AcDbXrecord
280
     1
102
RTVSPropertyOp0
 70
     1
102
RTVSPropertyOp1
 70
     1
102
RTVSPropertyOp2
 70
     1
102
RTVSPropertyOp3
 70
     1
102
RTVSPropertyOp4
 70
     1
102
RTVSPropertyOp5
 70
     1
102
RTVSPropertyOp6
 70
     1
102
RTVSPropertyOp7
 70
     1
102
RTVSPropertyOp8
 70
     1
102
RTVSPropertyOp9
 70
     1
102
RTVSPropertyOp10
 70
     1
102
RTVSPropertyOp11
 70
     1
102
RTVSPropertyOp12
 70
     1
102
RTVSPropertyOp13
 70
     1
102
RTVSPropertyOp14
 70
     1
102
RTVSPropertyOp15
 70
     1
102
RTVSPropertyOp16
 70
     1
102
RTVSPropertyOp17
 70
     1
102
RTVSPropertyOp18
 70
     1
102
RTVSPropertyOp19
 70
     1
102
RTVSPropertyOp20
 70
     1
102
RTVSPropertyOp21
 70
     1
102
RTVSPropertyOp22
 70
     1
102
RTVSPropertyOp23
 70
     1
102
RTVSPropertyOp24
 70
     1
102
RTVSPropertyOp25
 70
     1
102
RTVSPropertyOp26
 70
     1
102
RTVSPropertyOp27
 70
     1
102
RTVSPropertyOp28
 70
     1
102
RTVSPropertyOp29
 70
     1
102
RTVSPropertyOp30
 70
     1
102
RTVSPropertyOp31
 70
     1
102
RTVSPropertyOp32
 70
     1
102
RTVSPropertyOp33
 70
     1
102
RTVSPropertyOp34
 70
     1
102
RTVSPropertyOp35
 70
     1
102
RTVSPropertyOp36
 70
     1
102
RTVSPropertyOp37
 70
     1
102
RTVSPropertyOp38
 70
     1
102
RTVSPropertyOp39
 70
     1
102
RTVSPropertyOp40
 70
     1
102
RTVSPropertyOp41
 70
     1
102
RTVSPropertyOp42
 70
     1
102
RTVSPropertyOp43
 70
     1
102
RTVSPropertyOp44
 70
     1
102
RTVSPropertyOp45
 70
     1
102
RTVSPropertyOp46
 70
     1
102
RTVSPropertyOp47
 70
     1
102
RTVSPropertyOp48
 70
     1
102
RTVSPropertyOp49
 70
     1
102
RTVSPropertyOp50
 70
     1
102
RTVSPropertyOp51
 70
     0
102
RTVSPropertyOp52
 70
     0
102
RTVSPropertyOp53
 70
     1
102
RTVSPropertyOp54
 70
     1
102
RTVSPropertyOp55
 70
     1
102
RTVSPropertyOp56
 70
     1
102
RTVSPropertyOp57
 70
     1
102
RTVSPost2010Prop28
280
     0
102
RTVSPost2010PropOp28
 70
     1
102
RTVSPost2010Prop29
280
     1
102
RTVSPost2010PropOp29
 70
     1
102
RTVSPost2010Prop30
280
     1
102
RTVSPost2010PropOp30
 70
     1
102
RTVSPost2010Prop31
280
     0
102
RTVSPost2010PropOp31
 70
     1
102
RTVSPost2010Prop32
280
     0
102
RTVSPost2010PropOp32
 70
     1
102
RTVSPost2010Prop33
280
     0
102
RTVSPost2010PropOp33
 70
     1
102
RTVSPost2010Prop34
280
     0
102
RTVSPost2010PropOp34
 70
     1
102
RTVSPost2010Prop35
280
     0
102
RTVSPost2010PropOp35
 70
     1
102
RTVSPost2010Prop36
280
     0
102
RTVSPost2010PropOp36
 70
     1
102
RTVSPost2010Prop37
 90
       50
102
RTVSPost2010PropOp37
 70
     1
102
RTVSPost2010Prop38
140
0.0
102
RTVSPost2010PropOp38
 70
     1
102
RTVSPost2010Prop39
140
1.0
102
RTVSPost2010PropOp39
 70
     1
102
RTVSPost2010Prop40
 90
        0
102
RTVSPost2010PropOp40
 70
     1
102
RTVSPost2010Prop41ColorIndex
 90
       18
102
RTVSPost2010Prop41ColorRGB
 90
        0
102
RTVSPost2010PropOp41
 70
     1
102
RTVSPost2010Prop42
 90
       50
102
RTVSPost2010PropOp42
 70
     1
102
RTVSPost2010Prop43
 90
        3
102
RTVSPost2010PropOp43
 70
     1
102
RTVSPost2010Prop44ColorIndex
 90
        5
102
RTVSPost2010Prop44ColorRGB
 90
      255
102
RTVSPost2010PropOp44
 70
     1
102
RTVSPost2010Prop45
280
     0
102
RTVSPost2010PropOp45
 70
     1
102
RTVSPost2010Prop46
 90
       50
102
RTVSPost2010PropOp46
 70
     1
102
RTVSPost2010Prop47
 90
       50
102
RTVSPost2010PropOp47
 70
     1
102
RTVSPost2010Prop48
 90
       50
102
RTVSPost2010PropOp48
 70
     1
102
RTVSPost2010Prop49
280
     0
102
RTVSPost2010PropOp49
 70
     1
102
RTVSPost2010Prop50
 90
       50
102
RTVSPost2010PropOp50
 70
     1
102
RTVSPost2010Prop51ColorIndex
 90
      256
102
RTVSPost2010Prop51ColorRGB
 90
-16777216
102
RTVSPost2010PropOp51
 70
     0
102
RTVSPost2010Prop52
140
1.0
102
RTVSPost2010PropOp52
 70
     0
102
RTVSPost2010Prop53
 90
        2
102
RTVSPost2010PropOp53
 70
     1
102
RTVSPost2010Prop54
  1
strokes_ogs.tif
102
RTVSPost2010PropOp54
 70
     1
102
RTVSPost2010Prop55
280
     0
102
RTVSPost2010PropOp55
 70
     1
102
RTVSPost2010Prop56
140
1.0
102
RTVSPost2010PropOp56
 70
     1
102
RTVSPost2010Prop57
140
1.0
102
RTVSPost2010PropOp57
 70
     1
  0
XRECORD
  5
4DCA
102
{ACAD_REACTORS
330
4DC9
102
}
330
4DC9
100
AcDbXrecord
280
     1
102
RTVSPropertyOp0
 70
     1
102
RTVSPropertyOp1
 70
     1
102
RTVSPropertyOp2
 70
     1
102
RTVSPropertyOp3
 70
     1
102
RTVSPropertyOp4
 70
     1
102
RTVSPropertyOp5
 70
     1
102
RTVSPropertyOp6
 70
     1
102
RTVSPropertyOp7
 70
     1
102
RTVSPropertyOp8
 70
     1
102
RTVSPropertyOp9
 70
     1
102
RTVSPropertyOp10
 70
     1
102
RTVSPropertyOp11
 70
     1
102
RTVSPropertyOp12
 70
     1
102
RTVSPropertyOp13
 70
     1
102
RTVSPropertyOp14
 70
     1
102
RTVSPropertyOp15
 70
     1
102
RTVSPropertyOp16
 70
     1
102
RTVSPropertyOp17
 70
     1
102
RTVSPropertyOp18
 70
     1
102
RTVSPropertyOp19
 70
     1
102
RTVSPropertyOp20
 70
     1
102
RTVSPropertyOp21
 70
     1
102
RTVSPropertyOp22
 70
     1
102
RTVSPropertyOp23
 70
     1
102
RTVSPropertyOp24
 70
     1
102
RTVSPropertyOp25
 70
     1
102
RTVSPropertyOp26
 70
     1
102
RTVSPropertyOp27
 70
     1
102
RTVSPropertyOp28
 70
     1
102
RTVSPropertyOp29
 70
     1
102
RTVSPropertyOp30
 70
     1
102
RTVSPropertyOp31
 70
     1
102
RTVSPropertyOp32
 70
     1
102
RTVSPropertyOp33
 70
     1
102
RTVSPropertyOp34
 70
     1
102
RTVSPropertyOp35
 70
     1
102
RTVSPropertyOp36
 70
     1
102
RTVSPropertyOp37
 70
     1
102
RTVSPropertyOp38
 70
     1
102
RTVSPropertyOp39
 70
     1
102
RTVSPropertyOp40
 70
     1
102
RTVSPropertyOp41
 70
     1
102
RTVSPropertyOp42
 70
     1
102
RTVSPropertyOp43
 70
     1
102
RTVSPropertyOp44
 70
     1
102
RTVSPropertyOp45
 70
     1
102
RTVSPropertyOp46
 70
     1
102
RTVSPropertyOp47
 70
     1
102
RTVSPropertyOp48
 70
     1
102
RTVSPropertyOp49
 70
     1
102
RTVSPropertyOp50
 70
     1
102
RTVSPropertyOp51
 70
     0
102
RTVSPropertyOp52
 70
     0
102
RTVSPropertyOp53
 70
     1
102
RTVSPropertyOp54
 70
     1
102
RTVSPropertyOp55
 70
     1
102
RTVSPropertyOp56
 70
     1
102
RTVSPropertyOp57
 70
     1
102
RTVSPost2010Prop28
280
     0
102
RTVSPost2010PropOp28
 70
     1
102
RTVSPost2010Prop29
280
     1
102
RTVSPost2010PropOp29
 70
     1
102
RTVSPost2010Prop30
280
     1
102
RTVSPost2010PropOp30
 70
     1
102
RTVSPost2010Prop31
280
     0
102
RTVSPost2010PropOp31
 70
     1
102
RTVSPost2010Prop32
280
     0
102
RTVSPost2010PropOp32
 70
     1
102
RTVSPost2010Prop33
280
     0
102
RTVSPost2010PropOp33
 70
     1
102
RTVSPost2010Prop34
280
     0
102
RTVSPost2010PropOp34
 70
     1
102
RTVSPost2010Prop35
280
     0
102
RTVSPost2010PropOp35
 70
     1
102
RTVSPost2010Prop36
280
     0
102
RTVSPost2010PropOp36
 70
     1
102
RTVSPost2010Prop37
 90
       50
102
RTVSPost2010PropOp37
 70
     1
102
RTVSPost2010Prop38
140
0.0
102
RTVSPost2010PropOp38
 70
     1
102
RTVSPost2010Prop39
140
1.0
102
RTVSPost2010PropOp39
 70
     1
102
RTVSPost2010Prop40
 90
        0
102
RTVSPost2010PropOp40
 70
     1
102
RTVSPost2010Prop41ColorIndex
 90
       18
102
RTVSPost2010Prop41ColorRGB
 90
        0
102
RTVSPost2010PropOp41
 70
     1
102
RTVSPost2010Prop42
 90
       50
102
RTVSPost2010PropOp42
 70
     1
102
RTVSPost2010Prop43
 90
        3
102
RTVSPost2010PropOp43
 70
     1
102
RTVSPost2010Prop44ColorIndex
 90
        5
102
RTVSPost2010Prop44ColorRGB
 90
      255
102
RTVSPost2010PropOp44
 70
     1
102
RTVSPost2010Prop45
280
     0
102
RTVSPost2010PropOp45
 70
     1
102
RTVSPost2010Prop46
 90
       50
102
RTVSPost2010PropOp46
 70
     1
102
RTVSPost2010Prop47
 90
       50
102
RTVSPost2010PropOp47
 70
     1
102
RTVSPost2010Prop48
 90
       50
102
RTVSPost2010PropOp48
 70
     1
102
RTVSPost2010Prop49
280
     0
102
RTVSPost2010PropOp49
 70
     1
102
RTVSPost2010Prop50
 90
       50
102
RTVSPost2010PropOp50
 70
     1
102
RTVSPost2010Prop51ColorIndex
 90
      256
102
RTVSPost2010Prop51ColorRGB
 90
-16777216
102
RTVSPost2010PropOp51
 70
     0
102
RTVSPost2010Prop52
140
1.0
102
RTVSPost2010PropOp52
 70
     0
102
RTVSPost2010Prop53
 90
        2
102
RTVSPost2010PropOp53
 70
     1
102
RTVSPost2010Prop54
  1
strokes_ogs.tif
102
RTVSPost2010PropOp54
 70
     1
102
RTVSPost2010Prop55
280
     0
102
RTVSPost2010PropOp55
 70
     1
102
RTVSPost2010Prop56
140
1.0
102
RTVSPost2010PropOp56
 70
     1
102
RTVSPost2010Prop57
140
1.0
102
RTVSPost2010PropOp57
 70
     1
  0
XRECORD
  5
4DCC
102
{ACAD_REACTORS
330
4DCB
102
}
330
4DCB
100
AcDbXrecord
280
     1
102
RTVSPropertyOp0
 70
     1
102
RTVSPropertyOp1
 70
     1
102
RTVSPropertyOp2
 70
     1
102
RTVSPropertyOp3
 70
     1
102
RTVSPropertyOp4
 70
     1
102
RTVSPropertyOp5
 70
     1
102
RTVSPropertyOp6
 70
     1
102
RTVSPropertyOp7
 70
     1
102
RTVSPropertyOp8
 70
     1
102
RTVSPropertyOp9
 70
     1
102
RTVSPropertyOp10
 70
     1
102
RTVSPropertyOp11
 70
     1
102
RTVSPropertyOp12
 70
     1
102
RTVSPropertyOp13
 70
     1
102
RTVSPropertyOp14
 70
     1
102
RTVSPropertyOp15
 70
     1
102
RTVSPropertyOp16
 70
     1
102
RTVSPropertyOp17
 70
     1
102
RTVSPropertyOp18
 70
     1
102
RTVSPropertyOp19
 70
     1
102
RTVSPropertyOp20
 70
     1
102
RTVSPropertyOp21
 70
     1
102
RTVSPropertyOp22
 70
     1
102
RTVSPropertyOp23
 70
     1
102
RTVSPropertyOp24
 70
     1
102
RTVSPropertyOp25
 70
     1
102
RTVSPropertyOp26
 70
     1
102
RTVSPropertyOp27
 70
     1
102
RTVSPropertyOp28
 70
     1
102
RTVSPropertyOp29
 70
     1
102
RTVSPropertyOp30
 70
     1
102
RTVSPropertyOp31
 70
     1
102
RTVSPropertyOp32
 70
     1
102
RTVSPropertyOp33
 70
     1
102
RTVSPropertyOp34
 70
     1
102
RTVSPropertyOp35
 70
     1
102
RTVSPropertyOp36
 70
     1
102
RTVSPropertyOp37
 70
     1
102
RTVSPropertyOp38
 70
     1
102
RTVSPropertyOp39
 70
     1
102
RTVSPropertyOp40
 70
     1
102
RTVSPropertyOp41
 70
     1
102
RTVSPropertyOp42
 70
     1
102
RTVSPropertyOp43
 70
     1
102
RTVSPropertyOp44
 70
     1
102
RTVSPropertyOp45
 70
     1
102
RTVSPropertyOp46
 70
     1
102
RTVSPropertyOp47
 70
     1
102
RTVSPropertyOp48
 70
     1
102
RTVSPropertyOp49
 70
     1
102
RTVSPropertyOp50
 70
     1
102
RTVSPropertyOp51
 70
     0
102
RTVSPropertyOp52
 70
     0
102
RTVSPropertyOp53
 70
     1
102
RTVSPropertyOp54
 70
     1
102
RTVSPropertyOp55
 70
     1
102
RTVSPropertyOp56
 70
     1
102
RTVSPropertyOp57
 70
     1
102
RTVSPost2010Prop28
280
     0
102
RTVSPost2010PropOp28
 70
     1
102
RTVSPost2010Prop29
280
     1
102
RTVSPost2010PropOp29
 70
     1
102
RTVSPost2010Prop30
280
     1
102
RTVSPost2010PropOp30
 70
     1
102
RTVSPost2010Prop31
280
     0
102
RTVSPost2010PropOp31
 70
     1
102
RTVSPost2010Prop32
280
     0
102
RTVSPost2010PropOp32
 70
     1
102
RTVSPost2010Prop33
280
     0
102
RTVSPost2010PropOp33
 70
     1
102
RTVSPost2010Prop34
280
     0
102
RTVSPost2010PropOp34
 70
     1
102
RTVSPost2010Prop35
280
     0
102
RTVSPost2010PropOp35
 70
     1
102
RTVSPost2010Prop36
280
     0
102
RTVSPost2010PropOp36
 70
     1
102
RTVSPost2010Prop37
 90
       50
102
RTVSPost2010PropOp37
 70
     1
102
RTVSPost2010Prop38
140
0.0
102
RTVSPost2010PropOp38
 70
     1
102
RTVSPost2010Prop39
140
1.0
102
RTVSPost2010PropOp39
 70
     1
102
RTVSPost2010Prop40
 90
        0
102
RTVSPost2010PropOp40
 70
     1
102
RTVSPost2010Prop41ColorIndex
 90
       18
102
RTVSPost2010Prop41ColorRGB
 90
        0
102
RTVSPost2010PropOp41
 70
     1
102
RTVSPost2010Prop42
 90
       50
102
RTVSPost2010PropOp42
 70
     1
102
RTVSPost2010Prop43
 90
        3
102
RTVSPost2010PropOp43
 70
     1
102
RTVSPost2010Prop44ColorIndex
 90
        5
102
RTVSPost2010Prop44ColorRGB
 90
      255
102
RTVSPost2010PropOp44
 70
     1
102
RTVSPost2010Prop45
280
     0
102
RTVSPost2010PropOp45
 70
     1
102
RTVSPost2010Prop46
 90
       50
102
RTVSPost2010PropOp46
 70
     1
102
RTVSPost2010Prop47
 90
       50
102
RTVSPost2010PropOp47
 70
     1
102
RTVSPost2010Prop48
 90
       50
102
RTVSPost2010PropOp48
 70
     1
102
RTVSPost2010Prop49
280
     0
102
RTVSPost2010PropOp49
 70
     1
102
RTVSPost2010Prop50
 90
       50
102
RTVSPost2010PropOp50
 70
     1
102
RTVSPost2010Prop51ColorIndex
 90
      256
102
RTVSPost2010Prop51ColorRGB
 90
-16777216
102
RTVSPost2010PropOp51
 70
     0
102
RTVSPost2010Prop52
140
1.0
102
RTVSPost2010PropOp52
 70
     0
102
RTVSPost2010Prop53
 90
        2
102
RTVSPost2010PropOp53
 70
     1
102
RTVSPost2010Prop54
  1
strokes_ogs.tif
102
RTVSPost2010PropOp54
 70
     1
102
RTVSPost2010Prop55
280
     0
102
RTVSPost2010PropOp55
 70
     1
102
RTVSPost2010Prop56
140
1.0
102
RTVSPost2010PropOp56
 70
     1
102
RTVSPost2010Prop57
140
1.0
102
RTVSPost2010PropOp57
 70
     1
  0
XRECORD
  5
4DCE
102
{ACAD_REACTORS
330
4DCD
102
}
330
4DCD
100
AcDbXrecord
280
     1
102
RTVSPropertyOp0
 70
     1
102
RTVSPropertyOp1
 70
     1
102
RTVSPropertyOp2
 70
     1
102
RTVSPropertyOp3
 70
     1
102
RTVSPropertyOp4
 70
     1
102
RTVSPropertyOp5
 70
     1
102
RTVSPropertyOp6
 70
     1
102
RTVSPropertyOp7
 70
     1
102
RTVSPropertyOp8
 70
     1
102
RTVSPropertyOp9
 70
     1
102
RTVSPropertyOp10
 70
     1
102
RTVSPropertyOp11
 70
     1
102
RTVSPropertyOp12
 70
     1
102
RTVSPropertyOp13
 70
     1
102
RTVSPropertyOp14
 70
     1
102
RTVSPropertyOp15
 70
     1
102
RTVSPropertyOp16
 70
     1
102
RTVSPropertyOp17
 70
     1
102
RTVSPropertyOp18
 70
     1
102
RTVSPropertyOp19
 70
     1
102
RTVSPropertyOp20
 70
     1
102
RTVSPropertyOp21
 70
     1
102
RTVSPropertyOp22
 70
     1
102
RTVSPropertyOp23
 70
     1
102
RTVSPropertyOp24
 70
     1
102
RTVSPropertyOp25
 70
     1
102
RTVSPropertyOp26
 70
     1
102
RTVSPropertyOp27
 70
     1
102
RTVSPropertyOp28
 70
     1
102
RTVSPropertyOp29
 70
     1
102
RTVSPropertyOp30
 70
     1
102
RTVSPropertyOp31
 70
     1
102
RTVSPropertyOp32
 70
     1
102
RTVSPropertyOp33
 70
     1
102
RTVSPropertyOp34
 70
     1
102
RTVSPropertyOp35
 70
     1
102
RTVSPropertyOp36
 70
     1
102
RTVSPropertyOp37
 70
     1
102
RTVSPropertyOp38
 70
     1
102
RTVSPropertyOp39
 70
     1
102
RTVSPropertyOp40
 70
     1
102
RTVSPropertyOp41
 70
     1
102
RTVSPropertyOp42
 70
     1
102
RTVSPropertyOp43
 70
     1
102
RTVSPropertyOp44
 70
     1
102
RTVSPropertyOp45
 70
     1
102
RTVSPropertyOp46
 70
     1
102
RTVSPropertyOp47
 70
     1
102
RTVSPropertyOp48
 70
     1
102
RTVSPropertyOp49
 70
     1
102
RTVSPropertyOp50
 70
     1
102
RTVSPropertyOp51
 70
     0
102
RTVSPropertyOp52
 70
     0
102
RTVSPropertyOp53
 70
     1
102
RTVSPropertyOp54
 70
     1
102
RTVSPropertyOp55
 70
     1
102
RTVSPropertyOp56
 70
     1
102
RTVSPropertyOp57
 70
     1
102
RTVSPost2010Prop28
280
     0
102
RTVSPost2010PropOp28
 70
     1
102
RTVSPost2010Prop29
280
     1
102
RTVSPost2010PropOp29
 70
     1
102
RTVSPost2010Prop30
280
     1
102
RTVSPost2010PropOp30
 70
     1
102
RTVSPost2010Prop31
280
     0
102
RTVSPost2010PropOp31
 70
     1
102
RTVSPost2010Prop32
280
     0
102
RTVSPost2010PropOp32
 70
     1
102
RTVSPost2010Prop33
280
     0
102
RTVSPost2010PropOp33
 70
     1
102
RTVSPost2010Prop34
280
     0
102
RTVSPost2010PropOp34
 70
     1
102
RTVSPost2010Prop35
280
     0
102
RTVSPost2010PropOp35
 70
     1
102
RTVSPost2010Prop36
280
     0
102
RTVSPost2010PropOp36
 70
     1
102
RTVSPost2010Prop37
 90
       50
102
RTVSPost2010PropOp37
 70
     1
102
RTVSPost2010Prop38
140
0.0
102
RTVSPost2010PropOp38
 70
     1
102
RTVSPost2010Prop39
140
1.0
102
RTVSPost2010PropOp39
 70
     1
102
RTVSPost2010Prop40
 90
        0
102
RTVSPost2010PropOp40
 70
     1
102
RTVSPost2010Prop41ColorIndex
 90
       18
102
RTVSPost2010Prop41ColorRGB
 90
        0
102
RTVSPost2010PropOp41
 70
     1
102
RTVSPost2010Prop42
 90
       50
102
RTVSPost2010PropOp42
 70
     1
102
RTVSPost2010Prop43
 90
        3
102
RTVSPost2010PropOp43
 70
     1
102
RTVSPost2010Prop44ColorIndex
 90
        5
102
RTVSPost2010Prop44ColorRGB
 90
      255
102
RTVSPost2010PropOp44
 70
     1
102
RTVSPost2010Prop45
280
     0
102
RTVSPost2010PropOp45
 70
     1
102
RTVSPost2010Prop46
 90
       50
102
RTVSPost2010PropOp46
 70
     1
102
RTVSPost2010Prop47
 90
       50
102
RTVSPost2010PropOp47
 70
     1
102
RTVSPost2010Prop48
 90
       50
102
RTVSPost2010PropOp48
 70
     1
102
RTVSPost2010Prop49
280
     0
102
RTVSPost2010PropOp49
 70
     1
102
RTVSPost2010Prop50
 90
       50
102
RTVSPost2010PropOp50
 70
     1
102
RTVSPost2010Prop51ColorIndex
 90
      256
102
RTVSPost2010Prop51ColorRGB
 90
-16777216
102
RTVSPost2010PropOp51
 70
     0
102
RTVSPost2010Prop52
140
1.0
102
RTVSPost2010PropOp52
 70
     0
102
RTVSPost2010Prop53
 90
        2
102
RTVSPost2010PropOp53
 70
     1
102
RTVSPost2010Prop54
  1
strokes_ogs.tif
102
RTVSPost2010PropOp54
 70
     1
102
RTVSPost2010Prop55
280
     0
102
RTVSPost2010PropOp55
 70
     1
102
RTVSPost2010Prop56
140
1.0
102
RTVSPost2010PropOp56
 70
     1
102
RTVSPost2010Prop57
140
1.0
102
RTVSPost2010PropOp57
 70
     1
  0
XRECORD
  5
4DD0
102
{ACAD_REACTORS
330
4DCF
102
}
330
4DCF
100
AcDbXrecord
280
     1
102
RTVSPropertyOp0
 70
     1
102
RTVSPropertyOp1
 70
     1
102
RTVSPropertyOp2
 70
     1
102
RTVSPropertyOp3
 70
     1
102
RTVSPropertyOp4
 70
     1
102
RTVSPropertyOp5
 70
     1
102
RTVSPropertyOp6
 70
     1
102
RTVSPropertyOp7
 70
     1
102
RTVSPropertyOp8
 70
     1
102
RTVSPropertyOp9
 70
     1
102
RTVSPropertyOp10
 70
     1
102
RTVSPropertyOp11
 70
     1
102
RTVSPropertyOp12
 70
     1
102
RTVSPropertyOp13
 70
     1
102
RTVSPropertyOp14
 70
     1
102
RTVSPropertyOp15
 70
     1
102
RTVSPropertyOp16
 70
     1
102
RTVSPropertyOp17
 70
     1
102
RTVSPropertyOp18
 70
     1
102
RTVSPropertyOp19
 70
     1
102
RTVSPropertyOp20
 70
     1
102
RTVSPropertyOp21
 70
     1
102
RTVSPropertyOp22
 70
     1
102
RTVSPropertyOp23
 70
     1
102
RTVSPropertyOp24
 70
     1
102
RTVSPropertyOp25
 70
     1
102
RTVSPropertyOp26
 70
     1
102
RTVSPropertyOp27
 70
     1
102
RTVSPropertyOp28
 70
     1
102
RTVSPropertyOp29
 70
     1
102
RTVSPropertyOp30
 70
     1
102
RTVSPropertyOp31
 70
     1
102
RTVSPropertyOp32
 70
     1
102
RTVSPropertyOp33
 70
     1
102
RTVSPropertyOp34
 70
     1
102
RTVSPropertyOp35
 70
     1
102
RTVSPropertyOp36
 70
     1
102
RTVSPropertyOp37
 70
     1
102
RTVSPropertyOp38
 70
     1
102
RTVSPropertyOp39
 70
     1
102
RTVSPropertyOp40
 70
     1
102
RTVSPropertyOp41
 70
     1
102
RTVSPropertyOp42
 70
     1
102
RTVSPropertyOp43
 70
     1
102
RTVSPropertyOp44
 70
     1
102
RTVSPropertyOp45
 70
     1
102
RTVSPropertyOp46
 70
     1
102
RTVSPropertyOp47
 70
     1
102
RTVSPropertyOp48
 70
     1
102
RTVSPropertyOp49
 70
     1
102
RTVSPropertyOp50
 70
     1
102
RTVSPropertyOp51
 70
     0
102
RTVSPropertyOp52
 70
     0
102
RTVSPropertyOp53
 70
     1
102
RTVSPropertyOp54
 70
     1
102
RTVSPropertyOp55
 70
     1
102
RTVSPropertyOp56
 70
     1
102
RTVSPropertyOp57
 70
     1
102
RTVSPost2010Prop28
280
     0
102
RTVSPost2010PropOp28
 70
     1
102
RTVSPost2010Prop29
280
     1
102
RTVSPost2010PropOp29
 70
     1
102
RTVSPost2010Prop30
280
     1
102
RTVSPost2010PropOp30
 70
     1
102
RTVSPost2010Prop31
280
     0
102
RTVSPost2010PropOp31
 70
     1
102
RTVSPost2010Prop32
280
     0
102
RTVSPost2010PropOp32
 70
     1
102
RTVSPost2010Prop33
280
     0
102
RTVSPost2010PropOp33
 70
     1
102
RTVSPost2010Prop34
280
     0
102
RTVSPost2010PropOp34
 70
     1
102
RTVSPost2010Prop35
280
     0
102
RTVSPost2010PropOp35
 70
     1
102
RTVSPost2010Prop36
280
     0
102
RTVSPost2010PropOp36
 70
     1
102
RTVSPost2010Prop37
 90
       50
102
RTVSPost2010PropOp37
 70
     1
102
RTVSPost2010Prop38
140
0.0
102
RTVSPost2010PropOp38
 70
     1
102
RTVSPost2010Prop39
140
1.0
102
RTVSPost2010PropOp39
 70
     1
102
RTVSPost2010Prop40
 90
        0
102
RTVSPost2010PropOp40
 70
     1
102
RTVSPost2010Prop41ColorIndex
 90
       18
102
RTVSPost2010Prop41ColorRGB
 90
        0
102
RTVSPost2010PropOp41
 70
     1
102
RTVSPost2010Prop42
 90
       50
102
RTVSPost2010PropOp42
 70
     1
102
RTVSPost2010Prop43
 90
        3
102
RTVSPost2010PropOp43
 70
     1
102
RTVSPost2010Prop44ColorIndex
 90
        5
102
RTVSPost2010Prop44ColorRGB
 90
      255
102
RTVSPost2010PropOp44
 70
     1
102
RTVSPost2010Prop45
280
     0
102
RTVSPost2010PropOp45
 70
     1
102
RTVSPost2010Prop46
 90
       50
102
RTVSPost2010PropOp46
 70
     1
102
RTVSPost2010Prop47
 90
       50
102
RTVSPost2010PropOp47
 70
     1
102
RTVSPost2010Prop48
 90
       50
102
RTVSPost2010PropOp48
 70
     1
102
RTVSPost2010Prop49
280
     0
102
RTVSPost2010PropOp49
 70
     1
102
RTVSPost2010Prop50
 90
       50
102
RTVSPost2010PropOp50
 70
     1
102
RTVSPost2010Prop51ColorIndex
 90
      256
102
RTVSPost2010Prop51ColorRGB
 90
-16777216
102
RTVSPost2010PropOp51
 70
     0
102
RTVSPost2010Prop52
140
1.0
102
RTVSPost2010PropOp52
 70
     0
102
RTVSPost2010Prop53
 90
        2
102
RTVSPost2010PropOp53
 70
     1
102
RTVSPost2010Prop54
  1
strokes_ogs.tif
102
RTVSPost2010PropOp54
 70
     1
102
RTVSPost2010Prop55
280
     0
102
RTVSPost2010PropOp55
 70
     1
102
RTVSPost2010Prop56
140
1.0
102
RTVSPost2010PropOp56
 70
     1
102
RTVSPost2010Prop57
140
1.0
102
RTVSPost2010PropOp57
 70
     1
  0
XRECORD
  5
4DD6
102
{ACAD_REACTORS
330
4DD5
102
}
330
4DD5
100
AcDbXrecord
280
     1
102
RTVSPropertyOp0
 70
     1
102
RTVSPropertyOp1
 70
     1
102
RTVSPropertyOp2
 70
     1
102
RTVSPropertyOp3
 70
     1
102
RTVSPropertyOp4
 70
     1
102
RTVSPropertyOp5
 70
     1
102
RTVSPropertyOp6
 70
     1
102
RTVSPropertyOp7
 70
     1
102
RTVSPropertyOp8
 70
     1
102
RTVSPropertyOp9
 70
     1
102
RTVSPropertyOp10
 70
     1
102
RTVSPropertyOp11
 70
     1
102
RTVSPropertyOp12
 70
     1
102
RTVSPropertyOp13
 70
     1
102
RTVSPropertyOp14
 70
     1
102
RTVSPropertyOp15
 70
     1
102
RTVSPropertyOp16
 70
     1
102
RTVSPropertyOp17
 70
     1
102
RTVSPropertyOp18
 70
     1
102
RTVSPropertyOp19
 70
     1
102
RTVSPropertyOp20
 70
     1
102
RTVSPropertyOp21
 70
     1
102
RTVSPropertyOp22
 70
     1
102
RTVSPropertyOp23
 70
     1
102
RTVSPropertyOp24
 70
     1
102
RTVSPropertyOp25
 70
     1
102
RTVSPropertyOp26
 70
     1
102
RTVSPropertyOp27
 70
     1
102
RTVSPropertyOp28
 70
     1
102
RTVSPropertyOp29
 70
     1
102
RTVSPropertyOp30
 70
     1
102
RTVSPropertyOp31
 70
     1
102
RTVSPropertyOp32
 70
     1
102
RTVSPropertyOp33
 70
     1
102
RTVSPropertyOp34
 70
     1
102
RTVSPropertyOp35
 70
     1
102
RTVSPropertyOp36
 70
     1
102
RTVSPropertyOp37
 70
     1
102
RTVSPropertyOp38
 70
     1
102
RTVSPropertyOp39
 70
     1
102
RTVSPropertyOp40
 70
     1
102
RTVSPropertyOp41
 70
     1
102
RTVSPropertyOp42
 70
     1
102
RTVSPropertyOp43
 70
     1
102
RTVSPropertyOp44
 70
     1
102
RTVSPropertyOp45
 70
     1
102
RTVSPropertyOp46
 70
     1
102
RTVSPropertyOp47
 70
     1
102
RTVSPropertyOp48
 70
     1
102
RTVSPropertyOp49
 70
     1
102
RTVSPropertyOp50
 70
     1
102
RTVSPropertyOp51
 70
     0
102
RTVSPropertyOp52
 70
     0
102
RTVSPropertyOp53
 70
     1
102
RTVSPropertyOp54
 70
     1
102
RTVSPropertyOp55
 70
     1
102
RTVSPropertyOp56
 70
     1
102
RTVSPropertyOp57
 70
     1
102
RTVSPost2010Prop28
280
     0
102
RTVSPost2010PropOp28
 70
     1
102
RTVSPost2010Prop29
280
     1
102
RTVSPost2010PropOp29
 70
     1
102
RTVSPost2010Prop30
280
     1
102
RTVSPost2010PropOp30
 70
     1
102
RTVSPost2010Prop31
280
     0
102
RTVSPost2010PropOp31
 70
     1
102
RTVSPost2010Prop32
280
     0
102
RTVSPost2010PropOp32
 70
     1
102
RTVSPost2010Prop33
280
     0
102
RTVSPost2010PropOp33
 70
     1
102
RTVSPost2010Prop34
280
     0
102
RTVSPost2010PropOp34
 70
     1
102
RTVSPost2010Prop35
280
     0
102
RTVSPost2010PropOp35
 70
     1
102
RTVSPost2010Prop36
280
     0
102
RTVSPost2010PropOp36
 70
     1
102
RTVSPost2010Prop37
 90
       50
102
RTVSPost2010PropOp37
 70
     1
102
RTVSPost2010Prop38
140
0.0
102
RTVSPost2010PropOp38
 70
     1
102
RTVSPost2010Prop39
140
1.0
102
RTVSPost2010PropOp39
 70
     1
102
RTVSPost2010Prop40
 90
        0
102
RTVSPost2010PropOp40
 70
     1
102
RTVSPost2010Prop41ColorIndex
 90
       18
102
RTVSPost2010Prop41ColorRGB
 90
        0
102
RTVSPost2010PropOp41
 70
     1
102
RTVSPost2010Prop42
 90
       50
102
RTVSPost2010PropOp42
 70
     1
102
RTVSPost2010Prop43
 90
        3
102
RTVSPost2010PropOp43
 70
     1
102
RTVSPost2010Prop44ColorIndex
 90
        5
102
RTVSPost2010Prop44ColorRGB
 90
      255
102
RTVSPost2010PropOp44
 70
     1
102
RTVSPost2010Prop45
280
     0
102
RTVSPost2010PropOp45
 70
     1
102
RTVSPost2010Prop46
 90
       50
102
RTVSPost2010PropOp46
 70
     1
102
RTVSPost2010Prop47
 90
       50
102
RTVSPost2010PropOp47
 70
     1
102
RTVSPost2010Prop48
 90
       50
102
RTVSPost2010PropOp48
 70
     1
102
RTVSPost2010Prop49
280
     0
102
RTVSPost2010PropOp49
 70
     1
102
RTVSPost2010Prop50
 90
       50
102
RTVSPost2010PropOp50
 70
     1
102
RTVSPost2010Prop51ColorIndex
 90
      256
102
RTVSPost2010Prop51ColorRGB
 90
-16777216
102
RTVSPost2010PropOp51
 70
     0
102
RTVSPost2010Prop52
140
1.0
102
RTVSPost2010PropOp52
 70
     0
102
RTVSPost2010Prop53
 90
        2
102
RTVSPost2010PropOp53
 70
     1
102
RTVSPost2010Prop54
  1
strokes_ogs.tif
102
RTVSPost2010PropOp54
 70
     1
102
RTVSPost2010Prop55
280
     0
102
RTVSPost2010PropOp55
 70
     1
102
RTVSPost2010Prop56
140
1.0
102
RTVSPost2010PropOp56
 70
     1
102
RTVSPost2010Prop57
140
1.0
102
RTVSPost2010PropOp57
 70
     1
  0
XRECORD
  5
4DEA
102
{ACAD_REACTORS
330
4DE9
102
}
330
4DE9
100
AcDbXrecord
280
     1
102
RTVSPropertyOp0
 70
     0
102
RTVSPropertyOp1
 70
     0
102
RTVSPropertyOp2
 70
     0
102
RTVSPropertyOp3
 70
     0
102
RTVSPropertyOp4
 70
     0
102
RTVSPropertyOp5
 70
     0
102
RTVSPropertyOp6
 70
     0
102
RTVSPropertyOp7
 70
     0
102
RTVSPropertyOp8
 70
     0
102
RTVSPropertyOp9
 70
     0
102
RTVSPropertyOp10
 70
     0
102
RTVSPropertyOp11
 70
     0
102
RTVSPropertyOp12
 70
     0
102
RTVSPropertyOp13
 70
     0
102
RTVSPropertyOp14
 70
     2
102
RTVSPropertyOp15
 70
     0
102
RTVSPropertyOp16
 70
     0
102
RTVSPropertyOp17
 70
     0
102
RTVSPropertyOp18
 70
     0
102
RTVSPropertyOp19
 70
     0
102
RTVSPropertyOp20
 70
     0
102
RTVSPropertyOp21
 70
     0
102
RTVSPropertyOp22
 70
     0
102
RTVSPropertyOp23
 70
     0
102
RTVSPropertyOp24
 70
     0
102
RTVSPropertyOp25
 70
     0
102
RTVSPropertyOp26
 70
     0
102
RTVSPropertyOp27
 70
     0
102
RTVSPropertyOp28
 70
     0
102
RTVSPropertyOp29
 70
     0
102
RTVSPropertyOp30
 70
     0
102
RTVSPropertyOp31
 70
     0
102
RTVSPropertyOp32
 70
     0
102
RTVSPropertyOp33
 70
     0
102
RTVSPropertyOp34
 70
     0
102
RTVSPropertyOp35
 70
     0
102
RTVSPropertyOp36
 70
     0
102
RTVSPropertyOp37
 70
     0
102
RTVSPropertyOp38
 70
     0
102
RTVSPropertyOp39
 70
     0
102
RTVSPropertyOp40
 70
     0
102
RTVSPropertyOp41
 70
     0
102
RTVSPropertyOp42
 70
     0
102
RTVSPropertyOp43
 70
     0
102
RTVSPropertyOp44
 70
     0
102
RTVSPropertyOp45
 70
     0
102
RTVSPropertyOp46
 70
     0
102
RTVSPropertyOp47
 70
     0
102
RTVSPropertyOp48
 70
     0
102
RTVSPropertyOp49
 70
     0
102
RTVSPropertyOp50
 70
     0
102
RTVSPropertyOp51
 70
     0
102
RTVSPropertyOp52
 70
     0
102
RTVSPropertyOp53
 70
     0
102
RTVSPropertyOp54
 70
     0
102
RTVSPropertyOp55
 70
     0
102
RTVSPropertyOp56
 70
     0
102
RTVSPropertyOp57
 70
     0
102
RTVSPost2010Prop28
280
     0
102
RTVSPost2010PropOp28
 70
     0
102
RTVSPost2010Prop29
280
     1
102
RTVSPost2010PropOp29
 70
     0
102
RTVSPost2010Prop30
280
     1
102
RTVSPost2010PropOp30
 70
     0
102
RTVSPost2010Prop31
280
     0
102
RTVSPost2010PropOp31
 70
     0
102
RTVSPost2010Prop32
280
     0
102
RTVSPost2010PropOp32
 70
     0
102
RTVSPost2010Prop33
280
     0
102
RTVSPost2010PropOp33
 70
     0
102
RTVSPost2010Prop34
280
     0
102
RTVSPost2010PropOp34
 70
     0
102
RTVSPost2010Prop35
280
     0
102
RTVSPost2010PropOp35
 70
     0
102
RTVSPost2010Prop36
280
     0
102
RTVSPost2010PropOp36
 70
     0
102
RTVSPost2010Prop37
 90
       50
102
RTVSPost2010PropOp37
 70
     0
102
RTVSPost2010Prop38
140
0.0
102
RTVSPost2010PropOp38
 70
     0
102
RTVSPost2010Prop39
140
1.0
102
RTVSPost2010PropOp39
 70
     0
102
RTVSPost2010Prop40
 90
        0
102
RTVSPost2010PropOp40
 70
     0
102
RTVSPost2010Prop41ColorIndex
 90
       18
102
RTVSPost2010Prop41ColorRGB
 90
        0
102
RTVSPost2010PropOp41
 70
     0
102
RTVSPost2010Prop42
 90
       50
102
RTVSPost2010PropOp42
 70
     0
102
RTVSPost2010Prop43
 90
        3
102
RTVSPost2010PropOp43
 70
     0
102
RTVSPost2010Prop44ColorIndex
 90
        5
102
RTVSPost2010Prop44ColorRGB
 90
      255
102
RTVSPost2010PropOp44
 70
     0
102
RTVSPost2010Prop45
280
     0
102
RTVSPost2010PropOp45
 70
     0
102
RTVSPost2010Prop46
 90
       50
102
RTVSPost2010PropOp46
 70
     0
102
RTVSPost2010Prop47
 90
       50
102
RTVSPost2010PropOp47
 70
     0
102
RTVSPost2010Prop48
 90
       50
102
RTVSPost2010PropOp48
 70
     0
102
RTVSPost2010Prop49
280
     0
102
RTVSPost2010PropOp49
 70
     0
102
RTVSPost2010Prop50
 90
       50
102
RTVSPost2010PropOp50
 70
     0
102
RTVSPost2010Prop51ColorIndex
 90
      256
102
RTVSPost2010Prop51ColorRGB
 90
-16777216
102
RTVSPost2010PropOp51
 70
     0
102
RTVSPost2010Prop52
140
1.0
102
RTVSPost2010PropOp52
 70
     0
102
RTVSPost2010Prop53
 90
        2
102
RTVSPost2010PropOp53
 70
     0
102
RTVSPost2010Prop54
  1
strokes_ogs.tif
102
RTVSPost2010PropOp54
 70
     0
102
RTVSPost2010Prop55
280
     0
102
RTVSPost2010PropOp55
 70
     0
102
RTVSPost2010Prop56
140
1.0
102
RTVSPost2010PropOp56
 70
     0
102
RTVSPost2010Prop57
140
1.0
102
RTVSPost2010PropOp57
 70
     0
  0
XRECORD
  5
4DE4
102
{ACAD_REACTORS
330
4DE3
102
}
330
4DE3
100
AcDbXrecord
280
     1
102
RTVSPropertyOp0
 70
     1
102
RTVSPropertyOp1
 70
     1
102
RTVSPropertyOp2
 70
     1
102
RTVSPropertyOp3
 70
     1
102
RTVSPropertyOp4
 70
     1
102
RTVSPropertyOp5
 70
     1
102
RTVSPropertyOp6
 70
     1
102
RTVSPropertyOp7
 70
     1
102
RTVSPropertyOp8
 70
     1
102
RTVSPropertyOp9
 70
     1
102
RTVSPropertyOp10
 70
     1
102
RTVSPropertyOp11
 70
     1
102
RTVSPropertyOp12
 70
     1
102
RTVSPropertyOp13
 70
     1
102
RTVSPropertyOp14
 70
     1
102
RTVSPropertyOp15
 70
     1
102
RTVSPropertyOp16
 70
     1
102
RTVSPropertyOp17
 70
     1
102
RTVSPropertyOp18
 70
     1
102
RTVSPropertyOp19
 70
     1
102
RTVSPropertyOp20
 70
     1
102
RTVSPropertyOp21
 70
     1
102
RTVSPropertyOp22
 70
     1
102
RTVSPropertyOp23
 70
     1
102
RTVSPropertyOp24
 70
     1
102
RTVSPropertyOp25
 70
     1
102
RTVSPropertyOp26
 70
     1
102
RTVSPropertyOp27
 70
     1
102
RTVSPropertyOp28
 70
     1
102
RTVSPropertyOp29
 70
     1
102
RTVSPropertyOp30
 70
     1
102
RTVSPropertyOp31
 70
     1
102
RTVSPropertyOp32
 70
     1
102
RTVSPropertyOp33
 70
     1
102
RTVSPropertyOp34
 70
     1
102
RTVSPropertyOp35
 70
     1
102
RTVSPropertyOp36
 70
     1
102
RTVSPropertyOp37
 70
     1
102
RTVSPropertyOp38
 70
     1
102
RTVSPropertyOp39
 70
     1
102
RTVSPropertyOp40
 70
     1
102
RTVSPropertyOp41
 70
     1
102
RTVSPropertyOp42
 70
     1
102
RTVSPropertyOp43
 70
     1
102
RTVSPropertyOp44
 70
     1
102
RTVSPropertyOp45
 70
     1
102
RTVSPropertyOp46
 70
     1
102
RTVSPropertyOp47
 70
     1
102
RTVSPropertyOp48
 70
     1
102
RTVSPropertyOp49
 70
     1
102
RTVSPropertyOp50
 70
     1
102
RTVSPropertyOp51
 70
     0
102
RTVSPropertyOp52
 70
     0
102
RTVSPropertyOp53
 70
     1
102
RTVSPropertyOp54
 70
     1
102
RTVSPropertyOp55
 70
     1
102
RTVSPropertyOp56
 70
     1
102
RTVSPropertyOp57
 70
     1
102
RTVSPost2010Prop28
280
     0
102
RTVSPost2010PropOp28
 70
     1
102
RTVSPost2010Prop29
280
     1
102
RTVSPost2010PropOp29
 70
     1
102
RTVSPost2010Prop30
280
     1
102
RTVSPost2010PropOp30
 70
     1
102
RTVSPost2010Prop31
280
     0
102
RTVSPost2010PropOp31
 70
     1
102
RTVSPost2010Prop32
280
     0
102
RTVSPost2010PropOp32
 70
     1
102
RTVSPost2010Prop33
280
     0
102
RTVSPost2010PropOp33
 70
     1
102
RTVSPost2010Prop34
280
     0
102
RTVSPost2010PropOp34
 70
     1
102
RTVSPost2010Prop35
280
     0
102
RTVSPost2010PropOp35
 70
     1
102
RTVSPost2010Prop36
280
     0
102
RTVSPost2010PropOp36
 70
     1
102
RTVSPost2010Prop37
 90
       50
102
RTVSPost2010PropOp37
 70
     1
102
RTVSPost2010Prop38
140
0.0
102
RTVSPost2010PropOp38
 70
     1
102
RTVSPost2010Prop39
140
1.0
102
RTVSPost2010PropOp39
 70
     1
102
RTVSPost2010Prop40
 90
        0
102
RTVSPost2010PropOp40
 70
     1
102
RTVSPost2010Prop41ColorIndex
 90
       18
102
RTVSPost2010Prop41ColorRGB
 90
        0
102
RTVSPost2010PropOp41
 70
     1
102
RTVSPost2010Prop42
 90
       50
102
RTVSPost2010PropOp42
 70
     1
102
RTVSPost2010Prop43
 90
        3
102
RTVSPost2010PropOp43
 70
     1
102
RTVSPost2010Prop44ColorIndex
 90
        5
102
RTVSPost2010Prop44ColorRGB
 90
      255
102
RTVSPost2010PropOp44
 70
     1
102
RTVSPost2010Prop45
280
     0
102
RTVSPost2010PropOp45
 70
     1
102
RTVSPost2010Prop46
 90
       50
102
RTVSPost2010PropOp46
 70
     1
102
RTVSPost2010Prop47
 90
       50
102
RTVSPost2010PropOp47
 70
     1
102
RTVSPost2010Prop48
 90
       50
102
RTVSPost2010PropOp48
 70
     1
102
RTVSPost2010Prop49
280
     0
102
RTVSPost2010PropOp49
 70
     1
102
RTVSPost2010Prop50
 90
       50
102
RTVSPost2010PropOp50
 70
     1
102
RTVSPost2010Prop51ColorIndex
 90
      256
102
RTVSPost2010Prop51ColorRGB
 90
-16777216
102
RTVSPost2010PropOp51
 70
     0
102
RTVSPost2010Prop52
140
1.0
102
RTVSPost2010PropOp52
 70
     0
102
RTVSPost2010Prop53
 90
        2
102
RTVSPost2010PropOp53
 70
     1
102
RTVSPost2010Prop54
  1
strokes_ogs.tif
102
RTVSPost2010PropOp54
 70
     1
102
RTVSPost2010Prop55
280
     0
102
RTVSPost2010PropOp55
 70
     1
102
RTVSPost2010Prop56
140
1.0
102
RTVSPost2010PropOp56
 70
     1
102
RTVSPost2010Prop57
140
1.0
102
RTVSPost2010PropOp57
 70
     1
  0
XRECORD
  5
4DFA
102
{ACAD_REACTORS
330
4DF9
102
}
330
4DF9
100
AcDbXrecord
280
     1
102
RTVSPropertyOp0
 70
     1
102
RTVSPropertyOp1
 70
     1
102
RTVSPropertyOp2
 70
     1
102
RTVSPropertyOp3
 70
     1
102
RTVSPropertyOp4
 70
     1
102
RTVSPropertyOp5
 70
     1
102
RTVSPropertyOp6
 70
     1
102
RTVSPropertyOp7
 70
     1
102
RTVSPropertyOp8
 70
     1
102
RTVSPropertyOp9
 70
     1
102
RTVSPropertyOp10
 70
     1
102
RTVSPropertyOp11
 70
     1
102
RTVSPropertyOp12
 70
     1
102
RTVSPropertyOp13
 70
     1
102
RTVSPropertyOp14
 70
     1
102
RTVSPropertyOp15
 70
     1
102
RTVSPropertyOp16
 70
     1
102
RTVSPropertyOp17
 70
     1
102
RTVSPropertyOp18
 70
     1
102
RTVSPropertyOp19
 70
     1
102
RTVSPropertyOp20
 70
     1
102
RTVSPropertyOp21
 70
     1
102
RTVSPropertyOp22
 70
     1
102
RTVSPropertyOp23
 70
     1
102
RTVSPropertyOp24
 70
     1
102
RTVSPropertyOp25
 70
     1
102
RTVSPropertyOp26
 70
     1
102
RTVSPropertyOp27
 70
     1
102
RTVSPropertyOp28
 70
     1
102
RTVSPropertyOp29
 70
     1
102
RTVSPropertyOp30
 70
     1
102
RTVSPropertyOp31
 70
     1
102
RTVSPropertyOp32
 70
     1
102
RTVSPropertyOp33
 70
     1
102
RTVSPropertyOp34
 70
     1
102
RTVSPropertyOp35
 70
     1
102
RTVSPropertyOp36
 70
     1
102
RTVSPropertyOp37
 70
     1
102
RTVSPropertyOp38
 70
     1
102
RTVSPropertyOp39
 70
     1
102
RTVSPropertyOp40
 70
     1
102
RTVSPropertyOp41
 70
     1
102
RTVSPropertyOp42
 70
     1
102
RTVSPropertyOp43
 70
     1
102
RTVSPropertyOp44
 70
     1
102
RTVSPropertyOp45
 70
     1
102
RTVSPropertyOp46
 70
     1
102
RTVSPropertyOp47
 70
     1
102
RTVSPropertyOp48
 70
     1
102
RTVSPropertyOp49
 70
     1
102
RTVSPropertyOp50
 70
     1
102
RTVSPropertyOp51
 70
     0
102
RTVSPropertyOp52
 70
     0
102
RTVSPropertyOp53
 70
     1
102
RTVSPropertyOp54
 70
     1
102
RTVSPropertyOp55
 70
     1
102
RTVSPropertyOp56
 70
     1
102
RTVSPropertyOp57
 70
     1
102
RTVSPost2010Prop28
280
     0
102
RTVSPost2010PropOp28
 70
     1
102
RTVSPost2010Prop29
280
     1
102
RTVSPost2010PropOp29
 70
     1
102
RTVSPost2010Prop30
280
     1
102
RTVSPost2010PropOp30
 70
     1
102
RTVSPost2010Prop31
280
     0
102
RTVSPost2010PropOp31
 70
     1
102
RTVSPost2010Prop32
280
     0
102
RTVSPost2010PropOp32
 70
     1
102
RTVSPost2010Prop33
280
     0
102
RTVSPost2010PropOp33
 70
     1
102
RTVSPost2010Prop34
280
     0
102
RTVSPost2010PropOp34
 70
     1
102
RTVSPost2010Prop35
280
     0
102
RTVSPost2010PropOp35
 70
     1
102
RTVSPost2010Prop36
280
     0
102
RTVSPost2010PropOp36
 70
     1
102
RTVSPost2010Prop37
 90
       50
102
RTVSPost2010PropOp37
 70
     1
102
RTVSPost2010Prop38
140
0.0
102
RTVSPost2010PropOp38
 70
     1
102
RTVSPost2010Prop39
140
1.0
102
RTVSPost2010PropOp39
 70
     1
102
RTVSPost2010Prop40
 90
        0
102
RTVSPost2010PropOp40
 70
     1
102
RTVSPost2010Prop41ColorIndex
 90
       18
102
RTVSPost2010Prop41ColorRGB
 90
        0
102
RTVSPost2010PropOp41
 70
     1
102
RTVSPost2010Prop42
 90
       50
102
RTVSPost2010PropOp42
 70
     1
102
RTVSPost2010Prop43
 90
        3
102
RTVSPost2010PropOp43
 70
     1
102
RTVSPost2010Prop44ColorIndex
 90
        5
102
RTVSPost2010Prop44ColorRGB
 90
      255
102
RTVSPost2010PropOp44
 70
     1
102
RTVSPost2010Prop45
280
     0
102
RTVSPost2010PropOp45
 70
     1
102
RTVSPost2010Prop46
 90
       50
102
RTVSPost2010PropOp46
 70
     1
102
RTVSPost2010Prop47
 90
       50
102
RTVSPost2010PropOp47
 70
     1
102
RTVSPost2010Prop48
 90
       50
102
RTVSPost2010PropOp48
 70
     1
102
RTVSPost2010Prop49
280
     0
102
RTVSPost2010PropOp49
 70
     1
102
RTVSPost2010Prop50
 90
       50
102
RTVSPost2010PropOp50
 70
     1
102
RTVSPost2010Prop51ColorIndex
 90
      256
102
RTVSPost2010Prop51ColorRGB
 90
-16777216
102
RTVSPost2010PropOp51
 70
     0
102
RTVSPost2010Prop52
140
1.0
102
RTVSPost2010PropOp52
 70
     0
102
RTVSPost2010Prop53
 90
        2
102
RTVSPost2010PropOp53
 70
     1
102
RTVSPost2010Prop54
  1
strokes_ogs.tif
102
RTVSPost2010PropOp54
 70
     1
102
RTVSPost2010Prop55
280
     0
102
RTVSPost2010PropOp55
 70
     1
102
RTVSPost2010Prop56
140
1.0
102
RTVSPost2010PropOp56
 70
     1
102
RTVSPost2010Prop57
140
1.0
102
RTVSPost2010PropOp57
 70
     1
  0
XRECORD
  5
4DEC
102
{ACAD_REACTORS
330
4DEB
102
}
330
4DEB
100
AcDbXrecord
280
     1
102
RTVSPropertyOp0
 70
     0
102
RTVSPropertyOp1
 70
     0
102
RTVSPropertyOp2
 70
     0
102
RTVSPropertyOp3
 70
     0
102
RTVSPropertyOp4
 70
     0
102
RTVSPropertyOp5
 70
     0
102
RTVSPropertyOp6
 70
     0
102
RTVSPropertyOp7
 70
     0
102
RTVSPropertyOp8
 70
     0
102
RTVSPropertyOp9
 70
     0
102
RTVSPropertyOp10
 70
     0
102
RTVSPropertyOp11
 70
     0
102
RTVSPropertyOp12
 70
     0
102
RTVSPropertyOp13
 70
     0
102
RTVSPropertyOp14
 70
     2
102
RTVSPropertyOp15
 70
     0
102
RTVSPropertyOp16
 70
     0
102
RTVSPropertyOp17
 70
     0
102
RTVSPropertyOp18
 70
     0
102
RTVSPropertyOp19
 70
     0
102
RTVSPropertyOp20
 70
     0
102
RTVSPropertyOp21
 70
     0
102
RTVSPropertyOp22
 70
     0
102
RTVSPropertyOp23
 70
     0
102
RTVSPropertyOp24
 70
     0
102
RTVSPropertyOp25
 70
     0
102
RTVSPropertyOp26
 70
     0
102
RTVSPropertyOp27
 70
     0
102
RTVSPropertyOp28
 70
     0
102
RTVSPropertyOp29
 70
     0
102
RTVSPropertyOp30
 70
     0
102
RTVSPropertyOp31
 70
     0
102
RTVSPropertyOp32
 70
     0
102
RTVSPropertyOp33
 70
     0
102
RTVSPropertyOp34
 70
     0
102
RTVSPropertyOp35
 70
     0
102
RTVSPropertyOp36
 70
     0
102
RTVSPropertyOp37
 70
     0
102
RTVSPropertyOp38
 70
     0
102
RTVSPropertyOp39
 70
     0
102
RTVSPropertyOp40
 70
     0
102
RTVSPropertyOp41
 70
     0
102
RTVSPropertyOp42
 70
     0
102
RTVSPropertyOp43
 70
     0
102
RTVSPropertyOp44
 70
     0
102
RTVSPropertyOp45
 70
     0
102
RTVSPropertyOp46
 70
     0
102
RTVSPropertyOp47
 70
     0
102
RTVSPropertyOp48
 70
     0
102
RTVSPropertyOp49
 70
     0
102
RTVSPropertyOp50
 70
     0
102
RTVSPropertyOp51
 70
     0
102
RTVSPropertyOp52
 70
     0
102
RTVSPropertyOp53
 70
     0
102
RTVSPropertyOp54
 70
     0
102
RTVSPropertyOp55
 70
     0
102
RTVSPropertyOp56
 70
     0
102
RTVSPropertyOp57
 70
     0
102
RTVSPost2010Prop28
280
     0
102
RTVSPost2010PropOp28
 70
     0
102
RTVSPost2010Prop29
280
     1
102
RTVSPost2010PropOp29
 70
     0
102
RTVSPost2010Prop30
280
     1
102
RTVSPost2010PropOp30
 70
     0
102
RTVSPost2010Prop31
280
     0
102
RTVSPost2010PropOp31
 70
     0
102
RTVSPost2010Prop32
280
     0
102
RTVSPost2010PropOp32
 70
     0
102
RTVSPost2010Prop33
280
     0
102
RTVSPost2010PropOp33
 70
     0
102
RTVSPost2010Prop34
280
     0
102
RTVSPost2010PropOp34
 70
     0
102
RTVSPost2010Prop35
280
     0
102
RTVSPost2010PropOp35
 70
     0
102
RTVSPost2010Prop36
280
     0
102
RTVSPost2010PropOp36
 70
     0
102
RTVSPost2010Prop37
 90
       50
102
RTVSPost2010PropOp37
 70
     0
102
RTVSPost2010Prop38
140
0.0
102
RTVSPost2010PropOp38
 70
     0
102
RTVSPost2010Prop39
140
1.0
102
RTVSPost2010PropOp39
 70
     0
102
RTVSPost2010Prop40
 90
        0
102
RTVSPost2010PropOp40
 70
     0
102
RTVSPost2010Prop41ColorIndex
 90
       18
102
RTVSPost2010Prop41ColorRGB
 90
        0
102
RTVSPost2010PropOp41
 70
     0
102
RTVSPost2010Prop42
 90
       50
102
RTVSPost2010PropOp42
 70
     0
102
RTVSPost2010Prop43
 90
        3
102
RTVSPost2010PropOp43
 70
     0
102
RTVSPost2010Prop44ColorIndex
 90
        5
102
RTVSPost2010Prop44ColorRGB
 90
      255
102
RTVSPost2010PropOp44
 70
     0
102
RTVSPost2010Prop45
280
     0
102
RTVSPost2010PropOp45
 70
     0
102
RTVSPost2010Prop46
 90
       50
102
RTVSPost2010PropOp46
 70
     0
102
RTVSPost2010Prop47
 90
       50
102
RTVSPost2010PropOp47
 70
     0
102
RTVSPost2010Prop48
 90
       50
102
RTVSPost2010PropOp48
 70
     0
102
RTVSPost2010Prop49
280
     0
102
RTVSPost2010PropOp49
 70
     0
102
RTVSPost2010Prop50
 90
       50
102
RTVSPost2010PropOp50
 70
     0
102
RTVSPost2010Prop51ColorIndex
 90
      256
102
RTVSPost2010Prop51ColorRGB
 90
-16777216
102
RTVSPost2010PropOp51
 70
     0
102
RTVSPost2010Prop52
140
1.0
102
RTVSPost2010PropOp52
 70
     0
102
RTVSPost2010Prop53
 90
        2
102
RTVSPost2010PropOp53
 70
     0
102
RTVSPost2010Prop54
  1
strokes_ogs.tif
102
RTVSPost2010PropOp54
 70
     0
102
RTVSPost2010Prop55
280
     0
102
RTVSPost2010PropOp55
 70
     0
102
RTVSPost2010Prop56
140
1.0
102
RTVSPost2010PropOp56
 70
     0
102
RTVSPost2010Prop57
140
1.0
102
RTVSPost2010PropOp57
 70
     0
  0
XRECORD
  5
4DDA
102
{ACAD_REACTORS
330
4DD9
102
}
330
4DD9
100
AcDbXrecord
280
     1
102
RTVSPropertyOp0
 70
     1
102
RTVSPropertyOp1
 70
     1
102
RTVSPropertyOp2
 70
     1
102
RTVSPropertyOp3
 70
     1
102
RTVSPropertyOp4
 70
     1
102
RTVSPropertyOp5
 70
     1
102
RTVSPropertyOp6
 70
     1
102
RTVSPropertyOp7
 70
     1
102
RTVSPropertyOp8
 70
     1
102
RTVSPropertyOp9
 70
     1
102
RTVSPropertyOp10
 70
     1
102
RTVSPropertyOp11
 70
     1
102
RTVSPropertyOp12
 70
     1
102
RTVSPropertyOp13
 70
     1
102
RTVSPropertyOp14
 70
     1
102
RTVSPropertyOp15
 70
     1
102
RTVSPropertyOp16
 70
     1
102
RTVSPropertyOp17
 70
     1
102
RTVSPropertyOp18
 70
     1
102
RTVSPropertyOp19
 70
     1
102
RTVSPropertyOp20
 70
     1
102
RTVSPropertyOp21
 70
     1
102
RTVSPropertyOp22
 70
     1
102
RTVSPropertyOp23
 70
     1
102
RTVSPropertyOp24
 70
     1
102
RTVSPropertyOp25
 70
     1
102
RTVSPropertyOp26
 70
     1
102
RTVSPropertyOp27
 70
     1
102
RTVSPropertyOp28
 70
     1
102
RTVSPropertyOp29
 70
     1
102
RTVSPropertyOp30
 70
     1
102
RTVSPropertyOp31
 70
     1
102
RTVSPropertyOp32
 70
     1
102
RTVSPropertyOp33
 70
     1
102
RTVSPropertyOp34
 70
     1
102
RTVSPropertyOp35
 70
     1
102
RTVSPropertyOp36
 70
     1
102
RTVSPropertyOp37
 70
     1
102
RTVSPropertyOp38
 70
     1
102
RTVSPropertyOp39
 70
     1
102
RTVSPropertyOp40
 70
     1
102
RTVSPropertyOp41
 70
     1
102
RTVSPropertyOp42
 70
     1
102
RTVSPropertyOp43
 70
     1
102
RTVSPropertyOp44
 70
     1
102
RTVSPropertyOp45
 70
     1
102
RTVSPropertyOp46
 70
     1
102
RTVSPropertyOp47
 70
     1
102
RTVSPropertyOp48
 70
     1
102
RTVSPropertyOp49
 70
     1
102
RTVSPropertyOp50
 70
     1
102
RTVSPropertyOp51
 70
     0
102
RTVSPropertyOp52
 70
     0
102
RTVSPropertyOp53
 70
     1
102
RTVSPropertyOp54
 70
     1
102
RTVSPropertyOp55
 70
     1
102
RTVSPropertyOp56
 70
     1
102
RTVSPropertyOp57
 70
     1
102
RTVSPost2010Prop28
280
     0
102
RTVSPost2010PropOp28
 70
     1
102
RTVSPost2010Prop29
280
     1
102
RTVSPost2010PropOp29
 70
     1
102
RTVSPost2010Prop30
280
     1
102
RTVSPost2010PropOp30
 70
     1
102
RTVSPost2010Prop31
280
     0
102
RTVSPost2010PropOp31
 70
     1
102
RTVSPost2010Prop32
280
     0
102
RTVSPost2010PropOp32
 70
     1
102
RTVSPost2010Prop33
280
     0
102
RTVSPost2010PropOp33
 70
     1
102
RTVSPost2010Prop34
280
     0
102
RTVSPost2010PropOp34
 70
     1
102
RTVSPost2010Prop35
280
     0
102
RTVSPost2010PropOp35
 70
     1
102
RTVSPost2010Prop36
280
     0
102
RTVSPost2010PropOp36
 70
     1
102
RTVSPost2010Prop37
 90
       50
102
RTVSPost2010PropOp37
 70
     1
102
RTVSPost2010Prop38
140
0.0
102
RTVSPost2010PropOp38
 70
     1
102
RTVSPost2010Prop39
140
1.0
102
RTVSPost2010PropOp39
 70
     1
102
RTVSPost2010Prop40
 90
        0
102
RTVSPost2010PropOp40
 70
     1
102
RTVSPost2010Prop41ColorIndex
 90
       18
102
RTVSPost2010Prop41ColorRGB
 90
        0
102
RTVSPost2010PropOp41
 70
     1
102
RTVSPost2010Prop42
 90
       50
102
RTVSPost2010PropOp42
 70
     1
102
RTVSPost2010Prop43
 90
        3
102
RTVSPost2010PropOp43
 70
     1
102
RTVSPost2010Prop44ColorIndex
 90
        5
102
RTVSPost2010Prop44ColorRGB
 90
      255
102
RTVSPost2010PropOp44
 70
     1
102
RTVSPost2010Prop45
280
     0
102
RTVSPost2010PropOp45
 70
     1
102
RTVSPost2010Prop46
 90
       50
102
RTVSPost2010PropOp46
 70
     1
102
RTVSPost2010Prop47
 90
       50
102
RTVSPost2010PropOp47
 70
     1
102
RTVSPost2010Prop48
 90
       50
102
RTVSPost2010PropOp48
 70
     1
102
RTVSPost2010Prop49
280
     0
102
RTVSPost2010PropOp49
 70
     1
102
RTVSPost2010Prop50
 90
       50
102
RTVSPost2010PropOp50
 70
     1
102
RTVSPost2010Prop51ColorIndex
 90
      256
102
RTVSPost2010Prop51ColorRGB
 90
-16777216
102
RTVSPost2010PropOp51
 70
     0
102
RTVSPost2010Prop52
140
1.0
102
RTVSPost2010PropOp52
 70
     0
102
RTVSPost2010Prop53
 90
        2
102
RTVSPost2010PropOp53
 70
     1
102
RTVSPost2010Prop54
  1
strokes_ogs.tif
102
RTVSPost2010PropOp54
 70
     1
102
RTVSPost2010Prop55
280
     0
102
RTVSPost2010PropOp55
 70
     1
102
RTVSPost2010Prop56
140
1.0
102
RTVSPost2010PropOp56
 70
     1
102
RTVSPost2010Prop57
140
1.0
102
RTVSPost2010PropOp57
 70
     1
  0
XRECORD
  5
4DF8
102
{ACAD_REACTORS
330
4DF7
102
}
330
4DF7
100
AcDbXrecord
280
     1
102
RTVSPropertyOp0
 70
     1
102
RTVSPropertyOp1
 70
     1
102
RTVSPropertyOp2
 70
     1
102
RTVSPropertyOp3
 70
     1
102
RTVSPropertyOp4
 70
     1
102
RTVSPropertyOp5
 70
     1
102
RTVSPropertyOp6
 70
     1
102
RTVSPropertyOp7
 70
     1
102
RTVSPropertyOp8
 70
     1
102
RTVSPropertyOp9
 70
     1
102
RTVSPropertyOp10
 70
     1
102
RTVSPropertyOp11
 70
     1
102
RTVSPropertyOp12
 70
     1
102
RTVSPropertyOp13
 70
     1
102
RTVSPropertyOp14
 70
     1
102
RTVSPropertyOp15
 70
     1
102
RTVSPropertyOp16
 70
     1
102
RTVSPropertyOp17
 70
     1
102
RTVSPropertyOp18
 70
     1
102
RTVSPropertyOp19
 70
     1
102
RTVSPropertyOp20
 70
     1
102
RTVSPropertyOp21
 70
     1
102
RTVSPropertyOp22
 70
     1
102
RTVSPropertyOp23
 70
     1
102
RTVSPropertyOp24
 70
     1
102
RTVSPropertyOp25
 70
     1
102
RTVSPropertyOp26
 70
     1
102
RTVSPropertyOp27
 70
     1
102
RTVSPropertyOp28
 70
     1
102
RTVSPropertyOp29
 70
     1
102
RTVSPropertyOp30
 70
     1
102
RTVSPropertyOp31
 70
     1
102
RTVSPropertyOp32
 70
     1
102
RTVSPropertyOp33
 70
     1
102
RTVSPropertyOp34
 70
     1
102
RTVSPropertyOp35
 70
     1
102
RTVSPropertyOp36
 70
     1
102
RTVSPropertyOp37
 70
     1
102
RTVSPropertyOp38
 70
     1
102
RTVSPropertyOp39
 70
     1
102
RTVSPropertyOp40
 70
     1
102
RTVSPropertyOp41
 70
     1
102
RTVSPropertyOp42
 70
     1
102
RTVSPropertyOp43
 70
     1
102
RTVSPropertyOp44
 70
     1
102
RTVSPropertyOp45
 70
     1
102
RTVSPropertyOp46
 70
     1
102
RTVSPropertyOp47
 70
     1
102
RTVSPropertyOp48
 70
     1
102
RTVSPropertyOp49
 70
     1
102
RTVSPropertyOp50
 70
     1
102
RTVSPropertyOp51
 70
     0
102
RTVSPropertyOp52
 70
     0
102
RTVSPropertyOp53
 70
     1
102
RTVSPropertyOp54
 70
     1
102
RTVSPropertyOp55
 70
     1
102
RTVSPropertyOp56
 70
     1
102
RTVSPropertyOp57
 70
     1
102
RTVSPost2010Prop28
280
     0
102
RTVSPost2010PropOp28
 70
     1
102
RTVSPost2010Prop29
280
     1
102
RTVSPost2010PropOp29
 70
     1
102
RTVSPost2010Prop30
280
     1
102
RTVSPost2010PropOp30
 70
     1
102
RTVSPost2010Prop31
280
     0
102
RTVSPost2010PropOp31
 70
     1
102
RTVSPost2010Prop32
280
     0
102
RTVSPost2010PropOp32
 70
     1
102
RTVSPost2010Prop33
280
     0
102
RTVSPost2010PropOp33
 70
     1
102
RTVSPost2010Prop34
280
     0
102
RTVSPost2010PropOp34
 70
     1
102
RTVSPost2010Prop35
280
     0
102
RTVSPost2010PropOp35
 70
     1
102
RTVSPost2010Prop36
280
     0
102
RTVSPost2010PropOp36
 70
     1
102
RTVSPost2010Prop37
 90
       50
102
RTVSPost2010PropOp37
 70
     1
102
RTVSPost2010Prop38
140
0.0
102
RTVSPost2010PropOp38
 70
     1
102
RTVSPost2010Prop39
140
1.0
102
RTVSPost2010PropOp39
 70
     1
102
RTVSPost2010Prop40
 90
        0
102
RTVSPost2010PropOp40
 70
     1
102
RTVSPost2010Prop41ColorIndex
 90
       18
102
RTVSPost2010Prop41ColorRGB
 90
        0
102
RTVSPost2010PropOp41
 70
     1
102
RTVSPost2010Prop42
 90
       50
102
RTVSPost2010PropOp42
 70
     1
102
RTVSPost2010Prop43
 90
        3
102
RTVSPost2010PropOp43
 70
     1
102
RTVSPost2010Prop44ColorIndex
 90
        5
102
RTVSPost2010Prop44ColorRGB
 90
      255
102
RTVSPost2010PropOp44
 70
     1
102
RTVSPost2010Prop45
280
     0
102
RTVSPost2010PropOp45
 70
     1
102
RTVSPost2010Prop46
 90
       50
102
RTVSPost2010PropOp46
 70
     1
102
RTVSPost2010Prop47
 90
       50
102
RTVSPost2010PropOp47
 70
     1
102
RTVSPost2010Prop48
 90
       50
102
RTVSPost2010PropOp48
 70
     1
102
RTVSPost2010Prop49
280
     0
102
RTVSPost2010PropOp49
 70
     1
102
RTVSPost2010Prop50
 90
       50
102
RTVSPost2010PropOp50
 70
     1
102
RTVSPost2010Prop51ColorIndex
 90
      256
102
RTVSPost2010Prop51ColorRGB
 90
-16777216
102
RTVSPost2010PropOp51
 70
     0
102
RTVSPost2010Prop52
140
1.0
102
RTVSPost2010PropOp52
 70
     0
102
RTVSPost2010Prop53
 90
        2
102
RTVSPost2010PropOp53
 70
     1
102
RTVSPost2010Prop54
  1
strokes_ogs.tif
102
RTVSPost2010PropOp54
 70
     1
102
RTVSPost2010Prop55
280
     0
102
RTVSPost2010PropOp55
 70
     1
102
RTVSPost2010Prop56
140
1.0
102
RTVSPost2010PropOp56
 70
     1
102
RTVSPost2010Prop57
140
1.0
102
RTVSPost2010PropOp57
 70
     1
  0
XRECORD
  5
4DF6
102
{ACAD_REACTORS
330
4DF5
102
}
330
4DF5
100
AcDbXrecord
280
     1
102
RTVSPropertyOp0
 70
     1
102
RTVSPropertyOp1
 70
     1
102
RTVSPropertyOp2
 70
     1
102
RTVSPropertyOp3
 70
     1
102
RTVSPropertyOp4
 70
     1
102
RTVSPropertyOp5
 70
     1
102
RTVSPropertyOp6
 70
     1
102
RTVSPropertyOp7
 70
     1
102
RTVSPropertyOp8
 70
     1
102
RTVSPropertyOp9
 70
     1
102
RTVSPropertyOp10
 70
     1
102
RTVSPropertyOp11
 70
     1
102
RTVSPropertyOp12
 70
     1
102
RTVSPropertyOp13
 70
     1
102
RTVSPropertyOp14
 70
     1
102
RTVSPropertyOp15
 70
     1
102
RTVSPropertyOp16
 70
     1
102
RTVSPropertyOp17
 70
     1
102
RTVSPropertyOp18
 70
     1
102
RTVSPropertyOp19
 70
     1
102
RTVSPropertyOp20
 70
     1
102
RTVSPropertyOp21
 70
     1
102
RTVSPropertyOp22
 70
     1
102
RTVSPropertyOp23
 70
     1
102
RTVSPropertyOp24
 70
     1
102
RTVSPropertyOp25
 70
     1
102
RTVSPropertyOp26
 70
     1
102
RTVSPropertyOp27
 70
     1
102
RTVSPropertyOp28
 70
     1
102
RTVSPropertyOp29
 70
     1
102
RTVSPropertyOp30
 70
     1
102
RTVSPropertyOp31
 70
     1
102
RTVSPropertyOp32
 70
     1
102
RTVSPropertyOp33
 70
     1
102
RTVSPropertyOp34
 70
     1
102
RTVSPropertyOp35
 70
     1
102
RTVSPropertyOp36
 70
     1
102
RTVSPropertyOp37
 70
     1
102
RTVSPropertyOp38
 70
     1
102
RTVSPropertyOp39
 70
     1
102
RTVSPropertyOp40
 70
     1
102
RTVSPropertyOp41
 70
     1
102
RTVSPropertyOp42
 70
     1
102
RTVSPropertyOp43
 70
     1
102
RTVSPropertyOp44
 70
     1
102
RTVSPropertyOp45
 70
     1
102
RTVSPropertyOp46
 70
     1
102
RTVSPropertyOp47
 70
     1
102
RTVSPropertyOp48
 70
     1
102
RTVSPropertyOp49
 70
     1
102
RTVSPropertyOp50
 70
     1
102
RTVSPropertyOp51
 70
     0
102
RTVSPropertyOp52
 70
     0
102
RTVSPropertyOp53
 70
     1
102
RTVSPropertyOp54
 70
     1
102
RTVSPropertyOp55
 70
     1
102
RTVSPropertyOp56
 70
     1
102
RTVSPropertyOp57
 70
     1
102
RTVSPost2010Prop28
280
     0
102
RTVSPost2010PropOp28
 70
     1
102
RTVSPost2010Prop29
280
     1
102
RTVSPost2010PropOp29
 70
     1
102
RTVSPost2010Prop30
280
     1
102
RTVSPost2010PropOp30
 70
     1
102
RTVSPost2010Prop31
280
     0
102
RTVSPost2010PropOp31
 70
     1
102
RTVSPost2010Prop32
280
     0
102
RTVSPost2010PropOp32
 70
     1
102
RTVSPost2010Prop33
280
     0
102
RTVSPost2010PropOp33
 70
     1
102
RTVSPost2010Prop34
280
     0
102
RTVSPost2010PropOp34
 70
     1
102
RTVSPost2010Prop35
280
     0
102
RTVSPost2010PropOp35
 70
     1
102
RTVSPost2010Prop36
280
     0
102
RTVSPost2010PropOp36
 70
     1
102
RTVSPost2010Prop37
 90
       50
102
RTVSPost2010PropOp37
 70
     1
102
RTVSPost2010Prop38
140
0.0
102
RTVSPost2010PropOp38
 70
     1
102
RTVSPost2010Prop39
140
1.0
102
RTVSPost2010PropOp39
 70
     1
102
RTVSPost2010Prop40
 90
        0
102
RTVSPost2010PropOp40
 70
     1
102
RTVSPost2010Prop41ColorIndex
 90
       18
102
RTVSPost2010Prop41ColorRGB
 90
        0
102
RTVSPost2010PropOp41
 70
     1
102
RTVSPost2010Prop42
 90
       50
102
RTVSPost2010PropOp42
 70
     1
102
RTVSPost2010Prop43
 90
        3
102
RTVSPost2010PropOp43
 70
     1
102
RTVSPost2010Prop44ColorIndex
 90
        5
102
RTVSPost2010Prop44ColorRGB
 90
      255
102
RTVSPost2010PropOp44
 70
     1
102
RTVSPost2010Prop45
280
     0
102
RTVSPost2010PropOp45
 70
     1
102
RTVSPost2010Prop46
 90
       50
102
RTVSPost2010PropOp46
 70
     1
102
RTVSPost2010Prop47
 90
       50
102
RTVSPost2010PropOp47
 70
     1
102
RTVSPost2010Prop48
 90
       50
102
RTVSPost2010PropOp48
 70
     1
102
RTVSPost2010Prop49
280
     0
102
RTVSPost2010PropOp49
 70
     1
102
RTVSPost2010Prop50
 90
       50
102
RTVSPost2010PropOp50
 70
     1
102
RTVSPost2010Prop51ColorIndex
 90
      256
102
RTVSPost2010Prop51ColorRGB
 90
-16777216
102
RTVSPost2010PropOp51
 70
     0
102
RTVSPost2010Prop52
140
1.0
102
RTVSPost2010PropOp52
 70
     0
102
RTVSPost2010Prop53
 90
        2
102
RTVSPost2010PropOp53
 70
     1
102
RTVSPost2010Prop54
  1
strokes_ogs.tif
102
RTVSPost2010PropOp54
 70
     1
102
RTVSPost2010Prop55
280
     0
102
RTVSPost2010PropOp55
 70
     1
102
RTVSPost2010Prop56
140
1.0
102
RTVSPost2010PropOp56
 70
     1
102
RTVSPost2010Prop57
140
1.0
102
RTVSPost2010PropOp57
 70
     1
  0
XRECORD
  5
4DF0
102
{ACAD_REACTORS
330
4DEF
102
}
330
4DEF
100
AcDbXrecord
280
     1
102
RTVSPropertyOp0
 70
     1
102
RTVSPropertyOp1
 70
     1
102
RTVSPropertyOp2
 70
     1
102
RTVSPropertyOp3
 70
     1
102
RTVSPropertyOp4
 70
     1
102
RTVSPropertyOp5
 70
     1
102
RTVSPropertyOp6
 70
     1
102
RTVSPropertyOp7
 70
     1
102
RTVSPropertyOp8
 70
     1
102
RTVSPropertyOp9
 70
     1
102
RTVSPropertyOp10
 70
     1
102
RTVSPropertyOp11
 70
     1
102
RTVSPropertyOp12
 70
     1
102
RTVSPropertyOp13
 70
     1
102
RTVSPropertyOp14
 70
     1
102
RTVSPropertyOp15
 70
     1
102
RTVSPropertyOp16
 70
     1
102
RTVSPropertyOp17
 70
     1
102
RTVSPropertyOp18
 70
     1
102
RTVSPropertyOp19
 70
     1
102
RTVSPropertyOp20
 70
     1
102
RTVSPropertyOp21
 70
     1
102
RTVSPropertyOp22
 70
     1
102
RTVSPropertyOp23
 70
     1
102
RTVSPropertyOp24
 70
     1
102
RTVSPropertyOp25
 70
     1
102
RTVSPropertyOp26
 70
     1
102
RTVSPropertyOp27
 70
     1
102
RTVSPropertyOp28
 70
     1
102
RTVSPropertyOp29
 70
     1
102
RTVSPropertyOp30
 70
     1
102
RTVSPropertyOp31
 70
     1
102
RTVSPropertyOp32
 70
     1
102
RTVSPropertyOp33
 70
     1
102
RTVSPropertyOp34
 70
     1
102
RTVSPropertyOp35
 70
     1
102
RTVSPropertyOp36
 70
     1
102
RTVSPropertyOp37
 70
     1
102
RTVSPropertyOp38
 70
     1
102
RTVSPropertyOp39
 70
     1
102
RTVSPropertyOp40
 70
     1
102
RTVSPropertyOp41
 70
     1
102
RTVSPropertyOp42
 70
     1
102
RTVSPropertyOp43
 70
     1
102
RTVSPropertyOp44
 70
     1
102
RTVSPropertyOp45
 70
     1
102
RTVSPropertyOp46
 70
     1
102
RTVSPropertyOp47
 70
     1
102
RTVSPropertyOp48
 70
     1
102
RTVSPropertyOp49
 70
     1
102
RTVSPropertyOp50
 70
     1
102
RTVSPropertyOp51
 70
     0
102
RTVSPropertyOp52
 70
     0
102
RTVSPropertyOp53
 70
     1
102
RTVSPropertyOp54
 70
     1
102
RTVSPropertyOp55
 70
     1
102
RTVSPropertyOp56
 70
     1
102
RTVSPropertyOp57
 70
     1
102
RTVSPost2010Prop28
280
     0
102
RTVSPost2010PropOp28
 70
     1
102
RTVSPost2010Prop29
280
     1
102
RTVSPost2010PropOp29
 70
     1
102
RTVSPost2010Prop30
280
     1
102
RTVSPost2010PropOp30
 70
     1
102
RTVSPost2010Prop31
280
     0
102
RTVSPost2010PropOp31
 70
     1
102
RTVSPost2010Prop32
280
     0
102
RTVSPost2010PropOp32
 70
     1
102
RTVSPost2010Prop33
280
     0
102
RTVSPost2010PropOp33
 70
     1
102
RTVSPost2010Prop34
280
     0
102
RTVSPost2010PropOp34
 70
     1
102
RTVSPost2010Prop35
280
     0
102
RTVSPost2010PropOp35
 70
     1
102
RTVSPost2010Prop36
280
     0
102
RTVSPost2010PropOp36
 70
     1
102
RTVSPost2010Prop37
 90
       50
102
RTVSPost2010PropOp37
 70
     1
102
RTVSPost2010Prop38
140
0.0
102
RTVSPost2010PropOp38
 70
     1
102
RTVSPost2010Prop39
140
1.0
102
RTVSPost2010PropOp39
 70
     1
102
RTVSPost2010Prop40
 90
        0
102
RTVSPost2010PropOp40
 70
     1
102
RTVSPost2010Prop41ColorIndex
 90
       18
102
RTVSPost2010Prop41ColorRGB
 90
        0
102
RTVSPost2010PropOp41
 70
     1
102
RTVSPost2010Prop42
 90
       50
102
RTVSPost2010PropOp42
 70
     1
102
RTVSPost2010Prop43
 90
        3
102
RTVSPost2010PropOp43
 70
     1
102
RTVSPost2010Prop44ColorIndex
 90
        5
102
RTVSPost2010Prop44ColorRGB
 90
      255
102
RTVSPost2010PropOp44
 70
     1
102
RTVSPost2010Prop45
280
     0
102
RTVSPost2010PropOp45
 70
     1
102
RTVSPost2010Prop46
 90
       50
102
RTVSPost2010PropOp46
 70
     1
102
RTVSPost2010Prop47
 90
       50
102
RTVSPost2010PropOp47
 70
     1
102
RTVSPost2010Prop48
 90
       50
102
RTVSPost2010PropOp48
 70
     1
102
RTVSPost2010Prop49
280
     0
102
RTVSPost2010PropOp49
 70
     1
102
RTVSPost2010Prop50
 90
       50
102
RTVSPost2010PropOp50
 70
     1
102
RTVSPost2010Prop51ColorIndex
 90
      256
102
RTVSPost2010Prop51ColorRGB
 90
-16777216
102
RTVSPost2010PropOp51
 70
     0
102
RTVSPost2010Prop52
140
1.0
102
RTVSPost2010PropOp52
 70
     0
102
RTVSPost2010Prop53
 90
        2
102
RTVSPost2010PropOp53
 70
     1
102
RTVSPost2010Prop54
  1
strokes_ogs.tif
102
RTVSPost2010PropOp54
 70
     1
102
RTVSPost2010Prop55
280
     0
102
RTVSPost2010PropOp55
 70
     1
102
RTVSPost2010Prop56
140
1.0
102
RTVSPost2010PropOp56
 70
     1
102
RTVSPost2010Prop57
140
1.0
102
RTVSPost2010PropOp57
 70
     1
  0
XRECORD
  5
4DF2
102
{ACAD_REACTORS
330
4DF1
102
}
330
4DF1
100
AcDbXrecord
280
     1
102
RTVSPropertyOp0
 70
     1
102
RTVSPropertyOp1
 70
     1
102
RTVSPropertyOp2
 70
     1
102
RTVSPropertyOp3
 70
     1
102
RTVSPropertyOp4
 70
     1
102
RTVSPropertyOp5
 70
     1
102
RTVSPropertyOp6
 70
     1
102
RTVSPropertyOp7
 70
     1
102
RTVSPropertyOp8
 70
     1
102
RTVSPropertyOp9
 70
     1
102
RTVSPropertyOp10
 70
     1
102
RTVSPropertyOp11
 70
     1
102
RTVSPropertyOp12
 70
     1
102
RTVSPropertyOp13
 70
     1
102
RTVSPropertyOp14
 70
     1
102
RTVSPropertyOp15
 70
     1
102
RTVSPropertyOp16
 70
     1
102
RTVSPropertyOp17
 70
     1
102
RTVSPropertyOp18
 70
     1
102
RTVSPropertyOp19
 70
     1
102
RTVSPropertyOp20
 70
     1
102
RTVSPropertyOp21
 70
     1
102
RTVSPropertyOp22
 70
     1
102
RTVSPropertyOp23
 70
     1
102
RTVSPropertyOp24
 70
     1
102
RTVSPropertyOp25
 70
     1
102
RTVSPropertyOp26
 70
     1
102
RTVSPropertyOp27
 70
     1
102
RTVSPropertyOp28
 70
     1
102
RTVSPropertyOp29
 70
     1
102
RTVSPropertyOp30
 70
     1
102
RTVSPropertyOp31
 70
     1
102
RTVSPropertyOp32
 70
     1
102
RTVSPropertyOp33
 70
     1
102
RTVSPropertyOp34
 70
     1
102
RTVSPropertyOp35
 70
     1
102
RTVSPropertyOp36
 70
     1
102
RTVSPropertyOp37
 70
     1
102
RTVSPropertyOp38
 70
     1
102
RTVSPropertyOp39
 70
     1
102
RTVSPropertyOp40
 70
     1
102
RTVSPropertyOp41
 70
     1
102
RTVSPropertyOp42
 70
     1
102
RTVSPropertyOp43
 70
     1
102
RTVSPropertyOp44
 70
     1
102
RTVSPropertyOp45
 70
     1
102
RTVSPropertyOp46
 70
     1
102
RTVSPropertyOp47
 70
     1
102
RTVSPropertyOp48
 70
     1
102
RTVSPropertyOp49
 70
     1
102
RTVSPropertyOp50
 70
     1
102
RTVSPropertyOp51
 70
     0
102
RTVSPropertyOp52
 70
     0
102
RTVSPropertyOp53
 70
     1
102
RTVSPropertyOp54
 70
     1
102
RTVSPropertyOp55
 70
     1
102
RTVSPropertyOp56
 70
     1
102
RTVSPropertyOp57
 70
     1
102
RTVSPost2010Prop28
280
     0
102
RTVSPost2010PropOp28
 70
     1
102
RTVSPost2010Prop29
280
     1
102
RTVSPost2010PropOp29
 70
     1
102
RTVSPost2010Prop30
280
     1
102
RTVSPost2010PropOp30
 70
     1
102
RTVSPost2010Prop31
280
     0
102
RTVSPost2010PropOp31
 70
     1
102
RTVSPost2010Prop32
280
     0
102
RTVSPost2010PropOp32
 70
     1
102
RTVSPost2010Prop33
280
     0
102
RTVSPost2010PropOp33
 70
     1
102
RTVSPost2010Prop34
280
     0
102
RTVSPost2010PropOp34
 70
     1
102
RTVSPost2010Prop35
280
     0
102
RTVSPost2010PropOp35
 70
     1
102
RTVSPost2010Prop36
280
     0
102
RTVSPost2010PropOp36
 70
     1
102
RTVSPost2010Prop37
 90
       50
102
RTVSPost2010PropOp37
 70
     1
102
RTVSPost2010Prop38
140
0.0
102
RTVSPost2010PropOp38
 70
     1
102
RTVSPost2010Prop39
140
1.0
102
RTVSPost2010PropOp39
 70
     1
102
RTVSPost2010Prop40
 90
        0
102
RTVSPost2010PropOp40
 70
     1
102
RTVSPost2010Prop41ColorIndex
 90
       18
102
RTVSPost2010Prop41ColorRGB
 90
        0
102
RTVSPost2010PropOp41
 70
     1
102
RTVSPost2010Prop42
 90
       50
102
RTVSPost2010PropOp42
 70
     1
102
RTVSPost2010Prop43
 90
        3
102
RTVSPost2010PropOp43
 70
     1
102
RTVSPost2010Prop44ColorIndex
 90
        5
102
RTVSPost2010Prop44ColorRGB
 90
      255
102
RTVSPost2010PropOp44
 70
     1
102
RTVSPost2010Prop45
280
     0
102
RTVSPost2010PropOp45
 70
     1
102
RTVSPost2010Prop46
 90
       50
102
RTVSPost2010PropOp46
 70
     1
102
RTVSPost2010Prop47
 90
       50
102
RTVSPost2010PropOp47
 70
     1
102
RTVSPost2010Prop48
 90
       50
102
RTVSPost2010PropOp48
 70
     1
102
RTVSPost2010Prop49
280
     0
102
RTVSPost2010PropOp49
 70
     1
102
RTVSPost2010Prop50
 90
       50
102
RTVSPost2010PropOp50
 70
     1
102
RTVSPost2010Prop51ColorIndex
 90
      256
102
RTVSPost2010Prop51ColorRGB
 90
-16777216
102
RTVSPost2010PropOp51
 70
     0
102
RTVSPost2010Prop52
140
1.0
102
RTVSPost2010PropOp52
 70
     0
102
RTVSPost2010Prop53
 90
        2
102
RTVSPost2010PropOp53
 70
     1
102
RTVSPost2010Prop54
  1
strokes_ogs.tif
102
RTVSPost2010PropOp54
 70
     1
102
RTVSPost2010Prop55
280
     0
102
RTVSPost2010PropOp55
 70
     1
102
RTVSPost2010Prop56
140
1.0
102
RTVSPost2010PropOp56
 70
     1
102
RTVSPost2010Prop57
140
1.0
102
RTVSPost2010PropOp57
 70
     1
  0
XRECORD
  5
4DE2
102
{ACAD_REACTORS
330
4DE1
102
}
330
4DE1
100
AcDbXrecord
280
     1
102
RTVSPropertyOp0
 70
     1
102
RTVSPropertyOp1
 70
     1
102
RTVSPropertyOp2
 70
     1
102
RTVSPropertyOp3
 70
     1
102
RTVSPropertyOp4
 70
     1
102
RTVSPropertyOp5
 70
     1
102
RTVSPropertyOp6
 70
     1
102
RTVSPropertyOp7
 70
     1
102
RTVSPropertyOp8
 70
     1
102
RTVSPropertyOp9
 70
     1
102
RTVSPropertyOp10
 70
     1
102
RTVSPropertyOp11
 70
     1
102
RTVSPropertyOp12
 70
     1
102
RTVSPropertyOp13
 70
     1
102
RTVSPropertyOp14
 70
     1
102
RTVSPropertyOp15
 70
     1
102
RTVSPropertyOp16
 70
     1
102
RTVSPropertyOp17
 70
     1
102
RTVSPropertyOp18
 70
     1
102
RTVSPropertyOp19
 70
     1
102
RTVSPropertyOp20
 70
     1
102
RTVSPropertyOp21
 70
     1
102
RTVSPropertyOp22
 70
     1
102
RTVSPropertyOp23
 70
     1
102
RTVSPropertyOp24
 70
     1
102
RTVSPropertyOp25
 70
     1
102
RTVSPropertyOp26
 70
     1
102
RTVSPropertyOp27
 70
     1
102
RTVSPropertyOp28
 70
     1
102
RTVSPropertyOp29
 70
     1
102
RTVSPropertyOp30
 70
     1
102
RTVSPropertyOp31
 70
     1
102
RTVSPropertyOp32
 70
     1
102
RTVSPropertyOp33
 70
     1
102
RTVSPropertyOp34
 70
     1
102
RTVSPropertyOp35
 70
     1
102
RTVSPropertyOp36
 70
     1
102
RTVSPropertyOp37
 70
     1
102
RTVSPropertyOp38
 70
     1
102
RTVSPropertyOp39
 70
     1
102
RTVSPropertyOp40
 70
     1
102
RTVSPropertyOp41
 70
     1
102
RTVSPropertyOp42
 70
     1
102
RTVSPropertyOp43
 70
     1
102
RTVSPropertyOp44
 70
     1
102
RTVSPropertyOp45
 70
     1
102
RTVSPropertyOp46
 70
     1
102
RTVSPropertyOp47
 70
     1
102
RTVSPropertyOp48
 70
     1
102
RTVSPropertyOp49
 70
     1
102
RTVSPropertyOp50
 70
     1
102
RTVSPropertyOp51
 70
     0
102
RTVSPropertyOp52
 70
     0
102
RTVSPropertyOp53
 70
     1
102
RTVSPropertyOp54
 70
     1
102
RTVSPropertyOp55
 70
     1
102
RTVSPropertyOp56
 70
     1
102
RTVSPropertyOp57
 70
     1
102
RTVSPost2010Prop28
280
     0
102
RTVSPost2010PropOp28
 70
     1
102
RTVSPost2010Prop29
280
     1
102
RTVSPost2010PropOp29
 70
     1
102
RTVSPost2010Prop30
280
     1
102
RTVSPost2010PropOp30
 70
     1
102
RTVSPost2010Prop31
280
     0
102
RTVSPost2010PropOp31
 70
     1
102
RTVSPost2010Prop32
280
     0
102
RTVSPost2010PropOp32
 70
     1
102
RTVSPost2010Prop33
280
     0
102
RTVSPost2010PropOp33
 70
     1
102
RTVSPost2010Prop34
280
     0
102
RTVSPost2010PropOp34
 70
     1
102
RTVSPost2010Prop35
280
     0
102
RTVSPost2010PropOp35
 70
     1
102
RTVSPost2010Prop36
280
     0
102
RTVSPost2010PropOp36
 70
     1
102
RTVSPost2010Prop37
 90
       50
102
RTVSPost2010PropOp37
 70
     1
102
RTVSPost2010Prop38
140
0.0
102
RTVSPost2010PropOp38
 70
     1
102
RTVSPost2010Prop39
140
1.0
102
RTVSPost2010PropOp39
 70
     1
102
RTVSPost2010Prop40
 90
        0
102
RTVSPost2010PropOp40
 70
     1
102
RTVSPost2010Prop41ColorIndex
 90
       18
102
RTVSPost2010Prop41ColorRGB
 90
        0
102
RTVSPost2010PropOp41
 70
     1
102
RTVSPost2010Prop42
 90
       50
102
RTVSPost2010PropOp42
 70
     1
102
RTVSPost2010Prop43
 90
        3
102
RTVSPost2010PropOp43
 70
     1
102
RTVSPost2010Prop44ColorIndex
 90
        5
102
RTVSPost2010Prop44ColorRGB
 90
      255
102
RTVSPost2010PropOp44
 70
     1
102
RTVSPost2010Prop45
280
     0
102
RTVSPost2010PropOp45
 70
     1
102
RTVSPost2010Prop46
 90
       50
102
RTVSPost2010PropOp46
 70
     1
102
RTVSPost2010Prop47
 90
       50
102
RTVSPost2010PropOp47
 70
     1
102
RTVSPost2010Prop48
 90
       50
102
RTVSPost2010PropOp48
 70
     1
102
RTVSPost2010Prop49
280
     0
102
RTVSPost2010PropOp49
 70
     1
102
RTVSPost2010Prop50
 90
       50
102
RTVSPost2010PropOp50
 70
     1
102
RTVSPost2010Prop51ColorIndex
 90
      256
102
RTVSPost2010Prop51ColorRGB
 90
-16777216
102
RTVSPost2010PropOp51
 70
     0
102
RTVSPost2010Prop52
140
1.0
102
RTVSPost2010PropOp52
 70
     0
102
RTVSPost2010Prop53
 90
        2
102
RTVSPost2010PropOp53
 70
     1
102
RTVSPost2010Prop54
  1
strokes_ogs.tif
102
RTVSPost2010PropOp54
 70
     1
102
RTVSPost2010Prop55
280
     0
102
RTVSPost2010PropOp55
 70
     1
102
RTVSPost2010Prop56
140
1.0
102
RTVSPost2010PropOp56
 70
     1
102
RTVSPost2010Prop57
140
1.0
102
RTVSPost2010PropOp57
 70
     1
  0
XRECORD
  5
4DD4
102
{ACAD_REACTORS
330
4DD3
102
}
330
4DD3
100
AcDbXrecord
280
     1
102
RTVSPropertyOp0
 70
     1
102
RTVSPropertyOp1
 70
     1
102
RTVSPropertyOp2
 70
     1
102
RTVSPropertyOp3
 70
     1
102
RTVSPropertyOp4
 70
     1
102
RTVSPropertyOp5
 70
     1
102
RTVSPropertyOp6
 70
     1
102
RTVSPropertyOp7
 70
     1
102
RTVSPropertyOp8
 70
     1
102
RTVSPropertyOp9
 70
     1
102
RTVSPropertyOp10
 70
     1
102
RTVSPropertyOp11
 70
     1
102
RTVSPropertyOp12
 70
     1
102
RTVSPropertyOp13
 70
     1
102
RTVSPropertyOp14
 70
     1
102
RTVSPropertyOp15
 70
     1
102
RTVSPropertyOp16
 70
     1
102
RTVSPropertyOp17
 70
     1
102
RTVSPropertyOp18
 70
     1
102
RTVSPropertyOp19
 70
     1
102
RTVSPropertyOp20
 70
     1
102
RTVSPropertyOp21
 70
     1
102
RTVSPropertyOp22
 70
     1
102
RTVSPropertyOp23
 70
     1
102
RTVSPropertyOp24
 70
     1
102
RTVSPropertyOp25
 70
     1
102
RTVSPropertyOp26
 70
     1
102
RTVSPropertyOp27
 70
     1
102
RTVSPropertyOp28
 70
     1
102
RTVSPropertyOp29
 70
     1
102
RTVSPropertyOp30
 70
     1
102
RTVSPropertyOp31
 70
     1
102
RTVSPropertyOp32
 70
     1
102
RTVSPropertyOp33
 70
     1
102
RTVSPropertyOp34
 70
     1
102
RTVSPropertyOp35
 70
     1
102
RTVSPropertyOp36
 70
     1
102
RTVSPropertyOp37
 70
     1
102
RTVSPropertyOp38
 70
     1
102
RTVSPropertyOp39
 70
     1
102
RTVSPropertyOp40
 70
     1
102
RTVSPropertyOp41
 70
     1
102
RTVSPropertyOp42
 70
     1
102
RTVSPropertyOp43
 70
     1
102
RTVSPropertyOp44
 70
     1
102
RTVSPropertyOp45
 70
     1
102
RTVSPropertyOp46
 70
     1
102
RTVSPropertyOp47
 70
     1
102
RTVSPropertyOp48
 70
     1
102
RTVSPropertyOp49
 70
     1
102
RTVSPropertyOp50
 70
     1
102
RTVSPropertyOp51
 70
     0
102
RTVSPropertyOp52
 70
     0
102
RTVSPropertyOp53
 70
     1
102
RTVSPropertyOp54
 70
     1
102
RTVSPropertyOp55
 70
     1
102
RTVSPropertyOp56
 70
     1
102
RTVSPropertyOp57
 70
     1
102
RTVSPost2010Prop28
280
     0
102
RTVSPost2010PropOp28
 70
     1
102
RTVSPost2010Prop29
280
     1
102
RTVSPost2010PropOp29
 70
     1
102
RTVSPost2010Prop30
280
     1
102
RTVSPost2010PropOp30
 70
     1
102
RTVSPost2010Prop31
280
     0
102
RTVSPost2010PropOp31
 70
     1
102
RTVSPost2010Prop32
280
     0
102
RTVSPost2010PropOp32
 70
     1
102
RTVSPost2010Prop33
280
     0
102
RTVSPost2010PropOp33
 70
     1
102
RTVSPost2010Prop34
280
     0
102
RTVSPost2010PropOp34
 70
     1
102
RTVSPost2010Prop35
280
     0
102
RTVSPost2010PropOp35
 70
     1
102
RTVSPost2010Prop36
280
     0
102
RTVSPost2010PropOp36
 70
     1
102
RTVSPost2010Prop37
 90
       50
102
RTVSPost2010PropOp37
 70
     1
102
RTVSPost2010Prop38
140
0.0
102
RTVSPost2010PropOp38
 70
     1
102
RTVSPost2010Prop39
140
1.0
102
RTVSPost2010PropOp39
 70
     1
102
RTVSPost2010Prop40
 90
        0
102
RTVSPost2010PropOp40
 70
     1
102
RTVSPost2010Prop41ColorIndex
 90
       18
102
RTVSPost2010Prop41ColorRGB
 90
        0
102
RTVSPost2010PropOp41
 70
     1
102
RTVSPost2010Prop42
 90
       50
102
RTVSPost2010PropOp42
 70
     1
102
RTVSPost2010Prop43
 90
        3
102
RTVSPost2010PropOp43
 70
     1
102
RTVSPost2010Prop44ColorIndex
 90
        5
102
RTVSPost2010Prop44ColorRGB
 90
      255
102
RTVSPost2010PropOp44
 70
     1
102
RTVSPost2010Prop45
280
     0
102
RTVSPost2010PropOp45
 70
     1
102
RTVSPost2010Prop46
 90
       50
102
RTVSPost2010PropOp46
 70
     1
102
RTVSPost2010Prop47
 90
       50
102
RTVSPost2010PropOp47
 70
     1
102
RTVSPost2010Prop48
 90
       50
102
RTVSPost2010PropOp48
 70
     1
102
RTVSPost2010Prop49
280
     0
102
RTVSPost2010PropOp49
 70
     1
102
RTVSPost2010Prop50
 90
       50
102
RTVSPost2010PropOp50
 70
     1
102
RTVSPost2010Prop51ColorIndex
 90
      256
102
RTVSPost2010Prop51ColorRGB
 90
-16777216
102
RTVSPost2010PropOp51
 70
     0
102
RTVSPost2010Prop52
140
1.0
102
RTVSPost2010PropOp52
 70
     0
102
RTVSPost2010Prop53
 90
        2
102
RTVSPost2010PropOp53
 70
     1
102
RTVSPost2010Prop54
  1
strokes_ogs.tif
102
RTVSPost2010PropOp54
 70
     1
102
RTVSPost2010Prop55
280
     0
102
RTVSPost2010PropOp55
 70
     1
102
RTVSPost2010Prop56
140
1.0
102
RTVSPost2010PropOp56
 70
     1
102
RTVSPost2010Prop57
140
1.0
102
RTVSPost2010PropOp57
 70
     1
  0
XRECORD
  5
4DF4
102
{ACAD_REACTORS
330
4DF3
102
}
330
4DF3
100
AcDbXrecord
280
     1
102
RTVSPropertyOp0
 70
     1
102
RTVSPropertyOp1
 70
     1
102
RTVSPropertyOp2
 70
     1
102
RTVSPropertyOp3
 70
     1
102
RTVSPropertyOp4
 70
     1
102
RTVSPropertyOp5
 70
     1
102
RTVSPropertyOp6
 70
     1
102
RTVSPropertyOp7
 70
     1
102
RTVSPropertyOp8
 70
     1
102
RTVSPropertyOp9
 70
     1
102
RTVSPropertyOp10
 70
     1
102
RTVSPropertyOp11
 70
     1
102
RTVSPropertyOp12
 70
     1
102
RTVSPropertyOp13
 70
     1
102
RTVSPropertyOp14
 70
     1
102
RTVSPropertyOp15
 70
     1
102
RTVSPropertyOp16
 70
     1
102
RTVSPropertyOp17
 70
     1
102
RTVSPropertyOp18
 70
     1
102
RTVSPropertyOp19
 70
     1
102
RTVSPropertyOp20
 70
     1
102
RTVSPropertyOp21
 70
     1
102
RTVSPropertyOp22
 70
     1
102
RTVSPropertyOp23
 70
     1
102
RTVSPropertyOp24
 70
     1
102
RTVSPropertyOp25
 70
     1
102
RTVSPropertyOp26
 70
     1
102
RTVSPropertyOp27
 70
     1
102
RTVSPropertyOp28
 70
     1
102
RTVSPropertyOp29
 70
     1
102
RTVSPropertyOp30
 70
     1
102
RTVSPropertyOp31
 70
     1
102
RTVSPropertyOp32
 70
     1
102
RTVSPropertyOp33
 70
     1
102
RTVSPropertyOp34
 70
     1
102
RTVSPropertyOp35
 70
     1
102
RTVSPropertyOp36
 70
     1
102
RTVSPropertyOp37
 70
     1
102
RTVSPropertyOp38
 70
     1
102
RTVSPropertyOp39
 70
     1
102
RTVSPropertyOp40
 70
     1
102
RTVSPropertyOp41
 70
     1
102
RTVSPropertyOp42
 70
     1
102
RTVSPropertyOp43
 70
     1
102
RTVSPropertyOp44
 70
     1
102
RTVSPropertyOp45
 70
     1
102
RTVSPropertyOp46
 70
     1
102
RTVSPropertyOp47
 70
     1
102
RTVSPropertyOp48
 70
     1
102
RTVSPropertyOp49
 70
     1
102
RTVSPropertyOp50
 70
     1
102
RTVSPropertyOp51
 70
     0
102
RTVSPropertyOp52
 70
     0
102
RTVSPropertyOp53
 70
     1
102
RTVSPropertyOp54
 70
     1
102
RTVSPropertyOp55
 70
     1
102
RTVSPropertyOp56
 70
     1
102
RTVSPropertyOp57
 70
     1
102
RTVSPost2010Prop28
280
     0
102
RTVSPost2010PropOp28
 70
     1
102
RTVSPost2010Prop29
280
     1
102
RTVSPost2010PropOp29
 70
     1
102
RTVSPost2010Prop30
280
     1
102
RTVSPost2010PropOp30
 70
     1
102
RTVSPost2010Prop31
280
     0
102
RTVSPost2010PropOp31
 70
     1
102
RTVSPost2010Prop32
280
     0
102
RTVSPost2010PropOp32
 70
     1
102
RTVSPost2010Prop33
280
     0
102
RTVSPost2010PropOp33
 70
     1
102
RTVSPost2010Prop34
280
     0
102
RTVSPost2010PropOp34
 70
     1
102
RTVSPost2010Prop35
280
     0
102
RTVSPost2010PropOp35
 70
     1
102
RTVSPost2010Prop36
280
     0
102
RTVSPost2010PropOp36
 70
     1
102
RTVSPost2010Prop37
 90
       50
102
RTVSPost2010PropOp37
 70
     1
102
RTVSPost2010Prop38
140
0.0
102
RTVSPost2010PropOp38
 70
     1
102
RTVSPost2010Prop39
140
1.0
102
RTVSPost2010PropOp39
 70
     1
102
RTVSPost2010Prop40
 90
        0
102
RTVSPost2010PropOp40
 70
     1
102
RTVSPost2010Prop41ColorIndex
 90
       18
102
RTVSPost2010Prop41ColorRGB
 90
        0
102
RTVSPost2010PropOp41
 70
     1
102
RTVSPost2010Prop42
 90
       50
102
RTVSPost2010PropOp42
 70
     1
102
RTVSPost2010Prop43
 90
        3
102
RTVSPost2010PropOp43
 70
     1
102
RTVSPost2010Prop44ColorIndex
 90
        5
102
RTVSPost2010Prop44ColorRGB
 90
      255
102
RTVSPost2010PropOp44
 70
     1
102
RTVSPost2010Prop45
280
     0
102
RTVSPost2010PropOp45
 70
     1
102
RTVSPost2010Prop46
 90
       50
102
RTVSPost2010PropOp46
 70
     1
102
RTVSPost2010Prop47
 90
       50
102
RTVSPost2010PropOp47
 70
     1
102
RTVSPost2010Prop48
 90
       50
102
RTVSPost2010PropOp48
 70
     1
102
RTVSPost2010Prop49
280
     0
102
RTVSPost2010PropOp49
 70
     1
102
RTVSPost2010Prop50
 90
       50
102
RTVSPost2010PropOp50
 70
     1
102
RTVSPost2010Prop51ColorIndex
 90
      256
102
RTVSPost2010Prop51ColorRGB
 90
-16777216
102
RTVSPost2010PropOp51
 70
     0
102
RTVSPost2010Prop52
140
1.0
102
RTVSPost2010PropOp52
 70
     0
102
RTVSPost2010Prop53
 90
        2
102
RTVSPost2010PropOp53
 70
     1
102
RTVSPost2010Prop54
  1
strokes_ogs.tif
102
RTVSPost2010PropOp54
 70
     1
102
RTVSPost2010Prop55
280
     0
102
RTVSPost2010PropOp55
 70
     1
102
RTVSPost2010Prop56
140
1.0
102
RTVSPost2010PropOp56
 70
     1
102
RTVSPost2010Prop57
140
1.0
102
RTVSPost2010PropOp57
 70
     1
  0
ENDSEC
  0
SECTION
  2
THUMBNAILIMAGE
 90
    17448
310
28000000800000008000000001000800000000000000000000000000000000000000000000000000FFFFFF000000FF0000FFFF0000FF0000FFFF0000FF000000FF00FF000000000080808000C0C0C0000000FF007F7FFF000000A5005252A50000007F003F3F7F0000004C0026264C000000260013132600003FFF007F9FFF
310
000029A5005267A500001F7F003F4F7F0000134C00262F4C000009260013172600007FFF007FBFFF000052A500527CA500003F7F003F5F7F0000264C0026394C0000132600131C260000BFFF007FDFFF00007CA5005291A500005F7F003F6F7F0000394C0026424C00001C26001321260000FFFF007FFFFF0000A5A50052A5
310
A500007F7F003F7F7F00004C4C00264C4C00002626001326260000FFBF007FFFDF0000A57C0052A59100007F5F003F7F6F00004C3900264C420000261C001326210000FF7F007FFFBF0000A5520052A57C00007F3F003F7F5F00004C2600264C39000026130013261C0000FF3F007FFF9F0000A5290052A56700007F1F003F
310
7F4F00004C1300264C2F00002609001326170000FF00007FFF7F0000A5000052A55200007F00003F7F3F00004C0000264C260000260000132613003FFF00009FFF7F0029A5000067A552001F7F00004F7F3F00134C00002F4C260009260000172613007FFF0000BFFF7F0052A500007CA552003F7F00005F7F3F00264C0000
310
394C2600132600001C261300BFFF0000DFFF7F007CA5000091A552005F7F00006F7F3F00394C0000424C26001C26000021261300FFFF0000FFFF7F00A5A50000A5A552007F7F00007F7F3F004C4C00004C4C26002626000026261300FFBF0000FFDF7F00A57C0000A59152007F5F00007F6F3F004C3900004C422600261C00
310
0026211300FF7F0000FFBF7F00A5520000A57C52007F3F00007F5F3F004C2600004C39260026130000261C1300FF3F0000FF9F7F00A5290000A56752007F1F00007F4F3F004C1300004C2F26002609000026171300FF000000FF7F7F00A5000000A55252007F0000007F3F3F004C0000004C2626002600000026131300FF00
310
3F00FF7F9F00A5002900A55267007F001F007F3F4F004C0013004C262F002600090026131700FF007F00FF7FBF00A5005200A5527C007F003F007F3F5F004C0026004C2639002600130026131C00FF00BF00FF7FDF00A5007C00A55291007F005F007F3F6F004C0039004C26420026001C0026132100FF00FF00FF7FFF00A5
310
00A500A552A5007F007F007F3F7F004C004C004C264C002600260026132600BF00FF00DF7FFF007C00A5009152A5005F007F006F3F7F0039004C0042264C001C002600211326007F00FF00BF7FFF005200A5007C52A5003F007F005F3F7F0026004C0039264C00130026001C1326003F00FF009F7FFF002900A5006752A500
310
1F007F004F3F7F0013004C002F264C000900260017132600000000002D2D2D005B5B5B0089898900B7B7B700B3B3B30000000000000000000000000000000000000000000000000000000000000000000000000000000000000000000000000000000000000000000000000000000000000000000000000000000000000000
310
00000000000000000000000000000000000000000000000000000000000000000000000000000000000000000000000000000000000000000000000000000000000000000000000000000000000000000000000000000000000000000000000000000000000000000000000000000000000000000000000000000000000000
310
00000000000000000000000000000000000000000000000000000000000000000000000000000000000000000000000000000000000000000000000000000000000000000000000000000000000000000000000000000000000000000000000000000000000000000000000000000000000000000000000000000000000000
310
00000000000000000000000000000000000000000000000000000000000000000000000000000000000000000000000000000000000000000000000000000000000000000000000000000000000000000000000000000000000000000000000000000000000000000000000000000000000000000000000000000000000000
310
00000000000000000000000000000000000000000000000000000000000000000000000000000000000000000000000000000000000000000000000000000000000000000000000000000000000000000000000000000000000000000000000000000000000000000000000000000000000000000000000000000000000000
310
00000000000000000000000000000000000000000000000000000000000000000000000000000000000000000000000000000000000000000000000000000000000000000000000000000000000000000000000000000000000000000000000000000000000000000000000000000000000000000000000000000000000000
310
00000000000000000000000000000000000000000000000000000000000000000000000000000000000000000000000000000000000000000000000000000000000000000000000000000000000000000000000000000000000000000000000000000000000000000000000000000000000000000000000000000000000000
310
00000000000000000000000000000000000000000000000000000000000000000000000000000000000000000000000000000000000000000000000000000000000000000000000000000000000000000000000000000000000000000000000000000000000000000000000000000000000000000000000000000000000000
310
00000000000000000000000000000000000000000000000000000000000000000000000000000000000000000000000000000000000000000000000000000000000000000000000000000000000000000000000000000000000000000000000000000000000000000000000000000000000000000000000000000000000000
310
00000000000000000000000000000000000000000000000000000000000000000000000000000000000000000000000000000000000000000000000000000000000000000000000000000000000000000000000000000000000000000000000000000000000000000000000000000000000000000000000000000000000000
310
00000000000000000000000000000000000000000000000000000000000000000000000000000000000000000000000000000000000000000000000000000000000000000000000000000000000000000000000000000000000000000000000000000000000000000000000000000000000000000000000000000000000000
310
00000000000000000000000000000000000000000000000000000000000000000000000000000000000000000000000000000000000000000000000000000000000000000000000000000000000000000000000000000000000000000000000000000000000000000000000000000000000000000000000000000000000000
310
00000000000000000000000000000000000000000000000000000000000000000000000000000000000000000000000000000000000000000000000000000000000000000000000000000000000000000000000000000000000000000000000000000000000000000000000000000000000000000000000000000000000000
310
00000000000000000000000000000000000000000000000000000000000000000000000000000000000000000000000000000000000000000000000000000000000000000000000000000000000000000000000000000000000000000000000000000000000000000000000000000000000000000000000000000000000000
310
00000000000000000000000000000000000000000000000000000000000000000000000000000000000000000000000000000000000000000000000000000000000000000000000000000000000000000000000000000000000000000000000000000000000000000000000000000000000000000000000000000000000000
310
00000000000000000000000000000000000000000000000000000000000000000000000000000000000000000000000000000000000000000000000000000007070707070707070707070707070707070707070707070707070707070707070707070707070707070707070707070707070707070707070707070707070707
310
07070707070707070707070707070707070707070707070707070707070707070707070707070707070707070707070707070707070707070707070707070707000000000000000000000000000000000000000000000000000000000000000000000000000000000000000000000000000000000000000000000000000000
310
00000000000000000000000000000000000000000000000000000000000000000000000000000000000000000000000000000000000000000000000000000000000000000007070700000000070707000000070707070000000707070000000707070700000007070700000007070707000000070707000000000707070000
310
000707070000000007070700000007070700000000070707000000070707070000000707070000000707070700000007070700000000070707000000070707000000FBFBFBFBFBFBFBFBFBFBFBFBFBFBFBFBFBFBFBFBFBFBFBFBFBFBFBFBFBFBFBFBFBFBFBFBFBFBFBFBFBFBFBFBFCFBFBFBFBFBFBFBFBFBFBFCFBFBFBFBFB
310
FBFBFBFBFBFBFBFBFBFBFBFBFBFBFBFBFBFBFBFBFBFBFBFBFBFBFBFBFBFBFBFBFBFBFBFBFBFBFBFBFBFBFBFBFBFBFBFBFBFBFBFBFBFBFBFBFBFBFBFBFBFBFBFBFBFBFB0000000000000000000000000000000000000000000000000000000000000000FB0000000000000000000000FC00000000000000000000FC00000000
310
000000000000FB00FCFCFCFC00FCFC00FCFC00FC00FCFCFCFCFCFCFCFCFCFCFC00FCFCFCFCFCFCFCFCFB00000000000000000000000000000000000000000000000000000000000000000000000000000000000000000000000000000000000000000000FB00FCFCFCFCFCFCFCFCFC00FC00000001010101000000FC010001
310
01010101010101FB00FCFCFCFC00FCFCFCFCFCFCFC0000FCFCFCFCFCFCFCFCFC00FCFCFCFCFC00FCFC00FB0000000000000000000000000000000000000000000000000000FCFCFCFCFCFCFCFCFCFCFCFCFCFCFCFCFCFCFCFCFCFCFCFCFCFCFCFCFCFCFCFCFB00FCFCFCFCFCFCFCFCFC00FC00000001010100000000FC0101
310
0100010101010101FB00000000000000000000000000000000000000000000000000000000000000000000FB00000000000000000000000100000100010001010101010101010000000000000000000000000000000000000000000000000000000000000000FB00FCFCFCFCFCFCFCFCFC00FC00000000000001000000FC01
310
000001010101010100FBFDFD00FD00FDFDFDFDFDFDFDFDFDFDFD00FDFDFDFDFDFD00FD0000FDFD00FDFDFDFDFBFCFCFC00FCFCFC00000000010101010100000101010101010101FCFCFCFCFCFCFCFCFCFCFCFCFCFCFCFCFCFCFCFCFCFCFCFCFCFCFCFCFCFCFCFCFB00000000000000FC000000000000000000000000000000
310
00000000000000000000FBFDFDFD00FDFDFDFDFDFDFDFDFDFD00FD00FDFDFD00FDFDFD00FD00FDFDFDFDFDFD00FBFCFCFC00FCFC00000000000000010101000001010101010100000000000000000000000000000000000000000000000000000000000000000000FB0000FCFCFCFCFCFC000000FCFCFCFCFCFCFCFC000000
310
FCFCFCFCFCFCFC00000000FBFDFDFDFDFDFDFDFDFDFDFDFDFDFDFDFD0000FDFD00000000FDFDFD00FD0000FDFD00FBFCFCFCFC00000000000000000000000000000000000000000000FCFCFCFCFCFCFCFCFCFCFCFCFCFCFCFCFCFCFCFCFCFCFCFCFCFCFCFCFCFCFCFCFBFCFCFCFCFCFCFCFCFCFCFCFCFCFCFCFCFCFCFCFCFC
310
FCFCFCFCFCFCFCFCFCFCFCFCFBFBFBFBFBFBFBFBFBFBFBFBFBFBFBFBFBFBFBFBFBFBFBFBFBFBFBFBFBFBFBFBFBFBFBFBFCFCFCFCFCFCFCFCFCFCFCFCFCFCFCFCFCFCFCFCFCFCFCFCFCFC0000000000000000000000000000000000000000000000000000000000000000FB0000000000000000000000FC0000000000000000
310
0000FC00000000000000000000FB00000000000000000000000000000000000000000000000000000000000000000000FB0000000000000000000000000000000000010101010101010001FCFCFCFCFCFCFCFCFCFCFCFCFCFCFCFCFCFCFCFCFCFCFCFCFCFCFCFCFCFCFCFCFB0000000000000000000000FC00000000000000
310
000000FC00000101010001000000FB00000000000000000000000000000000000000000000000000000000000000000000FB00000100010001010001010100010101000001010101010000000000000000000000000000000000000000000000000000000000000000000000FB0000000000000000000000FC000000000000
310
00000000FC00000101010101000000FB00000000000000000000000000000000000000000000000000000000000000000000FB00000101010101010001010101010101000000000000000000000000000000000000000000000000000000000000000000000000000000000000FB0000000000000000000000FC0000000000
310
0000000000FC00000000000000000000FBFCFCFCFCFCFCFCFCFCFCFCFCFCFCFCFCFCFCFCFCFCFCFCFCFCFCFCFCFCFCFCFCFCFCFB0000010101010000000100010001010000010101010101010101FCFCFCFCFCFCFCFCFCFCFCFCFCFCFCFCFCFCFCFCFCFCFCFCFCFCFCFCFCFCFCFCFB00FCFCFCFCFCFCFCFCFC00FCFCFCFCFC
310
FCFCFCFCFC00FCFCFC00FCFCFCFCFC0000FB00000000000000000000000000000000000000000000000000000000000000000000FBFCFCFCFCFCFCFC00000000000000000000010101010101000101FC00FCFCFCFCFCFCFCFCFCFCFCFC000000000000000000000000000000000000FBFCFCFCFCFCFCFCFCFCFC00FCFCFCFC
310
FCFCFCFCFCFC00FCFCFC00FCFCFCFCFC0000FB00000000000000000000000000000000000000000000000000000000000000000000FBFCFCFCFCFC00FC00000000000000000000000000000000000000FBFBFBFBFBFBFBFBFBFBFBFBFBFBFBFBFBFBFBFBFBFBFBFBFBFBFBFBFBFBFBFBFBFBFBFBFBFBFBFBFBFBFBFBFCFBFB
310
FBFBFBFBFBFBFBFBFCFBFBFBFBFBFBFBFBFBFBFBFBFBFBFBFBFBFBFBFBFBFBFBFBFBFBFBFBFBFBFBFBFBFBFBFBFBFBFBFBFBFBFBFBFBFBFBFBFBFBFBFBFBFBFBFBFBFBFBFBFBFBFBFBFBFBFBFBFBFBFBFB00000000000000000000000000000000000000000000000000000000000000000000000000000000000000000000
310
00000000000000000000000000000000000000000000000000000000000000000000000000000000000000000000000000000000000000000000000000000000000000000000000000000000000000010101000000000000000000000000000000000000000000000000000000000000000000000000000000000000000000
310
00000000000000000000000000000000000000000000000000000000000000000000000000000000000000000000000000000000000000000000000000000000000000000000000000000000000000000101010000000000000000000000000000000000000000000000000000000000000000000000000000000000000000
310
00000000000000000000000000000000000000000000000000000000000000000000000000000000000000000000000000000000000000000000000000000000000000000000000000000000000000000001010000000000000000000000000000000000000000000000000000000000000000000000000000000000000000
310
00000000000000000000000000000000000000000000000000000000000000000000000000000000000000000000000000000000000000000000000000000000000000000000000000000000000000000000000000000000000000000000000000000000000000000000000000010101010101000000000000000000000000
310
00000000000000000000000000000000000000000000000000000000000000000000000000000000000000000000000000000000000000000000000000000000000000000000000000000000000000000000000000000000000000000000000000000000000000000000000000000101010000010000000101010101000000
310
00000000000001010101010101010101000000000000000000000000000000000000000000000000000000000000000000000000000000000000000000000000000000000000000000000000000000000000000000000000000000000000000000000000000000000000000000000001010101010000000001010101010100
310
00000000000000010101010100000100000000000000000000000000000000000000000000000000000000000000000000000000000000000000000000000000000000000000000000000000000000000000000000000000000000000000000000000000000000000000000000000100010101000101000000000000000000
310
00000000000000000001010101010101010100010000000000000000000000000000000000000000000000000000000000000000000000000000000000000000000000000000000000000000000000000000000000000000000000000000000000000000000000000000000000000001010101010101010000000000000000
310
00000000000000000000010101010100010101000101000000000000000000000000000000000000000000000000000000000000000000000000000000000000000000000000000000000000000000000000000000000000000000000000000000000000000000000101000100000001000101010101010000000000000000
310
00000000000000000000000100000000010101010000010000000000000000000000000000000000000000000000000000000000000000000000000000000000000000000000000000000000000000000000000000000000000000000000000000000000000000000000000001000000010101010001010100000000010101
310
01010101010101010100000101010101010101010101010101010000000000000000000000000000000000000000000000000000000000000000000000000000000000000000000000000000000000000000000000000000000000000000000000000000000000000000010100010100000101000101000001010000000101
310
00010101010101000100010000010000010001010100000101010100000000000000000000000000000000000000000000000000000000000000000000000000000000000000000000000000000000000000000000000000000000000000000000000000000000000001010100000001000101000101010101010000000000
310
01010001010100000000000000010101010101010101010001010000000000000000000000000000000000000000000000000000000000000000000000000000000000000000000000000000000000000000000000000000000000000000000000000000000000000000010101000101010001010001010101010100000000
310
00010101010101000000000000000100010101010101010001000101000000000000000000000000000000000000000000000000000000000000000000000000000000000000000000000000000000000000000000000000000000000000000000000000000000000000000101010000010100010100000101000101000000
310
00010101010101010101010100000001010100010000000000000000000000000000000000000000000000000000000000000000000000000000000000000000000000000000000000000000000000000000000000000000000000000000000000000000000000000000000001010100000101000101000101010101010000
310
00000101010001000101010100000000010101010100000000000000000000000000000000000000000000000000000000000000000000000000000000000000000000000000000000000000000000000000000000000000000000000000000000000000000000000000000000010101000101010000010001010101010100
310
00000001010000000000000000000000000001010000000000000000000000000000000000000000000000000000000000000000000000000000000000000000000000000000000000000000000000000000000000000000000000000000000000000000000000000000000000000001010001010100000100010101010101
310
00000000000000000000000000000000000000000000000000000000000000000000000000000000000000000000000000000000000000000000000000000000000000000000000000000000000000000000000000000000000000000000000000000000000000000000000000000000000100010101000001000101010101
310
01000000000000000000000000000000000000000000000000000000000000000000000000000000000000000000000000000000000000000000000000000000000000000000000000000000000000000000000000000000000000000000000000000000000000000000000000000000000001000000010000010001010101
310
01010000000000000001010101010001010101010101010101010101010101000000000000000000000000000000000000000000000000000000000000000000000000000000000000000000000000000000000000000000000000000000000000000000000000000000000000000000000000010000000100000100000101
310
00010100000000000000010100000000010101010101010101010001010101010000000000000000000000000000000000000000000000000000000000000000000000000000000000000000000000000000000000000000000000000000000000000000000000000000000000000000000000000100000001000001000001
310
01000101000000000101010101010101010101010101010101010101010101010101010101010101010101000000000000000000000000000000000000000000000000000000000000000000000000000000000000000000000000000000000000000000000000000000000000000000000000000001000001010000010000
310
01010001010100000001000000000100000101010101010100010100000100010101010101010101010101010100000000000000000000000000000000000000000000000000000000000000000000000000000000000000000000000000000000000000000000000000000000000000000000000000010000000100000100
310
00000101000101010000010101010101010101010101010101010101010101010101010101010101010101010101000000000000000000000000000000000000000000000000000000000000000000000000000000000000000000000000000000000000000000000000000000000000000000000000000100010100010001
310
00000101000101010000000100000000010001010101010101000101000000010001010101010101010101010100010000000000000000000000000000000000000000000000000000000000000000000000000000000000000000000000000000000000000000000000000000000000000000000000000001000101000100
310
01000001010000010000000001000000000100000101000001010001010000000100010001000100000100010100000100000000000000000000000000000000000000000000000000000000000000000000000000000000000000000000000000000000000000000000000000000000000000000000000000010001000001
310
00010000000100000100000000010101010101010101010101010101010101010101010101010101010101010101010101000000000000000000000000000000000000000000000000000000000000000000000000000000000000000000000000000000000000000000000000000000000000000000000000000100010000
310
01000100000001000001000000000100010100010101010101010100000101010001010101010101010101010101010101010000000000000000000000000000000000000000000000000000000000000000000000000000000000000000000000000000000000000000000000000000000000000000000000000001010100
310
00010101000000010101010000000001010101010101010101010101010101010101010101010101010101010101010101010100000000000000000000000000000000000000000000000000000000000000000000000000000000000000000000000000000000000000000000000000000000000000000000000000000000
310
00000000000000000000000000000000000000000000000000000000000000000000000000000000000000000000000000000000000000000000000000000000000000000000000000000000000000000000000000000000000000000000000000000000000000000000000000000000000000000000000000000000000000
310
00000000000000000000000000000000000000000000000000000000000000000000000000000000000000000000010101010101010101010101010101010101010101010101010101010101010101010101010101010101010101010100000000000000000000000000000000000000000000000000000000000000000000
310
00000000000000000000000000000000000000000000000000000000000000000000000000000000000000000000000100000000000000000001010000000000000000010000000000000000000000000101000000000000000000000001000000000000000000000000000000000000000000000000000000000000000000
310
00000000000000000000000000000000000000000000000000000000000000000000000000000000000000000000000001000000000000000000000000000000000000000100000000000000000000000000000000000000000000000000010000000000000000000000000000000000000000000000000000000000000000
310
00000000000000000000000000000000000000000000000000000000000000000000000000000000000000000000000000010000000000000000000000000000000000000101010101000000000000000001010101010101010101010101010100000000000000000000000000000000000000000000000000000000000000
310
00000000000100010101010100000000000000000000000000000000000000000000000000000000000000000000000000000100000000000000000000000000000000000001010101000000000000000000010000000000010100000000000101000000000000000000000000000000000000000000000000000000000000
310
00000000000101010101010101000000000000000000000000000000000000000000000000000000000000000000000000000001000000000000000000000000000000000000000101010000000000000000000100000000000100000000000000010000000000000000000000000000000000000000000000000000000000
310
00000000000000000101010100010000000000000400000000000000000000000000000000000000000000000000000000000000010000000000000000000000000000000000000001000100000000000000000001000000010100000000000000000100000000000000000000000000000000000000000000000000000000
310
00000000000000010101010100000100000000000004000000000000000000000000000000000000000000000000000000000000000100000000000000000000000000000000000000010001000000000000000000010000010001000101010000000001000000000000000000000000000000000000000000000000000000
310
00000000000000000000010001000001000000000707040707070000000000000000000000000000000000000000000000000000000001000000000000000000000000000000000000000707070000000000000707070406010100000000000101000000010000000000000000000000000000000000000000000000000000
310
00000000000000000000000000000000010707070700000400000007070707000000000000000000000000000000000000000000000000010100000000000000000000000000000000000007000700000000000007070704010100000101010101010100000100000000000000000000000000000000000000000000000000
310
00000000000000000000000000000000000700000000000404000400000000000700000000000000000000000000000000000000000000000101010101010000000000000000000000000004070404040000000000070707040707000000010101010101000001000000000000000000000000000000000000000000000000
310
00000000000000000000000000000000040701000004040400040000000404000000070000000000000000000000000000000000000000000001000101000100000000000000000000000000000700070000000000000700000400070000000000000000000000010000000000000000000000000000000000000000000000
310
00000000000000000000000000000000000707070700000000000000000000000407070707000000000000000000000000000000000000000000010000000001000000000000000000000000000007000700000000000007000000000707070701010101010101010101010101000000000000000000000000000000000000
310
00000000000000000000000000000000000707000407000000000007000000000000070400070700000000000000000000000000000000010101010707070707070000000000000000000000000000070007000000000000070000040006070707070707070707070001000000010000000000000000000000000000000000
310
00000000000000000000000000000000000700000707070000000000070701000000000707070000070000000000000000000000000000000001000007000000000700000000000000000000000000000700070000000007000006060406060707070706000000000000010000000100000000000000000000000000000000
310
00000000000000000000000000000000000007000104000000000000010707010100000000000004000700000000000000000000000000000001000000070000000007000000000000000000000000000007000700000007000600000004000607000006060000000007070100000001000000000000000000000000000000
310
00000000000000000000000000000000000007000004010000000000000007070001000000000000040000070000000000000000000000000000010000000700000000070000000000000000000007070707070007000000070006000000000006070707060600000000070700000000010000000000000000000000000000
310
00000000000000000000000000000000000000070000000001010000000707070707070000000000000004000700000000000000000000000000000100000007000000000700000000000000000700000101010700070707070000060000000000060707070006000000000700070000000100000000000000000000000000
310
00000000000000000000000000000000000000000700040000000001010707000707070707000000000000000007000000000000000000000000000101000000070000000007000000000000000007000001000007000700000600000600000000000607000006060000000007000700000001000000000000000000000000
310
00000000000000000000000000000000000000000101010100000000000001000007070607070000000000000400070000000000000000000000000000010000000700070707070707070707000000070000010000070007000006000006000000000006070000060600000000070007000101010000000000000000000000
310
00000000000000000000000000000000000000000007000004010101010101000101070706000707000000000000000007000000000000000000000000000100000007060606060606060707060707070700000100000700070000060000060000000000060707070606000000000700070001010100000000000000000000
310
00000000000000000000000000000000000000000000040404040404040404070101010101010407070404040400040404040400000000000000000000000001000000070707070700040007070704010407040404040407040704040604000404040400040607040404060400040407070400010101000000000000000000
310
00000000000000000000000000000000000000000000000700000000000000000707000607070101010101010101000400000700000000000000000000000000010000000706060606060606070706010707070001010000070007000006000006000000000006070707060600000000070000000101010000000000000000
310
00000000000000000000000000000000000000000000000000070004000000000000070000070700070100000101010101010101000000000000000000000000000101010101000707070707070707070101000700010100000700070000060000060000000000060700000606000000000700070001010100000000000000
310
00000000000000000000000000000000000000000000000000000700040000000000000707000000070707010100010004000007000000000000000000000000000000000000010000000000000000000001010007000101000007000700000600000600000000000607000006060000000007000700000001000000000000
310
00000000000000000000000000000000000000000000000000000007000004000000000000070707070707000101010100000000070000000000000000000000000000000000000100000000000000000001010100070707070707070007000707000006000000000006070707070600000000070007000000010000000000
310
00000000000000000000000000000000000000000000000000000000000700040000000000000000070700000000010101010100070000000000000000000000000000000000000100000000000000000000010101000000000100010700070000000700060000000000060707070606000000000707000000000100000000
310
00000000000000000000000000000000000000000000000000000000000007000004070000000000000400000000000004070400000700000000000000000000000000000000000001000000000000000000000100000000000001010007000700000000070600000000000607000006060000000007000000000001000000
310
00000000000000000000000000000000000000000000000000000000000000000700070407000000000004000000000000070407000700000000000000000000000000000000000000010000000000000000000100000000000000000000070007000000000701070700000006070707070600000000070000000001010000
310
00000000000000000000000000000000000000000000000000000000000000000000070404070000000000040000000000000700040700000000000000000000000000000000000000010000000000000000000001000000000000000000000700070000000000010000070707060107070101010101010101010101010100
310
00000000000000000000000000000000000000000000000000000000000000000000000407070704000000000400000000000007070700000000000000000000000000000000000000000100000000000000000000010000000000000000000007000700000000000100000000000001010000000000000101000000000000
310
00000000000000000000000000000000000000000000000000000000000000000000000000000700000404000004000004040400000700000000000000000000000000000000000000000001000000000000000000010000000000000000000000070007000000000001000000000000010000000000000001000000000000
310
00000000000000000000000000000000000000000000000000000000000000000000000000000000070700000004000404000000070700000000000000000000000000000000000000000001000000000000000000000100000000000000000000040704070400000001000000000000000100000000000000010000000000
310
00000000000000000000000000000000000000000000000000000000000000000000000000000000000000070707000400070707070000000000000000000000000000000000000000000000010000000000000000000001000000000000000000000007000700000000010000000000000001000000000000000100000000
310
00000000000000000000000000000000000000000000000000000000000000000000000000000000000000000000000704070000000000000000000000000000000000000000000000000000000100000000000000000000010000000000000000000000070107000000000100000000000000010000000000000001000000
310
00000000000000000000000000000000000000000000000000000000000000000000000000000000000000000000000000040000000000000000000000000000000000000000000000000000000100000000000000000000010000000000000000000000000001000000000001000000000000000100000000000000000100
310
00000000000000000000000000000000000000000000000000000000000000000000000000000000000000000000000000000400000000000000000000000000000000000000000000000000000001000000000000000000000100000000000000000000000001000000000000010000000000000000010000000000000001
310
00000000000000000000000000000000000000000000000000000000000000000000000000000000000000000000000000000000000000000000000000000000000000000000000000000000000000010000000000000000000001000000000000000000000000010000000000010000000000000000000100000000000000
310
01000000000000000000000000000000000000000000000000000000000000000000000000000000000000000000000000000000000000000000000000000000000000000000000000000000000000010000000000000000000001000000000000000000000000010000000000000100000000000000000001000000000000
310
00010000000000000000000000000000000000000000000000000000000000000000000000000000000000000000000000000000000000000000000000000000000000000000020202020202020202020102020202020202020201010202020202020101010101010102020202020201010101010101010202010101020101
310
01020101010101010101020202000000000000000000000000000000000000000000000000000000000000000000000000000000000000000000000000000000000000000000000000000001010101010100000000000101010101010000000000000000010000010101000000000000010001010101010100000101010101
310
01010000010101010101010000000000000000000000000000000000000000000000000000000000000000000000000000000000000000000000000000000000000000000000000000000000000000000000000000000000000000000000000000000000010101010101010100000000000101010101010101000000000000
310
00000000000001010001000000000000000000000000000000000000000000000000000000000000000000000000000000000000000000000000000000000000000000000000000000000000000000000000000000000000000000000000000000000000000101010101010101010000000001010101010101010100000000
310
00000000000001010101010101010000000000000000000000000000000000000000000000000000000000000000000000000000000000000000000000000000000000000000000000000000000000000000000000000000000000000000000000000000000001000101010101010100000000000100010101000101000000
310
00000000000000010001010100010100000000000000000000000000000000000000000000000000000000000000000000000000000000000000000000000000000000000000000000000000000000000000000000000000000000000000000000000000000000010101010101000000000000000000000000000000000000
310
00000000000000000000000000000000000000000000000000000000000000000000000000000000000000000000000000000000000000000000000000000000000000000000000000000000000000000000000000000000000000000000000000000000000000000000010101000000000000000000000000000000000000
310
00000000000000000000000000000000000000000000000000000000000000000000000000000000000000000000000000000000000000000000000000000000000000000000000000000000000000000000000000000000000000000000000000000000000000000000000000000000000000000000000000000000000000
310
00000000000000000000000000000000000000000000000000000000000000000000000000000000000000000000000000000000000000000000000000000000000000000000000000000000000000000000000000000000000000000000000000000000000000000000000000000000000000000000000000000000000000
310
00000000000000000000000000000000000000000000000000000000000000000000000000000000000000000000000000000000000000000000000000000000000000000000000000000000000000000000000000000000000000000000000000000000000000000000000000000000000000000000000000000000000000
310
00000000000000000000000000000000000000000000000000000000000000000000000000000000000000000000000000000000000000000000000000000000000000000000000000000000000000000000000000000000000000000000000000000000000000000000000000000000000000000000000000000000000000
310
00000000000000000000000000000000000000000000000000000000000000000000000000000000000000000000000000000000000000000000000000000000000000000000000000000000000000000000000000000000000000000000000000000000000000000000000000000000000000000000000000000000000000
310
0000000000000000000000000000000000000000000000000000000000000000000000FBFBFBFBFBFBFBFBFBFBFBFBFBFBFBFBFBFBFBFBFBFBFBFBFBFBFBFBFBFBFBFBFBFBFBFBFBFBFBFBFBFBFBFBFBFBFBFBFBFBFBFBFBFBFBFBFBFBFBFBFBFBFBFBFBFBFBFBFBFBFBFBFBFBFBFBFBFBFBFBFBFBFBFBFBFBFBFBFBFBFBFB
310
FBFBFBFBFBFBFBFBFBFBFBFBFBFBFBFBFBFBFBFBFBFBFBFBFBFBFBFBFBFBFBFBFBFBFBFB00000000000000000000000000000000000000000000000000000000000000000000000000000000000000000000000000000000000000000000000000000000000000000000000000000000000000000000000000000000000000
310
00000000000000000000000000000000000000000000000000000000000000000000000000000000070707000000000707070000000707070700000007070700000007070707000000070707000000070707070000000707070000000007070700000007070700000000070707000000070707000000000707070000000707
310
07070000000707070000000707070700000007070700000000070707000000070707000000000000000000000000000000000000000000000000000000000000000000000000000000000000000000000000000000000000000000000000000000000000000000000000000000000000000000000000000000000000000000
310
00000000000000000000000000000000000000000000000000000000000000000000000000000007070707070707070707070707070707070707070707070707070707070707070707070707070707070707070707070707070707070707070707070707070707070707070707070707070707070707070707070707070707
310
07070707070707070707070707070707070707070707070707070707070707070707070707070707000000000000000000000000000000000000000000000000000000000000000000000000000000000000000000000000000000000000000000000000000000000000000000000000000000000000000000000000000000
310
00000000000000000000000000000000000000000000000000000000000000000000000000000000000000000000000000000000000000000000000000000000000000000000000000000000000000000000000000000000000000000000000000000000000000000000000000000000000000000000000000000000000000
310
00000000000000000000000000000000000000000000000000000000000000000000000000000000000000000000000000000000000000000000000000000000000000000000000000000000000000000000000000000000000000000000000000000000000000000000000000000000000000000000000000000000000000
310
00000000000000000000000000000000000000000000000000000000000000000000000000000000000000000000000000000000000000000000000000000000000000000000000000000000000000000000000000000000000000000000000000000000000000000000000000000000000000000000000000000000000000
310
00000000000000000000000000000000000000000000000000000000000000000000000000000000000000000000000000000000000000000000000000000000000000000000000000000000000000000000000000000000000000000000000000000000000000000000000000000000000000000000000000000000000000
310
00000000000000000000000000000000000000000000000000000000000000000000000000000000000000000000000000000000000000000000000000000000000000000000000000000000000000000000000000000000000000000000000000000000000000000000000000000000000000000000000000000000000000
310
00000000000000000000000000000000000000000000000000000000000000000000000000000000000000000000000000000000000000000000000000000000000000000000000000000000000000000000000000000000000000000000000000000000000000000000000000000000000000000000000000000000000000
310
00000000000000000000000000000000000000000000000000000000000000000000000000000000000000000000000000000000000000000000000000000000000000000000000000000000000000000000000000000000000000000000000000000000000000000000000000000000000000000000000000000000000000
310
00000000000000000000000000000000000000000000000000000000000000000000000000000000000000000000000000000000000000000000000000000000000000000000000000000000000000000000000000000000000000000000000000000000000000000000000000000000000000000000000000000000000000
310
00000000000000000000000000000000000000000000000000000000000000000000000000000000000000000000000000
  0
ENDSEC
  0
EOF
