  0
SECTION
  2
HEADER
  9
$ACADVER
  1
AC1018
  9
$ACADMAINTVER
 70
     0
  9
$DWGCODEPAGE
  3
ANSI_932
  9
$INSBASE
 10
0.0
 20
0.0
 30
0.0
  9
$EXTMIN
 10
795.926793240782
 20
-587.9291900343007
 30
0.0
  9
$EXTMAX
 10
1413.133655280034
 20
279.7536190172423
 30
0.0
  9
$LIMMIN
 10
-360.7475667952417
 20
4.457354754525567
  9
$LIMMAX
 10
-162.1536961442673
 20
287.6754402640176
  9
$ORTHOMODE
 70
     1
  9
$REGENMODE
 70
     1
  9
$FILLMODE
 70
     1
  9
$QTEXTMODE
 70
     0
  9
$MIRRTEXT
 70
     1
  9
$LTSCALE
 40
1.0
  9
$ATTMODE
 70
     1
  9
$TEXTSIZE
 40
2.333873885063326
  9
$TRACEWID
 40
1.0
  9
$TEXTSTYLE
  7
STANDARD
  9
$CLAYER
  8
寸法線
  9
$CELTYPE
  6
BYLAYER
  9
$CECOLOR
 62
   256
  9
$CELTSCALE
 40
10.0
  9
$DISPSILH
 70
     0
  9
$DIMSCALE
 40
1.0
  9
$DIMASZ
 40
6.0
  9
$DIMEXO
 40
0.625
  9
$DIMDLI
 40
3.75
  9
$DIMRND
 40
0.0
  9
$DIMDLE
 40
0.0
  9
$DIMEXE
 40
1.25
  9
$DIMTP
 40
0.1
  9
$DIMTM
 40
0.1
  9
$DIMTXT
 40
5.0
  9
$DIMCEN
 40
2.5
  9
$DIMTSZ
 40
0.0
  9
$DIMTOL
 70
     0
  9
$DIMLIM
 70
     0
  9
$DIMTIH
 70
     0
  9
$DIMTOH
 70
     0
  9
$DIMSE1
 70
     0
  9
$DIMSE2
 70
     0
  9
$DIMTAD
 70
     1
  9
$DIMZIN
 70
     8
  9
$DIMBLK
  1
Open30
  9
$DIMASO
 70
     1
  9
$DIMSHO
 70
     1
  9
$DIMPOST
  1

  9
$DIMAPOST
  1

  9
$DIMALT
 70
     0
  9
$DIMALTD
 70
     2
  9
$DIMALTF
 40
0.0394
  9
$DIMLFAC
 40
1.0
  9
$DIMTOFL
 70
     1
  9
$DIMTVP
 40
1.0
  9
$DIMTIX
 70
     0
  9
$DIMSOXD
 70
     0
  9
$DIMSAH
 70
     0
  9
$DIMBLK1
  1

  9
$DIMBLK2
  1

  9
$DIMSTYLE
  2
ISO-25
  9
$DIMCLRD
 70
     0
  9
$DIMCLRE
 70
     0
  9
$DIMCLRT
 70
     0
  9
$DIMTFAC
 40
1.0
  9
$DIMGAP
 40
0.625
  9
$DIMJUST
 70
     0
  9
$DIMSD1
 70
     0
  9
$DIMSD2
 70
     0
  9
$DIMTOLJ
 70
     1
  9
$DIMTZIN
 70
     0
  9
$DIMALTZ
 70
     0
  9
$DIMALTTZ
 70
     0
  9
$DIMUPT
 70
     0
  9
$DIMDEC
 70
     1
  9
$DIMTDEC
 70
     1
  9
$DIMALTU
 70
     2
  9
$DIMALTTD
 70
     2
  9
$DIMTXSTY
  7
STANDARD
  9
$DIMAUNIT
 70
     0
  9
$DIMADEC
 70
     0
  9
$DIMALTRND
 40
0.0
  9
$DIMAZIN
 70
     0
  9
$DIMDSEP
 70
    46
  9
$DIMATFIT
 70
     3
  9
$DIMFRAC
 70
     0
  9
$DIMLDRBLK
  1
Open30
  9
$DIMLUNIT
 70
     2
  9
$DIMLWD
 70
    -2
  9
$DIMLWE
 70
    -2
  9
$DIMTMOVE
 70
     0
  9
$LUNITS
 70
     2
  9
$LUPREC
 70
     4
  9
$SKETCHINC
 40
1.0
  9
$FILLETRAD
 40
6.5
  9
$AUNITS
 70
     0
  9
$AUPREC
 70
     0
  9
$MENU
  1
.
  9
$ELEVATION
 40
0.0
  9
$PELEVATION
 40
0.0
  9
$THICKNESS
 40
0.0
  9
$LIMCHECK
 70
     0
  9
$CHAMFERA
 40
10.0
  9
$CHAMFERB
 40
10.0
  9
$CHAMFERC
 40
20.0
  9
$CHAMFERD
 40
0.0
  9
$SKPOLY
 70
     0
  9
$TDCREATE
 40
2450576.597302431
  9
$TDUCREATE
 40
2450576.222302431
  9
$TDUPDATE
 40
2455147.436017801
  9
$TDUUPDATE
 40
2455147.061017801
  9
$TDINDWG
 40
1.3237586690
  9
$TDUSRTIMER
 40
1.3237586690
  9
$USRTIMER
 70
     1
  9
$ANGBASE
 50
0.0
  9
$ANGDIR
 70
     0
  9
$PDMODE
 70
     0
  9
$PDSIZE
 40
0.0
  9
$PLINEWID
 40
0.0
  9
$SPLFRAME
 70
     0
  9
$SPLINETYPE
 70
     6
  9
$SPLINESEGS
 70
     8
  9
$HANDSEED
  5
7BFA
  9
$SURFTAB1
 70
     6
  9
$SURFTAB2
 70
     6
  9
$SURFTYPE
 70
     6
  9
$SURFU
 70
     6
  9
$SURFV
 70
     6
  9
$UCSBASE
  2

  9
$UCSNAME
  2

  9
$UCSORG
 10
0.0
 20
0.0
 30
0.0
  9
$UCSXDIR
 10
1.0
 20
0.0
 30
0.0
  9
$UCSYDIR
 10
0.0
 20
1.0
 30
0.0
  9
$UCSORTHOREF
  2

  9
$UCSORTHOVIEW
 70
     0
  9
$UCSORGTOP
 10
0.0
 20
0.0
 30
0.0
  9
$UCSORGBOTTOM
 10
0.0
 20
0.0
 30
0.0
  9
$UCSORGLEFT
 10
0.0
 20
0.0
 30
0.0
  9
$UCSORGRIGHT
 10
0.0
 20
0.0
 30
0.0
  9
$UCSORGFRONT
 10
0.0
 20
0.0
 30
0.0
  9
$UCSORGBACK
 10
0.0
 20
0.0
 30
0.0
  9
$PUCSBASE
  2

  9
$PUCSNAME
  2

  9
$PUCSORG
 10
0.0
 20
0.0
 30
0.0
  9
$PUCSXDIR
 10
1.0
 20
0.0
 30
0.0
  9
$PUCSYDIR
 10
0.0
 20
1.0
 30
0.0
  9
$PUCSORTHOREF
  2

  9
$PUCSORTHOVIEW
 70
     0
  9
$PUCSORGTOP
 10
0.0
 20
0.0
 30
0.0
  9
$PUCSORGBOTTOM
 10
0.0
 20
0.0
 30
0.0
  9
$PUCSORGLEFT
 10
0.0
 20
0.0
 30
0.0
  9
$PUCSORGRIGHT
 10
0.0
 20
0.0
 30
0.0
  9
$PUCSORGFRONT
 10
0.0
 20
0.0
 30
0.0
  9
$PUCSORGBACK
 10
0.0
 20
0.0
 30
0.0
  9
$USERI1
 70
     0
  9
$USERI2
 70
     0
  9
$USERI3
 70
     0
  9
$USERI4
 70
     0
  9
$USERI5
 70
     0
  9
$USERR1
 40
0.0
  9
$USERR2
 40
0.0
  9
$USERR3
 40
0.0
  9
$USERR4
 40
0.0
  9
$USERR5
 40
0.0
  9
$WORLDVIEW
 70
     1
  9
$SHADEDGE
 70
     3
  9
$SHADEDIF
 70
    70
  9
$TILEMODE
 70
     0
  9
$MAXACTVP
 70
    16
  9
$PINSBASE
 10
0.0
 20
0.0
 30
0.0
  9
$PLIMCHECK
 70
     0
  9
$PEXTMIN
 10
3.379715380909601
 20
2.834855338171948
 30
0.0
  9
$PEXTMAX
 10
283.3797153809096
 20
407.8348546596004
 30
0.0
  9
$PLIMMIN
 10
-6.946582412719726
 20
-7.007089462280273
  9
$PLIMMAX
 10
293.3152761077881
 20
417.6576120758056
  9
$UNITMODE
 70
     0
  9
$VISRETAIN
 70
     0
  9
$PLINEGEN
 70
     0
  9
$PSLTSCALE
 70
     1
  9
$TREEDEPTH
 70
  3020
  9
$CMLSTYLE
  2
STANDARD
  9
$CMLJUST
 70
     0
  9
$CMLSCALE
 40
1.0
  9
$PROXYGRAPHICS
 70
     1
  9
$MEASUREMENT
 70
     1
  9
$CELWEIGHT
370
    -1
  9
$ENDCAPS
280
     0
  9
$JOINSTYLE
280
     0
  9
$LWDISPLAY
290
     0
  9
$INSUNITS
 70
     0
  9
$HYPERLINKBASE
  1

  9
$STYLESHEET
  1

  9
$XEDIT
290
     1
  9
$CEPSNTYPE
380
     0
  9
$PSTYLEMODE
290
     1
  9
$FINGERPRINTGUID
  2
{23698909-1D67-4744-B0E2-8DE11E3ED422}
  9
$VERSIONGUID
  2
{9AF9C796-FB10-49F7-894E-D40AF574AB7D}
  9
$EXTNAMES
290
     1
  9
$PSVPSCALE
 40
0.25
  9
$OLESTARTUP
290
     0
  9
$SORTENTS
280
   127
  9
$INDEXCTL
280
     0
  9
$HIDETEXT
280
     0
  9
$XCLIPFRAME
290
     0
  9
$HALOGAP
280
     0
  9
$OBSCOLOR
 70
   257
  9
$OBSLTYPE
280
     0
  9
$INTERSECTIONDISPLAY
280
     0
  9
$INTERSECTIONCOLOR
 70
   257
  9
$DIMASSOC
280
     1
  9
$PROJECTNAME
  1

  0
ENDSEC
  0
SECTION
  2
CLASSES
  0
CLASS
  1
ACDBDICTIONARYWDFLT
  2
AcDbDictionaryWithDefault
  3
ObjectDBX Classes
 90
        0
 91
        1
280
     0
281
     0
  0
ENDSEC
  0
SECTION
  2
TABLES
  0
TABLE
  2
VPORT
  5
8
330
0
100
AcDbSymbolTable
 70
     1
  0
VPORT
  5
7BEF
330
8
100
AcDbSymbolTableRecord
100
AcDbViewportTableRecord
  2
*Active
 70
     0
 10
0.0
 20
0.0
 11
1.0
 21
1.0
 12
1035.424994054003
 22
-388.1517178838554
 13
0.0
 23
0.0
 14
1.0
 24
1.0
 15
0.0
 25
0.0
 16
0.0
 26
0.0
 36
1.0
 17
0.0
 27
0.0
 37
0.0
 40
617.8368989716885
 41
1.548138639281129
 42
50.0
 43
0.0
 44
0.0
 50
0.0
 51
0.0
 71
     0
 72
   100
 73
     1
 74
     0
 75
     0
 76
     0
 77
     0
 78
     0
281
     0
 65
     1
110
0.0
120
0.0
130
0.0
111
1.0
121
0.0
131
0.0
112
0.0
122
1.0
132
0.0
 79
     0
146
0.0
  0
ENDTAB
  0
TABLE
  2
LTYPE
  5
5
330
0
100
AcDbSymbolTable
 70
     3
  0
LTYPE
  5
14
330
5
100
AcDbSymbolTableRecord
100
AcDbLinetypeTableRecord
  2
BYBLOCK
 70
     0
  3

 72
    65
 73
     0
 40
0.0
  0
LTYPE
  5
15
330
5
100
AcDbSymbolTableRecord
100
AcDbLinetypeTableRecord
  2
BYLAYER
 70
     0
  3

 72
    65
 73
     0
 40
0.0
  0
LTYPE
  5
16
330
5
100
AcDbSymbolTableRecord
100
AcDbLinetypeTableRecord
  2
CONTINUOUS
 70
     0
  3
Solid line
 72
    65
 73
     0
 40
0.0
  0
LTYPE
  5
1EC
330
5
100
AcDbSymbolTableRecord
100
AcDbLinetypeTableRecord
  2
CENTER
 70
     0
  3
____ _ ____ _ ____ _ ____ _ ____ _ ____ _ ____ 
 72
    65
 73
     4
 40
2.0
 49
1.25
 74
     0
 49
-0.25
 74
     0
 49
0.25
 74
     0
 49
-0.25
 74
     0
  0
LTYPE
  5
1ED
330
5
100
AcDbSymbolTableRecord
100
AcDbLinetypeTableRecord
  2
DASHED
 70
     0
  3
__ __ __ __ __ __ __ __ __ __ __ __ __ __ __ __
 72
    65
 73
     2
 40
0.75
 49
0.5
 74
     0
 49
-0.25
 74
     0
  0
ENDTAB
  0
TABLE
  2
LAYER
  5
2
102
{ACAD_XDICTIONARY
360
29EA
102
}
330
0
100
AcDbSymbolTable
 70
    14
  0
LAYER
  5
F
330
2
100
AcDbSymbolTableRecord
100
AcDbLayerTableRecord
  2
0
 70
     0
 62
     7
  6
CONTINUOUS
370
    -3
390
2815
  0
LAYER
  5
61
330
2
100
AcDbSymbolTableRecord
100
AcDbLayerTableRecord
  2
図枠太線
 70
     0
 62
   251
  6
CONTINUOUS
370
    -3
390
2815
  0
LAYER
  5
62
330
2
100
AcDbSymbolTableRecord
100
AcDbLayerTableRecord
  2
図枠細線
 70
     0
 62
   252
  6
CONTINUOUS
370
    -3
390
2815
  0
LAYER
  5
63
330
2
100
AcDbSymbolTableRecord
100
AcDbLayerTableRecord
  2
図枠ロゴマーク
 70
     0
 62
   253
  6
CONTINUOUS
370
    -3
390
2815
  0
LAYER
  5
1EF
330
2
100
AcDbSymbolTableRecord
100
AcDbLayerTableRecord
  2
外形線
 70
     0
 62
     7
  6
CONTINUOUS
370
    -3
390
2815
  0
LAYER
  5
1F0
330
2
100
AcDbSymbolTableRecord
100
AcDbLayerTableRecord
  2
寸法線
 70
     0
 62
     1
  6
CONTINUOUS
370
    -3
390
2815
  0
LAYER
  5
1F1
330
2
100
AcDbSymbolTableRecord
100
AcDbLayerTableRecord
  2
中心線
 70
     0
 62
     4
  6
CENTER
370
    -3
390
2815
  0
LAYER
  5
1F4
330
2
100
AcDbSymbolTableRecord
100
AcDbLayerTableRecord
  2
DEFPOINTS
 70
     0
 62
     7
  6
CONTINUOUS
290
     0
370
    -3
390
2815
  0
LAYER
  5
2AA2
330
2
100
AcDbSymbolTableRecord
100
AcDbLayerTableRecord
  2
下書線
 70
     0
 62
     2
  6
CONTINUOUS
290
     0
370
    -3
390
2815
  0
LAYER
  5
2AA3
330
2
100
AcDbSymbolTableRecord
100
AcDbLayerTableRecord
  2
隠れ線
 70
     0
 62
     3
  6
DASHED
370
    -3
390
2815
  0
LAYER
  5
2AA4
330
2
100
AcDbSymbolTableRecord
100
AcDbLayerTableRecord
  2
細線
 70
     0
 62
     6
  6
CONTINUOUS
370
    -3
390
2815
  0
LAYER
  5
2AA5
330
2
100
AcDbSymbolTableRecord
100
AcDbLayerTableRecord
  2
太線
 70
     0
 62
   190
  6
CONTINUOUS
370
    -3
390
2815
  0
LAYER
  5
2EC2
330
2
100
AcDbSymbolTableRecord
100
AcDbLayerTableRecord
  2
1
 70
     0
 62
     7
  6
CONTINUOUS
370
    -3
390
2815
  0
LAYER
  5
2EC3
330
2
100
AcDbSymbolTableRecord
100
AcDbLayerTableRecord
  2
3
 70
     0
 62
     7
  6
CONTINUOUS
370
    -3
390
2815
  0
ENDTAB
  0
TABLE
  2
STYLE
  5
3
330
0
100
AcDbSymbolTable
 70
     3
  0
STYLE
  5
10
330
3
100
AcDbSymbolTableRecord
100
AcDbTextStyleTableRecord
  2
STANDARD
 70
     0
 40
0.0
 41
1.0
 50
0.0
 71
     0
 42
2.333873885063326
  3
ISOCP
  4
bigfont.shx
  0
STYLE
  5
64
330
3
100
AcDbSymbolTableRecord
100
AcDbTextStyleTableRecord
  2
EXCADSTD
 70
     0
 40
0.0
 41
1.0
 50
0.0
 71
     0
 42
0.2
  3
monotxt
  4
bigfont
  0
STYLE
  5
2EC4
330
3
100
AcDbSymbolTableRecord
100
AcDbTextStyleTableRecord
  2
ROMANS
 70
     0
 40
0.0
 41
1.0
 50
0.0
 71
     0
 42
1.6
  3
romans
  4

  0
ENDTAB
  0
TABLE
  2
VIEW
  5
6
330
0
100
AcDbSymbolTable
 70
     0
  0
ENDTAB
  0
TABLE
  2
UCS
  5
7
330
0
100
AcDbSymbolTable
 70
     0
  0
ENDTAB
  0
TABLE
  2
APPID
  5
9
330
0
100
AcDbSymbolTable
 70
     1
  0
APPID
  5
11
330
9
100
AcDbSymbolTableRecord
100
AcDbRegAppTableRecord
  2
ACAD
 70
     0
  0
ENDTAB
  0
TABLE
  2
DIMSTYLE
  5
A
330
0
100
AcDbSymbolTable
 70
     6
100
AcDbDimStyleTable
 71
     1
340
24
  0
DIMSTYLE
105
1D
330
A
100
AcDbSymbolTableRecord
100
AcDbDimStyleTableRecord
  2
STANDARD
 70
     0
340
10
  0
DIMSTYLE
105
24
102
{ACAD_REACTORS
330
7ADB
330
7AE0
330
7AE1
330
7AE2
102
}
330
A
100
AcDbSymbolTableRecord
100
AcDbDimStyleTableRecord
  2
ISO-25
 70
     0
 41
2.5
 42
0.625
 43
3.75
 44
1.25
 74
     0
 77
     1
 78
     8
140
2.5
141
2.5
143
0.0394
145
1.0
147
0.625
172
     1
340
10
  0
DIMSTYLE
105
2EC5
330
A
100
AcDbSymbolTableRecord
100
AcDbDimStyleTableRecord
  2
NORMAL
 70
     0
 41
3.0
 42
0.1
 43
0.4
 44
0.2
 73
     0
 74
     0
 77
     1
140
2.5
141
0.0
147
1.0
172
     1
178
     4
271
     1
272
     0
284
     2
288
     1
289
     1
340
10
  0
DIMSTYLE
105
5C62
330
A
100
AcDbSymbolTableRecord
100
AcDbDimStyleTableRecord
  2
文字5ｐｔ
 70
     0
 41
6.0
 42
0.625
 43
3.75
 44
1.25
 47
0.1
 48
0.1
 73
     0
 74
     0
 77
     1
 78
     8
140
5.0
141
2.5
143
0.0394
145
1.0
147
0.625
172
     1
271
     1
272
     1
340
10
341
2AE3
342
2AE3
  0
DIMSTYLE
105
5C63
330
A
100
AcDbSymbolTableRecord
100
AcDbDimStyleTableRecord
  2
文字8ｐｔ
 70
     0
 41
6.0
 42
0.625
 43
3.75
 44
1.25
 47
0.1
 48
0.1
 73
     0
 74
     0
 77
     1
 78
     8
140
8.0
141
2.5
143
0.0394
145
1.0
147
0.625
172
     1
271
     1
272
     1
340
10
341
2AE3
342
2AE3
  0
DIMSTYLE
105
5C64
330
A
100
AcDbSymbolTableRecord
100
AcDbDimStyleTableRecord
  2
文字10ｐｔ
 70
     0
 41
6.0
 42
0.625
 43
3.75
 44
1.25
 47
0.1
 48
0.1
 73
     0
 74
     0
 77
     1
 78
     8
140
10.0
141
2.5
143
0.0394
145
1.0
147
0.625
172
     1
271
     1
272
     1
340
10
341
2AE3
342
2AE3
  0
ENDTAB
  0
TABLE
  2
BLOCK_RECORD
  5
1
330
0
100
AcDbSymbolTable
 70
    15
  0
BLOCK_RECORD
  5
1A
330
1
100
AcDbSymbolTableRecord
100
AcDbBlockTableRecord
  2
*MODEL_SPACE
340
2818
  0
BLOCK_RECORD
  5
299E
330
1
100
AcDbSymbolTableRecord
100
AcDbBlockTableRecord
  2
*Paper_Space
340
29A4
  0
BLOCK_RECORD
  5
65
330
1
100
AcDbSymbolTableRecord
100
AcDbBlockTableRecord
  2
A$C3392
340
0
  0
BLOCK_RECORD
  5
29BF
330
1
100
AcDbSymbolTableRecord
100
AcDbBlockTableRecord
  2
A4横用　タイトル
340
0
310
2800000020000000200000000100080000000000000400000000000000000000000000000000000000000000000080000080000000808000800000008000800080800000C0C0C000C0DCC000F0CAA6000020400000206000002080000020A0000020C0000020E00000400000004020000040400000406000004080000040A0
310
000040C0000040E00000600000006020000060400000606000006080000060A0000060C0000060E00000800000008020000080400000806000008080000080A0000080C0000080E00000A0000000A0200000A0400000A0600000A0800000A0A00000A0C00000A0E00000C0000000C0200000C0400000C0600000C0800000C0
310
A00000C0C00000C0E00000E0000000E0200000E0400000E0600000E0800000E0A00000E0C00000E0E00040000000400020004000400040006000400080004000A0004000C0004000E00040200000402020004020400040206000402080004020A0004020C0004020E000404000004040200040404000404060004040800040
310
40A0004040C0004040E00040600000406020004060400040606000406080004060A0004060C0004060E00040800000408020004080400040806000408080004080A0004080C0004080E00040A0000040A0200040A0400040A0600040A0800040A0A00040A0C00040A0E00040C0000040C0200040C0400040C0600040C08000
310
40C0A00040C0C00040C0E00040E0000040E0200040E0400040E0600040E0800040E0A00040E0C00040E0E00080000000800020008000400080006000800080008000A0008000C0008000E00080200000802020008020400080206000802080008020A0008020C0008020E00080400000804020008040400080406000804080
310
008040A0008040C0008040E00080600000806020008060400080606000806080008060A0008060C0008060E00080800000808020008080400080806000808080008080A0008080C0008080E00080A0000080A0200080A0400080A0600080A0800080A0A00080A0C00080A0E00080C0000080C0200080C0400080C0600080C0
310
800080C0A00080C0C00080C0E00080E0000080E0200080E0400080E0600080E0800080E0A00080E0C00080E0E000C0000000C0002000C0004000C0006000C0008000C000A000C000C000C000E000C0200000C0202000C0204000C0206000C0208000C020A000C020C000C020E000C0400000C0402000C0404000C0406000C0
310
408000C040A000C040C000C040E000C0600000C0602000C0604000C0606000C0608000C060A000C060C000C060E000C0800000C0802000C0804000C0806000C0808000C080A000C080C000C080E000C0A00000C0A02000C0A04000C0A06000C0A08000C0A0A000C0A0C000C0A0E000C0C00000C0C02000C0C04000C0C06000
310
C0C08000C0C0A000F0FBFF00A4A0A000808080000000FF0000FF000000FFFF00FF000000FF00FF00FFFF0000FFFFFF0000000000000000000000000000000000000000000000000000000000000000000000000000000000000000000000000000000000000000000000000000000000000000000000000000000000000000
310
00000000000000000000000000000000000000000000000000000000000000000000000000000000000000000000000000000000000000000000000000000000000000000000000000000000000000000000000000000000000000000000000000000000000000000000000000000000000000000000000000000000000000
310
00000000000000000000000000000000000000000000000000000000000000000000000000000000000000000000000000000000000000000000000000000000000000000000000000000000000000000000000000000000000000000000000000000000000000000000000000000000000000000000000000000000000000
310
00000000000000000000000000000000000000000000000000000000000000000000000000000000000000000000000000000000000000000000000000000000000000000000000000000000000000000000000000000000000000000000000000000000000000000000000000000000000000005BA4A4A4A4A4A4A45B5BA4
310
5BA45B5B5BA4A4A4A4A4A45B5B5B5B5B5B5B5B00005BA4A4A4A4A4A4A4A4A4A4A4A4A45B5BF7F7F7F7F7F75BA4A4A4A4A4A4A400005BA4A4A4A4A4A4A45BA4A4A4A400005BA4A4A4A4A4A45B0000000000005B00005BA4A4A4A4A4A4A45BA4A4A4A4A4005B0000000000005BA400000000005B000000000000000000000000
310
00000000000000000000000000000000000000000000000000000000000000000000000000000000000000000000000000000000000000000000000000000000000000000000000000000000000000000000000000000000000000000000000000000000000000000000000000000000000000000000000000000000000000
310
00000000000000000000000000000000000000000000000000000000000000000000000000000000000000000000000000000000000000000000000000000000000000000000000000000000000000000000000000000000000000000000000000000000000000000000000000000000000000000000000000000000000000
310
00000000000000000000000000000000000000000000000000000000000000000000000000000000000000000000000000000000000000000000000000000000000000000000000000000000000000000000000000000000000000000000000000000000000000000000000000000000000000000000000000000000000000
310
0000000000000000000000000000000000000000000000000000000000000000000000000000000000000000000000000000000000000000
1001
ACAD
1000
DesignCenter Data
1002
{
1070
     1
1070
     4
1002
}
  0
BLOCK_RECORD
  5
29F4
330
1
100
AcDbSymbolTableRecord
100
AcDbBlockTableRecord
  2
A4縦用　タイトル
340
0
310
2800000020000000200000000100080000000000000400000000000000000000000000000000000000000000000080000080000000808000800000008000800080800000C0C0C000C0DCC000F0CAA6000020400000206000002080000020A0000020C0000020E00000400000004020000040400000406000004080000040A0
310
000040C0000040E00000600000006020000060400000606000006080000060A0000060C0000060E00000800000008020000080400000806000008080000080A0000080C0000080E00000A0000000A0200000A0400000A0600000A0800000A0A00000A0C00000A0E00000C0000000C0200000C0400000C0600000C0800000C0
310
A00000C0C00000C0E00000E0000000E0200000E0400000E0600000E0800000E0A00000E0C00000E0E00040000000400020004000400040006000400080004000A0004000C0004000E00040200000402020004020400040206000402080004020A0004020C0004020E000404000004040200040404000404060004040800040
310
40A0004040C0004040E00040600000406020004060400040606000406080004060A0004060C0004060E00040800000408020004080400040806000408080004080A0004080C0004080E00040A0000040A0200040A0400040A0600040A0800040A0A00040A0C00040A0E00040C0000040C0200040C0400040C0600040C08000
310
40C0A00040C0C00040C0E00040E0000040E0200040E0400040E0600040E0800040E0A00040E0C00040E0E00080000000800020008000400080006000800080008000A0008000C0008000E00080200000802020008020400080206000802080008020A0008020C0008020E00080400000804020008040400080406000804080
310
008040A0008040C0008040E00080600000806020008060400080606000806080008060A0008060C0008060E00080800000808020008080400080806000808080008080A0008080C0008080E00080A0000080A0200080A0400080A0600080A0800080A0A00080A0C00080A0E00080C0000080C0200080C0400080C0600080C0
310
800080C0A00080C0C00080C0E00080E0000080E0200080E0400080E0600080E0800080E0A00080E0C00080E0E000C0000000C0002000C0004000C0006000C0008000C000A000C000C000C000E000C0200000C0202000C0204000C0206000C0208000C020A000C020C000C020E000C0400000C0402000C0404000C0406000C0
310
408000C040A000C040C000C040E000C0600000C0602000C0604000C0606000C0608000C060A000C060C000C060E000C0800000C0802000C0804000C0806000C0808000C080A000C080C000C080E000C0A00000C0A02000C0A04000C0A06000C0A08000C0A0A000C0A0C000C0A0E000C0C00000C0C02000C0C04000C0C06000
310
C0C08000C0C0A000F0FBFF00A4A0A000808080000000FF0000FF000000FFFF00FF000000FF00FF00FFFF0000FFFFFF0000000000000000000000000000000000000000000000000000000000000000000000000000000000000000000000000000000000000000000000000000000000000000000000000000000000000000
310
00000000000000000000000000000000000000000000000000000000000000000000000000000000000000000000000000000000000000000000000000000000000000000000000000000000000000000000000000000000000000000000000000000000000000000000000000000000000000000000000000000000000000
310
00000000000000000000000000000000000000000000000000000000000000000000000000000000000000000000000000000000000000000000000000000000000000000000000000000000000000000000000000000000000000000000000000000000000000000000000000000000000000000000000000000000000000
310
0000000000000000000000000000000000000000000000000000000000000000000000000000000000000000000000000000000000000000000000000000000000000000000000000000000000000000000000005B5B5B5B5B5BA45B5BA45B5B5B5B5B5B5B5B5B5B5B5B5B5B5B5B5B5B5B5B0000A4A4A45BA4A4A40000A400
310
005BA4A4A4A4A4A4A45B00000000000000005B0000A4A4A45BA4A4A4A4A4A4A4A45BF7F7F7F7F7F7F7A4A4A4A4A4A4A4A4A45B0000A4A4A45BA4A4A4A400A400005B000000000000005B00000000000000005B0000A4A4A4A4A4A4A4A4A4A4A4A45BA4A4A4A4A4A4A4A4A4A4A400000000005B00005BA4A4A4A400A4A400A4
310
A4005B00000000000000A4A4A4A400000000005B0000000000000000000000000000000000000000000000000000000000000000000000000000000000000000000000000000000000000000000000000000000000000000000000000000000000000000000000000000000000000000000000000000000000000000000000
310
00000000000000000000000000000000000000000000000000000000000000000000000000000000000000000000000000000000000000000000000000000000000000000000000000000000000000000000000000000000000000000000000000000000000000000000000000000000000000000000000000000000000000
310
00000000000000000000000000000000000000000000000000000000000000000000000000000000000000000000000000000000000000000000000000000000000000000000000000000000000000000000000000000000000000000000000000000000000000000000000000000000000000000000000000000000000000
310
0000000000000000000000000000000000000000000000000000000000000000000000000000000000000000000000000000000000000000
1001
ACAD
1000
DesignCenter Data
1002
{
1070
     1
1070
     4
1002
}
  0
BLOCK_RECORD
  5
2A32
330
1
100
AcDbSymbolTableRecord
100
AcDbBlockTableRecord
  2
A3横用　タイトル
340
0
310
2800000020000000200000000100080000000000000400000000000000000000000000000000000000000000000080000080000000808000800000008000800080800000C0C0C000C0DCC000F0CAA6000020400000206000002080000020A0000020C0000020E00000400000004020000040400000406000004080000040A0
310
000040C0000040E00000600000006020000060400000606000006080000060A0000060C0000060E00000800000008020000080400000806000008080000080A0000080C0000080E00000A0000000A0200000A0400000A0600000A0800000A0A00000A0C00000A0E00000C0000000C0200000C0400000C0600000C0800000C0
310
A00000C0C00000C0E00000E0000000E0200000E0400000E0600000E0800000E0A00000E0C00000E0E00040000000400020004000400040006000400080004000A0004000C0004000E00040200000402020004020400040206000402080004020A0004020C0004020E000404000004040200040404000404060004040800040
310
40A0004040C0004040E00040600000406020004060400040606000406080004060A0004060C0004060E00040800000408020004080400040806000408080004080A0004080C0004080E00040A0000040A0200040A0400040A0600040A0800040A0A00040A0C00040A0E00040C0000040C0200040C0400040C0600040C08000
310
40C0A00040C0C00040C0E00040E0000040E0200040E0400040E0600040E0800040E0A00040E0C00040E0E00080000000800020008000400080006000800080008000A0008000C0008000E00080200000802020008020400080206000802080008020A0008020C0008020E00080400000804020008040400080406000804080
310
008040A0008040C0008040E00080600000806020008060400080606000806080008060A0008060C0008060E00080800000808020008080400080806000808080008080A0008080C0008080E00080A0000080A0200080A0400080A0600080A0800080A0A00080A0C00080A0E00080C0000080C0200080C0400080C0600080C0
310
800080C0A00080C0C00080C0E00080E0000080E0200080E0400080E0600080E0800080E0A00080E0C00080E0E000C0000000C0002000C0004000C0006000C0008000C000A000C000C000C000E000C0200000C0202000C0204000C0206000C0208000C020A000C020C000C020E000C0400000C0402000C0404000C0406000C0
310
408000C040A000C040C000C040E000C0600000C0602000C0604000C0606000C0608000C060A000C060C000C060E000C0800000C0802000C0804000C0806000C0808000C080A000C080C000C080E000C0A00000C0A02000C0A04000C0A06000C0A08000C0A0A000C0A0C000C0A0E000C0C00000C0C02000C0C04000C0C06000
310
C0C08000C0C0A000F0FBFF00A4A0A000808080000000FF0000FF000000FFFF00FF000000FF00FF00FFFF0000FFFFFF0000000000000000000000000000000000000000000000000000000000000000000000000000000000000000000000000000000000000000000000000000000000000000000000000000000000000000
310
00000000000000000000000000000000000000000000000000000000000000000000000000000000000000000000000000000000000000000000000000000000000000000000000000000000000000000000000000000000000000000000000000000000000000000000000000000000000000000000000000000000000000
310
00000000000000000000000000000000000000000000000000000000000000000000000000000000000000000000000000000000000000000000000000000000000000000000000000000000000000000000000000000000000000000000000000000000000000000000000000000000000000000000000000000000000000
310
00000000000000000000000000000000000000000000000000000000000000000000000000000000000000000000000000000000000000000000000000000000000000000000000000000000000000000000000000000000000000000000000000000000000000000000000000000000000000005B5B5B5B5B5B5B5B5B5BA4
310
5BA45B5BA4A4A4A4A4A4A45B5B5B5B5B5B5B5B00005BA4A4A4A4A4A45BA4A4A4A4A4A45BA4A4A4A4A4A4A45BA400000000005B00005BA4A4A4A4A4A45BA4A4A4A4A4A45B5B5B5B5B5B5B5B5BA4A4A4A4A4A45B00005BA4A4A40000005BA4A4A4A4A4A45B000000000000005BA400000000005B000000000000000000000000
310
00000000000000000000000000000000000000000000000000000000000000000000000000000000000000000000000000000000000000000000000000000000000000000000000000000000000000000000000000000000000000000000000000000000000000000000000000000000000000000000000000000000000000
310
00000000000000000000000000000000000000000000000000000000000000000000000000000000000000000000000000000000000000000000000000000000000000000000000000000000000000000000000000000000000000000000000000000000000000000000000000000000000000000000000000000000000000
310
00000000000000000000000000000000000000000000000000000000000000000000000000000000000000000000000000000000000000000000000000000000000000000000000000000000000000000000000000000000000000000000000000000000000000000000000000000000000000000000000000000000000000
310
0000000000000000000000000000000000000000000000000000000000000000000000000000000000000000000000000000000000000000
1001
ACAD
1000
DesignCenter Data
1002
{
1070
     1
1070
     4
1002
}
  0
BLOCK_RECORD
  5
2A6C
330
1
100
AcDbSymbolTableRecord
100
AcDbBlockTableRecord
  2
A3縦用　タイトル
340
0
310
2800000020000000200000000100080000000000000400000000000000000000000000000000000000000000000080000080000000808000800000008000800080800000C0C0C000C0DCC000F0CAA6000020400000206000002080000020A0000020C0000020E00000400000004020000040400000406000004080000040A0
310
000040C0000040E00000600000006020000060400000606000006080000060A0000060C0000060E00000800000008020000080400000806000008080000080A0000080C0000080E00000A0000000A0200000A0400000A0600000A0800000A0A00000A0C00000A0E00000C0000000C0200000C0400000C0600000C0800000C0
310
A00000C0C00000C0E00000E0000000E0200000E0400000E0600000E0800000E0A00000E0C00000E0E00040000000400020004000400040006000400080004000A0004000C0004000E00040200000402020004020400040206000402080004020A0004020C0004020E000404000004040200040404000404060004040800040
310
40A0004040C0004040E00040600000406020004060400040606000406080004060A0004060C0004060E00040800000408020004080400040806000408080004080A0004080C0004080E00040A0000040A0200040A0400040A0600040A0800040A0A00040A0C00040A0E00040C0000040C0200040C0400040C0600040C08000
310
40C0A00040C0C00040C0E00040E0000040E0200040E0400040E0600040E0800040E0A00040E0C00040E0E00080000000800020008000400080006000800080008000A0008000C0008000E00080200000802020008020400080206000802080008020A0008020C0008020E00080400000804020008040400080406000804080
310
008040A0008040C0008040E00080600000806020008060400080606000806080008060A0008060C0008060E00080800000808020008080400080806000808080008080A0008080C0008080E00080A0000080A0200080A0400080A0600080A0800080A0A00080A0C00080A0E00080C0000080C0200080C0400080C0600080C0
310
800080C0A00080C0C00080C0E00080E0000080E0200080E0400080E0600080E0800080E0A00080E0C00080E0E000C0000000C0002000C0004000C0006000C0008000C000A000C000C000C000E000C0200000C0202000C0204000C0206000C0208000C020A000C020C000C020E000C0400000C0402000C0404000C0406000C0
310
408000C040A000C040C000C040E000C0600000C0602000C0604000C0606000C0608000C060A000C060C000C060E000C0800000C0802000C0804000C0806000C0808000C080A000C080C000C080E000C0A00000C0A02000C0A04000C0A06000C0A08000C0A0A000C0A0C000C0A0E000C0C00000C0C02000C0C04000C0C06000
310
C0C08000C0C0A000F0FBFF00A4A0A000808080000000FF0000FF000000FFFF00FF000000FF00FF00FFFF0000FFFFFF0000000000000000000000000000000000000000000000000000000000000000000000000000000000000000000000000000000000000000000000000000000000000000000000000000000000000000
310
00000000000000000000000000000000000000000000000000000000000000000000000000000000000000000000000000000000000000000000000000000000000000000000000000000000000000000000000000000000000000000000000000000000000000000000000000000000000000000000000000000000000000
310
00000000000000000000000000000000000000000000000000000000000000000000000000000000000000000000000000000000000000000000000000000000000000000000000000000000000000000000000000000000000000000000000000000000000000000000000000000000000000000000000000000000000000
310
00000000000000000000000000000000000000000000000000000000000000000000000000000000000000000000000000000000000000000000000000000000000000000000000000000000000000000000000000000000000000000000000000000000000000000000000000000000000000005B5B5B5B5B5B5B5B5B5B5B
310
5B5B5B5B5B5B5B5B5B5B5B5B5B5B5B5B5B5B5B00005BA4A4A4A4A4A4A4A4A4A4A4A4A4A45B5B5B5B5B5B5BA4A4A4A4A4A4A4A400005BA4A4A4A4A4A4A4A4A4A4A4A400A4A4A4A4A4A4A4A4A40000000000005B00005BA4A4A4A4A4A4A4A4A4A4A4A4A4A4000000000000005BA4A4000000005B000000000000000000000000
310
00000000000000000000000000000000000000000000000000000000000000000000000000000000000000000000000000000000000000000000000000000000000000000000000000000000000000000000000000000000000000000000000000000000000000000000000000000000000000000000000000000000000000
310
00000000000000000000000000000000000000000000000000000000000000000000000000000000000000000000000000000000000000000000000000000000000000000000000000000000000000000000000000000000000000000000000000000000000000000000000000000000000000000000000000000000000000
310
00000000000000000000000000000000000000000000000000000000000000000000000000000000000000000000000000000000000000000000000000000000000000000000000000000000000000000000000000000000000000000000000000000000000000000000000000000000000000000000000000000000000000
310
0000000000000000000000000000000000000000000000000000000000000000000000000000000000000000000000000000000000000000
102
{BLKREFS
331
2A93
102
}
1001
ACAD
1000
DesignCenter Data
1002
{
1070
     1
1070
     4
1002
}
  0
BLOCK_RECORD
  5
2AE3
330
1
100
AcDbSymbolTableRecord
100
AcDbBlockTableRecord
  2
_Open30
340
0
102
{BLKREFS
331
7B73
331
7B74
331
7B7E
331
7B7F
331
7B88
331
7B89
331
7B91
331
7B92
102
}
  0
BLOCK_RECORD
  5
2B21
330
1
100
AcDbSymbolTableRecord
100
AcDbBlockTableRecord
  2
*X6
340
0
102
{BLKREFS
331
2DC7
102
}
  0
BLOCK_RECORD
  5
2D4F
330
1
100
AcDbSymbolTableRecord
100
AcDbBlockTableRecord
  2
A3A
340
0
  0
BLOCK_RECORD
  5
2E12
330
1
100
AcDbSymbolTableRecord
100
AcDbBlockTableRecord
  2
ISOKOZ
340
0
  0
BLOCK_RECORD
  5
3AE5
330
1
100
AcDbSymbolTableRecord
100
AcDbBlockTableRecord
  2
A$C60B5275A
340
0
  0
BLOCK_RECORD
  5
3B7D
330
1
100
AcDbSymbolTableRecord
100
AcDbBlockTableRecord
  2
A$C5081540B
340
0
  0
BLOCK_RECORD
  5
7AE5
330
1
100
AcDbSymbolTableRecord
100
AcDbBlockTableRecord
  2
*D11
340
0
  0
BLOCK_RECORD
  5
7AF1
330
1
100
AcDbSymbolTableRecord
100
AcDbBlockTableRecord
  2
*D12
340
0
  0
BLOCK_RECORD
  5
7AFE
330
1
100
AcDbSymbolTableRecord
100
AcDbBlockTableRecord
  2
*D13
340
0
  0
BLOCK_RECORD
  5
7B0C
330
1
100
AcDbSymbolTableRecord
100
AcDbBlockTableRecord
  2
*D14
340
0
  0
ENDTAB
  0
ENDSEC
  0
SECTION
  2
BLOCKS
  0
BLOCK
  5
1B
330
1A
100
AcDbEntity
  8
0
100
AcDbBlockBegin
  2
*MODEL_SPACE
 70
     0
 10
0.0
 20
0.0
 30
0.0
  3
*MODEL_SPACE
  1

  0
ENDBLK
  5
1C
330
1A
100
AcDbEntity
  8
0
100
AcDbBlockEnd
  0
BLOCK
  5
299F
330
299E
100
AcDbEntity
 67
     1
  8
0
 48
10.0
100
AcDbBlockBegin
  2
*Paper_Space
 70
     0
 10
0.0
 20
0.0
 30
0.0
  3
*Paper_Space
  1

  0
ENDBLK
  5
29A3
330
299E
100
AcDbEntity
 67
     1
  8
0
 48
10.0
100
AcDbBlockEnd
  0
BLOCK
  5
93
330
65
100
AcDbEntity
  8
0
100
AcDbBlockBegin
  2
A$C3392
 70
     0
 10
0.0
 20
0.0
 30
0.0
  3
A$C3392
  1

  0
LINE
  5
66
330
65
100
AcDbEntity
  8
図枠太線
  6
Continuous
100
AcDbLine
 10
211.8585845051848
 20
30.9273756754393
 30
0.0
 11
211.8585845051848
 21
0.9273756754392934
 31
0.0
  0
LINE
  5
67
330
65
100
AcDbEntity
  8
図枠細線
  6
Continuous
100
AcDbLine
 10
231.8585925051848
 20
15.92737767543929
 30
0.0
 11
287.8585925051848
 21
15.92737567543929
 31
0.0
  0
LINE
  5
68
330
65
100
AcDbEntity
  8
図枠細線
  6
Continuous
100
AcDbLine
 10
211.8585925051848
 20
15.92737767543929
 30
0.0
 11
231.8585925051848
 21
15.92737767543929
 31
0.0
  0
LINE
  5
69
330
65
100
AcDbEntity
  8
図枠太線
  6
Continuous
 62
   251
100
AcDbLine
 10
1.858584505184808
 20
0.9273756754392934
 30
0.0
 11
1.858584505184808
 21
275.9273756754393
 31
0.0
  0
TEXT
  5
6A
330
65
100
AcDbEntity
  8
図枠細線
  6
Continuous
 62
   252
100
AcDbText
 10
351.3585925051848
 20
28.42737767543929
 30
0.0
 40
2.0
  1
ＴＩＴＬＥ
 41
0.9036144578313251
  7
EXCADSTD
 72
     5
 11
361.3585925051848
 21
28.42737767543929
 31
0.0
100
AcDbText
  0
TEXT
  5
6B
330
65
100
AcDbEntity
  8
図枠細線
  6
Continuous
 62
   252
100
AcDbText
 10
345.3585925051848
 20
28.42737767543929
 30
0.0
 40
2.0
  1
名称
 41
1.171875
  7
EXCADSTD
 72
     5
 11
350.3585925051848
 21
28.42737767543929
 31
0.0
100
AcDbText
  0
TEXT
  5
6C
330
65
100
AcDbEntity
  8
図枠細線
  6
Continuous
 62
   252
100
AcDbText
 10
274.3585925051848
 20
25.92737767543929
 30
0.0
 40
2.0
  1
ＤＲＡＷＮ
 41
0.8823529411764708
  7
EXCADSTD
 72
     5
 11
284.3585925051848
 21
25.92737767543929
 31
0.0
100
AcDbText
  0
TEXT
  5
6D
330
65
100
AcDbEntity
  8
図枠細線
  6
Continuous
 62
   252
100
AcDbText
 10
260.3585925051848
 20
25.92737767543929
 30
0.0
 40
2.0
  1
ＤＥＳＩＧＮＥＤ
 41
0.7130434720412544
  7
EXCADSTD
 72
     5
 11
273.4785923907439
 21
25.92737767543929
 31
0.0
100
AcDbText
  0
TEXT
  5
6E
330
65
100
AcDbEntity
  8
図枠細線
  6
Continuous
 62
   252
100
AcDbText
 10
246.3585925051848
 20
25.92737767543929
 30
0.0
 40
2.0
  1
ＣＨＥＣＫＥＤ
 41
0.8312499895691853
  7
EXCADSTD
 72
     5
 11
259.6585923382918
 21
25.92737767543929
 31
0.0
100
AcDbText
  0
TEXT
  5
6F
330
65
100
AcDbEntity
  8
図枠細線
  6
Continuous
 62
   252
100
AcDbText
 10
274.3585925051848
 20
28.42737767543929
 30
0.0
 40
2.0
  1
製図
 41
1.209677419354838
  7
EXCADSTD
 72
     5
 11
279.3585925051848
 21
28.42737767543929
 31
0.0
100
AcDbText
  0
TEXT
  5
70
330
65
100
AcDbEntity
  8
図枠細線
  6
Continuous
 62
   252
100
AcDbText
 10
260.3585925051848
 20
28.42737767543929
 30
0.0
 40
2.0
  1
設計
 41
1.171875
  7
EXCADSTD
 72
     5
 11
265.3585925051848
 21
28.42737767543929
 31
0.0
100
AcDbText
  0
TEXT
  5
71
330
65
100
AcDbEntity
  8
図枠細線
  6
Continuous
 62
   252
100
AcDbText
 10
246.3585925051848
 20
28.42737767543929
 30
0.0
 40
2.0
  1
検図
 41
1.209677419354831
  7
EXCADSTD
 72
     5
 11
251.3585925051848
 21
28.42737767543929
 31
0.0
100
AcDbText
  0
TEXT
  5
72
330
65
100
AcDbEntity
  8
図枠細線
  6
Continuous
 62
   252
100
AcDbText
 10
232.3585925051848
 20
25.92737767543929
 30
0.0
 40
2.0
  1
ＡＰＰＲＯＶＥＤ
 41
0.6956521842790703
  7
EXCADSTD
 72
     5
 11
245.1585926959197
 21
25.92737767543929
 31
0.0
100
AcDbText
  0
TEXT
  5
73
330
65
100
AcDbEntity
  8
図枠細線
  6
Continuous
 62
   252
100
AcDbText
 10
232.3585925051848
 20
28.42737767543929
 30
0.0
 40
2.0
  1
承認
 41
1.171875
  7
EXCADSTD
 72
     5
 11
237.3585925051848
 21
28.42737767543929
 31
0.0
100
AcDbText
  0
TEXT
  5
74
330
65
100
AcDbEntity
  8
図枠細線
  6
Continuous
 62
   252
100
AcDbText
 10
290.0698885051848
 20
2.57486867543929
 30
0.0
 40
3.5
  1
ＴＯＷＡ　ＳＥＩＤＥＮ　ＩＮＤＵＳＴＲＩＡＬ　ＣＯ．，ＬＴＤ．
 41
0.4145680123767934
  7
EXCADSTD
 72
     5
 11
342.6923882095458
 21
2.57486867543929
 31
0.0
100
AcDbText
  0
TEXT
  5
75
330
65
100
AcDbEntity
  8
図枠ロゴマーク
  6
Continuous
 62
   253
100
AcDbText
 10
290.1073485051848
 20
7.519769675439306
 30
0.0
 40
7.0
  1
東和制電工業株式会社
 41
0.6392045454545459
  7
EXCADSTD
 72
     5
 11
342.6073485051849
 21
7.519769675439306
 31
0.0
100
AcDbText
  0
TEXT
  5
76
330
65
100
AcDbEntity
  8
図枠細線
  6
Continuous
 62
   252
100
AcDbText
 10
232.4997055051848
 20
5.759088675439272
 30
0.0
 40
2.0
  1
ＰＲＯＪＥＣＴＩＯＮ
 41
0.7542857101985387
  7
EXCADSTD
 72
     5
 11
250.0997054098174
 21
5.759088675439272
 31
0.0
100
AcDbText
  0
TEXT
  5
77
330
65
100
AcDbEntity
  8
図枠細線
  6
Continuous
 62
   252
100
AcDbText
 10
232.5746295051848
 20
8.681077675439269
 30
0.0
 40
2.0
  1
ＴＨＩＲＤ　ＡＮＧＬＥ
 41
0.6910994867379751
  7
EXCADSTD
 72
     5
 11
250.1746297674452
 21
8.681077675439269
 31
0.0
100
AcDbText
  0
TEXT
  5
78
330
65
100
AcDbEntity
  8
図枠細線
  6
Continuous
 62
   252
100
AcDbText
 10
256.8239995051848
 20
13.42737767543929
 30
0.0
 40
2.0
  1
ＳＣＡＬＥ
 41
0.9036144578313255
  7
EXCADSTD
 72
     5
 11
266.8239995051848
 21
13.42737767543929
 31
0.0
100
AcDbText
  0
TEXT
  5
79
330
65
100
AcDbEntity
  8
図枠細線
  6
Continuous
 62
   252
100
AcDbText
 10
274.8585925051848
 20
13.42737767543929
 30
0.0
 40
2.0
  1
ＤＡＴＥ
 41
0.9230769230769231
  7
EXCADSTD
 72
     5
 11
282.8585925051848
 21
13.42737767543929
 31
0.0
100
AcDbText
  0
TEXT
  5
7A
330
65
100
AcDbEntity
  8
図枠細線
  6
Continuous
 62
   252
100
AcDbText
 10
356.3585925051848
 20
13.42737767543929
 30
0.0
 40
2.0
  1
ＤＲＧ．ＮＯ．
 41
0.9375
  7
EXCADSTD
 72
     5
 11
370.3585925051848
 21
13.42737767543929
 31
0.0
100
AcDbText
  0
TEXT
  5
7B
330
65
100
AcDbEntity
  8
図枠細線
  6
Continuous
 62
   252
100
AcDbText
 10
345.3585925051848
 20
13.42737767543929
 30
0.0
 40
2.0
  1
図面番号
 41
1.102941176470588
  7
EXCADSTD
 72
     5
 11
355.3585925051848
 21
13.42737767543929
 31
0.0
100
AcDbText
  0
TEXT
  5
7C
330
65
100
AcDbEntity
  8
図枠細線
  6
Continuous
 62
   252
100
AcDbText
 10
269.3585925051848
 20
13.42737767543929
 30
0.0
 40
2.0
  1
日付
 41
1.171875
  7
EXCADSTD
 72
     5
 11
274.3585925051848
 21
13.42737767543929
 31
0.0
100
AcDbText
  0
TEXT
  5
7D
330
65
100
AcDbEntity
  8
図枠細線
  6
Continuous
 62
   252
100
AcDbText
 10
251.4515125051848
 20
13.42737767543929
 30
0.0
 40
2.0
  1
尺度
 41
1.171874999999999
  7
EXCADSTD
 72
     5
 11
256.4515125051848
 21
13.42737767543929
 31
0.0
100
AcDbText
  0
TEXT
  5
7E
330
65
100
AcDbEntity
  8
図枠細線
  6
Continuous
 62
   252
100
AcDbText
 10
232.3585925051848
 20
13.42737767543929
 30
0.0
 40
2.0
  1
第三角法
 41
1.102941176470587
  7
EXCADSTD
 72
     5
 11
242.3585925051848
 21
13.42737767543929
 31
0.0
100
AcDbText
  0
TEXT
  5
7F
330
65
100
AcDbEntity
  8
図枠細線
  6
Continuous
 62
   252
100
AcDbText
 10
212.3585925051848
 20
28.42737767543929
 30
0.0
 40
2.0
  1
ＮＯＴＥ
 41
0.9230769230769231
  7
EXCADSTD
 72
     5
 11
220.3585925051848
 21
28.42737767543929
 31
0.0
100
AcDbText
  0
LINE
  5
80
330
65
100
AcDbEntity
  8
図枠細線
  6
Continuous
 62
   252
100
AcDbLine
 10
287.8585925051848
 20
23.42737567543929
 30
0.0
 11
344.8585925051848
 21
23.42737567543929
 31
0.0
  0
LINE
  5
81
330
65
100
AcDbEntity
  8
図枠太線
  6
Continuous
 62
   251
100
AcDbLine
 10
287.8585845051848
 20
15.92737567543929
 30
0.0
 11
344.8585925051848
 21
15.92737567543929
 31
0.0
  0
LINE
  5
82
330
65
100
AcDbEntity
  8
図枠細線
  6
Continuous
 62
   252
100
AcDbLine
 10
344.8585925051848
 20
15.92737567543929
 30
0.0
 11
401.8585845051847
 21
15.92737567543929
 31
0.0
  0
LINE
  5
83
330
65
100
AcDbEntity
  8
図枠太線
  6
Continuous
 62
   251
100
AcDbLine
 10
344.8585925051848
 20
0.9273776754392883
 30
0.0
 11
344.8585925051848
 21
30.9273756754393
 31
0.0
  0
LINE
  5
84
330
65
100
AcDbEntity
  8
図枠太線
  6
Continuous
 62
   251
100
AcDbLine
 10
287.8585925051848
 20
0.9273776754392883
 30
0.0
 11
287.8585925051848
 21
30.9273756754393
 31
0.0
  0
LINE
  5
85
330
65
100
AcDbEntity
  8
図枠細線
  6
Continuous
 62
   252
100
AcDbLine
 10
268.8585925051848
 20
0.9273776754392883
 30
0.0
 11
268.8585925051848
 21
15.92737567543929
 31
0.0
  0
LINE
  5
86
330
65
100
AcDbEntity
  8
図枠細線
  6
Continuous
 62
   252
100
AcDbLine
 10
250.8585925051848
 20
0.9273776754392883
 30
0.0
 11
250.8585925051848
 21
15.92737567543929
 31
0.0
  0
LINE
  5
87
330
65
100
AcDbEntity
  8
図枠細線
  6
Continuous
 62
   252
100
AcDbLine
 10
273.8585925051848
 20
30.9273756754393
 30
0.0
 11
273.8585925051848
 21
15.92737567543929
 31
0.0
  0
LINE
  5
88
330
65
100
AcDbEntity
  8
図枠細線
  6
Continuous
 62
   252
100
AcDbLine
 10
259.8585925051848
 20
30.9273756754393
 30
0.0
 11
259.8585925051848
 21
15.92737567543929
 31
0.0
  0
LINE
  5
89
330
65
100
AcDbEntity
  8
図枠細線
  6
Continuous
 62
   252
100
AcDbLine
 10
245.8585925051848
 20
30.9273756754393
 30
0.0
 11
245.8585925051848
 21
15.92737567543929
 31
0.0
  0
LINE
  5
8A
330
65
100
AcDbEntity
  8
図枠太線
  6
Continuous
 62
   251
100
AcDbLine
 10
231.8585925051848
 20
0.9273776754392883
 30
0.0
 11
231.8585925051848
 21
30.9273756754393
 31
0.0
  0
LINE
  5
8B
330
65
100
AcDbEntity
  8
図枠細線
  6
Continuous
 62
   252
100
AcDbLine
 10
211.8585925051848
 20
25.9273756754393
 30
0.0
 11
231.8585925051848
 21
25.9273756754393
 31
0.0
  0
LINE
  5
8C
330
65
100
AcDbEntity
  8
図枠細線
  6
Continuous
 62
   252
100
AcDbLine
 10
211.8585925051848
 20
20.92737567543929
 30
0.0
 11
231.8585925051848
 21
20.92737567543929
 31
0.0
  0
LINE
  5
8D
330
65
100
AcDbEntity
  8
図枠細線
  6
Continuous
 62
   252
100
AcDbLine
 10
211.8585925051848
 20
10.92737567543929
 30
0.0
 11
231.8585925051848
 21
10.92737567543929
 31
0.0
  0
LINE
  5
8E
330
65
100
AcDbEntity
  8
図枠細線
  6
Continuous
 62
   252
100
AcDbLine
 10
211.8585925051848
 20
5.927377675439288
 30
0.0
 11
231.8585925051848
 21
5.927377675439288
 31
0.0
  0
LINE
  5
8F
330
65
100
AcDbEntity
  8
図枠太線
  6
Continuous
 62
   251
100
AcDbLine
 10
211.8585925051848
 20
30.9273756754393
 30
0.0
 11
401.8585845051847
 21
30.9273756754393
 31
0.0
  0
LINE
  5
90
330
65
100
AcDbEntity
  8
図枠太線
  6
Continuous
 62
   251
100
AcDbLine
 10
1.858584505184808
 20
275.9273756754393
 30
0.0
 11
401.8585845051847
 21
275.9273756754393
 31
0.0
  0
LINE
  5
91
330
65
100
AcDbEntity
  8
図枠太線
  6
Continuous
 62
   251
100
AcDbLine
 10
401.8585845051847
 20
0.9273756754392934
 30
0.0
 11
401.8585845051847
 21
275.9273756754393
 31
0.0
  0
LINE
  5
92
330
65
100
AcDbEntity
  8
図枠太線
  6
Continuous
 62
   251
100
AcDbLine
 10
1.858584505184808
 20
0.9273756754392934
 30
0.0
 11
401.8585845051847
 21
0.9273756754392934
 31
0.0
  0
ENDBLK
  5
94
330
65
100
AcDbEntity
  8
0
100
AcDbBlockEnd
  0
BLOCK
  5
29C0
330
29BF
100
AcDbEntity
  8
0
100
AcDbBlockBegin
  2
A4横用　タイトル
 70
     0
 10
0.0
 20
0.0
 30
0.0
  3
A4横用　タイトル
  1

  0
LINE
  5
29C1
330
29BF
100
AcDbEntity
  8
図枠細線
  6
Continuous
100
AcDbLine
 10
75.06101107105076
 20
16.80660725335804
 30
0.0
 11
144.0610110710507
 21
16.80660478907234
 31
0.0
  0
LINE
  5
29C2
330
29BF
100
AcDbEntity
  8
図枠細線
  6
Continuous
 62
   252
100
AcDbLine
 10
4.061011071050756
 20
11.80660625335804
 30
0.0
 11
75.06101107105074
 21
11.80660625335804
 31
0.0
  0
LINE
  5
29C3
330
29BF
100
AcDbEntity
  8
図枠細線
  6
Continuous
 62
   252
100
AcDbLine
 10
4.061011071050756
 20
21.80660625335804
 30
0.0
 11
75.06101107105074
 21
21.80660625335805
 31
0.0
  0
LINE
  5
29C4
330
29BF
100
AcDbEntity
  8
図枠細線
  6
Continuous
 62
   252
100
AcDbLine
 10
4.061011071050756
 20
26.80660625335804
 30
0.0
 11
75.06101107105074
 21
26.80660625335804
 31
0.0
  0
LINE
  5
29C5
330
29BF
100
AcDbEntity
  8
図枠細線
  6
Continuous
100
AcDbLine
 10
4.061011071050756
 20
16.80660825335803
 30
0.0
 11
75.06101107105074
 21
16.80660825335803
 31
0.0
  0
TEXT
  5
29C6
330
29BF
100
AcDbEntity
  8
図枠細線
  6
Continuous
 62
   252
100
AcDbText
 10
76.40547582771296
 20
9.560308253358016
 30
0.0
 40
2.0
  1
ＴＨＩＲＤ　ＡＮＧＬＥ
 41
0.6910994867379731
  7
EXCADSTD
 72
     5
 11
94.00547608997333
 21
9.560308253358016
 31
0.0
100
AcDbText
  0
TEXT
  5
29C7
330
29BF
100
AcDbEntity
  8
図枠細線
  6
Continuous
 62
   252
100
AcDbText
 10
76.70577588092118
 20
14.30660825335803
 30
0.0
 40
2.0
  1
第三角法
 41
1.102941176470587
  7
EXCADSTD
 72
     5
 11
86.70577588092118
 21
14.30660825335803
 31
0.0
100
AcDbText
  0
TEXT
  5
29C8
330
29BF
100
AcDbEntity
  8
図枠細線
  6
Continuous
 62
   252
100
AcDbText
 10
76.70577588092118
 20
26.80660825335804
 30
0.0
 40
2.0
  1
ＡＰＰＲＯＶＥＤ
 41
0.6956521842790683
  7
EXCADSTD
 72
     5
 11
89.50577607165604
 21
26.80660825335804
 31
0.0
100
AcDbText
  0
TEXT
  5
29C9
330
29BF
100
AcDbEntity
  8
図枠細線
  6
Continuous
 62
   252
100
AcDbText
 10
76.70577588092118
 20
29.30660825335804
 30
0.0
 40
2.0
  1
承認
 41
1.171875
  7
EXCADSTD
 72
     5
 11
81.70577588092118
 21
29.30660825335804
 31
0.0
100
AcDbText
  0
LINE
  5
29CA
330
29BF
100
AcDbEntity
  8
図枠細線
  6
Continuous
 62
   252
100
AcDbLine
 10
98.06101107105076
 20
31.80660625335804
 30
0.0
 11
98.06101107105076
 21
16.80660625335804
 31
0.0
  0
TEXT
  5
29CB
330
29BF
100
AcDbEntity
  8
図枠細線
  6
Continuous
 62
   252
100
AcDbText
 10
104.2165311198036
 20
14.30660825335803
 30
0.0
 40
2.0
  1
ＳＣＡＬＥ
 41
0.9036144578313253
  7
EXCADSTD
 72
     5
 11
114.2165311198036
 21
14.30660825335803
 31
0.0
100
AcDbText
  0
TEXT
  5
29CC
330
29BF
100
AcDbEntity
  8
図枠細線
  6
Continuous
 62
   252
100
AcDbText
 10
98.84404411980364
 20
14.30660825335803
 30
0.0
 40
2.0
  1
尺度
 41
1.171874999999999
  7
EXCADSTD
 72
     5
 11
103.8440441198036
 21
14.30660825335803
 31
0.0
100
AcDbText
  0
TEXT
  5
29CD
330
29BF
100
AcDbEntity
  8
図枠細線
  6
Continuous
 62
   252
100
AcDbText
 10
98.96872770749741
 20
26.80660825335804
 30
0.0
 40
2.0
  1
ＣＨＥＣＫＥＤ
 41
0.8312499895691873
  7
EXCADSTD
 72
     5
 11
112.2687275406044
 21
26.80660825335804
 31
0.0
100
AcDbText
  0
TEXT
  5
29CE
330
29BF
100
AcDbEntity
  8
図枠細線
  6
Continuous
 62
   252
100
AcDbText
 10
98.96872770749741
 20
29.30660825335804
 30
0.0
 40
2.0
  1
検図
 41
1.209677419354838
  7
EXCADSTD
 72
     5
 11
103.9687277074974
 21
29.30660825335804
 31
0.0
100
AcDbText
  0
LINE
  5
29CF
330
29BF
100
AcDbEntity
  8
図枠細線
  6
Continuous
 62
   252
100
AcDbLine
 10
121.0610110710507
 20
31.80660625335806
 30
0.0
 11
121.0610110710507
 21
16.80660625335805
 31
0.0
  0
TEXT
  5
29D0
330
29BF
100
AcDbEntity
  8
図枠細線
  6
Continuous
 62
   252
100
AcDbText
 10
128.0014652472527
 20
14.30660825335803
 30
0.0
 40
2.0
  1
ＤＡＴＥ
 41
0.9230769230769231
  7
EXCADSTD
 72
     5
 11
136.0014652472527
 21
14.30660825335803
 31
0.0
100
AcDbText
  0
TEXT
  5
29D1
330
29BF
100
AcDbEntity
  8
図枠細線
  6
Continuous
 62
   252
100
AcDbText
 10
122.0664154988409
 20
14.30660825335803
 30
0.0
 40
2.0
  1
日付
 41
1.171875
  7
EXCADSTD
 72
     5
 11
127.0664154988409
 21
14.30660825335803
 31
0.0
100
AcDbText
  0
TEXT
  5
29D2
330
29BF
100
AcDbEntity
  8
図枠細線
  6
Continuous
 62
   252
100
AcDbText
 10
121.5942940657102
 20
29.30660825335804
 30
0.0
 40
2.0
  1
製図
 41
1.209677419354838
  7
EXCADSTD
 72
     5
 11
126.5942940657102
 21
29.30660825335804
 31
0.0
100
AcDbText
  0
TEXT
  5
29D3
330
29BF
100
AcDbEntity
  8
図枠細線
  6
Continuous
 62
   252
100
AcDbText
 10
121.5942940657102
 20
26.80660825335804
 30
0.0
 40
2.0
  1
ＤＲＡＷＮ
 41
0.8823529411764708
  7
EXCADSTD
 72
     5
 11
131.5942940657102
 21
26.80660825335804
 31
0.0
100
AcDbText
  0
TEXT
  5
29D4
330
29BF
100
AcDbEntity
  8
図枠細線
  6
Continuous
 62
   252
100
AcDbText
 10
226.5912296613477
 20
14.30660825335803
 30
0.0
 40
2.0
  1
ＤＲＧ．ＮＯ．
 41
0.9375
  7
EXCADSTD
 72
     5
 11
240.5912296613478
 21
14.30660825335803
 31
0.0
100
AcDbText
  0
LINE
  5
29D5
330
29BF
100
AcDbEntity
  8
図枠太線
  6
Continuous
 62
   251
100
AcDbLine
 10
144.0610030710507
 20
16.80660625335804
 30
0.0
 11
214.0610110710508
 21
16.80660625335804
 31
0.0
  0
LINE
  5
29D6
330
29BF
100
AcDbEntity
  8
図枠細線
  6
Continuous
 62
   252
100
AcDbLine
 10
144.0610110710507
 20
24.30660625335804
 30
0.0
 11
214.0610110710508
 21
24.30660625335804
 31
0.0
  0
TEXT
  5
29D7
330
29BF
100
AcDbEntity
  8
図枠ロゴマーク
  6
Continuous
 62
   253
100
AcDbText
 10
146.4337767815963
 20
8.399000253358053
 30
0.0
 40
7.0
  1
東和制電工業株式会社
 41
0.8036108846195519
  7
EXCADSTD
 72
     5
 11
212.4370174383488
 21
8.399000253358053
 31
0.0
100
AcDbText
  0
TEXT
  5
29D8
330
29BF
100
AcDbEntity
  8
図枠細線
  6
Continuous
 62
   252
100
AcDbText
 10
215.156179912936
 20
14.30660825335803
 30
0.0
 40
2.0
  1
図面番号
 41
1.102941176470588
  7
EXCADSTD
 72
     5
 11
225.156179912936
 21
14.30660825335803
 31
0.0
100
AcDbText
  0
TEXT
  5
29D9
330
29BF
100
AcDbEntity
  8
図枠細線
  6
Continuous
 62
   252
100
AcDbText
 10
221.5912296613478
 20
29.30660825335804
 30
0.0
 40
2.0
  1
ＴＩＴＬＥ
 41
0.9036144578313251
  7
EXCADSTD
 72
     5
 11
231.5912296613477
 21
29.30660825335804
 31
0.0
100
AcDbText
  0
TEXT
  5
29DA
330
29BF
100
AcDbEntity
  8
図枠細線
  6
Continuous
 62
   252
100
AcDbText
 10
215.156179912936
 20
29.30660825335804
 30
0.0
 40
2.0
  1
名称
 41
1.171875
  7
EXCADSTD
 72
     5
 11
220.156179912936
 21
29.30660825335804
 31
0.0
100
AcDbText
  0
LINE
  5
29DB
330
29BF
100
AcDbEntity
  8
図枠太線
  6
Continuous
 62
   251
100
AcDbLine
 10
4.061011071050756
 20
1.806608253358035
 30
0.0
 11
284.0610110710508
 21
1.806608253358035
 31
0.0
  0
LINE
  5
29DC
330
29BF
100
AcDbEntity
  8
図枠細線
  6
Continuous
 62
   252
100
AcDbLine
 10
4.061011071050756
 20
6.806608253358035
 30
0.0
 11
75.06101107105074
 21
6.806608253358035
 31
0.0
  0
LINE
  5
29DD
330
29BF
100
AcDbEntity
  8
図枠太線
  6
Continuous
 62
   251
100
AcDbLine
 10
75.06101107105076
 20
1.806608253358042
 30
0.0
 11
75.06101107105076
 21
31.80660625335805
 31
0.0
  0
TEXT
  5
29DE
330
29BF
100
AcDbEntity
  8
図枠細線
  6
Continuous
 62
   252
100
AcDbText
 10
76.33055182771295
 20
6.638319253358019
 30
0.0
 40
2.0
  1
ＰＲＯＪＥＣＴＩＯＮ
 41
0.7542857101985412
  7
EXCADSTD
 72
     5
 11
93.93055173234557
 21
6.638319253358019
 31
0.0
100
AcDbText
  0
LINE
  5
29DF
330
29BF
100
AcDbEntity
  8
図枠細線
  6
Continuous
 62
   252
100
AcDbLine
 10
98.06101107105076
 20
1.806606931929469
 30
0.0
 11
98.06101107105076
 21
16.80660493192947
 31
0.0
  0
LINE
  5
29E0
330
29BF
100
AcDbEntity
  8
図枠細線
  6
Continuous
 62
   252
100
AcDbLine
 10
121.0610110710507
 20
1.806607574786621
 30
0.0
 11
121.0610110710507
 21
16.80660557478663
 31
0.0
  0
LINE
  5
29E1
330
29BF
100
AcDbEntity
  8
図枠太線
  6
Continuous
 62
   251
100
AcDbLine
 10
284.0610110710508
 20
1.806608253358035
 30
0.0
 11
284.0610110710508
 21
31.80660625335804
 31
0.0
  0
LINE
  5
29E2
330
29BF
100
AcDbEntity
  8
図枠細線
  6
Continuous
 62
   252
100
AcDbLine
 10
214.0610110710508
 20
16.80660625335804
 30
0.0
 11
284.0610110710508
 21
16.80660625335804
 31
0.0
  0
TEXT
  5
29E3
330
29BF
100
AcDbEntity
  8
図枠細線
  6
Continuous
 62
   252
100
AcDbText
 10
146.1995936761824
 20
3.454099253358037
 30
0.0
 40
3.5
  1
ＴＯＷＡ　ＳＥＩＤＥＮ　ＩＮＤＵＳＴＲＩＡＬ　ＣＯ．，ＬＴＤ．
 41
0.5289378269070804
  7
EXCADSTD
 72
     5
 11
213.3394351715878
 21
3.454099253358037
 31
0.0
100
AcDbText
  0
LINE
  5
29E4
330
29BF
100
AcDbEntity
  8
図枠太線
  6
Continuous
 62
   251
100
AcDbLine
 10
144.0610110710507
 20
1.806608253358035
 30
0.0
 11
144.0610110710507
 21
31.80660625335804
 31
0.0
  0
LINE
  5
29E5
330
29BF
100
AcDbEntity
  8
図枠太線
  6
Continuous
 62
   251
100
AcDbLine
 10
214.0610110710508
 20
1.806608253358035
 30
0.0
 11
214.0610110710508
 21
31.80660625335804
 31
0.0
  0
MTEXT
  5
29E6
330
29BF
100
AcDbEntity
  8
図枠太線
100
AcDbMText
 10
5.064337346478396
 20
31.0109821374075
 30
0.0
 40
2.5
 41
8.678560984720206
 71
     1
 72
     5
  1
{\Fmonotxt.shx,bigfont.shx|c128;図暦}
 73
     1
 44
1.0
  0
LINE
  5
29E7
330
29BF
100
AcDbEntity
  8
図枠太線
  6
Continuous
 62
   251
100
AcDbLine
 10
4.061011071050756
 20
1.806608253358035
 30
0.0
 11
4.061011071050756
 21
31.80660625335804
 31
0.0
  0
TEXT
  5
29E8
330
29BF
100
AcDbEntity
  8
図枠細線
 48
10.0
100
AcDbText
 10
12.26081742040207
 20
28.62541962649539
 30
0.0
 40
2.0
  1
CHANGE NOTICE
100
AcDbText
  0
ENDBLK
  5
29E9
330
29BF
100
AcDbEntity
  8
0
100
AcDbBlockEnd
  0
BLOCK
  5
29F5
330
29F4
100
AcDbEntity
  8
0
100
AcDbBlockBegin
  2
A4縦用　タイトル
 70
     0
 10
0.0
 20
0.0
 30
0.0
  3
A4縦用　タイトル
  1

  0
LINE
  5
29F6
330
29F4
100
AcDbEntity
  8
図枠太線
  6
Continuous
 62
   251
100
AcDbLine
 10
2.36825386426733
 20
4.525433224583935
 30
0.0
 11
192.3682458642673
 21
4.525433224583935
 31
0.0
  0
LINE
  5
29F7
330
29F4
100
AcDbEntity
  8
図枠太線
  6
Continuous
 62
   251
100
AcDbLine
 10
78.36824586426729
 20
19.52543122458394
 30
0.0
 11
135.3682538642673
 21
19.52543122458394
 31
0.0
  0
LINE
  5
29F8
330
29F4
100
AcDbEntity
  8
図枠細線
  6
Continuous
 62
   252
100
AcDbLine
 10
78.36825386426733
 20
27.02543122458394
 30
0.0
 11
135.3682538642673
 21
27.02543122458394
 31
0.0
  0
TEXT
  5
29F9
330
29F4
100
AcDbEntity
  8
図枠ロゴマーク
  6
Continuous
 62
   253
100
AcDbText
 10
80.61700986426728
 20
11.11782522458395
 30
0.0
 40
7.0
  1
東和制電工業株式会社
 41
0.6392045454545461
  7
EXCADSTD
 72
     5
 11
133.1170098642673
 21
11.11782522458395
 31
0.0
100
AcDbText
  0
TEXT
  5
29FA
330
29F4
100
AcDbEntity
  8
図枠細線
  6
Continuous
 62
   252
100
AcDbText
 10
80.57954986426727
 20
6.172924224583937
 30
0.0
 40
3.5
  1
ＴＯＷＡ　ＳＥＩＤＥＮ　ＩＮＤＵＳＴＲＩＡＬ　ＣＯ．，ＬＴＤ．
 41
0.4145680123767934
  7
EXCADSTD
 72
     5
 11
133.2020495686283
 21
6.172924224583937
 31
0.0
100
AcDbText
  0
LINE
  5
29FB
330
29F4
100
AcDbEntity
  8
図枠太線
  6
Continuous
 62
   251
100
AcDbLine
 10
2.36825386426733
 20
4.525433224583935
 30
0.0
 11
2.36825386426733
 21
34.52543122458394
 31
0.0
  0
TEXT
  5
29FC
330
29F4
100
AcDbEntity
  8
図枠細線
  6
Continuous
 62
   252
100
AcDbText
 10
22.50430813650149
 20
12.27913322458391
 30
0.0
 40
2.0
  1
ＴＨＩＲＤ　ＡＮＧＬＥ
 41
0.6910994867379731
  7
EXCADSTD
 72
     5
 11
40.10430839876187
 21
12.27913322458391
 31
0.0
100
AcDbText
  0
TEXT
  5
29FD
330
29F4
100
AcDbEntity
  8
図枠細線
  6
Continuous
 62
   252
100
AcDbText
 10
22.42938413650148
 20
9.357144224583919
 30
0.0
 40
2.0
  1
ＰＲＯＪＥＣＴＩＯＮ
 41
0.7542857101985414
  7
EXCADSTD
 72
     5
 11
40.0293840411341
 21
9.357144224583919
 31
0.0
100
AcDbText
  0
LINE
  5
29FE
330
29F4
100
AcDbEntity
  8
図枠細線
  6
Continuous
100
AcDbLine
 10
22.36825386426733
 20
19.52543322458393
 30
0.0
 11
78.36825386426733
 21
19.52543122458394
 31
0.0
  0
TEXT
  5
29FF
330
29F4
100
AcDbEntity
  8
図枠細線
  6
Continuous
 62
   252
100
AcDbText
 10
22.86825386426733
 20
17.02543322458393
 30
0.0
 40
2.0
  1
第三角法
 41
1.102941176470588
  7
EXCADSTD
 72
     5
 11
32.86825386426733
 21
17.02543322458393
 31
0.0
100
AcDbText
  0
TEXT
  5
2A00
330
29F4
100
AcDbEntity
  8
図枠細線
  6
Continuous
 62
   252
100
AcDbText
 10
22.86825386426733
 20
29.52543322458394
 30
0.0
 40
2.0
  1
ＡＰＰＲＯＶＥＤ
 41
0.6956521842790688
  7
EXCADSTD
 72
     5
 11
35.6682540550022
 21
29.52543322458394
 31
0.0
100
AcDbText
  0
LINE
  5
2A01
330
29F4
100
AcDbEntity
  8
図枠細線
  6
Continuous
 62
   252
100
AcDbLine
 10
2.36825386426733
 20
9.525433224583935
 30
0.0
 11
22.36825386426733
 21
9.525433224583935
 31
0.0
  0
LINE
  5
2A02
330
29F4
100
AcDbEntity
  8
図枠細線
  6
Continuous
 62
   252
100
AcDbLine
 10
2.36825386426733
 20
14.52543122458394
 30
0.0
 11
22.36825386426733
 21
14.52543122458394
 31
0.0
  0
LINE
  5
2A03
330
29F4
100
AcDbEntity
  8
図枠細線
  6
Continuous
 62
   252
100
AcDbLine
 10
2.36825386426733
 20
24.52543122458394
 30
0.0
 11
22.36825386426733
 21
24.52543122458394
 31
0.0
  0
LINE
  5
2A04
330
29F4
100
AcDbEntity
  8
図枠細線
  6
Continuous
 62
   252
100
AcDbLine
 10
2.36825386426733
 20
29.52543122458394
 30
0.0
 11
22.36825386426733
 21
29.52543122458394
 31
0.0
  0
LINE
  5
2A05
330
29F4
100
AcDbEntity
  8
図枠細線
  6
Continuous
100
AcDbLine
 10
2.36825386426733
 20
19.52543322458393
 30
0.0
 11
22.36825386426733
 21
19.52543322458393
 31
0.0
  0
TEXT
  5
2A06
330
29F4
100
AcDbEntity
  8
図枠細線
  6
Continuous
 62
   252
100
AcDbText
 10
2.86825386426733
 20
32.02543322458394
 30
0.0
 40
2.0
  1
ＮＯＴＥ
 41
0.9230769230769231
  7
EXCADSTD
 72
     5
 11
10.86825386426733
 21
32.02543322458394
 31
0.0
100
AcDbText
  0
LINE
  5
2A07
330
29F4
100
AcDbEntity
  8
図枠太線
  6
Continuous
 62
   251
100
AcDbLine
 10
22.36825386426733
 20
4.525433224583935
 30
0.0
 11
22.36825386426733
 21
34.52543122458394
 31
0.0
  0
TEXT
  5
2A08
330
29F4
100
AcDbEntity
  8
図枠細線
  6
Continuous
 62
   252
100
AcDbText
 10
22.86825386426733
 20
32.02543322458394
 30
0.0
 40
2.0
  1
承認
 41
1.171875
  7
EXCADSTD
 72
     5
 11
27.86825386426733
 21
32.02543322458394
 31
0.0
100
AcDbText
  0
TEXT
  5
2A09
330
29F4
100
AcDbEntity
  8
図枠細線
  6
Continuous
 62
   252
100
AcDbText
 10
60.7117090359817
 20
32.02543322458394
 30
0.0
 40
2.0
  1
製図
 41
1.209677419354838
  7
EXCADSTD
 72
     5
 11
65.7117090359817
 21
32.02543322458394
 31
0.0
100
AcDbText
  0
TEXT
  5
2A0A
330
29F4
100
AcDbEntity
  8
図枠細線
  6
Continuous
 62
   252
100
AcDbText
 10
60.7117090359817
 20
29.52543322458394
 30
0.0
 40
2.0
  1
ＤＲＡＷＮ
 41
0.8823529411764708
  7
EXCADSTD
 72
     5
 11
70.7117090359817
 21
29.52543322458394
 31
0.0
100
AcDbText
  0
TEXT
  5
2A0B
330
29F4
100
AcDbEntity
  8
図枠細線
  6
Continuous
 62
   252
100
AcDbText
 10
60.83489174387716
 20
17.02543322458393
 30
0.0
 40
2.0
  1
日付
 41
1.171875
  7
EXCADSTD
 72
     5
 11
65.83489174387716
 21
17.02543322458393
 31
0.0
100
AcDbText
  0
TEXT
  5
2A0C
330
29F4
100
AcDbEntity
  8
図枠細線
  6
Continuous
 62
   252
100
AcDbText
 10
47.33366086426729
 20
17.02543322458393
 30
0.0
 40
2.0
  1
ＳＣＡＬＥ
 41
0.9036144578313253
  7
EXCADSTD
 72
     5
 11
57.3336608642673
 21
17.02543322458393
 31
0.0
100
AcDbText
  0
TEXT
  5
2A0D
330
29F4
100
AcDbEntity
  8
図枠細線
  6
Continuous
 62
   252
100
AcDbText
 10
42.28142599008208
 20
29.52543322458394
 30
0.0
 40
2.0
  1
ＣＨＥＣＫＥＤ
 41
0.8312499895691873
  7
EXCADSTD
 72
     5
 11
55.58142582318907
 21
29.52543322458394
 31
0.0
100
AcDbText
  0
LINE
  5
2A0E
330
29F4
100
AcDbEntity
  8
図枠細線
  6
Continuous
 62
   252
100
AcDbLine
 10
40.96825386426733
 20
34.52543122458394
 30
0.0
 11
40.96825386426733
 21
19.52543122458394
 31
0.0
  0
LINE
  5
2A0F
330
29F4
100
AcDbEntity
  8
図枠細線
  6
Continuous
 62
   252
100
AcDbLine
 10
40.96825386426733
 20
4.525433224583935
 30
0.0
 11
40.96825386426733
 21
19.52543122458394
 31
0.0
  0
TEXT
  5
2A10
330
29F4
100
AcDbEntity
  8
図枠細線
  6
Continuous
 62
   252
100
AcDbText
 10
41.96117386426727
 20
17.02543322458393
 30
0.0
 40
2.0
  1
尺度
 41
1.171874999999999
  7
EXCADSTD
 72
     5
 11
46.96117386426727
 21
17.02543322458393
 31
0.0
100
AcDbText
  0
TEXT
  5
2A11
330
29F4
100
AcDbEntity
  8
図枠細線
  6
Continuous
 62
   252
100
AcDbText
 10
42.28142599008208
 20
32.02543322458394
 30
0.0
 40
2.0
  1
検図
 41
1.209677419354838
  7
EXCADSTD
 72
     5
 11
47.28142599008208
 21
32.02543322458394
 31
0.0
100
AcDbText
  0
LINE
  5
2A12
330
29F4
100
AcDbEntity
  8
図枠細線
  6
Continuous
 62
   252
100
AcDbLine
 10
59.76825386426733
 20
34.52543122458394
 30
0.0
 11
59.76825386426733
 21
19.52543122458394
 31
0.0
  0
LINE
  5
2A13
330
29F4
100
AcDbEntity
  8
図枠細線
  6
Continuous
 62
   252
100
AcDbLine
 10
59.76825386426733
 20
4.525433224583935
 30
0.0
 11
59.76825386426733
 21
19.52543122458394
 31
0.0
  0
LINE
  5
2A14
330
29F4
100
AcDbEntity
  8
図枠太線
  6
Continuous
 62
   251
100
AcDbLine
 10
78.36825386426733
 20
4.525433224583935
 30
0.0
 11
78.36825386426733
 21
34.52543122458394
 31
0.0
  0
TEXT
  5
2A15
330
29F4
100
AcDbEntity
  8
図枠細線
  6
Continuous
 62
   252
100
AcDbText
 10
66.33489174387716
 20
17.02543322458393
 30
0.0
 40
2.0
  1
ＤＡＴＥ
 41
0.9230769230769231
  7
EXCADSTD
 72
     5
 11
74.33489174387716
 21
17.02543322458393
 31
0.0
100
AcDbText
  0
LINE
  5
2A16
330
29F4
100
AcDbEntity
  8
図枠細線
  6
Continuous
 62
   252
100
AcDbLine
 10
135.3682538642673
 20
19.52543122458394
 30
0.0
 11
192.3682458642673
 21
19.52543122458394
 31
0.0
  0
TEXT
  5
2A17
330
29F4
100
AcDbEntity
  8
図枠細線
  6
Continuous
 62
   252
100
AcDbText
 10
141.8682538642673
 20
32.02543322458394
 30
0.0
 40
2.0
  1
ＴＩＴＬＥ
 41
0.9036144578313251
  7
EXCADSTD
 72
     5
 11
151.8682538642673
 21
32.02543322458394
 31
0.0
100
AcDbText
  0
LINE
  5
2A18
330
29F4
100
AcDbEntity
  8
図枠太線
  6
Continuous
 62
   251
100
AcDbLine
 10
135.3682538642673
 20
4.525433224583935
 30
0.0
 11
135.3682538642673
 21
34.52543122458394
 31
0.0
  0
TEXT
  5
2A19
330
29F4
100
AcDbEntity
  8
図枠細線
  6
Continuous
 62
   252
100
AcDbText
 10
135.8682538642673
 20
17.02543322458393
 30
0.0
 40
2.0
  1
図面番号
 41
1.102941176470588
  7
EXCADSTD
 72
     5
 11
145.8682538642673
 21
17.02543322458393
 31
0.0
100
AcDbText
  0
TEXT
  5
2A1A
330
29F4
100
AcDbEntity
  8
図枠細線
  6
Continuous
 62
   252
100
AcDbText
 10
135.8682538642673
 20
32.02543322458394
 30
0.0
 40
2.0
  1
名称
 41
1.171875
  7
EXCADSTD
 72
     5
 11
140.8682538642673
 21
32.02543322458394
 31
0.0
100
AcDbText
  0
TEXT
  5
2A1B
330
29F4
100
AcDbEntity
  8
図枠細線
  6
Continuous
 62
   252
100
AcDbText
 10
146.8682538642673
 20
17.02543322458393
 30
0.0
 40
2.0
  1
ＤＲＧ．ＮＯ．
 41
0.9375
  7
EXCADSTD
 72
     5
 11
160.8682538642673
 21
17.02543322458393
 31
0.0
100
AcDbText
  0
LINE
  5
2A1C
330
29F4
100
AcDbEntity
  8
図枠太線
  6
Continuous
 62
   251
100
AcDbLine
 10
192.3682458642673
 20
4.525433224583935
 30
0.0
 11
192.3682458642673
 21
34.52543122458394
 31
0.0
  0
ENDBLK
  5
2A1D
330
29F4
100
AcDbEntity
  8
0
100
AcDbBlockEnd
  0
BLOCK
  5
2A33
330
2A32
100
AcDbEntity
  8
0
100
AcDbBlockBegin
  2
A3横用　タイトル
 70
     0
 10
0.0
 20
0.0
 30
0.0
  3
A3横用　タイトル
  1

  0
LINE
  5
2A34
330
2A32
100
AcDbEntity
  8
図枠細線
  6
Continuous
 62
   252
100
AcDbLine
 10
205.0984145357926
 20
33.52595975352681
 30
0.0
 11
305.0984145357926
 21
33.52595975352681
 31
0.0
  0
LINE
  5
2A35
330
2A32
100
AcDbEntity
  8
図枠太線
  6
Continuous
 62
   251
100
AcDbLine
 10
205.0984145357927
 20
23.52595975352683
 30
0.0
 11
305.0984145357926
 21
23.52595975352683
 31
0.0
  0
LINE
  5
2A36
330
2A32
100
AcDbEntity
  8
図枠細線
  6
Continuous
100
AcDbLine
 10
5.098414535792699
 20
23.52595975352683
 30
0.0
 11
105.0984145357927
 21
23.52595975352683
 31
0.0
  0
LINE
  5
2A37
330
2A32
100
AcDbEntity
  8
図枠細線
  6
Continuous
 62
   252
100
AcDbLine
 10
5.098414535792702
 20
36.72595775352683
 30
0.0
 11
105.0984145357927
 21
36.72595775352683
 31
0.0
  0
LINE
  5
2A38
330
2A32
100
AcDbEntity
  8
図枠細線
  6
Continuous
 62
   252
100
AcDbLine
 10
5.098414535792699
 20
30.12595775352683
 30
0.0
 11
105.0984145357927
 21
30.12595775352683
 31
0.0
  0
LINE
  5
2A39
330
2A32
100
AcDbEntity
  8
図枠細線
  6
Continuous
 62
   252
100
AcDbLine
 10
5.0984145357927
 20
16.72595975352682
 30
0.0
 11
105.0984145357927
 21
16.72595975352682
 31
0.0
  0
LINE
  5
2A3A
330
2A32
100
AcDbEntity
  8
図枠細線
  6
Continuous
 62
   252
100
AcDbLine
 10
5.098414535792699
 20
10.12595975352682
 30
0.0
 11
105.0984145357927
 21
10.12595975352682
 31
0.0
  0
LINE
  5
2A3B
330
2A32
100
AcDbEntity
  8
図枠細線
  6
Continuous
100
AcDbLine
 10
105.0984145357926
 20
23.52596175352682
 30
0.0
 11
205.0984145357927
 21
23.52595975352683
 31
0.0
  0
LINE
  5
2A3C
330
2A32
100
AcDbEntity
  8
図枠細線
  6
Continuous
 62
   252
100
AcDbLine
 10
138.3984145357926
 20
43.52595975352682
 30
0.0
 11
138.3984145357926
 21
18.52595775352682
 31
0.0
  0
LINE
  5
2A3D
330
2A32
100
AcDbEntity
  8
図枠細線
  6
Continuous
 62
   252
100
AcDbLine
 10
171.6984145357926
 20
43.52595975352682
 30
0.0
 11
171.6984145357926
 21
18.52595775352682
 31
0.0
  0
LINE
  5
2A3E
330
2A32
100
AcDbEntity
  8
図枠細線
  6
Continuous
 62
   252
100
AcDbLine
 10
305.0984145357927
 20
23.52595975352683
 30
0.0
 11
405.0984145357927
 21
23.52595975352681
 31
0.0
  0
TEXT
  5
2A3F
330
2A32
100
AcDbEntity
  8
図枠ロゴマーク
  6
Continuous
 62
   253
100
AcDbText
 10
206.1025092127552
 20
13.29425757054633
 30
0.0
 40
7.0
  1
東和制電工業株式会社
 50
0.016555220184569
 41
1.186384129431804
  7
EXCADSTD
 72
     5
 11
303.5441883091428
 21
13.32241267221695
 31
0.0
100
AcDbText
  0
MTEXT
  5
2A40
330
2A32
100
AcDbEntity
  8
図枠細線
100
AcDbMText
 10
6.356764112374776
 20
41.97659417547754
 30
0.0
 40
2.5
 41
49.93828270629228
 71
     1
 72
     5
  1
{\Fmonotxt.shx,bigfont.shx|c128;図暦　CHANGE　NOTICE}
 73
     1
 44
1.0
  0
MTEXT
  5
2A41
330
2A32
100
AcDbEntity
  8
図枠細線
 48
10.0
100
AcDbMText
 10
306.5441149268283
 20
41.70183580093419
 30
0.0
 40
2.5
 41
28.00280961882254
 71
     1
 72
     5
  1
{\Fmonotxt.shx,bigfont.shx|c128;名称　TITLE}
 73
     1
 44
1.0
  0
MTEXT
  5
2A42
330
2A32
100
AcDbEntity
  8
図枠細線
 48
10.0
100
AcDbMText
 10
307.3296171142835
 20
21.60620679722615
 30
0.0
 40
2.5
 41
24.38561221670716
 71
     1
 72
     5
  1
{\Fmonotxt.shx,bigfont.shx|c128;図面番号\PDRG.　No.}
 73
     1
 44
1.0
  0
MTEXT
  5
2A43
330
2A32
100
AcDbEntity
  8
図枠細線
 48
10.0
100
AcDbMText
 10
173.7263494046087
 20
21.73680662198024
 30
0.0
 40
2.5
 41
25.73509016081289
 71
     1
 72
     5
  1
{\Fmonotxt.shx,bigfont.shx|c128;日付 DATE}
 73
     1
 44
1.0
  0
MTEXT
  5
2A44
330
2A32
100
AcDbEntity
  8
図枠細線
 48
10.0
100
AcDbMText
 10
173.4870883398202
 20
41.62159204499767
 30
0.0
 40
2.5
 41
24.98374118420452
 71
     1
 72
     5
  1
{\Fmonotxt.shx,bigfont.shx|c128;製図　DRAWN}
 73
     1
 44
1.0
  0
MTEXT
  5
2A45
330
2A32
100
AcDbEntity
  8
図枠細線
 48
10.0
100
AcDbMText
 10
139.28009927741
 20
21.8667130698675
 30
0.0
 40
2.5
 41
22.62963291324309
 71
     1
 72
     5
  1
{\Fmonotxt.shx,bigfont.shx|c128;尺度　SCALE}
 73
     1
 44
1.0
  0
MTEXT
  5
2A46
330
2A32
100
AcDbEntity
  8
図枠細線
 48
10.0
100
AcDbMText
 10
139.9100911798348
 20
41.31184041555377
 30
0.0
 40
2.5
 41
28.99875342836845
 71
     1
 72
     5
  1
{\Fmonotxt.shx,bigfont.shx|c128;検図  CHECKED}
 73
     1
 44
1.0
  0
MTEXT
  5
2A47
330
2A32
100
AcDbEntity
  8
図枠細線
 48
10.0
100
AcDbMText
 10
114.2532946677281
 20
21.91612485017367
 30
0.0
 40
3.0
 41
19.69240047538346
 71
     1
 72
     5
  1
{\Fmonotxt.shx,bigfont.shx|c128;第三角法}
 73
     1
 44
1.0
  0
MTEXT
  5
2A48
330
2A32
100
AcDbEntity
  8
図枠細線
 48
10.0
100
AcDbMText
 10
108.9869599299147
 20
15.28288018583657
 30
0.0
 40
2.5
 41
27.95488282354722
 71
     1
 72
     5
  1
{\Fmonotxt.shx,bigfont.shx|c128;THIRD ANGLE\PPROJECTION}
 73
     1
 44
1.0
  0
MTEXT
  5
2A49
330
2A32
100
AcDbEntity
  8
図枠細線
 48
10.0
100
AcDbMText
 10
106.3194326401844
 20
41.51143714548664
 30
0.0
 40
2.5
 41
28.23359526507397
 71
     1
 72
     5
  1
{\Fmonotxt.shx,bigfont.shx|c128;承認 APPROVED}
 73
     1
 44
1.0
  0
LINE
  5
2A4A
330
2A32
100
AcDbEntity
  8
図枠太線
  6
Continuous
 62
   251
100
AcDbLine
 10
5.098414535792699
 20
3.525959753526819
 30
0.0
 11
405.0984145357927
 21
3.525959753526819
 31
0.0
  0
LINE
  5
2A4B
330
2A32
100
AcDbEntity
  8
図枠太線
 48
10.0
100
AcDbLine
 10
5.098414535792699
 20
3.525959753526819
 30
0.0
 11
5.098414535792699
 21
43.52595975352682
 31
0.0
  0
LINE
  5
2A4C
330
2A32
100
AcDbEntity
  8
図枠太線
  6
Continuous
 62
   251
100
AcDbLine
 10
105.0984145357927
 20
3.525959753526819
 30
0.0
 11
105.0984145357927
 21
43.52595975352683
 31
0.0
  0
LINE
  5
2A4D
330
2A32
100
AcDbEntity
  8
図枠細線
  6
Continuous
 62
   252
100
AcDbLine
 10
138.3984145357926
 20
3.525959753526819
 30
0.0
 11
138.3984145357926
 21
18.52595775352682
 31
0.0
  0
LINE
  5
2A4E
330
2A32
100
AcDbEntity
  8
図枠細線
  6
Continuous
 62
   252
100
AcDbLine
 10
171.6984145357926
 20
3.525959753526819
 30
0.0
 11
171.6984145357926
 21
18.52595775352682
 31
0.0
  0
LINE
  5
2A4F
330
2A32
100
AcDbEntity
  8
図枠太線
  6
Continuous
 62
   251
100
AcDbLine
 10
205.0984145357927
 20
3.525959753526819
 30
0.0
 11
205.0984145357927
 21
43.52595975352683
 31
0.0
  0
LINE
  5
2A50
330
2A32
100
AcDbEntity
  8
図枠太線
 48
10.0
100
AcDbLine
 10
405.0984145357927
 20
43.52595975352682
 30
0.0
 11
405.0984145357927
 21
3.525959753526819
 31
0.0
  0
TEXT
  5
2A51
330
2A32
100
AcDbEntity
  8
図枠細線
  6
Continuous
 62
   252
100
AcDbText
 10
208.5197544745715
 20
6.48235840728546
 30
0.0
 40
3.5
  1
ＴＯＷＡ　ＳＥＩＤＥＮ　ＩＮＤＵＳＴＲＩＡＬ　ＣＯ．，ＬＴＤ．
 41
0.7466562975091008
  7
EXCADSTD
 72
     5
 11
303.2953271717267
 21
6.48235840728546
 31
0.0
100
AcDbText
  0
LINE
  5
2A52
330
2A32
100
AcDbEntity
  8
図枠太線
  6
Continuous
 62
   251
100
AcDbLine
 10
305.0984145357927
 20
3.525959753526819
 30
0.0
 11
305.0984145357927
 21
43.52595975352683
 31
0.0
  0
ENDBLK
  5
2A53
330
2A32
100
AcDbEntity
  8
0
100
AcDbBlockEnd
  0
BLOCK
  5
2A6D
330
2A6C
100
AcDbEntity
  8
0
100
AcDbBlockBegin
  2
A3縦用　タイトル
 70
     0
 10
0.0
 20
0.0
 30
0.0
  3
A3縦用　タイトル
  1

  0
MTEXT
  5
2A6E
330
2A6C
100
AcDbEntity
  8
図枠細線
100
AcDbMText
 10
5.040804501592901
 20
31.62609864900492
 30
0.0
 40
2.5
 41
49.93828270629228
 71
     1
 72
     5
  1
{\Fmonotxt.shx,bigfont.shx|c128;図暦　CHANGE　NOTICE}
 73
     1
 44
1.0
  0
LINE
  5
2A6F
330
2A6C
100
AcDbEntity
  8
図枠太線
  6
Continuous
 62
   251
100
AcDbLine
 10
283.5778718829611
 20
2.820844689254272
 30
0.0
 11
283.5778718829611
 21
32.82084268925428
 31
0.0
  0
MTEXT
  5
2A70
330
2A6C
100
AcDbEntity
  8
図枠細線
 48
10.0
100
AcDbMText
 10
214.9124589474543
 20
31.62148863230834
 30
0.0
 40
2.5
 41
28.00280961882254
 71
     1
 72
     5
  1
{\Fmonotxt.shx,bigfont.shx|c128;名称　TITLE}
 73
     1
 44
1.0
  0
MTEXT
  5
2A71
330
2A6C
100
AcDbEntity
  8
図枠細線
 48
10.0
100
AcDbMText
 10
214.740030458938
 20
16.31022579672151
 30
0.0
 40
2.5
 41
24.38561221670716
 71
     1
 72
     5
  1
{\Fmonotxt.shx,bigfont.shx|c128;図面番号\PDRG.　No.}
 73
     1
 44
1.0
  0
LINE
  5
2A72
330
2A6C
100
AcDbEntity
  8
図枠太線
  6
Continuous
 62
   251
100
AcDbLine
 10
213.5778718829611
 20
2.820844689254272
 30
0.0
 11
213.5778718829611
 21
32.82084268925428
 31
0.0
  0
LINE
  5
2A73
330
2A6C
100
AcDbEntity
  8
図枠太線
  6
Continuous
 62
   251
100
AcDbLine
 10
143.577871882961
 20
2.820844689254272
 30
0.0
 11
143.577871882961
 21
32.82084268925428
 31
0.0
  0
TEXT
  5
2A74
330
2A6C
100
AcDbEntity
  8
図枠細線
  6
Continuous
 62
   252
100
AcDbText
 10
145.7164544880927
 20
4.468335689254274
 30
0.0
 40
3.5
  1
ＴＯＷＡ　ＳＥＩＤＥＮ　ＩＮＤＵＳＴＲＩＡＬ　ＣＯ．，ＬＴＤ．
 41
0.5289378269070801
  7
EXCADSTD
 72
     5
 11
212.856295983498
 21
4.468335689254274
 31
0.0
100
AcDbText
  0
TEXT
  5
2A75
330
2A6C
100
AcDbEntity
  8
図枠ロゴマーク
  6
Continuous
 62
   253
100
AcDbText
 10
145.9506375935066
 20
9.41323668925429
 30
0.0
 40
7.0
  1
東和制電工業株式会社
 41
0.8036108846195519
  7
EXCADSTD
 72
     5
 11
211.9538782502591
 21
9.41323668925429
 31
0.0
100
AcDbText
  0
LINE
  5
2A76
330
2A6C
100
AcDbEntity
  8
図枠細線
  6
Continuous
 62
   252
100
AcDbLine
 10
143.577871882961
 20
25.32084268925428
 30
0.0
 11
213.5778718829611
 21
25.32084268925428
 31
0.0
  0
LINE
  5
2A77
330
2A6C
100
AcDbEntity
  8
図枠太線
  6
Continuous
 62
   251
100
AcDbLine
 10
143.577863882961
 20
17.82084268925428
 30
0.0
 11
213.5778718829611
 21
17.82084268925428
 31
0.0
  0
LINE
  5
2A78
330
2A6C
100
AcDbEntity
  8
図枠細線
  6
Continuous
 62
   252
100
AcDbLine
 10
213.5778718829611
 20
17.82084268925428
 30
0.0
 11
283.5778718829611
 21
17.82084268925428
 31
0.0
  0
LINE
  5
2A79
330
2A6C
100
AcDbEntity
  8
図枠細線
  6
Continuous
 62
   252
100
AcDbLine
 10
120.577871882961
 20
32.82084268925429
 30
0.0
 11
120.577871882961
 21
17.82084268925429
 31
0.0
  0
MTEXT
  5
2A7A
330
2A6C
100
AcDbEntity
  8
図枠細線
 48
10.0
100
AcDbMText
 10
121.1008856703524
 20
16.33785922638049
 30
0.0
 40
2.0
 41
17.70597828506834
 71
     1
 72
     5
  1
{\Fmonotxt.shx,bigfont.shx|c128;日付 DATE}
 73
     1
 44
1.0
  0
MTEXT
  5
2A7B
330
2A6C
100
AcDbEntity
  8
図枠細線
 48
10.0
100
AcDbMText
 10
121.254842273491
 20
31.20899351403704
 30
0.0
 40
2.0
 41
18.36379956875839
 71
     1
 72
     5
  1
{\Fmonotxt.shx,bigfont.shx|c128;製図　DRAWN}
 73
     1
 44
1.0
  0
LINE
  5
2A7C
330
2A6C
100
AcDbEntity
  8
図枠細線
  6
Continuous
 62
   252
100
AcDbLine
 10
97.57787188296106
 20
32.82084268925428
 30
0.0
 11
97.57787188296106
 21
17.82084268925428
 31
0.0
  0
MTEXT
  5
2A7D
330
2A6C
100
AcDbEntity
  8
図枠細線
 48
10.0
100
AcDbMText
 10
98.23973479687197
 20
16.46776483928056
 30
0.0
 40
2.0
 41
17.75779168990334
 71
     1
 72
     5
  1
{\Fmonotxt.shx,bigfont.shx|c128;尺度　SCALE}
 73
     1
 44
1.0
  0
MTEXT
  5
2A7E
330
2A6C
100
AcDbEntity
  8
図枠細線
 48
10.0
100
AcDbMText
 10
97.86474462515366
 20
31.29843337766442
 30
0.0
 40
2.0
 41
23.16265592097625
 71
     1
 72
     5
  1
{\Fmonotxt.shx,bigfont.shx|c128;検図  CHECKED}
 73
     1
 44
1.0
  0
LINE
  5
2A7F
330
2A6C
100
AcDbEntity
  8
図枠細線
  6
Continuous
 62
   252
100
AcDbLine
 10
97.57787188296106
 20
2.820843367825702
 30
0.0
 11
97.57787188296106
 21
17.82084136782571
 31
0.0
  0
LINE
  5
2A80
330
2A6C
100
AcDbEntity
  8
図枠細線
  6
Continuous
 62
   252
100
AcDbLine
 10
120.577871882961
 20
2.820844010682861
 30
0.0
 11
120.577871882961
 21
17.82084201068286
 31
0.0
  0
MTEXT
  5
2A81
330
2A6C
100
AcDbEntity
  8
図枠細線
 48
10.0
100
AcDbMText
 10
81.40239908410171
 20
16.3164841174256
 30
0.0
 40
2.0
 41
12.9203228193694
 71
     1
 72
     5
  1
{\Fmonotxt.shx,bigfont.shx|c128;第三角法}
 73
     1
 44
1.0
  0
MTEXT
  5
2A82
330
2A6C
100
AcDbEntity
  8
図枠細線
 48
10.0
100
AcDbMText
 10
75.73657653509553
 20
11.08041093131885
 30
0.0
 40
2.0
 41
21.07287067147126
 71
     1
 72
     5
  1
{\Fmonotxt.shx,bigfont.shx|c128;THIRD ANGLE\PPROJECTION}
 73
     1
 44
1.0
  0
LINE
  5
2A83
330
2A6C
100
AcDbEntity
  8
図枠太線
  6
Continuous
 62
   251
100
AcDbLine
 10
74.57787188296106
 20
2.820844689254279
 30
0.0
 11
74.57787188296106
 21
32.82084268925429
 31
0.0
  0
MTEXT
  5
2A84
330
2A6C
100
AcDbEntity
  8
図枠細線
 48
10.0
100
AcDbMText
 10
75.06021478157276
 20
31.29843477855525
 30
0.0
 40
2.0
 41
22.24092880596732
 71
     1
 72
     5
  1
{\Fmonotxt.shx,bigfont.shx|c128;承認 APPROVED}
 73
     1
 44
1.0
  0
LINE
  5
2A85
330
2A6C
100
AcDbEntity
  8
図枠細線
  6
Continuous
100
AcDbLine
 10
3.577871882961062
 20
17.82084468925427
 30
0.0
 11
74.57787188296106
 21
17.82084468925427
 31
0.0
  0
LINE
  5
2A86
330
2A6C
100
AcDbEntity
  8
図枠細線
  6
Continuous
 62
   252
100
AcDbLine
 10
3.577871882961062
 20
27.82084268925428
 30
0.0
 11
74.57787188296106
 21
27.82084268925428
 31
0.0
  0
LINE
  5
2A87
330
2A6C
100
AcDbEntity
  8
図枠細線
  6
Continuous
 62
   252
100
AcDbLine
 10
3.577871882961062
 20
22.82084268925428
 30
0.0
 11
74.57787188296106
 21
22.82084268925428
 31
0.0
  0
LINE
  5
2A88
330
2A6C
100
AcDbEntity
  8
図枠細線
  6
Continuous
 62
   252
100
AcDbLine
 10
3.577871882961062
 20
12.82084268925428
 30
0.0
 11
74.57787188296106
 21
12.82084268925428
 31
0.0
  0
LINE
  5
2A89
330
2A6C
100
AcDbEntity
  8
図枠細線
  6
Continuous
 62
   252
100
AcDbLine
 10
3.577871882961062
 20
7.820844689254272
 30
0.0
 11
74.57787188296106
 21
7.820844689254272
 31
0.0
  0
LINE
  5
2A8A
330
2A6C
100
AcDbEntity
  8
図枠細線
  6
Continuous
100
AcDbLine
 10
74.57787188296106
 20
17.82084368925428
 30
0.0
 11
143.577871882961
 21
17.82084122496857
 31
0.0
  0
LINE
  5
2A8B
330
2A6C
100
AcDbEntity
  8
図枠太線
  6
Continuous
 62
   251
100
AcDbLine
 10
3.577871882961062
 20
2.820844689254272
 30
0.0
 11
283.5778718829611
 21
2.820844689254272
 31
0.0
  0
LINE
  5
2A8C
330
2A6C
100
AcDbEntity
  8
図枠太線
  6
Continuous
 62
   251
100
AcDbLine
 10
3.577871882961062
 20
2.820844689254271
 30
0.0
 11
3.577871882961062
 21
32.82084268925428
 31
0.0
  0
ENDBLK
  5
2A8D
330
2A6C
100
AcDbEntity
  8
0
100
AcDbBlockEnd
  0
BLOCK
  5
2AE7
330
2AE3
100
AcDbEntity
  8
0
 48
10.0
100
AcDbBlockBegin
  2
_Open30
 70
     0
 10
0.0
 20
0.0
 30
0.0
  3
_Open30
  1

  0
LINE
  5
2AE4
330
2AE3
100
AcDbEntity
  8
0
  6
ByBlock
 62
     0
370
    -2
100
AcDbLine
 10
-1.0
 20
0.26794919
 30
0.0
 11
0.0
 21
0.0
 31
0.0
  0
LINE
  5
2AE5
330
2AE3
100
AcDbEntity
  8
0
  6
ByBlock
 62
     0
370
    -2
100
AcDbLine
 10
0.0
 20
0.0
 30
0.0
 11
-1.0
 21
-0.26794919
 31
0.0
  0
LINE
  5
2AE6
330
2AE3
100
AcDbEntity
  8
0
  6
ByBlock
 62
     0
370
    -2
100
AcDbLine
 10
0.0
 20
0.0
 30
0.0
 11
-1.0
 21
0.0
 31
0.0
  0
ENDBLK
  5
2AE8
330
2AE3
100
AcDbEntity
  8
0
 48
10.0
100
AcDbBlockEnd
  0
BLOCK
  5
2B22
330
2B21
100
AcDbEntity
  8
0
100
AcDbBlockBegin
  2
*X6
 70
     1
 10
0.0
 20
0.0
 30
0.0
  3
*X6
  1

  0
LINE
  5
2B23
330
2B21
100
AcDbEntity
  8
0
100
AcDbLine
 10
63.5
 20
24.064304
 30
0.0
 11
63.5
 21
55.14285699999999
 31
0.0
  0
LINE
  5
2B24
330
2B21
100
AcDbEntity
  8
0
100
AcDbLine
 10
63.5
 20
88.0
 30
0.0
 11
63.5
 21
103.142857
 31
0.0
  0
LINE
  5
2B25
330
2B21
100
AcDbEntity
  8
0
100
AcDbLine
 10
63.5
 20
64.0
 30
0.0
 11
63.5
 21
79.14285699999999
 31
0.0
  0
LINE
  5
2B26
330
2B21
100
AcDbEntity
  8
0
100
AcDbLine
 10
63.0
 20
24.064304
 30
0.0
 11
63.0
 21
54.285714
 31
0.0
  0
LINE
  5
2B27
330
2B21
100
AcDbEntity
  8
0
100
AcDbLine
 10
63.0
 20
88.0
 30
0.0
 11
63.0
 21
102.285714
 31
0.0
  0
LINE
  5
2B28
330
2B21
100
AcDbEntity
  8
0
100
AcDbLine
 10
63.0
 20
64.0
 30
0.0
 11
63.0
 21
78.285714
 31
0.0
  0
LINE
  5
2B29
330
2B21
100
AcDbEntity
  8
0
100
AcDbLine
 10
62.5
 20
24.064304
 30
0.0
 11
62.5
 21
53.42857099999999
 31
0.0
  0
LINE
  5
2B2A
330
2B21
100
AcDbEntity
  8
0
100
AcDbLine
 10
62.5
 20
88.0
 30
0.0
 11
62.5
 21
101.428571
 31
0.0
  0
LINE
  5
2B2B
330
2B21
100
AcDbEntity
  8
0
100
AcDbLine
 10
62.5
 20
64.0
 30
0.0
 11
62.5
 21
77.42857099999999
 31
0.0
  0
LINE
  5
2B2C
330
2B21
100
AcDbEntity
  8
0
100
AcDbLine
 10
62.0
 20
24.064304
 30
0.0
 11
62.0
 21
52.571429
 31
0.0
  0
LINE
  5
2B2D
330
2B21
100
AcDbEntity
  8
0
100
AcDbLine
 10
62.0
 20
88.0
 30
0.0
 11
62.0
 21
100.571429
 31
0.0
  0
LINE
  5
2B2E
330
2B21
100
AcDbEntity
  8
0
100
AcDbLine
 10
62.0
 20
64.0
 30
0.0
 11
62.0
 21
76.57142900000001
 31
0.0
  0
LINE
  5
2B2F
330
2B21
100
AcDbEntity
  8
0
100
AcDbLine
 10
61.5
 20
24.064304
 30
0.0
 11
61.5
 21
51.714286
 31
0.0
  0
LINE
  5
2B30
330
2B21
100
AcDbEntity
  8
0
100
AcDbLine
 10
61.5
 20
88.0
 30
0.0
 11
61.5
 21
99.71428600000001
 31
0.0
  0
LINE
  5
2B31
330
2B21
100
AcDbEntity
  8
0
100
AcDbLine
 10
61.5
 20
64.0
 30
0.0
 11
61.5
 21
75.714286
 31
0.0
  0
LINE
  5
2B32
330
2B21
100
AcDbEntity
  8
0
100
AcDbLine
 10
61.0
 20
24.064304
 30
0.0
 11
61.0
 21
50.857143
 31
0.0
  0
LINE
  5
2B33
330
2B21
100
AcDbEntity
  8
0
100
AcDbLine
 10
61.0
 20
88.0
 30
0.0
 11
61.0
 21
98.85714300000001
 31
0.0
  0
LINE
  5
2B34
330
2B21
100
AcDbEntity
  8
0
100
AcDbLine
 10
61.0
 20
64.0
 30
0.0
 11
61.0
 21
74.85714300000001
 31
0.0
  0
LINE
  5
2B35
330
2B21
100
AcDbEntity
  8
0
100
AcDbLine
 10
60.5
 20
24.064304
 30
0.0
 11
60.5
 21
50.0
 31
0.0
  0
LINE
  5
2B36
330
2B21
100
AcDbEntity
  8
0
100
AcDbLine
 10
60.5
 20
88.0
 30
0.0
 11
60.5
 21
98.0
 31
0.0
  0
LINE
  5
2B37
330
2B21
100
AcDbEntity
  8
0
100
AcDbLine
 10
60.5
 20
64.0
 30
0.0
 11
60.5
 21
74.0
 31
0.0
  0
LINE
  5
2B38
330
2B21
100
AcDbEntity
  8
0
100
AcDbLine
 10
60.0
 20
24.064304
 30
0.0
 11
60.0
 21
49.142857
 31
0.0
  0
LINE
  5
2B39
330
2B21
100
AcDbEntity
  8
0
100
AcDbLine
 10
60.0
 20
88.0
 30
0.0
 11
60.0
 21
97.14285699999999
 31
0.0
  0
LINE
  5
2B3A
330
2B21
100
AcDbEntity
  8
0
100
AcDbLine
 10
60.0
 20
64.0
 30
0.0
 11
60.0
 21
73.14285699999999
 31
0.0
  0
LINE
  5
2B3B
330
2B21
100
AcDbEntity
  8
0
100
AcDbLine
 10
59.5
 20
24.064304
 30
0.0
 11
59.5
 21
48.285714
 31
0.0
  0
LINE
  5
2B3C
330
2B21
100
AcDbEntity
  8
0
100
AcDbLine
 10
59.5
 20
88.0
 30
0.0
 11
59.5
 21
96.285714
 31
0.0
  0
LINE
  5
2B3D
330
2B21
100
AcDbEntity
  8
0
100
AcDbLine
 10
59.5
 20
64.0
 30
0.0
 11
59.5
 21
72.28571399999999
 31
0.0
  0
LINE
  5
2B3E
330
2B21
100
AcDbEntity
  8
0
100
AcDbLine
 10
59.0
 20
24.064304
 30
0.0
 11
59.0
 21
47.42857100000001
 31
0.0
  0
LINE
  5
2B3F
330
2B21
100
AcDbEntity
  8
0
100
AcDbLine
 10
59.0
 20
88.0
 30
0.0
 11
59.0
 21
95.42857099999999
 31
0.0
  0
LINE
  5
2B40
330
2B21
100
AcDbEntity
  8
0
100
AcDbLine
 10
59.0
 20
64.0
 30
0.0
 11
59.0
 21
71.42857099999999
 31
0.0
  0
LINE
  5
2B41
330
2B21
100
AcDbEntity
  8
0
100
AcDbLine
 10
58.5
 20
24.064304
 30
0.0
 11
58.5
 21
46.57142899999999
 31
0.0
  0
LINE
  5
2B42
330
2B21
100
AcDbEntity
  8
0
100
AcDbLine
 10
58.5
 20
88.0
 30
0.0
 11
58.5
 21
94.571429
 31
0.0
  0
LINE
  5
2B43
330
2B21
100
AcDbEntity
  8
0
100
AcDbLine
 10
58.5
 20
64.0
 30
0.0
 11
58.5
 21
70.57142900000001
 31
0.0
  0
LINE
  5
2B44
330
2B21
100
AcDbEntity
  8
0
100
AcDbLine
 10
58.0
 20
24.064304
 30
0.0
 11
58.0
 21
45.71428599999999
 31
0.0
  0
LINE
  5
2B45
330
2B21
100
AcDbEntity
  8
0
100
AcDbLine
 10
58.0
 20
88.0
 30
0.0
 11
58.0
 21
93.71428599999999
 31
0.0
  0
LINE
  5
2B46
330
2B21
100
AcDbEntity
  8
0
100
AcDbLine
 10
58.0
 20
64.0
 30
0.0
 11
58.0
 21
69.714286
 31
0.0
  0
LINE
  5
2B47
330
2B21
100
AcDbEntity
  8
0
100
AcDbLine
 10
57.5
 20
24.064304
 30
0.0
 11
57.5
 21
44.857143
 31
0.0
  0
LINE
  5
2B48
330
2B21
100
AcDbEntity
  8
0
100
AcDbLine
 10
57.5
 20
88.0
 30
0.0
 11
57.5
 21
92.857143
 31
0.0
  0
LINE
  5
2B49
330
2B21
100
AcDbEntity
  8
0
100
AcDbLine
 10
57.5
 20
64.0
 30
0.0
 11
57.5
 21
68.857143
 31
0.0
  0
LINE
  5
2B4A
330
2B21
100
AcDbEntity
  8
0
100
AcDbLine
 10
57.0
 20
24.064304
 30
0.0
 11
57.0
 21
44.0
 31
0.0
  0
LINE
  5
2B4B
330
2B21
100
AcDbEntity
  8
0
100
AcDbLine
 10
57.0
 20
88.0
 30
0.0
 11
57.0
 21
92.0
 31
0.0
  0
LINE
  5
2B4C
330
2B21
100
AcDbEntity
  8
0
100
AcDbLine
 10
57.0
 20
64.0
 30
0.0
 11
57.0
 21
68.0
 31
0.0
  0
LINE
  5
2B4D
330
2B21
100
AcDbEntity
  8
0
100
AcDbLine
 10
56.5
 20
24.064304
 30
0.0
 11
56.5
 21
43.142857
 31
0.0
  0
LINE
  5
2B4E
330
2B21
100
AcDbEntity
  8
0
100
AcDbLine
 10
56.5
 20
88.0
 30
0.0
 11
56.5
 21
91.14285699999999
 31
0.0
  0
LINE
  5
2B4F
330
2B21
100
AcDbEntity
  8
0
100
AcDbLine
 10
56.5
 20
64.0
 30
0.0
 11
56.5
 21
67.14285699999999
 31
0.0
  0
LINE
  5
2B50
330
2B21
100
AcDbEntity
  8
0
100
AcDbLine
 10
56.0
 20
24.064304
 30
0.0
 11
56.0
 21
42.28571399999999
 31
0.0
  0
LINE
  5
2B51
330
2B21
100
AcDbEntity
  8
0
100
AcDbLine
 10
56.0
 20
88.0
 30
0.0
 11
56.0
 21
90.285714
 31
0.0
  0
LINE
  5
2B52
330
2B21
100
AcDbEntity
  8
0
100
AcDbLine
 10
56.0
 20
64.0
 30
0.0
 11
56.0
 21
66.285714
 31
0.0
  0
LINE
  5
2B53
330
2B21
100
AcDbEntity
  8
0
100
AcDbLine
 10
55.5
 20
24.064304
 30
0.0
 11
55.5
 21
41.428571
 31
0.0
  0
LINE
  5
2B54
330
2B21
100
AcDbEntity
  8
0
100
AcDbLine
 10
55.5
 20
86.82352900000001
 30
0.0
 11
55.5
 21
89.42857099999999
 31
0.0
  0
LINE
  5
2B55
330
2B21
100
AcDbEntity
  8
0
100
AcDbLine
 10
55.5
 20
62.6
 30
0.0
 11
55.5
 21
65.42857099999999
 31
0.0
  0
LINE
  5
2B56
330
2B21
100
AcDbEntity
  8
0
100
AcDbLine
 10
55.0
 20
24.064304
 30
0.0
 11
55.0
 21
40.57142899999999
 31
0.0
  0
LINE
  5
2B57
330
2B21
100
AcDbEntity
  8
0
100
AcDbLine
 10
55.0
 20
117.666667
 30
0.0
 11
55.0
 21
118.0
 31
0.0
  0
LINE
  5
2B58
330
2B21
100
AcDbEntity
  8
0
100
AcDbLine
 10
55.0
 20
61.2
 30
0.0
 11
55.0
 21
64.571429
 31
0.0
  0
LINE
  5
2B59
330
2B21
100
AcDbEntity
  8
0
100
AcDbLine
 10
55.0
 20
85.64705899999999
 30
0.0
 11
55.0
 21
88.57142900000001
 31
0.0
  0
LINE
  5
2B5A
330
2B21
100
AcDbEntity
  8
0
100
AcDbLine
 10
54.5
 20
24.064304
 30
0.0
 11
54.5
 21
39.714286
 31
0.0
  0
LINE
  5
2B5B
330
2B21
100
AcDbEntity
  8
0
100
AcDbLine
 10
54.5
 20
116.5
 30
0.0
 11
54.5
 21
118.0
 31
0.0
  0
LINE
  5
2B5C
330
2B21
100
AcDbEntity
  8
0
100
AcDbLine
 10
54.5
 20
59.8
 30
0.0
 11
54.5
 21
63.714286
 31
0.0
  0
LINE
  5
2B5D
330
2B21
100
AcDbEntity
  8
0
100
AcDbLine
 10
54.5
 20
84.470588
 30
0.0
 11
54.5
 21
87.714286
 31
0.0
  0
LINE
  5
2B5E
330
2B21
100
AcDbEntity
  8
0
100
AcDbLine
 10
54.0
 20
24.064304
 30
0.0
 11
54.0
 21
38.857143
 31
0.0
  0
LINE
  5
2B5F
330
2B21
100
AcDbEntity
  8
0
100
AcDbLine
 10
54.0
 20
115.333333
 30
0.0
 11
54.0
 21
118.0
 31
0.0
  0
LINE
  5
2B60
330
2B21
100
AcDbEntity
  8
0
100
AcDbLine
 10
54.0
 20
58.39999999999999
 30
0.0
 11
54.0
 21
62.85714300000001
 31
0.0
  0
LINE
  5
2B61
330
2B21
100
AcDbEntity
  8
0
100
AcDbLine
 10
54.0
 20
83.294118
 30
0.0
 11
54.0
 21
86.857143
 31
0.0
  0
LINE
  5
2B62
330
2B21
100
AcDbEntity
  8
0
100
AcDbLine
 10
53.5
 20
24.064304
 30
0.0
 11
53.5
 21
38.0
 31
0.0
  0
LINE
  5
2B63
330
2B21
100
AcDbEntity
  8
0
100
AcDbLine
 10
53.5
 20
114.166667
 30
0.0
 11
53.5
 21
118.0
 31
0.0
  0
LINE
  5
2B64
330
2B21
100
AcDbEntity
  8
0
100
AcDbLine
 10
53.5
 20
57.0
 30
0.0
 11
53.5
 21
62.0
 31
0.0
  0
LINE
  5
2B65
330
2B21
100
AcDbEntity
  8
0
100
AcDbLine
 10
53.5
 20
82.11764699999999
 30
0.0
 11
53.5
 21
86.0
 31
0.0
  0
LINE
  5
2B66
330
2B21
100
AcDbEntity
  8
0
100
AcDbLine
 10
53.0
 20
24.064304
 30
0.0
 11
53.0
 21
37.142857
 31
0.0
  0
LINE
  5
2B67
330
2B21
100
AcDbEntity
  8
0
100
AcDbLine
 10
53.0
 20
113.0
 30
0.0
 11
53.0
 21
118.0
 31
0.0
  0
LINE
  5
2B68
330
2B21
100
AcDbEntity
  8
0
100
AcDbLine
 10
53.0
 20
55.6
 30
0.0
 11
53.0
 21
61.14285699999999
 31
0.0
  0
LINE
  5
2B69
330
2B21
100
AcDbEntity
  8
0
100
AcDbLine
 10
53.0
 20
80.941176
 30
0.0
 11
53.0
 21
85.142857
 31
0.0
  0
LINE
  5
2B6A
330
2B21
100
AcDbEntity
  8
0
100
AcDbLine
 10
52.5
 20
24.064304
 30
0.0
 11
52.5
 21
36.285714
 31
0.0
  0
LINE
  5
2B6B
330
2B21
100
AcDbEntity
  8
0
100
AcDbLine
 10
52.5
 20
111.833333
 30
0.0
 11
52.5
 21
118.0
 31
0.0
  0
LINE
  5
2B6C
330
2B21
100
AcDbEntity
  8
0
100
AcDbLine
 10
52.5
 20
54.2
 30
0.0
 11
52.5
 21
60.285714
 31
0.0
  0
LINE
  5
2B6D
330
2B21
100
AcDbEntity
  8
0
100
AcDbLine
 10
52.5
 20
79.764706
 30
0.0
 11
52.5
 21
84.285714
 31
0.0
  0
LINE
  5
2B6E
330
2B21
100
AcDbEntity
  8
0
100
AcDbLine
 10
52.0
 20
24.064304
 30
0.0
 11
52.0
 21
35.42857100000001
 31
0.0
  0
LINE
  5
2B6F
330
2B21
100
AcDbEntity
  8
0
100
AcDbLine
 10
52.0
 20
110.666667
 30
0.0
 11
52.0
 21
118.0
 31
0.0
  0
LINE
  5
2B70
330
2B21
100
AcDbEntity
  8
0
100
AcDbLine
 10
52.0
 20
52.8
 30
0.0
 11
52.0
 21
59.428571
 31
0.0
  0
LINE
  5
2B71
330
2B21
100
AcDbEntity
  8
0
100
AcDbLine
 10
52.0
 20
78.58823499999999
 30
0.0
 11
52.0
 21
83.42857099999999
 31
0.0
  0
LINE
  5
2B72
330
2B21
100
AcDbEntity
  8
0
100
AcDbLine
 10
51.5
 20
24.064304
 30
0.0
 11
51.5
 21
34.571429
 31
0.0
  0
LINE
  5
2B73
330
2B21
100
AcDbEntity
  8
0
100
AcDbLine
 10
51.5
 20
109.5
 30
0.0
 11
51.5
 21
118.0
 31
0.0
  0
LINE
  5
2B74
330
2B21
100
AcDbEntity
  8
0
100
AcDbLine
 10
51.5
 20
51.4
 30
0.0
 11
51.5
 21
58.571429
 31
0.0
  0
LINE
  5
2B75
330
2B21
100
AcDbEntity
  8
0
100
AcDbLine
 10
51.5
 20
77.411765
 30
0.0
 11
51.5
 21
82.57142900000001
 31
0.0
  0
LINE
  5
2B76
330
2B21
100
AcDbEntity
  8
0
100
AcDbLine
 10
51.0
 20
24.064304
 30
0.0
 11
51.0
 21
33.714286
 31
0.0
  0
LINE
  5
2B77
330
2B21
100
AcDbEntity
  8
0
100
AcDbLine
 10
51.0
 20
108.333333
 30
0.0
 11
51.0
 21
118.0
 31
0.0
  0
LINE
  5
2B78
330
2B21
100
AcDbEntity
  8
0
100
AcDbLine
 10
51.0
 20
50.0
 30
0.0
 11
51.0
 21
57.714286
 31
0.0
  0
LINE
  5
2B79
330
2B21
100
AcDbEntity
  8
0
100
AcDbLine
 10
51.0
 20
76.23529399999999
 30
0.0
 11
51.0
 21
81.714286
 31
0.0
  0
LINE
  5
2B7A
330
2B21
100
AcDbEntity
  8
0
100
AcDbLine
 10
50.5
 20
24.064304
 30
0.0
 11
50.5
 21
32.857143
 31
0.0
  0
LINE
  5
2B7B
330
2B21
100
AcDbEntity
  8
0
100
AcDbLine
 10
50.5
 20
107.166667
 30
0.0
 11
50.5
 21
118.0
 31
0.0
  0
LINE
  5
2B7C
330
2B21
100
AcDbEntity
  8
0
100
AcDbLine
 10
50.5
 20
48.6
 30
0.0
 11
50.5
 21
56.857143
 31
0.0
  0
LINE
  5
2B7D
330
2B21
100
AcDbEntity
  8
0
100
AcDbLine
 10
50.5
 20
75.058824
 30
0.0
 11
50.5
 21
80.85714300000001
 31
0.0
  0
LINE
  5
2B7E
330
2B21
100
AcDbEntity
  8
0
100
AcDbLine
 10
50.0
 20
24.064304
 30
0.0
 11
50.0
 21
32.0
 31
0.0
  0
LINE
  5
2B7F
330
2B21
100
AcDbEntity
  8
0
100
AcDbLine
 10
50.0
 20
106.0
 30
0.0
 11
50.0
 21
118.0
 31
0.0
  0
LINE
  5
2B80
330
2B21
100
AcDbEntity
  8
0
100
AcDbLine
 10
50.0
 20
47.2
 30
0.0
 11
50.0
 21
56.0
 31
0.0
  0
LINE
  5
2B81
330
2B21
100
AcDbEntity
  8
0
100
AcDbLine
 10
50.0
 20
73.88235300000001
 30
0.0
 11
50.0
 21
80.0
 31
0.0
  0
LINE
  5
2B82
330
2B21
100
AcDbEntity
  8
0
100
AcDbLine
 10
49.5
 20
24.064304
 30
0.0
 11
49.5
 21
31.142857
 31
0.0
  0
LINE
  5
2B83
330
2B21
100
AcDbEntity
  8
0
100
AcDbLine
 10
49.5
 20
104.833333
 30
0.0
 11
49.5
 21
118.0
 31
0.0
  0
LINE
  5
2B84
330
2B21
100
AcDbEntity
  8
0
100
AcDbLine
 10
49.5
 20
45.8
 30
0.0
 11
49.5
 21
55.14285699999999
 31
0.0
  0
LINE
  5
2B85
330
2B21
100
AcDbEntity
  8
0
100
AcDbLine
 10
49.5
 20
72.70588199999998
 30
0.0
 11
49.5
 21
79.14285699999999
 31
0.0
  0
LINE
  5
2B86
330
2B21
100
AcDbEntity
  8
0
100
AcDbLine
 10
49.0
 20
24.064304
 30
0.0
 11
49.0
 21
30.28571400000001
 31
0.0
  0
LINE
  5
2B87
330
2B21
100
AcDbEntity
  8
0
100
AcDbLine
 10
49.0
 20
103.666667
 30
0.0
 11
49.0
 21
118.0
 31
0.0
  0
LINE
  5
2B88
330
2B21
100
AcDbEntity
  8
0
100
AcDbLine
 10
49.0
 20
44.4
 30
0.0
 11
49.0
 21
54.285714
 31
0.0
  0
LINE
  5
2B89
330
2B21
100
AcDbEntity
  8
0
100
AcDbLine
 10
49.0
 20
71.52941199999999
 30
0.0
 11
49.0
 21
78.285714
 31
0.0
  0
LINE
  5
2B8A
330
2B21
100
AcDbEntity
  8
0
100
AcDbLine
 10
48.5
 20
24.064304
 30
0.0
 11
48.5
 21
29.428571
 31
0.0
  0
LINE
  5
2B8B
330
2B21
100
AcDbEntity
  8
0
100
AcDbLine
 10
48.5
 20
102.5
 30
0.0
 11
48.5
 21
118.0
 31
0.0
  0
LINE
  5
2B8C
330
2B21
100
AcDbEntity
  8
0
100
AcDbLine
 10
48.5
 20
43.0
 30
0.0
 11
48.5
 21
53.42857099999999
 31
0.0
  0
LINE
  5
2B8D
330
2B21
100
AcDbEntity
  8
0
100
AcDbLine
 10
48.5
 20
70.352941
 30
0.0
 11
48.5
 21
77.42857099999999
 31
0.0
  0
LINE
  5
2B8E
330
2B21
100
AcDbEntity
  8
0
100
AcDbLine
 10
48.0
 20
24.064304
 30
0.0
 11
48.0
 21
28.571429
 31
0.0
  0
LINE
  5
2B8F
330
2B21
100
AcDbEntity
  8
0
100
AcDbLine
 10
48.0
 20
101.333333
 30
0.0
 11
48.0
 21
118.0
 31
0.0
  0
LINE
  5
2B90
330
2B21
100
AcDbEntity
  8
0
100
AcDbLine
 10
48.0
 20
41.6
 30
0.0
 11
48.0
 21
52.571429
 31
0.0
  0
LINE
  5
2B91
330
2B21
100
AcDbEntity
  8
0
100
AcDbLine
 10
48.0
 20
69.17647099999999
 30
0.0
 11
48.0
 21
76.57142900000001
 31
0.0
  0
LINE
  5
2B92
330
2B21
100
AcDbEntity
  8
0
100
AcDbLine
 10
47.5
 20
24.064304
 30
0.0
 11
47.5
 21
27.714286
 31
0.0
  0
LINE
  5
2B93
330
2B21
100
AcDbEntity
  8
0
100
AcDbLine
 10
47.5
 20
100.166667
 30
0.0
 11
47.5
 21
118.0
 31
0.0
  0
LINE
  5
2B94
330
2B21
100
AcDbEntity
  8
0
100
AcDbLine
 10
47.5
 20
40.2
 30
0.0
 11
47.5
 21
51.714286
 31
0.0
  0
LINE
  5
2B95
330
2B21
100
AcDbEntity
  8
0
100
AcDbLine
 10
47.5
 20
68.0
 30
0.0
 11
47.5
 21
75.714286
 31
0.0
  0
LINE
  5
2B96
330
2B21
100
AcDbEntity
  8
0
100
AcDbLine
 10
47.0
 20
24.064304
 30
0.0
 11
47.0
 21
26.857143
 31
0.0
  0
LINE
  5
2B97
330
2B21
100
AcDbEntity
  8
0
100
AcDbLine
 10
47.0
 20
99.0
 30
0.0
 11
47.0
 21
118.0
 31
0.0
  0
LINE
  5
2B98
330
2B21
100
AcDbEntity
  8
0
100
AcDbLine
 10
47.0
 20
38.8
 30
0.0
 11
47.0
 21
50.857143
 31
0.0
  0
LINE
  5
2B99
330
2B21
100
AcDbEntity
  8
0
100
AcDbLine
 10
47.0
 20
66.82352900000001
 30
0.0
 11
47.0
 21
74.85714300000001
 31
0.0
  0
LINE
  5
2B9A
330
2B21
100
AcDbEntity
  8
0
100
AcDbLine
 10
46.5
 20
24.064304
 30
0.0
 11
46.5
 21
26.0
 31
0.0
  0
LINE
  5
2B9B
330
2B21
100
AcDbEntity
  8
0
100
AcDbLine
 10
46.5
 20
97.833333
 30
0.0
 11
46.5
 21
118.0
 31
0.0
  0
LINE
  5
2B9C
330
2B21
100
AcDbEntity
  8
0
100
AcDbLine
 10
46.5
 20
37.4
 30
0.0
 11
46.5
 21
50.0
 31
0.0
  0
LINE
  5
2B9D
330
2B21
100
AcDbEntity
  8
0
100
AcDbLine
 10
46.5
 20
65.64705899999999
 30
0.0
 11
46.5
 21
74.0
 31
0.0
  0
LINE
  5
2B9E
330
2B21
100
AcDbEntity
  8
0
100
AcDbLine
 10
46.0
 20
24.064304
 30
0.0
 11
46.0
 21
25.142857
 31
0.0
  0
LINE
  5
2B9F
330
2B21
100
AcDbEntity
  8
0
100
AcDbLine
 10
46.0
 20
96.666667
 30
0.0
 11
46.0
 21
118.0
 31
0.0
  0
LINE
  5
2BA0
330
2B21
100
AcDbEntity
  8
0
100
AcDbLine
 10
46.0
 20
36.0
 30
0.0
 11
46.0
 21
49.142857
 31
0.0
  0
LINE
  5
2BA1
330
2B21
100
AcDbEntity
  8
0
100
AcDbLine
 10
46.0
 20
64.470588
 30
0.0
 11
46.0
 21
73.14285699999999
 31
0.0
  0
LINE
  5
2BA2
330
2B21
100
AcDbEntity
  8
0
100
AcDbLine
 10
45.49999999999999
 20
24.064304
 30
0.0
 11
45.49999999999999
 21
24.285714
 31
0.0
  0
LINE
  5
2BA3
330
2B21
100
AcDbEntity
  8
0
100
AcDbLine
 10
45.49999999999999
 20
95.5
 30
0.0
 11
45.49999999999999
 21
118.0
 31
0.0
  0
LINE
  5
2BA4
330
2B21
100
AcDbEntity
  8
0
100
AcDbLine
 10
45.49999999999999
 20
34.6
 30
0.0
 11
45.49999999999999
 21
48.285714
 31
0.0
  0
LINE
  5
2BA5
330
2B21
100
AcDbEntity
  8
0
100
AcDbLine
 10
45.49999999999999
 20
63.294118
 30
0.0
 11
45.49999999999999
 21
72.28571399999999
 31
0.0
  0
LINE
  5
2BA6
330
2B21
100
AcDbEntity
  8
0
100
AcDbLine
 10
45.0
 20
33.2
 30
0.0
 11
45.0
 21
47.42857100000001
 31
0.0
  0
LINE
  5
2BA7
330
2B21
100
AcDbEntity
  8
0
100
AcDbLine
 10
45.0
 20
94.33333299999999
 30
0.0
 11
45.0
 21
118.0
 31
0.0
  0
LINE
  5
2BA8
330
2B21
100
AcDbEntity
  8
0
100
AcDbLine
 10
45.0
 20
62.11764699999999
 30
0.0
 11
45.0
 21
71.42857099999999
 31
0.0
  0
LINE
  5
2BA9
330
2B21
100
AcDbEntity
  8
0
100
AcDbLine
 10
44.5
 20
31.8
 30
0.0
 11
44.5
 21
46.57142899999999
 31
0.0
  0
LINE
  5
2BAA
330
2B21
100
AcDbEntity
  8
0
100
AcDbLine
 10
44.5
 20
93.166667
 30
0.0
 11
44.5
 21
118.0
 31
0.0
  0
LINE
  5
2BAB
330
2B21
100
AcDbEntity
  8
0
100
AcDbLine
 10
44.5
 20
60.941176
 30
0.0
 11
44.5
 21
70.57142900000001
 31
0.0
  0
LINE
  5
2BAC
330
2B21
100
AcDbEntity
  8
0
100
AcDbLine
 10
44.0
 20
30.4
 30
0.0
 11
44.0
 21
45.71428599999999
 31
0.0
  0
LINE
  5
2BAD
330
2B21
100
AcDbEntity
  8
0
100
AcDbLine
 10
44.0
 20
92.0
 30
0.0
 11
44.0
 21
118.0
 31
0.0
  0
LINE
  5
2BAE
330
2B21
100
AcDbEntity
  8
0
100
AcDbLine
 10
44.0
 20
59.764706
 30
0.0
 11
44.0
 21
69.714286
 31
0.0
  0
LINE
  5
2BAF
330
2B21
100
AcDbEntity
  8
0
100
AcDbLine
 10
43.5
 20
29.0
 30
0.0
 11
43.5
 21
44.857143
 31
0.0
  0
LINE
  5
2BB0
330
2B21
100
AcDbEntity
  8
0
100
AcDbLine
 10
43.5
 20
90.83333299999999
 30
0.0
 11
43.5
 21
118.0
 31
0.0
  0
LINE
  5
2BB1
330
2B21
100
AcDbEntity
  8
0
100
AcDbLine
 10
43.5
 20
58.58823499999999
 30
0.0
 11
43.5
 21
68.857143
 31
0.0
  0
LINE
  5
2BB2
330
2B21
100
AcDbEntity
  8
0
100
AcDbLine
 10
43.0
 20
27.6
 30
0.0
 11
43.0
 21
44.0
 31
0.0
  0
LINE
  5
2BB3
330
2B21
100
AcDbEntity
  8
0
100
AcDbLine
 10
43.0
 20
89.66666700000001
 30
0.0
 11
43.0
 21
118.0
 31
0.0
  0
LINE
  5
2BB4
330
2B21
100
AcDbEntity
  8
0
100
AcDbLine
 10
43.0
 20
57.411765
 30
0.0
 11
43.0
 21
68.0
 31
0.0
  0
LINE
  5
2BB5
330
2B21
100
AcDbEntity
  8
0
100
AcDbLine
 10
42.5
 20
26.2
 30
0.0
 11
42.5
 21
43.142857
 31
0.0
  0
LINE
  5
2BB6
330
2B21
100
AcDbEntity
  8
0
100
AcDbLine
 10
42.5
 20
88.49999999999999
 30
0.0
 11
42.5
 21
118.0
 31
0.0
  0
LINE
  5
2BB7
330
2B21
100
AcDbEntity
  8
0
100
AcDbLine
 10
42.5
 20
56.23529399999999
 30
0.0
 11
42.5
 21
67.14285699999999
 31
0.0
  0
LINE
  5
2BB8
330
2B21
100
AcDbEntity
  8
0
100
AcDbLine
 10
42.0
 20
24.8
 30
0.0
 11
42.0
 21
42.28571399999999
 31
0.0
  0
LINE
  5
2BB9
330
2B21
100
AcDbEntity
  8
0
100
AcDbLine
 10
42.0
 20
87.33333299999999
 30
0.0
 11
42.0
 21
118.0
 31
0.0
  0
LINE
  5
2BBA
330
2B21
100
AcDbEntity
  8
0
100
AcDbLine
 10
42.0
 20
55.058824
 30
0.0
 11
42.0
 21
66.285714
 31
0.0
  0
LINE
  5
2BBB
330
2B21
100
AcDbEntity
  8
0
100
AcDbLine
 10
41.5
 20
24.064304
 30
0.0
 11
41.5
 21
41.428571
 31
0.0
  0
LINE
  5
2BBC
330
2B21
100
AcDbEntity
  8
0
100
AcDbLine
 10
41.5
 20
86.16666700000001
 30
0.0
 11
41.5
 21
118.0
 31
0.0
  0
LINE
  5
2BBD
330
2B21
100
AcDbEntity
  8
0
100
AcDbLine
 10
41.5
 20
53.882353
 30
0.0
 11
41.5
 21
65.42857099999999
 31
0.0
  0
LINE
  5
2BBE
330
2B21
100
AcDbEntity
  8
0
100
AcDbLine
 10
41.0
 20
24.064304
 30
0.0
 11
41.0
 21
40.57142899999999
 31
0.0
  0
LINE
  5
2BBF
330
2B21
100
AcDbEntity
  8
0
100
AcDbLine
 10
41.0
 20
85.0
 30
0.0
 11
41.0
 21
118.0
 31
0.0
  0
LINE
  5
2BC0
330
2B21
100
AcDbEntity
  8
0
100
AcDbLine
 10
41.0
 20
52.70588199999999
 30
0.0
 11
41.0
 21
64.571429
 31
0.0
  0
LINE
  5
2BC1
330
2B21
100
AcDbEntity
  8
0
100
AcDbLine
 10
40.49999999999999
 20
24.064304
 30
0.0
 11
40.49999999999999
 21
39.714286
 31
0.0
  0
LINE
  5
2BC2
330
2B21
100
AcDbEntity
  8
0
100
AcDbLine
 10
40.49999999999999
 20
83.833333
 30
0.0
 11
40.49999999999999
 21
118.0
 31
0.0
  0
LINE
  5
2BC3
330
2B21
100
AcDbEntity
  8
0
100
AcDbLine
 10
40.49999999999999
 20
51.529412
 30
0.0
 11
40.49999999999999
 21
63.714286
 31
0.0
  0
LINE
  5
2BC4
330
2B21
100
AcDbEntity
  8
0
100
AcDbLine
 10
40.0
 20
24.064304
 30
0.0
 11
40.0
 21
38.857143
 31
0.0
  0
LINE
  5
2BC5
330
2B21
100
AcDbEntity
  8
0
100
AcDbLine
 10
40.0
 20
82.666667
 30
0.0
 11
40.0
 21
118.0
 31
0.0
  0
LINE
  5
2BC6
330
2B21
100
AcDbEntity
  8
0
100
AcDbLine
 10
40.0
 20
50.35294099999999
 30
0.0
 11
40.0
 21
62.85714300000001
 31
0.0
  0
LINE
  5
2BC7
330
2B21
100
AcDbEntity
  8
0
100
AcDbLine
 10
39.5
 20
24.064304
 30
0.0
 11
39.5
 21
38.0
 31
0.0
  0
LINE
  5
2BC8
330
2B21
100
AcDbEntity
  8
0
100
AcDbLine
 10
39.5
 20
81.5
 30
0.0
 11
39.5
 21
118.0
 31
0.0
  0
LINE
  5
2BC9
330
2B21
100
AcDbEntity
  8
0
100
AcDbLine
 10
39.5
 20
49.17647099999999
 30
0.0
 11
39.5
 21
62.0
 31
0.0
  0
LINE
  5
2BCA
330
2B21
100
AcDbEntity
  8
0
100
AcDbLine
 10
39.0
 20
24.064304
 30
0.0
 11
39.0
 21
37.142857
 31
0.0
  0
LINE
  5
2BCB
330
2B21
100
AcDbEntity
  8
0
100
AcDbLine
 10
39.0
 20
80.333333
 30
0.0
 11
39.0
 21
118.0
 31
0.0
  0
LINE
  5
2BCC
330
2B21
100
AcDbEntity
  8
0
100
AcDbLine
 10
39.0
 20
48.0
 30
0.0
 11
39.0
 21
61.14285699999999
 31
0.0
  0
LINE
  5
2BCD
330
2B21
100
AcDbEntity
  8
0
100
AcDbLine
 10
38.5
 20
24.064304
 30
0.0
 11
38.5
 21
36.285714
 31
0.0
  0
LINE
  5
2BCE
330
2B21
100
AcDbEntity
  8
0
100
AcDbLine
 10
38.5
 20
79.166667
 30
0.0
 11
38.5
 21
118.0
 31
0.0
  0
LINE
  5
2BCF
330
2B21
100
AcDbEntity
  8
0
100
AcDbLine
 10
38.5
 20
46.823529
 30
0.0
 11
38.5
 21
60.285714
 31
0.0
  0
LINE
  5
2BD0
330
2B21
100
AcDbEntity
  8
0
100
AcDbLine
 10
38.0
 20
24.064304
 30
0.0
 11
38.0
 21
35.42857100000001
 31
0.0
  0
LINE
  5
2BD1
330
2B21
100
AcDbEntity
  8
0
100
AcDbLine
 10
38.0
 20
78.0
 30
0.0
 11
38.0
 21
118.0
 31
0.0
  0
LINE
  5
2BD2
330
2B21
100
AcDbEntity
  8
0
100
AcDbLine
 10
38.0
 20
45.647059
 30
0.0
 11
38.0
 21
59.428571
 31
0.0
  0
LINE
  5
2BD3
330
2B21
100
AcDbEntity
  8
0
100
AcDbLine
 10
37.5
 20
24.064304
 30
0.0
 11
37.5
 21
34.571429
 31
0.0
  0
LINE
  5
2BD4
330
2B21
100
AcDbEntity
  8
0
100
AcDbLine
 10
37.5
 20
76.833333
 30
0.0
 11
37.5
 21
118.0
 31
0.0
  0
LINE
  5
2BD5
330
2B21
100
AcDbEntity
  8
0
100
AcDbLine
 10
37.5
 20
44.47058799999999
 30
0.0
 11
37.5
 21
58.571429
 31
0.0
  0
LINE
  5
2BD6
330
2B21
100
AcDbEntity
  8
0
100
AcDbLine
 10
37.0
 20
24.064304
 30
0.0
 11
37.0
 21
33.714286
 31
0.0
  0
LINE
  5
2BD7
330
2B21
100
AcDbEntity
  8
0
100
AcDbLine
 10
37.0
 20
75.666667
 30
0.0
 11
37.0
 21
118.0
 31
0.0
  0
LINE
  5
2BD8
330
2B21
100
AcDbEntity
  8
0
100
AcDbLine
 10
37.0
 20
43.29411799999999
 30
0.0
 11
37.0
 21
57.714286
 31
0.0
  0
LINE
  5
2BD9
330
2B21
100
AcDbEntity
  8
0
100
AcDbLine
 10
36.5
 20
24.064304
 30
0.0
 11
36.5
 21
32.857143
 31
0.0
  0
LINE
  5
2BDA
330
2B21
100
AcDbEntity
  8
0
100
AcDbLine
 10
36.5
 20
74.5
 30
0.0
 11
36.5
 21
118.0
 31
0.0
  0
LINE
  5
2BDB
330
2B21
100
AcDbEntity
  8
0
100
AcDbLine
 10
36.5
 20
42.11764699999999
 30
0.0
 11
36.5
 21
56.857143
 31
0.0
  0
LINE
  5
2BDC
330
2B21
100
AcDbEntity
  8
0
100
AcDbLine
 10
36.0
 20
24.064304
 30
0.0
 11
36.0
 21
32.0
 31
0.0
  0
LINE
  5
2BDD
330
2B21
100
AcDbEntity
  8
0
100
AcDbLine
 10
36.0
 20
73.33333299999999
 30
0.0
 11
36.0
 21
118.0
 31
0.0
  0
LINE
  5
2BDE
330
2B21
100
AcDbEntity
  8
0
100
AcDbLine
 10
36.0
 20
40.94117599999999
 30
0.0
 11
36.0
 21
56.0
 31
0.0
  0
LINE
  5
2BDF
330
2B21
100
AcDbEntity
  8
0
100
AcDbLine
 10
35.5
 20
24.064304
 30
0.0
 11
35.5
 21
31.142857
 31
0.0
  0
LINE
  5
2BE0
330
2B21
100
AcDbEntity
  8
0
100
AcDbLine
 10
35.5
 20
72.16666700000001
 30
0.0
 11
35.5
 21
118.0
 31
0.0
  0
LINE
  5
2BE1
330
2B21
100
AcDbEntity
  8
0
100
AcDbLine
 10
35.5
 20
39.764706
 30
0.0
 11
35.5
 21
55.14285699999999
 31
0.0
  0
LINE
  5
2BE2
330
2B21
100
AcDbEntity
  8
0
100
AcDbLine
 10
35.0
 20
24.064304
 30
0.0
 11
35.0
 21
30.28571400000001
 31
0.0
  0
LINE
  5
2BE3
330
2B21
100
AcDbEntity
  8
0
100
AcDbLine
 10
35.0
 20
71.0
 30
0.0
 11
35.0
 21
118.0
 31
0.0
  0
LINE
  5
2BE4
330
2B21
100
AcDbEntity
  8
0
100
AcDbLine
 10
35.0
 20
38.588235
 30
0.0
 11
35.0
 21
54.285714
 31
0.0
  0
LINE
  5
2BE5
330
2B21
100
AcDbEntity
  8
0
100
AcDbLine
 10
34.5
 20
24.064304
 30
0.0
 11
34.5
 21
29.428571
 31
0.0
  0
LINE
  5
2BE6
330
2B21
100
AcDbEntity
  8
0
100
AcDbLine
 10
34.5
 20
69.83333299999999
 30
0.0
 11
34.5
 21
118.0
 31
0.0
  0
LINE
  5
2BE7
330
2B21
100
AcDbEntity
  8
0
100
AcDbLine
 10
34.5
 20
37.411765
 30
0.0
 11
34.5
 21
53.42857099999999
 31
0.0
  0
LINE
  5
2BE8
330
2B21
100
AcDbEntity
  8
0
100
AcDbLine
 10
34.0
 20
24.064304
 30
0.0
 11
34.0
 21
28.571429
 31
0.0
  0
LINE
  5
2BE9
330
2B21
100
AcDbEntity
  8
0
100
AcDbLine
 10
34.0
 20
68.666667
 30
0.0
 11
34.0
 21
118.0
 31
0.0
  0
LINE
  5
2BEA
330
2B21
100
AcDbEntity
  8
0
100
AcDbLine
 10
34.0
 20
36.23529400000001
 30
0.0
 11
34.0
 21
52.571429
 31
0.0
  0
LINE
  5
2BEB
330
2B21
100
AcDbEntity
  8
0
100
AcDbLine
 10
33.5
 20
24.064304
 30
0.0
 11
33.5
 21
27.714286
 31
0.0
  0
LINE
  5
2BEC
330
2B21
100
AcDbEntity
  8
0
100
AcDbLine
 10
33.5
 20
67.5
 30
0.0
 11
33.5
 21
118.0
 31
0.0
  0
LINE
  5
2BED
330
2B21
100
AcDbEntity
  8
0
100
AcDbLine
 10
33.5
 20
35.058824
 30
0.0
 11
33.5
 21
51.714286
 31
0.0
  0
LINE
  5
2BEE
330
2B21
100
AcDbEntity
  8
0
100
AcDbLine
 10
33.0
 20
24.064304
 30
0.0
 11
33.0
 21
26.857143
 31
0.0
  0
LINE
  5
2BEF
330
2B21
100
AcDbEntity
  8
0
100
AcDbLine
 10
33.0
 20
66.333333
 30
0.0
 11
33.0
 21
118.0
 31
0.0
  0
LINE
  5
2BF0
330
2B21
100
AcDbEntity
  8
0
100
AcDbLine
 10
33.0
 20
33.882353
 30
0.0
 11
33.0
 21
50.857143
 31
0.0
  0
LINE
  5
2BF1
330
2B21
100
AcDbEntity
  8
0
100
AcDbLine
 10
32.5
 20
24.064304
 30
0.0
 11
32.5
 21
26.0
 31
0.0
  0
LINE
  5
2BF2
330
2B21
100
AcDbEntity
  8
0
100
AcDbLine
 10
32.5
 20
65.166667
 30
0.0
 11
32.5
 21
118.0
 31
0.0
  0
LINE
  5
2BF3
330
2B21
100
AcDbEntity
  8
0
100
AcDbLine
 10
32.5
 20
32.70588200000001
 30
0.0
 11
32.5
 21
50.0
 31
0.0
  0
LINE
  5
2BF4
330
2B21
100
AcDbEntity
  8
0
100
AcDbLine
 10
32.0
 20
24.064304
 30
0.0
 11
32.0
 21
25.142857
 31
0.0
  0
LINE
  5
2BF5
330
2B21
100
AcDbEntity
  8
0
100
AcDbLine
 10
32.0
 20
64.0
 30
0.0
 11
32.0
 21
118.0
 31
0.0
  0
LINE
  5
2BF6
330
2B21
100
AcDbEntity
  8
0
100
AcDbLine
 10
32.0
 20
31.529412
 30
0.0
 11
32.0
 21
49.142857
 31
0.0
  0
LINE
  5
2BF7
330
2B21
100
AcDbEntity
  8
0
100
AcDbLine
 10
31.5
 20
24.064304
 30
0.0
 11
31.5
 21
24.285714
 31
0.0
  0
LINE
  5
2BF8
330
2B21
100
AcDbEntity
  8
0
100
AcDbLine
 10
31.5
 20
62.83333299999999
 30
0.0
 11
31.5
 21
118.0
 31
0.0
  0
LINE
  5
2BF9
330
2B21
100
AcDbEntity
  8
0
100
AcDbLine
 10
31.5
 20
30.352941
 30
0.0
 11
31.5
 21
48.285714
 31
0.0
  0
LINE
  5
2BFA
330
2B21
100
AcDbEntity
  8
0
100
AcDbLine
 10
31.0
 20
29.176471
 30
0.0
 11
31.0
 21
47.42857100000001
 31
0.0
  0
LINE
  5
2BFB
330
2B21
100
AcDbEntity
  8
0
100
AcDbLine
 10
31.0
 20
61.666667
 30
0.0
 11
31.0
 21
118.0
 31
0.0
  0
LINE
  5
2BFC
330
2B21
100
AcDbEntity
  8
0
100
AcDbLine
 10
30.5
 20
28.0
 30
0.0
 11
30.5
 21
46.57142899999999
 31
0.0
  0
LINE
  5
2BFD
330
2B21
100
AcDbEntity
  8
0
100
AcDbLine
 10
30.5
 20
60.5
 30
0.0
 11
30.5
 21
118.0
 31
0.0
  0
LINE
  5
2BFE
330
2B21
100
AcDbEntity
  8
0
100
AcDbLine
 10
30.0
 20
26.823529
 30
0.0
 11
30.0
 21
45.71428599999999
 31
0.0
  0
LINE
  5
2BFF
330
2B21
100
AcDbEntity
  8
0
100
AcDbLine
 10
30.0
 20
59.333333
 30
0.0
 11
30.0
 21
118.0
 31
0.0
  0
LINE
  5
2C00
330
2B21
100
AcDbEntity
  8
0
100
AcDbLine
 10
29.5
 20
25.647059
 30
0.0
 11
29.5
 21
44.857143
 31
0.0
  0
LINE
  5
2C01
330
2B21
100
AcDbEntity
  8
0
100
AcDbLine
 10
29.5
 20
58.166667
 30
0.0
 11
29.5
 21
118.0
 31
0.0
  0
LINE
  5
2C02
330
2B21
100
AcDbEntity
  8
0
100
AcDbLine
 10
29.0
 20
24.470588
 30
0.0
 11
29.0
 21
44.0
 31
0.0
  0
LINE
  5
2C03
330
2B21
100
AcDbEntity
  8
0
100
AcDbLine
 10
29.0
 20
57.0
 30
0.0
 11
29.0
 21
118.0
 31
0.0
  0
LINE
  5
2C04
330
2B21
100
AcDbEntity
  8
0
100
AcDbLine
 10
28.5
 20
24.064304
 30
0.0
 11
28.5
 21
43.142857
 31
0.0
  0
LINE
  5
2C05
330
2B21
100
AcDbEntity
  8
0
100
AcDbLine
 10
28.5
 20
55.83333299999999
 30
0.0
 11
28.5
 21
118.0
 31
0.0
  0
LINE
  5
2C06
330
2B21
100
AcDbEntity
  8
0
100
AcDbLine
 10
28.0
 20
24.064304
 30
0.0
 11
28.0
 21
42.28571399999999
 31
0.0
  0
LINE
  5
2C07
330
2B21
100
AcDbEntity
  8
0
100
AcDbLine
 10
28.0
 20
54.66666700000001
 30
0.0
 11
28.0
 21
118.0
 31
0.0
  0
LINE
  5
2C08
330
2B21
100
AcDbEntity
  8
0
100
AcDbLine
 10
27.5
 20
24.064304
 30
0.0
 11
27.5
 21
41.428571
 31
0.0
  0
LINE
  5
2C09
330
2B21
100
AcDbEntity
  8
0
100
AcDbLine
 10
27.5
 20
53.5
 30
0.0
 11
27.5
 21
118.0
 31
0.0
  0
LINE
  5
2C0A
330
2B21
100
AcDbEntity
  8
0
100
AcDbLine
 10
27.0
 20
24.064304
 30
0.0
 11
27.0
 21
40.57142899999999
 31
0.0
  0
LINE
  5
2C0B
330
2B21
100
AcDbEntity
  8
0
100
AcDbLine
 10
27.0
 20
52.333333
 30
0.0
 11
27.0
 21
118.0
 31
0.0
  0
LINE
  5
2C0C
330
2B21
100
AcDbEntity
  8
0
100
AcDbLine
 10
26.5
 20
24.064304
 30
0.0
 11
26.5
 21
39.714286
 31
0.0
  0
LINE
  5
2C0D
330
2B21
100
AcDbEntity
  8
0
100
AcDbLine
 10
26.5
 20
51.16666699999999
 30
0.0
 11
26.5
 21
118.0
 31
0.0
  0
LINE
  5
2C0E
330
2B21
100
AcDbEntity
  8
0
100
AcDbLine
 10
26.0
 20
24.064304
 30
0.0
 11
26.0
 21
38.857143
 31
0.0
  0
LINE
  5
2C0F
330
2B21
100
AcDbEntity
  8
0
100
AcDbLine
 10
26.0
 20
50.0
 30
0.0
 11
26.0
 21
118.0
 31
0.0
  0
LINE
  5
2C10
330
2B21
100
AcDbEntity
  8
0
100
AcDbLine
 10
25.5
 20
24.064304
 30
0.0
 11
25.5
 21
38.0
 31
0.0
  0
LINE
  5
2C11
330
2B21
100
AcDbEntity
  8
0
100
AcDbLine
 10
25.5
 20
48.833333
 30
0.0
 11
25.5
 21
118.0
 31
0.0
  0
LINE
  5
2C12
330
2B21
100
AcDbEntity
  8
0
100
AcDbLine
 10
25.0
 20
24.064304
 30
0.0
 11
25.0
 21
37.142857
 31
0.0
  0
LINE
  5
2C13
330
2B21
100
AcDbEntity
  8
0
100
AcDbLine
 10
25.0
 20
47.666667
 30
0.0
 11
25.0
 21
118.0
 31
0.0
  0
LINE
  5
2C14
330
2B21
100
AcDbEntity
  8
0
100
AcDbLine
 10
24.5
 20
24.064304
 30
0.0
 11
24.5
 21
36.285714
 31
0.0
  0
LINE
  5
2C15
330
2B21
100
AcDbEntity
  8
0
100
AcDbLine
 10
24.5
 20
46.5
 30
0.0
 11
24.5
 21
118.0
 31
0.0
  0
LINE
  5
2C16
330
2B21
100
AcDbEntity
  8
0
100
AcDbLine
 10
24.0
 20
24.064304
 30
0.0
 11
24.0
 21
35.42857100000001
 31
0.0
  0
LINE
  5
2C17
330
2B21
100
AcDbEntity
  8
0
100
AcDbLine
 10
24.0
 20
45.333333
 30
0.0
 11
24.0
 21
118.0
 31
0.0
  0
LINE
  5
2C18
330
2B21
100
AcDbEntity
  8
0
100
AcDbLine
 10
23.5
 20
24.064304
 30
0.0
 11
23.5
 21
34.571429
 31
0.0
  0
LINE
  5
2C19
330
2B21
100
AcDbEntity
  8
0
100
AcDbLine
 10
23.5
 20
44.16666699999999
 30
0.0
 11
23.5
 21
118.0
 31
0.0
  0
LINE
  5
2C1A
330
2B21
100
AcDbEntity
  8
0
100
AcDbLine
 10
23.0
 20
24.064304
 30
0.0
 11
23.0
 21
33.714286
 31
0.0
  0
LINE
  5
2C1B
330
2B21
100
AcDbEntity
  8
0
100
AcDbLine
 10
23.0
 20
43.0
 30
0.0
 11
23.0
 21
118.0
 31
0.0
  0
LINE
  5
2C1C
330
2B21
100
AcDbEntity
  8
0
100
AcDbLine
 10
22.5
 20
24.064304
 30
0.0
 11
22.5
 21
32.857143
 31
0.0
  0
LINE
  5
2C1D
330
2B21
100
AcDbEntity
  8
0
100
AcDbLine
 10
22.5
 20
41.833333
 30
0.0
 11
22.5
 21
118.0
 31
0.0
  0
LINE
  5
2C1E
330
2B21
100
AcDbEntity
  8
0
100
AcDbLine
 10
22.0
 20
24.064304
 30
0.0
 11
22.0
 21
32.0
 31
0.0
  0
LINE
  5
2C1F
330
2B21
100
AcDbEntity
  8
0
100
AcDbLine
 10
22.0
 20
40.66666699999999
 30
0.0
 11
22.0
 21
118.0
 31
0.0
  0
LINE
  5
2C20
330
2B21
100
AcDbEntity
  8
0
100
AcDbLine
 10
21.5
 20
24.064304
 30
0.0
 11
21.5
 21
31.142857
 31
0.0
  0
LINE
  5
2C21
330
2B21
100
AcDbEntity
  8
0
100
AcDbLine
 10
21.5
 20
39.5
 30
0.0
 11
21.5
 21
118.0
 31
0.0
  0
LINE
  5
2C22
330
2B21
100
AcDbEntity
  8
0
100
AcDbLine
 10
21.0
 20
24.064304
 30
0.0
 11
21.0
 21
30.28571400000001
 31
0.0
  0
LINE
  5
2C23
330
2B21
100
AcDbEntity
  8
0
100
AcDbLine
 10
21.0
 20
38.33333300000001
 30
0.0
 11
21.0
 21
118.0
 31
0.0
  0
LINE
  5
2C24
330
2B21
100
AcDbEntity
  8
0
100
AcDbLine
 10
20.5
 20
24.064304
 30
0.0
 11
20.5
 21
29.428571
 31
0.0
  0
LINE
  5
2C25
330
2B21
100
AcDbEntity
  8
0
100
AcDbLine
 10
20.5
 20
37.166667
 30
0.0
 11
20.5
 21
118.0
 31
0.0
  0
LINE
  5
2C26
330
2B21
100
AcDbEntity
  8
0
100
AcDbLine
 10
20.0
 20
24.064304
 30
0.0
 11
20.0
 21
28.571429
 31
0.0
  0
LINE
  5
2C27
330
2B21
100
AcDbEntity
  8
0
100
AcDbLine
 10
20.0
 20
36.0
 30
0.0
 11
20.0
 21
118.0
 31
0.0
  0
LINE
  5
2C28
330
2B21
100
AcDbEntity
  8
0
100
AcDbLine
 10
19.5
 20
24.064304
 30
0.0
 11
19.5
 21
27.714286
 31
0.0
  0
LINE
  5
2C29
330
2B21
100
AcDbEntity
  8
0
100
AcDbLine
 10
19.5
 20
34.833333
 30
0.0
 11
19.5
 21
118.0
 31
0.0
  0
LINE
  5
2C2A
330
2B21
100
AcDbEntity
  8
0
100
AcDbLine
 10
19.0
 20
24.064304
 30
0.0
 11
19.0
 21
26.857143
 31
0.0
  0
LINE
  5
2C2B
330
2B21
100
AcDbEntity
  8
0
100
AcDbLine
 10
19.0
 20
33.666667
 30
0.0
 11
19.0
 21
118.0
 31
0.0
  0
LINE
  5
2C2C
330
2B21
100
AcDbEntity
  8
0
100
AcDbLine
 10
18.5
 20
24.064304
 30
0.0
 11
18.5
 21
26.0
 31
0.0
  0
LINE
  5
2C2D
330
2B21
100
AcDbEntity
  8
0
100
AcDbLine
 10
18.5
 20
32.5
 30
0.0
 11
18.5
 21
118.0
 31
0.0
  0
LINE
  5
2C2E
330
2B21
100
AcDbEntity
  8
0
100
AcDbLine
 10
18.0
 20
24.064304
 30
0.0
 11
18.0
 21
25.142857
 31
0.0
  0
LINE
  5
2C2F
330
2B21
100
AcDbEntity
  8
0
100
AcDbLine
 10
18.0
 20
31.333333
 30
0.0
 11
18.0
 21
118.0
 31
0.0
  0
LINE
  5
2C30
330
2B21
100
AcDbEntity
  8
0
100
AcDbLine
 10
17.5
 20
24.064304
 30
0.0
 11
17.5
 21
24.285714
 31
0.0
  0
LINE
  5
2C31
330
2B21
100
AcDbEntity
  8
0
100
AcDbLine
 10
17.5
 20
30.166667
 30
0.0
 11
17.5
 21
118.0
 31
0.0
  0
LINE
  5
2C32
330
2B21
100
AcDbEntity
  8
0
100
AcDbLine
 10
17.0
 20
29.0
 30
0.0
 11
17.0
 21
118.0
 31
0.0
  0
LINE
  5
2C33
330
2B21
100
AcDbEntity
  8
0
100
AcDbLine
 10
16.5
 20
27.83333300000001
 30
0.0
 11
16.5
 21
118.0
 31
0.0
  0
LINE
  5
2C34
330
2B21
100
AcDbEntity
  8
0
100
AcDbLine
 10
16.0
 20
26.666667
 30
0.0
 11
16.0
 21
118.0
 31
0.0
  0
LINE
  5
2C35
330
2B21
100
AcDbEntity
  8
0
100
AcDbLine
 10
15.5
 20
25.5
 30
0.0
 11
15.5
 21
118.0
 31
0.0
  0
LINE
  5
2C36
330
2B21
100
AcDbEntity
  8
0
100
AcDbLine
 10
15.0
 20
24.333333
 30
0.0
 11
15.0
 21
118.0
 31
0.0
  0
LINE
  5
2C37
330
2B21
100
AcDbEntity
  8
0
100
AcDbLine
 10
64.0
 20
24.064304
 30
0.0
 11
64.0
 21
56.0
 31
0.0
  0
LINE
  5
2C38
330
2B21
100
AcDbEntity
  8
0
100
AcDbLine
 10
64.0
 20
88.0
 30
0.0
 11
64.0
 21
103.935252
 31
0.0
  0
LINE
  5
2C39
330
2B21
100
AcDbEntity
  8
0
100
AcDbLine
 10
64.0
 20
64.0
 30
0.0
 11
64.0
 21
80.0
 31
0.0
  0
LINE
  5
2C3A
330
2B21
100
AcDbEntity
  8
0
100
AcDbLine
 10
64.5
 20
24.064304
 30
0.0
 11
64.5
 21
55.14285699999999
 31
0.0
  0
LINE
  5
2C3B
330
2B21
100
AcDbEntity
  8
0
100
AcDbLine
 10
64.5
 20
88.0
 30
0.0
 11
64.5
 21
103.078867
 31
0.0
  0
LINE
  5
2C3C
330
2B21
100
AcDbEntity
  8
0
100
AcDbLine
 10
64.5
 20
64.0
 30
0.0
 11
64.5
 21
79.14285699999999
 31
0.0
  0
LINE
  5
2C3D
330
2B21
100
AcDbEntity
  8
0
100
AcDbLine
 10
65.0
 20
24.064304
 30
0.0
 11
65.0
 21
54.285714
 31
0.0
  0
LINE
  5
2C3E
330
2B21
100
AcDbEntity
  8
0
100
AcDbLine
 10
65.0
 20
88.0
 30
0.0
 11
65.0
 21
102.222482
 31
0.0
  0
LINE
  5
2C3F
330
2B21
100
AcDbEntity
  8
0
100
AcDbLine
 10
65.0
 20
64.0
 30
0.0
 11
65.0
 21
78.285714
 31
0.0
  0
LINE
  5
2C40
330
2B21
100
AcDbEntity
  8
0
100
AcDbLine
 10
65.5
 20
24.064304
 30
0.0
 11
65.5
 21
53.42857099999999
 31
0.0
  0
LINE
  5
2C41
330
2B21
100
AcDbEntity
  8
0
100
AcDbLine
 10
65.5
 20
88.0
 30
0.0
 11
65.5
 21
101.366097
 31
0.0
  0
LINE
  5
2C42
330
2B21
100
AcDbEntity
  8
0
100
AcDbLine
 10
65.5
 20
64.0
 30
0.0
 11
65.5
 21
77.42857099999999
 31
0.0
  0
LINE
  5
2C43
330
2B21
100
AcDbEntity
  8
0
100
AcDbLine
 10
66.0
 20
24.064304
 30
0.0
 11
66.0
 21
52.571429
 31
0.0
  0
LINE
  5
2C44
330
2B21
100
AcDbEntity
  8
0
100
AcDbLine
 10
66.0
 20
88.0
 30
0.0
 11
66.0
 21
100.509712
 31
0.0
  0
LINE
  5
2C45
330
2B21
100
AcDbEntity
  8
0
100
AcDbLine
 10
66.0
 20
64.0
 30
0.0
 11
66.0
 21
76.57142900000001
 31
0.0
  0
LINE
  5
2C46
330
2B21
100
AcDbEntity
  8
0
100
AcDbLine
 10
66.5
 20
24.064304
 30
0.0
 11
66.5
 21
51.714286
 31
0.0
  0
LINE
  5
2C47
330
2B21
100
AcDbEntity
  8
0
100
AcDbLine
 10
66.5
 20
88.0
 30
0.0
 11
66.5
 21
99.65332700000001
 31
0.0
  0
LINE
  5
2C48
330
2B21
100
AcDbEntity
  8
0
100
AcDbLine
 10
66.5
 20
64.0
 30
0.0
 11
66.5
 21
75.714286
 31
0.0
  0
LINE
  5
2C49
330
2B21
100
AcDbEntity
  8
0
100
AcDbLine
 10
67.0
 20
24.064304
 30
0.0
 11
67.0
 21
50.857143
 31
0.0
  0
LINE
  5
2C4A
330
2B21
100
AcDbEntity
  8
0
100
AcDbLine
 10
67.0
 20
88.0
 30
0.0
 11
67.0
 21
98.79694200000001
 31
0.0
  0
LINE
  5
2C4B
330
2B21
100
AcDbEntity
  8
0
100
AcDbLine
 10
67.0
 20
64.0
 30
0.0
 11
67.0
 21
74.85714300000001
 31
0.0
  0
LINE
  5
2C4C
330
2B21
100
AcDbEntity
  8
0
100
AcDbLine
 10
67.5
 20
24.064304
 30
0.0
 11
67.5
 21
50.0
 31
0.0
  0
LINE
  5
2C4D
330
2B21
100
AcDbEntity
  8
0
100
AcDbLine
 10
67.5
 20
88.0
 30
0.0
 11
67.5
 21
97.940558
 31
0.0
  0
LINE
  5
2C4E
330
2B21
100
AcDbEntity
  8
0
100
AcDbLine
 10
67.5
 20
64.0
 30
0.0
 11
67.5
 21
74.0
 31
0.0
  0
LINE
  5
2C4F
330
2B21
100
AcDbEntity
  8
0
100
AcDbLine
 10
68.0
 20
24.064304
 30
0.0
 11
68.0
 21
49.142857
 31
0.0
  0
LINE
  5
2C50
330
2B21
100
AcDbEntity
  8
0
100
AcDbLine
 10
68.0
 20
88.0
 30
0.0
 11
68.0
 21
97.084173
 31
0.0
  0
LINE
  5
2C51
330
2B21
100
AcDbEntity
  8
0
100
AcDbLine
 10
68.0
 20
64.0
 30
0.0
 11
68.0
 21
73.14285699999999
 31
0.0
  0
LINE
  5
2C52
330
2B21
100
AcDbEntity
  8
0
100
AcDbLine
 10
68.5
 20
24.064304
 30
0.0
 11
68.5
 21
48.285714
 31
0.0
  0
LINE
  5
2C53
330
2B21
100
AcDbEntity
  8
0
100
AcDbLine
 10
68.5
 20
88.0
 30
0.0
 11
68.5
 21
96.227788
 31
0.0
  0
LINE
  5
2C54
330
2B21
100
AcDbEntity
  8
0
100
AcDbLine
 10
68.5
 20
64.0
 30
0.0
 11
68.5
 21
72.28571399999999
 31
0.0
  0
LINE
  5
2C55
330
2B21
100
AcDbEntity
  8
0
100
AcDbLine
 10
69.0
 20
24.064304
 30
0.0
 11
69.0
 21
47.42857100000001
 31
0.0
  0
LINE
  5
2C56
330
2B21
100
AcDbEntity
  8
0
100
AcDbLine
 10
69.0
 20
88.0
 30
0.0
 11
69.0
 21
95.371403
 31
0.0
  0
LINE
  5
2C57
330
2B21
100
AcDbEntity
  8
0
100
AcDbLine
 10
69.0
 20
64.0
 30
0.0
 11
69.0
 21
71.42857099999999
 31
0.0
  0
LINE
  5
2C58
330
2B21
100
AcDbEntity
  8
0
100
AcDbLine
 10
69.5
 20
24.064304
 30
0.0
 11
69.5
 21
46.57142899999999
 31
0.0
  0
LINE
  5
2C59
330
2B21
100
AcDbEntity
  8
0
100
AcDbLine
 10
69.5
 20
88.0
 30
0.0
 11
69.5
 21
94.515018
 31
0.0
  0
LINE
  5
2C5A
330
2B21
100
AcDbEntity
  8
0
100
AcDbLine
 10
69.5
 20
64.0
 30
0.0
 11
69.5
 21
70.57142900000001
 31
0.0
  0
LINE
  5
2C5B
330
2B21
100
AcDbEntity
  8
0
100
AcDbLine
 10
70.0
 20
24.064304
 30
0.0
 11
70.0
 21
45.71428599999999
 31
0.0
  0
LINE
  5
2C5C
330
2B21
100
AcDbEntity
  8
0
100
AcDbLine
 10
70.0
 20
88.0
 30
0.0
 11
70.0
 21
93.65863299999999
 31
0.0
  0
LINE
  5
2C5D
330
2B21
100
AcDbEntity
  8
0
100
AcDbLine
 10
70.0
 20
64.0
 30
0.0
 11
70.0
 21
69.714286
 31
0.0
  0
LINE
  5
2C5E
330
2B21
100
AcDbEntity
  8
0
100
AcDbLine
 10
70.5
 20
24.064304
 30
0.0
 11
70.5
 21
44.857143
 31
0.0
  0
LINE
  5
2C5F
330
2B21
100
AcDbEntity
  8
0
100
AcDbLine
 10
70.5
 20
88.0
 30
0.0
 11
70.5
 21
92.80224799999999
 31
0.0
  0
LINE
  5
2C60
330
2B21
100
AcDbEntity
  8
0
100
AcDbLine
 10
70.5
 20
64.0
 30
0.0
 11
70.5
 21
68.857143
 31
0.0
  0
LINE
  5
2C61
330
2B21
100
AcDbEntity
  8
0
100
AcDbLine
 10
71.0
 20
24.064304
 30
0.0
 11
71.0
 21
44.0
 31
0.0
  0
LINE
  5
2C62
330
2B21
100
AcDbEntity
  8
0
100
AcDbLine
 10
71.0
 20
88.0
 30
0.0
 11
71.0
 21
91.945863
 31
0.0
  0
LINE
  5
2C63
330
2B21
100
AcDbEntity
  8
0
100
AcDbLine
 10
71.0
 20
64.0
 30
0.0
 11
71.0
 21
68.0
 31
0.0
  0
LINE
  5
2C64
330
2B21
100
AcDbEntity
  8
0
100
AcDbLine
 10
71.5
 20
24.064304
 30
0.0
 11
71.5
 21
43.142857
 31
0.0
  0
LINE
  5
2C65
330
2B21
100
AcDbEntity
  8
0
100
AcDbLine
 10
71.5
 20
88.0
 30
0.0
 11
71.5
 21
91.08947800000001
 31
0.0
  0
LINE
  5
2C66
330
2B21
100
AcDbEntity
  8
0
100
AcDbLine
 10
71.5
 20
64.0
 30
0.0
 11
71.5
 21
67.14285699999999
 31
0.0
  0
LINE
  5
2C67
330
2B21
100
AcDbEntity
  8
0
100
AcDbLine
 10
72.0
 20
24.064304
 30
0.0
 11
72.0
 21
42.28571399999999
 31
0.0
  0
LINE
  5
2C68
330
2B21
100
AcDbEntity
  8
0
100
AcDbLine
 10
72.0
 20
88.0
 30
0.0
 11
72.0
 21
90.23309300000001
 31
0.0
  0
LINE
  5
2C69
330
2B21
100
AcDbEntity
  8
0
100
AcDbLine
 10
72.0
 20
64.0
 30
0.0
 11
72.0
 21
66.285714
 31
0.0
  0
LINE
  5
2C6A
330
2B21
100
AcDbEntity
  8
0
100
AcDbLine
 10
72.5
 20
24.064304
 30
0.0
 11
72.5
 21
41.428571
 31
0.0
  0
LINE
  5
2C6B
330
2B21
100
AcDbEntity
  8
0
100
AcDbLine
 10
72.5
 20
86.82352900000001
 30
0.0
 11
72.5
 21
89.37670799999999
 31
0.0
  0
LINE
  5
2C6C
330
2B21
100
AcDbEntity
  8
0
100
AcDbLine
 10
72.5
 20
62.6
 30
0.0
 11
72.5
 21
65.42857099999999
 31
0.0
  0
LINE
  5
2C6D
330
2B21
100
AcDbEntity
  8
0
100
AcDbLine
 10
73.0
 20
24.064304
 30
0.0
 11
73.0
 21
40.57142899999999
 31
0.0
  0
LINE
  5
2C6E
330
2B21
100
AcDbEntity
  8
0
100
AcDbLine
 10
73.0
 20
117.510407
 30
0.0
 11
73.0
 21
117.982101
 31
0.0
  0
LINE
  5
2C6F
330
2B21
100
AcDbEntity
  8
0
100
AcDbLine
 10
73.0
 20
61.2
 30
0.0
 11
73.0
 21
64.571429
 31
0.0
  0
LINE
  5
2C70
330
2B21
100
AcDbEntity
  8
0
100
AcDbLine
 10
73.0
 20
85.64705899999999
 30
0.0
 11
73.0
 21
88.52032300000001
 31
0.0
  0
LINE
  5
2C71
330
2B21
100
AcDbEntity
  8
0
100
AcDbLine
 10
73.5
 20
24.064304
 30
0.0
 11
73.5
 21
39.714286
 31
0.0
  0
LINE
  5
2C72
330
2B21
100
AcDbEntity
  8
0
100
AcDbLine
 10
73.5
 20
116.345403
 30
0.0
 11
73.5
 21
117.982515
 31
0.0
  0
LINE
  5
2C73
330
2B21
100
AcDbEntity
  8
0
100
AcDbLine
 10
73.5
 20
59.8
 30
0.0
 11
73.5
 21
63.714286
 31
0.0
  0
LINE
  5
2C74
330
2B21
100
AcDbEntity
  8
0
100
AcDbLine
 10
73.5
 20
84.470588
 30
0.0
 11
73.5
 21
87.663939
 31
0.0
  0
LINE
  5
2C75
330
2B21
100
AcDbEntity
  8
0
100
AcDbLine
 10
74.0
 20
24.064304
 30
0.0
 11
74.0
 21
38.857143
 31
0.0
  0
LINE
  5
2C76
330
2B21
100
AcDbEntity
  8
0
100
AcDbLine
 10
74.0
 20
115.180398
 30
0.0
 11
74.0
 21
117.982929
 31
0.0
  0
LINE
  5
2C77
330
2B21
100
AcDbEntity
  8
0
100
AcDbLine
 10
74.0
 20
58.39999999999999
 30
0.0
 11
74.0
 21
62.85714300000001
 31
0.0
  0
LINE
  5
2C78
330
2B21
100
AcDbEntity
  8
0
100
AcDbLine
 10
74.0
 20
83.294118
 30
0.0
 11
74.0
 21
86.807554
 31
0.0
  0
LINE
  5
2C79
330
2B21
100
AcDbEntity
  8
0
100
AcDbLine
 10
74.5
 20
24.064304
 30
0.0
 11
74.5
 21
38.0
 31
0.0
  0
LINE
  5
2C7A
330
2B21
100
AcDbEntity
  8
0
100
AcDbLine
 10
74.5
 20
114.015394
 30
0.0
 11
74.5
 21
117.983343
 31
0.0
  0
LINE
  5
2C7B
330
2B21
100
AcDbEntity
  8
0
100
AcDbLine
 10
74.5
 20
57.0
 30
0.0
 11
74.5
 21
62.0
 31
0.0
  0
LINE
  5
2C7C
330
2B21
100
AcDbEntity
  8
0
100
AcDbLine
 10
74.5
 20
82.11764699999999
 30
0.0
 11
74.5
 21
85.95116899999998
 31
0.0
  0
LINE
  5
2C7D
330
2B21
100
AcDbEntity
  8
0
100
AcDbLine
 10
75.0
 20
24.064304
 30
0.0
 11
75.0
 21
37.142857
 31
0.0
  0
LINE
  5
2C7E
330
2B21
100
AcDbEntity
  8
0
100
AcDbLine
 10
75.0
 20
112.85039
 30
0.0
 11
75.0
 21
117.983756
 31
0.0
  0
LINE
  5
2C7F
330
2B21
100
AcDbEntity
  8
0
100
AcDbLine
 10
75.0
 20
55.6
 30
0.0
 11
75.0
 21
61.14285699999999
 31
0.0
  0
LINE
  5
2C80
330
2B21
100
AcDbEntity
  8
0
100
AcDbLine
 10
75.0
 20
80.941176
 30
0.0
 11
75.0
 21
85.09478399999998
 31
0.0
  0
LINE
  5
2C81
330
2B21
100
AcDbEntity
  8
0
100
AcDbLine
 10
75.5
 20
24.064304
 30
0.0
 11
75.5
 21
36.285714
 31
0.0
  0
LINE
  5
2C82
330
2B21
100
AcDbEntity
  8
0
100
AcDbLine
 10
75.5
 20
111.685385
 30
0.0
 11
75.5
 21
117.98417
 31
0.0
  0
LINE
  5
2C83
330
2B21
100
AcDbEntity
  8
0
100
AcDbLine
 10
75.5
 20
54.2
 30
0.0
 11
75.5
 21
60.285714
 31
0.0
  0
LINE
  5
2C84
330
2B21
100
AcDbEntity
  8
0
100
AcDbLine
 10
75.5
 20
79.764706
 30
0.0
 11
75.5
 21
84.238399
 31
0.0
  0
LINE
  5
2C85
330
2B21
100
AcDbEntity
  8
0
100
AcDbLine
 10
76.0
 20
24.064304
 30
0.0
 11
76.0
 21
35.42857100000001
 31
0.0
  0
LINE
  5
2C86
330
2B21
100
AcDbEntity
  8
0
100
AcDbLine
 10
76.0
 20
110.520381
 30
0.0
 11
76.0
 21
117.984584
 31
0.0
  0
LINE
  5
2C87
330
2B21
100
AcDbEntity
  8
0
100
AcDbLine
 10
76.0
 20
52.8
 30
0.0
 11
76.0
 21
59.428571
 31
0.0
  0
LINE
  5
2C88
330
2B21
100
AcDbEntity
  8
0
100
AcDbLine
 10
76.0
 20
78.58823499999999
 30
0.0
 11
76.0
 21
83.382014
 31
0.0
  0
LINE
  5
2C89
330
2B21
100
AcDbEntity
  8
0
100
AcDbLine
 10
76.5
 20
24.064304
 30
0.0
 11
76.5
 21
34.571429
 31
0.0
  0
LINE
  5
2C8A
330
2B21
100
AcDbEntity
  8
0
100
AcDbLine
 10
76.5
 20
109.355377
 30
0.0
 11
76.5
 21
117.984998
 31
0.0
  0
LINE
  5
2C8B
330
2B21
100
AcDbEntity
  8
0
100
AcDbLine
 10
76.5
 20
51.4
 30
0.0
 11
76.5
 21
58.571429
 31
0.0
  0
LINE
  5
2C8C
330
2B21
100
AcDbEntity
  8
0
100
AcDbLine
 10
76.5
 20
77.411765
 30
0.0
 11
76.5
 21
82.525629
 31
0.0
  0
LINE
  5
2C8D
330
2B21
100
AcDbEntity
  8
0
100
AcDbLine
 10
77.0
 20
24.064304
 30
0.0
 11
77.0
 21
33.714286
 31
0.0
  0
LINE
  5
2C8E
330
2B21
100
AcDbEntity
  8
0
100
AcDbLine
 10
77.0
 20
108.190372
 30
0.0
 11
77.0
 21
117.985412
 31
0.0
  0
LINE
  5
2C8F
330
2B21
100
AcDbEntity
  8
0
100
AcDbLine
 10
77.0
 20
50.0
 30
0.0
 11
77.0
 21
57.714286
 31
0.0
  0
LINE
  5
2C90
330
2B21
100
AcDbEntity
  8
0
100
AcDbLine
 10
77.0
 20
76.23529399999999
 30
0.0
 11
77.0
 21
81.66924399999999
 31
0.0
  0
LINE
  5
2C91
330
2B21
100
AcDbEntity
  8
0
100
AcDbLine
 10
77.5
 20
24.064304
 30
0.0
 11
77.5
 21
32.857143
 31
0.0
  0
LINE
  5
2C92
330
2B21
100
AcDbEntity
  8
0
100
AcDbLine
 10
77.5
 20
107.025368
 30
0.0
 11
77.5
 21
117.985826
 31
0.0
  0
LINE
  5
2C93
330
2B21
100
AcDbEntity
  8
0
100
AcDbLine
 10
77.5
 20
48.6
 30
0.0
 11
77.5
 21
56.857143
 31
0.0
  0
LINE
  5
2C94
330
2B21
100
AcDbEntity
  8
0
100
AcDbLine
 10
77.5
 20
75.058824
 30
0.0
 11
77.5
 21
80.81285900000001
 31
0.0
  0
LINE
  5
2C95
330
2B21
100
AcDbEntity
  8
0
100
AcDbLine
 10
78.0
 20
24.064304
 30
0.0
 11
78.0
 21
32.0
 31
0.0
  0
LINE
  5
2C96
330
2B21
100
AcDbEntity
  8
0
100
AcDbLine
 10
78.0
 20
105.860364
 30
0.0
 11
78.0
 21
117.986239
 31
0.0
  0
LINE
  5
2C97
330
2B21
100
AcDbEntity
  8
0
100
AcDbLine
 10
78.0
 20
47.2
 30
0.0
 11
78.0
 21
56.0
 31
0.0
  0
LINE
  5
2C98
330
2B21
100
AcDbEntity
  8
0
100
AcDbLine
 10
78.0
 20
73.88235300000001
 30
0.0
 11
78.0
 21
79.956474
 31
0.0
  0
LINE
  5
2C99
330
2B21
100
AcDbEntity
  8
0
100
AcDbLine
 10
78.5
 20
24.064304
 30
0.0
 11
78.5
 21
31.142857
 31
0.0
  0
LINE
  5
2C9A
330
2B21
100
AcDbEntity
  8
0
100
AcDbLine
 10
78.5
 20
104.695359
 30
0.0
 11
78.5
 21
117.986653
 31
0.0
  0
LINE
  5
2C9B
330
2B21
100
AcDbEntity
  8
0
100
AcDbLine
 10
78.5
 20
45.8
 30
0.0
 11
78.5
 21
55.14285699999999
 31
0.0
  0
LINE
  5
2C9C
330
2B21
100
AcDbEntity
  8
0
100
AcDbLine
 10
78.5
 20
72.70588199999998
 30
0.0
 11
78.5
 21
79.100089
 31
0.0
  0
LINE
  5
2C9D
330
2B21
100
AcDbEntity
  8
0
100
AcDbLine
 10
79.0
 20
24.064304
 30
0.0
 11
79.0
 21
30.28571400000001
 31
0.0
  0
LINE
  5
2C9E
330
2B21
100
AcDbEntity
  8
0
100
AcDbLine
 10
79.0
 20
103.530355
 30
0.0
 11
79.0
 21
117.987067
 31
0.0
  0
LINE
  5
2C9F
330
2B21
100
AcDbEntity
  8
0
100
AcDbLine
 10
79.0
 20
44.4
 30
0.0
 11
79.0
 21
54.285714
 31
0.0
  0
LINE
  5
2CA0
330
2B21
100
AcDbEntity
  8
0
100
AcDbLine
 10
79.0
 20
71.52941199999999
 30
0.0
 11
79.0
 21
78.24370400000001
 31
0.0
  0
LINE
  5
2CA1
330
2B21
100
AcDbEntity
  8
0
100
AcDbLine
 10
79.5
 20
24.064304
 30
0.0
 11
79.5
 21
29.428571
 31
0.0
  0
LINE
  5
2CA2
330
2B21
100
AcDbEntity
  8
0
100
AcDbLine
 10
79.5
 20
102.365351
 30
0.0
 11
79.5
 21
117.987481
 31
0.0
  0
LINE
  5
2CA3
330
2B21
100
AcDbEntity
  8
0
100
AcDbLine
 10
79.5
 20
43.0
 30
0.0
 11
79.5
 21
53.42857099999999
 31
0.0
  0
LINE
  5
2CA4
330
2B21
100
AcDbEntity
  8
0
100
AcDbLine
 10
79.5
 20
70.352941
 30
0.0
 11
79.5
 21
77.38731999999998
 31
0.0
  0
LINE
  5
2CA5
330
2B21
100
AcDbEntity
  8
0
100
AcDbLine
 10
80.0
 20
24.064304
 30
0.0
 11
80.0
 21
28.571429
 31
0.0
  0
LINE
  5
2CA6
330
2B21
100
AcDbEntity
  8
0
100
AcDbLine
 10
80.0
 20
101.200346
 30
0.0
 11
80.0
 21
117.987895
 31
0.0
  0
LINE
  5
2CA7
330
2B21
100
AcDbEntity
  8
0
100
AcDbLine
 10
80.0
 20
41.6
 30
0.0
 11
80.0
 21
52.571429
 31
0.0
  0
LINE
  5
2CA8
330
2B21
100
AcDbEntity
  8
0
100
AcDbLine
 10
80.0
 20
69.17647099999999
 30
0.0
 11
80.0
 21
76.530935
 31
0.0
  0
LINE
  5
2CA9
330
2B21
100
AcDbEntity
  8
0
100
AcDbLine
 10
80.5
 20
24.064304
 30
0.0
 11
80.5
 21
27.714286
 31
0.0
  0
LINE
  5
2CAA
330
2B21
100
AcDbEntity
  8
0
100
AcDbLine
 10
80.5
 20
100.035342
 30
0.0
 11
80.5
 21
117.988308
 31
0.0
  0
LINE
  5
2CAB
330
2B21
100
AcDbEntity
  8
0
100
AcDbLine
 10
80.5
 20
40.2
 30
0.0
 11
80.5
 21
51.714286
 31
0.0
  0
LINE
  5
2CAC
330
2B21
100
AcDbEntity
  8
0
100
AcDbLine
 10
80.5
 20
68.0
 30
0.0
 11
80.5
 21
75.67454999999999
 31
0.0
  0
LINE
  5
2CAD
330
2B21
100
AcDbEntity
  8
0
100
AcDbLine
 10
81.0
 20
24.064304
 30
0.0
 11
81.0
 21
26.857143
 31
0.0
  0
LINE
  5
2CAE
330
2B21
100
AcDbEntity
  8
0
100
AcDbLine
 10
81.0
 20
98.87033800000001
 30
0.0
 11
81.0
 21
117.988722
 31
0.0
  0
LINE
  5
2CAF
330
2B21
100
AcDbEntity
  8
0
100
AcDbLine
 10
81.0
 20
38.8
 30
0.0
 11
81.0
 21
50.857143
 31
0.0
  0
LINE
  5
2CB0
330
2B21
100
AcDbEntity
  8
0
100
AcDbLine
 10
81.0
 20
66.82352900000001
 30
0.0
 11
81.0
 21
74.818165
 31
0.0
  0
LINE
  5
2CB1
330
2B21
100
AcDbEntity
  8
0
100
AcDbLine
 10
81.5
 20
24.064304
 30
0.0
 11
81.5
 21
26.0
 31
0.0
  0
LINE
  5
2CB2
330
2B21
100
AcDbEntity
  8
0
100
AcDbLine
 10
81.5
 20
97.705333
 30
0.0
 11
81.5
 21
117.989136
 31
0.0
  0
LINE
  5
2CB3
330
2B21
100
AcDbEntity
  8
0
100
AcDbLine
 10
81.5
 20
37.4
 30
0.0
 11
81.5
 21
50.0
 31
0.0
  0
LINE
  5
2CB4
330
2B21
100
AcDbEntity
  8
0
100
AcDbLine
 10
81.5
 20
65.64705899999999
 30
0.0
 11
81.5
 21
73.96178
 31
0.0
  0
LINE
  5
2CB5
330
2B21
100
AcDbEntity
  8
0
100
AcDbLine
 10
82.0
 20
24.064304
 30
0.0
 11
82.0
 21
25.142857
 31
0.0
  0
LINE
  5
2CB6
330
2B21
100
AcDbEntity
  8
0
100
AcDbLine
 10
82.0
 20
96.540329
 30
0.0
 11
82.0
 21
117.98955
 31
0.0
  0
LINE
  5
2CB7
330
2B21
100
AcDbEntity
  8
0
100
AcDbLine
 10
82.0
 20
36.0
 30
0.0
 11
82.0
 21
49.142857
 31
0.0
  0
LINE
  5
2CB8
330
2B21
100
AcDbEntity
  8
0
100
AcDbLine
 10
82.0
 20
64.470588
 30
0.0
 11
82.0
 21
73.105395
 31
0.0
  0
LINE
  5
2CB9
330
2B21
100
AcDbEntity
  8
0
100
AcDbLine
 10
82.5
 20
24.064304
 30
0.0
 11
82.5
 21
24.285714
 31
0.0
  0
LINE
  5
2CBA
330
2B21
100
AcDbEntity
  8
0
100
AcDbLine
 10
82.5
 20
95.37532500000001
 30
0.0
 11
82.5
 21
117.989964
 31
0.0
  0
LINE
  5
2CBB
330
2B21
100
AcDbEntity
  8
0
100
AcDbLine
 10
82.5
 20
34.6
 30
0.0
 11
82.5
 21
48.285714
 31
0.0
  0
LINE
  5
2CBC
330
2B21
100
AcDbEntity
  8
0
100
AcDbLine
 10
82.5
 20
63.294118
 30
0.0
 11
82.5
 21
72.24901
 31
0.0
  0
LINE
  5
2CBD
330
2B21
100
AcDbEntity
  8
0
100
AcDbLine
 10
83.0
 20
33.2
 30
0.0
 11
83.0
 21
47.42857100000001
 31
0.0
  0
LINE
  5
2CBE
330
2B21
100
AcDbEntity
  8
0
100
AcDbLine
 10
83.0
 20
94.21032
 30
0.0
 11
83.0
 21
117.990377
 31
0.0
  0
LINE
  5
2CBF
330
2B21
100
AcDbEntity
  8
0
100
AcDbLine
 10
83.0
 20
62.11764699999999
 30
0.0
 11
83.0
 21
71.392625
 31
0.0
  0
LINE
  5
2CC0
330
2B21
100
AcDbEntity
  8
0
100
AcDbLine
 10
83.49999999999999
 20
31.8
 30
0.0
 11
83.49999999999999
 21
46.57142899999999
 31
0.0
  0
LINE
  5
2CC1
330
2B21
100
AcDbEntity
  8
0
100
AcDbLine
 10
83.49999999999999
 20
93.045316
 30
0.0
 11
83.49999999999999
 21
117.990791
 31
0.0
  0
LINE
  5
2CC2
330
2B21
100
AcDbEntity
  8
0
100
AcDbLine
 10
83.49999999999999
 20
60.941176
 30
0.0
 11
83.49999999999999
 21
70.53624000000001
 31
0.0
  0
LINE
  5
2CC3
330
2B21
100
AcDbEntity
  8
0
100
AcDbLine
 10
84.0
 20
30.4
 30
0.0
 11
84.0
 21
45.71428599999999
 31
0.0
  0
LINE
  5
2CC4
330
2B21
100
AcDbEntity
  8
0
100
AcDbLine
 10
84.0
 20
91.88031200000001
 30
0.0
 11
84.0
 21
117.991205
 31
0.0
  0
LINE
  5
2CC5
330
2B21
100
AcDbEntity
  8
0
100
AcDbLine
 10
84.0
 20
59.764706
 30
0.0
 11
84.0
 21
69.67985500000001
 31
0.0
  0
LINE
  5
2CC6
330
2B21
100
AcDbEntity
  8
0
100
AcDbLine
 10
84.50000000000001
 20
29.0
 30
0.0
 11
84.50000000000001
 21
44.857143
 31
0.0
  0
LINE
  5
2CC7
330
2B21
100
AcDbEntity
  8
0
100
AcDbLine
 10
84.50000000000001
 20
90.715307
 30
0.0
 11
84.50000000000001
 21
117.991619
 31
0.0
  0
LINE
  5
2CC8
330
2B21
100
AcDbEntity
  8
0
100
AcDbLine
 10
84.50000000000001
 20
58.58823499999999
 30
0.0
 11
84.50000000000001
 21
68.82347
 31
0.0
  0
LINE
  5
2CC9
330
2B21
100
AcDbEntity
  8
0
100
AcDbLine
 10
85.0
 20
27.6
 30
0.0
 11
85.0
 21
44.0
 31
0.0
  0
LINE
  5
2CCA
330
2B21
100
AcDbEntity
  8
0
100
AcDbLine
 10
85.0
 20
89.550303
 30
0.0
 11
85.0
 21
117.992033
 31
0.0
  0
LINE
  5
2CCB
330
2B21
100
AcDbEntity
  8
0
100
AcDbLine
 10
85.0
 20
57.411765
 30
0.0
 11
85.0
 21
67.967085
 31
0.0
  0
LINE
  5
2CCC
330
2B21
100
AcDbEntity
  8
0
100
AcDbLine
 10
85.5
 20
26.2
 30
0.0
 11
85.5
 21
43.142857
 31
0.0
  0
LINE
  5
2CCD
330
2B21
100
AcDbEntity
  8
0
100
AcDbLine
 10
85.5
 20
88.38529900000001
 30
0.0
 11
85.5
 21
117.992447
 31
0.0
  0
LINE
  5
2CCE
330
2B21
100
AcDbEntity
  8
0
100
AcDbLine
 10
85.5
 20
56.23529399999999
 30
0.0
 11
85.5
 21
67.110701
 31
0.0
  0
LINE
  5
2CCF
330
2B21
100
AcDbEntity
  8
0
100
AcDbLine
 10
86.0
 20
24.8
 30
0.0
 11
86.0
 21
42.28571399999999
 31
0.0
  0
LINE
  5
2CD0
330
2B21
100
AcDbEntity
  8
0
100
AcDbLine
 10
86.0
 20
87.220294
 30
0.0
 11
86.0
 21
117.99286
 31
0.0
  0
LINE
  5
2CD1
330
2B21
100
AcDbEntity
  8
0
100
AcDbLine
 10
86.0
 20
55.058824
 30
0.0
 11
86.0
 21
66.254316
 31
0.0
  0
LINE
  5
2CD2
330
2B21
100
AcDbEntity
  8
0
100
AcDbLine
 10
86.5
 20
24.064304
 30
0.0
 11
86.5
 21
41.428571
 31
0.0
  0
LINE
  5
2CD3
330
2B21
100
AcDbEntity
  8
0
100
AcDbLine
 10
86.5
 20
86.05529
 30
0.0
 11
86.5
 21
117.993274
 31
0.0
  0
LINE
  5
2CD4
330
2B21
100
AcDbEntity
  8
0
100
AcDbLine
 10
86.5
 20
53.882353
 30
0.0
 11
86.5
 21
65.397931
 31
0.0
  0
LINE
  5
2CD5
330
2B21
100
AcDbEntity
  8
0
100
AcDbLine
 10
87.0
 20
24.064304
 30
0.0
 11
87.0
 21
40.57142899999999
 31
0.0
  0
LINE
  5
2CD6
330
2B21
100
AcDbEntity
  8
0
100
AcDbLine
 10
87.0
 20
84.89028600000001
 30
0.0
 11
87.0
 21
117.993688
 31
0.0
  0
LINE
  5
2CD7
330
2B21
100
AcDbEntity
  8
0
100
AcDbLine
 10
87.0
 20
52.70588199999999
 30
0.0
 11
87.0
 21
64.54154599999999
 31
0.0
  0
LINE
  5
2CD8
330
2B21
100
AcDbEntity
  8
0
100
AcDbLine
 10
87.5
 20
24.064304
 30
0.0
 11
87.5
 21
39.714286
 31
0.0
  0
LINE
  5
2CD9
330
2B21
100
AcDbEntity
  8
0
100
AcDbLine
 10
87.5
 20
83.72528100000002
 30
0.0
 11
87.5
 21
117.994102
 31
0.0
  0
LINE
  5
2CDA
330
2B21
100
AcDbEntity
  8
0
100
AcDbLine
 10
87.5
 20
51.529412
 30
0.0
 11
87.5
 21
63.685161
 31
0.0
  0
LINE
  5
2CDB
330
2B21
100
AcDbEntity
  8
0
100
AcDbLine
 10
88.0
 20
24.064304
 30
0.0
 11
88.0
 21
38.857143
 31
0.0
  0
LINE
  5
2CDC
330
2B21
100
AcDbEntity
  8
0
100
AcDbLine
 10
88.0
 20
82.560277
 30
0.0
 11
88.0
 21
117.994516
 31
0.0
  0
LINE
  5
2CDD
330
2B21
100
AcDbEntity
  8
0
100
AcDbLine
 10
88.0
 20
50.35294099999999
 30
0.0
 11
88.0
 21
62.82877599999999
 31
0.0
  0
LINE
  5
2CDE
330
2B21
100
AcDbEntity
  8
0
100
AcDbLine
 10
88.49999999999999
 20
24.064304
 30
0.0
 11
88.49999999999999
 21
38.0
 31
0.0
  0
LINE
  5
2CDF
330
2B21
100
AcDbEntity
  8
0
100
AcDbLine
 10
88.49999999999999
 20
81.39527300000001
 30
0.0
 11
88.49999999999999
 21
117.994929
 31
0.0
  0
LINE
  5
2CE0
330
2B21
100
AcDbEntity
  8
0
100
AcDbLine
 10
88.49999999999999
 20
49.17647099999999
 30
0.0
 11
88.49999999999999
 21
61.972391
 31
0.0
  0
LINE
  5
2CE1
330
2B21
100
AcDbEntity
  8
0
100
AcDbLine
 10
89.0
 20
24.064304
 30
0.0
 11
89.0
 21
37.142857
 31
0.0
  0
LINE
  5
2CE2
330
2B21
100
AcDbEntity
  8
0
100
AcDbLine
 10
89.0
 20
80.23026800000002
 30
0.0
 11
89.0
 21
117.995343
 31
0.0
  0
LINE
  5
2CE3
330
2B21
100
AcDbEntity
  8
0
100
AcDbLine
 10
89.0
 20
48.0
 30
0.0
 11
89.0
 21
61.116006
 31
0.0
  0
LINE
  5
2CE4
330
2B21
100
AcDbEntity
  8
0
100
AcDbLine
 10
89.50000000000001
 20
24.064304
 30
0.0
 11
89.50000000000001
 21
36.285714
 31
0.0
  0
LINE
  5
2CE5
330
2B21
100
AcDbEntity
  8
0
100
AcDbLine
 10
89.50000000000001
 20
79.065264
 30
0.0
 11
89.50000000000001
 21
117.995757
 31
0.0
  0
LINE
  5
2CE6
330
2B21
100
AcDbEntity
  8
0
100
AcDbLine
 10
89.50000000000001
 20
46.823529
 30
0.0
 11
89.50000000000001
 21
60.259621
 31
0.0
  0
LINE
  5
2CE7
330
2B21
100
AcDbEntity
  8
0
100
AcDbLine
 10
90.0
 20
24.064304
 30
0.0
 11
90.0
 21
35.42857100000001
 31
0.0
  0
LINE
  5
2CE8
330
2B21
100
AcDbEntity
  8
0
100
AcDbLine
 10
90.0
 20
77.90026000000001
 30
0.0
 11
90.0
 21
117.996171
 31
0.0
  0
LINE
  5
2CE9
330
2B21
100
AcDbEntity
  8
0
100
AcDbLine
 10
90.0
 20
45.647059
 30
0.0
 11
90.0
 21
59.403236
 31
0.0
  0
LINE
  5
2CEA
330
2B21
100
AcDbEntity
  8
0
100
AcDbLine
 10
90.5
 20
24.064304
 30
0.0
 11
90.5
 21
34.571429
 31
0.0
  0
LINE
  5
2CEB
330
2B21
100
AcDbEntity
  8
0
100
AcDbLine
 10
90.5
 20
76.73525500000001
 30
0.0
 11
90.5
 21
117.996585
 31
0.0
  0
LINE
  5
2CEC
330
2B21
100
AcDbEntity
  8
0
100
AcDbLine
 10
90.5
 20
44.47058799999999
 30
0.0
 11
90.5
 21
58.54685100000001
 31
0.0
  0
LINE
  5
2CED
330
2B21
100
AcDbEntity
  8
0
100
AcDbLine
 10
91.0
 20
24.064304
 30
0.0
 11
91.0
 21
33.714286
 31
0.0
  0
LINE
  5
2CEE
330
2B21
100
AcDbEntity
  8
0
100
AcDbLine
 10
91.0
 20
75.570251
 30
0.0
 11
91.0
 21
117.996998
 31
0.0
  0
LINE
  5
2CEF
330
2B21
100
AcDbEntity
  8
0
100
AcDbLine
 10
91.0
 20
43.29411799999999
 30
0.0
 11
91.0
 21
57.690466
 31
0.0
  0
LINE
  5
2CF0
330
2B21
100
AcDbEntity
  8
0
100
AcDbLine
 10
91.5
 20
24.064304
 30
0.0
 11
91.5
 21
32.857143
 31
0.0
  0
LINE
  5
2CF1
330
2B21
100
AcDbEntity
  8
0
100
AcDbLine
 10
91.5
 20
74.405247
 30
0.0
 11
91.5
 21
117.997412
 31
0.0
  0
LINE
  5
2CF2
330
2B21
100
AcDbEntity
  8
0
100
AcDbLine
 10
91.5
 20
42.11764699999999
 30
0.0
 11
91.5
 21
56.83408199999999
 31
0.0
  0
LINE
  5
2CF3
330
2B21
100
AcDbEntity
  8
0
100
AcDbLine
 10
92.0
 20
24.064304
 30
0.0
 11
92.0
 21
32.0
 31
0.0
  0
LINE
  5
2CF4
330
2B21
100
AcDbEntity
  8
0
100
AcDbLine
 10
92.0
 20
73.24024200000001
 30
0.0
 11
92.0
 21
117.997826
 31
0.0
  0
LINE
  5
2CF5
330
2B21
100
AcDbEntity
  8
0
100
AcDbLine
 10
92.0
 20
40.94117599999999
 30
0.0
 11
92.0
 21
55.977697
 31
0.0
  0
LINE
  5
2CF6
330
2B21
100
AcDbEntity
  8
0
100
AcDbLine
 10
92.5
 20
24.064304
 30
0.0
 11
92.5
 21
31.142857
 31
0.0
  0
LINE
  5
2CF7
330
2B21
100
AcDbEntity
  8
0
100
AcDbLine
 10
92.5
 20
72.075238
 30
0.0
 11
92.5
 21
117.99824
 31
0.0
  0
LINE
  5
2CF8
330
2B21
100
AcDbEntity
  8
0
100
AcDbLine
 10
92.5
 20
39.764706
 30
0.0
 11
92.5
 21
55.12131199999999
 31
0.0
  0
LINE
  5
2CF9
330
2B21
100
AcDbEntity
  8
0
100
AcDbLine
 10
93.0
 20
24.064304
 30
0.0
 11
93.0
 21
30.28571400000001
 31
0.0
  0
LINE
  5
2CFA
330
2B21
100
AcDbEntity
  8
0
100
AcDbLine
 10
93.0
 20
70.910234
 30
0.0
 11
93.0
 21
117.998654
 31
0.0
  0
LINE
  5
2CFB
330
2B21
100
AcDbEntity
  8
0
100
AcDbLine
 10
93.0
 20
38.588235
 30
0.0
 11
93.0
 21
54.264927
 31
0.0
  0
LINE
  5
2CFC
330
2B21
100
AcDbEntity
  8
0
100
AcDbLine
 10
93.49999999999999
 20
24.064304
 30
0.0
 11
93.49999999999999
 21
29.428571
 31
0.0
  0
LINE
  5
2CFD
330
2B21
100
AcDbEntity
  8
0
100
AcDbLine
 10
93.49999999999999
 20
69.74523000000001
 30
0.0
 11
93.49999999999999
 21
117.999067
 31
0.0
  0
LINE
  5
2CFE
330
2B21
100
AcDbEntity
  8
0
100
AcDbLine
 10
93.49999999999999
 20
37.411765
 30
0.0
 11
93.49999999999999
 21
53.408542
 31
0.0
  0
LINE
  5
2CFF
330
2B21
100
AcDbEntity
  8
0
100
AcDbLine
 10
94.0
 20
24.064304
 30
0.0
 11
94.0
 21
28.571429
 31
0.0
  0
LINE
  5
2D00
330
2B21
100
AcDbEntity
  8
0
100
AcDbLine
 10
94.0
 20
68.580225
 30
0.0
 11
94.0
 21
117.999481
 31
0.0
  0
LINE
  5
2D01
330
2B21
100
AcDbEntity
  8
0
100
AcDbLine
 10
94.0
 20
36.23529400000001
 30
0.0
 11
94.0
 21
52.55215699999999
 31
0.0
  0
LINE
  5
2D02
330
2B21
100
AcDbEntity
  8
0
100
AcDbLine
 10
94.50000000000001
 20
24.064304
 30
0.0
 11
94.50000000000001
 21
27.714286
 31
0.0
  0
LINE
  5
2D03
330
2B21
100
AcDbEntity
  8
0
100
AcDbLine
 10
94.50000000000001
 20
67.415221
 30
0.0
 11
94.50000000000001
 21
117.999895
 31
0.0
  0
LINE
  5
2D04
330
2B21
100
AcDbEntity
  8
0
100
AcDbLine
 10
94.50000000000001
 20
35.058824
 30
0.0
 11
94.50000000000001
 21
51.69577199999999
 31
0.0
  0
LINE
  5
2D05
330
2B21
100
AcDbEntity
  8
0
100
AcDbLine
 10
95.0
 20
24.064304
 30
0.0
 11
95.0
 21
26.857143
 31
0.0
  0
LINE
  5
2D06
330
2B21
100
AcDbEntity
  8
0
100
AcDbLine
 10
95.0
 20
66.25021700000001
 30
0.0
 11
95.0
 21
118.000309
 31
0.0
  0
LINE
  5
2D07
330
2B21
100
AcDbEntity
  8
0
100
AcDbLine
 10
95.0
 20
33.882353
 30
0.0
 11
95.0
 21
50.839387
 31
0.0
  0
LINE
  5
2D08
330
2B21
100
AcDbEntity
  8
0
100
AcDbLine
 10
95.5
 20
24.064304
 30
0.0
 11
95.5
 21
26.0
 31
0.0
  0
LINE
  5
2D09
330
2B21
100
AcDbEntity
  8
0
100
AcDbLine
 10
95.5
 20
65.085212
 30
0.0
 11
95.5
 21
118.000723
 31
0.0
  0
LINE
  5
2D0A
330
2B21
100
AcDbEntity
  8
0
100
AcDbLine
 10
95.5
 20
32.70588200000001
 30
0.0
 11
95.5
 21
49.983002
 31
0.0
  0
LINE
  5
2D0B
330
2B21
100
AcDbEntity
  8
0
100
AcDbLine
 10
96.0
 20
24.064304
 30
0.0
 11
96.0
 21
25.142857
 31
0.0
  0
LINE
  5
2D0C
330
2B21
100
AcDbEntity
  8
0
100
AcDbLine
 10
96.0
 20
63.920208
 30
0.0
 11
96.0
 21
118.001137
 31
0.0
  0
LINE
  5
2D0D
330
2B21
100
AcDbEntity
  8
0
100
AcDbLine
 10
96.0
 20
31.529412
 30
0.0
 11
96.0
 21
49.126617
 31
0.0
  0
LINE
  5
2D0E
330
2B21
100
AcDbEntity
  8
0
100
AcDbLine
 10
96.5
 20
24.064304
 30
0.0
 11
96.5
 21
24.285714
 31
0.0
  0
LINE
  5
2D0F
330
2B21
100
AcDbEntity
  8
0
100
AcDbLine
 10
96.5
 20
62.75520400000001
 30
0.0
 11
96.5
 21
118.00155
 31
0.0
  0
LINE
  5
2D10
330
2B21
100
AcDbEntity
  8
0
100
AcDbLine
 10
96.5
 20
30.352941
 30
0.0
 11
96.5
 21
48.270232
 31
0.0
  0
LINE
  5
2D11
330
2B21
100
AcDbEntity
  8
0
100
AcDbLine
 10
97.0
 20
29.176471
 30
0.0
 11
97.0
 21
47.413847
 31
0.0
  0
LINE
  5
2D12
330
2B21
100
AcDbEntity
  8
0
100
AcDbLine
 10
97.0
 20
61.590199
 30
0.0
 11
97.0
 21
118.001964
 31
0.0
  0
LINE
  5
2D13
330
2B21
100
AcDbEntity
  8
0
100
AcDbLine
 10
97.5
 20
28.0
 30
0.0
 11
97.5
 21
46.55746299999999
 31
0.0
  0
LINE
  5
2D14
330
2B21
100
AcDbEntity
  8
0
100
AcDbLine
 10
97.5
 20
60.425195
 30
0.0
 11
97.5
 21
118.002378
 31
0.0
  0
LINE
  5
2D15
330
2B21
100
AcDbEntity
  8
0
100
AcDbLine
 10
98.0
 20
26.823529
 30
0.0
 11
98.0
 21
45.701078
 31
0.0
  0
LINE
  5
2D16
330
2B21
100
AcDbEntity
  8
0
100
AcDbLine
 10
98.0
 20
59.26019100000001
 30
0.0
 11
98.0
 21
118.002792
 31
0.0
  0
LINE
  5
2D17
330
2B21
100
AcDbEntity
  8
0
100
AcDbLine
 10
98.50000000000001
 20
25.647059
 30
0.0
 11
98.50000000000001
 21
44.84469299999999
 31
0.0
  0
LINE
  5
2D18
330
2B21
100
AcDbEntity
  8
0
100
AcDbLine
 10
98.50000000000001
 20
58.095186
 30
0.0
 11
98.50000000000001
 21
118.003206
 31
0.0
  0
LINE
  5
2D19
330
2B21
100
AcDbEntity
  8
0
100
AcDbLine
 10
99.0
 20
24.470588
 30
0.0
 11
99.0
 21
43.988308
 31
0.0
  0
LINE
  5
2D1A
330
2B21
100
AcDbEntity
  8
0
100
AcDbLine
 10
99.0
 20
56.930182
 30
0.0
 11
99.0
 21
118.003619
 31
0.0
  0
LINE
  5
2D1B
330
2B21
100
AcDbEntity
  8
0
100
AcDbLine
 10
99.50000000000001
 20
24.064304
 30
0.0
 11
99.50000000000001
 21
43.13192299999999
 31
0.0
  0
LINE
  5
2D1C
330
2B21
100
AcDbEntity
  8
0
100
AcDbLine
 10
99.50000000000001
 20
55.76517800000001
 30
0.0
 11
99.50000000000001
 21
118.004033
 31
0.0
  0
LINE
  5
2D1D
330
2B21
100
AcDbEntity
  8
0
100
AcDbLine
 10
100.0
 20
24.064304
 30
0.0
 11
100.0
 21
42.27553799999999
 31
0.0
  0
LINE
  5
2D1E
330
2B21
100
AcDbEntity
  8
0
100
AcDbLine
 10
100.0
 20
54.600173
 30
0.0
 11
100.0
 21
118.004447
 31
0.0
  0
LINE
  5
2D1F
330
2B21
100
AcDbEntity
  8
0
100
AcDbLine
 10
100.5
 20
24.064304
 30
0.0
 11
100.5
 21
41.41915299999999
 31
0.0
  0
LINE
  5
2D20
330
2B21
100
AcDbEntity
  8
0
100
AcDbLine
 10
100.5
 20
53.435169
 30
0.0
 11
100.5
 21
118.004861
 31
0.0
  0
LINE
  5
2D21
330
2B21
100
AcDbEntity
  8
0
100
AcDbLine
 10
101.0
 20
24.064304
 30
0.0
 11
101.0
 21
40.562768
 31
0.0
  0
LINE
  5
2D22
330
2B21
100
AcDbEntity
  8
0
100
AcDbLine
 10
101.0
 20
52.27016500000001
 30
0.0
 11
101.0
 21
118.005275
 31
0.0
  0
LINE
  5
2D23
330
2B21
100
AcDbEntity
  8
0
100
AcDbLine
 10
101.5
 20
24.064304
 30
0.0
 11
101.5
 21
39.706383
 31
0.0
  0
LINE
  5
2D24
330
2B21
100
AcDbEntity
  8
0
100
AcDbLine
 10
101.5
 20
51.10516
 30
0.0
 11
101.5
 21
118.005688
 31
0.0
  0
LINE
  5
2D25
330
2B21
100
AcDbEntity
  8
0
100
AcDbLine
 10
102.0
 20
24.064304
 30
0.0
 11
102.0
 21
38.849998
 31
0.0
  0
LINE
  5
2D26
330
2B21
100
AcDbEntity
  8
0
100
AcDbLine
 10
102.0
 20
49.940156
 30
0.0
 11
102.0
 21
118.006102
 31
0.0
  0
LINE
  5
2D27
330
2B21
100
AcDbEntity
  8
0
100
AcDbLine
 10
102.5
 20
24.064304
 30
0.0
 11
102.5
 21
37.99361300000001
 31
0.0
  0
LINE
  5
2D28
330
2B21
100
AcDbEntity
  8
0
100
AcDbLine
 10
102.5
 20
48.775152
 30
0.0
 11
102.5
 21
118.006516
 31
0.0
  0
LINE
  5
2D29
330
2B21
100
AcDbEntity
  8
0
100
AcDbLine
 10
103.0
 20
24.064304
 30
0.0
 11
103.0
 21
37.137228
 31
0.0
  0
LINE
  5
2D2A
330
2B21
100
AcDbEntity
  8
0
100
AcDbLine
 10
103.0
 20
47.61014699999999
 30
0.0
 11
103.0
 21
118.00693
 31
0.0
  0
LINE
  5
2D2B
330
2B21
100
AcDbEntity
  8
0
100
AcDbLine
 10
103.5
 20
24.064304
 30
0.0
 11
103.5
 21
36.280844
 31
0.0
  0
LINE
  5
2D2C
330
2B21
100
AcDbEntity
  8
0
100
AcDbLine
 10
103.5
 20
46.44514299999999
 30
0.0
 11
103.5
 21
118.007344
 31
0.0
  0
LINE
  5
2D2D
330
2B21
100
AcDbEntity
  8
0
100
AcDbLine
 10
104.0
 20
24.064304
 30
0.0
 11
104.0
 21
35.42445900000001
 31
0.0
  0
LINE
  5
2D2E
330
2B21
100
AcDbEntity
  8
0
100
AcDbLine
 10
104.0
 20
45.280139
 30
0.0
 11
104.0
 21
118.007758
 31
0.0
  0
LINE
  5
2D2F
330
2B21
100
AcDbEntity
  8
0
100
AcDbLine
 10
104.5
 20
24.064304
 30
0.0
 11
104.5
 21
34.568074
 31
0.0
  0
LINE
  5
2D30
330
2B21
100
AcDbEntity
  8
0
100
AcDbLine
 10
104.5
 20
44.115134
 30
0.0
 11
104.5
 21
118.008171
 31
0.0
  0
LINE
  5
2D31
330
2B21
100
AcDbEntity
  8
0
100
AcDbLine
 10
105.0
 20
24.064304
 30
0.0
 11
105.0
 21
33.711689
 31
0.0
  0
LINE
  5
2D32
330
2B21
100
AcDbEntity
  8
0
100
AcDbLine
 10
105.0
 20
42.95012999999999
 30
0.0
 11
105.0
 21
118.008585
 31
0.0
  0
LINE
  5
2D33
330
2B21
100
AcDbEntity
  8
0
100
AcDbLine
 10
105.5
 20
24.064304
 30
0.0
 11
105.5
 21
32.855304
 31
0.0
  0
LINE
  5
2D34
330
2B21
100
AcDbEntity
  8
0
100
AcDbLine
 10
105.5
 20
41.785126
 30
0.0
 11
105.5
 21
118.008999
 31
0.0
  0
LINE
  5
2D35
330
2B21
100
AcDbEntity
  8
0
100
AcDbLine
 10
106.0
 20
24.064304
 30
0.0
 11
106.0
 21
31.998919
 31
0.0
  0
LINE
  5
2D36
330
2B21
100
AcDbEntity
  8
0
100
AcDbLine
 10
106.0
 20
40.620121
 30
0.0
 11
106.0
 21
118.009413
 31
0.0
  0
LINE
  5
2D37
330
2B21
100
AcDbEntity
  8
0
100
AcDbLine
 10
106.5
 20
24.064304
 30
0.0
 11
106.5
 21
31.142534
 31
0.0
  0
LINE
  5
2D38
330
2B21
100
AcDbEntity
  8
0
100
AcDbLine
 10
106.5
 20
39.455117
 30
0.0
 11
106.5
 21
118.009827
 31
0.0
  0
LINE
  5
2D39
330
2B21
100
AcDbEntity
  8
0
100
AcDbLine
 10
107.0
 20
24.064304
 30
0.0
 11
107.0
 21
30.286149
 31
0.0
  0
LINE
  5
2D3A
330
2B21
100
AcDbEntity
  8
0
100
AcDbLine
 10
107.0
 20
38.290113
 30
0.0
 11
107.0
 21
118.01024
 31
0.0
  0
LINE
  5
2D3B
330
2B21
100
AcDbEntity
  8
0
100
AcDbLine
 10
107.5
 20
24.064304
 30
0.0
 11
107.5
 21
29.429764
 31
0.0
  0
LINE
  5
2D3C
330
2B21
100
AcDbEntity
  8
0
100
AcDbLine
 10
107.5
 20
37.125108
 30
0.0
 11
107.5
 21
118.010654
 31
0.0
  0
LINE
  5
2D3D
330
2B21
100
AcDbEntity
  8
0
100
AcDbLine
 10
108.0
 20
24.064304
 30
0.0
 11
108.0
 21
28.573379
 31
0.0
  0
LINE
  5
2D3E
330
2B21
100
AcDbEntity
  8
0
100
AcDbLine
 10
108.0
 20
35.960104
 30
0.0
 11
108.0
 21
118.011068
 31
0.0
  0
LINE
  5
2D3F
330
2B21
100
AcDbEntity
  8
0
100
AcDbLine
 10
108.5
 20
24.064304
 30
0.0
 11
108.5
 21
27.716994
 31
0.0
  0
LINE
  5
2D40
330
2B21
100
AcDbEntity
  8
0
100
AcDbLine
 10
108.5
 20
34.7951
 30
0.0
 11
108.5
 21
118.011482
 31
0.0
  0
LINE
  5
2D41
330
2B21
100
AcDbEntity
  8
0
100
AcDbLine
 10
109.0
 20
24.064304
 30
0.0
 11
109.0
 21
26.86060900000001
 31
0.0
  0
LINE
  5
2D42
330
2B21
100
AcDbEntity
  8
0
100
AcDbLine
 10
109.0
 20
33.630095
 30
0.0
 11
109.0
 21
118.011896
 31
0.0
  0
LINE
  5
2D43
330
2B21
100
AcDbEntity
  8
0
100
AcDbLine
 10
109.5
 20
24.064304
 30
0.0
 11
109.5
 21
26.004225
 31
0.0
  0
LINE
  5
2D44
330
2B21
100
AcDbEntity
  8
0
100
AcDbLine
 10
109.5
 20
32.46509099999999
 30
0.0
 11
109.5
 21
118.012309
 31
0.0
  0
LINE
  5
2D45
330
2B21
100
AcDbEntity
  8
0
100
AcDbLine
 10
110.0
 20
24.064304
 30
0.0
 11
110.0
 21
25.14784
 31
0.0
  0
LINE
  5
2D46
330
2B21
100
AcDbEntity
  8
0
100
AcDbLine
 10
110.0
 20
31.300087
 30
0.0
 11
110.0
 21
118.012723
 31
0.0
  0
LINE
  5
2D47
330
2B21
100
AcDbEntity
  8
0
100
AcDbLine
 10
110.5
 20
24.064304
 30
0.0
 11
110.5
 21
24.291455
 31
0.0
  0
LINE
  5
2D48
330
2B21
100
AcDbEntity
  8
0
100
AcDbLine
 10
110.5
 20
30.135082
 30
0.0
 11
110.5
 21
118.013137
 31
0.0
  0
LINE
  5
2D49
330
2B21
100
AcDbEntity
  8
0
100
AcDbLine
 10
111.0
 20
28.97007800000001
 30
0.0
 11
111.0
 21
118.013551
 31
0.0
  0
LINE
  5
2D4A
330
2B21
100
AcDbEntity
  8
0
100
AcDbLine
 10
111.5
 20
27.805074
 30
0.0
 11
111.5
 21
118.013965
 31
0.0
  0
LINE
  5
2D4B
330
2B21
100
AcDbEntity
  8
0
100
AcDbLine
 10
112.0
 20
26.640069
 30
0.0
 11
112.0
 21
118.014378
 31
0.0
  0
LINE
  5
2D4C
330
2B21
100
AcDbEntity
  8
0
100
AcDbLine
 10
112.5
 20
25.475065
 30
0.0
 11
112.5
 21
118.014792
 31
0.0
  0
LINE
  5
2D4D
330
2B21
100
AcDbEntity
  8
0
100
AcDbLine
 10
113.0
 20
24.310061
 30
0.0
 11
113.0
 21
118.015206
 31
0.0
  0
ENDBLK
  5
2D4E
330
2B21
100
AcDbEntity
  8
0
100
AcDbBlockEnd
  0
BLOCK
  5
2D50
330
2D4F
100
AcDbEntity
  8
0
100
AcDbBlockBegin
  2
A3A
 70
     2
 10
0.0
 20
0.0
 30
0.0
  3
A3A
  1

  0
LINE
  5
2D51
330
2D4F
100
AcDbEntity
  8
0
 62
     7
100
AcDbLine
 10
84.37046570631792
 20
47.49999999999997
 30
0.0
 11
280.6346223039411
 21
47.49999999999997
 31
0.0
  0
LINE
  5
2D52
330
2D4F
100
AcDbEntity
  8
0
100
AcDbLine
 10
95.20082054913055
 20
18.19918428350232
 30
0.0
 11
95.20082054913055
 21
0.4999999999999716
 31
0.0
  0
LINE
  5
2D53
330
2D4F
100
AcDbEntity
  8
0
 62
     3
100
AcDbLine
 10
134.7823020708698
 20
35.63664892128682
 30
0.0
 11
134.7823020708698
 21
0.7496819567552678
 31
0.0
  0
LINE
  5
2D54
330
2D4F
100
AcDbEntity
  8
0
 62
     3
100
AcDbLine
 10
228.8850507222057
 20
23.44463693090998
 30
0.0
 11
280.6346223039412
 21
23.44463693090998
 31
0.0
  0
LINE
  5
2D55
330
2D4F
100
AcDbEntity
  8
0
 62
     3
100
AcDbLine
 10
228.8850507222057
 20
35.63664892128682
 30
0.0
 11
228.8850507222057
 21
12.10895691175287
 31
0.0
  0
LINE
  5
2D56
330
2D4F
100
AcDbEntity
  8
0
 62
     3
100
AcDbLine
 10
247.3532711655506
 20
35.74968195675527
 30
0.0
 11
247.3532711655507
 21
23.44463693090999
 31
0.0
  0
TEXT
  5
2D57
330
2D4F
100
AcDbEntity
  8
0
 62
     7
100
AcDbText
 10
278.0486419070005
 20
30.43906285462336
 30
0.0
 40
1.438571755054918
  1
R
  7
ROMANS
100
AcDbText
  0
CIRCLE
  5
2D58
330
2D4F
100
AcDbEntity
  8
0
 62
     7
100
AcDbCircle
 10
278.6669662607072
 20
31.18995967239246
 30
0.0
 40
1.298239169517934
  0
ARC
  5
2D59
330
2D4F
100
AcDbEntity
  8
0
 62
     7
100
AcDbCircle
 10
268.3781746886561
 20
29.11348080054679
 30
0.0
 40
0.9736793771384506
100
AcDbArc
 50
26.565051177078
 51
333.434948822922
  0
CIRCLE
  5
2D5A
330
2D4F
100
AcDbEntity
  8
0
 62
     7
100
AcDbCircle
 10
273.2465715743483
 20
29.11348080054679
 30
0.0
 40
0.9736793771384506
  0
LINE
  5
2D5B
330
2D4F
100
AcDbEntity
  8
0
 62
     7
100
AcDbLine
 10
265.4571365572408
 20
27.16612204626986
 30
0.0
 11
265.4571365572408
 21
32.52135862053135
 31
0.0
  0
LINE
  5
2D5C
330
2D4F
100
AcDbEntity
  8
0
 62
     7
100
AcDbLine
 10
264.9702968686715
 20
32.52135862053135
 30
0.0
 11
264.9702968686715
 21
27.16612204626986
 31
0.0
  0
LINE
  5
2D5D
330
2D4F
100
AcDbEntity
  8
0
 62
     7
100
AcDbLine
 10
264.4834571801022
 20
32.52135862053135
 30
0.0
 11
264.4834571801022
 21
27.16612204626986
 31
0.0
  0
LINE
  5
2D5E
330
2D4F
100
AcDbEntity
  8
0
 62
     7
100
AcDbLine
 10
263.5097778029638
 20
28.13980142340833
 30
0.0
 11
261.5624190486869
 21
28.13980142340833
 31
0.0
  0
LINE
  5
2D5F
330
2D4F
100
AcDbEntity
  8
0
 62
     7
100
AcDbLine
 10
261.5624190486869
 20
27.65296173483913
 30
0.0
 11
263.5097778029638
 21
27.65296173483913
 31
0.0
  0
LINE
  5
2D60
330
2D4F
100
AcDbEntity
  8
0
 62
     7
100
AcDbLine
 10
261.5624190486869
 20
27.16612204626986
 30
0.0
 11
263.5097778029638
 21
27.16612204626986
 31
0.0
  0
ARC
  5
2D61
330
2D4F
100
AcDbEntity
  8
0
 62
     7
100
AcDbCircle
 10
261.5624190486869
 20
29.11348080054679
 30
0.0
 40
1.947358754276901
100
AcDbArc
 50
347.9570467539289
 51
270.0
  0
ARC
  5
2D62
330
2D4F
100
AcDbEntity
  8
0
 62
     7
100
AcDbCircle
 10
261.5624190486869
 20
29.11348080054679
 30
0.0
 40
1.460519065707676
100
AcDbArc
 50
343.8672488335547
 51
270.0
  0
ARC
  5
2D63
330
2D4F
100
AcDbEntity
  8
0
 62
     7
100
AcDbCircle
 10
261.5624190486869
 20
29.11348080054679
 30
0.0
 40
0.9736793771384506
100
AcDbArc
 50
334.9757291819141
 51
270.0
  0
LINE
  5
2D64
330
2D4F
100
AcDbEntity
  8
0
 62
     7
100
AcDbLine
 10
257.1808618515639
 20
29.11348080054679
 30
0.0
 11
256.6940221629947
 21
31.06083955482367
 31
0.0
  0
LINE
  5
2D65
330
2D4F
100
AcDbEntity
  8
0
 62
     7
100
AcDbLine
 10
257.6677015401331
 20
31.06083955482367
 30
0.0
 11
257.1808618515639
 21
29.11348080054679
 31
0.0
  0
LINE
  5
2D66
330
2D4F
100
AcDbEntity
  8
0
 62
     7
100
AcDbLine
 10
258.6413809172715
 20
31.06083955482367
 30
0.0
 11
257.6677015401331
 21
27.16612204626986
 31
0.0
  0
LINE
  5
2D67
330
2D4F
100
AcDbEntity
  8
0
 62
     7
100
AcDbLine
 10
257.1808618515639
 20
27.16612204626986
 30
0.0
 11
258.1545412287024
 21
31.06083955482367
 31
0.0
  0
LINE
  5
2D68
330
2D4F
100
AcDbEntity
  8
0
 62
     7
100
AcDbLine
 10
256.2071824744255
 20
31.06083955482367
 30
0.0
 11
257.1808618515639
 21
27.16612204626986
 31
0.0
  0
LINE
  5
2D69
330
2D4F
100
AcDbEntity
  8
0
 62
     7
100
AcDbLine
 10
255.7203427858562
 20
31.06083955482367
 30
0.0
 11
256.6940221629947
 21
27.16612204626986
 31
0.0
  0
CIRCLE
  5
2D6A
330
2D4F
100
AcDbEntity
  8
0
 62
     7
100
AcDbCircle
 10
254.2598237201486
 20
32.03451893196214
 30
0.0
 40
0.4868396885692254
  0
LINE
  5
2D6B
330
2D4F
100
AcDbEntity
  8
0
 62
     7
100
AcDbLine
 10
254.7466634087178
 20
31.06083955482367
 30
0.0
 11
254.7466634087178
 21
27.16612204626986
 31
0.0
  0
LINE
  5
2D6C
330
2D4F
100
AcDbEntity
  8
0
 62
     7
100
AcDbLine
 10
254.2598237201486
 20
27.16612204626986
 30
0.0
 11
254.2598237201486
 21
31.06083955482367
 31
0.0
  0
LINE
  5
2D6D
330
2D4F
100
AcDbEntity
  8
0
 62
     7
100
AcDbLine
 10
253.7729840315794
 20
31.06083955482367
 30
0.0
 11
253.7729840315794
 21
27.16612204626986
 31
0.0
  0
LINE
  5
2D6E
330
2D4F
100
AcDbEntity
  8
0
 62
     7
100
AcDbLine
 10
252.3124649658717
 20
27.16612204626986
 30
0.0
 11
252.3124649658717
 21
29.11348080054679
 31
0.0
  0
LINE
  5
2D6F
330
2D4F
100
AcDbEntity
  8
0
 62
     7
100
AcDbLine
 10
251.8256252773024
 20
29.11348080054679
 30
0.0
 11
251.8256252773024
 21
27.16612204626986
 31
0.0
  0
ARC
  5
2D70
330
2D4F
100
AcDbEntity
  8
0
 62
     7
100
AcDbCircle
 10
250.851945900164
 20
29.11348080054679
 30
0.0
 40
1.460519065707676
100
AcDbArc
 50
0.0
 51
109.245387990013
  0
ARC
  5
2D71
330
2D4F
100
AcDbEntity
  8
0
 62
     7
100
AcDbCircle
 10
250.851945900164
 20
29.11348080054679
 30
0.0
 40
0.9736793771384506
100
AcDbArc
 50
0.0
 51
119.1091363549823
  0
LINE
  5
2D72
330
2D4F
100
AcDbEntity
  8
0
 62
     7
100
AcDbLine
 10
252.7993046544409
 20
29.11348080054679
 30
0.0
 11
252.7993046544409
 21
27.16612204626986
 31
0.0
  0
ARC
  5
2D73
330
2D4F
100
AcDbEntity
  8
0
 62
     7
100
AcDbCircle
 10
250.9625912839297
 20
29.31264249132508
 30
0.0
 40
1.847479738586645
100
AcDbArc
 50
353.8113840367584
 51
108.8689994550615
  0
LINE
  5
2D74
330
2D4F
100
AcDbEntity
  8
0
 62
     7
100
AcDbLine
 10
250.3651062115948
 20
27.16612204626986
 30
0.0
 11
250.3651062115948
 21
31.06083955482367
 31
0.0
  0
LINE
  5
2D75
330
2D4F
100
AcDbEntity
  8
0
 62
     7
100
AcDbLine
 10
249.8782665230255
 20
31.06083955482367
 30
0.0
 11
249.8782665230255
 21
27.16612204626986
 31
0.0
  0
LINE
  5
2D76
330
2D4F
100
AcDbEntity
  8
0
 62
     7
100
AcDbLine
 10
249.3914268344564
 20
27.16612204626986
 30
0.0
 11
249.3914268344564
 21
31.06083955482367
 31
0.0
  0
LINE
  5
2D77
330
2D4F
100
AcDbEntity
  8
0
 62
     7
100
AcDbLine
 10
248.4177474573178
 20
31.22311945101339
 30
0.0
 11
248.4177474573178
 21
27.00384215008015
 31
0.0
  0
LINE
  5
2D78
330
2D4F
100
AcDbEntity
  8
0
 62
     7
100
AcDbLine
 10
275.356210224815
 20
25.70560298056219
 30
0.0
 11
249.7159866268358
 21
25.70560298056219
 31
0.0
  0
LINE
  5
2D79
330
2D4F
100
AcDbEntity
  8
0
 62
     7
100
AcDbLine
 10
276.6544493943329
 20
31.22311945101339
 30
0.0
 11
276.6544493943329
 21
27.00384215008015
 31
0.0
  0
LINE
  5
2D7A
330
2D4F
100
AcDbEntity
  8
0
 62
     7
100
AcDbLine
 10
249.7159866268358
 20
32.52135862053135
 30
0.0
 11
253.6431309366614
 21
32.52135862053135
 31
0.0
  0
ARC
  5
2D7B
330
2D4F
100
AcDbEntity
  8
0
 62
     7
100
AcDbCircle
 10
268.3781746886561
 20
29.11348080054679
 30
0.0
 40
1.946223752832486
100
AcDbArc
 50
12.92863215792523
 51
347.0713678420747
  0
CIRCLE
  5
2D7C
330
2D4F
100
AcDbEntity
  8
0
 62
     7
100
AcDbCircle
 10
273.2465715743483
 20
29.11348080054679
 30
0.0
 40
1.946223752832486
  0
ARC
  5
2D7D
330
2D4F
100
AcDbEntity
  8
0
 62
     7
100
AcDbCircle
 10
249.7159866268358
 20
27.00384215008015
 30
0.0
 40
1.298239169517934
100
AcDbArc
 50
180.0
 51
270.0
  0
ARC
  5
2D7E
330
2D4F
100
AcDbEntity
  8
0
 62
     7
100
AcDbCircle
 10
249.7159866268358
 20
31.22311945101339
 30
0.0
 40
1.298239169517934
100
AcDbArc
 50
90.0
 51
180.0
  0
ARC
  5
2D7F
330
2D4F
100
AcDbEntity
  8
0
 62
     7
100
AcDbCircle
 10
275.356210224815
 20
31.22311945101339
 30
0.0
 40
1.298239169517934
100
AcDbArc
 50
0.0
 51
90.0
  0
ARC
  5
2D80
330
2D4F
100
AcDbEntity
  8
0
 62
     7
100
AcDbCircle
 10
275.356210224815
 20
27.00384215008015
 30
0.0
 40
1.298239169517934
100
AcDbArc
 50
270.0
 51
0.0
  0
LINE
  5
2D81
330
2D4F
100
AcDbEntity
  8
0
 62
     7
100
AcDbLine
 10
265.7989608819737
 20
32.52135862053135
 30
0.0
 11
275.356210224815
 21
32.52135862053135
 31
0.0
  0
LINE
  5
2D82
330
2D4F
100
AcDbEntity
  8
0
 62
     7
100
AcDbLine
 10
254.8767036138336
 20
32.52135862053135
 30
0.0
 11
264.1541973124108
 21
32.52135862053135
 31
0.0
  0
POINT
  5
2D83
330
2D4F
100
AcDbEntity
  8
0
 62
     7
100
AcDbPoint
 10
254.2598237201486
 20
32.03451893196214
 30
0.0
  0
TEXT
  5
2D84
330
2D4F
100
AcDbEntity
  8
0
100
AcDbText
 10
229.5013774808956
 20
32.44352293440872
 30
0.0
 40
2.0
  1
M\U+00E9retar\U+00E1ny:
  7
ROMANS
100
AcDbText
  0
TEXT
  5
2D85
330
2D4F
100
AcDbEntity
  8
0
100
AcDbText
 10
163.8704657063179
 20
8.499999999999971
 30
0.0
 40
2.0
  1
Rajzsz\U+00E1m:
  7
ROMANS
100
AcDbText
  0
TEXT
  5
2D86
330
2D4F
100
AcDbEntity
  8
0
100
AcDbText
 10
229.460806505213
 20
19.6415838701723
 30
0.0
 40
2.0
  1
Dwg:
  7
ROMANS
100
AcDbText
  0
TEXT
  5
2D87
330
2D4F
100
AcDbEntity
  8
0
100
AcDbText
 10
248.3704657063179
 20
8.437466653733196
 30
0.0
 40
2.0
  1
V\U+00E1ltozat:
  7
ROMANS
100
AcDbText
  0
TEXT
  5
2D88
330
2D4F
100
AcDbEntity
  8
0
 62
     7
100
AcDbText
 10
135.4046021446162
 20
8.499999999999971
 30
0.0
 40
2.0
  1
Lap.:
  7
ROMANS
100
AcDbText
  0
TEXT
  5
2D89
330
2D4F
100
AcDbEntity
  8
0
100
AcDbText
 10
135.7357295428187
 20
32.09868379611592
 30
0.0
 40
2.0
  1
Megnevez\U+00E9s:
  7
ROMANS
100
AcDbText
  0
TEXT
  5
2D8A
330
2D4F
100
AcDbEntity
  8
0
100
AcDbText
 10
85.10202623700832
 20
14.14954051660308
 30
0.0
 40
2.0
  1
Terv.
  7
ROMANS
100
AcDbText
  0
TEXT
  5
2D8B
330
2D4F
100
AcDbEntity
  8
0
100
AcDbText
 10
85.03851180737232
 20
8.504842915028831
 30
0.0
 40
2.0
  1
Ell.
  7
ROMANS
100
AcDbText
  0
TEXT
  5
2D8C
330
2D4F
100
AcDbEntity
  8
0
100
AcDbText
 10
84.83526563253716
 20
2.355639309624251
 30
0.0
 40
2.0
  1
Eng.
  7
ROMANS
100
AcDbText
  0
LINE
  5
2D8D
330
2D4F
100
AcDbEntity
  8
0
100
AcDbLine
 10
118.3999558468312
 20
18.19918428350232
 30
0.0
 11
118.3999558468312
 21
0.4999999999999716
 31
0.0
  0
LINE
  5
2D8E
330
2D4F
100
AcDbEntity
  8
0
100
AcDbLine
 10
84.37046570631792
 20
6.73519495388578
 30
0.0
 11
134.7823020708698
 21
6.73519495388578
 31
0.0
  0
LINE
  5
2D8F
330
2D4F
100
AcDbEntity
  8
0
100
AcDbLine
 10
84.37046570631792
 20
12.10895691175287
 30
0.0
 11
134.7823020708698
 21
12.10895691175287
 31
0.0
  0
LINE
  5
2D90
330
2D4F
100
AcDbEntity
  8
0
100
AcDbLine
 10
84.37046570631792
 20
18.19918428350232
 30
0.0
 11
134.7823020708698
 21
18.19918428350232
 31
0.0
  0
LINE
  5
2D91
330
2D4F
100
AcDbEntity
  8
0
100
AcDbLine
 10
84.37046570631792
 20
23.40339798651607
 30
0.0
 11
134.7823020708698
 21
23.40339798651607
 31
0.0
  0
TEXT
  5
2D92
330
2D4F
100
AcDbEntity
  8
0
100
AcDbText
 10
229.3704657063179
 20
13.64431747114347
 30
0.0
 40
2.0
  1
R.
  7
ROMANS
100
AcDbText
  0
LINE
  5
2D93
330
2D4F
100
AcDbEntity
  8
0
 62
     3
100
AcDbLine
 10
0.5
 20
0.5
 30
0.0
 11
280.6346223039412
 21
0.5000000000000285
 31
0.0
  0
LINE
  5
2D94
330
2D4F
100
AcDbEntity
  8
0
 62
     3
100
AcDbLine
 10
84.37046570631792
 20
47.49999999999997
 30
0.0
 11
280.6346223039411
 21
47.49999999999997
 31
0.0
  0
TEXT
  5
2D95
330
2D4F
100
AcDbEntity
  8
0
100
AcDbText
 10
111.2857988768566
 20
52.55732474720102
 30
0.0
 40
1.6
  1
Megnevez\U+00E9s
  7
ROMANS
100
AcDbText
  0
TEXT
  5
2D96
330
2D4F
100
AcDbEntity
  8
0
100
AcDbText
 10
90.43574805096632
 20
53.02197036431481
 30
0.0
 40
1.6
  1
T.
  7
ROMANS
100
AcDbText
  0
TEXT
  5
2D97
330
2D4F
100
AcDbEntity
  8
0
100
AcDbText
 10
97.87121282011895
 20
52.69820309934276
 30
0.0
 40
1.6
  1
Db.
  7
ROMANS
100
AcDbText
  0
LINE
  5
2D98
330
2D4F
100
AcDbEntity
  8
0
100
AcDbLine
 10
96.43574805096626
 20
51.49999999999998
 30
0.0
 11
96.43574805096626
 21
47.50000000000004
 31
0.0
  0
LINE
  5
2D99
330
2D4F
100
AcDbEntity
  8
0
100
AcDbLine
 10
102.9357480509663
 20
47.50000000000004
 30
0.0
 11
102.9357480509663
 21
51.50000000000004
 31
0.0
  0
TEXT
  5
2D9A
330
2D4F
100
AcDbEntity
  8
0
100
AcDbText
 10
148.8199050846536
 20
52.561915904568
 30
0.0
 40
1.6
  1
M\U+00E9ret
  7
ROMANS
100
AcDbText
  0
LINE
  5
2D9B
330
2D4F
100
AcDbEntity
  8
0
100
AcDbLine
 10
139.6041910676061
 20
47.50000000000002
 30
0.0
 11
139.6041910676061
 21
51.50000000000003
 31
0.0
  0
LINE
  5
2D9C
330
2D4F
100
AcDbEntity
  8
0
100
AcDbLine
 10
166.2430764549098
 20
47.50000000000002
 30
0.0
 11
166.2430764549098
 21
51.50000000000003
 31
0.0
  0
TEXT
  5
2D9D
330
2D4F
100
AcDbEntity
  8
0
100
AcDbText
 10
169.6000550541372
 20
52.54808702199344
 30
0.0
 40
1.6
  1
M\U+00E9retszabv.
  7
ROMANS
100
AcDbText
  0
TEXT
  5
2D9E
330
2D4F
100
AcDbEntity
  8
0
100
AcDbText
 10
233.3495366897797
 20
52.54115601298739
 30
0.0
 40
1.6
  1
Rajzsz\U+00E1m/cikksz\U+00E1m
  7
ROMANS
100
AcDbText
  0
TEXT
  5
2D9F
330
2D4F
100
AcDbEntity
  8
0
100
AcDbText
 10
193.3565461551903
 20
52.48228615896451
 30
0.0
 40
1.6
  1
Anyag
  7
ROMANS
100
AcDbText
  0
LINE
  5
2DA0
330
2D4F
100
AcDbEntity
  8
0
100
AcDbLine
 10
185.3814871433591
 20
47.50000000000002
 30
0.0
 11
185.3814871433591
 21
51.49999999999997
 31
0.0
  0
LINE
  5
2DA1
330
2D4F
100
AcDbEntity
  8
0
100
AcDbLine
 10
212.0415902808718
 20
47.50000000000002
 30
0.0
 11
212.0415902808718
 21
51.49999999999997
 31
0.0
  0
TEXT
  5
2DA2
330
2D4F
100
AcDbEntity
  8
0
100
AcDbText
 10
215.0662148963377
 20
52.51623443268207
 30
0.0
 40
1.6
  1
Anyagszabv.
  7
ROMANS
100
AcDbText
  0
LINE
  5
2DA3
330
2D4F
100
AcDbEntity
  8
0
100
AcDbLine
 10
231.1481743440077
 20
47.50000000000002
 30
0.0
 11
231.1481743440077
 21
51.50000000000003
 31
0.0
  0
LINE
  5
2DA4
330
2D4F
100
AcDbEntity
  8
0
100
AcDbLine
 10
261.23830126757
 20
47.49999999999997
 30
0.0
 11
261.2383012675701
 21
51.50000000000003
 31
0.0
  0
TEXT
  5
2DA5
330
2D4F
100
AcDbEntity
  8
0
100
AcDbText
 10
263.2397445412777
 20
52.53315600890224
 30
0.0
 40
1.6
  1
Egy\U+00E9b
  7
ROMANS
100
AcDbText
  0
LINE
  5
2DA6
330
2D4F
100
AcDbEntity
  8
0
100
AcDbLine
 10
84.37046570631792
 20
43.74968195675527
 30
0.0
 11
280.6346223039412
 21
43.74968195675527
 31
0.0
  0
LINE
  5
2DA7
330
2D4F
100
AcDbEntity
  8
0
100
AcDbLine
 10
84.37046570631787
 20
47.49999999999997
 30
0.0
 11
280.6346223039411
 21
47.49999999999997
 31
0.0
  0
LINE
  5
2DA8
330
2D4F
100
AcDbEntity
  8
0
100
AcDbLine
 10
84.37046570631787
 20
51.49999999999997
 30
0.0
 11
280.6346223039411
 21
51.50000000000003
 31
0.0
  0
LINE
  5
2DA9
330
2D4F
100
AcDbEntity
  8
0
100
AcDbLine
 10
84.37046570631792
 20
39.74968195675527
 30
0.0
 11
280.6346223039412
 21
39.74968195675527
 31
0.0
  0
LINE
  5
2DAA
330
2D4F
100
AcDbEntity
  8
0
 62
     3
100
AcDbLine
 10
84.37046570631792
 20
35.74968195675527
 30
0.0
 11
280.6346223039412
 21
35.74968195675527
 31
0.0
  0
LINE
  5
2DAB
330
2D4F
100
AcDbEntity
  8
0
 62
     3
100
AcDbLine
 10
185.3814871433591
 20
35.74968195675527
 30
0.0
 11
185.3814871433591
 21
47.49999999999997
 31
0.0
  0
LINE
  5
2DAC
330
2D4F
100
AcDbEntity
  8
0
 62
     3
100
AcDbLine
 10
166.2430764549098
 20
35.74968195675527
 30
0.0
 11
166.2430764549098
 21
47.49999999999997
 31
0.0
  0
LINE
  5
2DAD
330
2D4F
100
AcDbEntity
  8
0
 62
     3
100
AcDbLine
 10
261.2383012675701
 20
35.8793799012793
 30
0.0
 11
261.2383012675701
 21
47.49999999999997
 31
0.0
  0
TEXT
  5
2DAE
330
2D4F
100
AcDbEntity
  8
0
 62
     7
100
AcDbText
 10
109.6715241782774
 20
36.55807951631537
 30
0.0
 40
2.2
  1
V\U+00E1ltoz\U+00E1s
  7
ROMANS
100
AcDbText
  0
TEXT
  5
2DAF
330
2D4F
100
AcDbEntity
  8
0
 62
     7
100
AcDbText
 10
166.6038360596739
 20
36.5718135498006
 30
0.0
 40
2.2
  1
D\U+00E1tum Jel
  7
ROMANS
100
AcDbText
  0
TEXT
  5
2DB0
330
2D4F
100
AcDbEntity
  8
0
 62
     7
100
AcDbText
 10
208.8036024770891
 20
36.55963656936507
 30
0.0
 40
2.2
  1
V\U+00E1ltoz\U+00E1s
  7
ROMANS
100
AcDbText
  0
TEXT
  5
2DB1
330
2D4F
100
AcDbEntity
  8
0
 62
     7
100
AcDbText
 10
261.7531643166138
 20
36.58172338730474
 30
0.0
 40
2.2
  1
D\U+00E1tum Jel
  7
ROMANS
100
AcDbText
  0
LINE
  5
2DB2
330
2D4F
100
AcDbEntity
  8
0
 62
     3
100
AcDbLine
 10
228.8850507222056
 20
18.19918428350232
 30
0.0
 11
280.6346223039412
 21
18.19918428350232
 31
0.0
  0
LINE
  5
2DB3
330
2D4F
100
AcDbEntity
  8
0
100
AcDbLine
 10
272.585664174079
 20
1.3630737068884
 30
0.0
 11
274.4485797740791
 21
4.556643306888389
 31
0.0
  0
LINE
  5
2DB4
330
2D4F
100
AcDbEntity
  8
0
100
AcDbLine
 10
273.648579774079
 20
5.3566433068884
 30
0.0
 11
272.2223048740791
 21
1.3630737068884
 31
0.0
  0
LINE
  5
2DB5
330
2D4F
100
AcDbEntity
  8
0
100
AcDbLine
 10
274.4485797740791
 20
5.3566433068884
 30
0.0
 11
273.648579774079
 21
5.3566433068884
 31
0.0
  0
LINE
  5
2DB6
330
2D4F
100
AcDbEntity
  8
0
100
AcDbLine
 10
271.185664174079
 20
1.3630737068884
 30
0.0
 11
274.4485797740791
 21
6.956643306888423
 31
0.0
  0
LINE
  5
2DB7
330
2D4F
100
AcDbEntity
  8
0
100
AcDbLine
 10
273.648579774079
 20
7.756643306888435
 30
0.0
 11
270.9313126740791
 21
1.3630737068884
 31
0.0
  0
LINE
  5
2DB8
330
2D4F
100
AcDbEntity
  8
0
100
AcDbLine
 10
274.4485797740791
 20
7.756643306888435
 30
0.0
 11
273.648579774079
 21
7.756643306888435
 31
0.0
  0
LINE
  5
2DB9
330
2D4F
100
AcDbEntity
  8
0
100
AcDbLine
 10
269.785664174079
 20
1.3630737068884
 30
0.0
 11
274.446690474079
 21
9.353404506888438
 31
0.0
  0
LINE
  5
2DBA
330
2D4F
100
AcDbEntity
  8
0
100
AcDbLine
 10
273.5628654740791
 20
10.75664330688843
 30
0.0
 11
269.537049974079
 21
1.3630737068884
 31
0.0
  0
LINE
  5
2DBB
330
2D4F
100
AcDbEntity
  8
0
100
AcDbLine
 10
269.537049974079
 20
10.75664330688843
 30
0.0
 11
273.5628654740791
 21
10.75664330688843
 31
0.0
  0
LINE
  5
2DBC
330
2D4F
100
AcDbEntity
  8
0
100
AcDbLine
 10
274.4485797740791
 20
4.556643306888389
 30
0.0
 11
276.311495374079
 21
1.3630737068884
 31
0.0
  0
LINE
  5
2DBD
330
2D4F
100
AcDbEntity
  8
0
100
AcDbLine
 10
276.6748546740791
 20
1.3630737068884
 30
0.0
 11
275.248579774079
 21
5.3566433068884
 31
0.0
  0
LINE
  5
2DBE
330
2D4F
100
AcDbEntity
  8
0
100
AcDbLine
 10
275.248579774079
 20
5.3566433068884
 30
0.0
 11
274.4485797740791
 21
5.3566433068884
 31
0.0
  0
LINE
  5
2DBF
330
2D4F
100
AcDbEntity
  8
0
100
AcDbLine
 10
274.4485797740791
 20
6.956643306888423
 30
0.0
 11
277.711495374079
 21
1.3630737068884
 31
0.0
  0
LINE
  5
2DC0
330
2D4F
100
AcDbEntity
  8
0
100
AcDbLine
 10
277.9658468740791
 20
1.3630737068884
 30
0.0
 11
275.248579774079
 21
7.756643306888435
 31
0.0
  0
LINE
  5
2DC1
330
2D4F
100
AcDbEntity
  8
0
100
AcDbLine
 10
275.248579774079
 20
7.756643306888435
 30
0.0
 11
274.4485797740791
 21
7.756643306888435
 31
0.0
  0
LINE
  5
2DC2
330
2D4F
100
AcDbEntity
  8
0
100
AcDbLine
 10
279.359127274079
 20
10.75817260688839
 30
0.0
 11
275.328342674079
 21
10.75483670688842
 31
0.0
  0
LINE
  5
2DC3
330
2D4F
100
AcDbEntity
  8
0
100
AcDbLine
 10
279.359127274079
 20
1.3630737068884
 30
0.0
 11
275.328342674079
 21
10.75483670688842
 31
0.0
  0
LINE
  5
2DC4
330
2D4F
100
AcDbEntity
  8
0
100
AcDbLine
 10
274.446690474079
 20
9.353404506888438
 30
0.0
 11
279.111841974079
 21
1.3630737068884
 31
0.0
  0
LINE
  5
2DC5
330
2D4F
100
AcDbEntity
  8
0
100
AcDbLine
 10
279.359127274079
 20
1.3630737068884
 30
0.0
 11
279.359127274079
 21
10.75817260688839
 31
0.0
  0
LINE
  5
2DC6
330
2D4F
100
AcDbEntity
  8
0
100
AcDbLine
 10
269.537049974079
 20
1.3630737068884
 30
0.0
 11
269.537049974079
 21
10.75664330688843
 31
0.0
  0
INSERT
  5
2DC7
330
2D4F
100
AcDbEntity
  8
0
100
AcDbBlockReference
  2
*X6
 10
268.0485797740791
 20
-1.043356693111576
 30
0.0
 41
0.1
 42
0.1
 43
0.1
  0
LINE
  5
2DC8
330
2D4F
100
AcDbEntity
  8
0
 62
     3
100
AcDbLine
 10
0.4999999999998864
 20
393.0283131952465
 30
0.0
 11
0.5
 21
0.5
 31
0.0
  0
LINE
  5
2DC9
330
2D4F
100
AcDbEntity
  8
0
 62
     3
100
AcDbLine
 10
84.37046570631791
 20
0.5000000000000285
 30
0.0
 11
280.6346223039412
 21
0.5000000000000285
 31
0.0
  0
LINE
  5
2DCA
330
2D4F
100
AcDbEntity
  8
0
 62
     3
100
AcDbLine
 10
134.7823020708698
 20
12.10895691175287
 30
0.0
 11
280.6346223039412
 21
12.10895691175287
 31
0.0
  0
LINE
  5
2DCB
330
2D4F
100
AcDbEntity
  8
0
 62
     7
100
AcDbLine
 10
162.6579749596602
 20
11.99999999999997
 30
0.0
 11
162.6579749596601
 21
0.5000000000000285
 31
0.0
  0
LINE
  5
2DCC
330
2D4F
100
AcDbEntity
  8
0
 62
     3
100
AcDbLine
 10
280.6346223039412
 20
393.0283131952465
 30
0.0
 11
280.6346223039412
 21
0.5000000000000285
 31
0.0
  0
LINE
  5
2DCD
330
2D4F
100
AcDbEntity
  8
0
100
AcDbLine
 10
102.9357480509663
 20
51.50000000000004
 30
0.0
 11
102.9357480509663
 21
55.50000000000004
 31
0.0
  0
LINE
  5
2DCE
330
2D4F
100
AcDbEntity
  8
0
100
AcDbLine
 10
96.43574805096626
 20
55.49999999999998
 30
0.0
 11
96.43574805096626
 21
51.50000000000004
 31
0.0
  0
LINE
  5
2DCF
330
2D4F
100
AcDbEntity
  8
0
100
AcDbLine
 10
84.37046570631787
 20
55.49999999999998
 30
0.0
 11
280.6346223039411
 21
55.50000000000004
 31
0.0
  0
LINE
  5
2DD0
330
2D4F
100
AcDbEntity
  8
0
100
AcDbLine
 10
139.6041910676061
 20
51.50000000000003
 30
0.0
 11
139.6041910676061
 21
55.50000000000003
 31
0.0
  0
LINE
  5
2DD1
330
2D4F
100
AcDbEntity
  8
0
100
AcDbLine
 10
166.2430764549098
 20
51.50000000000003
 30
0.0
 11
166.2430764549098
 21
55.50000000000003
 31
0.0
  0
LINE
  5
2DD2
330
2D4F
100
AcDbEntity
  8
0
100
AcDbLine
 10
185.3814871433591
 20
51.50000000000003
 30
0.0
 11
185.3814871433591
 21
55.49999999999997
 31
0.0
  0
LINE
  5
2DD3
330
2D4F
100
AcDbEntity
  8
0
100
AcDbLine
 10
212.0415902808718
 20
51.50000000000003
 30
0.0
 11
212.0415902808718
 21
55.49999999999997
 31
0.0
  0
LINE
  5
2DD4
330
2D4F
100
AcDbEntity
  8
0
100
AcDbLine
 10
231.1481743440077
 20
51.50000000000003
 30
0.0
 11
231.1481743440077
 21
55.50000000000003
 31
0.0
  0
LINE
  5
2DD5
330
2D4F
100
AcDbEntity
  8
0
100
AcDbLine
 10
261.23830126757
 20
51.49999999999997
 30
0.0
 11
261.2383012675701
 21
55.50000000000003
 31
0.0
  0
LINE
  5
2DD6
330
2D4F
100
AcDbEntity
  8
0
 62
     3
100
AcDbLine
 10
156.7430764549098
 20
35.74968195675527
 30
0.0
 11
156.7430764549098
 21
47.49999999999997
 31
0.0
  0
LINE
  5
2DD7
330
2D4F
100
AcDbEntity
  8
0
 62
     3
100
AcDbLine
 10
251.7383012675701
 20
35.8793799012793
 30
0.0
 11
251.7383012675701
 21
47.62969794452399
 31
0.0
  0
TEXT
  5
2DD8
330
2D4F
100
AcDbEntity
  8
0
 62
     7
100
AcDbText
 10
252.2758401798571
 20
36.63171433407344
 30
0.0
 40
2.0
  1
Jele
  7
ROMANS
100
AcDbText
  0
TEXT
  5
2DD9
330
2D4F
100
AcDbEntity
  8
0
 62
     7
100
AcDbText
 10
157.9751626482681
 20
36.63171433407344
 30
0.0
 40
2.0
  1
Jele
  7
ROMANS
100
AcDbText
  0
ATTDEF
  5
2DDA
330
2D4F
100
AcDbEntity
  8
0
 62
     3
100
AcDbText
 10
136.8704657063179
 20
24.99999999999997
 30
0.0
 40
4.0
  1

  7
ROMANS
100
AcDbAttributeDefinition
  3

  2
MEGNEVEZES
 70
     0
  0
ATTDEF
  5
2DDB
330
2D4F
100
AcDbEntity
  8
0
 62
     3
100
AcDbText
 10
136.3704657063179
 20
16.49999999999997
 30
0.0
 40
4.0
  1

  7
ROMANS
100
AcDbAttributeDefinition
  3

  2
MEGNEVEZES1
 70
     0
  0
ATTDEF
  5
2DDC
330
2D4F
100
AcDbEntity
  8
0
 62
     3
100
AcDbText
 10
166.8704657063179
 20
2.499999999999971
 30
0.0
 40
3.0
  1

  7
ROMANS
100
AcDbAttributeDefinition
  3

  2
RAJZSZAM
 70
     0
  0
LINE
  5
2DDD
330
2D4F
100
AcDbEntity
  8
0
 62
     7
100
AcDbLine
 10
247.3532711655508
 20
12.10895691175287
 30
0.0
 11
247.3532711655509
 21
0.5000000000000285
 31
0.0
  0
ATTDEF
  5
2DDE
330
2D4F
100
AcDbEntity
  8
0
 62
     7
100
AcDbText
 10
96.87046570631792
 20
13.99999999999997
 30
0.0
 40
2.0
  1
Antal
  7
ROMANS
100
AcDbAttributeDefinition
  3

  2
TERVEZO
 70
     0
  0
ATTDEF
  5
2DDF
330
2D4F
100
AcDbEntity
  8
0
 62
     7
100
AcDbText
 10
118.8704657063179
 20
13.99999999999997
 30
0.0
 40
2.0
  1

  7
ROMANS
100
AcDbAttributeDefinition
  3

  2
DATUM
 70
     0
  0
ATTDEF
  5
2DE0
330
2D4F
100
AcDbEntity
  8
0
 62
     7
100
AcDbText
 10
85.37046570631792
 20
19.49999999999997
 30
0.0
 40
2.0
  1
0
  7
ROMANS
100
AcDbAttributeDefinition
  3

  2
TIME
 70
     0
  0
ATTDEF
  5
2DE1
330
2D4F
100
AcDbEntity
  8
0
 62
     3
100
AcDbText
 10
230.3704657063179
 20
25.49999999999997
 30
0.0
 40
4.0
  1
1:1
  7
ROMANS
100
AcDbAttributeDefinition
  3

  2
MERETERANY
 70
     0
  0
ATTDEF
  5
2DE2
330
2D4F
100
AcDbEntity
  8
0
 62
     7
100
AcDbText
 10
237.3704657063179
 20
19.49999999999997
 30
0.0
 40
1.6
  1
0
  7
ROMANS
100
AcDbAttributeDefinition
  3

  2
DWG
 70
     0
  0
ATTDEF
  5
2DE3
330
2D4F
100
AcDbEntity
  8
0
 62
     7
100
AcDbText
 10
233.3704657063179
 20
13.49999999999997
 30
0.0
 40
1.6
  1
0
  7
ROMANS
100
AcDbAttributeDefinition
  3

  2
RETEG
 70
     0
  0
ATTDEF
  5
2DE4
330
2D4F
100
AcDbEntity
  8
0
 62
     7
100
AcDbText
 10
249.370465706318
 20
2.499999999999971
 30
0.0
 40
3.0
  1
0
  7
ROMANS
100
AcDbAttributeDefinition
  3

  2
VALTOZAT
 70
     0
  0
ATTDEF
  5
2DE5
330
2D4F
100
AcDbEntity
  8
0
 62
     7
100
AcDbText
 10
143.8704657063179
 20
1.999999999999971
 30
0.0
 40
3.0
  1
1/1
  7
ROMANS
100
AcDbAttributeDefinition
  3

  2
LAPOK
 70
     0
  0
ATTDEF
  5
2DE6
330
2D4F
100
AcDbEntity
  8
0
 62
     7
100
AcDbText
 10
85.37046570631792
 20
40.49999999999997
 30
0.0
 40
1.6
  1

  7
ROMANS
100
AcDbAttributeDefinition
  3

  2
VALTOZAS1
 70
     0
  0
ATTDEF
  5
2DE7
330
2D4F
100
AcDbEntity
  8
0
 62
     7
100
AcDbText
 10
157.3704657063179
 20
40.49999999999997
 30
0.0
 40
1.6
  1

  7
ROMANS
100
AcDbAttributeDefinition
  3

  2
JELE1
 70
     0
  0
ATTDEF
  5
2DE8
330
2D4F
100
AcDbEntity
  8
0
 62
     7
100
AcDbText
 10
166.8704657063179
 20
40.49999999999997
 30
0.0
 40
1.6
  1

  7
ROMANS
100
AcDbAttributeDefinition
  3

  2
DATUM1
 70
     0
  0
ATTDEF
  5
2DE9
330
2D4F
100
AcDbEntity
  8
0
 62
     7
100
AcDbText
 10
85.37046570631792
 20
44.49999999999997
 30
0.0
 40
1.6
  1

  7
ROMANS
100
AcDbAttributeDefinition
  3

  2
VALTOZAS2
 70
     0
  0
ATTDEF
  5
2DEA
330
2D4F
100
AcDbEntity
  8
0
 62
     7
100
AcDbText
 10
157.3704657063179
 20
44.49999999999997
 30
0.0
 40
1.6
  1

  7
ROMANS
100
AcDbAttributeDefinition
  3

  2
JELE2
 70
     0
  0
ATTDEF
  5
2DEB
330
2D4F
100
AcDbEntity
  8
0
 62
     7
100
AcDbText
 10
166.8704657063179
 20
44.99999999999997
 30
0.0
 40
1.6
  1

  7
ROMANS
100
AcDbAttributeDefinition
  3

  2
DATUM2
 70
     0
  0
ATTDEF
  5
2DEC
330
2D4F
100
AcDbEntity
  8
0
 62
     7
100
AcDbText
 10
186.3704657063179
 20
40.49999999999997
 30
0.0
 40
1.6
  1

  7
ROMANS
100
AcDbAttributeDefinition
  3

  2
VALTOZAS3
 70
     0
  0
ATTDEF
  5
2DED
330
2D4F
100
AcDbEntity
  8
0
 62
     7
100
AcDbText
 10
252.3704657063179
 20
40.49999999999997
 30
0.0
 40
1.6
  1

  7
ROMANS
100
AcDbAttributeDefinition
  3

  2
JELE3
 70
     0
  0
ATTDEF
  5
2DEE
330
2D4F
100
AcDbEntity
  8
0
 62
     7
100
AcDbText
 10
261.870465706318
 20
40.49999999999997
 30
0.0
 40
1.6
  1

  7
ROMANS
100
AcDbAttributeDefinition
  3

  2
DATUM3
 70
     0
  0
ATTDEF
  5
2DEF
330
2D4F
100
AcDbEntity
  8
0
 62
     7
100
AcDbText
 10
186.3704657063179
 20
44.49999999999997
 30
0.0
 40
1.6
  1

  7
ROMANS
100
AcDbAttributeDefinition
  3

  2
VALTOZAS4
 70
     0
  0
ATTDEF
  5
2DF0
330
2D4F
100
AcDbEntity
  8
0
 62
     7
100
AcDbText
 10
252.3704657063179
 20
44.49999999999997
 30
0.0
 40
1.6
  1

  7
ROMANS
100
AcDbAttributeDefinition
  3

  2
JELE4
 70
     0
  0
ATTDEF
  5
2DF1
330
2D4F
100
AcDbEntity
  8
0
 62
     7
100
AcDbText
 10
261.870465706318
 20
44.49999999999997
 30
0.0
 40
1.6
  1

  7
ROMANS
100
AcDbAttributeDefinition
  3

  2
DATUM4
 70
     0
  0
ATTDEF
  5
2DF2
330
2D4F
100
AcDbEntity
  8
0
 62
     7
100
AcDbText
 10
140.8704657063179
 20
48.49999999999997
 30
0.0
 40
1.6
  1

  7
ROMANS
100
AcDbAttributeDefinition
  3

  2
MERET
 70
     0
  0
ATTDEF
  5
2DF3
330
2D4F
100
AcDbEntity
  8
0
 62
     7
100
AcDbText
 10
167.3704657063179
 20
48.49999999999997
 30
0.0
 40
1.6
  1

  7
ROMANS
100
AcDbAttributeDefinition
  3

  2
MERETMSZ
 70
     0
  0
ATTDEF
  5
2DF4
330
2D4F
100
AcDbEntity
  8
0
 62
     7
100
AcDbText
 10
186.3704657063179
 20
48.49999999999997
 30
0.0
 40
1.6
  1

  7
ROMANS
100
AcDbAttributeDefinition
  3

  2
ANYAG
 70
     0
  0
ATTDEF
  5
2DF5
330
2D4F
100
AcDbEntity
  8
0
 62
     7
100
AcDbText
 10
212.8704657063179
 20
48.49999999999997
 30
0.0
 40
1.6
  1

  7
ROMANS
100
AcDbAttributeDefinition
  3

  2
ANYAGMSZ
 70
     0
  0
ATTDEF
  5
2DF6
330
2D4F
100
AcDbEntity
  8
0
 62
     7
100
AcDbText
 10
231.8704657063179
 20
48.49999999999997
 30
0.0
 40
1.6
  1

  7
ROMANS
100
AcDbAttributeDefinition
  3

  2
CIKKSZAM
 70
     0
  0
ATTDEF
  5
2DF7
330
2D4F
100
AcDbEntity
  8
0
 62
     7
100
AcDbText
 10
261.870465706318
 20
48.49999999999997
 30
0.0
 40
1.6
  1

  7
ROMANS
100
AcDbAttributeDefinition
  3

  2
EGYEB
 70
     0
  0
ATTDEF
  5
2DF8
330
2D4F
100
AcDbEntity
  8
0
 62
     7
100
AcDbText
 10
286.870465706318
 20
51.99999999999997
 30
0.0
 40
1.6
  1

  7
ROMANS
100
AcDbAttributeDefinition
  3

  2
KOD
 70
     0
  0
ATTDEF
  5
2DF9
330
2D4F
100
AcDbEntity
  8
0
 62
     7
100
AcDbText
 10
272.8530429672192
 20
14.0592208708627
 30
0.0
 40
1.6
  1
0
  7
ROMANS
100
AcDbAttributeDefinition
  3

  2
AR
 70
     0
  0
ATTDEF
  5
2DFA
330
2D4F
100
AcDbEntity
  8
0
 62
     7
100
AcDbText
 10
304.3704657063179
 20
51.99999999999997
 30
0.0
 40
1.6
  1
1
  7
ROMANS
100
AcDbAttributeDefinition
  3

  2
JEL
 70
     0
  0
ATTDEF
  5
2DFB
330
2D4F
100
AcDbEntity
  8
0
 62
     7
100
AcDbText
 10
103.9357265577481
 20
48.49999999999997
 30
0.0
 40
1.6
  1

  7
ROMANS
100
AcDbAttributeDefinition
  3

  2
ANYAGNEV
 70
     0
  0
LINE
  5
2DFC
330
2D4F
100
AcDbEntity
  8
0
 62
     3
100
AcDbLine
 10
84.37046570631787
 20
55.49999999999997
 30
0.0
 11
84.37046570631787
 21
0.5000000000000086
 31
0.0
  0
LINE
  5
2DFD
330
2D4F
100
AcDbEntity
  8
0
 62
     3
100
AcDbLine
 10
0.4999999999998864
 20
393.0283131952465
 30
0.0
 11
280.6346223039412
 21
393.0283131952465
 31
0.0
  0
LINE
  5
2DFE
330
2D4F
100
AcDbEntity
  8
0
 62
     7
100
AcDbLine
 10
89.93722817613145
 20
55.49999999999998
 30
0.0
 11
89.93722817613145
 21
51.49999999999997
 31
0.0
  0
ATTDEF
  5
2DFF
330
2D4F
100
AcDbEntity
  8
0
 62
     7
100
AcDbText
 10
261.2293738328625
 20
14.0592208708627
 30
0.0
 40
1.6
  1
0
  7
ROMANS
100
AcDbAttributeDefinition
  3

  2
IDO
 70
     0
  0
LINE
  5
2E00
330
2D4F
100
AcDbEntity
  8
0
 62
     7
100
AcDbLine
 10
254.7598365130734
 20
18.19918428350232
 30
0.0
 11
254.7598365130734
 21
12.10895691175287
 31
0.0
  0
TEXT
  5
2E01
330
2D4F
100
AcDbEntity
  8
0
 62
     7
100
AcDbText
 10
255.5140813681291
 20
14.0592208708627
 30
0.0
 40
1.6
  1
Id\U+00EF:
  7
ROMANS
100
AcDbText
  0
ATTDEF
  5
2E02
330
2D4F
100
AcDbEntity
  8
0
 62
     7
100
AcDbText
 10
97.0972
 20
7.927999999999999
 30
0.0
 40
2.0
  1
Adler
  7
ROMANS
100
AcDbAttributeDefinition
  3

  2
ELLENOR
 70
     0
  0
ENDBLK
  5
2E03
330
2D4F
100
AcDbEntity
  8
0
100
AcDbBlockEnd
  0
BLOCK
  5
2E13
330
2E12
100
AcDbEntity
  8
0
100
AcDbBlockBegin
  2
ISOKOZ
 70
     0
 10
0.0
 20
0.0
 30
0.0
  3
ISOKOZ
  1

  0
POINT
  5
2E14
330
2E12
100
AcDbEntity
  8
0
 62
     7
100
AcDbPoint
 10
6.357629203368343
 20
33.38363997816872
 30
0.0
  0
POINT
  5
2E15
330
2E12
100
AcDbEntity
  8
0
 62
     7
100
AcDbPoint
 10
5.940735754613622
 20
33.38363997816872
 30
0.0
  0
LINE
  5
2E16
330
2E12
100
AcDbEntity
  8
0
 62
     7
100
AcDbLine
 10
18.10013629159709
 20
33.24474628561148
 30
0.0
 11
18.10013629159709
 21
33.45308648676612
 31
0.0
  0
LINE
  5
2E17
330
2E12
100
AcDbEntity
  8
0
 62
     7
100
AcDbLine
 10
16.01566765465084
 20
33.24474628561148
 30
0.0
 11
16.01566765465084
 21
33.52253333304474
 31
0.0
  0
LINE
  5
2E18
330
2E12
100
AcDbEntity
  8
0
 62
     7
100
AcDbLine
 10
15.73773853401739
 20
33.24474628561148
 30
0.0
 11
15.73773853401739
 21
33.45308648676612
 31
0.0
  0
TEXT
  5
2E19
330
2E12
100
AcDbEntity
  8
0
 62
     7
100
AcDbText
 10
2.410081627077168
 20
29.54502906109305
 30
0.0
 40
1.5
  1
MSZ ISO 2768-2-K szerint.
  7
ROMANS
100
AcDbText
  0
TEXT
  5
2E1A
330
2E12
100
AcDbEntity
  8
0
 62
     7
100
AcDbText
 10
2.5
 20
31.97360048966447
 30
0.0
 40
1.5
  1
Jeloletlen turesek MSZ ISO 2768-1-m,
  7
ROMANS
100
AcDbText
  0
ENDBLK
  5
2E1B
330
2E12
100
AcDbEntity
  8
0
100
AcDbBlockEnd
  0
BLOCK
  5
3AE6
330
3AE5
100
AcDbEntity
  8
0
100
AcDbBlockBegin
  2
A$C60B5275A
 70
     0
 10
0.0
 20
0.0
 30
0.0
  3
A$C60B5275A
  1

  0
ARC
  5
3AE7
330
3AE5
100
AcDbEntity
  8
0
 62
     3
100
AcDbCircle
 10
5.782476361110042
 20
3.627793175507065
 30
0.0
 40
10.78096468787626
100
AcDbArc
 50
60.67641034843694
 51
122.4361798365817
  0
LINE
  5
3AE8
330
3AE5
100
AcDbEntity
  8
0
 62
     3
100
AcDbLine
 10
11.06236170533279
 20
1.372632387805822
 30
0.0
 11
11.06236170533279
 21
13.04524881269532
 31
0.0
  0
ARC
  5
3AE9
330
3AE5
100
AcDbEntity
  8
0
 62
     3
100
AcDbCircle
 10
22.89804222372024
 20
-37.31358416876691
 30
0.0
 40
51.71358445501045
100
AcDbArc
 50
89.99999999999992
 51
103.2305444589138
  0
ARC
  5
3AEA
330
3AE5
100
AcDbEntity
  8
0
 62
     3
100
AcDbCircle
 10
5.782476361110042
 20
10.77220739698026
 30
0.0
 40
10.78096468787626
100
AcDbArc
 50
237.5638201634183
 51
299.323589651563
  0
ARC
  5
3AEB
330
3AE5
100
AcDbEntity
  8
0
 62
     3
100
AcDbCircle
 10
22.89804222372024
 20
51.71358474125423
 30
0.0
 40
51.71358445501045
100
AcDbArc
 50
256.7694555410862
 51
270.0000000000001
  0
ENDBLK
  5
3AEC
330
3AE5
100
AcDbEntity
  8
0
100
AcDbBlockEnd
  0
BLOCK
  5
3B7E
330
3B7D
100
AcDbEntity
  8
0
100
AcDbBlockBegin
  2
A$C5081540B
 70
     0
 10
0.0
 20
0.0
 30
0.0
  3
A$C5081540B
  1

  0
MTEXT
  5
3B7F
330
3B7D
100
AcDbEntity
  8
0
 62
     4
100
AcDbMText
 10
1.568249986110117
 20
3.491204064800768
 30
0.0
 40
2.5
 41
16.37185749537332
 71
     1
 72
     5
  1
\fArial Narrow|b0|i0|c238|p34;2 x NPT1/2"
 73
     1
 44
1.0
  0
LWPOLYLINE
  5
3B80
330
3B7D
100
AcDbEntity
  8
0
 62
     7
100
AcDbPolyline
 90
        2
 70
     0
 43
0.0
 10
16.56628749842411
 20
0.1332017568068124
 10
0.3324001041725069
 20
0.1332017568068124
  0
LWPOLYLINE
  5
3B81
330
3B7D
100
AcDbEntity
  8
0
 62
     7
100
AcDbPolyline
 90
        4
 70
     0
 10
24.68466676787284
 20
9.701738474042628
 40
0.125
 41
0.125
 42
-1.0
 10
24.80966676787284
 20
9.701738474042628
 40
0.125
 41
0.125
 42
-1.0
 10
24.68466676787284
 20
9.701738474042628
 40
0.0
 41
0.0
 10
16.56628749842411
 20
0.1332017568068124
 40
0.0
 41
0.0
  0
LINE
  5
3B82
330
3B7D
100
AcDbEntity
  8
0
100
AcDbLine
 10
24.68466676787284
 20
9.701738474042628
 30
0.0
 11
16.56628749842411
 21
0.1332017568068124
 31
0.0
  0
LWPOLYLINE
  5
3B83
330
3B7D
100
AcDbEntity
  8
0
 62
     7
100
AcDbPolyline
 90
        2
 70
     0
 43
0.0
 10
20.04919481832985
 20
18.52196901897517
 10
0.6422691426772645
 20
18.52196901897517
  0
MTEXT
  5
3B84
330
3B7D
100
AcDbEntity
  8
0
 62
     4
100
AcDbMText
 10
0.452728781464316
 20
22.33589920812292
 30
0.0
 40
2.5
 41
21.32390482479073
 71
     1
 72
     5
  1
\fArial Narrow|b0|i0|c238|p34;2 pcs M20x1.5
 73
     1
 44
1.0
  0
LINE
  5
3B85
330
3B7D
100
AcDbEntity
  8
0
100
AcDbLine
 10
13.15195494942895
 20
13.34310337371099
 30
0.0
 11
9.424321569375024
 21
18.52196901897517
 31
0.0
  0
LWPOLYLINE
  5
3B86
330
3B7D
100
AcDbEntity
  8
0
 62
     7
100
AcDbPolyline
 90
        4
 70
     0
 10
13.15195494942895
 20
13.34310337371099
 40
0.125
 41
0.125
 42
-1.0
 10
13.27695494942895
 20
13.34310337371099
 40
0.125
 41
0.125
 42
-1.0
 10
13.15195494942895
 20
13.34310337371099
 40
0.0
 41
0.0
 10
9.424321569375024
 20
18.52196901897517
 40
0.0
 41
0.0
  0
ENDBLK
  5
3B87
330
3B7D
100
AcDbEntity
  8
0
100
AcDbBlockEnd
  0
BLOCK
  5
7AEF
330
7AE5
100
AcDbEntity
  8
0
 48
10.0
100
AcDbBlockBegin
  2
*D11
 70
     1
 10
0.0
 20
0.0
 30
0.0
  3
*D11
  1

  0
LINE
  5
7B8E
330
7AE5
100
AcDbEntity
  8
寸法線
 62
     0
 48
10.0
370
    -2
100
AcDbLine
 10
1368.185778948785
 20
251.6853179067373
 30
0.0
 11
1412.775960140034
 21
251.6853179067373
 31
0.0
  0
LINE
  5
7B8F
330
7AE5
100
AcDbEntity
  8
寸法線
 62
     0
 48
10.0
370
    -2
100
AcDbLine
 10
1345.344239733122
 20
88.45592890638796
 30
0.0
 11
1412.775960140034
 21
88.45592890638794
 31
0.0
  0
LINE
  5
7B90
330
7AE5
100
AcDbEntity
  8
寸法線
 62
     0
 48
10.0
370
    -2
100
AcDbLine
 10
1411.525960140034
 20
245.6853179067373
 30
0.0
 11
1411.525960140034
 21
94.45592890638794
 31
0.0
  0
INSERT
  5
7B91
330
7AE5
100
AcDbEntity
  8
寸法線
 62
     0
 48
10.0
370
    -2
100
AcDbBlockReference
  2
_Open30
 10
1411.525960140034
 20
251.6853179067373
 30
0.0
 41
6.0
 42
6.0
 43
6.0
 50
90.0
  0
INSERT
  5
7B92
330
7AE5
100
AcDbEntity
  8
寸法線
 62
     0
 48
10.0
370
    -2
100
AcDbBlockReference
  2
_Open30
 10
1411.525960140034
 20
88.45592890638794
 30
0.0
 41
6.0
 42
6.0
 43
6.0
 50
270.0
  0
MTEXT
  5
7B93
330
7AE5
100
AcDbEntity
  8
寸法線
 62
     0
 48
10.0
100
AcDbMText
 10
1405.900960140034
 20
170.0706234065628
 30
0.0
 40
10.0
 41
0.0
 71
     5
 72
     1
  1
\A1;163
 11
0.0000000000000001
 21
1.0
 31
0.0
 73
     1
 44
1.0
  0
POINT
  5
7B94
330
7AE5
100
AcDbEntity
  8
DEFPOINTS
 62
     0
 48
10.0
100
AcDbPoint
 10
1367.560778948785
 20
251.6853179067373
 30
0.0
  0
POINT
  5
7B95
330
7AE5
100
AcDbEntity
  8
DEFPOINTS
 62
     0
 48
10.0
100
AcDbPoint
 10
1344.719239733122
 20
88.45592890638796
 30
0.0
  0
POINT
  5
7B96
330
7AE5
100
AcDbEntity
  8
DEFPOINTS
 62
     0
 48
10.0
100
AcDbPoint
 10
1411.525960140034
 20
88.45592890638794
 30
0.0
  0
ENDBLK
  5
7AF0
330
7AE5
100
AcDbEntity
  8
0
 48
10.0
100
AcDbBlockEnd
  0
BLOCK
  5
7AFC
330
7AF1
100
AcDbEntity
  8
0
 48
10.0
100
AcDbBlockBegin
  2
*D12
 70
     1
 10
0.0
 20
0.0
 30
0.0
  3
*D12
  1

  0
LINE
  5
7B84
330
7AF1
100
AcDbEntity
  8
寸法線
 62
     0
 48
10.0
370
    -2
100
AcDbLine
 10
1308.069243044305
 20
69.48093852707348
 30
0.0
 11
1308.069243044305
 21
44.00089489286756
 31
0.0
  0
LINE
  5
7B85
330
7AF1
100
AcDbEntity
  8
寸法線
 62
     0
 48
10.0
370
    -2
100
AcDbLine
 10
1341.369242997507
 20
69.48093852707348
 30
0.0
 11
1341.369242997507
 21
44.00089489286756
 31
0.0
  0
LINE
  5
7B86
330
7AF1
100
AcDbEntity
  8
寸法線
 62
     0
 48
10.0
370
    -2
100
AcDbLine
 10
1314.069243044305
 20
45.25089489286756
 30
0.0
 11
1335.369242997507
 21
45.25089489286756
 31
0.0
  0
LINE
  5
7B87
330
7AF1
100
AcDbEntity
  8
寸法線
 62
     0
 48
10.0
370
    -2
100
AcDbLine
 10
1341.369242997507
 20
45.25089489286756
 30
0.0
 11
1365.137009950474
 21
45.25089489286756
 31
0.0
  0
INSERT
  5
7B88
330
7AF1
100
AcDbEntity
  8
寸法線
 62
     0
 48
10.0
370
    -2
100
AcDbBlockReference
  2
_Open30
 10
1308.069243044305
 20
45.25089489286756
 30
0.0
 41
6.0
 42
6.0
 43
6.0
 50
180.0
  0
INSERT
  5
7B89
330
7AF1
100
AcDbEntity
  8
寸法線
 62
     0
 48
10.0
370
    -2
100
AcDbBlockReference
  2
_Open30
 10
1341.369242997507
 20
45.25089489286756
 30
0.0
 41
6.0
 42
6.0
 43
6.0
  0
MTEXT
  5
7B8A
330
7AF1
100
AcDbEntity
  8
寸法線
 62
     0
 48
10.0
100
AcDbMText
 10
1356.25312647399
 20
50.89366184583393
 30
0.0
 40
10.0
 41
0.0
 71
     5
 72
     1
  1
\A1;G1"
 73
     1
 44
1.0
  0
POINT
  5
7B8B
330
7AF1
100
AcDbEntity
  8
DEFPOINTS
 62
     0
 48
10.0
100
AcDbPoint
 10
1308.069243044305
 20
70.10593852707348
 30
0.0
  0
POINT
  5
7B8C
330
7AF1
100
AcDbEntity
  8
DEFPOINTS
 62
     0
 48
10.0
100
AcDbPoint
 10
1341.369242997507
 20
70.10593852707348
 30
0.0
  0
POINT
  5
7B8D
330
7AF1
100
AcDbEntity
  8
DEFPOINTS
 62
     0
 48
10.0
100
AcDbPoint
 10
1341.369242997507
 20
45.25089489286756
 30
0.0
  0
ENDBLK
  5
7AFD
330
7AF1
100
AcDbEntity
  8
0
 48
10.0
100
AcDbBlockEnd
  0
BLOCK
  5
7B0A
330
7AFE
100
AcDbEntity
  8
0
 48
10.0
100
AcDbBlockBegin
  2
*D13
 70
     1
 10
0.0
 20
0.0
 30
0.0
  3
*D13
  1

  0
LINE
  5
7B79
330
7AFE
100
AcDbEntity
  8
寸法線
 62
     0
 48
10.0
370
    -2
100
AcDbLine
 10
1320.716436300924
 20
-188.1683096388735
 30
0.0
 11
1320.716436300924
 21
-187.5433096388735
 31
0.0
  0
LINE
  5
7B7A
330
7AFE
100
AcDbEntity
  8
寸法線
 62
     0
 48
10.0
370
    -2
100
AcDbLine
 10
1328.719278844179
 20
-188.1683096388735
 30
0.0
 11
1328.719278844179
 21
-187.5433096388735
 31
0.0
  0
LINE
  5
7B7B
330
7AFE
100
AcDbEntity
  8
寸法線
 62
     0
 48
10.0
370
    -2
100
AcDbLine
 10
1334.719278844179
 20
-188.7933096388735
 30
0.0
 11
1340.719278844179
 21
-188.7933096388735
 31
0.0
  0
LINE
  5
7B7C
330
7AFE
100
AcDbEntity
  8
寸法線
 62
     0
 48
10.0
370
    -2
100
AcDbLine
 10
1314.716436300924
 20
-188.7933096388735
 30
0.0
 11
1291.966436300924
 21
-188.7933096388735
 31
0.0
  0
LINE
  5
7B7D
330
7AFE
100
AcDbEntity
  8
寸法線
 62
     0
 48
10.0
370
    -2
100
AcDbLine
 10
1328.719278844179
 20
-188.7933096388735
 30
0.0
 11
1320.716436300924
 21
-188.7933096388735
 31
0.0
  0
INSERT
  5
7B7E
330
7AFE
100
AcDbEntity
  8
寸法線
 62
     0
 48
10.0
370
    -2
100
AcDbBlockReference
  2
_Open30
 10
1328.719278844179
 20
-188.7933096388735
 30
0.0
 41
6.0
 42
6.0
 43
6.0
 50
180.0
  0
INSERT
  5
7B7F
330
7AFE
100
AcDbEntity
  8
寸法線
 62
     0
 48
10.0
370
    -2
100
AcDbBlockReference
  2
_Open30
 10
1320.716436300924
 20
-188.7933096388735
 30
0.0
 41
6.0
 42
6.0
 43
6.0
  0
MTEXT
  5
7B80
330
7AFE
100
AcDbEntity
  8
寸法線
 62
     0
 48
10.0
100
AcDbMText
 10
1300.341436300924
 20
-183.1683096388735
 30
0.0
 40
10.0
 41
0.0
 71
     5
 72
     1
  1
\A1;φ8
 73
     1
 44
1.0
  0
POINT
  5
7B81
330
7AFE
100
AcDbEntity
  8
DEFPOINTS
 62
     0
 48
10.0
100
AcDbPoint
 10
1320.716436300924
 20
-188.7933096388735
 30
0.0
  0
POINT
  5
7B82
330
7AFE
100
AcDbEntity
  8
DEFPOINTS
 62
     0
 48
10.0
100
AcDbPoint
 10
1328.719278844179
 20
-188.7933096388735
 30
0.0
  0
POINT
  5
7B83
330
7AFE
100
AcDbEntity
  8
DEFPOINTS
 62
     0
 48
10.0
100
AcDbPoint
 10
1328.719278844179
 20
-188.7933096388735
 30
0.0
  0
ENDBLK
  5
7B0B
330
7AFE
100
AcDbEntity
  8
0
 48
10.0
100
AcDbBlockEnd
  0
BLOCK
  5
7B16
330
7B0C
100
AcDbEntity
  8
0
 48
10.0
100
AcDbBlockBegin
  2
*D14
 70
     1
 10
0.0
 20
0.0
 30
0.0
  3
*D14
  1

  0
LINE
  5
7B70
330
7B0C
100
AcDbEntity
  8
寸法線
 62
     0
 48
10.0
370
    -2
100
AcDbLine
 10
1410.900960140034
 20
88.45592890638796
 30
0.0
 11
1410.275960140034
 21
88.45592890638796
 31
0.0
  0
LINE
  5
7B71
330
7B0C
100
AcDbEntity
  8
寸法線
 62
     0
 48
10.0
370
    -2
100
AcDbLine
 10
1329.144243020907
 20
-331.6590705448386
 30
0.0
 11
1412.775960140034
 21
-331.6590705448387
 31
0.0
  0
LINE
  5
7B72
330
7B0C
100
AcDbEntity
  8
寸法線
 62
     0
 48
10.0
370
    -2
100
AcDbLine
 10
1411.525960140034
 20
82.45592890638794
 30
0.0
 11
1411.525960140034
 21
-325.6590705448387
 31
0.0
  0
INSERT
  5
7B73
330
7B0C
100
AcDbEntity
  8
寸法線
 62
     0
 48
10.0
370
    -2
100
AcDbBlockReference
  2
_Open30
 10
1411.525960140034
 20
88.45592890638796
 30
0.0
 41
6.0
 42
6.0
 43
6.0
 50
90.0
  0
INSERT
  5
7B74
330
7B0C
100
AcDbEntity
  8
寸法線
 62
     0
 48
10.0
370
    -2
100
AcDbBlockReference
  2
_Open30
 10
1411.525960140034
 20
-331.6590705448387
 30
0.0
 41
6.0
 42
6.0
 43
6.0
 50
270.0
  0
MTEXT
  5
7B75
330
7B0C
100
AcDbEntity
  8
寸法線
 62
     0
 48
10.0
100
AcDbMText
 10
1401.525960140034
 20
-121.6015708192251
 30
0.0
 40
10.0
 41
0.0
 71
     5
 72
     1
  1
\A1;L
 11
0.0000000000000001
 21
1.0
 31
0.0
 73
     1
 44
1.0
  0
POINT
  5
7B76
330
7B0C
100
AcDbEntity
  8
DEFPOINTS
 62
     0
 48
10.0
100
AcDbPoint
 10
1411.525960140034
 20
88.45592890638796
 30
0.0
  0
POINT
  5
7B77
330
7B0C
100
AcDbEntity
  8
DEFPOINTS
 62
     0
 48
10.0
100
AcDbPoint
 10
1328.519243020906
 20
-331.6590705448386
 30
0.0
  0
POINT
  5
7B78
330
7B0C
100
AcDbEntity
  8
DEFPOINTS
 62
     0
 48
10.0
100
AcDbPoint
 10
1411.525960140034
 20
-331.6590705448387
 30
0.0
  0
ENDBLK
  5
7B17
330
7B0C
100
AcDbEntity
  8
0
 48
10.0
100
AcDbBlockEnd
  0
ENDSEC
  0
SECTION
  2
ENTITIES
  0
CIRCLE
  5
5CB9
330
1A
100
AcDbEntity
  8
外形線
 48
10.0
100
AcDbCircle
 10
1055.368316164688
 20
-160.287522984292
 30
0.0
 40
0.2353646668415532
  0
CIRCLE
  5
5CBA
330
1A
100
AcDbEntity
  8
外形線
 48
10.0
100
AcDbCircle
 10
1055.368316164688
 20
-127.3397168469049
 30
0.0
 40
0.2353646668415532
  0
SPLINE
  5
5CBB
330
1A
100
AcDbEntity
  8
外形線
 48
10.0
100
AcDbSpline
210
0.0
220
0.0
230
1.0
 70
     8
 71
     3
 72
    11
 73
     7
 74
     0
 42
0.0000000001
 43
0.0000000001
 40
0.0
 40
0.0
 40
0.0
 40
0.0
 40
10.89748726272635
 40
19.0521390387555
 40
26.7942184031496
 40
31.11424095259497
 40
31.11424095259497
 40
31.11424095259497
 40
31.11424095259497
 10
1084.695659200311
 20
-151.0152176199855
 30
0.0
 10
1081.11379244485
 20
-151.6060202410377
 30
0.0
 10
1074.851594398813
 20
-152.6389238278352
 30
0.0
 10
1066.202199515786
 20
-155.1485504382386
 30
0.0
 10
1060.706063939899
 20
-159.5457010092498
 30
0.0
 10
1056.80848793747
 20
-160.1958998618881
 30
0.0
 10
1055.368316164688
 20
-160.287522984292
 30
0.0
  0
SPLINE
  5
5CBC
330
1A
100
AcDbEntity
  8
外形線
 48
10.0
100
AcDbSpline
210
0.0
220
0.0
230
1.0
 70
     8
 71
     3
 72
    11
 73
     7
 74
     0
 42
0.0000000001
 43
0.0000000001
 40
0.0
 40
0.0
 40
0.0
 40
0.0
 40
7.110051286250825
 40
14.81370128028179
 40
21.77121491133621
 40
32.60117325325521
 40
32.60117325325521
 40
32.60117325325521
 40
32.60117325325521
 10
1084.695659200311
 20
-140.3292364784855
 30
0.0
 10
1082.342794150938
 20
-139.7923121678268
 30
0.0
 10
1077.44062979361
 20
-138.673637206424
 30
0.0
 10
1072.025845113351
 20
-133.6068076501103
 30
0.0
 10
1064.845229104367
 20
-128.8781780865648
 30
0.0
 10
1059.013531120823
 20
-127.7653916595669
 30
0.0
 10
1055.368316164688
 20
-127.3397168469049
 30
0.0
  0
LINE
  5
5CBD
330
1A
100
AcDbEntity
  8
外形線
 48
10.0
100
AcDbLine
 10
1122.608808184796
 20
-145.6722270492355
 30
0.0
 11
1138.544991903088
 21
-145.6722270492355
 31
0.0
  0
MTEXT
  5
5CBE
330
1A
100
AcDbEntity
  8
寸法線
 48
10.0
100
AcDbMText
 10
1144.460952061657
 20
-143.938682609315
 30
0.0
 40
5.0
 41
27.44561352058713
 71
     1
 72
     5
  1
設定用PC
 73
     1
 44
1.0
  0
LINE
  5
5CBF
330
1A
100
AcDbEntity
  8
外形線
 48
10.0
100
AcDbLine
 10
1176.458140887573
 20
-154.5066744574719
 30
0.0
 11
1138.544991903088
 21
-154.5066744574719
 31
0.0
  0
LINE
  5
5CC0
330
1A
100
AcDbEntity
  8
外形線
 48
10.0
100
AcDbLine
 10
1138.544991903088
 20
-136.8377796409991
 30
0.0
 11
1138.544991903088
 21
-154.5066744574719
 31
0.0
  0
LINE
  5
5CC1
330
1A
100
AcDbEntity
  8
外形線
 48
10.0
100
AcDbLine
 10
1138.544991903088
 20
-136.8377796409991
 30
0.0
 11
1176.458140887573
 21
-136.8377796409991
 31
0.0
  0
LINE
  5
5CC2
330
1A
100
AcDbEntity
  8
外形線
 48
10.0
100
AcDbLine
 10
1176.458140887573
 20
-136.8377796409991
 30
0.0
 11
1176.458140887573
 21
-154.5066744574719
 31
0.0
  0
MTEXT
  5
5CC3
330
1A
100
AcDbEntity
  8
寸法線
 48
10.0
100
AcDbMText
 10
1086.900281180065
 20
-140.6833409386117
 30
0.0
 40
4.0
 41
36.35090758709271
 71
     1
 72
     5
  1
ＨＡＲＴモデム\P(COP-Hなど)
 73
     1
 44
1.0
  0
LINE
  5
5CC4
330
1A
100
AcDbEntity
  8
外形線
 48
10.0
100
AcDbLine
 10
1084.695659200311
 20
-136.8377796409991
 30
0.0
 11
1084.695659200311
 21
-154.5066744574719
 31
0.0
  0
LINE
  5
5CC5
330
1A
100
AcDbEntity
  8
外形線
 48
10.0
100
AcDbLine
 10
1122.608808184796
 20
-154.5066744574719
 30
0.0
 11
1084.695659200311
 21
-154.5066744574719
 31
0.0
  0
LINE
  5
5CC6
330
1A
100
AcDbEntity
  8
外形線
 48
10.0
100
AcDbLine
 10
1122.608808184796
 20
-136.8377796409991
 30
0.0
 11
1122.608808184796
 21
-154.5066744574719
 31
0.0
  0
LINE
  5
5CC7
330
1A
100
AcDbEntity
  8
外形線
 48
10.0
100
AcDbLine
 10
1084.695659200311
 20
-136.8377796409991
 30
0.0
 11
1122.608808184796
 21
-136.8377796409991
 31
0.0
  0
LINE
  5
5CC8
330
1A
100
AcDbEntity
  8
外形線
 48
10.0
100
AcDbLine
 10
1038.788121241342
 20
-182.4698240799116
 30
0.0
 11
1048.854188118809
 21
-182.4698240799116
 31
0.0
  0
LINE
  5
5CC9
330
1A
100
AcDbEntity
  8
外形線
 48
10.0
100
AcDbLine
 10
1047.043046471602
 20
-184.8911931221901
 30
0.0
 11
1040.599262888549
 21
-184.8911931221901
 31
0.0
  0
LINE
  5
5CCA
330
1A
100
AcDbEntity
  8
外形線
 48
10.0
100
AcDbLine
 10
1036.976979594135
 20
-180.0484550376332
 30
0.0
 11
1050.665329766016
 21
-180.0484550376332
 31
0.0
  0
LINE
  5
5CCB
330
1A
100
AcDbEntity
  8
外形線
 48
10.0
100
AcDbLine
 10
1043.821154680075
 20
-171.2379429161819
 30
0.0
 11
1043.821154680075
 21
-180.0484550376332
 31
0.0
  0
LINE
  5
5CCC
330
1A
100
AcDbEntity
  8
外形線
 48
10.0
100
AcDbLine
 10
1033.283871807248
 20
-171.2379429161819
 30
0.0
 11
1043.821154680075
 21
-171.2379429161819
 31
0.0
  0
LINE
  5
5CCD
330
1A
100
AcDbEntity
  8
隠れ線
 48
10.0
100
AcDbLine
 10
875.0050544510735
 20
-128.898198454925
 30
0.0
 11
875.0050544510735
 21
-138.9581170206052
 31
0.0
  0
LINE
  5
5CCE
330
1A
100
AcDbEntity
  8
隠れ線
 48
10.0
100
AcDbLine
 10
842.0533415897184
 20
-128.898198454925
 30
0.0
 11
875.0050544510735
 21
-128.898198454925
 31
0.0
  0
LINE
  5
5CCF
330
1A
100
AcDbEntity
  8
隠れ線
 48
10.0
100
AcDbLine
 10
842.0533415897184
 20
-171.2379429161819
 30
0.0
 11
1033.283871807248
 21
-171.2379429161819
 31
0.0
  0
LINE
  5
5CD0
330
1A
100
AcDbEntity
  8
隠れ線
 48
10.0
100
AcDbLine
 10
1033.283871807248
 20
-138.9581170206052
 30
0.0
 11
1033.283871807248
 21
-171.2379429161819
 31
0.0
  0
LINE
  5
5CD1
330
1A
100
AcDbEntity
  8
隠れ線
 48
10.0
100
AcDbLine
 10
875.0050544510735
 20
-138.9581170206052
 30
0.0
 11
1033.283871807248
 21
-138.9581170206052
 31
0.0
  0
LINE
  5
5CD2
330
1A
100
AcDbEntity
  8
隠れ線
 48
10.0
100
AcDbLine
 10
842.0533415897184
 20
-128.898198454925
 30
0.0
 11
842.0533415897184
 21
-171.2379429161819
 31
0.0
  0
MTEXT
  5
5CD3
330
1A
100
AcDbEntity
  8
寸法線
 48
10.0
100
AcDbMText
 10
814.6430095007458
 20
-23.05062004788613
 30
0.0
 40
2.333873885063326
 41
99.28188441981502
 71
     1
 72
     5
  1
{\H2.999x;マイクロパルスレベル計\PH\U+25A1R-4\U+25A1\U+25A1-4}
 73
     1
 44
1.0
  0
LINE
  5
5CD4
330
1A
100
AcDbEntity
  8
外形線
 48
10.0
100
AcDbLine
 10
809.3557616804691
 20
-102.3656504102189
 30
0.0
 11
809.3557616804691
 21
-17.06885906125853
 31
0.0
  0
LINE
  5
5CD5
330
1A
100
AcDbEntity
  8
外形線
 48
10.0
100
AcDbLine
 10
809.3557616804691
 20
-102.3656504102189
 30
0.0
 11
937.310989138653
 21
-102.3656504102188
 31
0.0
  0
LINE
  5
5CD6
330
1A
100
AcDbEntity
  8
外形線
 48
10.0
100
AcDbLine
 10
937.310989138653
 20
-17.06885906125842
 30
0.0
 11
937.310989138653
 21
-102.3656504102189
 31
0.0
  0
LINE
  5
5CD7
330
1A
100
AcDbEntity
  8
外形線
 48
10.0
100
AcDbLine
 10
937.310989138653
 20
-17.06885906125842
 30
0.0
 11
809.3557616804691
 21
-17.06885906125853
 31
0.0
  0
MTEXT
  5
5CD9
330
1A
100
AcDbEntity
  8
寸法線
 48
10.0
100
AcDbMText
 10
1051.777020576407
 20
-138.6863962480799
 30
0.0
 40
8.0
 41
13.45623410021221
 71
     1
 72
     5
  1
R{\H0.375x;A}
 73
     1
 44
1.0
  0
LINE
  5
5CDA
330
1A
100
AcDbEntity
  8
外形線
 48
10.0
100
AcDbLine
 10
1055.368316164688
 20
-151.5948466215975
 30
0.0
 11
1055.368316164688
 21
-163.6377424902102
 31
0.0
  0
LINE
  5
5CDB
330
1A
100
AcDbEntity
  8
外形線
 48
10.0
100
AcDbLine
 10
1050.368316164688
 20
-151.5948466215975
 30
0.0
 11
1060.368316164688
 21
-151.5948466215975
 31
0.0
  0
LINE
  5
5CDC
330
1A
100
AcDbEntity
  8
外形線
 48
10.0
100
AcDbLine
 10
1050.368316164688
 20
-133.5948466215975
 30
0.0
 11
1050.368316164688
 21
-151.5948466215975
 31
0.0
  0
LINE
  5
5CDD
330
1A
100
AcDbEntity
  8
外形線
 48
10.0
100
AcDbLine
 10
1060.368316164688
 20
-133.5948466215975
 30
0.0
 11
1060.368316164688
 21
-151.5948466215975
 31
0.0
  0
LINE
  5
5CDE
330
1A
100
AcDbEntity
  8
外形線
 48
10.0
100
AcDbLine
 10
1050.368316164688
 20
-133.5948466215975
 30
0.0
 11
1060.368316164688
 21
-133.5948466215975
 31
0.0
  0
MTEXT
  5
5CDF
330
1A
100
AcDbEntity
  8
寸法線
 48
10.0
100
AcDbMText
 10
1074.941264229783
 20
-104.4345325145286
 30
0.0
 40
2.333873885063326
 41
33.73285609669733
 71
     1
 72
     5
  1
{\H2.999x;電流計\PPLCなど}
 73
     1
 44
1.0
  0
MTEXT
  5
5CE0
330
1A
100
AcDbEntity
  8
寸法線
 48
10.0
100
AcDbMText
 10
1051.777020576407
 20
-107.945656515111
 30
0.0
 40
8.0
 41
7.161920552340689
 71
     1
 72
     5
  1
Ａ
 73
     1
 44
1.0
  0
LINE
  5
5CE1
330
1A
100
AcDbEntity
  8
外形線
 48
10.0
100
AcDbLine
 10
1062.016091357996
 20
-105.4731001426284
 30
0.0
 11
1069.441602514304
 21
-98.04758898632099
 31
0.0
  0
LINE
  5
5CE2
330
1A
100
AcDbEntity
  8
外形線
 48
10.0
100
AcDbLine
 10
1069.441602514304
 20
-98.04758898632099
 30
0.0
 11
1066.248950938765
 21
-104.9011794267266
 31
0.0
  0
LINE
  5
5CE3
330
1A
100
AcDbEntity
  8
外形線
 48
10.0
100
AcDbLine
 10
1062.588012073899
 20
-101.24024056186
 30
0.0
 11
1069.441602514304
 21
-98.04758898632099
 31
0.0
  0
LINE
  5
5CE4
330
1A
100
AcDbEntity
  8
外形線
 48
10.0
100
AcDbLine
 10
1041.295029815072
 20
-126.1941616855526
 30
0.0
 11
1048.72054097138
 21
-118.768650529245
 31
0.0
  0
LINE
  5
5CE5
330
1A
100
AcDbEntity
  8
外形線
 48
10.0
100
AcDbLine
 10
1055.368316164688
 20
-121.5222491739208
 30
0.0
 11
1055.368316164688
 21
-133.5948466215975
 31
0.0
  0
CIRCLE
  5
5CE6
330
1A
100
AcDbEntity
  8
外形線
 48
10.0
100
AcDbCircle
 10
1055.368316164688
 20
-112.1208753359368
 30
0.0
 40
9.40137383798401
  0
LINE
  5
5CE7
330
1A
100
AcDbEntity
  8
外形線
 48
10.0
100
AcDbLine
 10
1055.368316164688
 20
-163.6377424902103
 30
0.0
 11
849.9894854985793
 21
-163.6377424902103
 31
0.0
  0
LINE
  5
5CE8
330
1A
100
AcDbEntity
  8
外形線
 48
10.0
100
AcDbLine
 10
867.0689105422125
 20
-146.558317446577
 30
0.0
 11
1038.327166251955
 21
-146.5583174465769
 31
0.0
  0
LINE
  5
5CE9
330
1A
100
AcDbEntity
  8
外形線
 48
10.0
100
AcDbLine
 10
1055.368316164688
 20
-74.93642740627047
 30
0.0
 11
1055.368316164688
 21
-102.7195014979528
 31
0.0
  0
LINE
  5
5CEA
330
1A
100
AcDbEntity
  8
外形線
 48
10.0
100
AcDbLine
 10
1038.327166251955
 20
-74.93642740627047
 30
0.0
 11
1038.327166251955
 21
-146.558317446577
 31
0.0
  0
LINE
  5
5CEB
330
1A
100
AcDbEntity
  8
外形線
 48
10.0
100
AcDbLine
 10
1026.847741208321
 20
-74.93642740627047
 30
0.0
 11
1066.847741208321
 21
-74.93642740627058
 31
0.0
  0
LINE
  5
5CEC
330
1A
100
AcDbEntity
  8
外形線
 48
10.0
100
AcDbLine
 10
1026.847741208321
 20
-34.93642740627047
 30
0.0
 11
1066.847741208321
 21
-34.93642740627036
 31
0.0
  0
LINE
  5
5CED
330
1A
100
AcDbEntity
  8
外形線
 48
10.0
100
AcDbLine
 10
1066.847741208321
 20
-34.93642740627047
 30
0.0
 11
1066.847741208321
 21
-74.93642740627035
 31
0.0
  0
LINE
  5
5CEE
330
1A
100
AcDbEntity
  8
外形線
 48
10.0
100
AcDbLine
 10
1026.847741208321
 20
-34.93642740627047
 30
0.0
 11
1026.847741208321
 21
-74.93642740627047
 31
0.0
  0
MTEXT
  5
5CEF
330
1A
100
AcDbEntity
  8
寸法線
 48
10.0
100
AcDbMText
 10
1034.062535518986
 20
-52.47024201557588
 30
0.0
 40
2.333873885063326
 41
33.00148532865842
 71
     1
 72
     5
  1
{\H2.999x;DC電源}
 73
     1
 44
1.0
  0
LINE
  5
5CF0
330
1A
100
AcDbEntity
  8
外形線
 48
10.0
100
AcDbLine
 10
867.0689105422125
 20
-88.01524124649859
 30
0.0
 11
867.0689105422125
 21
-146.558317446577
 31
0.0
  0
LINE
  5
5CF1
330
1A
100
AcDbEntity
  8
外形線
 48
10.0
100
AcDbLine
 10
849.9894854985793
 20
-88.01524124649859
 30
0.0
 11
849.9894854985793
 21
-163.6377424902103
 31
0.0
  0
MTEXT
  5
5CF2
330
1A
100
AcDbEntity
  8
寸法線
 48
10.0
100
AcDbMText
 10
832.0287525799827
 20
-65.61022234706626
 30
0.0
 40
5.0
 41
99.26666666666665
 71
     1
 72
     5
  1
1    {\H0.6x; }2    {\H0.6x; }3    {\H0.6x; }4
 73
     1
 44
1.0
  0
LINE
  5
5CF3
330
1A
100
AcDbEntity
  8
寸法線
 48
10.0
100
AcDbLine
 10
837.0812688512703
 20
-78.75824641254735
 30
0.0
 11
830.1530656209948
 21
-85.68644964282293
 31
0.0
  0
LINE
  5
5CF4
330
1A
100
AcDbEntity
  8
寸法線
 48
10.0
100
AcDbLine
 10
835.6670552888973
 20
-77.34403285017425
 30
0.0
 11
828.7388520586215
 21
-84.27223608044982
 31
0.0
  0
LINE
  5
5CF5
330
1A
100
AcDbEntity
  8
寸法線
 48
10.0
100
AcDbLine
 10
852.7464803325306
 20
-77.34403285017425
 30
0.0
 11
845.8182771022549
 21
-84.27223608044982
 31
0.0
  0
LINE
  5
5CF6
330
1A
100
AcDbEntity
  8
寸法線
 48
10.0
100
AcDbLine
 10
854.1606938949037
 20
-78.75824641254735
 30
0.0
 11
847.2324906646282
 21
-85.68644964282293
 31
0.0
  0
LINE
  5
5CF7
330
1A
100
AcDbEntity
  8
寸法線
 48
10.0
100
AcDbLine
 10
869.8259053761637
 20
-77.34403285017425
 30
0.0
 11
862.8977021458881
 21
-84.27223608044982
 31
0.0
  0
LINE
  5
5CF8
330
1A
100
AcDbEntity
  8
寸法線
 48
10.0
100
AcDbLine
 10
871.2401189385369
 20
-78.75824641254735
 30
0.0
 11
864.3119157082612
 21
-85.68644964282293
 31
0.0
  0
LINE
  5
5CF9
330
1A
100
AcDbEntity
  8
寸法線
 48
10.0
100
AcDbLine
 10
888.3195439821699
 20
-78.75824641254735
 30
0.0
 11
881.3913407518946
 21
-85.68644964282293
 31
0.0
  0
LINE
  5
5CFA
330
1A
100
AcDbEntity
  8
寸法線
 48
10.0
100
AcDbLine
 10
886.905330419797
 20
-77.34403285017425
 30
0.0
 11
879.9771271895215
 21
-84.27223608044982
 31
0.0
  0
HATCH
  5
5CFB
330
1A
100
AcDbEntity
  8
外形線
 48
10.0
100
AcDbHatch
 10
0.0
 20
0.0
 30
0.0
210
0.0
220
0.0
230
1.0
  2
SOLID
 70
     1
 71
     1
 91
        4
 92
        7
 72
     1
 73
     1
 93
        2
 10
834.9100604549459
 20
-61.51524124649859
 42
1.0
 10
830.910060454946
 20
-61.51524124649859
 42
1.0
 97
        1
330
5CFF
 92
        7
 72
     1
 73
     1
 93
        2
 10
847.9894854985793
 20
-61.51524124649859
 42
1.0
 10
851.9894854985793
 20
-61.51524124649859
 42
1.0
 97
        1
330
5CFE
 92
        7
 72
     1
 73
     1
 93
        2
 10
865.0689105422125
 20
-61.51524124649859
 42
1.0
 10
869.0689105422125
 20
-61.51524124649859
 42
1.0
 97
        1
330
5CFC
 92
        7
 72
     1
 73
     1
 93
        2
 10
886.1483355858458
 20
-61.51524124649859
 42
1.0
 10
882.1483355858459
 20
-61.51524124649859
 42
1.0
 97
        1
330
5CFD
 75
     0
 76
     1
 47
0.1242535103053288
 98
        4
 10
833.2248368973663
 20
-62.38126322501887
 10
850.7544840773382
 20
-61.26298162385672
 10
866.4192752688991
 20
-60.76596759650749
 10
882.954332710392
 20
-61.51148871678424
450
        0
451
        0
460
0.0
461
0.0
452
        1
462
1.0
453
        2
463
0.0
 63
     5
421
      255
463
1.0
 63
    51
421
 16777113
470
LINEAR
  0
CIRCLE
  5
5CFC
102
{ACAD_REACTORS
330
5CFB
102
}
330
1A
100
AcDbEntity
  8
外形線
 48
10.0
100
AcDbCircle
 10
867.0689105422125
 20
-61.51524124649859
 30
0.0
 40
2.0
  0
CIRCLE
  5
5CFD
102
{ACAD_REACTORS
330
5CFB
102
}
330
1A
100
AcDbEntity
  8
外形線
 48
10.0
100
AcDbCircle
 10
884.1483355858459
 20
-61.51524124649859
 30
0.0
 40
2.0
  0
CIRCLE
  5
5CFE
102
{ACAD_REACTORS
330
5CFB
102
}
330
1A
100
AcDbEntity
  8
外形線
 48
10.0
100
AcDbCircle
 10
849.9894854985793
 20
-61.51524124649859
 30
0.0
 40
2.0
  0
CIRCLE
  5
5CFF
102
{ACAD_REACTORS
330
5CFB
102
}
330
1A
100
AcDbEntity
  8
外形線
 48
10.0
100
AcDbCircle
 10
832.9100604549459
 20
-61.51524124649859
 30
0.0
 40
2.0
  0
CIRCLE
  5
5D00
330
1A
100
AcDbEntity
  8
外形線
 48
10.0
100
AcDbCircle
 10
867.0689105422125
 20
-81.51524124649858
 30
0.0
 40
5.0
  0
CIRCLE
  5
5D01
330
1A
100
AcDbEntity
  8
外形線
 48
10.0
100
AcDbCircle
 10
884.1483355858459
 20
-81.51524124649858
 30
0.0
 40
5.0
  0
CIRCLE
  5
5D03
330
1A
100
AcDbEntity
  8
外形線
 48
10.0
100
AcDbCircle
 10
832.9100604549459
 20
-81.51524124649858
 30
0.0
 40
5.0
  0
CIRCLE
  5
5D04
330
1A
100
AcDbEntity
  8
外形線
 48
10.0
100
AcDbCircle
 10
849.9894854985793
 20
-81.51524124649858
 30
0.0
 40
5.0
  0
LINE
  5
5D05
330
1A
100
AcDbEntity
  8
外形線
 48
10.0
100
AcDbLine
 10
824.5086230640291
 20
-88.01524124649859
 30
0.0
 11
926.7468981949289
 21
-88.01524124649859
 31
0.0
  0
LINE
  5
5D06
330
1A
100
AcDbEntity
  8
外形線
 48
10.0
100
AcDbLine
 10
824.5086230640291
 20
-48.01524124649859
 30
0.0
 11
926.7468981949289
 21
-48.01524124649859
 31
0.0
  0
LINE
  5
5D07
330
1A
100
AcDbEntity
  8
外形線
 48
10.0
100
AcDbLine
 10
824.5086230640291
 20
-75.01524124649859
 30
0.0
 11
926.7468981949289
 21
-75.01524124649859
 31
0.0
  0
LINE
  5
5D08
330
1A
100
AcDbEntity
  8
外形線
 48
10.0
100
AcDbLine
 10
824.5086230640291
 20
-48.01524124649859
 30
0.0
 11
824.5086230640291
 21
-88.01524124649859
 31
0.0
  0
LINE
  5
5D0E
330
1A
100
AcDbEntity
  8
外形線
 48
10.0
100
AcDbLine
 10
939.3109891386529
 20
-15.06885906125842
 30
0.0
 11
939.3109891386529
 21
-104.3656504102189
 31
0.0
  0
LINE
  5
5D0F
330
1A
100
AcDbEntity
  8
外形線
 48
10.0
100
AcDbLine
 10
939.3109891386529
 20
-104.3656504102189
 30
0.0
 11
807.3557616804691
 21
-104.3656504102189
 31
0.0
  0
LINE
  5
5D10
330
1A
100
AcDbEntity
  8
外形線
 48
10.0
100
AcDbLine
 10
807.3557616804691
 20
-104.3656504102189
 30
0.0
 11
807.3557616804691
 21
-15.06885906125853
 31
0.0
  0
LINE
  5
5D11
330
1A
100
AcDbEntity
  8
外形線
 48
10.0
100
AcDbLine
 10
939.3109891386529
 20
-15.06885906125842
 30
0.0
 11
807.3557616804691
 21
-15.06885906125853
 31
0.0
  0
MTEXT
  5
5D38
330
1A
100
AcDbEntity
  8
寸法線
 48
10.0
100
AcDbMText
 10
800.1450475008953
 20
264.1001690065933
 30
0.0
 40
10.0
 41
226.1037037037037
 71
     1
 72
     5
  1
型式\P L=         　　mm  台数
 73
     1
 44
1.0
  0
MTEXT
  5
5D39
330
1A
100
AcDbEntity
  8
寸法線
 48
10.0
100
AcDbMText
 10
798.791325680186
 20
11.43169692797812
 30
0.0
 40
10.0
 41
226.1037037037037
 71
     1
 72
     5
  1
結線図
 73
     1
 44
1.0
  0
MTEXT
  5
5D3A
330
1A
100
AcDbEntity
  8
寸法線
 48
10.0
100
AcDbMText
 10
797.0930155602136
 20
-198.3370424400314
 30
0.0
 40
10.0
 41
405.6296296296296
 71
     1
 72
     5
  1
・ レベル計の入力端子には極性がありません。\P・ 抵抗RAはHART通信で現場設定を行なう際に必要です。\P・ RAは250Ωの抵抗の使用を推奨します。\P・ 配線はシールドケーブルの使用を推奨します。\P・ シールドの接地は指示側で行なってください。
 73
     1
 44
1.0
  0
LWPOLYLINE
  5
5D3B
330
1A
100
AcDbEntity
  8
寸法線
 48
10.0
100
AcDbPolyline
 90
        4
 70
     1
 43
0.0
 10
795.9267932407822
 20
-5.565453227701482
 10
1186.542825465245
 20
-5.565453227701482
 10
1186.542825465245
 20
-192.7559046947797
 10
795.9267932407822
 20
-192.7559046947797
  0
LINE
  5
5D9F
330
1A
100
AcDbEntity
  8
寸法線
 48
10.0
100
AcDbLine
 10
795.9267932407822
 20
267.5014526405489
 30
0.0
 11
1022.542287879093
 21
267.5014526405489
 31
0.0
  0
LINE
  5
5DA0
330
1A
100
AcDbEntity
  8
寸法線
 48
10.0
100
AcDbLine
 10
795.9267932407822
 20
250.3127238724028
 30
0.0
 11
1022.542287879093
 21
250.3127238724028
 31
0.0
  0
LINE
  5
5DA1
330
1A
100
AcDbEntity
  8
寸法線
 48
10.0
100
AcDbLine
 10
795.9267932407822
 20
234.9596822185836
 30
0.0
 11
1022.542287879093
 21
234.9596822185835
 31
0.0
  0
LINE
  5
5DA2
330
1A
100
AcDbEntity
  8
寸法線
 48
10.0
100
AcDbLine
 10
795.9267932407822
 20
267.5014526405489
 30
0.0
 11
795.9267932407822
 21
234.9596822185836
 31
0.0
  0
LINE
  5
5DA3
330
1A
100
AcDbEntity
  8
寸法線
 48
10.0
100
AcDbLine
 10
829.3161290038709
 20
267.5014526405489
 30
0.0
 11
829.3161290038709
 21
234.9596822185836
 31
0.0
  0
MTEXT
  5
5DC1
330
1A
100
AcDbEntity
  8
寸法線
 48
10.0
100
AcDbMText
 10
797.9476534762364
 20
279.7536190172418
 30
0.0
 40
3.5
 41
255.9666666666667
 71
     1
 72
     5
  1
{\H2.857x;今回の貴社の御仕様は以下のとおりです。}
 73
     1
 44
1.0
  0
LINE
  5
5DCD
330
1A
100
AcDbEntity
  8
寸法線
 48
10.0
100
AcDbLine
 10
957.0635741717143
 20
250.3127238724028
 30
0.0
 11
957.0635741717143
 21
234.9596822185836
 31
0.0
  0
LINE
  5
5DCE
330
1A
100
AcDbEntity
  8
寸法線
 48
10.0
100
AcDbLine
 10
1022.542287879093
 20
267.5014526405489
 30
0.0
 11
1022.542287879093
 21
234.9596822185836
 31
0.0
  0
LINE
  5
5DCF
330
1A
100
AcDbEntity
  8
寸法線
 48
10.0
100
AcDbLine
 10
921.0646664480249
 20
250.3127238724028
 30
0.0
 11
921.0646664480249
 21
234.9596822185836
 31
0.0
  0
CIRCLE
  5
72DE
330
1A
100
AcDbEntity
  8
外形線
 48
10.0
100
AcDbCircle
 10
918.3071856731123
 20
-81.51524124649858
 30
0.0
 40
5.0
  0
CIRCLE
  5
72DF
330
1A
100
AcDbEntity
  8
外形線
 48
10.0
100
AcDbCircle
 10
901.2277606294789
 20
-81.51524124649858
 30
0.0
 40
5.0
  0
CIRCLE
  5
72E0
102
{ACAD_REACTORS
330
72ED
102
}
330
1A
100
AcDbEntity
  8
外形線
 48
10.0
100
AcDbCircle
 10
918.3071856731123
 20
-61.51524124649859
 30
0.0
 40
2.0
  0
CIRCLE
  5
72E1
102
{ACAD_REACTORS
330
72ED
102
}
330
1A
100
AcDbEntity
  8
外形線
 48
10.0
100
AcDbCircle
 10
901.2277606294789
 20
-61.51524124649859
 30
0.0
 40
2.0
  0
LINE
  5
72E2
330
1A
100
AcDbEntity
  8
寸法線
 48
10.0
100
AcDbLine
 10
921.0641805070636
 20
-77.34403285017425
 30
0.0
 11
914.1359772767881
 21
-84.27223608044982
 31
0.0
  0
LINE
  5
72E3
330
1A
100
AcDbEntity
  8
寸法線
 48
10.0
100
AcDbLine
 10
922.4783940694365
 20
-78.75824641254735
 30
0.0
 11
915.5501908391611
 21
-85.68644964282293
 31
0.0
  0
LINE
  5
72E4
330
1A
100
AcDbEntity
  8
寸法線
 48
10.0
100
AcDbLine
 10
905.3989690258033
 20
-78.75824641254735
 30
0.0
 11
898.4707657955278
 21
-85.68644964282293
 31
0.0
  0
LINE
  5
72E5
330
1A
100
AcDbEntity
  8
寸法線
 48
10.0
100
AcDbLine
 10
903.9847554634302
 20
-77.34403285017425
 30
0.0
 11
897.0565522331547
 21
-84.27223608044982
 31
0.0
  0
LINE
  5
72E6
330
1A
100
AcDbEntity
  8
外形線
 48
10.0
100
AcDbLine
 10
926.7468981949289
 20
-48.01524124649859
 30
0.0
 11
926.7468981949289
 21
-88.01524124649848
 31
0.0
  0
MTEXT
  5
72E8
330
1A
100
AcDbEntity
  8
寸法線
 48
10.0
100
AcDbMText
 10
900.2307203646809
 20
-65.61022234706626
 30
0.0
 40
5.0
 41
99.26666666666665
 71
     1
 72
     5
  1
5    {\H0.6x; }6
 73
     1
 44
1.0
  0
HATCH
  5
72ED
330
1A
100
AcDbEntity
  8
外形線
 48
10.0
100
AcDbHatch
 10
0.0
 20
0.0
 30
0.0
210
0.0
220
0.0
230
1.0
  2
SOLID
 70
     1
 71
     1
 91
        2
 92
        7
 72
     1
 73
     1
 93
        2
 10
899.227760629479
 20
-61.51524124649859
 42
1.0
 10
903.227760629479
 20
-61.51524124649859
 42
1.0
 97
        1
330
72E1
 92
        7
 72
     1
 73
     1
 93
        2
 10
920.3071856731124
 20
-61.51524124649859
 42
1.0
 10
916.3071856731123
 20
-61.51524124649859
 42
1.0
 97
        1
330
72E0
 75
     0
 76
     1
 47
0.0507777743068972
 98
        2
 10
902.1468118689226
 20
-61.28798356881453
 10
918.1532707961295
 20
-62.1004296213141
450
        0
451
        0
460
0.0
461
0.0
452
        1
462
1.0
453
        2
463
0.0
 63
     5
421
      255
463
1.0
 63
    51
421
 16777113
470
LINEAR
  0
LINE
  5
7982
330
1A
100
AcDbEntity
  8
外形線
100
AcDbLine
 10
1328.719243020907
 20
-142.4794951293383
 30
0.0
 11
1328.719243020908
 21
-331.4590705448364
 31
0.0
  0
LINE
  5
7983
330
1A
100
AcDbEntity
  8
外形線
100
AcDbLine
 10
1320.71924302091
 20
-142.4794951293383
 30
0.0
 11
1320.719243020907
 21
-331.4590705448386
 31
0.0
  0
LINE
  5
7984
330
1A
100
AcDbEntity
  8
細線
100
AcDbLine
 10
1315.744784213806
 20
-139.1300847587445
 30
0.0
 11
1333.693701828005
 21
-139.1300847587445
 31
0.0
  0
LINE
  5
7985
330
1A
100
AcDbEntity
  8
細線
100
AcDbLine
 10
1315.113519339347
 20
-142.4794951293383
 30
0.0
 11
1334.117089361432
 21
-142.4794951293383
 31
0.0
  0
LINE
  5
7986
330
1A
100
AcDbEntity
  8
外形線
100
AcDbLine
 10
1264.219243020906
 20
192.1853275274241
 30
0.0
 11
1374.219243020906
 21
192.1853275274241
 31
0.0
  0
LINE
  5
7987
330
1A
100
AcDbEntity
  8
外形線
100
AcDbLine
 10
1324.719243020905
 20
192.6853275274232
 30
0.0
 11
1374.219243020906
 21
192.6853275274232
 31
0.0
  0
LINE
  5
7988
330
1A
100
AcDbEntity
  8
外形線
100
AcDbLine
 10
1299.035569756523
 20
184.9558289310951
 30
0.0
 11
1371.672909966332
 21
184.9558289310951
 31
0.0
  0
LINE
  5
7989
330
1A
100
AcDbEntity
  8
外形線
100
AcDbLine
 10
1294.939959324564
 20
188.3442770609497
 30
0.0
 11
1374.219243020906
 21
188.3442770609497
 31
0.0
  0
LINE
  5
798A
330
1A
100
AcDbEntity
  8
外形線
100
AcDbLine
 10
1373.719243020906
 20
225.6853275274241
 30
0.0
 11
1324.719243020905
 21
225.6853275274241
 31
0.0
  0
LINE
  5
798B
330
1A
100
AcDbEntity
  8
外形線
100
AcDbLine
 10
1329.719243020906
 20
248.6853275274232
 30
0.0
 11
1324.719243020905
 21
248.6853275274232
 31
0.0
  0
ARC
  5
798C
330
1A
100
AcDbEntity
  8
外形線
100
AcDbCircle
 10
1324.719243020905
 20
230.6853275274232
 30
0.0
 40
5.0
100
AcDbArc
 50
270.0
 51
0.0
  0
LINE
  5
798D
330
1A
100
AcDbEntity
  8
外形線
100
AcDbLine
 10
1369.219243020906
 20
144.6558289310967
 30
0.0
 11
1281.342208798925
 21
144.6558289310967
 31
0.0
  0
ARC
  5
798E
330
1A
100
AcDbEntity
  8
外形線
100
AcDbCircle
 10
1316.599874929639
 20
57.82578835094568
 30
0.0
 40
11.99833002920699
100
AcDbArc
 50
17.61110428492008
 51
37.49644728904215
  0
LINE
  5
798F
330
1A
100
AcDbEntity
  8
外形線
100
AcDbLine
 10
1330.719243020907
 20
56.45593852707202
 30
0.0
 11
1324.719243020907
 21
56.45593852707202
 31
0.0
  0
LINE
  5
7990
330
1A
100
AcDbEntity
  8
外形線
100
AcDbLine
 10
1328.719243020907
 20
28.5454737358275
 30
0.0
 11
1324.719243020907
 21
28.5454737358275
 31
0.0
  0
LINE
  5
7991
330
1A
100
AcDbEntity
  8
外形線
100
AcDbLine
 10
1329.719243020906
 20
31.45593852707202
 30
0.0
 11
1324.719243020907
 21
31.45593852707202
 31
0.0
  0
LINE
  5
7992
330
1A
100
AcDbEntity
  8
細線
100
AcDbLine
 10
1329.719243020906
 20
30.04572698660354
 30
0.0
 11
1324.719243020907
 21
30.04572698660354
 31
0.0
  0
LINE
  5
7993
330
1A
100
AcDbEntity
  8
外形線
100
AcDbLine
 10
1330.719243020907
 20
38.57130824945648
 30
0.0
 11
1324.719243020907
 21
38.57130824945648
 31
0.0
  0
LINE
  5
7994
330
1A
100
AcDbEntity
  8
外形線
100
AcDbLine
 10
1324.719243028808
 20
66.45593852707384
 30
0.0
 11
1339.219242999776
 21
66.45593852707384
 31
0.0
  0
ARC
  5
7995
330
1A
100
AcDbEntity
  8
細線
100
AcDbCircle
 10
1324.719243020905
 20
116.7825706370311
 30
0.0
 40
28.32663210995822
100
AcDbArc
 50
270.0
 51
294.6975813934983
  0
LINE
  5
7996
330
1A
100
AcDbEntity
  8
外形線
100
AcDbLine
 10
1344.719243197858
 20
88.45593852707384
 30
0.0
 11
1324.719243020905
 21
88.45593852707384
 31
0.0
  0
LINE
  5
7997
330
1A
100
AcDbEntity
  8
外形線
100
AcDbLine
 10
1344.719243277024
 20
103.4559385270747
 30
0.0
 11
1324.719243020905
 21
103.4559385270747
 31
0.0
  0
LINE
  5
7998
330
1A
100
AcDbEntity
  8
細線
100
AcDbLine
 10
1339.719242999638
 20
66.95593852707384
 30
0.0
 11
1324.719243020905
 21
66.95593852707384
 31
0.0
  0
LINE
  5
7999
330
1A
100
AcDbEntity
  8
外形線
100
AcDbLine
 10
1339.719242997506
 20
68.45593852707202
 30
0.0
 11
1324.719243020905
 21
68.45593852707202
 31
0.0
  0
LINE
  5
799A
330
1A
100
AcDbEntity
  8
外形線
100
AcDbLine
 10
1341.369242997507
 20
70.10593852707348
 30
0.0
 11
1324.719243020905
 21
70.10593852707348
 31
0.0
  0
LINE
  5
799B
330
1A
100
AcDbEntity
  8
外形線
100
AcDbLine
 10
1341.369242997507
 20
83.66503056394481
 30
0.0
 11
1324.719243020905
 21
83.66503056394481
 31
0.0
  0
ARC
  5
799C
330
1A
100
AcDbEntity
  8
細線
100
AcDbCircle
 10
1324.719243020905
 20
75.12930641711751
 30
0.0
 40
28.32663210995822
100
AcDbArc
 50
65.30241860650177
 51
90.0
  0
LINE
  5
799D
330
1A
100
AcDbEntity
  8
0
100
AcDbLine
 10
1309.687818981017
 20
86.39548682644521
 30
0.0
 11
1339.750667060793
 21
86.39548682644521
 31
0.0
  0
LINE
  5
799E
330
1A
100
AcDbEntity
  8
細線
100
AcDbLine
 10
1309.569243044305
 20
85.34124024771859
 30
0.0
 11
1339.869242997507
 21
85.34124024771859
 31
0.0
  0
LINE
  5
799F
330
1A
100
AcDbEntity
  8
細線
100
AcDbLine
 10
1347.33811732535
 20
118.1028207400438
 30
0.0
 11
1324.719243020905
 21
118.1028207400438
 31
0.0
  0
LINE
  5
79A0
330
1A
100
AcDbEntity
  8
外形線
100
AcDbLine
 10
1341.745461244179
 20
112.8559385270744
 30
0.0
 11
1324.719243020905
 21
112.8559385270744
 31
0.0
  0
LINE
  5
79A1
330
1A
100
AcDbEntity
  8
外形線
100
AcDbLine
 10
1340.719242938556
 20
110.8559385270725
 30
0.0
 11
1324.719243020905
 21
110.8559385270725
 31
0.0
  0
LINE
  5
79A2
330
1A
100
AcDbEntity
  8
外形線
100
AcDbLine
 10
1349.719243020907
 20
126.2425268818422
 30
0.0
 11
1324.719243020905
 21
126.2425268818422
 31
0.0
  0
LINE
  5
79A3
330
1A
100
AcDbEntity
  8
外形線
100
AcDbLine
 10
1357.858092168661
 20
130.5355560185751
 30
0.0
 11
1291.58039387315
 21
130.5355560185751
 31
0.0
  0
LINE
  5
79A4
330
1A
100
AcDbEntity
  8
外形線
100
AcDbLine
 10
1357.585268424691
 20
126.6558289310958
 30
0.0
 11
1291.853217617121
 21
126.6558289310958
 31
0.0
  0
LINE
  5
79A5
330
1A
100
AcDbEntity
  8
外形線
100
AcDbLine
 10
1328.519243020906
 20
-331.6590705448386
 30
0.0
 11
1320.919243020907
 21
-331.6590705448386
 31
0.0
  0
LINE
  5
79A6
330
1A
100
AcDbEntity
  8
細線
100
AcDbLine
 10
1320.719243020906
 20
-331.459070544837
 30
0.0
 11
1328.719243020907
 21
-331.459070544837
 31
0.0
  0
LINE
  5
79A7
330
1A
100
AcDbEntity
  8
外形線
100
AcDbLine
 10
1319.719243020907
 20
31.45593852707202
 30
0.0
 11
1318.719243020906
 21
38.57130824945648
 31
0.0
  0
LINE
  5
79A8
330
1A
100
AcDbEntity
  8
外形線
100
AcDbLine
 10
1320.719243020913
 20
28.5454737358275
 30
0.0
 11
1320.719243020911
 21
-139.1300847587445
 31
0.0
  0
LINE
  5
79A9
330
1A
100
AcDbEntity
  8
外形線
100
AcDbLine
 10
1320.919243020907
 20
-331.6590705448386
 30
0.0
 11
1320.719243020906
 21
-331.459070544837
 31
0.0
  0
LINE
  5
79AA
330
1A
100
AcDbEntity
  8
外形線
100
AcDbLine
 10
1319.719243020907
 20
31.45593852707202
 30
0.0
 11
1324.719243020907
 21
31.45593852707202
 31
0.0
  0
LINE
  5
79AB
330
1A
100
AcDbEntity
  8
外形線
100
AcDbLine
 10
1319.719243020907
 20
30.04572698660354
 30
0.0
 11
1320.719243020906
 21
28.5454737358275
 31
0.0
  0
LINE
  5
79AC
330
1A
100
AcDbEntity
  8
外形線
100
AcDbLine
 10
1320.719243020906
 20
28.5454737358275
 30
0.0
 11
1324.719243020907
 21
28.5454737358275
 31
0.0
  0
LINE
  5
79AD
330
1A
100
AcDbEntity
  8
細線
100
AcDbLine
 10
1319.719243020907
 20
30.04572698660354
 30
0.0
 11
1324.719243020907
 21
30.04572698660354
 31
0.0
  0
LINE
  5
79AE
330
1A
100
AcDbEntity
  8
外形線
100
AcDbLine
 10
1319.719243020907
 20
31.45593852707202
 30
0.0
 11
1319.719243020907
 21
30.04572698660354
 31
0.0
  0
LINE
  5
79AF
330
1A
100
AcDbEntity
  8
外形線
100
AcDbLine
 10
1263.219243020906
 20
157.1853275274241
 30
0.0
 11
1263.219243020906
 21
191.185327527425
 31
0.0
  0
LINE
  5
79B0
330
1A
100
AcDbEntity
  8
0
 62
     7
100
AcDbLine
 10
1297.219243020905
 20
156.1853275274222
 30
0.0
 11
1297.219243020905
 21
183.9304190571145
 31
0.0
  0
LINE
  5
79B1
330
1A
100
AcDbEntity
  8
0
 62
     7
100
AcDbLine
 10
1297.219243020905
 20
156.1853275274222
 30
0.0
 11
1297.219243020905
 21
183.5852652474047
 31
0.0
  0
LINE
  5
79B2
330
1A
100
AcDbEntity
  8
外形線
100
AcDbLine
 10
1308.719243103255
 20
104.2559385270731
 30
0.0
 11
1308.719243103255
 21
110.8559385270725
 31
0.0
  0
ARC
  5
79B3
330
1A
100
AcDbEntity
  8
細線
100
AcDbCircle
 10
1324.719243020905
 20
116.7825706370311
 30
0.0
 40
28.32663210995822
100
AcDbArc
 50
245.3024186065018
 51
270.0
  0
LINE
  5
79B4
330
1A
100
AcDbEntity
  8
細線
100
AcDbLine
 10
1312.883562502517
 20
100.8647829691351
 30
0.0
 11
1312.883562502517
 21
91.0470940850107
 31
0.0
  0
ARC
  5
79B5
330
1A
100
AcDbEntity
  8
細線
100
AcDbCircle
 10
1324.719243020905
 20
75.12930641711751
 30
0.0
 40
28.32663210995822
100
AcDbArc
 50
90.0
 51
114.6975813934982
  0
LINE
  5
79B6
330
1A
100
AcDbEntity
  8
外形線
  6
Continuous
100
AcDbLine
 10
1304.719242764787
 20
103.4559385270747
 30
0.0
 11
1301.049243020905
 21
101.3370610162844
 31
0.0
  0
LINE
  5
79B7
330
1A
100
AcDbEntity
  8
外形線
  6
Continuous
100
AcDbLine
 10
1301.049243020905
 20
90.57481603786142
 30
0.0
 11
1301.049243020905
 21
101.3370610162844
 31
0.0
  0
LINE
  5
79B8
330
1A
100
AcDbEntity
  8
外形線
  6
Continuous
100
AcDbLine
 10
1304.719242764787
 20
88.45593852707384
 30
0.0
 11
1301.049243020905
 21
90.57481603786142
 31
0.0
  0
ARC
  5
79B9
330
1A
100
AcDbEntity
  8
外形線
  6
Continuous
100
AcDbCircle
 10
1307.919243044304
 20
86.06061497621409
 30
0.0
 40
1.80000000000005
100
AcDbArc
 50
336.4435356908834
 51
45.0000000000069
  0
LINE
  5
79BA
330
1A
100
AcDbEntity
  8
外形線
  6
Continuous
100
AcDbLine
 10
1308.069243044305
 20
83.66503056394481
 30
0.0
 11
1309.105807328853
 21
84.70707694622229
 31
0.0
  0
ARC
  5
79BB
330
1A
100
AcDbEntity
  8
外形線
  6
Continuous
100
AcDbCircle
 10
1307.919243044304
 20
86.06061497621409
 30
0.0
 40
1.800000000000089
100
AcDbArc
 50
311.2390701170828
 51
336.4435356908834
  0
LINE
  5
79BC
330
1A
100
AcDbEntity
  8
外形線
  6
Continuous
100
AcDbLine
 10
1309.19203525044
 20
87.33340718235172
 30
0.0
 11
1308.069503905716
 21
88.45593852707384
 31
0.0
  0
ARC
  5
79BD
330
1A
100
AcDbEntity
  8
外形線
100
AcDbCircle
 10
1307.919243103255
 20
104.2559385270731
 30
0.0
 40
0.8000000000000001
100
AcDbArc
 50
270.0
 51
0.0
  0
ARC
  5
79BE
330
1A
100
AcDbEntity
  8
細線
100
AcDbCircle
 10
1306.966402761712
 20
95.40415128569817
 30
0.0
 40
8.051787241375937
100
AcDbArc
 50
42.70226874022809
 51
137.2977312597719
  0
LINE
  5
79BF
330
1A
100
AcDbEntity
  8
外形線
100
AcDbLine
 10
1304.719242843954
 20
88.45593852707384
 30
0.0
 11
1324.719243020905
 21
88.45593852707384
 31
0.0
  0
ARC
  5
79C0
330
1A
100
AcDbEntity
  8
細線
100
AcDbCircle
 10
1306.966402761712
 20
96.50772576845042
 30
0.0
 40
8.051787241375937
100
AcDbArc
 50
222.7022687402281
 51
317.2977312597719
  0
LINE
  5
79C1
330
1A
100
AcDbEntity
  8
外形線
100
AcDbLine
 10
1304.719242764787
 20
103.4559385270747
 30
0.0
 11
1324.719243020905
 21
103.4559385270747
 31
0.0
  0
LINE
  5
79C2
330
1A
100
AcDbEntity
  8
外形線
100
AcDbLine
 10
1308.069243044305
 20
83.66503056394481
 30
0.0
 11
1324.719243020905
 21
83.66503056394481
 31
0.0
  0
ARC
  5
79C3
330
1A
100
AcDbEntity
  8
外形線
100
AcDbCircle
 10
1301.719242984818
 20
118.6143041415396
 30
0.0
 40
2.0
100
AcDbArc
 50
179.9999997289227
 51
239.9999999999849
  0
ARC
  5
79C4
330
1A
100
AcDbEntity
  8
外形線
100
AcDbCircle
 10
1292.719243020906
 20
127.1558289310949
 30
0.0
 40
1.0
100
AcDbArc
 50
180.0
 51
209.9999999999945
  0
LINE
  5
79C5
330
1A
100
AcDbEntity
  8
外形線
100
AcDbLine
 10
1291.719243020905
 20
127.1558289310949
 30
0.0
 11
1291.719243020905
 21
129.6334386200649
 31
0.0
  0
ARC
  5
79C6
330
1A
100
AcDbEntity
  8
外形線
100
AcDbCircle
 10
1288.719243020906
 20
129.6334386200649
 30
0.0
 40
3.0
100
AcDbArc
 50
0.0
 51
34.9999999999947
  0
LINE
  5
79C7
330
1A
100
AcDbEntity
  8
外形線
100
AcDbLine
 10
1301.719243020907
 20
126.6558289310958
 30
0.0
 11
1301.719243020907
 21
126.2425268818422
 31
0.0
  0
LINE
  5
79C8
330
1A
100
AcDbEntity
  8
外形線
100
AcDbLine
 10
1299.719243020905
 20
126.2425268818422
 30
0.0
 11
1299.719242984818
 21
118.614304151001
 31
0.0
  0
LINE
  5
79C9
330
1A
100
AcDbEntity
  8
0
 62
     1
100
AcDbLine
 10
1324.719243020905
 20
112.1573325331926
 30
0.0
 11
1324.719243020905
 21
112.1573325331926
 31
0.0
  0
LINE
  5
79CA
330
1A
100
AcDbEntity
  8
外形線
100
AcDbLine
 10
1299.719243020905
 20
126.2425268818422
 30
0.0
 11
1324.719243020905
 21
126.2425268818422
 31
0.0
  0
LINE
  5
79CB
330
1A
100
AcDbEntity
  8
細線
100
AcDbLine
 10
1302.100368716461
 20
118.1028207400438
 30
0.0
 11
1324.719243020905
 21
118.1028207400438
 31
0.0
  0
LINE
  5
79CC
330
1A
100
AcDbEntity
  8
外形線
100
AcDbLine
 10
1307.693024797632
 20
111.8559385270753
 30
0.0
 11
1307.693024797632
 21
112.8559385270744
 31
0.0
  0
LINE
  5
79CD
330
1A
100
AcDbEntity
  8
外形線
100
AcDbLine
 10
1308.719243103255
 20
110.8559385270725
 30
0.0
 11
1307.693024797632
 21
111.8559385270753
 31
0.0
  0
LINE
  5
79CE
330
1A
100
AcDbEntity
  8
外形線
100
AcDbLine
 10
1307.693024797632
 20
112.8559385270744
 30
0.0
 11
1300.719242984817
 21
116.8822533339696
 31
0.0
  0
LINE
  5
79CF
330
1A
100
AcDbEntity
  8
外形線
100
AcDbLine
 10
1308.719243103255
 20
110.8559385270725
 30
0.0
 11
1324.719243020905
 21
110.8559385270725
 31
0.0
  0
LINE
  5
79D0
330
1A
100
AcDbEntity
  8
外形線
100
AcDbLine
 10
1307.693024797632
 20
112.8559385270744
 30
0.0
 11
1324.719243020905
 21
112.8559385270744
 31
0.0
  0
ARC
  5
79D1
330
1A
100
AcDbEntity
  8
外形線
100
AcDbCircle
 10
1282.717965291776
 20
138.2041514468235
 30
0.0
 40
3.0
100
AcDbArc
 50
34.9999999999947
 51
90.0
  0
ARC
  5
79D2
330
1A
100
AcDbEntity
  8
外形線
100
AcDbCircle
 10
1281.342208798925
 20
143.6558289310976
 30
0.0
 40
1.0
100
AcDbArc
 50
34.9999999999947
 51
90.0
  0
LINE
  5
79D3
330
1A
100
AcDbEntity
  8
外形線
100
AcDbLine
 10
1281.342208798925
 20
144.6558289310967
 30
0.0
 11
1280.219243020906
 21
144.6558289310967
 31
0.0
  0
ARC
  5
79D4
330
1A
100
AcDbEntity
  8
外形線
100
AcDbCircle
 10
1280.219243020906
 20
145.6558289310958
 30
0.0
 40
1.0
100
AcDbArc
 50
180.0
 51
270.0
  0
LINE
  5
79D5
330
1A
100
AcDbEntity
  8
外形線
100
AcDbLine
 10
1282.717965291776
 20
141.2041514468262
 30
0.0
 11
1279.439842797353
 21
141.2041514468262
 31
0.0
  0
ARC
  5
79D6
330
1A
100
AcDbEntity
  8
外形線
100
AcDbCircle
 10
1279.439842797353
 20
144.2041514468235
 30
0.0
 40
3.0
100
AcDbArc
 50
225.0000000000069
 51
270.0
  0
LINE
  5
79D7
330
1A
100
AcDbEntity
  8
外形線
100
AcDbLine
 10
1279.219243020905
 20
145.6558289310958
 30
0.0
 11
1279.219243020905
 21
154.1853275274241
 31
0.0
  0
ARC
  5
79D8
330
1A
100
AcDbEntity
  8
外形線
100
AcDbCircle
 10
1277.219243020906
 20
154.1853275274241
 30
0.0
 40
2.0
100
AcDbArc
 50
0.0
 51
90.0
  0
ARC
  5
79D9
330
1A
100
AcDbEntity
  8
外形線
100
AcDbCircle
 10
1266.219243020906
 20
157.4247512232748
 30
0.0
 40
3.0
100
AcDbArc
 50
190.7521272360077
 51
225.0000000000069
  0
ARC
  5
79DA
330
1A
100
AcDbEntity
  8
外形線
100
AcDbCircle
 10
1264.219243020906
 20
157.1853275274241
 30
0.0
 40
1.0
100
AcDbArc
 50
180.0
 51
270.0
  0
LINE
  5
79DB
330
1A
100
AcDbEntity
  8
外形線
100
AcDbLine
 10
1264.097922677345
 20
155.303430879713
 30
0.0
 11
1277.318522453794
 21
142.0828311032644
 31
0.0
  0
LINE
  5
79DC
330
1A
100
AcDbEntity
  8
外形線
100
AcDbLine
 10
1291.176699153772
 20
131.3541679291154
 30
0.0
 11
1282.161360843214
 21
144.2294053674466
 31
0.0
  0
LINE
  5
79DD
330
1A
100
AcDbEntity
  8
外形線
100
AcDbLine
 10
1264.219243020906
 20
156.1853275274222
 30
0.0
 11
1297.219243020905
 21
156.1853275274222
 31
0.0
  0
ARC
  5
79DE
330
1A
100
AcDbEntity
  8
外形線
100
AcDbCircle
 10
1323.917768309522
 20
63.5805781269371
 30
0.0
 40
2.691670126702103
100
AcDbArc
 50
35.12643951812719
 51
69.44867794431445
  0
ARC
  5
79DF
330
1A
100
AcDbEntity
  8
外形線
100
AcDbCircle
 10
1325.520717732288
 20
63.5805781269371
 30
0.0
 40
2.691670126702103
100
AcDbArc
 50
110.5513220556855
 51
144.8735604818728
  0
ARC
  5
79E0
330
1A
100
AcDbEntity
  8
外形線
100
AcDbCircle
 10
1324.719243020907
 20
65.75262571172493
 30
0.0
 40
0.3766929248256475
100
AcDbArc
 50
67.61980923456356
 51
90.00000000020843
  0
ARC
  5
79E1
330
1A
100
AcDbEntity
  8
外形線
100
AcDbCircle
 10
1324.719243020905
 20
65.75262571172493
 30
0.0
 40
0.3766929248256475
100
AcDbArc
 50
89.99999999977854
 51
112.3801907654364
  0
LINE
  5
79E2
330
1A
100
AcDbEntity
  8
外形線
100
AcDbLine
 10
1318.719243020904
 20
61.45593852707293
 30
0.0
 11
1319.782025829254
 21
66.45593852707384
 31
0.0
  0
LINE
  5
79E3
330
1A
100
AcDbEntity
  8
外形線
100
AcDbLine
 10
1318.719243020904
 20
61.45593852707293
 30
0.0
 11
1321.402618230547
 21
61.45593852707293
 31
0.0
  0
ARC
  5
79E4
330
1A
100
AcDbEntity
  8
外形線
100
AcDbCircle
 10
1332.838611112172
 20
57.82578835094568
 30
0.0
 40
11.99833002920699
100
AcDbArc
 50
142.5035527109578
 51
162.3888957150799
  0
LINE
  5
79E5
330
1A
100
AcDbEntity
  8
外形線
100
AcDbLine
 10
1318.719243020904
 20
56.45593852707202
 30
0.0
 11
1324.719243020904
 21
56.45593852707202
 31
0.0
  0
LINE
  5
79E6
330
1A
100
AcDbEntity
  8
外形線
100
AcDbLine
 10
1318.719243020904
 20
61.45593852707293
 30
0.0
 11
1318.719243020904
 21
56.45593852707202
 31
0.0
  0
LINE
  5
79E7
330
1A
100
AcDbEntity
  8
外形線
100
AcDbLine
 10
1321.402618230547
 20
61.45593852707293
 30
0.0
 11
1321.402618230547
 21
56.45593852707202
 31
0.0
  0
LINE
  5
79E8
330
1A
100
AcDbEntity
  8
外形線
100
AcDbLine
 10
1318.719243020908
 20
49.45593852707293
 30
0.0
 11
1319.719243020907
 21
49.45593852707293
 31
0.0
  0
LINE
  5
79E9
330
1A
100
AcDbEntity
  8
外形線
100
AcDbLine
 10
1318.719243020906
 20
38.57130824945648
 30
0.0
 11
1324.719243020907
 21
38.57130824945648
 31
0.0
  0
LINE
  5
79EA
330
1A
100
AcDbEntity
  8
外形線
100
AcDbLine
 10
1318.719243020908
 20
49.45593852707293
 30
0.0
 11
1318.719243020906
 21
38.57130824945648
 31
0.0
  0
LINE
  5
79EB
330
1A
100
AcDbEntity
  8
外形線
100
AcDbLine
 10
1319.719243020907
 20
56.45593852707202
 30
0.0
 11
1319.719243020907
 21
49.45593852707293
 31
0.0
  0
LINE
  5
79EC
330
1A
100
AcDbEntity
  8
外形線
  6
Continuous
100
AcDbLine
 10
1309.719243044304
 20
68.45593852707202
 30
0.0
 11
1308.069243044305
 21
70.10593852707348
 31
0.0
  0
LINE
  5
79ED
330
1A
100
AcDbEntity
  8
外形線
100
AcDbLine
 10
1309.719243042174
 20
66.95593852707384
 30
0.0
 11
1310.219243042036
 21
66.45593852707384
 31
0.0
  0
LINE
  5
79EE
330
1A
100
AcDbEntity
  8
外形線
  6
Continuous
100
AcDbLine
 10
1309.719243042174
 20
66.95593852707384
 30
0.0
 11
1309.719243042592
 21
68.45593852878642
 31
0.0
  0
LINE
  5
79EF
330
1A
100
AcDbEntity
  8
外形線
100
AcDbLine
 10
1324.719243013003
 20
66.45593852707384
 30
0.0
 11
1310.219243042036
 21
66.45593852707384
 31
0.0
  0
LINE
  5
79F0
330
1A
100
AcDbEntity
  8
外形線
100
AcDbLine
 10
1308.069243044305
 20
70.10593852707348
 30
0.0
 11
1324.719243020905
 21
70.10593852707348
 31
0.0
  0
LINE
  5
79F1
330
1A
100
AcDbEntity
  8
外形線
100
AcDbLine
 10
1309.719243044304
 20
68.45593852707202
 30
0.0
 11
1324.719243020905
 21
68.45593852707202
 31
0.0
  0
LINE
  5
79F2
330
1A
100
AcDbEntity
  8
細線
100
AcDbLine
 10
1309.719243042174
 20
66.95593852707384
 30
0.0
 11
1324.719243020905
 21
66.95593852707384
 31
0.0
  0
LINE
  5
79F3
330
1A
100
AcDbEntity
  8
細線
  6
Continuous
100
AcDbLine
 10
1309.569243044305
 20
85.34124024771859
 30
0.0
 11
1309.569243044305
 21
68.60593852707438
 31
0.0
  0
LINE
  5
79F4
330
1A
100
AcDbEntity
  8
外形線
  6
Continuous
100
AcDbLine
 10
1308.069243044305
 20
70.10593852707348
 30
0.0
 11
1308.069243044305
 21
83.66503056394481
 31
0.0
  0
ARC
  5
79F5
330
1A
100
AcDbEntity
  8
細線
100
AcDbCircle
 10
1248.142001532679
 20
186.1837190317353
 30
0.0
 40
4.119219054114879
100
AcDbArc
 50
133.2564871116922
 51
226.7435128883078
  0
LINE
  5
79F6
330
1A
100
AcDbEntity
  8
外形線
100
AcDbLine
 10
1243.719243020905
 20
187.4837190317328
 30
0.0
 11
1245.319243020904
 21
189.1837190317326
 31
0.0
  0
LINE
  5
79F7
330
1A
100
AcDbEntity
  8
外形線
100
AcDbLine
 10
1243.719243020905
 20
160.8837190317333
 30
0.0
 11
1245.319243020904
 21
159.1837190317344
 31
0.0
  0
ARC
  5
79F8
330
1A
100
AcDbEntity
  8
細線
100
AcDbCircle
 10
1248.142001532679
 20
162.1837190317344
 30
0.0
 40
4.119219054114879
100
AcDbArc
 50
133.2564871116922
 51
226.7435128883078
  0
ARC
  5
79F9
330
1A
100
AcDbEntity
  8
細線
100
AcDbCircle
 10
1261.025675400437
 20
174.1837190317344
 30
0.0
 40
16.99829456424291
100
AcDbArc
 50
157.5181156825112
 51
202.4818843174887
  0
LINE
  5
79FA
330
1A
100
AcDbEntity
  8
外形線
100
AcDbLine
 10
1240.719243020905
 20
187.4837190317328
 30
0.0
 11
1243.719243020905
 21
187.4837190317328
 31
0.0
  0
ARC
  5
79FB
330
1A
100
AcDbEntity
  8
外形線
100
AcDbCircle
 10
1240.719243020905
 20
182.4837190317346
 30
0.0
 40
5.0
100
AcDbArc
 50
90.0
 51
180.0
  0
LINE
  5
79FC
330
1A
100
AcDbEntity
  8
外形線
100
AcDbLine
 10
1240.719243020905
 20
160.8837190317333
 30
0.0
 11
1243.719243020905
 21
160.8837190317333
 31
0.0
  0
ARC
  5
79FD
330
1A
100
AcDbEntity
  8
外形線
100
AcDbCircle
 10
1240.719243020905
 20
165.8837190317324
 30
0.0
 40
5.0
100
AcDbArc
 50
180.0
 51
270.0
  0
LINE
  5
79FE
330
1A
100
AcDbEntity
  8
外形線
100
AcDbLine
 10
1235.719243020905
 20
165.8837190317324
 30
0.0
 11
1235.719243020905
 21
182.4837190317346
 31
0.0
  0
LINE
  5
79FF
330
1A
100
AcDbEntity
  8
外形線
100
AcDbLine
 10
1243.719243020905
 20
160.8837190317333
 30
0.0
 11
1243.719243020905
 21
187.4837190317328
 31
0.0
  0
LINE
  5
7A00
330
1A
100
AcDbEntity
  8
0
100
AcDbLine
 10
1293.719243020905
 20
192.1853275274241
 30
0.0
 11
1293.719243020905
 21
187.7806085469681
 31
0.0
  0
LINE
  5
7A01
330
1A
100
AcDbEntity
  8
0
100
AcDbLine
 10
1294.193207566491
 20
186.8251649228148
 30
0.0
 11
1296.745278475319
 21
184.8858626812678
 31
0.0
  0
ARC
  5
7A02
330
1A
100
AcDbEntity
  8
0
100
AcDbCircle
 10
1294.919243020905
 20
187.7806085469681
 30
0.0
 40
1.199999999999999
100
AcDbArc
 50
180.0
 51
232.7690320343467
  0
ARC
  5
7A03
330
1A
100
AcDbEntity
  8
0
100
AcDbCircle
 10
1296.019243020906
 20
183.9304190571145
 30
0.0
 40
1.199999999999999
100
AcDbArc
 50
0.0
 51
52.76903203434672
  0
ARC
  5
7A04
330
1A
100
AcDbEntity
  8
外形線
100
AcDbCircle
 10
1318.719243020905
 20
250.6853275274241
 30
0.0
 40
1.0
100
AcDbArc
 50
0.0
 51
90.0
  0
LINE
  5
7A05
330
1A
100
AcDbEntity
  8
外形線
100
AcDbLine
 10
1319.719243020905
 20
230.6853275274232
 30
0.0
 11
1319.719243020905
 21
250.6853275274241
 31
0.0
  0
LINE
  5
7A06
330
1A
100
AcDbEntity
  8
外形線
100
AcDbLine
 10
1298.935703300023
 20
248.6853275274232
 30
0.0
 11
1305.431315505214
 21
248.6853275274232
 31
0.0
  0
ARC
  5
7A07
330
1A
100
AcDbEntity
  8
外形線
100
AcDbCircle
 10
1306.431315505213
 20
250.6853275274241
 30
0.0
 40
1.0
100
AcDbArc
 50
90.0
 51
180.0
  0
LINE
  5
7A08
330
1A
100
AcDbEntity
  8
外形線
100
AcDbLine
 10
1301.602247939948
 20
251.2890286919326
 30
0.0
 11
1303.573944281183
 21
248.6853275274232
 31
0.0
  0
ARC
  5
7A09
330
1A
100
AcDbEntity
  8
外形線
100
AcDbCircle
 10
1299.771061467369
 20
248.6853275274232
 30
0.0
 40
3.0
100
AcDbArc
 50
90.0
 51
180.0
  0
ARC
  5
7A0A
330
1A
100
AcDbEntity
  8
外形線
100
AcDbCircle
 10
1298.935703300023
 20
247.185327527425
 30
0.0
 40
1.5
100
AcDbArc
 50
90.0
 51
180.0
  0
ARC
  5
7A0B
330
1A
100
AcDbEntity
  8
外形線
100
AcDbCircle
 10
1300.805037237582
 20
250.6853275274241
 30
0.0
 40
1.0
100
AcDbArc
 50
37.13543647029804
 51
90.0
  0
LINE
  5
7A0C
330
1A
100
AcDbEntity
  8
外形線
100
AcDbLine
 10
1305.357586864108
 20
229.7657675469234
 30
0.0
 11
1305.431315505214
 21
230.6853275274232
 31
0.0
  0
LINE
  5
7A0D
330
1A
100
AcDbEntity
  8
外形線
100
AcDbLine
 10
1302.286183993682
 20
225.8719468982297
 30
0.0
 11
1303.031292184011
 21
226.205553384202
 31
0.0
  0
LINE
  5
7A0E
330
1A
100
AcDbEntity
  8
外形線
100
AcDbLine
 10
1303.031292184011
 20
226.205553384202
 30
0.0
 11
1303.710673007816
 21
226.6917132057222
 31
0.0
  0
LINE
  5
7A0F
330
1A
100
AcDbEntity
  8
外形線
100
AcDbLine
 10
1303.710673007816
 20
226.6917132057222
 30
0.0
 11
1304.301190965972
 21
227.3138707731594
 31
0.0
  0
LINE
  5
7A10
330
1A
100
AcDbEntity
  8
外形線
100
AcDbLine
 10
1304.301190965972
 20
227.3138707731594
 30
0.0
 11
1304.782736677666
 21
228.0508392567451
 31
0.0
  0
LINE
  5
7A11
330
1A
100
AcDbEntity
  8
外形線
100
AcDbLine
 10
1304.782736677666
 20
228.0508392567451
 30
0.0
 11
1305.13891168123
 21
228.8775220786654
 31
0.0
  0
LINE
  5
7A12
330
1A
100
AcDbEntity
  8
外形線
100
AcDbLine
 10
1301.500722202596
 20
225.702254316571
 30
0.0
 11
1302.286183993682
 21
225.8719468982297
 31
0.0
  0
LINE
  5
7A13
330
1A
100
AcDbEntity
  8
外形線
100
AcDbLine
 10
1305.13891168123
 20
228.8775220786654
 30
0.0
 11
1305.357586864108
 21
229.7657675469234
 31
0.0
  0
LINE
  5
7A14
330
1A
100
AcDbEntity
  8
外形線
100
AcDbLine
 10
1299.916192978901
 20
225.8719468982297
 30
0.0
 11
1300.701654769989
 21
225.702254316571
 31
0.0
  0
ELLIPSE
  5
7A15
330
1A
100
AcDbEntity
  8
細線
100
AcDbEllipse
 10
1301.765830318944
 20
230.685327527425
 30
0.0
 11
-0.0000000000000093
 21
5.198088632108957
 31
0.0
210
0.0
220
0.0
230
1.0
 40
0.8330229292695726
 41
1.570796326794884
 42
2.864635972754259
  0
LINE
  5
7A16
330
1A
100
AcDbEntity
  8
外形線
100
AcDbLine
 10
1296.771061467369
 20
230.6853275274232
 30
0.0
 11
1296.844790108477
 21
229.7657675469234
 31
0.0
  0
LINE
  5
7A17
330
1A
100
AcDbEntity
  8
外形線
100
AcDbLine
 10
1299.171084788574
 20
226.205553384202
 30
0.0
 11
1299.916192978901
 21
225.8719468982297
 31
0.0
  0
LINE
  5
7A18
330
1A
100
AcDbEntity
  8
外形線
100
AcDbLine
 10
1297.063465291353
 20
228.8775220786654
 30
0.0
 11
1297.419640294917
 21
228.0508392567451
 31
0.0
  0
LINE
  5
7A19
330
1A
100
AcDbEntity
  8
外形線
100
AcDbLine
 10
1297.419640294917
 20
228.0508392567451
 30
0.0
 11
1297.901186006609
 21
227.3138707731594
 31
0.0
  0
LINE
  5
7A1A
330
1A
100
AcDbEntity
  8
外形線
100
AcDbLine
 10
1297.901186006609
 20
227.3138707731594
 30
0.0
 11
1298.491703964768
 21
226.6917132057222
 31
0.0
  0
LINE
  5
7A1B
330
1A
100
AcDbEntity
  8
外形線
100
AcDbLine
 10
1298.491703964768
 20
226.6917132057222
 30
0.0
 11
1299.171084788574
 21
226.205553384202
 31
0.0
  0
LINE
  5
7A1C
330
1A
100
AcDbEntity
  8
外形線
100
AcDbLine
 10
1296.844790108477
 20
229.7657675469234
 30
0.0
 11
1297.063465291353
 21
228.8775220786654
 31
0.0
  0
LINE
  5
7A1D
330
1A
100
AcDbEntity
  8
外形線
100
AcDbLine
 10
1300.701654769989
 20
225.702254316571
 30
0.0
 11
1301.500722202596
 21
225.702254316571
 31
0.0
  0
LINE
  5
7A1E
330
1A
100
AcDbEntity
  8
外形線
100
AcDbLine
 10
1305.431315505214
 20
230.6853275274259
 30
0.0
 11
1305.431315505214
 21
250.6853275274241
 31
0.0
  0
LINE
  5
7A1F
330
1A
100
AcDbEntity
  8
外形線
100
AcDbLine
 10
1296.771061467369
 20
230.6853275274232
 30
0.0
 11
1296.771061467369
 21
248.6853275274232
 31
0.0
  0
LINE
  5
7A20
330
1A
100
AcDbEntity
  8
細線
100
AcDbLine
 10
1297.435703300023
 20
230.6853275274232
 30
0.0
 11
1297.435703300023
 21
247.185327527425
 31
0.0
  0
LINE
  5
7A21
330
1A
100
AcDbEntity
  8
外形線
100
AcDbLine
 10
1306.431315505213
 20
251.6853275274232
 30
0.0
 11
1318.719243020905
 21
251.6853275274232
 31
0.0
  0
LINE
  5
7A22
330
1A
100
AcDbEntity
  8
外形線
100
AcDbLine
 10
1319.719243020905
 20
248.6853275274232
 30
0.0
 11
1324.719243020905
 21
248.6853275274232
 31
0.0
  0
ARC
  5
7A23
330
1A
100
AcDbEntity
  8
外形線
100
AcDbCircle
 10
1324.719243020905
 20
230.6853275274232
 30
0.0
 40
5.0
100
AcDbArc
 50
180.0
 51
270.0
  0
LINE
  5
7A24
330
1A
100
AcDbEntity
  8
外形線
100
AcDbLine
 10
1275.219243020905
 20
225.5513529312091
 30
0.0
 11
1275.219243020905
 21
192.6853275274232
 31
0.0
  0
LINE
  5
7A25
330
1A
100
AcDbEntity
  8
外形線
100
AcDbLine
 10
1277.319243020905
 20
192.6853275274232
 30
0.0
 11
1277.319243020905
 21
192.1853275274241
 31
0.0
  0
ARC
  5
7A26
330
1A
100
AcDbEntity
  8
外形線
100
AcDbCircle
 10
1261.807291266294
 20
192.5278845281671
 30
0.0
 40
1.948349829366278
100
AcDbArc
 50
283.786103946108
 51
316.4431559317617
  0
LINE
  5
7A27
330
1A
100
AcDbEntity
  8
細線
100
AcDbLine
 10
1256.719243020906
 20
183.1837190317326
 30
0.0
 11
1262.719243020905
 21
183.1837190317326
 31
0.0
  0
LINE
  5
7A28
330
1A
100
AcDbEntity
  8
外形線
100
AcDbLine
 10
1256.719243020906
 20
189.1837190317326
 30
0.0
 11
1262.719243020905
 21
189.1837190317326
 31
0.0
  0
LINE
  5
7A29
330
1A
100
AcDbEntity
  8
外形線
100
AcDbLine
 10
1256.262729226198
 20
189.5128744364435
 30
0.0
 11
1256.262729226198
 21
184.6837190317335
 31
0.0
  0
LINE
  5
7A2A
330
1A
100
AcDbEntity
  8
外形線
100
AcDbLine
 10
1255.52186120781
 20
184.6837190317335
 30
0.0
 11
1254.719243020906
 21
184.6837190317335
 31
0.0
  0
LINE
  5
7A2B
330
1A
100
AcDbEntity
  8
外形線
100
AcDbLine
 10
1255.52186120781
 20
184.6837190317335
 30
0.0
 11
1254.719243020906
 21
185.5167410847295
 31
0.0
  0
LINE
  5
7A2C
330
1A
100
AcDbEntity
  8
外形線
100
AcDbLine
 10
1255.52186120781
 20
184.6837190317335
 30
0.0
 11
1256.719243020906
 21
184.6837190317335
 31
0.0
  0
LINE
  5
7A2D
330
1A
100
AcDbEntity
  8
0
 62
     3
100
AcDbLine
 10
1262.719243020905
 20
187.1837190317344
 30
0.0
 11
1263.219243020906
 21
187.1837190317344
 31
0.0
  0
LINE
  5
7A2E
330
1A
100
AcDbEntity
  8
外形線
100
AcDbLine
 10
1262.719243020905
 20
187.1837190317344
 30
0.0
 11
1263.219243020906
 21
187.1837190317344
 31
0.0
  0
LINE
  5
7A2F
330
1A
100
AcDbEntity
  8
0
 62
     3
100
AcDbLine
 10
1260.262729226198
 20
189.1837190317326
 30
0.0
 11
1260.262729226198
 21
189.5814186383102
 31
0.0
  0
ARC
  5
7A30
330
1A
100
AcDbEntity
  8
外形線
100
AcDbCircle
 10
1261.262729226199
 20
189.5814186383102
 30
0.0
 40
1.0
100
AcDbArc
 50
93.00000000000558
 51
180.0
  0
LINE
  5
7A31
330
1A
100
AcDbEntity
  8
外形線
100
AcDbLine
 10
1262.271578977149
 20
190.6356625593823
 30
0.0
 11
1261.210393269957
 21
190.5800481730618
 31
0.0
  0
LINE
  5
7A32
330
1A
100
AcDbEntity
  8
外形線
100
AcDbLine
 10
1252.262729226198
 20
189.5128744364435
 30
0.0
 11
1252.262729226198
 21
189.1837190317326
 31
0.0
  0
LINE
  5
7A33
330
1A
100
AcDbEntity
  8
外形線
100
AcDbLine
 10
1252.262729226198
 20
189.5128744364435
 30
0.0
 11
1260.262729226198
 21
189.5128744364435
 31
0.0
  0
LINE
  5
7A34
330
1A
100
AcDbEntity
  8
細線
100
AcDbLine
 10
1256.719243020906
 20
180.6837190317344
 30
0.0
 11
1262.719243020905
 21
180.6837190317344
 31
0.0
  0
ARC
  5
7A35
330
1A
100
AcDbEntity
  8
外形線
100
AcDbCircle
 10
1264.219243020906
 20
191.185327527425
 30
0.0
 40
1.0
100
AcDbArc
 50
90.0
 51
180.0
  0
LINE
  5
7A36
330
1A
100
AcDbEntity
  8
外形線
100
AcDbLine
 10
1283.71873480481
 20
248.6853275274232
 30
0.0
 11
1287.182541108786
 21
248.6853275274232
 31
0.0
  0
LINE
  5
7A37
330
1A
100
AcDbEntity
  8
外形線
100
AcDbLine
 10
1283.71873480481
 20
248.6853275274232
 30
0.0
 11
1287.182541108786
 21
248.6853275274232
 31
0.0
  0
ARC
  5
7A38
330
1A
100
AcDbEntity
  8
外形線
100
AcDbCircle
 10
1284.311572591022
 20
248.6853275274232
 30
0.0
 40
3.0
100
AcDbArc
 50
90.0
 51
180.0
  0
LINE
  5
7A39
330
1A
100
AcDbEntity
  8
外形線
100
AcDbLine
 10
1283.976204533106
 20
225.7020312461043
 30
0.0
 11
1284.5179091667
 21
225.7020312461043
 31
0.0
  0
ARC
  5
7A3A
330
1A
100
AcDbEntity
  8
外形線
100
AcDbCircle
 10
1281.877703549125
 20
247.6853275274241
 30
0.0
 40
4.0
100
AcDbArc
 50
90.0
 51
176.9999999999946
  0
ARC
  5
7A3B
330
1A
100
AcDbEntity
  8
外形線
100
AcDbCircle
 10
1283.71873480481
 20
246.685327527425
 30
0.0
 40
2.0
100
AcDbArc
 50
90.0
 51
180.0
  0
LINE
  5
7A3C
330
1A
100
AcDbEntity
  8
外形線
100
AcDbLine
 10
1283.443723450308
 20
225.8717314241583
 30
0.0
 11
1283.976204533106
 21
225.7020312461043
 31
0.0
  0
LINE
  5
7A3D
330
1A
100
AcDbEntity
  8
外形線
100
AcDbLine
 10
1281.509799298642
 20
228.8774411510965
 30
0.0
 11
1281.751257831337
 21
228.0507213221861
 31
0.0
  0
LINE
  5
7A3E
330
1A
100
AcDbEntity
  8
外形線
100
AcDbLine
 10
1281.751257831337
 20
228.0507213221861
 30
0.0
 11
1282.077707806229
 21
227.313719847735
 31
0.0
  0
LINE
  5
7A3F
330
1A
100
AcDbEntity
  8
外形線
100
AcDbLine
 10
1282.077707806229
 20
227.313719847735
 30
0.0
 11
1282.478032360956
 21
226.6915344290171
 31
0.0
  0
LINE
  5
7A40
330
1A
100
AcDbEntity
  8
外形線
100
AcDbLine
 10
1282.478032360956
 20
226.6915344290171
 30
0.0
 11
1282.938598922942
 21
226.2053528442418
 31
0.0
  0
LINE
  5
7A41
330
1A
100
AcDbEntity
  8
外形線
100
AcDbLine
 10
1281.361554788877
 20
229.7657263822291
 30
0.0
 11
1281.509799298642
 21
228.8774411510965
 31
0.0
  0
ELLIPSE
  5
7A42
330
1A
100
AcDbEntity
  8
細線
100
AcDbEllipse
 10
1284.654219063692
 20
230.685327527425
 30
0.0
 11
0.0000000000000702
 21
5.00464521551449
 31
0.0
210
0.0
220
0.0
230
1.0
 40
0.5865519197607893
 41
1.570796326794904
 42
2.940551587312731
  0
LINE
  5
7A43
330
1A
100
AcDbEntity
  8
外形線
100
AcDbLine
 10
1282.938598922942
 20
226.2053528442418
 30
0.0
 11
1283.443723450308
 21
225.8717314241583
 31
0.0
  0
LINE
  5
7A44
330
1A
100
AcDbEntity
  8
外形線
100
AcDbLine
 10
1281.311572591022
 20
230.6853275274232
 30
0.0
 11
1281.361554788877
 21
229.7657263822291
 31
0.0
  0
ARC
  5
7A45
330
1A
100
AcDbEntity
  8
外形線
100
AcDbCircle
 10
1275.719243020906
 20
224.6853275274223
 30
0.0
 40
1.0
100
AcDbArc
 50
90.0
 51
120.000000000015
  0
LINE
  5
7A46
330
1A
100
AcDbEntity
  8
外形線
100
AcDbLine
 10
1276.719243020906
 20
225.6853275274241
 30
0.0
 11
1277.883185410106
 21
247.8946713523963
 31
0.0
  0
LINE
  5
7A47
330
1A
100
AcDbEntity
  8
外形線
100
AcDbLine
 10
1281.311572591022
 20
230.6853275274232
 30
0.0
 11
1281.311572591022
 21
248.6853275274232
 31
0.0
  0
LINE
  5
7A48
330
1A
100
AcDbEntity
  8
細線
100
AcDbLine
 10
1281.718734804811
 20
230.6853275274232
 30
0.0
 11
1281.718734804812
 21
246.685327527425
 31
0.0
  0
LINE
  5
7A49
330
1A
100
AcDbEntity
  8
外形線
100
AcDbLine
 10
1287.132558910929
 20
229.7657263822291
 30
0.0
 11
1287.182541108786
 21
230.6853275274232
 31
0.0
  0
LINE
  5
7A4A
330
1A
100
AcDbEntity
  8
外形線
100
AcDbLine
 10
1285.050390249499
 20
225.8717314241583
 30
0.0
 11
1285.555514776865
 21
226.2053528442418
 31
0.0
  0
LINE
  5
7A4B
330
1A
100
AcDbEntity
  8
外形線
100
AcDbLine
 10
1285.555514776865
 20
226.2053528442418
 30
0.0
 11
1286.016081338852
 21
226.6915344290171
 31
0.0
  0
LINE
  5
7A4C
330
1A
100
AcDbEntity
  8
外形線
100
AcDbLine
 10
1286.016081338852
 20
226.6915344290171
 30
0.0
 11
1286.416405893578
 21
227.313719847735
 31
0.0
  0
LINE
  5
7A4D
330
1A
100
AcDbEntity
  8
外形線
100
AcDbLine
 10
1286.416405893578
 20
227.313719847735
 30
0.0
 11
1286.742855868469
 21
228.0507213221861
 31
0.0
  0
LINE
  5
7A4E
330
1A
100
AcDbEntity
  8
外形線
100
AcDbLine
 10
1286.742855868469
 20
228.0507213221861
 30
0.0
 11
1286.984314401164
 21
228.8774411510965
 31
0.0
  0
LINE
  5
7A4F
330
1A
100
AcDbEntity
  8
外形線
100
AcDbLine
 10
1284.5179091667
 20
225.7020312461043
 30
0.0
 11
1285.050390249499
 21
225.8717314241583
 31
0.0
  0
LINE
  5
7A50
330
1A
100
AcDbEntity
  8
外形線
100
AcDbLine
 10
1286.984314401164
 20
228.8774411510965
 30
0.0
 11
1287.132558910929
 21
229.7657263822291
 31
0.0
  0
LINE
  5
7A51
330
1A
100
AcDbEntity
  8
外形線
100
AcDbLine
 10
1287.182541108786
 20
230.6853275274259
 30
0.0
 11
1287.182541108786
 21
248.6853275274232
 31
0.0
  0
LINE
  5
7A52
330
1A
100
AcDbEntity
  8
外形線
100
AcDbLine
 10
1324.719243020905
 20
192.6853275274232
 30
0.0
 11
1275.219243020905
 21
192.6853275274232
 31
0.0
  0
LINE
  5
7A53
330
1A
100
AcDbEntity
  8
外形線
100
AcDbLine
 10
1300.805037237582
 20
251.6853275274232
 30
0.0
 11
1281.877703549125
 21
251.6853275274232
 31
0.0
  0
LINE
  5
7A54
330
1A
100
AcDbEntity
  8
外形線
100
AcDbLine
 10
1275.719243020906
 20
225.6853275274241
 30
0.0
 11
1324.719243020905
 21
225.6853275274241
 31
0.0
  0
ARC
  5
7A55
330
1A
100
AcDbEntity
  8
外形線
100
AcDbCircle
 10
1290.182541108786
 20
248.6853275274232
 30
0.0
 40
3.0
100
AcDbArc
 50
90.0
 51
180.0
  0
LINE
  5
7A56
330
1A
100
AcDbEntity
  8
細線
100
AcDbLine
 10
1245.319243020904
 20
180.6837190317344
 30
0.0
 11
1245.319243020904
 21
183.1837190317326
 31
0.0
  0
LINE
  5
7A57
330
1A
100
AcDbEntity
  8
外形線
100
AcDbLine
 10
1254.719243020906
 20
189.1837190317326
 30
0.0
 11
1245.319243020904
 21
189.1837190317326
 31
0.0
  0
LINE
  5
7A58
330
1A
100
AcDbEntity
  8
細線
100
AcDbLine
 10
1245.319243020904
 20
183.1837190317326
 30
0.0
 11
1254.719243020906
 21
183.1837190317326
 31
0.0
  0
LINE
  5
7A59
330
1A
100
AcDbEntity
  8
細線
100
AcDbLine
 10
1245.319243020904
 20
180.6837190317344
 30
0.0
 11
1254.719243020906
 21
180.6837190317344
 31
0.0
  0
LINE
  5
7A5A
330
1A
100
AcDbEntity
  8
外形線
100
AcDbLine
 10
1276.956177425592
 20
167.3615492195929
 30
0.0
 11
1288.370420604194
 21
179.2764580593491
 31
0.0
  0
LINE
  5
7A5B
330
1A
100
AcDbEntity
  8
外形線
100
AcDbLine
 10
1276.956177425592
 20
167.3615492195929
 30
0.0
 11
1275.150888207448
 21
169.0909800042279
 31
0.0
  0
LINE
  5
7A5C
330
1A
100
AcDbEntity
  8
細線
100
AcDbLine
 10
1256.719243020906
 20
165.1837190317344
 30
0.0
 11
1262.719243020905
 21
165.1837190317344
 31
0.0
  0
LINE
  5
7A5D
330
1A
100
AcDbEntity
  8
細線
100
AcDbLine
 10
1256.719243020906
 20
167.6837190317353
 30
0.0
 11
1262.719243020905
 21
167.6837190317353
 31
0.0
  0
LINE
  5
7A5E
330
1A
100
AcDbEntity
  8
外形線
100
AcDbLine
 10
1256.719243020906
 20
159.1837190317344
 30
0.0
 11
1262.719243020905
 21
159.1837190317344
 31
0.0
  0
LINE
  5
7A5F
330
1A
100
AcDbEntity
  8
外形線
100
AcDbLine
 10
1255.52186120781
 20
163.6837190317326
 30
0.0
 11
1254.719243020906
 21
162.8506969787374
 31
0.0
  0
LINE
  5
7A60
330
1A
100
AcDbEntity
  8
外形線
100
AcDbLine
 10
1255.52186120781
 20
163.6837190317326
 30
0.0
 11
1254.719243020906
 21
163.6837190317326
 31
0.0
  0
LINE
  5
7A61
330
1A
100
AcDbEntity
  8
外形線
100
AcDbLine
 10
1255.52186120781
 20
163.6837190317326
 30
0.0
 11
1256.719243020906
 21
163.6837190317326
 31
0.0
  0
LINE
  5
7A62
330
1A
100
AcDbEntity
  8
0
 62
     3
100
AcDbLine
 10
1262.719243020905
 20
161.1837190317353
 30
0.0
 11
1263.219243020906
 21
161.1837190317353
 31
0.0
  0
LINE
  5
7A63
330
1A
100
AcDbEntity
  8
外形線
100
AcDbLine
 10
1262.719243020905
 20
161.1837190317353
 30
0.0
 11
1263.219243020906
 21
161.1837190317353
 31
0.0
  0
LINE
  5
7A64
330
1A
100
AcDbEntity
  8
細線
100
AcDbLine
 10
1245.319243020904
 20
167.6837190317353
 30
0.0
 11
1245.319243020904
 21
165.1837190317344
 31
0.0
  0
LINE
  5
7A65
330
1A
100
AcDbEntity
  8
細線
100
AcDbLine
 10
1245.319243020904
 20
165.1837190317344
 30
0.0
 11
1254.719243020906
 21
165.1837190317344
 31
0.0
  0
LINE
  5
7A66
330
1A
100
AcDbEntity
  8
細線
100
AcDbLine
 10
1245.319243020904
 20
167.6837190317353
 30
0.0
 11
1254.719243020906
 21
167.6837190317353
 31
0.0
  0
LINE
  5
7A67
330
1A
100
AcDbEntity
  8
外形線
100
AcDbLine
 10
1254.719243020906
 20
159.1837190317344
 30
0.0
 11
1245.319243020904
 21
159.1837190317344
 31
0.0
  0
CIRCLE
  5
7A68
330
1A
100
AcDbEntity
  8
外形線
100
AcDbCircle
 10
1281.760654405821
 20
174.183719031789
 30
0.0
 40
13.80211455718106
  0
LINE
  5
7A69
330
1A
100
AcDbEntity
  8
外形線
100
AcDbLine
 10
1275.150888207448
 20
169.0909800042279
 30
0.0
 11
1286.56513138605
 21
181.0058888439851
 31
0.0
  0
LINE
  5
7A6A
330
1A
100
AcDbEntity
  8
外形線
100
AcDbLine
 10
1255.52186120781
 20
184.6837190317335
 30
0.0
 11
1255.52186120781
 21
163.6837190317326
 31
0.0
  0
LINE
  5
7A6B
330
1A
100
AcDbEntity
  8
外形線
100
AcDbLine
 10
1256.719243020906
 20
159.1837190317344
 30
0.0
 11
1256.719243020906
 21
189.1837190317326
 31
0.0
  0
LINE
  5
7A6C
330
1A
100
AcDbEntity
  8
外形線
100
AcDbLine
 10
1254.719243020906
 20
159.1837190317344
 30
0.0
 11
1254.719243020906
 21
189.1837190317326
 31
0.0
  0
LINE
  5
7A6D
330
1A
100
AcDbEntity
  8
外形線
100
AcDbLine
 10
1262.719243020905
 20
159.1837190317344
 30
0.0
 11
1262.719243020905
 21
189.1837190317326
 31
0.0
  0
LINE
  5
7A6E
330
1A
100
AcDbEntity
  8
外形線
100
AcDbLine
 10
1288.370420604194
 20
179.2764580593491
 30
0.0
 11
1286.56513138605
 21
181.0058888439851
 31
0.0
  0
LINE
  5
7A6F
330
1A
100
AcDbEntity
  8
外形線
100
AcDbLine
 10
1329.719243020906
 20
31.45593852707202
 30
0.0
 11
1330.719243020907
 21
38.57130824945648
 31
0.0
  0
LINE
  5
7A70
330
1A
100
AcDbEntity
  8
外形線
100
AcDbLine
 10
1328.719243020907
 20
28.5454737358275
 30
0.0
 11
1328.719243020908
 21
-139.1300847587445
 31
0.0
  0
LINE
  5
7A71
330
1A
100
AcDbEntity
  8
外形線
100
AcDbLine
 10
1328.519243020906
 20
-331.6590705448386
 30
0.0
 11
1328.719243020907
 21
-331.459070544837
 31
0.0
  0
LINE
  5
7A72
330
1A
100
AcDbEntity
  8
外形線
100
AcDbLine
 10
1329.719243020906
 20
30.04572698660354
 30
0.0
 11
1328.719243020907
 21
28.5454737358275
 31
0.0
  0
LINE
  5
7A73
330
1A
100
AcDbEntity
  8
外形線
100
AcDbLine
 10
1329.719243020906
 20
31.45593852707202
 30
0.0
 11
1329.719243020906
 21
30.04572698660354
 31
0.0
  0
LINE
  5
7A74
330
1A
100
AcDbEntity
  8
外形線
100
AcDbLine
 10
1370.219243020907
 20
145.6558289310958
 30
0.0
 11
1370.219243020907
 21
184.9558289310951
 31
0.0
  0
ARC
  5
7A75
330
1A
100
AcDbEntity
  8
外形線
100
AcDbCircle
 10
1368.096277242887
 20
143.655828931094
 30
0.0
 40
1.0
100
AcDbArc
 50
90.0
 51
145.0000000000053
  0
ARC
  5
7A76
330
1A
100
AcDbEntity
  8
外形線
100
AcDbCircle
 10
1369.219243020906
 20
145.6558289310958
 30
0.0
 40
1.0
100
AcDbArc
 50
270.0
 51
0.0
  0
LINE
  5
7A77
330
1A
100
AcDbEntity
  8
外形線
100
AcDbLine
 10
1340.719242938556
 20
104.2559385270731
 30
0.0
 11
1340.719242938556
 21
110.8559385270725
 31
0.0
  0
ARC
  5
7A78
330
1A
100
AcDbEntity
  8
細線
100
AcDbCircle
 10
1342.4720832801
 20
95.40415128569817
 30
0.0
 40
8.051787241375937
100
AcDbArc
 50
42.70226874022809
 51
137.2977312597719
  0
LINE
  5
7A79
330
1A
100
AcDbEntity
  8
外形線
  6
Continuous
100
AcDbLine
 10
1344.719243277024
 20
103.4559385270747
 30
0.0
 11
1348.389243020907
 21
101.3370610162844
 31
0.0
  0
ARC
  5
7A7A
330
1A
100
AcDbEntity
  8
細線
100
AcDbCircle
 10
1342.4720832801
 20
96.50772576845042
 30
0.0
 40
8.051787241375937
100
AcDbArc
 50
222.7022687402281
 51
317.2977312597719
  0
LINE
  5
7A7B
330
1A
100
AcDbEntity
  8
外形線
  6
Continuous
100
AcDbLine
 10
1344.719243277024
 20
88.45593852707384
 30
0.0
 11
1348.389243020907
 21
90.57481603786142
 31
0.0
  0
LINE
  5
7A7C
330
1A
100
AcDbEntity
  8
外形線
  6
Continuous
100
AcDbLine
 10
1348.389243020907
 20
90.57481603786142
 30
0.0
 11
1348.389243020907
 21
101.3370610162844
 31
0.0
  0
LINE
  5
7A7D
330
1A
100
AcDbEntity
  8
細線
100
AcDbLine
 10
1336.554923539293
 20
100.8647829691351
 30
0.0
 11
1336.554923539293
 21
91.0470940850107
 31
0.0
  0
ARC
  5
7A7E
330
1A
100
AcDbEntity
  8
外形線
  6
Continuous
100
AcDbCircle
 10
1341.519242997506
 20
86.06061497621409
 30
0.0
 40
1.800000000000089
100
AcDbArc
 50
203.5564643091166
 51
228.7609298829172
  0
LINE
  5
7A7F
330
1A
100
AcDbEntity
  8
外形線
  6
Continuous
100
AcDbLine
 10
1341.369242997507
 20
83.66503056394481
 30
0.0
 11
1340.332678712957
 21
84.70707694622229
 31
0.0
  0
ARC
  5
7A80
330
1A
100
AcDbEntity
  8
外形線
  6
Continuous
100
AcDbCircle
 10
1341.519242997506
 20
86.06061497621409
 30
0.0
 40
1.80000000000005
100
AcDbArc
 50
134.999999999993
 51
203.5564643091166
  0
LINE
  5
7A81
330
1A
100
AcDbEntity
  8
外形線
  6
Continuous
100
AcDbLine
 10
1340.246450791372
 20
87.33340718235172
 30
0.0
 11
1341.368982136095
 21
88.45593852707384
 31
0.0
  0
ARC
  5
7A82
330
1A
100
AcDbEntity
  8
外形線
100
AcDbCircle
 10
1341.519242938557
 20
104.2559385270731
 30
0.0
 40
0.8000000000000001
100
AcDbArc
 50
180.0
 51
270.0
  0
ARC
  5
7A83
330
1A
100
AcDbEntity
  8
外形線
100
AcDbCircle
 10
1356.719243020906
 20
127.1558289310949
 30
0.0
 40
1.0
100
AcDbArc
 50
330.0000000000055
 51
0.0
  0
LINE
  5
7A84
330
1A
100
AcDbEntity
  8
外形線
100
AcDbLine
 10
1357.719243020907
 20
127.1558289310949
 30
0.0
 11
1357.719243020907
 21
129.6334386200649
 31
0.0
  0
ARC
  5
7A85
330
1A
100
AcDbEntity
  8
外形線
100
AcDbCircle
 10
1360.719243020905
 20
129.6334386200649
 30
0.0
 40
3.0
100
AcDbArc
 50
145.0000000000053
 51
180.0
  0
LINE
  5
7A86
330
1A
100
AcDbEntity
  8
外形線
100
AcDbLine
 10
1349.719243020907
 20
126.2425268818422
 30
0.0
 11
1349.719243056994
 21
118.614304151001
 31
0.0
  0
LINE
  5
7A87
330
1A
100
AcDbEntity
  8
外形線
100
AcDbLine
 10
1347.719243020906
 20
126.6558289310958
 30
0.0
 11
1347.719243020906
 21
126.2425268818422
 31
0.0
  0
LINE
  5
7A88
330
1A
100
AcDbEntity
  8
外形線
100
AcDbLine
 10
1341.745461244179
 20
112.8559385270744
 30
0.0
 11
1348.719243056993
 21
116.8822533339696
 31
0.0
  0
LINE
  5
7A89
330
1A
100
AcDbEntity
  8
外形線
100
AcDbLine
 10
1340.719242938557
 20
110.8559385270725
 30
0.0
 11
1341.745461244179
 21
111.8559385270753
 31
0.0
  0
LINE
  5
7A8A
330
1A
100
AcDbEntity
  8
外形線
100
AcDbLine
 10
1341.745461244179
 20
111.8559385270753
 30
0.0
 11
1341.745461244179
 21
112.8559385270744
 31
0.0
  0
ARC
  5
7A8B
330
1A
100
AcDbEntity
  8
外形線
100
AcDbCircle
 10
1347.719243056994
 20
118.6143041415396
 30
0.0
 40
2.0
100
AcDbArc
 50
300.000000000015
 51
0.0000002710773015
  0
LINE
  5
7A8C
330
1A
100
AcDbEntity
  8
外形線
100
AcDbLine
 10
1358.261786888039
 20
131.3541679291154
 30
0.0
 11
1367.277125198598
 21
144.2294053674466
 31
0.0
  0
LINE
  5
7A8D
330
1A
100
AcDbEntity
  8
外形線
100
AcDbLine
 10
1330.719243020907
 20
61.45593852707293
 30
0.0
 11
1329.656460212557
 21
66.45593852707384
 31
0.0
  0
LINE
  5
7A8E
330
1A
100
AcDbEntity
  8
外形線
100
AcDbLine
 10
1330.719243020907
 20
61.45593852707293
 30
0.0
 11
1328.035867811263
 21
61.45593852707293
 31
0.0
  0
LINE
  5
7A8F
330
1A
100
AcDbEntity
  8
外形線
100
AcDbLine
 10
1328.035867811263
 20
61.45593852707293
 30
0.0
 11
1328.035867811263
 21
56.45593852707202
 31
0.0
  0
LINE
  5
7A90
330
1A
100
AcDbEntity
  8
外形線
100
AcDbLine
 10
1330.719243020907
 20
61.45593852707293
 30
0.0
 11
1330.719243020907
 21
56.45593852707202
 31
0.0
  0
LINE
  5
7A91
330
1A
100
AcDbEntity
  8
外形線
100
AcDbLine
 10
1330.719243020907
 20
49.45593852707293
 30
0.0
 11
1329.719243020906
 21
49.45593852707293
 31
0.0
  0
LINE
  5
7A92
330
1A
100
AcDbEntity
  8
外形線
100
AcDbLine
 10
1330.719243020907
 20
49.45593852707293
 30
0.0
 11
1330.719243020907
 21
38.57130824945648
 31
0.0
  0
LINE
  5
7A93
330
1A
100
AcDbEntity
  8
外形線
100
AcDbLine
 10
1329.719243020906
 20
56.45593852707202
 30
0.0
 11
1329.719243020906
 21
49.45593852707293
 31
0.0
  0
LINE
  5
7A94
330
1A
100
AcDbEntity
  8
外形線
  6
Continuous
100
AcDbLine
 10
1339.719242999638
 20
66.95593852707384
 30
0.0
 11
1339.71924299922
 21
68.45593852878642
 31
0.0
  0
LINE
  5
7A95
330
1A
100
AcDbEntity
  8
外形線
100
AcDbLine
 10
1339.719242999638
 20
66.95593852707384
 30
0.0
 11
1339.219242999776
 21
66.45593852707384
 31
0.0
  0
LINE
  5
7A96
330
1A
100
AcDbEntity
  8
外形線
  6
Continuous
100
AcDbLine
 10
1339.719242997506
 20
68.45593852707202
 30
0.0
 11
1341.369242997507
 21
70.10593852707348
 31
0.0
  0
LINE
  5
7A97
330
1A
100
AcDbEntity
  8
外形線
  6
Continuous
100
AcDbLine
 10
1341.369242997507
 20
70.10593852707348
 30
0.0
 11
1341.369242997507
 21
83.66503056394481
 31
0.0
  0
LINE
  5
7A98
330
1A
100
AcDbEntity
  8
細線
  6
Continuous
100
AcDbLine
 10
1339.869242997507
 20
85.34124024771859
 30
0.0
 11
1339.869242997507
 21
68.60593852707438
 31
0.0
  0
LINE
  5
7A99
330
1A
100
AcDbEntity
  8
外形線
100
AcDbLine
 10
1374.219243020906
 20
225.5513529312091
 30
0.0
 11
1374.219243020906
 21
192.6853275274232
 31
0.0
  0
LINE
  5
7A9A
330
1A
100
AcDbEntity
  8
外形線
100
AcDbLine
 10
1374.219243020906
 20
188.3442770609497
 30
0.0
 11
1374.219243020906
 21
192.1853275274241
 31
0.0
  0
ARC
  5
7A9B
330
1A
100
AcDbEntity
  8
0
 62
     3
100
AcDbCircle
 10
1372.219243020905
 20
188.3442770609497
 30
0.0
 40
2.0
100
AcDbArc
 50
314.9999999999931
 51
0.0
  0
LINE
  5
7A9C
330
1A
100
AcDbEntity
  8
外形線
100
AcDbLine
 10
1373.633456583279
 20
186.9300634985773
 30
0.0
 11
1371.659222015798
 21
184.9558289310951
 31
0.0
  0
LINE
  5
7A9D
330
1A
100
AcDbEntity
  8
外形線
100
AcDbLine
 10
1372.119243020906
 20
192.6853275274232
 30
0.0
 11
1372.119243020906
 21
192.1853275274241
 31
0.0
  0
ARC
  5
7A9E
330
1A
100
AcDbEntity
  8
外形線
100
AcDbCircle
 10
1367.560782492687
 20
247.6853275274241
 30
0.0
 40
4.0
100
AcDbArc
 50
3.000000000005424
 51
90.0
  0
ARC
  5
7A9F
330
1A
100
AcDbEntity
  8
外形線
100
AcDbCircle
 10
1365.12691345079
 20
248.6853275274232
 30
0.0
 40
3.0
100
AcDbArc
 50
0.0
 51
90.0
  0
ARC
  5
7AA0
330
1A
100
AcDbEntity
  8
外形線
100
AcDbCircle
 10
1365.719751237
 20
246.685327527425
 30
0.0
 40
2.0
100
AcDbArc
 50
0.0
 51
90.0
  0
LINE
  5
7AA1
330
1A
100
AcDbEntity
  8
外形線
100
AcDbLine
 10
1366.49988711887
 20
226.2053528442418
 30
0.0
 11
1365.994762591504
 21
225.8717314241583
 31
0.0
210
0.0
220
0.0
230
-1.0
  0
LINE
  5
7AA2
330
1A
100
AcDbEntity
  8
外形線
100
AcDbLine
 10
1366.960453680856
 20
226.6915344290171
 30
0.0
 11
1366.49988711887
 21
226.2053528442418
 31
0.0
210
0.0
220
0.0
230
-1.0
  0
LINE
  5
7AA3
330
1A
100
AcDbEntity
  8
外形線
100
AcDbLine
 10
1365.994762591504
 20
225.8717314241583
 30
0.0
 11
1365.462281508705
 21
225.7020312461043
 31
0.0
210
0.0
220
0.0
230
-1.0
  0
LINE
  5
7AA4
330
1A
100
AcDbEntity
  8
外形線
100
AcDbLine
 10
1365.462281508705
 20
225.7020312461043
 30
0.0
 11
1364.92057687511
 21
225.7020312461043
 31
0.0
210
0.0
220
0.0
230
-1.0
  0
LINE
  5
7AA5
330
1A
100
AcDbEntity
  8
外形線
100
AcDbLine
 10
1364.92057687511
 20
225.7020312461043
 30
0.0
 11
1364.388095792313
 21
225.8717314241583
 31
0.0
210
0.0
220
0.0
230
-1.0
  0
LINE
  5
7AA6
330
1A
100
AcDbEntity
  8
外形線
100
AcDbLine
 10
1364.388095792313
 20
225.8717314241583
 30
0.0
 11
1363.882971264947
 21
226.2053528442418
 31
0.0
210
0.0
220
0.0
230
-1.0
  0
ELLIPSE
  5
7AA7
330
1A
100
AcDbEntity
  8
細線
100
AcDbEllipse
 10
1364.784266978118
 20
230.685327527425
 30
0.0
 11
-0.0000000000000657
 21
5.00464521551449
 31
0.0
210
0.0
220
0.0
230
-1.0
 40
0.5865519197607893
 41
1.570796326794904
 42
2.940551587312731
  0
LINE
  5
7AA8
330
1A
100
AcDbEntity
  8
外形線
100
AcDbLine
 10
1368.12691345079
 20
230.6853275274232
 30
0.0
 11
1368.076931252935
 21
229.7657263822291
 31
0.0
210
0.0
220
0.0
230
-1.0
  0
LINE
  5
7AA9
330
1A
100
AcDbEntity
  8
外形線
100
AcDbLine
 10
1367.928686743168
 20
228.8774411510965
 30
0.0
 11
1367.687228210474
 21
228.0507213221861
 31
0.0
210
0.0
220
0.0
230
-1.0
  0
LINE
  5
7AAA
330
1A
100
AcDbEntity
  8
外形線
100
AcDbLine
 10
1367.687228210474
 20
228.0507213221861
 30
0.0
 11
1367.360778235583
 21
227.313719847735
 31
0.0
210
0.0
220
0.0
230
-1.0
  0
LINE
  5
7AAB
330
1A
100
AcDbEntity
  8
外形線
100
AcDbLine
 10
1367.360778235583
 20
227.313719847735
 30
0.0
 11
1366.960453680856
 21
226.6915344290171
 31
0.0
210
0.0
220
0.0
230
-1.0
  0
LINE
  5
7AAC
330
1A
100
AcDbEntity
  8
外形線
100
AcDbLine
 10
1368.076931252935
 20
229.7657263822291
 30
0.0
 11
1367.928686743168
 21
228.8774411510965
 31
0.0
210
0.0
220
0.0
230
-1.0
  0
LINE
  5
7AAD
330
1A
100
AcDbEntity
  8
外形線
100
AcDbLine
 10
1368.12691345079
 20
230.6853275274232
 30
0.0
 11
1368.12691345079
 21
248.6853275274232
 31
0.0
  0
LINE
  5
7AAE
330
1A
100
AcDbEntity
  8
細線
100
AcDbLine
 10
1367.719751237001
 20
230.6853275274232
 30
0.0
 11
1367.719751237
 21
246.685327527425
 31
0.0
  0
ARC
  5
7AAF
330
1A
100
AcDbEntity
  8
外形線
100
AcDbCircle
 10
1373.719243020906
 20
224.6853275274223
 30
0.0
 40
1.0
100
AcDbArc
 50
59.99999999998492
 51
90.0
  0
LINE
  5
7AB0
330
1A
100
AcDbEntity
  8
外形線
100
AcDbLine
 10
1372.719243020906
 20
225.6853275274241
 30
0.0
 11
1371.555300631705
 21
247.8946713523963
 31
0.0
  0
ARC
  5
7AB1
330
1A
100
AcDbEntity
  8
外形線
100
AcDbCircle
 10
1359.255944933025
 20
248.6853275274232
 30
0.0
 40
3.0
100
AcDbArc
 50
0.0
 51
90.0
  0
ARC
  5
7AB2
330
1A
100
AcDbEntity
  8
外形線
100
AcDbCircle
 10
1349.667424574443
 20
248.6853275274232
 30
0.0
 40
3.0
100
AcDbArc
 50
0.0
 51
90.0
  0
ARC
  5
7AB3
330
1A
100
AcDbEntity
  8
外形線
100
AcDbCircle
 10
1350.502782741787
 20
247.185327527425
 30
0.0
 40
1.5
100
AcDbArc
 50
0.0
 51
90.0
  0
LINE
  5
7AB4
330
1A
100
AcDbEntity
  8
外形線
100
AcDbLine
 10
1352.667424574443
 20
230.6853275274232
 30
0.0
 11
1352.593695933334
 21
229.7657675469234
 31
0.0
210
0.0
220
0.0
230
-1.0
  0
LINE
  5
7AB5
330
1A
100
AcDbEntity
  8
外形線
100
AcDbLine
 10
1352.375020750459
 20
228.8775220786654
 30
0.0
 11
1352.018845746893
 21
228.0508392567451
 31
0.0
210
0.0
220
0.0
230
-1.0
  0
LINE
  5
7AB6
330
1A
100
AcDbEntity
  8
外形線
100
AcDbLine
 10
1350.267401253236
 20
226.205553384202
 30
0.0
 11
1349.52229306291
 21
225.8719468982297
 31
0.0
210
0.0
220
0.0
230
-1.0
  0
LINE
  5
7AB7
330
1A
100
AcDbEntity
  8
外形線
100
AcDbLine
 10
1351.537300035201
 20
227.3138707731594
 30
0.0
 11
1350.946782077044
 21
226.6917132057222
 31
0.0
210
0.0
220
0.0
230
-1.0
  0
LINE
  5
7AB8
330
1A
100
AcDbEntity
  8
外形線
100
AcDbLine
 10
1350.946782077044
 20
226.6917132057222
 30
0.0
 11
1350.267401253236
 21
226.205553384202
 31
0.0
210
0.0
220
0.0
230
-1.0
  0
LINE
  5
7AB9
330
1A
100
AcDbEntity
  8
外形線
100
AcDbLine
 10
1352.018845746893
 20
228.0508392567451
 30
0.0
 11
1351.537300035201
 21
227.3138707731594
 31
0.0
210
0.0
220
0.0
230
-1.0
  0
LINE
  5
7ABA
330
1A
100
AcDbEntity
  8
外形線
100
AcDbLine
 10
1352.593695933334
 20
229.7657675469234
 30
0.0
 11
1352.375020750459
 21
228.8775220786654
 31
0.0
210
0.0
220
0.0
230
-1.0
  0
LINE
  5
7ABB
330
1A
100
AcDbEntity
  8
外形線
100
AcDbLine
 10
1362.305927130882
 20
229.7657263822291
 30
0.0
 11
1362.255944933025
 21
230.6853275274232
 31
0.0
210
0.0
220
0.0
230
-1.0
  0
LINE
  5
7ABC
330
1A
100
AcDbEntity
  8
外形線
100
AcDbLine
 10
1363.422404702959
 20
226.6915344290171
 30
0.0
 11
1363.022080148234
 21
227.313719847735
 31
0.0
210
0.0
220
0.0
230
-1.0
  0
LINE
  5
7ABD
330
1A
100
AcDbEntity
  8
外形線
100
AcDbLine
 10
1363.022080148234
 20
227.313719847735
 30
0.0
 11
1362.695630173343
 21
228.0507213221861
 31
0.0
210
0.0
220
0.0
230
-1.0
  0
LINE
  5
7ABE
330
1A
100
AcDbEntity
  8
外形線
100
AcDbLine
 10
1362.695630173343
 20
228.0507213221861
 30
0.0
 11
1362.454171640647
 21
228.8774411510965
 31
0.0
210
0.0
220
0.0
230
-1.0
  0
LINE
  5
7ABF
330
1A
100
AcDbEntity
  8
外形線
100
AcDbLine
 10
1362.454171640647
 20
228.8774411510965
 30
0.0
 11
1362.305927130882
 21
229.7657263822291
 31
0.0
210
0.0
220
0.0
230
-1.0
  0
LINE
  5
7AC0
330
1A
100
AcDbEntity
  8
外形線
100
AcDbLine
 10
1362.255944933025
 20
230.6853275274259
 30
0.0
 11
1362.255944933025
 21
248.6853275274232
 31
0.0
  0
LINE
  5
7AC1
330
1A
100
AcDbEntity
  8
外形線
100
AcDbLine
 10
1352.667424574443
 20
230.6853275274232
 30
0.0
 11
1352.667424574443
 21
248.6853275274232
 31
0.0
  0
LINE
  5
7AC2
330
1A
100
AcDbEntity
  8
細線
100
AcDbLine
 10
1352.002782741789
 20
230.6853275274232
 30
0.0
 11
1352.002782741789
 21
247.185327527425
 31
0.0
  0
LINE
  5
7AC3
330
1A
100
AcDbEntity
  8
外形線
100
AcDbLine
 10
1343.007170536598
 20
251.6853275274232
 30
0.0
 11
1330.719243020906
 21
251.6853275274232
 31
0.0
  0
ARC
  5
7AC4
330
1A
100
AcDbEntity
  8
外形線
100
AcDbCircle
 10
1330.719243020906
 20
250.6853275274241
 30
0.0
 40
1.0
100
AcDbArc
 50
90.0
 51
180.0
  0
LINE
  5
7AC5
330
1A
100
AcDbEntity
  8
外形線
100
AcDbLine
 10
1347.836238101863
 20
251.2890286919326
 30
0.0
 11
1345.864541760628
 21
248.6853275274232
 31
0.0
  0
ARC
  5
7AC6
330
1A
100
AcDbEntity
  8
外形線
100
AcDbCircle
 10
1343.007170536598
 20
250.6853275274241
 30
0.0
 40
1.0
100
AcDbArc
 50
0.0
 51
90.0
  0
ARC
  5
7AC7
330
1A
100
AcDbEntity
  8
外形線
100
AcDbCircle
 10
1348.63344880423
 20
250.6853275274241
 30
0.0
 40
1.0
100
AcDbArc
 50
90.0
 51
142.8645635297019
  0
LINE
  5
7AC8
330
1A
100
AcDbEntity
  8
外形線
100
AcDbLine
 10
1347.937763839215
 20
225.702254316571
 30
0.0
 11
1347.15230204813
 21
225.8719468982297
 31
0.0
210
0.0
220
0.0
230
-1.0
  0
LINE
  5
7AC9
330
1A
100
AcDbEntity
  8
外形線
100
AcDbLine
 10
1347.15230204813
 20
225.8719468982297
 30
0.0
 11
1346.407193857802
 21
226.205553384202
 31
0.0
210
0.0
220
0.0
230
-1.0
  0
LINE
  5
7ACA
330
1A
100
AcDbEntity
  8
外形線
100
AcDbLine
 10
1346.407193857802
 20
226.205553384202
 30
0.0
 11
1345.727813033994
 21
226.6917132057222
 31
0.0
210
0.0
220
0.0
230
-1.0
  0
LINE
  5
7ACB
330
1A
100
AcDbEntity
  8
外形線
100
AcDbLine
 10
1348.736831271823
 20
225.702254316571
 30
0.0
 11
1347.937763839215
 21
225.702254316571
 31
0.0
210
0.0
220
0.0
230
-1.0
  0
LINE
  5
7ACC
330
1A
100
AcDbEntity
  8
外形線
100
AcDbLine
 10
1344.080899177705
 20
229.7657675469234
 30
0.0
 11
1344.007170536598
 21
230.6853275274232
 31
0.0
210
0.0
220
0.0
230
-1.0
  0
LINE
  5
7ACD
330
1A
100
AcDbEntity
  8
外形線
100
AcDbLine
 10
1345.137295075838
 20
227.3138707731594
 30
0.0
 11
1344.655749364146
 21
228.0508392567451
 31
0.0
210
0.0
220
0.0
230
-1.0
  0
LINE
  5
7ACE
330
1A
100
AcDbEntity
  8
外形線
100
AcDbLine
 10
1344.655749364146
 20
228.0508392567451
 30
0.0
 11
1344.299574360582
 21
228.8775220786654
 31
0.0
210
0.0
220
0.0
230
-1.0
  0
LINE
  5
7ACF
330
1A
100
AcDbEntity
  8
外形線
100
AcDbLine
 10
1344.299574360582
 20
228.8775220786654
 30
0.0
 11
1344.080899177705
 21
229.7657675469234
 31
0.0
210
0.0
220
0.0
230
-1.0
  0
LINE
  5
7AD0
330
1A
100
AcDbEntity
  8
外形線
100
AcDbLine
 10
1345.727813033994
 20
226.6917132057222
 30
0.0
 11
1345.137295075838
 21
227.3138707731594
 31
0.0
210
0.0
220
0.0
230
-1.0
  0
LINE
  5
7AD1
330
1A
100
AcDbEntity
  8
外形線
100
AcDbLine
 10
1329.719243020906
 20
230.6853275274232
 30
0.0
 11
1329.719243020906
 21
250.6853275274241
 31
0.0
  0
LINE
  5
7AD2
330
1A
100
AcDbEntity
  8
外形線
100
AcDbLine
 10
1344.007170536598
 20
230.6853275274259
 30
0.0
 11
1344.007170536598
 21
250.6853275274241
 31
0.0
  0
LINE
  5
7AD3
330
1A
100
AcDbEntity
  8
外形線
100
AcDbLine
 10
1350.621754567399
 20
248.6853275274232
 30
0.0
 11
1344.007170536598
 21
248.6853275274232
 31
0.0
  0
LINE
  5
7AD4
330
1A
100
AcDbEntity
  8
外形線
100
AcDbLine
 10
1350.621754567399
 20
248.6853275274232
 30
0.0
 11
1344.507170536597
 21
248.6853275274232
 31
0.0
  0
LINE
  5
7AD5
330
1A
100
AcDbEntity
  8
外形線
100
AcDbLine
 10
1349.52229306291
 20
225.8719468982297
 30
0.0
 11
1348.736831271823
 21
225.702254316571
 31
0.0
210
0.0
220
0.0
230
-1.0
  0
ELLIPSE
  5
7AD6
330
1A
100
AcDbEntity
  8
細線
100
AcDbEllipse
 10
1347.672655722865
 20
230.685327527425
 30
0.0
 11
0.000000000000014
 21
5.198088632108957
 31
0.0
210
0.0
220
0.0
230
-1.0
 40
0.8330229292695726
 41
1.570796326794884
 42
2.864635972754259
  0
LINE
  5
7AD7
330
1A
100
AcDbEntity
  8
外形線
100
AcDbLine
 10
1365.338723062609
 20
248.6853275274232
 30
0.0
 11
1362.255944933025
 21
248.6853275274232
 31
0.0
  0
LINE
  5
7AD8
330
1A
100
AcDbEntity
  8
外形線
100
AcDbLine
 10
1365.719751237
 20
248.6853275274232
 30
0.0
 11
1363.255944933026
 21
248.6853275274232
 31
0.0
  0
LINE
  5
7AD9
330
1A
100
AcDbEntity
  8
外形線
100
AcDbLine
 10
1363.882971264947
 20
226.2053528442418
 30
0.0
 11
1363.422404702959
 21
226.6915344290171
 31
0.0
210
0.0
220
0.0
230
-1.0
  0
LINE
  5
7ADA
330
1A
100
AcDbEntity
  8
外形線
100
AcDbLine
 10
1348.63344880423
 20
251.6853275274232
 30
0.0
 11
1367.560782492687
 21
251.6853275274232
 31
0.0
  0
DIMENSION
  5
7ADB
330
1A
100
AcDbEntity
  8
寸法線
 48
10.0
100
AcDbDimension
  2
*D11
 10
1411.525960140034
 20
88.45592890638794
 30
0.0
 11
1405.900960140034
 21
170.0706234065628
 31
0.0
 70
    32
  1
163
 71
     5
 42
163.2293890003493
  3
ISO-25
100
AcDbAlignedDimension
 13
1367.560778948785
 23
251.6853179067373
 33
0.0
 14
1344.719239733122
 24
88.45592890638796
 34
0.0
 50
90.0
100
AcDbRotatedDimension
1001
ACAD
1000
DSTYLE
1002
{
1070
    41
1040
6.0
1070
    47
1040
0.1
1070
    48
1040
0.1
1070
    73
1070
     0
1070
   140
1040
10.0
1070
   271
1070
     1
1070
   272
1070
     1
1070
   341
1005
2AE3
1070
   342
1005
2AE3
1002
}
  0
MTEXT
  5
7ADC
102
{ACAD_REACTORS
330
7ADD
102
}
330
1A
100
AcDbEntity
  8
寸法線
 48
10.0
100
AcDbMText
 10
1222.150646035368
 20
123.0396536729647
 30
0.0
 40
10.0
 41
0.0
 71
     9
 72
     1
  1
2×M20
 73
     1
 44
1.0
  0
LEADER
  5
7ADD
330
1A
100
AcDbEntity
  8
寸法線
 48
10.0
100
AcDbLeader
  3
ISO-25
 73
     0
 75
     1
 40
10.00196850393701
 41
39.26181102362204
 76
     3
 10
1244.372312488781
 20
160.1734976870227
 30
0.0
 10
1229.836301428397
 20
127.0778259166952
 30
0.0
 10
1223.836301428397
 20
127.0778259166952
 30
0.0
340
7ADC
213
1.060655393029037
223
4.038172243730514
233
0.0
1001
ACAD
1000
DSTYLE
1002
{
1070
   147
1040
0.625
1070
    77
1070
     0
1070
    41
1040
6.0
1070
    47
1040
0.1
1070
    48
1040
0.1
1070
    73
1070
     0
1070
   140
1040
5.0
1070
   271
1070
     1
1070
   272
1070
     1
1070
   341
1005
2AE3
1070
   342
1005
2AE3
1002
}
  0
MTEXT
  5
7ADE
102
{ACAD_REACTORS
330
7ADF
102
}
330
1A
100
AcDbEntity
  8
寸法線
 48
10.0
100
AcDbMText
 10
1253.198039085741
 20
102.1696436121535
 30
0.0
 40
10.0
 41
0.0
 71
     9
 72
     1
  1
\A1;2×NPT{\H0.7x;\S1#2;}"
 73
     1
 44
1.0
  0
LEADER
  5
7ADF
330
1A
100
AcDbEntity
  8
寸法線
 48
10.0
100
AcDbLeader
  3
ISO-25
 73
     0
 75
     1
 40
12.9513779527559
 41
54.42992782152231
 76
     3
 10
1276.374663644477
 20
166.4369976641098
 30
0.0
 10
1259.823039085741
 20
106.7783634859686
 30
0.0
 10
1253.823039085741
 20
106.7783634859686
 30
0.0
340
7ADE
213
0.0
223
4.608719873815061
233
0.0
1001
ACAD
1000
DSTYLE
1002
{
1070
   147
1040
0.625
1070
    77
1070
     0
1070
    41
1040
6.0
1070
    47
1040
0.1
1070
    48
1040
0.1
1070
    73
1070
     0
1070
   140
1040
5.0
1070
   271
1070
     1
1070
   272
1070
     1
1070
   341
1005
2AE3
1070
   342
1005
2AE3
1002
}
  0
DIMENSION
  5
7AE0
330
1A
100
AcDbEntity
  8
寸法線
 48
10.0
100
AcDbDimension
  2
*D12
 10
1341.369242997507
 20
45.25089489286756
 30
0.0
 11
1356.25312647399
 21
45.25089489286756
 31
0.0
 70
   160
  1
G1"
 71
     5
 42
33.29999995320213
  3
ISO-25
100
AcDbAlignedDimension
 13
1308.069243044305
 23
70.10593852707348
 33
0.0
 14
1341.369242997507
 24
70.10593852707348
 34
0.0
100
AcDbRotatedDimension
1001
ACAD
1000
DSTYLE
1002
{
1070
    41
1040
6.0
1070
    47
1040
0.1
1070
    48
1040
0.1
1070
    73
1070
     0
1070
   140
1040
10.0
1070
   271
1070
     1
1070
   272
1070
     1
1070
   341
1005
2AE3
1070
   342
1005
2AE3
1002
}
  0
DIMENSION
  5
7AE1
330
1A
100
AcDbEntity
  8
寸法線
 48
10.0
100
AcDbDimension
  2
*D13
 10
1328.719278844179
 20
-188.7933096388735
 30
0.0
 11
1300.341436300924
 21
-188.7933096388735
 31
0.0
 70
   160
  1
φ<>
 71
     5
 42
8.002842543254928
  3
ISO-25
100
AcDbAlignedDimension
 13
1320.716436300924
 23
-188.7933096388735
 33
0.0
 14
1328.719278844179
 24
-188.7933096388735
 34
0.0
 50
180.0
100
AcDbRotatedDimension
1001
ACAD
1000
DSTYLE
1002
{
1070
    41
1040
6.0
1070
    47
1040
0.1
1070
    48
1040
0.1
1070
    73
1070
     0
1070
   140
1040
10.0
1070
   271
1070
     1
1070
   272
1070
     1
1070
   341
1005
2AE3
1070
   342
1005
2AE3
1002
}
  0
DIMENSION
  5
7AE2
330
1A
100
AcDbEntity
  8
寸法線
 48
10.0
100
AcDbDimension
  2
*D14
 10
1411.525960140034
 20
-331.6590705448387
 30
0.0
 11
1401.525960140034
 21
-121.6015708192251
 31
0.0
 70
    32
  1
L
 71
     5
 42
420.1149994512266
  3
ISO-25
100
AcDbAlignedDimension
 13
1411.525960140034
 23
88.45592890638796
 33
0.0
 14
1328.519243020906
 24
-331.6590705448386
 34
0.0
 50
90.0
100
AcDbRotatedDimension
1001
ACAD
1000
DSTYLE
1002
{
1070
    41
1040
6.0
1070
    47
1040
0.1
1070
    48
1040
0.1
1070
    73
1070
     0
1070
    77
1070
     0
1070
   140
1040
10.0
1070
   271
1070
     1
1070
   272
1070
     1
1070
   341
1005
2AE3
1070
   342
1005
2AE3
1002
}
  0
LINE
  5
7AE3
330
1A
100
AcDbEntity
  8
中心線
 48
10.0
100
AcDbLine
 10
1324.719243020905
 20
-337.8931431378535
 30
0.0
 11
1324.719243020905
 21
267.3766724138029
 31
0.0
  0
LINE
  5
7AE4
330
1A
100
AcDbEntity
  8
中心線
 48
10.0
100
AcDbLine
 10
1230.572822836773
 20
174.1837190317335
 30
0.0
 11
1302.703396755409
 21
174.1837190317335
 31
0.0
  0
LINE
  5
7BCA
330
1A
100
AcDbEntity
  8
寸法線
 48
10.0
100
AcDbLine
 10
795.926793240782
 20
-456.2203922074285
 30
0.0
 11
1231.352790289369
 21
-456.2203922074285
 31
0.0
  0
MTEXT
  5
7BCB
330
1A
100
AcDbEntity
  8
寸法線
 48
10.0
100
AcDbMText
 10
798.791325680186
 20
-305.6542662614721
 30
0.0
 40
10.0
 41
226.1037037037037
 71
     1
 72
     5
  1
仕様
 73
     1
 44
1.0
  0
MTEXT
  5
7BCC
330
1A
100
AcDbEntity
  8
寸法線
 48
10.0
100
AcDbMText
 10
1166.833631247244
 20
-575.7906055140092
 30
0.0
 40
5.0
 41
17.84049369747208
 71
     1
 72
     5
  1
2
 73
     1
 44
1.0
  0
LINE
  5
7BCD
330
1A
100
AcDbEntity
  8
寸法線
 48
10.0
100
AcDbLine
 10
795.926793240782
 20
-321.8340081710723
 30
0.0
 11
795.926793240782
 21
-587.9291900343006
 31
0.0
  0
LINE
  5
7BCE
330
1A
100
AcDbEntity
  8
寸法線
 48
10.0
100
AcDbLine
 10
835.3016999685243
 20
-539.0433040040261
 30
0.0
 11
1231.352790289369
 21
-539.0433040040261
 31
0.0
  0
LINE
  5
7BCF
330
1A
100
AcDbEntity
  8
寸法線
 48
10.0
100
AcDbLine
 10
835.3016999685243
 20
-522.9142135884649
 30
0.0
 11
1231.352790289369
 21
-522.9142135884649
 31
0.0
  0
LINE
  5
7BD0
330
1A
100
AcDbEntity
  8
寸法線
 48
10.0
100
AcDbLine
 10
835.3016999685241
 20
-389.4549653951409
 30
0.0
 11
835.3016999685241
 21
-438.2284776495528
 31
0.0
  0
LINE
  5
7BD1
330
1A
100
AcDbEntity
  8
寸法線
 48
10.0
100
AcDbLine
 10
887.0827273181019
 20
-422.4867405431273
 30
0.0
 11
887.0827273181019
 21
-471.2602527975393
 31
0.0
  0
LINE
  5
7BD2
330
1A
100
AcDbEntity
  8
寸法線
 48
10.0
100
AcDbLine
 10
795.926793240782
 20
-474.2011884156147
 30
0.0
 11
1231.352790289369
 21
-474.2011884156147
 31
0.0
  0
LINE
  5
7BD3
330
1A
100
AcDbEntity
  8
寸法線
 48
10.0
100
AcDbLine
 10
795.9267932407822
 20
-438.7781468531513
 30
0.0
 11
1231.352790289369
 21
-438.7781468531513
 31
0.0
  0
LINE
  5
7BD4
330
1A
100
AcDbEntity
  8
寸法線
 48
10.0
100
AcDbLine
 10
835.3016999685241
 20
-421.7183538887794
 30
0.0
 11
1231.352790289369
 21
-421.7183538887791
 31
0.0
  0
LINE
  5
7BD5
330
1A
100
AcDbEntity
  8
寸法線
 48
10.0
100
AcDbLine
 10
835.3016999685241
 20
-405.9708529691341
 30
0.0
 11
1231.352790289369
 21
-405.9708529691341
 31
0.0
  0
LINE
  5
7BD6
330
1A
100
AcDbEntity
  8
寸法線
 48
10.0
100
AcDbLine
 10
795.926793240782
 20
-321.8340081710723
 30
0.0
 11
1231.352790289369
 21
-321.8340081710723
 31
0.0
  0
LINE
  5
7BD7
330
1A
100
AcDbEntity
  8
寸法線
 48
10.0
100
AcDbLine
 10
887.0827273181019
 20
-587.9291900343006
 30
0.0
 11
887.0827273181019
 21
-321.8340081710723
 31
0.0
  0
MTEXT
  5
7BD8
330
1A
100
AcDbEntity
  8
寸法線
 48
10.0
100
AcDbMText
 10
892.2300712465737
 20
-326.096968267468
 30
0.0
 40
10.0
 41
437.2997424168067
 71
     1
 72
     5
  3
アルミニウム合金粉体塗装\PSUS316Ti相当\Pバイトン\Pねじ込み式　G1"\P-30\U+2103～+200\U+2103\P-30\U+2103～+90\U+2103\P-30\U+2103～+60\U+2103（SAP-300ディスプレイ装着時-20\U+2103～+60\U+2103）\P最小-0.1Pa（abs）、最大1.6MPa\P定格DC24V、DC18～35V（レベル
  1
計入力端子での電圧）\Pアナログ：4～20mA(3.9～20.5mA)、エラー出力として22mA\Pディジタル：HARTインタフェース、端子抵抗最大750Ω\P表示：SAP-300 LCDドットマトリックス\P液体：±5mm\P±3μA\PIP65\P2×M20、2×1/2" NPT、シールド線：0.5～2.5mm
 73
     1
 44
1.0
  0
LINE
  5
7BDA
330
1A
100
AcDbEntity
  8
寸法線
 48
10.0
100
AcDbLine
 10
795.926793240782
 20
-389.4549653951408
 30
0.0
 11
1231.352790289369
 21
-389.4549653951408
 31
0.0
  0
LINE
  5
7BDB
330
1A
100
AcDbEntity
  8
寸法線
 48
10.0
100
AcDbLine
 10
795.926793240782
 20
-373.1637363219213
 30
0.0
 11
1231.352790289369
 21
-373.1637363219213
 31
0.0
  0
LINE
  5
7BDC
330
1A
100
AcDbEntity
  8
寸法線
 48
10.0
100
AcDbLine
 10
1231.352790289369
 20
-321.8340081710723
 30
0.0
 11
1231.352790289369
 21
-587.9291900343007
 31
0.0
  0
LINE
  5
7BDD
330
1A
100
AcDbEntity
  8
寸法線
 48
10.0
100
AcDbLine
 10
795.926793240782
 20
-356.6218708963158
 30
0.0
 11
1231.352790289369
 21
-356.6218708963158
 31
0.0
  0
MTEXT
  5
7BDE
330
1A
100
AcDbEntity
  8
寸法線
 48
10.0
100
AcDbMText
 10
800.4013483197043
 20
-442.8494362557962
 30
0.0
 40
10.0
 41
86.68137899839749
 71
     1
 72
     5
  1
圧力\P電源電圧\P出力\P\P\P\P\P保護等級\P導線取出口
 73
     1
 44
1.0
  0
MTEXT
  5
7BDF
330
1A
100
AcDbEntity
  8
寸法線
 48
10.0
100
AcDbMText
 10
838.7664861042804
 20
-392.0155658419446
 30
0.0
 40
10.0
 41
53.46358514229328
 71
     1
 72
     5
  1
被測定物\P接続部\P周囲
 73
     1
 44
1.0
  0
MTEXT
  5
7BE0
330
1A
100
AcDbEntity
  8
寸法線
 48
10.0
100
AcDbMText
 10
800.2759394929773
 20
-392.569821499991
 30
0.0
 40
10.0
 41
26.28878781605536
 71
     1
 72
     5
  1
温度
 73
     1
 44
1.0
  0
MTEXT
  5
7BE1
330
1A
100
AcDbEntity
  8
寸法線
 48
10.0
100
AcDbMText
 10
801.4953706825947
 20
-326.0638860570617
 30
0.0
 40
10.0
 41
226.1037037037037
 71
     1
 72
     5
  1
ハウジング材質\Pプローブ材質\Pシール材質\P取付方式
 73
     1
 44
1.0
  0
MTEXT
  5
7BE2
330
1A
100
AcDbEntity
  8
寸法線
 48
10.0
100
AcDbMText
 10
838.7664861042804
 20
-475.9714992666745
 30
0.0
 40
10.0
 41
53.46358514229328
 71
     1
 72
     5
  1
出力
 73
     1
 44
1.0
  0
LINE
  5
7BE3
330
1A
100
AcDbEntity
  8
寸法線
 48
10.0
100
AcDbLine
 10
835.3016999685243
 20
-474.2011884156147
 30
0.0
 11
835.3016999685243
 21
-556.6099640725606
 31
0.0
  0
MTEXT
  5
7BE4
330
1A
100
AcDbEntity
  8
寸法線
 48
10.0
100
AcDbMText
 10
839.3021366976615
 20
-527.2774126634872
 30
0.0
 40
10.0
 41
53.46358514229328
 71
     1
 72
     5
  1
測定精度
 73
     1
 44
1.0
  0
MTEXT
  5
7BE5
330
1A
100
AcDbEntity
  8
寸法線
 48
10.0
100
AcDbMText
 10
839.3021366976615
 20
-543.2245463662306
 30
0.0
 40
10.0
 41
53.46358514229328
 71
     1
 72
     5
  1
分解能
 73
     1
 44
1.0
  0
LINE
  5
7BE6
330
1A
100
AcDbEntity
  8
寸法線
 48
10.0
100
AcDbLine
 10
795.926793240782
 20
-556.5351897762188
 30
0.0
 11
1231.352790289369
 21
-556.5351897762188
 31
0.0
  0
LINE
  5
7BE7
330
1A
100
AcDbEntity
  8
寸法線
 48
10.0
100
AcDbLine
 10
795.926793240782
 20
-587.9291900343006
 30
0.0
 11
1231.352790289369
 21
-587.9291900343007
 31
0.0
  0
LINE
  5
7BE8
330
1A
100
AcDbEntity
  8
寸法線
 48
10.0
100
AcDbLine
 10
795.926793240782
 20
-572.2321899052596
 30
0.0
 11
1231.352790289369
 21
-572.2321899052595
 31
0.0
  0
LINE
  5
7BE9
330
1A
100
AcDbEntity
  8
寸法線
 48
10.0
100
AcDbLine
 10
795.926793240782
 20
-339.3911366516129
 30
0.0
 11
1231.352790289369
 21
-339.3911366516129
 31
0.0
  0
VIEWPORT
  5
29A0
330
299E
100
AcDbEntity
 67
     1
  8
0
 48
10.0
100
AcDbViewport
 10
652.4528997449992
 20
86.41715557994222
 30
0.0
 40
1358.111121174259
 41
636.7225803469651
 68
     1
 69
     1
 12
652.4528997449992
 22
86.41715557994222
 13
0.0
 23
0.0
 14
10.0
 24
10.0
 15
10.0
 25
10.0
 16
0.0
 26
0.0
 36
1.0
 17
0.0
 27
0.0
 37
0.0
 42
50.0
 43
0.0
 44
0.0
 45
636.7225803469651
 50
0.0
 51
0.0
 72
   100
 90
    32800
  1

281
     0
 71
     1
 74
     0
110
0.0
120
0.0
130
0.0
111
1.0
121
0.0
131
0.0
112
0.0
122
1.0
132
0.0
 79
     0
146
0.0
170
     0
  0
VIEWPORT
  5
29A1
330
299E
100
AcDbEntity
 67
     1
  8
図枠太線
 48
10.0
100
AcDbViewport
 10
143.3797153809096
 20
220.3348546596005
 30
0.0
 40
280.0
 41
375.0
 68
     2
 69
     2
 12
1127.40685145773
 22
-137.5859021431558
 13
0.0
 23
0.0
 14
1.0
 24
1.0
 15
0.0
 25
0.0
 16
0.0
 26
0.0
 36
1.0
 17
0.0
 27
0.0
 37
0.0
 42
50.0
 43
0.0
 44
0.0
 45
937.5
 50
0.0
 51
0.0
 72
   100
 90
    32768
  1

281
     0
 71
     1
 74
     0
110
0.0
120
0.0
130
0.0
111
1.0
121
0.0
131
0.0
112
0.0
122
1.0
132
0.0
 79
     0
146
0.0
170
     0
  0
INSERT
  5
2A93
330
299E
100
AcDbEntity
 67
     1
  8
図枠太線
100
AcDbBlockReference
  2
A3縦用　タイトル
 10
-0.1981565020514608
 20
0.014011970346246
 30
0.0
  0
MTEXT
  5
358F
330
299E
100
AcDbEntity
 67
     1
  8
寸法線
 48
10.0
100
AcDbMText
 10
124.2268890221703
 20
10.56499088996255
 30
0.0
 40
3.0
 41
20.99863159610118
 71
     1
 72
     5
  1
2009.9.29
 73
     1
 44
1.0
  0
MTEXT
  5
3590
330
299E
100
AcDbEntity
 67
     1
  8
寸法線
 48
10.0
100
AcDbMText
 10
102.2318525312951
 20
11.09178579426486
 30
0.0
 40
4.0
 41
39.4
 71
     1
 72
     5
  1
1:2.5
 73
     1
 44
1.0
  0
MTEXT
  5
3591
330
299E
100
AcDbEntity
 67
     1
  8
寸法線
 48
10.0
100
AcDbMText
 10
127.5695195464793
 20
25.4554327559116
 30
0.0
 40
3.0
 41
40.32688172043011
 71
     1
 72
     5
  1
ohno
 73
     1
 44
1.0
  0
MTEXT
  5
39D1
330
299E
100
AcDbEntity
 67
     1
  8
寸法線
 48
10.0
100
AcDbMText
 10
239.0153889147687
 20
13.72384898919358
 30
0.0
 40
7.0
 41
42.83711411729791
 71
     1
 72
     5
  1
NY-1558
 73
     1
 44
1.0
  0
MTEXT
  5
39D3
330
299E
100
AcDbEntity
 67
     1
  8
寸法線
 48
10.0
100
AcDbMText
 10
192.2870235225664
 20
38.63771938235527
 30
0.0
 40
2.333873885063326
 41
19.67392166615855
 71
     1
 72
     5
  1
{\H1.714x;A3縮小図}
 73
     1
 44
1.0
  0
LINE
  5
39D4
330
299E
100
AcDbEntity
 67
     1
  8
寸法線
 48
10.0
100
AcDbLine
 10
191.9417008878902
 20
33.88944758165974
 30
0.0
 11
211.5412386611854
 21
33.88944758165974
 31
0.0
  0
MTEXT
  5
5B57
330
299E
100
AcDbEntity
 67
     1
  8
寸法線
 48
10.0
100
AcDbMText
 10
215.8292683394663
 20
26.87266095672615
 30
0.0
 40
5.0
 41
39.59133125095718
 71
     1
 72
     5
  1
H\U+25A1R-4\U+25A1\U+25A1-4
 73
     1
 44
1.0
  0
MTEXT
  5
5B58
330
299E
100
AcDbEntity
 67
     1
  8
寸法線
 48
10.0
100
AcDbMText
 10
256.683693180184
 20
31.24094042804927
 30
0.0
 40
2.333873885063326
 41
26.53201952100812
 71
     1
 72
     5
  1
{\H1.928x;ﾏｲｸﾛﾊﾟﾙｽ式\Pレベル計}
 73
     1
 44
1.0
  0
MTEXT
  5
5E0E
330
299E
100
AcDbEntity
 67
     1
  8
寸法線
 48
10.0
100
AcDbMText
 10
166.0931143455755
 20
30.79556392682173
 30
0.0
 40
4.0
 41
40.32688172043011
 71
     1
 72
     5
  1
1m\U+2266L\U+22663m
 73
     1
 44
1.0
  0
ENDSEC
  0
SECTION
  2
OBJECTS
  0
DICTIONARY
  5
C
330
0
100
AcDbDictionary
281
     1
  3
ACAD_COLOR
350
2948
  3
ACAD_GROUP
350
D
  3
ACAD_LAYOUT
350
2816
  3
ACAD_MATERIAL
350
2947
  3
ACAD_MLINESTYLE
350
E
  3
ACAD_PLOTSETTINGS
350
2817
  3
ACAD_PLOTSTYLENAME
350
2814
  3
AcadDim
350
3A15
  0
DICTIONARY
  5
29EA
330
2
100
AcDbDictionary
280
     1
281
     1
  3
ACAD_LAYERFILTERS
360
2AFB
  3
ACAD_LAYERSTATES
360
29EB
  0
DICTIONARY
  5
2948
102
{ACAD_REACTORS
330
C
102
}
330
C
100
AcDbDictionary
281
     1
  0
DICTIONARY
  5
D
102
{ACAD_REACTORS
330
C
102
}
330
C
100
AcDbDictionary
281
     1
  3
*A1
350
3811
  3
*A2
350
3813
  0
DICTIONARY
  5
2816
102
{ACAD_REACTORS
330
C
102
}
330
C
100
AcDbDictionary
281
     1
  3
A3縦
350
29A4
  3
Model
350
2818
  0
DICTIONARY
  5
2947
102
{ACAD_REACTORS
330
C
102
}
330
C
100
AcDbDictionary
281
     1
  0
DICTIONARY
  5
E
102
{ACAD_REACTORS
330
C
102
}
330
C
100
AcDbDictionary
281
     1
  3
STANDARD
350
13
  0
DICTIONARY
  5
2817
102
{ACAD_REACTORS
330
C
102
}
330
C
100
AcDbDictionary
281
     1
  0
ACDBDICTIONARYWDFLT
  5
2814
102
{ACAD_REACTORS
330
C
102
}
330
C
100
AcDbDictionary
281
     1
  3
Normal
350
2815
100
AcDbDictionaryWithDefault
340
2815
  0
XRECORD
  5
3A15
102
{ACAD_REACTORS
330
C
102
}
330
C
100
AcDbXrecord
280
     1
 90
   990106
  3

 60
     0
 61
     0
 62
     1
 63
     3
 64
     0
 65
     0
 66
     0
 67
     3
 68
     1
 69
     0
 70
     0
 71
     0
 72
     0
 40
0.0
170
     0
340
0
  0
DICTIONARY
  5
2AFB
102
{ACAD_REACTORS
330
29EA
102
}
330
29EA
100
AcDbDictionary
281
     1
  0
DICTIONARY
  5
29EB
102
{ACAD_REACTORS
330
29EA
102
}
330
29EA
100
AcDbDictionary
281
     1
  0
GROUP
  5
3811
102
{ACAD_REACTORS
330
D
102
}
330
D
100
AcDbGroup
300

 70
     1
 71
     1
  0
GROUP
  5
3813
102
{ACAD_REACTORS
330
D
102
}
330
D
100
AcDbGroup
300

 70
     1
 71
     1
  0
LAYOUT
  5
29A4
102
{ACAD_REACTORS
330
2816
102
}
330
2816
100
AcDbPlotSettings
  1

  2
DocuCentre 352.pc3
  4
A4
  6

 40
4.857749938964843
 41
4.900062561035156
 42
4.942413330078125
 43
4.857757568359375
 44
209.9733276367187
 45
296.9683227539062
 46
0.0
 47
0.0
 48
0.0
 49
0.0
140
0.0
141
0.0
142
1.0
143
1.429999999999999
 70
   736
 72
     1
 73
     0
 74
     5
  7
TOWA.ctb
 75
     0
147
1.0
 76
     1
 77
     2
 78
   300
148
0.0
149
0.0
100
AcDbLayout
  1
A3縦
 70
     1
 71
     1
 10
-6.946582412719726
 20
-7.007089462280273
 11
293.3152761077881
 21
417.6576120758056
 12
0.0
 22
0.0
 32
0.0
 14
3.379715380909601
 24
2.834855338171948
 34
0.0
 15
283.3797153809096
 25
407.8348546596004
 35
0.0
146
0.0
 13
0.0
 23
0.0
 33
0.0
 16
1.0
 26
0.0
 36
0.0
 17
0.0
 27
1.0
 37
0.0
 76
     0
330
299E
331
29A0
  0
LAYOUT
  5
2818
102
{ACAD_REACTORS
330
2816
102
}
330
2816
100
AcDbPlotSettings
  1

  2
none_device
  4
Letter_(8.50_x_11.00_Inches)
  6

 40
6.349999904632568
 41
6.349999904632568
 42
6.350006103515625
 43
6.350006103515625
 44
215.8999938964844
 45
279.3999938964844
 46
0.0
 47
0.0
 48
0.0
 49
0.0
140
0.0
141
0.0
142
1.0
143
1.0
 70
 11952
 72
     1
 73
     1
 74
     0
  7
TOWA.ctb
 75
     0
147
1.0
 76
     0
 77
     2
 78
   300
148
-999.2671574230698
149
339.2452142811905
100
AcDbLayout
  1
Model
 70
     1
 71
     0
 10
0.0
 20
0.0
 11
12.0
 21
9.0
 12
0.0
 22
0.0
 32
0.0
 14
0.0
 24
0.0
 34
0.0
 15
0.0
 25
0.0
 35
0.0
146
0.0
 13
0.0
 23
0.0
 33
0.0
 16
1.0
 26
0.0
 36
0.0
 17
0.0
 27
1.0
 37
0.0
 76
     0
330
1A
  0
MLINESTYLE
  5
13
102
{ACAD_REACTORS
330
E
102
}
330
E
100
AcDbMlineStyle
  2
STANDARD
 70
     0
  3

 62
     0
 51
90.0
 52
90.0
 71
     2
 49
0.5
 62
   256
  6
BYLAYER
 49
-0.5
 62
   256
  6
BYLAYER
  0
ACDBPLACEHOLDER
  5
2815
102
{ACAD_REACTORS
330
2814
102
}
330
2814
  0
ENDSEC
  0
EOF
