  0
SECTION
  2
HEADER
  9
$ACADVER
  1
AC1018
  9
$ACADMAINTVER
 70
     0
  9
$DWGCODEPAGE
  3
ANSI_932
  9
$INSBASE
 10
0.0
 20
0.0
 30
0.0
  9
$EXTMIN
 10
138.8490512179169
 20
-106.3973800186546
 30
0.0
  9
$EXTMAX
 10
411.9278400655702
 20
319.2268970886098
 30
0.0
  9
$LIMMIN
 10
-360.7475667952417
 20
4.457354754525567
  9
$LIMMAX
 10
-162.1536961442673
 20
287.6754402640176
  9
$ORTHOMODE
 70
     0
  9
$REGENMODE
 70
     1
  9
$FILLMODE
 70
     1
  9
$QTEXTMODE
 70
     0
  9
$MIRRTEXT
 70
     1
  9
$LTSCALE
 40
1.0
  9
$ATTMODE
 70
     1
  9
$TEXTSIZE
 40
2.333873885063326
  9
$TRACEWID
 40
1.0
  9
$TEXTSTYLE
  7
STANDARD
  9
$CLAYER
  8
寸法線
  9
$CELTYPE
  6
BYLAYER
  9
$CECOLOR
 62
   256
  9
$CELTSCALE
 40
10.0
  9
$DISPSILH
 70
     0
  9
$DIMSCALE
 40
1.0
  9
$DIMASZ
 40
6.0
  9
$DIMEXO
 40
0.625
  9
$DIMDLI
 40
3.75
  9
$DIMRND
 40
0.0
  9
$DIMDLE
 40
0.0
  9
$DIMEXE
 40
1.25
  9
$DIMTP
 40
0.1
  9
$DIMTM
 40
0.1
  9
$DIMTXT
 40
5.0
  9
$DIMCEN
 40
2.5
  9
$DIMTSZ
 40
0.0
  9
$DIMTOL
 70
     0
  9
$DIMLIM
 70
     0
  9
$DIMTIH
 70
     0
  9
$DIMTOH
 70
     0
  9
$DIMSE1
 70
     0
  9
$DIMSE2
 70
     0
  9
$DIMTAD
 70
     1
  9
$DIMZIN
 70
     8
  9
$DIMBLK
  1
Open30
  9
$DIMASO
 70
     1
  9
$DIMSHO
 70
     1
  9
$DIMPOST
  1

  9
$DIMAPOST
  1

  9
$DIMALT
 70
     0
  9
$DIMALTD
 70
     2
  9
$DIMALTF
 40
0.0394
  9
$DIMLFAC
 40
1.0
  9
$DIMTOFL
 70
     1
  9
$DIMTVP
 40
1.0
  9
$DIMTIX
 70
     0
  9
$DIMSOXD
 70
     0
  9
$DIMSAH
 70
     0
  9
$DIMBLK1
  1

  9
$DIMBLK2
  1

  9
$DIMSTYLE
  2
ISO-25
  9
$DIMCLRD
 70
     0
  9
$DIMCLRE
 70
     0
  9
$DIMCLRT
 70
     0
  9
$DIMTFAC
 40
1.0
  9
$DIMGAP
 40
0.625
  9
$DIMJUST
 70
     0
  9
$DIMSD1
 70
     0
  9
$DIMSD2
 70
     0
  9
$DIMTOLJ
 70
     1
  9
$DIMTZIN
 70
     0
  9
$DIMALTZ
 70
     0
  9
$DIMALTTZ
 70
     0
  9
$DIMUPT
 70
     0
  9
$DIMDEC
 70
     1
  9
$DIMTDEC
 70
     1
  9
$DIMALTU
 70
     2
  9
$DIMALTTD
 70
     2
  9
$DIMTXSTY
  7
STANDARD
  9
$DIMAUNIT
 70
     0
  9
$DIMADEC
 70
     0
  9
$DIMALTRND
 40
0.0
  9
$DIMAZIN
 70
     0
  9
$DIMDSEP
 70
    46
  9
$DIMATFIT
 70
     3
  9
$DIMFRAC
 70
     0
  9
$DIMLDRBLK
  1
Open30
  9
$DIMLUNIT
 70
     2
  9
$DIMLWD
 70
    -2
  9
$DIMLWE
 70
    -2
  9
$DIMTMOVE
 70
     0
  9
$LUNITS
 70
     2
  9
$LUPREC
 70
     4
  9
$SKETCHINC
 40
1.0
  9
$FILLETRAD
 40
6.5
  9
$AUNITS
 70
     0
  9
$AUPREC
 70
     0
  9
$MENU
  1
.
  9
$ELEVATION
 40
0.0
  9
$PELEVATION
 40
0.0
  9
$THICKNESS
 40
0.0
  9
$LIMCHECK
 70
     0
  9
$CHAMFERA
 40
10.0
  9
$CHAMFERB
 40
10.0
  9
$CHAMFERC
 40
20.0
  9
$CHAMFERD
 40
0.0
  9
$SKPOLY
 70
     0
  9
$TDCREATE
 40
2450576.597302431
  9
$TDUCREATE
 40
2450576.222302431
  9
$TDUPDATE
 40
2455491.733829109
  9
$TDUUPDATE
 40
2455491.358829109
  9
$TDINDWG
 40
1.2090857986
  9
$TDUSRTIMER
 40
1.2090857986
  9
$USRTIMER
 70
     1
  9
$ANGBASE
 50
0.0
  9
$ANGDIR
 70
     0
  9
$PDMODE
 70
     0
  9
$PDSIZE
 40
0.0
  9
$PLINEWID
 40
0.0
  9
$SPLFRAME
 70
     0
  9
$SPLINETYPE
 70
     6
  9
$SPLINESEGS
 70
     8
  9
$HANDSEED
  5
3583
  9
$SURFTAB1
 70
     6
  9
$SURFTAB2
 70
     6
  9
$SURFTYPE
 70
     6
  9
$SURFU
 70
     6
  9
$SURFV
 70
     6
  9
$UCSBASE
  2

  9
$UCSNAME
  2

  9
$UCSORG
 10
0.0
 20
0.0
 30
0.0
  9
$UCSXDIR
 10
1.0
 20
0.0
 30
0.0
  9
$UCSYDIR
 10
0.0
 20
1.0
 30
0.0
  9
$UCSORTHOREF
  2

  9
$UCSORTHOVIEW
 70
     0
  9
$UCSORGTOP
 10
0.0
 20
0.0
 30
0.0
  9
$UCSORGBOTTOM
 10
0.0
 20
0.0
 30
0.0
  9
$UCSORGLEFT
 10
0.0
 20
0.0
 30
0.0
  9
$UCSORGRIGHT
 10
0.0
 20
0.0
 30
0.0
  9
$UCSORGFRONT
 10
0.0
 20
0.0
 30
0.0
  9
$UCSORGBACK
 10
0.0
 20
0.0
 30
0.0
  9
$PUCSBASE
  2

  9
$PUCSNAME
  2

  9
$PUCSORG
 10
0.0
 20
0.0
 30
0.0
  9
$PUCSXDIR
 10
1.0
 20
0.0
 30
0.0
  9
$PUCSYDIR
 10
0.0
 20
1.0
 30
0.0
  9
$PUCSORTHOREF
  2

  9
$PUCSORTHOVIEW
 70
     0
  9
$PUCSORGTOP
 10
0.0
 20
0.0
 30
0.0
  9
$PUCSORGBOTTOM
 10
0.0
 20
0.0
 30
0.0
  9
$PUCSORGLEFT
 10
0.0
 20
0.0
 30
0.0
  9
$PUCSORGRIGHT
 10
0.0
 20
0.0
 30
0.0
  9
$PUCSORGFRONT
 10
0.0
 20
0.0
 30
0.0
  9
$PUCSORGBACK
 10
0.0
 20
0.0
 30
0.0
  9
$USERI1
 70
     0
  9
$USERI2
 70
     0
  9
$USERI3
 70
     0
  9
$USERI4
 70
     0
  9
$USERI5
 70
     0
  9
$USERR1
 40
0.0
  9
$USERR2
 40
0.0
  9
$USERR3
 40
0.0
  9
$USERR4
 40
0.0
  9
$USERR5
 40
0.0
  9
$WORLDVIEW
 70
     1
  9
$SHADEDGE
 70
     3
  9
$SHADEDIF
 70
    70
  9
$TILEMODE
 70
     0
  9
$MAXACTVP
 70
    16
  9
$PINSBASE
 10
0.0
 20
0.0
 30
0.0
  9
$PLIMCHECK
 70
     0
  9
$PEXTMIN
 10
4.746305129083339
 20
3.457123274535568
 30
0.0
  9
$PEXTMAX
 10
404.7463051290833
 20
283.4571232745355
 30
0.0
  9
$PLIMMIN
 10
-6.946593322753906
 20
-6.946582412719726
  9
$PLIMMAX
 10
417.7181082153319
 20
293.3152761077881
  9
$UNITMODE
 70
     0
  9
$VISRETAIN
 70
     0
  9
$PLINEGEN
 70
     0
  9
$PSLTSCALE
 70
     1
  9
$TREEDEPTH
 70
  3020
  9
$CMLSTYLE
  2
STANDARD
  9
$CMLJUST
 70
     0
  9
$CMLSCALE
 40
1.0
  9
$PROXYGRAPHICS
 70
     1
  9
$MEASUREMENT
 70
     1
  9
$CELWEIGHT
370
    -1
  9
$ENDCAPS
280
     0
  9
$JOINSTYLE
280
     0
  9
$LWDISPLAY
290
     0
  9
$INSUNITS
 70
     0
  9
$HYPERLINKBASE
  1

  9
$STYLESHEET
  1

  9
$XEDIT
290
     1
  9
$CEPSNTYPE
380
     0
  9
$PSTYLEMODE
290
     1
  9
$FINGERPRINTGUID
  2
{23698909-1D67-4744-B0E2-8DE11E3ED422}
  9
$VERSIONGUID
  2
{B1990D41-B4E4-4A87-923C-B4446AB8A3F6}
  9
$EXTNAMES
290
     1
  9
$PSVPSCALE
 40
0.25
  9
$OLESTARTUP
290
     0
  9
$SORTENTS
280
   127
  9
$INDEXCTL
280
     0
  9
$HIDETEXT
280
     0
  9
$XCLIPFRAME
290
     0
  9
$HALOGAP
280
     0
  9
$OBSCOLOR
 70
   257
  9
$OBSLTYPE
280
     0
  9
$INTERSECTIONDISPLAY
280
     0
  9
$INTERSECTIONCOLOR
 70
   257
  9
$DIMASSOC
280
     1
  9
$PROJECTNAME
  1

  0
ENDSEC
  0
SECTION
  2
CLASSES
  0
CLASS
  1
ACDBDICTIONARYWDFLT
  2
AcDbDictionaryWithDefault
  3
ObjectDBX Classes
 90
        0
 91
        1
280
     0
281
     0
  0
ENDSEC
  0
SECTION
  2
TABLES
  0
TABLE
  2
VPORT
  5
8
330
0
100
AcDbSymbolTable
 70
     1
  0
VPORT
  5
3577
330
8
100
AcDbSymbolTableRecord
100
AcDbViewportTableRecord
  2
*Active
 70
     0
 10
0.0
 20
0.0
 11
1.0
 21
1.0
 12
580.8582956775914
 22
49.13400473699988
 13
0.0
 23
0.0
 14
1.0
 24
1.0
 15
0.0
 25
0.0
 16
0.0
 26
0.0
 36
1.0
 17
0.0
 27
0.0
 37
0.0
 40
816.7735394739494
 41
2.138775510204081
 42
50.0
 43
0.0
 44
0.0
 50
0.0
 51
0.0
 71
     0
 72
   100
 73
     1
 74
     0
 75
     0
 76
     0
 77
     0
 78
     0
281
     0
 65
     1
110
0.0
120
0.0
130
0.0
111
1.0
121
0.0
131
0.0
112
0.0
122
1.0
132
0.0
 79
     0
146
0.0
  0
ENDTAB
  0
TABLE
  2
LTYPE
  5
5
330
0
100
AcDbSymbolTable
 70
     3
  0
LTYPE
  5
14
330
5
100
AcDbSymbolTableRecord
100
AcDbLinetypeTableRecord
  2
BYBLOCK
 70
     0
  3

 72
    65
 73
     0
 40
0.0
  0
LTYPE
  5
15
330
5
100
AcDbSymbolTableRecord
100
AcDbLinetypeTableRecord
  2
BYLAYER
 70
     0
  3

 72
    65
 73
     0
 40
0.0
  0
LTYPE
  5
16
330
5
100
AcDbSymbolTableRecord
100
AcDbLinetypeTableRecord
  2
CONTINUOUS
 70
     0
  3
Solid line
 72
    65
 73
     0
 40
0.0
  0
LTYPE
  5
1EC
330
5
100
AcDbSymbolTableRecord
100
AcDbLinetypeTableRecord
  2
CENTER
 70
     0
  3
____ _ ____ _ ____ _ ____ _ ____ _ ____ _ ____ 
 72
    65
 73
     4
 40
2.0
 49
1.25
 74
     0
 49
-0.25
 74
     0
 49
0.25
 74
     0
 49
-0.25
 74
     0
  0
LTYPE
  5
1ED
330
5
100
AcDbSymbolTableRecord
100
AcDbLinetypeTableRecord
  2
DASHED
 70
     0
  3
__ __ __ __ __ __ __ __ __ __ __ __ __ __ __ __
 72
    65
 73
     2
 40
0.75
 49
0.5
 74
     0
 49
-0.25
 74
     0
  0
ENDTAB
  0
TABLE
  2
LAYER
  5
2
102
{ACAD_XDICTIONARY
360
29EA
102
}
330
0
100
AcDbSymbolTable
 70
    12
  0
LAYER
  5
F
330
2
100
AcDbSymbolTableRecord
100
AcDbLayerTableRecord
  2
0
 70
     0
 62
     7
  6
CONTINUOUS
370
    -3
390
2815
  0
LAYER
  5
61
330
2
100
AcDbSymbolTableRecord
100
AcDbLayerTableRecord
  2
図枠太線
 70
     0
 62
   251
  6
CONTINUOUS
370
    -3
390
2815
  0
LAYER
  5
62
330
2
100
AcDbSymbolTableRecord
100
AcDbLayerTableRecord
  2
図枠細線
 70
     0
 62
   252
  6
CONTINUOUS
370
    -3
390
2815
  0
LAYER
  5
63
330
2
100
AcDbSymbolTableRecord
100
AcDbLayerTableRecord
  2
図枠ロゴマーク
 70
     0
 62
   253
  6
CONTINUOUS
370
    -3
390
2815
  0
LAYER
  5
1F4
330
2
100
AcDbSymbolTableRecord
100
AcDbLayerTableRecord
  2
DEFPOINTS
 70
     0
 62
     7
  6
CONTINUOUS
290
     0
370
    -3
390
2815
  0
LAYER
  5
2AA2
330
2
100
AcDbSymbolTableRecord
100
AcDbLayerTableRecord
  2
下書線
 70
     0
 62
     2
  6
CONTINUOUS
290
     0
370
    -3
390
2815
  0
LAYER
  5
2B01
330
2
100
AcDbSymbolTableRecord
100
AcDbLayerTableRecord
  2
外形線
 70
     0
 62
     7
  6
CONTINUOUS
370
    -3
390
2815
  0
LAYER
  5
2B02
330
2
100
AcDbSymbolTableRecord
100
AcDbLayerTableRecord
  2
寸法線
 70
     0
 62
     1
  6
CONTINUOUS
370
    -3
390
2815
  0
LAYER
  5
2B03
330
2
100
AcDbSymbolTableRecord
100
AcDbLayerTableRecord
  2
中心線
 70
     0
 62
     4
  6
CENTER
370
    -3
390
2815
  0
LAYER
  5
2B04
330
2
100
AcDbSymbolTableRecord
100
AcDbLayerTableRecord
  2
隠れ線
 70
     0
 62
     3
  6
DASHED
370
    -3
390
2815
  0
LAYER
  5
2B05
330
2
100
AcDbSymbolTableRecord
100
AcDbLayerTableRecord
  2
細線
 70
     0
 62
     6
  6
CONTINUOUS
370
    -3
390
2815
  0
LAYER
  5
2B06
330
2
100
AcDbSymbolTableRecord
100
AcDbLayerTableRecord
  2
太線
 70
     0
 62
   190
  6
CONTINUOUS
370
    -3
390
2815
  0
ENDTAB
  0
TABLE
  2
STYLE
  5
3
330
0
100
AcDbSymbolTable
 70
     2
  0
STYLE
  5
10
330
3
100
AcDbSymbolTableRecord
100
AcDbTextStyleTableRecord
  2
STANDARD
 70
     0
 40
0.0
 41
1.0
 50
0.0
 71
     0
 42
2.333873885063326
  3
ISOCP
  4
bigfont.shx
  0
STYLE
  5
64
330
3
100
AcDbSymbolTableRecord
100
AcDbTextStyleTableRecord
  2
EXCADSTD
 70
     0
 40
0.0
 41
1.0
 50
0.0
 71
     0
 42
0.2
  3
monotxt
  4
bigfont
  0
ENDTAB
  0
TABLE
  2
VIEW
  5
6
330
0
100
AcDbSymbolTable
 70
     0
  0
ENDTAB
  0
TABLE
  2
UCS
  5
7
330
0
100
AcDbSymbolTable
 70
     0
  0
ENDTAB
  0
TABLE
  2
APPID
  5
9
330
0
100
AcDbSymbolTable
 70
     1
  0
APPID
  5
11
330
9
100
AcDbSymbolTableRecord
100
AcDbRegAppTableRecord
  2
ACAD
 70
     0
  0
ENDTAB
  0
TABLE
  2
DIMSTYLE
  5
A
330
0
100
AcDbSymbolTable
 70
     5
100
AcDbDimStyleTable
 71
     4
340
24
340
2B32
340
2B31
340
2B30
  0
DIMSTYLE
105
1D
330
A
100
AcDbSymbolTableRecord
100
AcDbDimStyleTableRecord
  2
STANDARD
 70
     0
340
10
  0
DIMSTYLE
105
24
102
{ACAD_REACTORS
330
32D4
330
32D8
330
3375
330
3376
330
3378
102
}
330
A
100
AcDbSymbolTableRecord
100
AcDbDimStyleTableRecord
  2
ISO-25
 70
     0
 41
2.5
 42
0.625
 43
3.75
 44
1.25
 74
     0
 77
     1
 78
     8
140
2.5
141
2.5
143
0.0394
145
1.0
147
0.625
172
     1
340
10
  0
DIMSTYLE
105
2B30
330
A
100
AcDbSymbolTableRecord
100
AcDbDimStyleTableRecord
  2
文字5ｐｔ
 70
     0
 41
6.0
 42
0.625
 43
3.75
 44
1.25
 47
0.1
 48
0.1
 73
     0
 74
     0
 77
     1
 78
     8
140
5.0
141
2.5
143
0.0394
145
1.0
147
0.625
172
     1
271
     1
272
     1
340
10
341
2AD6
342
2AD6
  0
DIMSTYLE
105
2B31
330
A
100
AcDbSymbolTableRecord
100
AcDbDimStyleTableRecord
  2
文字8ｐｔ
 70
     0
 41
6.0
 42
0.625
 43
3.75
 44
1.25
 47
0.1
 48
0.1
 73
     0
 74
     0
 77
     1
 78
     8
140
8.0
141
2.5
143
0.0394
145
1.0
147
0.625
172
     1
271
     1
272
     1
340
10
341
2AD6
342
2AD6
  0
DIMSTYLE
105
2B32
330
A
100
AcDbSymbolTableRecord
100
AcDbDimStyleTableRecord
  2
文字10ｐｔ
 70
     0
 41
6.0
 42
0.625
 43
3.75
 44
1.25
 47
0.1
 48
0.1
 73
     0
 74
     0
 77
     1
 78
     8
140
10.0
141
2.5
143
0.0394
145
1.0
147
0.625
172
     1
271
     1
272
     1
340
10
341
2AD6
342
2AD6
  0
ENDTAB
  0
TABLE
  2
BLOCK_RECORD
  5
1
330
0
100
AcDbSymbolTable
 70
    13
  0
BLOCK_RECORD
  5
1A
330
1
100
AcDbSymbolTableRecord
100
AcDbBlockTableRecord
  2
*MODEL_SPACE
340
2818
  0
BLOCK_RECORD
  5
28FB
330
1
100
AcDbSymbolTableRecord
100
AcDbBlockTableRecord
  2
*Paper_Space
340
28FC
  0
BLOCK_RECORD
  5
299E
330
1
100
AcDbSymbolTableRecord
100
AcDbBlockTableRecord
  2
*Paper_Space0
340
29A4
  0
BLOCK_RECORD
  5
17
330
1
100
AcDbSymbolTableRecord
100
AcDbBlockTableRecord
  2
*PAPER_SPACE1
340
2819
  0
BLOCK_RECORD
  5
2963
330
1
100
AcDbSymbolTableRecord
100
AcDbBlockTableRecord
  2
*PAPER_SPACE2
340
2994
  0
BLOCK_RECORD
  5
29BF
330
1
100
AcDbSymbolTableRecord
100
AcDbBlockTableRecord
  2
A4横用　タイトル
340
0
310
2800000020000000200000000100080000000000000400000000000000000000000000000000000000000000000080000080000000808000800000008000800080800000C0C0C000C0DCC000F0CAA6000020400000206000002080000020A0000020C0000020E00000400000004020000040400000406000004080000040A0
310
000040C0000040E00000600000006020000060400000606000006080000060A0000060C0000060E00000800000008020000080400000806000008080000080A0000080C0000080E00000A0000000A0200000A0400000A0600000A0800000A0A00000A0C00000A0E00000C0000000C0200000C0400000C0600000C0800000C0
310
A00000C0C00000C0E00000E0000000E0200000E0400000E0600000E0800000E0A00000E0C00000E0E00040000000400020004000400040006000400080004000A0004000C0004000E00040200000402020004020400040206000402080004020A0004020C0004020E000404000004040200040404000404060004040800040
310
40A0004040C0004040E00040600000406020004060400040606000406080004060A0004060C0004060E00040800000408020004080400040806000408080004080A0004080C0004080E00040A0000040A0200040A0400040A0600040A0800040A0A00040A0C00040A0E00040C0000040C0200040C0400040C0600040C08000
310
40C0A00040C0C00040C0E00040E0000040E0200040E0400040E0600040E0800040E0A00040E0C00040E0E00080000000800020008000400080006000800080008000A0008000C0008000E00080200000802020008020400080206000802080008020A0008020C0008020E00080400000804020008040400080406000804080
310
008040A0008040C0008040E00080600000806020008060400080606000806080008060A0008060C0008060E00080800000808020008080400080806000808080008080A0008080C0008080E00080A0000080A0200080A0400080A0600080A0800080A0A00080A0C00080A0E00080C0000080C0200080C0400080C0600080C0
310
800080C0A00080C0C00080C0E00080E0000080E0200080E0400080E0600080E0800080E0A00080E0C00080E0E000C0000000C0002000C0004000C0006000C0008000C000A000C000C000C000E000C0200000C0202000C0204000C0206000C0208000C020A000C020C000C020E000C0400000C0402000C0404000C0406000C0
310
408000C040A000C040C000C040E000C0600000C0602000C0604000C0606000C0608000C060A000C060C000C060E000C0800000C0802000C0804000C0806000C0808000C080A000C080C000C080E000C0A00000C0A02000C0A04000C0A06000C0A08000C0A0A000C0A0C000C0A0E000C0C00000C0C02000C0C04000C0C06000
310
C0C08000C0C0A000F0FBFF00A4A0A000808080000000FF0000FF000000FFFF00FF000000FF00FF00FFFF0000FFFFFF0000000000000000000000000000000000000000000000000000000000000000000000000000000000000000000000000000000000000000000000000000000000000000000000000000000000000000
310
00000000000000000000000000000000000000000000000000000000000000000000000000000000000000000000000000000000000000000000000000000000000000000000000000000000000000000000000000000000000000000000000000000000000000000000000000000000000000000000000000000000000000
310
00000000000000000000000000000000000000000000000000000000000000000000000000000000000000000000000000000000000000000000000000000000000000000000000000000000000000000000000000000000000000000000000000000000000000000000000000000000000000000000000000000000000000
310
00000000000000000000000000000000000000000000000000000000000000000000000000000000000000000000000000000000000000000000000000000000000000000000000000000000000000000000000000000000000000000000000000000000000000000000000000000000000000005BA4A4A4A4A4A4A45B5BA4
310
5BA45B5B5BA4A4A4A4A4A45B5B5B5B5B5B5B5B00005BA4A4A4A4A4A4A4A4A4A4A4A4A45B5BF7F7F7F7F7F75BA4A4A4A4A4A4A400005BA4A4A4A4A4A4A45BA4A4A4A400005BA4A4A4A4A4A45B0000000000005B00005BA4A4A4A4A4A4A45BA4A4A4A4A4005B0000000000005BA400000000005B000000000000000000000000
310
00000000000000000000000000000000000000000000000000000000000000000000000000000000000000000000000000000000000000000000000000000000000000000000000000000000000000000000000000000000000000000000000000000000000000000000000000000000000000000000000000000000000000
310
00000000000000000000000000000000000000000000000000000000000000000000000000000000000000000000000000000000000000000000000000000000000000000000000000000000000000000000000000000000000000000000000000000000000000000000000000000000000000000000000000000000000000
310
00000000000000000000000000000000000000000000000000000000000000000000000000000000000000000000000000000000000000000000000000000000000000000000000000000000000000000000000000000000000000000000000000000000000000000000000000000000000000000000000000000000000000
310
0000000000000000000000000000000000000000000000000000000000000000000000000000000000000000000000000000000000000000
102
{BLKREFS
331
29F1
102
}
1001
ACAD
1000
DesignCenter Data
1002
{
1070
     1
1070
     4
1002
}
  0
BLOCK_RECORD
  5
29F4
330
1
100
AcDbSymbolTableRecord
100
AcDbBlockTableRecord
  2
A4縦用　タイトル
340
0
310
2800000020000000200000000100080000000000000400000000000000000000000000000000000000000000000080000080000000808000800000008000800080800000C0C0C000C0DCC000F0CAA6000020400000206000002080000020A0000020C0000020E00000400000004020000040400000406000004080000040A0
310
000040C0000040E00000600000006020000060400000606000006080000060A0000060C0000060E00000800000008020000080400000806000008080000080A0000080C0000080E00000A0000000A0200000A0400000A0600000A0800000A0A00000A0C00000A0E00000C0000000C0200000C0400000C0600000C0800000C0
310
A00000C0C00000C0E00000E0000000E0200000E0400000E0600000E0800000E0A00000E0C00000E0E00040000000400020004000400040006000400080004000A0004000C0004000E00040200000402020004020400040206000402080004020A0004020C0004020E000404000004040200040404000404060004040800040
310
40A0004040C0004040E00040600000406020004060400040606000406080004060A0004060C0004060E00040800000408020004080400040806000408080004080A0004080C0004080E00040A0000040A0200040A0400040A0600040A0800040A0A00040A0C00040A0E00040C0000040C0200040C0400040C0600040C08000
310
40C0A00040C0C00040C0E00040E0000040E0200040E0400040E0600040E0800040E0A00040E0C00040E0E00080000000800020008000400080006000800080008000A0008000C0008000E00080200000802020008020400080206000802080008020A0008020C0008020E00080400000804020008040400080406000804080
310
008040A0008040C0008040E00080600000806020008060400080606000806080008060A0008060C0008060E00080800000808020008080400080806000808080008080A0008080C0008080E00080A0000080A0200080A0400080A0600080A0800080A0A00080A0C00080A0E00080C0000080C0200080C0400080C0600080C0
310
800080C0A00080C0C00080C0E00080E0000080E0200080E0400080E0600080E0800080E0A00080E0C00080E0E000C0000000C0002000C0004000C0006000C0008000C000A000C000C000C000E000C0200000C0202000C0204000C0206000C0208000C020A000C020C000C020E000C0400000C0402000C0404000C0406000C0
310
408000C040A000C040C000C040E000C0600000C0602000C0604000C0606000C0608000C060A000C060C000C060E000C0800000C0802000C0804000C0806000C0808000C080A000C080C000C080E000C0A00000C0A02000C0A04000C0A06000C0A08000C0A0A000C0A0C000C0A0E000C0C00000C0C02000C0C04000C0C06000
310
C0C08000C0C0A000F0FBFF00A4A0A000808080000000FF0000FF000000FFFF00FF000000FF00FF00FFFF0000FFFFFF0000000000000000000000000000000000000000000000000000000000000000000000000000000000000000000000000000000000000000000000000000000000000000000000000000000000000000
310
00000000000000000000000000000000000000000000000000000000000000000000000000000000000000000000000000000000000000000000000000000000000000000000000000000000000000000000000000000000000000000000000000000000000000000000000000000000000000000000000000000000000000
310
00000000000000000000000000000000000000000000000000000000000000000000000000000000000000000000000000000000000000000000000000000000000000000000000000000000000000000000000000000000000000000000000000000000000000000000000000000000000000000000000000000000000000
310
0000000000000000000000000000000000000000000000000000000000000000000000000000000000000000000000000000000000000000000000000000000000000000000000000000000000000000000000005B5B5B5B5B5BA45B5BA45B5B5B5B5B5B5B5B5B5B5B5B5B5B5B5B5B5B5B5B0000A4A4A45BA4A4A40000A400
310
005BA4A4A4A4A4A4A45B00000000000000005B0000A4A4A45BA4A4A4A4A4A4A4A45BF7F7F7F7F7F7F7A4A4A4A4A4A4A4A4A45B0000A4A4A45BA4A4A4A400A400005B000000000000005B00000000000000005B0000A4A4A4A4A4A4A4A4A4A4A4A45BA4A4A4A4A4A4A4A4A4A4A400000000005B00005BA4A4A4A400A4A400A4
310
A4005B00000000000000A4A4A4A400000000005B0000000000000000000000000000000000000000000000000000000000000000000000000000000000000000000000000000000000000000000000000000000000000000000000000000000000000000000000000000000000000000000000000000000000000000000000
310
00000000000000000000000000000000000000000000000000000000000000000000000000000000000000000000000000000000000000000000000000000000000000000000000000000000000000000000000000000000000000000000000000000000000000000000000000000000000000000000000000000000000000
310
00000000000000000000000000000000000000000000000000000000000000000000000000000000000000000000000000000000000000000000000000000000000000000000000000000000000000000000000000000000000000000000000000000000000000000000000000000000000000000000000000000000000000
310
0000000000000000000000000000000000000000000000000000000000000000000000000000000000000000000000000000000000000000
102
{BLKREFS
331
2A23
102
}
1001
ACAD
1000
DesignCenter Data
1002
{
1070
     1
1070
     4
1002
}
  0
BLOCK_RECORD
  5
2A32
330
1
100
AcDbSymbolTableRecord
100
AcDbBlockTableRecord
  2
A3横用　タイトル
340
0
310
2800000020000000200000000100080000000000000400000000000000000000000000000000000000000000000080000080000000808000800000008000800080800000C0C0C000C0DCC000F0CAA6000020400000206000002080000020A0000020C0000020E00000400000004020000040400000406000004080000040A0
310
000040C0000040E00000600000006020000060400000606000006080000060A0000060C0000060E00000800000008020000080400000806000008080000080A0000080C0000080E00000A0000000A0200000A0400000A0600000A0800000A0A00000A0C00000A0E00000C0000000C0200000C0400000C0600000C0800000C0
310
A00000C0C00000C0E00000E0000000E0200000E0400000E0600000E0800000E0A00000E0C00000E0E00040000000400020004000400040006000400080004000A0004000C0004000E00040200000402020004020400040206000402080004020A0004020C0004020E000404000004040200040404000404060004040800040
310
40A0004040C0004040E00040600000406020004060400040606000406080004060A0004060C0004060E00040800000408020004080400040806000408080004080A0004080C0004080E00040A0000040A0200040A0400040A0600040A0800040A0A00040A0C00040A0E00040C0000040C0200040C0400040C0600040C08000
310
40C0A00040C0C00040C0E00040E0000040E0200040E0400040E0600040E0800040E0A00040E0C00040E0E00080000000800020008000400080006000800080008000A0008000C0008000E00080200000802020008020400080206000802080008020A0008020C0008020E00080400000804020008040400080406000804080
310
008040A0008040C0008040E00080600000806020008060400080606000806080008060A0008060C0008060E00080800000808020008080400080806000808080008080A0008080C0008080E00080A0000080A0200080A0400080A0600080A0800080A0A00080A0C00080A0E00080C0000080C0200080C0400080C0600080C0
310
800080C0A00080C0C00080C0E00080E0000080E0200080E0400080E0600080E0800080E0A00080E0C00080E0E000C0000000C0002000C0004000C0006000C0008000C000A000C000C000C000E000C0200000C0202000C0204000C0206000C0208000C020A000C020C000C020E000C0400000C0402000C0404000C0406000C0
310
408000C040A000C040C000C040E000C0600000C0602000C0604000C0606000C0608000C060A000C060C000C060E000C0800000C0802000C0804000C0806000C0808000C080A000C080C000C080E000C0A00000C0A02000C0A04000C0A06000C0A08000C0A0A000C0A0C000C0A0E000C0C00000C0C02000C0C04000C0C06000
310
C0C08000C0C0A000F0FBFF00A4A0A000808080000000FF0000FF000000FFFF00FF000000FF00FF00FFFF0000FFFFFF0000000000000000000000000000000000000000000000000000000000000000000000000000000000000000000000000000000000000000000000000000000000000000000000000000000000000000
310
00000000000000000000000000000000000000000000000000000000000000000000000000000000000000000000000000000000000000000000000000000000000000000000000000000000000000000000000000000000000000000000000000000000000000000000000000000000000000000000000000000000000000
310
00000000000000000000000000000000000000000000000000000000000000000000000000000000000000000000000000000000000000000000000000000000000000000000000000000000000000000000000000000000000000000000000000000000000000000000000000000000000000000000000000000000000000
310
00000000000000000000000000000000000000000000000000000000000000000000000000000000000000000000000000000000000000000000000000000000000000000000000000000000000000000000000000000000000000000000000000000000000000000000000000000000000000005B5B5B5B5B5B5B5B5B5BA4
310
5BA45B5BA4A4A4A4A4A4A45B5B5B5B5B5B5B5B00005BA4A4A4A4A4A45BA4A4A4A4A4A45BA4A4A4A4A4A4A45BA400000000005B00005BA4A4A4A4A4A45BA4A4A4A4A4A45B5B5B5B5B5B5B5B5BA4A4A4A4A4A45B00005BA4A4A40000005BA4A4A4A4A4A45B000000000000005BA400000000005B000000000000000000000000
310
00000000000000000000000000000000000000000000000000000000000000000000000000000000000000000000000000000000000000000000000000000000000000000000000000000000000000000000000000000000000000000000000000000000000000000000000000000000000000000000000000000000000000
310
00000000000000000000000000000000000000000000000000000000000000000000000000000000000000000000000000000000000000000000000000000000000000000000000000000000000000000000000000000000000000000000000000000000000000000000000000000000000000000000000000000000000000
310
00000000000000000000000000000000000000000000000000000000000000000000000000000000000000000000000000000000000000000000000000000000000000000000000000000000000000000000000000000000000000000000000000000000000000000000000000000000000000000000000000000000000000
310
0000000000000000000000000000000000000000000000000000000000000000000000000000000000000000000000000000000000000000
102
{BLKREFS
331
2A59
102
}
1001
ACAD
1000
DesignCenter Data
1002
{
1070
     1
1070
     4
1002
}
  0
BLOCK_RECORD
  5
2A6C
330
1
100
AcDbSymbolTableRecord
100
AcDbBlockTableRecord
  2
A3縦用　タイトル
340
0
310
2800000020000000200000000100080000000000000400000000000000000000000000000000000000000000000080000080000000808000800000008000800080800000C0C0C000C0DCC000F0CAA6000020400000206000002080000020A0000020C0000020E00000400000004020000040400000406000004080000040A0
310
000040C0000040E00000600000006020000060400000606000006080000060A0000060C0000060E00000800000008020000080400000806000008080000080A0000080C0000080E00000A0000000A0200000A0400000A0600000A0800000A0A00000A0C00000A0E00000C0000000C0200000C0400000C0600000C0800000C0
310
A00000C0C00000C0E00000E0000000E0200000E0400000E0600000E0800000E0A00000E0C00000E0E00040000000400020004000400040006000400080004000A0004000C0004000E00040200000402020004020400040206000402080004020A0004020C0004020E000404000004040200040404000404060004040800040
310
40A0004040C0004040E00040600000406020004060400040606000406080004060A0004060C0004060E00040800000408020004080400040806000408080004080A0004080C0004080E00040A0000040A0200040A0400040A0600040A0800040A0A00040A0C00040A0E00040C0000040C0200040C0400040C0600040C08000
310
40C0A00040C0C00040C0E00040E0000040E0200040E0400040E0600040E0800040E0A00040E0C00040E0E00080000000800020008000400080006000800080008000A0008000C0008000E00080200000802020008020400080206000802080008020A0008020C0008020E00080400000804020008040400080406000804080
310
008040A0008040C0008040E00080600000806020008060400080606000806080008060A0008060C0008060E00080800000808020008080400080806000808080008080A0008080C0008080E00080A0000080A0200080A0400080A0600080A0800080A0A00080A0C00080A0E00080C0000080C0200080C0400080C0600080C0
310
800080C0A00080C0C00080C0E00080E0000080E0200080E0400080E0600080E0800080E0A00080E0C00080E0E000C0000000C0002000C0004000C0006000C0008000C000A000C000C000C000E000C0200000C0202000C0204000C0206000C0208000C020A000C020C000C020E000C0400000C0402000C0404000C0406000C0
310
408000C040A000C040C000C040E000C0600000C0602000C0604000C0606000C0608000C060A000C060C000C060E000C0800000C0802000C0804000C0806000C0808000C080A000C080C000C080E000C0A00000C0A02000C0A04000C0A06000C0A08000C0A0A000C0A0C000C0A0E000C0C00000C0C02000C0C04000C0C06000
310
C0C08000C0C0A000F0FBFF00A4A0A000808080000000FF0000FF000000FFFF00FF000000FF00FF00FFFF0000FFFFFF0000000000000000000000000000000000000000000000000000000000000000000000000000000000000000000000000000000000000000000000000000000000000000000000000000000000000000
310
00000000000000000000000000000000000000000000000000000000000000000000000000000000000000000000000000000000000000000000000000000000000000000000000000000000000000000000000000000000000000000000000000000000000000000000000000000000000000000000000000000000000000
310
00000000000000000000000000000000000000000000000000000000000000000000000000000000000000000000000000000000000000000000000000000000000000000000000000000000000000000000000000000000000000000000000000000000000000000000000000000000000000000000000000000000000000
310
00000000000000000000000000000000000000000000000000000000000000000000000000000000000000000000000000000000000000000000000000000000000000000000000000000000000000000000000000000000000000000000000000000000000000000000000000000000000000005B5B5B5B5B5B5B5B5B5B5B
310
5B5B5B5B5B5B5B5B5B5B5B5B5B5B5B5B5B5B5B00005BA4A4A4A4A4A4A4A4A4A4A4A4A4A45B5B5B5B5B5B5BA4A4A4A4A4A4A4A400005BA4A4A4A4A4A4A4A4A4A4A4A400A4A4A4A4A4A4A4A4A40000000000005B00005BA4A4A4A4A4A4A4A4A4A4A4A4A4A4000000000000005BA4A4000000005B000000000000000000000000
310
00000000000000000000000000000000000000000000000000000000000000000000000000000000000000000000000000000000000000000000000000000000000000000000000000000000000000000000000000000000000000000000000000000000000000000000000000000000000000000000000000000000000000
310
00000000000000000000000000000000000000000000000000000000000000000000000000000000000000000000000000000000000000000000000000000000000000000000000000000000000000000000000000000000000000000000000000000000000000000000000000000000000000000000000000000000000000
310
00000000000000000000000000000000000000000000000000000000000000000000000000000000000000000000000000000000000000000000000000000000000000000000000000000000000000000000000000000000000000000000000000000000000000000000000000000000000000000000000000000000000000
310
0000000000000000000000000000000000000000000000000000000000000000000000000000000000000000000000000000000000000000
102
{BLKREFS
331
2A93
102
}
1001
ACAD
1000
DesignCenter Data
1002
{
1070
     1
1070
     4
1002
}
  0
BLOCK_RECORD
  5
2AD6
330
1
100
AcDbSymbolTableRecord
100
AcDbBlockTableRecord
  2
_Open30
340
0
102
{BLKREFS
331
342F
331
3430
331
3438
331
3439
331
34C1
331
34C2
331
34D3
331
34D4
331
34DC
331
34DD
102
}
  0
BLOCK_RECORD
  5
3383
330
1
100
AcDbSymbolTableRecord
100
AcDbBlockTableRecord
  2
*D8
340
0
  0
BLOCK_RECORD
  5
338F
330
1
100
AcDbSymbolTableRecord
100
AcDbBlockTableRecord
  2
*D9
340
0
  0
BLOCK_RECORD
  5
339B
330
1
100
AcDbSymbolTableRecord
100
AcDbBlockTableRecord
  2
*D10
340
0
  0
BLOCK_RECORD
  5
33A7
330
1
100
AcDbSymbolTableRecord
100
AcDbBlockTableRecord
  2
*D11
340
0
  0
BLOCK_RECORD
  5
33B3
330
1
100
AcDbSymbolTableRecord
100
AcDbBlockTableRecord
  2
*D12
340
0
  0
ENDTAB
  0
ENDSEC
  0
SECTION
  2
BLOCKS
  0
BLOCK
  5
1B
330
1A
100
AcDbEntity
  8
0
100
AcDbBlockBegin
  2
*MODEL_SPACE
 70
     0
 10
0.0
 20
0.0
 30
0.0
  3
*MODEL_SPACE
  1

  0
ENDBLK
  5
1C
330
1A
100
AcDbEntity
  8
0
100
AcDbBlockEnd
  0
BLOCK
  5
28FD
330
28FB
100
AcDbEntity
 67
     1
  8
0
 48
10.0
100
AcDbBlockBegin
  2
*Paper_Space
 70
     0
 10
0.0
 20
0.0
 30
0.0
  3
*Paper_Space
  1

  0
ENDBLK
  5
28FE
330
28FB
100
AcDbEntity
 67
     1
  8
0
 48
10.0
100
AcDbBlockEnd
  0
BLOCK
  5
299F
330
299E
100
AcDbEntity
  8
0
 48
10.0
100
AcDbBlockBegin
  2
*Paper_Space0
 70
     0
 10
0.0
 20
0.0
 30
0.0
  3
*Paper_Space0
  1

  0
VIEWPORT
  5
29A0
330
299E
100
AcDbEntity
  8
0
 48
10.0
100
AcDbViewport
 10
233.9923987768948
 20
231.5493555185928
 30
0.0
 40
1088.852316217011
 41
568.1952835144902
 69
     0
 12
233.9923987768948
 22
231.5493555185928
 13
0.0
 23
0.0
 14
10.0
 24
10.0
 15
10.0
 25
10.0
 16
0.0
 26
0.0
 36
1.0
 17
0.0
 27
0.0
 37
0.0
 42
50.0
 43
0.0
 44
0.0
 45
568.1952835144902
 50
0.0
 51
0.0
 72
   100
 90
    32800
  1

281
     0
 71
     1
 74
     0
110
0.0
120
0.0
130
0.0
111
1.0
121
0.0
131
0.0
112
0.0
122
1.0
132
0.0
 79
     0
146
0.0
170
     0
  0
VIEWPORT
  5
29A1
330
299E
100
AcDbEntity
  8
図枠太線
 48
10.0
100
AcDbViewport
 10
143.3797153809096
 20
220.3348546596005
 30
0.0
 40
280.0
 41
375.0
 69
     0
 12
-325.6038545710309
 22
56.61719689340706
 13
0.0
 23
0.0
 14
1.0
 24
1.0
 15
0.0
 25
0.0
 16
0.0
 26
0.0
 36
1.0
 17
0.0
 27
0.0
 37
0.0
 42
50.0
 43
0.0
 44
0.0
 45
749.9999994146318
 50
0.0
 51
0.0
 72
   100
 90
    32768
  1

281
     0
 71
     1
 74
     0
110
0.0
120
0.0
130
0.0
111
1.0
121
0.0
131
0.0
112
0.0
122
1.0
132
0.0
 79
     0
146
0.0
170
     0
  0
INSERT
  5
2A93
330
299E
100
AcDbEntity
  8
図枠太線
100
AcDbBlockReference
  2
A3縦用　タイトル
 10
-0.1981565020514608
 20
0.014011970346246
 30
0.0
  0
ENDBLK
  5
29A3
330
299E
100
AcDbEntity
  8
0
 48
10.0
100
AcDbBlockEnd
  0
BLOCK
  5
18
330
17
100
AcDbEntity
  8
0
100
AcDbBlockBegin
  2
*PAPER_SPACE1
 70
     0
 10
0.0
 20
0.0
 30
0.0
  3
*PAPER_SPACE1
  1

  0
VIEWPORT
  5
22
330
17
100
AcDbEntity
  8
0
100
AcDbViewport
 10
212.4838448262036
 20
109.6254661626055
 30
0.0
 40
488.9358565145
 41
266.3175070053685
 69
     0
 12
212.4838448262036
 22
109.6254661626055
 13
0.0
 23
0.0
 14
10.0
 24
10.0
 15
10.0
 25
10.0
 16
0.0
 26
0.0
 36
1.0
 17
0.0
 27
0.0
 37
0.0
 42
50.0
 43
0.0
 44
0.0
 45
266.3175070053685
 50
0.0
 51
0.0
 72
   100
 90
    32768
  1

281
     0
 71
     1
 74
     0
110
0.0
120
0.0
130
0.0
111
1.0
121
0.0
131
0.0
112
0.0
122
1.0
132
0.0
 79
     0
146
0.0
170
     0
  0
VIEWPORT
  5
2894
330
17
100
AcDbEntity
  8
図枠太線
 48
10.0
100
AcDbViewport
 10
141.848181194984
 20
114.0973158703343
 30
0.0
 40
280.0
 41
165.000002
 69
     0
 12
-125.527626438517
 22
265.324262190868
 13
0.0
 23
0.0
 14
1.0
 24
1.0
 15
0.0
 25
0.0
 16
0.0
 26
0.0
 36
1.0
 17
0.0
 27
0.0
 37
0.0
 42
50.0
 43
0.0
 44
0.0
 45
330.000004
 50
0.0
 51
0.0
 72
   100
 90
    32768
  1

281
     0
 71
     1
 74
     0
110
0.0
120
0.0
130
0.0
111
1.0
121
0.0
131
0.0
112
0.0
122
1.0
132
0.0
 79
     0
146
0.0
170
     0
  0
INSERT
  5
29F1
330
17
100
AcDbEntity
  8
図枠太線
100
AcDbBlockReference
  2
A4横用　タイトル
 10
-2.212829876066734
 20
-0.2092913830236966
 30
0.0
  0
ENDBLK
  5
19
330
17
100
AcDbEntity
  8
0
100
AcDbBlockEnd
  0
BLOCK
  5
2964
330
2963
100
AcDbEntity
  8
0
100
AcDbBlockBegin
  2
*PAPER_SPACE2
 70
     0
 10
0.0
 20
0.0
 30
0.0
  3
*PAPER_SPACE2
  1

  0
VIEWPORT
  5
2965
330
2963
100
AcDbEntity
  8
0
100
AcDbViewport
 10
166.1569503282048
 20
87.39349045170994
 30
0.0
 40
568.1958266961536
 41
265.6640792758734
 69
     0
 12
166.1569503282048
 22
87.39349045170994
 13
0.0
 23
0.0
 14
10.0
 24
10.0
 15
10.0
 25
10.0
 16
0.0
 26
0.0
 36
1.0
 17
0.0
 27
0.0
 37
0.0
 42
50.0
 43
0.0
 44
0.0
 45
265.6640792758734
 50
0.0
 51
0.0
 72
   100
 90
    32768
  1

281
     0
 71
     1
 74
     0
110
0.0
120
0.0
130
0.0
111
1.0
121
0.0
131
0.0
112
0.0
122
1.0
132
0.0
 79
     0
146
0.0
170
     0
  0
VIEWPORT
  5
2966
330
2963
100
AcDbEntity
  8
図枠太線
 48
10.0
100
AcDbViewport
 10
102.8452592942355
 20
157.1607220215001
 30
0.0
 40
190.0036147860778
 41
249.9992277795234
 69
     0
 12
-152.9296794313015
 22
168.0276205449933
 13
0.0
 23
0.0
 14
1.0
 24
1.0
 15
0.0
 25
0.0
 16
0.0
 26
0.0
 36
1.0
 17
0.0
 27
0.0
 37
0.0
 42
50.0
 43
0.0
 44
0.0
 45
175.6404856089332
 50
0.0
 51
0.0
 72
   100
 90
    32768
  1

281
     0
 71
     1
 74
     0
110
0.0
120
0.0
130
0.0
111
1.0
121
0.0
131
0.0
112
0.0
122
1.0
132
0.0
 79
     0
146
0.0
170
     0
  0
INSERT
  5
2A23
330
2963
100
AcDbEntity
  8
図枠太線
100
AcDbBlockReference
  2
A4縦用　タイトル
 10
5.47882082300714
 20
-2.364323092845552
 30
0.0
  0
ENDBLK
  5
2993
330
2963
100
AcDbEntity
  8
0
100
AcDbBlockEnd
  0
BLOCK
  5
29C0
330
29BF
100
AcDbEntity
  8
0
100
AcDbBlockBegin
  2
A4横用　タイトル
 70
     0
 10
0.0
 20
0.0
 30
0.0
  3
A4横用　タイトル
  1

  0
LINE
  5
29C1
330
29BF
100
AcDbEntity
  8
図枠細線
  6
Continuous
100
AcDbLine
 10
75.06101107105076
 20
16.80660725335804
 30
0.0
 11
144.0610110710507
 21
16.80660478907234
 31
0.0
  0
LINE
  5
29C2
330
29BF
100
AcDbEntity
  8
図枠細線
  6
Continuous
 62
   252
100
AcDbLine
 10
4.061011071050756
 20
11.80660625335804
 30
0.0
 11
75.06101107105074
 21
11.80660625335804
 31
0.0
  0
LINE
  5
29C3
330
29BF
100
AcDbEntity
  8
図枠細線
  6
Continuous
 62
   252
100
AcDbLine
 10
4.061011071050756
 20
21.80660625335804
 30
0.0
 11
75.06101107105074
 21
21.80660625335805
 31
0.0
  0
LINE
  5
29C4
330
29BF
100
AcDbEntity
  8
図枠細線
  6
Continuous
 62
   252
100
AcDbLine
 10
4.061011071050756
 20
26.80660625335804
 30
0.0
 11
75.06101107105074
 21
26.80660625335804
 31
0.0
  0
LINE
  5
29C5
330
29BF
100
AcDbEntity
  8
図枠細線
  6
Continuous
100
AcDbLine
 10
4.061011071050756
 20
16.80660825335803
 30
0.0
 11
75.06101107105074
 21
16.80660825335803
 31
0.0
  0
TEXT
  5
29C6
330
29BF
100
AcDbEntity
  8
図枠細線
  6
Continuous
 62
   252
100
AcDbText
 10
76.40547582771296
 20
9.560308253358016
 30
0.0
 40
2.0
  1
ＴＨＩＲＤ　ＡＮＧＬＥ
 41
0.6910994867379731
  7
EXCADSTD
 72
     5
 11
94.00547608997333
 21
9.560308253358016
 31
0.0
100
AcDbText
  0
TEXT
  5
29C7
330
29BF
100
AcDbEntity
  8
図枠細線
  6
Continuous
 62
   252
100
AcDbText
 10
76.70577588092118
 20
14.30660825335803
 30
0.0
 40
2.0
  1
第三角法
 41
1.102941176470587
  7
EXCADSTD
 72
     5
 11
86.70577588092118
 21
14.30660825335803
 31
0.0
100
AcDbText
  0
TEXT
  5
29C8
330
29BF
100
AcDbEntity
  8
図枠細線
  6
Continuous
 62
   252
100
AcDbText
 10
76.70577588092118
 20
26.80660825335804
 30
0.0
 40
2.0
  1
ＡＰＰＲＯＶＥＤ
 41
0.6956521842790683
  7
EXCADSTD
 72
     5
 11
89.50577607165604
 21
26.80660825335804
 31
0.0
100
AcDbText
  0
TEXT
  5
29C9
330
29BF
100
AcDbEntity
  8
図枠細線
  6
Continuous
 62
   252
100
AcDbText
 10
76.70577588092118
 20
29.30660825335804
 30
0.0
 40
2.0
  1
承認
 41
1.171875
  7
EXCADSTD
 72
     5
 11
81.70577588092118
 21
29.30660825335804
 31
0.0
100
AcDbText
  0
LINE
  5
29CA
330
29BF
100
AcDbEntity
  8
図枠細線
  6
Continuous
 62
   252
100
AcDbLine
 10
98.06101107105076
 20
31.80660625335804
 30
0.0
 11
98.06101107105076
 21
16.80660625335804
 31
0.0
  0
TEXT
  5
29CB
330
29BF
100
AcDbEntity
  8
図枠細線
  6
Continuous
 62
   252
100
AcDbText
 10
104.2165311198036
 20
14.30660825335803
 30
0.0
 40
2.0
  1
ＳＣＡＬＥ
 41
0.9036144578313253
  7
EXCADSTD
 72
     5
 11
114.2165311198036
 21
14.30660825335803
 31
0.0
100
AcDbText
  0
TEXT
  5
29CC
330
29BF
100
AcDbEntity
  8
図枠細線
  6
Continuous
 62
   252
100
AcDbText
 10
98.84404411980364
 20
14.30660825335803
 30
0.0
 40
2.0
  1
尺度
 41
1.171874999999999
  7
EXCADSTD
 72
     5
 11
103.8440441198036
 21
14.30660825335803
 31
0.0
100
AcDbText
  0
TEXT
  5
29CD
330
29BF
100
AcDbEntity
  8
図枠細線
  6
Continuous
 62
   252
100
AcDbText
 10
98.96872770749741
 20
26.80660825335804
 30
0.0
 40
2.0
  1
ＣＨＥＣＫＥＤ
 41
0.8312499895691873
  7
EXCADSTD
 72
     5
 11
112.2687275406044
 21
26.80660825335804
 31
0.0
100
AcDbText
  0
TEXT
  5
29CE
330
29BF
100
AcDbEntity
  8
図枠細線
  6
Continuous
 62
   252
100
AcDbText
 10
98.96872770749741
 20
29.30660825335804
 30
0.0
 40
2.0
  1
検図
 41
1.209677419354838
  7
EXCADSTD
 72
     5
 11
103.9687277074974
 21
29.30660825335804
 31
0.0
100
AcDbText
  0
LINE
  5
29CF
330
29BF
100
AcDbEntity
  8
図枠細線
  6
Continuous
 62
   252
100
AcDbLine
 10
121.0610110710507
 20
31.80660625335806
 30
0.0
 11
121.0610110710507
 21
16.80660625335805
 31
0.0
  0
TEXT
  5
29D0
330
29BF
100
AcDbEntity
  8
図枠細線
  6
Continuous
 62
   252
100
AcDbText
 10
128.0014652472527
 20
14.30660825335803
 30
0.0
 40
2.0
  1
ＤＡＴＥ
 41
0.9230769230769231
  7
EXCADSTD
 72
     5
 11
136.0014652472527
 21
14.30660825335803
 31
0.0
100
AcDbText
  0
TEXT
  5
29D1
330
29BF
100
AcDbEntity
  8
図枠細線
  6
Continuous
 62
   252
100
AcDbText
 10
122.0664154988409
 20
14.30660825335803
 30
0.0
 40
2.0
  1
日付
 41
1.171875
  7
EXCADSTD
 72
     5
 11
127.0664154988409
 21
14.30660825335803
 31
0.0
100
AcDbText
  0
TEXT
  5
29D2
330
29BF
100
AcDbEntity
  8
図枠細線
  6
Continuous
 62
   252
100
AcDbText
 10
121.5942940657102
 20
29.30660825335804
 30
0.0
 40
2.0
  1
製図
 41
1.209677419354838
  7
EXCADSTD
 72
     5
 11
126.5942940657102
 21
29.30660825335804
 31
0.0
100
AcDbText
  0
TEXT
  5
29D3
330
29BF
100
AcDbEntity
  8
図枠細線
  6
Continuous
 62
   252
100
AcDbText
 10
121.5942940657102
 20
26.80660825335804
 30
0.0
 40
2.0
  1
ＤＲＡＷＮ
 41
0.8823529411764708
  7
EXCADSTD
 72
     5
 11
131.5942940657102
 21
26.80660825335804
 31
0.0
100
AcDbText
  0
TEXT
  5
29D4
330
29BF
100
AcDbEntity
  8
図枠細線
  6
Continuous
 62
   252
100
AcDbText
 10
226.5912296613477
 20
14.30660825335803
 30
0.0
 40
2.0
  1
ＤＲＧ．ＮＯ．
 41
0.9375
  7
EXCADSTD
 72
     5
 11
240.5912296613478
 21
14.30660825335803
 31
0.0
100
AcDbText
  0
LINE
  5
29D5
330
29BF
100
AcDbEntity
  8
図枠太線
  6
Continuous
 62
   251
100
AcDbLine
 10
144.0610030710507
 20
16.80660625335804
 30
0.0
 11
214.0610110710508
 21
16.80660625335804
 31
0.0
  0
LINE
  5
29D6
330
29BF
100
AcDbEntity
  8
図枠細線
  6
Continuous
 62
   252
100
AcDbLine
 10
144.0610110710507
 20
24.30660625335804
 30
0.0
 11
214.0610110710508
 21
24.30660625335804
 31
0.0
  0
TEXT
  5
29D7
330
29BF
100
AcDbEntity
  8
図枠ロゴマーク
  6
Continuous
 62
   253
100
AcDbText
 10
146.4337767815963
 20
8.399000253358053
 30
0.0
 40
7.0
  1
東和制電工業株式会社
 41
0.8036108846195519
  7
EXCADSTD
 72
     5
 11
212.4370174383488
 21
8.399000253358053
 31
0.0
100
AcDbText
  0
TEXT
  5
29D8
330
29BF
100
AcDbEntity
  8
図枠細線
  6
Continuous
 62
   252
100
AcDbText
 10
215.156179912936
 20
14.30660825335803
 30
0.0
 40
2.0
  1
図面番号
 41
1.102941176470588
  7
EXCADSTD
 72
     5
 11
225.156179912936
 21
14.30660825335803
 31
0.0
100
AcDbText
  0
TEXT
  5
29D9
330
29BF
100
AcDbEntity
  8
図枠細線
  6
Continuous
 62
   252
100
AcDbText
 10
221.5912296613478
 20
29.30660825335804
 30
0.0
 40
2.0
  1
ＴＩＴＬＥ
 41
0.9036144578313251
  7
EXCADSTD
 72
     5
 11
231.5912296613477
 21
29.30660825335804
 31
0.0
100
AcDbText
  0
TEXT
  5
29DA
330
29BF
100
AcDbEntity
  8
図枠細線
  6
Continuous
 62
   252
100
AcDbText
 10
215.156179912936
 20
29.30660825335804
 30
0.0
 40
2.0
  1
名称
 41
1.171875
  7
EXCADSTD
 72
     5
 11
220.156179912936
 21
29.30660825335804
 31
0.0
100
AcDbText
  0
LINE
  5
29DB
330
29BF
100
AcDbEntity
  8
図枠太線
  6
Continuous
 62
   251
100
AcDbLine
 10
4.061011071050756
 20
1.806608253358035
 30
0.0
 11
284.0610110710508
 21
1.806608253358035
 31
0.0
  0
LINE
  5
29DC
330
29BF
100
AcDbEntity
  8
図枠細線
  6
Continuous
 62
   252
100
AcDbLine
 10
4.061011071050756
 20
6.806608253358035
 30
0.0
 11
75.06101107105074
 21
6.806608253358035
 31
0.0
  0
LINE
  5
29DD
330
29BF
100
AcDbEntity
  8
図枠太線
  6
Continuous
 62
   251
100
AcDbLine
 10
75.06101107105076
 20
1.806608253358042
 30
0.0
 11
75.06101107105076
 21
31.80660625335805
 31
0.0
  0
TEXT
  5
29DE
330
29BF
100
AcDbEntity
  8
図枠細線
  6
Continuous
 62
   252
100
AcDbText
 10
76.33055182771295
 20
6.638319253358019
 30
0.0
 40
2.0
  1
ＰＲＯＪＥＣＴＩＯＮ
 41
0.7542857101985412
  7
EXCADSTD
 72
     5
 11
93.93055173234557
 21
6.638319253358019
 31
0.0
100
AcDbText
  0
LINE
  5
29DF
330
29BF
100
AcDbEntity
  8
図枠細線
  6
Continuous
 62
   252
100
AcDbLine
 10
98.06101107105076
 20
1.806606931929469
 30
0.0
 11
98.06101107105076
 21
16.80660493192947
 31
0.0
  0
LINE
  5
29E0
330
29BF
100
AcDbEntity
  8
図枠細線
  6
Continuous
 62
   252
100
AcDbLine
 10
121.0610110710507
 20
1.806607574786621
 30
0.0
 11
121.0610110710507
 21
16.80660557478663
 31
0.0
  0
LINE
  5
29E1
330
29BF
100
AcDbEntity
  8
図枠太線
  6
Continuous
 62
   251
100
AcDbLine
 10
284.0610110710508
 20
1.806608253358035
 30
0.0
 11
284.0610110710508
 21
31.80660625335804
 31
0.0
  0
LINE
  5
29E2
330
29BF
100
AcDbEntity
  8
図枠細線
  6
Continuous
 62
   252
100
AcDbLine
 10
214.0610110710508
 20
16.80660625335804
 30
0.0
 11
284.0610110710508
 21
16.80660625335804
 31
0.0
  0
TEXT
  5
29E3
330
29BF
100
AcDbEntity
  8
図枠細線
  6
Continuous
 62
   252
100
AcDbText
 10
146.1995936761824
 20
3.454099253358037
 30
0.0
 40
3.5
  1
ＴＯＷＡ　ＳＥＩＤＥＮ　ＩＮＤＵＳＴＲＩＡＬ　ＣＯ．，ＬＴＤ．
 41
0.5289378269070804
  7
EXCADSTD
 72
     5
 11
213.3394351715878
 21
3.454099253358037
 31
0.0
100
AcDbText
  0
LINE
  5
29E4
330
29BF
100
AcDbEntity
  8
図枠太線
  6
Continuous
 62
   251
100
AcDbLine
 10
144.0610110710507
 20
1.806608253358035
 30
0.0
 11
144.0610110710507
 21
31.80660625335804
 31
0.0
  0
LINE
  5
29E5
330
29BF
100
AcDbEntity
  8
図枠太線
  6
Continuous
 62
   251
100
AcDbLine
 10
214.0610110710508
 20
1.806608253358035
 30
0.0
 11
214.0610110710508
 21
31.80660625335804
 31
0.0
  0
MTEXT
  5
29E6
330
29BF
100
AcDbEntity
  8
図枠太線
100
AcDbMText
 10
5.064337346478396
 20
31.0109821374075
 30
0.0
 40
2.5
 41
8.678560984720206
 71
     1
 72
     5
  1
{\Fmonotxt.shx,bigfont.shx|c128;図暦}
 73
     1
 44
1.0
  0
LINE
  5
29E7
330
29BF
100
AcDbEntity
  8
図枠太線
  6
Continuous
 62
   251
100
AcDbLine
 10
4.061011071050756
 20
1.806608253358035
 30
0.0
 11
4.061011071050756
 21
31.80660625335804
 31
0.0
  0
TEXT
  5
29E8
330
29BF
100
AcDbEntity
  8
図枠細線
 48
10.0
100
AcDbText
 10
12.26081742040207
 20
28.62541962649539
 30
0.0
 40
2.0
  1
CHANGE NOTICE
100
AcDbText
  0
ENDBLK
  5
29E9
330
29BF
100
AcDbEntity
  8
0
100
AcDbBlockEnd
  0
BLOCK
  5
29F5
330
29F4
100
AcDbEntity
  8
0
100
AcDbBlockBegin
  2
A4縦用　タイトル
 70
     0
 10
0.0
 20
0.0
 30
0.0
  3
A4縦用　タイトル
  1

  0
LINE
  5
29F6
330
29F4
100
AcDbEntity
  8
図枠太線
  6
Continuous
 62
   251
100
AcDbLine
 10
2.36825386426733
 20
4.525433224583935
 30
0.0
 11
192.3682458642673
 21
4.525433224583935
 31
0.0
  0
LINE
  5
29F7
330
29F4
100
AcDbEntity
  8
図枠太線
  6
Continuous
 62
   251
100
AcDbLine
 10
78.36824586426729
 20
19.52543122458394
 30
0.0
 11
135.3682538642673
 21
19.52543122458394
 31
0.0
  0
LINE
  5
29F8
330
29F4
100
AcDbEntity
  8
図枠細線
  6
Continuous
 62
   252
100
AcDbLine
 10
78.36825386426733
 20
27.02543122458394
 30
0.0
 11
135.3682538642673
 21
27.02543122458394
 31
0.0
  0
TEXT
  5
29F9
330
29F4
100
AcDbEntity
  8
図枠ロゴマーク
  6
Continuous
 62
   253
100
AcDbText
 10
80.61700986426728
 20
11.11782522458395
 30
0.0
 40
7.0
  1
東和制電工業株式会社
 41
0.6392045454545461
  7
EXCADSTD
 72
     5
 11
133.1170098642673
 21
11.11782522458395
 31
0.0
100
AcDbText
  0
TEXT
  5
29FA
330
29F4
100
AcDbEntity
  8
図枠細線
  6
Continuous
 62
   252
100
AcDbText
 10
80.57954986426727
 20
6.172924224583937
 30
0.0
 40
3.5
  1
ＴＯＷＡ　ＳＥＩＤＥＮ　ＩＮＤＵＳＴＲＩＡＬ　ＣＯ．，ＬＴＤ．
 41
0.4145680123767934
  7
EXCADSTD
 72
     5
 11
133.2020495686283
 21
6.172924224583937
 31
0.0
100
AcDbText
  0
LINE
  5
29FB
330
29F4
100
AcDbEntity
  8
図枠太線
  6
Continuous
 62
   251
100
AcDbLine
 10
2.36825386426733
 20
4.525433224583935
 30
0.0
 11
2.36825386426733
 21
34.52543122458394
 31
0.0
  0
TEXT
  5
29FC
330
29F4
100
AcDbEntity
  8
図枠細線
  6
Continuous
 62
   252
100
AcDbText
 10
22.50430813650149
 20
12.27913322458391
 30
0.0
 40
2.0
  1
ＴＨＩＲＤ　ＡＮＧＬＥ
 41
0.6910994867379731
  7
EXCADSTD
 72
     5
 11
40.10430839876187
 21
12.27913322458391
 31
0.0
100
AcDbText
  0
TEXT
  5
29FD
330
29F4
100
AcDbEntity
  8
図枠細線
  6
Continuous
 62
   252
100
AcDbText
 10
22.42938413650148
 20
9.357144224583919
 30
0.0
 40
2.0
  1
ＰＲＯＪＥＣＴＩＯＮ
 41
0.7542857101985414
  7
EXCADSTD
 72
     5
 11
40.0293840411341
 21
9.357144224583919
 31
0.0
100
AcDbText
  0
LINE
  5
29FE
330
29F4
100
AcDbEntity
  8
図枠細線
  6
Continuous
100
AcDbLine
 10
22.36825386426733
 20
19.52543322458393
 30
0.0
 11
78.36825386426733
 21
19.52543122458394
 31
0.0
  0
TEXT
  5
29FF
330
29F4
100
AcDbEntity
  8
図枠細線
  6
Continuous
 62
   252
100
AcDbText
 10
22.86825386426733
 20
17.02543322458393
 30
0.0
 40
2.0
  1
第三角法
 41
1.102941176470588
  7
EXCADSTD
 72
     5
 11
32.86825386426733
 21
17.02543322458393
 31
0.0
100
AcDbText
  0
TEXT
  5
2A00
330
29F4
100
AcDbEntity
  8
図枠細線
  6
Continuous
 62
   252
100
AcDbText
 10
22.86825386426733
 20
29.52543322458394
 30
0.0
 40
2.0
  1
ＡＰＰＲＯＶＥＤ
 41
0.6956521842790688
  7
EXCADSTD
 72
     5
 11
35.6682540550022
 21
29.52543322458394
 31
0.0
100
AcDbText
  0
LINE
  5
2A01
330
29F4
100
AcDbEntity
  8
図枠細線
  6
Continuous
 62
   252
100
AcDbLine
 10
2.36825386426733
 20
9.525433224583935
 30
0.0
 11
22.36825386426733
 21
9.525433224583935
 31
0.0
  0
LINE
  5
2A02
330
29F4
100
AcDbEntity
  8
図枠細線
  6
Continuous
 62
   252
100
AcDbLine
 10
2.36825386426733
 20
14.52543122458394
 30
0.0
 11
22.36825386426733
 21
14.52543122458394
 31
0.0
  0
LINE
  5
2A03
330
29F4
100
AcDbEntity
  8
図枠細線
  6
Continuous
 62
   252
100
AcDbLine
 10
2.36825386426733
 20
24.52543122458394
 30
0.0
 11
22.36825386426733
 21
24.52543122458394
 31
0.0
  0
LINE
  5
2A04
330
29F4
100
AcDbEntity
  8
図枠細線
  6
Continuous
 62
   252
100
AcDbLine
 10
2.36825386426733
 20
29.52543122458394
 30
0.0
 11
22.36825386426733
 21
29.52543122458394
 31
0.0
  0
LINE
  5
2A05
330
29F4
100
AcDbEntity
  8
図枠細線
  6
Continuous
100
AcDbLine
 10
2.36825386426733
 20
19.52543322458393
 30
0.0
 11
22.36825386426733
 21
19.52543322458393
 31
0.0
  0
TEXT
  5
2A06
330
29F4
100
AcDbEntity
  8
図枠細線
  6
Continuous
 62
   252
100
AcDbText
 10
2.86825386426733
 20
32.02543322458394
 30
0.0
 40
2.0
  1
ＮＯＴＥ
 41
0.9230769230769231
  7
EXCADSTD
 72
     5
 11
10.86825386426733
 21
32.02543322458394
 31
0.0
100
AcDbText
  0
LINE
  5
2A07
330
29F4
100
AcDbEntity
  8
図枠太線
  6
Continuous
 62
   251
100
AcDbLine
 10
22.36825386426733
 20
4.525433224583935
 30
0.0
 11
22.36825386426733
 21
34.52543122458394
 31
0.0
  0
TEXT
  5
2A08
330
29F4
100
AcDbEntity
  8
図枠細線
  6
Continuous
 62
   252
100
AcDbText
 10
22.86825386426733
 20
32.02543322458394
 30
0.0
 40
2.0
  1
承認
 41
1.171875
  7
EXCADSTD
 72
     5
 11
27.86825386426733
 21
32.02543322458394
 31
0.0
100
AcDbText
  0
TEXT
  5
2A09
330
29F4
100
AcDbEntity
  8
図枠細線
  6
Continuous
 62
   252
100
AcDbText
 10
60.7117090359817
 20
32.02543322458394
 30
0.0
 40
2.0
  1
製図
 41
1.209677419354838
  7
EXCADSTD
 72
     5
 11
65.7117090359817
 21
32.02543322458394
 31
0.0
100
AcDbText
  0
TEXT
  5
2A0A
330
29F4
100
AcDbEntity
  8
図枠細線
  6
Continuous
 62
   252
100
AcDbText
 10
60.7117090359817
 20
29.52543322458394
 30
0.0
 40
2.0
  1
ＤＲＡＷＮ
 41
0.8823529411764708
  7
EXCADSTD
 72
     5
 11
70.7117090359817
 21
29.52543322458394
 31
0.0
100
AcDbText
  0
TEXT
  5
2A0B
330
29F4
100
AcDbEntity
  8
図枠細線
  6
Continuous
 62
   252
100
AcDbText
 10
60.83489174387716
 20
17.02543322458393
 30
0.0
 40
2.0
  1
日付
 41
1.171875
  7
EXCADSTD
 72
     5
 11
65.83489174387716
 21
17.02543322458393
 31
0.0
100
AcDbText
  0
TEXT
  5
2A0C
330
29F4
100
AcDbEntity
  8
図枠細線
  6
Continuous
 62
   252
100
AcDbText
 10
47.33366086426729
 20
17.02543322458393
 30
0.0
 40
2.0
  1
ＳＣＡＬＥ
 41
0.9036144578313253
  7
EXCADSTD
 72
     5
 11
57.3336608642673
 21
17.02543322458393
 31
0.0
100
AcDbText
  0
TEXT
  5
2A0D
330
29F4
100
AcDbEntity
  8
図枠細線
  6
Continuous
 62
   252
100
AcDbText
 10
42.28142599008208
 20
29.52543322458394
 30
0.0
 40
2.0
  1
ＣＨＥＣＫＥＤ
 41
0.8312499895691873
  7
EXCADSTD
 72
     5
 11
55.58142582318907
 21
29.52543322458394
 31
0.0
100
AcDbText
  0
LINE
  5
2A0E
330
29F4
100
AcDbEntity
  8
図枠細線
  6
Continuous
 62
   252
100
AcDbLine
 10
40.96825386426733
 20
34.52543122458394
 30
0.0
 11
40.96825386426733
 21
19.52543122458394
 31
0.0
  0
LINE
  5
2A0F
330
29F4
100
AcDbEntity
  8
図枠細線
  6
Continuous
 62
   252
100
AcDbLine
 10
40.96825386426733
 20
4.525433224583935
 30
0.0
 11
40.96825386426733
 21
19.52543122458394
 31
0.0
  0
TEXT
  5
2A10
330
29F4
100
AcDbEntity
  8
図枠細線
  6
Continuous
 62
   252
100
AcDbText
 10
41.96117386426727
 20
17.02543322458393
 30
0.0
 40
2.0
  1
尺度
 41
1.171874999999999
  7
EXCADSTD
 72
     5
 11
46.96117386426727
 21
17.02543322458393
 31
0.0
100
AcDbText
  0
TEXT
  5
2A11
330
29F4
100
AcDbEntity
  8
図枠細線
  6
Continuous
 62
   252
100
AcDbText
 10
42.28142599008208
 20
32.02543322458394
 30
0.0
 40
2.0
  1
検図
 41
1.209677419354838
  7
EXCADSTD
 72
     5
 11
47.28142599008208
 21
32.02543322458394
 31
0.0
100
AcDbText
  0
LINE
  5
2A12
330
29F4
100
AcDbEntity
  8
図枠細線
  6
Continuous
 62
   252
100
AcDbLine
 10
59.76825386426733
 20
34.52543122458394
 30
0.0
 11
59.76825386426733
 21
19.52543122458394
 31
0.0
  0
LINE
  5
2A13
330
29F4
100
AcDbEntity
  8
図枠細線
  6
Continuous
 62
   252
100
AcDbLine
 10
59.76825386426733
 20
4.525433224583935
 30
0.0
 11
59.76825386426733
 21
19.52543122458394
 31
0.0
  0
LINE
  5
2A14
330
29F4
100
AcDbEntity
  8
図枠太線
  6
Continuous
 62
   251
100
AcDbLine
 10
78.36825386426733
 20
4.525433224583935
 30
0.0
 11
78.36825386426733
 21
34.52543122458394
 31
0.0
  0
TEXT
  5
2A15
330
29F4
100
AcDbEntity
  8
図枠細線
  6
Continuous
 62
   252
100
AcDbText
 10
66.33489174387716
 20
17.02543322458393
 30
0.0
 40
2.0
  1
ＤＡＴＥ
 41
0.9230769230769231
  7
EXCADSTD
 72
     5
 11
74.33489174387716
 21
17.02543322458393
 31
0.0
100
AcDbText
  0
LINE
  5
2A16
330
29F4
100
AcDbEntity
  8
図枠細線
  6
Continuous
 62
   252
100
AcDbLine
 10
135.3682538642673
 20
19.52543122458394
 30
0.0
 11
192.3682458642673
 21
19.52543122458394
 31
0.0
  0
TEXT
  5
2A17
330
29F4
100
AcDbEntity
  8
図枠細線
  6
Continuous
 62
   252
100
AcDbText
 10
141.8682538642673
 20
32.02543322458394
 30
0.0
 40
2.0
  1
ＴＩＴＬＥ
 41
0.9036144578313251
  7
EXCADSTD
 72
     5
 11
151.8682538642673
 21
32.02543322458394
 31
0.0
100
AcDbText
  0
LINE
  5
2A18
330
29F4
100
AcDbEntity
  8
図枠太線
  6
Continuous
 62
   251
100
AcDbLine
 10
135.3682538642673
 20
4.525433224583935
 30
0.0
 11
135.3682538642673
 21
34.52543122458394
 31
0.0
  0
TEXT
  5
2A19
330
29F4
100
AcDbEntity
  8
図枠細線
  6
Continuous
 62
   252
100
AcDbText
 10
135.8682538642673
 20
17.02543322458393
 30
0.0
 40
2.0
  1
図面番号
 41
1.102941176470588
  7
EXCADSTD
 72
     5
 11
145.8682538642673
 21
17.02543322458393
 31
0.0
100
AcDbText
  0
TEXT
  5
2A1A
330
29F4
100
AcDbEntity
  8
図枠細線
  6
Continuous
 62
   252
100
AcDbText
 10
135.8682538642673
 20
32.02543322458394
 30
0.0
 40
2.0
  1
名称
 41
1.171875
  7
EXCADSTD
 72
     5
 11
140.8682538642673
 21
32.02543322458394
 31
0.0
100
AcDbText
  0
TEXT
  5
2A1B
330
29F4
100
AcDbEntity
  8
図枠細線
  6
Continuous
 62
   252
100
AcDbText
 10
146.8682538642673
 20
17.02543322458393
 30
0.0
 40
2.0
  1
ＤＲＧ．ＮＯ．
 41
0.9375
  7
EXCADSTD
 72
     5
 11
160.8682538642673
 21
17.02543322458393
 31
0.0
100
AcDbText
  0
LINE
  5
2A1C
330
29F4
100
AcDbEntity
  8
図枠太線
  6
Continuous
 62
   251
100
AcDbLine
 10
192.3682458642673
 20
4.525433224583935
 30
0.0
 11
192.3682458642673
 21
34.52543122458394
 31
0.0
  0
ENDBLK
  5
2A1D
330
29F4
100
AcDbEntity
  8
0
100
AcDbBlockEnd
  0
BLOCK
  5
2A33
330
2A32
100
AcDbEntity
  8
0
100
AcDbBlockBegin
  2
A3横用　タイトル
 70
     0
 10
0.0
 20
0.0
 30
0.0
  3
A3横用　タイトル
  1

  0
LINE
  5
2A34
330
2A32
100
AcDbEntity
  8
図枠細線
  6
Continuous
 62
   252
100
AcDbLine
 10
205.0984145357926
 20
33.52595975352681
 30
0.0
 11
305.0984145357926
 21
33.52595975352681
 31
0.0
  0
LINE
  5
2A35
330
2A32
100
AcDbEntity
  8
図枠太線
  6
Continuous
 62
   251
100
AcDbLine
 10
205.0984145357927
 20
23.52595975352683
 30
0.0
 11
305.0984145357926
 21
23.52595975352683
 31
0.0
  0
LINE
  5
2A36
330
2A32
100
AcDbEntity
  8
図枠細線
  6
Continuous
100
AcDbLine
 10
5.098414535792699
 20
23.52595975352683
 30
0.0
 11
105.0984145357927
 21
23.52595975352683
 31
0.0
  0
LINE
  5
2A37
330
2A32
100
AcDbEntity
  8
図枠細線
  6
Continuous
 62
   252
100
AcDbLine
 10
5.098414535792702
 20
36.72595775352683
 30
0.0
 11
105.0984145357927
 21
36.72595775352683
 31
0.0
  0
LINE
  5
2A38
330
2A32
100
AcDbEntity
  8
図枠細線
  6
Continuous
 62
   252
100
AcDbLine
 10
5.098414535792699
 20
30.12595775352683
 30
0.0
 11
105.0984145357927
 21
30.12595775352683
 31
0.0
  0
LINE
  5
2A39
330
2A32
100
AcDbEntity
  8
図枠細線
  6
Continuous
 62
   252
100
AcDbLine
 10
5.0984145357927
 20
16.72595975352682
 30
0.0
 11
105.0984145357927
 21
16.72595975352682
 31
0.0
  0
LINE
  5
2A3A
330
2A32
100
AcDbEntity
  8
図枠細線
  6
Continuous
 62
   252
100
AcDbLine
 10
5.098414535792699
 20
10.12595975352682
 30
0.0
 11
105.0984145357927
 21
10.12595975352682
 31
0.0
  0
LINE
  5
2A3B
330
2A32
100
AcDbEntity
  8
図枠細線
  6
Continuous
100
AcDbLine
 10
105.0984145357926
 20
23.52596175352682
 30
0.0
 11
205.0984145357927
 21
23.52595975352683
 31
0.0
  0
LINE
  5
2A3C
330
2A32
100
AcDbEntity
  8
図枠細線
  6
Continuous
 62
   252
100
AcDbLine
 10
138.3984145357926
 20
43.52595975352682
 30
0.0
 11
138.3984145357926
 21
18.52595775352682
 31
0.0
  0
LINE
  5
2A3D
330
2A32
100
AcDbEntity
  8
図枠細線
  6
Continuous
 62
   252
100
AcDbLine
 10
171.6984145357926
 20
43.52595975352682
 30
0.0
 11
171.6984145357926
 21
18.52595775352682
 31
0.0
  0
LINE
  5
2A3E
330
2A32
100
AcDbEntity
  8
図枠細線
  6
Continuous
 62
   252
100
AcDbLine
 10
305.0984145357927
 20
23.52595975352683
 30
0.0
 11
405.0984145357927
 21
23.52595975352681
 31
0.0
  0
TEXT
  5
2A3F
330
2A32
100
AcDbEntity
  8
図枠ロゴマーク
  6
Continuous
 62
   253
100
AcDbText
 10
206.1025092127552
 20
13.29425757054633
 30
0.0
 40
7.0
  1
東和制電工業株式会社
 50
0.016555220184569
 41
1.186384129431804
  7
EXCADSTD
 72
     5
 11
303.5441883091428
 21
13.32241267221695
 31
0.0
100
AcDbText
  0
MTEXT
  5
2A40
330
2A32
100
AcDbEntity
  8
図枠細線
100
AcDbMText
 10
6.356764112374776
 20
41.97659417547754
 30
0.0
 40
2.5
 41
49.93828270629228
 71
     1
 72
     5
  1
{\Fmonotxt.shx,bigfont.shx|c128;図暦　CHANGE　NOTICE}
 73
     1
 44
1.0
  0
MTEXT
  5
2A41
330
2A32
100
AcDbEntity
  8
図枠細線
 48
10.0
100
AcDbMText
 10
306.5441149268283
 20
41.70183580093419
 30
0.0
 40
2.5
 41
28.00280961882254
 71
     1
 72
     5
  1
{\Fmonotxt.shx,bigfont.shx|c128;名称　TITLE}
 73
     1
 44
1.0
  0
MTEXT
  5
2A42
330
2A32
100
AcDbEntity
  8
図枠細線
 48
10.0
100
AcDbMText
 10
307.3296171142835
 20
21.60620679722615
 30
0.0
 40
2.5
 41
24.38561221670716
 71
     1
 72
     5
  1
{\Fmonotxt.shx,bigfont.shx|c128;図面番号\PDRG.　No.}
 73
     1
 44
1.0
  0
MTEXT
  5
2A43
330
2A32
100
AcDbEntity
  8
図枠細線
 48
10.0
100
AcDbMText
 10
173.7263494046087
 20
21.73680662198024
 30
0.0
 40
2.5
 41
25.73509016081289
 71
     1
 72
     5
  1
{\Fmonotxt.shx,bigfont.shx|c128;日付 DATE}
 73
     1
 44
1.0
  0
MTEXT
  5
2A44
330
2A32
100
AcDbEntity
  8
図枠細線
 48
10.0
100
AcDbMText
 10
173.4870883398202
 20
41.62159204499767
 30
0.0
 40
2.5
 41
24.98374118420452
 71
     1
 72
     5
  1
{\Fmonotxt.shx,bigfont.shx|c128;製図　DRAWN}
 73
     1
 44
1.0
  0
MTEXT
  5
2A45
330
2A32
100
AcDbEntity
  8
図枠細線
 48
10.0
100
AcDbMText
 10
139.28009927741
 20
21.8667130698675
 30
0.0
 40
2.5
 41
22.62963291324309
 71
     1
 72
     5
  1
{\Fmonotxt.shx,bigfont.shx|c128;尺度　SCALE}
 73
     1
 44
1.0
  0
MTEXT
  5
2A46
330
2A32
100
AcDbEntity
  8
図枠細線
 48
10.0
100
AcDbMText
 10
139.9100911798348
 20
41.31184041555377
 30
0.0
 40
2.5
 41
28.99875342836845
 71
     1
 72
     5
  1
{\Fmonotxt.shx,bigfont.shx|c128;検図  CHECKED}
 73
     1
 44
1.0
  0
MTEXT
  5
2A47
330
2A32
100
AcDbEntity
  8
図枠細線
 48
10.0
100
AcDbMText
 10
114.2532946677281
 20
21.91612485017367
 30
0.0
 40
3.0
 41
19.69240047538346
 71
     1
 72
     5
  1
{\Fmonotxt.shx,bigfont.shx|c128;第三角法}
 73
     1
 44
1.0
  0
MTEXT
  5
2A48
330
2A32
100
AcDbEntity
  8
図枠細線
 48
10.0
100
AcDbMText
 10
108.9869599299147
 20
15.28288018583657
 30
0.0
 40
2.5
 41
27.95488282354722
 71
     1
 72
     5
  1
{\Fmonotxt.shx,bigfont.shx|c128;THIRD ANGLE\PPROJECTION}
 73
     1
 44
1.0
  0
MTEXT
  5
2A49
330
2A32
100
AcDbEntity
  8
図枠細線
 48
10.0
100
AcDbMText
 10
106.3194326401844
 20
41.51143714548664
 30
0.0
 40
2.5
 41
28.23359526507397
 71
     1
 72
     5
  1
{\Fmonotxt.shx,bigfont.shx|c128;承認 APPROVED}
 73
     1
 44
1.0
  0
LINE
  5
2A4A
330
2A32
100
AcDbEntity
  8
図枠太線
  6
Continuous
 62
   251
100
AcDbLine
 10
5.098414535792699
 20
3.525959753526819
 30
0.0
 11
405.0984145357927
 21
3.525959753526819
 31
0.0
  0
LINE
  5
2A4B
330
2A32
100
AcDbEntity
  8
図枠太線
 48
10.0
100
AcDbLine
 10
5.098414535792699
 20
3.525959753526819
 30
0.0
 11
5.098414535792699
 21
43.52595975352682
 31
0.0
  0
LINE
  5
2A4C
330
2A32
100
AcDbEntity
  8
図枠太線
  6
Continuous
 62
   251
100
AcDbLine
 10
105.0984145357927
 20
3.525959753526819
 30
0.0
 11
105.0984145357927
 21
43.52595975352683
 31
0.0
  0
LINE
  5
2A4D
330
2A32
100
AcDbEntity
  8
図枠細線
  6
Continuous
 62
   252
100
AcDbLine
 10
138.3984145357926
 20
3.525959753526819
 30
0.0
 11
138.3984145357926
 21
18.52595775352682
 31
0.0
  0
LINE
  5
2A4E
330
2A32
100
AcDbEntity
  8
図枠細線
  6
Continuous
 62
   252
100
AcDbLine
 10
171.6984145357926
 20
3.525959753526819
 30
0.0
 11
171.6984145357926
 21
18.52595775352682
 31
0.0
  0
LINE
  5
2A4F
330
2A32
100
AcDbEntity
  8
図枠太線
  6
Continuous
 62
   251
100
AcDbLine
 10
205.0984145357927
 20
3.525959753526819
 30
0.0
 11
205.0984145357927
 21
43.52595975352683
 31
0.0
  0
LINE
  5
2A50
330
2A32
100
AcDbEntity
  8
図枠太線
 48
10.0
100
AcDbLine
 10
405.0984145357927
 20
43.52595975352682
 30
0.0
 11
405.0984145357927
 21
3.525959753526819
 31
0.0
  0
TEXT
  5
2A51
330
2A32
100
AcDbEntity
  8
図枠細線
  6
Continuous
 62
   252
100
AcDbText
 10
208.5197544745715
 20
6.48235840728546
 30
0.0
 40
3.5
  1
ＴＯＷＡ　ＳＥＩＤＥＮ　ＩＮＤＵＳＴＲＩＡＬ　ＣＯ．，ＬＴＤ．
 41
0.7466562975091008
  7
EXCADSTD
 72
     5
 11
303.2953271717267
 21
6.48235840728546
 31
0.0
100
AcDbText
  0
LINE
  5
2A52
330
2A32
100
AcDbEntity
  8
図枠太線
  6
Continuous
 62
   251
100
AcDbLine
 10
305.0984145357927
 20
3.525959753526819
 30
0.0
 11
305.0984145357927
 21
43.52595975352683
 31
0.0
  0
ENDBLK
  5
2A53
330
2A32
100
AcDbEntity
  8
0
100
AcDbBlockEnd
  0
BLOCK
  5
2A6D
330
2A6C
100
AcDbEntity
  8
0
100
AcDbBlockBegin
  2
A3縦用　タイトル
 70
     0
 10
0.0
 20
0.0
 30
0.0
  3
A3縦用　タイトル
  1

  0
MTEXT
  5
2A6E
330
2A6C
100
AcDbEntity
  8
図枠細線
100
AcDbMText
 10
5.040804501592901
 20
31.62609864900492
 30
0.0
 40
2.5
 41
49.93828270629228
 71
     1
 72
     5
  1
{\Fmonotxt.shx,bigfont.shx|c128;図暦　CHANGE　NOTICE}
 73
     1
 44
1.0
  0
LINE
  5
2A6F
330
2A6C
100
AcDbEntity
  8
図枠太線
  6
Continuous
 62
   251
100
AcDbLine
 10
283.5778718829611
 20
2.820844689254272
 30
0.0
 11
283.5778718829611
 21
32.82084268925428
 31
0.0
  0
MTEXT
  5
2A70
330
2A6C
100
AcDbEntity
  8
図枠細線
 48
10.0
100
AcDbMText
 10
214.9124589474543
 20
31.62148863230834
 30
0.0
 40
2.5
 41
28.00280961882254
 71
     1
 72
     5
  1
{\Fmonotxt.shx,bigfont.shx|c128;名称　TITLE}
 73
     1
 44
1.0
  0
MTEXT
  5
2A71
330
2A6C
100
AcDbEntity
  8
図枠細線
 48
10.0
100
AcDbMText
 10
214.740030458938
 20
16.31022579672151
 30
0.0
 40
2.5
 41
24.38561221670716
 71
     1
 72
     5
  1
{\Fmonotxt.shx,bigfont.shx|c128;図面番号\PDRG.　No.}
 73
     1
 44
1.0
  0
LINE
  5
2A72
330
2A6C
100
AcDbEntity
  8
図枠太線
  6
Continuous
 62
   251
100
AcDbLine
 10
213.5778718829611
 20
2.820844689254272
 30
0.0
 11
213.5778718829611
 21
32.82084268925428
 31
0.0
  0
LINE
  5
2A73
330
2A6C
100
AcDbEntity
  8
図枠太線
  6
Continuous
 62
   251
100
AcDbLine
 10
143.577871882961
 20
2.820844689254272
 30
0.0
 11
143.577871882961
 21
32.82084268925428
 31
0.0
  0
TEXT
  5
2A74
330
2A6C
100
AcDbEntity
  8
図枠細線
  6
Continuous
 62
   252
100
AcDbText
 10
145.7164544880927
 20
4.468335689254274
 30
0.0
 40
3.5
  1
ＴＯＷＡ　ＳＥＩＤＥＮ　ＩＮＤＵＳＴＲＩＡＬ　ＣＯ．，ＬＴＤ．
 41
0.5289378269070801
  7
EXCADSTD
 72
     5
 11
212.856295983498
 21
4.468335689254274
 31
0.0
100
AcDbText
  0
TEXT
  5
2A75
330
2A6C
100
AcDbEntity
  8
図枠ロゴマーク
  6
Continuous
 62
   253
100
AcDbText
 10
145.9506375935066
 20
9.41323668925429
 30
0.0
 40
7.0
  1
東和制電工業株式会社
 41
0.8036108846195519
  7
EXCADSTD
 72
     5
 11
211.9538782502591
 21
9.41323668925429
 31
0.0
100
AcDbText
  0
LINE
  5
2A76
330
2A6C
100
AcDbEntity
  8
図枠細線
  6
Continuous
 62
   252
100
AcDbLine
 10
143.577871882961
 20
25.32084268925428
 30
0.0
 11
213.5778718829611
 21
25.32084268925428
 31
0.0
  0
LINE
  5
2A77
330
2A6C
100
AcDbEntity
  8
図枠太線
  6
Continuous
 62
   251
100
AcDbLine
 10
143.577863882961
 20
17.82084268925428
 30
0.0
 11
213.5778718829611
 21
17.82084268925428
 31
0.0
  0
LINE
  5
2A78
330
2A6C
100
AcDbEntity
  8
図枠細線
  6
Continuous
 62
   252
100
AcDbLine
 10
213.5778718829611
 20
17.82084268925428
 30
0.0
 11
283.5778718829611
 21
17.82084268925428
 31
0.0
  0
LINE
  5
2A79
330
2A6C
100
AcDbEntity
  8
図枠細線
  6
Continuous
 62
   252
100
AcDbLine
 10
120.577871882961
 20
32.82084268925429
 30
0.0
 11
120.577871882961
 21
17.82084268925429
 31
0.0
  0
MTEXT
  5
2A7A
330
2A6C
100
AcDbEntity
  8
図枠細線
 48
10.0
100
AcDbMText
 10
121.1008856703524
 20
16.33785922638049
 30
0.0
 40
2.0
 41
17.70597828506834
 71
     1
 72
     5
  1
{\Fmonotxt.shx,bigfont.shx|c128;日付 DATE}
 73
     1
 44
1.0
  0
MTEXT
  5
2A7B
330
2A6C
100
AcDbEntity
  8
図枠細線
 48
10.0
100
AcDbMText
 10
121.254842273491
 20
31.20899351403704
 30
0.0
 40
2.0
 41
18.36379956875839
 71
     1
 72
     5
  1
{\Fmonotxt.shx,bigfont.shx|c128;製図　DRAWN}
 73
     1
 44
1.0
  0
LINE
  5
2A7C
330
2A6C
100
AcDbEntity
  8
図枠細線
  6
Continuous
 62
   252
100
AcDbLine
 10
97.57787188296106
 20
32.82084268925428
 30
0.0
 11
97.57787188296106
 21
17.82084268925428
 31
0.0
  0
MTEXT
  5
2A7D
330
2A6C
100
AcDbEntity
  8
図枠細線
 48
10.0
100
AcDbMText
 10
98.23973479687197
 20
16.46776483928056
 30
0.0
 40
2.0
 41
17.75779168990334
 71
     1
 72
     5
  1
{\Fmonotxt.shx,bigfont.shx|c128;尺度　SCALE}
 73
     1
 44
1.0
  0
MTEXT
  5
2A7E
330
2A6C
100
AcDbEntity
  8
図枠細線
 48
10.0
100
AcDbMText
 10
97.86474462515366
 20
31.29843337766442
 30
0.0
 40
2.0
 41
23.16265592097625
 71
     1
 72
     5
  1
{\Fmonotxt.shx,bigfont.shx|c128;検図  CHECKED}
 73
     1
 44
1.0
  0
LINE
  5
2A7F
330
2A6C
100
AcDbEntity
  8
図枠細線
  6
Continuous
 62
   252
100
AcDbLine
 10
97.57787188296106
 20
2.820843367825702
 30
0.0
 11
97.57787188296106
 21
17.82084136782571
 31
0.0
  0
LINE
  5
2A80
330
2A6C
100
AcDbEntity
  8
図枠細線
  6
Continuous
 62
   252
100
AcDbLine
 10
120.577871882961
 20
2.820844010682861
 30
0.0
 11
120.577871882961
 21
17.82084201068286
 31
0.0
  0
MTEXT
  5
2A81
330
2A6C
100
AcDbEntity
  8
図枠細線
 48
10.0
100
AcDbMText
 10
81.40239908410171
 20
16.3164841174256
 30
0.0
 40
2.0
 41
12.9203228193694
 71
     1
 72
     5
  1
{\Fmonotxt.shx,bigfont.shx|c128;第三角法}
 73
     1
 44
1.0
  0
MTEXT
  5
2A82
330
2A6C
100
AcDbEntity
  8
図枠細線
 48
10.0
100
AcDbMText
 10
75.73657653509553
 20
11.08041093131885
 30
0.0
 40
2.0
 41
21.07287067147126
 71
     1
 72
     5
  1
{\Fmonotxt.shx,bigfont.shx|c128;THIRD ANGLE\PPROJECTION}
 73
     1
 44
1.0
  0
LINE
  5
2A83
330
2A6C
100
AcDbEntity
  8
図枠太線
  6
Continuous
 62
   251
100
AcDbLine
 10
74.57787188296106
 20
2.820844689254279
 30
0.0
 11
74.57787188296106
 21
32.82084268925429
 31
0.0
  0
MTEXT
  5
2A84
330
2A6C
100
AcDbEntity
  8
図枠細線
 48
10.0
100
AcDbMText
 10
75.06021478157276
 20
31.29843477855525
 30
0.0
 40
2.0
 41
22.24092880596732
 71
     1
 72
     5
  1
{\Fmonotxt.shx,bigfont.shx|c128;承認 APPROVED}
 73
     1
 44
1.0
  0
LINE
  5
2A85
330
2A6C
100
AcDbEntity
  8
図枠細線
  6
Continuous
100
AcDbLine
 10
3.577871882961062
 20
17.82084468925427
 30
0.0
 11
74.57787188296106
 21
17.82084468925427
 31
0.0
  0
LINE
  5
2A86
330
2A6C
100
AcDbEntity
  8
図枠細線
  6
Continuous
 62
   252
100
AcDbLine
 10
3.577871882961062
 20
27.82084268925428
 30
0.0
 11
74.57787188296106
 21
27.82084268925428
 31
0.0
  0
LINE
  5
2A87
330
2A6C
100
AcDbEntity
  8
図枠細線
  6
Continuous
 62
   252
100
AcDbLine
 10
3.577871882961062
 20
22.82084268925428
 30
0.0
 11
74.57787188296106
 21
22.82084268925428
 31
0.0
  0
LINE
  5
2A88
330
2A6C
100
AcDbEntity
  8
図枠細線
  6
Continuous
 62
   252
100
AcDbLine
 10
3.577871882961062
 20
12.82084268925428
 30
0.0
 11
74.57787188296106
 21
12.82084268925428
 31
0.0
  0
LINE
  5
2A89
330
2A6C
100
AcDbEntity
  8
図枠細線
  6
Continuous
 62
   252
100
AcDbLine
 10
3.577871882961062
 20
7.820844689254272
 30
0.0
 11
74.57787188296106
 21
7.820844689254272
 31
0.0
  0
LINE
  5
2A8A
330
2A6C
100
AcDbEntity
  8
図枠細線
  6
Continuous
100
AcDbLine
 10
74.57787188296106
 20
17.82084368925428
 30
0.0
 11
143.577871882961
 21
17.82084122496857
 31
0.0
  0
LINE
  5
2A8B
330
2A6C
100
AcDbEntity
  8
図枠太線
  6
Continuous
 62
   251
100
AcDbLine
 10
3.577871882961062
 20
2.820844689254272
 30
0.0
 11
283.5778718829611
 21
2.820844689254272
 31
0.0
  0
LINE
  5
2A8C
330
2A6C
100
AcDbEntity
  8
図枠太線
  6
Continuous
 62
   251
100
AcDbLine
 10
3.577871882961062
 20
2.820844689254271
 30
0.0
 11
3.577871882961062
 21
32.82084268925428
 31
0.0
  0
ENDBLK
  5
2A8D
330
2A6C
100
AcDbEntity
  8
0
100
AcDbBlockEnd
  0
BLOCK
  5
2ADA
330
2AD6
100
AcDbEntity
  8
0
 48
10.0
100
AcDbBlockBegin
  2
_Open30
 70
     0
 10
0.0
 20
0.0
 30
0.0
  3
_Open30
  1

  0
LINE
  5
2AD7
330
2AD6
100
AcDbEntity
  8
0
  6
ByBlock
 62
     0
370
    -2
100
AcDbLine
 10
-1.0
 20
0.26794919
 30
0.0
 11
0.0
 21
0.0
 31
0.0
  0
LINE
  5
2AD8
330
2AD6
100
AcDbEntity
  8
0
  6
ByBlock
 62
     0
370
    -2
100
AcDbLine
 10
0.0
 20
0.0
 30
0.0
 11
-1.0
 21
-0.26794919
 31
0.0
  0
LINE
  5
2AD9
330
2AD6
100
AcDbEntity
  8
0
  6
ByBlock
 62
     0
370
    -2
100
AcDbLine
 10
0.0
 20
0.0
 30
0.0
 11
-1.0
 21
0.0
 31
0.0
  0
ENDBLK
  5
2ADB
330
2AD6
100
AcDbEntity
  8
0
 48
10.0
100
AcDbBlockEnd
  0
BLOCK
  5
338D
330
3383
100
AcDbEntity
  8
0
 48
10.0
100
AcDbBlockBegin
  2
*D8
 70
     1
 10
0.0
 20
0.0
 30
0.0
  3
*D8
  1

  0
LINE
  5
34D9
330
3383
100
AcDbEntity
  8
寸法線
 62
     0
 48
10.0
370
    -2
100
AcDbLine
 10
357.5959036811854
 20
289.830316496296
 30
0.0
 11
411.5701449255702
 21
289.830316496296
 31
0.0
  0
LINE
  5
34DA
330
3383
100
AcDbEntity
  8
寸法線
 62
     0
 48
10.0
370
    -2
100
AcDbLine
 10
346.0442096139421
 20
188.7138397893138
 30
0.0
 11
411.5701449255702
 21
188.7138397893138
 31
0.0
  0
LINE
  5
34DB
330
3383
100
AcDbEntity
  8
寸法線
 62
     0
 48
10.0
370
    -2
100
AcDbLine
 10
410.3201449255703
 20
283.830316496296
 30
0.0
 11
410.3201449255703
 21
194.7138397893138
 31
0.0
  0
INSERT
  5
34DC
330
3383
100
AcDbEntity
  8
寸法線
 62
     0
 48
10.0
370
    -2
100
AcDbBlockReference
  2
_Open30
 10
410.3201449255703
 20
289.830316496296
 30
0.0
 41
6.0
 42
6.0
 43
6.0
 50
90.0
  0
INSERT
  5
34DD
330
3383
100
AcDbEntity
  8
寸法線
 62
     0
 48
10.0
370
    -2
100
AcDbBlockReference
  2
_Open30
 10
410.3201449255703
 20
188.7138397893138
 30
0.0
 41
6.0
 42
6.0
 43
6.0
 50
270.0
  0
MTEXT
  5
34DE
330
3383
100
AcDbEntity
  8
寸法線
 62
     0
 48
10.0
100
AcDbMText
 10
405.6951449255702
 20
239.272078142805
 30
0.0
 40
8.0
 41
0.0
 71
     5
 72
     1
  1
\A1;100
 11
0.0000000000000001
 21
1.0
 31
0.0
 73
     1
 44
1.0
  0
POINT
  5
34DF
330
3383
100
AcDbEntity
  8
DEFPOINTS
 62
     0
 48
10.0
100
AcDbPoint
 10
356.9709036811854
 20
289.830316496296
 30
0.0
  0
POINT
  5
34E0
330
3383
100
AcDbEntity
  8
DEFPOINTS
 62
     0
 48
10.0
100
AcDbPoint
 10
345.4192096139422
 20
188.7138397893138
 30
0.0
  0
POINT
  5
34E1
330
3383
100
AcDbEntity
  8
DEFPOINTS
 62
     0
 48
10.0
100
AcDbPoint
 10
410.3201449255703
 20
188.7138397893138
 30
0.0
  0
ENDBLK
  5
338E
330
3383
100
AcDbEntity
  8
0
 48
10.0
100
AcDbBlockEnd
  0
BLOCK
  5
3399
330
338F
100
AcDbEntity
  8
0
 48
10.0
100
AcDbBlockBegin
  2
*D9
 70
     1
 10
0.0
 20
0.0
 30
0.0
  3
*D9
  1

  0
LINE
  5
3435
330
338F
100
AcDbEntity
  8
寸法線
 62
     0
 48
10.0
370
    -2
100
AcDbLine
 10
312.6692096139412
 20
290.4545629917915
 30
0.0
 11
312.6692096139412
 21
312.2518970886098
 31
0.0
  0
LINE
  5
3436
330
338F
100
AcDbEntity
  8
寸法線
 62
     0
 48
10.0
370
    -2
100
AcDbLine
 10
223.6692096139417
 20
247.8820009573027
 30
0.0
 11
223.6692096139417
 21
312.2518970886098
 31
0.0
  0
LINE
  5
3437
330
338F
100
AcDbEntity
  8
寸法線
 62
     0
 48
10.0
370
    -2
100
AcDbLine
 10
306.6692096139413
 20
311.0018970886098
 30
0.0
 11
229.6692096139417
 21
311.0018970886098
 31
0.0
  0
INSERT
  5
3438
330
338F
100
AcDbEntity
  8
寸法線
 62
     0
 48
10.0
370
    -2
100
AcDbBlockReference
  2
_Open30
 10
312.6692096139412
 20
311.0018970886098
 30
0.0
 41
6.0
 42
6.0
 43
6.0
  0
INSERT
  5
3439
330
338F
100
AcDbEntity
  8
寸法線
 62
     0
 48
10.0
370
    -2
100
AcDbBlockReference
  2
_Open30
 10
223.6692096139417
 20
311.0018970886098
 30
0.0
 41
6.0
 42
6.0
 43
6.0
 50
180.0
  0
MTEXT
  5
343A
330
338F
100
AcDbEntity
  8
寸法線
 62
     0
 48
10.0
100
AcDbMText
 10
268.1692096139415
 20
315.6268970886098
 30
0.0
 40
8.0
 41
0.0
 71
     5
 72
     1
  1
\A1;84
 73
     1
 44
1.0
  0
POINT
  5
343B
330
338F
100
AcDbEntity
  8
DEFPOINTS
 62
     0
 48
10.0
100
AcDbPoint
 10
312.6692096139412
 20
289.8295629917915
 30
0.0
  0
POINT
  5
343C
330
338F
100
AcDbEntity
  8
DEFPOINTS
 62
     0
 48
10.0
100
AcDbPoint
 10
223.6692096139417
 20
247.2570009573027
 30
0.0
  0
POINT
  5
343D
330
338F
100
AcDbEntity
  8
DEFPOINTS
 62
     0
 48
10.0
100
AcDbPoint
 10
223.6692096139417
 20
311.0018970886098
 30
0.0
  0
ENDBLK
  5
339A
330
338F
100
AcDbEntity
  8
0
 48
10.0
100
AcDbBlockEnd
  0
BLOCK
  5
33A5
330
339B
100
AcDbEntity
  8
0
 48
10.0
100
AcDbBlockBegin
  2
*D10
 70
     1
 10
0.0
 20
0.0
 30
0.0
  3
*D10
  1

  0
LINE
  5
342C
330
339B
100
AcDbEntity
  8
寸法線
 62
     0
 48
10.0
370
    -2
100
AcDbLine
 10
285.6692096139394
 20
106.7888397893135
 30
0.0
 11
285.6692096139394
 21
81.9266082099681
 31
0.0
  0
LINE
  5
342D
330
339B
100
AcDbEntity
  8
寸法線
 62
     0
 48
10.0
370
    -2
100
AcDbLine
 10
339.6692096139394
 20
106.7888397893135
 30
0.0
 11
339.6692096139394
 21
81.9266082099681
 31
0.0
  0
LINE
  5
342E
330
339B
100
AcDbEntity
  8
寸法線
 62
     0
 48
10.0
370
    -2
100
AcDbLine
 10
291.6692096139394
 20
83.1766082099681
 30
0.0
 11
333.6692096139393
 21
83.1766082099681
 31
0.0
  0
INSERT
  5
342F
330
339B
100
AcDbEntity
  8
寸法線
 62
     0
 48
10.0
370
    -2
100
AcDbBlockReference
  2
_Open30
 10
285.6692096139394
 20
83.1766082099681
 30
0.0
 41
6.0
 42
6.0
 43
6.0
 50
180.0
  0
INSERT
  5
3430
330
339B
100
AcDbEntity
  8
寸法線
 62
     0
 48
10.0
370
    -2
100
AcDbBlockReference
  2
_Open30
 10
339.6692096139394
 20
83.1766082099681
 30
0.0
 41
6.0
 42
6.0
 43
6.0
  0
MTEXT
  5
3431
330
339B
100
AcDbEntity
  8
寸法線
 62
     0
 48
10.0
100
AcDbMText
 10
312.6692096139394
 20
87.8016082099681
 30
0.0
 40
8.0
 41
0.0
 71
     5
 72
     1
  1
\A1;φ54
 73
     1
 44
1.0
  0
POINT
  5
3432
330
339B
100
AcDbEntity
  8
DEFPOINTS
 62
     0
 48
10.0
100
AcDbPoint
 10
285.6692096139394
 20
107.4138397893135
 30
0.0
  0
POINT
  5
3433
330
339B
100
AcDbEntity
  8
DEFPOINTS
 62
     0
 48
10.0
100
AcDbPoint
 10
339.6692096139394
 20
107.4138397893135
 30
0.0
  0
POINT
  5
3434
330
339B
100
AcDbEntity
  8
DEFPOINTS
 62
     0
 48
10.0
100
AcDbPoint
 10
339.6692096139394
 20
83.1766082099681
 30
0.0
  0
ENDBLK
  5
33A6
330
339B
100
AcDbEntity
  8
0
 48
10.0
100
AcDbBlockEnd
  0
BLOCK
  5
33B1
330
33A7
100
AcDbEntity
  8
0
 48
10.0
100
AcDbBlockBegin
  2
*D11
 70
     1
 10
0.0
 20
0.0
 30
0.0
  3
*D11
  1

  0
LINE
  5
34D0
330
33A7
100
AcDbEntity
  8
寸法線
 62
     0
 48
10.0
370
    -2
100
AcDbLine
 10
347.5539408049635
 20
167.4138397893135
 30
0.0
 11
411.5701449255703
 21
167.4138397893135
 31
0.0
  0
LINE
  5
34D1
330
33A7
100
AcDbEntity
  8
寸法線
 62
     0
 48
10.0
370
    -2
100
AcDbLine
 10
342.7778948468776
 20
107.4138397893135
 30
0.0
 11
411.5701449255702
 21
107.4138397893135
 31
0.0
  0
LINE
  5
34D2
330
33A7
100
AcDbEntity
  8
寸法線
 62
     0
 48
10.0
370
    -2
100
AcDbLine
 10
410.3201449255703
 20
161.4138397893135
 30
0.0
 11
410.3201449255703
 21
113.4138397893135
 31
0.0
  0
INSERT
  5
34D3
330
33A7
100
AcDbEntity
  8
寸法線
 62
     0
 48
10.0
370
    -2
100
AcDbBlockReference
  2
_Open30
 10
410.3201449255703
 20
167.4138397893135
 30
0.0
 41
6.0
 42
6.0
 43
6.0
 50
90.0
  0
INSERT
  5
34D4
330
33A7
100
AcDbEntity
  8
寸法線
 62
     0
 48
10.0
370
    -2
100
AcDbBlockReference
  2
_Open30
 10
410.3201449255703
 20
107.4138397893135
 30
0.0
 41
6.0
 42
6.0
 43
6.0
 50
270.0
  0
MTEXT
  5
34D5
330
33A7
100
AcDbEntity
  8
寸法線
 62
     0
 48
10.0
100
AcDbMText
 10
405.6951449255702
 20
137.4138397893136
 30
0.0
 40
8.0
 41
0.0
 71
     5
 72
     1
  1
\A1;60
 11
0.0000000000000001
 21
1.0
 31
0.0
 73
     1
 44
1.0
  0
POINT
  5
34D6
330
33A7
100
AcDbEntity
  8
DEFPOINTS
 62
     0
 48
10.0
100
AcDbPoint
 10
346.9289408049635
 20
167.4138397893135
 30
0.0
  0
POINT
  5
34D7
330
33A7
100
AcDbEntity
  8
DEFPOINTS
 62
     0
 48
10.0
100
AcDbPoint
 10
342.1528948468776
 20
107.4138397893135
 30
0.0
  0
POINT
  5
34D8
330
33A7
100
AcDbEntity
  8
DEFPOINTS
 62
     0
 48
10.0
100
AcDbPoint
 10
410.3201449255703
 20
107.4138397893135
 30
0.0
  0
ENDBLK
  5
33B2
330
33A7
100
AcDbEntity
  8
0
 48
10.0
100
AcDbBlockEnd
  0
BLOCK
  5
33BD
330
33B3
100
AcDbEntity
  8
0
 48
10.0
100
AcDbBlockBegin
  2
*D12
 70
     1
 10
0.0
 20
0.0
 30
0.0
  3
*D12
  1

  0
LINE
  5
34BE
330
33B3
100
AcDbEntity
  8
寸法線
 62
     0
 48
10.0
370
    -2
100
AcDbLine
 10
344.51463757275
 20
152.4138397893135
 30
0.0
 11
391.1633867391411
 21
152.4138397893135
 31
0.0
  0
LINE
  5
34BF
330
33B3
100
AcDbEntity
  8
寸法線
 62
     0
 48
10.0
370
    -2
100
AcDbLine
 10
345.8171980790912
 20
167.4138397893135
 30
0.0
 11
391.1633867391411
 21
167.4138397893135
 31
0.0
  0
LINE
  5
34C0
330
33B3
100
AcDbEntity
  8
寸法線
 62
     0
 48
10.0
370
    -2
100
AcDbLine
 10
389.9133867391411
 20
158.4138397893135
 30
0.0
 11
389.9133867391411
 21
161.4138397893135
 31
0.0
  0
INSERT
  5
34C1
330
33B3
100
AcDbEntity
  8
寸法線
 62
     0
 48
10.0
370
    -2
100
AcDbBlockReference
  2
_Open30
 10
389.9133867391411
 20
152.4138397893135
 30
0.0
 41
6.0
 42
6.0
 43
6.0
 50
270.0
  0
INSERT
  5
34C2
330
33B3
100
AcDbEntity
  8
寸法線
 62
     0
 48
10.0
370
    -2
100
AcDbBlockReference
  2
_Open30
 10
389.9133867391411
 20
167.4138397893135
 30
0.0
 41
6.0
 42
6.0
 43
6.0
 50
90.0
  0
MTEXT
  5
34C3
330
33B3
100
AcDbEntity
  8
寸法線
 62
     0
 48
10.0
100
AcDbMText
 10
385.288386739141
 20
159.9138397893136
 30
0.0
 40
8.0
 41
0.0
 71
     5
 72
     1
  1
\A1;15
 11
0.0000000000000001
 21
1.0
 31
0.0
 73
     1
 44
1.0
  0
POINT
  5
34C4
330
33B3
100
AcDbEntity
  8
DEFPOINTS
 62
     0
 48
10.0
100
AcDbPoint
 10
343.8896375727499
 20
152.4138397893135
 30
0.0
  0
POINT
  5
34C5
330
33B3
100
AcDbEntity
  8
DEFPOINTS
 62
     0
 48
10.0
100
AcDbPoint
 10
345.1921980790912
 20
167.4138397893135
 30
0.0
  0
POINT
  5
34C6
330
33B3
100
AcDbEntity
  8
DEFPOINTS
 62
     0
 48
10.0
100
AcDbPoint
 10
389.9133867391411
 20
167.4138397893135
 30
0.0
  0
ENDBLK
  5
33BE
330
33B3
100
AcDbEntity
  8
0
 48
10.0
100
AcDbBlockEnd
  0
ENDSEC
  0
SECTION
  2
ENTITIES
  0
LINE
  5
32C5
330
1A
100
AcDbEntity
  8
外形線
 48
10.0
100
AcDbLine
 10
279.569209613943
 20
188.7138397893135
 30
0.0
 11
345.7692096139419
 21
188.7138397893135
 31
0.0
  0
ARC
  5
32C6
330
1A
100
AcDbEntity
  8
外形線
 48
10.0
100
AcDbCircle
 10
312.6692096139425
 20
223.4339982400178
 30
0.0
 40
56.02015845070423
100
AcDbArc
 50
249.4930912564754
 51
290.5069087435174
  0
ARC
  5
32C7
330
1A
100
AcDbEntity
  8
外形線
 48
10.0
100
AcDbCircle
 10
283.2067096139429
 20
182.8193195428342
 30
0.0
 40
15.4054797535208
100
AcDbArc
 50
230.3146193784067
 51
309.6853806215932
  0
ARC
  5
32C8
330
1A
100
AcDbEntity
  8
外形線
 48
10.0
100
AcDbCircle
 10
342.131709613943
 20
182.8193195428347
 30
0.0
 40
15.40547975352115
100
AcDbArc
 50
230.3146193784067
 51
309.6853806215932
  0
LINE
  5
32C9
330
1A
100
AcDbEntity
  8
外形線
 48
10.0
100
AcDbLine
 10
273.3692096139423
 20
185.1638397893135
 30
0.0
 11
273.3692096139423
 21
170.9638397893135
 31
0.0
  0
LINE
  5
32CA
330
1A
100
AcDbEntity
  8
外形線
 48
10.0
100
AcDbLine
 10
273.3692096139423
 20
170.9638397893135
 30
0.0
 11
273.3692096139423
 21
185.1638397893135
 31
0.0
  0
LINE
  5
32CB
330
1A
100
AcDbEntity
  8
外形線
 48
10.0
100
AcDbLine
 10
293.0442096139425
 20
170.9638397893135
 30
0.0
 11
293.0442096139425
 21
185.1638397893135
 31
0.0
  0
ARC
  5
32CC
330
1A
100
AcDbEntity
  8
外形線
 48
10.0
100
AcDbCircle
 10
283.2067096139419
 20
173.3083600357928
 30
0.0
 40
15.40547975352081
100
AcDbArc
 50
50.31461937840671
 51
129.6853806215933
  0
LINE
  5
32CD
330
1A
100
AcDbEntity
  8
外形線
 48
10.0
100
AcDbLine
 10
273.3692096139423
 20
185.1638397893135
 30
0.0
 11
279.569209613943
 21
188.7138397893135
 31
0.0
  0
LINE
  5
32CE
330
1A
100
AcDbEntity
  8
外形線
 48
10.0
100
AcDbLine
 10
332.2942096139425
 20
170.9638397893135
 30
0.0
 11
332.2942096139425
 21
185.1638397893135
 31
0.0
  0
ARC
  5
32CF
330
1A
100
AcDbEntity
  8
外形線
 48
10.0
100
AcDbCircle
 10
312.6692096139425
 20
132.6936813386093
 30
0.0
 40
56.02015845070423
100
AcDbArc
 50
69.49309125648259
 51
110.5069087435174
  0
LINE
  5
32D0
330
1A
100
AcDbEntity
  8
外形線
 48
10.0
100
AcDbLine
 10
351.9692096139427
 20
185.1638397893138
 30
0.0
 11
351.9692096139427
 21
170.9638397893137
 31
0.0
  0
LINE
  5
32D1
330
1A
100
AcDbEntity
  8
外形線
 48
10.0
100
AcDbLine
 10
351.9692096139427
 20
170.9638397893135
 30
0.0
 11
351.9692096139427
 21
185.1638397893135
 31
0.0
  0
ARC
  5
32D2
330
1A
100
AcDbEntity
  8
外形線
 48
10.0
100
AcDbCircle
 10
342.131709613943
 20
173.3083600357921
 30
0.0
 40
15.40547975352145
100
AcDbArc
 50
50.31461937841381
 51
129.6853806215862
  0
LINE
  5
32D3
330
1A
100
AcDbEntity
  8
外形線
 48
10.0
100
AcDbLine
 10
345.7692096139419
 20
188.7138397893135
 30
0.0
 11
351.9692096139427
 21
185.1638397893138
 31
0.0
  0
DIMENSION
  5
32D4
330
1A
100
AcDbEntity
  8
寸法線
 48
10.0
100
AcDbDimension
  2
*D8
 10
410.3201449255703
 20
188.7138397893138
 30
0.0
 11
410.3201449255702
 21
239.272078142805
 31
0.0
 70
   160
  1
100
 71
     5
 42
101.1164767069822
  3
ISO-25
100
AcDbAlignedDimension
 13
356.9709036811854
 23
289.830316496296
 33
0.0
 14
345.4192096139422
 24
188.7138397893138
 34
0.0
 50
90.0
100
AcDbRotatedDimension
1001
ACAD
1000
DSTYLE
1002
{
1070
    41
1040
6.0
1070
    47
1040
0.1
1070
    48
1040
0.1
1070
    73
1070
     0
1070
   140
1040
8.0
1070
   271
1070
     1
1070
   272
1070
     1
1070
   341
1005
2AD6
1070
   342
1005
2AD6
1002
}
  0
LINE
  5
32D5
330
1A
100
AcDbEntity
  8
外形線
 48
10.0
100
AcDbLine
 10
279.9192096139421
 20
188.7138397893131
 30
0.0
 11
345.4192096139422
 21
188.7138397893138
 31
0.0
  0
LINE
  5
32D6
330
1A
100
AcDbEntity
  8
中心線
 48
10.0
100
AcDbLine
 10
312.6692096139436
 20
96.5401856011374
 30
0.0
 11
312.6692096139412
 21
289.8295629917915
 31
0.0
  0
LINE
  5
32D7
330
1A
100
AcDbEntity
  8
中心線
 48
10.0
100
AcDbLine
 10
257.5117816139418
 20
238.6534079589468
 30
0.0
 11
220.111781613942
 21
238.6534079589466
 31
0.0
  0
DIMENSION
  5
32D8
330
1A
100
AcDbEntity
  8
寸法線
 48
10.0
100
AcDbDimension
  2
*D9
 10
223.6692096139417
 20
311.0018970886098
 30
0.0
 11
268.1692096139415
 21
311.0018970886098
 31
0.0
 70
   160
  1
84
 71
     5
 42
88.99999999999954
  3
ISO-25
100
AcDbAlignedDimension
 13
312.6692096139412
 23
289.8295629917915
 33
0.0
 14
223.6692096139417
 24
247.2570009573027
 34
0.0
100
AcDbRotatedDimension
1001
ACAD
1000
DSTYLE
1002
{
1070
    41
1040
6.0
1070
    47
1040
0.1
1070
    48
1040
0.1
1070
    73
1070
     0
1070
   140
1040
8.0
1070
   271
1070
     1
1070
   272
1070
     1
1070
   341
1005
2AD6
1070
   342
1005
2AD6
1002
}
  0
ARC
  5
32D9
330
1A
100
AcDbEntity
  8
外形線
100
AcDbCircle
 10
358.690359720482
 20
210.6901863507359
 30
0.0
 40
1.036778391791999
100
AcDbArc
 50
270.0
 51
0.0
  0
ARC
  5
32DA
330
1A
100
AcDbEntity
  8
外形線
100
AcDbCircle
 10
357.5260930671101
 20
208.616629567152
 30
0.0
 40
1.036778391791999
100
AcDbArc
 50
90.0
 51
144.999999999999
  0
ARC
  5
32DB
330
1A
100
AcDbEntity
  8
外形線
100
AcDbCircle
 10
266.417082850994
 20
210.690186350735
 30
0.0
 40
1.036778391791999
100
AcDbArc
 50
180.0
 51
270.0
  0
ARC
  5
32DC
330
1A
100
AcDbEntity
  8
外形線
100
AcDbCircle
 10
267.581349504368
 20
208.6166295671511
 30
0.0
 40
1.036778391791999
100
AcDbArc
 50
35.00000000000817
 51
90.0
  0
ARC
  5
32DD
330
1A
100
AcDbEntity
  8
外形線
100
AcDbCircle
 10
269.0077041085242
 20
202.9644481524412
 30
0.0
 40
3.110335175376
100
AcDbArc
 50
35.00000000000817
 51
90.0
  0
LINE
  5
32DE
330
1A
100
AcDbEntity
  8
外形線
100
AcDbLine
 10
269.0077041085242
 20
206.0747833278171
 30
0.0
 11
267.7764610756501
 21
206.0747833278171
 31
0.0
  0
LINE
  5
32DF
330
1A
100
AcDbEntity
  8
外形線
100
AcDbLine
 10
293.5931932068114
 20
289.830316496295
 30
0.0
 11
306.3330509349872
 21
289.830316496295
 31
0.0
  0
LINE
  5
32E0
330
1A
100
AcDbEntity
  8
外形線
100
AcDbLine
 10
262.7883584797217
 20
262.2520112746268
 30
0.0
 11
312.5537212857396
 21
262.2520112746273
 31
0.0
  0
LINE
  5
32E1
330
1A
100
AcDbEntity
  8
外形線
100
AcDbLine
 10
357.5260930671102
 20
209.653407958944
 30
0.0
 11
267.581349504368
 21
209.6534079589432
 31
0.0
  0
LINE
  5
32E2
330
1A
100
AcDbEntity
  8
外形線
100
AcDbLine
 10
281.6792034263277
 20
251.4695159999909
 30
0.0
 11
360.2476939328357
 21
251.4695159999918
 31
0.0
  0
LINE
  5
32E3
330
1A
100
AcDbEntity
  8
外形線
100
AcDbLine
 10
252.4559880057336
 20
256.6534079589506
 30
0.0
 11
361.8801603242236
 21
256.6534079589518
 31
0.0
  0
ARC
  5
32E4
330
1A
100
AcDbEntity
  8
外形線
100
AcDbCircle
 10
252.4559880057335
 20
255.6166295671588
 30
0.0
 40
1.036778391791999
100
AcDbArc
 50
90.0
 51
180.0
  0
LINE
  5
32E5
330
1A
100
AcDbEntity
  8
外形線
100
AcDbLine
 10
251.4192096139419
 20
221.358149943561
 30
0.0
 11
251.4192096139416
 21
255.6166295671588
 31
0.0
  0
LINE
  5
32E6
330
1A
100
AcDbEntity
  8
外形線
100
AcDbLine
 10
285.842315511458
 20
220.6534079589434
 30
0.0
 11
285.8423155114577
 21
248.0948972307134
 31
0.0
  0
ARC
  5
32E7
330
1A
100
AcDbEntity
  8
外形線
100
AcDbCircle
 10
263.3067476756178
 20
218.5798511753591
 30
0.0
 40
2.073556783583999
100
AcDbArc
 50
0.0
 51
90.0
  0
LINE
  5
32E8
330
1A
100
AcDbEntity
  8
外形線
100
AcDbLine
 10
252.4559880057339
 20
220.6534079589429
 30
0.0
 11
285.842315511458
 21
220.6534079589434
 31
0.0
  0
ARC
  5
32E9
330
1A
100
AcDbEntity
  8
外形線
100
AcDbCircle
 10
252.4559880057339
 20
221.6901863507347
 30
0.0
 40
1.036778391791999
100
AcDbArc
 50
180.0
 51
270.0
  0
ARC
  5
32EA
330
1A
100
AcDbEntity
  8
外形線
100
AcDbCircle
 10
254.5295447893179
 20
221.9384156650748
 30
0.0
 40
3.110335175376
100
AcDbArc
 50
190.7521272359934
 51
225.0000000000092
  0
LINE
  5
32EB
330
1A
100
AcDbEntity
  8
外形線
100
AcDbLine
 10
265.3803044592021
 20
210.690186350735
 30
0.0
 11
265.380304459202
 21
218.5798511753591
 31
0.0
  0
LINE
  5
32EC
330
1A
100
AcDbEntity
  8
外形線
100
AcDbLine
 10
267.581349504368
 20
209.6534079589432
 30
0.0
 11
266.4170828509941
 21
209.6534079589432
 31
0.0
  0
LINE
  5
32ED
330
1A
100
AcDbEntity
  8
外形線
100
AcDbLine
 10
292.5564148150196
 20
267.4359032335893
 30
0.0
 11
292.5564148150195
 21
288.7935381045032
 31
0.0
  0
LINE
  5
32EE
330
1A
100
AcDbEntity
  8
外形線
100
AcDbLine
 10
262.7883584797217
 20
262.2520112746268
 30
0.0
 11
263.9951087981353
 21
285.9002460833111
 31
0.0
  0
LINE
  5
32EF
330
1A
100
AcDbEntity
  8
外形線
100
AcDbLine
 10
268.3667653090896
 20
267.4359032335868
 30
0.0
 11
268.3667653090895
 21
284.6464245373353
 31
0.0
  0
LINE
  5
32F0
330
1A
100
AcDbEntity
  8
外形線
100
AcDbLine
 10
267.5495865460056
 20
267.4359032335868
 30
0.0
 11
267.5495865460054
 21
286.7199813209189
 31
0.0
  0
LINE
  5
32F1
330
1A
100
AcDbEntity
  8
外形線
100
AcDbLine
 10
273.6364798441135
 20
267.4359032335891
 30
0.0
 11
273.6364798441134
 21
286.7199813209189
 31
0.0
  0
LINE
  5
32F2
330
1A
100
AcDbEntity
  8
外形線
100
AcDbLine
 10
284.1433894335036
 20
267.4359032335871
 30
0.0
 11
284.1433894335034
 21
285.1648137332314
 31
0.0
  0
LINE
  5
32F3
330
1A
100
AcDbEntity
  8
外形線
100
AcDbLine
 10
283.5776505611515
 20
267.4359032335871
 30
0.0
 11
283.5776505611514
 21
286.7199813209191
 31
0.0
  0
LINE
  5
32F4
330
1A
100
AcDbEntity
  8
外形線
100
AcDbLine
 10
262.2699692838255
 20
257.171797154845
 30
0.0
 11
262.2699692838255
 21
262.1131093082212
 31
0.0
  0
LINE
  5
32F5
330
1A
100
AcDbEntity
  8
外形線
100
AcDbLine
 10
262.7883584797217
 20
256.6534079589509
 30
0.0
 11
262.2699692838255
 21
257.171797154845
 31
0.0
  0
ARC
  5
32F6
330
1A
100
AcDbEntity
  8
外形線
100
AcDbCircle
 10
262.7883584797215
 20
261.215232882835
 30
0.0
 40
1.036778391791999
100
AcDbArc
 50
90.0
 51
120.0000000000005
  0
LWPOLYLINE
  5
32F7
330
1A
100
AcDbEntity
  8
外形線
100
AcDbPolyline
 90
       18
 70
     0
 43
0.0
 10
267.5495865460056
 20
267.4359032335868
 10
267.6014070087175
 20
266.4824806371829
 10
267.7551037131435
 20
265.5615257037951
 10
268.0054427023555
 20
264.7044004491171
 10
268.3438989823237
 20
263.940293245685
 10
268.7589468303677
 20
263.2952248478708
 10
269.2364522898176
 20
262.791162286287
 10
269.7601544849556
 20
262.4452708069092
 10
270.3122193656377
 20
262.2693293292172
 10
270.8738470244837
 20
262.2693293292172
 10
271.4259119051655
 20
262.4452708069092
 10
271.9496141003038
 20
262.791162286287
 10
272.4271195597537
 20
263.2952248478708
 10
272.8421674077976
 20
263.940293245685
 10
273.1806236877655
 20
264.7044004491171
 10
273.4309626769776
 20
265.5615257037951
 10
273.5846593814034
 20
266.4824806371829
 10
273.6364798441135
 20
267.4359032335868
  0
LWPOLYLINE
  5
32F8
330
1A
100
AcDbEntity
  8
外形線
100
AcDbPolyline
 90
        8
 70
     0
 43
0.0
 10
268.3667653090896
 20
267.4359032335868
 10
268.4248470136296
 20
266.427047487245
 10
268.5968752430496
 20
265.4566981240549
 10
268.8762839595976
 20
264.561891801145
 10
269.2524085869595
 20
263.7767818206488
 10
269.7108930597997
 20
263.131334553709
 10
270.2342377714097
 20
262.6501856728272
 10
270.8024675052598
 20
262.351699848299
  0
LWPOLYLINE
  5
32F9
330
1A
100
AcDbEntity
  8
外形線
100
AcDbPolyline
 90
        8
 70
     0
 43
0.0
 10
284.1433894335036
 20
267.4359032335871
 10
284.2198582959055
 20
266.4454445603393
 10
284.4466598533994
 20
265.4887273890892
 10
284.8160677611976
 20
264.5983437655374
 10
285.3154975692937
 20
263.8046259807953
 10
285.9279354311536
 20
263.1346132551172
 10
286.6325177066256
 20
262.6111306051654
 10
287.4052417140317
 20
262.2520112746271
  0
LWPOLYLINE
  5
32FA
330
1A
100
AcDbEntity
  8
外形線
100
AcDbPolyline
 90
       18
 70
     0
 43
0.0
 10
283.5776505611515
 20
267.4359032335871
 10
283.6540908231076
 20
266.4825233158455
 10
283.8808085275356
 20
265.5616096077512
 10
284.2500830749294
 20
264.7045227211153
 10
284.7493392634717
 20
263.9404497219031
 10
285.3615755224537
 20
263.2954101996971
 10
286.0659428803738
 20
262.7913702017851
 10
286.8384549516536
 20
262.4454942057692
 10
287.6528047642296
 20
262.269560603857
 10
288.4812606119417
 20
262.269560603857
 10
289.2956104245177
 20
262.4454942057692
 10
290.0681224957975
 20
262.7913702017851
 10
290.7724898537176
 20
263.2954101996971
 10
291.3847261126996
 20
263.9404497219031
 10
291.8839823012435
 20
264.7045227211153
 10
292.2532568486355
 20
265.5616096077512
 10
292.4799745530635
 20
266.4825233158455
 10
292.5564148150196
 20
267.4359032335871
  0
ARC
  5
32FB
330
1A
100
AcDbEntity
  8
外形線
100
AcDbCircle
 10
268.1365388902912
 20
285.6832029291271
 30
0.0
 40
4.147113567167999
100
AcDbArc
 50
90.0
 51
177.0000000000009
  0
LINE
  5
32FC
330
1A
100
AcDbEntity
  8
外形線
100
AcDbLine
 10
287.7599894727213
 20
289.830316496295
 30
0.0
 11
268.1365388902912
 21
289.8303164962948
 31
0.0
  0
ARC
  5
32FD
330
1A
100
AcDbEntity
  8
外形線
100
AcDbCircle
 10
270.4403220926732
 20
284.6464245373353
 30
0.0
 40
2.073556783583999
100
AcDbArc
 50
90.0
 51
180.0
  0
LINE
  5
32FE
330
1A
100
AcDbEntity
  8
外形線
100
AcDbLine
 10
270.4403220926733
 20
286.7199813209189
 30
0.0
 11
273.6364798441134
 21
286.7199813209189
 31
0.0
  0
ARC
  5
32FF
330
1A
100
AcDbEntity
  8
外形線
100
AcDbCircle
 10
270.6599217213812
 20
286.7199813209191
 30
0.0
 40
3.110335175376
100
AcDbArc
 50
90.0
 51
180.0
  0
ARC
  5
3300
330
1A
100
AcDbEntity
  8
外形線
100
AcDbCircle
 10
276.7468150194892
 20
286.7199813209191
 30
0.0
 40
3.110335175376
100
AcDbArc
 50
90.0
 51
180.0
  0
ARC
  5
3301
330
1A
100
AcDbEntity
  8
外形線
100
AcDbCircle
 10
285.6985570211913
 20
285.1648137332314
 30
0.0
 40
1.555167587688
100
AcDbArc
 50
90.0
 51
180.0
  0
LINE
  5
3302
330
1A
100
AcDbEntity
  8
外形線
100
AcDbLine
 10
285.6985570211914
 20
286.7199813209191
 30
0.0
 11
292.5564148150195
 21
286.7199813209191
 31
0.0
  0
ARC
  5
3303
330
1A
100
AcDbEntity
  8
外形線
100
AcDbCircle
 10
286.6879857365274
 20
286.7199813209193
 30
0.0
 40
3.110335175376
100
AcDbArc
 50
90.0
 51
180.0
  0
ARC
  5
3304
330
1A
100
AcDbEntity
  8
外形線
100
AcDbCircle
 10
293.5931932068114
 20
288.7935381045032
 30
0.0
 40
1.036778391791999
100
AcDbArc
 50
90.0
 51
180.0
  0
ARC
  5
3305
330
1A
100
AcDbEntity
  8
外形線
100
AcDbCircle
 10
287.7599894727213
 20
288.7935381045032
 30
0.0
 40
1.036778391791999
100
AcDbArc
 50
37.13543647025634
 51
90.0
  0
LINE
  5
3306
330
1A
100
AcDbEntity
  8
外形線
100
AcDbLine
 10
288.5865203026414
 20
289.4194424269655
 30
0.0
 11
290.6307324644074
 21
286.7199813209191
 31
0.0
  0
LINE
  5
3307
330
1A
100
AcDbEntity
  8
外形線
100
AcDbLine
 10
359.7271381122741
 20
210.6901863507359
 30
0.0
 11
359.7271381122738
 21
248.5148856456498
 31
0.0
  0
LINE
  5
3308
330
1A
100
AcDbEntity
  8
外形線
100
AcDbLine
 10
357.5260930671102
 20
209.653407958944
 30
0.0
 11
358.6903597204821
 21
209.653407958944
 31
0.0
  0
LINE
  5
3309
330
1A
100
AcDbEntity
  8
外形線
100
AcDbLine
 10
354.6671204788033
 20
286.7199813209196
 30
0.0
 11
351.4709627273635
 21
286.7199813209196
 31
0.0
  0
LINE
  5
330A
330
1A
100
AcDbEntity
  8
外形線
100
AcDbLine
 10
337.3474530987552
 20
289.8303164962955
 30
0.0
 11
356.9709036811854
 21
289.8303164962957
 31
0.0
  0
LINE
  5
330B
330
1A
100
AcDbEntity
  8
外形線
100
AcDbLine
 10
362.3190840917537
 20
262.2520112746278
 30
0.0
 11
312.5537212857396
 21
262.2520112746273
 31
0.0
  0
LINE
  5
330C
330
1A
100
AcDbEntity
  8
外形線
100
AcDbLine
 10
332.5510277564575
 20
267.4359032335898
 30
0.0
 11
332.5510277564574
 21
288.7935381045037
 31
0.0
  0
LINE
  5
330D
330
1A
100
AcDbEntity
  8
外形線
100
AcDbLine
 10
340.9640531379736
 20
267.4359032335875
 30
0.0
 11
340.9640531379734
 21
285.1648137332319
 31
0.0
  0
LINE
  5
330E
330
1A
100
AcDbEntity
  8
外形線
100
AcDbLine
 10
341.5297920103254
 20
267.4359032335875
 30
0.0
 11
341.5297920103253
 21
286.7199813209196
 31
0.0
  0
LINE
  5
330F
330
1A
100
AcDbEntity
  8
外形線
100
AcDbLine
 10
351.4709627273636
 20
267.4359032335898
 30
0.0
 11
351.4709627273635
 21
286.7199813209196
 31
0.0
  0
LINE
  5
3310
330
1A
100
AcDbEntity
  8
外形線
100
AcDbLine
 10
317.7376132446974
 20
267.4359032335873
 30
0.0
 11
317.7376132446973
 21
288.7935381045035
 31
0.0
  0
LINE
  5
3311
330
1A
100
AcDbEntity
  8
外形線
100
AcDbLine
 10
307.3698293267775
 20
267.4359032335871
 30
0.0
 11
307.3698293267773
 21
288.7935381045032
 31
0.0
  0
ARC
  5
3312
330
1A
100
AcDbEntity
  8
外形線
100
AcDbCircle
 10
312.5537212857393
 20
267.4359032335875
 30
0.0
 40
5.183891958959999
100
AcDbArc
 50
180.0
 51
270.0
  0
ARC
  5
3313
330
1A
100
AcDbEntity
  8
外形線
100
AcDbCircle
 10
312.5537212857393
 20
267.4359032335875
 30
0.0
 40
5.183891958959999
100
AcDbArc
 50
270.0
 51
0.0
  0
LINE
  5
3314
330
1A
100
AcDbEntity
  8
外形線
100
AcDbLine
 10
331.5142493646653
 20
289.8303164962953
 30
0.0
 11
318.7743916364892
 21
289.8303164962953
 31
0.0
  0
LINE
  5
3315
330
1A
100
AcDbEntity
  8
外形線
100
AcDbLine
 10
307.3698293267773
 20
286.7199813209191
 30
0.0
 11
312.5537212857393
 21
286.7199813209193
 31
0.0
  0
ARC
  5
3316
330
1A
100
AcDbEntity
  8
外形線
100
AcDbCircle
 10
306.3330509349872
 20
288.7935381045032
 30
0.0
 40
1.036778391791999
100
AcDbArc
 50
0.0
 51
90.0
  0
LINE
  5
3317
330
1A
100
AcDbEntity
  8
外形線
100
AcDbLine
 10
317.7376132446973
 20
286.7199813209193
 30
0.0
 11
312.5537212857393
 21
286.7199813209193
 31
0.0
  0
ARC
  5
3318
330
1A
100
AcDbEntity
  8
外形線
100
AcDbCircle
 10
318.7743916364892
 20
288.7935381045035
 30
0.0
 40
1.036778391791999
100
AcDbArc
 50
90.0
 51
180.0
  0
ARC
  5
3319
330
1A
100
AcDbEntity
  8
外形線
100
AcDbCircle
 10
338.4194568349493
 20
286.7199813209198
 30
0.0
 40
3.110335175376
100
AcDbArc
 50
0.0
 51
90.0
  0
LINE
  5
331A
330
1A
100
AcDbEntity
  8
外形線
100
AcDbLine
 10
339.4088855502853
 20
286.7199813209196
 30
0.0
 11
332.5510277564574
 21
286.7199813209196
 31
0.0
  0
ARC
  5
331B
330
1A
100
AcDbEntity
  8
外形線
100
AcDbCircle
 10
337.3474530987552
 20
288.7935381045037
 30
0.0
 40
1.036778391791999
100
AcDbArc
 50
90.0
 51
142.8645635297238
  0
ARC
  5
331C
330
1A
100
AcDbEntity
  8
外形線
100
AcDbCircle
 10
331.5142493646653
 20
288.7935381045035
 30
0.0
 40
1.036778391791999
100
AcDbArc
 50
0.0
 51
90.0
  0
LINE
  5
331D
330
1A
100
AcDbEntity
  8
外形線
100
AcDbLine
 10
336.5209222688353
 20
289.419442426966
 30
0.0
 11
334.4767101070695
 21
286.7199813209196
 31
0.0
  0
ARC
  5
331E
330
1A
100
AcDbEntity
  8
外形線
100
AcDbCircle
 10
339.4088855502852
 20
285.1648137332319
 30
0.0
 40
1.555167587688
100
AcDbArc
 50
0.0
 51
90.0
  0
ARC
  5
331F
330
1A
100
AcDbEntity
  8
外形線
100
AcDbCircle
 10
348.3606275519873
 20
286.7199813209198
 30
0.0
 40
3.110335175376
100
AcDbArc
 50
0.0
 51
90.0
  0
LINE
  5
3320
330
1A
100
AcDbEntity
  8
外形線
100
AcDbLine
 10
362.3190840917537
 20
262.2520112746278
 30
0.0
 11
361.1123337733413
 21
285.900246083312
 31
0.0
  0
LINE
  5
3321
330
1A
100
AcDbEntity
  8
外形線
100
AcDbLine
 10
356.7406772623875
 20
267.4359032335875
 30
0.0
 11
356.7406772623874
 21
284.646424537336
 31
0.0
  0
LINE
  5
3322
330
1A
100
AcDbEntity
  8
外形線
100
AcDbLine
 10
357.5578560254716
 20
267.4359032335877
 30
0.0
 11
357.5578560254714
 21
286.7199813209198
 31
0.0
  0
LINE
  5
3323
330
1A
100
AcDbEntity
  8
外形線
100
AcDbLine
 10
362.8374732876496
 20
257.1717971548482
 30
0.0
 11
362.8374732876496
 21
262.1131093082221
 31
0.0
  0
LINE
  5
3324
330
1A
100
AcDbEntity
  8
外形線
100
AcDbLine
 10
362.3190840917537
 20
256.6534079589518
 30
0.0
 11
362.8374732876496
 21
257.1717971548482
 31
0.0
  0
ARC
  5
3325
330
1A
100
AcDbEntity
  8
外形線
100
AcDbCircle
 10
362.3190840917536
 20
261.215232882836
 30
0.0
 40
1.036778391791999
100
AcDbArc
 50
59.99999999999218
 51
90.0
  0
ARC
  5
3326
330
1A
100
AcDbEntity
  8
外形線
100
AcDbCircle
 10
356.9709036811854
 20
285.683202929128
 30
0.0
 40
4.147113567167999
100
AcDbArc
 50
2.99999999999909
 51
90.0
  0
ARC
  5
3327
330
1A
100
AcDbEntity
  8
外形線
100
AcDbCircle
 10
354.6671204788032
 20
284.646424537336
 30
0.0
 40
2.073556783583999
100
AcDbArc
 50
0.0
 51
90.0
  0
ARC
  5
3328
330
1A
100
AcDbEntity
  8
外形線
100
AcDbCircle
 10
354.4475208500954
 20
286.7199813209198
 30
0.0
 40
3.110335175376
100
AcDbArc
 50
0.0
 51
90.0
  0
LWPOLYLINE
  5
3329
330
1A
100
AcDbEntity
  8
外形線
100
AcDbPolyline
 90
       18
 70
     0
 43
0.0
 10
357.5578560254716
 20
267.4359032335877
 10
357.5060355627596
 20
266.4824806371838
 10
357.3523388583336
 20
265.5615257037961
 10
357.1019998691217
 20
264.704400449118
 10
356.7635435891536
 20
263.9402932456857
 10
356.3484957411097
 20
263.2952248478715
 10
355.8709902816595
 20
262.7911622862876
 10
355.3472880865215
 20
262.4452708069099
 10
354.7952232058396
 20
262.2693293292178
 10
354.2335955469937
 20
262.2693293292178
 10
353.6815306663116
 20
262.4452708069099
 10
353.1578284711736
 20
262.7911622862876
 10
352.6803230117236
 20
263.2952248478715
 10
352.2652751636815
 20
263.9402932456857
 10
351.9268188837115
 20
264.7044004491178
 10
351.6764798944995
 20
265.5615257037958
 10
351.5227831900735
 20
266.4824806371836
 10
351.4709627273636
 20
267.4359032335875
  0
LWPOLYLINE
  5
332A
330
1A
100
AcDbEntity
  8
外形線
100
AcDbPolyline
 90
        8
 70
     0
 43
0.0
 10
356.7406772623875
 20
267.4359032335875
 10
356.6825955578476
 20
266.4270474872457
 10
356.5105673284275
 20
265.4566981240556
 10
356.2311586118795
 20
264.5618918011456
 10
355.8550339845176
 20
263.7767818206495
 10
355.3965495116797
 20
263.1313345537098
 10
354.8732048000677
 20
262.6501856728279
 10
354.3049750662176
 20
262.3516998482998
  0
LWPOLYLINE
  5
332B
330
1A
100
AcDbEntity
  8
外形線
100
AcDbPolyline
 90
        8
 70
     0
 43
0.0
 10
340.9640531379736
 20
267.4359032335875
 10
340.8875842755716
 20
266.4454445603397
 10
340.6607827180775
 20
265.4887273890896
 10
340.2913748102796
 20
264.5983437655378
 10
339.7919450021837
 20
263.8046259807958
 10
339.1795071403235
 20
263.1346132551176
 10
338.4749248648518
 20
262.6111306051658
 10
337.7022008574456
 20
262.2520112746276
  0
LWPOLYLINE
  5
332C
330
1A
100
AcDbEntity
  8
外形線
100
AcDbPolyline
 90
       18
 70
     0
 43
0.0
 10
341.5297920103254
 20
267.4359032335875
 10
341.4533517483695
 20
266.4825233158459
 10
341.2266340439416
 20
265.5616096077516
 10
340.8573594965475
 20
264.7045227211157
 10
340.3581033080056
 20
263.9404497219035
 10
339.7458670490237
 20
263.2954101996976
 10
339.0414996911036
 20
262.7913702017855
 10
338.2689876198238
 20
262.4454942057697
 10
337.4546378072476
 20
262.2695606038575
 10
336.6261819595357
 20
262.2695606038575
 10
335.8118321469597
 20
262.4454942057697
 10
335.0393200756796
 20
262.7913702017855
 10
334.3349527177597
 20
263.2954101996976
 10
333.7227164587775
 20
263.9404497219035
 10
333.2234602702337
 20
264.7045227211157
 10
332.8541857228414
 20
265.5616096077516
 10
332.6274680184134
 20
266.4825233158459
 10
332.5510277564575
 20
267.4359032335875
  0
ARC
  5
332D
330
1A
100
AcDbEntity
  8
外形線
100
AcDbCircle
 10
267.77646107565
 20
208.0747833278171
 30
0.0
 40
2.0
100
AcDbArc
 50
225.0
 51
270.0
  0
LINE
  5
332E
330
1A
100
AcDbEntity
  8
外形線
100
AcDbLine
 10
285.3509193121198
 20
249.0854805348091
 30
0.0
 11
280.9049873395237
 21
251.0961071940009
 31
0.0
  0
LINE
  5
332F
330
1A
100
AcDbEntity
  8
外形線
100
AcDbLine
 10
346.0192096139423
 20
194.2138397893037
 30
0.0
 11
279.3192096139422
 21
194.213839789303
 31
0.0
  0
LINE
  5
3330
330
1A
100
AcDbEntity
  8
外形線
100
AcDbLine
 10
279.3192096139423
 20
189.3138397893132
 30
0.0
 11
279.3192096139422
 21
194.213839789303
 31
0.0
  0
LINE
  5
3331
330
1A
100
AcDbEntity
  8
外形線
100
AcDbLine
 10
346.0192096139424
 20
189.3138397893139
 30
0.0
 11
346.0192096139423
 21
194.2138397893037
 31
0.0
  0
LINE
  5
3332
330
1A
100
AcDbEntity
  8
外形線
100
AcDbLine
 10
356.6768139280002
 20
209.2113012224019
 30
0.0
 11
346.0192096139423
 21
194.2138397893037
 31
0.0
  0
LINE
  5
3333
330
1A
100
AcDbEntity
  8
外形線
100
AcDbLine
 10
268.430628643478
 20
209.2113012224012
 30
0.0
 11
279.3192096139422
 21
194.213839789303
 31
0.0
  0
LINE
  5
3334
330
1A
100
AcDbEntity
  8
外形線
100
AcDbLine
 10
252.330205695048
 20
219.7390765708029
 30
0.0
 11
266.3622475132761
 21
206.660569765443
 31
0.0
  0
ARC
  5
3335
330
1A
100
AcDbEntity
  8
外形線
100
AcDbCircle
 10
345.4192096139422
 20
189.3138397893139
 30
0.0
 40
0.6
100
AcDbArc
 50
270.0
 51
0.0
  0
ARC
  5
3336
330
1A
100
AcDbEntity
  8
外形線
100
AcDbCircle
 10
279.9192096139421
 20
189.3138397893132
 30
0.0
 40
0.6
100
AcDbArc
 50
180.0
 51
270.0
  0
LINE
  5
3337
330
1A
100
AcDbEntity
  8
外形線
100
AcDbLine
 10
230.1180550408097
 20
247.9827458315566
 30
0.0
 11
241.0092096139416
 21
247.9827458315568
 31
0.0
  0
LINE
  5
3338
330
1A
100
AcDbEntity
  8
外形線
100
AcDbLine
 10
241.0092096139415
 20
254.2034161823086
 30
0.0
 11
230.1180550408076
 21
254.2034161823084
 31
0.0
  0
LINE
  5
3339
330
1A
100
AcDbEntity
  8
外形線
100
AcDbLine
 10
230.1180550408097
 20
245.3907998520766
 30
0.0
 11
241.0092096139416
 21
245.3907998520768
 31
0.0
  0
LINE
  5
333A
330
1A
100
AcDbEntity
  8
外形線
100
AcDbLine
 10
230.1180550408099
 20
229.3207347793006
 30
0.0
 11
241.0092096139417
 21
229.3207347793008
 31
0.0
  0
LINE
  5
333B
330
1A
100
AcDbEntity
  8
外形線
100
AcDbLine
 10
230.1180550408099
 20
231.9126807587807
 30
0.0
 11
241.0092096139417
 21
231.912680758781
 31
0.0
  0
LINE
  5
333C
330
1A
100
AcDbEntity
  8
外形線
100
AcDbLine
 10
241.0092096139418
 20
223.1000644285487
 30
0.0
 11
230.1180550408061
 21
223.1000644285485
 31
0.0
  0
ARC
  5
333D
330
1A
100
AcDbEntity
  8
外形線
100
AcDbCircle
 10
246.4021447440479
 20
238.6517403054289
 30
0.0
 40
17.62346450152246
100
AcDbArc
 50
157.5181156824918
 51
202.4818843175081
  0
LINE
  5
333E
330
1A
100
AcDbEntity
  8
外形線
100
AcDbLine
 10
228.4592096139415
 20
252.4408929162627
 30
0.0
 11
228.4592096139419
 21
224.8625876945947
 31
0.0
  0
LINE
  5
333F
330
1A
100
AcDbEntity
  8
外形線
100
AcDbLine
 10
223.6692096139417
 20
247.2570009573027
 30
0.0
 11
223.6692096139418
 21
230.0464796535547
 31
0.0
  0
ARC
  5
3340
330
1A
100
AcDbEntity
  8
外形線
100
AcDbCircle
 10
228.8531015729019
 20
230.0464796535547
 30
0.0
 40
5.183891958959999
100
AcDbArc
 50
180.0
 51
265.642247142048
  0
ARC
  5
3341
330
1A
100
AcDbEntity
  8
外形線
100
AcDbCircle
 10
233.0446300710619
 20
226.2103996039247
 30
0.0
 40
4.2707173063642
100
AcDbArc
 50
133.2564871116667
 51
226.7435128883263
  0
LINE
  5
3342
330
1A
100
AcDbEntity
  8
外形線
100
AcDbLine
 10
228.4592096139419
 20
224.8625876945947
 30
0.0
 11
230.1180550408099
 21
223.1000644285485
 31
0.0
  0
LINE
  5
3343
330
1A
100
AcDbEntity
  8
外形線
100
AcDbLine
 10
230.1180550408099
 20
231.9126807587807
 30
0.0
 11
230.1180550408099
 21
229.3207347793006
 31
0.0
  0
ARC
  5
3344
330
1A
100
AcDbEntity
  8
外形線
100
AcDbCircle
 10
228.8531015729018
 20
247.2570009573027
 30
0.0
 40
5.183891958959999
100
AcDbArc
 50
94.35775285795191
 51
180.0
  0
ARC
  5
3345
330
1A
100
AcDbEntity
  8
外形線
100
AcDbCircle
 10
233.0446300710617
 20
251.0930810069327
 30
0.0
 40
4.2707173063642
100
AcDbArc
 50
133.2564871116759
 51
226.7435128883241
  0
LINE
  5
3346
330
1A
100
AcDbEntity
  8
外形線
100
AcDbLine
 10
230.1180550408097
 20
245.3907998520766
 30
0.0
 11
230.1180550408097
 21
247.9827458315566
 31
0.0
  0
LINE
  5
3347
330
1A
100
AcDbEntity
  8
外形線
100
AcDbLine
 10
228.4592096139415
 20
252.4408929162627
 30
0.0
 11
230.1180550408096
 21
254.2034161823084
 31
0.0
  0
LINE
  5
3348
330
1A
100
AcDbEntity
  8
外形線
100
AcDbLine
 10
241.0092096139415
 20
254.2034161823086
 30
0.0
 11
241.0092096139418
 21
223.1000644285487
 31
0.0
  0
LINE
  5
3349
330
1A
100
AcDbEntity
  8
外形線
100
AcDbLine
 10
249.7392096139415
 20
254.2034161823086
 30
0.0
 11
249.7392096139419
 21
223.1000644285487
 31
0.0
  0
LINE
  5
334A
330
1A
100
AcDbEntity
  8
外形線
100
AcDbLine
 10
243.8092096139417
 20
254.2034161823086
 30
0.0
 11
243.809209613942
 21
223.1000644285487
 31
0.0
  0
LINE
  5
334B
330
1A
100
AcDbEntity
  8
細線
100
AcDbLine
 10
241.841346806984
 20
227.7655671916128
 30
0.0
 11
241.8413468069838
 21
249.5379134192445
 31
0.0
  0
LINE
  5
334C
330
1A
100
AcDbEntity
  8
外形線
100
AcDbLine
 10
249.7392096139419
 20
225.1736212121329
 30
0.0
 11
251.4192096139419
 21
225.1736212121329
 31
0.0
  0
LINE
  5
334D
330
1A
100
AcDbEntity
  8
外形線
100
AcDbLine
 10
249.7392096139419
 20
225.1736212121329
 30
0.0
 11
250.257598809838
 21
225.1736212121329
 31
0.0
  0
LINE
  5
334E
330
1A
100
AcDbEntity
  8
外形線
100
AcDbLine
 10
243.809209613942
 20
223.1000644285487
 30
0.0
 11
249.7392096139419
 21
223.1000644285487
 31
0.0
  0
LINE
  5
334F
330
1A
100
AcDbEntity
  8
外形線
100
AcDbLine
 10
241.0092096139418
 20
227.7655671916128
 30
0.0
 11
243.809209613942
 21
227.7655671916128
 31
0.0
  0
LINE
  5
3350
330
1A
100
AcDbEntity
  8
外形線
100
AcDbLine
 10
241.841346806984
 20
227.7655671916128
 30
0.0
 11
241.0092096139418
 21
226.9019079271808
 31
0.0
  0
LINE
  5
3351
330
1A
100
AcDbEntity
  8
外形線
100
AcDbLine
 10
241.841346806984
 20
227.7655671916128
 30
0.0
 11
241.0092096139418
 21
227.7655671916128
 31
0.0
  0
LINE
  5
3352
330
1A
100
AcDbEntity
  8
外形線
100
AcDbLine
 10
243.8092096139419
 20
229.3207347793008
 30
0.0
 11
249.7392096139417
 21
229.3207347793008
 31
0.0
  0
LINE
  5
3353
330
1A
100
AcDbEntity
  8
外形線
100
AcDbLine
 10
243.8092096139419
 20
231.912680758781
 30
0.0
 11
249.7392096139417
 21
231.912680758781
 31
0.0
  0
LINE
  5
3354
330
1A
100
AcDbEntity
  8
外形線
100
AcDbLine
 10
241.0092096139416
 20
249.5379134192445
 30
0.0
 11
243.8092096139418
 21
249.5379134192445
 31
0.0
  0
LINE
  5
3355
330
1A
100
AcDbEntity
  8
外形線
100
AcDbLine
 10
241.8413468069838
 20
249.5379134192445
 30
0.0
 11
241.0092096139416
 21
249.5379134192445
 31
0.0
  0
LINE
  5
3356
330
1A
100
AcDbEntity
  8
外形線
100
AcDbLine
 10
241.8413468069838
 20
249.5379134192445
 30
0.0
 11
241.0092096139416
 21
250.4015726836766
 31
0.0
  0
LINE
  5
3357
330
1A
100
AcDbEntity
  8
外形線
100
AcDbLine
 10
243.8092096139418
 20
247.9827458315568
 30
0.0
 11
249.7392096139416
 21
247.9827458315568
 31
0.0
  0
LINE
  5
3358
330
1A
100
AcDbEntity
  8
外形線
100
AcDbLine
 10
243.8092096139418
 20
245.3907998520768
 30
0.0
 11
249.7392096139416
 21
245.3907998520768
 31
0.0
  0
LINE
  5
3359
330
1A
100
AcDbEntity
  8
外形線
100
AcDbLine
 10
249.7392096139416
 20
252.129859398725
 30
0.0
 11
251.4192096139417
 21
252.129859398725
 31
0.0
  0
LINE
  5
335A
330
1A
100
AcDbEntity
  8
外形線
100
AcDbLine
 10
243.8092096139417
 20
254.2034161823086
 30
0.0
 11
249.7392096139415
 21
254.2034161823086
 31
0.0
  0
LINE
  5
335B
330
1A
100
AcDbEntity
  8
細線
100
AcDbLine
 10
359.7271381122738
 20
248.5148856456498
 30
0.0
 11
286.5117816139417
 21
248.5148856456491
 31
0.0
  0
LINE
  5
335C
330
1A
100
AcDbEntity
  8
外形線
100
AcDbLine
 10
280.4135911401857
 20
256.6534079589509
 30
0.0
 11
280.4135911401857
 21
252.086690498097
 31
0.0
  0
ARC
  5
335D
330
1A
100
AcDbEntity
  8
外形線
100
AcDbCircle
 10
284.5981814413076
 20
248.0948972307134
 30
0.0
 40
1.2441340701504
100
AcDbArc
 50
0.0
 51
52.76903203433043
  0
ARC
  5
335E
330
1A
100
AcDbEntity
  8
外形線
100
AcDbCircle
 10
281.6577252103377
 20
252.086690498097
 30
0.0
 40
1.2441340701504
100
AcDbArc
 50
180.0
 51
232.7690320343233
  0
LINE
  5
335F
330
1A
100
AcDbEntity
  8
外形線
100
AcDbLine
 10
361.8801603242236
 20
256.6534079589518
 30
0.0
 11
361.8801603242236
 21
252.3516482879699
 31
0.0
  0
ARC
  5
3360
330
1A
100
AcDbEntity
  8
外形線
100
AcDbCircle
 10
361.8006948958596
 20
248.51488564565
 30
0.0
 40
2.073556783583999
100
AcDbArc
 50
133.9082680915589
 51
180.0
  0
LINE
  5
3361
330
1A
100
AcDbEntity
  8
外形線
100
AcDbLine
 10
361.2446271976939
 20
250.8577521414799
 30
0.0
 11
360.3626712388037
 21
250.0087817921397
 31
0.0
  0
ARC
  5
3362
330
1A
100
AcDbEntity
  8
外形線
100
AcDbCircle
 10
359.8066035406394
 20
252.3516482879701
 30
0.0
 40
2.073556783583999
100
AcDbArc
 50
313.9082680915681
 51
0.0
  0
MTEXT
  5
3363
330
1A
100
AcDbEntity
  8
寸法線
 48
10.0
100
AcDbMText
 10
137.7823845512503
 20
222.494377748488
 30
0.0
 40
8.0
 41
62.78173532863593
 71
     1
 72
     5
  1
コードロック\P　　2×M20
 73
     1
 44
1.0
  0
LEADER
  5
3364
330
1A
100
AcDbEntity
  8
寸法線
 48
10.0
100
AcDbLeader
  3
ISO-25
 76
     3
 10
225.4147315575292
 20
225.2809714473894
 30
0.0
 10
192.3697777521247
 20
200.1794486072624
 30
0.0
 10
157.6502948538896
 20
200.1794486072624
 30
0.0
1001
ACAD
1000
DSTYLE
1002
{
1070
   147
1040
0.625
1070
    77
1070
     0
1070
    41
1040
4.299999999999999
1070
    47
1040
0.1
1070
    48
1040
0.1
1070
    73
1070
     0
1070
   140
1040
5.0
1070
   271
1070
     1
1070
   272
1070
     1
1070
   341
1005
2AD6
1070
   342
1005
2AD6
1002
}
  0
MTEXT
  5
3365
330
1A
100
AcDbEntity
  8
寸法線
 48
10.0
100
AcDbMText
 10
156.7041098382078
 20
182.0412418303469
 30
0.0
 40
8.0
 41
59.6673846030244
 71
     1
 72
     5
  1
2×NPT 1/2"
 73
     1
 44
1.0
  0
LEADER
  5
3366
330
1A
100
AcDbEntity
  8
寸法線
 48
10.0
100
AcDbLeader
  3
ISO-25
 76
     3
 10
271.6904817954477
 20
226.9503187002297
 30
0.0
 10
211.2360005770188
 20
173.5160339278188
 30
0.0
 10
155.9728531758301
 20
173.5160339278188
 30
0.0
1001
ACAD
1000
DSTYLE
1002
{
1070
   147
1040
0.625
1070
    77
1070
     0
1070
    41
1040
4.299999999999999
1070
    47
1040
0.1
1070
    48
1040
0.1
1070
    73
1070
     0
1070
   140
1040
5.0
1070
   271
1070
     1
1070
   272
1070
     1
1070
   341
1005
2AD6
1070
   342
1005
2AD6
1002
}
  0
LINE
  5
3367
330
1A
100
AcDbEntity
  8
外形線
 48
10.0
100
AcDbLine
 10
278.3938540810963
 20
243.6880082409952
 30
0.0
 11
266.6558815133998
 21
231.9500356732984
 31
0.0
  0
LINE
  5
3368
330
1A
100
AcDbEntity
  8
外形線
 48
10.0
100
AcDbLine
 10
276.7250820774956
 20
245.3567802445956
 30
0.0
 11
264.9871095097991
 21
233.6188076768987
 31
0.0
  0
LINE
  5
3369
330
1A
100
AcDbEntity
  8
外形線
 48
10.0
100
AcDbLine
 10
278.3938540810963
 20
243.6880082409952
 30
0.0
 11
276.7250820774956
 21
245.3567802445956
 31
0.0
  0
LINE
  5
336A
330
1A
100
AcDbEntity
  8
外形線
 48
10.0
100
AcDbLine
 10
264.9871095097991
 20
233.6188076768987
 30
0.0
 11
266.6558815133998
 21
231.9500356732984
 31
0.0
  0
CIRCLE
  5
336B
330
1A
100
AcDbEntity
  8
外形線
 48
10.0
100
AcDbCircle
 10
271.6904817954477
 20
238.653407958947
 30
0.0
 40
11.70308925871734
  0
LEADER
  5
336D
330
1A
100
AcDbEntity
  8
寸法線
 48
10.0
100
AcDbLeader
  3
ISO-25
 76
     3
 10
283.1035553678323
 20
159.9138397893135
 30
0.0
 10
260.0916808434333
 20
130.3225146776154
 30
0.0
 10
252.2763271901342
 20
130.3225146776154
 30
0.0
1001
ACAD
1000
DSTYLE
1002
{
1070
   147
1040
0.625
1070
    77
1070
     0
1070
    41
1040
6.0
1070
    47
1040
0.1
1070
    48
1040
0.1
1070
    73
1070
     0
1070
   140
1040
5.0
1070
   271
1070
     1
1070
   272
1070
     1
1070
   341
1005
2AD6
1070
   342
1005
2AD6
1002
}
  0
LINE
  5
336E
330
1A
100
AcDbEntity
  8
外形線
 48
10.0
100
AcDbLine
 10
342.4692096139386
 20
165.0538397893136
 30
0.0
 11
342.4692096139386
 21
152.4138397893135
 31
0.0
  0
LINE
  5
336F
330
1A
100
AcDbEntity
  8
細線
 48
10.0
100
AcDbLine
 10
340.9942096139392
 20
165.0538397893136
 30
0.0
 11
340.9942096139392
 21
152.4138397893135
 31
0.0
  0
LINE
  5
3370
330
1A
100
AcDbEntity
  8
外形線
 48
10.0
100
AcDbLine
 10
339.6692096139394
 20
107.4138397893135
 30
0.0
 11
339.6692096139394
 21
152.4138397893135
 31
0.0
  0
MTEXT
  5
3371
330
1A
100
AcDbEntity
  8
寸法線
 48
10.0
100
AcDbMText
 10
261.7831189508978
 20
130.6903406684163
 30
0.0
 40
8.0
 41
86.8602
 71
     9
 72
     1
  1
G2"
 73
     1
 44
1.0
  0
LINE
  5
3372
330
1A
100
AcDbEntity
  8
外形線
 48
10.0
100
AcDbLine
 10
282.8692096139392
 20
152.4138397893135
 30
0.0
 11
342.4692096139386
 21
152.4138397893135
 31
0.0
  0
LINE
  5
3373
330
1A
100
AcDbEntity
  8
外形線
 48
10.0
100
AcDbLine
 10
339.6692096139394
 20
152.4138397893135
 30
0.0
 11
285.6692096139394
 21
152.4138397893135
 31
0.0
  0
LINE
  5
3374
330
1A
100
AcDbEntity
  8
外形線
 48
10.0
100
AcDbLine
 10
285.6692096139399
 20
107.4138397893135
 30
0.0
 11
339.6692096139399
 21
107.4138397893135
 31
0.0
  0
DIMENSION
  5
3375
330
1A
100
AcDbEntity
  8
寸法線
 48
10.0
100
AcDbDimension
  2
*D10
 10
339.6692096139394
 20
83.1766082099681
 30
0.0
 11
312.6692096139394
 21
87.8016082099681
 31
0.0
 70
    32
  1
φ<>
 71
     5
 42
54.0
  3
ISO-25
100
AcDbAlignedDimension
 13
285.6692096139394
 23
107.4138397893135
 33
0.0
 14
339.6692096139394
 24
107.4138397893135
 34
0.0
100
AcDbRotatedDimension
1001
ACAD
1000
DSTYLE
1002
{
1070
    41
1040
6.0
1070
    47
1040
0.1
1070
    48
1040
0.1
1070
    73
1070
     0
1070
   140
1040
8.0
1070
   271
1070
     1
1070
   272
1070
     1
1070
   341
1005
2AD6
1070
   342
1005
2AD6
1002
}
  0
DIMENSION
  5
3376
330
1A
100
AcDbEntity
  8
寸法線
 48
10.0
100
AcDbDimension
  2
*D11
 10
410.3201449255703
 20
107.4138397893135
 30
0.0
 11
410.3201449255703
 21
137.4138397893136
 31
0.0
 70
   160
 71
     5
 42
60.00000000000001
  3
ISO-25
100
AcDbAlignedDimension
 13
346.9289408049635
 23
167.4138397893135
 33
0.0
 14
342.1528948468776
 24
107.4138397893135
 34
0.0
 50
90.0
100
AcDbRotatedDimension
1001
ACAD
1000
DSTYLE
1002
{
1070
    41
1040
6.0
1070
    47
1040
0.1
1070
    48
1040
0.1
1070
    73
1070
     0
1070
   140
1040
8.0
1070
   271
1070
     1
1070
   272
1070
     1
1070
   341
1005
2AD6
1070
   342
1005
2AD6
1002
}
  0
LINE
  5
3377
330
1A
100
AcDbEntity
  8
外形線
 48
10.0
100
AcDbLine
 10
285.6692096139394
 20
152.4138397893135
 30
0.0
 11
285.6692096139394
 21
107.4138397893135
 31
0.0
  0
DIMENSION
  5
3378
330
1A
100
AcDbEntity
  8
寸法線
 48
10.0
100
AcDbDimension
  2
*D12
 10
389.9133867391411
 20
167.4138397893135
 30
0.0
 11
389.9133867391411
 21
159.9138397893136
 31
0.0
 70
   160
 71
     5
 42
15.0
  3
ISO-25
100
AcDbAlignedDimension
 13
343.8896375727499
 23
152.4138397893135
 33
0.0
 14
345.1921980790912
 24
167.4138397893135
 34
0.0
 50
90.0
100
AcDbRotatedDimension
1001
ACAD
1000
DSTYLE
1002
{
1070
    41
1040
6.0
1070
    47
1040
0.1
1070
    48
1040
0.1
1070
    73
1070
     0
1070
   140
1040
8.0
1070
   271
1070
     1
1070
   272
1070
     1
1070
   341
1005
2AD6
1070
   342
1005
2AD6
1002
}
  0
LINE
  5
3379
330
1A
100
AcDbEntity
  8
外形線
 48
10.0
100
AcDbLine
 10
282.8692096139392
 20
165.0538397893136
 30
0.0
 11
282.8692096139392
 21
152.4138397893135
 31
0.0
  0
LINE
  5
337A
330
1A
100
AcDbEntity
  8
細線
 48
10.0
100
AcDbLine
 10
284.3442096139386
 20
165.0538397893136
 30
0.0
 11
284.3442096139386
 21
152.4138397893135
 31
0.0
  0
LINE
  5
337B
330
1A
100
AcDbEntity
  8
外形線
 48
10.0
100
AcDbLine
 10
285.6692096139394
 20
152.4138397893135
 30
0.0
 11
285.6692096139394
 21
120.4138397893135
 31
0.0
  0
LINE
  5
337C
330
1A
100
AcDbEntity
  8
外形線
 48
10.0
100
AcDbLine
 10
280.7442096139387
 20
165.0538397893136
 30
0.0
 11
280.7442096139387
 21
167.4138397893135
 31
0.0
  0
LINE
  5
337D
330
1A
100
AcDbEntity
  8
外形線
 48
10.0
100
AcDbLine
 10
282.8692096139387
 20
165.0538397893136
 30
0.0
 11
342.4692096139391
 21
165.0538397893136
 31
0.0
  0
LINE
  5
337E
330
1A
100
AcDbEntity
  8
外形線
 48
10.0
100
AcDbLine
 10
280.7442096139387
 20
165.0538397893136
 30
0.0
 11
344.5942096139391
 21
165.0538397893136
 31
0.0
  0
LINE
  5
337F
330
1A
100
AcDbEntity
  8
外形線
 48
10.0
100
AcDbLine
 10
280.7442096139387
 20
167.4138397893135
 30
0.0
 11
344.5942096139391
 21
167.4138397893135
 31
0.0
  0
LINE
  5
3380
330
1A
100
AcDbEntity
  8
外形線
 48
10.0
100
AcDbLine
 10
280.7442096139392
 20
165.0538397893136
 30
0.0
 11
344.5942096139386
 21
165.0538397893136
 31
0.0
  0
LINE
  5
3381
330
1A
100
AcDbEntity
  8
外形線
 48
10.0
100
AcDbLine
 10
282.8692096139392
 20
167.4138397893135
 30
0.0
 11
342.4692096139386
 21
167.4138397893135
 31
0.0
  0
LINE
  5
3382
330
1A
100
AcDbEntity
  8
外形線
 48
10.0
100
AcDbLine
 10
344.5942096139391
 20
165.0538397893136
 30
0.0
 11
344.5942096139391
 21
167.4138397893135
 31
0.0
  0
LINE
  5
3525
330
1A
100
AcDbEntity
  8
寸法線
 48
10.0
100
AcDbLine
 10
283.7219062947227
 20
-18.53215705942304
 30
0.0
 11
329.9614533453528
 21
-55.10901873424981
 31
0.0
  0
LINE
  5
3526
330
1A
100
AcDbEntity
  8
寸法線
 48
10.0
100
AcDbLine
 10
301.7216960029703
 20
-18.53215706402975
 30
0.0
 11
349.9614533453528
 21
-55.10901873424976
 31
0.0
  0
LINE
  5
3527
330
1A
100
AcDbEntity
  8
外形線
 48
10.0
100
AcDbLine
 10
319.9614533453527
 20
-75.10901873424984
 30
0.0
 11
359.9614533453526
 21
-75.10901873424984
 31
0.0
  0
LINE
  5
3528
330
1A
100
AcDbEntity
  8
外形線
 48
10.0
100
AcDbLine
 10
339.9614533453525
 20
-75.10901873424984
 30
0.0
 11
339.9614533453525
 21
-55.10901873424984
 31
0.0
  0
LINE
  5
3529
330
1A
100
AcDbEntity
  8
外形線
 48
10.0
100
AcDbLine
 10
319.9614533453527
 20
-55.10901873424984
 30
0.0
 11
359.9614533453526
 21
-55.10901873424967
 31
0.0
  0
LINE
  5
352A
330
1A
100
AcDbEntity
  8
外形線
 48
10.0
100
AcDbLine
 10
359.9614533453526
 20
-75.10901873424984
 30
0.0
 11
359.9614533453526
 21
-55.10901873424967
 31
0.0
  0
LINE
  5
352B
330
1A
100
AcDbEntity
  8
外形線
 48
10.0
100
AcDbLine
 10
319.9614533453525
 20
-55.10901873424984
 30
0.0
 11
319.9614533453527
 21
-75.10901873424984
 31
0.0
  0
MTEXT
  5
352C
330
1A
100
AcDbEntity
  8
寸法線
 48
10.0
100
AcDbMText
 10
341.3776068635418
 20
-64.75021565285214
 30
0.0
 40
10.0
 41
33.39474293429237
 71
     5
 72
     1
  1
I-  I+
 73
     1
 44
1.0
  0
MTEXT
  5
352D
330
1A
100
AcDbEntity
  8
寸法線
 48
10.0
100
AcDbMText
 10
317.5747084719878
 20
-85.06247188217171
 30
0.0
 40
8.0
 41
101.6755516611406
 71
     1
 72
     1
  1
4-20mAループ電流\Pおよび電源（HART）
 73
     1
 44
1.0
  0
LINE
  5
352E
330
1A
100
AcDbEntity
  8
外形線
 48
10.0
100
AcDbLine
 10
220.3999138226602
 20
-55.10901873425002
 30
0.0
 11
220.3999138226604
 21
-75.10901873425002
 31
0.0
  0
LINE
  5
352F
330
1A
100
AcDbEntity
  8
外形線
 48
10.0
100
AcDbLine
 10
260.3999138226602
 20
-75.10901873425002
 30
0.0
 11
260.3999138226602
 21
-55.10901873424984
 31
0.0
  0
LINE
  5
3530
330
1A
100
AcDbEntity
  8
外形線
 48
10.0
100
AcDbLine
 10
240.3999138226602
 20
-75.10901873425002
 30
0.0
 11
240.3999138226602
 21
-55.10901873425002
 31
0.0
  0
LINE
  5
3531
330
1A
100
AcDbEntity
  8
外形線
 48
10.0
100
AcDbLine
 10
220.3999138226604
 20
-75.10901873425002
 30
0.0
 11
260.3999138226602
 21
-75.10901873425002
 31
0.0
  0
MTEXT
  5
3532
330
1A
100
AcDbEntity
  8
寸法線
 48
10.0
100
AcDbMText
 10
241.3704069826042
 20
-64.7502156528523
 30
0.0
 40
10.0
 41
44.86228651633967
 71
     5
 72
     1
  1
U- U+
 73
     1
 44
1.0
  0
LINE
  5
3533
330
1A
100
AcDbEntity
  8
外形線
 48
10.0
100
AcDbLine
 10
220.3999138226604
 20
-55.10901873425002
 30
0.0
 11
260.3999138226602
 21
-55.10901873424984
 31
0.0
  0
LINE
  5
3534
330
1A
100
AcDbEntity
  8
寸法線
 48
10.0
100
AcDbLine
 10
283.7498542077021
 20
-18.53207447118421
 30
0.0
 11
250.3999138226604
 21
-55.10901873424984
 31
0.0
  0
LINE
  5
3535
330
1A
100
AcDbEntity
  8
寸法線
 48
10.0
100
AcDbLine
 10
265.7216960029702
 20
-18.53215706402955
 30
0.0
 11
230.3999138226604
 21
-55.1090187342499
 31
0.0
  0
MTEXT
  5
3536
330
1A
100
AcDbEntity
  8
寸法線
 48
10.0
100
AcDbMText
 10
238.955113905585
 20
-95.72913854883855
 30
0.0
 40
8.0
 41
101.6755516611406
 71
     5
 72
     1
  1
ループ電流テスト端子\P（10mV=1mA）
 73
     1
 44
1.0
  0
CIRCLE
  5
3537
330
1A
100
AcDbEntity
  8
外形線
 48
10.0
100
AcDbCircle
 10
283.7216960029703
 20
-13.73215706402956
 30
0.0
 40
4.799999999999999
  0
LINE
  5
3538
330
1A
100
AcDbEntity
  8
外形線
 48
10.0
100
AcDbLine
 10
287.7442288398049
 20
-16.35117015612894
 30
0.0
 11
281.1026829108714
 21
-9.709624227195035
 31
0.0
  0
LINE
  5
3539
330
1A
100
AcDbEntity
  8
外形線
 48
10.0
100
AcDbLine
 10
286.3407090950695
 20
-17.75468990086421
 30
0.0
 11
279.6991631661356
 21
-11.1131439719303
 31
0.0
  0
LINE
  5
353A
330
1A
100
AcDbEntity
  8
外形線
 48
10.0
100
AcDbLine
 10
304.3407090950696
 20
-17.75468990086437
 30
0.0
 11
297.6991631661356
 21
-11.11314397193047
 31
0.0
  0
LINE
  5
353B
330
1A
100
AcDbEntity
  8
外形線
 48
10.0
100
AcDbLine
 10
305.7442288398049
 20
-16.35117015612911
 30
0.0
 11
299.1026829108714
 21
-9.709624227195206
 31
0.0
  0
CIRCLE
  5
353C
330
1A
100
AcDbEntity
  8
外形線
 48
10.0
100
AcDbCircle
 10
301.7216960029703
 20
-13.73215706402973
 30
0.0
 40
4.799999999999999
  0
CIRCLE
  5
353D
330
1A
100
AcDbEntity
  8
外形線
 48
10.0
100
AcDbCircle
 10
319.7216960029707
 20
-13.73215706402982
 30
0.0
 40
4.799999999999999
  0
LINE
  5
353E
330
1A
100
AcDbEntity
  8
外形線
 48
10.0
100
AcDbLine
 10
315.699163166136
 20
-16.35117015612917
 30
0.0
 11
322.3407090950697
 21
-9.70962422719532
 31
0.0
  0
LINE
  5
353F
330
1A
100
AcDbEntity
  8
外形線
 48
10.0
100
AcDbLine
 10
317.1026829108714
 20
-17.75468990086443
 30
0.0
 11
323.7442288398054
 21
-11.11314397193058
 31
0.0
  0
LINE
  5
3540
330
1A
100
AcDbEntity
  8
外形線
 48
10.0
100
AcDbLine
 10
335.1026829108714
 20
-17.75468990086443
 30
0.0
 11
341.7442288398054
 21
-11.11314397193058
 31
0.0
  0
LINE
  5
3541
330
1A
100
AcDbEntity
  8
外形線
 48
10.0
100
AcDbLine
 10
333.699163166136
 20
-16.35117015612917
 30
0.0
 11
340.3407090950698
 21
-9.70962422719532
 31
0.0
  0
CIRCLE
  5
3542
330
1A
100
AcDbEntity
  8
外形線
 48
10.0
100
AcDbCircle
 10
337.7216960029707
 20
-13.73215706402982
 30
0.0
 40
4.799999999999999
  0
LINE
  5
3543
330
1A
100
AcDbEntity
  8
下書線
 48
10.0
100
AcDbLine
 10
265.7216960029707
 20
7.495026752462649
 30
0.0
 11
355.7216960029707
 21
7.495026752462649
 31
0.0
  0
CIRCLE
  5
3544
330
1A
100
AcDbEntity
  8
外形線
 48
10.0
100
AcDbCircle
 10
319.7216960029707
 20
7.495026752462649
 30
0.0
 40
2.799999999999999
  0
CIRCLE
  5
3545
330
1A
100
AcDbEntity
  8
外形線
 48
10.0
100
AcDbCircle
 10
337.7216960029707
 20
7.495026752462649
 30
0.0
 40
2.799999999999999
  0
CIRCLE
  5
3546
330
1A
100
AcDbEntity
  8
外形線
 48
10.0
100
AcDbCircle
 10
301.7216960029707
 20
7.495026752462649
 30
0.0
 40
2.799999999999999
  0
CIRCLE
  5
3547
330
1A
100
AcDbEntity
  8
外形線
 48
10.0
100
AcDbCircle
 10
283.7216960029707
 20
7.495026752462649
 30
0.0
 40
2.799999999999999
  0
CIRCLE
  5
3548
330
1A
100
AcDbEntity
  8
細線
 48
10.0
100
AcDbCircle
 10
319.7216960029707
 20
7.495026752462649
 30
0.0
 40
2.0
  0
CIRCLE
  5
3549
330
1A
100
AcDbEntity
  8
細線
 48
10.0
100
AcDbCircle
 10
337.7216960029707
 20
7.495026752462649
 30
0.0
 40
2.0
  0
CIRCLE
  5
354A
330
1A
100
AcDbEntity
  8
細線
 48
10.0
100
AcDbCircle
 10
301.7216960029707
 20
7.495026752462649
 30
0.0
 40
2.0
  0
CIRCLE
  5
354B
330
1A
100
AcDbEntity
  8
細線
 48
10.0
100
AcDbCircle
 10
283.7216960029707
 20
7.495026752462649
 30
0.0
 40
2.0
  0
LINE
  5
354C
330
1A
100
AcDbEntity
  8
外形線
 48
10.0
100
AcDbLine
 10
313.5216960029707
 20
19.49502675246265
 30
0.0
 11
313.5216960029707
 21
-4.50497324753735
 31
0.0
  0
LINE
  5
354D
330
1A
100
AcDbEntity
  8
外形線
 48
10.0
100
AcDbLine
 10
307.9216960029707
 20
19.49502675246265
 30
0.0
 11
307.9216960029707
 21
-4.50497324753735
 31
0.0
  0
LINE
  5
354E
330
1A
100
AcDbEntity
  8
外形線
 48
10.0
100
AcDbLine
 10
256.7216960029707
 20
-22.90497324753736
 30
0.0
 11
364.7216960029707
 21
-22.90497324753733
 31
0.0
  0
LINE
  5
354F
330
1A
100
AcDbEntity
  8
外形線
 48
10.0
100
AcDbLine
 10
256.7216960029707
 20
-4.50497324753735
 30
0.0
 11
364.7216960029707
 21
-4.50497324753735
 31
0.0
  0
LINE
  5
3550
330
1A
100
AcDbEntity
  8
外形線
 48
10.0
100
AcDbLine
 10
256.7216960029707
 20
19.49502675246265
 30
0.0
 11
364.7216960029707
 21
19.49502675246265
 31
0.0
  0
LINE
  5
3551
330
1A
100
AcDbEntity
  8
外形線
 48
10.0
100
AcDbLine
 10
310.7216960029707
 20
-28.50497324753735
 30
0.0
 11
310.7216960029707
 21
19.49502675246265
 31
0.0
  0
LINE
  5
3552
330
1A
100
AcDbEntity
  8
外形線
 48
10.0
100
AcDbLine
 10
256.7216960029707
 20
-28.50497324753735
 30
0.0
 11
364.7216960029707
 21
-28.50497324753735
 31
0.0
  0
LINE
  5
3553
330
1A
100
AcDbEntity
  8
外形線
 48
10.0
100
AcDbLine
 10
364.7216960029707
 20
19.49502675246265
 30
0.0
 11
364.7216960029707
 21
-28.50497324753735
 31
0.0
  0
LINE
  5
3554
330
1A
100
AcDbEntity
  8
外形線
 48
10.0
100
AcDbLine
 10
361.9216960029707
 20
19.49502675246265
 30
0.0
 11
361.9216960029707
 21
-4.50497324753735
 31
0.0
  0
CIRCLE
  5
3555
330
1A
100
AcDbEntity
  8
外形線
 48
10.0
100
AcDbCircle
 10
355.7216960029707
 20
-13.73215706402982
 30
0.0
 40
4.799999999999999
  0
LINE
  5
3556
330
1A
100
AcDbEntity
  8
外形線
 48
10.0
100
AcDbLine
 10
351.699163166136
 20
-16.35117015612917
 30
0.0
 11
358.3407090950698
 21
-9.70962422719532
 31
0.0
  0
LINE
  5
3557
330
1A
100
AcDbEntity
  8
外形線
 48
10.0
100
AcDbLine
 10
353.1026829108714
 20
-17.75468990086443
 30
0.0
 11
359.7442288398054
 21
-11.11314397193058
 31
0.0
  0
CIRCLE
  5
3558
330
1A
100
AcDbEntity
  8
外形線
 48
10.0
100
AcDbCircle
 10
355.7216960029707
 20
7.495026752462649
 30
0.0
 40
2.799999999999999
  0
CIRCLE
  5
3559
330
1A
100
AcDbEntity
  8
細線
 48
10.0
100
AcDbCircle
 10
355.7216960029707
 20
7.495026752462649
 30
0.0
 40
2.0
  0
LINE
  5
355A
330
1A
100
AcDbEntity
  8
外形線
 48
10.0
100
AcDbLine
 10
256.7216960029707
 20
19.49502675246265
 30
0.0
 11
256.7216960029707
 21
-28.50497324753735
 31
0.0
  0
LINE
  5
355B
330
1A
100
AcDbEntity
  8
外形線
 48
10.0
100
AcDbLine
 10
259.5216960029707
 20
19.49502675246265
 30
0.0
 11
259.5216960029707
 21
-4.50497324753735
 31
0.0
  0
CIRCLE
  5
355C
330
1A
100
AcDbEntity
  8
細線
 48
10.0
100
AcDbCircle
 10
265.7216960029707
 20
7.495026752462649
 30
0.0
 40
2.0
  0
CIRCLE
  5
355D
330
1A
100
AcDbEntity
  8
外形線
 48
10.0
100
AcDbCircle
 10
265.7216960029707
 20
7.495026752462649
 30
0.0
 40
2.799999999999999
  0
LINE
  5
355E
330
1A
100
AcDbEntity
  8
外形線
 48
10.0
100
AcDbLine
 10
268.3407090950695
 20
-17.75468990086421
 30
0.0
 11
261.6991631661356
 21
-11.1131439719303
 31
0.0
  0
LINE
  5
355F
330
1A
100
AcDbEntity
  8
外形線
 48
10.0
100
AcDbLine
 10
269.7442288398049
 20
-16.35117015612894
 30
0.0
 11
263.1026829108714
 21
-9.709624227195035
 31
0.0
  0
CIRCLE
  5
3560
330
1A
100
AcDbEntity
  8
外形線
 48
10.0
100
AcDbCircle
 10
265.7216960029702
 20
-13.73215706402956
 30
0.0
 40
4.799999999999999
  0
MTEXT
  5
3561
330
1A
100
AcDbEntity
  8
寸法線
 48
10.0
100
AcDbMText
 10
309.3305929365008
 20
31.71176558748704
 30
0.0
 40
13.0
 41
108.5311749911217
 71
     5
 72
     1
  1
1{\H0.6154x;  }2{\H0.6154x;  }3{\H0.6154x;  }4{\H0.6154x;  }5{\H0.6154x;  }6
 73
     1
 44
1.0
  0
VIEWPORT
  5
2902
330
28FB
100
AcDbEntity
 67
     1
  8
0
 48
10.0
100
AcDbViewport
 10
282.5227709032251
 20
133.7523993229483
 30
0.0
 40
656.5723275904409
 41
304.0614850418836
 68
     1
 69
     1
 12
282.5227709032251
 22
133.7523993229483
 13
0.0
 23
0.0
 14
10.0
 24
10.0
 15
10.0
 25
10.0
 16
0.0
 26
0.0
 36
1.0
 17
0.0
 27
0.0
 37
0.0
 42
50.0
 43
0.0
 44
0.0
 45
304.0614850418836
 50
0.0
 51
0.0
 72
   100
 90
    32800
  1

281
     0
 71
     1
 74
     0
110
0.0
120
0.0
130
0.0
111
1.0
121
0.0
131
0.0
112
0.0
122
1.0
132
0.0
 79
     0
146
0.0
170
     0
  0
VIEWPORT
  5
2904
330
28FB
100
AcDbEntity
 67
     1
  8
図枠太線
 48
10.0
100
AcDbViewport
 10
204.7463051290833
 20
163.4571232745355
 30
0.0
 40
400.0
 41
240.0
 68
     2
 69
     2
 12
491.1205181469615
 22
120.8472180747841
 13
0.0
 23
0.0
 14
1.0
 24
1.0
 15
0.0
 25
0.0
 16
0.0
 26
0.0
 36
1.0
 17
0.0
 27
0.0
 37
0.0
 42
50.0
 43
0.0
 44
0.0
 45
479.9999999517956
 50
0.0
 51
0.0
 72
   100
 90
    32768
  1

281
     0
 71
     1
 74
     0
110
0.0
120
0.0
130
0.0
111
1.0
121
0.0
131
0.0
112
0.0
122
1.0
132
0.0
 79
     0
146
0.0
170
     0
  0
INSERT
  5
2A59
330
28FB
100
AcDbEntity
 67
     1
  8
図枠太線
100
AcDbBlockReference
  2
A3横用　タイトル
 10
-0.35210940670936
 20
-0.0688364789912512
 30
0.0
  0
LINE
  5
2BB3
330
28FB
100
AcDbEntity
 67
     1
  8
外形線
 48
10.0
100
AcDbLine
 10
186.3080855861019
 20
260.5361896077572
 30
0.0
 11
396.3423234261037
 21
260.5361896077572
 31
0.0
  0
LINE
  5
2BB4
330
28FB
100
AcDbEntity
 67
     1
  8
外形線
 48
10.0
100
AcDbLine
 10
186.3080855861019
 20
267.1608782554324
 30
0.0
 11
396.3423234261037
 21
267.1608782554323
 31
0.0
  0
LINE
  5
2BB5
330
28FB
100
AcDbEntity
 67
     1
  8
外形線
 48
10.0
100
AcDbLine
 10
186.3080855861019
 20
246.6210445176599
 30
0.0
 11
396.3423234261037
 21
246.6210445176598
 31
0.0
  0
MTEXT
  5
2BB6
330
28FB
100
AcDbEntity
 67
     1
  8
外形線
 48
10.0
100
AcDbMText
 10
189.8638448538474
 20
173.0606210283074
 30
0.0
 40
4.0
 41
10.34952651999016
 71
     1
 72
     5
  1
出力
 73
     1
 44
1.0
  0
MTEXT
  5
2BB7
330
28FB
100
AcDbEntity
 67
     1
  8
外形線
 48
10.0
100
AcDbMText
 10
203.6409884064652
 20
179.2391339610508
 30
0.0
 40
4.0
 41
25.82833199862822
 71
     1
 72
     5
  1
アナログ\P表　　示\P通　　信
 73
     1
 44
1.0
  0
LINE
  5
2BB8
330
28FB
100
AcDbEntity
 67
     1
  8
外形線
 48
10.0
100
AcDbLine
 10
202.2550739521626
 20
180.374158040909
 30
0.0
 11
202.2550739521628
 21
160.5000920978836
 31
0.0
  0
LINE
  5
2BB9
330
28FB
100
AcDbEntity
 67
     1
  8
外形線
 48
10.0
100
AcDbLine
 10
186.3080855861019
 20
153.8754034502086
 30
0.0
 11
396.3423234261036
 21
153.8754034502086
 31
0.0
  0
LINE
  5
2BBA
330
28FB
100
AcDbEntity
 67
     1
  8
外形線
 48
10.0
100
AcDbLine
 10
186.3080855861019
 20
160.5000920978836
 30
0.0
 11
396.3423234261036
 21
160.5000920978837
 31
0.0
  0
LINE
  5
2BBB
330
28FB
100
AcDbEntity
 67
     1
  8
外形線
 48
10.0
100
AcDbLine
 10
186.3080855861019
 20
180.3741580409089
 30
0.0
 11
396.3423234261036
 21
180.3741580409089
 31
0.0
  0
LINE
  5
2BBC
330
28FB
100
AcDbEntity
 67
     1
  8
外形線
 48
10.0
100
AcDbLine
 10
202.2550739521628
 20
167.1247807455588
 30
0.0
 11
396.3423234261036
 21
167.1247807455588
 31
0.0
  0
LINE
  5
2BBD
330
28FB
100
AcDbEntity
 67
     1
  8
外形線
 48
10.0
100
AcDbLine
 10
202.2550739521626
 20
173.7494693932339
 30
0.0
 11
396.3423234261035
 21
173.7494693932339
 31
0.0
  0
LINE
  5
2BBF
330
28FB
100
AcDbEntity
 67
     1
  8
外形線
 48
10.0
100
AcDbLine
 10
186.3080855861019
 20
186.9988466885839
 30
0.0
 11
396.3423234261036
 21
186.9988466885839
 31
0.0
  0
LINE
  5
2BC0
330
28FB
100
AcDbEntity
 67
     1
  8
外形線
 48
10.0
100
AcDbLine
 10
186.3080855861019
 20
193.6235353362591
 30
0.0
 11
396.3423234261036
 21
193.6235353362591
 31
0.0
  0
LINE
  5
2BC1
330
28FB
100
AcDbEntity
 67
     1
  8
外形線
 48
10.0
100
AcDbLine
 10
202.2742160791179
 20
206.8729126316093
 30
0.0
 11
396.3423234261036
 21
206.8729126316092
 31
0.0
  0
LINE
  5
2BC2
330
28FB
100
AcDbEntity
 67
     1
  8
外形線
 48
10.0
100
AcDbLine
 10
186.3080855861019
 20
200.2482239839342
 30
0.0
 11
396.3423234261036
 21
200.2482239839343
 31
0.0
  0
LINE
  5
2BC3
330
28FB
100
AcDbEntity
 67
     1
  8
外形線
 48
10.0
100
AcDbLine
 10
186.3080855861019
 20
220.1222899269595
 30
0.0
 11
396.3423234261037
 21
220.1222899269596
 31
0.0
  0
LINE
  5
2BC4
330
28FB
100
AcDbEntity
 67
     1
  8
外形線
 48
10.0
100
AcDbLine
 10
186.3080855861019
 20
213.4976012792844
 30
0.0
 11
396.3423234261037
 21
213.4976012792844
 31
0.0
  0
LINE
  5
2BC5
330
28FB
100
AcDbEntity
 67
     1
  8
外形線
 48
10.0
100
AcDbLine
 10
186.3080855861019
 20
226.7469785746346
 30
0.0
 11
396.3423234261037
 21
226.7469785746346
 31
0.0
  0
LINE
  5
2BC6
330
28FB
100
AcDbEntity
 67
     1
  8
外形線
 48
10.0
100
AcDbLine
 10
186.3080855861019
 20
267.1608782554324
 30
0.0
 11
186.3080855861019
 21
153.8754034502086
 31
0.0
  0
LINE
  5
2BC7
330
28FB
100
AcDbEntity
 67
     1
  8
外形線
 48
10.0
100
AcDbLine
 10
202.2550739521628
 20
213.6504080112602
 30
0.0
 11
202.2550739521626
 21
200.2482239839342
 31
0.0
  0
LINE
  5
2BC8
330
28FB
100
AcDbEntity
 67
     1
  8
外形線
 48
10.0
100
AcDbLine
 10
229.4693204050934
 20
213.6504080112602
 30
0.0
 11
229.4693204050934
 21
194.1410031094953
 31
0.0
  0
LINE
  5
2BC9
330
28FB
100
AcDbEntity
 67
     1
  8
外形線
 48
10.0
100
AcDbLine
 10
186.3080855861019
 20
253.9115009600822
 30
0.0
 11
396.3423234261037
 21
253.9115009600822
 31
0.0
  0
LINE
  5
2BCA
330
28FB
100
AcDbEntity
 67
     1
  8
外形線
 48
10.0
100
AcDbLine
 10
229.4693204050934
 20
153.8754034502086
 30
0.0
 11
229.4693204050934
 21
267.1608782554324
 31
0.0
  0
MTEXT
  5
2BCB
330
28FB
100
AcDbEntity
 67
     1
  8
外形線
 48
10.0
100
AcDbMText
 10
231.5282579764821
 20
265.7578580105148
 30
0.0
 40
4.0
 41
180.2856573035723
 71
     1
 72
     5
  3
6m\P0.25m\P±（測定値の0.2%+最大測定長の0.05%）\P2m未満:1mm、2～5m:2mm、5m以上：5mm\PPVDF\Pプラスチック\PFKM\PG2"ねじ込み取付\P－30\U+2103～＋90\U+2103\P－25\U+2103～＋70\U+2103（SAP-200モジュール装着時：－25\U+2103～＋70\U+2103）\Pセンサ：IP68、ハウ
  1
ジング：IP67\P0.05～0.3MPa\PDC11.4～36V / 48～720mW\P4～20mA (3.9～20.5mA),　Rmax=(Ut-11.4V)/0.02\P7セグ6桁、アイコン、バーグラフ（SAP-200モジュール）\PHART(接続用抵抗250Ω)\P2×M20、2×1/2" NPT
 73
     1
 44
1.0
  0
LINE
  5
2BCC
330
28FB
100
AcDbEntity
 67
     1
  8
外形線
 48
10.0
100
AcDbLine
 10
186.3080855861019
 20
233.3716672223097
 30
0.0
 11
396.3423234261037
 21
233.3716672223097
 31
0.0
  0
LINE
  5
2BCD
330
28FB
100
AcDbEntity
 67
     1
  8
外形線
 48
10.0
100
AcDbLine
 10
396.3423234261037
 20
267.1608782554323
 30
0.0
 11
396.3423234261036
 21
153.8754034502086
 31
0.0
  0
LINE
  5
2BCE
330
28FB
100
AcDbEntity
 67
     1
  8
外形線
 48
10.0
100
AcDbLine
 10
186.3080855861019
 20
239.9963558699848
 30
0.0
 11
396.3423234261036
 21
239.9963558699847
 31
0.0
  0
MTEXT
  5
2BCF
330
28FB
100
AcDbEntity
 67
     1
  8
外形線
 48
10.0
100
AcDbMText
 10
187.6509242368273
 20
199.3235094728338
 30
0.0
 40
4.0
 41
90.44148148148149
 71
     1
 72
     5
  1
保護構造\P許容圧力\P電源電圧/消費電力\P\P\P\P電気的接続
 73
     1
 44
1.0
  0
MTEXT
  5
2BD0
330
28FB
100
AcDbEntity
 67
     1
  8
外形線
 48
10.0
100
AcDbMText
 10
203.6409884064652
 20
212.4469745348491
 30
0.0
 40
4.0
 41
19.32649648552848
 71
     1
 72
     5
  1
プロセス\P周囲
 73
     1
 44
1.0
  0
MTEXT
  5
2BD1
330
28FB
100
AcDbEntity
 67
     1
  8
外形線
 48
10.0
100
AcDbMText
 10
189.8638448538474
 20
209.2701973026767
 30
0.0
 40
4.0
 41
10.34952651999016
 71
     1
 72
     5
  1
温度
 73
     1
 44
1.0
  0
MTEXT
  5
2BD2
330
28FB
100
AcDbEntity
 67
     1
  8
外形線
 48
10.0
100
AcDbMText
 10
188.7325422377909
 20
238.9648399235676
 30
0.0
 40
4.0
 41
90.44148148148149
 71
     1
 72
     5
  1
センサ材質\Pハウジング材質\Pシール材質\P取付方式
 73
     1
 44
1.0
  0
MTEXT
  5
2BD3
330
28FB
100
AcDbEntity
 67
     1
  8
外形線
 48
10.0
100
AcDbMText
 10
189.261089034443
 20
265.6291329517179
 30
0.0
 40
4.0
 41
39.53729457414702
 71
     1
 72
     5
  1
最大測定距離\P最小測定距離\P測定精度\P分解能
 73
     1
 44
1.0
  0
MTEXT
  5
2BD4
330
28FB
100
AcDbEntity
 67
     1
  8
外形線
 48
10.0
100
AcDbMText
 10
187.9659744992784
 20
274.8809771662494
 30
0.0
 40
6.0
 41
21.16493386322582
 71
     1
 72
     5
  1
仕 様
 73
     1
 44
1.0
  0
MTEXT
  5
2C13
330
28FB
100
AcDbEntity
 67
     1
  8
外形線
 48
10.0
100
AcDbMText
 10
186.9700028777344
 20
140.3550423094028
 30
0.0
 40
6.0
 41
21.16493386322582
 71
     1
 72
     5
  1
型 式
 73
     1
 44
1.0
  0
MTEXT
  5
2EA9
330
28FB
100
AcDbEntity
 67
     1
  8
外形線
 48
10.0
100
AcDbMText
 10
11.5820410539589
 20
110.3497924955489
 30
0.0
 40
6.0
 41
33.71786773590833
 71
     1
 72
     5
  1
端子配置
 73
     1
 44
1.0
  0
MTEXT
  5
2EAA
330
28FB
100
AcDbEntity
 67
     1
  8
外形線
 48
10.0
100
AcDbMText
 10
12.31733238903098
 20
278.3622058411493
 30
0.0
 40
6.0
 41
21.16493386322582
 71
     1
 72
     5
  1
外形図
 73
     1
 44
1.0
  0
LINE
  5
2EAC
330
28FB
100
AcDbEntity
 67
     1
  8
外形線
 48
10.0
100
AcDbLine
 10
378.3218315666601
 20
65.92654850925588
 30
0.0
 11
378.3218315666602
 21
50.02729575483577
 31
0.0
  0
LINE
  5
2EAD
330
28FB
100
AcDbEntity
 67
     1
  8
外形線
 48
10.0
100
AcDbLine
 10
395.9664828483332
 20
65.92654850925588
 30
0.0
 11
395.9664828483333
 21
50.02729575483577
 31
0.0
  0
MTEXT
  5
2EAE
330
28FB
100
AcDbEntity
 67
     1
  8
外形線
 48
10.0
100
AcDbMText
 10
361.3912219668978
 20
62.97828239543952
 30
0.0
 40
4.799999999999999
 41
71.42736712124097
 71
     5
 72
     5
  1
型　　　式　　　　台数
 73
     1
 44
1.0
  0
LINE
  5
2EAF
330
28FB
100
AcDbEntity
 67
     1
  8
外形線
 48
10.0
100
AcDbLine
 10
309.537689126446
 20
65.92654850925588
 30
0.0
 11
309.537689126446
 21
50.02729575483577
 31
0.0
  0
LINE
  5
2EB0
330
28FB
100
AcDbEntity
 67
     1
  8
外形線
 48
10.0
100
AcDbLine
 10
309.537689126446
 20
50.02729575483577
 30
0.0
 11
395.9664828483333
 21
50.02729575483584
 31
0.0
  0
LINE
  5
2EB1
330
28FB
100
AcDbEntity
 67
     1
  8
外形線
 48
10.0
100
AcDbLine
 10
309.537689126446
 20
60.02729575483598
 30
0.0
 11
395.9664828483333
 21
60.02729575483584
 31
0.0
  0
LINE
  5
2EB2
330
28FB
100
AcDbEntity
 67
     1
  8
外形線
 48
10.0
100
AcDbLine
 10
309.537689126446
 20
65.92654850925588
 30
0.0
 11
395.9664828483332
 21
65.92654850925588
 31
0.0
  0
MTEXT
  5
2EBB
330
28FB
100
AcDbEntity
 67
     1
  8
寸法線
 48
10.0
100
AcDbMText
 10
336.7692841067549
 20
17.19171152662682
 30
0.0
 40
7.0
 41
42.83711411729791
 71
     1
 72
     5
  1
{\H1.286x;NX-2089}
 73
     1
 44
1.0
  0
MTEXT
  5
2EBC
330
28FB
100
AcDbEntity
 67
     1
  8
寸法線
 48
10.0
100
AcDbMText
 10
310.0899954998802
 20
35.63389557347273
 30
0.0
 40
2.333873885063326
 41
101.4226980723972
 71
     1
 72
     5
  1
{\H2.571x;液体用超音波レベル計仕様書}
 73
     1
 44
1.0
  0
MTEXT
  5
2EBD
330
28FB
100
AcDbEntity
 67
     1
  8
寸法線
 48
10.0
100
AcDbMText
 10
181.2683447425463
 20
34.7168270182865
 30
0.0
 40
4.0
 41
23.71072364199064
 71
     1
 72
     5
  1
{\H1.25x;ohno}
 73
     1
 44
1.0
  0
MTEXT
  5
2EBE
330
28FB
100
AcDbEntity
 67
     1
  8
寸法線
 48
10.0
100
AcDbMText
 10
176.5818393650611
 20
14.92405413963829
 30
0.0
 40
4.0
 41
27.96906253342058
 71
     1
 72
     5
  1
{\H1.25x;2010.3.2}
 73
     1
 44
1.0
  0
MTEXT
  5
3578
330
28FB
100
AcDbEntity
 67
     1
  8
外形線
 48
10.0
100
AcDbMText
 10
324.9161041282494
 20
58.18155115009938
 30
0.0
 40
6.0
 41
127.7333333333333
 71
     1
 72
     5
  1
SGV-380-2
 73
     1
 44
1.0
  0
MTEXT
  5
3579
330
28FB
100
AcDbEntity
 67
     1
  8
外形線
 48
10.0
100
AcDbMText
 10
217.367749316591
 20
142.5476680524058
 30
0.0
 40
12.0
 41
146.4850215112867
 71
     1
 72
     5
  1
S G V - 3 8 0- 2
 73
     1
 44
1.0
  0
ENDSEC
  0
SECTION
  2
OBJECTS
  0
DICTIONARY
  5
C
330
0
100
AcDbDictionary
281
     1
  3
ACAD_COLOR
350
2948
  3
ACAD_GROUP
350
D
  3
ACAD_LAYOUT
350
2816
  3
ACAD_MATERIAL
350
2947
  3
ACAD_MLINESTYLE
350
E
  3
ACAD_PLOTSETTINGS
350
2817
  3
ACAD_PLOTSTYLENAME
350
2814
  0
DICTIONARY
  5
29EA
330
2
100
AcDbDictionary
280
     1
281
     1
  3
ACAD_LAYERFILTERS
360
2AEE
  3
ACAD_LAYERSTATES
360
29EB
  0
DICTIONARY
  5
2948
102
{ACAD_REACTORS
330
C
102
}
330
C
100
AcDbDictionary
281
     1
  0
DICTIONARY
  5
D
102
{ACAD_REACTORS
330
C
102
}
330
C
100
AcDbDictionary
281
     1
  0
DICTIONARY
  5
2816
102
{ACAD_REACTORS
330
C
102
}
330
C
100
AcDbDictionary
281
     1
  3
A3横
350
28FC
  3
A3縦
350
29A4
  3
A4横
350
2819
  3
A4縦
350
2994
  3
Model
350
2818
  0
DICTIONARY
  5
2947
102
{ACAD_REACTORS
330
C
102
}
330
C
100
AcDbDictionary
281
     1
  0
DICTIONARY
  5
E
102
{ACAD_REACTORS
330
C
102
}
330
C
100
AcDbDictionary
281
     1
  3
STANDARD
350
13
  0
DICTIONARY
  5
2817
102
{ACAD_REACTORS
330
C
102
}
330
C
100
AcDbDictionary
281
     1
  0
ACDBDICTIONARYWDFLT
  5
2814
102
{ACAD_REACTORS
330
C
102
}
330
C
100
AcDbDictionary
281
     1
  3
Normal
350
2815
100
AcDbDictionaryWithDefault
340
2815
  0
DICTIONARY
  5
2AEE
102
{ACAD_REACTORS
330
29EA
102
}
330
29EA
100
AcDbDictionary
281
     1
  0
DICTIONARY
  5
29EB
102
{ACAD_REACTORS
330
29EA
102
}
330
29EA
100
AcDbDictionary
281
     1
  0
LAYOUT
  5
28FC
102
{ACAD_REACTORS
330
2816
102
}
330
2816
100
AcDbPlotSettings
  1

  2
DocuCentre 352
  4
A4
  6

 40
4.857749938964843
 41
4.900062561035156
 42
4.942413330078125
 43
4.857757568359375
 44
209.9733276367187
 45
296.9683227539062
 46
0.0
 47
0.0
 48
0.0
 49
0.0
140
0.0
141
0.0
142
1.0
143
1.429999999999999
 70
   736
 72
     1
 73
     1
 74
     5
  7
TOWA.ctb
 75
     0
147
1.0
 76
     1
 77
     2
 78
   300
148
0.0
149
0.0
100
AcDbLayout
  1
A3横
 70
     1
 71
     3
 10
-6.946593322753906
 20
-6.946582412719726
 11
417.7181082153319
 21
293.3152761077881
 12
0.0
 22
0.0
 32
0.0
 14
4.746305129083339
 24
3.457123274535568
 34
0.0
 15
404.7463051290833
 25
283.4571232745355
 35
0.0
146
0.0
 13
0.0
 23
0.0
 33
0.0
 16
1.0
 26
0.0
 36
0.0
 17
0.0
 27
1.0
 37
0.0
 76
     0
330
28FB
331
2902
  0
LAYOUT
  5
29A4
102
{ACAD_REACTORS
330
2816
102
}
330
2816
100
AcDbPlotSettings
  1

  2
DocuCentre 352-A3.pc3
  4
A3
  6

 40
4.857749938964843
 41
4.942420959472656
 42
4.900054931640625
 43
4.857757568359375
 44
296.9683227539062
 45
419.9889831542968
 46
0.0
 47
0.0
 48
0.0
 49
0.0
140
0.0
141
0.0
142
1.0
143
1.0
 70
   752
 72
     1
 73
     0
 74
     5
  7
TOWA.ctb
 75
    16
147
1.0
 76
     1
 77
     2
 78
   300
148
0.0
149
0.0
100
AcDbLayout
  1
A3縦
 70
     1
 71
     4
 10
-4.857749938964843
 20
-4.942420959472656
 11
292.1105728149414
 21
415.0465621948241
 12
0.0
 22
0.0
 32
0.0
 14
3.379715380909601
 24
2.834855338171948
 34
0.0
 15
283.3797153809096
 25
407.8348546596004
 35
0.0
146
0.0
 13
0.0
 23
0.0
 33
0.0
 16
1.0
 26
0.0
 36
0.0
 17
0.0
 27
1.0
 37
0.0
 76
     0
330
299E
331
29A0
  0
LAYOUT
  5
2819
102
{ACAD_REACTORS
330
2816
102
}
330
2816
100
AcDbPlotSettings
  1

  2
DocuCentre 352
  4
A4
  6

 40
4.857749938964843
 41
4.900062561035156
 42
4.942413330078125
 43
4.857757568359375
 44
209.9733276367187
 45
296.9683227539062
 46
0.0
 47
0.0
 48
0.0
 49
0.0
140
0.0
141
0.0
142
1.0
143
1.0
 70
   688
 72
     1
 73
     1
 74
     5
  7
TOWA.ctb
 75
    16
147
1.0
 76
     1
 77
     2
 78
   300
148
0.0
149
0.0
100
AcDbLayout
  1
A4横
 70
     1
 71
     1
 10
-4.857757568359375
 20
-4.857749938964843
 11
292.1105651855469
 21
205.1155776977539
 12
0.0
 22
0.0
 32
0.0
 14
1.848181194984022
 24
1.597315548905772
 34
0.0
 15
281.848181194984
 25
196.5973168703343
 35
0.0
146
0.0
 13
0.0
 23
0.0
 33
0.0
 16
1.0
 26
0.0
 36
0.0
 17
0.0
 27
1.0
 37
0.0
 76
     0
330
17
331
22
  0
LAYOUT
  5
2994
102
{ACAD_REACTORS
330
2816
102
}
330
2816
100
AcDbPlotSettings
  1

  2
DocuCentre 352
  4
A4
  6

 40
4.857749938964843
 41
4.900062561035156
 42
4.942413330078125
 43
4.857757568359375
 44
209.9733276367187
 45
296.9683227539062
 46
0.0
 47
0.0
 48
0.0
 49
0.0
140
0.0
141
0.0
142
1.0
143
1.0
 70
   688
 72
     1
 73
     0
 74
     5
  7
TOWA.ctb
 75
    16
147
1.0
 76
     1
 77
     2
 78
   300
148
0.0
149
0.0
100
AcDbLayout
  1
A4縦
 70
     1
 71
     2
 10
-4.857749938964843
 20
-4.900062561035156
 11
205.1155776977539
 21
292.0682601928711
 12
0.0
 22
0.0
 32
0.0
 14
7.843451901196601
 24
2.161110131738382
 34
0.0
 15
197.8470666872744
 25
282.1603359112618
 35
0.0
146
0.0
 13
0.0
 23
0.0
 33
0.0
 16
1.0
 26
0.0
 36
0.0
 17
0.0
 27
1.0
 37
0.0
 76
     0
330
2963
331
2965
  0
LAYOUT
  5
2818
102
{ACAD_REACTORS
330
2816
102
}
330
2816
100
AcDbPlotSettings
  1

  2
EPSON LP-8000S
  4

  6

 40
0.0
 41
0.0
 42
0.0
 43
0.0
 44
0.0
 45
0.0
 46
0.0
 47
0.0
 48
0.0
 49
0.0
140
0.0
141
0.0
142
1.0
143
1.0
 70
  1712
 72
     0
 73
     0
 74
     0
  7
TOWA.ctb
 75
     0
147
1.0
 76
     0
 77
     2
 78
   300
148
0.0
149
0.0
100
AcDbLayout
  1
Model
 70
     1
 71
     0
 10
0.0
 20
0.0
 11
12.0
 21
9.0
 12
0.0
 22
0.0
 32
0.0
 14
0.0
 24
0.0
 34
0.0
 15
0.0
 25
0.0
 35
0.0
146
0.0
 13
0.0
 23
0.0
 33
0.0
 16
1.0
 26
0.0
 36
0.0
 17
0.0
 27
1.0
 37
0.0
 76
     0
330
1A
  0
MLINESTYLE
  5
13
102
{ACAD_REACTORS
330
E
102
}
330
E
100
AcDbMlineStyle
  2
STANDARD
 70
     0
  3

 62
     0
 51
90.0
 52
90.0
 71
     2
 49
0.5
 62
   256
  6
BYLAYER
 49
-0.5
 62
   256
  6
BYLAYER
  0
ACDBPLACEHOLDER
  5
2815
102
{ACAD_REACTORS
330
2814
102
}
330
2814
  0
ENDSEC
  0
EOF
