  0
SECTION
  2
HEADER
  9
$ACADVER
  1
AC1018
  9
$ACADMAINTVER
 70
     0
  9
$DWGCODEPAGE
  3
ANSI_932
  9
$INSBASE
 10
0.0
 20
0.0
 30
0.0
  9
$EXTMIN
 10
126.8148591731147
 20
-117.4940275532742
 30
0.0
  9
$EXTMAX
 10
410.0631112424801
 20
301.0476920079455
 30
0.0
  9
$LIMMIN
 10
-360.7475667952417
 20
4.457354754525567
  9
$LIMMAX
 10
-162.1536961442673
 20
287.6754402640176
  9
$ORTHOMODE
 70
     1
  9
$REGENMODE
 70
     1
  9
$FILLMODE
 70
     1
  9
$QTEXTMODE
 70
     0
  9
$MIRRTEXT
 70
     1
  9
$LTSCALE
 40
1.0
  9
$ATTMODE
 70
     1
  9
$TEXTSIZE
 40
2.333873885063326
  9
$TRACEWID
 40
1.0
  9
$TEXTSTYLE
  7
STANDARD
  9
$CLAYER
  8
外形線
  9
$CELTYPE
  6
BYLAYER
  9
$CECOLOR
 62
   256
  9
$CELTSCALE
 40
10.0
  9
$DISPSILH
 70
     0
  9
$DIMSCALE
 40
1.0
  9
$DIMASZ
 40
6.0
  9
$DIMEXO
 40
0.625
  9
$DIMDLI
 40
3.75
  9
$DIMRND
 40
0.0
  9
$DIMDLE
 40
0.0
  9
$DIMEXE
 40
1.25
  9
$DIMTP
 40
0.1
  9
$DIMTM
 40
0.1
  9
$DIMTXT
 40
5.0
  9
$DIMCEN
 40
2.5
  9
$DIMTSZ
 40
0.0
  9
$DIMTOL
 70
     0
  9
$DIMLIM
 70
     0
  9
$DIMTIH
 70
     0
  9
$DIMTOH
 70
     0
  9
$DIMSE1
 70
     0
  9
$DIMSE2
 70
     0
  9
$DIMTAD
 70
     1
  9
$DIMZIN
 70
     8
  9
$DIMBLK
  1
Open30
  9
$DIMASO
 70
     1
  9
$DIMSHO
 70
     1
  9
$DIMPOST
  1

  9
$DIMAPOST
  1

  9
$DIMALT
 70
     0
  9
$DIMALTD
 70
     2
  9
$DIMALTF
 40
0.0394
  9
$DIMLFAC
 40
1.0
  9
$DIMTOFL
 70
     1
  9
$DIMTVP
 40
1.0
  9
$DIMTIX
 70
     0
  9
$DIMSOXD
 70
     0
  9
$DIMSAH
 70
     0
  9
$DIMBLK1
  1

  9
$DIMBLK2
  1

  9
$DIMSTYLE
  2
ISO-25
  9
$DIMCLRD
 70
     0
  9
$DIMCLRE
 70
     0
  9
$DIMCLRT
 70
     0
  9
$DIMTFAC
 40
1.0
  9
$DIMGAP
 40
0.625
  9
$DIMJUST
 70
     0
  9
$DIMSD1
 70
     0
  9
$DIMSD2
 70
     0
  9
$DIMTOLJ
 70
     1
  9
$DIMTZIN
 70
     0
  9
$DIMALTZ
 70
     0
  9
$DIMALTTZ
 70
     0
  9
$DIMUPT
 70
     0
  9
$DIMDEC
 70
     1
  9
$DIMTDEC
 70
     1
  9
$DIMALTU
 70
     2
  9
$DIMALTTD
 70
     2
  9
$DIMTXSTY
  7
STANDARD
  9
$DIMAUNIT
 70
     0
  9
$DIMADEC
 70
     0
  9
$DIMALTRND
 40
0.0
  9
$DIMAZIN
 70
     0
  9
$DIMDSEP
 70
    46
  9
$DIMATFIT
 70
     3
  9
$DIMFRAC
 70
     0
  9
$DIMLDRBLK
  1
Open30
  9
$DIMLUNIT
 70
     2
  9
$DIMLWD
 70
    -2
  9
$DIMLWE
 70
    -2
  9
$DIMTMOVE
 70
     0
  9
$LUNITS
 70
     2
  9
$LUPREC
 70
     4
  9
$SKETCHINC
 40
1.0
  9
$FILLETRAD
 40
6.5
  9
$AUNITS
 70
     0
  9
$AUPREC
 70
     0
  9
$MENU
  1
.
  9
$ELEVATION
 40
0.0
  9
$PELEVATION
 40
0.0
  9
$THICKNESS
 40
0.0
  9
$LIMCHECK
 70
     0
  9
$CHAMFERA
 40
10.0
  9
$CHAMFERB
 40
10.0
  9
$CHAMFERC
 40
20.0
  9
$CHAMFERD
 40
0.0
  9
$SKPOLY
 70
     0
  9
$TDCREATE
 40
2450576.597302431
  9
$TDUCREATE
 40
2450576.222302431
  9
$TDUPDATE
 40
2455491.732382153
  9
$TDUUPDATE
 40
2455491.357382153
  9
$TDINDWG
 40
1.0260118519
  9
$TDUSRTIMER
 40
1.0260118519
  9
$USRTIMER
 70
     1
  9
$ANGBASE
 50
0.0
  9
$ANGDIR
 70
     0
  9
$PDMODE
 70
     0
  9
$PDSIZE
 40
0.0
  9
$PLINEWID
 40
0.0
  9
$SPLFRAME
 70
     0
  9
$SPLINETYPE
 70
     6
  9
$SPLINESEGS
 70
     8
  9
$HANDSEED
  5
362F
  9
$SURFTAB1
 70
     6
  9
$SURFTAB2
 70
     6
  9
$SURFTYPE
 70
     6
  9
$SURFU
 70
     6
  9
$SURFV
 70
     6
  9
$UCSBASE
  2

  9
$UCSNAME
  2

  9
$UCSORG
 10
0.0
 20
0.0
 30
0.0
  9
$UCSXDIR
 10
1.0
 20
0.0
 30
0.0
  9
$UCSYDIR
 10
0.0
 20
1.0
 30
0.0
  9
$UCSORTHOREF
  2

  9
$UCSORTHOVIEW
 70
     0
  9
$UCSORGTOP
 10
0.0
 20
0.0
 30
0.0
  9
$UCSORGBOTTOM
 10
0.0
 20
0.0
 30
0.0
  9
$UCSORGLEFT
 10
0.0
 20
0.0
 30
0.0
  9
$UCSORGRIGHT
 10
0.0
 20
0.0
 30
0.0
  9
$UCSORGFRONT
 10
0.0
 20
0.0
 30
0.0
  9
$UCSORGBACK
 10
0.0
 20
0.0
 30
0.0
  9
$PUCSBASE
  2

  9
$PUCSNAME
  2

  9
$PUCSORG
 10
0.0
 20
0.0
 30
0.0
  9
$PUCSXDIR
 10
1.0
 20
0.0
 30
0.0
  9
$PUCSYDIR
 10
0.0
 20
1.0
 30
0.0
  9
$PUCSORTHOREF
  2

  9
$PUCSORTHOVIEW
 70
     0
  9
$PUCSORGTOP
 10
0.0
 20
0.0
 30
0.0
  9
$PUCSORGBOTTOM
 10
0.0
 20
0.0
 30
0.0
  9
$PUCSORGLEFT
 10
0.0
 20
0.0
 30
0.0
  9
$PUCSORGRIGHT
 10
0.0
 20
0.0
 30
0.0
  9
$PUCSORGFRONT
 10
0.0
 20
0.0
 30
0.0
  9
$PUCSORGBACK
 10
0.0
 20
0.0
 30
0.0
  9
$USERI1
 70
     0
  9
$USERI2
 70
     0
  9
$USERI3
 70
     0
  9
$USERI4
 70
     0
  9
$USERI5
 70
     0
  9
$USERR1
 40
0.0
  9
$USERR2
 40
0.0
  9
$USERR3
 40
0.0
  9
$USERR4
 40
0.0
  9
$USERR5
 40
0.0
  9
$WORLDVIEW
 70
     1
  9
$SHADEDGE
 70
     3
  9
$SHADEDIF
 70
    70
  9
$TILEMODE
 70
     0
  9
$MAXACTVP
 70
    16
  9
$PINSBASE
 10
0.0
 20
0.0
 30
0.0
  9
$PLIMCHECK
 70
     0
  9
$PEXTMIN
 10
4.746305129083339
 20
3.457123274535568
 30
0.0
  9
$PEXTMAX
 10
404.7463051290833
 20
283.4571232745355
 30
0.0
  9
$PLIMMIN
 10
-6.946593322753906
 20
-6.946582412719726
  9
$PLIMMAX
 10
417.7181082153319
 20
293.3152761077881
  9
$UNITMODE
 70
     0
  9
$VISRETAIN
 70
     0
  9
$PLINEGEN
 70
     0
  9
$PSLTSCALE
 70
     1
  9
$TREEDEPTH
 70
  3020
  9
$CMLSTYLE
  2
STANDARD
  9
$CMLJUST
 70
     0
  9
$CMLSCALE
 40
1.0
  9
$PROXYGRAPHICS
 70
     1
  9
$MEASUREMENT
 70
     1
  9
$CELWEIGHT
370
    -1
  9
$ENDCAPS
280
     0
  9
$JOINSTYLE
280
     0
  9
$LWDISPLAY
290
     0
  9
$INSUNITS
 70
     0
  9
$HYPERLINKBASE
  1

  9
$STYLESHEET
  1

  9
$XEDIT
290
     1
  9
$CEPSNTYPE
380
     0
  9
$PSTYLEMODE
290
     1
  9
$FINGERPRINTGUID
  2
{23698909-1D67-4744-B0E2-8DE11E3ED422}
  9
$VERSIONGUID
  2
{BA68B0F9-C73A-41B3-BF90-2098E15E63BC}
  9
$EXTNAMES
290
     1
  9
$PSVPSCALE
 40
0.25
  9
$OLESTARTUP
290
     0
  9
$SORTENTS
280
   127
  9
$INDEXCTL
280
     0
  9
$HIDETEXT
280
     0
  9
$XCLIPFRAME
290
     0
  9
$HALOGAP
280
     0
  9
$OBSCOLOR
 70
   257
  9
$OBSLTYPE
280
     0
  9
$INTERSECTIONDISPLAY
280
     0
  9
$INTERSECTIONCOLOR
 70
   257
  9
$DIMASSOC
280
     1
  9
$PROJECTNAME
  1

  0
ENDSEC
  0
SECTION
  2
CLASSES
  0
CLASS
  1
ACDBDICTIONARYWDFLT
  2
AcDbDictionaryWithDefault
  3
ObjectDBX Classes
 90
        0
 91
        1
280
     0
281
     0
  0
ENDSEC
  0
SECTION
  2
TABLES
  0
TABLE
  2
VPORT
  5
8
330
0
100
AcDbSymbolTable
 70
     1
  0
VPORT
  5
361C
330
8
100
AcDbSymbolTableRecord
100
AcDbViewportTableRecord
  2
*Active
 70
     0
 10
0.0
 20
0.0
 11
1.0
 21
1.0
 12
344.7162771653543
 22
-62.63798601233418
 13
0.0
 23
0.0
 14
1.0
 24
1.0
 15
0.0
 25
0.0
 16
0.0
 26
0.0
 36
1.0
 17
0.0
 27
0.0
 37
0.0
 40
179.7975763619595
 41
1.614654002713704
 42
50.0
 43
0.0
 44
0.0
 50
0.0
 51
0.0
 71
     0
 72
   100
 73
     1
 74
     0
 75
     0
 76
     0
 77
     0
 78
     0
281
     0
 65
     1
110
0.0
120
0.0
130
0.0
111
1.0
121
0.0
131
0.0
112
0.0
122
1.0
132
0.0
 79
     0
146
0.0
  0
ENDTAB
  0
TABLE
  2
LTYPE
  5
5
330
0
100
AcDbSymbolTable
 70
     3
  0
LTYPE
  5
14
330
5
100
AcDbSymbolTableRecord
100
AcDbLinetypeTableRecord
  2
BYBLOCK
 70
     0
  3

 72
    65
 73
     0
 40
0.0
  0
LTYPE
  5
15
330
5
100
AcDbSymbolTableRecord
100
AcDbLinetypeTableRecord
  2
BYLAYER
 70
     0
  3

 72
    65
 73
     0
 40
0.0
  0
LTYPE
  5
16
330
5
100
AcDbSymbolTableRecord
100
AcDbLinetypeTableRecord
  2
CONTINUOUS
 70
     0
  3
Solid line
 72
    65
 73
     0
 40
0.0
  0
LTYPE
  5
1EC
330
5
100
AcDbSymbolTableRecord
100
AcDbLinetypeTableRecord
  2
CENTER
 70
     0
  3
____ _ ____ _ ____ _ ____ _ ____ _ ____ _ ____ 
 72
    65
 73
     4
 40
2.0
 49
1.25
 74
     0
 49
-0.25
 74
     0
 49
0.25
 74
     0
 49
-0.25
 74
     0
  0
LTYPE
  5
1ED
330
5
100
AcDbSymbolTableRecord
100
AcDbLinetypeTableRecord
  2
DASHED
 70
     0
  3
__ __ __ __ __ __ __ __ __ __ __ __ __ __ __ __
 72
    65
 73
     2
 40
0.75
 49
0.5
 74
     0
 49
-0.25
 74
     0
  0
ENDTAB
  0
TABLE
  2
LAYER
  5
2
102
{ACAD_XDICTIONARY
360
29EA
102
}
330
0
100
AcDbSymbolTable
 70
    12
  0
LAYER
  5
F
330
2
100
AcDbSymbolTableRecord
100
AcDbLayerTableRecord
  2
0
 70
     0
 62
     7
  6
CONTINUOUS
370
    -3
390
2815
  0
LAYER
  5
61
330
2
100
AcDbSymbolTableRecord
100
AcDbLayerTableRecord
  2
図枠太線
 70
     0
 62
   251
  6
CONTINUOUS
370
    -3
390
2815
  0
LAYER
  5
62
330
2
100
AcDbSymbolTableRecord
100
AcDbLayerTableRecord
  2
図枠細線
 70
     0
 62
   252
  6
CONTINUOUS
370
    -3
390
2815
  0
LAYER
  5
63
330
2
100
AcDbSymbolTableRecord
100
AcDbLayerTableRecord
  2
図枠ロゴマーク
 70
     0
 62
   253
  6
CONTINUOUS
370
    -3
390
2815
  0
LAYER
  5
1F4
330
2
100
AcDbSymbolTableRecord
100
AcDbLayerTableRecord
  2
DEFPOINTS
 70
     0
 62
     7
  6
CONTINUOUS
290
     0
370
    -3
390
2815
  0
LAYER
  5
2AA2
330
2
100
AcDbSymbolTableRecord
100
AcDbLayerTableRecord
  2
下書線
 70
     0
 62
     2
  6
CONTINUOUS
290
     0
370
    -3
390
2815
  0
LAYER
  5
2B01
330
2
100
AcDbSymbolTableRecord
100
AcDbLayerTableRecord
  2
外形線
 70
     0
 62
     7
  6
CONTINUOUS
370
    -3
390
2815
  0
LAYER
  5
2B02
330
2
100
AcDbSymbolTableRecord
100
AcDbLayerTableRecord
  2
寸法線
 70
     0
 62
     1
  6
CONTINUOUS
370
    -3
390
2815
  0
LAYER
  5
2B03
330
2
100
AcDbSymbolTableRecord
100
AcDbLayerTableRecord
  2
中心線
 70
     0
 62
     4
  6
CENTER
370
    -3
390
2815
  0
LAYER
  5
2B04
330
2
100
AcDbSymbolTableRecord
100
AcDbLayerTableRecord
  2
隠れ線
 70
     0
 62
     3
  6
DASHED
370
    -3
390
2815
  0
LAYER
  5
2B05
330
2
100
AcDbSymbolTableRecord
100
AcDbLayerTableRecord
  2
細線
 70
     0
 62
     6
  6
CONTINUOUS
370
    -3
390
2815
  0
LAYER
  5
2B06
330
2
100
AcDbSymbolTableRecord
100
AcDbLayerTableRecord
  2
太線
 70
     0
 62
   190
  6
CONTINUOUS
370
    -3
390
2815
  0
ENDTAB
  0
TABLE
  2
STYLE
  5
3
330
0
100
AcDbSymbolTable
 70
     2
  0
STYLE
  5
10
330
3
100
AcDbSymbolTableRecord
100
AcDbTextStyleTableRecord
  2
STANDARD
 70
     0
 40
0.0
 41
1.0
 50
0.0
 71
     0
 42
2.333873885063326
  3
ISOCP
  4
bigfont.shx
  0
STYLE
  5
64
330
3
100
AcDbSymbolTableRecord
100
AcDbTextStyleTableRecord
  2
EXCADSTD
 70
     0
 40
0.0
 41
1.0
 50
0.0
 71
     0
 42
0.2
  3
monotxt
  4
bigfont
  0
ENDTAB
  0
TABLE
  2
VIEW
  5
6
330
0
100
AcDbSymbolTable
 70
     0
  0
ENDTAB
  0
TABLE
  2
UCS
  5
7
330
0
100
AcDbSymbolTable
 70
     0
  0
ENDTAB
  0
TABLE
  2
APPID
  5
9
330
0
100
AcDbSymbolTable
 70
     1
  0
APPID
  5
11
330
9
100
AcDbSymbolTableRecord
100
AcDbRegAppTableRecord
  2
ACAD
 70
     0
  0
ENDTAB
  0
TABLE
  2
DIMSTYLE
  5
A
330
0
100
AcDbSymbolTable
 70
     5
100
AcDbDimStyleTable
 71
     4
340
2B32
340
24
340
2B31
340
2B30
  0
DIMSTYLE
105
1D
330
A
100
AcDbSymbolTableRecord
100
AcDbDimStyleTableRecord
  2
STANDARD
 70
     0
340
10
  0
DIMSTYLE
105
24
102
{ACAD_REACTORS
330
316C
330
3172
330
3173
330
33D2
330
33D9
102
}
330
A
100
AcDbSymbolTableRecord
100
AcDbDimStyleTableRecord
  2
ISO-25
 70
     0
 41
2.5
 42
0.625
 43
3.75
 44
1.25
 74
     0
 77
     1
 78
     8
140
2.5
141
2.5
143
0.0394
145
1.0
147
0.625
172
     1
340
10
  0
DIMSTYLE
105
2B30
330
A
100
AcDbSymbolTableRecord
100
AcDbDimStyleTableRecord
  2
文字5ｐｔ
 70
     0
 41
6.0
 42
0.625
 43
3.75
 44
1.25
 47
0.1
 48
0.1
 73
     0
 74
     0
 77
     1
 78
     8
140
5.0
141
2.5
143
0.0394
145
1.0
147
0.625
172
     1
271
     1
272
     1
340
10
341
2AD6
342
2AD6
  0
DIMSTYLE
105
2B31
330
A
100
AcDbSymbolTableRecord
100
AcDbDimStyleTableRecord
  2
文字8ｐｔ
 70
     0
 41
6.0
 42
0.625
 43
3.75
 44
1.25
 47
0.1
 48
0.1
 73
     0
 74
     0
 77
     1
 78
     8
140
8.0
141
2.5
143
0.0394
145
1.0
147
0.625
172
     1
271
     1
272
     1
340
10
341
2AD6
342
2AD6
  0
DIMSTYLE
105
2B32
330
A
100
AcDbSymbolTableRecord
100
AcDbDimStyleTableRecord
  2
文字10ｐｔ
 70
     0
 41
6.0
 42
0.625
 43
3.75
 44
1.25
 47
0.1
 48
0.1
 73
     0
 74
     0
 77
     1
 78
     8
140
10.0
141
2.5
143
0.0394
145
1.0
147
0.625
172
     1
271
     1
272
     1
340
10
341
2AD6
342
2AD6
  0
ENDTAB
  0
TABLE
  2
BLOCK_RECORD
  5
1
330
0
100
AcDbSymbolTable
 70
    13
  0
BLOCK_RECORD
  5
1A
330
1
100
AcDbSymbolTableRecord
100
AcDbBlockTableRecord
  2
*MODEL_SPACE
340
2818
  0
BLOCK_RECORD
  5
28FB
330
1
100
AcDbSymbolTableRecord
100
AcDbBlockTableRecord
  2
*Paper_Space
340
28FC
  0
BLOCK_RECORD
  5
299E
330
1
100
AcDbSymbolTableRecord
100
AcDbBlockTableRecord
  2
*Paper_Space0
340
29A4
  0
BLOCK_RECORD
  5
17
330
1
100
AcDbSymbolTableRecord
100
AcDbBlockTableRecord
  2
*PAPER_SPACE1
340
2819
  0
BLOCK_RECORD
  5
2963
330
1
100
AcDbSymbolTableRecord
100
AcDbBlockTableRecord
  2
*PAPER_SPACE2
340
2994
  0
BLOCK_RECORD
  5
29BF
330
1
100
AcDbSymbolTableRecord
100
AcDbBlockTableRecord
  2
A4横用　タイトル
340
0
310
2800000020000000200000000100080000000000000400000000000000000000000000000000000000000000000080000080000000808000800000008000800080800000C0C0C000C0DCC000F0CAA6000020400000206000002080000020A0000020C0000020E00000400000004020000040400000406000004080000040A0
310
000040C0000040E00000600000006020000060400000606000006080000060A0000060C0000060E00000800000008020000080400000806000008080000080A0000080C0000080E00000A0000000A0200000A0400000A0600000A0800000A0A00000A0C00000A0E00000C0000000C0200000C0400000C0600000C0800000C0
310
A00000C0C00000C0E00000E0000000E0200000E0400000E0600000E0800000E0A00000E0C00000E0E00040000000400020004000400040006000400080004000A0004000C0004000E00040200000402020004020400040206000402080004020A0004020C0004020E000404000004040200040404000404060004040800040
310
40A0004040C0004040E00040600000406020004060400040606000406080004060A0004060C0004060E00040800000408020004080400040806000408080004080A0004080C0004080E00040A0000040A0200040A0400040A0600040A0800040A0A00040A0C00040A0E00040C0000040C0200040C0400040C0600040C08000
310
40C0A00040C0C00040C0E00040E0000040E0200040E0400040E0600040E0800040E0A00040E0C00040E0E00080000000800020008000400080006000800080008000A0008000C0008000E00080200000802020008020400080206000802080008020A0008020C0008020E00080400000804020008040400080406000804080
310
008040A0008040C0008040E00080600000806020008060400080606000806080008060A0008060C0008060E00080800000808020008080400080806000808080008080A0008080C0008080E00080A0000080A0200080A0400080A0600080A0800080A0A00080A0C00080A0E00080C0000080C0200080C0400080C0600080C0
310
800080C0A00080C0C00080C0E00080E0000080E0200080E0400080E0600080E0800080E0A00080E0C00080E0E000C0000000C0002000C0004000C0006000C0008000C000A000C000C000C000E000C0200000C0202000C0204000C0206000C0208000C020A000C020C000C020E000C0400000C0402000C0404000C0406000C0
310
408000C040A000C040C000C040E000C0600000C0602000C0604000C0606000C0608000C060A000C060C000C060E000C0800000C0802000C0804000C0806000C0808000C080A000C080C000C080E000C0A00000C0A02000C0A04000C0A06000C0A08000C0A0A000C0A0C000C0A0E000C0C00000C0C02000C0C04000C0C06000
310
C0C08000C0C0A000F0FBFF00A4A0A000808080000000FF0000FF000000FFFF00FF000000FF00FF00FFFF0000FFFFFF0000000000000000000000000000000000000000000000000000000000000000000000000000000000000000000000000000000000000000000000000000000000000000000000000000000000000000
310
00000000000000000000000000000000000000000000000000000000000000000000000000000000000000000000000000000000000000000000000000000000000000000000000000000000000000000000000000000000000000000000000000000000000000000000000000000000000000000000000000000000000000
310
00000000000000000000000000000000000000000000000000000000000000000000000000000000000000000000000000000000000000000000000000000000000000000000000000000000000000000000000000000000000000000000000000000000000000000000000000000000000000000000000000000000000000
310
00000000000000000000000000000000000000000000000000000000000000000000000000000000000000000000000000000000000000000000000000000000000000000000000000000000000000000000000000000000000000000000000000000000000000000000000000000000000000005BA4A4A4A4A4A4A45B5BA4
310
5BA45B5B5BA4A4A4A4A4A45B5B5B5B5B5B5B5B00005BA4A4A4A4A4A4A4A4A4A4A4A4A45B5BF7F7F7F7F7F75BA4A4A4A4A4A4A400005BA4A4A4A4A4A4A45BA4A4A4A400005BA4A4A4A4A4A45B0000000000005B00005BA4A4A4A4A4A4A45BA4A4A4A4A4005B0000000000005BA400000000005B000000000000000000000000
310
00000000000000000000000000000000000000000000000000000000000000000000000000000000000000000000000000000000000000000000000000000000000000000000000000000000000000000000000000000000000000000000000000000000000000000000000000000000000000000000000000000000000000
310
00000000000000000000000000000000000000000000000000000000000000000000000000000000000000000000000000000000000000000000000000000000000000000000000000000000000000000000000000000000000000000000000000000000000000000000000000000000000000000000000000000000000000
310
00000000000000000000000000000000000000000000000000000000000000000000000000000000000000000000000000000000000000000000000000000000000000000000000000000000000000000000000000000000000000000000000000000000000000000000000000000000000000000000000000000000000000
310
0000000000000000000000000000000000000000000000000000000000000000000000000000000000000000000000000000000000000000
102
{BLKREFS
331
29F1
102
}
1001
ACAD
1000
DesignCenter Data
1002
{
1070
     1
1070
     4
1002
}
  0
BLOCK_RECORD
  5
29F4
330
1
100
AcDbSymbolTableRecord
100
AcDbBlockTableRecord
  2
A4縦用　タイトル
340
0
310
2800000020000000200000000100080000000000000400000000000000000000000000000000000000000000000080000080000000808000800000008000800080800000C0C0C000C0DCC000F0CAA6000020400000206000002080000020A0000020C0000020E00000400000004020000040400000406000004080000040A0
310
000040C0000040E00000600000006020000060400000606000006080000060A0000060C0000060E00000800000008020000080400000806000008080000080A0000080C0000080E00000A0000000A0200000A0400000A0600000A0800000A0A00000A0C00000A0E00000C0000000C0200000C0400000C0600000C0800000C0
310
A00000C0C00000C0E00000E0000000E0200000E0400000E0600000E0800000E0A00000E0C00000E0E00040000000400020004000400040006000400080004000A0004000C0004000E00040200000402020004020400040206000402080004020A0004020C0004020E000404000004040200040404000404060004040800040
310
40A0004040C0004040E00040600000406020004060400040606000406080004060A0004060C0004060E00040800000408020004080400040806000408080004080A0004080C0004080E00040A0000040A0200040A0400040A0600040A0800040A0A00040A0C00040A0E00040C0000040C0200040C0400040C0600040C08000
310
40C0A00040C0C00040C0E00040E0000040E0200040E0400040E0600040E0800040E0A00040E0C00040E0E00080000000800020008000400080006000800080008000A0008000C0008000E00080200000802020008020400080206000802080008020A0008020C0008020E00080400000804020008040400080406000804080
310
008040A0008040C0008040E00080600000806020008060400080606000806080008060A0008060C0008060E00080800000808020008080400080806000808080008080A0008080C0008080E00080A0000080A0200080A0400080A0600080A0800080A0A00080A0C00080A0E00080C0000080C0200080C0400080C0600080C0
310
800080C0A00080C0C00080C0E00080E0000080E0200080E0400080E0600080E0800080E0A00080E0C00080E0E000C0000000C0002000C0004000C0006000C0008000C000A000C000C000C000E000C0200000C0202000C0204000C0206000C0208000C020A000C020C000C020E000C0400000C0402000C0404000C0406000C0
310
408000C040A000C040C000C040E000C0600000C0602000C0604000C0606000C0608000C060A000C060C000C060E000C0800000C0802000C0804000C0806000C0808000C080A000C080C000C080E000C0A00000C0A02000C0A04000C0A06000C0A08000C0A0A000C0A0C000C0A0E000C0C00000C0C02000C0C04000C0C06000
310
C0C08000C0C0A000F0FBFF00A4A0A000808080000000FF0000FF000000FFFF00FF000000FF00FF00FFFF0000FFFFFF0000000000000000000000000000000000000000000000000000000000000000000000000000000000000000000000000000000000000000000000000000000000000000000000000000000000000000
310
00000000000000000000000000000000000000000000000000000000000000000000000000000000000000000000000000000000000000000000000000000000000000000000000000000000000000000000000000000000000000000000000000000000000000000000000000000000000000000000000000000000000000
310
00000000000000000000000000000000000000000000000000000000000000000000000000000000000000000000000000000000000000000000000000000000000000000000000000000000000000000000000000000000000000000000000000000000000000000000000000000000000000000000000000000000000000
310
0000000000000000000000000000000000000000000000000000000000000000000000000000000000000000000000000000000000000000000000000000000000000000000000000000000000000000000000005B5B5B5B5B5BA45B5BA45B5B5B5B5B5B5B5B5B5B5B5B5B5B5B5B5B5B5B5B0000A4A4A45BA4A4A40000A400
310
005BA4A4A4A4A4A4A45B00000000000000005B0000A4A4A45BA4A4A4A4A4A4A4A45BF7F7F7F7F7F7F7A4A4A4A4A4A4A4A4A45B0000A4A4A45BA4A4A4A400A400005B000000000000005B00000000000000005B0000A4A4A4A4A4A4A4A4A4A4A4A45BA4A4A4A4A4A4A4A4A4A4A400000000005B00005BA4A4A4A400A4A400A4
310
A4005B00000000000000A4A4A4A400000000005B0000000000000000000000000000000000000000000000000000000000000000000000000000000000000000000000000000000000000000000000000000000000000000000000000000000000000000000000000000000000000000000000000000000000000000000000
310
00000000000000000000000000000000000000000000000000000000000000000000000000000000000000000000000000000000000000000000000000000000000000000000000000000000000000000000000000000000000000000000000000000000000000000000000000000000000000000000000000000000000000
310
00000000000000000000000000000000000000000000000000000000000000000000000000000000000000000000000000000000000000000000000000000000000000000000000000000000000000000000000000000000000000000000000000000000000000000000000000000000000000000000000000000000000000
310
0000000000000000000000000000000000000000000000000000000000000000000000000000000000000000000000000000000000000000
102
{BLKREFS
331
2A23
102
}
1001
ACAD
1000
DesignCenter Data
1002
{
1070
     1
1070
     4
1002
}
  0
BLOCK_RECORD
  5
2A32
330
1
100
AcDbSymbolTableRecord
100
AcDbBlockTableRecord
  2
A3横用　タイトル
340
0
310
2800000020000000200000000100080000000000000400000000000000000000000000000000000000000000000080000080000000808000800000008000800080800000C0C0C000C0DCC000F0CAA6000020400000206000002080000020A0000020C0000020E00000400000004020000040400000406000004080000040A0
310
000040C0000040E00000600000006020000060400000606000006080000060A0000060C0000060E00000800000008020000080400000806000008080000080A0000080C0000080E00000A0000000A0200000A0400000A0600000A0800000A0A00000A0C00000A0E00000C0000000C0200000C0400000C0600000C0800000C0
310
A00000C0C00000C0E00000E0000000E0200000E0400000E0600000E0800000E0A00000E0C00000E0E00040000000400020004000400040006000400080004000A0004000C0004000E00040200000402020004020400040206000402080004020A0004020C0004020E000404000004040200040404000404060004040800040
310
40A0004040C0004040E00040600000406020004060400040606000406080004060A0004060C0004060E00040800000408020004080400040806000408080004080A0004080C0004080E00040A0000040A0200040A0400040A0600040A0800040A0A00040A0C00040A0E00040C0000040C0200040C0400040C0600040C08000
310
40C0A00040C0C00040C0E00040E0000040E0200040E0400040E0600040E0800040E0A00040E0C00040E0E00080000000800020008000400080006000800080008000A0008000C0008000E00080200000802020008020400080206000802080008020A0008020C0008020E00080400000804020008040400080406000804080
310
008040A0008040C0008040E00080600000806020008060400080606000806080008060A0008060C0008060E00080800000808020008080400080806000808080008080A0008080C0008080E00080A0000080A0200080A0400080A0600080A0800080A0A00080A0C00080A0E00080C0000080C0200080C0400080C0600080C0
310
800080C0A00080C0C00080C0E00080E0000080E0200080E0400080E0600080E0800080E0A00080E0C00080E0E000C0000000C0002000C0004000C0006000C0008000C000A000C000C000C000E000C0200000C0202000C0204000C0206000C0208000C020A000C020C000C020E000C0400000C0402000C0404000C0406000C0
310
408000C040A000C040C000C040E000C0600000C0602000C0604000C0606000C0608000C060A000C060C000C060E000C0800000C0802000C0804000C0806000C0808000C080A000C080C000C080E000C0A00000C0A02000C0A04000C0A06000C0A08000C0A0A000C0A0C000C0A0E000C0C00000C0C02000C0C04000C0C06000
310
C0C08000C0C0A000F0FBFF00A4A0A000808080000000FF0000FF000000FFFF00FF000000FF00FF00FFFF0000FFFFFF0000000000000000000000000000000000000000000000000000000000000000000000000000000000000000000000000000000000000000000000000000000000000000000000000000000000000000
310
00000000000000000000000000000000000000000000000000000000000000000000000000000000000000000000000000000000000000000000000000000000000000000000000000000000000000000000000000000000000000000000000000000000000000000000000000000000000000000000000000000000000000
310
00000000000000000000000000000000000000000000000000000000000000000000000000000000000000000000000000000000000000000000000000000000000000000000000000000000000000000000000000000000000000000000000000000000000000000000000000000000000000000000000000000000000000
310
00000000000000000000000000000000000000000000000000000000000000000000000000000000000000000000000000000000000000000000000000000000000000000000000000000000000000000000000000000000000000000000000000000000000000000000000000000000000000005B5B5B5B5B5B5B5B5B5BA4
310
5BA45B5BA4A4A4A4A4A4A45B5B5B5B5B5B5B5B00005BA4A4A4A4A4A45BA4A4A4A4A4A45BA4A4A4A4A4A4A45BA400000000005B00005BA4A4A4A4A4A45BA4A4A4A4A4A45B5B5B5B5B5B5B5B5BA4A4A4A4A4A45B00005BA4A4A40000005BA4A4A4A4A4A45B000000000000005BA400000000005B000000000000000000000000
310
00000000000000000000000000000000000000000000000000000000000000000000000000000000000000000000000000000000000000000000000000000000000000000000000000000000000000000000000000000000000000000000000000000000000000000000000000000000000000000000000000000000000000
310
00000000000000000000000000000000000000000000000000000000000000000000000000000000000000000000000000000000000000000000000000000000000000000000000000000000000000000000000000000000000000000000000000000000000000000000000000000000000000000000000000000000000000
310
00000000000000000000000000000000000000000000000000000000000000000000000000000000000000000000000000000000000000000000000000000000000000000000000000000000000000000000000000000000000000000000000000000000000000000000000000000000000000000000000000000000000000
310
0000000000000000000000000000000000000000000000000000000000000000000000000000000000000000000000000000000000000000
102
{BLKREFS
331
2A59
102
}
1001
ACAD
1000
DesignCenter Data
1002
{
1070
     1
1070
     4
1002
}
  0
BLOCK_RECORD
  5
2A6C
330
1
100
AcDbSymbolTableRecord
100
AcDbBlockTableRecord
  2
A3縦用　タイトル
340
0
310
2800000020000000200000000100080000000000000400000000000000000000000000000000000000000000000080000080000000808000800000008000800080800000C0C0C000C0DCC000F0CAA6000020400000206000002080000020A0000020C0000020E00000400000004020000040400000406000004080000040A0
310
000040C0000040E00000600000006020000060400000606000006080000060A0000060C0000060E00000800000008020000080400000806000008080000080A0000080C0000080E00000A0000000A0200000A0400000A0600000A0800000A0A00000A0C00000A0E00000C0000000C0200000C0400000C0600000C0800000C0
310
A00000C0C00000C0E00000E0000000E0200000E0400000E0600000E0800000E0A00000E0C00000E0E00040000000400020004000400040006000400080004000A0004000C0004000E00040200000402020004020400040206000402080004020A0004020C0004020E000404000004040200040404000404060004040800040
310
40A0004040C0004040E00040600000406020004060400040606000406080004060A0004060C0004060E00040800000408020004080400040806000408080004080A0004080C0004080E00040A0000040A0200040A0400040A0600040A0800040A0A00040A0C00040A0E00040C0000040C0200040C0400040C0600040C08000
310
40C0A00040C0C00040C0E00040E0000040E0200040E0400040E0600040E0800040E0A00040E0C00040E0E00080000000800020008000400080006000800080008000A0008000C0008000E00080200000802020008020400080206000802080008020A0008020C0008020E00080400000804020008040400080406000804080
310
008040A0008040C0008040E00080600000806020008060400080606000806080008060A0008060C0008060E00080800000808020008080400080806000808080008080A0008080C0008080E00080A0000080A0200080A0400080A0600080A0800080A0A00080A0C00080A0E00080C0000080C0200080C0400080C0600080C0
310
800080C0A00080C0C00080C0E00080E0000080E0200080E0400080E0600080E0800080E0A00080E0C00080E0E000C0000000C0002000C0004000C0006000C0008000C000A000C000C000C000E000C0200000C0202000C0204000C0206000C0208000C020A000C020C000C020E000C0400000C0402000C0404000C0406000C0
310
408000C040A000C040C000C040E000C0600000C0602000C0604000C0606000C0608000C060A000C060C000C060E000C0800000C0802000C0804000C0806000C0808000C080A000C080C000C080E000C0A00000C0A02000C0A04000C0A06000C0A08000C0A0A000C0A0C000C0A0E000C0C00000C0C02000C0C04000C0C06000
310
C0C08000C0C0A000F0FBFF00A4A0A000808080000000FF0000FF000000FFFF00FF000000FF00FF00FFFF0000FFFFFF0000000000000000000000000000000000000000000000000000000000000000000000000000000000000000000000000000000000000000000000000000000000000000000000000000000000000000
310
00000000000000000000000000000000000000000000000000000000000000000000000000000000000000000000000000000000000000000000000000000000000000000000000000000000000000000000000000000000000000000000000000000000000000000000000000000000000000000000000000000000000000
310
00000000000000000000000000000000000000000000000000000000000000000000000000000000000000000000000000000000000000000000000000000000000000000000000000000000000000000000000000000000000000000000000000000000000000000000000000000000000000000000000000000000000000
310
00000000000000000000000000000000000000000000000000000000000000000000000000000000000000000000000000000000000000000000000000000000000000000000000000000000000000000000000000000000000000000000000000000000000000000000000000000000000000005B5B5B5B5B5B5B5B5B5B5B
310
5B5B5B5B5B5B5B5B5B5B5B5B5B5B5B5B5B5B5B00005BA4A4A4A4A4A4A4A4A4A4A4A4A4A45B5B5B5B5B5B5BA4A4A4A4A4A4A4A400005BA4A4A4A4A4A4A4A4A4A4A4A400A4A4A4A4A4A4A4A4A40000000000005B00005BA4A4A4A4A4A4A4A4A4A4A4A4A4A4000000000000005BA4A4000000005B000000000000000000000000
310
00000000000000000000000000000000000000000000000000000000000000000000000000000000000000000000000000000000000000000000000000000000000000000000000000000000000000000000000000000000000000000000000000000000000000000000000000000000000000000000000000000000000000
310
00000000000000000000000000000000000000000000000000000000000000000000000000000000000000000000000000000000000000000000000000000000000000000000000000000000000000000000000000000000000000000000000000000000000000000000000000000000000000000000000000000000000000
310
00000000000000000000000000000000000000000000000000000000000000000000000000000000000000000000000000000000000000000000000000000000000000000000000000000000000000000000000000000000000000000000000000000000000000000000000000000000000000000000000000000000000000
310
0000000000000000000000000000000000000000000000000000000000000000000000000000000000000000000000000000000000000000
102
{BLKREFS
331
2A93
102
}
1001
ACAD
1000
DesignCenter Data
1002
{
1070
     1
1070
     4
1002
}
  0
BLOCK_RECORD
  5
2AD6
330
1
100
AcDbSymbolTableRecord
100
AcDbBlockTableRecord
  2
_Open30
340
0
102
{BLKREFS
331
31E0
331
31E1
331
31E9
331
31EA
331
3204
331
3205
331
3515
331
3516
331
351E
331
351F
102
}
  0
BLOCK_RECORD
  5
3174
330
1
100
AcDbSymbolTableRecord
100
AcDbBlockTableRecord
  2
*D8
340
0
  0
BLOCK_RECORD
  5
3198
330
1
100
AcDbSymbolTableRecord
100
AcDbBlockTableRecord
  2
*D9
340
0
  0
BLOCK_RECORD
  5
31A4
330
1
100
AcDbSymbolTableRecord
100
AcDbBlockTableRecord
  2
*D10
340
0
  0
BLOCK_RECORD
  5
34CD
330
1
100
AcDbSymbolTableRecord
100
AcDbBlockTableRecord
  2
*D11
340
0
  0
BLOCK_RECORD
  5
34D9
330
1
100
AcDbSymbolTableRecord
100
AcDbBlockTableRecord
  2
*D12
340
0
  0
ENDTAB
  0
ENDSEC
  0
SECTION
  2
BLOCKS
  0
BLOCK
  5
1B
330
1A
100
AcDbEntity
  8
0
100
AcDbBlockBegin
  2
*MODEL_SPACE
 70
     0
 10
0.0
 20
0.0
 30
0.0
  3
*MODEL_SPACE
  1

  0
ENDBLK
  5
1C
330
1A
100
AcDbEntity
  8
0
100
AcDbBlockEnd
  0
BLOCK
  5
28FD
330
28FB
100
AcDbEntity
 67
     1
  8
0
 48
10.0
100
AcDbBlockBegin
  2
*Paper_Space
 70
     0
 10
0.0
 20
0.0
 30
0.0
  3
*Paper_Space
  1

  0
ENDBLK
  5
28FE
330
28FB
100
AcDbEntity
 67
     1
  8
0
 48
10.0
100
AcDbBlockEnd
  0
BLOCK
  5
299F
330
299E
100
AcDbEntity
  8
0
 48
10.0
100
AcDbBlockBegin
  2
*Paper_Space0
 70
     0
 10
0.0
 20
0.0
 30
0.0
  3
*Paper_Space0
  1

  0
VIEWPORT
  5
29A0
330
299E
100
AcDbEntity
  8
0
 48
10.0
100
AcDbViewport
 10
233.9923987768948
 20
231.5493555185928
 30
0.0
 40
1088.852316217011
 41
568.1952835144902
 69
     0
 12
233.9923987768948
 22
231.5493555185928
 13
0.0
 23
0.0
 14
10.0
 24
10.0
 15
10.0
 25
10.0
 16
0.0
 26
0.0
 36
1.0
 17
0.0
 27
0.0
 37
0.0
 42
50.0
 43
0.0
 44
0.0
 45
568.1952835144902
 50
0.0
 51
0.0
 72
   100
 90
    32800
  1

281
     0
 71
     1
 74
     0
110
0.0
120
0.0
130
0.0
111
1.0
121
0.0
131
0.0
112
0.0
122
1.0
132
0.0
 79
     0
146
0.0
170
     0
  0
VIEWPORT
  5
29A1
330
299E
100
AcDbEntity
  8
図枠太線
 48
10.0
100
AcDbViewport
 10
143.3797153809096
 20
220.3348546596005
 30
0.0
 40
280.0
 41
375.0
 69
     0
 12
-325.6038545710309
 22
56.61719689340706
 13
0.0
 23
0.0
 14
1.0
 24
1.0
 15
0.0
 25
0.0
 16
0.0
 26
0.0
 36
1.0
 17
0.0
 27
0.0
 37
0.0
 42
50.0
 43
0.0
 44
0.0
 45
749.9999994146318
 50
0.0
 51
0.0
 72
   100
 90
    32768
  1

281
     0
 71
     1
 74
     0
110
0.0
120
0.0
130
0.0
111
1.0
121
0.0
131
0.0
112
0.0
122
1.0
132
0.0
 79
     0
146
0.0
170
     0
  0
INSERT
  5
2A93
330
299E
100
AcDbEntity
  8
図枠太線
100
AcDbBlockReference
  2
A3縦用　タイトル
 10
-0.1981565020514608
 20
0.014011970346246
 30
0.0
  0
ENDBLK
  5
29A3
330
299E
100
AcDbEntity
  8
0
 48
10.0
100
AcDbBlockEnd
  0
BLOCK
  5
18
330
17
100
AcDbEntity
  8
0
100
AcDbBlockBegin
  2
*PAPER_SPACE1
 70
     0
 10
0.0
 20
0.0
 30
0.0
  3
*PAPER_SPACE1
  1

  0
VIEWPORT
  5
22
330
17
100
AcDbEntity
  8
0
100
AcDbViewport
 10
212.4838448262036
 20
104.0372947650559
 30
0.0
 40
488.9358565145
 41
255.1411642102693
 69
     0
 12
212.4838448262036
 22
104.0372947650559
 13
0.0
 23
0.0
 14
10.0
 24
10.0
 15
10.0
 25
10.0
 16
0.0
 26
0.0
 36
1.0
 17
0.0
 27
0.0
 37
0.0
 42
50.0
 43
0.0
 44
0.0
 45
255.1411642102693
 50
0.0
 51
0.0
 72
   100
 90
    32768
  1

281
     0
 71
     1
 74
     0
110
0.0
120
0.0
130
0.0
111
1.0
121
0.0
131
0.0
112
0.0
122
1.0
132
0.0
 79
     0
146
0.0
170
     0
  0
VIEWPORT
  5
2894
330
17
100
AcDbEntity
  8
図枠太線
 48
10.0
100
AcDbViewport
 10
141.848181194984
 20
114.0973158703343
 30
0.0
 40
280.0
 41
165.000002
 69
     0
 12
-125.527626438517
 22
265.324262190868
 13
0.0
 23
0.0
 14
1.0
 24
1.0
 15
0.0
 25
0.0
 16
0.0
 26
0.0
 36
1.0
 17
0.0
 27
0.0
 37
0.0
 42
50.0
 43
0.0
 44
0.0
 45
330.000004
 50
0.0
 51
0.0
 72
   100
 90
    32768
  1

281
     0
 71
     1
 74
     0
110
0.0
120
0.0
130
0.0
111
1.0
121
0.0
131
0.0
112
0.0
122
1.0
132
0.0
 79
     0
146
0.0
170
     0
  0
INSERT
  5
29F1
330
17
100
AcDbEntity
  8
図枠太線
100
AcDbBlockReference
  2
A4横用　タイトル
 10
-2.212829876066734
 20
-0.2092913830236966
 30
0.0
  0
ENDBLK
  5
19
330
17
100
AcDbEntity
  8
0
100
AcDbBlockEnd
  0
BLOCK
  5
2964
330
2963
100
AcDbEntity
  8
0
100
AcDbBlockBegin
  2
*PAPER_SPACE2
 70
     0
 10
0.0
 20
0.0
 30
0.0
  3
*PAPER_SPACE2
  1

  0
VIEWPORT
  5
2965
330
2963
100
AcDbEntity
  8
0
100
AcDbViewport
 10
125.9271469036464
 20
105.5957340185069
 30
0.0
 40
487.7362198470367
 41
302.0685664094673
 69
     0
 12
125.9271469036464
 22
105.5957340185069
 13
0.0
 23
0.0
 14
10.0
 24
10.0
 15
10.0
 25
10.0
 16
0.0
 26
0.0
 36
1.0
 17
0.0
 27
0.0
 37
0.0
 42
50.0
 43
0.0
 44
0.0
 45
302.0685664094673
 50
0.0
 51
0.0
 72
   100
 90
    32768
  1

281
     0
 71
     1
 74
     0
110
0.0
120
0.0
130
0.0
111
1.0
121
0.0
131
0.0
112
0.0
122
1.0
132
0.0
 79
     0
146
0.0
170
     0
  0
VIEWPORT
  5
2966
330
2963
100
AcDbEntity
  8
図枠太線
 48
10.0
100
AcDbViewport
 10
102.8452592942355
 20
157.1607220215001
 30
0.0
 40
190.0036147860778
 41
249.9992277795234
 69
     0
 12
-152.9296794313015
 22
168.0276205449933
 13
0.0
 23
0.0
 14
1.0
 24
1.0
 15
0.0
 25
0.0
 16
0.0
 26
0.0
 36
1.0
 17
0.0
 27
0.0
 37
0.0
 42
50.0
 43
0.0
 44
0.0
 45
175.6404856089332
 50
0.0
 51
0.0
 72
   100
 90
    32768
  1

281
     0
 71
     1
 74
     0
110
0.0
120
0.0
130
0.0
111
1.0
121
0.0
131
0.0
112
0.0
122
1.0
132
0.0
 79
     0
146
0.0
170
     0
  0
INSERT
  5
2A23
330
2963
100
AcDbEntity
  8
図枠太線
100
AcDbBlockReference
  2
A4縦用　タイトル
 10
5.47882082300714
 20
-2.364323092845552
 30
0.0
  0
ENDBLK
  5
2993
330
2963
100
AcDbEntity
  8
0
100
AcDbBlockEnd
  0
BLOCK
  5
29C0
330
29BF
100
AcDbEntity
  8
0
100
AcDbBlockBegin
  2
A4横用　タイトル
 70
     0
 10
0.0
 20
0.0
 30
0.0
  3
A4横用　タイトル
  1

  0
LINE
  5
29C1
330
29BF
100
AcDbEntity
  8
図枠細線
  6
Continuous
100
AcDbLine
 10
75.06101107105076
 20
16.80660725335804
 30
0.0
 11
144.0610110710507
 21
16.80660478907234
 31
0.0
  0
LINE
  5
29C2
330
29BF
100
AcDbEntity
  8
図枠細線
  6
Continuous
 62
   252
100
AcDbLine
 10
4.061011071050756
 20
11.80660625335804
 30
0.0
 11
75.06101107105074
 21
11.80660625335804
 31
0.0
  0
LINE
  5
29C3
330
29BF
100
AcDbEntity
  8
図枠細線
  6
Continuous
 62
   252
100
AcDbLine
 10
4.061011071050756
 20
21.80660625335804
 30
0.0
 11
75.06101107105074
 21
21.80660625335805
 31
0.0
  0
LINE
  5
29C4
330
29BF
100
AcDbEntity
  8
図枠細線
  6
Continuous
 62
   252
100
AcDbLine
 10
4.061011071050756
 20
26.80660625335804
 30
0.0
 11
75.06101107105074
 21
26.80660625335804
 31
0.0
  0
LINE
  5
29C5
330
29BF
100
AcDbEntity
  8
図枠細線
  6
Continuous
100
AcDbLine
 10
4.061011071050756
 20
16.80660825335803
 30
0.0
 11
75.06101107105074
 21
16.80660825335803
 31
0.0
  0
TEXT
  5
29C6
330
29BF
100
AcDbEntity
  8
図枠細線
  6
Continuous
 62
   252
100
AcDbText
 10
76.40547582771296
 20
9.560308253358016
 30
0.0
 40
2.0
  1
ＴＨＩＲＤ　ＡＮＧＬＥ
 41
0.6910994867379731
  7
EXCADSTD
 72
     5
 11
94.00547608997333
 21
9.560308253358016
 31
0.0
100
AcDbText
  0
TEXT
  5
29C7
330
29BF
100
AcDbEntity
  8
図枠細線
  6
Continuous
 62
   252
100
AcDbText
 10
76.70577588092118
 20
14.30660825335803
 30
0.0
 40
2.0
  1
第三角法
 41
1.102941176470587
  7
EXCADSTD
 72
     5
 11
86.70577588092118
 21
14.30660825335803
 31
0.0
100
AcDbText
  0
TEXT
  5
29C8
330
29BF
100
AcDbEntity
  8
図枠細線
  6
Continuous
 62
   252
100
AcDbText
 10
76.70577588092118
 20
26.80660825335804
 30
0.0
 40
2.0
  1
ＡＰＰＲＯＶＥＤ
 41
0.6956521842790683
  7
EXCADSTD
 72
     5
 11
89.50577607165604
 21
26.80660825335804
 31
0.0
100
AcDbText
  0
TEXT
  5
29C9
330
29BF
100
AcDbEntity
  8
図枠細線
  6
Continuous
 62
   252
100
AcDbText
 10
76.70577588092118
 20
29.30660825335804
 30
0.0
 40
2.0
  1
承認
 41
1.171875
  7
EXCADSTD
 72
     5
 11
81.70577588092118
 21
29.30660825335804
 31
0.0
100
AcDbText
  0
LINE
  5
29CA
330
29BF
100
AcDbEntity
  8
図枠細線
  6
Continuous
 62
   252
100
AcDbLine
 10
98.06101107105076
 20
31.80660625335804
 30
0.0
 11
98.06101107105076
 21
16.80660625335804
 31
0.0
  0
TEXT
  5
29CB
330
29BF
100
AcDbEntity
  8
図枠細線
  6
Continuous
 62
   252
100
AcDbText
 10
104.2165311198036
 20
14.30660825335803
 30
0.0
 40
2.0
  1
ＳＣＡＬＥ
 41
0.9036144578313253
  7
EXCADSTD
 72
     5
 11
114.2165311198036
 21
14.30660825335803
 31
0.0
100
AcDbText
  0
TEXT
  5
29CC
330
29BF
100
AcDbEntity
  8
図枠細線
  6
Continuous
 62
   252
100
AcDbText
 10
98.84404411980364
 20
14.30660825335803
 30
0.0
 40
2.0
  1
尺度
 41
1.171874999999999
  7
EXCADSTD
 72
     5
 11
103.8440441198036
 21
14.30660825335803
 31
0.0
100
AcDbText
  0
TEXT
  5
29CD
330
29BF
100
AcDbEntity
  8
図枠細線
  6
Continuous
 62
   252
100
AcDbText
 10
98.96872770749741
 20
26.80660825335804
 30
0.0
 40
2.0
  1
ＣＨＥＣＫＥＤ
 41
0.8312499895691873
  7
EXCADSTD
 72
     5
 11
112.2687275406044
 21
26.80660825335804
 31
0.0
100
AcDbText
  0
TEXT
  5
29CE
330
29BF
100
AcDbEntity
  8
図枠細線
  6
Continuous
 62
   252
100
AcDbText
 10
98.96872770749741
 20
29.30660825335804
 30
0.0
 40
2.0
  1
検図
 41
1.209677419354838
  7
EXCADSTD
 72
     5
 11
103.9687277074974
 21
29.30660825335804
 31
0.0
100
AcDbText
  0
LINE
  5
29CF
330
29BF
100
AcDbEntity
  8
図枠細線
  6
Continuous
 62
   252
100
AcDbLine
 10
121.0610110710507
 20
31.80660625335806
 30
0.0
 11
121.0610110710507
 21
16.80660625335805
 31
0.0
  0
TEXT
  5
29D0
330
29BF
100
AcDbEntity
  8
図枠細線
  6
Continuous
 62
   252
100
AcDbText
 10
128.0014652472527
 20
14.30660825335803
 30
0.0
 40
2.0
  1
ＤＡＴＥ
 41
0.9230769230769231
  7
EXCADSTD
 72
     5
 11
136.0014652472527
 21
14.30660825335803
 31
0.0
100
AcDbText
  0
TEXT
  5
29D1
330
29BF
100
AcDbEntity
  8
図枠細線
  6
Continuous
 62
   252
100
AcDbText
 10
122.0664154988409
 20
14.30660825335803
 30
0.0
 40
2.0
  1
日付
 41
1.171875
  7
EXCADSTD
 72
     5
 11
127.0664154988409
 21
14.30660825335803
 31
0.0
100
AcDbText
  0
TEXT
  5
29D2
330
29BF
100
AcDbEntity
  8
図枠細線
  6
Continuous
 62
   252
100
AcDbText
 10
121.5942940657102
 20
29.30660825335804
 30
0.0
 40
2.0
  1
製図
 41
1.209677419354838
  7
EXCADSTD
 72
     5
 11
126.5942940657102
 21
29.30660825335804
 31
0.0
100
AcDbText
  0
TEXT
  5
29D3
330
29BF
100
AcDbEntity
  8
図枠細線
  6
Continuous
 62
   252
100
AcDbText
 10
121.5942940657102
 20
26.80660825335804
 30
0.0
 40
2.0
  1
ＤＲＡＷＮ
 41
0.8823529411764708
  7
EXCADSTD
 72
     5
 11
131.5942940657102
 21
26.80660825335804
 31
0.0
100
AcDbText
  0
TEXT
  5
29D4
330
29BF
100
AcDbEntity
  8
図枠細線
  6
Continuous
 62
   252
100
AcDbText
 10
226.5912296613477
 20
14.30660825335803
 30
0.0
 40
2.0
  1
ＤＲＧ．ＮＯ．
 41
0.9375
  7
EXCADSTD
 72
     5
 11
240.5912296613478
 21
14.30660825335803
 31
0.0
100
AcDbText
  0
LINE
  5
29D5
330
29BF
100
AcDbEntity
  8
図枠太線
  6
Continuous
 62
   251
100
AcDbLine
 10
144.0610030710507
 20
16.80660625335804
 30
0.0
 11
214.0610110710508
 21
16.80660625335804
 31
0.0
  0
LINE
  5
29D6
330
29BF
100
AcDbEntity
  8
図枠細線
  6
Continuous
 62
   252
100
AcDbLine
 10
144.0610110710507
 20
24.30660625335804
 30
0.0
 11
214.0610110710508
 21
24.30660625335804
 31
0.0
  0
TEXT
  5
29D7
330
29BF
100
AcDbEntity
  8
図枠ロゴマーク
  6
Continuous
 62
   253
100
AcDbText
 10
146.4337767815963
 20
8.399000253358053
 30
0.0
 40
7.0
  1
東和制電工業株式会社
 41
0.8036108846195519
  7
EXCADSTD
 72
     5
 11
212.4370174383488
 21
8.399000253358053
 31
0.0
100
AcDbText
  0
TEXT
  5
29D8
330
29BF
100
AcDbEntity
  8
図枠細線
  6
Continuous
 62
   252
100
AcDbText
 10
215.156179912936
 20
14.30660825335803
 30
0.0
 40
2.0
  1
図面番号
 41
1.102941176470588
  7
EXCADSTD
 72
     5
 11
225.156179912936
 21
14.30660825335803
 31
0.0
100
AcDbText
  0
TEXT
  5
29D9
330
29BF
100
AcDbEntity
  8
図枠細線
  6
Continuous
 62
   252
100
AcDbText
 10
221.5912296613478
 20
29.30660825335804
 30
0.0
 40
2.0
  1
ＴＩＴＬＥ
 41
0.9036144578313251
  7
EXCADSTD
 72
     5
 11
231.5912296613477
 21
29.30660825335804
 31
0.0
100
AcDbText
  0
TEXT
  5
29DA
330
29BF
100
AcDbEntity
  8
図枠細線
  6
Continuous
 62
   252
100
AcDbText
 10
215.156179912936
 20
29.30660825335804
 30
0.0
 40
2.0
  1
名称
 41
1.171875
  7
EXCADSTD
 72
     5
 11
220.156179912936
 21
29.30660825335804
 31
0.0
100
AcDbText
  0
LINE
  5
29DB
330
29BF
100
AcDbEntity
  8
図枠太線
  6
Continuous
 62
   251
100
AcDbLine
 10
4.061011071050756
 20
1.806608253358035
 30
0.0
 11
284.0610110710508
 21
1.806608253358035
 31
0.0
  0
LINE
  5
29DC
330
29BF
100
AcDbEntity
  8
図枠細線
  6
Continuous
 62
   252
100
AcDbLine
 10
4.061011071050756
 20
6.806608253358035
 30
0.0
 11
75.06101107105074
 21
6.806608253358035
 31
0.0
  0
LINE
  5
29DD
330
29BF
100
AcDbEntity
  8
図枠太線
  6
Continuous
 62
   251
100
AcDbLine
 10
75.06101107105076
 20
1.806608253358042
 30
0.0
 11
75.06101107105076
 21
31.80660625335805
 31
0.0
  0
TEXT
  5
29DE
330
29BF
100
AcDbEntity
  8
図枠細線
  6
Continuous
 62
   252
100
AcDbText
 10
76.33055182771295
 20
6.638319253358019
 30
0.0
 40
2.0
  1
ＰＲＯＪＥＣＴＩＯＮ
 41
0.7542857101985412
  7
EXCADSTD
 72
     5
 11
93.93055173234557
 21
6.638319253358019
 31
0.0
100
AcDbText
  0
LINE
  5
29DF
330
29BF
100
AcDbEntity
  8
図枠細線
  6
Continuous
 62
   252
100
AcDbLine
 10
98.06101107105076
 20
1.806606931929469
 30
0.0
 11
98.06101107105076
 21
16.80660493192947
 31
0.0
  0
LINE
  5
29E0
330
29BF
100
AcDbEntity
  8
図枠細線
  6
Continuous
 62
   252
100
AcDbLine
 10
121.0610110710507
 20
1.806607574786621
 30
0.0
 11
121.0610110710507
 21
16.80660557478663
 31
0.0
  0
LINE
  5
29E1
330
29BF
100
AcDbEntity
  8
図枠太線
  6
Continuous
 62
   251
100
AcDbLine
 10
284.0610110710508
 20
1.806608253358035
 30
0.0
 11
284.0610110710508
 21
31.80660625335804
 31
0.0
  0
LINE
  5
29E2
330
29BF
100
AcDbEntity
  8
図枠細線
  6
Continuous
 62
   252
100
AcDbLine
 10
214.0610110710508
 20
16.80660625335804
 30
0.0
 11
284.0610110710508
 21
16.80660625335804
 31
0.0
  0
TEXT
  5
29E3
330
29BF
100
AcDbEntity
  8
図枠細線
  6
Continuous
 62
   252
100
AcDbText
 10
146.1995936761824
 20
3.454099253358037
 30
0.0
 40
3.5
  1
ＴＯＷＡ　ＳＥＩＤＥＮ　ＩＮＤＵＳＴＲＩＡＬ　ＣＯ．，ＬＴＤ．
 41
0.5289378269070804
  7
EXCADSTD
 72
     5
 11
213.3394351715878
 21
3.454099253358037
 31
0.0
100
AcDbText
  0
LINE
  5
29E4
330
29BF
100
AcDbEntity
  8
図枠太線
  6
Continuous
 62
   251
100
AcDbLine
 10
144.0610110710507
 20
1.806608253358035
 30
0.0
 11
144.0610110710507
 21
31.80660625335804
 31
0.0
  0
LINE
  5
29E5
330
29BF
100
AcDbEntity
  8
図枠太線
  6
Continuous
 62
   251
100
AcDbLine
 10
214.0610110710508
 20
1.806608253358035
 30
0.0
 11
214.0610110710508
 21
31.80660625335804
 31
0.0
  0
MTEXT
  5
29E6
330
29BF
100
AcDbEntity
  8
図枠太線
100
AcDbMText
 10
5.064337346478396
 20
31.0109821374075
 30
0.0
 40
2.5
 41
8.678560984720206
 71
     1
 72
     5
  1
{\Fmonotxt.shx,bigfont.shx|c128;図暦}
 73
     1
 44
1.0
  0
LINE
  5
29E7
330
29BF
100
AcDbEntity
  8
図枠太線
  6
Continuous
 62
   251
100
AcDbLine
 10
4.061011071050756
 20
1.806608253358035
 30
0.0
 11
4.061011071050756
 21
31.80660625335804
 31
0.0
  0
TEXT
  5
29E8
330
29BF
100
AcDbEntity
  8
図枠細線
 48
10.0
100
AcDbText
 10
12.26081742040207
 20
28.62541962649539
 30
0.0
 40
2.0
  1
CHANGE NOTICE
100
AcDbText
  0
ENDBLK
  5
29E9
330
29BF
100
AcDbEntity
  8
0
100
AcDbBlockEnd
  0
BLOCK
  5
29F5
330
29F4
100
AcDbEntity
  8
0
100
AcDbBlockBegin
  2
A4縦用　タイトル
 70
     0
 10
0.0
 20
0.0
 30
0.0
  3
A4縦用　タイトル
  1

  0
LINE
  5
29F6
330
29F4
100
AcDbEntity
  8
図枠太線
  6
Continuous
 62
   251
100
AcDbLine
 10
2.36825386426733
 20
4.525433224583935
 30
0.0
 11
192.3682458642673
 21
4.525433224583935
 31
0.0
  0
LINE
  5
29F7
330
29F4
100
AcDbEntity
  8
図枠太線
  6
Continuous
 62
   251
100
AcDbLine
 10
78.36824586426729
 20
19.52543122458394
 30
0.0
 11
135.3682538642673
 21
19.52543122458394
 31
0.0
  0
LINE
  5
29F8
330
29F4
100
AcDbEntity
  8
図枠細線
  6
Continuous
 62
   252
100
AcDbLine
 10
78.36825386426733
 20
27.02543122458394
 30
0.0
 11
135.3682538642673
 21
27.02543122458394
 31
0.0
  0
TEXT
  5
29F9
330
29F4
100
AcDbEntity
  8
図枠ロゴマーク
  6
Continuous
 62
   253
100
AcDbText
 10
80.61700986426728
 20
11.11782522458395
 30
0.0
 40
7.0
  1
東和制電工業株式会社
 41
0.6392045454545461
  7
EXCADSTD
 72
     5
 11
133.1170098642673
 21
11.11782522458395
 31
0.0
100
AcDbText
  0
TEXT
  5
29FA
330
29F4
100
AcDbEntity
  8
図枠細線
  6
Continuous
 62
   252
100
AcDbText
 10
80.57954986426727
 20
6.172924224583937
 30
0.0
 40
3.5
  1
ＴＯＷＡ　ＳＥＩＤＥＮ　ＩＮＤＵＳＴＲＩＡＬ　ＣＯ．，ＬＴＤ．
 41
0.4145680123767934
  7
EXCADSTD
 72
     5
 11
133.2020495686283
 21
6.172924224583937
 31
0.0
100
AcDbText
  0
LINE
  5
29FB
330
29F4
100
AcDbEntity
  8
図枠太線
  6
Continuous
 62
   251
100
AcDbLine
 10
2.36825386426733
 20
4.525433224583935
 30
0.0
 11
2.36825386426733
 21
34.52543122458394
 31
0.0
  0
TEXT
  5
29FC
330
29F4
100
AcDbEntity
  8
図枠細線
  6
Continuous
 62
   252
100
AcDbText
 10
22.50430813650149
 20
12.27913322458391
 30
0.0
 40
2.0
  1
ＴＨＩＲＤ　ＡＮＧＬＥ
 41
0.6910994867379731
  7
EXCADSTD
 72
     5
 11
40.10430839876187
 21
12.27913322458391
 31
0.0
100
AcDbText
  0
TEXT
  5
29FD
330
29F4
100
AcDbEntity
  8
図枠細線
  6
Continuous
 62
   252
100
AcDbText
 10
22.42938413650148
 20
9.357144224583919
 30
0.0
 40
2.0
  1
ＰＲＯＪＥＣＴＩＯＮ
 41
0.7542857101985414
  7
EXCADSTD
 72
     5
 11
40.0293840411341
 21
9.357144224583919
 31
0.0
100
AcDbText
  0
LINE
  5
29FE
330
29F4
100
AcDbEntity
  8
図枠細線
  6
Continuous
100
AcDbLine
 10
22.36825386426733
 20
19.52543322458393
 30
0.0
 11
78.36825386426733
 21
19.52543122458394
 31
0.0
  0
TEXT
  5
29FF
330
29F4
100
AcDbEntity
  8
図枠細線
  6
Continuous
 62
   252
100
AcDbText
 10
22.86825386426733
 20
17.02543322458393
 30
0.0
 40
2.0
  1
第三角法
 41
1.102941176470588
  7
EXCADSTD
 72
     5
 11
32.86825386426733
 21
17.02543322458393
 31
0.0
100
AcDbText
  0
TEXT
  5
2A00
330
29F4
100
AcDbEntity
  8
図枠細線
  6
Continuous
 62
   252
100
AcDbText
 10
22.86825386426733
 20
29.52543322458394
 30
0.0
 40
2.0
  1
ＡＰＰＲＯＶＥＤ
 41
0.6956521842790688
  7
EXCADSTD
 72
     5
 11
35.6682540550022
 21
29.52543322458394
 31
0.0
100
AcDbText
  0
LINE
  5
2A01
330
29F4
100
AcDbEntity
  8
図枠細線
  6
Continuous
 62
   252
100
AcDbLine
 10
2.36825386426733
 20
9.525433224583935
 30
0.0
 11
22.36825386426733
 21
9.525433224583935
 31
0.0
  0
LINE
  5
2A02
330
29F4
100
AcDbEntity
  8
図枠細線
  6
Continuous
 62
   252
100
AcDbLine
 10
2.36825386426733
 20
14.52543122458394
 30
0.0
 11
22.36825386426733
 21
14.52543122458394
 31
0.0
  0
LINE
  5
2A03
330
29F4
100
AcDbEntity
  8
図枠細線
  6
Continuous
 62
   252
100
AcDbLine
 10
2.36825386426733
 20
24.52543122458394
 30
0.0
 11
22.36825386426733
 21
24.52543122458394
 31
0.0
  0
LINE
  5
2A04
330
29F4
100
AcDbEntity
  8
図枠細線
  6
Continuous
 62
   252
100
AcDbLine
 10
2.36825386426733
 20
29.52543122458394
 30
0.0
 11
22.36825386426733
 21
29.52543122458394
 31
0.0
  0
LINE
  5
2A05
330
29F4
100
AcDbEntity
  8
図枠細線
  6
Continuous
100
AcDbLine
 10
2.36825386426733
 20
19.52543322458393
 30
0.0
 11
22.36825386426733
 21
19.52543322458393
 31
0.0
  0
TEXT
  5
2A06
330
29F4
100
AcDbEntity
  8
図枠細線
  6
Continuous
 62
   252
100
AcDbText
 10
2.86825386426733
 20
32.02543322458394
 30
0.0
 40
2.0
  1
ＮＯＴＥ
 41
0.9230769230769231
  7
EXCADSTD
 72
     5
 11
10.86825386426733
 21
32.02543322458394
 31
0.0
100
AcDbText
  0
LINE
  5
2A07
330
29F4
100
AcDbEntity
  8
図枠太線
  6
Continuous
 62
   251
100
AcDbLine
 10
22.36825386426733
 20
4.525433224583935
 30
0.0
 11
22.36825386426733
 21
34.52543122458394
 31
0.0
  0
TEXT
  5
2A08
330
29F4
100
AcDbEntity
  8
図枠細線
  6
Continuous
 62
   252
100
AcDbText
 10
22.86825386426733
 20
32.02543322458394
 30
0.0
 40
2.0
  1
承認
 41
1.171875
  7
EXCADSTD
 72
     5
 11
27.86825386426733
 21
32.02543322458394
 31
0.0
100
AcDbText
  0
TEXT
  5
2A09
330
29F4
100
AcDbEntity
  8
図枠細線
  6
Continuous
 62
   252
100
AcDbText
 10
60.7117090359817
 20
32.02543322458394
 30
0.0
 40
2.0
  1
製図
 41
1.209677419354838
  7
EXCADSTD
 72
     5
 11
65.7117090359817
 21
32.02543322458394
 31
0.0
100
AcDbText
  0
TEXT
  5
2A0A
330
29F4
100
AcDbEntity
  8
図枠細線
  6
Continuous
 62
   252
100
AcDbText
 10
60.7117090359817
 20
29.52543322458394
 30
0.0
 40
2.0
  1
ＤＲＡＷＮ
 41
0.8823529411764708
  7
EXCADSTD
 72
     5
 11
70.7117090359817
 21
29.52543322458394
 31
0.0
100
AcDbText
  0
TEXT
  5
2A0B
330
29F4
100
AcDbEntity
  8
図枠細線
  6
Continuous
 62
   252
100
AcDbText
 10
60.83489174387716
 20
17.02543322458393
 30
0.0
 40
2.0
  1
日付
 41
1.171875
  7
EXCADSTD
 72
     5
 11
65.83489174387716
 21
17.02543322458393
 31
0.0
100
AcDbText
  0
TEXT
  5
2A0C
330
29F4
100
AcDbEntity
  8
図枠細線
  6
Continuous
 62
   252
100
AcDbText
 10
47.33366086426729
 20
17.02543322458393
 30
0.0
 40
2.0
  1
ＳＣＡＬＥ
 41
0.9036144578313253
  7
EXCADSTD
 72
     5
 11
57.3336608642673
 21
17.02543322458393
 31
0.0
100
AcDbText
  0
TEXT
  5
2A0D
330
29F4
100
AcDbEntity
  8
図枠細線
  6
Continuous
 62
   252
100
AcDbText
 10
42.28142599008208
 20
29.52543322458394
 30
0.0
 40
2.0
  1
ＣＨＥＣＫＥＤ
 41
0.8312499895691873
  7
EXCADSTD
 72
     5
 11
55.58142582318907
 21
29.52543322458394
 31
0.0
100
AcDbText
  0
LINE
  5
2A0E
330
29F4
100
AcDbEntity
  8
図枠細線
  6
Continuous
 62
   252
100
AcDbLine
 10
40.96825386426733
 20
34.52543122458394
 30
0.0
 11
40.96825386426733
 21
19.52543122458394
 31
0.0
  0
LINE
  5
2A0F
330
29F4
100
AcDbEntity
  8
図枠細線
  6
Continuous
 62
   252
100
AcDbLine
 10
40.96825386426733
 20
4.525433224583935
 30
0.0
 11
40.96825386426733
 21
19.52543122458394
 31
0.0
  0
TEXT
  5
2A10
330
29F4
100
AcDbEntity
  8
図枠細線
  6
Continuous
 62
   252
100
AcDbText
 10
41.96117386426727
 20
17.02543322458393
 30
0.0
 40
2.0
  1
尺度
 41
1.171874999999999
  7
EXCADSTD
 72
     5
 11
46.96117386426727
 21
17.02543322458393
 31
0.0
100
AcDbText
  0
TEXT
  5
2A11
330
29F4
100
AcDbEntity
  8
図枠細線
  6
Continuous
 62
   252
100
AcDbText
 10
42.28142599008208
 20
32.02543322458394
 30
0.0
 40
2.0
  1
検図
 41
1.209677419354838
  7
EXCADSTD
 72
     5
 11
47.28142599008208
 21
32.02543322458394
 31
0.0
100
AcDbText
  0
LINE
  5
2A12
330
29F4
100
AcDbEntity
  8
図枠細線
  6
Continuous
 62
   252
100
AcDbLine
 10
59.76825386426733
 20
34.52543122458394
 30
0.0
 11
59.76825386426733
 21
19.52543122458394
 31
0.0
  0
LINE
  5
2A13
330
29F4
100
AcDbEntity
  8
図枠細線
  6
Continuous
 62
   252
100
AcDbLine
 10
59.76825386426733
 20
4.525433224583935
 30
0.0
 11
59.76825386426733
 21
19.52543122458394
 31
0.0
  0
LINE
  5
2A14
330
29F4
100
AcDbEntity
  8
図枠太線
  6
Continuous
 62
   251
100
AcDbLine
 10
78.36825386426733
 20
4.525433224583935
 30
0.0
 11
78.36825386426733
 21
34.52543122458394
 31
0.0
  0
TEXT
  5
2A15
330
29F4
100
AcDbEntity
  8
図枠細線
  6
Continuous
 62
   252
100
AcDbText
 10
66.33489174387716
 20
17.02543322458393
 30
0.0
 40
2.0
  1
ＤＡＴＥ
 41
0.9230769230769231
  7
EXCADSTD
 72
     5
 11
74.33489174387716
 21
17.02543322458393
 31
0.0
100
AcDbText
  0
LINE
  5
2A16
330
29F4
100
AcDbEntity
  8
図枠細線
  6
Continuous
 62
   252
100
AcDbLine
 10
135.3682538642673
 20
19.52543122458394
 30
0.0
 11
192.3682458642673
 21
19.52543122458394
 31
0.0
  0
TEXT
  5
2A17
330
29F4
100
AcDbEntity
  8
図枠細線
  6
Continuous
 62
   252
100
AcDbText
 10
141.8682538642673
 20
32.02543322458394
 30
0.0
 40
2.0
  1
ＴＩＴＬＥ
 41
0.9036144578313251
  7
EXCADSTD
 72
     5
 11
151.8682538642673
 21
32.02543322458394
 31
0.0
100
AcDbText
  0
LINE
  5
2A18
330
29F4
100
AcDbEntity
  8
図枠太線
  6
Continuous
 62
   251
100
AcDbLine
 10
135.3682538642673
 20
4.525433224583935
 30
0.0
 11
135.3682538642673
 21
34.52543122458394
 31
0.0
  0
TEXT
  5
2A19
330
29F4
100
AcDbEntity
  8
図枠細線
  6
Continuous
 62
   252
100
AcDbText
 10
135.8682538642673
 20
17.02543322458393
 30
0.0
 40
2.0
  1
図面番号
 41
1.102941176470588
  7
EXCADSTD
 72
     5
 11
145.8682538642673
 21
17.02543322458393
 31
0.0
100
AcDbText
  0
TEXT
  5
2A1A
330
29F4
100
AcDbEntity
  8
図枠細線
  6
Continuous
 62
   252
100
AcDbText
 10
135.8682538642673
 20
32.02543322458394
 30
0.0
 40
2.0
  1
名称
 41
1.171875
  7
EXCADSTD
 72
     5
 11
140.8682538642673
 21
32.02543322458394
 31
0.0
100
AcDbText
  0
TEXT
  5
2A1B
330
29F4
100
AcDbEntity
  8
図枠細線
  6
Continuous
 62
   252
100
AcDbText
 10
146.8682538642673
 20
17.02543322458393
 30
0.0
 40
2.0
  1
ＤＲＧ．ＮＯ．
 41
0.9375
  7
EXCADSTD
 72
     5
 11
160.8682538642673
 21
17.02543322458393
 31
0.0
100
AcDbText
  0
LINE
  5
2A1C
330
29F4
100
AcDbEntity
  8
図枠太線
  6
Continuous
 62
   251
100
AcDbLine
 10
192.3682458642673
 20
4.525433224583935
 30
0.0
 11
192.3682458642673
 21
34.52543122458394
 31
0.0
  0
ENDBLK
  5
2A1D
330
29F4
100
AcDbEntity
  8
0
100
AcDbBlockEnd
  0
BLOCK
  5
2A33
330
2A32
100
AcDbEntity
  8
0
100
AcDbBlockBegin
  2
A3横用　タイトル
 70
     0
 10
0.0
 20
0.0
 30
0.0
  3
A3横用　タイトル
  1

  0
LINE
  5
2A34
330
2A32
100
AcDbEntity
  8
図枠細線
  6
Continuous
 62
   252
100
AcDbLine
 10
205.0984145357926
 20
33.52595975352681
 30
0.0
 11
305.0984145357926
 21
33.52595975352681
 31
0.0
  0
LINE
  5
2A35
330
2A32
100
AcDbEntity
  8
図枠太線
  6
Continuous
 62
   251
100
AcDbLine
 10
205.0984145357927
 20
23.52595975352683
 30
0.0
 11
305.0984145357926
 21
23.52595975352683
 31
0.0
  0
LINE
  5
2A36
330
2A32
100
AcDbEntity
  8
図枠細線
  6
Continuous
100
AcDbLine
 10
5.098414535792699
 20
23.52595975352683
 30
0.0
 11
105.0984145357927
 21
23.52595975352683
 31
0.0
  0
LINE
  5
2A37
330
2A32
100
AcDbEntity
  8
図枠細線
  6
Continuous
 62
   252
100
AcDbLine
 10
5.098414535792702
 20
36.72595775352683
 30
0.0
 11
105.0984145357927
 21
36.72595775352683
 31
0.0
  0
LINE
  5
2A38
330
2A32
100
AcDbEntity
  8
図枠細線
  6
Continuous
 62
   252
100
AcDbLine
 10
5.098414535792699
 20
30.12595775352683
 30
0.0
 11
105.0984145357927
 21
30.12595775352683
 31
0.0
  0
LINE
  5
2A39
330
2A32
100
AcDbEntity
  8
図枠細線
  6
Continuous
 62
   252
100
AcDbLine
 10
5.0984145357927
 20
16.72595975352682
 30
0.0
 11
105.0984145357927
 21
16.72595975352682
 31
0.0
  0
LINE
  5
2A3A
330
2A32
100
AcDbEntity
  8
図枠細線
  6
Continuous
 62
   252
100
AcDbLine
 10
5.098414535792699
 20
10.12595975352682
 30
0.0
 11
105.0984145357927
 21
10.12595975352682
 31
0.0
  0
LINE
  5
2A3B
330
2A32
100
AcDbEntity
  8
図枠細線
  6
Continuous
100
AcDbLine
 10
105.0984145357926
 20
23.52596175352682
 30
0.0
 11
205.0984145357927
 21
23.52595975352683
 31
0.0
  0
LINE
  5
2A3C
330
2A32
100
AcDbEntity
  8
図枠細線
  6
Continuous
 62
   252
100
AcDbLine
 10
138.3984145357926
 20
43.52595975352682
 30
0.0
 11
138.3984145357926
 21
18.52595775352682
 31
0.0
  0
LINE
  5
2A3D
330
2A32
100
AcDbEntity
  8
図枠細線
  6
Continuous
 62
   252
100
AcDbLine
 10
171.6984145357926
 20
43.52595975352682
 30
0.0
 11
171.6984145357926
 21
18.52595775352682
 31
0.0
  0
LINE
  5
2A3E
330
2A32
100
AcDbEntity
  8
図枠細線
  6
Continuous
 62
   252
100
AcDbLine
 10
305.0984145357927
 20
23.52595975352683
 30
0.0
 11
405.0984145357927
 21
23.52595975352681
 31
0.0
  0
TEXT
  5
2A3F
330
2A32
100
AcDbEntity
  8
図枠ロゴマーク
  6
Continuous
 62
   253
100
AcDbText
 10
206.1025092127552
 20
13.29425757054633
 30
0.0
 40
7.0
  1
東和制電工業株式会社
 50
0.016555220184569
 41
1.186384129431804
  7
EXCADSTD
 72
     5
 11
303.5441883091428
 21
13.32241267221695
 31
0.0
100
AcDbText
  0
MTEXT
  5
2A40
330
2A32
100
AcDbEntity
  8
図枠細線
100
AcDbMText
 10
6.356764112374776
 20
41.97659417547754
 30
0.0
 40
2.5
 41
49.93828270629228
 71
     1
 72
     5
  1
{\Fmonotxt.shx,bigfont.shx|c128;図暦　CHANGE　NOTICE}
 73
     1
 44
1.0
  0
MTEXT
  5
2A41
330
2A32
100
AcDbEntity
  8
図枠細線
 48
10.0
100
AcDbMText
 10
306.5441149268283
 20
41.70183580093419
 30
0.0
 40
2.5
 41
28.00280961882254
 71
     1
 72
     5
  1
{\Fmonotxt.shx,bigfont.shx|c128;名称　TITLE}
 73
     1
 44
1.0
  0
MTEXT
  5
2A42
330
2A32
100
AcDbEntity
  8
図枠細線
 48
10.0
100
AcDbMText
 10
307.3296171142835
 20
21.60620679722615
 30
0.0
 40
2.5
 41
24.38561221670716
 71
     1
 72
     5
  1
{\Fmonotxt.shx,bigfont.shx|c128;図面番号\PDRG.　No.}
 73
     1
 44
1.0
  0
MTEXT
  5
2A43
330
2A32
100
AcDbEntity
  8
図枠細線
 48
10.0
100
AcDbMText
 10
173.7263494046087
 20
21.73680662198024
 30
0.0
 40
2.5
 41
25.73509016081289
 71
     1
 72
     5
  1
{\Fmonotxt.shx,bigfont.shx|c128;日付 DATE}
 73
     1
 44
1.0
  0
MTEXT
  5
2A44
330
2A32
100
AcDbEntity
  8
図枠細線
 48
10.0
100
AcDbMText
 10
173.4870883398202
 20
41.62159204499767
 30
0.0
 40
2.5
 41
24.98374118420452
 71
     1
 72
     5
  1
{\Fmonotxt.shx,bigfont.shx|c128;製図　DRAWN}
 73
     1
 44
1.0
  0
MTEXT
  5
2A45
330
2A32
100
AcDbEntity
  8
図枠細線
 48
10.0
100
AcDbMText
 10
139.28009927741
 20
21.8667130698675
 30
0.0
 40
2.5
 41
22.62963291324309
 71
     1
 72
     5
  1
{\Fmonotxt.shx,bigfont.shx|c128;尺度　SCALE}
 73
     1
 44
1.0
  0
MTEXT
  5
2A46
330
2A32
100
AcDbEntity
  8
図枠細線
 48
10.0
100
AcDbMText
 10
139.9100911798348
 20
41.31184041555377
 30
0.0
 40
2.5
 41
28.99875342836845
 71
     1
 72
     5
  1
{\Fmonotxt.shx,bigfont.shx|c128;検図  CHECKED}
 73
     1
 44
1.0
  0
MTEXT
  5
2A47
330
2A32
100
AcDbEntity
  8
図枠細線
 48
10.0
100
AcDbMText
 10
114.2532946677281
 20
21.91612485017367
 30
0.0
 40
3.0
 41
19.69240047538346
 71
     1
 72
     5
  1
{\Fmonotxt.shx,bigfont.shx|c128;第三角法}
 73
     1
 44
1.0
  0
MTEXT
  5
2A48
330
2A32
100
AcDbEntity
  8
図枠細線
 48
10.0
100
AcDbMText
 10
108.9869599299147
 20
15.28288018583657
 30
0.0
 40
2.5
 41
27.95488282354722
 71
     1
 72
     5
  1
{\Fmonotxt.shx,bigfont.shx|c128;THIRD ANGLE\PPROJECTION}
 73
     1
 44
1.0
  0
MTEXT
  5
2A49
330
2A32
100
AcDbEntity
  8
図枠細線
 48
10.0
100
AcDbMText
 10
106.3194326401844
 20
41.51143714548664
 30
0.0
 40
2.5
 41
28.23359526507397
 71
     1
 72
     5
  1
{\Fmonotxt.shx,bigfont.shx|c128;承認 APPROVED}
 73
     1
 44
1.0
  0
LINE
  5
2A4A
330
2A32
100
AcDbEntity
  8
図枠太線
  6
Continuous
 62
   251
100
AcDbLine
 10
5.098414535792699
 20
3.525959753526819
 30
0.0
 11
405.0984145357927
 21
3.525959753526819
 31
0.0
  0
LINE
  5
2A4B
330
2A32
100
AcDbEntity
  8
図枠太線
 48
10.0
100
AcDbLine
 10
5.098414535792699
 20
3.525959753526819
 30
0.0
 11
5.098414535792699
 21
43.52595975352682
 31
0.0
  0
LINE
  5
2A4C
330
2A32
100
AcDbEntity
  8
図枠太線
  6
Continuous
 62
   251
100
AcDbLine
 10
105.0984145357927
 20
3.525959753526819
 30
0.0
 11
105.0984145357927
 21
43.52595975352683
 31
0.0
  0
LINE
  5
2A4D
330
2A32
100
AcDbEntity
  8
図枠細線
  6
Continuous
 62
   252
100
AcDbLine
 10
138.3984145357926
 20
3.525959753526819
 30
0.0
 11
138.3984145357926
 21
18.52595775352682
 31
0.0
  0
LINE
  5
2A4E
330
2A32
100
AcDbEntity
  8
図枠細線
  6
Continuous
 62
   252
100
AcDbLine
 10
171.6984145357926
 20
3.525959753526819
 30
0.0
 11
171.6984145357926
 21
18.52595775352682
 31
0.0
  0
LINE
  5
2A4F
330
2A32
100
AcDbEntity
  8
図枠太線
  6
Continuous
 62
   251
100
AcDbLine
 10
205.0984145357927
 20
3.525959753526819
 30
0.0
 11
205.0984145357927
 21
43.52595975352683
 31
0.0
  0
LINE
  5
2A50
330
2A32
100
AcDbEntity
  8
図枠太線
 48
10.0
100
AcDbLine
 10
405.0984145357927
 20
43.52595975352682
 30
0.0
 11
405.0984145357927
 21
3.525959753526819
 31
0.0
  0
TEXT
  5
2A51
330
2A32
100
AcDbEntity
  8
図枠細線
  6
Continuous
 62
   252
100
AcDbText
 10
208.5197544745715
 20
6.48235840728546
 30
0.0
 40
3.5
  1
ＴＯＷＡ　ＳＥＩＤＥＮ　ＩＮＤＵＳＴＲＩＡＬ　ＣＯ．，ＬＴＤ．
 41
0.7466562975091008
  7
EXCADSTD
 72
     5
 11
303.2953271717267
 21
6.48235840728546
 31
0.0
100
AcDbText
  0
LINE
  5
2A52
330
2A32
100
AcDbEntity
  8
図枠太線
  6
Continuous
 62
   251
100
AcDbLine
 10
305.0984145357927
 20
3.525959753526819
 30
0.0
 11
305.0984145357927
 21
43.52595975352683
 31
0.0
  0
ENDBLK
  5
2A53
330
2A32
100
AcDbEntity
  8
0
100
AcDbBlockEnd
  0
BLOCK
  5
2A6D
330
2A6C
100
AcDbEntity
  8
0
100
AcDbBlockBegin
  2
A3縦用　タイトル
 70
     0
 10
0.0
 20
0.0
 30
0.0
  3
A3縦用　タイトル
  1

  0
MTEXT
  5
2A6E
330
2A6C
100
AcDbEntity
  8
図枠細線
100
AcDbMText
 10
5.040804501592901
 20
31.62609864900492
 30
0.0
 40
2.5
 41
49.93828270629228
 71
     1
 72
     5
  1
{\Fmonotxt.shx,bigfont.shx|c128;図暦　CHANGE　NOTICE}
 73
     1
 44
1.0
  0
LINE
  5
2A6F
330
2A6C
100
AcDbEntity
  8
図枠太線
  6
Continuous
 62
   251
100
AcDbLine
 10
283.5778718829611
 20
2.820844689254272
 30
0.0
 11
283.5778718829611
 21
32.82084268925428
 31
0.0
  0
MTEXT
  5
2A70
330
2A6C
100
AcDbEntity
  8
図枠細線
 48
10.0
100
AcDbMText
 10
214.9124589474543
 20
31.62148863230834
 30
0.0
 40
2.5
 41
28.00280961882254
 71
     1
 72
     5
  1
{\Fmonotxt.shx,bigfont.shx|c128;名称　TITLE}
 73
     1
 44
1.0
  0
MTEXT
  5
2A71
330
2A6C
100
AcDbEntity
  8
図枠細線
 48
10.0
100
AcDbMText
 10
214.740030458938
 20
16.31022579672151
 30
0.0
 40
2.5
 41
24.38561221670716
 71
     1
 72
     5
  1
{\Fmonotxt.shx,bigfont.shx|c128;図面番号\PDRG.　No.}
 73
     1
 44
1.0
  0
LINE
  5
2A72
330
2A6C
100
AcDbEntity
  8
図枠太線
  6
Continuous
 62
   251
100
AcDbLine
 10
213.5778718829611
 20
2.820844689254272
 30
0.0
 11
213.5778718829611
 21
32.82084268925428
 31
0.0
  0
LINE
  5
2A73
330
2A6C
100
AcDbEntity
  8
図枠太線
  6
Continuous
 62
   251
100
AcDbLine
 10
143.577871882961
 20
2.820844689254272
 30
0.0
 11
143.577871882961
 21
32.82084268925428
 31
0.0
  0
TEXT
  5
2A74
330
2A6C
100
AcDbEntity
  8
図枠細線
  6
Continuous
 62
   252
100
AcDbText
 10
145.7164544880927
 20
4.468335689254274
 30
0.0
 40
3.5
  1
ＴＯＷＡ　ＳＥＩＤＥＮ　ＩＮＤＵＳＴＲＩＡＬ　ＣＯ．，ＬＴＤ．
 41
0.5289378269070801
  7
EXCADSTD
 72
     5
 11
212.856295983498
 21
4.468335689254274
 31
0.0
100
AcDbText
  0
TEXT
  5
2A75
330
2A6C
100
AcDbEntity
  8
図枠ロゴマーク
  6
Continuous
 62
   253
100
AcDbText
 10
145.9506375935066
 20
9.41323668925429
 30
0.0
 40
7.0
  1
東和制電工業株式会社
 41
0.8036108846195519
  7
EXCADSTD
 72
     5
 11
211.9538782502591
 21
9.41323668925429
 31
0.0
100
AcDbText
  0
LINE
  5
2A76
330
2A6C
100
AcDbEntity
  8
図枠細線
  6
Continuous
 62
   252
100
AcDbLine
 10
143.577871882961
 20
25.32084268925428
 30
0.0
 11
213.5778718829611
 21
25.32084268925428
 31
0.0
  0
LINE
  5
2A77
330
2A6C
100
AcDbEntity
  8
図枠太線
  6
Continuous
 62
   251
100
AcDbLine
 10
143.577863882961
 20
17.82084268925428
 30
0.0
 11
213.5778718829611
 21
17.82084268925428
 31
0.0
  0
LINE
  5
2A78
330
2A6C
100
AcDbEntity
  8
図枠細線
  6
Continuous
 62
   252
100
AcDbLine
 10
213.5778718829611
 20
17.82084268925428
 30
0.0
 11
283.5778718829611
 21
17.82084268925428
 31
0.0
  0
LINE
  5
2A79
330
2A6C
100
AcDbEntity
  8
図枠細線
  6
Continuous
 62
   252
100
AcDbLine
 10
120.577871882961
 20
32.82084268925429
 30
0.0
 11
120.577871882961
 21
17.82084268925429
 31
0.0
  0
MTEXT
  5
2A7A
330
2A6C
100
AcDbEntity
  8
図枠細線
 48
10.0
100
AcDbMText
 10
121.1008856703524
 20
16.33785922638049
 30
0.0
 40
2.0
 41
17.70597828506834
 71
     1
 72
     5
  1
{\Fmonotxt.shx,bigfont.shx|c128;日付 DATE}
 73
     1
 44
1.0
  0
MTEXT
  5
2A7B
330
2A6C
100
AcDbEntity
  8
図枠細線
 48
10.0
100
AcDbMText
 10
121.254842273491
 20
31.20899351403704
 30
0.0
 40
2.0
 41
18.36379956875839
 71
     1
 72
     5
  1
{\Fmonotxt.shx,bigfont.shx|c128;製図　DRAWN}
 73
     1
 44
1.0
  0
LINE
  5
2A7C
330
2A6C
100
AcDbEntity
  8
図枠細線
  6
Continuous
 62
   252
100
AcDbLine
 10
97.57787188296106
 20
32.82084268925428
 30
0.0
 11
97.57787188296106
 21
17.82084268925428
 31
0.0
  0
MTEXT
  5
2A7D
330
2A6C
100
AcDbEntity
  8
図枠細線
 48
10.0
100
AcDbMText
 10
98.23973479687197
 20
16.46776483928056
 30
0.0
 40
2.0
 41
17.75779168990334
 71
     1
 72
     5
  1
{\Fmonotxt.shx,bigfont.shx|c128;尺度　SCALE}
 73
     1
 44
1.0
  0
MTEXT
  5
2A7E
330
2A6C
100
AcDbEntity
  8
図枠細線
 48
10.0
100
AcDbMText
 10
97.86474462515366
 20
31.29843337766442
 30
0.0
 40
2.0
 41
23.16265592097625
 71
     1
 72
     5
  1
{\Fmonotxt.shx,bigfont.shx|c128;検図  CHECKED}
 73
     1
 44
1.0
  0
LINE
  5
2A7F
330
2A6C
100
AcDbEntity
  8
図枠細線
  6
Continuous
 62
   252
100
AcDbLine
 10
97.57787188296106
 20
2.820843367825702
 30
0.0
 11
97.57787188296106
 21
17.82084136782571
 31
0.0
  0
LINE
  5
2A80
330
2A6C
100
AcDbEntity
  8
図枠細線
  6
Continuous
 62
   252
100
AcDbLine
 10
120.577871882961
 20
2.820844010682861
 30
0.0
 11
120.577871882961
 21
17.82084201068286
 31
0.0
  0
MTEXT
  5
2A81
330
2A6C
100
AcDbEntity
  8
図枠細線
 48
10.0
100
AcDbMText
 10
81.40239908410171
 20
16.3164841174256
 30
0.0
 40
2.0
 41
12.9203228193694
 71
     1
 72
     5
  1
{\Fmonotxt.shx,bigfont.shx|c128;第三角法}
 73
     1
 44
1.0
  0
MTEXT
  5
2A82
330
2A6C
100
AcDbEntity
  8
図枠細線
 48
10.0
100
AcDbMText
 10
75.73657653509553
 20
11.08041093131885
 30
0.0
 40
2.0
 41
21.07287067147126
 71
     1
 72
     5
  1
{\Fmonotxt.shx,bigfont.shx|c128;THIRD ANGLE\PPROJECTION}
 73
     1
 44
1.0
  0
LINE
  5
2A83
330
2A6C
100
AcDbEntity
  8
図枠太線
  6
Continuous
 62
   251
100
AcDbLine
 10
74.57787188296106
 20
2.820844689254279
 30
0.0
 11
74.57787188296106
 21
32.82084268925429
 31
0.0
  0
MTEXT
  5
2A84
330
2A6C
100
AcDbEntity
  8
図枠細線
 48
10.0
100
AcDbMText
 10
75.06021478157276
 20
31.29843477855525
 30
0.0
 40
2.0
 41
22.24092880596732
 71
     1
 72
     5
  1
{\Fmonotxt.shx,bigfont.shx|c128;承認 APPROVED}
 73
     1
 44
1.0
  0
LINE
  5
2A85
330
2A6C
100
AcDbEntity
  8
図枠細線
  6
Continuous
100
AcDbLine
 10
3.577871882961062
 20
17.82084468925427
 30
0.0
 11
74.57787188296106
 21
17.82084468925427
 31
0.0
  0
LINE
  5
2A86
330
2A6C
100
AcDbEntity
  8
図枠細線
  6
Continuous
 62
   252
100
AcDbLine
 10
3.577871882961062
 20
27.82084268925428
 30
0.0
 11
74.57787188296106
 21
27.82084268925428
 31
0.0
  0
LINE
  5
2A87
330
2A6C
100
AcDbEntity
  8
図枠細線
  6
Continuous
 62
   252
100
AcDbLine
 10
3.577871882961062
 20
22.82084268925428
 30
0.0
 11
74.57787188296106
 21
22.82084268925428
 31
0.0
  0
LINE
  5
2A88
330
2A6C
100
AcDbEntity
  8
図枠細線
  6
Continuous
 62
   252
100
AcDbLine
 10
3.577871882961062
 20
12.82084268925428
 30
0.0
 11
74.57787188296106
 21
12.82084268925428
 31
0.0
  0
LINE
  5
2A89
330
2A6C
100
AcDbEntity
  8
図枠細線
  6
Continuous
 62
   252
100
AcDbLine
 10
3.577871882961062
 20
7.820844689254272
 30
0.0
 11
74.57787188296106
 21
7.820844689254272
 31
0.0
  0
LINE
  5
2A8A
330
2A6C
100
AcDbEntity
  8
図枠細線
  6
Continuous
100
AcDbLine
 10
74.57787188296106
 20
17.82084368925428
 30
0.0
 11
143.577871882961
 21
17.82084122496857
 31
0.0
  0
LINE
  5
2A8B
330
2A6C
100
AcDbEntity
  8
図枠太線
  6
Continuous
 62
   251
100
AcDbLine
 10
3.577871882961062
 20
2.820844689254272
 30
0.0
 11
283.5778718829611
 21
2.820844689254272
 31
0.0
  0
LINE
  5
2A8C
330
2A6C
100
AcDbEntity
  8
図枠太線
  6
Continuous
 62
   251
100
AcDbLine
 10
3.577871882961062
 20
2.820844689254271
 30
0.0
 11
3.577871882961062
 21
32.82084268925428
 31
0.0
  0
ENDBLK
  5
2A8D
330
2A6C
100
AcDbEntity
  8
0
100
AcDbBlockEnd
  0
BLOCK
  5
2ADA
330
2AD6
100
AcDbEntity
  8
0
 48
10.0
100
AcDbBlockBegin
  2
_Open30
 70
     0
 10
0.0
 20
0.0
 30
0.0
  3
_Open30
  1

  0
LINE
  5
2AD7
330
2AD6
100
AcDbEntity
  8
0
  6
ByBlock
 62
     0
370
    -2
100
AcDbLine
 10
-1.0
 20
0.26794919
 30
0.0
 11
0.0
 21
0.0
 31
0.0
  0
LINE
  5
2AD8
330
2AD6
100
AcDbEntity
  8
0
  6
ByBlock
 62
     0
370
    -2
100
AcDbLine
 10
0.0
 20
0.0
 30
0.0
 11
-1.0
 21
-0.26794919
 31
0.0
  0
LINE
  5
2AD9
330
2AD6
100
AcDbEntity
  8
0
  6
ByBlock
 62
     0
370
    -2
100
AcDbLine
 10
0.0
 20
0.0
 30
0.0
 11
-1.0
 21
0.0
 31
0.0
  0
ENDBLK
  5
2ADB
330
2AD6
100
AcDbEntity
  8
0
 48
10.0
100
AcDbBlockEnd
  0
BLOCK
  5
317E
330
3174
100
AcDbEntity
  8
0
 48
10.0
100
AcDbBlockBegin
  2
*D8
 70
     1
 10
0.0
 20
0.0
 30
0.0
  3
*D8
  1

  0
LINE
  5
3201
330
3174
100
AcDbEntity
  8
寸法線
 62
     0
 48
10.0
370
    -2
100
AcDbLine
 10
273.2456597345349
 20
67.31556189629827
 30
0.0
 11
273.2456597345349
 21
42.45333031695281
 31
0.0
  0
LINE
  5
3202
330
3174
100
AcDbEntity
  8
寸法線
 62
     0
 48
10.0
370
    -2
100
AcDbLine
 10
327.2456597345349
 20
67.31556189629827
 30
0.0
 11
327.2456597345349
 21
42.45333031695281
 31
0.0
  0
LINE
  5
3203
330
3174
100
AcDbEntity
  8
寸法線
 62
     0
 48
10.0
370
    -2
100
AcDbLine
 10
279.2456597345349
 20
43.70333031695281
 30
0.0
 11
321.2456597345349
 21
43.70333031695281
 31
0.0
  0
INSERT
  5
3204
330
3174
100
AcDbEntity
  8
寸法線
 62
     0
 48
10.0
370
    -2
100
AcDbBlockReference
  2
_Open30
 10
273.2456597345349
 20
43.70333031695281
 30
0.0
 41
6.0
 42
6.0
 43
6.0
 50
180.0
  0
INSERT
  5
3205
330
3174
100
AcDbEntity
  8
寸法線
 62
     0
 48
10.0
370
    -2
100
AcDbBlockReference
  2
_Open30
 10
327.2456597345349
 20
43.70333031695281
 30
0.0
 41
6.0
 42
6.0
 43
6.0
  0
MTEXT
  5
3206
330
3174
100
AcDbEntity
  8
寸法線
 62
     0
 48
10.0
100
AcDbMText
 10
300.2456597345349
 20
48.32833031695281
 30
0.0
 40
8.0
 41
0.0
 71
     5
 72
     1
  1
\A1;φ54
 73
     1
 44
1.0
  0
POINT
  5
3207
330
3174
100
AcDbEntity
  8
DEFPOINTS
 62
     0
 48
10.0
100
AcDbPoint
 10
273.2456597345349
 20
67.94056189629827
 30
0.0
  0
POINT
  5
3208
330
3174
100
AcDbEntity
  8
DEFPOINTS
 62
     0
 48
10.0
100
AcDbPoint
 10
327.2456597345349
 20
67.94056189629827
 30
0.0
  0
POINT
  5
3209
330
3174
100
AcDbEntity
  8
DEFPOINTS
 62
     0
 48
10.0
100
AcDbPoint
 10
327.2456597345349
 20
43.70333031695281
 30
0.0
  0
ENDBLK
  5
317F
330
3174
100
AcDbEntity
  8
0
 48
10.0
100
AcDbBlockEnd
  0
BLOCK
  5
31A2
330
3198
100
AcDbEntity
  8
0
 48
10.0
100
AcDbBlockBegin
  2
*D9
 70
     1
 10
0.0
 20
0.0
 30
0.0
  3
*D9
  1

  0
LINE
  5
31E6
330
3198
100
AcDbEntity
  8
寸法線
 62
     0
 48
10.0
370
    -2
100
AcDbLine
 10
267.6956597345343
 20
127.9405618962982
 30
0.0
 11
226.6295992107923
 21
127.9405618962982
 31
0.0
  0
LINE
  5
31E7
330
3198
100
AcDbEntity
  8
寸法線
 62
     0
 48
10.0
370
    -2
100
AcDbLine
 10
272.6206597345353
 20
67.94056189629827
 30
0.0
 11
226.6295992107923
 21
67.94056189629827
 31
0.0
  0
LINE
  5
31E8
330
3198
100
AcDbEntity
  8
寸法線
 62
     0
 48
10.0
370
    -2
100
AcDbLine
 10
227.8795992107923
 20
121.9405618962982
 30
0.0
 11
227.8795992107923
 21
73.94056189629828
 31
0.0
  0
INSERT
  5
31E9
330
3198
100
AcDbEntity
  8
寸法線
 62
     0
 48
10.0
370
    -2
100
AcDbBlockReference
  2
_Open30
 10
227.8795992107923
 20
127.9405618962982
 30
0.0
 41
6.0
 42
6.0
 43
6.0
 50
90.0
  0
INSERT
  5
31EA
330
3198
100
AcDbEntity
  8
寸法線
 62
     0
 48
10.0
370
    -2
100
AcDbBlockReference
  2
_Open30
 10
227.8795992107923
 20
67.94056189629827
 30
0.0
 41
6.0
 42
6.0
 43
6.0
 50
270.0
  0
MTEXT
  5
31EB
330
3198
100
AcDbEntity
  8
寸法線
 62
     0
 48
10.0
100
AcDbMText
 10
223.2545992107923
 20
97.94056189629833
 30
0.0
 40
8.0
 41
0.0
 71
     5
 72
     1
  1
\A1;60
 11
0.0000000000000001
 21
1.0
 31
0.0
 73
     1
 44
1.0
  0
POINT
  5
31EC
330
3198
100
AcDbEntity
  8
DEFPOINTS
 62
     0
 48
10.0
100
AcDbPoint
 10
268.3206597345343
 20
127.9405618962982
 30
0.0
  0
POINT
  5
31ED
330
3198
100
AcDbEntity
  8
DEFPOINTS
 62
     0
 48
10.0
100
AcDbPoint
 10
273.2456597345354
 20
67.94056189629827
 30
0.0
  0
POINT
  5
31EE
330
3198
100
AcDbEntity
  8
DEFPOINTS
 62
     0
 48
10.0
100
AcDbPoint
 10
227.8795992107923
 20
67.94056189629827
 30
0.0
  0
ENDBLK
  5
31A3
330
3198
100
AcDbEntity
  8
0
 48
10.0
100
AcDbBlockEnd
  0
BLOCK
  5
31AE
330
31A4
100
AcDbEntity
  8
0
 48
10.0
100
AcDbBlockBegin
  2
*D10
 70
     1
 10
0.0
 20
0.0
 30
0.0
  3
*D10
  1

  0
LINE
  5
31DD
330
31A4
100
AcDbEntity
  8
寸法線
 62
     0
 48
10.0
370
    -2
100
AcDbLine
 10
269.8206597345347
 20
112.9405618962983
 30
0.0
 11
247.0808255244883
 21
112.9405618962983
 31
0.0
  0
LINE
  5
31DE
330
31A4
100
AcDbEntity
  8
寸法線
 62
     0
 48
10.0
370
    -2
100
AcDbLine
 10
267.6956597345347
 20
127.9405618962982
 30
0.0
 11
247.0808255244883
 21
127.9405618962982
 31
0.0
  0
LINE
  5
31DF
330
31A4
100
AcDbEntity
  8
寸法線
 62
     0
 48
10.0
370
    -2
100
AcDbLine
 10
248.3308255244883
 20
118.9405618962982
 30
0.0
 11
248.3308255244883
 21
121.9405618962982
 31
0.0
  0
INSERT
  5
31E0
330
31A4
100
AcDbEntity
  8
寸法線
 62
     0
 48
10.0
370
    -2
100
AcDbBlockReference
  2
_Open30
 10
248.3308255244883
 20
112.9405618962983
 30
0.0
 41
6.0
 42
6.0
 43
6.0
 50
270.0
  0
INSERT
  5
31E1
330
31A4
100
AcDbEntity
  8
寸法線
 62
     0
 48
10.0
370
    -2
100
AcDbBlockReference
  2
_Open30
 10
248.3308255244883
 20
127.9405618962982
 30
0.0
 41
6.0
 42
6.0
 43
6.0
 50
90.0
  0
MTEXT
  5
31E2
330
31A4
100
AcDbEntity
  8
寸法線
 62
     0
 48
10.0
100
AcDbMText
 10
243.7058255244883
 20
120.4405618962983
 30
0.0
 40
8.0
 41
0.0
 71
     5
 72
     1
  1
\A1;15
 11
0.0000000000000001
 21
1.0
 31
0.0
 73
     1
 44
1.0
  0
POINT
  5
31E3
330
31A4
100
AcDbEntity
  8
DEFPOINTS
 62
     0
 48
10.0
100
AcDbPoint
 10
270.4456597345347
 20
112.9405618962983
 30
0.0
  0
POINT
  5
31E4
330
31A4
100
AcDbEntity
  8
DEFPOINTS
 62
     0
 48
10.0
100
AcDbPoint
 10
268.3206597345347
 20
127.9405618962982
 30
0.0
  0
POINT
  5
31E5
330
31A4
100
AcDbEntity
  8
DEFPOINTS
 62
     0
 48
10.0
100
AcDbPoint
 10
248.3308255244883
 20
127.9405618962982
 30
0.0
  0
ENDBLK
  5
31AF
330
31A4
100
AcDbEntity
  8
0
 48
10.0
100
AcDbBlockEnd
  0
BLOCK
  5
34D7
330
34CD
100
AcDbEntity
  8
0
 48
10.0
100
AcDbBlockBegin
  2
*D11
 70
     1
 10
0.0
 20
0.0
 30
0.0
  3
*D11
  1

  0
LINE
  5
351B
330
34CD
100
AcDbEntity
  8
寸法線
 62
     0
 48
10.0
370
    -2
100
AcDbLine
 10
345.0005722717521
 20
274.270060492627
 30
0.0
 11
409.7054161024801
 21
274.2700604926269
 31
0.0
  0
LINE
  5
351C
330
34CD
100
AcDbEntity
  8
寸法線
 62
     0
 48
10.0
370
    -2
100
AcDbLine
 10
333.420659734534
 20
127.9405618962982
 30
0.0
 11
409.7054161024801
 21
127.9405618962982
 31
0.0
  0
LINE
  5
351D
330
34CD
100
AcDbEntity
  8
寸法線
 62
     0
 48
10.0
370
    -2
100
AcDbLine
 10
408.4554161024802
 20
268.2700604926269
 30
0.0
 11
408.4554161024802
 21
133.9405618962982
 31
0.0
  0
INSERT
  5
351E
330
34CD
100
AcDbEntity
  8
寸法線
 62
     0
 48
10.0
370
    -2
100
AcDbBlockReference
  2
_Open30
 10
408.4554161024802
 20
274.2700604926269
 30
0.0
 41
6.0
 42
6.0
 43
6.0
 50
90.0
  0
INSERT
  5
351F
330
34CD
100
AcDbEntity
  8
寸法線
 62
     0
 48
10.0
370
    -2
100
AcDbBlockReference
  2
_Open30
 10
408.4554161024801
 20
127.9405618962982
 30
0.0
 41
6.0
 42
6.0
 43
6.0
 50
270.0
  0
MTEXT
  5
3520
330
34CD
100
AcDbEntity
  8
寸法線
 62
     0
 48
10.0
100
AcDbMText
 10
403.8304161024801
 20
197.2230618962984
 30
0.0
 40
8.0
 41
0.0
 71
     5
 72
     1
  1
\A1;148
 11
0.0000000000000001
 21
1.0
 31
0.0
 73
     1
 44
1.0
  0
POINT
  5
3521
330
34CD
100
AcDbEntity
  8
DEFPOINTS
 62
     0
 48
10.0
100
AcDbPoint
 10
344.3755722717521
 20
274.270060492627
 30
0.0
  0
POINT
  5
3522
330
34CD
100
AcDbEntity
  8
DEFPOINTS
 62
     0
 48
10.0
100
AcDbPoint
 10
332.795659734534
 20
127.9405618962982
 30
0.0
  0
POINT
  5
3523
330
34CD
100
AcDbEntity
  8
DEFPOINTS
 62
     0
 48
10.0
100
AcDbPoint
 10
408.4554161024801
 20
127.9405618962982
 30
0.0
  0
ENDBLK
  5
34D8
330
34CD
100
AcDbEntity
  8
0
 48
10.0
100
AcDbBlockEnd
  0
BLOCK
  5
34E3
330
34D9
100
AcDbEntity
  8
0
 48
10.0
100
AcDbBlockBegin
  2
*D12
 70
     1
 10
0.0
 20
0.0
 30
0.0
  3
*D12
  1

  0
LINE
  5
3512
330
34D9
100
AcDbEntity
  8
寸法線
 62
     0
 48
10.0
370
    -2
100
AcDbLine
 10
212.825659734535
 20
207.3650604926268
 30
0.0
 11
212.825659734535
 21
294.0726920079455
 31
0.0
  0
LINE
  5
3513
330
34D9
100
AcDbEntity
  8
寸法線
 62
     0
 48
10.0
370
    -2
100
AcDbLine
 10
300.2840327999708
 20
271.8950604926269
 30
0.0
 11
300.2840327999708
 21
294.0726920079455
 31
0.0
  0
LINE
  5
3514
330
34D9
100
AcDbEntity
  8
寸法線
 62
     0
 48
10.0
370
    -2
100
AcDbLine
 10
218.825659734535
 20
292.8226920079455
 30
0.0
 11
294.2840327999708
 21
292.8226920079455
 31
0.0
  0
INSERT
  5
3515
330
34D9
100
AcDbEntity
  8
寸法線
 62
     0
 48
10.0
370
    -2
100
AcDbBlockReference
  2
_Open30
 10
212.825659734535
 20
292.8226920079455
 30
0.0
 41
6.0
 42
6.0
 43
6.0
 50
180.0
  0
INSERT
  5
3516
330
34D9
100
AcDbEntity
  8
寸法線
 62
     0
 48
10.0
370
    -2
100
AcDbBlockReference
  2
_Open30
 10
300.2840327999708
 20
292.8226920079455
 30
0.0
 41
6.0
 42
6.0
 43
6.0
  0
MTEXT
  5
3517
330
34D9
100
AcDbEntity
  8
寸法線
 62
     0
 48
10.0
100
AcDbMText
 10
256.5548462672529
 20
297.4476920079455
 30
0.0
 40
8.0
 41
0.0
 71
     5
 72
     1
  1
\A1;84
 73
     1
 44
1.0
  0
POINT
  5
3518
330
34D9
100
AcDbEntity
  8
DEFPOINTS
 62
     0
 48
10.0
100
AcDbPoint
 10
212.825659734535
 20
206.7400604926268
 30
0.0
  0
POINT
  5
3519
330
34D9
100
AcDbEntity
  8
DEFPOINTS
 62
     0
 48
10.0
100
AcDbPoint
 10
300.2840327999708
 20
271.2700604926269
 30
0.0
  0
POINT
  5
351A
330
34D9
100
AcDbEntity
  8
DEFPOINTS
 62
     0
 48
10.0
100
AcDbPoint
 10
300.2840327999708
 20
292.8226920079455
 30
0.0
  0
ENDBLK
  5
34E4
330
34D9
100
AcDbEntity
  8
0
 48
10.0
100
AcDbBlockEnd
  0
ENDSEC
  0
SECTION
  2
ENTITIES
  0
LINE
  5
30B4
330
1A
100
AcDbEntity
  8
外形線
 48
10.0
100
AcDbLine
 10
273.2456597345354
 20
67.94056189629827
 30
0.0
 11
327.2456597345354
 21
67.94056189629827
 31
0.0
  0
LINE
  5
30B5
330
1A
100
AcDbEntity
  8
外形線
 48
10.0
100
AcDbLine
 10
327.2456597345349
 20
112.9405618962983
 30
0.0
 11
273.2456597345349
 21
112.9405618962983
 31
0.0
  0
LINE
  5
30B6
330
1A
100
AcDbEntity
  8
外形線
 48
10.0
100
AcDbLine
 10
270.4456597345347
 20
112.9405618962983
 30
0.0
 11
330.0456597345342
 21
112.9405618962983
 31
0.0
  0
LINE
  5
30B7
330
1A
100
AcDbEntity
  8
外形線
 48
10.0
100
AcDbLine
 10
270.4456597345347
 20
127.9405618962982
 30
0.0
 11
330.0456597345342
 21
127.9405618962982
 31
0.0
  0
LINE
  5
30B8
330
1A
100
AcDbEntity
  8
外形線
 48
10.0
100
AcDbLine
 10
268.3206597345347
 20
125.5805618962984
 30
0.0
 11
332.1706597345342
 21
125.5805618962984
 31
0.0
  0
LINE
  5
30BA
330
1A
100
AcDbEntity
  8
外形線
 48
10.0
100
AcDbLine
 10
268.3206597345343
 20
127.9405618962982
 30
0.0
 11
332.1706597345346
 21
127.9405618962982
 31
0.0
  0
LINE
  5
30BB
330
1A
100
AcDbEntity
  8
外形線
 48
10.0
100
AcDbLine
 10
268.3206597345343
 20
125.5805618962984
 30
0.0
 11
332.1706597345346
 21
125.5805618962984
 31
0.0
  0
LINE
  5
30BC
330
1A
100
AcDbEntity
  8
外形線
 48
10.0
100
AcDbLine
 10
270.4456597345343
 20
125.5805618962984
 30
0.0
 11
330.0456597345347
 21
125.5805618962984
 31
0.0
  0
LINE
  5
30BD
330
1A
100
AcDbEntity
  8
外形線
 48
10.0
100
AcDbLine
 10
273.2456597345349
 20
112.9405618962983
 30
0.0
 11
273.2456597345349
 21
80.94056189629828
 31
0.0
  0
LINE
  5
30BE
330
1A
100
AcDbEntity
  8
外形線
 48
10.0
100
AcDbLine
 10
273.2456597345349
 20
112.9405618962983
 30
0.0
 11
273.2456597345349
 21
67.94056189629831
 31
0.0
  0
MTEXT
  5
30BF
330
1A
100
AcDbEntity
  8
寸法線
 48
10.0
100
AcDbMText
 10
365.2873145644822
 20
91.21706277540102
 30
0.0
 40
8.0
 41
86.8602
 71
     9
 72
     1
  1
G2"
 73
     1
 44
1.0
  0
LINE
  5
30C0
330
1A
100
AcDbEntity
  8
細線
 48
10.0
100
AcDbLine
 10
271.9206597345342
 20
125.5805618962984
 30
0.0
 11
271.9206597345342
 21
112.9405618962983
 31
0.0
  0
LINE
  5
30C1
330
1A
100
AcDbEntity
  8
外形線
 48
10.0
100
AcDbLine
 10
270.4456597345347
 20
125.5805618962984
 30
0.0
 11
270.4456597345347
 21
112.9405618962983
 31
0.0
  0
LINE
  5
30C3
330
1A
100
AcDbEntity
  8
外形線
 48
10.0
100
AcDbLine
 10
268.3206597345343
 20
125.5805618962984
 30
0.0
 11
268.3206597345343
 21
127.9405618962982
 31
0.0
  0
LINE
  5
30C4
330
1A
100
AcDbEntity
  8
外形線
 48
10.0
100
AcDbLine
 10
327.2456597345349
 20
67.94056189629831
 30
0.0
 11
327.2456597345349
 21
112.9405618962983
 31
0.0
  0
LINE
  5
30C5
330
1A
100
AcDbEntity
  8
細線
 48
10.0
100
AcDbLine
 10
328.5706597345347
 20
125.5805618962984
 30
0.0
 11
328.5706597345347
 21
112.9405618962983
 31
0.0
  0
LINE
  5
30C6
330
1A
100
AcDbEntity
  8
外形線
 48
10.0
100
AcDbLine
 10
330.0456597345342
 20
125.5805618962984
 30
0.0
 11
330.0456597345342
 21
112.9405618962983
 31
0.0
  0
LINE
  5
30C8
330
1A
100
AcDbEntity
  8
外形線
 48
10.0
100
AcDbLine
 10
332.1706597345346
 20
125.5805618962984
 30
0.0
 11
332.1706597345346
 21
127.9405618962982
 31
0.0
  0
DIMENSION
  5
316C
330
1A
100
AcDbEntity
  8
寸法線
 48
10.0
100
AcDbDimension
  2
*D8
 10
327.2456597345349
 20
43.70333031695281
 30
0.0
 11
300.2456597345349
 21
48.32833031695281
 31
0.0
 70
    32
  1
φ<>
 71
     5
 42
54.0
  3
ISO-25
100
AcDbAlignedDimension
 13
273.2456597345349
 23
67.94056189629827
 33
0.0
 14
327.2456597345349
 24
67.94056189629827
 34
0.0
100
AcDbRotatedDimension
1001
ACAD
1000
DSTYLE
1002
{
1070
    41
1040
6.0
1070
    47
1040
0.1
1070
    48
1040
0.1
1070
    73
1070
     0
1070
   140
1040
8.0
1070
   271
1070
     1
1070
   272
1070
     1
1070
   341
1005
2AD6
1070
   342
1005
2AD6
1002
}
  0
LEADER
  5
3171
330
1A
100
AcDbEntity
  8
寸法線
 48
10.0
100
AcDbLeader
  3
ISO-25
 76
     3
 10
330.0456597345342
 20
120.4405618962983
 30
0.0
 10
350.6391963053463
 20
90.84923678460018
 30
0.0
 10
365.2985526657676
 20
90.84923678460018
 30
0.0
1001
ACAD
1000
DSTYLE
1002
{
1070
   147
1040
0.625
1070
    77
1070
     0
1070
    41
1040
6.0
1070
    47
1040
0.1
1070
    48
1040
0.1
1070
    73
1070
     0
1070
   140
1040
5.0
1070
   271
1070
     1
1070
   272
1070
     1
1070
   341
1005
2AD6
1070
   342
1005
2AD6
1002
}
  0
DIMENSION
  5
3172
330
1A
100
AcDbEntity
  8
寸法線
 48
10.0
100
AcDbDimension
  2
*D9
 10
227.8795992107923
 20
67.94056189629827
 30
0.0
 11
223.2545992107923
 21
97.94056189629833
 31
0.0
 70
    32
 71
     5
 42
60.0
  3
ISO-25
100
AcDbAlignedDimension
 13
268.3206597345343
 23
127.9405618962982
 33
0.0
 14
273.2456597345354
 24
67.94056189629827
 34
0.0
 50
90.0
100
AcDbRotatedDimension
1001
ACAD
1000
DSTYLE
1002
{
1070
    41
1040
6.0
1070
    47
1040
0.1
1070
    48
1040
0.1
1070
    73
1070
     0
1070
   140
1040
8.0
1070
   271
1070
     1
1070
   272
1070
     1
1070
   341
1005
2AD6
1070
   342
1005
2AD6
1002
}
  0
DIMENSION
  5
3173
330
1A
100
AcDbEntity
  8
寸法線
 48
10.0
100
AcDbDimension
  2
*D10
 10
248.3308255244883
 20
127.9405618962982
 30
0.0
 11
243.7058255244883
 21
120.4405618962983
 31
0.0
 70
    32
 71
     5
 42
15.0
  3
ISO-25
100
AcDbAlignedDimension
 13
270.4456597345347
 23
112.9405618962983
 33
0.0
 14
268.3206597345347
 24
127.9405618962982
 34
0.0
 50
90.0
100
AcDbRotatedDimension
1001
ACAD
1000
DSTYLE
1002
{
1070
    41
1040
6.0
1070
    47
1040
0.1
1070
    48
1040
0.1
1070
    73
1070
     0
1070
   140
1040
8.0
1070
   271
1070
     1
1070
   272
1070
     1
1070
   341
1005
2AD6
1070
   342
1005
2AD6
1002
}
  0
LINE
  5
339A
330
1A
100
AcDbEntity
  8
寸法線
 48
10.0
100
AcDbLine
 10
352.5787818854026
 20
-6.866563267018307
 30
0.0
 11
357.4790763794882
 21
-6.866563267018307
 31
0.0
  0
MTEXT
  5
339B
330
1A
100
AcDbEntity
  8
寸法線
 48
10.0
100
AcDbMText
 10
341.7453384186101
 20
-113.8932401516994
 30
0.0
 40
8.0
 41
33.39474293429237
 71
     5
 72
     1
  1
リレー2
 73
     1
 44
1.0
  0
LINE
  5
339C
330
1A
100
AcDbEntity
  8
寸法線
 48
10.0
100
AcDbLine
 10
352.9832128282026
 20
-64.69332694081021
 30
0.0
 11
363.6016209888412
 21
-64.69332694081015
 31
0.0
  0
LINE
  5
339D
330
1A
100
AcDbEntity
  8
寸法線
 48
10.0
100
AcDbLine
 10
343.6016209888415
 20
-76.69573937418149
 30
0.0
 11
354.830943278851
 21
-62.32941862822122
 31
0.0
  0
LINE
  5
339E
330
1A
100
AcDbEntity
  8
寸法線
 48
10.0
100
AcDbLine
 10
323.6016209888414
 20
-64.69332694081021
 30
0.0
 11
334.2200291494801
 21
-64.69332694081021
 31
0.0
  0
LINE
  5
339F
330
1A
100
AcDbEntity
  8
寸法線
 48
10.0
100
AcDbLine
 10
323.6016209888414
 20
-87.15102079729252
 30
0.0
 11
323.6016209888414
 21
-64.69332694081021
 31
0.0
  0
LINE
  5
33A0
330
1A
100
AcDbEntity
  8
寸法線
 48
10.0
100
AcDbLine
 10
363.6016209888413
 20
-87.1510207972924
 30
0.0
 11
363.6016209888415
 21
-64.69332694081021
 31
0.0
  0
LINE
  5
33A1
330
1A
100
AcDbEntity
  8
寸法線
 48
10.0
100
AcDbLine
 10
343.6016209888413
 20
-87.15102079729247
 30
0.0
 11
343.6016209888415
 21
-76.69573937418149
 31
0.0
  0
LINE
  5
33A2
330
1A
100
AcDbEntity
  8
外形線
 48
10.0
100
AcDbLine
 10
373.6016209888412
 20
-107.1510207972925
 30
0.0
 11
373.601620988841
 21
-87.15102079729232
 31
0.0
  0
MTEXT
  5
33A3
330
1A
100
AcDbEntity
  8
寸法線
 48
10.0
100
AcDbMText
 10
240.8732525559829
 20
17.0349984254006
 30
0.0
 40
8.0
 41
5.627771529092569
 71
     1
 72
     5
  1
u
 73
     1
 44
1.0
  0
MTEXT
  5
33A4
330
1A
100
AcDbEntity
  8
寸法線
 48
10.0
100
AcDbMText
 10
242.3151201778564
 20
-27.8777093995319
 30
0.0
 40
8.0
 41
33.39474293429237
 71
     5
 72
     1
  1
{\H1.5x;1　2}
 73
     1
 44
1.0
  0
LINE
  5
33A5
330
1A
100
AcDbEntity
  8
外形線
 48
10.0
100
AcDbLine
 10
222.1048523445877
 20
-17.32184469012929
 30
0.0
 11
222.1048523445877
 21
-37.3218446901293
 31
0.0
  0
LINE
  5
33A6
330
1A
100
AcDbEntity
  8
外形線
 48
10.0
100
AcDbLine
 10
262.1048523445877
 20
-37.3218446901293
 30
0.0
 11
262.1048523445875
 21
-17.32184469012918
 31
0.0
  0
LINE
  5
33A7
330
1A
100
AcDbEntity
  8
外形線
 48
10.0
100
AcDbLine
 10
222.1048523445877
 20
-37.3218446901293
 30
0.0
 11
262.1048523445877
 21
-37.32184469012935
 31
0.0
  0
LINE
  5
33A8
330
1A
100
AcDbEntity
  8
外形線
 48
10.0
100
AcDbLine
 10
242.1048523445877
 20
-37.3218446901293
 30
0.0
 11
242.1048523445877
 21
-17.32184469012929
 31
0.0
  0
LINE
  5
33A9
330
1A
100
AcDbEntity
  8
外形線
 48
10.0
100
AcDbLine
 10
222.1048523445877
 20
-17.32184469012929
 30
0.0
 11
262.1048523445872
 21
-17.32184469012918
 31
0.0
  0
LINE
  5
33AB
330
1A
100
AcDbEntity
  8
外形線
 48
10.0
100
AcDbLine
 10
333.3456597345338
 20
149.2405618962982
 30
0.0
 11
267.1456597345348
 21
149.2405618962982
 31
0.0
  0
LINE
  5
33AC
330
1A
100
AcDbEntity
  8
外形線
 48
10.0
100
AcDbLine
 10
300.2456597345343
 20
149.2405618962982
 30
0.0
 11
333.3456597345338
 21
149.2405618962982
 31
0.0
  0
LINE
  5
33AD
330
1A
100
AcDbEntity
  8
外形線
 48
10.0
100
AcDbLine
 10
333.3456597345338
 20
149.2405618962982
 30
0.0
 11
339.5456597345344
 21
145.6905618962985
 31
0.0
  0
ARC
  5
33AE
330
1A
100
AcDbEntity
  8
外形線
 48
10.0
100
AcDbCircle
 10
329.7081597345348
 20
133.8350821427768
 30
0.0
 40
15.40547975352145
100
AcDbArc
 50
50.31461937841433
 51
129.6853806215857
  0
ARC
  5
33AF
330
1A
100
AcDbEntity
  8
外形線
 48
10.0
100
AcDbCircle
 10
300.2456597345343
 20
93.220403445594
 30
0.0
 40
56.02015845070423
100
AcDbArc
 50
69.4930912564823
 51
110.5069087435177
  0
LINE
  5
33B0
330
1A
100
AcDbEntity
  8
外形線
 48
10.0
100
AcDbLine
 10
260.9456597345341
 20
145.6905618962982
 30
0.0
 11
267.1456597345348
 21
149.2405618962982
 31
0.0
  0
ARC
  5
33B1
330
1A
100
AcDbEntity
  8
外形線
 48
10.0
100
AcDbCircle
 10
270.7831597345337
 20
133.8350821427775
 30
0.0
 40
15.40547975352081
100
AcDbArc
 50
50.31461937840568
 51
129.6853806215943
  0
ARC
  5
33B3
330
1A
100
AcDbEntity
  8
外形線
 48
10.0
100
AcDbCircle
 10
329.7081597345348
 20
143.3460416498194
 30
0.0
 40
15.40547975352115
100
AcDbArc
 50
230.3146193784056
 51
309.6853806215943
  0
ARC
  5
33B6
330
1A
100
AcDbEntity
  8
外形線
 48
10.0
100
AcDbCircle
 10
270.7831597345347
 20
143.3460416498189
 30
0.0
 40
15.4054797535208
100
AcDbArc
 50
230.3146193784056
 51
309.6853806215943
  0
ARC
  5
33BB
330
1A
100
AcDbEntity
  8
外形線
 48
10.0
100
AcDbCircle
 10
300.2456597345343
 20
183.9607203470025
 30
0.0
 40
56.02015845070423
100
AcDbArc
 50
249.4930912564754
 51
290.5069087435176
  0
LINE
  5
33BD
330
1A
100
AcDbEntity
  8
外形線
 48
10.0
100
AcDbLine
 10
270.4456597345346
 20
127.9405618962982
 30
0.0
 11
330.045659734534
 21
127.9405618962982
 31
0.0
  0
LINE
  5
33BE
330
1A
100
AcDbEntity
  8
外形線
 48
10.0
100
AcDbLine
 10
280.6206597345343
 20
131.4905618962982
 30
0.0
 11
280.6206597345343
 21
145.6905618962982
 31
0.0
  0
LINE
  5
33BF
330
1A
100
AcDbEntity
  8
外形線
 48
10.0
100
AcDbLine
 10
319.8706597345343
 20
131.4905618962982
 30
0.0
 11
319.8706597345343
 21
145.6905618962982
 31
0.0
  0
LINE
  5
33C0
330
1A
100
AcDbEntity
  8
外形線
 48
10.0
100
AcDbLine
 10
339.5456597345344
 20
131.4905618962982
 30
0.0
 11
339.5456597345344
 21
145.6905618962982
 31
0.0
  0
LINE
  5
33C1
330
1A
100
AcDbEntity
  8
外形線
 48
10.0
100
AcDbLine
 10
339.5456597345344
 20
145.6905618962985
 30
0.0
 11
339.5456597345344
 21
131.4905618962984
 31
0.0
  0
LINE
  5
33C2
330
1A
100
AcDbEntity
  8
外形線
 48
10.0
100
AcDbLine
 10
260.9456597345341
 20
131.4905618962982
 30
0.0
 11
260.9456597345341
 21
145.6905618962982
 31
0.0
  0
LINE
  5
33C3
330
1A
100
AcDbEntity
  8
外形線
 48
10.0
100
AcDbLine
 10
260.9456597345341
 20
145.6905618962982
 30
0.0
 11
260.9456597345341
 21
131.4905618962982
 31
0.0
  0
LINE
  5
33D1
330
1A
100
AcDbEntity
  8
中心線
 48
10.0
100
AcDbLine
 10
300.2456597345347
 20
55.15166376976504
 30
0.0
 11
300.2456597345338
 21
275.6535774101188
 31
0.0
  0
DIMENSION
  5
33D2
330
1A
100
AcDbEntity
  8
寸法線
 48
10.0
100
AcDbDimension
  2
*D11
 10
408.4554161024801
 20
127.9405618962982
 30
0.0
 11
408.4554161024801
 21
197.2230618962984
 31
0.0
 70
   160
  1
148
 71
     5
 42
146.3294985963287
  3
ISO-25
100
AcDbAlignedDimension
 13
344.3755722717521
 23
274.270060492627
 33
0.0
 14
332.795659734534
 24
127.9405618962982
 34
0.0
 50
90.0
100
AcDbRotatedDimension
1001
ACAD
1000
DSTYLE
1002
{
1070
    41
1040
6.0
1070
    47
1040
0.1
1070
    48
1040
0.1
1070
    73
1070
     0
1070
   140
1040
8.0
1070
   271
1070
     1
1070
   272
1070
     1
1070
   341
1005
2AD6
1070
   342
1005
2AD6
1002
}
  0
LINE
  5
33D3
330
1A
100
AcDbEntity
  8
外形線
 48
10.0
100
AcDbLine
 10
333.3456597345333
 20
149.2405618962982
 30
0.0
 11
267.1456597345344
 21
149.2405618962982
 31
0.0
  0
LINE
  5
33D4
330
1A
100
AcDbEntity
  8
外形線
 48
10.0
100
AcDbLine
 10
300.2456597345338
 20
149.2405618962982
 30
0.0
 11
333.3456597345333
 21
149.2405618962982
 31
0.0
  0
LEADER
  5
33D5
330
1A
100
AcDbEntity
  8
寸法線
 48
10.0
100
AcDbLeader
  3
ISO-25
 76
     3
 10
249.285307348273
 20
190.4561476422681
 30
0.0
 10
184.2083116149809
 20
134.0285358228474
 30
0.0
 10
139.767403766616
 20
134.0285358228474
 30
0.0
1001
ACAD
1000
DSTYLE
1002
{
1070
   147
1040
0.625
1070
    77
1070
     0
1070
    41
1040
6.0
1070
    47
1040
0.1
1070
    48
1040
0.1
1070
    73
1070
     0
1070
   140
1040
5.0
1070
   271
1070
     1
1070
   272
1070
     1
1070
   341
1005
2AD6
1070
   342
1005
2AD6
1002
}
  0
LEADER
  5
33D6
330
1A
100
AcDbEntity
  8
寸法線
 48
10.0
100
AcDbLeader
  3
ISO-25
 76
     3
 10
212.8256597345346
 20
197.2910761245823
 30
0.0
 10
182.1896301329259
 20
176.4930773254368
 30
0.0
 10
143.3761362141743
 20
176.4930773254368
 30
0.0
1001
ACAD
1000
DSTYLE
1002
{
1070
   147
1040
0.625
1070
    77
1070
     0
1070
    41
1040
6.0
1070
    47
1040
0.1
1070
    48
1040
0.1
1070
    73
1070
     0
1070
   140
1040
5.0
1070
   271
1070
     1
1070
   272
1070
     1
1070
   341
1005
2AD6
1070
   342
1005
2AD6
1002
}
  0
MTEXT
  5
33D7
330
1A
100
AcDbEntity
  8
寸法線
 48
10.0
100
AcDbMText
 10
181.0815258397813
 20
177.4033288010768
 30
0.0
 40
8.0
 41
86.8602315210046
 71
     9
 72
     1
  1
コードロック\P2× M20
 73
     1
 44
1.0
  0
MTEXT
  5
33D8
330
1A
100
AcDbEntity
  8
寸法線
 48
10.0
100
AcDbMText
 10
183.5336925831305
 20
135.0581239008226
 30
0.0
 40
8.0
 41
74.8795081853159
 71
     9
 72
     1
  1
\A1;2×NPT{\H0.7x;\S1#2;"}
 73
     1
 44
1.0
  0
DIMENSION
  5
33D9
330
1A
100
AcDbEntity
  8
寸法線
 48
10.0
100
AcDbDimension
  2
*D12
 10
300.2840327999708
 20
292.8226920079455
 30
0.0
 11
256.5548462672529
 21
297.4476920079455
 31
0.0
 70
    32
  1
84
 71
     5
 42
87.45837306543581
  3
ISO-25
100
AcDbAlignedDimension
 13
212.825659734535
 23
206.7400604926268
 33
0.0
 14
300.2840327999708
 24
271.2700604926269
 34
0.0
100
AcDbRotatedDimension
1001
ACAD
1000
DSTYLE
1002
{
1070
    41
1040
6.0
1070
    47
1040
0.1
1070
    48
1040
0.1
1070
    73
1070
     0
1070
   140
1040
8.0
1070
   271
1070
     1
1070
   272
1070
     1
1070
   341
1005
2AD6
1070
   342
1005
2AD6
1002
}
  0
LINE
  5
33DA
330
1A
100
AcDbEntity
  8
下書線
 48
10.0
100
AcDbLine
 10
238.7456597345346
 20
212.6200604926268
 30
0.0
 11
238.7456597345346
 21
181.9200604926268
 31
0.0
  0
LINE
  5
33DB
330
1A
100
AcDbEntity
  8
外形線
 48
10.0
100
AcDbLine
 10
231.7456597345346
 20
212.6200604926268
 30
0.0
 11
238.7456597345346
 21
212.6200604926268
 31
0.0
  0
LINE
  5
33DC
330
1A
100
AcDbEntity
  8
外形線
 48
10.0
100
AcDbLine
 10
219.8256597345345
 20
211.4700604926268
 30
0.0
 11
221.7256597345342
 21
212.6200604926268
 31
0.0
  0
LINE
  5
33DD
330
1A
100
AcDbEntity
  8
外形線
 48
10.0
100
AcDbLine
 10
219.8256597345345
 20
211.4700604926268
 30
0.0
 11
217.555659734535
 21
211.4700604926268
 31
0.0
  0
LINE
  5
33DE
330
1A
100
AcDbEntity
  8
外形線
 48
10.0
100
AcDbLine
 10
221.7256597345342
 20
212.6200604926268
 30
0.0
 11
230.345659734535
 21
212.6200604926268
 31
0.0
  0
LINE
  5
33DF
330
1A
100
AcDbEntity
  8
外形線
 48
10.0
100
AcDbLine
 10
238.7456597345346
 20
206.0200604926269
 30
0.0
 11
231.7456597345346
 21
206.0200604926267
 31
0.0
  0
LINE
  5
33E0
330
1A
100
AcDbEntity
  8
外形線
 48
10.0
100
AcDbLine
 10
238.7456597345346
 20
203.6200604926269
 30
0.0
 11
231.7456597345346
 21
203.6200604926269
 31
0.0
  0
LINE
  5
33E1
330
1A
100
AcDbEntity
  8
外形線
 48
10.0
100
AcDbLine
 10
231.7456597345346
 20
209.0700604926269
 30
0.0
 11
230.345659734535
 21
209.0700604926269
 31
0.0
  0
LINE
  5
33E2
330
1A
100
AcDbEntity
  8
外形線
 48
10.0
100
AcDbLine
 10
221.7256597345342
 20
206.0200604926267
 30
0.0
 11
221.7256597345342
 21
203.6200604926269
 31
0.0
  0
LINE
  5
33E3
330
1A
100
AcDbEntity
  8
外形線
 48
10.0
100
AcDbLine
 10
230.345659734535
 20
206.0200604926267
 30
0.0
 11
221.7256597345342
 21
206.0200604926267
 31
0.0
  0
LINE
  5
33E4
330
1A
100
AcDbEntity
  8
外形線
 48
10.0
100
AcDbLine
 10
230.345659734535
 20
203.6200604926269
 30
0.0
 11
221.7256597345342
 21
203.6200604926269
 31
0.0
  0
ARC
  5
33E5
330
1A
100
AcDbEntity
  8
外形線
 48
10.0
100
AcDbCircle
 10
223.6414492082187
 20
209.3200604926267
 30
0.0
 40
3.815789473684248
100
AcDbArc
 50
120.1369763189889
 51
239.863023681011
  0
ARC
  5
33E6
330
1A
100
AcDbEntity
  8
外形線
 48
10.0
100
AcDbCircle
 10
217.555659734535
 20
206.7400604926267
 30
0.0
 40
4.73
100
AcDbArc
 50
90.0
 51
180.0
  0
LINE
  5
33E7
330
1A
100
AcDbEntity
  8
外形線
 48
10.0
100
AcDbLine
 10
230.345659734535
 20
203.6215051836323
 30
0.0
 11
230.345659734535
 21
212.6200604926268
 31
0.0
  0
LINE
  5
33E8
330
1A
100
AcDbEntity
  8
外形線
 48
10.0
100
AcDbLine
 10
238.7456597345346
 20
190.9200604926268
 30
0.0
 11
231.7456597345346
 21
190.9200604926268
 31
0.0
  0
LINE
  5
33E9
330
1A
100
AcDbEntity
  8
外形線
 48
10.0
100
AcDbLine
 10
238.7456597345346
 20
188.5200604926269
 30
0.0
 11
231.7456597345346
 21
188.5200604926269
 31
0.0
  0
LINE
  5
33EA
330
1A
100
AcDbEntity
  8
外形線
 48
10.0
100
AcDbLine
 10
238.7456597345346
 20
181.9200604926268
 30
0.0
 11
231.7456597345346
 21
181.9200604926268
 31
0.0
  0
LINE
  5
33EB
330
1A
100
AcDbEntity
  8
外形線
 48
10.0
100
AcDbLine
 10
231.7456597345346
 20
185.470060492627
 30
0.0
 11
230.345659734535
 21
185.470060492627
 31
0.0
  0
LINE
  5
33EC
330
1A
100
AcDbEntity
  8
外形線
 48
10.0
100
AcDbLine
 10
230.345659734535
 20
181.9200604926268
 30
0.0
 11
230.345659734535
 21
203.6200604926271
 31
0.0
  0
LINE
  5
33ED
330
1A
100
AcDbEntity
  8
外形線
 48
10.0
100
AcDbLine
 10
231.7456597345346
 20
209.0700604926269
 30
0.0
 11
231.7456597345346
 21
185.470060492627
 31
0.0
  0
LINE
  5
33EE
330
1A
100
AcDbEntity
  8
外形線
 48
10.0
100
AcDbLine
 10
219.8256597345345
 20
183.0700604926269
 30
0.0
 11
221.7256597345342
 21
181.9200604926268
 31
0.0
  0
ARC
  5
33EF
330
1A
100
AcDbEntity
  8
外形線
 48
10.0
100
AcDbCircle
 10
223.6414492082196
 20
185.220060492627
 30
0.0
 40
3.815789473684264
100
AcDbArc
 50
120.1369763189889
 51
239.863023681011
  0
LINE
  5
33F0
330
1A
100
AcDbEntity
  8
外形線
 48
10.0
100
AcDbLine
 10
221.7256597345342
 20
190.9200604926268
 30
0.0
 11
221.7256597345342
 21
188.5200604926269
 31
0.0
  0
LINE
  5
33F1
330
1A
100
AcDbEntity
  8
外形線
 48
10.0
100
AcDbLine
 10
219.8256597345345
 20
183.0700604926269
 30
0.0
 11
217.555659734535
 21
183.0700604926269
 31
0.0
  0
ARC
  5
33F2
330
1A
100
AcDbEntity
  8
外形線
 48
10.0
100
AcDbCircle
 10
217.555659734535
 20
187.8000604926269
 30
0.0
 40
4.73
100
AcDbArc
 50
180.0
 51
270.0
  0
ARC
  5
33F3
330
1A
100
AcDbEntity
  8
外形線
 48
10.0
100
AcDbCircle
 10
231.3868439450609
 20
197.2700604926269
 30
0.0
 40
11.56118421052642
100
AcDbArc
 50
146.6843088868475
 51
213.3156911131525
  0
LINE
  5
33F4
330
1A
100
AcDbEntity
  8
外形線
 48
10.0
100
AcDbLine
 10
219.8256597345345
 20
203.6200604926269
 30
0.0
 11
219.8256597345345
 21
190.9200604926268
 31
0.0
  0
LINE
  5
33F5
330
1A
100
AcDbEntity
  8
外形線
 48
10.0
100
AcDbLine
 10
212.8256597345346
 20
206.7400604926267
 30
0.0
 11
212.8256597345346
 21
187.8000604926269
 31
0.0
  0
LINE
  5
33F6
330
1A
100
AcDbEntity
  8
外形線
 48
10.0
100
AcDbLine
 10
230.345659734535
 20
190.9200604926268
 30
0.0
 11
221.7256597345342
 21
190.9200604926268
 31
0.0
  0
LINE
  5
33F7
330
1A
100
AcDbEntity
  8
外形線
 48
10.0
100
AcDbLine
 10
230.345659734535
 20
181.9200604926268
 30
0.0
 11
221.7256597345342
 21
181.9200604926268
 31
0.0
  0
LINE
  5
33F8
330
1A
100
AcDbEntity
  8
外形線
 48
10.0
100
AcDbLine
 10
230.345659734535
 20
188.5200604926269
 30
0.0
 11
221.7256597345342
 21
188.5200604926269
 31
0.0
  0
LINE
  5
33F9
330
1A
100
AcDbEntity
  8
外形線
 48
10.0
100
AcDbLine
 10
219.8256597345345
 20
211.4700604926268
 30
0.0
 11
219.8256597345345
 21
183.0700604926269
 31
0.0
  0
LINE
  5
33FA
330
1A
100
AcDbEntity
  8
外形線
 48
10.0
100
AcDbLine
 10
219.8256597345345
 20
183.0700604926269
 30
0.0
 11
219.8256597345345
 21
211.4700604926268
 31
0.0
  0
LINE
  5
33FB
330
1A
100
AcDbEntity
  8
外形線
 48
10.0
100
AcDbLine
 10
231.7456597345346
 20
181.9200604926268
 30
0.0
 11
231.7456597345346
 21
212.6200604926268
 31
0.0
  0
ARC
  5
33FC
330
1A
100
AcDbEntity
  8
外形線
100
AcDbCircle
 10
342.1535128416755
 20
269.2700604926269
 30
0.0
 40
2.0
100
AcDbArc
 50
0.0
 51
90.0
  0
ARC
  5
33FD
330
1A
100
AcDbEntity
  8
外形線
100
AcDbCircle
 10
341.9417032298547
 20
271.2700604926269
 30
0.0
 40
3.0
100
AcDbArc
 50
0.0
 51
90.0
  0
ARC
  5
33FE
330
1A
100
AcDbEntity
  8
外形線
100
AcDbCircle
 10
344.3755722717521
 20
270.270060492627
 30
0.0
 40
4.0
100
AcDbArc
 50
2.99999999999909
 51
90.0
  0
ARC
  5
33FF
330
1A
100
AcDbEntity
  8
外形線
100
AcDbCircle
 10
336.0707347120915
 20
271.2700604926269
 30
0.0
 40
3.0
100
AcDbArc
 50
0.0
 51
90.0
  0
LINE
  5
3400
330
1A
100
AcDbEntity
  8
外形線
100
AcDbLine
 10
323.9010278809275
 20
273.8737616571369
 30
0.0
 11
321.9293315396932
 21
271.2700604926269
 31
0.0
  0
ARC
  5
3401
330
1A
100
AcDbEntity
  8
外形線
100
AcDbCircle
 10
325.732214353507
 20
271.2700604926269
 30
0.0
 40
3.0
100
AcDbArc
 50
0.0
 51
90.0
  0
ARC
  5
3402
330
1A
100
AcDbEntity
  8
外形線
100
AcDbCircle
 10
326.6865443464634
 20
269.770060492627
 30
0.0
 40
1.5
100
AcDbArc
 50
0.0
 51
90.0
  0
ARC
  5
3403
330
1A
100
AcDbEntity
  8
外形線
100
AcDbCircle
 10
324.698238583295
 20
273.2700604926269
 30
0.0
 40
1.0
100
AcDbArc
 50
90.0
 51
142.8645635297228
  0
LINE
  5
3404
330
1A
100
AcDbEntity
  8
外形線
100
AcDbLine
 10
324.698238583295
 20
274.270060492627
 30
0.0
 11
344.3755722717521
 21
274.270060492627
 31
0.0
  0
LINE
  5
3405
330
1A
100
AcDbEntity
  8
外形線
100
AcDbLine
 10
342.1535128416755
 20
271.2700604926269
 30
0.0
 11
339.0707347120915
 21
271.2700604926269
 31
0.0
  0
ARC
  5
3406
330
1A
100
AcDbEntity
  8
外形線
100
AcDbCircle
 10
319.0719603156626
 20
273.2700604926269
 30
0.0
 40
1.0
100
AcDbArc
 50
0.0
 51
90.0
  0
ARC
  5
3407
330
1A
100
AcDbEntity
  8
外形線
100
AcDbCircle
 10
306.2840327999708
 20
273.2700604926269
 30
0.0
 40
1.0
100
AcDbArc
 50
90.0
 51
180.0
  0
LINE
  5
3408
330
1A
100
AcDbEntity
  8
外形線
100
AcDbLine
 10
305.2840327999708
 20
271.2700604926269
 30
0.0
 11
300.2840327999708
 21
271.2700604926269
 31
0.0
  0
LINE
  5
3409
330
1A
100
AcDbEntity
  8
外形線
100
AcDbLine
 10
319.0719603156626
 20
274.270060492627
 30
0.0
 11
306.2840327999708
 21
274.270060492627
 31
0.0
  0
LINE
  5
340A
330
1A
100
AcDbEntity
  8
外形線
100
AcDbLine
 10
281.496105284279
 20
274.270060492627
 30
0.0
 11
294.2840327999708
 21
274.270060492627
 31
0.0
  0
ARC
  5
340B
330
1A
100
AcDbEntity
  8
外形線
100
AcDbCircle
 10
281.496105284279
 20
273.2700604926269
 30
0.0
 40
1.0
100
AcDbArc
 50
90.0
 51
180.0
  0
ARC
  5
340C
330
1A
100
AcDbEntity
  8
外形線
100
AcDbCircle
 10
294.2840327999708
 20
273.2700604926269
 30
0.0
 40
1.0
100
AcDbArc
 50
0.0
 51
90.0
  0
LINE
  5
340D
330
1A
100
AcDbEntity
  8
外形線
100
AcDbLine
 10
295.2840327999708
 20
271.2700604926269
 30
0.0
 11
300.2840327999708
 21
271.2700604926269
 31
0.0
  0
LINE
  5
340E
330
1A
100
AcDbEntity
  8
外形線
100
AcDbLine
 10
326.6865443464634
 20
271.2700604926269
 30
0.0
 11
320.0719603156626
 21
271.2700604926269
 31
0.0
  0
LWPOLYLINE
  5
340F
330
1A
100
AcDbEntity
  8
外形線
100
AcDbPolyline
 90
        8
 70
   128
 43
0.0
 10
-344.1535128416753
 20
253.270060492627
 10
-344.0974915115616
 20
252.2969926178252
 10
-343.9315657642837
 20
251.3610651613192
 10
-343.6620687157731
 20
250.4980009520387
 10
-343.2992866300923
 20
249.740741747264
 10
-342.8570663094646
 20
249.1181908993218
 10
-342.3522865843524
 20
248.6541101616332
 10
-341.8042140759473
 20
248.3662127412282
210
0.0
220
0.0
230
-1.0
  0
ARC
  5
3410
330
1A
100
AcDbEntity
  8
外形線
100
AcDbCircle
 10
350.4802534231966
 20
247.270060492627
 30
0.0
 40
1.0
100
AcDbArc
 50
41.40962210927034
 51
90.0
  0
LWPOLYLINE
  5
3411
330
1A
100
AcDbEntity
  8
外形線
100
AcDbPolyline
 90
        8
 70
   128
 43
0.0
 10
-328.1865443464635
 20
253.270060492627
 10
-328.1127881194747
 20
252.3147370782037
 10
-327.8940320581134
 20
251.3919582290063
 10
-327.5377284249325
 20
250.5331598294624
 10
-327.0560152526186
 20
249.7675981713239
 10
-326.4653028431907
 20
249.1213532929754
 10
-325.7857147257575
 20
248.6164405227106
 10
-325.0404021174676
 20
248.2700604926267
210
0.0
220
0.0
230
-1.0
  0
LWPOLYLINE
  5
3412
330
1A
100
AcDbEntity
  8
外形線
100
AcDbPolyline
 90
       18
 70
   128
 43
0.0
 10
-344.9417032298547
 20
253.270060492627
 10
-344.8917210319991
 20
252.3504593474331
 10
-344.7434765222337
 20
251.4621741162989
 10
-344.5020179895388
 20
250.6354542873899
 10
-344.1755680146475
 20
249.8984528129382
 10
-343.7752434599212
 20
249.2762673942208
 10
-343.3146768979349
 20
248.7900858094426
 10
-342.809552370568
 20
248.456464389363
 10
-342.2770712877704
 20
248.2867642113077
 10
-341.7353666541757
 20
248.2867642113077
 10
-341.2028855713779
 20
248.456464389363
 10
-340.6977610440112
 20
248.7900858094426
 10
-340.2371944820249
 20
249.2762673942208
 10
-339.8368699272987
 20
249.8984528129382
 10
-339.5104199524073
 20
250.6354542873899
 10
-339.2689614197122
 20
251.4621741162989
 10
-339.1207169099468
 20
252.3504593474331
 10
-339.0707347120912
 20
253.270060492627
210
0.0
220
0.0
230
-1.0
  0
LINE
  5
3413
330
1A
100
AcDbEntity
  8
外形線
100
AcDbLine
 10
351.2456597345346
 20
215.270060492627
 30
0.0
 11
349.7179895596389
 21
215.270060492627
 31
0.0
  0
LINE
  5
3414
330
1A
100
AcDbEntity
  8
外形線
100
AcDbLine
 10
351.2456597345346
 20
215.2700604926266
 30
0.0
 11
349.2421361334665
 21
215.2700604926265
 31
0.0
  0
LINE
  5
3415
330
1A
100
AcDbEntity
  8
外形線
100
AcDbLine
 10
351.2456597345346
 20
215.270060492627
 30
0.0
 11
346.5038226746009
 21
215.270060492627
 31
0.0
  0
LINE
  5
3416
330
1A
100
AcDbEntity
  8
外形線
100
AcDbLine
 10
350.7456597345346
 20
215.270060492627
 30
0.0
 11
348.1456597345345
 21
215.270060492627
 31
0.0
  0
LINE
  5
3417
330
1A
100
AcDbEntity
  8
外形線
100
AcDbLine
 10
346.0790849070874
 20
215.2700604926268
 30
0.0
 11
349.7840327999708
 21
215.2700604926268
 31
0.0
  0
LINE
  5
3418
330
1A
100
AcDbEntity
  8
外形線
100
AcDbLine
 10
348.9273006309333
 20
215.2700604926266
 30
0.0
 11
346.0790849070874
 21
215.2700604926268
 31
0.0
  0
LINE
  5
3419
330
1A
100
AcDbEntity
  8
外形線
100
AcDbLine
 10
351.2302534231967
 20
215.7700604926271
 30
0.0
 11
350.7302534231966
 21
215.2700604926271
 31
0.0
  0
LINE
  5
341A
330
1A
100
AcDbEntity
  8
外形線
100
AcDbLine
 10
351.2302534231967
 20
215.7700604926271
 30
0.0
 11
351.2302534231967
 21
247.9314983203931
 31
0.0
  0
ARC
  5
341B
330
1A
100
AcDbEntity
  8
外形線
100
AcDbCircle
 10
300.2840327999708
 20
253.270060492627
 30
0.0
 40
5.0
100
AcDbArc
 50
270.0
 51
0.0
  0
ARC
  5
341C
330
1A
100
AcDbEntity
  8
外形線
100
AcDbCircle
 10
300.2840327999708
 20
253.270060492627
 30
0.0
 40
5.0
100
AcDbArc
 50
180.0
 51
270.0
  0
LINE
  5
341D
330
1A
100
AcDbEntity
  8
外形線
100
AcDbLine
 10
351.2302534231967
 20
215.7700604926271
 30
0.0
 11
300.2840327999708
 21
215.770060492627
 31
0.0
  0
LINE
  5
341E
330
1A
100
AcDbEntity
  8
外形線
100
AcDbLine
 10
349.7840327999708
 20
215.2700604926271
 30
0.0
 11
300.2840327999708
 21
215.270060492627
 31
0.0
  0
LINE
  5
341F
330
1A
100
AcDbEntity
  8
外形線
100
AcDbLine
 10
350.4802534231966
 20
248.2700604926269
 30
0.0
 11
300.2840327999708
 21
248.2700604926269
 31
0.0
  0
LWPOLYLINE
  5
3420
330
1A
100
AcDbEntity
  8
外形線
100
AcDbPolyline
 90
       18
 70
   128
 43
0.0
 10
-328.732214353507
 20
253.270060492627
 10
-328.6584857123998
 20
252.3505005121252
 10
-328.4398105295233
 20
251.4622550438688
 10
-328.0836355259582
 20
250.6355722219463
 10
-327.6020898142665
 20
249.8986037383613
 10
-327.0115718561089
 20
249.2764461709262
 10
-326.3321910323027
 20
248.7902863494042
 10
-325.5870828419749
 20
248.4566798634327
 10
-324.8016210508884
 20
248.2869872817746
 10
-324.0025536182811
 20
248.2869872817746
 10
-323.2170918271946
 20
248.4566798634327
 10
-322.4719836368667
 20
248.7902863494042
 10
-321.7926028130605
 20
249.2764461709262
 10
-321.2020848549031
 20
249.8986037383613
 10
-320.7205391432112
 20
250.6355722219463
 10
-320.3643641396463
 20
251.4622550438688
 10
-320.1456889567698
 20
252.3505005121252
 10
-320.0719603156624
 20
253.270060492627
210
0.0
220
0.0
230
-1.0
  0
LINE
  5
3421
330
1A
100
AcDbEntity
  8
外形線
100
AcDbLine
 10
350.6598732969077
 20
209.6842740549996
 30
0.0
 11
348.7161611382061
 21
207.7405618962984
 31
0.0
  0
LINE
  5
3422
330
1A
100
AcDbEntity
  8
外形線
100
AcDbLine
 10
347.6226939565151
 20
207.7405618962984
 30
0.0
 11
347.6226939565151
 21
207.0009113450427
 31
0.0
  0
ARC
  5
3423
330
1A
100
AcDbEntity
  8
外形線
100
AcDbCircle
 10
349.2456597345344
 20
211.0984876173727
 30
0.0
 40
2.0
100
AcDbArc
 50
315.0
 51
0.0
  0
ARC
  5
3424
330
1A
100
AcDbEntity
  8
外形線
100
AcDbCircle
 10
340.4595988027876
 20
206.0009113450427
 30
0.0
 40
1.0
100
AcDbArc
 50
90.0
 51
180.0
  0
LINE
  5
3425
330
1A
100
AcDbEntity
  8
外形線
100
AcDbLine
 10
337.5379108655492
 20
211.0984876173727
 30
0.0
 11
332.3708291498714
 21
207.0009113450427
 31
0.0
  0
LINE
  5
3426
330
1A
100
AcDbEntity
  8
外形線
100
AcDbLine
 10
343.4997617999233
 20
188.0009113450427
 30
0.0
 11
336.9985971573532
 21
188.0009113450427
 31
0.0
  0
LINE
  5
3427
330
1A
100
AcDbEntity
  8
外形線
100
AcDbLine
 10
348.1123387205502
 20
207.0009113450427
 30
0.0
 11
340.4595988027876
 21
207.0009113450427
 31
0.0
  0
LINE
  5
3428
330
1A
100
AcDbEntity
  8
外形線
100
AcDbLine
 10
348.7161611382061
 20
207.7405618962984
 30
0.0
 11
339.2619788230483
 21
207.7405618962984
 31
0.0
  0
ARC
  5
3429
330
1A
100
AcDbEntity
  8
外形線
100
AcDbCircle
 10
343.6226939565149
 20
166.7405618962982
 30
0.0
 40
1.0
100
AcDbArc
 50
90.0
 51
145.0000000000013
  0
ARC
  5
342A
330
1A
100
AcDbEntity
  8
外形線
100
AcDbCircle
 10
346.6226939565151
 20
168.7405618962983
 30
0.0
 40
1.0
100
AcDbArc
 50
270.0
 51
0.0
  0
LINE
  5
342B
330
1A
100
AcDbEntity
  8
外形線
100
AcDbLine
 10
343.6226939565151
 20
167.7405618962983
 30
0.0
 11
346.6226939565151
 21
167.7405618962983
 31
0.0
  0
LINE
  5
342C
330
1A
100
AcDbEntity
  8
外形線
100
AcDbLine
 10
347.6226939565151
 20
168.7405618962983
 30
0.0
 11
347.6226939565151
 21
169.0009113450427
 31
0.0
  0
ARC
  5
342D
330
1A
100
AcDbEntity
  8
外形線
100
AcDbCircle
 10
340.4595988027876
 20
170.0009113450427
 30
0.0
 40
1.0
100
AcDbArc
 50
180.0
 51
270.0
  0
LINE
  5
342E
330
1A
100
AcDbEntity
  8
外形線
100
AcDbLine
 10
348.1123387205502
 20
169.0009113450427
 30
0.0
 11
340.4595988027879
 21
169.0009113450427
 31
0.0
  0
LWPOLYLINE
  5
342F
330
1A
100
AcDbEntity
  8
外形線
100
AcDbPolyline
 90
       18
 70
   128
 43
0.0
 10
340.8929555151778
 20
185.5009113450427
 10
341.2608306891295
 20
185.543478595833
 10
341.6161783152499
 20
185.6697307715318
 10
341.946897456324
 20
185.8753685057187
 10
342.2417258686561
 20
186.1533890519911
 10
342.4906235242724
 20
186.4943247540947
 10
342.6851145120308
 20
186.8865654556015
 10
342.8185756746088
 20
187.3167538698626
 10
342.8864621521845
 20
187.7702404463846
 10
342.8864621521845
 20
188.231582243701
 10
342.8185756746088
 20
188.685068820223
 10
342.6851145120306
 20
189.1152572344841
 10
342.4906235242724
 20
189.5074979359909
 10
342.2417258686559
 20
189.8484336380944
 10
341.9468974563237
 20
190.1264541843668
 10
341.6161783152497
 20
190.3320919185536
 10
341.2608306891292
 20
190.4583440942525
 10
340.8929555151776
 20
190.5009113450427
  0
LINE
  5
3430
330
1A
100
AcDbEntity
  8
外形線
100
AcDbLine
 10
339.4595988027879
 20
170.0009113450427
 30
0.0
 11
339.4595988027877
 21
206.0009113450427
 31
0.0
  0
LINE
  5
3431
330
1A
100
AcDbEntity
  8
外形線
100
AcDbLine
 10
332.3708291498717
 20
167.7405618962982
 30
0.0
 11
332.3708291498714
 21
207.0009113450427
 31
0.0
  0
LINE
  5
3432
330
1A
100
AcDbEntity
  8
外形線
100
AcDbLine
 10
337.5379108655492
 20
167.7405618962982
 30
0.0
 11
337.5379108655492
 21
211.0984876173727
 31
0.0
  0
LINE
  5
3433
330
1A
100
AcDbEntity
  8
外形線
100
AcDbLine
 10
339.2619788230483
 20
167.7405618962982
 30
0.0
 11
339.2619788230483
 21
207.7405618962984
 31
0.0
  0
LWPOLYLINE
  5
3434
330
1A
100
AcDbEntity
  8
外形線
100
AcDbPolyline
 90
       18
 70
   128
 43
0.0
 10
340.8929555151778
 20
190.5009113450427
 10
340.7102874756981
 20
190.4583440942524
 10
340.5338399772167
 20
190.3320919185536
 10
340.369621727669
 20
190.1264541843667
 10
340.2232249825851
 20
189.8484336380943
 10
340.0996351075357
 20
189.5074979359908
 10
340.0030608074853
 20
189.115257234484
 10
339.9367908043943
 20
188.6850688202229
 10
339.9030818437361
 20
188.2315822437009
 10
339.9030818437361
 20
187.7702404463845
 10
339.9367908043943
 20
187.3167538698625
 10
340.0030608074853
 20
186.8865654556014
 10
340.0996351075357
 20
186.4943247540946
 10
340.2232249825851
 20
186.1533890519911
 10
340.369621727669
 20
185.8753685057187
 10
340.5338399772167
 20
185.6697307715318
 10
340.7102874756981
 20
185.543478595833
 10
340.8929555151778
 20
185.5009113450427
  0
LINE
  5
3435
330
1A
100
AcDbEntity
  8
外形線
100
AcDbLine
 10
348.1123387205502
 20
169.0009113450427
 30
0.0
 11
348.1123387205502
 21
207.0009113450427
 31
0.0
  0
LINE
  5
3436
330
1A
100
AcDbEntity
  8
外形線
100
AcDbLine
 10
351.2456597345346
 20
211.0984876173727
 30
0.0
 11
351.2456597345346
 21
215.2700604926266
 31
0.0
  0
ARC
  5
3437
330
1A
100
AcDbEntity
  8
外形線
100
AcDbCircle
 10
336.2456597345344
 20
152.7181715852664
 30
0.0
 40
3.0
100
AcDbArc
 50
145.0000000000013
 51
180.0
  0
ARC
  5
3438
330
1A
100
AcDbEntity
  8
外形線
100
AcDbCircle
 10
332.2456597345344
 20
150.2405618962982
 30
0.0
 40
1.0
100
AcDbArc
 50
270.0
 51
0.0
  0
LINE
  5
3439
330
1A
100
AcDbEntity
  8
外形線
100
AcDbLine
 10
333.2456597345346
 20
150.2405618962983
 30
0.0
 11
333.2456597345346
 21
152.7181715852664
 31
0.0
  0
LINE
  5
343A
330
1A
100
AcDbEntity
  8
外形線
100
AcDbLine
 10
333.7882036016676
 20
154.4389008943195
 30
0.0
 11
342.8035419122261
 21
167.3141383326493
 31
0.0
  0
LINE
  5
343B
330
1A
100
AcDbEntity
  8
外形線
100
AcDbLine
 10
280.4961052842791
 20
253.270060492628
 30
0.0
 11
280.4961052842791
 21
273.2700604926269
 31
0.0
  0
LINE
  5
343C
330
1A
100
AcDbEntity
  8
外形線
100
AcDbLine
 10
305.2840327999708
 20
253.270060492627
 30
0.0
 11
305.2840327999708
 21
273.2700604926269
 31
0.0
  0
LINE
  5
343D
330
1A
100
AcDbEntity
  8
外形線
100
AcDbLine
 10
295.2840327999708
 20
253.270060492627
 30
0.0
 11
295.2840327999708
 21
273.2700604926269
 31
0.0
  0
LINE
  5
343E
330
1A
100
AcDbEntity
  8
外形線
100
AcDbLine
 10
328.732214353507
 20
253.270060492627
 30
0.0
 11
328.732214353507
 21
271.2700604926269
 31
0.0
  0
LINE
  5
343F
330
1A
100
AcDbEntity
  8
外形線
100
AcDbLine
 10
339.0707347120915
 20
253.270060492628
 30
0.0
 11
339.0707347120915
 21
271.2700604926269
 31
0.0
  0
LINE
  5
3440
330
1A
100
AcDbEntity
  8
外形線
100
AcDbLine
 10
328.1865443464635
 20
253.270060492627
 30
0.0
 11
328.1865443464635
 21
269.770060492627
 31
0.0
  0
LINE
  5
3441
330
1A
100
AcDbEntity
  8
外形線
100
AcDbLine
 10
320.0719603156626
 20
253.270060492628
 30
0.0
 11
320.0719603156626
 21
273.2700604926269
 31
0.0
  0
LINE
  5
3442
330
1A
100
AcDbEntity
  8
外形線
100
AcDbLine
 10
344.9417032298547
 20
253.270060492627
 30
0.0
 11
344.9417032298547
 21
271.2700604926269
 31
0.0
  0
LINE
  5
3443
330
1A
100
AcDbEntity
  8
外形線
100
AcDbLine
 10
344.1535128416755
 20
253.270060492627
 30
0.0
 11
344.1535128416755
 21
269.2700604926269
 31
0.0
  0
LINE
  5
3444
330
1A
100
AcDbEntity
  8
外形線
100
AcDbLine
 10
349.5340327999708
 20
248.2700604926269
 30
0.0
 11
348.3700904107704
 21
270.4794043175988
 31
0.0
  0
LINE
  5
3445
330
1A
100
AcDbEntity
  8
外形線
100
AcDbLine
 10
276.6670377190141
 20
273.8737616571369
 30
0.0
 11
278.6387340602484
 21
271.2700604926269
 31
0.0
  0
ARC
  5
3446
330
1A
100
AcDbEntity
  8
外形線
100
AcDbCircle
 10
274.8358512464346
 20
271.2700604926269
 30
0.0
 40
3.0
100
AcDbArc
 50
90.0
 51
180.0
  0
ARC
  5
3447
330
1A
100
AcDbEntity
  8
外形線
100
AcDbCircle
 10
264.4973308878502
 20
271.2700604926269
 30
0.0
 40
3.0
100
AcDbArc
 50
90.0
 51
180.0
  0
ARC
  5
3448
330
1A
100
AcDbEntity
  8
外形線
100
AcDbCircle
 10
273.8815212534782
 20
269.770060492627
 30
0.0
 40
1.5
100
AcDbArc
 50
90.0
 51
180.0
  0
ARC
  5
3449
330
1A
100
AcDbEntity
  8
外形線
100
AcDbCircle
 10
275.8698270166466
 20
273.2700604926269
 30
0.0
 40
1.0
100
AcDbArc
 50
37.1354364702772
 51
90.0
  0
ARC
  5
344A
330
1A
100
AcDbEntity
  8
外形線
100
AcDbCircle
 10
258.6263623700869
 20
271.2700604926269
 30
0.0
 40
3.0
100
AcDbArc
 50
90.0
 51
180.0
  0
ARC
  5
344B
330
1A
100
AcDbEntity
  8
外形線
100
AcDbCircle
 10
256.1924933281893
 20
270.270060492627
 30
0.0
 40
4.0
100
AcDbArc
 50
90.0
 51
177.0000000000009
  0
ARC
  5
344C
330
1A
100
AcDbEntity
  8
外形線
100
AcDbCircle
 10
258.4145527582661
 20
269.2700604926269
 30
0.0
 40
2.0
100
AcDbArc
 50
90.0
 51
180.0
  0
LINE
  5
344D
330
1A
100
AcDbEntity
  8
外形線
100
AcDbLine
 10
258.4145527582661
 20
271.2700604926269
 30
0.0
 11
261.4973308878502
 21
271.2700604926269
 31
0.0
  0
LINE
  5
344E
330
1A
100
AcDbEntity
  8
外形線
100
AcDbLine
 10
275.8698270166466
 20
274.270060492627
 30
0.0
 11
256.1924933281893
 21
274.270060492627
 31
0.0
  0
LWPOLYLINE
  5
344F
330
1A
100
AcDbEntity
  8
外形線
100
AcDbPolyline
 90
        8
 70
   128
 43
0.0
 10
272.381521253478
 20
253.270060492627
 10
272.4552774804668
 20
252.3147370782037
 10
272.6740335418282
 20
251.3919582290063
 10
273.0303371750089
 20
250.5331598294624
 10
273.5120503473228
 20
249.7675981713239
 10
274.1027627567507
 20
249.1213532929754
 10
274.7823508741841
 20
248.6164405227106
 10
275.5276634824739
 20
248.2700604926267
  0
ARC
  5
3450
330
1A
100
AcDbEntity
  8
外形線
100
AcDbCircle
 10
250.087812176745
 20
247.270060492627
 30
0.0
 40
1.0
100
AcDbArc
 50
90.0
 51
138.5903778907296
  0
LWPOLYLINE
  5
3451
330
1A
100
AcDbEntity
  8
外形線
100
AcDbPolyline
 90
        8
 70
   128
 43
0.0
 10
256.4145527582661
 20
253.270060492627
 10
256.47057408838
 20
252.2969926178252
 10
256.6364998356577
 20
251.3610651613192
 10
256.9059968841683
 20
250.4980009520387
 10
257.2687789698493
 20
249.740741747264
 10
257.7109992904769
 20
249.1181908993218
 10
258.2157790155893
 20
248.6541101616332
 10
258.7638515239943
 20
248.3662127412282
  0
LWPOLYLINE
  5
3452
330
1A
100
AcDbEntity
  8
外形線
100
AcDbPolyline
 90
       18
 70
   128
 43
0.0
 10
255.6263623700868
 20
253.270060492627
 10
255.6763445679423
 20
252.3504593474331
 10
255.8245890777077
 20
251.4621741162989
 10
256.0660476104028
 20
250.6354542873899
 10
256.3924975852941
 20
249.8984528129382
 10
256.7928221400204
 20
249.2762673942208
 10
257.2533887020067
 20
248.7900858094426
 10
257.7585132293734
 20
248.456464389363
 10
258.2909943121712
 20
248.2867642113077
 10
258.8326989457659
 20
248.2867642113077
 10
259.3651800285635
 20
248.456464389363
 10
259.8703045559303
 20
248.7900858094426
 10
260.3308711179167
 20
249.2762673942208
 10
260.731195672643
 20
249.8984528129382
 10
261.0576456475342
 20
250.6354542873899
 10
261.2991041802292
 20
251.4621741162989
 10
261.4473486899947
 20
252.3504593474331
 10
261.4973308878502
 20
253.270060492627
  0
LINE
  5
3453
330
1A
100
AcDbEntity
  8
外形線
100
AcDbLine
 10
254.4790849070873
 20
215.2700604926268
 30
0.0
 11
250.7840327999708
 21
215.2700604926268
 31
0.0
  0
LINE
  5
3454
330
1A
100
AcDbEntity
  8
外形線
100
AcDbLine
 10
253.641222518805
 20
215.2700604926266
 30
0.0
 11
253.3843051092819
 21
215.2700604926266
 31
0.0
  0
LINE
  5
3455
330
1A
100
AcDbEntity
  8
外形線
100
AcDbLine
 10
249.337812176745
 20
215.7700604926271
 30
0.0
 11
249.837812176745
 21
215.2700604926271
 31
0.0
  0
LINE
  5
3456
330
1A
100
AcDbEntity
  8
外形線
100
AcDbLine
 10
249.341849533451
 20
215.7700604926268
 30
0.0
 11
249.841849533451
 21
215.2700604926268
 31
0.0
  0
LINE
  5
3457
330
1A
100
AcDbEntity
  8
外形線
100
AcDbLine
 10
249.337812176745
 20
215.7700604926271
 30
0.0
 11
249.337812176745
 21
247.9314983203931
 31
0.0
  0
ARC
  5
3458
330
1A
100
AcDbEntity
  8
外形線
100
AcDbCircle
 10
239.2456597345344
 20
214.7700604926269
 30
0.0
 40
0.5
100
AcDbArc
 50
90.0
 51
180.0
  0
LINE
  5
3459
330
1A
100
AcDbEntity
  8
外形線
100
AcDbLine
 10
238.7456597345346
 20
214.7190250593417
 30
0.0
 11
238.7456597345346
 21
214.7700604926269
 31
0.0
  0
ARC
  5
345A
330
1A
100
AcDbEntity
  8
外形線
100
AcDbCircle
 10
237.7456597345344
 20
214.7190250593415
 30
0.0
 40
1.0
100
AcDbArc
 50
272.9999999999991
 51
0.0
  0
ARC
  5
345B
330
1A
100
AcDbEntity
  8
外形線
100
AcDbCircle
 10
236.7891459398276
 20
212.6661516035116
 30
0.0
 40
1.0
100
AcDbArc
 50
92.9999999999991
 51
180.0
  0
LINE
  5
345C
330
1A
100
AcDbEntity
  8
外形線
100
AcDbLine
 10
237.7979956907777
 20
213.7203955245872
 30
0.0
 11
236.7368099835848
 21
213.6647811382662
 31
0.0
  0
ARC
  5
345D
330
1A
100
AcDbEntity
  8
外形線
100
AcDbCircle
 10
261.7063807153383
 20
201.6877615929566
 30
0.0
 40
1.0
100
AcDbArc
 50
315.0
 51
135.0
  0
LINE
  5
345E
330
1A
100
AcDbEntity
  8
外形線
100
AcDbLine
 10
272.9344772776575
 20
207.0009113450427
 30
0.0
 11
267.6706503269167
 21
211.0984876173727
 31
0.0
  0
ARC
  5
345F
330
1A
100
AcDbEntity
  8
外形線
100
AcDbCircle
 10
252.8492521075877
 20
192.8306329852061
 30
0.0
 40
1.0
100
AcDbArc
 50
135.0
 51
315.0
  0
LINE
  5
3460
330
1A
100
AcDbEntity
  8
外形線
100
AcDbLine
 10
253.5563588887745
 20
192.1235262040196
 30
0.0
 11
257.9849231926496
 21
196.5520905078947
 31
0.0
  0
LINE
  5
3461
330
1A
100
AcDbEntity
  8
外形線
100
AcDbLine
 10
252.1421453264013
 20
193.5377397663927
 30
0.0
 11
256.5707096302765
 21
197.9663040702679
 31
0.0
  0
LINE
  5
3462
330
1A
100
AcDbEntity
  8
外形線
100
AcDbLine
 10
262.413487496525
 20
200.98065481177
 30
0.0
 11
257.9849231926496
 21
196.5520905078947
 31
0.0
  0
LINE
  5
3463
330
1A
100
AcDbEntity
  8
外形線
100
AcDbLine
 10
260.9992739341517
 20
202.3948683741433
 30
0.0
 11
256.5707096302765
 21
197.9663040702679
 31
0.0
  0
ARC
  5
3464
330
1A
100
AcDbEntity
  8
外形線
100
AcDbCircle
 10
254.9662595109825
 20
167.2888844120282
 30
0.0
 40
3.0
100
AcDbArc
 50
225.0
 51
270.0
  0
ARC
  5
3465
330
1A
100
AcDbEntity
  8
外形線
100
AcDbCircle
 10
254.9453716434265
 20
169.7405618962976
 30
0.0
 40
2.0
100
AcDbArc
 50
180.0
 51
270.0
  0
LINE
  5
3466
330
1A
100
AcDbEntity
  8
外形線
100
AcDbLine
 10
252.9453716434265
 20
178.2700604926268
 30
0.0
 11
252.9453716434268
 21
169.7405618962976
 31
0.0
  0
LINE
  5
3467
330
1A
100
AcDbEntity
  8
外形線
100
AcDbLine
 10
239.6243393909751
 20
178.3881638449165
 30
0.0
 11
252.8449391674232
 21
165.1675640684685
 31
0.0
  0
ARC
  5
3468
330
1A
100
AcDbEntity
  8
外形線
100
AcDbCircle
 10
251.9453716434266
 20
178.2700604926268
 30
0.0
 40
1.0
100
AcDbArc
 50
0.0
 51
90.0
  0
LINE
  5
3469
330
1A
100
AcDbEntity
  8
外形線
100
AcDbLine
 10
258.2443820054054
 20
164.2888844120282
 30
0.0
 11
254.9662595109828
 21
164.2888844120282
 31
0.0
  0
CIRCLE
  5
346A
330
1A
100
AcDbEntity
  8
外形線
100
AcDbCircle
 10
257.28707111945
 20
197.2684519969918
 30
0.0
 40
10.50883980613985
  0
LINE
  5
346B
330
1A
100
AcDbEntity
  8
外形線
100
AcDbLine
 10
273.0368516411483
 20
179.2700604926268
 30
0.0
 11
272.9344772776575
 21
207.0009113450427
 31
0.0
  0
CIRCLE
  5
346C
330
1A
100
AcDbEntity
  8
外形線
100
AcDbCircle
 10
257.2482235521544
 20
197.243101521641
 30
0.0
 40
13.71781647250892
  0
LINE
  5
346D
330
1A
100
AcDbEntity
  8
外形線
100
AcDbLine
 10
238.7456597345346
 20
180.5094841884762
 30
0.0
 11
238.7456597345346
 21
202.4761897439491
 31
0.0
  0
LINE
  5
346E
330
1A
100
AcDbEntity
  8
外形線
100
AcDbLine
 10
238.7456597345346
 20
214.7700604926269
 30
0.0
 11
238.7456597345346
 21
184.2684519969919
 31
0.0
  0
LINE
  5
346F
330
1A
100
AcDbEntity
  8
外形線
100
AcDbLine
 10
239.2456597345346
 20
179.2700604926269
 30
0.0
 11
273.0368516411483
 21
179.2700604926268
 31
0.0
  0
ARC
  5
3470
330
1A
100
AcDbEntity
  8
外形線
100
AcDbCircle
 10
241.7456597345344
 20
180.5094841884762
 30
0.0
 40
3.0
100
AcDbArc
 50
180.0
 51
225.0
  0
LINE
  5
3471
330
1A
100
AcDbEntity
  8
外形線
100
AcDbLine
 10
235.7891459398276
 20
212.620060492627
 30
0.0
 11
235.7891459398276
 21
212.6661516035117
 31
0.0
  0
LINE
  5
3472
330
1A
100
AcDbEntity
  8
外形線
100
AcDbLine
 10
267.6706503269167
 20
211.0984876173727
 30
0.0
 11
267.6706503269167
 21
215.270060492627
 31
0.0
  0
LINE
  5
3473
330
1A
100
AcDbEntity
  8
外形線
100
AcDbLine
 10
267.2456597345346
 20
150.2405618962983
 30
0.0
 11
267.2456597345346
 21
152.7181715852665
 31
0.0
  0
ARC
  5
3474
330
1A
100
AcDbEntity
  8
外形線
100
AcDbCircle
 10
264.2456597345344
 20
152.7181715852664
 30
0.0
 40
3.0
100
AcDbArc
 50
0.0
 51
34.99999999999869
  0
ARC
  5
3475
330
1A
100
AcDbEntity
  8
外形線
100
AcDbCircle
 10
268.2456597345344
 20
150.2405618962982
 30
0.0
 40
1.0
100
AcDbArc
 50
180.0
 51
270.0
  0
LINE
  5
3476
330
1A
100
AcDbEntity
  8
外形線
100
AcDbLine
 10
266.7031158674017
 20
154.4389008943195
 30
0.0
 11
257.3891925631064
 21
167.7405618962976
 31
0.0
  0
ARC
  5
3477
330
1A
100
AcDbEntity
  8
外形線
100
AcDbCircle
 10
258.2443820054052
 20
161.2888844120281
 30
0.0
 40
3.0
100
AcDbArc
 50
34.99999999999869
 51
90.0
  0
LINE
  5
3478
330
1A
100
AcDbEntity
  8
外形線
100
AcDbLine
 10
251.0340327999708
 20
248.2700604926269
 30
0.0
 11
252.197975189171
 21
270.4794043175988
 31
0.0
  0
LINE
  5
3479
330
1A
100
AcDbEntity
  8
外形線
100
AcDbLine
 10
272.381521253478
 20
253.270060492627
 30
0.0
 11
272.381521253478
 21
269.770060492627
 31
0.0
  0
LINE
  5
347A
330
1A
100
AcDbEntity
  8
外形線
100
AcDbLine
 10
256.4145527582661
 20
253.270060492627
 30
0.0
 11
256.4145527582661
 21
269.2700604926269
 31
0.0
  0
LINE
  5
347B
330
1A
100
AcDbEntity
  8
外形線
100
AcDbLine
 10
255.626362370087
 20
253.270060492627
 30
0.0
 11
255.626362370087
 21
271.2700604926269
 31
0.0
  0
LINE
  5
347C
330
1A
100
AcDbEntity
  8
外形線
100
AcDbLine
 10
261.4973308878502
 20
253.270060492628
 30
0.0
 11
261.4973308878502
 21
271.2700604926269
 31
0.0
  0
LINE
  5
347D
330
1A
100
AcDbEntity
  8
外形線
100
AcDbLine
 10
271.8358512464344
 20
253.270060492627
 30
0.0
 11
271.8358512464344
 21
271.2700604926269
 31
0.0
  0
LINE
  5
347E
330
1A
100
AcDbEntity
  8
外形線
100
AcDbLine
 10
267.2456597345346
 20
152.7181715852665
 30
0.0
 11
333.2456597345346
 21
152.7181715852664
 31
0.0
  0
LINE
  5
347F
330
1A
100
AcDbEntity
  8
外形線
100
AcDbLine
 10
254.9453716434268
 20
167.7405618962976
 30
0.0
 11
343.6226939565151
 21
167.7405618962983
 31
0.0
  0
LINE
  5
3480
330
1A
100
AcDbEntity
  8
外形線
100
AcDbLine
 10
332.3708291498714
 20
207.0009113450427
 30
0.0
 11
272.9344772776575
 21
207.0009113450427
 31
0.0
  0
LINE
  5
3481
330
1A
100
AcDbEntity
  8
外形線
100
AcDbLine
 10
351.2456597345346
 20
211.0984876173727
 30
0.0
 11
267.6706503269167
 21
211.0984876173727
 31
0.0
  0
LINE
  5
3482
330
1A
100
AcDbEntity
  8
外形線
100
AcDbLine
 10
239.2456597345346
 20
215.270060492627
 30
0.0
 11
300.2840327999708
 21
215.270060492627
 31
0.0
  0
LINE
  5
3483
330
1A
100
AcDbEntity
  8
外形線
100
AcDbLine
 10
249.337812176745
 20
215.7700604926271
 30
0.0
 11
300.2840327999708
 21
215.770060492627
 31
0.0
  0
LINE
  5
3484
330
1A
100
AcDbEntity
  8
外形線
100
AcDbLine
 10
268.2456597345344
 20
149.2405618962982
 30
0.0
 11
332.2456597345344
 21
149.2405618962982
 31
0.0
  0
LINE
  5
3485
330
1A
100
AcDbEntity
  8
外形線
100
AcDbLine
 10
250.087812176745
 20
248.2700604926269
 30
0.0
 11
300.2840327999708
 21
248.2700604926269
 31
0.0
  0
LWPOLYLINE
  5
3486
330
1A
100
AcDbEntity
  8
外形線
100
AcDbPolyline
 90
       18
 70
   128
 43
0.0
 10
271.8358512464345
 20
253.270060492627
 10
271.9095798875417
 20
252.3505005121252
 10
272.1282550704184
 20
251.4622550438688
 10
272.4844300739832
 20
250.6355722219463
 10
272.9659757856752
 20
249.8986037383613
 10
273.5564937438325
 20
249.2764461709262
 10
274.2358745676388
 20
248.7902863494042
 10
274.9809827579666
 20
248.4566798634327
 10
275.7664445490531
 20
248.2869872817746
 10
276.5655119816604
 20
248.2869872817746
 10
277.350973772747
 20
248.4566798634327
 10
278.0960819630747
 20
248.7902863494042
 10
278.7754627868809
 20
249.2764461709262
 10
279.3659807450385
 20
249.8986037383613
 10
279.8475264567303
 20
250.6355722219463
 10
280.2037014602953
 20
251.4622550438688
 10
280.4223766431718
 20
252.3505005121252
 10
280.4961052842791
 20
253.270060492627
  0
LINE
  5
3487
330
1A
100
AcDbEntity
  8
外形線
100
AcDbLine
 10
273.881521253478
 20
271.2700604926269
 30
0.0
 11
280.4961052842791
 21
271.2700604926269
 31
0.0
  0
LINE
  5
3488
330
1A
100
AcDbEntity
  8
外形線
 48
10.0
100
AcDbLine
 10
271.4705425943021
 20
-37.32184469012941
 30
0.0
 11
311.4705425943018
 21
-37.32184469012941
 31
0.0
  0
LINE
  5
3489
330
1A
100
AcDbEntity
  8
外形線
 48
10.0
100
AcDbLine
 10
271.4705425943019
 20
-17.32184469012941
 30
0.0
 11
271.4705425943021
 21
-37.32184469012941
 31
0.0
  0
LINE
  5
348A
330
1A
100
AcDbEntity
  8
外形線
 48
10.0
100
AcDbLine
 10
271.4705425943021
 20
-17.32184469012941
 30
0.0
 11
311.4705425943018
 21
-17.32184469012924
 31
0.0
  0
LINE
  5
348B
330
1A
100
AcDbEntity
  8
外形線
 48
10.0
100
AcDbLine
 10
291.4705425943018
 20
-37.32184469012941
 30
0.0
 11
291.4705425943018
 21
-17.32184469012941
 31
0.0
  0
LINE
  5
348C
330
1A
100
AcDbEntity
  8
外形線
 48
10.0
100
AcDbLine
 10
311.4705425943018
 20
-37.32184469012941
 30
0.0
 11
311.4705425943018
 21
-17.32184469012924
 31
0.0
  0
LINE
  5
348D
330
1A
100
AcDbEntity
  8
外形線
 48
10.0
100
AcDbLine
 10
362.5787818854026
 20
-37.32184469012941
 30
0.0
 11
362.5787818854026
 21
-17.32184469012924
 31
0.0
  0
LINE
  5
348E
330
1A
100
AcDbEntity
  8
外形線
 48
10.0
100
AcDbLine
 10
342.5787818854026
 20
-37.32184469012941
 30
0.0
 11
342.5787818854026
 21
-17.32184469012941
 31
0.0
  0
LINE
  5
348F
330
1A
100
AcDbEntity
  8
外形線
 48
10.0
100
AcDbLine
 10
322.5787818854028
 20
-17.32184469012941
 30
0.0
 11
382.5787818854024
 21
-17.32184469012912
 31
0.0
  0
LINE
  5
3490
330
1A
100
AcDbEntity
  8
外形線
 48
10.0
100
AcDbLine
 10
322.5787818854026
 20
-17.32184469012941
 30
0.0
 11
322.5787818854028
 21
-37.32184469012941
 31
0.0
  0
LINE
  5
3491
330
1A
100
AcDbEntity
  8
外形線
 48
10.0
100
AcDbLine
 10
322.5787818854028
 20
-37.32184469012941
 30
0.0
 11
382.5787818854026
 21
-37.3218446901293
 31
0.0
  0
LINE
  5
3492
330
1A
100
AcDbEntity
  8
外形線
 48
10.0
100
AcDbLine
 10
313.6016209888419
 20
-107.1510207972925
 30
0.0
 11
373.6016209888408
 21
-107.1510207972918
 31
0.0
  0
LINE
  5
3493
330
1A
100
AcDbEntity
  8
外形線
 48
10.0
100
AcDbLine
 10
313.6016209888419
 20
-87.15102079729254
 30
0.0
 11
313.6016209888419
 21
-107.1510207972925
 31
0.0
  0
LINE
  5
3494
330
1A
100
AcDbEntity
  8
外形線
 48
10.0
100
AcDbLine
 10
313.6016209888419
 20
-87.15102079729254
 30
0.0
 11
373.601620988841
 21
-87.15102079729238
 31
0.0
  0
LINE
  5
3495
330
1A
100
AcDbEntity
  8
外形線
 48
10.0
100
AcDbLine
 10
333.6016209888419
 20
-107.1510207972925
 30
0.0
 11
333.6016209888419
 21
-87.15102079729254
 31
0.0
  0
LINE
  5
3496
330
1A
100
AcDbEntity
  8
外形線
 48
10.0
100
AcDbLine
 10
353.6016209888419
 20
-107.1510207972925
 30
0.0
 11
353.6016209888416
 21
-87.15102079729238
 31
0.0
  0
LINE
  5
3497
330
1A
100
AcDbEntity
  8
外形線
 48
10.0
100
AcDbLine
 10
382.5787818854026
 20
-37.32184469012941
 30
0.0
 11
382.5787818854026
 21
-17.32184469012924
 31
0.0
  0
MTEXT
  5
3498
330
1A
100
AcDbEntity
  8
寸法線
 48
10.0
100
AcDbMText
 10
290.6242977498978
 20
-50.91248057484619
 30
0.0
 40
8.0
 41
60.71085509969623
 71
     5
 72
     1
  1
4-20mA
 73
     1
 44
1.0
  0
MTEXT
  5
3499
330
1A
100
AcDbEntity
  8
寸法線
 48
10.0
100
AcDbMText
 10
350.8750312234633
 20
-45.20342950922518
 30
0.0
 40
8.0
 41
33.39474293429237
 71
     5
 72
     1
  1
リレー1
 73
     1
 44
1.0
  0
MTEXT
  5
349A
330
1A
100
AcDbEntity
  8
寸法線
 48
10.0
100
AcDbMText
 10
243.3792229699586
 20
-45.20342950922518
 30
0.0
 40
8.0
 41
33.39474293429237
 71
     5
 72
     1
  1
電源
 73
     1
 44
1.0
  0
MTEXT
  5
349B
330
1A
100
AcDbEntity
  8
寸法線
 48
10.0
100
AcDbMText
 10
343.2480640214026
 20
-97.70688550669511
 30
0.0
 40
8.0
 41
57.93458679131055
 71
     5
 72
     1
  1
{\H1.5x;13 14 15}
 73
     1
 44
1.0
  0
MTEXT
  5
349C
330
1A
100
AcDbEntity
  8
寸法線
 48
10.0
100
AcDbMText
 10
291.1913477050743
 20
-27.8777093995319
 30
0.0
 40
8.0
 41
33.39474293429237
 71
     5
 72
     1
  1
{\H1.5x;4　5}
 73
     1
 44
1.0
  0
MTEXT
  5
349D
330
1A
100
AcDbEntity
  8
寸法線
 48
10.0
100
AcDbMText
 10
353.0087581023481
 20
-27.8777093995319
 30
0.0
 40
8.0
 41
56.07698667084844
 71
     5
 72
     1
  1
{\H1.5x;7\H0.8333x;　\H1.2x;8\H0.8333x;　\H1.2x;9}
 73
     1
 44
1.0
  0
LINE
  5
349E
330
1A
100
AcDbEntity
  8
寸法線
 48
10.0
100
AcDbLine
 10
352.5787818854027
 20
-17.32184469012929
 30
0.0
 11
352.5787818854026
 21
-6.866563267018307
 31
0.0
  0
LINE
  5
349F
330
1A
100
AcDbEntity
  8
寸法線
 48
10.0
100
AcDbLine
 10
372.5787818854024
 20
-17.32184469012918
 30
0.0
 11
372.5787818854026
 21
13.23522789987402
 31
0.0
  0
LINE
  5
34A0
330
1A
100
AcDbEntity
  8
寸法線
 48
10.0
100
AcDbLine
 10
252.2043660006431
 20
-17.32184469012912
 30
0.0
 11
252.2043660006431
 21
4.155210273872853
 31
0.0
  0
LINE
  5
34A1
330
1A
100
AcDbEntity
  8
寸法線
 48
10.0
100
AcDbLine
 10
232.2043660006433
 20
-17.32184469012924
 30
0.0
 11
232.2043660006433
 21
3.017468323299453
 31
0.0
  0
LINE
  5
34A2
330
1A
100
AcDbEntity
  8
寸法線
 48
10.0
100
AcDbLine
 10
301.5700562503578
 20
-17.32184469012929
 30
0.0
 11
301.5700562503578
 21
3.017468323299397
 31
0.0
  0
LINE
  5
34A3
330
1A
100
AcDbEntity
  8
寸法線
 48
10.0
100
AcDbLine
 10
281.5700562503577
 20
-17.32184469012947
 30
0.0
 11
281.5700562503577
 21
2.827844950196947
 31
0.0
  0
LINE
  5
34A4
330
1A
100
AcDbEntity
  8
寸法線
 48
10.0
100
AcDbLine
 10
332.5787818854025
 20
3.184332316427855
 30
0.0
 11
346.2200322374556
 21
3.184332316427799
 31
0.0
  0
LINE
  5
34A5
330
1A
100
AcDbEntity
  8
寸法線
 48
10.0
100
AcDbLine
 10
332.5787818854026
 20
-17.32184469012935
 30
0.0
 11
332.5787818854026
 21
3.184332316427855
 31
0.0
  0
LINE
  5
34A6
330
1A
100
AcDbEntity
  8
寸法線
 48
10.0
100
AcDbLine
 10
357.4790763794882
 20
13.23522789987396
 30
0.0
 11
372.5787818854024
 21
13.23522789987402
 31
0.0
  0
LINE
  5
34A7
330
1A
100
AcDbEntity
  8
寸法線
 48
10.0
100
AcDbLine
 10
346.2200322374556
 20
3.184332316427799
 30
0.0
 11
359.7070256366949
 21
15.22410768992682
 31
0.0
  0
MTEXT
  5
34A8
330
1A
100
AcDbEntity
  8
寸法線
 48
10.0
100
AcDbMText
 10
275.8845436594427
 20
28.1546756539226
 30
0.0
 40
8.0
 41
36.31358359783144
 71
     1
 72
     5
  1
   I\P＋ 　－
 73
     1
 44
1.0
  0
VIEWPORT
  5
2902
330
28FB
100
AcDbEntity
 67
     1
  8
0
 48
10.0
100
AcDbViewport
 10
338.4873418116165
 20
131.2755067371237
 30
0.0
 40
726.4148687278813
 41
336.4058679604947
 68
     1
 69
     1
 12
338.4873418116165
 22
131.2755067371237
 13
0.0
 23
0.0
 14
10.0
 24
10.0
 15
10.0
 25
10.0
 16
0.0
 26
0.0
 36
1.0
 17
0.0
 27
0.0
 37
0.0
 42
50.0
 43
0.0
 44
0.0
 45
336.4058679604947
 50
0.0
 51
0.0
 72
   100
 90
    32800
  1

281
     0
 71
     1
 74
     0
110
0.0
120
0.0
130
0.0
111
1.0
121
0.0
131
0.0
112
0.0
122
1.0
132
0.0
 79
     0
146
0.0
170
     0
  0
VIEWPORT
  5
2904
330
28FB
100
AcDbEntity
 67
     1
  8
図枠太線
 48
10.0
100
AcDbViewport
 10
204.7463051290833
 20
163.4571232745355
 30
0.0
 40
400.0
 41
240.0
 68
     2
 69
     2
 12
504.0558354239697
 22
94.95497734077586
 13
0.0
 23
0.0
 14
1.0
 24
1.0
 15
0.0
 25
0.0
 16
0.0
 26
0.0
 36
1.0
 17
0.0
 27
0.0
 37
0.0
 42
50.0
 43
0.0
 44
0.0
 45
480.0000005834585
 50
0.0
 51
0.0
 72
   100
 90
    32768
  1

281
     0
 71
     1
 74
     0
110
0.0
120
0.0
130
0.0
111
1.0
121
0.0
131
0.0
112
0.0
122
1.0
132
0.0
 79
     0
146
0.0
170
     0
  0
INSERT
  5
2A59
330
28FB
100
AcDbEntity
 67
     1
  8
図枠太線
100
AcDbBlockReference
  2
A3横用　タイトル
 10
-0.35210940670936
 20
-0.0688364789912512
 30
0.0
  0
MTEXT
  5
2EA9
330
28FB
100
AcDbEntity
 67
     1
  8
外形線
 48
10.0
100
AcDbMText
 10
11.5820410539589
 20
132.700410494878
 30
0.0
 40
6.0
 41
33.71786773590833
 71
     1
 72
     5
  1
端子配置
 73
     1
 44
1.0
  0
MTEXT
  5
2EAA
330
28FB
100
AcDbEntity
 67
     1
  8
外形線
 48
10.0
100
AcDbMText
 10
12.31733238903098
 20
278.3622058411493
 30
0.0
 40
6.0
 41
21.16493386322582
 71
     1
 72
     5
  1
外形図
 73
     1
 44
1.0
  0
LINE
  5
2EAC
330
28FB
100
AcDbEntity
 67
     1
  8
外形線
 48
10.0
100
AcDbLine
 10
383.6225958579958
 20
62.32653494167073
 30
0.0
 11
383.6225958579959
 21
46.42728218725062
 31
0.0
  0
LINE
  5
2EAD
330
28FB
100
AcDbEntity
 67
     1
  8
外形線
 48
10.0
100
AcDbLine
 10
401.2672471396689
 20
62.32653494167073
 30
0.0
 11
401.2672471396689
 21
46.42728218725062
 31
0.0
  0
MTEXT
  5
2EAE
330
28FB
100
AcDbEntity
 67
     1
  8
外形線
 48
10.0
100
AcDbMText
 10
366.6919862582334
 20
59.42654754595753
 30
0.0
 40
4.799999999999999
 41
71.42736712124097
 71
     5
 72
     5
  1
型　　　式　　　　台数
 73
     1
 44
1.0
  0
LINE
  5
2EAF
330
28FB
100
AcDbEntity
 67
     1
  8
外形線
 48
10.0
100
AcDbLine
 10
314.8384534177817
 20
62.32653494167073
 30
0.0
 11
314.8384534177818
 21
46.42728218725062
 31
0.0
  0
LINE
  5
2EB0
330
28FB
100
AcDbEntity
 67
     1
  8
外形線
 48
10.0
100
AcDbLine
 10
314.8384534177818
 20
46.42728218725062
 30
0.0
 11
401.2672471396689
 21
46.42728218725068
 31
0.0
  0
LINE
  5
2EB1
330
28FB
100
AcDbEntity
 67
     1
  8
外形線
 48
10.0
100
AcDbLine
 10
314.8384534177818
 20
56.42728218725074
 30
0.0
 11
401.2672471396689
 21
56.42728218725062
 31
0.0
  0
LINE
  5
2EB2
330
28FB
100
AcDbEntity
 67
     1
  8
外形線
 48
10.0
100
AcDbLine
 10
314.8384534177817
 20
62.32653494167073
 30
0.0
 11
401.2672471396689
 21
62.32653494167073
 31
0.0
  0
MTEXT
  5
2EBB
330
28FB
100
AcDbEntity
 67
     1
  8
寸法線
 48
10.0
100
AcDbMText
 10
336.7692841067549
 20
17.19171152662682
 30
0.0
 40
7.0
 41
42.83711411729791
 71
     1
 72
     5
  1
{\H1.286x;NX-1119}
 73
     1
 44
1.0
  0
MTEXT
  5
2EBC
330
28FB
100
AcDbEntity
 67
     1
  8
寸法線
 48
10.0
100
AcDbMText
 10
310.0899954998802
 20
35.63389557347273
 30
0.0
 40
2.333873885063326
 41
101.4226980723972
 71
     1
 72
     5
  1
{\H2.571x;液体用超音波レベル計仕様書}
 73
     1
 44
1.0
  0
MTEXT
  5
2EBD
330
28FB
100
AcDbEntity
 67
     1
  8
寸法線
 48
10.0
100
AcDbMText
 10
177.0481817354348
 20
34.96489189790827
 30
0.0
 40
4.0
 41
23.71072364199064
 71
     1
 72
     5
  1
{\H1.25x;KONISHI}
 73
     1
 44
1.0
  0
MTEXT
  5
2EBE
330
28FB
100
AcDbEntity
 67
     1
  8
寸法線
 48
10.0
100
AcDbMText
 10
175.3406153613427
 20
14.92405413963829
 30
0.0
 40
4.0
 41
27.96906253342058
 71
     1
 72
     5
  1
{\H1.25x;2009.3.9}
 73
     1
 44
1.0
  0
MTEXT
  5
2F62
330
28FB
100
AcDbEntity
 67
     1
  8
外形線
 48
10.0
100
AcDbMText
 10
189.2430179448597
 20
281.6782214441349
 30
0.0
 40
6.0
 41
21.16493386322582
 71
     1
 72
     5
  1
仕 様
 73
     1
 44
1.0
  0
MTEXT
  5
2FA1
330
28FB
100
AcDbEntity
 67
     1
  8
外形線
 48
10.0
100
AcDbMText
 10
188.2470463233157
 20
147.1522865872883
 30
0.0
 40
6.0
 41
21.16493386322582
 71
     1
 72
     5
  1
型 式
 73
     1
 44
1.0
  0
LINE
  5
3589
330
28FB
100
AcDbEntity
 67
     1
  8
外形線
 48
10.0
100
AcDbLine
 10
237.8870423859301
 20
148.5752506159528
 30
0.0
 11
249.8870423859302
 21
148.5752506159528
 31
0.0
  0
LINE
  5
358A
330
28FB
100
AcDbEntity
 67
     1
  8
外形線
 48
10.0
100
AcDbLine
 10
249.8870423859302
 20
148.5752506159528
 30
0.0
 11
249.8870423859302
 21
136.5752506159527
 31
0.0
  0
LINE
  5
358B
330
28FB
100
AcDbEntity
 67
     1
  8
外形線
 48
10.0
100
AcDbLine
 10
249.8870423859302
 20
136.5752506159527
 30
0.0
 11
237.8870423859301
 21
136.5752506159527
 31
0.0
  0
LINE
  5
358C
330
28FB
100
AcDbEntity
 67
     1
  8
外形線
 48
10.0
100
AcDbLine
 10
237.8870423859301
 20
136.5752506159527
 30
0.0
 11
237.8870423859301
 21
148.5752506159528
 31
0.0
  0
LINE
  5
358D
330
28FB
100
AcDbEntity
 67
     1
  8
外形線
 48
10.0
100
AcDbLine
 10
255.2920155029798
 20
136.5752506159527
 30
0.0
 11
255.2920155029798
 21
148.5752506159528
 31
0.0
  0
LINE
  5
358E
330
28FB
100
AcDbEntity
 67
     1
  8
外形線
 48
10.0
100
AcDbLine
 10
267.2920155029798
 20
136.5752506159527
 30
0.0
 11
255.2920155029798
 21
136.5752506159527
 31
0.0
  0
LINE
  5
358F
330
28FB
100
AcDbEntity
 67
     1
  8
外形線
 48
10.0
100
AcDbLine
 10
267.2920155029798
 20
148.5752506159528
 30
0.0
 11
267.2920155029798
 21
136.5752506159527
 31
0.0
  0
LINE
  5
3590
330
28FB
100
AcDbEntity
 67
     1
  8
外形線
 48
10.0
100
AcDbLine
 10
255.2920155029798
 20
148.5752506159528
 30
0.0
 11
267.2920155029798
 21
148.5752506159528
 31
0.0
  0
MTEXT
  5
3591
330
28FB
100
AcDbEntity
 67
     1
  8
外形線
 48
10.0
100
AcDbMText
 10
225.0295810057217
 20
148.8621627768406
 30
0.0
 40
12.0
 41
7.721566662968166
 71
     1
 72
     5
  1
S
 73
     1
 44
1.0
  0
MTEXT
  5
3592
330
28FB
100
AcDbEntity
 67
     1
  8
外形線
 48
10.0
100
AcDbMText
 10
283.1339342420399
 20
148.8621627768406
 30
0.0
 40
12.0
 41
38.97135108002881
 71
     1
 72
     5
  1
4 8 0
 73
     1
 44
1.0
  0
LINE
  5
3593
330
28FB
100
AcDbEntity
 67
     1
  8
外形線
 48
10.0
100
AcDbLine
 10
270.9618003349209
 20
142.577863114348
 30
0.0
 11
276.9743695964062
 21
142.577863114348
 31
0.0
  0
LINE
  5
3594
330
28FB
100
AcDbEntity
 67
     1
  8
外形線
 48
10.0
100
AcDbLine
 10
326.7076224215214
 20
142.577863114348
 30
0.0
 11
332.7201916830067
 21
142.577863114348
 31
0.0
  0
LINE
  5
3595
330
28FB
100
AcDbEntity
 67
     1
  8
外形線
 48
10.0
100
AcDbLine
 10
337.8883201888109
 20
136.5752506159527
 30
0.0
 11
337.8883201888109
 21
148.5752506159528
 31
0.0
  0
LINE
  5
3596
330
28FB
100
AcDbEntity
 67
     1
  8
外形線
 48
10.0
100
AcDbLine
 10
349.8883201888109
 20
136.5752506159527
 30
0.0
 11
337.8883201888109
 21
136.5752506159527
 31
0.0
  0
LINE
  5
3597
330
28FB
100
AcDbEntity
 67
     1
  8
外形線
 48
10.0
100
AcDbLine
 10
349.8883201888109
 20
148.5752506159528
 30
0.0
 11
349.8883201888109
 21
136.5752506159527
 31
0.0
  0
LINE
  5
3598
330
28FB
100
AcDbEntity
 67
     1
  8
外形線
 48
10.0
100
AcDbLine
 10
337.8883201888109
 20
148.5752506159528
 30
0.0
 11
349.8883201888109
 21
148.5752506159528
 31
0.0
  0
LINE
  5
3599
330
28FB
100
AcDbEntity
 67
     1
  8
外形線
 48
10.0
100
AcDbLine
 10
185.9396492114519
 20
111.944226466564
 30
0.0
 11
222.2973756778738
 21
111.944226466564
 31
0.0
  0
LINE
  5
359A
330
28FB
100
AcDbEntity
 67
     1
  8
外形線
 48
10.0
100
AcDbLine
 10
185.939649211452
 20
105.319537818889
 30
0.0
 11
222.2973756778738
 21
105.3195378188889
 31
0.0
  0
LINE
  5
359B
330
28FB
100
AcDbEntity
 67
     1
  8
外形線
 48
10.0
100
AcDbLine
 10
185.9396492114519
 20
118.5689151142391
 30
0.0
 11
222.2973756778738
 21
118.5689151142391
 31
0.0
  0
MTEXT
  5
359C
330
28FB
100
AcDbEntity
 67
     1
  8
外形線
 48
10.0
100
AcDbMText
 10
196.9888119085187
 20
115.2366007746516
 30
0.0
 40
4.0
 41
19.32649648552848
 71
     5
 72
     5
  1
SAP-200\P付属\Pなし
 73
     1
 44
1.0
  0
LINE
  5
359D
330
28FB
100
AcDbEntity
 67
     1
  8
外形線
 48
10.0
100
AcDbLine
 10
208.4913877607046
 20
105.319537818889
 30
0.0
 11
208.4913877607046
 21
125.1936037619142
 31
0.0
  0
LINE
  5
359E
330
28FB
100
AcDbEntity
 67
     1
  8
外形線
 48
10.0
100
AcDbLine
 10
185.9396492114519
 20
125.1936037619142
 30
0.0
 11
185.9396492114519
 21
105.3195378188889
 31
0.0
  0
LINE
  5
359F
330
28FB
100
AcDbEntity
 67
     1
  8
外形線
 48
10.0
100
AcDbLine
 10
185.9396492114519
 20
125.1936037619142
 30
0.0
 11
222.2973756778738
 21
125.1936037619142
 31
0.0
  0
LINE
  5
35A0
330
28FB
100
AcDbEntity
 67
     1
  8
外形線
 48
10.0
100
AcDbLine
 10
222.2973756778738
 20
105.319537818889
 30
0.0
 11
222.2973756778738
 21
125.1936037619142
 31
0.0
  0
MTEXT
  5
35A1
330
28FB
100
AcDbEntity
 67
     1
  8
外形線
 48
10.0
100
AcDbMText
 10
215.0307532753488
 20
115.2366007746516
 30
0.0
 40
4.0
 41
11.21632879483158
 71
     5
 72
     5
  1
型番\PB\PT
 73
     1
 44
1.0
  0
MTEXT
  5
35A2
330
28FB
100
AcDbEntity
 67
     1
  8
外形線
 48
10.0
100
AcDbMText
 10
260.8532721079425
 20
111.7950544977901
 30
0.0
 40
4.0
 41
11.21632879483158
 71
     5
 72
     5
  1
型番\PA\PB\PT
 73
     1
 44
1.0
  0
LINE
  5
35A3
330
28FB
100
AcDbEntity
 67
     1
  8
外形線
 48
10.0
100
AcDbLine
 10
268.1198945104675
 20
98.69484917121388
 30
0.0
 11
268.1198945104675
 21
125.1936037619142
 31
0.0
  0
LINE
  5
35A4
330
28FB
100
AcDbEntity
 67
     1
  8
外形線
 48
10.0
100
AcDbLine
 10
229.7144896238343
 20
125.1936037619142
 30
0.0
 11
268.1198945104675
 21
125.1936037619142
 31
0.0
  0
LINE
  5
35A5
330
28FB
100
AcDbEntity
 67
     1
  8
外形線
 48
10.0
100
AcDbLine
 10
229.7144896238343
 20
125.1936037619142
 30
0.0
 11
229.7144896238344
 21
98.6948491712139
 31
0.0
  0
LINE
  5
35A6
330
28FB
100
AcDbEntity
 67
     1
  8
外形線
 48
10.0
100
AcDbLine
 10
254.3139065932983
 20
98.69484917121388
 30
0.0
 11
254.3139065932983
 21
125.1936037619142
 31
0.0
  0
MTEXT
  5
35A7
330
28FB
100
AcDbEntity
 67
     1
  8
外形線
 48
10.0
100
AcDbMText
 10
242.2262786172434
 20
111.7950544977901
 30
0.0
 40
4.0
 41
25.7299584325618
 71
     5
 72
     5
  1
センサ材質\PPP\PPVDF\PPTFE
 73
     1
 44
1.0
  0
LINE
  5
35A8
330
28FB
100
AcDbEntity
 67
     1
  8
外形線
 48
10.0
100
AcDbLine
 10
229.7144896238344
 20
118.5689151142391
 30
0.0
 11
268.1198945104675
 21
118.5689151142391
 31
0.0
  0
LINE
  5
35A9
330
28FB
100
AcDbEntity
 67
     1
  8
外形線
 48
10.0
100
AcDbLine
 10
229.7144896238344
 20
105.319537818889
 30
0.0
 11
268.1198945104675
 21
105.3195378188889
 31
0.0
  0
LINE
  5
35AA
330
28FB
100
AcDbEntity
 67
     1
  8
外形線
 48
10.0
100
AcDbLine
 10
229.7144896238344
 20
111.944226466564
 30
0.0
 11
268.1198945104675
 21
111.944226466564
 31
0.0
  0
MTEXT
  5
35AB
330
28FB
100
AcDbEntity
 67
     1
  8
外形線
 48
10.0
100
AcDbMText
 10
380.2022531173504
 20
101.7810199877711
 30
0.0
 40
4.0
 41
11.21632879483158
 71
     5
 72
     5
  1
型番\P\P1\P3\P\P2\P4
 73
     1
 44
1.0
  0
LINE
  5
35AC
330
28FB
100
AcDbEntity
 67
     1
  8
外形線
 48
10.0
100
AcDbLine
 10
387.4688755198754
 20
78.82078322818867
 30
0.0
 11
387.4688755198754
 21
125.1936037619142
 31
0.0
  0
LINE
  5
35AD
330
28FB
100
AcDbEntity
 67
     1
  8
外形線
 48
10.0
100
AcDbLine
 10
316.3353366118015
 20
125.1936037619142
 30
0.0
 11
387.4688755198754
 21
125.1936037619142
 31
0.0
  0
LINE
  5
35AE
330
28FB
100
AcDbEntity
 67
     1
  8
外形線
 48
10.0
100
AcDbLine
 10
316.3353366118016
 20
125.1936037619142
 30
0.0
 11
316.3353366118016
 21
78.82078322818863
 31
0.0
  0
LINE
  5
35AF
330
28FB
100
AcDbEntity
 67
     1
  8
外形線
 48
10.0
100
AcDbLine
 10
373.6628876027062
 20
78.82078322818867
 30
0.0
 11
373.6628876027062
 21
92.07016052353878
 31
0.0
  0
MTEXT
  5
35B0
330
28FB
100
AcDbEntity
 67
     1
  8
外形線
 48
10.0
100
AcDbMText
 10
339.8422708474732
 20
122.0046511519945
 30
0.0
 40
4.0
 41
35.90653342036779
 71
     5
 72
     5
  1
電源／出力
 73
     1
 44
1.0
  0
LINE
  5
35B1
330
28FB
100
AcDbEntity
 67
     1
  8
外形線
 48
10.0
100
AcDbLine
 10
316.3353366118016
 20
118.5689151142391
 30
0.0
 11
387.4688755198754
 21
118.5689151142391
 31
0.0
  0
LINE
  5
35B2
330
28FB
100
AcDbEntity
 67
     1
  8
外形線
 48
10.0
100
AcDbLine
 10
316.3353366118015
 20
105.3195378188889
 30
0.0
 11
387.4688755198754
 21
105.3195378188889
 31
0.0
  0
LINE
  5
35B3
330
28FB
100
AcDbEntity
 67
     1
  8
外形線
 48
10.0
100
AcDbLine
 10
316.3353366118016
 20
111.944226466564
 30
0.0
 11
387.4688755198754
 21
111.944226466564
 31
0.0
  0
MTEXT
  5
35B4
330
28FB
100
AcDbEntity
 67
     1
  8
外形線
 48
10.0
100
AcDbMText
 10
317.9081996457137
 20
104.8249647654557
 30
0.0
 40
4.0
 41
51.58037461951156
 71
     4
 72
     5
  1
4-20mA + ﾘﾚｰ\P4-20mA(HART) + ﾘﾚｰ
 73
     1
 44
1.0
  0
LINE
  5
35B5
330
28FB
100
AcDbEntity
 67
     1
  8
外形線
 48
10.0
100
AcDbLine
 10
316.3353366118015
 20
85.4454718758637
 30
0.0
 11
387.4688755198754
 21
85.44547187586369
 31
0.0
  0
LINE
  5
35B6
330
28FB
100
AcDbEntity
 67
     1
  8
外形線
 48
10.0
100
AcDbLine
 10
316.3353366118016
 20
92.07016052353877
 30
0.0
 11
387.4688755198754
 21
92.07016052353878
 31
0.0
  0
LINE
  5
35B7
330
28FB
100
AcDbEntity
 67
     1
  8
外形線
 48
10.0
100
AcDbLine
 10
316.3353366118016
 20
98.69484917121386
 30
0.0
 11
387.4688755198754
 21
98.69484917121388
 31
0.0
  0
LINE
  5
35B8
330
28FB
100
AcDbEntity
 67
     1
  8
外形線
 48
10.0
100
AcDbLine
 10
316.3353366118015
 20
78.82078322818863
 30
0.0
 11
387.4688755198754
 21
78.82078322818867
 31
0.0
  0
LINE
  5
35B9
330
28FB
100
AcDbEntity
 67
     1
  8
外形線
 48
10.0
100
AcDbLine
 10
373.6628876027062
 20
118.5689151142391
 30
0.0
 11
373.6628876027062
 21
125.1936037619142
 31
0.0
  0
LINE
  5
35BA
330
28FB
100
AcDbEntity
 67
     1
  8
外形線
 48
10.0
100
AcDbLine
 10
373.6628876027062
 20
98.69484917121384
 30
0.0
 11
373.6628876027062
 21
111.944226466564
 31
0.0
  0
MTEXT
  5
35BB
330
28FB
100
AcDbEntity
 67
     1
  8
外形線
 48
10.0
100
AcDbMText
 10
351.8750504311838
 20
95.05550406395666
 30
0.0
 40
4.0
 41
74.05592838646322
 71
     5
 72
     5
  1
DC/AC18-30V
 73
     1
 44
1.0
  0
MTEXT
  5
35BC
330
28FB
100
AcDbEntity
 67
     1
  8
外形線
 48
10.0
100
AcDbMText
 10
351.7858918532202
 20
115.0667550228257
 30
0.0
 40
4.0
 41
55.65363500357739
 71
     5
 72
     5
  1
AC85 - 255V
 73
     1
 44
1.0
  0
MTEXT
  5
35BD
330
28FB
100
AcDbEntity
 67
     1
  8
外形線
 48
10.0
100
AcDbMText
 10
317.9081996457137
 20
84.89152985703645
 30
0.0
 40
4.0
 41
51.58037461951156
 71
     4
 72
     5
  1
4-20mA + ﾘﾚｰ\P4-20mA(HART) + ﾘﾚｰ
 73
     1
 44
1.0
  0
LINE
  5
35BE
330
28FB
100
AcDbEntity
 67
     1
  8
外形線
 48
10.0
100
AcDbLine
 10
243.8870423859301
 20
136.5752506159527
 30
0.0
 11
243.8870423859301
 21
130.6771620309021
 31
0.0
  0
LINE
  5
35BF
330
28FB
100
AcDbEntity
 67
     1
  8
外形線
 48
10.0
100
AcDbLine
 10
243.8870423859301
 20
130.6771620309021
 30
0.0
 11
215.2026432359139
 21
130.6771620309021
 31
0.0
  0
LINE
  5
35C0
330
28FB
100
AcDbEntity
 67
     1
  8
外形線
 48
10.0
100
AcDbLine
 10
215.2026432359139
 20
125.1936037619142
 30
0.0
 11
215.2026432359139
 21
130.6771620309021
 31
0.0
  0
LINE
  5
35C1
330
28FB
100
AcDbEntity
 67
     1
  8
外形線
 48
10.0
100
AcDbLine
 10
261.2920155029798
 20
136.5752506159527
 30
0.0
 11
261.2920155029798
 21
125.1936037619142
 31
0.0
  0
LINE
  5
35C2
330
28FB
100
AcDbEntity
 67
     1
  8
外形線
 48
10.0
100
AcDbLine
 10
379.1254399056458
 20
130.6771620309021
 30
0.0
 11
343.8883201888109
 21
130.6771620309021
 31
0.0
  0
LINE
  5
35C3
330
28FB
100
AcDbEntity
 67
     1
  8
外形線
 48
10.0
100
AcDbLine
 10
343.8883201888109
 20
136.5752506159527
 30
0.0
 11
343.8883201888109
 21
130.6771620309021
 31
0.0
  0
LINE
  5
35C4
330
28FB
100
AcDbEntity
 67
     1
  8
外形線
 48
10.0
100
AcDbLine
 10
379.1254399056459
 20
125.1936037619142
 30
0.0
 11
379.1254399056458
 21
130.6771620309021
 31
0.0
  0
MTEXT
  5
35C5
330
28FB
100
AcDbEntity
 67
     1
  8
外形線
 48
10.0
100
AcDbMText
 10
190.5381324800242
 20
272.4263772296034
 30
0.0
 40
4.0
 41
39.53729457414702
 71
     1
 72
     5
  1
最大測定距離\P最小測定距離\P測定精度\P分解能
 73
     1
 44
1.0
  0
MTEXT
  5
35C6
330
28FB
100
AcDbEntity
 67
     1
  8
外形線
 48
10.0
100
AcDbMText
 10
190.0095856833721
 20
245.7620842014531
 30
0.0
 40
4.0
 41
90.44148148148149
 71
     1
 72
     5
  1
センサ材質\Pハウジング材質\Pシール材質\P取付方式
 73
     1
 44
1.0
  0
MTEXT
  5
35C7
330
28FB
100
AcDbEntity
 67
     1
  8
外形線
 48
10.0
100
AcDbMText
 10
191.1408882994287
 20
216.0674415805622
 30
0.0
 40
4.0
 41
10.34952651999016
 71
     1
 72
     5
  1
温度
 73
     1
 44
1.0
  0
MTEXT
  5
35C8
330
28FB
100
AcDbEntity
 67
     1
  8
外形線
 48
10.0
100
AcDbMText
 10
204.9180318520465
 20
219.2442188127346
 30
0.0
 40
4.0
 41
19.32649648552848
 71
     1
 72
     5
  1
プロセス\P周囲
 73
     1
 44
1.0
  0
MTEXT
  5
35C9
330
28FB
100
AcDbEntity
 67
     1
  8
外形線
 48
10.0
100
AcDbMText
 10
188.9279676824086
 20
206.1207537507193
 30
0.0
 40
4.0
 41
90.44148148148149
 71
     1
 72
     5
  1
保護構造\P許容圧力\P電源電圧/消費電力\P\P\P\P\P電気的接続
 73
     1
 44
1.0
  0
LINE
  5
35CA
330
28FB
100
AcDbEntity
 67
     1
  8
外形線
 48
10.0
100
AcDbLine
 10
187.5851290316832
 20
246.7936001478703
 30
0.0
 11
397.6193668716849
 21
246.7936001478702
 31
0.0
  0
LINE
  5
35CB
330
28FB
100
AcDbEntity
 67
     1
  8
外形線
 48
10.0
100
AcDbLine
 10
397.619366871685
 20
273.9581225333179
 30
0.0
 11
397.6193668716849
 21
154.047959080419
 31
0.0
  0
LINE
  5
35CC
330
28FB
100
AcDbEntity
 67
     1
  8
外形線
 48
10.0
100
AcDbLine
 10
187.5851290316832
 20
240.1689115001952
 30
0.0
 11
397.619366871685
 21
240.1689115001952
 31
0.0
  0
MTEXT
  5
35CD
330
28FB
100
AcDbEntity
 67
     1
  8
外形線
 48
10.0
100
AcDbMText
 10
232.8053014220634
 20
272.2497536256275
 30
0.0
 40
4.0
 41
180.2856573035723
 71
     1
 72
     5
  3
PP,PVDFセンサ：6m，PTFEセンサ：5m\P0.25m\P±（測定値の0.2%+最大測定長の0.05%）\P2m未満:1mm、2～5m:2mm、5m以上:5mm\PPP, PVDF, PTFE\Pアルミニウム合金\PEPDM（センサ材質がPPのとき）、FKM（センサ材質がPVDF,PTFEのとき）\PG2"ねじ込み取付\P－30\U+2103～＋90\
  3
U+2103\P－30\U+2103～＋70\U+2103（SAP-200モジュール装着時：－25\U+2103～＋70\U+2103）\Pセンサ：IP68、ハウジング：IP67\P0.05～0.3MPa\PAC85～255V/2VA DC18～30V/100mA, AC18～30V/100mA\P4～20mA 600Ω（アイソレーション）\P2×SPDT　リレー1:AC250V/3A, リレ�2:DC30V/DC1A{\H0.4737x;\P}7セグ6桁、アイコン、バーグラフ（SAP-200モジュール）\PHART\P2×M20、2×1/2" NPT
  1
[2:DC30V/DC1A{\H0.4737x;\P}7セグ6桁、アイコン、バーグラフ（SAP-200モジュール）\PHART\P2×M20、2×1/2" NPT
 73
     1
 44
1.0
  0
LINE
  5
35CE
330
28FB
100
AcDbEntity
 67
     1
  8
外形線
 48
10.0
100
AcDbLine
 10
230.7463638506747
 20
154.047959080419
 30
0.0
 11
230.7463638506747
 21
273.9581225333179
 31
0.0
  0
LINE
  5
35CF
330
28FB
100
AcDbEntity
 67
     1
  8
外形線
 48
10.0
100
AcDbLine
 10
187.5851290316832
 20
260.7087452379677
 30
0.0
 11
397.619366871685
 21
260.7087452379677
 31
0.0
  0
LINE
  5
35D0
330
28FB
100
AcDbEntity
 67
     1
  8
外形線
 48
10.0
100
AcDbLine
 10
230.7463638506747
 20
220.4476522891457
 30
0.0
 11
230.7463638506747
 21
200.9382473873809
 31
0.0
  0
LINE
  5
35D1
330
28FB
100
AcDbEntity
 67
     1
  8
外形線
 48
10.0
100
AcDbLine
 10
203.5321173977441
 20
220.4476522891457
 30
0.0
 11
203.5321173977439
 21
207.0454682618197
 31
0.0
  0
LINE
  5
35D2
330
28FB
100
AcDbEntity
 67
     1
  8
外形線
 48
10.0
100
AcDbLine
 10
187.5851290316832
 20
273.9581225333179
 30
0.0
 11
187.5851290316832
 21
154.047959080419
 31
0.0
  0
LINE
  5
35D3
330
28FB
100
AcDbEntity
 67
     1
  8
外形線
 48
10.0
100
AcDbLine
 10
187.5851290316832
 20
233.5442228525201
 30
0.0
 11
397.619366871685
 21
233.5442228525201
 31
0.0
  0
LINE
  5
35D4
330
28FB
100
AcDbEntity
 67
     1
  8
外形線
 48
10.0
100
AcDbLine
 10
187.5851290316832
 20
220.2948455571699
 30
0.0
 11
397.619366871685
 21
220.2948455571699
 31
0.0
  0
LINE
  5
35D5
330
28FB
100
AcDbEntity
 67
     1
  8
外形線
 48
10.0
100
AcDbLine
 10
187.5851290316832
 20
226.919534204845
 30
0.0
 11
397.619366871685
 21
226.9195342048451
 31
0.0
  0
LINE
  5
35D6
330
28FB
100
AcDbEntity
 67
     1
  8
外形線
 48
10.0
100
AcDbLine
 10
187.5851290316832
 20
207.0454682618197
 30
0.0
 11
397.6193668716849
 21
207.0454682618198
 31
0.0
  0
LINE
  5
35D7
330
28FB
100
AcDbEntity
 67
     1
  8
外形線
 48
10.0
100
AcDbLine
 10
203.5512595246991
 20
213.6701569094948
 30
0.0
 11
397.6193668716849
 21
213.6701569094947
 31
0.0
  0
LINE
  5
35D8
330
28FB
100
AcDbEntity
 67
     1
  8
外形線
 48
10.0
100
AcDbLine
 10
187.5851290316832
 20
200.4207796141446
 30
0.0
 11
397.6193668716849
 21
200.4207796141447
 31
0.0
  0
LINE
  5
35D9
330
28FB
100
AcDbEntity
 67
     1
  8
外形線
 48
10.0
100
AcDbLine
 10
187.5851290316832
 20
193.7960909664695
 30
0.0
 11
397.6193668716849
 21
193.7960909664695
 31
0.0
  0
LINE
  5
35DA
330
28FB
100
AcDbEntity
 67
     1
  8
外形線
 48
10.0
100
AcDbLine
 10
203.5321173977441
 20
167.2973363757692
 30
0.0
 11
397.6193668716849
 21
167.2973363757692
 31
0.0
  0
LINE
  5
35DB
330
28FB
100
AcDbEntity
 67
     1
  8
外形線
 48
10.0
100
AcDbLine
 10
203.5321173977439
 20
180.5467136711193
 30
0.0
 11
397.6193668716849
 21
180.5467136711193
 31
0.0
  0
LINE
  5
35DC
330
28FB
100
AcDbEntity
 67
     1
  8
外形線
 48
10.0
100
AcDbLine
 10
203.5321173977441
 20
173.9220250234443
 30
0.0
 11
397.6193668716849
 21
173.9220250234443
 31
0.0
  0
LINE
  5
35DD
330
28FB
100
AcDbEntity
 67
     1
  8
外形線
 48
10.0
100
AcDbLine
 10
187.5851290316832
 20
187.1714023187944
 30
0.0
 11
397.6193668716849
 21
187.1714023187944
 31
0.0
  0
LINE
  5
35DE
330
28FB
100
AcDbEntity
 67
     1
  8
外形線
 48
10.0
100
AcDbLine
 10
187.5851290316832
 20
160.6726477280941
 30
0.0
 11
397.6193668716849
 21
160.6726477280941
 31
0.0
  0
LINE
  5
35DF
330
28FB
100
AcDbEntity
 67
     1
  8
外形線
 48
10.0
100
AcDbLine
 10
187.5851290316832
 20
154.047959080419
 30
0.0
 11
397.6193668716849
 21
154.047959080419
 31
0.0
  0
LINE
  5
35E0
330
28FB
100
AcDbEntity
 67
     1
  8
外形線
 48
10.0
100
AcDbLine
 10
203.5321173977439
 20
187.1714023187945
 30
0.0
 11
203.5321173977441
 21
160.6726477280941
 31
0.0
  0
MTEXT
  5
35E1
330
28FB
100
AcDbEntity
 67
     1
  8
外形線
 48
10.0
100
AcDbMText
 10
204.9180318520465
 20
186.0363782389363
 30
0.0
 40
4.0
 41
19.32649648552848
 71
     1
 72
     5
  1
アナログ\Pリ レ ー\P表　　示\P通　　信
 73
     1
 44
1.0
  0
MTEXT
  5
35E2
330
28FB
100
AcDbEntity
 67
     1
  8
外形線
 48
10.0
100
AcDbMText
 10
191.1408882994287
 20
176.2320990359471
 30
0.0
 40
4.0
 41
10.34952651999016
 71
     1
 72
     5
  1
出力
 73
     1
 44
1.0
  0
LINE
  5
35E3
330
28FB
100
AcDbEntity
 67
     1
  8
外形線
 48
10.0
100
AcDbLine
 10
187.5851290316832
 20
253.4182887955454
 30
0.0
 11
397.619366871685
 21
253.4182887955453
 31
0.0
  0
LINE
  5
35E4
330
28FB
100
AcDbEntity
 67
     1
  8
外形線
 48
10.0
100
AcDbLine
 10
187.5851290316832
 20
273.9581225333179
 30
0.0
 11
397.619366871685
 21
273.9581225333178
 31
0.0
  0
LINE
  5
35E5
330
28FB
100
AcDbEntity
 67
     1
  8
外形線
 48
10.0
100
AcDbLine
 10
187.5851290316832
 20
267.3334338856427
 30
0.0
 11
397.619366871685
 21
267.3334338856427
 31
0.0
  0
LINE
  5
35E6
330
28FB
100
AcDbEntity
 67
     1
  8
外形線
 48
10.0
100
AcDbLine
 10
229.7144896238344
 20
98.6948491712139
 30
0.0
 11
268.1198945104675
 21
98.69484917121388
 31
0.0
  0
ENDSEC
  0
SECTION
  2
OBJECTS
  0
DICTIONARY
  5
C
330
0
100
AcDbDictionary
281
     1
  3
ACAD_COLOR
350
2948
  3
ACAD_GROUP
350
D
  3
ACAD_LAYOUT
350
2816
  3
ACAD_MATERIAL
350
2947
  3
ACAD_MLINESTYLE
350
E
  3
ACAD_PLOTSETTINGS
350
2817
  3
ACAD_PLOTSTYLENAME
350
2814
  0
DICTIONARY
  5
29EA
330
2
100
AcDbDictionary
280
     1
281
     1
  3
ACAD_LAYERFILTERS
360
2AEE
  3
ACAD_LAYERSTATES
360
29EB
  0
DICTIONARY
  5
2948
102
{ACAD_REACTORS
330
C
102
}
330
C
100
AcDbDictionary
281
     1
  0
DICTIONARY
  5
D
102
{ACAD_REACTORS
330
C
102
}
330
C
100
AcDbDictionary
281
     1
  0
DICTIONARY
  5
2816
102
{ACAD_REACTORS
330
C
102
}
330
C
100
AcDbDictionary
281
     1
  3
A3横
350
28FC
  3
A3縦
350
29A4
  3
A4横
350
2819
  3
A4縦
350
2994
  3
Model
350
2818
  0
DICTIONARY
  5
2947
102
{ACAD_REACTORS
330
C
102
}
330
C
100
AcDbDictionary
281
     1
  0
DICTIONARY
  5
E
102
{ACAD_REACTORS
330
C
102
}
330
C
100
AcDbDictionary
281
     1
  3
STANDARD
350
13
  0
DICTIONARY
  5
2817
102
{ACAD_REACTORS
330
C
102
}
330
C
100
AcDbDictionary
281
     1
  0
ACDBDICTIONARYWDFLT
  5
2814
102
{ACAD_REACTORS
330
C
102
}
330
C
100
AcDbDictionary
281
     1
  3
Normal
350
2815
100
AcDbDictionaryWithDefault
340
2815
  0
DICTIONARY
  5
2AEE
102
{ACAD_REACTORS
330
29EA
102
}
330
29EA
100
AcDbDictionary
281
     1
  0
DICTIONARY
  5
29EB
102
{ACAD_REACTORS
330
29EA
102
}
330
29EA
100
AcDbDictionary
281
     1
  0
LAYOUT
  5
28FC
102
{ACAD_REACTORS
330
2816
102
}
330
2816
100
AcDbPlotSettings
  1

  2
DocuCentre 352
  4
A4
  6

 40
4.857749938964843
 41
4.900062561035156
 42
4.942413330078125
 43
4.857757568359375
 44
209.9733276367187
 45
296.9683227539062
 46
0.0
 47
0.0
 48
0.0
 49
0.0
140
0.0
141
0.0
142
1.0
143
1.429999999999999
 70
   736
 72
     1
 73
     1
 74
     5
  7
TOWA.ctb
 75
     0
147
1.0
 76
     1
 77
     2
 78
   300
148
0.0
149
0.0
100
AcDbLayout
  1
A3横
 70
     1
 71
     3
 10
-6.946593322753906
 20
-6.946582412719726
 11
417.7181082153319
 21
293.3152761077881
 12
0.0
 22
0.0
 32
0.0
 14
4.746305129083339
 24
3.457123274535568
 34
0.0
 15
404.7463051290833
 25
283.4571232745355
 35
0.0
146
0.0
 13
0.0
 23
0.0
 33
0.0
 16
1.0
 26
0.0
 36
0.0
 17
0.0
 27
1.0
 37
0.0
 76
     0
330
28FB
331
2902
  0
LAYOUT
  5
29A4
102
{ACAD_REACTORS
330
2816
102
}
330
2816
100
AcDbPlotSettings
  1

  2
DocuCentre 352-A3.pc3
  4
A3
  6

 40
4.857749938964843
 41
4.942420959472656
 42
4.900054931640625
 43
4.857757568359375
 44
296.9683227539062
 45
419.9889831542968
 46
0.0
 47
0.0
 48
0.0
 49
0.0
140
0.0
141
0.0
142
1.0
143
1.0
 70
   752
 72
     1
 73
     0
 74
     5
  7
TOWA.ctb
 75
    16
147
1.0
 76
     1
 77
     2
 78
   300
148
0.0
149
0.0
100
AcDbLayout
  1
A3縦
 70
     1
 71
     4
 10
-4.857749938964843
 20
-4.942420959472656
 11
292.1105728149414
 21
415.0465621948241
 12
0.0
 22
0.0
 32
0.0
 14
3.379715380909601
 24
2.834855338171948
 34
0.0
 15
283.3797153809096
 25
407.8348546596004
 35
0.0
146
0.0
 13
0.0
 23
0.0
 33
0.0
 16
1.0
 26
0.0
 36
0.0
 17
0.0
 27
1.0
 37
0.0
 76
     0
330
299E
331
29A0
  0
LAYOUT
  5
2819
102
{ACAD_REACTORS
330
2816
102
}
330
2816
100
AcDbPlotSettings
  1

  2
DocuCentre 352
  4
A4
  6

 40
4.857749938964843
 41
4.900062561035156
 42
4.942413330078125
 43
4.857757568359375
 44
209.9733276367187
 45
296.9683227539062
 46
0.0
 47
0.0
 48
0.0
 49
0.0
140
0.0
141
0.0
142
1.0
143
1.0
 70
   688
 72
     1
 73
     1
 74
     5
  7
TOWA.ctb
 75
    16
147
1.0
 76
     1
 77
     2
 78
   300
148
0.0
149
0.0
100
AcDbLayout
  1
A4横
 70
     1
 71
     1
 10
-4.857757568359375
 20
-4.857749938964843
 11
292.1105651855469
 21
205.1155776977539
 12
0.0
 22
0.0
 32
0.0
 14
1.848181194984022
 24
1.597315548905772
 34
0.0
 15
281.848181194984
 25
196.5973168703343
 35
0.0
146
0.0
 13
0.0
 23
0.0
 33
0.0
 16
1.0
 26
0.0
 36
0.0
 17
0.0
 27
1.0
 37
0.0
 76
     0
330
17
331
22
  0
LAYOUT
  5
2994
102
{ACAD_REACTORS
330
2816
102
}
330
2816
100
AcDbPlotSettings
  1

  2
DocuCentre 352
  4
A4
  6

 40
4.857749938964843
 41
4.900062561035156
 42
4.942413330078125
 43
4.857757568359375
 44
209.9733276367187
 45
296.9683227539062
 46
0.0
 47
0.0
 48
0.0
 49
0.0
140
0.0
141
0.0
142
1.0
143
1.0
 70
   688
 72
     1
 73
     0
 74
     5
  7
TOWA.ctb
 75
    16
147
1.0
 76
     1
 77
     2
 78
   300
148
0.0
149
0.0
100
AcDbLayout
  1
A4縦
 70
     1
 71
     2
 10
-4.857749938964843
 20
-4.900062561035156
 11
205.1155776977539
 21
292.0682601928711
 12
0.0
 22
0.0
 32
0.0
 14
7.843451901196601
 24
2.161110131738382
 34
0.0
 15
197.8470666872744
 25
282.1603359112618
 35
0.0
146
0.0
 13
0.0
 23
0.0
 33
0.0
 16
1.0
 26
0.0
 36
0.0
 17
0.0
 27
1.0
 37
0.0
 76
     0
330
2963
331
2965
  0
LAYOUT
  5
2818
102
{ACAD_REACTORS
330
2816
102
}
330
2816
100
AcDbPlotSettings
  1

  2
EPSON LP-8000S
  4

  6

 40
0.0
 41
0.0
 42
0.0
 43
0.0
 44
0.0
 45
0.0
 46
0.0
 47
0.0
 48
0.0
 49
0.0
140
0.0
141
0.0
142
1.0
143
1.0
 70
  1712
 72
     0
 73
     0
 74
     0
  7
TOWA.ctb
 75
     0
147
1.0
 76
     0
 77
     2
 78
   300
148
0.0
149
0.0
100
AcDbLayout
  1
Model
 70
     1
 71
     0
 10
0.0
 20
0.0
 11
12.0
 21
9.0
 12
0.0
 22
0.0
 32
0.0
 14
0.0
 24
0.0
 34
0.0
 15
0.0
 25
0.0
 35
0.0
146
0.0
 13
0.0
 23
0.0
 33
0.0
 16
1.0
 26
0.0
 36
0.0
 17
0.0
 27
1.0
 37
0.0
 76
     0
330
1A
  0
MLINESTYLE
  5
13
102
{ACAD_REACTORS
330
E
102
}
330
E
100
AcDbMlineStyle
  2
STANDARD
 70
     0
  3

 62
     0
 51
90.0
 52
90.0
 71
     2
 49
0.5
 62
   256
  6
BYLAYER
 49
-0.5
 62
   256
  6
BYLAYER
  0
ACDBPLACEHOLDER
  5
2815
102
{ACAD_REACTORS
330
2814
102
}
330
2814
  0
ENDSEC
  0
EOF
