  0
SECTION
  2
HEADER
  9
$ACADVER
  1
AC1015
  9
$ACADMAINTVER
 70
    20
  9
$DWGCODEPAGE
  3
ANSI_932
  9
$INSBASE
 10
0.0
 20
0.0
 30
0.0
  9
$EXTMIN
 10
13.30811382048094
 20
117.0391446278334
 30
0.0
  9
$EXTMAX
 10
1453.844281706169
 20
1008.895576451633
 30
0.0
  9
$LIMMIN
 10
-360.7475667952417
 20
4.457354754525566
  9
$LIMMAX
 10
-162.1536961442673
 20
287.6754402640177
  9
$ORTHOMODE
 70
     0
  9
$REGENMODE
 70
     1
  9
$FILLMODE
 70
     1
  9
$QTEXTMODE
 70
     0
  9
$MIRRTEXT
 70
     1
  9
$LTSCALE
 40
1.0
  9
$ATTMODE
 70
     1
  9
$TEXTSIZE
 40
2.333873885063326
  9
$TRACEWID
 40
1.0
  9
$TEXTSTYLE
  7
STANDARD
  9
$CLAYER
  8
寸法線
  9
$CELTYPE
  6
BYLAYER
  9
$CECOLOR
 62
   256
  9
$CELTSCALE
 40
10.0
  9
$DISPSILH
 70
     0
  9
$DIMSCALE
 40
1.0
  9
$DIMASZ
 40
10.0
  9
$DIMEXO
 40
0.625
  9
$DIMDLI
 40
3.75
  9
$DIMRND
 40
0.0
  9
$DIMDLE
 40
0.0
  9
$DIMEXE
 40
1.25
  9
$DIMTP
 40
0.1
  9
$DIMTM
 40
0.1
  9
$DIMTXT
 40
16.0
  9
$DIMCEN
 40
2.5
  9
$DIMTSZ
 40
0.0
  9
$DIMTOL
 70
     0
  9
$DIMLIM
 70
     0
  9
$DIMTIH
 70
     0
  9
$DIMTOH
 70
     0
  9
$DIMSE1
 70
     0
  9
$DIMSE2
 70
     0
  9
$DIMTAD
 70
     1
  9
$DIMZIN
 70
     8
  9
$DIMBLK
  1
Open30
  9
$DIMASO
 70
     1
  9
$DIMSHO
 70
     1
  9
$DIMPOST
  1

  9
$DIMAPOST
  1

  9
$DIMALT
 70
     0
  9
$DIMALTD
 70
     2
  9
$DIMALTF
 40
0.0394
  9
$DIMLFAC
 40
1.0
  9
$DIMTOFL
 70
     1
  9
$DIMTVP
 40
1.0
  9
$DIMTIX
 70
     0
  9
$DIMSOXD
 70
     0
  9
$DIMSAH
 70
     0
  9
$DIMBLK1
  1

  9
$DIMBLK2
  1

  9
$DIMSTYLE
  2
ISO-25
  9
$DIMCLRD
 70
     0
  9
$DIMCLRE
 70
     0
  9
$DIMCLRT
 70
     0
  9
$DIMTFAC
 40
1.0
  9
$DIMGAP
 40
0.625
  9
$DIMJUST
 70
     0
  9
$DIMSD1
 70
     0
  9
$DIMSD2
 70
     0
  9
$DIMTOLJ
 70
     1
  9
$DIMTZIN
 70
     0
  9
$DIMALTZ
 70
     0
  9
$DIMALTTZ
 70
     0
  9
$DIMUPT
 70
     0
  9
$DIMDEC
 70
     1
  9
$DIMTDEC
 70
     1
  9
$DIMALTU
 70
     2
  9
$DIMALTTD
 70
     2
  9
$DIMTXSTY
  7
STANDARD
  9
$DIMAUNIT
 70
     0
  9
$DIMADEC
 70
     0
  9
$DIMALTRND
 40
0.0
  9
$DIMAZIN
 70
     0
  9
$DIMDSEP
 70
    46
  9
$DIMATFIT
 70
     3
  9
$DIMFRAC
 70
     0
  9
$DIMLDRBLK
  1
Open30
  9
$DIMLUNIT
 70
     2
  9
$DIMLWD
 70
    -2
  9
$DIMLWE
 70
    -2
  9
$DIMTMOVE
 70
     0
  9
$LUNITS
 70
     2
  9
$LUPREC
 70
     4
  9
$SKETCHINC
 40
1.0
  9
$FILLETRAD
 40
6.5
  9
$AUNITS
 70
     0
  9
$AUPREC
 70
     0
  9
$MENU
  1
.
  9
$ELEVATION
 40
0.0
  9
$PELEVATION
 40
0.0
  9
$THICKNESS
 40
0.0
  9
$LIMCHECK
 70
     0
  9
$CHAMFERA
 40
10.0
  9
$CHAMFERB
 40
10.0
  9
$CHAMFERC
 40
20.0
  9
$CHAMFERD
 40
0.0
  9
$SKPOLY
 70
     0
  9
$TDCREATE
 40
2450576.597302431
  9
$TDUCREATE
 40
2450576.222302431
  9
$TDUPDATE
 40
2454134.688209931
  9
$TDUUPDATE
 40
2454134.313209931
  9
$TDINDWG
 40
1.0601859954
  9
$TDUSRTIMER
 40
1.0601856366
  9
$USRTIMER
 70
     1
  9
$ANGBASE
 50
0.0
  9
$ANGDIR
 70
     0
  9
$PDMODE
 70
     0
  9
$PDSIZE
 40
0.0
  9
$PLINEWID
 40
0.0
  9
$SPLFRAME
 70
     0
  9
$SPLINETYPE
 70
     6
  9
$SPLINESEGS
 70
     8
  9
$HANDSEED
  5
34D1
  9
$SURFTAB1
 70
     6
  9
$SURFTAB2
 70
     6
  9
$SURFTYPE
 70
     6
  9
$SURFU
 70
     6
  9
$SURFV
 70
     6
  9
$UCSBASE
  2

  9
$UCSNAME
  2

  9
$UCSORG
 10
0.0
 20
0.0
 30
0.0
  9
$UCSXDIR
 10
1.0
 20
0.0
 30
0.0
  9
$UCSYDIR
 10
0.0
 20
1.0
 30
0.0
  9
$UCSORTHOREF
  2

  9
$UCSORTHOVIEW
 70
     0
  9
$UCSORGTOP
 10
0.0
 20
0.0
 30
0.0
  9
$UCSORGBOTTOM
 10
0.0
 20
0.0
 30
0.0
  9
$UCSORGLEFT
 10
0.0
 20
0.0
 30
0.0
  9
$UCSORGRIGHT
 10
0.0
 20
0.0
 30
0.0
  9
$UCSORGFRONT
 10
0.0
 20
0.0
 30
0.0
  9
$UCSORGBACK
 10
0.0
 20
0.0
 30
0.0
  9
$PUCSBASE
  2

  9
$PUCSNAME
  2

  9
$PUCSORG
 10
0.0
 20
0.0
 30
0.0
  9
$PUCSXDIR
 10
1.0
 20
0.0
 30
0.0
  9
$PUCSYDIR
 10
0.0
 20
1.0
 30
0.0
  9
$PUCSORTHOREF
  2

  9
$PUCSORTHOVIEW
 70
     0
  9
$PUCSORGTOP
 10
0.0
 20
0.0
 30
0.0
  9
$PUCSORGBOTTOM
 10
0.0
 20
0.0
 30
0.0
  9
$PUCSORGLEFT
 10
0.0
 20
0.0
 30
0.0
  9
$PUCSORGRIGHT
 10
0.0
 20
0.0
 30
0.0
  9
$PUCSORGFRONT
 10
0.0
 20
0.0
 30
0.0
  9
$PUCSORGBACK
 10
0.0
 20
0.0
 30
0.0
  9
$USERI1
 70
     0
  9
$USERI2
 70
     0
  9
$USERI3
 70
     0
  9
$USERI4
 70
     0
  9
$USERI5
 70
     0
  9
$USERR1
 40
0.0
  9
$USERR2
 40
0.0
  9
$USERR3
 40
0.0
  9
$USERR4
 40
0.0
  9
$USERR5
 40
0.0
  9
$WORLDVIEW
 70
     1
  9
$SHADEDGE
 70
     3
  9
$SHADEDIF
 70
    70
  9
$TILEMODE
 70
     0
  9
$MAXACTVP
 70
    16
  9
$PINSBASE
 10
0.0
 20
0.0
 30
0.0
  9
$PLIMCHECK
 70
     0
  9
$PEXTMIN
 10
4.746305129083339
 20
1.396645458131182
 30
0.0
  9
$PEXTMAX
 10
404.7463051290833
 20
281.3966454581311
 30
0.0
  9
$PLIMMIN
 10
-6.869906624366453
 20
-6.869895834773254
  9
$PLIMMAX
 10
413.1067223046643
 20
290.0772313473972
  9
$UNITMODE
 70
     0
  9
$VISRETAIN
 70
     0
  9
$PLINEGEN
 70
     0
  9
$PSLTSCALE
 70
     1
  9
$TREEDEPTH
 70
  3020
  9
$CMLSTYLE
  2
STANDARD
  9
$CMLJUST
 70
     0
  9
$CMLSCALE
 40
1.0
  9
$PROXYGRAPHICS
 70
     1
  9
$MEASUREMENT
 70
     1
  9
$CELWEIGHT
370
    -1
  9
$ENDCAPS
280
     0
  9
$JOINSTYLE
280
     0
  9
$LWDISPLAY
290
     0
  9
$INSUNITS
 70
     0
  9
$HYPERLINKBASE
  1

  9
$STYLESHEET
  1

  9
$XEDIT
290
     1
  9
$CEPSNTYPE
380
     0
  9
$PSTYLEMODE
290
     1
  9
$FINGERPRINTGUID
  2
{23698909-1D67-4744-B0E2-8DE11E3ED422}
  9
$VERSIONGUID
  2
{94638AD4-B25E-45F7-A975-13B31911B136}
  9
$EXTNAMES
290
     1
  9
$PSVPSCALE
 40
0.25
  9
$OLESTARTUP
290
     0
  0
ENDSEC
  0
SECTION
  2
CLASSES
  0
CLASS
  1
ACDBDICTIONARYWDFLT
  2
AcDbDictionaryWithDefault
  3
ObjectDBX Classes
 90
        0
280
     0
281
     0
  0
CLASS
  1
ACDBPLACEHOLDER
  2
AcDbPlaceHolder
  3
ObjectDBX Classes
 90
        0
280
     0
281
     0
  0
CLASS
  1
LAYOUT
  2
AcDbLayout
  3
ObjectDBX Classes
 90
        0
280
     0
281
     0
  0
CLASS
  1
DICTIONARYVAR
  2
AcDbDictionaryVar
  3
ObjectDBX Classes
 90
        0
280
     0
281
     0
  0
ENDSEC
  0
SECTION
  2
TABLES
  0
TABLE
  2
VPORT
  5
8
330
0
100
AcDbSymbolTable
 70
     3
  0
VPORT
  5
34C4
330
8
100
AcDbSymbolTableRecord
100
AcDbViewportTableRecord
  2
*Active
 70
     0
 10
0.0
 20
0.0
 11
1.0
 21
1.0
 12
849.6771074401038
 22
575.8875725325981
 13
0.0
 23
0.0
 14
1.0
 24
1.0
 15
0.0
 25
0.0
 16
0.0
 26
0.0
 36
1.0
 17
0.0
 27
0.0
 37
0.0
 40
1104.004126484313
 41
1.767441860465116
 42
50.0
 43
0.0
 44
0.0
 50
0.0
 51
0.0
 71
     0
 72
   100
 73
     1
 74
     0
 75
     0
 76
     0
 77
     0
 78
     0
281
     0
 65
     1
110
0.0
120
0.0
130
0.0
111
1.0
121
0.0
131
0.0
112
0.0
122
1.0
132
0.0
 79
     0
146
0.0
  0
ENDTAB
  0
TABLE
  2
LTYPE
  5
5
330
0
100
AcDbSymbolTable
 70
     3
  0
LTYPE
  5
14
330
5
100
AcDbSymbolTableRecord
100
AcDbLinetypeTableRecord
  2
BYBLOCK
 70
     0
  3

 72
    65
 73
     0
 40
0.0
  0
LTYPE
  5
15
330
5
100
AcDbSymbolTableRecord
100
AcDbLinetypeTableRecord
  2
BYLAYER
 70
     0
  3

 72
    65
 73
     0
 40
0.0
  0
LTYPE
  5
16
330
5
100
AcDbSymbolTableRecord
100
AcDbLinetypeTableRecord
  2
CONTINUOUS
 70
     0
  3
Solid line
 72
    65
 73
     0
 40
0.0
  0
LTYPE
  5
1EC
330
5
100
AcDbSymbolTableRecord
100
AcDbLinetypeTableRecord
  2
CENTER
 70
     0
  3
____ _ ____ _ ____ _ ____ _ ____ _ ____ _ ____ 
 72
    65
 73
     4
 40
2.0
 49
1.25
 74
     0
 49
-0.25
 74
     0
 49
0.25
 74
     0
 49
-0.25
 74
     0
  0
LTYPE
  5
1ED
330
5
100
AcDbSymbolTableRecord
100
AcDbLinetypeTableRecord
  2
DASHED
 70
     0
  3
__ __ __ __ __ __ __ __ __ __ __ __ __ __ __ __
 72
    65
 73
     2
 40
0.75
 49
0.5
 74
     0
 49
-0.25
 74
     0
  0
ENDTAB
  0
TABLE
  2
LAYER
  5
2
102
{ACAD_XDICTIONARY
360
29EA
102
}
330
0
100
AcDbSymbolTable
 70
    12
  0
LAYER
  5
F
330
2
100
AcDbSymbolTableRecord
100
AcDbLayerTableRecord
  2
0
 70
     0
 62
     7
  6
CONTINUOUS
370
    -3
390
2815
  0
LAYER
  5
61
330
2
100
AcDbSymbolTableRecord
100
AcDbLayerTableRecord
  2
図枠太線
 70
     0
 62
   251
  6
CONTINUOUS
370
    -3
390
2815
  0
LAYER
  5
62
330
2
100
AcDbSymbolTableRecord
100
AcDbLayerTableRecord
  2
図枠細線
 70
     0
 62
   252
  6
CONTINUOUS
370
    -3
390
2815
  0
LAYER
  5
63
330
2
100
AcDbSymbolTableRecord
100
AcDbLayerTableRecord
  2
図枠ロゴマーク
 70
     0
 62
   253
  6
CONTINUOUS
370
    -3
390
2815
  0
LAYER
  5
1EF
330
2
100
AcDbSymbolTableRecord
100
AcDbLayerTableRecord
  2
外形線
 70
     0
 62
     7
  6
CONTINUOUS
370
    -3
390
2815
  0
LAYER
  5
1F0
330
2
100
AcDbSymbolTableRecord
100
AcDbLayerTableRecord
  2
寸法線
 70
     0
 62
     1
  6
CONTINUOUS
370
    -3
390
2815
  0
LAYER
  5
1F1
330
2
100
AcDbSymbolTableRecord
100
AcDbLayerTableRecord
  2
中心線
 70
     0
 62
     4
  6
CENTER
370
    -3
390
2815
  0
LAYER
  5
1F4
330
2
100
AcDbSymbolTableRecord
100
AcDbLayerTableRecord
  2
DEFPOINTS
 70
     0
 62
     7
  6
CONTINUOUS
290
     0
370
    -3
390
2815
  0
LAYER
  5
2AA2
330
2
100
AcDbSymbolTableRecord
100
AcDbLayerTableRecord
  2
下書線
 70
     0
 62
     2
  6
CONTINUOUS
290
     0
370
    -3
390
2815
  0
LAYER
  5
2AA3
330
2
100
AcDbSymbolTableRecord
100
AcDbLayerTableRecord
  2
隠れ線
 70
     0
 62
     3
  6
DASHED
370
    -3
390
2815
  0
LAYER
  5
2AA4
330
2
100
AcDbSymbolTableRecord
100
AcDbLayerTableRecord
  2
細線
 70
     0
 62
     6
  6
CONTINUOUS
370
    -3
390
2815
  0
LAYER
  5
2AA5
330
2
100
AcDbSymbolTableRecord
100
AcDbLayerTableRecord
  2
太線
 70
     0
 62
   190
  6
CONTINUOUS
370
    -3
390
2815
  0
ENDTAB
  0
TABLE
  2
STYLE
  5
3
330
0
100
AcDbSymbolTable
 70
     2
  0
STYLE
  5
10
330
3
100
AcDbSymbolTableRecord
100
AcDbTextStyleTableRecord
  2
STANDARD
 70
     0
 40
0.0
 41
1.0
 50
0.0
 71
     0
 42
2.333873885063326
  3
ISOCP
  4
bigfont.shx
  0
STYLE
  5
64
330
3
100
AcDbSymbolTableRecord
100
AcDbTextStyleTableRecord
  2
EXCADSTD
 70
     0
 40
0.0
 41
1.0
 50
0.0
 71
     0
 42
0.2
  3
monotxt
  4
bigfont
  0
ENDTAB
  0
TABLE
  2
VIEW
  5
6
330
0
100
AcDbSymbolTable
 70
     0
  0
ENDTAB
  0
TABLE
  2
UCS
  5
7
330
0
100
AcDbSymbolTable
 70
     0
  0
ENDTAB
  0
TABLE
  2
APPID
  5
9
330
0
100
AcDbSymbolTable
 70
     1
  0
APPID
  5
11
330
9
100
AcDbSymbolTableRecord
100
AcDbRegAppTableRecord
  2
ACAD
 70
     0
  0
ENDTAB
  0
TABLE
  2
DIMSTYLE
  5
A
330
0
100
AcDbSymbolTable
 70
     3
100
AcDbDimStyleTable
 71
     1
340
24
  0
DIMSTYLE
105
1D
330
A
100
AcDbSymbolTableRecord
100
AcDbDimStyleTableRecord
  2
STANDARD
 70
     0
340
10
  0
DIMSTYLE
105
24
102
{ACAD_REACTORS
330
2EDC
330
2F04
330
2F69
330
2F76
330
301C
330
3029
330
3051
330
3054
330
3073
330
3084
330
3088
330
30BD
330
3157
330
3158
330
3162
330
3167
330
33CC
102
}
330
A
100
AcDbSymbolTableRecord
100
AcDbDimStyleTableRecord
  2
ISO-25
 70
     0
 41
2.5
 42
0.625
 43
3.75
 44
1.25
 74
     0
 77
     1
 78
     8
140
16.0
141
2.5
143
0.0394
145
1.0
147
0.625
172
     1
340
10
  0
DIMSTYLE
105
2BFB
330
A
100
AcDbSymbolTableRecord
100
AcDbDimStyleTableRecord
  2
ISO-25$7
 70
     0
 41
1.683501683501683
 42
0.4208754208754212
 43
2.525252525252525
 44
0.8417508417508418
 47
0.03
 71
     1
 74
     0
 77
     1
 78
     8
140
1.683501683501683
141
1.683501683501683
143
0.0394
145
1.0
147
0.4209
172
     1
340
10
  0
ENDTAB
  0
TABLE
  2
BLOCK_RECORD
  5
1
330
0
100
AcDbSymbolTable
 70
    22
  0
BLOCK_RECORD
  5
1A
330
1
100
AcDbSymbolTableRecord
100
AcDbBlockTableRecord
  2
*MODEL_SPACE
340
2818
  0
BLOCK_RECORD
  5
3310
330
1
100
AcDbSymbolTableRecord
100
AcDbBlockTableRecord
  2
*Paper_Space
340
331E
  0
BLOCK_RECORD
  5
65
330
1
100
AcDbSymbolTableRecord
100
AcDbBlockTableRecord
  2
A$C3392
340
0
  0
BLOCK_RECORD
  5
29BF
330
1
100
AcDbSymbolTableRecord
100
AcDbBlockTableRecord
  2
A4横用　タイトル
340
0
310
2800000020000000200000000100080000000000000400000000000000000000000000000000000000000000000080000080000000808000800000008000800080800000C0C0C000C0DCC000F0CAA6000020400000206000002080000020A0000020C0000020E00000400000004020000040400000406000004080000040A0
310
000040C0000040E00000600000006020000060400000606000006080000060A0000060C0000060E00000800000008020000080400000806000008080000080A0000080C0000080E00000A0000000A0200000A0400000A0600000A0800000A0A00000A0C00000A0E00000C0000000C0200000C0400000C0600000C0800000C0
310
A00000C0C00000C0E00000E0000000E0200000E0400000E0600000E0800000E0A00000E0C00000E0E00040000000400020004000400040006000400080004000A0004000C0004000E00040200000402020004020400040206000402080004020A0004020C0004020E000404000004040200040404000404060004040800040
310
40A0004040C0004040E00040600000406020004060400040606000406080004060A0004060C0004060E00040800000408020004080400040806000408080004080A0004080C0004080E00040A0000040A0200040A0400040A0600040A0800040A0A00040A0C00040A0E00040C0000040C0200040C0400040C0600040C08000
310
40C0A00040C0C00040C0E00040E0000040E0200040E0400040E0600040E0800040E0A00040E0C00040E0E00080000000800020008000400080006000800080008000A0008000C0008000E00080200000802020008020400080206000802080008020A0008020C0008020E00080400000804020008040400080406000804080
310
008040A0008040C0008040E00080600000806020008060400080606000806080008060A0008060C0008060E00080800000808020008080400080806000808080008080A0008080C0008080E00080A0000080A0200080A0400080A0600080A0800080A0A00080A0C00080A0E00080C0000080C0200080C0400080C0600080C0
310
800080C0A00080C0C00080C0E00080E0000080E0200080E0400080E0600080E0800080E0A00080E0C00080E0E000C0000000C0002000C0004000C0006000C0008000C000A000C000C000C000E000C0200000C0202000C0204000C0206000C0208000C020A000C020C000C020E000C0400000C0402000C0404000C0406000C0
310
408000C040A000C040C000C040E000C0600000C0602000C0604000C0606000C0608000C060A000C060C000C060E000C0800000C0802000C0804000C0806000C0808000C080A000C080C000C080E000C0A00000C0A02000C0A04000C0A06000C0A08000C0A0A000C0A0C000C0A0E000C0C00000C0C02000C0C04000C0C06000
310
C0C08000C0C0A000F0FBFF00A4A0A000808080000000FF0000FF000000FFFF00FF000000FF00FF00FFFF0000FFFFFF0000000000000000000000000000000000000000000000000000000000000000000000000000000000000000000000000000000000000000000000000000000000000000000000000000000000000000
310
00000000000000000000000000000000000000000000000000000000000000000000000000000000000000000000000000000000000000000000000000000000000000000000000000000000000000000000000000000000000000000000000000000000000000000000000000000000000000000000000000000000000000
310
00000000000000000000000000000000000000000000000000000000000000000000000000000000000000000000000000000000000000000000000000000000000000000000000000000000000000000000000000000000000000000000000000000000000000000000000000000000000000000000000000000000000000
310
00000000000000000000000000000000000000000000000000000000000000000000000000000000000000000000000000000000000000000000000000000000000000000000000000000000000000000000000000000000000000000000000000000000000000000000000000000000000000005BA4A4A4A4A4A4A45B5BA4
310
5BA45B5B5BA4A4A4A4A4A45B5B5B5B5B5B5B5B00005BA4A4A4A4A4A4A4A4A4A4A4A4A45B5BF7F7F7F7F7F75BA4A4A4A4A4A4A400005BA4A4A4A4A4A4A45BA4A4A4A400005BA4A4A4A4A4A45B0000000000005B00005BA4A4A4A4A4A4A45BA4A4A4A4A4005B0000000000005BA400000000005B000000000000000000000000
310
00000000000000000000000000000000000000000000000000000000000000000000000000000000000000000000000000000000000000000000000000000000000000000000000000000000000000000000000000000000000000000000000000000000000000000000000000000000000000000000000000000000000000
310
00000000000000000000000000000000000000000000000000000000000000000000000000000000000000000000000000000000000000000000000000000000000000000000000000000000000000000000000000000000000000000000000000000000000000000000000000000000000000000000000000000000000000
310
00000000000000000000000000000000000000000000000000000000000000000000000000000000000000000000000000000000000000000000000000000000000000000000000000000000000000000000000000000000000000000000000000000000000000000000000000000000000000000000000000000000000000
310
0000000000000000000000000000000000000000000000000000000000000000000000000000000000000000000000000000000000000000
1001
ACAD
1000
DesignCenter Data
1002
{
1070
     1
1070
     4
1002
}
  0
BLOCK_RECORD
  5
29F4
330
1
100
AcDbSymbolTableRecord
100
AcDbBlockTableRecord
  2
A4縦用　タイトル
340
0
310
2800000020000000200000000100080000000000000400000000000000000000000000000000000000000000000080000080000000808000800000008000800080800000C0C0C000C0DCC000F0CAA6000020400000206000002080000020A0000020C0000020E00000400000004020000040400000406000004080000040A0
310
000040C0000040E00000600000006020000060400000606000006080000060A0000060C0000060E00000800000008020000080400000806000008080000080A0000080C0000080E00000A0000000A0200000A0400000A0600000A0800000A0A00000A0C00000A0E00000C0000000C0200000C0400000C0600000C0800000C0
310
A00000C0C00000C0E00000E0000000E0200000E0400000E0600000E0800000E0A00000E0C00000E0E00040000000400020004000400040006000400080004000A0004000C0004000E00040200000402020004020400040206000402080004020A0004020C0004020E000404000004040200040404000404060004040800040
310
40A0004040C0004040E00040600000406020004060400040606000406080004060A0004060C0004060E00040800000408020004080400040806000408080004080A0004080C0004080E00040A0000040A0200040A0400040A0600040A0800040A0A00040A0C00040A0E00040C0000040C0200040C0400040C0600040C08000
310
40C0A00040C0C00040C0E00040E0000040E0200040E0400040E0600040E0800040E0A00040E0C00040E0E00080000000800020008000400080006000800080008000A0008000C0008000E00080200000802020008020400080206000802080008020A0008020C0008020E00080400000804020008040400080406000804080
310
008040A0008040C0008040E00080600000806020008060400080606000806080008060A0008060C0008060E00080800000808020008080400080806000808080008080A0008080C0008080E00080A0000080A0200080A0400080A0600080A0800080A0A00080A0C00080A0E00080C0000080C0200080C0400080C0600080C0
310
800080C0A00080C0C00080C0E00080E0000080E0200080E0400080E0600080E0800080E0A00080E0C00080E0E000C0000000C0002000C0004000C0006000C0008000C000A000C000C000C000E000C0200000C0202000C0204000C0206000C0208000C020A000C020C000C020E000C0400000C0402000C0404000C0406000C0
310
408000C040A000C040C000C040E000C0600000C0602000C0604000C0606000C0608000C060A000C060C000C060E000C0800000C0802000C0804000C0806000C0808000C080A000C080C000C080E000C0A00000C0A02000C0A04000C0A06000C0A08000C0A0A000C0A0C000C0A0E000C0C00000C0C02000C0C04000C0C06000
310
C0C08000C0C0A000F0FBFF00A4A0A000808080000000FF0000FF000000FFFF00FF000000FF00FF00FFFF0000FFFFFF0000000000000000000000000000000000000000000000000000000000000000000000000000000000000000000000000000000000000000000000000000000000000000000000000000000000000000
310
00000000000000000000000000000000000000000000000000000000000000000000000000000000000000000000000000000000000000000000000000000000000000000000000000000000000000000000000000000000000000000000000000000000000000000000000000000000000000000000000000000000000000
310
00000000000000000000000000000000000000000000000000000000000000000000000000000000000000000000000000000000000000000000000000000000000000000000000000000000000000000000000000000000000000000000000000000000000000000000000000000000000000000000000000000000000000
310
0000000000000000000000000000000000000000000000000000000000000000000000000000000000000000000000000000000000000000000000000000000000000000000000000000000000000000000000005B5B5B5B5B5BA45B5BA45B5B5B5B5B5B5B5B5B5B5B5B5B5B5B5B5B5B5B5B0000A4A4A45BA4A4A40000A400
310
005BA4A4A4A4A4A4A45B00000000000000005B0000A4A4A45BA4A4A4A4A4A4A4A45BF7F7F7F7F7F7F7A4A4A4A4A4A4A4A4A45B0000A4A4A45BA4A4A4A400A400005B000000000000005B00000000000000005B0000A4A4A4A4A4A4A4A4A4A4A4A45BA4A4A4A4A4A4A4A4A4A4A400000000005B00005BA4A4A4A400A4A400A4
310
A4005B00000000000000A4A4A4A400000000005B0000000000000000000000000000000000000000000000000000000000000000000000000000000000000000000000000000000000000000000000000000000000000000000000000000000000000000000000000000000000000000000000000000000000000000000000
310
00000000000000000000000000000000000000000000000000000000000000000000000000000000000000000000000000000000000000000000000000000000000000000000000000000000000000000000000000000000000000000000000000000000000000000000000000000000000000000000000000000000000000
310
00000000000000000000000000000000000000000000000000000000000000000000000000000000000000000000000000000000000000000000000000000000000000000000000000000000000000000000000000000000000000000000000000000000000000000000000000000000000000000000000000000000000000
310
0000000000000000000000000000000000000000000000000000000000000000000000000000000000000000000000000000000000000000
1001
ACAD
1000
DesignCenter Data
1002
{
1070
     1
1070
     4
1002
}
  0
BLOCK_RECORD
  5
2A32
330
1
100
AcDbSymbolTableRecord
100
AcDbBlockTableRecord
  2
A3横用　タイトル
340
0
310
2800000020000000200000000100080000000000000400000000000000000000000000000000000000000000000080000080000000808000800000008000800080800000C0C0C000C0DCC000F0CAA6000020400000206000002080000020A0000020C0000020E00000400000004020000040400000406000004080000040A0
310
000040C0000040E00000600000006020000060400000606000006080000060A0000060C0000060E00000800000008020000080400000806000008080000080A0000080C0000080E00000A0000000A0200000A0400000A0600000A0800000A0A00000A0C00000A0E00000C0000000C0200000C0400000C0600000C0800000C0
310
A00000C0C00000C0E00000E0000000E0200000E0400000E0600000E0800000E0A00000E0C00000E0E00040000000400020004000400040006000400080004000A0004000C0004000E00040200000402020004020400040206000402080004020A0004020C0004020E000404000004040200040404000404060004040800040
310
40A0004040C0004040E00040600000406020004060400040606000406080004060A0004060C0004060E00040800000408020004080400040806000408080004080A0004080C0004080E00040A0000040A0200040A0400040A0600040A0800040A0A00040A0C00040A0E00040C0000040C0200040C0400040C0600040C08000
310
40C0A00040C0C00040C0E00040E0000040E0200040E0400040E0600040E0800040E0A00040E0C00040E0E00080000000800020008000400080006000800080008000A0008000C0008000E00080200000802020008020400080206000802080008020A0008020C0008020E00080400000804020008040400080406000804080
310
008040A0008040C0008040E00080600000806020008060400080606000806080008060A0008060C0008060E00080800000808020008080400080806000808080008080A0008080C0008080E00080A0000080A0200080A0400080A0600080A0800080A0A00080A0C00080A0E00080C0000080C0200080C0400080C0600080C0
310
800080C0A00080C0C00080C0E00080E0000080E0200080E0400080E0600080E0800080E0A00080E0C00080E0E000C0000000C0002000C0004000C0006000C0008000C000A000C000C000C000E000C0200000C0202000C0204000C0206000C0208000C020A000C020C000C020E000C0400000C0402000C0404000C0406000C0
310
408000C040A000C040C000C040E000C0600000C0602000C0604000C0606000C0608000C060A000C060C000C060E000C0800000C0802000C0804000C0806000C0808000C080A000C080C000C080E000C0A00000C0A02000C0A04000C0A06000C0A08000C0A0A000C0A0C000C0A0E000C0C00000C0C02000C0C04000C0C06000
310
C0C08000C0C0A000F0FBFF00A4A0A000808080000000FF0000FF000000FFFF00FF000000FF00FF00FFFF0000FFFFFF0000000000000000000000000000000000000000000000000000000000000000000000000000000000000000000000000000000000000000000000000000000000000000000000000000000000000000
310
00000000000000000000000000000000000000000000000000000000000000000000000000000000000000000000000000000000000000000000000000000000000000000000000000000000000000000000000000000000000000000000000000000000000000000000000000000000000000000000000000000000000000
310
00000000000000000000000000000000000000000000000000000000000000000000000000000000000000000000000000000000000000000000000000000000000000000000000000000000000000000000000000000000000000000000000000000000000000000000000000000000000000000000000000000000000000
310
00000000000000000000000000000000000000000000000000000000000000000000000000000000000000000000000000000000000000000000000000000000000000000000000000000000000000000000000000000000000000000000000000000000000000000000000000000000000000005B5B5B5B5B5B5B5B5B5BA4
310
5BA45B5BA4A4A4A4A4A4A45B5B5B5B5B5B5B5B00005BA4A4A4A4A4A45BA4A4A4A4A4A45BA4A4A4A4A4A4A45BA400000000005B00005BA4A4A4A4A4A45BA4A4A4A4A4A45B5B5B5B5B5B5B5B5BA4A4A4A4A4A45B00005BA4A4A40000005BA4A4A4A4A4A45B000000000000005BA400000000005B000000000000000000000000
310
00000000000000000000000000000000000000000000000000000000000000000000000000000000000000000000000000000000000000000000000000000000000000000000000000000000000000000000000000000000000000000000000000000000000000000000000000000000000000000000000000000000000000
310
00000000000000000000000000000000000000000000000000000000000000000000000000000000000000000000000000000000000000000000000000000000000000000000000000000000000000000000000000000000000000000000000000000000000000000000000000000000000000000000000000000000000000
310
00000000000000000000000000000000000000000000000000000000000000000000000000000000000000000000000000000000000000000000000000000000000000000000000000000000000000000000000000000000000000000000000000000000000000000000000000000000000000000000000000000000000000
310
0000000000000000000000000000000000000000000000000000000000000000000000000000000000000000000000000000000000000000
102
{BLKREFS
331
3314
102
}
1001
ACAD
1000
DesignCenter Data
1002
{
1070
     1
1070
     4
1002
}
  0
BLOCK_RECORD
  5
2A6C
330
1
100
AcDbSymbolTableRecord
100
AcDbBlockTableRecord
  2
A3縦用　タイトル
340
0
310
2800000020000000200000000100080000000000000400000000000000000000000000000000000000000000000080000080000000808000800000008000800080800000C0C0C000C0DCC000F0CAA6000020400000206000002080000020A0000020C0000020E00000400000004020000040400000406000004080000040A0
310
000040C0000040E00000600000006020000060400000606000006080000060A0000060C0000060E00000800000008020000080400000806000008080000080A0000080C0000080E00000A0000000A0200000A0400000A0600000A0800000A0A00000A0C00000A0E00000C0000000C0200000C0400000C0600000C0800000C0
310
A00000C0C00000C0E00000E0000000E0200000E0400000E0600000E0800000E0A00000E0C00000E0E00040000000400020004000400040006000400080004000A0004000C0004000E00040200000402020004020400040206000402080004020A0004020C0004020E000404000004040200040404000404060004040800040
310
40A0004040C0004040E00040600000406020004060400040606000406080004060A0004060C0004060E00040800000408020004080400040806000408080004080A0004080C0004080E00040A0000040A0200040A0400040A0600040A0800040A0A00040A0C00040A0E00040C0000040C0200040C0400040C0600040C08000
310
40C0A00040C0C00040C0E00040E0000040E0200040E0400040E0600040E0800040E0A00040E0C00040E0E00080000000800020008000400080006000800080008000A0008000C0008000E00080200000802020008020400080206000802080008020A0008020C0008020E00080400000804020008040400080406000804080
310
008040A0008040C0008040E00080600000806020008060400080606000806080008060A0008060C0008060E00080800000808020008080400080806000808080008080A0008080C0008080E00080A0000080A0200080A0400080A0600080A0800080A0A00080A0C00080A0E00080C0000080C0200080C0400080C0600080C0
310
800080C0A00080C0C00080C0E00080E0000080E0200080E0400080E0600080E0800080E0A00080E0C00080E0E000C0000000C0002000C0004000C0006000C0008000C000A000C000C000C000E000C0200000C0202000C0204000C0206000C0208000C020A000C020C000C020E000C0400000C0402000C0404000C0406000C0
310
408000C040A000C040C000C040E000C0600000C0602000C0604000C0606000C0608000C060A000C060C000C060E000C0800000C0802000C0804000C0806000C0808000C080A000C080C000C080E000C0A00000C0A02000C0A04000C0A06000C0A08000C0A0A000C0A0C000C0A0E000C0C00000C0C02000C0C04000C0C06000
310
C0C08000C0C0A000F0FBFF00A4A0A000808080000000FF0000FF000000FFFF00FF000000FF00FF00FFFF0000FFFFFF0000000000000000000000000000000000000000000000000000000000000000000000000000000000000000000000000000000000000000000000000000000000000000000000000000000000000000
310
00000000000000000000000000000000000000000000000000000000000000000000000000000000000000000000000000000000000000000000000000000000000000000000000000000000000000000000000000000000000000000000000000000000000000000000000000000000000000000000000000000000000000
310
00000000000000000000000000000000000000000000000000000000000000000000000000000000000000000000000000000000000000000000000000000000000000000000000000000000000000000000000000000000000000000000000000000000000000000000000000000000000000000000000000000000000000
310
00000000000000000000000000000000000000000000000000000000000000000000000000000000000000000000000000000000000000000000000000000000000000000000000000000000000000000000000000000000000000000000000000000000000000000000000000000000000000005B5B5B5B5B5B5B5B5B5B5B
310
5B5B5B5B5B5B5B5B5B5B5B5B5B5B5B5B5B5B5B00005BA4A4A4A4A4A4A4A4A4A4A4A4A4A45B5B5B5B5B5B5BA4A4A4A4A4A4A4A400005BA4A4A4A4A4A4A4A4A4A4A4A400A4A4A4A4A4A4A4A4A40000000000005B00005BA4A4A4A4A4A4A4A4A4A4A4A4A4A4000000000000005BA4A4000000005B000000000000000000000000
310
00000000000000000000000000000000000000000000000000000000000000000000000000000000000000000000000000000000000000000000000000000000000000000000000000000000000000000000000000000000000000000000000000000000000000000000000000000000000000000000000000000000000000
310
00000000000000000000000000000000000000000000000000000000000000000000000000000000000000000000000000000000000000000000000000000000000000000000000000000000000000000000000000000000000000000000000000000000000000000000000000000000000000000000000000000000000000
310
00000000000000000000000000000000000000000000000000000000000000000000000000000000000000000000000000000000000000000000000000000000000000000000000000000000000000000000000000000000000000000000000000000000000000000000000000000000000000000000000000000000000000
310
0000000000000000000000000000000000000000000000000000000000000000000000000000000000000000000000000000000000000000
1001
ACAD
1000
DesignCenter Data
1002
{
1070
     1
1070
     4
1002
}
  0
BLOCK_RECORD
  5
2AF4
330
1
100
AcDbSymbolTableRecord
100
AcDbBlockTableRecord
  2
_Open30
340
0
  0
BLOCK_RECORD
  5
3174
330
1
100
AcDbSymbolTableRecord
100
AcDbBlockTableRecord
  2
*D6
340
0
  0
BLOCK_RECORD
  5
318C
330
1
100
AcDbSymbolTableRecord
100
AcDbBlockTableRecord
  2
*D7
340
0
  0
BLOCK_RECORD
  5
319A
330
1
100
AcDbSymbolTableRecord
100
AcDbBlockTableRecord
  2
*D8
340
0
  0
BLOCK_RECORD
  5
31A6
330
1
100
AcDbSymbolTableRecord
100
AcDbBlockTableRecord
  2
*D9
340
0
  0
BLOCK_RECORD
  5
31B4
330
1
100
AcDbSymbolTableRecord
100
AcDbBlockTableRecord
  2
*D10
340
0
  0
BLOCK_RECORD
  5
31C0
330
1
100
AcDbSymbolTableRecord
100
AcDbBlockTableRecord
  2
*D11
340
0
  0
BLOCK_RECORD
  5
31CC
330
1
100
AcDbSymbolTableRecord
100
AcDbBlockTableRecord
  2
*D12
340
0
  0
BLOCK_RECORD
  5
31D8
330
1
100
AcDbSymbolTableRecord
100
AcDbBlockTableRecord
  2
*D13
340
0
  0
BLOCK_RECORD
  5
31E4
330
1
100
AcDbSymbolTableRecord
100
AcDbBlockTableRecord
  2
*D14
340
0
  0
BLOCK_RECORD
  5
31F0
330
1
100
AcDbSymbolTableRecord
100
AcDbBlockTableRecord
  2
*D15
340
0
  0
BLOCK_RECORD
  5
31FC
330
1
100
AcDbSymbolTableRecord
100
AcDbBlockTableRecord
  2
*D16
340
0
  0
BLOCK_RECORD
  5
3208
330
1
100
AcDbSymbolTableRecord
100
AcDbBlockTableRecord
  2
*D17
340
0
  0
BLOCK_RECORD
  5
3214
330
1
100
AcDbSymbolTableRecord
100
AcDbBlockTableRecord
  2
*D18
340
0
  0
BLOCK_RECORD
  5
3220
330
1
100
AcDbSymbolTableRecord
100
AcDbBlockTableRecord
  2
*D19
340
0
  0
BLOCK_RECORD
  5
322C
330
1
100
AcDbSymbolTableRecord
100
AcDbBlockTableRecord
  2
*D20
340
0
  0
BLOCK_RECORD
  5
3238
330
1
100
AcDbSymbolTableRecord
100
AcDbBlockTableRecord
  2
*D21
340
0
  0
ENDTAB
  0
ENDSEC
  0
SECTION
  2
BLOCKS
  0
BLOCK
  5
1B
330
1A
100
AcDbEntity
  8
0
100
AcDbBlockBegin
  2
*MODEL_SPACE
 70
     0
 10
0.0
 20
0.0
 30
0.0
  3
*MODEL_SPACE
  1

  0
ENDBLK
  5
1C
330
1A
100
AcDbEntity
  8
0
100
AcDbBlockEnd
  0
BLOCK
  5
3311
330
3310
100
AcDbEntity
 67
     1
  8
0
 48
10.0
100
AcDbBlockBegin
  2
*Paper_Space
 70
     0
 10
0.0
 20
0.0
 30
0.0
  3
*Paper_Space
  1

  0
ENDBLK
  5
331D
330
3310
100
AcDbEntity
 67
     1
  8
0
 48
10.0
100
AcDbBlockEnd
  0
BLOCK
  5
93
330
65
100
AcDbEntity
  8
0
 48
10.0
100
AcDbBlockBegin
  2
A$C3392
 70
     0
 10
0.0
 20
0.0
 30
0.0
  3
A$C3392
  1

  0
LINE
  5
66
330
65
100
AcDbEntity
  8
図枠太線
  6
Continuous
100
AcDbLine
 10
211.8585845051848
 20
30.9273756754393
 30
0.0
 11
211.8585845051848
 21
0.9273756754392934
 31
0.0
  0
LINE
  5
67
330
65
100
AcDbEntity
  8
図枠細線
  6
Continuous
100
AcDbLine
 10
231.8585925051848
 20
15.92737767543929
 30
0.0
 11
287.8585925051849
 21
15.92737567543928
 31
0.0
  0
LINE
  5
68
330
65
100
AcDbEntity
  8
図枠細線
  6
Continuous
100
AcDbLine
 10
211.8585925051848
 20
15.92737767543929
 30
0.0
 11
231.8585925051848
 21
15.92737767543929
 31
0.0
  0
LINE
  5
69
330
65
100
AcDbEntity
  8
図枠太線
  6
Continuous
 62
   251
100
AcDbLine
 10
1.858584505184808
 20
0.9273756754392934
 30
0.0
 11
1.858584505184808
 21
275.9273756754393
 31
0.0
  0
TEXT
  5
6A
330
65
100
AcDbEntity
  8
図枠細線
  6
Continuous
 62
   252
100
AcDbText
 10
351.3585925051848
 20
28.42737767543929
 30
0.0
 40
2.0
  1
ＴＩＴＬＥ
 41
0.9036144578313251
  7
EXCADSTD
 72
     5
 11
361.3585925051848
 21
28.42737767543929
 31
0.0
100
AcDbText
  0
TEXT
  5
6B
330
65
100
AcDbEntity
  8
図枠細線
  6
Continuous
 62
   252
100
AcDbText
 10
345.3585925051848
 20
28.42737767543929
 30
0.0
 40
2.0
  1
名称
 41
1.171875
  7
EXCADSTD
 72
     5
 11
350.3585925051848
 21
28.42737767543929
 31
0.0
100
AcDbText
  0
TEXT
  5
6C
330
65
100
AcDbEntity
  8
図枠細線
  6
Continuous
 62
   252
100
AcDbText
 10
274.3585925051848
 20
25.92737767543929
 30
0.0
 40
2.0
  1
ＤＲＡＷＮ
 41
0.8823529411764708
  7
EXCADSTD
 72
     5
 11
284.3585925051849
 21
25.92737767543929
 31
0.0
100
AcDbText
  0
TEXT
  5
6D
330
65
100
AcDbEntity
  8
図枠細線
  6
Continuous
 62
   252
100
AcDbText
 10
260.3585925051849
 20
25.92737767543929
 30
0.0
 40
2.0
  1
ＤＥＳＩＧＮＥＤ
 41
0.7130434720412513
  7
EXCADSTD
 72
     5
 11
273.4785923907439
 21
25.92737767543929
 31
0.0
100
AcDbText
  0
TEXT
  5
6E
330
65
100
AcDbEntity
  8
図枠細線
  6
Continuous
 62
   252
100
AcDbText
 10
246.3585925051848
 20
25.92737767543929
 30
0.0
 40
2.0
  1
ＣＨＥＣＫＥＤ
 41
0.8312499895691889
  7
EXCADSTD
 72
     5
 11
259.6585923382918
 21
25.92737767543929
 31
0.0
100
AcDbText
  0
TEXT
  5
6F
330
65
100
AcDbEntity
  8
図枠細線
  6
Continuous
 62
   252
100
AcDbText
 10
274.3585925051848
 20
28.42737767543929
 30
0.0
 40
2.0
  1
製図
 41
1.209677419354852
  7
EXCADSTD
 72
     5
 11
279.3585925051849
 21
28.42737767543929
 31
0.0
100
AcDbText
  0
TEXT
  5
70
330
65
100
AcDbEntity
  8
図枠細線
  6
Continuous
 62
   252
100
AcDbText
 10
260.3585925051849
 20
28.42737767543929
 30
0.0
 40
2.0
  1
設計
 41
1.171874999999986
  7
EXCADSTD
 72
     5
 11
265.3585925051848
 21
28.42737767543929
 31
0.0
100
AcDbText
  0
TEXT
  5
71
330
65
100
AcDbEntity
  8
図枠細線
  6
Continuous
 62
   252
100
AcDbText
 10
246.3585925051848
 20
28.42737767543929
 30
0.0
 40
2.0
  1
検図
 41
1.209677419354838
  7
EXCADSTD
 72
     5
 11
251.3585925051848
 21
28.42737767543929
 31
0.0
100
AcDbText
  0
TEXT
  5
72
330
65
100
AcDbEntity
  8
図枠細線
  6
Continuous
 62
   252
100
AcDbText
 10
232.3585925051848
 20
25.92737767543929
 30
0.0
 40
2.0
  1
ＡＰＰＲＯＶＥＤ
 41
0.6956521842790684
  7
EXCADSTD
 72
     5
 11
245.1585926959197
 21
25.92737767543929
 31
0.0
100
AcDbText
  0
TEXT
  5
73
330
65
100
AcDbEntity
  8
図枠細線
  6
Continuous
 62
   252
100
AcDbText
 10
232.3585925051848
 20
28.42737767543929
 30
0.0
 40
2.0
  1
承認
 41
1.171875
  7
EXCADSTD
 72
     5
 11
237.3585925051848
 21
28.42737767543929
 31
0.0
100
AcDbText
  0
TEXT
  5
74
330
65
100
AcDbEntity
  8
図枠細線
  6
Continuous
 62
   252
100
AcDbText
 10
290.0698885051848
 20
2.57486867543929
 30
0.0
 40
3.5
  1
ＴＯＷＡ　ＳＥＩＤＥＮ　ＩＮＤＵＳＴＲＩＡＬ　ＣＯ．，ＬＴＤ．
 41
0.4145680123767937
  7
EXCADSTD
 72
     5
 11
342.6923882095458
 21
2.57486867543929
 31
0.0
100
AcDbText
  0
TEXT
  5
75
330
65
100
AcDbEntity
  8
図枠ロゴマーク
  6
Continuous
 62
   253
100
AcDbText
 10
290.1073485051848
 20
7.519769675439306
 30
0.0
 40
7.0
  1
東和制電工業株式会社
 41
0.6392045454545466
  7
EXCADSTD
 72
     5
 11
342.6073485051849
 21
7.519769675439306
 31
0.0
100
AcDbText
  0
TEXT
  5
76
330
65
100
AcDbEntity
  8
図枠細線
  6
Continuous
 62
   252
100
AcDbText
 10
232.4997055051849
 20
5.759088675439271
 30
0.0
 40
2.0
  1
ＰＲＯＪＥＣＴＩＯＮ
 41
0.7542857101985363
  7
EXCADSTD
 72
     5
 11
250.0997054098174
 21
5.759088675439271
 31
0.0
100
AcDbText
  0
TEXT
  5
77
330
65
100
AcDbEntity
  8
図枠細線
  6
Continuous
 62
   252
100
AcDbText
 10
232.5746295051848
 20
8.681077675439269
 30
0.0
 40
2.0
  1
ＴＨＩＲＤ　ＡＮＧＬＥ
 41
0.6910994867379731
  7
EXCADSTD
 72
     5
 11
250.1746297674452
 21
8.681077675439269
 31
0.0
100
AcDbText
  0
TEXT
  5
78
330
65
100
AcDbEntity
  8
図枠細線
  6
Continuous
 62
   252
100
AcDbText
 10
256.8239995051848
 20
13.42737767543929
 30
0.0
 40
2.0
  1
ＳＣＡＬＥ
 41
0.9036144578313251
  7
EXCADSTD
 72
     5
 11
266.8239995051848
 21
13.42737767543929
 31
0.0
100
AcDbText
  0
TEXT
  5
79
330
65
100
AcDbEntity
  8
図枠細線
  6
Continuous
 62
   252
100
AcDbText
 10
274.8585925051848
 20
13.42737767543929
 30
0.0
 40
2.0
  1
ＤＡＴＥ
 41
0.9230769230769229
  7
EXCADSTD
 72
     5
 11
282.8585925051848
 21
13.42737767543929
 31
0.0
100
AcDbText
  0
TEXT
  5
7A
330
65
100
AcDbEntity
  8
図枠細線
  6
Continuous
 62
   252
100
AcDbText
 10
356.3585925051848
 20
13.42737767543929
 30
0.0
 40
2.0
  1
ＤＲＧ．ＮＯ．
 41
0.9375
  7
EXCADSTD
 72
     5
 11
370.3585925051848
 21
13.42737767543929
 31
0.0
100
AcDbText
  0
TEXT
  5
7B
330
65
100
AcDbEntity
  8
図枠細線
  6
Continuous
 62
   252
100
AcDbText
 10
345.3585925051848
 20
13.42737767543929
 30
0.0
 40
2.0
  1
図面番号
 41
1.102941176470588
  7
EXCADSTD
 72
     5
 11
355.3585925051848
 21
13.42737767543929
 31
0.0
100
AcDbText
  0
TEXT
  5
7C
330
65
100
AcDbEntity
  8
図枠細線
  6
Continuous
 62
   252
100
AcDbText
 10
269.3585925051849
 20
13.42737767543929
 30
0.0
 40
2.0
  1
日付
 41
1.171874999999986
  7
EXCADSTD
 72
     5
 11
274.3585925051848
 21
13.42737767543929
 31
0.0
100
AcDbText
  0
TEXT
  5
7D
330
65
100
AcDbEntity
  8
図枠細線
  6
Continuous
 62
   252
100
AcDbText
 10
251.4515125051848
 20
13.42737767543929
 30
0.0
 40
2.0
  1
尺度
 41
1.171875000000006
  7
EXCADSTD
 72
     5
 11
256.4515125051848
 21
13.42737767543929
 31
0.0
100
AcDbText
  0
TEXT
  5
7E
330
65
100
AcDbEntity
  8
図枠細線
  6
Continuous
 62
   252
100
AcDbText
 10
232.3585925051848
 20
13.42737767543929
 30
0.0
 40
2.0
  1
第三角法
 41
1.102941176470588
  7
EXCADSTD
 72
     5
 11
242.3585925051848
 21
13.42737767543929
 31
0.0
100
AcDbText
  0
TEXT
  5
7F
330
65
100
AcDbEntity
  8
図枠細線
  6
Continuous
 62
   252
100
AcDbText
 10
212.3585925051848
 20
28.42737767543929
 30
0.0
 40
2.0
  1
ＮＯＴＥ
 41
0.9230769230769231
  7
EXCADSTD
 72
     5
 11
220.3585925051848
 21
28.42737767543929
 31
0.0
100
AcDbText
  0
LINE
  5
80
330
65
100
AcDbEntity
  8
図枠細線
  6
Continuous
 62
   252
100
AcDbLine
 10
287.8585925051849
 20
23.42737567543929
 30
0.0
 11
344.8585925051848
 21
23.42737567543929
 31
0.0
  0
LINE
  5
81
330
65
100
AcDbEntity
  8
図枠太線
  6
Continuous
 62
   251
100
AcDbLine
 10
287.8585845051848
 20
15.92737567543928
 30
0.0
 11
344.8585925051848
 21
15.92737567543928
 31
0.0
  0
LINE
  5
82
330
65
100
AcDbEntity
  8
図枠細線
  6
Continuous
 62
   252
100
AcDbLine
 10
344.8585925051848
 20
15.92737567543928
 30
0.0
 11
401.8585845051847
 21
15.92737567543928
 31
0.0
  0
LINE
  5
83
330
65
100
AcDbEntity
  8
図枠太線
  6
Continuous
 62
   251
100
AcDbLine
 10
344.8585925051848
 20
0.9273776754392883
 30
0.0
 11
344.8585925051848
 21
30.9273756754393
 31
0.0
  0
LINE
  5
84
330
65
100
AcDbEntity
  8
図枠太線
  6
Continuous
 62
   251
100
AcDbLine
 10
287.8585925051849
 20
0.9273776754392883
 30
0.0
 11
287.8585925051849
 21
30.9273756754393
 31
0.0
  0
LINE
  5
85
330
65
100
AcDbEntity
  8
図枠細線
  6
Continuous
 62
   252
100
AcDbLine
 10
268.8585925051849
 20
0.9273776754392883
 30
0.0
 11
268.8585925051849
 21
15.92737567543928
 31
0.0
  0
LINE
  5
86
330
65
100
AcDbEntity
  8
図枠細線
  6
Continuous
 62
   252
100
AcDbLine
 10
250.8585925051848
 20
0.9273776754392883
 30
0.0
 11
250.8585925051848
 21
15.92737567543928
 31
0.0
  0
LINE
  5
87
330
65
100
AcDbEntity
  8
図枠細線
  6
Continuous
 62
   252
100
AcDbLine
 10
273.8585925051848
 20
30.9273756754393
 30
0.0
 11
273.8585925051848
 21
15.92737567543928
 31
0.0
  0
LINE
  5
88
330
65
100
AcDbEntity
  8
図枠細線
  6
Continuous
 62
   252
100
AcDbLine
 10
259.8585925051848
 20
30.9273756754393
 30
0.0
 11
259.8585925051848
 21
15.92737567543928
 31
0.0
  0
LINE
  5
89
330
65
100
AcDbEntity
  8
図枠細線
  6
Continuous
 62
   252
100
AcDbLine
 10
245.8585925051848
 20
30.9273756754393
 30
0.0
 11
245.8585925051848
 21
15.92737567543928
 31
0.0
  0
LINE
  5
8A
330
65
100
AcDbEntity
  8
図枠太線
  6
Continuous
 62
   251
100
AcDbLine
 10
231.8585925051848
 20
0.9273776754392883
 30
0.0
 11
231.8585925051848
 21
30.9273756754393
 31
0.0
  0
LINE
  5
8B
330
65
100
AcDbEntity
  8
図枠細線
  6
Continuous
 62
   252
100
AcDbLine
 10
211.8585925051848
 20
25.9273756754393
 30
0.0
 11
231.8585925051848
 21
25.9273756754393
 31
0.0
  0
LINE
  5
8C
330
65
100
AcDbEntity
  8
図枠細線
  6
Continuous
 62
   252
100
AcDbLine
 10
211.8585925051848
 20
20.92737567543929
 30
0.0
 11
231.8585925051848
 21
20.92737567543929
 31
0.0
  0
LINE
  5
8D
330
65
100
AcDbEntity
  8
図枠細線
  6
Continuous
 62
   252
100
AcDbLine
 10
211.8585925051848
 20
10.92737567543929
 30
0.0
 11
231.8585925051848
 21
10.92737567543929
 31
0.0
  0
LINE
  5
8E
330
65
100
AcDbEntity
  8
図枠細線
  6
Continuous
 62
   252
100
AcDbLine
 10
211.8585925051848
 20
5.927377675439287
 30
0.0
 11
231.8585925051848
 21
5.927377675439287
 31
0.0
  0
LINE
  5
8F
330
65
100
AcDbEntity
  8
図枠太線
  6
Continuous
 62
   251
100
AcDbLine
 10
211.8585925051848
 20
30.9273756754393
 30
0.0
 11
401.8585845051847
 21
30.9273756754393
 31
0.0
  0
LINE
  5
90
330
65
100
AcDbEntity
  8
図枠太線
  6
Continuous
 62
   251
100
AcDbLine
 10
1.858584505184808
 20
275.9273756754393
 30
0.0
 11
401.8585845051847
 21
275.9273756754393
 31
0.0
  0
LINE
  5
91
330
65
100
AcDbEntity
  8
図枠太線
  6
Continuous
 62
   251
100
AcDbLine
 10
401.8585845051847
 20
0.9273756754392934
 30
0.0
 11
401.8585845051847
 21
275.9273756754393
 31
0.0
  0
LINE
  5
92
330
65
100
AcDbEntity
  8
図枠太線
  6
Continuous
 62
   251
100
AcDbLine
 10
1.858584505184808
 20
0.9273756754392934
 30
0.0
 11
401.8585845051847
 21
0.9273756754392934
 31
0.0
  0
ENDBLK
  5
94
330
65
100
AcDbEntity
  8
0
100
AcDbBlockEnd
  0
BLOCK
  5
29C0
330
29BF
100
AcDbEntity
  8
0
100
AcDbBlockBegin
  2
A4横用　タイトル
 70
     0
 10
0.0
 20
0.0
 30
0.0
  3
A4横用　タイトル
  1

  0
LINE
  5
29C1
330
29BF
100
AcDbEntity
  8
図枠細線
  6
Continuous
100
AcDbLine
 10
75.06101107105077
 20
16.80660725335804
 30
0.0
 11
144.0610110710506
 21
16.80660478907234
 31
0.0
  0
LINE
  5
29C2
330
29BF
100
AcDbEntity
  8
図枠細線
  6
Continuous
 62
   252
100
AcDbLine
 10
4.061011071050756
 20
11.80660625335804
 30
0.0
 11
75.06101107105073
 21
11.80660625335804
 31
0.0
  0
LINE
  5
29C3
330
29BF
100
AcDbEntity
  8
図枠細線
  6
Continuous
 62
   252
100
AcDbLine
 10
4.061011071050756
 20
21.80660625335804
 30
0.0
 11
75.06101107105073
 21
21.80660625335805
 31
0.0
  0
LINE
  5
29C4
330
29BF
100
AcDbEntity
  8
図枠細線
  6
Continuous
 62
   252
100
AcDbLine
 10
4.061011071050756
 20
26.80660625335804
 30
0.0
 11
75.06101107105073
 21
26.80660625335804
 31
0.0
  0
LINE
  5
29C5
330
29BF
100
AcDbEntity
  8
図枠細線
  6
Continuous
100
AcDbLine
 10
4.061011071050756
 20
16.80660825335803
 30
0.0
 11
75.06101107105073
 21
16.80660825335803
 31
0.0
  0
TEXT
  5
29C6
330
29BF
100
AcDbEntity
  8
図枠細線
  6
Continuous
 62
   252
100
AcDbText
 10
76.40547582771296
 20
9.560308253358016
 30
0.0
 40
2.0
  1
ＴＨＩＲＤ　ＡＮＧＬＥ
 41
0.6910994867379717
  7
EXCADSTD
 72
     5
 11
94.00547608997332
 21
9.560308253358016
 31
0.0
100
AcDbText
  0
TEXT
  5
29C7
330
29BF
100
AcDbEntity
  8
図枠細線
  6
Continuous
 62
   252
100
AcDbText
 10
76.70577588092119
 20
14.30660825335803
 30
0.0
 40
2.0
  1
第三角法
 41
1.102941176470589
  7
EXCADSTD
 72
     5
 11
86.7057758809212
 21
14.30660825335803
 31
0.0
100
AcDbText
  0
TEXT
  5
29C8
330
29BF
100
AcDbEntity
  8
図枠細線
  6
Continuous
 62
   252
100
AcDbText
 10
76.70577588092119
 20
26.80660825335804
 30
0.0
 40
2.0
  1
ＡＰＰＲＯＶＥＤ
 41
0.6956521842790684
  7
EXCADSTD
 72
     5
 11
89.50577607165605
 21
26.80660825335804
 31
0.0
100
AcDbText
  0
TEXT
  5
29C9
330
29BF
100
AcDbEntity
  8
図枠細線
  6
Continuous
 62
   252
100
AcDbText
 10
76.70577588092119
 20
29.30660825335804
 30
0.0
 40
2.0
  1
承認
 41
1.171875
  7
EXCADSTD
 72
     5
 11
81.7057758809212
 21
29.30660825335804
 31
0.0
100
AcDbText
  0
LINE
  5
29CA
330
29BF
100
AcDbEntity
  8
図枠細線
  6
Continuous
 62
   252
100
AcDbLine
 10
98.06101107105076
 20
31.80660625335804
 30
0.0
 11
98.06101107105076
 21
16.80660625335804
 31
0.0
  0
TEXT
  5
29CB
330
29BF
100
AcDbEntity
  8
図枠細線
  6
Continuous
 62
   252
100
AcDbText
 10
104.2165311198036
 20
14.30660825335803
 30
0.0
 40
2.0
  1
ＳＣＡＬＥ
 41
0.9036144578313251
  7
EXCADSTD
 72
     5
 11
114.2165311198036
 21
14.30660825335803
 31
0.0
100
AcDbText
  0
TEXT
  5
29CC
330
29BF
100
AcDbEntity
  8
図枠細線
  6
Continuous
 62
   252
100
AcDbText
 10
98.84404411980364
 20
14.30660825335803
 30
0.0
 40
2.0
  1
尺度
 41
1.17187499999999
  7
EXCADSTD
 72
     5
 11
103.8440441198036
 21
14.30660825335803
 31
0.0
100
AcDbText
  0
TEXT
  5
29CD
330
29BF
100
AcDbEntity
  8
図枠細線
  6
Continuous
 62
   252
100
AcDbText
 10
98.96872770749741
 20
26.80660825335804
 30
0.0
 40
2.0
  1
ＣＨＥＣＫＥＤ
 41
0.8312499895691873
  7
EXCADSTD
 72
     5
 11
112.2687275406044
 21
26.80660825335804
 31
0.0
100
AcDbText
  0
TEXT
  5
29CE
330
29BF
100
AcDbEntity
  8
図枠細線
  6
Continuous
 62
   252
100
AcDbText
 10
98.96872770749741
 20
29.30660825335804
 30
0.0
 40
2.0
  1
検図
 41
1.209677419354838
  7
EXCADSTD
 72
     5
 11
103.9687277074974
 21
29.30660825335804
 31
0.0
100
AcDbText
  0
LINE
  5
29CF
330
29BF
100
AcDbEntity
  8
図枠細線
  6
Continuous
 62
   252
100
AcDbLine
 10
121.0610110710507
 20
31.80660625335806
 30
0.0
 11
121.0610110710507
 21
16.80660625335805
 31
0.0
  0
TEXT
  5
29D0
330
29BF
100
AcDbEntity
  8
図枠細線
  6
Continuous
 62
   252
100
AcDbText
 10
128.0014652472527
 20
14.30660825335803
 30
0.0
 40
2.0
  1
ＤＡＴＥ
 41
0.9230769230769229
  7
EXCADSTD
 72
     5
 11
136.0014652472527
 21
14.30660825335803
 31
0.0
100
AcDbText
  0
TEXT
  5
29D1
330
29BF
100
AcDbEntity
  8
図枠細線
  6
Continuous
 62
   252
100
AcDbText
 10
122.0664154988409
 20
14.30660825335803
 30
0.0
 40
2.0
  1
日付
 41
1.171875
  7
EXCADSTD
 72
     5
 11
127.0664154988409
 21
14.30660825335803
 31
0.0
100
AcDbText
  0
TEXT
  5
29D2
330
29BF
100
AcDbEntity
  8
図枠細線
  6
Continuous
 62
   252
100
AcDbText
 10
121.5942940657102
 20
29.30660825335804
 30
0.0
 40
2.0
  1
製図
 41
1.209677419354838
  7
EXCADSTD
 72
     5
 11
126.5942940657102
 21
29.30660825335804
 31
0.0
100
AcDbText
  0
TEXT
  5
29D3
330
29BF
100
AcDbEntity
  8
図枠細線
  6
Continuous
 62
   252
100
AcDbText
 10
121.5942940657102
 20
26.80660825335804
 30
0.0
 40
2.0
  1
ＤＲＡＷＮ
 41
0.8823529411764694
  7
EXCADSTD
 72
     5
 11
131.5942940657102
 21
26.80660825335804
 31
0.0
100
AcDbText
  0
TEXT
  5
29D4
330
29BF
100
AcDbEntity
  8
図枠細線
  6
Continuous
 62
   252
100
AcDbText
 10
226.5912296613477
 20
14.30660825335803
 30
0.0
 40
2.0
  1
ＤＲＧ．ＮＯ．
 41
0.9375000000000078
  7
EXCADSTD
 72
     5
 11
240.5912296613478
 21
14.30660825335803
 31
0.0
100
AcDbText
  0
LINE
  5
29D5
330
29BF
100
AcDbEntity
  8
図枠太線
  6
Continuous
 62
   251
100
AcDbLine
 10
144.0610030710507
 20
16.80660625335804
 30
0.0
 11
214.0610110710508
 21
16.80660625335804
 31
0.0
  0
LINE
  5
29D6
330
29BF
100
AcDbEntity
  8
図枠細線
  6
Continuous
 62
   252
100
AcDbLine
 10
144.0610110710506
 20
24.30660625335804
 30
0.0
 11
214.0610110710508
 21
24.30660625335804
 31
0.0
  0
TEXT
  5
29D7
330
29BF
100
AcDbEntity
  8
図枠ロゴマーク
  6
Continuous
 62
   253
100
AcDbText
 10
146.4337767815963
 20
8.399000253358053
 30
0.0
 40
7.0
  1
東和制電工業株式会社
 41
0.8036108846195517
  7
EXCADSTD
 72
     5
 11
212.4370174383488
 21
8.399000253358053
 31
0.0
100
AcDbText
  0
TEXT
  5
29D8
330
29BF
100
AcDbEntity
  8
図枠細線
  6
Continuous
 62
   252
100
AcDbText
 10
215.156179912936
 20
14.30660825335803
 30
0.0
 40
2.0
  1
図面番号
 41
1.102941176470588
  7
EXCADSTD
 72
     5
 11
225.156179912936
 21
14.30660825335803
 31
0.0
100
AcDbText
  0
TEXT
  5
29D9
330
29BF
100
AcDbEntity
  8
図枠細線
  6
Continuous
 62
   252
100
AcDbText
 10
221.5912296613478
 20
29.30660825335804
 30
0.0
 40
2.0
  1
ＴＩＴＬＥ
 41
0.903614457831315
  7
EXCADSTD
 72
     5
 11
231.5912296613477
 21
29.30660825335804
 31
0.0
100
AcDbText
  0
TEXT
  5
29DA
330
29BF
100
AcDbEntity
  8
図枠細線
  6
Continuous
 62
   252
100
AcDbText
 10
215.156179912936
 20
29.30660825335804
 30
0.0
 40
2.0
  1
名称
 41
1.171875
  7
EXCADSTD
 72
     5
 11
220.156179912936
 21
29.30660825335804
 31
0.0
100
AcDbText
  0
LINE
  5
29DB
330
29BF
100
AcDbEntity
  8
図枠太線
  6
Continuous
 62
   251
100
AcDbLine
 10
4.061011071050756
 20
1.806608253358034
 30
0.0
 11
284.0610110710508
 21
1.806608253358034
 31
0.0
  0
LINE
  5
29DC
330
29BF
100
AcDbEntity
  8
図枠細線
  6
Continuous
 62
   252
100
AcDbLine
 10
4.061011071050756
 20
6.806608253358033
 30
0.0
 11
75.06101107105073
 21
6.806608253358033
 31
0.0
  0
LINE
  5
29DD
330
29BF
100
AcDbEntity
  8
図枠太線
  6
Continuous
 62
   251
100
AcDbLine
 10
75.06101107105077
 20
1.80660825335804
 30
0.0
 11
75.06101107105077
 21
31.80660625335805
 31
0.0
  0
TEXT
  5
29DE
330
29BF
100
AcDbEntity
  8
図枠細線
  6
Continuous
 62
   252
100
AcDbText
 10
76.33055182771295
 20
6.638319253358017
 30
0.0
 40
2.0
  1
ＰＲＯＪＥＣＴＩＯＮ
 41
0.7542857101985407
  7
EXCADSTD
 72
     5
 11
93.93055173234555
 21
6.638319253358017
 31
0.0
100
AcDbText
  0
LINE
  5
29DF
330
29BF
100
AcDbEntity
  8
図枠細線
  6
Continuous
 62
   252
100
AcDbLine
 10
98.06101107105076
 20
1.806606931929469
 30
0.0
 11
98.06101107105076
 21
16.80660493192947
 31
0.0
  0
LINE
  5
29E0
330
29BF
100
AcDbEntity
  8
図枠細線
  6
Continuous
 62
   252
100
AcDbLine
 10
121.0610110710507
 20
1.80660757478662
 30
0.0
 11
121.0610110710507
 21
16.80660557478663
 31
0.0
  0
LINE
  5
29E1
330
29BF
100
AcDbEntity
  8
図枠太線
  6
Continuous
 62
   251
100
AcDbLine
 10
284.0610110710508
 20
1.806608253358034
 30
0.0
 11
284.0610110710508
 21
31.80660625335804
 31
0.0
  0
LINE
  5
29E2
330
29BF
100
AcDbEntity
  8
図枠細線
  6
Continuous
 62
   252
100
AcDbLine
 10
214.0610110710508
 20
16.80660625335804
 30
0.0
 11
284.0610110710508
 21
16.80660625335804
 31
0.0
  0
TEXT
  5
29E3
330
29BF
100
AcDbEntity
  8
図枠細線
  6
Continuous
 62
   252
100
AcDbText
 10
146.1995936761824
 20
3.454099253358037
 30
0.0
 40
3.5
  1
ＴＯＷＡ　ＳＥＩＤＥＮ　ＩＮＤＵＳＴＲＩＡＬ　ＣＯ．，ＬＴＤ．
 41
0.5289378269070806
  7
EXCADSTD
 72
     5
 11
213.3394351715878
 21
3.454099253358037
 31
0.0
100
AcDbText
  0
LINE
  5
29E4
330
29BF
100
AcDbEntity
  8
図枠太線
  6
Continuous
 62
   251
100
AcDbLine
 10
144.0610110710506
 20
1.806608253358034
 30
0.0
 11
144.0610110710506
 21
31.80660625335804
 31
0.0
  0
LINE
  5
29E5
330
29BF
100
AcDbEntity
  8
図枠太線
  6
Continuous
 62
   251
100
AcDbLine
 10
214.0610110710508
 20
1.806608253358034
 30
0.0
 11
214.0610110710508
 21
31.80660625335804
 31
0.0
  0
MTEXT
  5
29E6
330
29BF
100
AcDbEntity
  8
図枠太線
100
AcDbMText
 10
5.064337346478396
 20
31.0109821374075
 30
0.0
 40
2.5
 41
8.678560984720206
 71
     1
 72
     5
  1
{\Fmonotxt.shx,bigfont.shx|c128;図暦}
 73
     1
 44
1.0
1001
ACAD
1000
MTEXTBEGIN
1070
    73
1070
     1
1070
    44
1040
1.0
1070
    74
1070
     0
1000
MTEXTEND
  0
LINE
  5
29E7
330
29BF
100
AcDbEntity
  8
図枠太線
  6
Continuous
 62
   251
100
AcDbLine
 10
4.061011071050756
 20
1.806608253358034
 30
0.0
 11
4.061011071050756
 21
31.80660625335804
 31
0.0
  0
TEXT
  5
29E8
330
29BF
100
AcDbEntity
  8
図枠細線
 48
10.0
100
AcDbText
 10
12.26081742040207
 20
28.62541962649539
 30
0.0
 40
2.0
  1
CHANGE NOTICE
100
AcDbText
  0
ENDBLK
  5
29E9
330
29BF
100
AcDbEntity
  8
0
100
AcDbBlockEnd
  0
BLOCK
  5
29F5
330
29F4
100
AcDbEntity
  8
0
100
AcDbBlockBegin
  2
A4縦用　タイトル
 70
     0
 10
0.0
 20
0.0
 30
0.0
  3
A4縦用　タイトル
  1

  0
LINE
  5
29F6
330
29F4
100
AcDbEntity
  8
図枠太線
  6
Continuous
 62
   251
100
AcDbLine
 10
2.36825386426733
 20
4.525433224583933
 30
0.0
 11
192.3682458642673
 21
4.525433224583933
 31
0.0
  0
LINE
  5
29F7
330
29F4
100
AcDbEntity
  8
図枠太線
  6
Continuous
 62
   251
100
AcDbLine
 10
78.36824586426731
 20
19.52543122458394
 30
0.0
 11
135.3682538642673
 21
19.52543122458394
 31
0.0
  0
LINE
  5
29F8
330
29F4
100
AcDbEntity
  8
図枠細線
  6
Continuous
 62
   252
100
AcDbLine
 10
78.36825386426733
 20
27.02543122458394
 30
0.0
 11
135.3682538642673
 21
27.02543122458394
 31
0.0
  0
TEXT
  5
29F9
330
29F4
100
AcDbEntity
  8
図枠ロゴマーク
  6
Continuous
 62
   253
100
AcDbText
 10
80.61700986426728
 20
11.11782522458395
 30
0.0
 40
7.0
  1
東和制電工業株式会社
 41
0.6392045454545459
  7
EXCADSTD
 72
     5
 11
133.1170098642673
 21
11.11782522458395
 31
0.0
100
AcDbText
  0
TEXT
  5
29FA
330
29F4
100
AcDbEntity
  8
図枠細線
  6
Continuous
 62
   252
100
AcDbText
 10
80.57954986426727
 20
6.172924224583937
 30
0.0
 40
3.5
  1
ＴＯＷＡ　ＳＥＩＤＥＮ　ＩＮＤＵＳＴＲＩＡＬ　ＣＯ．，ＬＴＤ．
 41
0.4145680123767935
  7
EXCADSTD
 72
     5
 11
133.2020495686283
 21
6.172924224583937
 31
0.0
100
AcDbText
  0
LINE
  5
29FB
330
29F4
100
AcDbEntity
  8
図枠太線
  6
Continuous
 62
   251
100
AcDbLine
 10
2.36825386426733
 20
4.525433224583933
 30
0.0
 11
2.36825386426733
 21
34.52543122458394
 31
0.0
  0
TEXT
  5
29FC
330
29F4
100
AcDbEntity
  8
図枠細線
  6
Continuous
 62
   252
100
AcDbText
 10
22.50430813650149
 20
12.27913322458391
 30
0.0
 40
2.0
  1
ＴＨＩＲＤ　ＡＮＧＬＥ
 41
0.6910994867379728
  7
EXCADSTD
 72
     5
 11
40.10430839876185
 21
12.27913322458391
 31
0.0
100
AcDbText
  0
TEXT
  5
29FD
330
29F4
100
AcDbEntity
  8
図枠細線
  6
Continuous
 62
   252
100
AcDbText
 10
22.42938413650148
 20
9.357144224583919
 30
0.0
 40
2.0
  1
ＰＲＯＪＥＣＴＩＯＮ
 41
0.7542857101985414
  7
EXCADSTD
 72
     5
 11
40.0293840411341
 21
9.357144224583919
 31
0.0
100
AcDbText
  0
LINE
  5
29FE
330
29F4
100
AcDbEntity
  8
図枠細線
  6
Continuous
100
AcDbLine
 10
22.36825386426733
 20
19.52543322458392
 30
0.0
 11
78.36825386426733
 21
19.52543122458394
 31
0.0
  0
TEXT
  5
29FF
330
29F4
100
AcDbEntity
  8
図枠細線
  6
Continuous
 62
   252
100
AcDbText
 10
22.86825386426733
 20
17.02543322458392
 30
0.0
 40
2.0
  1
第三角法
 41
1.102941176470588
  7
EXCADSTD
 72
     5
 11
32.86825386426733
 21
17.02543322458392
 31
0.0
100
AcDbText
  0
TEXT
  5
2A00
330
29F4
100
AcDbEntity
  8
図枠細線
  6
Continuous
 62
   252
100
AcDbText
 10
22.86825386426733
 20
29.52543322458394
 30
0.0
 40
2.0
  1
ＡＰＰＲＯＶＥＤ
 41
0.6956521842790688
  7
EXCADSTD
 72
     5
 11
35.6682540550022
 21
29.52543322458394
 31
0.0
100
AcDbText
  0
LINE
  5
2A01
330
29F4
100
AcDbEntity
  8
図枠細線
  6
Continuous
 62
   252
100
AcDbLine
 10
2.36825386426733
 20
9.525433224583935
 30
0.0
 11
22.36825386426733
 21
9.525433224583935
 31
0.0
  0
LINE
  5
2A02
330
29F4
100
AcDbEntity
  8
図枠細線
  6
Continuous
 62
   252
100
AcDbLine
 10
2.36825386426733
 20
14.52543122458394
 30
0.0
 11
22.36825386426733
 21
14.52543122458394
 31
0.0
  0
LINE
  5
2A03
330
29F4
100
AcDbEntity
  8
図枠細線
  6
Continuous
 62
   252
100
AcDbLine
 10
2.36825386426733
 20
24.52543122458394
 30
0.0
 11
22.36825386426733
 21
24.52543122458394
 31
0.0
  0
LINE
  5
2A04
330
29F4
100
AcDbEntity
  8
図枠細線
  6
Continuous
 62
   252
100
AcDbLine
 10
2.36825386426733
 20
29.52543122458394
 30
0.0
 11
22.36825386426733
 21
29.52543122458394
 31
0.0
  0
LINE
  5
2A05
330
29F4
100
AcDbEntity
  8
図枠細線
  6
Continuous
100
AcDbLine
 10
2.36825386426733
 20
19.52543322458392
 30
0.0
 11
22.36825386426733
 21
19.52543322458392
 31
0.0
  0
TEXT
  5
2A06
330
29F4
100
AcDbEntity
  8
図枠細線
  6
Continuous
 62
   252
100
AcDbText
 10
2.86825386426733
 20
32.02543322458395
 30
0.0
 40
2.0
  1
ＮＯＴＥ
 41
0.9230769230769231
  7
EXCADSTD
 72
     5
 11
10.86825386426733
 21
32.02543322458395
 31
0.0
100
AcDbText
  0
LINE
  5
2A07
330
29F4
100
AcDbEntity
  8
図枠太線
  6
Continuous
 62
   251
100
AcDbLine
 10
22.36825386426733
 20
4.525433224583933
 30
0.0
 11
22.36825386426733
 21
34.52543122458394
 31
0.0
  0
TEXT
  5
2A08
330
29F4
100
AcDbEntity
  8
図枠細線
  6
Continuous
 62
   252
100
AcDbText
 10
22.86825386426733
 20
32.02543322458395
 30
0.0
 40
2.0
  1
承認
 41
1.171875
  7
EXCADSTD
 72
     5
 11
27.86825386426733
 21
32.02543322458395
 31
0.0
100
AcDbText
  0
TEXT
  5
2A09
330
29F4
100
AcDbEntity
  8
図枠細線
  6
Continuous
 62
   252
100
AcDbText
 10
60.7117090359817
 20
32.02543322458395
 30
0.0
 40
2.0
  1
製図
 41
1.209677419354837
  7
EXCADSTD
 72
     5
 11
65.7117090359817
 21
32.02543322458395
 31
0.0
100
AcDbText
  0
TEXT
  5
2A0A
330
29F4
100
AcDbEntity
  8
図枠細線
  6
Continuous
 62
   252
100
AcDbText
 10
60.7117090359817
 20
29.52543322458394
 30
0.0
 40
2.0
  1
ＤＲＡＷＮ
 41
0.8823529411764699
  7
EXCADSTD
 72
     5
 11
70.7117090359817
 21
29.52543322458394
 31
0.0
100
AcDbText
  0
TEXT
  5
2A0B
330
29F4
100
AcDbEntity
  8
図枠細線
  6
Continuous
 62
   252
100
AcDbText
 10
60.83489174387715
 20
17.02543322458392
 30
0.0
 40
2.0
  1
日付
 41
1.171875000000001
  7
EXCADSTD
 72
     5
 11
65.83489174387715
 21
17.02543322458392
 31
0.0
100
AcDbText
  0
TEXT
  5
2A0C
330
29F4
100
AcDbEntity
  8
図枠細線
  6
Continuous
 62
   252
100
AcDbText
 10
47.33366086426729
 20
17.02543322458392
 30
0.0
 40
2.0
  1
ＳＣＡＬＥ
 41
0.903614457831326
  7
EXCADSTD
 72
     5
 11
57.3336608642673
 21
17.02543322458392
 31
0.0
100
AcDbText
  0
TEXT
  5
2A0D
330
29F4
100
AcDbEntity
  8
図枠細線
  6
Continuous
 62
   252
100
AcDbText
 10
42.28142599008207
 20
29.52543322458394
 30
0.0
 40
2.0
  1
ＣＨＥＣＫＥＤ
 41
0.8312499895691871
  7
EXCADSTD
 72
     5
 11
55.58142582318907
 21
29.52543322458394
 31
0.0
100
AcDbText
  0
LINE
  5
2A0E
330
29F4
100
AcDbEntity
  8
図枠細線
  6
Continuous
 62
   252
100
AcDbLine
 10
40.96825386426733
 20
34.52543122458394
 30
0.0
 11
40.96825386426733
 21
19.52543122458394
 31
0.0
  0
LINE
  5
2A0F
330
29F4
100
AcDbEntity
  8
図枠細線
  6
Continuous
 62
   252
100
AcDbLine
 10
40.96825386426733
 20
4.525433224583933
 30
0.0
 11
40.96825386426733
 21
19.52543122458394
 31
0.0
  0
TEXT
  5
2A10
330
29F4
100
AcDbEntity
  8
図枠細線
  6
Continuous
 62
   252
100
AcDbText
 10
41.96117386426727
 20
17.02543322458392
 30
0.0
 40
2.0
  1
尺度
 41
1.171874999999999
  7
EXCADSTD
 72
     5
 11
46.96117386426727
 21
17.02543322458392
 31
0.0
100
AcDbText
  0
TEXT
  5
2A11
330
29F4
100
AcDbEntity
  8
図枠細線
  6
Continuous
 62
   252
100
AcDbText
 10
42.28142599008207
 20
32.02543322458395
 30
0.0
 40
2.0
  1
検図
 41
1.209677419354842
  7
EXCADSTD
 72
     5
 11
47.28142599008208
 21
32.02543322458395
 31
0.0
100
AcDbText
  0
LINE
  5
2A12
330
29F4
100
AcDbEntity
  8
図枠細線
  6
Continuous
 62
   252
100
AcDbLine
 10
59.76825386426733
 20
34.52543122458394
 30
0.0
 11
59.76825386426733
 21
19.52543122458394
 31
0.0
  0
LINE
  5
2A13
330
29F4
100
AcDbEntity
  8
図枠細線
  6
Continuous
 62
   252
100
AcDbLine
 10
59.76825386426733
 20
4.525433224583933
 30
0.0
 11
59.76825386426733
 21
19.52543122458394
 31
0.0
  0
LINE
  5
2A14
330
29F4
100
AcDbEntity
  8
図枠太線
  6
Continuous
 62
   251
100
AcDbLine
 10
78.36825386426733
 20
4.525433224583933
 30
0.0
 11
78.36825386426733
 21
34.52543122458394
 31
0.0
  0
TEXT
  5
2A15
330
29F4
100
AcDbEntity
  8
図枠細線
  6
Continuous
 62
   252
100
AcDbText
 10
66.33489174387715
 20
17.02543322458392
 30
0.0
 40
2.0
  1
ＤＡＴＥ
 41
0.9230769230769229
  7
EXCADSTD
 72
     5
 11
74.33489174387715
 21
17.02543322458392
 31
0.0
100
AcDbText
  0
LINE
  5
2A16
330
29F4
100
AcDbEntity
  8
図枠細線
  6
Continuous
 62
   252
100
AcDbLine
 10
135.3682538642673
 20
19.52543122458394
 30
0.0
 11
192.3682458642673
 21
19.52543122458394
 31
0.0
  0
TEXT
  5
2A17
330
29F4
100
AcDbEntity
  8
図枠細線
  6
Continuous
 62
   252
100
AcDbText
 10
141.8682538642673
 20
32.02543322458395
 30
0.0
 40
2.0
  1
ＴＩＴＬＥ
 41
0.9036144578313251
  7
EXCADSTD
 72
     5
 11
151.8682538642673
 21
32.02543322458395
 31
0.0
100
AcDbText
  0
LINE
  5
2A18
330
29F4
100
AcDbEntity
  8
図枠太線
  6
Continuous
 62
   251
100
AcDbLine
 10
135.3682538642673
 20
4.525433224583933
 30
0.0
 11
135.3682538642673
 21
34.52543122458394
 31
0.0
  0
TEXT
  5
2A19
330
29F4
100
AcDbEntity
  8
図枠細線
  6
Continuous
 62
   252
100
AcDbText
 10
135.8682538642673
 20
17.02543322458392
 30
0.0
 40
2.0
  1
図面番号
 41
1.102941176470588
  7
EXCADSTD
 72
     5
 11
145.8682538642673
 21
17.02543322458392
 31
0.0
100
AcDbText
  0
TEXT
  5
2A1A
330
29F4
100
AcDbEntity
  8
図枠細線
  6
Continuous
 62
   252
100
AcDbText
 10
135.8682538642673
 20
32.02543322458395
 30
0.0
 40
2.0
  1
名称
 41
1.171875
  7
EXCADSTD
 72
     5
 11
140.8682538642673
 21
32.02543322458395
 31
0.0
100
AcDbText
  0
TEXT
  5
2A1B
330
29F4
100
AcDbEntity
  8
図枠細線
  6
Continuous
 62
   252
100
AcDbText
 10
146.8682538642673
 20
17.02543322458392
 30
0.0
 40
2.0
  1
ＤＲＧ．ＮＯ．
 41
0.9375
  7
EXCADSTD
 72
     5
 11
160.8682538642673
 21
17.02543322458392
 31
0.0
100
AcDbText
  0
LINE
  5
2A1C
330
29F4
100
AcDbEntity
  8
図枠太線
  6
Continuous
 62
   251
100
AcDbLine
 10
192.3682458642673
 20
4.525433224583933
 30
0.0
 11
192.3682458642673
 21
34.52543122458394
 31
0.0
  0
ENDBLK
  5
2A1D
330
29F4
100
AcDbEntity
  8
0
100
AcDbBlockEnd
  0
BLOCK
  5
2A33
330
2A32
100
AcDbEntity
  8
0
100
AcDbBlockBegin
  2
A3横用　タイトル
 70
     0
 10
0.0
 20
0.0
 30
0.0
  3
A3横用　タイトル
  1

  0
LINE
  5
2A34
330
2A32
100
AcDbEntity
  8
図枠細線
  6
Continuous
 62
   252
100
AcDbLine
 10
205.0984145357926
 20
33.52595975352681
 30
0.0
 11
305.0984145357926
 21
33.52595975352681
 31
0.0
  0
LINE
  5
2A35
330
2A32
100
AcDbEntity
  8
図枠太線
  6
Continuous
 62
   251
100
AcDbLine
 10
205.0984145357927
 20
23.52595975352683
 30
0.0
 11
305.0984145357926
 21
23.52595975352683
 31
0.0
  0
LINE
  5
2A36
330
2A32
100
AcDbEntity
  8
図枠細線
  6
Continuous
100
AcDbLine
 10
5.098414535792699
 20
23.52595975352683
 30
0.0
 11
105.0984145357927
 21
23.52595975352683
 31
0.0
  0
LINE
  5
2A37
330
2A32
100
AcDbEntity
  8
図枠細線
  6
Continuous
 62
   252
100
AcDbLine
 10
5.098414535792702
 20
36.72595775352683
 30
0.0
 11
105.0984145357927
 21
36.72595775352683
 31
0.0
  0
LINE
  5
2A38
330
2A32
100
AcDbEntity
  8
図枠細線
  6
Continuous
 62
   252
100
AcDbLine
 10
5.098414535792699
 20
30.12595775352683
 30
0.0
 11
105.0984145357927
 21
30.12595775352683
 31
0.0
  0
LINE
  5
2A39
330
2A32
100
AcDbEntity
  8
図枠細線
  6
Continuous
 62
   252
100
AcDbLine
 10
5.098414535792699
 20
16.72595975352682
 30
0.0
 11
105.0984145357927
 21
16.72595975352682
 31
0.0
  0
LINE
  5
2A3A
330
2A32
100
AcDbEntity
  8
図枠細線
  6
Continuous
 62
   252
100
AcDbLine
 10
5.098414535792699
 20
10.12595975352682
 30
0.0
 11
105.0984145357927
 21
10.12595975352682
 31
0.0
  0
LINE
  5
2A3B
330
2A32
100
AcDbEntity
  8
図枠細線
  6
Continuous
100
AcDbLine
 10
105.0984145357926
 20
23.52596175352682
 30
0.0
 11
205.0984145357927
 21
23.52595975352683
 31
0.0
  0
LINE
  5
2A3C
330
2A32
100
AcDbEntity
  8
図枠細線
  6
Continuous
 62
   252
100
AcDbLine
 10
138.3984145357926
 20
43.52595975352682
 30
0.0
 11
138.3984145357926
 21
18.52595775352682
 31
0.0
  0
LINE
  5
2A3D
330
2A32
100
AcDbEntity
  8
図枠細線
  6
Continuous
 62
   252
100
AcDbLine
 10
171.6984145357926
 20
43.52595975352682
 30
0.0
 11
171.6984145357926
 21
18.52595775352682
 31
0.0
  0
LINE
  5
2A3E
330
2A32
100
AcDbEntity
  8
図枠細線
  6
Continuous
 62
   252
100
AcDbLine
 10
305.0984145357927
 20
23.52595975352683
 30
0.0
 11
405.0984145357927
 21
23.52595975352681
 31
0.0
  0
TEXT
  5
2A3F
330
2A32
100
AcDbEntity
  8
図枠ロゴマーク
  6
Continuous
 62
   253
100
AcDbText
 10
206.1025092127552
 20
13.29425757054633
 30
0.0
 40
7.0
  1
東和制電工業株式会社
 50
0.016555220184569
 41
1.186384129431804
  7
EXCADSTD
 72
     5
 11
303.5441883091428
 21
13.32241267221695
 31
0.0
100
AcDbText
  0
MTEXT
  5
2A40
330
2A32
100
AcDbEntity
  8
図枠細線
100
AcDbMText
 10
6.356764112374776
 20
41.97659417547753
 30
0.0
 40
2.5
 41
49.93828270629228
 71
     1
 72
     5
  1
{\Fmonotxt.shx,bigfont.shx|c128;図暦　CHANGE　NOTICE}
 73
     1
 44
1.0
1001
ACAD
1000
MTEXTBEGIN
1070
    73
1070
     1
1070
    44
1040
1.0
1070
    74
1070
     0
1000
MTEXTEND
  0
MTEXT
  5
2A41
330
2A32
100
AcDbEntity
  8
図枠細線
 48
10.0
100
AcDbMText
 10
306.5441149268283
 20
41.70183580093418
 30
0.0
 40
2.5
 41
28.00280961882254
 71
     1
 72
     5
  1
{\Fmonotxt.shx,bigfont.shx|c128;名称　TITLE}
 73
     1
 44
1.0
1001
ACAD
1000
MTEXTBEGIN
1070
    73
1070
     1
1070
    44
1040
1.0
1070
    74
1070
     0
1000
MTEXTEND
  0
MTEXT
  5
2A42
330
2A32
100
AcDbEntity
  8
図枠細線
 48
10.0
100
AcDbMText
 10
307.3296171142835
 20
21.60620679722615
 30
0.0
 40
2.5
 41
24.38561221670716
 71
     1
 72
     5
  1
{\Fmonotxt.shx,bigfont.shx|c128;図面番号\PDRG.　No.}
 73
     1
 44
1.0
1001
ACAD
1000
MTEXTBEGIN
1070
    73
1070
     1
1070
    44
1040
1.0
1070
    74
1070
     0
1000
MTEXTEND
  0
MTEXT
  5
2A43
330
2A32
100
AcDbEntity
  8
図枠細線
 48
10.0
100
AcDbMText
 10
173.7263494046087
 20
21.73680662198024
 30
0.0
 40
2.5
 41
25.73509016081289
 71
     1
 72
     5
  1
{\Fmonotxt.shx,bigfont.shx|c128;日付 DATE}
 73
     1
 44
1.0
1001
ACAD
1000
MTEXTBEGIN
1070
    73
1070
     1
1070
    44
1040
1.0
1070
    74
1070
     0
1000
MTEXTEND
  0
MTEXT
  5
2A44
330
2A32
100
AcDbEntity
  8
図枠細線
 48
10.0
100
AcDbMText
 10
173.4870883398201
 20
41.62159204499768
 30
0.0
 40
2.5
 41
24.98374118420452
 71
     1
 72
     5
  1
{\Fmonotxt.shx,bigfont.shx|c128;製図　DRAWN}
 73
     1
 44
1.0
1001
ACAD
1000
MTEXTBEGIN
1070
    73
1070
     1
1070
    44
1040
1.0
1070
    74
1070
     0
1000
MTEXTEND
  0
MTEXT
  5
2A45
330
2A32
100
AcDbEntity
  8
図枠細線
 48
10.0
100
AcDbMText
 10
139.28009927741
 20
21.8667130698675
 30
0.0
 40
2.5
 41
22.62963291324309
 71
     1
 72
     5
  1
{\Fmonotxt.shx,bigfont.shx|c128;尺度　SCALE}
 73
     1
 44
1.0
1001
ACAD
1000
MTEXTBEGIN
1070
    73
1070
     1
1070
    44
1040
1.0
1070
    74
1070
     0
1000
MTEXTEND
  0
MTEXT
  5
2A46
330
2A32
100
AcDbEntity
  8
図枠細線
 48
10.0
100
AcDbMText
 10
139.9100911798348
 20
41.31184041555377
 30
0.0
 40
2.5
 41
28.99875342836845
 71
     1
 72
     5
  1
{\Fmonotxt.shx,bigfont.shx|c128;検図  CHECKED}
 73
     1
 44
1.0
1001
ACAD
1000
MTEXTBEGIN
1070
    73
1070
     1
1070
    44
1040
1.0
1070
    74
1070
     0
1000
MTEXTEND
  0
MTEXT
  5
2A47
330
2A32
100
AcDbEntity
  8
図枠細線
 48
10.0
100
AcDbMText
 10
114.2532946677281
 20
21.91612485017367
 30
0.0
 40
3.0
 41
19.69240047538346
 71
     1
 72
     5
  1
{\Fmonotxt.shx,bigfont.shx|c128;第三角法}
 73
     1
 44
1.0
1001
ACAD
1000
MTEXTBEGIN
1070
    73
1070
     1
1070
    44
1040
1.0
1070
    74
1070
     0
1000
MTEXTEND
  0
MTEXT
  5
2A48
330
2A32
100
AcDbEntity
  8
図枠細線
 48
10.0
100
AcDbMText
 10
108.9869599299147
 20
15.28288018583657
 30
0.0
 40
2.5
 41
27.95488282354722
 71
     1
 72
     5
  1
{\Fmonotxt.shx,bigfont.shx|c128;THIRD ANGLE\PPROJECTION}
 73
     1
 44
1.0
1001
ACAD
1000
MTEXTBEGIN
1070
    73
1070
     1
1070
    44
1040
1.0
1070
    74
1070
     0
1000
MTEXTEND
  0
MTEXT
  5
2A49
330
2A32
100
AcDbEntity
  8
図枠細線
 48
10.0
100
AcDbMText
 10
106.3194326401844
 20
41.51143714548664
 30
0.0
 40
2.5
 41
28.23359526507397
 71
     1
 72
     5
  1
{\Fmonotxt.shx,bigfont.shx|c128;承認 APPROVED}
 73
     1
 44
1.0
1001
ACAD
1000
MTEXTBEGIN
1070
    73
1070
     1
1070
    44
1040
1.0
1070
    74
1070
     0
1000
MTEXTEND
  0
LINE
  5
2A4A
330
2A32
100
AcDbEntity
  8
図枠太線
  6
Continuous
 62
   251
100
AcDbLine
 10
5.098414535792699
 20
3.525959753526818
 30
0.0
 11
405.0984145357927
 21
3.525959753526818
 31
0.0
  0
LINE
  5
2A4B
330
2A32
100
AcDbEntity
  8
図枠太線
 48
10.0
100
AcDbLine
 10
5.098414535792699
 20
3.525959753526818
 30
0.0
 11
5.098414535792699
 21
43.52595975352682
 31
0.0
  0
LINE
  5
2A4C
330
2A32
100
AcDbEntity
  8
図枠太線
  6
Continuous
 62
   251
100
AcDbLine
 10
105.0984145357927
 20
3.525959753526818
 30
0.0
 11
105.0984145357927
 21
43.52595975352683
 31
0.0
  0
LINE
  5
2A4D
330
2A32
100
AcDbEntity
  8
図枠細線
  6
Continuous
 62
   252
100
AcDbLine
 10
138.3984145357926
 20
3.525959753526818
 30
0.0
 11
138.3984145357926
 21
18.52595775352682
 31
0.0
  0
LINE
  5
2A4E
330
2A32
100
AcDbEntity
  8
図枠細線
  6
Continuous
 62
   252
100
AcDbLine
 10
171.6984145357926
 20
3.525959753526818
 30
0.0
 11
171.6984145357926
 21
18.52595775352682
 31
0.0
  0
LINE
  5
2A4F
330
2A32
100
AcDbEntity
  8
図枠太線
  6
Continuous
 62
   251
100
AcDbLine
 10
205.0984145357927
 20
3.525959753526818
 30
0.0
 11
205.0984145357927
 21
43.52595975352683
 31
0.0
  0
LINE
  5
2A50
330
2A32
100
AcDbEntity
  8
図枠太線
 48
10.0
100
AcDbLine
 10
405.0984145357927
 20
43.52595975352682
 30
0.0
 11
405.0984145357927
 21
3.525959753526818
 31
0.0
  0
TEXT
  5
2A51
330
2A32
100
AcDbEntity
  8
図枠細線
  6
Continuous
 62
   252
100
AcDbText
 10
208.5197544745715
 20
6.48235840728546
 30
0.0
 40
3.5
  1
ＴＯＷＡ　ＳＥＩＤＥＮ　ＩＮＤＵＳＴＲＩＡＬ　ＣＯ．，ＬＴＤ．
 41
0.7466562975091006
  7
EXCADSTD
 72
     5
 11
303.2953271717267
 21
6.48235840728546
 31
0.0
100
AcDbText
  0
LINE
  5
2A52
330
2A32
100
AcDbEntity
  8
図枠太線
  6
Continuous
 62
   251
100
AcDbLine
 10
305.0984145357927
 20
3.525959753526818
 30
0.0
 11
305.0984145357927
 21
43.52595975352683
 31
0.0
  0
ENDBLK
  5
2A53
330
2A32
100
AcDbEntity
  8
0
100
AcDbBlockEnd
  0
BLOCK
  5
2A6D
330
2A6C
100
AcDbEntity
  8
0
100
AcDbBlockBegin
  2
A3縦用　タイトル
 70
     0
 10
0.0
 20
0.0
 30
0.0
  3
A3縦用　タイトル
  1

  0
MTEXT
  5
2A6E
330
2A6C
100
AcDbEntity
  8
図枠細線
100
AcDbMText
 10
5.040804501592901
 20
31.62609864900492
 30
0.0
 40
2.5
 41
49.93828270629228
 71
     1
 72
     5
  1
{\Fmonotxt.shx,bigfont.shx|c128;図暦　CHANGE　NOTICE}
 73
     1
 44
1.0
1001
ACAD
1000
MTEXTBEGIN
1070
    73
1070
     1
1070
    44
1040
1.0
1070
    74
1070
     0
1000
MTEXTEND
  0
LINE
  5
2A6F
330
2A6C
100
AcDbEntity
  8
図枠太線
  6
Continuous
 62
   251
100
AcDbLine
 10
283.5778718829611
 20
2.820844689254272
 30
0.0
 11
283.5778718829611
 21
32.82084268925428
 31
0.0
  0
MTEXT
  5
2A70
330
2A6C
100
AcDbEntity
  8
図枠細線
 48
10.0
100
AcDbMText
 10
214.9124589474543
 20
31.62148863230834
 30
0.0
 40
2.5
 41
28.00280961882254
 71
     1
 72
     5
  1
{\Fmonotxt.shx,bigfont.shx|c128;名称　TITLE}
 73
     1
 44
1.0
1001
ACAD
1000
MTEXTBEGIN
1070
    73
1070
     1
1070
    44
1040
1.0
1070
    74
1070
     0
1000
MTEXTEND
  0
MTEXT
  5
2A71
330
2A6C
100
AcDbEntity
  8
図枠細線
 48
10.0
100
AcDbMText
 10
214.740030458938
 20
16.31022579672151
 30
0.0
 40
2.5
 41
24.38561221670716
 71
     1
 72
     5
  1
{\Fmonotxt.shx,bigfont.shx|c128;図面番号\PDRG.　No.}
 73
     1
 44
1.0
1001
ACAD
1000
MTEXTBEGIN
1070
    73
1070
     1
1070
    44
1040
1.0
1070
    74
1070
     0
1000
MTEXTEND
  0
LINE
  5
2A72
330
2A6C
100
AcDbEntity
  8
図枠太線
  6
Continuous
 62
   251
100
AcDbLine
 10
213.5778718829611
 20
2.820844689254272
 30
0.0
 11
213.5778718829611
 21
32.82084268925428
 31
0.0
  0
LINE
  5
2A73
330
2A6C
100
AcDbEntity
  8
図枠太線
  6
Continuous
 62
   251
100
AcDbLine
 10
143.577871882961
 20
2.820844689254272
 30
0.0
 11
143.577871882961
 21
32.82084268925428
 31
0.0
  0
TEXT
  5
2A74
330
2A6C
100
AcDbEntity
  8
図枠細線
  6
Continuous
 62
   252
100
AcDbText
 10
145.7164544880927
 20
4.468335689254271
 30
0.0
 40
3.5
  1
ＴＯＷＡ　ＳＥＩＤＥＮ　ＩＮＤＵＳＴＲＩＡＬ　ＣＯ．，ＬＴＤ．
 41
0.5289378269070799
  7
EXCADSTD
 72
     5
 11
212.856295983498
 21
4.468335689254271
 31
0.0
100
AcDbText
  0
TEXT
  5
2A75
330
2A6C
100
AcDbEntity
  8
図枠ロゴマーク
  6
Continuous
 62
   253
100
AcDbText
 10
145.9506375935066
 20
9.413236689254286
 30
0.0
 40
7.0
  1
東和制電工業株式会社
 41
0.8036108846195517
  7
EXCADSTD
 72
     5
 11
211.9538782502591
 21
9.413236689254286
 31
0.0
100
AcDbText
  0
LINE
  5
2A76
330
2A6C
100
AcDbEntity
  8
図枠細線
  6
Continuous
 62
   252
100
AcDbLine
 10
143.577871882961
 20
25.32084268925428
 30
0.0
 11
213.5778718829611
 21
25.32084268925428
 31
0.0
  0
LINE
  5
2A77
330
2A6C
100
AcDbEntity
  8
図枠太線
  6
Continuous
 62
   251
100
AcDbLine
 10
143.577863882961
 20
17.82084268925428
 30
0.0
 11
213.5778718829611
 21
17.82084268925428
 31
0.0
  0
LINE
  5
2A78
330
2A6C
100
AcDbEntity
  8
図枠細線
  6
Continuous
 62
   252
100
AcDbLine
 10
213.5778718829611
 20
17.82084268925428
 30
0.0
 11
283.5778718829611
 21
17.82084268925428
 31
0.0
  0
LINE
  5
2A79
330
2A6C
100
AcDbEntity
  8
図枠細線
  6
Continuous
 62
   252
100
AcDbLine
 10
120.577871882961
 20
32.82084268925429
 30
0.0
 11
120.577871882961
 21
17.82084268925428
 31
0.0
  0
MTEXT
  5
2A7A
330
2A6C
100
AcDbEntity
  8
図枠細線
 48
10.0
100
AcDbMText
 10
121.1008856703524
 20
16.33785922638049
 30
0.0
 40
2.0
 41
17.70597828506834
 71
     1
 72
     5
  1
{\Fmonotxt.shx,bigfont.shx|c128;日付 DATE}
 73
     1
 44
1.0
1001
ACAD
1000
MTEXTBEGIN
1070
    73
1070
     1
1070
    44
1040
1.0
1070
    74
1070
     0
1000
MTEXTEND
  0
MTEXT
  5
2A7B
330
2A6C
100
AcDbEntity
  8
図枠細線
 48
10.0
100
AcDbMText
 10
121.254842273491
 20
31.20899351403704
 30
0.0
 40
2.0
 41
18.36379956875839
 71
     1
 72
     5
  1
{\Fmonotxt.shx,bigfont.shx|c128;製図　DRAWN}
 73
     1
 44
1.0
1001
ACAD
1000
MTEXTBEGIN
1070
    73
1070
     1
1070
    44
1040
1.0
1070
    74
1070
     0
1000
MTEXTEND
  0
LINE
  5
2A7C
330
2A6C
100
AcDbEntity
  8
図枠細線
  6
Continuous
 62
   252
100
AcDbLine
 10
97.57787188296106
 20
32.82084268925428
 30
0.0
 11
97.57787188296106
 21
17.82084268925428
 31
0.0
  0
MTEXT
  5
2A7D
330
2A6C
100
AcDbEntity
  8
図枠細線
 48
10.0
100
AcDbMText
 10
98.23973479687195
 20
16.46776483928056
 30
0.0
 40
2.0
 41
17.75779168990334
 71
     1
 72
     5
  1
{\Fmonotxt.shx,bigfont.shx|c128;尺度　SCALE}
 73
     1
 44
1.0
1001
ACAD
1000
MTEXTBEGIN
1070
    73
1070
     1
1070
    44
1040
1.0
1070
    74
1070
     0
1000
MTEXTEND
  0
MTEXT
  5
2A7E
330
2A6C
100
AcDbEntity
  8
図枠細線
 48
10.0
100
AcDbMText
 10
97.86474462515366
 20
31.29843337766442
 30
0.0
 40
2.0
 41
23.16265592097625
 71
     1
 72
     5
  1
{\Fmonotxt.shx,bigfont.shx|c128;検図  CHECKED}
 73
     1
 44
1.0
1001
ACAD
1000
MTEXTBEGIN
1070
    73
1070
     1
1070
    44
1040
1.0
1070
    74
1070
     0
1000
MTEXTEND
  0
LINE
  5
2A7F
330
2A6C
100
AcDbEntity
  8
図枠細線
  6
Continuous
 62
   252
100
AcDbLine
 10
97.57787188296106
 20
2.820843367825701
 30
0.0
 11
97.57787188296106
 21
17.82084136782571
 31
0.0
  0
LINE
  5
2A80
330
2A6C
100
AcDbEntity
  8
図枠細線
  6
Continuous
 62
   252
100
AcDbLine
 10
120.577871882961
 20
2.820844010682861
 30
0.0
 11
120.577871882961
 21
17.82084201068286
 31
0.0
  0
MTEXT
  5
2A81
330
2A6C
100
AcDbEntity
  8
図枠細線
 48
10.0
100
AcDbMText
 10
81.40239908410171
 20
16.3164841174256
 30
0.0
 40
2.0
 41
12.9203228193694
 71
     1
 72
     5
  1
{\Fmonotxt.shx,bigfont.shx|c128;第三角法}
 73
     1
 44
1.0
1001
ACAD
1000
MTEXTBEGIN
1070
    73
1070
     1
1070
    44
1040
1.0
1070
    74
1070
     0
1000
MTEXTEND
  0
MTEXT
  5
2A82
330
2A6C
100
AcDbEntity
  8
図枠細線
 48
10.0
100
AcDbMText
 10
75.73657653509553
 20
11.08041093131885
 30
0.0
 40
2.0
 41
21.07287067147126
 71
     1
 72
     5
  1
{\Fmonotxt.shx,bigfont.shx|c128;THIRD ANGLE\PPROJECTION}
 73
     1
 44
1.0
1001
ACAD
1000
MTEXTBEGIN
1070
    73
1070
     1
1070
    44
1040
1.0
1070
    74
1070
     0
1000
MTEXTEND
  0
LINE
  5
2A83
330
2A6C
100
AcDbEntity
  8
図枠太線
  6
Continuous
 62
   251
100
AcDbLine
 10
74.57787188296106
 20
2.820844689254278
 30
0.0
 11
74.57787188296106
 21
32.82084268925429
 31
0.0
  0
MTEXT
  5
2A84
330
2A6C
100
AcDbEntity
  8
図枠細線
 48
10.0
100
AcDbMText
 10
75.06021478157276
 20
31.29843477855525
 30
0.0
 40
2.0
 41
22.24092880596732
 71
     1
 72
     5
  1
{\Fmonotxt.shx,bigfont.shx|c128;承認 APPROVED}
 73
     1
 44
1.0
1001
ACAD
1000
MTEXTBEGIN
1070
    73
1070
     1
1070
    44
1040
1.0
1070
    74
1070
     0
1000
MTEXTEND
  0
LINE
  5
2A85
330
2A6C
100
AcDbEntity
  8
図枠細線
  6
Continuous
100
AcDbLine
 10
3.577871882961062
 20
17.82084468925427
 30
0.0
 11
74.57787188296106
 21
17.82084468925427
 31
0.0
  0
LINE
  5
2A86
330
2A6C
100
AcDbEntity
  8
図枠細線
  6
Continuous
 62
   252
100
AcDbLine
 10
3.577871882961062
 20
27.82084268925428
 30
0.0
 11
74.57787188296106
 21
27.82084268925428
 31
0.0
  0
LINE
  5
2A87
330
2A6C
100
AcDbEntity
  8
図枠細線
  6
Continuous
 62
   252
100
AcDbLine
 10
3.577871882961062
 20
22.82084268925428
 30
0.0
 11
74.57787188296106
 21
22.82084268925428
 31
0.0
  0
LINE
  5
2A88
330
2A6C
100
AcDbEntity
  8
図枠細線
  6
Continuous
 62
   252
100
AcDbLine
 10
3.577871882961062
 20
12.82084268925428
 30
0.0
 11
74.57787188296106
 21
12.82084268925428
 31
0.0
  0
LINE
  5
2A89
330
2A6C
100
AcDbEntity
  8
図枠細線
  6
Continuous
 62
   252
100
AcDbLine
 10
3.577871882961062
 20
7.820844689254271
 30
0.0
 11
74.57787188296106
 21
7.820844689254271
 31
0.0
  0
LINE
  5
2A8A
330
2A6C
100
AcDbEntity
  8
図枠細線
  6
Continuous
100
AcDbLine
 10
74.57787188296106
 20
17.82084368925428
 30
0.0
 11
143.577871882961
 21
17.82084122496857
 31
0.0
  0
LINE
  5
2A8B
330
2A6C
100
AcDbEntity
  8
図枠太線
  6
Continuous
 62
   251
100
AcDbLine
 10
3.577871882961062
 20
2.820844689254272
 30
0.0
 11
283.5778718829611
 21
2.820844689254272
 31
0.0
  0
LINE
  5
2A8C
330
2A6C
100
AcDbEntity
  8
図枠太線
  6
Continuous
 62
   251
100
AcDbLine
 10
3.577871882961062
 20
2.820844689254271
 30
0.0
 11
3.577871882961062
 21
32.82084268925428
 31
0.0
  0
ENDBLK
  5
2A8D
330
2A6C
100
AcDbEntity
  8
0
100
AcDbBlockEnd
  0
BLOCK
  5
2AF8
330
2AF4
100
AcDbEntity
  8
0
 48
10.0
100
AcDbBlockBegin
  2
_Open30
 70
     0
 10
0.0
 20
0.0
 30
0.0
  3
_Open30
  1

  0
LINE
  5
2AF5
330
2AF4
100
AcDbEntity
  8
0
  6
ByBlock
 62
     0
370
    -2
100
AcDbLine
 10
-1.0
 20
0.26794919
 30
0.0
 11
0.0
 21
0.0
 31
0.0
  0
LINE
  5
2AF6
330
2AF4
100
AcDbEntity
  8
0
  6
ByBlock
 62
     0
370
    -2
100
AcDbLine
 10
0.0
 20
0.0
 30
0.0
 11
-1.0
 21
-0.26794919
 31
0.0
  0
LINE
  5
2AF7
330
2AF4
100
AcDbEntity
  8
0
  6
ByBlock
 62
     0
370
    -2
100
AcDbLine
 10
0.0
 20
0.0
 30
0.0
 11
-1.0
 21
0.0
 31
0.0
  0
ENDBLK
  5
2AF9
330
2AF4
100
AcDbEntity
  8
0
 48
10.0
100
AcDbBlockEnd
  0
BLOCK
  5
317E
330
3174
100
AcDbEntity
  8
0
 48
10.0
100
AcDbBlockBegin
  2
*D6
 70
     1
 10
0.0
 20
0.0
 30
0.0
  3
*D6
  1

  0
LINE
  5
33D2
330
3174
100
AcDbEntity
  8
寸法線
 62
     0
 48
10.0
370
    -2
100
AcDbLine
 10
1156.082008857955
 20
214.8726405300299
 30
0.0
 11
1156.082008857955
 21
117.4558112945001
 31
0.0
  0
LINE
  5
33D3
330
3174
100
AcDbEntity
  8
寸法線
 62
     0
 48
10.0
370
    -2
100
AcDbLine
 10
1078.082008857957
 20
214.8726405300299
 30
0.0
 11
1078.082008857957
 21
117.4558112945001
 31
0.0
  0
LINE
  5
33D4
330
3174
100
AcDbEntity
  8
寸法線
 62
     0
 48
10.0
370
    -2
100
AcDbLine
 10
1146.082008857955
 20
118.7058112945001
 30
0.0
 11
1088.082008857957
 21
118.7058112945001
 31
0.0
  0
SOLID
  5
33D5
330
3174
100
AcDbEntity
  8
寸法線
 62
     0
 48
10.0
100
AcDbTrace
 10
1146.082008857955
 20
120.3724779611668
 30
0.0
 11
1146.082008857955
 21
117.0391446278334
 31
0.0
 12
1156.082008857955
 22
118.7058112945001
 32
0.0
 13
1156.082008857955
 23
118.7058112945001
 33
0.0
  0
SOLID
  5
33D6
330
3174
100
AcDbEntity
  8
寸法線
 62
     0
 48
10.0
100
AcDbTrace
 10
1088.082008857957
 20
120.3724779611668
 30
0.0
 11
1088.082008857957
 21
117.0391446278334
 31
0.0
 12
1078.082008857957
 22
118.7058112945001
 32
0.0
 13
1078.082008857957
 23
118.7058112945001
 33
0.0
  0
MTEXT
  5
33D7
330
3174
100
AcDbEntity
  8
寸法線
 48
10.0
100
AcDbMText
 10
1116.656457167803
 20
127.3308112945001
 30
0.0
 40
16.0
 41
0.0
 71
     5
 72
     1
  1
\A1;φ78
 73
     1
 44
1.0
1001
ACAD
1000
MTEXTBEGIN
1070
    73
1070
     1
1070
    44
1040
1.0
1070
    74
1070
     0
1000
MTEXTEND
  0
POINT
  5
33D8
330
3174
100
AcDbEntity
  8
DEFPOINTS
 62
     0
 48
10.0
100
AcDbPoint
 10
1156.082008857955
 20
215.4976405300299
 30
0.0
  0
POINT
  5
33D9
330
3174
100
AcDbEntity
  8
DEFPOINTS
 62
     0
 48
10.0
100
AcDbPoint
 10
1078.082008857957
 20
215.4976405300299
 30
0.0
  0
POINT
  5
33DA
330
3174
100
AcDbEntity
  8
DEFPOINTS
 62
     0
 48
10.0
100
AcDbPoint
 10
1078.082008857957
 20
118.7058112945001
 30
0.0
  0
ENDBLK
  5
317F
330
3174
100
AcDbEntity
  8
0
 48
10.0
100
AcDbBlockEnd
  0
BLOCK
  5
3198
330
318C
100
AcDbEntity
  8
0
 48
10.0
100
AcDbBlockBegin
  2
*D7
 70
     1
 10
0.0
 20
0.0
 30
0.0
  3
*D7
  1

  0
LINE
  5
33DB
330
318C
100
AcDbEntity
  8
寸法線
 62
     0
 48
10.0
370
    -2
100
AcDbLine
 10
1211.670877545688
 20
855.4470913754631
 30
0.0
 11
1211.670877545688
 21
959.2625959463006
 31
0.0
  0
LINE
  5
33DC
330
318C
100
AcDbEntity
  8
寸法線
 62
     0
 48
10.0
370
    -2
100
AcDbLine
 10
1195.67087754569
 20
941.4470913754628
 30
0.0
 11
1195.67087754569
 21
959.2625959463006
 31
0.0
  0
LINE
  5
33DD
330
318C
100
AcDbEntity
  8
寸法線
 62
     0
 48
10.0
370
    -2
100
AcDbLine
 10
1185.67087754569
 20
958.0125959463009
 30
0.0
 11
1175.67087754569
 21
958.0125959463009
 31
0.0
  0
LINE
  5
33DE
330
318C
100
AcDbEntity
  8
寸法線
 62
     0
 48
10.0
370
    -2
100
AcDbLine
 10
1221.670877545688
 20
958.0125959463009
 30
0.0
 11
1260.642727939389
 21
958.0125959463009
 31
0.0
  0
LINE
  5
33DF
330
318C
100
AcDbEntity
  8
寸法線
 62
     0
 48
10.0
370
    -2
100
AcDbLine
 10
1195.67087754569
 20
958.0125959463009
 30
0.0
 11
1211.670877545688
 21
958.0125959463009
 31
0.0
  0
SOLID
  5
33E0
330
318C
100
AcDbEntity
  8
寸法線
 62
     0
 48
10.0
100
AcDbTrace
 10
1185.67087754569
 20
959.6792626129673
 30
0.0
 11
1185.67087754569
 21
956.3459292796339
 31
0.0
 12
1195.67087754569
 22
958.0125959463009
 32
0.0
 13
1195.67087754569
 23
958.0125959463009
 33
0.0
  0
SOLID
  5
33E1
330
318C
100
AcDbEntity
  8
寸法線
 62
     0
 48
10.0
100
AcDbTrace
 10
1221.670877545688
 20
959.6792626129673
 30
0.0
 11
1221.670877545688
 21
956.3459292796339
 31
0.0
 12
1211.670877545688
 22
958.0125959463009
 32
0.0
 13
1211.670877545688
 23
958.0125959463009
 33
0.0
  0
MTEXT
  5
33E2
330
318C
100
AcDbEntity
  8
寸法線
 48
10.0
100
AcDbMText
 10
1252.420877545688
 20
966.6375959463008
 30
0.0
 40
16.0
 41
0.0
 71
     5
 72
     1
  1
\A1;16
 73
     1
 44
1.0
1001
ACAD
1000
MTEXTBEGIN
1070
    73
1070
     1
1070
    44
1040
1.0
1070
    74
1070
     0
1000
MTEXTEND
  0
POINT
  5
33E3
330
318C
100
AcDbEntity
  8
DEFPOINTS
 62
     0
 48
10.0
100
AcDbPoint
 10
1211.670877545688
 20
854.8220913754631
 30
0.0
  0
POINT
  5
33E4
330
318C
100
AcDbEntity
  8
DEFPOINTS
 62
     0
 48
10.0
100
AcDbPoint
 10
1195.67087754569
 20
940.8220913754632
 30
0.0
  0
POINT
  5
33E5
330
318C
100
AcDbEntity
  8
DEFPOINTS
 62
     0
 48
10.0
100
AcDbPoint
 10
1195.67087754569
 20
958.0125959463009
 30
0.0
  0
ENDBLK
  5
3199
330
318C
100
AcDbEntity
  8
0
 48
10.0
100
AcDbBlockEnd
  0
BLOCK
  5
31A4
330
319A
100
AcDbEntity
  8
0
 48
10.0
100
AcDbBlockBegin
  2
*D8
 70
     1
 10
0.0
 20
0.0
 30
0.0
  3
*D8
  1

  0
LINE
  5
33E6
330
319A
100
AcDbEntity
  8
寸法線
 62
     0
 48
10.0
370
    -2
100
AcDbLine
 10
1195.670877545688
 20
941.4470913754628
 30
0.0
 11
1195.670877545688
 21
973.9228852296367
 31
0.0
  0
LINE
  5
33E7
330
319A
100
AcDbEntity
  8
寸法線
 62
     0
 48
10.0
370
    -2
100
AcDbLine
 10
1035.67087754569
 20
941.4470913754628
 30
0.0
 11
1035.67087754569
 21
973.9228852296367
 31
0.0
  0
LINE
  5
33E8
330
319A
100
AcDbEntity
  8
寸法線
 62
     0
 48
10.0
370
    -2
100
AcDbLine
 10
1185.670877545688
 20
972.6728852296366
 30
0.0
 11
1045.67087754569
 21
972.6728852296366
 31
0.0
  0
SOLID
  5
33E9
330
319A
100
AcDbEntity
  8
寸法線
 62
     0
 48
10.0
100
AcDbTrace
 10
1185.670877545688
 20
974.3395518963035
 30
0.0
 11
1185.670877545688
 21
971.0062185629702
 31
0.0
 12
1195.670877545688
 22
972.6728852296366
 32
0.0
 13
1195.670877545688
 23
972.6728852296366
 33
0.0
  0
SOLID
  5
33EA
330
319A
100
AcDbEntity
  8
寸法線
 62
     0
 48
10.0
100
AcDbTrace
 10
1045.67087754569
 20
974.3395518963035
 30
0.0
 11
1045.67087754569
 21
971.0062185629702
 31
0.0
 12
1035.67087754569
 22
972.6728852296366
 32
0.0
 13
1035.67087754569
 23
972.6728852296366
 33
0.0
  0
MTEXT
  5
33EB
330
319A
100
AcDbEntity
  8
寸法線
 48
10.0
100
AcDbMText
 10
1115.704610154973
 20
981.2978852296366
 30
0.0
 40
16.0
 41
0.0
 71
     5
 72
     1
  1
\A1;160
 73
     1
 44
1.0
1001
ACAD
1000
MTEXTBEGIN
1070
    73
1070
     1
1070
    44
1040
1.0
1070
    74
1070
     0
1000
MTEXTEND
  0
POINT
  5
33EC
330
319A
100
AcDbEntity
  8
DEFPOINTS
 62
     0
 48
10.0
100
AcDbPoint
 10
1195.670877545688
 20
940.8220913754632
 30
0.0
  0
POINT
  5
33ED
330
319A
100
AcDbEntity
  8
DEFPOINTS
 62
     0
 48
10.0
100
AcDbPoint
 10
1035.67087754569
 20
940.8220913754632
 30
0.0
  0
POINT
  5
33EE
330
319A
100
AcDbEntity
  8
DEFPOINTS
 62
     0
 48
10.0
100
AcDbPoint
 10
1035.67087754569
 20
972.6728852296366
 30
0.0
  0
ENDBLK
  5
31A5
330
319A
100
AcDbEntity
  8
0
 48
10.0
100
AcDbBlockEnd
  0
BLOCK
  5
31B2
330
31A6
100
AcDbEntity
  8
0
 48
10.0
100
AcDbBlockBegin
  2
*D9
 70
     1
 10
0.0
 20
0.0
 30
0.0
  3
*D9
  1

  0
LINE
  5
33EF
330
31A6
100
AcDbEntity
  8
寸法線
 62
     0
 48
10.0
370
    -2
100
AcDbLine
 10
1216.29587754569
 20
537.8220913754626
 30
0.0
 11
1257.308857495443
 21
537.8220913754626
 31
0.0
  0
LINE
  5
33F0
330
31A6
100
AcDbEntity
  8
寸法線
 62
     0
 48
10.0
370
    -2
100
AcDbLine
 10
1216.29587754569
 20
521.8220913754635
 30
0.0
 11
1257.308857495443
 21
521.8220913754635
 31
0.0
  0
LINE
  5
33F1
330
31A6
100
AcDbEntity
  8
寸法線
 62
     0
 48
10.0
370
    -2
100
AcDbLine
 10
1256.058857495442
 20
511.8220913754633
 30
0.0
 11
1256.058857495442
 21
501.8220913754634
 31
0.0
  0
LINE
  5
33F2
330
31A6
100
AcDbEntity
  8
寸法線
 62
     0
 48
10.0
370
    -2
100
AcDbLine
 10
1256.058857495443
 20
547.8220913754626
 30
0.0
 11
1256.058857495443
 21
580.5236848236233
 31
0.0
  0
LINE
  5
33F3
330
31A6
100
AcDbEntity
  8
寸法線
 62
     0
 48
10.0
370
    -2
100
AcDbLine
 10
1256.058857495443
 20
521.8220913754635
 30
0.0
 11
1256.058857495443
 21
537.8220913754626
 31
0.0
  0
SOLID
  5
33F4
330
31A6
100
AcDbEntity
  8
寸法線
 62
     0
 48
10.0
100
AcDbTrace
 10
1254.392190828776
 20
511.8220913754633
 30
0.0
 11
1257.725524162109
 21
511.8220913754633
 31
0.0
 12
1256.058857495443
 22
521.8220913754635
 32
0.0
 13
1256.058857495443
 23
521.8220913754635
 33
0.0
  0
SOLID
  5
33F5
330
31A6
100
AcDbEntity
  8
寸法線
 62
     0
 48
10.0
100
AcDbTrace
 10
1254.392190828776
 20
547.8220913754626
 30
0.0
 11
1257.72552416211
 21
547.8220913754626
 31
0.0
 12
1256.058857495443
 22
537.8220913754626
 32
0.0
 13
1256.058857495443
 23
537.8220913754626
 33
0.0
  0
MTEXT
  5
33F6
330
31A6
100
AcDbEntity
  8
寸法線
 48
10.0
100
AcDbMText
 10
1247.433857495442
 20
572.3018344299227
 30
0.0
 40
16.0
 41
0.0
 71
     5
 72
     1
  1
\A1;16
 11
0.0000000000000001
 21
1.0
 31
0.0
 73
     1
 44
1.0
1001
ACAD
1000
MTEXTBEGIN
1070
    73
1070
     1
1070
    44
1040
1.0
1070
    74
1070
     0
1000
MTEXTEND
  0
POINT
  5
33F7
330
31A6
100
AcDbEntity
  8
DEFPOINTS
 62
     0
 48
10.0
100
AcDbPoint
 10
1215.67087754569
 20
537.8220913754626
 30
0.0
  0
POINT
  5
33F8
330
31A6
100
AcDbEntity
  8
DEFPOINTS
 62
     0
 48
10.0
100
AcDbPoint
 10
1215.67087754569
 20
521.8220913754635
 30
0.0
  0
POINT
  5
33F9
330
31A6
100
AcDbEntity
  8
DEFPOINTS
 62
     0
 48
10.0
100
AcDbPoint
 10
1256.058857495443
 20
521.8220913754635
 30
0.0
  0
ENDBLK
  5
31B3
330
31A6
100
AcDbEntity
  8
0
 48
10.0
100
AcDbBlockEnd
  0
BLOCK
  5
31BE
330
31B4
100
AcDbEntity
  8
0
 48
10.0
100
AcDbBlockBegin
  2
*D10
 70
     1
 10
0.0
 20
0.0
 30
0.0
  3
*D10
  1

  0
LINE
  5
33FA
330
31B4
100
AcDbEntity
  8
寸法線
 62
     0
 48
10.0
370
    -2
100
AcDbLine
 10
1172.670877545688
 20
566.7786915976785
 30
0.0
 11
1172.670877545688
 21
571.0935273376221
 31
0.0
  0
LINE
  5
33FB
330
31B4
100
AcDbEntity
  8
寸法線
 62
     0
 48
10.0
370
    -2
100
AcDbLine
 10
1058.670877545688
 20
566.7786915976785
 30
0.0
 11
1058.670877545688
 21
571.0935273376221
 31
0.0
  0
LINE
  5
33FC
330
31B4
100
AcDbEntity
  8
寸法線
 62
     0
 48
10.0
370
    -2
100
AcDbLine
 10
1182.670877545688
 20
569.8435273376222
 30
0.0
 11
1192.670877545688
 21
569.8435273376222
 31
0.0
  0
LINE
  5
33FD
330
31B4
100
AcDbEntity
  8
寸法線
 62
     0
 48
10.0
370
    -2
100
AcDbLine
 10
1048.670877545688
 20
569.8435273376222
 30
0.0
 11
891.1871767582866
 21
569.8435273376222
 31
0.0
  0
LINE
  5
33FE
330
31B4
100
AcDbEntity
  8
寸法線
 62
     0
 48
10.0
370
    -2
100
AcDbLine
 10
1172.670877545688
 20
569.8435273376222
 30
0.0
 11
1058.670877545688
 21
569.8435273376222
 31
0.0
  0
SOLID
  5
33FF
330
31B4
100
AcDbEntity
  8
寸法線
 62
     0
 48
10.0
100
AcDbTrace
 10
1182.670877545688
 20
571.5101940042887
 30
0.0
 11
1182.670877545688
 21
568.1768606709555
 31
0.0
 12
1172.670877545688
 22
569.8435273376222
 32
0.0
 13
1172.670877545688
 23
569.8435273376222
 33
0.0
  0
SOLID
  5
3400
330
31B4
100
AcDbEntity
  8
寸法線
 62
     0
 48
10.0
100
AcDbTrace
 10
1048.670877545688
 20
571.5101940042887
 30
0.0
 11
1048.670877545688
 21
568.1768606709555
 31
0.0
 12
1058.670877545688
 22
569.8435273376222
 32
0.0
 13
1058.670877545688
 23
569.8435273376222
 33
0.0
  0
MTEXT
  5
3401
330
31B4
100
AcDbEntity
  8
寸法線
 48
10.0
100
AcDbMText
 10
964.9290271519872
 20
578.4969544623682
 30
0.0
 40
16.0
 41
0.0
 71
     5
 72
     1
  1
\A1;SGP100A　φ114
 73
     1
 44
1.0
1001
ACAD
1000
MTEXTBEGIN
1070
    73
1070
     1
1070
    44
1040
1.0
1070
    74
1070
     0
1000
MTEXTEND
  0
POINT
  5
3402
330
31B4
100
AcDbEntity
  8
DEFPOINTS
 62
     0
 48
10.0
100
AcDbPoint
 10
1172.670877545688
 20
566.1536915976784
 30
0.0
  0
POINT
  5
3403
330
31B4
100
AcDbEntity
  8
DEFPOINTS
 62
     0
 48
10.0
100
AcDbPoint
 10
1058.670877545688
 20
566.1536915976784
 30
0.0
  0
POINT
  5
3404
330
31B4
100
AcDbEntity
  8
DEFPOINTS
 62
     0
 48
10.0
100
AcDbPoint
 10
1058.670877545688
 20
569.8435273376222
 30
0.0
  0
ENDBLK
  5
31BF
330
31B4
100
AcDbEntity
  8
0
 48
10.0
100
AcDbBlockEnd
  0
BLOCK
  5
31CA
330
31C0
100
AcDbEntity
  8
0
 48
10.0
100
AcDbBlockBegin
  2
*D11
 70
     1
 10
0.0
 20
0.0
 30
0.0
  3
*D11
  1

  0
LINE
  5
3405
330
31C0
100
AcDbEntity
  8
寸法線
 62
     0
 48
10.0
370
    -2
100
AcDbLine
 10
1196.29587754569
 20
940.8220913754632
 30
0.0
 11
1308.72448409546
 21
940.8220913754629
 31
0.0
  0
LINE
  5
3406
330
31C0
100
AcDbEntity
  8
寸法線
 62
     0
 48
10.0
370
    -2
100
AcDbLine
 10
1216.29587754569
 20
521.8220913754635
 30
0.0
 11
1308.72448409546
 21
521.8220913754634
 31
0.0
  0
LINE
  5
3407
330
31C0
100
AcDbEntity
  8
寸法線
 62
     0
 48
10.0
370
    -2
100
AcDbLine
 10
1307.47448409546
 20
930.8220913754627
 30
0.0
 11
1307.47448409546
 21
531.8220913754633
 31
0.0
  0
SOLID
  5
3408
330
31C0
100
AcDbEntity
  8
寸法線
 62
     0
 48
10.0
100
AcDbTrace
 10
1305.807817428793
 20
930.8220913754627
 30
0.0
 11
1309.141150762127
 21
930.8220913754627
 31
0.0
 12
1307.47448409546
 22
940.8220913754629
 32
0.0
 13
1307.47448409546
 23
940.8220913754629
 33
0.0
  0
SOLID
  5
3409
330
31C0
100
AcDbEntity
  8
寸法線
 62
     0
 48
10.0
100
AcDbTrace
 10
1305.807817428793
 20
531.8220913754633
 30
0.0
 11
1309.141150762127
 21
531.8220913754633
 31
0.0
 12
1307.47448409546
 22
521.8220913754634
 32
0.0
 13
1307.47448409546
 23
521.8220913754634
 33
0.0
  0
MTEXT
  5
340A
330
31C0
100
AcDbEntity
  8
寸法線
 48
10.0
100
AcDbMText
 10
1298.84948409546
 20
774.8220913754607
 30
0.0
 40
16.0
 41
0.0
 71
     5
 72
     1
  1
\A1;419
 11
0.0000000000000001
 21
1.0
 31
0.0
 73
     1
 44
1.0
1001
ACAD
1000
MTEXTBEGIN
1070
    73
1070
     1
1070
    44
1040
1.0
1070
    74
1070
     0
1000
MTEXTEND
  0
POINT
  5
340B
330
31C0
100
AcDbEntity
  8
DEFPOINTS
 62
     0
 48
10.0
100
AcDbPoint
 10
1195.67087754569
 20
940.8220913754632
 30
0.0
  0
POINT
  5
340C
330
31C0
100
AcDbEntity
  8
DEFPOINTS
 62
     0
 48
10.0
100
AcDbPoint
 10
1215.67087754569
 20
521.8220913754635
 30
0.0
  0
POINT
  5
340D
330
31C0
100
AcDbEntity
  8
DEFPOINTS
 62
     0
 48
10.0
100
AcDbPoint
 10
1307.47448409546
 20
521.8220913754634
 30
0.0
  0
ENDBLK
  5
31CB
330
31C0
100
AcDbEntity
  8
0
 48
10.0
100
AcDbBlockEnd
  0
BLOCK
  5
31D6
330
31CC
100
AcDbEntity
  8
0
 48
10.0
100
AcDbBlockBegin
  2
*D12
 70
     1
 10
0.0
 20
0.0
 30
0.0
  3
*D12
  1

  0
LINE
  5
340E
330
31CC
100
AcDbEntity
  8
寸法線
 62
     0
 48
10.0
370
    -2
100
AcDbLine
 10
805.0458775456899
 20
916.9440487586099
 30
0.0
 11
759.1680981683987
 21
916.9440487586099
 31
0.0
  0
LINE
  5
340F
330
31CC
100
AcDbEntity
  8
寸法線
 62
     0
 48
10.0
370
    -2
100
AcDbLine
 10
805.0458775456899
 20
658.3190487586094
 30
0.0
 11
759.1680981683984
 21
658.3190487586095
 31
0.0
  0
LINE
  5
3410
330
31CC
100
AcDbEntity
  8
寸法線
 62
     0
 48
10.0
370
    -2
100
AcDbLine
 10
760.4180981683987
 20
906.9440487586099
 30
0.0
 11
760.4180981683986
 21
668.3190487586093
 31
0.0
  0
SOLID
  5
3411
330
31CC
100
AcDbEntity
  8
寸法線
 62
     0
 48
10.0
100
AcDbTrace
 10
758.7514315017322
 20
906.9440487586099
 30
0.0
 11
762.0847648350653
 21
906.9440487586099
 31
0.0
 12
760.4180981683987
 22
916.9440487586099
 32
0.0
 13
760.4180981683987
 23
916.9440487586099
 33
0.0
  0
SOLID
  5
3412
330
31CC
100
AcDbEntity
  8
寸法線
 62
     0
 48
10.0
100
AcDbTrace
 10
758.751431501732
 20
668.3190487586093
 30
0.0
 11
762.0847648350653
 21
668.3190487586093
 31
0.0
 12
760.4180981683986
 22
658.3190487586095
 32
0.0
 13
760.4180981683986
 23
658.3190487586095
 33
0.0
  0
MTEXT
  5
3413
330
31CC
100
AcDbEntity
  8
寸法線
 48
10.0
100
AcDbMText
 10
751.7915233652487
 20
787.6315487586087
 30
0.0
 40
16.0
 41
0.0
 71
     5
 72
     1
  1
\A1;258
 11
0.0000000000000001
 21
1.0
 31
0.0
 73
     1
 44
1.0
1001
ACAD
1000
MTEXTBEGIN
1070
    73
1070
     1
1070
    44
1040
1.0
1070
    74
1070
     0
1000
MTEXTEND
  0
POINT
  5
3414
330
31CC
100
AcDbEntity
  8
DEFPOINTS
 62
     0
 48
10.0
100
AcDbPoint
 10
805.67087754569
 20
916.9440487586099
 30
0.0
  0
POINT
  5
3415
330
31CC
100
AcDbEntity
  8
DEFPOINTS
 62
     0
 48
10.0
100
AcDbPoint
 10
805.67087754569
 20
658.3190487586094
 30
0.0
  0
POINT
  5
3416
330
31CC
100
AcDbEntity
  8
DEFPOINTS
 62
     0
 48
10.0
100
AcDbPoint
 10
760.4180981683986
 20
658.3190487586095
 30
0.0
  0
ENDBLK
  5
31D7
330
31CC
100
AcDbEntity
  8
0
 48
10.0
100
AcDbBlockEnd
  0
BLOCK
  5
31E2
330
31D8
100
AcDbEntity
  8
0
 48
10.0
100
AcDbBlockBegin
  2
*D13
 70
     1
 10
0.0
 20
0.0
 30
0.0
  3
*D13
  1

  0
LINE
  5
3417
330
31D8
100
AcDbEntity
  8
寸法線
 62
     0
 48
10.0
370
    -2
100
AcDbLine
 10
863.6708775456892
 20
600.1249971822592
 30
0.0
 11
863.6708775456892
 21
571.7149070983309
 31
0.0
  0
LINE
  5
3418
330
31D8
100
AcDbEntity
  8
寸法線
 62
     0
 48
10.0
370
    -2
100
AcDbLine
 10
805.67087754569
 20
657.6940487586092
 30
0.0
 11
805.67087754569
 21
571.7149070983309
 31
0.0
  0
LINE
  5
3419
330
31D8
100
AcDbEntity
  8
寸法線
 62
     0
 48
10.0
370
    -2
100
AcDbLine
 10
853.6708775456887
 20
572.964907098331
 30
0.0
 11
815.67087754569
 21
572.964907098331
 31
0.0
  0
SOLID
  5
341A
330
31D8
100
AcDbEntity
  8
寸法線
 62
     0
 48
10.0
100
AcDbTrace
 10
853.6708775456887
 20
574.6315737649974
 30
0.0
 11
853.6708775456887
 21
571.2982404316642
 31
0.0
 12
863.6708775456892
 22
572.964907098331
 32
0.0
 13
863.6708775456892
 23
572.964907098331
 33
0.0
  0
SOLID
  5
341B
330
31D8
100
AcDbEntity
  8
寸法線
 62
     0
 48
10.0
100
AcDbTrace
 10
815.67087754569
 20
574.6315737649974
 30
0.0
 11
815.67087754569
 21
571.2982404316642
 31
0.0
 12
805.67087754569
 22
572.964907098331
 32
0.0
 13
805.67087754569
 23
572.964907098331
 33
0.0
  0
MTEXT
  5
341C
330
31D8
100
AcDbEntity
  8
寸法線
 48
10.0
100
AcDbMText
 10
836.6708775456887
 20
581.5899070983307
 30
0.0
 40
16.0
 41
0.0
 71
     5
 72
     1
  1
\A1;58
 73
     1
 44
1.0
1001
ACAD
1000
MTEXTBEGIN
1070
    73
1070
     1
1070
    44
1040
1.0
1070
    74
1070
     0
1000
MTEXTEND
  0
POINT
  5
341D
330
31D8
100
AcDbEntity
  8
DEFPOINTS
 62
     0
 48
10.0
100
AcDbPoint
 10
863.6708775456892
 20
600.7499971822592
 30
0.0
  0
POINT
  5
341E
330
31D8
100
AcDbEntity
  8
DEFPOINTS
 62
     0
 48
10.0
100
AcDbPoint
 10
805.67087754569
 20
658.3190487586094
 30
0.0
  0
POINT
  5
341F
330
31D8
100
AcDbEntity
  8
DEFPOINTS
 62
     0
 48
10.0
100
AcDbPoint
 10
805.67087754569
 20
572.964907098331
 30
0.0
  0
ENDBLK
  5
31E3
330
31D8
100
AcDbEntity
  8
0
 48
10.0
100
AcDbBlockEnd
  0
BLOCK
  5
31EE
330
31E4
100
AcDbEntity
  8
0
 48
10.0
100
AcDbBlockBegin
  2
*D14
 70
     1
 10
0.0
 20
0.0
 30
0.0
  3
*D14
  1

  0
LINE
  5
3420
330
31E4
100
AcDbEntity
  8
寸法線
 62
     0
 48
10.0
370
    -2
100
AcDbLine
 10
1195.67087754569
 20
941.4470913754628
 30
0.0
 11
1195.67087754569
 21
994.3065434947207
 31
0.0
  0
LINE
  5
3421
330
31E4
100
AcDbEntity
  8
寸法線
 62
     0
 48
10.0
370
    -2
100
AcDbLine
 10
805.67087754569
 20
917.5690487586098
 30
0.0
 11
805.67087754569
 21
994.3065434947207
 31
0.0
  0
LINE
  5
3422
330
31E4
100
AcDbEntity
  8
寸法線
 62
     0
 48
10.0
370
    -2
100
AcDbLine
 10
1185.67087754569
 20
993.0565434947206
 30
0.0
 11
815.67087754569
 21
993.0565434947206
 31
0.0
  0
SOLID
  5
3423
330
31E4
100
AcDbEntity
  8
寸法線
 62
     0
 48
10.0
100
AcDbTrace
 10
1185.67087754569
 20
994.7232101613874
 30
0.0
 11
1185.67087754569
 21
991.3898768280541
 31
0.0
 12
1195.67087754569
 22
993.0565434947206
 32
0.0
 13
1195.67087754569
 23
993.0565434947206
 33
0.0
  0
SOLID
  5
3424
330
31E4
100
AcDbEntity
  8
寸法線
 62
     0
 48
10.0
100
AcDbTrace
 10
815.67087754569
 20
994.7232101613874
 30
0.0
 11
815.67087754569
 21
991.3898768280541
 31
0.0
 12
805.67087754569
 22
993.0565434947206
 32
0.0
 13
805.67087754569
 23
993.0565434947206
 33
0.0
  0
MTEXT
  5
3425
330
31E4
100
AcDbEntity
  8
寸法線
 48
10.0
100
AcDbMText
 10
1020.573726427125
 20
1001.68154349472
 30
0.0
 40
16.0
 41
0.0
 71
     5
 72
     1
  1
\A1;390
 73
     1
 44
1.0
1001
ACAD
1000
MTEXTBEGIN
1070
    73
1070
     1
1070
    44
1040
1.0
1070
    74
1070
     0
1000
MTEXTEND
  0
POINT
  5
3426
330
31E4
100
AcDbEntity
  8
DEFPOINTS
 62
     0
 48
10.0
100
AcDbPoint
 10
1195.67087754569
 20
940.8220913754632
 30
0.0
  0
POINT
  5
3427
330
31E4
100
AcDbEntity
  8
DEFPOINTS
 62
     0
 48
10.0
100
AcDbPoint
 10
805.67087754569
 20
916.9440487586099
 30
0.0
  0
POINT
  5
3428
330
31E4
100
AcDbEntity
  8
DEFPOINTS
 62
     0
 48
10.0
100
AcDbPoint
 10
805.67087754569
 20
993.0565434947206
 30
0.0
  0
ENDBLK
  5
31EF
330
31E4
100
AcDbEntity
  8
0
 48
10.0
100
AcDbBlockEnd
  0
BLOCK
  5
31FA
330
31F0
100
AcDbEntity
  8
0
 48
10.0
100
AcDbBlockBegin
  2
*D15
 70
     1
 10
0.0
 20
0.0
 30
0.0
  3
*D15
  1

  0
LINE
  5
3429
330
31F0
100
AcDbEntity
  8
寸法線
 62
     0
 48
10.0
370
    -2
100
AcDbLine
 10
1156.707008857956
 20
215.4976405300299
 30
0.0
 11
1186.207521765042
 21
215.4976405300299
 31
0.0
  0
LINE
  5
342A
330
31F0
100
AcDbEntity
  8
寸法線
 62
     0
 48
10.0
370
    -2
100
AcDbLine
 10
1117.707008857957
 20
165.4976405300303
 30
0.0
 11
1186.207521765042
 21
165.4976405300303
 31
0.0
  0
LINE
  5
342B
330
31F0
100
AcDbEntity
  8
寸法線
 62
     0
 48
10.0
370
    -2
100
AcDbLine
 10
1184.957521765042
 20
205.4976405300299
 30
0.0
 11
1184.957521765042
 21
175.4976405300303
 31
0.0
  0
SOLID
  5
342C
330
31F0
100
AcDbEntity
  8
寸法線
 62
     0
 48
10.0
100
AcDbTrace
 10
1183.290855098376
 20
205.4976405300299
 30
0.0
 11
1186.624188431709
 21
205.4976405300299
 31
0.0
 12
1184.957521765042
 22
215.4976405300299
 32
0.0
 13
1184.957521765042
 23
215.4976405300299
 33
0.0
  0
SOLID
  5
342D
330
31F0
100
AcDbEntity
  8
寸法線
 62
     0
 48
10.0
100
AcDbTrace
 10
1183.290855098376
 20
175.4976405300303
 30
0.0
 11
1186.624188431709
 21
175.4976405300303
 31
0.0
 12
1184.957521765042
 22
165.4976405300303
 32
0.0
 13
1184.957521765042
 23
165.4976405300303
 33
0.0
  0
MTEXT
  5
342E
330
31F0
100
AcDbEntity
  8
寸法線
 48
10.0
100
AcDbMText
 10
1176.332521765043
 20
190.4976405300303
 30
0.0
 40
16.0
 41
0.0
 71
     5
 72
     1
  1
\A1;50
 11
0.0000000000000001
 21
1.0
 31
0.0
 73
     1
 44
1.0
1001
ACAD
1000
MTEXTBEGIN
1070
    73
1070
     1
1070
    44
1040
1.0
1070
    74
1070
     0
1000
MTEXTEND
  0
POINT
  5
342F
330
31F0
100
AcDbEntity
  8
DEFPOINTS
 62
     0
 48
10.0
100
AcDbPoint
 10
1156.082008857955
 20
215.4976405300299
 30
0.0
  0
POINT
  5
3430
330
31F0
100
AcDbEntity
  8
DEFPOINTS
 62
     0
 48
10.0
100
AcDbPoint
 10
1117.082008857956
 20
165.4976405300303
 30
0.0
  0
POINT
  5
3431
330
31F0
100
AcDbEntity
  8
DEFPOINTS
 62
     0
 48
10.0
100
AcDbPoint
 10
1184.957521765042
 20
165.4976405300303
 30
0.0
  0
ENDBLK
  5
31FB
330
31F0
100
AcDbEntity
  8
0
 48
10.0
100
AcDbBlockEnd
  0
BLOCK
  5
3206
330
31FC
100
AcDbEntity
  8
0
 48
10.0
100
AcDbBlockBegin
  2
*D16
 70
     1
 10
0.0
 20
0.0
 30
0.0
  3
*D16
  1

  0
LINE
  5
3432
330
31FC
100
AcDbEntity
  8
寸法線
 62
     0
 48
10.0
370
    -2
100
AcDbLine
 10
1137.911082185984
 20
215.4976405300299
 30
0.0
 11
1186.207521765042
 21
215.4976405300299
 31
0.0
  0
LINE
  5
3433
330
31FC
100
AcDbEntity
  8
寸法線
 62
     0
 48
10.0
370
    -2
100
AcDbLine
 10
1117.207866156934
 20
521.8220913754635
 30
0.0
 11
1186.207521765042
 21
521.8220913754635
 31
0.0
  0
LINE
  5
3434
330
31FC
100
AcDbEntity
  8
寸法線
 62
     0
 48
10.0
370
    -2
100
AcDbLine
 10
1184.957521765042
 20
225.4976405300299
 30
0.0
 11
1184.957521765042
 21
511.8220913754633
 31
0.0
  0
SOLID
  5
3435
330
31FC
100
AcDbEntity
  8
寸法線
 62
     0
 48
10.0
100
AcDbTrace
 10
1183.290855098375
 20
225.4976405300299
 30
0.0
 11
1186.624188431708
 21
225.4976405300299
 31
0.0
 12
1184.957521765042
 22
215.4976405300299
 32
0.0
 13
1184.957521765042
 23
215.4976405300299
 33
0.0
  0
SOLID
  5
3436
330
31FC
100
AcDbEntity
  8
寸法線
 62
     0
 48
10.0
100
AcDbTrace
 10
1183.290855098375
 20
511.8220913754633
 30
0.0
 11
1186.624188431708
 21
511.8220913754633
 31
0.0
 12
1184.957521765042
 22
521.8220913754635
 32
0.0
 13
1184.957521765042
 23
521.8220913754635
 33
0.0
  0
MTEXT
  5
3437
330
31FC
100
AcDbEntity
  8
寸法線
 48
10.0
100
AcDbMText
 10
1176.332521765041
 20
366.7476405300299
 30
0.0
 40
16.0
 41
0.0
 71
     5
 72
     1
  1
\A1;500
 11
0.0000000000000001
 21
1.0
 31
0.0
 73
     1
 44
1.0
1001
ACAD
1000
MTEXTBEGIN
1070
    73
1070
     1
1070
    44
1040
1.0
1070
    74
1070
     0
1000
MTEXTEND
  0
POINT
  5
3438
330
31FC
100
AcDbEntity
  8
DEFPOINTS
 62
     0
 48
10.0
100
AcDbPoint
 10
1137.286082185984
 20
215.4976405300299
 30
0.0
  0
POINT
  5
3439
330
31FC
100
AcDbEntity
  8
DEFPOINTS
 62
     0
 48
10.0
100
AcDbPoint
 10
1116.582866156934
 20
521.8220913754635
 30
0.0
  0
POINT
  5
343A
330
31FC
100
AcDbEntity
  8
DEFPOINTS
 62
     0
 48
10.0
100
AcDbPoint
 10
1184.957521765042
 20
521.8220913754635
 30
0.0
  0
ENDBLK
  5
3207
330
31FC
100
AcDbEntity
  8
0
 48
10.0
100
AcDbBlockEnd
  0
BLOCK
  5
3212
330
3208
100
AcDbEntity
  8
0
 48
10.0
100
AcDbBlockBegin
  2
*D17
 70
     1
 10
0.0
 20
0.0
 30
0.0
  3
*D17
  1

  0
LINE
  5
343B
330
3208
100
AcDbEntity
  8
寸法線
 62
     0
 48
10.0
370
    -2
100
AcDbLine
 10
329.0508862267779
 20
688.2171649557078
 30
0.0
 11
329.0508862267779
 21
694.1892792019885
 31
0.0
  0
LINE
  5
343C
330
3208
100
AcDbEntity
  8
寸法線
 62
     0
 48
10.0
370
    -2
100
AcDbLine
 10
289.0508862267779
 20
681.954001057899
 30
0.0
 11
289.0508862267779
 21
694.1892792019885
 31
0.0
  0
LINE
  5
343D
330
3208
100
AcDbEntity
  8
寸法線
 62
     0
 48
10.0
370
    -2
100
AcDbLine
 10
319.050886226778
 20
692.9392792019885
 30
0.0
 11
299.050886226778
 21
692.9392792019885
 31
0.0
  0
SOLID
  5
343E
330
3208
100
AcDbEntity
  8
寸法線
 62
     0
 48
10.0
100
AcDbTrace
 10
319.050886226778
 20
694.6059458686549
 30
0.0
 11
319.050886226778
 21
691.2726125353218
 31
0.0
 12
329.0508862267779
 22
692.9392792019885
 32
0.0
 13
329.0508862267779
 23
692.9392792019885
 33
0.0
  0
SOLID
  5
343F
330
3208
100
AcDbEntity
  8
寸法線
 62
     0
 48
10.0
100
AcDbTrace
 10
299.050886226778
 20
694.6059458686549
 30
0.0
 11
299.050886226778
 21
691.2726125353218
 31
0.0
 12
289.0508862267779
 22
692.9392792019885
 32
0.0
 13
289.0508862267779
 23
692.9392792019885
 33
0.0
  0
MTEXT
  5
3440
330
3208
100
AcDbEntity
  8
寸法線
 48
10.0
100
AcDbMText
 10
309.050886226778
 20
701.5642792019884
 30
0.0
 40
16.0
 41
0.0
 71
     5
 72
     1
  1
\A1;40
 73
     1
 44
1.0
1001
ACAD
1000
MTEXTBEGIN
1070
    73
1070
     1
1070
    44
1040
1.0
1070
    74
1070
     0
1000
MTEXTEND
  0
POINT
  5
3441
330
3208
100
AcDbEntity
  8
DEFPOINTS
 62
     0
 48
10.0
100
AcDbPoint
 10
329.0508862267779
 20
687.592164955708
 30
0.0
  0
POINT
  5
3442
330
3208
100
AcDbEntity
  8
DEFPOINTS
 62
     0
 48
10.0
100
AcDbPoint
 10
289.0508862267779
 20
681.3290010578987
 30
0.0
  0
POINT
  5
3443
330
3208
100
AcDbEntity
  8
DEFPOINTS
 62
     0
 48
10.0
100
AcDbPoint
 10
289.0508862267779
 20
692.9392792019885
 30
0.0
  0
ENDBLK
  5
3213
330
3208
100
AcDbEntity
  8
0
 48
10.0
100
AcDbBlockEnd
  0
BLOCK
  5
321E
330
3214
100
AcDbEntity
  8
0
 48
10.0
100
AcDbBlockBegin
  2
*D18
 70
     1
 10
0.0
 20
0.0
 30
0.0
  3
*D18
  1

  0
LINE
  5
3444
330
3214
100
AcDbEntity
  8
寸法線
 62
     0
 48
10.0
370
    -2
100
AcDbLine
 10
247.4414288436292
 20
914.2565487586102
 30
0.0
 11
247.4414288436292
 21
962.4486767690145
 31
0.0
  0
LINE
  5
3445
330
3214
100
AcDbEntity
  8
寸法線
 62
     0
 48
10.0
370
    -2
100
AcDbLine
 10
505.4414288436291
 20
914.2565487586102
 30
0.0
 11
505.4414288436291
 21
962.4486767690145
 31
0.0
  0
LINE
  5
3446
330
3214
100
AcDbEntity
  8
寸法線
 62
     0
 48
10.0
370
    -2
100
AcDbLine
 10
257.4414288436292
 20
961.1986767690146
 30
0.0
 11
495.4414288436291
 21
961.1986767690146
 31
0.0
  0
SOLID
  5
3447
330
3214
100
AcDbEntity
  8
寸法線
 62
     0
 48
10.0
100
AcDbTrace
 10
257.4414288436292
 20
962.8653434356813
 30
0.0
 11
257.4414288436292
 21
959.532010102348
 31
0.0
 12
247.4414288436292
 22
961.1986767690146
 32
0.0
 13
247.4414288436292
 23
961.1986767690146
 33
0.0
  0
SOLID
  5
3448
330
3214
100
AcDbEntity
  8
寸法線
 62
     0
 48
10.0
100
AcDbTrace
 10
495.4414288436291
 20
962.8653434356813
 30
0.0
 11
495.4414288436291
 21
959.532010102348
 31
0.0
 12
505.4414288436291
 22
961.1986767690146
 32
0.0
 13
505.4414288436291
 23
961.1986767690146
 33
0.0
  0
MTEXT
  5
3449
330
3214
100
AcDbEntity
  8
寸法線
 48
10.0
100
AcDbMText
 10
376.4414288436291
 20
969.8252515721643
 30
0.0
 40
16.0
 41
0.0
 71
     5
 72
     1
  1
\A1;258
 73
     1
 44
1.0
1001
ACAD
1000
MTEXTBEGIN
1070
    73
1070
     1
1070
    44
1040
1.0
1070
    74
1070
     0
1000
MTEXTEND
  0
POINT
  5
344A
330
3214
100
AcDbEntity
  8
DEFPOINTS
 62
     0
 48
10.0
100
AcDbPoint
 10
247.4414288436292
 20
913.6315487586102
 30
0.0
  0
POINT
  5
344B
330
3214
100
AcDbEntity
  8
DEFPOINTS
 62
     0
 48
10.0
100
AcDbPoint
 10
505.4414288436291
 20
913.6315487586102
 30
0.0
  0
POINT
  5
344C
330
3214
100
AcDbEntity
  8
DEFPOINTS
 62
     0
 48
10.0
100
AcDbPoint
 10
505.4414288436291
 20
961.1986767690146
 30
0.0
  0
ENDBLK
  5
321F
330
3214
100
AcDbEntity
  8
0
 48
10.0
100
AcDbBlockEnd
  0
BLOCK
  5
322A
330
3220
100
AcDbEntity
  8
0
 48
10.0
100
AcDbBlockBegin
  2
*D19
 70
     1
 10
0.0
 20
0.0
 30
0.0
  3
*D19
  1

  0
LINE
  5
344D
330
3220
100
AcDbEntity
  8
寸法線
 62
     0
 48
10.0
370
    -2
100
AcDbLine
 10
241.4414288436292
 20
940.4470913754629
 30
0.0
 11
241.4414288436292
 21
983.5566662366804
 31
0.0
  0
LINE
  5
344E
330
3220
100
AcDbEntity
  8
寸法線
 62
     0
 48
10.0
370
    -2
100
AcDbLine
 10
511.4414288436291
 20
940.4470913754629
 30
0.0
 11
511.4414288436291
 21
983.5566662366804
 31
0.0
  0
LINE
  5
344F
330
3220
100
AcDbEntity
  8
寸法線
 62
     0
 48
10.0
370
    -2
100
AcDbLine
 10
251.4414288436292
 20
982.3066662366805
 30
0.0
 11
501.4414288436291
 21
982.3066662366805
 31
0.0
  0
SOLID
  5
3450
330
3220
100
AcDbEntity
  8
寸法線
 62
     0
 48
10.0
100
AcDbTrace
 10
251.4414288436292
 20
983.9733329033473
 30
0.0
 11
251.4414288436292
 21
980.6399995700138
 31
0.0
 12
241.4414288436292
 22
982.3066662366805
 32
0.0
 13
241.4414288436292
 23
982.3066662366805
 33
0.0
  0
SOLID
  5
3451
330
3220
100
AcDbEntity
  8
寸法線
 62
     0
 48
10.0
100
AcDbTrace
 10
501.4414288436291
 20
983.9733329033473
 30
0.0
 11
501.4414288436291
 21
980.6399995700138
 31
0.0
 12
511.4414288436291
 22
982.3066662366805
 32
0.0
 13
511.4414288436291
 23
982.3066662366805
 33
0.0
  0
MTEXT
  5
3452
330
3220
100
AcDbEntity
  8
寸法線
 48
10.0
100
AcDbMText
 10
376.4414288436291
 20
990.9332410398301
 30
0.0
 40
16.0
 41
0.0
 71
     5
 72
     1
  1
\A1;270
 73
     1
 44
1.0
1001
ACAD
1000
MTEXTBEGIN
1070
    73
1070
     1
1070
    44
1040
1.0
1070
    74
1070
     0
1000
MTEXTEND
  0
POINT
  5
3453
330
3220
100
AcDbEntity
  8
DEFPOINTS
 62
     0
 48
10.0
100
AcDbPoint
 10
241.4414288436292
 20
939.8220913754633
 30
0.0
  0
POINT
  5
3454
330
3220
100
AcDbEntity
  8
DEFPOINTS
 62
     0
 48
10.0
100
AcDbPoint
 10
511.4414288436291
 20
939.8220913754633
 30
0.0
  0
POINT
  5
3455
330
3220
100
AcDbEntity
  8
DEFPOINTS
 62
     0
 48
10.0
100
AcDbPoint
 10
511.4414288436291
 20
982.3066662366805
 30
0.0
  0
ENDBLK
  5
322B
330
3220
100
AcDbEntity
  8
0
 48
10.0
100
AcDbBlockEnd
  0
BLOCK
  5
3236
330
322C
100
AcDbEntity
  8
0
 48
10.0
100
AcDbBlockBegin
  2
*D20
 70
     1
 10
0.0
 20
0.0
 30
0.0
  3
*D20
  1

  0
LINE
  5
3456
330
322C
100
AcDbEntity
  8
寸法線
 62
     0
 48
10.0
370
    -2
100
AcDbLine
 10
511.4414288436291
 20
609.197091375463
 30
0.0
 11
511.4414288436291
 21
566.7785987308782
 31
0.0
  0
LINE
  5
3457
330
322C
100
AcDbEntity
  8
寸法線
 62
     0
 48
10.0
370
    -2
100
AcDbLine
 10
316.4414288436292
 20
568.6535987308785
 30
0.0
 11
316.4414288436292
 21
569.2785987308782
 31
0.0
  0
LINE
  5
3458
330
322C
100
AcDbEntity
  8
寸法線
 62
     0
 48
10.0
370
    -2
100
AcDbLine
 10
501.4414288436291
 20
568.0285987308782
 30
0.0
 11
326.4414288436292
 21
568.0285987308782
 31
0.0
  0
SOLID
  5
3459
330
322C
100
AcDbEntity
  8
寸法線
 62
     0
 48
10.0
100
AcDbTrace
 10
501.4414288436291
 20
569.6952653975451
 30
0.0
 11
501.4414288436291
 21
566.3619320642117
 31
0.0
 12
511.4414288436291
 22
568.0285987308782
 32
0.0
 13
511.4414288436291
 23
568.0285987308782
 33
0.0
  0
SOLID
  5
345A
330
322C
100
AcDbEntity
  8
寸法線
 62
     0
 48
10.0
100
AcDbTrace
 10
326.4414288436292
 20
569.6952653975451
 30
0.0
 11
326.4414288436292
 21
566.3619320642117
 31
0.0
 12
316.4414288436292
 22
568.0285987308782
 32
0.0
 13
316.4414288436292
 23
568.0285987308782
 33
0.0
  0
MTEXT
  5
345B
330
322C
100
AcDbEntity
  8
寸法線
 48
10.0
100
AcDbMText
 10
413.9414288436291
 20
576.6535987308782
 30
0.0
 40
16.0
 41
0.0
 71
     5
 72
     1
  1
\A1;195
 73
     1
 44
1.0
1001
ACAD
1000
MTEXTBEGIN
1070
    73
1070
     1
1070
    44
1040
1.0
1070
    74
1070
     0
1000
MTEXTEND
  0
POINT
  5
345C
330
322C
100
AcDbEntity
  8
DEFPOINTS
 62
     0
 48
10.0
100
AcDbPoint
 10
511.4414288436291
 20
609.822091375463
 30
0.0
  0
POINT
  5
345D
330
322C
100
AcDbEntity
  8
DEFPOINTS
 62
     0
 48
10.0
100
AcDbPoint
 10
316.4414288436292
 20
568.0285987308782
 30
0.0
  0
POINT
  5
345E
330
322C
100
AcDbEntity
  8
DEFPOINTS
 62
     0
 48
10.0
100
AcDbPoint
 10
316.4414288436292
 20
568.0285987308782
 30
0.0
  0
ENDBLK
  5
3237
330
322C
100
AcDbEntity
  8
0
 48
10.0
100
AcDbBlockEnd
  0
BLOCK
  5
3242
330
3238
100
AcDbEntity
  8
0
 48
10.0
100
AcDbBlockBegin
  2
*D21
 70
     1
 10
0.0
 20
0.0
 30
0.0
  3
*D21
  1

  0
LINE
  5
345F
330
3238
100
AcDbEntity
  8
寸法線
 62
     0
 48
10.0
370
    -2
100
AcDbLine
 10
505.4414288436301
 20
665.2334324443677
 30
0.0
 11
505.4414288436301
 21
694.1892792019885
 31
0.0
  0
LINE
  5
3460
330
3238
100
AcDbEntity
  8
寸法線
 62
     0
 48
10.0
370
    -2
100
AcDbLine
 10
329.0508862267779
 20
689.1566407319427
 30
0.0
 11
329.0508862267779
 21
694.1892792019885
 31
0.0
  0
LINE
  5
3461
330
3238
100
AcDbEntity
  8
寸法線
 62
     0
 48
10.0
370
    -2
100
AcDbLine
 10
495.4414288436301
 20
692.9392792019885
 30
0.0
 11
339.0508862267779
 21
692.9392792019885
 31
0.0
  0
SOLID
  5
3462
330
3238
100
AcDbEntity
  8
寸法線
 62
     0
 48
10.0
100
AcDbTrace
 10
495.4414288436301
 20
694.6059458686549
 30
0.0
 11
495.4414288436301
 21
691.2726125353218
 31
0.0
 12
505.4414288436301
 22
692.9392792019885
 32
0.0
 13
505.4414288436301
 23
692.9392792019885
 33
0.0
  0
SOLID
  5
3463
330
3238
100
AcDbEntity
  8
寸法線
 62
     0
 48
10.0
100
AcDbTrace
 10
339.0508862267779
 20
694.6059458686549
 30
0.0
 11
339.0508862267779
 21
691.2726125353218
 31
0.0
 12
329.0508862267779
 22
692.9392792019885
 32
0.0
 13
329.0508862267779
 23
692.9392792019885
 33
0.0
  0
MTEXT
  5
3464
330
3238
100
AcDbEntity
  8
寸法線
 48
10.0
100
AcDbMText
 10
417.2461575352044
 20
701.5642792019884
 30
0.0
 40
16.0
 41
0.0
 71
     5
 72
     1
  1
\A1;176
 73
     1
 44
1.0
1001
ACAD
1000
MTEXTBEGIN
1070
    73
1070
     1
1070
    44
1040
1.0
1070
    74
1070
     0
1000
MTEXTEND
  0
POINT
  5
3465
330
3238
100
AcDbEntity
  8
DEFPOINTS
 62
     0
 48
10.0
100
AcDbPoint
 10
505.4414288436301
 20
664.6084324443677
 30
0.0
  0
POINT
  5
3466
330
3238
100
AcDbEntity
  8
DEFPOINTS
 62
     0
 48
10.0
100
AcDbPoint
 10
329.0508862267779
 20
688.5316407319427
 30
0.0
  0
POINT
  5
3467
330
3238
100
AcDbEntity
  8
DEFPOINTS
 62
     0
 48
10.0
100
AcDbPoint
 10
329.0508862267779
 20
692.9392792019885
 30
0.0
  0
ENDBLK
  5
3243
330
3238
100
AcDbEntity
  8
0
 48
10.0
100
AcDbBlockEnd
  0
ENDSEC
  0
SECTION
  2
ENTITIES
  0
LINE
  5
2ECF
330
1A
100
AcDbEntity
  8
外形線
 48
10.0
100
AcDbLine
 10
511.4414288436291
 20
867.3220913754631
 30
0.0
 11
511.4414288436291
 21
892.3220913754631
 31
0.0
  0
MTEXT
  5
2EDB
330
1A
100
AcDbEntity
  8
寸法線
 48
10.0
100
AcDbMText
 10
824.4027306795764
 20
825.3229897033573
 30
0.0
 40
16.0
 41
197.2897
 71
     1
 72
     5
  1
本体枠内に、\Pコントローラ、モータ等収納
 73
     1
 44
1.0
1001
ACAD
1000
MTEXTBEGIN
1070
    73
1070
     1
1070
    44
1040
1.0
1070
    74
1070
     0
1000
MTEXTEND
  0
DIMENSION
  5
2EDC
330
1A
100
AcDbEntity
  8
寸法線
100
AcDbDimension
  2
*D6
 10
1078.082008857957
 20
118.7058112945001
 30
0.0
 11
1116.656457167803
 21
118.7058112945001
 31
0.0
 70
   160
 71
     5
 42
77.99999999999909
  3
ISO-25
100
AcDbAlignedDimension
 13
1156.082008857955
 23
215.4976405300299
 33
0.0
 14
1078.082008857957
 24
215.4976405300299
 34
0.0
 50
180.0
100
AcDbRotatedDimension
1001
ACAD
1000
DSTYLE
1002
{
1070
     3
1000
φ<>
1070
    41
1040
10.0
1070
    40
1040
1.0
1070
   144
1040
1.0
1070
    47
1040
0.1
1070
    48
1040
0.1
1070
    73
1070
     0
1070
   140
1040
16.0
1070
   178
1070
   256
1070
   271
1070
     2
1070
   272
1070
     2
1070
   289
1070
     0
1002
}
  0
LINE
  5
2EE3
330
1A
100
AcDbEntity
  8
外形線
100
AcDbLine
 10
1207.670877545688
 20
854.8220913754631
 30
0.0
 11
1206.670877545689
 21
855.8220913754622
 31
0.0
  0
LINE
  5
2EE4
330
1A
100
AcDbEntity
  8
細線
100
AcDbLine
 10
1212.870877545687
 20
837.8220913754626
 30
0.0
 11
1213.592460868741
 21
837.8220913754626
 31
0.0
  0
ARC
  5
2EE5
330
1A
100
AcDbEntity
  8
細線
100
AcDbCircle
 10
1212.870877545687
 20
837.6220913754627
 30
0.0
 40
0.2
100
AcDbArc
 50
90.0
 51
180.0
  0
ARC
  5
2EE6
330
1A
100
AcDbEntity
  8
細線
100
AcDbCircle
 10
1213.592460868741
 20
837.6220913754627
 30
0.0
 40
0.2
100
AcDbArc
 50
30.97414236557649
 51
90.0
  0
LINE
  5
2EE7
330
1A
100
AcDbEntity
  8
細線
100
AcDbLine
 10
1212.670877545687
 20
837.8220913754626
 30
0.0
 11
1211.670877545688
 21
837.8220913754626
 31
0.0
  0
LINE
  5
2EE8
330
1A
100
AcDbEntity
  8
細線
100
AcDbLine
 10
1212.670877545687
 20
833.3033514911424
 30
0.0
 11
1211.670877545688
 21
833.3033514911424
 31
0.0
  0
LINE
  5
2EE9
330
1A
100
AcDbEntity
  8
細線
100
AcDbLine
 10
1212.670877545687
 20
832.8081473555471
 30
0.0
 11
1211.670877545688
 21
832.8081473555471
 31
0.0
  0
LINE
  5
2EEA
330
1A
100
AcDbEntity
  8
細線
100
AcDbLine
 10
1212.670877545687
 20
836.3220913754631
 30
0.0
 11
1212.670877545687
 21
832.322091375463
 31
0.0
  0
LINE
  5
2EEB
330
1A
100
AcDbEntity
  8
細線
100
AcDbLine
 10
1212.870877545687
 20
830.8220913754635
 30
0.0
 11
1213.592460868741
 21
830.8220913754635
 31
0.0
  0
ARC
  5
2EEC
330
1A
100
AcDbEntity
  8
細線
100
AcDbCircle
 10
1212.870877545687
 20
831.0220913754632
 30
0.0
 40
0.2
100
AcDbArc
 50
180.0
 51
270.0
  0
ARC
  5
2EED
330
1A
100
AcDbEntity
  8
細線
100
AcDbCircle
 10
1213.592460868741
 20
831.0220913754632
 30
0.0
 40
0.2
100
AcDbArc
 50
270.0
 51
329.0258576344235
  0
LINE
  5
2EEE
330
1A
100
AcDbEntity
  8
細線
100
AcDbLine
 10
1211.670877545688
 20
830.8220913754635
 30
0.0
 11
1212.670877545687
 21
830.8220913754635
 31
0.0
  0
LINE
  5
2EEF
330
1A
100
AcDbEntity
  8
細線
100
AcDbLine
 10
1212.670877545687
 20
837.6220913754627
 30
0.0
 11
1212.670877545687
 21
831.0220913754632
 31
0.0
  0
ARC
  5
2EF0
330
1A
100
AcDbEntity
  8
細線
100
AcDbCircle
 10
1208.094719981405
 20
834.3220913754631
 30
0.0
 40
6.612110016547373
100
AcDbArc
 50
329.0258576344235
 51
30.97414236557649
  0
LINE
  5
2EF1
330
1A
100
AcDbEntity
  8
細線
100
AcDbLine
 10
1211.670877545688
 20
837.8220913754626
 30
0.0
 11
1211.670877545688
 21
830.8220913754635
 31
0.0
  0
LINE
  5
2EF2
330
1A
100
AcDbEntity
  8
細線
100
AcDbLine
 10
1212.670877545687
 20
830.8220913754635
 30
0.0
 11
1212.670877545687
 21
837.8220913754626
 31
0.0
  0
LINE
  5
2EF3
330
1A
100
AcDbEntity
  8
外形線
100
AcDbLine
 10
1209.670877545688
 20
854.8220913754631
 30
0.0
 11
1211.670877545688
 21
854.8220913754631
 31
0.0
  0
LINE
  5
2EF4
330
1A
100
AcDbEntity
  8
細線
100
AcDbLine
 10
1207.670877545688
 20
854.8220913754631
 30
0.0
 11
1209.670877545688
 21
854.8220913754631
 31
0.0
  0
LINE
  5
2EF5
330
1A
100
AcDbEntity
  8
外形線
100
AcDbLine
 10
1197.67087754569
 20
854.8220913754631
 30
0.0
 11
1198.670877545688
 21
855.8220913754622
 31
0.0
  0
LINE
  5
2EF6
330
1A
100
AcDbEntity
  8
外形線
100
AcDbLine
 10
1181.516969460823
 20
946.82574175959
 30
0.0
 11
1190.016969460824
 21
946.82574175959
 31
0.0
  0
LINE
  5
2EF7
330
1A
100
AcDbEntity
  8
外形線
100
AcDbLine
 10
1190.766969460823
 20
941.8257417595889
 30
0.0
 11
1180.766969460823
 21
941.8257417595889
 31
0.0
  0
LINE
  5
2EF8
330
1A
100
AcDbEntity
  8
外形線
100
AcDbLine
 10
1180.766969460823
 20
940.8257417595898
 30
0.0
 11
1190.766969460823
 21
940.8257417595898
 31
0.0
  0
LINE
  5
2EF9
330
1A
100
AcDbEntity
  8
外形線
100
AcDbLine
 10
1190.766969460823
 20
940.8257417595898
 30
0.0
 11
1190.766969460823
 21
941.8257417595889
 31
0.0
  0
LINE
  5
2EFA
330
1A
100
AcDbEntity
  8
外形線
100
AcDbLine
 10
1190.016969460824
 20
941.8257417595889
 30
0.0
 11
1181.516969460823
 21
941.8257417595889
 31
0.0
  0
LINE
  5
2EFB
330
1A
100
AcDbEntity
  8
外形線
100
AcDbLine
 10
1180.766969460823
 20
941.8257417595889
 30
0.0
 11
1180.766969460823
 21
940.8257417595898
 31
0.0
  0
LINE
  5
2EFC
330
1A
100
AcDbEntity
  8
外形線
100
AcDbLine
 10
1190.016969460824
 20
946.82574175959
 30
0.0
 11
1190.016969460824
 21
941.8257417595889
 31
0.0
  0
LINE
  5
2EFD
330
1A
100
AcDbEntity
  8
外形線
100
AcDbLine
 10
1181.516969460823
 20
941.8257417595889
 30
0.0
 11
1181.516969460823
 21
946.82574175959
 31
0.0
  0
LINE
  5
2EFE
330
1A
100
AcDbEntity
  8
外形線
100
AcDbLine
 10
1195.67087754569
 20
937.8220913754628
 30
0.0
 11
1195.67087754569
 21
940.8220913754632
 31
0.0
  0
LINE
  5
2EFF
330
1A
100
AcDbEntity
  8
細線
  6
DASHED
 48
5.0
100
AcDbLine
 10
1150.670877545688
 20
908.8220913754636
 30
0.0
 11
1151.670877545688
 21
907.8220913754616
 31
0.0
  0
LINE
  5
2F00
330
1A
100
AcDbEntity
  8
細線
  6
DASHED
 48
5.0
100
AcDbLine
 10
1145.670877545688
 20
907.8220913754616
 30
0.0
 11
1146.670877545688
 21
908.8220913754636
 31
0.0
  0
LINE
  5
2F01
330
1A
100
AcDbEntity
  8
細線
  6
DASHED
 48
5.0
100
AcDbLine
 10
1146.670877545688
 20
908.8220913754636
 30
0.0
 11
1150.670877545688
 21
908.8220913754636
 31
0.0
  0
LINE
  5
2F02
330
1A
100
AcDbEntity
  8
細線
100
AcDbLine
 10
1195.67087754569
 20
854.8220913754631
 30
0.0
 11
1197.67087754569
 21
854.8220913754631
 31
0.0
  0
LINE
  5
2F03
330
1A
100
AcDbEntity
  8
細線
100
AcDbLine
 10
1195.67087754569
 20
934.8220913754628
 30
0.0
 11
1195.67087754569
 21
937.8220913754628
 31
0.0
  0
DIMENSION
  5
2F04
330
1A
100
AcDbEntity
  8
寸法線
100
AcDbDimension
  2
*D7
 10
1195.67087754569
 20
958.0125959463009
 30
0.0
 11
1252.420877545688
 21
958.0125959463009
 31
0.0
 70
   160
 71
     5
 42
15.99999999999818
  3
ISO-25
100
AcDbAlignedDimension
 13
1211.670877545688
 23
854.8220913754631
 33
0.0
 14
1195.67087754569
 24
940.8220913754632
 34
0.0
 50
180.0
100
AcDbRotatedDimension
1001
ACAD
1000
DSTYLE
1002
{
1070
    41
1040
10.0
1070
    40
1040
1.0
1070
   144
1040
1.0
1070
    47
1040
0.1
1070
    48
1040
0.1
1070
    73
1070
     0
1070
   140
1040
16.0
1070
   178
1070
   256
1070
   271
1070
     2
1070
   272
1070
     2
1070
   289
1070
     0
1002
}
  0
LINE
  5
2F05
330
1A
100
AcDbEntity
  8
外形線
100
AcDbLine
 10
1206.670877545689
 20
855.8220913754622
 30
0.0
 11
1198.670877545688
 21
855.8220913754622
 31
0.0
  0
LINE
  5
2F06
330
1A
100
AcDbEntity
  8
外形線
100
AcDbLine
 10
1211.670877545688
 20
784.8220913754628
 30
0.0
 11
1209.670877545688
 21
784.8220913754628
 31
0.0
  0
LINE
  5
2F07
330
1A
100
AcDbEntity
  8
外形線
100
AcDbLine
 10
1207.670877545688
 20
784.8220913754628
 30
0.0
 11
1206.670877545689
 21
783.8220913754628
 31
0.0
  0
LINE
  5
2F08
330
1A
100
AcDbEntity
  8
細線
100
AcDbLine
 10
1212.659310104121
 20
787.3735392961107
 30
0.0
 11
1212.659310104121
 21
794.3735392961094
 31
0.0
  0
LINE
  5
2F09
330
1A
100
AcDbEntity
  8
細線
100
AcDbLine
 10
1211.659310104122
 20
794.3735392961094
 30
0.0
 11
1211.659310104122
 21
787.3735392961107
 31
0.0
  0
ARC
  5
2F0A
330
1A
100
AcDbEntity
  8
細線
100
AcDbCircle
 10
1208.083152539839
 20
790.8735392961102
 30
0.0
 40
6.612110016547373
100
AcDbArc
 50
329.0258576344235
 51
30.97414236557649
  0
LINE
  5
2F0B
330
1A
100
AcDbEntity
  8
細線
100
AcDbLine
 10
1212.659310104121
 20
794.1735392961093
 30
0.0
 11
1212.659310104121
 21
787.5735392961105
 31
0.0
  0
LINE
  5
2F0C
330
1A
100
AcDbEntity
  8
細線
100
AcDbLine
 10
1211.659310104122
 20
787.3735392961107
 30
0.0
 11
1212.659310104121
 21
787.3735392961107
 31
0.0
  0
ARC
  5
2F0D
330
1A
100
AcDbEntity
  8
細線
100
AcDbCircle
 10
1213.580893427174
 20
787.5735392961105
 30
0.0
 40
0.2
100
AcDbArc
 50
270.0
 51
329.0258576344235
  0
ARC
  5
2F0E
330
1A
100
AcDbEntity
  8
細線
100
AcDbCircle
 10
1212.85931010412
 20
787.5735392961105
 30
0.0
 40
0.2
100
AcDbArc
 50
180.0
 51
270.0
  0
LINE
  5
2F0F
330
1A
100
AcDbEntity
  8
細線
100
AcDbLine
 10
1212.85931010412
 20
787.3735392961107
 30
0.0
 11
1213.580893427174
 21
787.3735392961107
 31
0.0
  0
LINE
  5
2F10
330
1A
100
AcDbEntity
  8
細線
100
AcDbLine
 10
1212.659310104121
 20
792.8735392961097
 30
0.0
 11
1212.659310104121
 21
788.8735392961113
 31
0.0
  0
LINE
  5
2F11
330
1A
100
AcDbEntity
  8
細線
100
AcDbLine
 10
1212.659310104121
 20
789.3595952761952
 30
0.0
 11
1211.659310104122
 21
789.3595952761952
 31
0.0
  0
LINE
  5
2F12
330
1A
100
AcDbEntity
  8
細線
100
AcDbLine
 10
1212.659310104121
 20
789.8547994117907
 30
0.0
 11
1211.659310104122
 21
789.8547994117907
 31
0.0
  0
LINE
  5
2F13
330
1A
100
AcDbEntity
  8
細線
100
AcDbLine
 10
1212.659310104121
 20
794.3735392961094
 30
0.0
 11
1211.659310104122
 21
794.3735392961094
 31
0.0
  0
ARC
  5
2F14
330
1A
100
AcDbEntity
  8
細線
100
AcDbCircle
 10
1213.580893427174
 20
794.1735392961093
 30
0.0
 40
0.2
100
AcDbArc
 50
30.97414236557649
 51
90.0
  0
ARC
  5
2F15
330
1A
100
AcDbEntity
  8
細線
100
AcDbCircle
 10
1212.85931010412
 20
794.1735392961093
 30
0.0
 40
0.2
100
AcDbArc
 50
90.0
 51
180.0
  0
LINE
  5
2F16
330
1A
100
AcDbEntity
  8
細線
100
AcDbLine
 10
1212.85931010412
 20
794.3735392961094
 30
0.0
 11
1213.580893427174
 21
794.3735392961094
 31
0.0
  0
LINE
  5
2F19
330
1A
100
AcDbEntity
  8
細線
100
AcDbLine
 10
1207.670877545688
 20
784.8220913754628
 30
0.0
 11
1209.670877545688
 21
784.8220913754628
 31
0.0
  0
LINE
  5
2F1A
330
1A
100
AcDbEntity
  8
外形線
100
AcDbLine
 10
1197.67087754569
 20
784.8220913754628
 30
0.0
 11
1198.670877545688
 21
783.8220913754628
 31
0.0
  0
LINE
  5
2F1B
330
1A
100
AcDbEntity
  8
細線
  6
DASHED
 48
5.0
100
AcDbLine
 10
1150.670877545688
 20
730.8220913754617
 30
0.0
 11
1146.670877545688
 21
730.8220913754617
 31
0.0
  0
LINE
  5
2F1C
330
1A
100
AcDbEntity
  8
細線
  6
DASHED
 48
5.0
100
AcDbLine
 10
1151.670877545688
 20
731.8220913754635
 30
0.0
 11
1150.670877545688
 21
730.8220913754617
 31
0.0
  0
LINE
  5
2F1D
330
1A
100
AcDbEntity
  8
細線
  6
DASHED
 48
5.0
100
AcDbLine
 10
1146.670877545688
 20
730.8220913754617
 30
0.0
 11
1145.670877545688
 21
731.8220913754635
 31
0.0
  0
LINE
  5
2F1E
330
1A
100
AcDbEntity
  8
細線
  6
DASHED
 48
5.0
100
AcDbLine
 10
1151.670877545688
 20
744.9829917442841
 30
0.0
 11
1151.670877545688
 21
731.8220913754635
 31
0.0
  0
LINE
  5
2F1F
330
1A
100
AcDbEntity
  8
細線
  6
DASHED
 48
5.0
100
AcDbLine
 10
1141.670877545688
 20
739.8220913754621
 30
0.0
 11
1145.670877545688
 21
739.8220913754621
 31
0.0
  0
LINE
  5
2F20
330
1A
100
AcDbEntity
  8
外形線
100
AcDbLine
 10
1197.67087754569
 20
797.822091375464
 30
0.0
 11
1197.67087754569
 21
797.822091375464
 31
0.0
  0
LINE
  5
2F21
330
1A
100
AcDbEntity
  8
細線
100
AcDbLine
 10
1195.67087754569
 20
784.8220913754628
 30
0.0
 11
1197.67087754569
 21
784.8220913754628
 31
0.0
  0
LINE
  5
2F22
330
1A
100
AcDbEntity
  8
外形線
100
AcDbLine
 10
1198.670877545688
 20
783.8220913754628
 30
0.0
 11
1206.670877545689
 21
783.8220913754628
 31
0.0
  0
LINE
  5
2F23
330
1A
100
AcDbEntity
  8
細線
100
AcDbLine
 10
1209.670877545688
 20
854.8220913754631
 30
0.0
 11
1209.670877545688
 21
784.8220913754628
 31
0.0
  0
LINE
  5
2F24
330
1A
100
AcDbEntity
  8
外形線
100
AcDbLine
 10
1207.670877545688
 20
784.8220913754628
 30
0.0
 11
1207.670877545688
 21
854.8220913754631
 31
0.0
  0
LINE
  5
2F25
330
1A
100
AcDbEntity
  8
細線
100
AcDbLine
 10
1207.670877545688
 20
784.8220913754628
 30
0.0
 11
1207.670877545688
 21
854.8220913754631
 31
0.0
  0
LINE
  5
2F26
330
1A
100
AcDbEntity
  8
外形線
100
AcDbLine
 10
1211.670877545688
 20
854.8220913754631
 30
0.0
 11
1211.670877545688
 21
784.8220913754628
 31
0.0
  0
LINE
  5
2F27
330
1A
100
AcDbEntity
  8
細線
  6
DASHED
 48
5.0
100
AcDbLine
 10
1151.670877545688
 20
907.8220913754616
 30
0.0
 11
1151.670877545688
 21
744.9829917442841
 31
0.0
  0
LINE
  5
2F28
330
1A
100
AcDbEntity
  8
細線
  6
DASHED
 48
5.0
100
AcDbLine
 10
1145.670877545688
 20
907.8220913754616
 30
0.0
 11
1145.670877545688
 21
731.8220913754635
 31
0.0
  0
LINE
  5
2F29
330
1A
100
AcDbEntity
  8
外形線
100
AcDbLine
 10
1195.67087754569
 20
934.8220913754628
 30
0.0
 11
1195.67087754569
 21
797.822091375464
 31
0.0
  0
LINE
  5
2F2A
330
1A
100
AcDbEntity
  8
外形線
100
AcDbLine
 10
1195.67087754569
 20
784.8220913754628
 30
0.0
 11
1195.67087754569
 21
854.8220913754631
 31
0.0
  0
LINE
  5
2F2B
330
1A
100
AcDbEntity
  8
細線
100
AcDbLine
 10
1195.67087754569
 20
784.8220913754628
 30
0.0
 11
1195.67087754569
 21
854.8220913754631
 31
0.0
  0
LINE
  5
2F2C
330
1A
100
AcDbEntity
  8
細線
100
AcDbLine
 10
1197.67087754569
 20
784.8220913754628
 30
0.0
 11
1197.67087754569
 21
854.8220913754631
 31
0.0
  0
LINE
  5
2F2D
330
1A
100
AcDbEntity
  8
外形線
100
AcDbLine
 10
1207.670877545688
 20
784.8220913754628
 30
0.0
 11
1207.670877545688
 21
854.8220913754631
 31
0.0
  0
LINE
  5
2F2E
330
1A
100
AcDbEntity
  8
細線
100
AcDbLine
 10
1207.670877545688
 20
784.8220913754628
 30
0.0
 11
1207.670877545688
 21
854.8220913754631
 31
0.0
  0
LINE
  5
2F2F
330
1A
100
AcDbEntity
  8
細線
100
AcDbLine
 10
1209.670877545688
 20
784.8220913754628
 30
0.0
 11
1209.670877545688
 21
854.8220913754631
 31
0.0
  0
LINE
  5
2F30
330
1A
100
AcDbEntity
  8
細線
  6
DASHED
 48
5.0
100
AcDbLine
 10
1085.670877545688
 20
898.3220913754635
 30
0.0
 11
1085.670877545688
 21
907.8220913754616
 31
0.0
  0
LINE
  5
2F31
330
1A
100
AcDbEntity
  8
細線
  6
DASHED
 48
5.0
100
AcDbLine
 10
1079.670877545688
 20
907.8220913754616
 30
0.0
 11
1079.670877545688
 21
894.4683154486252
 31
0.0
  0
LINE
  5
2F32
330
1A
100
AcDbEntity
  8
細線
  6
DASHED
 48
5.0
100
AcDbLine
 10
1084.670877545688
 20
908.8220913754636
 30
0.0
 11
1080.67087754569
 21
908.8220913754636
 31
0.0
  0
LINE
  5
2F33
330
1A
100
AcDbEntity
  8
細線
  6
DASHED
 48
5.0
100
AcDbLine
 10
1085.670877545688
 20
907.8220913754616
 30
0.0
 11
1084.670877545688
 21
908.8220913754636
 31
0.0
  0
LINE
  5
2F34
330
1A
100
AcDbEntity
  8
細線
  6
DASHED
 48
5.0
100
AcDbLine
 10
1080.67087754569
 20
908.8220913754636
 30
0.0
 11
1079.670877545688
 21
907.8220913754616
 31
0.0
  0
LINE
  5
2F35
330
1A
100
AcDbEntity
  8
細線
  6
DASHED
 48
5.0
100
AcDbLine
 10
1085.670877545688
 20
899.8220913754629
 30
0.0
 11
1085.670877545688
 21
899.8220913754629
 31
0.0
  0
LINE
  5
2F36
330
1A
100
AcDbEntity
  8
外形線
100
AcDbLine
 10
1041.413335409064
 20
946.82574175959
 30
0.0
 11
1049.913335409065
 21
946.82574175959
 31
0.0
  0
LINE
  5
2F37
330
1A
100
AcDbEntity
  8
外形線
100
AcDbLine
 10
1040.663335409064
 20
940.8257417595898
 30
0.0
 11
1050.663335409064
 21
940.8257417595898
 31
0.0
  0
LINE
  5
2F38
330
1A
100
AcDbEntity
  8
外形線
100
AcDbLine
 10
1050.663335409064
 20
941.8257417595889
 30
0.0
 11
1040.663335409064
 21
941.8257417595889
 31
0.0
  0
LINE
  5
2F39
330
1A
100
AcDbEntity
  8
外形線
100
AcDbLine
 10
1049.913335409065
 20
941.8257417595889
 30
0.0
 11
1041.413335409064
 21
941.8257417595889
 31
0.0
  0
LINE
  5
2F3A
330
1A
100
AcDbEntity
  8
外形線
100
AcDbLine
 10
1050.663335409064
 20
940.8257417595898
 30
0.0
 11
1050.663335409064
 21
941.8257417595889
 31
0.0
  0
LINE
  5
2F3B
330
1A
100
AcDbEntity
  8
外形線
100
AcDbLine
 10
1040.663335409064
 20
941.8257417595889
 30
0.0
 11
1040.663335409064
 21
940.8257417595898
 31
0.0
  0
LINE
  5
2F3C
330
1A
100
AcDbEntity
  8
外形線
100
AcDbLine
 10
1035.67087754569
 20
940.8220913754632
 30
0.0
 11
1035.67087754569
 21
937.8220913754628
 31
0.0
  0
LINE
  5
2F3D
330
1A
100
AcDbEntity
  8
外形線
100
AcDbLine
 10
1049.913335409065
 20
946.82574175959
 30
0.0
 11
1049.913335409065
 21
941.8257417595889
 31
0.0
  0
LINE
  5
2F3E
330
1A
100
AcDbEntity
  8
外形線
100
AcDbLine
 10
1041.413335409064
 20
941.8257417595889
 30
0.0
 11
1041.413335409064
 21
946.82574175959
 31
0.0
  0
LINE
  5
2F3F
330
1A
100
AcDbEntity
  8
外形線
100
AcDbLine
 10
1033.670877545689
 20
916.9440487586099
 30
0.0
 11
1035.67087754569
 21
916.9440487586099
 31
0.0
  0
LINE
  5
2F40
330
1A
100
AcDbEntity
  8
外形線
100
AcDbLine
 10
1035.67087754569
 20
916.9440487586099
 30
0.0
 11
1032.67087754569
 21
916.9440487586099
 31
0.0
  0
LINE
  5
2F41
330
1A
100
AcDbEntity
  8
細線
100
AcDbLine
 10
1035.67087754569
 20
934.8220913754628
 30
0.0
 11
1035.67087754569
 21
937.8220913754628
 31
0.0
  0
LINE
  5
2F42
330
1A
100
AcDbEntity
  8
細線
  6
DASHED
 48
5.0
100
AcDbLine
 10
1085.670877545688
 20
741.3220913754615
 30
0.0
 11
1085.670877545688
 21
731.8220913754635
 31
0.0
  0
LINE
  5
2F43
330
1A
100
AcDbEntity
  8
細線
  6
DASHED
 48
5.0
100
AcDbLine
 10
1079.670877545688
 20
731.8220913754635
 30
0.0
 11
1079.670877545688
 21
745.1758673022998
 31
0.0
  0
LINE
  5
2F44
330
1A
100
AcDbEntity
  8
細線
  6
DASHED
 48
5.0
100
AcDbLine
 10
1084.670877545688
 20
730.8220913754617
 30
0.0
 11
1080.67087754569
 21
730.8220913754617
 31
0.0
  0
LINE
  5
2F45
330
1A
100
AcDbEntity
  8
細線
  6
DASHED
 48
5.0
100
AcDbLine
 10
1085.670877545688
 20
731.8220913754635
 30
0.0
 11
1084.670877545688
 21
730.8220913754617
 31
0.0
  0
LINE
  5
2F46
330
1A
100
AcDbEntity
  8
細線
  6
DASHED
 48
5.0
100
AcDbLine
 10
1080.67087754569
 20
730.8220913754617
 30
0.0
 11
1079.670877545688
 21
731.8220913754635
 31
0.0
  0
LINE
  5
2F47
330
1A
100
AcDbEntity
  8
外形線
100
AcDbLine
 10
1025.169915651365
 20
635.8220913754635
 30
0.0
 11
1023.870877545689
 21
635.0720913754635
 31
0.0
  0
LINE
  5
2F48
330
1A
100
AcDbEntity
  8
外形線
100
AcDbLine
 10
1025.169915651365
 20
627.8220913754624
 30
0.0
 11
1023.870877545689
 21
628.5720913754626
 31
0.0
  0
LINE
  5
2F49
330
1A
100
AcDbEntity
  8
細線
100
AcDbLine
 10
1028.974553533398
 20
628.5720913754626
 30
0.0
 11
1023.870877545689
 21
628.5720913754626
 31
0.0
  0
LINE
  5
2F4A
330
1A
100
AcDbEntity
  8
細線
100
AcDbLine
 10
1028.974553533398
 20
635.0720913754635
 30
0.0
 11
1023.870877545689
 21
635.0720913754635
 31
0.0
  0
LINE
  5
2F4B
330
1A
100
AcDbEntity
  8
外形線
100
AcDbLine
 10
1025.169915651365
 20
627.8220913754624
 30
0.0
 11
1023.870877545689
 21
628.5720913754626
 31
0.0
  0
LINE
  5
2F4C
330
1A
100
AcDbEntity
  8
外形線
100
AcDbLine
 10
1025.169915651365
 20
635.8220913754635
 30
0.0
 11
1023.870877545689
 21
635.0720913754635
 31
0.0
  0
LINE
  5
2F4D
330
1A
100
AcDbEntity
  8
外形線
100
AcDbLine
 10
1028.974553533398
 20
627.8220913754624
 30
0.0
 11
1025.169915651365
 21
627.8220913754624
 31
0.0
  0
LINE
  5
2F4E
330
1A
100
AcDbEntity
  8
外形線
100
AcDbLine
 10
1025.169915651365
 20
635.8220913754635
 30
0.0
 11
1028.974553533398
 21
635.8220913754635
 31
0.0
  0
LINE
  5
2F4F
330
1A
100
AcDbEntity
  8
外形線
100
AcDbLine
 10
1028.974553533398
 20
627.8220913754624
 30
0.0
 11
1025.169915651365
 21
627.8220913754624
 31
0.0
  0
LINE
  5
2F50
330
1A
100
AcDbEntity
  8
外形線
100
AcDbLine
 10
1025.169915651365
 20
635.8220913754635
 30
0.0
 11
1028.974553533398
 21
635.8220913754635
 31
0.0
  0
ARC
  5
2F51
330
1A
100
AcDbEntity
  8
細線
100
AcDbCircle
 10
1037.461162700594
 20
631.8274622772169
 30
0.0
 40
8.483466783492385
100
AcDbArc
 50
151.7887641170552
 51
208.2112358829486
  0
LINE
  5
2F52
330
1A
100
AcDbEntity
  8
細線
100
AcDbLine
 10
1025.169915651365
 20
627.8220913754624
 30
0.0
 11
1025.169915651365
 21
635.8220913754635
 31
0.0
  0
LINE
  5
2F53
330
1A
100
AcDbEntity
  8
外形線
100
AcDbLine
 10
1023.870877545689
 20
628.5720913754626
 30
0.0
 11
1023.870877545689
 21
635.0720913754635
 31
0.0
  0
LINE
  5
2F54
330
1A
100
AcDbEntity
  8
外形線
100
AcDbLine
 10
1023.870877545689
 20
628.5720913754626
 30
0.0
 11
1023.870877545689
 21
635.0720913754635
 31
0.0
  0
ARC
  5
2F55
330
1A
100
AcDbEntity
  8
細線
100
AcDbCircle
 10
1033.460725116392
 20
638.7046055168589
 30
0.0
 40
4.505129766179296
100
AcDbArc
 50
173.4012689335948
 51
219.5196741675481
  0
LINE
  5
2F56
330
1A
100
AcDbEntity
  8
外形線
100
AcDbLine
 10
1035.67087754569
 20
639.2220913754631
 30
0.0
 11
1034.170877545688
 21
639.2220913754631
 31
0.0
  0
LINE
  5
2F57
330
1A
100
AcDbEntity
  8
細線
100
AcDbLine
 10
1035.67087754569
 20
627.9425907385302
 30
0.0
 11
1034.170877545688
 21
627.9425907385302
 31
0.0
  0
LINE
  5
2F58
330
1A
100
AcDbEntity
  8
細線
100
AcDbLine
 10
1035.67087754569
 20
629.2104856851961
 30
0.0
 11
1034.170877545688
 21
629.2104856851961
 31
0.0
  0
ARC
  5
2F59
330
1A
100
AcDbEntity
  8
細線
100
AcDbCircle
 10
1025.665331824754
 20
631.822091375463
 30
0.0
 40
8.50554572093358
100
AcDbArc
 50
331.8274859289043
 51
28.17251407109565
  0
ARC
  5
2F5A
330
1A
100
AcDbEntity
  8
細線
100
AcDbCircle
 10
1029.645855840286
 20
638.7193765157299
 30
0.0
 40
4.547020145874701
100
AcDbArc
 50
320.6742049252854
 51
6.54671440665358
  0
LINE
  5
2F5B
330
1A
100
AcDbEntity
  8
外形線
100
AcDbLine
 10
1034.174553533399
 20
639.2377970842971
 30
0.0
 11
1028.974553533398
 21
639.2377970842971
 31
0.0
  0
LINE
  5
2F5C
330
1A
100
AcDbEntity
  8
細線
100
AcDbLine
 10
1033.163225907158
 20
627.8377970842974
 30
0.0
 11
1029.974389008608
 21
627.8377970842974
 31
0.0
  0
LINE
  5
2F5D
330
1A
100
AcDbEntity
  8
細線
100
AcDbLine
 10
1033.163225907158
 20
635.8377970842971
 30
0.0
 11
1029.985440434368
 21
635.8377970842971
 31
0.0
  0
LINE
  5
2F5E
330
1A
100
AcDbEntity
  8
外形線
100
AcDbLine
 10
1034.170877545688
 20
624.4220913754627
 30
0.0
 11
1035.67087754569
 21
624.4220913754627
 31
0.0
  0
LINE
  5
2F5F
330
1A
100
AcDbEntity
  8
外形線
100
AcDbLine
 10
1028.974553533398
 20
624.437797084297
 30
0.0
 11
1034.174553533399
 21
624.437797084297
 31
0.0
  0
ARC
  5
2F60
330
1A
100
AcDbEntity
  8
細線
100
AcDbCircle
 10
1033.485224365341
 20
624.9420926473512
 30
0.0
 40
4.529272877154226
100
AcDbArc
 50
140.5972640106754
 51
186.5897838345791
  0
ARC
  5
2F61
330
1A
100
AcDbEntity
  8
細線
100
AcDbCircle
 10
1029.549787559028
 20
624.9452029695174
 30
0.0
 40
4.641690066451536
100
AcDbArc
 50
353.7241759286916
 51
38.54850290800963
  0
LINE
  5
2F62
330
1A
100
AcDbEntity
  8
外形線
100
AcDbLine
 10
1035.67087754569
 20
624.4220913754627
 30
0.0
 11
1035.67087754569
 21
639.2220913754631
 31
0.0
  0
LINE
  5
2F63
330
1A
100
AcDbEntity
  8
細線
100
AcDbLine
 10
1034.174553533399
 20
624.437797084297
 30
0.0
 11
1034.174553533399
 21
639.2377970842971
 31
0.0
  0
LINE
  5
2F64
330
1A
100
AcDbEntity
  8
細線
100
AcDbLine
 10
1028.974553533398
 20
639.2377970842971
 30
0.0
 11
1028.974553533398
 21
624.437797084297
 31
0.0
  0
LINE
  5
2F65
330
1A
100
AcDbEntity
  8
外形線
100
AcDbLine
 10
1032.67087754569
 20
658.3190487586094
 30
0.0
 11
1035.67087754569
 21
658.3190487586094
 31
0.0
  0
LINE
  5
2F66
330
1A
100
AcDbEntity
  8
細線
  6
DASHED
 48
5.0
100
AcDbLine
 10
1079.670877545688
 20
894.4683154486252
 30
0.0
 11
1079.670877545688
 21
745.1758673022998
 31
0.0
  0
LINE
  5
2F67
330
1A
100
AcDbEntity
  8
細線
  6
DASHED
 48
5.0
100
AcDbLine
 10
1085.670877545688
 20
898.3220913754635
 30
0.0
 11
1085.670877545688
 21
741.3220913754615
 31
0.0
  0
LINE
  5
2F68
330
1A
100
AcDbEntity
  8
外形線
100
AcDbLine
 10
1032.67087754569
 20
916.9440487586099
 30
0.0
 11
1032.67087754569
 21
658.3190487586094
 31
0.0
  0
DIMENSION
  5
2F69
330
1A
100
AcDbEntity
  8
寸法線
100
AcDbDimension
  2
*D8
 10
1035.67087754569
 20
972.6728852296366
 30
0.0
 11
1115.704610154973
 21
972.6728852296366
 31
0.0
 70
   160
 71
     5
 42
159.9999999999982
  3
ISO-25
100
AcDbAlignedDimension
 13
1195.670877545688
 23
940.8220913754632
 33
0.0
 14
1035.67087754569
 24
940.8220913754632
 34
0.0
 50
180.0
100
AcDbRotatedDimension
1001
ACAD
1000
DSTYLE
1002
{
1070
    41
1040
10.0
1070
    40
1040
1.0
1070
   144
1040
1.0
1070
    47
1040
0.1
1070
    48
1040
0.1
1070
    73
1070
     0
1070
   140
1040
16.0
1070
   178
1070
   256
1070
   271
1070
     2
1070
   272
1070
     2
1070
   289
1070
     0
1002
}
  0
LINE
  5
2F6A
330
1A
100
AcDbEntity
  8
外形線
100
AcDbLine
 10
1035.67087754569
 20
934.8220913754628
 30
0.0
 11
1195.67087754569
 21
934.8220913754628
 31
0.0
  0
LINE
  5
2F6B
330
1A
100
AcDbEntity
  8
細線
100
AcDbLine
 10
1035.67087754569
 20
937.8220913754628
 30
0.0
 11
1195.67087754569
 21
937.8220913754628
 31
0.0
  0
LINE
  5
2F6C
330
1A
100
AcDbEntity
  8
外形線
100
AcDbLine
 10
1195.67087754569
 20
940.8220913754632
 30
0.0
 11
1035.67087754569
 21
940.8220913754632
 31
0.0
  0
LINE
  5
2F6D
330
1A
100
AcDbEntity
  8
外形線
100
AcDbLine
 10
1195.67087754569
 20
934.8220913754628
 30
0.0
 11
1035.67087754569
 21
934.8220913754628
 31
0.0
  0
LINE
  5
2F6E
330
1A
100
AcDbEntity
  8
細線
  6
DASHED
 48
5.0
100
AcDbLine
 10
1145.670877545688
 20
899.8220913754629
 30
0.0
 11
1085.670877545688
 21
899.8220913754629
 31
0.0
  0
LINE
  5
2F6F
330
1A
100
AcDbEntity
  8
細線
  6
DASHED
 48
5.0
100
AcDbLine
 10
1145.670877545688
 20
739.8220913754621
 30
0.0
 11
1085.670877545688
 21
739.8220913754621
 31
0.0
  0
LINE
  5
2F70
330
1A
100
AcDbEntity
  8
中心線
 48
10.0
100
AcDbLine
 10
1220.29826762481
 20
819.8220913754626
 30
0.0
 11
1011.043487466566
 21
819.8220913754626
 31
0.0
  0
LINE
  5
2F71
330
1A
100
AcDbEntity
  8
細線
100
AcDbLine
 10
1035.67087754569
 20
937.8220913754628
 30
0.0
 11
1195.67087754569
 21
937.8220913754628
 31
0.0
  0
LINE
  5
2F74
330
1A
100
AcDbEntity
  8
外形線
100
AcDbLine
 10
1215.67087754569
 20
537.8220913754626
 30
0.0
 11
1215.67087754569
 21
521.8220913754635
 31
0.0
  0
LINE
  5
2F75
330
1A
100
AcDbEntity
  8
外形線
100
AcDbLine
 10
1215.67087754569
 20
537.8220913754626
 30
0.0
 11
1215.67087754569
 21
521.8220913754635
 31
0.0
  0
DIMENSION
  5
2F76
330
1A
100
AcDbEntity
  8
寸法線
100
AcDbDimension
  2
*D9
 10
1256.058857495443
 20
521.8220913754635
 30
0.0
 11
1256.058857495442
 21
572.3018344299227
 31
0.0
 70
   160
 71
     5
 42
15.99999999999909
  3
ISO-25
100
AcDbAlignedDimension
 13
1215.67087754569
 23
537.8220913754626
 33
0.0
 14
1215.67087754569
 24
521.8220913754635
 34
0.0
 50
90.0
100
AcDbRotatedDimension
1001
ACAD
1000
DSTYLE
1002
{
1070
    41
1040
10.0
1070
    40
1040
1.0
1070
   144
1040
1.0
1070
    47
1040
0.1
1070
    48
1040
0.1
1070
    73
1070
     0
1070
   140
1040
16.0
1070
   178
1070
   256
1070
   271
1070
     2
1070
   272
1070
     2
1070
   289
1070
     0
1002
}
  0
LINE
  5
2F77
330
1A
100
AcDbEntity
  8
外形線
100
AcDbLine
 10
1172.670877545689
 20
606.8220913754625
 30
0.0
 11
1172.670877545689
 21
540.8220913754621
 31
0.0
  0
LINE
  5
2F78
330
1A
100
AcDbEntity
  8
中心線
 48
10.0
100
AcDbLine
 10
1191.89093897787
 20
542.8122958884423
 30
0.0
 11
1191.89093897787
 21
516.6487370084014
 31
0.0
  0
LINE
  5
2F79
330
1A
100
AcDbEntity
  8
外形線
100
AcDbLine
 10
1175.670877545688
 20
537.8220913754626
 30
0.0
 11
1172.670877545689
 21
540.8220913754621
 31
0.0
  0
LINE
  5
2F7A
330
1A
100
AcDbEntity
  8
外形線
100
AcDbLine
 10
1175.670877545688
 20
609.8220913754626
 30
0.0
 11
1172.670877545689
 21
609.8220913754626
 31
0.0
  0
LINE
  5
2F7B
330
1A
100
AcDbEntity
  8
外形線
100
AcDbLine
 10
1175.670877545688
 20
609.8220913754626
 30
0.0
 11
1172.670877545689
 21
606.8220913754625
 31
0.0
  0
LINE
  5
2F7C
330
1A
100
AcDbEntity
  8
外形線
100
AcDbLine
 10
1195.67087754569
 20
609.8220913754626
 30
0.0
 11
1175.670877545688
 21
609.8220913754626
 31
0.0
  0
LINE
  5
2F7D
330
1A
100
AcDbEntity
  8
外形線
100
AcDbLine
 10
1172.670877545689
 20
537.8220913754626
 30
0.0
 11
1215.67087754569
 21
537.8220913754626
 31
0.0
  0
LINE
  5
2F7E
330
1A
100
AcDbEntity
  8
外形線
100
AcDbLine
 10
1215.67087754569
 20
537.8220913754626
 30
0.0
 11
1175.670877545688
 21
537.8220913754626
 31
0.0
  0
LINE
  5
2F7F
330
1A
100
AcDbEntity
  8
外形線
100
AcDbLine
 10
1095.644033572509
 20
537.8220913754626
 30
0.0
 11
1058.670877545689
 21
537.8220913754626
 31
0.0
  0
LINE
  5
2F80
330
1A
100
AcDbEntity
  8
外形線
100
AcDbLine
 10
1095.644033572509
 20
609.8220913754626
 30
0.0
 11
1058.670877545689
 21
609.8220913754626
 31
0.0
  0
LINE
  5
2F81
330
1A
100
AcDbEntity
  8
外形線
100
AcDbLine
 10
1058.670877545689
 20
606.8220913754625
 30
0.0
 11
1058.670877545689
 21
540.8220913754621
 31
0.0
  0
LINE
  5
2F82
330
1A
100
AcDbEntity
  8
中心線
 48
10.0
100
AcDbLine
 10
1039.450816113509
 20
542.8122958884423
 30
0.0
 11
1039.450816113509
 21
516.6487370084014
 31
0.0
  0
LINE
  5
2F83
330
1A
100
AcDbEntity
  8
外形線
100
AcDbLine
 10
1015.67087754569
 20
521.8220913754635
 30
0.0
 11
1015.67087754569
 21
537.8220913754626
 31
0.0
  0
LINE
  5
2F84
330
1A
100
AcDbEntity
  8
外形線
100
AcDbLine
 10
1015.67087754569
 20
537.8220913754626
 30
0.0
 11
1015.67087754569
 21
521.8220913754635
 31
0.0
  0
LINE
  5
2F85
330
1A
100
AcDbEntity
  8
外形線
100
AcDbLine
 10
1055.670877545688
 20
609.8220913754626
 30
0.0
 11
1035.67087754569
 21
609.8220913754626
 31
0.0
  0
LINE
  5
2F86
330
1A
100
AcDbEntity
  8
外形線
100
AcDbLine
 10
1058.670877545689
 20
537.8220913754626
 30
0.0
 11
1015.67087754569
 21
537.8220913754626
 31
0.0
  0
LINE
  5
2F87
330
1A
100
AcDbEntity
  8
外形線
100
AcDbLine
 10
1015.67087754569
 20
537.8220913754626
 30
0.0
 11
1058.670877545689
 21
537.8220913754626
 31
0.0
  0
LINE
  5
2F88
330
1A
100
AcDbEntity
  8
外形線
100
AcDbLine
 10
1055.670877545688
 20
537.8220913754626
 30
0.0
 11
1058.670877545689
 21
540.8220913754621
 31
0.0
  0
LINE
  5
2F89
330
1A
100
AcDbEntity
  8
外形線
100
AcDbLine
 10
1058.670877545689
 20
609.8220913754626
 30
0.0
 11
1055.670877545688
 21
609.8220913754626
 31
0.0
  0
LINE
  5
2F8A
330
1A
100
AcDbEntity
  8
外形線
100
AcDbLine
 10
1055.670877545688
 20
609.8220913754626
 30
0.0
 11
1058.670877545689
 21
606.8220913754625
 31
0.0
  0
LINE
  5
2F8B
330
1A
100
AcDbEntity
  8
外形線
100
AcDbLine
 10
1127.082008857955
 20
284.4976405300295
 30
0.0
 11
1107.082008857956
 21
284.4976405300295
 31
0.0
  0
LINE
  5
2F8C
330
1A
100
AcDbEntity
  8
外形線
100
AcDbLine
 10
1127.082008857955
 20
278.4976405300299
 30
0.0
 11
1107.082008857956
 21
278.4976405300299
 31
0.0
  0
LINE
  5
2F8D
330
1A
100
AcDbEntity
  8
外形線
100
AcDbLine
 10
1127.082008857955
 20
278.4976405300299
 30
0.0
 11
1107.082008857956
 21
278.4976405300299
 31
0.0
  0
ARC
  5
2F8E
330
1A
100
AcDbEntity
  8
外形線
100
AcDbCircle
 10
1116.921474710822
 20
297.4984459006887
 30
0.0
 40
9.999999999999564
100
AcDbArc
 50
118.7130746147718
 51
61.28692538525846
  0
LINE
  5
2F8F
330
1A
100
AcDbEntity
  8
外形線
100
AcDbLine
 10
1127.082008857955
 20
278.4976405300299
 30
0.0
 11
1127.082008857955
 21
284.4976405300295
 31
0.0
  0
LINE
  5
2F90
330
1A
100
AcDbEntity
  8
外形線
100
AcDbLine
 10
1107.082008857956
 20
278.4976405300299
 30
0.0
 11
1078.082008857957
 21
245.4976405300299
 31
0.0
  0
LINE
  5
2F91
330
1A
100
AcDbEntity
  8
外形線
100
AcDbLine
 10
1107.082008857956
 20
284.4976405300295
 30
0.0
 11
1107.082008857956
 21
278.4976405300299
 31
0.0
  0
LINE
  5
2F92
330
1A
100
AcDbEntity
  8
外形線
100
AcDbLine
 10
1119.24311001445
 20
401.7441014726648
 30
0.0
 11
1119.24311001445
 21
398.2116552005991
 31
0.0
  0
LINE
  5
2F93
330
1A
100
AcDbEntity
  8
細線
100
AcDbLine
 10
1124.501196026242
 20
392.5548829416302
 30
0.0
 11
1127.218435145189
 21
392.5548829416302
 31
0.0
  0
LINE
  5
2F94
330
1A
100
AcDbEntity
  8
細線
100
AcDbLine
 10
1127.218435145189
 20
390.0548829416316
 30
0.0
 11
1124.501196026242
 21
390.0548829416316
 31
0.0
  0
LINE
  5
2F95
330
1A
100
AcDbEntity
  8
細線
100
AcDbLine
 10
1124.501196026242
 20
391.8048829416322
 30
0.0
 11
1124.501196026242
 21
390.8048829416322
 31
0.0
  0
ARC
  5
2F96
330
1A
100
AcDbEntity
  8
細線
100
AcDbCircle
 10
1130.333176541701
 20
389.1820907354471
 30
0.0
 40
6.394609893459238
100
AcDbArc
 50
155.785320045696
 51
160.6118609815902
  0
ARC
  5
2F97
330
1A
100
AcDbEntity
  8
細線
100
AcDbCircle
 10
1130.333176541716
 20
393.4276751478219
 30
0.0
 40
6.394609893474067
100
AcDbArc
 50
199.3881390184202
 51
204.214679954304
  0
LINE
  5
2F98
330
1A
100
AcDbEntity
  8
細線
100
AcDbLine
 10
1124.501196026242
 20
390.8048829416322
 30
0.0
 11
1124.501196026242
 21
388.5548829416316
 31
0.0
  0
LINE
  5
2F99
330
1A
100
AcDbEntity
  8
細線
100
AcDbLine
 10
1124.501196026242
 20
394.0548829416307
 30
0.0
 11
1124.501196026242
 21
391.8048829416322
 31
0.0
  0
LINE
  5
2F9A
330
1A
100
AcDbEntity
  8
細線
100
AcDbLine
 10
1127.218435145189
 20
392.5548829416302
 30
0.0
 11
1127.218435145189
 21
390.0548829416316
 31
0.0
  0
ARC
  5
2F9B
330
1A
100
AcDbEntity
  8
細線
100
AcDbCircle
 10
1121.488931942712
 20
384.6212740509
 30
0.0
 40
0.5
100
AcDbArc
 50
262.8749836510953
 51
0.0
  0
LINE
  5
2F9C
330
1A
100
AcDbEntity
  8
細線
100
AcDbLine
 10
1119.884167398346
 20
394.1395762535526
 30
0.0
 11
1121.896431481876
 21
394.5707757000247
 31
0.0
  0
LINE
  5
2F9D
330
1A
100
AcDbEntity
  8
細線
100
AcDbLine
 10
1119.884167398345
 20
388.4701896297102
 30
0.0
 11
1121.896431481876
 21
388.0389901832387
 31
0.0
  0
ARC
  5
2F9E
330
1A
100
AcDbEntity
  8
細線
100
AcDbCircle
 10
1121.48893194271
 20
397.9884918323642
 30
0.0
 40
0.5
100
AcDbArc
 50
0.0
 51
97.12501634890472
  0
LINE
  5
2F9F
330
1A
100
AcDbEntity
  8
細線
100
AcDbLine
 10
1119.488931942711
 20
393.0548829416316
 30
0.0
 11
1112.290128223894
 21
396.1743645531197
 31
0.0
  0
LINE
  5
2FA0
330
1A
100
AcDbEntity
  8
細線
100
AcDbLine
 10
1119.488931942711
 20
392.5548829416302
 30
0.0
 11
1112.988931942711
 21
392.5548829416302
 31
0.0
  0
ARC
  5
2FA1
330
1A
100
AcDbEntity
  8
細線
100
AcDbCircle
 10
1119.988931942712
 20
393.6506750465137
 30
0.0
 40
0.5
100
AcDbArc
 50
102.0947570770172
 51
180.0
  0
LINE
  5
2FA2
330
1A
100
AcDbEntity
  8
細線
100
AcDbLine
 10
1119.488931942711
 20
393.6506750465137
 30
0.0
 11
1119.488931942711
 21
393.0548829416316
 31
0.0
  0
LINE
  5
2FA3
330
1A
100
AcDbEntity
  8
細線
100
AcDbLine
 10
1119.488931942711
 20
390.0548829416316
 30
0.0
 11
1112.988931942711
 21
390.0548829416316
 31
0.0
  0
LINE
  5
2FA4
330
1A
100
AcDbEntity
  8
細線
100
AcDbLine
 10
1119.488931942711
 20
389.5548829416307
 30
0.0
 11
1112.290128223894
 21
386.4354013301445
 31
0.0
  0
ARC
  5
2FA5
330
1A
100
AcDbEntity
  8
細線
100
AcDbCircle
 10
1119.98893194271
 20
388.9590908367487
 30
0.0
 40
0.5
100
AcDbArc
 50
180.0
 51
257.9052429229828
  0
LINE
  5
2FA6
330
1A
100
AcDbEntity
  8
細線
100
AcDbLine
 10
1119.488931942711
 20
388.9590908367487
 30
0.0
 11
1119.488931942711
 21
389.5548829416307
 31
0.0
  0
LINE
  5
2FA7
330
1A
100
AcDbEntity
  8
細線
100
AcDbLine
 10
1119.488931942711
 20
392.5548829416302
 30
0.0
 11
1119.488931942711
 21
390.0548829416316
 31
0.0
  0
LINE
  5
2FA8
330
1A
100
AcDbEntity
  8
細線
100
AcDbLine
 10
1119.488931942711
 20
393.6506750465137
 30
0.0
 11
1119.488931942711
 21
388.9590908367487
 31
0.0
  0
ARC
  5
2FA9
330
1A
100
AcDbEntity
  8
細線
100
AcDbCircle
 10
1112.988931942711
 20
391.5548829416311
 30
0.0
 40
1.0
100
AcDbArc
 50
90.0
 51
180.0
  0
ARC
  5
2FAA
330
1A
100
AcDbEntity
  8
細線
100
AcDbCircle
 10
1112.988931942711
 20
391.0548829416307
 30
0.0
 40
1.0
100
AcDbArc
 50
180.0
 51
270.0
  0
LINE
  5
2FAB
330
1A
100
AcDbEntity
  8
細線
100
AcDbLine
 10
1111.988931942711
 20
391.5548829416311
 30
0.0
 11
1111.988931942711
 21
391.0548829416307
 31
0.0
  0
LINE
  5
2FAC
330
1A
100
AcDbEntity
  8
細線
100
AcDbLine
 10
1121.426914575416
 20
398.4846307707203
 30
0.0
 11
1112.426914575417
 21
397.3596307707194
 31
0.0
  0
LINE
  5
2FAD
330
1A
100
AcDbEntity
  8
細線
100
AcDbLine
 10
1111.988931942711
 20
396.8634918323624
 30
0.0
 11
1111.988931942711
 21
396.6331423657734
 31
0.0
  0
ARC
  5
2FAE
330
1A
100
AcDbEntity
  8
細線
100
AcDbCircle
 10
1112.488931942712
 20
396.8634918323624
 30
0.0
 40
0.5
100
AcDbArc
 50
97.12501634890472
 51
180.0
  0
ARC
  5
2FAF
330
1A
100
AcDbEntity
  8
細線
100
AcDbCircle
 10
1112.488931942712
 20
396.6331423657734
 30
0.0
 40
0.5
100
AcDbArc
 50
180.0
 51
246.5713071912479
  0
LINE
  5
2FB0
330
1A
100
AcDbEntity
  8
細線
100
AcDbLine
 10
1112.426914575418
 20
385.2501351125434
 30
0.0
 11
1121.426914575416
 21
384.1251351125438
 31
0.0
  0
ARC
  5
2FB1
330
1A
100
AcDbEntity
  8
細線
100
AcDbCircle
 10
1112.488931942712
 20
385.7462740508995
 30
0.0
 40
0.5
100
AcDbArc
 50
179.9999999999935
 51
262.8749836510953
  0
LINE
  5
2FB2
330
1A
100
AcDbEntity
  8
細線
100
AcDbLine
 10
1111.988931942711
 20
385.9766235174893
 30
0.0
 11
1111.988931942712
 21
385.7462740508995
 31
0.0
  0
ARC
  5
2FB3
330
1A
100
AcDbEntity
  8
細線
100
AcDbCircle
 10
1112.488931942712
 20
385.9766235174893
 30
0.0
 40
0.5
100
AcDbArc
 50
113.4286928087382
 51
180.0
  0
LINE
  5
2FB4
330
1A
100
AcDbEntity
  8
細線
100
AcDbLine
 10
1121.988931942711
 20
397.9884918323642
 30
0.0
 11
1121.988931942711
 21
394.5817240626107
 31
0.0
  0
ARC
  5
2FB5
330
1A
100
AcDbEntity
  8
細線
100
AcDbCircle
 10
1122.001196026242
 20
394.0818744929849
 30
0.0
 40
0.5
100
AcDbArc
 50
0.0
 51
102.0947570770172
  0
ARC
  5
2FB6
330
1A
100
AcDbEntity
  8
細線
100
AcDbCircle
 10
1122.001196026242
 20
388.5278913902777
 30
0.0
 40
0.5
100
AcDbArc
 50
257.9052429229828
 51
0.0
  0
ARC
  5
2FB7
330
1A
100
AcDbEntity
  8
細線
100
AcDbCircle
 10
1116.669215511008
 20
389.1820907355409
 30
0.0
 40
6.394609893214996
100
AcDbArc
 50
19.38813901827857
 51
24.214679954363
  0
LINE
  5
2FB8
330
1A
100
AcDbEntity
  8
細線
100
AcDbLine
 10
1122.501196026242
 20
391.8048829416311
 30
0.0
 11
1122.501196026242
 21
388.5548829416316
 31
0.0
  0
ARC
  5
2FB9
330
1A
100
AcDbEntity
  8
細線
100
AcDbCircle
 10
1116.669215510815
 20
393.4276751478028
 30
0.0
 40
6.394609893423759
100
AcDbArc
 50
335.7853200456816
 51
340.6118609816092
  0
LINE
  5
2FBA
330
1A
100
AcDbEntity
  8
細線
100
AcDbLine
 10
1122.501196026242
 20
390.8048829416322
 30
0.0
 11
1122.501196026242
 21
388.5278913902777
 31
0.0
  0
LINE
  5
2FBB
330
1A
100
AcDbEntity
  8
細線
100
AcDbLine
 10
1122.501196026242
 20
394.0548829416307
 30
0.0
 11
1122.501196026242
 21
391.8048829416311
 31
0.0
  0
LINE
  5
2FBC
330
1A
100
AcDbEntity
  8
細線
100
AcDbLine
 10
1121.988931942711
 20
388.0389901832387
 30
0.0
 11
1121.988931942711
 21
384.6212740509
 31
0.0
  0
LINE
  5
2FBD
330
1A
100
AcDbEntity
  8
細線
100
AcDbLine
 10
1122.501196026242
 20
394.0548829416307
 30
0.0
 11
1124.501196026242
 21
394.0548829416307
 31
0.0
  0
LINE
  5
2FBE
330
1A
100
AcDbEntity
  8
細線
100
AcDbLine
 10
1124.501196026242
 20
388.5548829416316
 30
0.0
 11
1122.501196026242
 21
388.5278913902777
 31
0.0
  0
LINE
  5
2FBF
330
1A
100
AcDbEntity
  8
細線
100
AcDbLine
 10
1122.701196026242
 20
391.3048829416316
 30
0.0
 11
1124.301196026242
 21
391.3048829416325
 31
0.0
  0
LINE
  5
2FC0
330
1A
100
AcDbEntity
  8
細線
100
AcDbLine
 10
1124.501196026242
 20
352.5548829416302
 30
0.0
 11
1127.218435145189
 21
352.5548829416302
 31
0.0
  0
LINE
  5
2FC1
330
1A
100
AcDbEntity
  8
細線
100
AcDbLine
 10
1127.218435145189
 20
350.0548829416316
 30
0.0
 11
1124.501196026242
 21
350.0548829416316
 31
0.0
  0
LINE
  5
2FC2
330
1A
100
AcDbEntity
  8
細線
100
AcDbLine
 10
1124.501196026242
 20
351.8048829416322
 30
0.0
 11
1124.501196026242
 21
350.8048829416322
 31
0.0
  0
ARC
  5
2FC3
330
1A
100
AcDbEntity
  8
細線
100
AcDbCircle
 10
1130.333176541701
 20
349.1820907354472
 30
0.0
 40
6.394609893459238
100
AcDbArc
 50
155.785320045696
 51
160.6118609815902
  0
ARC
  5
2FC4
330
1A
100
AcDbEntity
  8
細線
100
AcDbCircle
 10
1130.333176541716
 20
353.4276751478219
 30
0.0
 40
6.394609893474067
100
AcDbArc
 50
199.3881390184202
 51
204.214679954304
  0
LINE
  5
2FC5
330
1A
100
AcDbEntity
  8
細線
100
AcDbLine
 10
1124.501196026242
 20
350.8048829416322
 30
0.0
 11
1124.501196026242
 21
348.5548829416316
 31
0.0
  0
LINE
  5
2FC6
330
1A
100
AcDbEntity
  8
細線
100
AcDbLine
 10
1124.501196026242
 20
354.0548829416307
 30
0.0
 11
1124.501196026242
 21
351.8048829416322
 31
0.0
  0
LINE
  5
2FC7
330
1A
100
AcDbEntity
  8
細線
100
AcDbLine
 10
1127.218435145189
 20
352.5548829416302
 30
0.0
 11
1127.218435145189
 21
350.0548829416316
 31
0.0
  0
ARC
  5
2FC8
330
1A
100
AcDbEntity
  8
細線
100
AcDbCircle
 10
1121.488931942712
 20
344.6212740508999
 30
0.0
 40
0.5
100
AcDbArc
 50
262.8749836510953
 51
0.0
  0
LINE
  5
2FC9
330
1A
100
AcDbEntity
  8
細線
100
AcDbLine
 10
1119.884167398346
 20
354.1395762535526
 30
0.0
 11
1121.896431481876
 21
354.5707757000246
 31
0.0
  0
LINE
  5
2FCA
330
1A
100
AcDbEntity
  8
細線
100
AcDbLine
 10
1119.884167398345
 20
348.4701896297102
 30
0.0
 11
1121.896431481876
 21
348.0389901832386
 31
0.0
  0
ARC
  5
2FCB
330
1A
100
AcDbEntity
  8
細線
100
AcDbCircle
 10
1121.48893194271
 20
357.9884918323642
 30
0.0
 40
0.5
100
AcDbArc
 50
0.0
 51
97.12501634890472
  0
LINE
  5
2FCC
330
1A
100
AcDbEntity
  8
細線
100
AcDbLine
 10
1119.488931942711
 20
353.0548829416316
 30
0.0
 11
1112.290128223894
 21
356.1743645531197
 31
0.0
  0
LINE
  5
2FCD
330
1A
100
AcDbEntity
  8
細線
100
AcDbLine
 10
1119.488931942711
 20
352.5548829416302
 30
0.0
 11
1112.988931942711
 21
352.5548829416302
 31
0.0
  0
ARC
  5
2FCE
330
1A
100
AcDbEntity
  8
細線
100
AcDbCircle
 10
1119.988931942712
 20
353.6506750465137
 30
0.0
 40
0.5
100
AcDbArc
 50
102.0947570770172
 51
180.0
  0
LINE
  5
2FCF
330
1A
100
AcDbEntity
  8
細線
100
AcDbLine
 10
1119.488931942711
 20
353.6506750465137
 30
0.0
 11
1119.488931942711
 21
353.0548829416316
 31
0.0
  0
LINE
  5
2FD0
330
1A
100
AcDbEntity
  8
細線
100
AcDbLine
 10
1119.488931942711
 20
350.0548829416316
 30
0.0
 11
1112.988931942711
 21
350.0548829416316
 31
0.0
  0
LINE
  5
2FD1
330
1A
100
AcDbEntity
  8
細線
100
AcDbLine
 10
1119.488931942711
 20
349.5548829416307
 30
0.0
 11
1112.290128223894
 21
346.4354013301445
 31
0.0
  0
ARC
  5
2FD2
330
1A
100
AcDbEntity
  8
細線
100
AcDbCircle
 10
1119.98893194271
 20
348.9590908367487
 30
0.0
 40
0.5
100
AcDbArc
 50
180.0
 51
257.9052429229828
  0
LINE
  5
2FD3
330
1A
100
AcDbEntity
  8
細線
100
AcDbLine
 10
1119.488931942711
 20
348.9590908367487
 30
0.0
 11
1119.488931942711
 21
349.5548829416307
 31
0.0
  0
LINE
  5
2FD4
330
1A
100
AcDbEntity
  8
細線
100
AcDbLine
 10
1119.488931942711
 20
352.5548829416302
 30
0.0
 11
1119.488931942711
 21
350.0548829416316
 31
0.0
  0
LINE
  5
2FD5
330
1A
100
AcDbEntity
  8
細線
100
AcDbLine
 10
1119.488931942711
 20
353.6506750465137
 30
0.0
 11
1119.488931942711
 21
348.9590908367487
 31
0.0
  0
ARC
  5
2FD6
330
1A
100
AcDbEntity
  8
細線
100
AcDbCircle
 10
1112.988931942711
 20
351.5548829416311
 30
0.0
 40
1.0
100
AcDbArc
 50
90.0
 51
180.0
  0
ARC
  5
2FD7
330
1A
100
AcDbEntity
  8
細線
100
AcDbCircle
 10
1112.988931942711
 20
351.0548829416307
 30
0.0
 40
1.0
100
AcDbArc
 50
180.0
 51
270.0
  0
LINE
  5
2FD8
330
1A
100
AcDbEntity
  8
細線
100
AcDbLine
 10
1111.988931942711
 20
351.5548829416311
 30
0.0
 11
1111.988931942711
 21
351.0548829416307
 31
0.0
  0
LINE
  5
2FD9
330
1A
100
AcDbEntity
  8
細線
100
AcDbLine
 10
1121.426914575416
 20
358.4846307707203
 30
0.0
 11
1112.426914575417
 21
357.3596307707194
 31
0.0
  0
LINE
  5
2FDA
330
1A
100
AcDbEntity
  8
細線
100
AcDbLine
 10
1111.988931942711
 20
356.8634918323624
 30
0.0
 11
1111.988931942711
 21
356.6331423657735
 31
0.0
  0
ARC
  5
2FDB
330
1A
100
AcDbEntity
  8
細線
100
AcDbCircle
 10
1112.488931942712
 20
356.8634918323624
 30
0.0
 40
0.5
100
AcDbArc
 50
97.12501634890472
 51
180.0
  0
ARC
  5
2FDC
330
1A
100
AcDbEntity
  8
細線
100
AcDbCircle
 10
1112.488931942712
 20
356.6331423657735
 30
0.0
 40
0.5
100
AcDbArc
 50
180.0
 51
246.5713071912479
  0
LINE
  5
2FDD
330
1A
100
AcDbEntity
  8
細線
100
AcDbLine
 10
1112.426914575418
 20
345.2501351125434
 30
0.0
 11
1121.426914575416
 21
344.1251351125438
 31
0.0
  0
ARC
  5
2FDE
330
1A
100
AcDbEntity
  8
細線
100
AcDbCircle
 10
1112.488931942712
 20
345.7462740508995
 30
0.0
 40
0.5
100
AcDbArc
 50
179.9999999999935
 51
262.8749836510953
  0
LINE
  5
2FDF
330
1A
100
AcDbEntity
  8
細線
100
AcDbLine
 10
1111.988931942711
 20
345.9766235174893
 30
0.0
 11
1111.988931942712
 21
345.7462740508995
 31
0.0
  0
ARC
  5
2FE0
330
1A
100
AcDbEntity
  8
細線
100
AcDbCircle
 10
1112.488931942712
 20
345.9766235174893
 30
0.0
 40
0.5
100
AcDbArc
 50
113.4286928087382
 51
180.0
  0
LINE
  5
2FE1
330
1A
100
AcDbEntity
  8
細線
100
AcDbLine
 10
1121.988931942711
 20
357.9884918323642
 30
0.0
 11
1121.988931942711
 21
354.5817240626107
 31
0.0
  0
ARC
  5
2FE2
330
1A
100
AcDbEntity
  8
細線
100
AcDbCircle
 10
1122.001196026242
 20
354.0818744929847
 30
0.0
 40
0.5
100
AcDbArc
 50
0.0
 51
102.0947570770172
  0
ARC
  5
2FE3
330
1A
100
AcDbEntity
  8
細線
100
AcDbCircle
 10
1122.001196026242
 20
348.5278913902775
 30
0.0
 40
0.5
100
AcDbArc
 50
257.9052429229828
 51
0.0
  0
ARC
  5
2FE4
330
1A
100
AcDbEntity
  8
細線
100
AcDbCircle
 10
1116.669215511008
 20
349.1820907355408
 30
0.0
 40
6.394609893214996
100
AcDbArc
 50
19.38813901827857
 51
24.214679954363
  0
LINE
  5
2FE5
330
1A
100
AcDbEntity
  8
細線
100
AcDbLine
 10
1122.501196026242
 20
351.8048829416311
 30
0.0
 11
1122.501196026242
 21
348.5548829416316
 31
0.0
  0
ARC
  5
2FE6
330
1A
100
AcDbEntity
  8
細線
100
AcDbCircle
 10
1116.669215510815
 20
353.4276751478028
 30
0.0
 40
6.394609893423759
100
AcDbArc
 50
335.7853200456816
 51
340.6118609816092
  0
LINE
  5
2FE7
330
1A
100
AcDbEntity
  8
細線
100
AcDbLine
 10
1122.501196026242
 20
350.8048829416322
 30
0.0
 11
1122.501196026242
 21
348.5278913902775
 31
0.0
  0
LINE
  5
2FE8
330
1A
100
AcDbEntity
  8
細線
100
AcDbLine
 10
1122.501196026242
 20
354.0548829416307
 30
0.0
 11
1122.501196026242
 21
351.8048829416311
 31
0.0
  0
LINE
  5
2FE9
330
1A
100
AcDbEntity
  8
細線
100
AcDbLine
 10
1121.988931942711
 20
348.0389901832386
 30
0.0
 11
1121.988931942711
 21
344.6212740508999
 31
0.0
  0
LINE
  5
2FEA
330
1A
100
AcDbEntity
  8
細線
100
AcDbLine
 10
1122.501196026242
 20
354.0548829416307
 30
0.0
 11
1124.501196026242
 21
354.0548829416307
 31
0.0
  0
LINE
  5
2FEB
330
1A
100
AcDbEntity
  8
細線
100
AcDbLine
 10
1124.501196026242
 20
348.5548829416316
 30
0.0
 11
1122.501196026242
 21
348.5278913902775
 31
0.0
  0
LINE
  5
2FEC
330
1A
100
AcDbEntity
  8
細線
100
AcDbLine
 10
1122.701196026242
 20
351.3048829416316
 30
0.0
 11
1124.301196026242
 21
351.3048829416325
 31
0.0
  0
ARC
  5
2FED
330
1A
100
AcDbEntity
  8
外形線
100
AcDbCircle
 10
1116.92147471082
 20
297.4984459006869
 30
0.0
 40
16.0000000000009
100
AcDbArc
 50
98.98929934516274
 51
234.3458597940641
  0
LINE
  5
2FEE
330
1A
100
AcDbEntity
  8
外形線
100
AcDbLine
 10
1117.27645148206
 20
401.7441014726648
 30
0.0
 11
1119.24311001445
 21
401.7441014726648
 31
0.0
  0
LINE
  5
2FEF
330
1A
100
AcDbEntity
  8
外形線
100
AcDbLine
 10
1114.616207624544
 20
340.0752882528504
 30
0.0
 11
1114.61633313351
 21
344.9764577927822
 31
0.0
  0
LINE
  5
2FF0
330
1A
100
AcDbEntity
  8
外形線
100
AcDbLine
 10
1119.24311001445
 20
393.1614057772113
 30
0.0
 11
1119.24311001445
 21
392.5548829416302
 31
0.0
  0
LINE
  5
2FF1
330
1A
100
AcDbEntity
  8
外形線
100
AcDbLine
 10
1119.24311001445
 20
390.0548829416316
 30
0.0
 11
1119.24311001445
 21
389.448360106051
 31
0.0
  0
LINE
  5
2FF2
330
1A
100
AcDbEntity
  8
外形線
100
AcDbLine
 10
1119.24311001445
 20
384.3981106826646
 30
0.0
 11
1119.24311001445
 21
358.2116552005991
 31
0.0
  0
LINE
  5
2FF3
330
1A
100
AcDbEntity
  8
外形線
100
AcDbLine
 10
1117.27645148206
 20
394.0136244745804
 30
0.0
 11
1117.27645148206
 21
392.5548829416302
 31
0.0
  0
LINE
  5
2FF4
330
1A
100
AcDbEntity
  8
外形線
100
AcDbLine
 10
1117.27645148206
 20
390.0548829416316
 30
0.0
 11
1117.27645148206
 21
388.5961414086823
 31
0.0
  0
LINE
  5
2FF5
330
1A
100
AcDbEntity
  8
外形線
100
AcDbLine
 10
1117.27645148206
 20
384.6439429992133
 30
0.0
 11
1117.27645148206
 21
357.9658228840504
 31
0.0
  0
LINE
  5
2FF6
330
1A
100
AcDbEntity
  8
外形線
100
AcDbLine
 10
1117.27645148206
 20
397.9658228840504
 30
0.0
 11
1117.27645148206
 21
401.7441014726648
 31
0.0
  0
LINE
  5
2FF7
330
1A
100
AcDbEntity
  8
外形線
100
AcDbLine
 10
1116.786316420334
 20
392.5548829416302
 30
0.0
 11
1116.786316420334
 21
394.2260163346618
 31
0.0
  0
LINE
  5
2FF8
330
1A
100
AcDbEntity
  8
外形線
100
AcDbLine
 10
1116.786316420334
 20
388.3837495486014
 30
0.0
 11
1116.786316420334
 21
390.0548829416316
 31
0.0
  0
LINE
  5
2FF9
330
1A
100
AcDbEntity
  8
外形線
100
AcDbLine
 10
1114.682993491151
 20
392.5548829416302
 30
0.0
 11
1114.686609642894
 21
395.135889271553
 31
0.0
  0
LINE
  5
2FFA
330
1A
100
AcDbEntity
  8
外形線
100
AcDbLine
 10
1114.675868161168
 20
387.4692219696294
 30
0.0
 11
1114.679490834357
 21
390.0548829416316
 31
0.0
  0
LINE
  5
2FFB
330
1A
100
AcDbEntity
  8
外形線
100
AcDbLine
 10
1119.24311001445
 20
353.1614057772113
 30
0.0
 11
1119.24311001445
 21
352.5548829416302
 31
0.0
  0
LINE
  5
2FFC
330
1A
100
AcDbEntity
  8
外形線
100
AcDbLine
 10
1119.24311001445
 20
350.0548829416316
 30
0.0
 11
1119.24311001445
 21
349.448360106051
 31
0.0
  0
LINE
  5
2FFD
330
1A
100
AcDbEntity
  8
外形線
100
AcDbLine
 10
1119.24311001445
 20
344.3981106826645
 30
0.0
 11
1119.24311001445
 21
340.1187068715717
 31
0.0
  0
LINE
  5
2FFE
330
1A
100
AcDbEntity
  8
外形線
100
AcDbLine
 10
1117.27645148206
 20
353.9275014292857
 30
0.0
 11
1117.27645148206
 21
352.5548829416302
 31
0.0
  0
LINE
  5
2FFF
330
1A
100
AcDbEntity
  8
外形線
100
AcDbLine
 10
1117.27645148206
 20
350.0548829416316
 30
0.0
 11
1117.276451482061
 21
348.5961414086828
 31
0.0
  0
LINE
  5
3000
330
1A
100
AcDbEntity
  8
外形線
100
AcDbLine
 10
1117.27645148206
 20
344.6439429992133
 30
0.0
 11
1117.27645148206
 21
341.5808996804817
 31
0.0
  0
LINE
  5
3001
330
1A
100
AcDbEntity
  8
外形線
100
AcDbLine
 10
1116.786316420334
 20
357.9045560013347
 30
0.0
 11
1116.786316420334
 21
384.705209881929
 31
0.0
  0
LINE
  5
3002
330
1A
100
AcDbEntity
  8
外形線
100
AcDbLine
 10
1116.786316420334
 20
352.5548829416302
 30
0.0
 11
1116.786316420334
 21
354.2260163346619
 31
0.0
  0
LINE
  5
3003
330
1A
100
AcDbEntity
  8
外形線
100
AcDbLine
 10
1116.786316420334
 20
348.3837495486014
 30
0.0
 11
1116.786316420334
 21
350.0548829416316
 31
0.0
  0
LINE
  5
3004
330
1A
100
AcDbEntity
  8
外形線
100
AcDbLine
 10
1114.634069280767
 20
357.635525108889
 30
0.0
 11
1114.672365829051
 21
384.9694537058395
 31
0.0
  0
LINE
  5
3005
330
1A
100
AcDbEntity
  8
外形線
100
AcDbLine
 10
1114.626950982445
 20
352.5548829416307
 30
0.0
 11
1114.630601138473
 21
355.1601596234686
 31
0.0
  0
LINE
  5
3006
330
1A
100
AcDbEntity
  8
外形線
100
AcDbLine
 10
1114.619791606863
 20
347.4449221294303
 30
0.0
 11
1114.623448325651
 21
350.0548829416322
 31
0.0
  0
ARC
  5
3007
330
1A
100
AcDbEntity
  8
外形線
100
AcDbCircle
 10
1116.921474710822
 20
328.5984459006818
 30
0.0
 40
6.000000000001437
100
AcDbArc
 50
158.573359930656
 51
245.3756816478025
  0
LINE
  5
3008
330
1A
100
AcDbEntity
  8
外形線
100
AcDbLine
 10
1115.85750979464
 20
343.5890986719787
 30
0.0
 11
1111.336158331371
 21
330.7903037750557
 31
0.0
  0
LINE
  5
3009
330
1A
100
AcDbEntity
  8
外形線
100
AcDbLine
 10
1117.98337017195
 20
343.594951974781
 30
0.0
 11
1122.510045432269
 21
330.791580883576
 31
0.0
  0
LINE
  5
300A
330
1A
100
AcDbEntity
  8
外形線
100
AcDbLine
 10
1117.98337017195
 20
343.594951974781
 30
0.0
 11
1113.185923336418
 21
329.7747321964866
 31
0.0
  0
LINE
  5
300B
330
1A
100
AcDbEntity
  8
外形線
100
AcDbLine
 10
1115.85750979464
 20
343.5890986719787
 30
0.0
 11
1120.64546557123
 21
329.7489479274968
 31
0.0
  0
LINE
  5
300C
330
1A
100
AcDbEntity
  8
外形線
100
AcDbLine
 10
1114.42147471082
 20
326.879009438524
 30
0.0
 11
1114.421474710821
 21
308.8386146845992
 31
0.0
  0
LINE
  5
300D
330
1A
100
AcDbEntity
  8
外形線
100
AcDbLine
 10
1119.421474710821
 20
308.8386146845992
 30
0.0
 11
1119.421474710821
 21
326.879009438524
 31
0.0
  0
ARC
  5
300E
330
1A
100
AcDbEntity
  8
外形線
100
AcDbCircle
 10
1116.921474710821
 20
326.8790094385236
 30
0.0
 40
2.500000000000909
100
AcDbArc
 50
0.0000000000130276
 51
179.999999999987
  0
ARC
  5
300F
330
1A
100
AcDbEntity
  8
外形線
100
AcDbCircle
 10
1116.92147471082
 20
304.2790094385277
 30
0.0
 40
5.199999999999337
100
AcDbArc
 50
118.7356537448789
 51
61.26434625509116
  0
ARC
  5
3010
330
1A
100
AcDbEntity
  8
外形線
100
AcDbCircle
 10
1116.921474710822
 20
304.2790094385273
 30
0.0
 40
3.000000000000642
100
AcDbArc
 50
113.5781784782074
 51
246.4218215217783
  0
LINE
  5
3011
330
1A
100
AcDbEntity
  8
外形線
100
AcDbLine
 10
1118.121474710821
 20
300.2790094385277
 30
0.0
 11
1118.121474710821
 21
308.2790094385277
 31
0.0
  0
LINE
  5
3012
330
1A
100
AcDbEntity
  8
外形線
100
AcDbLine
 10
1118.121474710821
 20
300.2790094385277
 30
0.0
 11
1115.721474710822
 21
300.2790094385277
 31
0.0
  0
LINE
  5
3013
330
1A
100
AcDbEntity
  8
外形線
100
AcDbLine
 10
1115.721474710822
 20
300.2790094385277
 30
0.0
 11
1115.721474710822
 21
308.2790094385277
 31
0.0
  0
LINE
  5
3014
330
1A
100
AcDbEntity
  8
外形線
100
AcDbLine
 10
1118.121474710821
 20
308.2790094385277
 30
0.0
 11
1115.721474710822
 21
308.2790094385277
 31
0.0
  0
ARC
  5
3015
330
1A
100
AcDbEntity
  8
外形線
100
AcDbCircle
 10
1116.921474710822
 20
304.2790094385277
 30
0.0
 40
2.999999999999861
100
AcDbArc
 50
293.5781784781937
 51
66.42182152179252
  0
LINE
  5
3016
330
1A
100
AcDbEntity
  8
外形線
100
AcDbLine
 10
1116.786316420334
 20
344.705209881929
 30
0.0
 11
1116.786316420334
 21
341.0634583524902
 31
0.0
  0
ARC
  5
3017
330
1A
100
AcDbEntity
  8
外形線
100
AcDbCircle
 10
1116.921474710818
 20
328.5984459006827
 30
0.0
 40
5.999999999999943
100
AcDbArc
 50
294.6243183521975
 51
21.42664006933871
  0
ARC
  5
3018
330
1A
100
AcDbEntity
  8
外形線
100
AcDbCircle
 10
1116.911762741581
 20
328.6243723460752
 30
0.0
 40
3.899385471899011
100
AcDbArc
 50
309.4683900436936
 51
16.76208026531825
  0
ARC
  5
3019
330
1A
100
AcDbEntity
  8
外形線
100
AcDbCircle
 10
1116.911762741576
 20
328.6243723460748
 30
0.0
 40
3.899385471900168
100
AcDbArc
 50
162.8418300388515
 51
230.8586398403764
  0
LINE
  5
301A
330
1A
100
AcDbEntity
  8
外形線
100
AcDbLine
 10
1114.616207624544
 20
521.8220913754635
 30
0.0
 11
1114.616207624544
 21
397.6332924018607
 31
0.0
  0
LINE
  5
301B
330
1A
100
AcDbEntity
  8
外形線
100
AcDbLine
 10
1116.582866156934
 20
521.8220913754635
 30
0.0
 11
1116.582866156934
 21
397.9224042653291
 31
0.0
  0
DIMENSION
  5
301C
330
1A
100
AcDbEntity
  8
寸法線
100
AcDbDimension
  2
*D10
 10
1058.670877545688
 20
569.8435273376222
 30
0.0
 11
964.9290271519872
 21
578.4969544623682
 31
0.0
 70
    32
  1
SGP100A　φ114
 71
     5
 42
114.0
  3
ISO-25
100
AcDbAlignedDimension
 13
1172.670877545688
 23
566.1536915976784
 33
0.0
 14
1058.670877545688
 24
566.1536915976784
 34
0.0
 50
180.0
100
AcDbRotatedDimension
1001
ACAD
1000
DSTYLE
1002
{
1070
    41
1040
10.0
1070
    40
1040
1.0
1070
   144
1040
1.0
1070
    47
1040
0.1
1070
    48
1040
0.1
1070
    73
1070
     0
1070
   140
1040
16.0
1070
   178
1070
   256
1070
   271
1070
     2
1070
   272
1070
     2
1070
   289
1070
     1
1002
}
  0
LINE
  5
301D
330
1A
100
AcDbEntity
  8
外形線
100
AcDbLine
 10
1172.670877545689
 20
540.8220913754621
 30
0.0
 11
1058.670877545689
 21
540.8220913754621
 31
0.0
  0
LINE
  5
301E
330
1A
100
AcDbEntity
  8
外形線
100
AcDbLine
 10
1172.670877545689
 20
606.8220913754625
 30
0.0
 11
1058.670877545689
 21
606.8220913754625
 31
0.0
  0
LINE
  5
301F
330
1A
100
AcDbEntity
  8
外形線
100
AcDbLine
 10
1156.082008857955
 20
245.4976405300299
 30
0.0
 11
1078.082008857957
 21
245.4976405300299
 31
0.0
  0
ARC
  5
3020
330
1A
100
AcDbEntity
  8
外形線
100
AcDbCircle
 10
1116.921474710819
 20
297.4984459006878
 30
0.0
 40
15.99999999999991
100
AcDbArc
 50
305.6541402059346
 51
81.01070065483725
  0
LINE
  5
3021
330
1A
100
AcDbEntity
  8
外形線
100
AcDbLine
 10
1172.670877545689
 20
537.8220913754626
 30
0.0
 11
1095.644033572509
 21
537.8220913754626
 31
0.0
  0
LINE
  5
3022
330
1A
100
AcDbEntity
  8
外形線
100
AcDbLine
 10
1015.67087754569
 20
521.8220913754635
 30
0.0
 11
1215.67087754569
 21
521.8220913754635
 31
0.0
  0
LINE
  5
3023
330
1A
100
AcDbEntity
  8
外形線
100
AcDbLine
 10
1215.67087754569
 20
521.8220913754635
 30
0.0
 11
1097.644033572509
 21
521.8220913754635
 31
0.0
  0
LINE
  5
3024
330
1A
100
AcDbEntity
  8
外形線
100
AcDbLine
 10
1172.670877545689
 20
609.8220913754626
 30
0.0
 11
1095.644033572509
 21
609.8220913754626
 31
0.0
  0
LINE
  5
3025
330
1A
100
AcDbEntity
  8
外形線
100
AcDbLine
 10
1127.082008857955
 20
278.4976405300299
 30
0.0
 11
1156.082008857955
 21
245.4976405300299
 31
0.0
  0
LINE
  5
3026
330
1A
100
AcDbEntity
  8
外形線
100
AcDbLine
 10
1195.67087754569
 20
797.8220913754621
 30
0.0
 11
1195.67087754569
 21
609.8220913754626
 31
0.0
  0
LINE
  5
3027
330
1A
100
AcDbEntity
  8
中心線
 48
10.0
100
AcDbLine
 10
1115.670877545688
 20
490.859658373683
 30
0.0
 11
1115.670877545688
 21
947.1299568926083
 31
0.0
  0
LINE
  5
3028
330
1A
100
AcDbEntity
  8
外形線
100
AcDbLine
 10
1035.67087754569
 20
934.8220913754628
 30
0.0
 11
1035.67087754569
 21
609.8220913754626
 31
0.0
  0
DIMENSION
  5
3029
330
1A
100
AcDbEntity
  8
寸法線
100
AcDbDimension
  2
*D11
 10
1307.47448409546
 20
521.8220913754634
 30
0.0
 11
1307.47448409546
 21
774.8220913754607
 31
0.0
 70
   160
 71
     5
 42
418.9999999999995
  3
ISO-25
100
AcDbAlignedDimension
 13
1195.67087754569
 23
940.8220913754632
 33
0.0
 14
1215.67087754569
 24
521.8220913754635
 34
0.0
 50
90.0
100
AcDbRotatedDimension
1001
ACAD
1000
DSTYLE
1002
{
1070
    41
1040
10.0
1070
    40
1040
1.0
1070
   144
1040
1.0
1070
    47
1040
0.1
1070
    48
1040
0.1
1070
    73
1070
     0
1070
   140
1040
16.0
1070
   178
1070
   256
1070
   271
1070
     2
1070
   272
1070
     2
1070
   289
1070
     0
1002
}
  0
LINE
  5
302F
330
1A
100
AcDbEntity
  8
外形線
100
AcDbLine
 10
799.6411163504062
 20
906.5875505393297
 30
0.0
 11
804.641116350406
 21
906.5875505393297
 31
0.0
  0
LINE
  5
3030
330
1A
100
AcDbEntity
  8
外形線
100
AcDbLine
 10
804.641116350406
 20
898.0875505393296
 30
0.0
 11
799.6411163504062
 21
898.0875505393296
 31
0.0
  0
LINE
  5
3031
330
1A
100
AcDbEntity
  8
外形線
100
AcDbLine
 10
805.6411163504062
 20
907.3375505393297
 30
0.0
 11
804.641116350406
 21
907.3375505393297
 31
0.0
  0
LINE
  5
3032
330
1A
100
AcDbEntity
  8
外形線
100
AcDbLine
 10
804.641116350406
 20
897.3375505393292
 30
0.0
 11
805.6411163504062
 21
897.3375505393292
 31
0.0
  0
LINE
  5
3033
330
1A
100
AcDbEntity
  8
外形線
100
AcDbLine
 10
804.641116350406
 20
906.5875505393297
 30
0.0
 11
804.641116350406
 21
898.0875505393296
 31
0.0
  0
LINE
  5
3034
330
1A
100
AcDbEntity
  8
外形線
100
AcDbLine
 10
804.641116350406
 20
907.3375505393297
 30
0.0
 11
804.641116350406
 21
897.3375505393292
 31
0.0
  0
LINE
  5
3035
330
1A
100
AcDbEntity
  8
外形線
100
AcDbLine
 10
805.6411163504062
 20
897.3375505393292
 30
0.0
 11
805.6411163504062
 21
907.3375505393297
 31
0.0
  0
LINE
  5
3036
330
1A
100
AcDbEntity
  8
外形線
100
AcDbLine
 10
799.6411163504062
 20
898.0875505393296
 30
0.0
 11
799.6411163504062
 21
906.5875505393297
 31
0.0
  0
LINE
  5
3037
330
1A
100
AcDbEntity
  8
細線
100
AcDbLine
 10
812.6708775456901
 20
916.9440487586099
 30
0.0
 11
809.67087754569
 21
916.9440487586099
 31
0.0
  0
LINE
  5
3038
330
1A
100
AcDbEntity
  8
外形線
100
AcDbLine
 10
805.67087754569
 20
916.9440487586099
 30
0.0
 11
809.67087754569
 21
916.9440487586099
 31
0.0
  0
LINE
  5
3039
330
1A
100
AcDbEntity
  8
外形線
100
AcDbLine
 10
804.5976332046402
 20
791.5273800309819
 30
0.0
 11
804.5976332046402
 21
783.0273800309828
 31
0.0
  0
LINE
  5
303A
330
1A
100
AcDbEntity
  8
外形線
100
AcDbLine
 10
804.5976332046402
 20
792.2773800309824
 30
0.0
 11
804.5976332046402
 21
782.2773800309837
 31
0.0
  0
LINE
  5
303B
330
1A
100
AcDbEntity
  8
外形線
100
AcDbLine
 10
805.5976332046402
 20
782.2773800309837
 30
0.0
 11
805.5976332046402
 21
792.2773800309824
 31
0.0
  0
LINE
  5
303C
330
1A
100
AcDbEntity
  8
外形線
100
AcDbLine
 10
799.5976332046401
 20
783.0273800309828
 30
0.0
 11
799.5976332046401
 21
791.5273800309819
 31
0.0
  0
LINE
  5
303D
330
1A
100
AcDbEntity
  8
外形線
100
AcDbLine
 10
804.5976332046402
 20
783.0273800309828
 30
0.0
 11
799.5976332046401
 21
783.0273800309828
 31
0.0
  0
LINE
  5
303E
330
1A
100
AcDbEntity
  8
外形線
100
AcDbLine
 10
804.5976332046402
 20
782.2773800309837
 30
0.0
 11
805.5976332046402
 21
782.2773800309837
 31
0.0
  0
LINE
  5
303F
330
1A
100
AcDbEntity
  8
外形線
100
AcDbLine
 10
799.6651309923699
 20
668.0414801707561
 30
0.0
 11
799.6651309923699
 21
676.5414801707552
 31
0.0
  0
LINE
  5
3040
330
1A
100
AcDbEntity
  8
外形線
100
AcDbLine
 10
804.6651309923708
 20
676.5414801707552
 30
0.0
 11
804.6651309923708
 21
668.0414801707561
 31
0.0
  0
LINE
  5
3041
330
1A
100
AcDbEntity
  8
外形線
100
AcDbLine
 10
804.6651309923708
 20
677.2914801707558
 30
0.0
 11
804.6651309923708
 21
667.2914801707561
 31
0.0
  0
LINE
  5
3042
330
1A
100
AcDbEntity
  8
外形線
100
AcDbLine
 10
805.6651309923699
 20
667.2914801707561
 30
0.0
 11
805.6651309923699
 21
677.2914801707558
 31
0.0
  0
LINE
  5
3043
330
1A
100
AcDbEntity
  8
外形線
100
AcDbLine
 10
804.6651309923708
 20
668.0414801707561
 30
0.0
 11
799.6651309923699
 21
668.0414801707561
 31
0.0
  0
LINE
  5
3044
330
1A
100
AcDbEntity
  8
外形線
100
AcDbLine
 10
804.6651309923708
 20
667.2914801707561
 30
0.0
 11
805.6651309923699
 21
667.2914801707561
 31
0.0
  0
LINE
  5
3045
330
1A
100
AcDbEntity
  8
外形線
100
AcDbLine
 10
805.67087754569
 20
658.3190487586094
 30
0.0
 11
809.67087754569
 21
658.3190487586094
 31
0.0
  0
LINE
  5
3046
330
1A
100
AcDbEntity
  8
外形線
100
AcDbLine
 10
799.6651309923699
 20
676.5414801707552
 30
0.0
 11
804.6651309923708
 21
676.5414801707552
 31
0.0
  0
LINE
  5
3047
330
1A
100
AcDbEntity
  8
外形線
100
AcDbLine
 10
805.6651309923699
 20
677.2914801707558
 30
0.0
 11
804.6651309923708
 21
677.2914801707558
 31
0.0
  0
LINE
  5
3048
330
1A
100
AcDbEntity
  8
外形線
100
AcDbLine
 10
799.5976332046401
 20
791.5273800309819
 30
0.0
 11
804.5976332046402
 21
791.5273800309819
 31
0.0
  0
LINE
  5
3049
330
1A
100
AcDbEntity
  8
外形線
100
AcDbLine
 10
805.5976332046402
 20
792.2773800309824
 30
0.0
 11
804.5976332046402
 21
792.2773800309824
 31
0.0
  0
LINE
  5
304A
330
1A
100
AcDbEntity
  8
細線
100
AcDbLine
 10
812.6708775456901
 20
658.3190487586094
 30
0.0
 11
809.67087754569
 21
658.3190487586094
 31
0.0
  0
LINE
  5
304C
330
1A
100
AcDbEntity
  8
外形線
100
AcDbLine
 10
812.6708775456901
 20
916.9440487586099
 30
0.0
 11
812.6708775456901
 21
658.3190487586094
 31
0.0
  0
LINE
  5
304D
330
1A
100
AcDbEntity
  8
外形線
100
AcDbLine
 10
805.67087754569
 20
916.9440487586099
 30
0.0
 11
805.67087754569
 21
658.3190487586094
 31
0.0
  0
LINE
  5
304E
330
1A
100
AcDbEntity
  8
外形線
100
AcDbLine
 10
812.6708775456901
 20
658.3190487586094
 30
0.0
 11
812.6708775456901
 21
916.3190487586094
 31
0.0
  0
LINE
  5
304F
330
1A
100
AcDbEntity
  8
細線
100
AcDbLine
 10
809.67087754569
 20
916.9440487586099
 30
0.0
 11
809.67087754569
 21
658.3190487586094
 31
0.0
  0
LINE
  5
3050
330
1A
100
AcDbEntity
  8
外形線
100
AcDbLine
 10
809.67087754569
 20
916.9440487586099
 30
0.0
 11
809.67087754569
 21
658.3190487586094
 31
0.0
  0
DIMENSION
  5
3051
330
1A
100
AcDbEntity
  8
寸法線
100
AcDbDimension
  2
*D12
 10
760.4180981683986
 20
658.3190487586095
 30
0.0
 11
760.4180981683984
 21
787.6315487586087
 31
0.0
 70
   160
  1
258
 71
     5
 42
258.6250000000005
  3
ISO-25
100
AcDbAlignedDimension
 13
805.67087754569
 23
916.9440487586099
 33
0.0
 14
805.67087754569
 24
658.3190487586094
 34
0.0
 50
90.0
100
AcDbRotatedDimension
1001
ACAD
1000
DSTYLE
1002
{
1070
    41
1040
10.0
1070
    40
1040
1.0
1070
   144
1040
1.0
1070
    47
1040
0.1
1070
    48
1040
0.1
1070
    73
1070
     0
1070
   140
1040
16.0
1070
   178
1070
   256
1070
   271
1070
     2
1070
   272
1070
     2
1070
   289
1070
     0
1002
}
  0
LINE
  5
3053
330
1A
100
AcDbEntity
  8
中心線
  6
CENTER
 48
10.0
100
AcDbLine
 10
863.6708775456892
 20
600.7499971822592
 30
0.0
 11
863.6708775456892
 21
666.7973603040012
 31
0.0
  0
DIMENSION
  5
3054
330
1A
100
AcDbEntity
  8
寸法線
100
AcDbDimension
  2
*D13
 10
805.67087754569
 20
572.964907098331
 30
0.0
 11
836.6708775456887
 21
572.964907098331
 31
0.0
 70
   160
 71
     5
 42
57.99999999999909
  3
ISO-25
100
AcDbAlignedDimension
 13
863.6708775456892
 23
600.7499971822592
 33
0.0
 14
805.67087754569
 24
658.3190487586094
 34
0.0
 50
180.0
100
AcDbRotatedDimension
1001
ACAD
1000
DSTYLE
1002
{
1070
    41
1040
10.0
1070
    40
1040
1.0
1070
   144
1040
1.0
1070
    47
1040
0.1
1070
    48
1040
0.1
1070
    73
1070
     0
1070
   140
1040
16.0
1070
   178
1070
   256
1070
   271
1070
     2
1070
   272
1070
     2
1070
   289
1070
     0
1002
}
  0
LINE
  5
3055
330
1A
100
AcDbEntity
  8
外形線
100
AcDbLine
 10
505.6914288436301
 20
945.8220913754621
 30
0.0
 11
497.1914288436291
 21
945.8220913754621
 31
0.0
  0
LINE
  5
3056
330
1A
100
AcDbEntity
  8
外形線
100
AcDbLine
 10
497.1914288436291
 20
940.8220913754634
 30
0.0
 11
505.6914288436301
 21
940.8220913754634
 31
0.0
  0
LINE
  5
3057
330
1A
100
AcDbEntity
  8
外形線
100
AcDbLine
 10
496.4414288436291
 20
940.8220913754634
 30
0.0
 11
506.4414288436299
 21
940.8220913754634
 31
0.0
  0
LINE
  5
3058
330
1A
100
AcDbEntity
  8
外形線
100
AcDbLine
 10
506.4414288436299
 20
939.8220913754624
 30
0.0
 11
496.4414288436291
 21
939.8220913754624
 31
0.0
  0
LINE
  5
3059
330
1A
100
AcDbEntity
  8
外形線
100
AcDbLine
 10
496.4414288436291
 20
939.8220913754624
 30
0.0
 11
496.4414288436291
 21
940.8220913754634
 31
0.0
  0
LINE
  5
305A
330
1A
100
AcDbEntity
  8
外形線
100
AcDbLine
 10
497.1914288436291
 20
945.8220913754621
 30
0.0
 11
497.1914288436291
 21
940.8220913754634
 31
0.0
  0
LWPOLYLINE
  5
305B
330
1A
100
AcDbEntity
  8
細線
100
AcDbPolyline
 90
        6
 70
     1
 43
0.0
 10
490.4026154608236
 20
904.4502021065564
 10
489.3526154608225
 20
902.6315487586103
 10
490.4026154608236
 20
900.8128954106632
 10
492.5026154608239
 20
900.8128954106632
 10
493.5526154608233
 20
902.6315487586103
 10
492.5026154608239
 20
904.4502021065564
  0
CIRCLE
  5
305C
330
1A
100
AcDbEntity
  8
細線
100
AcDbCircle
 10
491.4414288436301
 20
902.6315487586087
 30
0.0
 40
2.151819419932508
  0
CIRCLE
  5
305D
330
1A
100
AcDbEntity
  8
外形線
100
AcDbCircle
 10
491.4414288436301
 20
902.6315487586087
 30
0.0
 40
5.0
  0
CIRCLE
  5
305E
330
1A
100
AcDbEntity
  8
細線
100
AcDbCircle
 10
491.4414288436301
 20
902.6315487586087
 30
0.0
 40
4.25
  0
LINE
  5
305F
330
1A
100
AcDbEntity
  8
外形線
100
AcDbLine
 10
506.4414288436299
 20
940.8220913754634
 30
0.0
 11
506.4414288436299
 21
939.8220913754624
 31
0.0
  0
LINE
  5
3060
330
1A
100
AcDbEntity
  8
外形線
100
AcDbLine
 10
511.4414288436291
 20
939.8220913754624
 30
0.0
 11
511.4414288436291
 21
933.8220913754629
 31
0.0
  0
LINE
  5
3061
330
1A
100
AcDbEntity
  8
外形線
100
AcDbLine
 10
511.4414288436291
 20
933.8220913754629
 30
0.0
 11
511.4414288436291
 21
936.8220913754626
 31
0.0
  0
LINE
  5
3062
330
1A
100
AcDbEntity
  8
外形線
100
AcDbLine
 10
505.6914288436301
 20
940.8220913754634
 30
0.0
 11
505.6914288436301
 21
945.8220913754621
 31
0.0
  0
ARC
  5
3063
330
1A
100
AcDbEntity
  8
外形線
100
AcDbCircle
 10
502.4414288436291
 20
913.6315487586102
 30
0.0
 40
3.0
100
AcDbArc
 50
0.0
 51
90.0
  0
CIRCLE
  5
3064
330
1A
100
AcDbEntity
  8
細線
100
AcDbCircle
 10
491.4414288436301
 20
787.6315487586103
 30
0.0
 40
2.151819419932508
  0
CIRCLE
  5
3065
330
1A
100
AcDbEntity
  8
外形線
100
AcDbCircle
 10
491.4414288436301
 20
787.6315487586103
 30
0.0
 40
5.0
  0
CIRCLE
  5
3066
330
1A
100
AcDbEntity
  8
細線
100
AcDbCircle
 10
491.4414288436301
 20
787.6315487586103
 30
0.0
 40
4.25
  0
CIRCLE
  5
3067
330
1A
100
AcDbEntity
  8
外形線
100
AcDbCircle
 10
491.4414288436301
 20
672.6315487586102
 30
0.0
 40
5.0
  0
LWPOLYLINE
  5
3068
330
1A
100
AcDbEntity
  8
細線
100
AcDbPolyline
 90
        6
 70
     1
 43
0.0
 10
490.4026154608236
 20
674.4502021065577
 10
489.3526154608225
 20
672.6315487586102
 10
490.4026154608236
 20
670.8128954106618
 10
492.5026154608239
 20
670.8128954106618
 10
493.5526154608233
 20
672.6315487586102
 10
492.5026154608239
 20
674.4502021065577
  0
CIRCLE
  5
3069
330
1A
100
AcDbEntity
  8
細線
100
AcDbCircle
 10
491.4414288436301
 20
672.6315487586102
 30
0.0
 40
2.151819419932508
  0
CIRCLE
  5
306A
330
1A
100
AcDbEntity
  8
細線
100
AcDbCircle
 10
491.4414288436301
 20
672.6315487586102
 30
0.0
 40
4.25
  0
ARC
  5
306B
330
1A
100
AcDbEntity
  8
外形線
100
AcDbCircle
 10
502.4414288436291
 20
661.6315487586098
 30
0.0
 40
3.0
100
AcDbArc
 50
270.0
 51
0.0
  0
LWPOLYLINE
  5
306C
330
1A
100
AcDbEntity
  8
細線
100
AcDbPolyline
 90
        6
 70
     1
 43
0.0
 10
490.4026154608236
 20
789.4502021065567
 10
489.3526154608225
 20
787.6315487586107
 10
490.4026154608236
 20
785.8128954106619
 10
492.5026154608239
 20
785.8128954106619
 10
493.5526154608233
 20
787.6315487586107
 10
492.5026154608239
 20
789.4502021065567
  0
LINE
  5
306D
330
1A
100
AcDbEntity
  8
外形線
100
AcDbLine
 10
505.4414288436301
 20
913.6315487586102
 30
0.0
 11
505.4414288436301
 21
661.6315487586098
 31
0.0
  0
LINE
  5
306E
330
1A
100
AcDbEntity
  8
外形線
100
AcDbLine
 10
416.4414288436301
 20
521.8220913754635
 30
0.0
 11
416.4414288436301
 21
537.8220913754626
 31
0.0
  0
LINE
  5
306F
330
1A
100
AcDbEntity
  8
外形線
100
AcDbLine
 10
416.4414288436301
 20
521.8220913754635
 30
0.0
 11
416.4414288436301
 21
537.8220913754626
 31
0.0
  0
LINE
  5
3070
330
1A
100
AcDbEntity
  8
外形線
100
AcDbLine
 10
511.4414288436291
 20
933.8220913754629
 30
0.0
 11
511.4414288436291
 21
609.8220913754626
 31
0.0
  0
DIMENSION
  5
3073
330
1A
100
AcDbEntity
  8
寸法線
100
AcDbDimension
  2
*D14
 10
805.67087754569
 20
993.0565434947206
 30
0.0
 11
1020.573726427125
 21
993.0565434947206
 31
0.0
 70
   160
 71
     5
 42
390.0
  3
ISO-25
100
AcDbAlignedDimension
 13
1195.67087754569
 23
940.8220913754632
 33
0.0
 14
805.67087754569
 24
916.9440487586099
 34
0.0
 50
180.0
100
AcDbRotatedDimension
1001
ACAD
1000
DSTYLE
1002
{
1070
    41
1040
10.0
1070
    40
1040
1.0
1070
   144
1040
1.0
1070
    47
1040
0.1
1070
    48
1040
0.1
1070
    73
1070
     0
1070
   140
1040
16.0
1070
   178
1070
   256
1070
   271
1070
     2
1070
   272
1070
     2
1070
   289
1070
     0
1002
}
  0
LINE
  5
3074
330
1A
100
AcDbEntity
  8
外形線
100
AcDbLine
 10
812.6708775456901
 20
658.3190487586094
 30
0.0
 11
1032.67087754569
 21
658.3190487586094
 31
0.0
  0
LINE
  5
3075
330
1A
100
AcDbEntity
  8
外形線
100
AcDbLine
 10
1032.67087754569
 20
916.9440487586099
 30
0.0
 11
812.6708775456901
 21
916.9440487586099
 31
0.0
  0
LINE
  5
307E
330
1A
100
AcDbEntity
  8
外形線
100
AcDbLine
 10
1122.082008857956
 20
170.4976405300299
 30
0.0
 11
1117.082008857956
 21
165.4976405300303
 31
0.0
  0
LINE
  5
307F
330
1A
100
AcDbEntity
  8
外形線
100
AcDbLine
 10
1117.082008857956
 20
165.4976405300303
 30
0.0
 11
1112.082008857955
 21
170.4976405300299
 31
0.0
  0
LINE
  5
3080
330
1A
100
AcDbEntity
  8
外形線
100
AcDbLine
 10
1112.082008857955
 20
215.4976405300299
 30
0.0
 11
1112.082008857955
 21
170.4976405300299
 31
0.0
  0
LINE
  5
3081
330
1A
100
AcDbEntity
  8
外形線
100
AcDbLine
 10
1122.082008857956
 20
170.4976405300299
 30
0.0
 11
1122.082008857956
 21
215.4976405300299
 31
0.0
  0
LINE
  5
3082
330
1A
100
AcDbEntity
  8
外形線
100
AcDbLine
 10
1122.082008857956
 20
215.4976405300299
 30
0.0
 11
1112.082008857955
 21
215.4976405300299
 31
0.0
  0
LINE
  5
3083
330
1A
100
AcDbEntity
  8
外形線
100
AcDbLine
 10
1078.082008857957
 20
215.4976405300299
 30
0.0
 11
1156.082008857955
 21
215.4976405300299
 31
0.0
  0
DIMENSION
  5
3084
330
1A
100
AcDbEntity
  8
寸法線
100
AcDbDimension
  2
*D15
 10
1184.957521765042
 20
165.4976405300303
 30
0.0
 11
1176.332521765043
 21
190.4976405300303
 31
0.0
 70
    32
  1
50
 71
     5
 42
49.99999999999954
  3
ISO-25
100
AcDbAlignedDimension
 13
1156.082008857955
 23
215.4976405300299
 33
0.0
 14
1117.082008857956
 24
165.4976405300303
 34
0.0
 50
90.0
100
AcDbRotatedDimension
1001
ACAD
1000
DSTYLE
1002
{
1070
    41
1040
10.0
1070
    40
1040
1.0
1070
    47
1040
0.1
1070
    48
1040
0.1
1070
    73
1070
     0
1070
   140
1040
16.0
1070
   178
1070
   256
1070
   271
1070
     2
1070
   272
1070
     2
1070
   289
1070
     0
1002
}
  0
MTEXT
  5
3085
330
1A
100
AcDbEntity
  8
寸法線
100
AcDbMText
 10
528.0530157756182
 20
195.6702261402138
 30
0.0
 40
16.0
 41
485.7594116580131
 71
     1
 72
     5
  1
塗装色:イエロー  マンセル １０ＹＲ　７．５／１４
 73
     1
 44
1.0
1001
ACAD
1000
MTEXTBEGIN
1070
    73
1070
     1
1070
    44
1040
1.0
1070
    74
1070
     0
1000
MTEXTEND
  0
LINE
  5
3086
330
1A
100
AcDbEntity
  8
外形線
100
AcDbLine
 10
1156.082008857955
 20
215.4976405300299
 30
0.0
 11
1156.082008857955
 21
245.4976405300299
 31
0.0
  0
LINE
  5
3087
330
1A
100
AcDbEntity
  8
外形線
100
AcDbLine
 10
1078.082008857957
 20
245.4976405300299
 30
0.0
 11
1078.082008857957
 21
215.4976405300299
 31
0.0
  0
DIMENSION
  5
3088
330
1A
100
AcDbEntity
  8
寸法線
100
AcDbDimension
  2
*D16
 10
1184.957521765042
 20
521.8220913754635
 30
0.0
 11
1184.957521765042
 21
366.7476405300299
 31
0.0
 70
   160
  1
500
 71
     5
 42
306.3244508454336
  3
ISO-25
100
AcDbAlignedDimension
 13
1137.286082185984
 23
215.4976405300299
 33
0.0
 14
1116.582866156934
 24
521.8220913754635
 34
0.0
 50
90.0
100
AcDbRotatedDimension
1001
ACAD
1000
DSTYLE
1002
{
1070
    41
1040
10.0
1070
   144
1040
1.0
1070
    40
1040
1.0
1070
    47
1040
0.1
1070
    48
1040
0.1
1070
    73
1070
     0
1070
   140
1040
16.0
1070
   178
1070
   256
1070
   271
1070
     2
1070
   272
1070
     2
1070
   289
1070
     0
1002
}
  0
LINE
  5
3089
330
1A
100
AcDbEntity
  8
外形線
100
AcDbLine
 10
380.691428843631
 20
945.8220913754621
 30
0.0
 11
372.1914288436291
 21
945.8220913754621
 31
0.0
  0
LINE
  5
308A
330
1A
100
AcDbEntity
  8
外形線
100
AcDbLine
 10
381.4414288436302
 20
940.8220913754634
 30
0.0
 11
381.4414288436302
 21
939.8220913754624
 31
0.0
  0
LINE
  5
308B
330
1A
100
AcDbEntity
  8
外形線
100
AcDbLine
 10
371.4414288436302
 20
939.8220913754624
 30
0.0
 11
371.4414288436302
 21
940.8220913754634
 31
0.0
  0
LINE
  5
308C
330
1A
100
AcDbEntity
  8
外形線
100
AcDbLine
 10
372.1914288436291
 20
940.8220913754634
 30
0.0
 11
380.691428843631
 21
940.8220913754634
 31
0.0
  0
LINE
  5
308D
330
1A
100
AcDbEntity
  8
外形線
100
AcDbLine
 10
371.4414288436302
 20
940.8220913754634
 30
0.0
 11
381.4414288436302
 21
940.8220913754634
 31
0.0
  0
LINE
  5
308E
330
1A
100
AcDbEntity
  8
外形線
100
AcDbLine
 10
381.4414288436302
 20
939.8220913754624
 30
0.0
 11
371.4414288436302
 21
939.8220913754624
 31
0.0
  0
LINE
  5
308F
330
1A
100
AcDbEntity
  8
外形線
100
AcDbLine
 10
380.691428843631
 20
940.8220913754634
 30
0.0
 11
380.691428843631
 21
945.8220913754621
 31
0.0
  0
LINE
  5
3090
330
1A
100
AcDbEntity
  8
外形線
100
AcDbLine
 10
372.1914288436291
 20
945.8220913754621
 30
0.0
 11
372.1914288436291
 21
940.8220913754634
 31
0.0
  0
CIRCLE
  5
3091
330
1A
100
AcDbEntity
  8
外形線
100
AcDbCircle
 10
376.4414288436291
 20
902.6315487586087
 30
0.0
 40
5.0
  0
LWPOLYLINE
  5
3092
330
1A
100
AcDbEntity
  8
細線
100
AcDbPolyline
 90
        6
 70
     1
 43
0.0
 10
375.4026154608218
 20
904.4502021065564
 10
374.3526154608226
 20
902.6315487586103
 10
375.4026154608218
 20
900.8128954106632
 10
377.5026154608222
 20
900.8128954106632
 10
378.5526154608233
 20
902.6315487586103
 10
377.5026154608222
 20
904.4502021065564
  0
CIRCLE
  5
3093
330
1A
100
AcDbEntity
  8
細線
100
AcDbCircle
 10
376.4414288436291
 20
902.6315487586087
 30
0.0
 40
2.151819419932508
  0
CIRCLE
  5
3094
330
1A
100
AcDbEntity
  8
細線
100
AcDbCircle
 10
376.4414288436291
 20
902.6315487586087
 30
0.0
 40
4.25
  0
LINE
  5
3095
330
1A
100
AcDbEntity
  8
外形線
100
AcDbLine
 10
256.4414288436292
 20
940.8220913754634
 30
0.0
 11
256.4414288436292
 21
939.8220913754624
 31
0.0
  0
LINE
  5
3096
330
1A
100
AcDbEntity
  8
外形線
100
AcDbLine
 10
255.6914288436301
 20
940.8220913754634
 30
0.0
 11
255.6914288436301
 21
945.8220913754621
 31
0.0
  0
LWPOLYLINE
  5
3097
330
1A
100
AcDbEntity
  8
細線
100
AcDbPolyline
 90
        6
 70
     1
 43
0.0
 10
260.4026154608237
 20
904.4502021065564
 10
259.3526154608244
 20
902.6315487586103
 10
260.4026154608237
 20
900.8128954106632
 10
262.502615460824
 20
900.8128954106632
 10
263.5526154608233
 20
902.6315487586103
 10
262.502615460824
 20
904.4502021065564
  0
CIRCLE
  5
3098
330
1A
100
AcDbEntity
  8
細線
100
AcDbCircle
 10
261.4414288436301
 20
902.6315487586087
 30
0.0
 40
2.151819419932508
  0
CIRCLE
  5
3099
330
1A
100
AcDbEntity
  8
細線
100
AcDbCircle
 10
261.4414288436301
 20
902.6315487586087
 30
0.0
 40
4.25
  0
CIRCLE
  5
309A
330
1A
100
AcDbEntity
  8
外形線
100
AcDbCircle
 10
261.4414288436301
 20
902.6315487586087
 30
0.0
 40
5.0
  0
CIRCLE
  5
309B
330
1A
100
AcDbEntity
  8
外形線
100
AcDbCircle
 10
376.4414288436291
 20
672.6315487586102
 30
0.0
 40
5.0
  0
LWPOLYLINE
  5
309C
330
1A
100
AcDbEntity
  8
細線
100
AcDbPolyline
 90
        6
 70
     1
 43
0.0
 10
375.4026154608218
 20
674.4502021065577
 10
374.3526154608226
 20
672.6315487586102
 10
375.4026154608218
 20
670.8128954106618
 10
377.5026154608222
 20
670.8128954106618
 10
378.5526154608233
 20
672.6315487586102
 10
377.5026154608222
 20
674.4502021065577
  0
CIRCLE
  5
309D
330
1A
100
AcDbEntity
  8
細線
100
AcDbCircle
 10
376.4414288436291
 20
672.6315487586102
 30
0.0
 40
2.151819419932508
  0
CIRCLE
  5
309E
330
1A
100
AcDbEntity
  8
細線
100
AcDbCircle
 10
376.4414288436291
 20
672.6315487586102
 30
0.0
 40
4.25
  0
LINE
  5
309F
330
1A
100
AcDbEntity
  8
外形線
100
AcDbLine
 10
345.237284705092
 20
625.4135033874582
 30
0.0
 11
348.9372847050927
 21
631.822091375463
 31
0.0
  0
LINE
  5
30A0
330
1A
100
AcDbEntity
  8
外形線
100
AcDbLine
 10
348.9372847050927
 20
631.822091375463
 30
0.0
 11
345.237284705092
 21
638.2306793634689
 31
0.0
  0
LINE
  5
30A1
330
1A
100
AcDbEntity
  8
中心線
 48
10.0
100
AcDbLine
 10
329.050886226777
 20
686.3982175242986
 30
0.0
 11
329.050886226777
 21
647.0567180746732
 31
0.0
  0
LINE
  5
30A2
330
1A
100
AcDbEntity
  8
外形線
100
AcDbLine
 10
348.9372847050927
 20
631.822091375463
 30
0.0
 11
345.237284705092
 21
638.2306793634689
 31
0.0
  0
LINE
  5
30A3
330
1A
100
AcDbEntity
  8
外形線
100
AcDbLine
 10
345.237284705092
 20
625.4135033874582
 30
0.0
 11
348.9372847050927
 21
631.822091375463
 31
0.0
  0
LINE
  5
30A4
330
1A
100
AcDbEntity
  8
外形線
100
AcDbLine
 10
334.1372847050934
 20
631.8220913754657
 30
0.0
 11
337.8372847050941
 21
625.4135033874597
 31
0.0
  0
LINE
  5
30A5
330
1A
100
AcDbEntity
  8
外形線
100
AcDbLine
 10
337.8372847050941
 20
638.2306793634707
 30
0.0
 11
334.1372847050934
 21
631.8220913754657
 31
0.0
  0
CIRCLE
  5
30A6
330
1A
100
AcDbEntity
  8
細線
100
AcDbCircle
 10
341.537284705093
 20
631.8220913754644
 30
0.0
 40
6.408587988003644
  0
CIRCLE
  5
30A7
330
1A
100
AcDbEntity
  8
細線
100
AcDbCircle
 10
341.537284705093
 20
631.8220913754644
 30
0.0
 40
4.5
  0
CIRCLE
  5
30A8
330
1A
100
AcDbEntity
  8
細線
100
AcDbCircle
 10
341.537284705093
 20
631.8220913754644
 30
0.0
 40
4.0
  0
LINE
  5
30A9
330
1A
100
AcDbEntity
  8
外形線
100
AcDbLine
 10
345.237284705092
 20
638.2306793634689
 30
0.0
 11
337.8372847050941
 21
638.2306793634707
 31
0.0
  0
LINE
  5
30AA
330
1A
100
AcDbEntity
  8
外形線
100
AcDbLine
 10
337.8372847050941
 20
625.4135033874597
 30
0.0
 11
345.237284705092
 21
625.4135033874582
 31
0.0
  0
CIRCLE
  5
30AB
330
1A
100
AcDbEntity
  8
細線
100
AcDbCircle
 10
261.4414288436301
 20
787.6315487586103
 30
0.0
 40
2.151819419932508
  0
CIRCLE
  5
30AC
330
1A
100
AcDbEntity
  8
細線
100
AcDbCircle
 10
261.4414288436301
 20
787.6315487586103
 30
0.0
 40
4.25
  0
CIRCLE
  5
30AD
330
1A
100
AcDbEntity
  8
外形線
100
AcDbCircle
 10
261.4414288436301
 20
787.6315487586103
 30
0.0
 40
5.0
  0
CIRCLE
  5
30AE
330
1A
100
AcDbEntity
  8
外形線
100
AcDbCircle
 10
261.4414288436301
 20
672.6315487586102
 30
0.0
 40
5.0
  0
LWPOLYLINE
  5
30AF
330
1A
100
AcDbEntity
  8
細線
100
AcDbPolyline
 90
        6
 70
     1
 43
0.0
 10
260.4026154608237
 20
674.4502021065577
 10
259.3526154608244
 20
672.6315487586102
 10
260.4026154608237
 20
670.8128954106618
 10
262.502615460824
 20
670.8128954106618
 10
263.5526154608233
 20
672.6315487586102
 10
262.502615460824
 20
674.4502021065577
  0
CIRCLE
  5
30B0
330
1A
100
AcDbEntity
  8
細線
100
AcDbCircle
 10
261.4414288436301
 20
672.6315487586102
 30
0.0
 40
2.151819419932508
  0
CIRCLE
  5
30B1
330
1A
100
AcDbEntity
  8
細線
100
AcDbCircle
 10
261.4414288436301
 20
672.6315487586102
 30
0.0
 40
4.25
  0
LWPOLYLINE
  5
30B2
330
1A
100
AcDbEntity
  8
細線
100
AcDbPolyline
 90
        6
 70
     1
 43
0.0
 10
260.4026154608237
 20
789.4502021065567
 10
259.3526154608244
 20
787.6315487586107
 10
260.4026154608237
 20
785.8128954106619
 10
262.502615460824
 20
785.8128954106619
 10
263.5526154608233
 20
787.6315487586107
 10
262.502615460824
 20
789.4502021065567
  0
LINE
  5
30B3
330
1A
100
AcDbEntity
  8
中心線
 48
10.0
100
AcDbLine
 10
289.0508862267779
 20
683.8290010578987
 30
0.0
 11
289.0508862267779
 21
649.3320310615076
 31
0.0
  0
LINE
  5
30B4
330
1A
100
AcDbEntity
  8
外形線
100
AcDbLine
 10
283.9455729821657
 20
631.822091375463
 30
0.0
 11
287.6455729821664
 21
638.2306793634689
 31
0.0
  0
LINE
  5
30B5
330
1A
100
AcDbEntity
  8
外形線
100
AcDbLine
 10
287.6455729821664
 20
625.4135033874582
 30
0.0
 11
283.9455729821657
 21
631.822091375463
 31
0.0
  0
LINE
  5
30B6
330
1A
100
AcDbEntity
  8
外形線
100
AcDbLine
 10
298.7455729821649
 20
631.8220913754657
 30
0.0
 11
295.0455729821642
 21
625.4135033874597
 31
0.0
  0
LINE
  5
30B7
330
1A
100
AcDbEntity
  8
外形線
100
AcDbLine
 10
295.0455729821642
 20
638.2306793634707
 30
0.0
 11
298.7455729821649
 21
631.8220913754657
 31
0.0
  0
CIRCLE
  5
30B8
330
1A
100
AcDbEntity
  8
細線
100
AcDbCircle
 10
291.3455729821653
 20
631.8220913754644
 30
0.0
 40
6.408587988003644
  0
CIRCLE
  5
30B9
330
1A
100
AcDbEntity
  8
細線
100
AcDbCircle
 10
291.3455729821653
 20
631.8220913754644
 30
0.0
 40
4.5
  0
CIRCLE
  5
30BA
330
1A
100
AcDbEntity
  8
細線
100
AcDbCircle
 10
291.3455729821653
 20
631.8220913754644
 30
0.0
 40
4.0
  0
LINE
  5
30BB
330
1A
100
AcDbEntity
  8
外形線
100
AcDbLine
 10
287.6455729821664
 20
638.2306793634689
 30
0.0
 11
295.0455729821642
 21
638.2306793634707
 31
0.0
  0
LINE
  5
30BC
330
1A
100
AcDbEntity
  8
外形線
100
AcDbLine
 10
295.0455729821642
 20
625.4135033874597
 30
0.0
 11
287.6455729821664
 21
625.4135033874582
 31
0.0
  0
DIMENSION
  5
30BD
330
1A
100
AcDbEntity
  8
寸法線
100
AcDbDimension
  2
*D17
 10
289.0508862267779
 20
692.9392792019885
 30
0.0
 11
309.050886226778
 21
692.9392792019885
 31
0.0
 70
   160
 71
     5
 42
40.0
  3
ISO-25
100
AcDbAlignedDimension
 13
329.0508862267779
 23
687.592164955708
 33
0.0
 14
289.0508862267779
 24
681.3290010578987
 34
0.0
100
AcDbRotatedDimension
1001
ACAD
1000
DSTYLE
1002
{
1070
    41
1040
10.0
1070
   144
1040
1.0
1070
    47
1040
0.1
1070
    48
1040
0.1
1070
    73
1070
     0
1070
   140
1040
16.0
1070
   178
1070
   256
1070
   271
1070
     2
1070
   272
1070
     2
1070
   289
1070
     0
1002
}
  0
LINE
  5
30BE
330
1A
100
AcDbEntity
  8
中心線
 48
10.0
100
AcDbLine
 10
396.4414288436291
 20
715.1947012963403
 30
0.0
 11
396.4414288436291
 21
924.4494814545847
 31
0.0
  0
LINE
  5
30BF
330
1A
100
AcDbEntity
  8
外形線
100
AcDbLine
 10
246.4414288436301
 20
939.8220913754624
 30
0.0
 11
246.4414288436301
 21
940.8220913754634
 31
0.0
  0
LINE
  5
30C0
330
1A
100
AcDbEntity
  8
外形線
100
AcDbLine
 10
241.4414288436292
 20
933.8220913754629
 30
0.0
 11
241.4414288436292
 21
939.8220913754624
 31
0.0
  0
ARC
  5
30C1
330
1A
100
AcDbEntity
  8
外形線
100
AcDbCircle
 10
250.4414288436301
 20
913.6315487586102
 30
0.0
 40
3.0
100
AcDbArc
 50
90.0
 51
180.0
  0
LINE
  5
30C2
330
1A
100
AcDbEntity
  8
外形線
100
AcDbLine
 10
247.191428843631
 20
945.8220913754621
 30
0.0
 11
247.191428843631
 21
940.8220913754634
 31
0.0
  0
ARC
  5
30C3
330
1A
100
AcDbEntity
  8
外形線
100
AcDbCircle
 10
250.4414288436301
 20
661.6315487586098
 30
0.0
 40
3.0
100
AcDbArc
 50
180.0
 51
270.0
  0
LINE
  5
30C4
330
1A
100
AcDbEntity
  8
外形線
100
AcDbLine
 10
241.4414288436292
 20
776.6815487586097
 30
0.0
 11
241.4414288436292
 21
933.8220913754629
 31
0.0
  0
LINE
  5
30C5
330
1A
100
AcDbEntity
  8
外形線
100
AcDbLine
 10
247.4414288436292
 20
661.6315487586098
 30
0.0
 11
247.4414288436292
 21
913.6315487586102
 31
0.0
  0
LINE
  5
30C6
330
1A
100
AcDbEntity
  8
外形線
100
AcDbLine
 10
246.4414288436301
 20
940.8220913754634
 30
0.0
 11
256.4414288436292
 21
940.8220913754634
 31
0.0
  0
LINE
  5
30C7
330
1A
100
AcDbEntity
  8
外形線
100
AcDbLine
 10
256.4414288436292
 20
939.8220913754624
 30
0.0
 11
246.4414288436301
 21
939.8220913754624
 31
0.0
  0
LINE
  5
30C8
330
1A
100
AcDbEntity
  8
外形線
100
AcDbLine
 10
255.6914288436301
 20
945.8220913754621
 30
0.0
 11
247.191428843631
 21
945.8220913754621
 31
0.0
  0
LINE
  5
30C9
330
1A
100
AcDbEntity
  8
外形線
100
AcDbLine
 10
247.191428843631
 20
940.8220913754634
 30
0.0
 11
255.6914288436301
 21
940.8220913754634
 31
0.0
  0
LINE
  5
30CA
330
1A
100
AcDbEntity
  8
外形線
100
AcDbLine
 10
373.4414288436291
 20
606.8220913754625
 30
0.0
 11
373.4414288436291
 21
540.8220913754621
 31
0.0
  0
LINE
  5
30CB
330
1A
100
AcDbEntity
  8
外形線
100
AcDbLine
 10
373.4414288436291
 20
540.8220913754621
 30
0.0
 11
376.4414288436291
 21
537.8220913754626
 31
0.0
  0
LINE
  5
30CC
330
1A
100
AcDbEntity
  8
中心線
 48
10.0
100
AcDbLine
 10
391.9483366470759
 20
542.8122958884423
 30
0.0
 11
391.9483366470759
 21
516.6487370084014
 31
0.0
  0
LINE
  5
30CD
330
1A
100
AcDbEntity
  8
外形線
100
AcDbLine
 10
373.4414288436291
 20
606.8220913754625
 30
0.0
 11
376.4414288436291
 21
609.8220913754626
 31
0.0
  0
LINE
  5
30CE
330
1A
100
AcDbEntity
  8
外形線
100
AcDbLine
 10
259.4414288436301
 20
606.8220913754625
 30
0.0
 11
259.4414288436301
 21
540.8220913754621
 31
0.0
  0
LINE
  5
30CF
330
1A
100
AcDbEntity
  8
外形線
100
AcDbLine
 10
256.4414288436292
 20
537.8220913754626
 30
0.0
 11
259.4414288436301
 21
540.8220913754621
 31
0.0
  0
LINE
  5
30D0
330
1A
100
AcDbEntity
  8
外形線
100
AcDbLine
 10
256.4414288436292
 20
609.8220913754626
 30
0.0
 11
259.4414288436301
 21
606.8220913754625
 31
0.0
  0
LINE
  5
30D1
330
1A
100
AcDbEntity
  8
中心線
 48
10.0
100
AcDbLine
 10
316.4414288436292
 20
620.4690223105392
 30
0.0
 11
316.4414288436292
 21
500.0509924537896
 31
0.0
  0
LINE
  5
30D2
330
1A
100
AcDbEntity
  8
外形線
100
AcDbLine
 10
259.4414288436301
 20
540.8220913754621
 30
0.0
 11
373.4414288436291
 21
540.8220913754621
 31
0.0
  0
LINE
  5
30D3
330
1A
100
AcDbEntity
  8
外形線
100
AcDbLine
 10
259.4414288436301
 20
537.8220913754626
 30
0.0
 11
373.4414288436291
 21
537.8220913754626
 31
0.0
  0
LINE
  5
30D4
330
1A
100
AcDbEntity
  8
外形線
100
AcDbLine
 10
259.4414288436301
 20
606.8220913754625
 30
0.0
 11
373.4414288436291
 21
606.8220913754625
 31
0.0
  0
CIRCLE
  5
30D5
330
1A
100
AcDbEntity
  8
外形線
100
AcDbCircle
 10
329.6617837842423
 20
304.8475646695643
 30
0.0
 40
1.8
  0
LINE
  5
30D6
330
1A
100
AcDbEntity
  8
外形線
100
AcDbLine
 10
326.5039210184286
 20
284.4976405300295
 30
0.0
 11
306.5039210184305
 21
284.4976405300295
 31
0.0
  0
LINE
  5
30D7
330
1A
100
AcDbEntity
  8
外形線
100
AcDbLine
 10
326.5039210184286
 20
278.4976405300299
 30
0.0
 11
306.5039210184305
 21
278.4976405300299
 31
0.0
  0
LINE
  5
30D8
330
1A
100
AcDbEntity
  8
外形線
100
AcDbLine
 10
326.5039210184286
 20
278.4976405300299
 30
0.0
 11
306.5039210184305
 21
278.4976405300299
 31
0.0
  0
LINE
  5
30D9
330
1A
100
AcDbEntity
  8
外形線
100
AcDbLine
 10
326.5039210184286
 20
278.4976405300299
 30
0.0
 11
326.5039210184286
 21
284.4976405300295
 31
0.0
  0
LINE
  5
30DA
330
1A
100
AcDbEntity
  8
外形線
100
AcDbLine
 10
316.9879586373681
 20
306.4961775355964
 30
0.0
 11
316.8891558279165
 21
306.4725983914732
 31
0.0
  0
LINE
  5
30DB
330
1A
100
AcDbEntity
  8
外形線
100
AcDbLine
 10
306.5039210184305
 20
278.4976405300299
 30
0.0
 11
277.5039210184305
 21
245.4976405300299
 31
0.0
  0
LINE
  5
30DC
330
1A
100
AcDbEntity
  8
外形線
100
AcDbLine
 10
306.5039210184305
 20
284.4976405300295
 30
0.0
 11
306.5039210184305
 21
278.4976405300299
 31
0.0
  0
LINE
  5
30DD
330
1A
100
AcDbEntity
  8
外形線
100
AcDbLine
 10
317.3363796077247
 20
352.0989230097625
 30
0.0
 11
317.3241878236749
 21
322.6278722362244
 31
0.0
  0
LINE
  5
30DE
330
1A
100
AcDbEntity
  8
外形線
100
AcDbLine
 10
317.3369066498035
 20
392.0855170003238
 30
0.0
 11
317.3369066498035
 21
354.5989230097621
 31
0.0
  0
LINE
  5
30DF
330
1A
100
AcDbEntity
  8
外形線
100
AcDbLine
 10
315.3698692107455
 20
352.0989230097625
 30
0.0
 11
315.3625859189142
 21
322.6278722362244
 31
0.0
  0
LINE
  5
30E0
330
1A
100
AcDbEntity
  8
外形線
100
AcDbLine
 10
315.3702481174132
 20
392.0855170003238
 30
0.0
 11
315.3702481174132
 21
354.5989230097621
 31
0.0
  0
LINE
  5
30E1
330
1A
100
AcDbEntity
  8
外形線
100
AcDbLine
 10
321.2572357202953
 20
302.3475646695642
 30
0.0
 11
321.2572357202953
 21
319.9475646695641
 31
0.0
  0
LINE
  5
30E2
330
1A
100
AcDbEntity
  8
外形線
100
AcDbLine
 10
311.2572357202953
 20
302.4475646695637
 30
0.0
 11
311.2572357202953
 21
319.9475646695641
 31
0.0
  0
ARC
  5
30E3
330
1A
100
AcDbEntity
  8
外形線
100
AcDbCircle
 10
316.257235720298
 20
319.9475646695641
 30
0.0
 40
5.000000000002728
100
AcDbArc
 50
112.5053544496354
 51
180.0
  0
LINE
  5
30E4
330
1A
100
AcDbEntity
  8
外形線
100
AcDbLine
 10
306.2572357202953
 20
319.9475646695637
 30
0.0
 11
306.2572357202953
 21
302.4475646695637
 31
0.0
  0
LINE
  5
30E5
330
1A
100
AcDbEntity
  8
外形線
100
AcDbLine
 10
326.2572357202971
 20
319.9475646695641
 30
0.0
 11
326.2572357202953
 21
302.3475646695638
 31
0.0
  0
ARC
  5
30E6
330
1A
100
AcDbEntity
  8
外形線
100
AcDbCircle
 10
316.2572357203007
 20
319.9475646695614
 30
0.0
 40
10.00000000000546
100
AcDbArc
 50
101.033615534734
 51
179.999999999987
  0
LINE
  5
30E7
330
1A
100
AcDbEntity
  8
外形線
100
AcDbLine
 10
321.2572357202953
 20
307.3475646695642
 30
0.0
 11
319.4633868712926
 21
307.3475646695642
 31
0.0
  0
LINE
  5
30E8
330
1A
100
AcDbEntity
  8
外形線
100
AcDbLine
 10
311.2572357202953
 20
302.3475646695642
 30
0.0
 11
313.2233868712928
 21
302.3475646695642
 31
0.0
  0
ARC
  5
30E9
330
1A
100
AcDbEntity
  8
外形線
100
AcDbCircle
 10
308.7572357202962
 20
302.3501700224811
 30
0.0
 40
2.501896424170233
100
AcDbArc
 50
177.7690073237407
 51
2.230992676265834
  0
ARC
  5
30EA
330
1A
100
AcDbEntity
  8
外形線
100
AcDbCircle
 10
323.7572357202953
 20
302.3475646695633
 30
0.0
 40
2.5
100
AcDbArc
 50
179.9999999999804
 51
0.0000000000130276
  0
ARC
  5
30EB
330
1A
100
AcDbEntity
  8
外形線
100
AcDbCircle
 10
323.7572357202953
 20
307.3475646695647
 30
0.0
 40
2.5
100
AcDbArc
 50
0.0000000000130276
 51
180.000000000013
  0
ARC
  5
30EC
330
1A
100
AcDbEntity
  8
外形線
100
AcDbCircle
 10
308.7572357202953
 20
307.3475646695642
 30
0.0
 40
2.5
100
AcDbArc
 50
0.0000000000130276
 51
180.0
  0
LINE
  5
30ED
330
1A
100
AcDbEntity
  8
外形線
100
AcDbLine
 10
314.3433868712946
 20
343.0953619414854
 30
0.0
 11
314.3433868712946
 21
343.0953619414854
 31
0.0
  0
LINE
  5
30EE
330
1A
100
AcDbEntity
  8
外形線
100
AcDbLine
 10
314.3433868712946
 20
322.1047091701903
 30
0.0
 11
314.7664073608084
 21
322.1047091701903
 31
0.0
  0
LINE
  5
30EF
330
1A
100
AcDbEntity
  8
外形線
100
AcDbLine
 10
318.3433868712946
 20
343.0953619414854
 30
0.0
 11
318.3433868712946
 21
322.1047091701903
 31
0.0
  0
LINE
  5
30F0
330
1A
100
AcDbEntity
  8
外形線
100
AcDbLine
 10
314.3433868712946
 20
343.0953619414854
 30
0.0
 11
314.3433868712946
 21
322.1047091701903
 31
0.0
  0
LINE
  5
30F1
330
1A
100
AcDbEntity
  8
外形線
100
AcDbLine
 10
318.3433868712946
 20
343.0953619414854
 30
0.0
 11
318.3433868712946
 21
339.4953619414855
 31
0.0
  0
LINE
  5
30F2
330
1A
100
AcDbEntity
  8
外形線
100
AcDbLine
 10
314.3433868712946
 20
343.0953619414854
 30
0.0
 11
315.3685809317512
 21
341.250012632664
 31
0.0
  0
LINE
  5
30F3
330
1A
100
AcDbEntity
  8
外形線
100
AcDbLine
 10
317.3340525789226
 20
341.2785602152162
 30
0.0
 11
318.3433868712946
 21
343.0953619414854
 31
0.0
  0
ARC
  5
30F4
330
1A
100
AcDbEntity
  8
外形線
100
AcDbCircle
 10
316.3433868712909
 20
322.1047091701871
 30
0.0
 40
1.576979510487944
100
AcDbArc
 50
0.000000000117248
 51
51.52393265720316
  0
LINE
  5
30F5
330
1A
100
AcDbEntity
  8
外形線
100
AcDbLine
 10
317.9203663817789
 20
322.1047091701903
 30
0.0
 11
318.3433868712946
 21
322.1047091701903
 31
0.0
  0
LINE
  5
30F6
330
1A
100
AcDbEntity
  8
外形線
100
AcDbLine
 10
314.7664073608084
 20
322.1047091701903
 30
0.0
 11
314.7664073608084
 21
342.3339250603604
 31
0.0
  0
LINE
  5
30F7
330
1A
100
AcDbEntity
  8
外形線
100
AcDbLine
 10
317.9203663817789
 20
322.1047091701903
 30
0.0
 11
317.9203663817789
 21
342.3339250603572
 31
0.0
  0
ARC
  5
30F8
330
1A
100
AcDbEntity
  8
外形線
100
AcDbCircle
 10
316.3433868712918
 20
310.6184459006868
 30
0.0
 40
3.120000000000798
100
AcDbArc
 50
0.0000000000195413
 51
179.9999999999804
  0
LINE
  5
30F9
330
1A
100
AcDbEntity
  8
外形線
100
AcDbLine
 10
313.2233868712928
 20
310.6184459006877
 30
0.0
 11
313.2233868712928
 21
284.4976405300295
 31
0.0
  0
LINE
  5
30FA
330
1A
100
AcDbEntity
  8
外形線
100
AcDbLine
 10
319.4633868712926
 20
310.6184459006877
 30
0.0
 11
319.4633868712926
 21
284.4976405300295
 31
0.0
  0
ARC
  5
30FB
330
1A
100
AcDbEntity
  8
外形線
100
AcDbCircle
 10
316.2572357202916
 20
319.9475646695641
 30
0.0
 40
5.000000000003636
100
AcDbArc
 50
0.0
 51
65.34015657109979
  0
ARC
  5
30FC
330
1A
100
AcDbEntity
  8
外形線
100
AcDbCircle
 10
316.3433868712946
 20
322.6278722362226
 30
0.0
 40
0.9808009523803775
100
AcDbArc
 50
179.9999999998957
 51
0.0000000001042204
  0
ARC
  5
30FD
330
1A
100
AcDbEntity
  8
外形線
100
AcDbCircle
 10
316.3433868712928
 20
322.1047091701898
 30
0.0
 40
1.57697951048411
100
AcDbArc
 50
128.4479739446599
 51
179.9999999999804
  0
LINE
  5
30FE
330
1A
100
AcDbEntity
  8
外形線
100
AcDbLine
 10
313.2233868712928
 20
307.3475646695642
 30
0.0
 11
311.2572357202953
 21
307.3475646695642
 31
0.0
  0
LINE
  5
30FF
330
1A
100
AcDbEntity
  8
外形線
100
AcDbLine
 10
319.4633868712926
 20
302.3475646695642
 30
0.0
 11
321.2572357202953
 21
302.3475646695642
 31
0.0
  0
ARC
  5
3100
330
1A
100
AcDbEntity
  8
細線
100
AcDbCircle
 10
321.7327112114135
 20
393.3355170003242
 30
0.0
 40
3.26589275839342
100
AcDbArc
 50
270.000000000013
 51
89.99999999998697
  0
ARC
  5
3101
330
1A
100
AcDbEntity
  8
細線
100
AcDbCircle
 10
311.1327112114131
 20
393.3355170003242
 30
0.0
 40
3.26589275839342
100
AcDbArc
 50
90.0
 51
270.0
  0
LINE
  5
3102
330
1A
100
AcDbEntity
  8
細線
100
AcDbLine
 10
311.1327112114131
 20
400.5152648294132
 30
0.0
 11
311.1327112114131
 21
396.6014097587176
 31
0.0
  0
LINE
  5
3103
330
1A
100
AcDbEntity
  8
細線
100
AcDbLine
 10
321.7327112114135
 20
400.5152648294132
 30
0.0
 11
321.7327112114144
 21
396.6014097587176
 31
0.0
  0
LINE
  5
3104
330
1A
100
AcDbEntity
  8
細線
100
AcDbLine
 10
311.1327112114131
 20
400.5152648294132
 30
0.0
 11
321.7327112114135
 21
400.5152648294132
 31
0.0
  0
LINE
  5
3105
330
1A
100
AcDbEntity
  8
細線
100
AcDbLine
 10
311.1327112114141
 20
386.1557691712351
 30
0.0
 11
321.7327112114144
 21
386.1557691712351
 31
0.0
  0
LINE
  5
3106
330
1A
100
AcDbEntity
  8
細線
100
AcDbLine
 10
321.7327112114144
 20
394.5855170003233
 30
0.0
 11
311.1327112114131
 21
394.5855170003233
 31
0.0
  0
LINE
  5
3107
330
1A
100
AcDbEntity
  8
細線
100
AcDbLine
 10
321.7327112114135
 20
392.0855170003238
 30
0.0
 11
311.1327112114131
 21
392.0855170003238
 31
0.0
  0
ARC
  5
3108
330
1A
100
AcDbEntity
  8
細線
100
AcDbCircle
 10
321.7327112114126
 20
393.3355170003224
 30
0.0
 40
1.99999999999828
100
AcDbArc
 50
218.682187453479
 51
141.3178125464856
  0
ARC
  5
3109
330
1A
100
AcDbEntity
  8
細線
100
AcDbCircle
 10
311.1327112114131
 20
393.3355170003233
 30
0.0
 40
2.000000000000551
100
AcDbArc
 50
38.68218745347589
 51
321.3178125465398
  0
ARC
  5
310A
330
1A
100
AcDbEntity
  8
細線
100
AcDbCircle
 10
311.1327112114123
 20
393.3355170003247
 30
0.0
 40
1.249999999998635
100
AcDbArc
 50
89.99999999996092
 51
270.0000000000391
  0
ARC
  5
310B
330
1A
100
AcDbEntity
  8
細線
100
AcDbCircle
 10
321.7327112114117
 20
393.3355170003238
 30
0.0
 40
1.25
100
AcDbArc
 50
270.0000000001303
 51
89.99999999992184
  0
LINE
  5
310C
330
1A
100
AcDbEntity
  8
細線
100
AcDbLine
 10
311.1327112114131
 20
390.0696242419309
 30
0.0
 11
311.1327112114131
 21
386.1557691712351
 31
0.0
  0
LINE
  5
310D
330
1A
100
AcDbEntity
  8
細線
100
AcDbLine
 10
321.7327112114144
 20
390.0696242419309
 30
0.0
 11
321.7327112114144
 21
386.1557691712351
 31
0.0
  0
LINE
  5
310E
330
1A
100
AcDbEntity
  8
細線
100
AcDbLine
 10
311.1327112114131
 20
400.5152648294132
 30
0.0
 11
314.832711211413
 21
400.5152648294132
 31
0.0
  0
LINE
  5
310F
330
1A
100
AcDbEntity
  8
細線
100
AcDbLine
 10
311.1327112114131
 20
400.5152648294132
 30
0.0
 11
314.832711211413
 21
400.5152648294132
 31
0.0
  0
LINE
  5
3110
330
1A
100
AcDbEntity
  8
細線
100
AcDbLine
 10
314.832711211413
 20
400.5152648294132
 30
0.0
 11
314.832711211413
 21
396.8152648294136
 31
0.0
  0
LINE
  5
3111
330
1A
100
AcDbEntity
  8
細線
100
AcDbLine
 10
321.7327112114135
 20
400.5152648294132
 30
0.0
 11
318.0327112114137
 21
400.5152648294132
 31
0.0
  0
LINE
  5
3112
330
1A
100
AcDbEntity
  8
細線
100
AcDbLine
 10
318.0327112114137
 20
400.5152648294132
 30
0.0
 11
318.0327112114137
 21
396.8152648294136
 31
0.0
  0
LINE
  5
3113
330
1A
100
AcDbEntity
  8
細線
100
AcDbLine
 10
321.7327112114135
 20
400.5152648294132
 30
0.0
 11
321.7327112114135
 21
396.8152648294136
 31
0.0
  0
LINE
  5
3114
330
1A
100
AcDbEntity
  8
細線
100
AcDbLine
 10
321.7327112114135
 20
396.8152648294136
 30
0.0
 11
318.0327112114137
 21
396.8152648294136
 31
0.0
  0
LINE
  5
3115
330
1A
100
AcDbEntity
  8
細線
100
AcDbLine
 10
321.7327112114144
 20
386.1557691712351
 30
0.0
 11
321.7327112114144
 21
389.8557691712349
 31
0.0
  0
LINE
  5
3116
330
1A
100
AcDbEntity
  8
細線
100
AcDbLine
 10
321.7327112114144
 20
389.8557691712349
 30
0.0
 11
318.0327112114137
 21
389.8557691712335
 31
0.0
  0
CIRCLE
  5
3117
330
1A
100
AcDbEntity
  8
細線
100
AcDbCircle
 10
312.9763655521829
 20
398.6032336938665
 30
0.0
 40
1.199999999999999
  0
CIRCLE
  5
3118
330
1A
100
AcDbEntity
  8
細線
100
AcDbCircle
 10
319.9554499775559
 20
398.5582410610737
 30
0.0
 40
1.199999999999999
  0
CIRCLE
  5
3119
330
1A
100
AcDbEntity
  8
細線
100
AcDbCircle
 10
319.865436219975
 20
387.9817656968521
 30
0.0
 40
1.199999999999999
  0
CIRCLE
  5
311A
330
1A
100
AcDbEntity
  8
細線
100
AcDbCircle
 10
312.9763655521829
 20
387.8917307156448
 30
0.0
 40
1.199999999999999
  0
LINE
  5
311B
330
1A
100
AcDbEntity
  8
細線
100
AcDbLine
 10
314.832711211413
 20
389.8557691712326
 30
0.0
 11
314.832711211413
 21
386.1557691712351
 31
0.0
  0
LINE
  5
311C
330
1A
100
AcDbEntity
  8
細線
100
AcDbLine
 10
318.0327112114137
 20
389.8557691712335
 30
0.0
 11
318.0327112114137
 21
386.1557691712351
 31
0.0
  0
LINE
  5
311D
330
1A
100
AcDbEntity
  8
細線
100
AcDbLine
 10
314.832711211413
 20
389.8557691712326
 30
0.0
 11
311.1327112114113
 21
389.8557691712309
 31
0.0
  0
LINE
  5
311E
330
1A
100
AcDbEntity
  8
細線
100
AcDbLine
 10
314.832711211413
 20
396.8152648294136
 30
0.0
 11
311.1327112114131
 21
396.8152648294136
 31
0.0
  0
ARC
  5
311F
330
1A
100
AcDbEntity
  8
細線
100
AcDbCircle
 10
311.1327112114131
 20
353.3489230097631
 30
0.0
 40
3.26589275839342
100
AcDbArc
 50
90.0
 51
270.0
  0
ARC
  5
3120
330
1A
100
AcDbEntity
  8
細線
100
AcDbCircle
 10
321.7327112114135
 20
353.3489230097631
 30
0.0
 40
3.26589275839342
100
AcDbArc
 50
270.000000000013
 51
89.99999999998697
  0
LINE
  5
3121
330
1A
100
AcDbEntity
  8
細線
100
AcDbLine
 10
311.1327112114131
 20
360.5286708388522
 30
0.0
 11
311.1327112114131
 21
356.6148157681563
 31
0.0
  0
LINE
  5
3122
330
1A
100
AcDbEntity
  8
細線
100
AcDbLine
 10
321.7327112114135
 20
360.5286708388522
 30
0.0
 11
321.7327112114144
 21
356.6148157681563
 31
0.0
  0
LINE
  5
3123
330
1A
100
AcDbEntity
  8
細線
100
AcDbLine
 10
311.1327112114131
 20
360.5286708388522
 30
0.0
 11
321.7327112114135
 21
360.5286708388522
 31
0.0
  0
LINE
  5
3124
330
1A
100
AcDbEntity
  8
細線
100
AcDbLine
 10
311.1327112114141
 20
346.1691751806739
 30
0.0
 11
321.7327112114144
 21
346.1691751806739
 31
0.0
  0
LINE
  5
3125
330
1A
100
AcDbEntity
  8
細線
100
AcDbLine
 10
321.7327112114144
 20
354.5989230097621
 30
0.0
 11
311.1327112114131
 21
354.5989230097621
 31
0.0
  0
LINE
  5
3126
330
1A
100
AcDbEntity
  8
細線
100
AcDbLine
 10
321.7327112114135
 20
352.0989230097625
 30
0.0
 11
311.1327112114131
 21
352.0989230097625
 31
0.0
  0
ARC
  5
3127
330
1A
100
AcDbEntity
  8
細線
100
AcDbCircle
 10
321.7327112114126
 20
353.3489230097611
 30
0.0
 40
1.99999999999828
100
AcDbArc
 50
218.682187453479
 51
141.3178125464856
  0
ARC
  5
3128
330
1A
100
AcDbEntity
  8
細線
100
AcDbCircle
 10
311.1327112114131
 20
353.3489230097621
 30
0.0
 40
2.000000000000551
100
AcDbArc
 50
38.68218745347589
 51
321.3178125465398
  0
ARC
  5
3129
330
1A
100
AcDbEntity
  8
細線
100
AcDbCircle
 10
311.1327112114123
 20
353.3489230097635
 30
0.0
 40
1.249999999998635
100
AcDbArc
 50
89.99999999996092
 51
270.0000000000391
  0
ARC
  5
312A
330
1A
100
AcDbEntity
  8
細線
100
AcDbCircle
 10
321.7327112114117
 20
353.3489230097625
 30
0.0
 40
1.25
100
AcDbArc
 50
270.0000000001303
 51
89.99999999992184
  0
LINE
  5
312B
330
1A
100
AcDbEntity
  8
細線
100
AcDbLine
 10
311.1327112114131
 20
350.0830302513695
 30
0.0
 11
311.1327112114131
 21
346.1691751806739
 31
0.0
  0
LINE
  5
312C
330
1A
100
AcDbEntity
  8
細線
100
AcDbLine
 10
321.7327112114144
 20
350.0830302513695
 30
0.0
 11
321.7327112114144
 21
346.1691751806739
 31
0.0
  0
LINE
  5
312D
330
1A
100
AcDbEntity
  8
細線
100
AcDbLine
 10
311.1327112114131
 20
360.5286708388522
 30
0.0
 11
314.832711211413
 21
360.5286708388522
 31
0.0
  0
LINE
  5
312E
330
1A
100
AcDbEntity
  8
細線
100
AcDbLine
 10
311.1327112114131
 20
360.5286708388522
 30
0.0
 11
314.832711211413
 21
360.5286708388522
 31
0.0
  0
LINE
  5
312F
330
1A
100
AcDbEntity
  8
細線
100
AcDbLine
 10
314.832711211413
 20
360.5286708388522
 30
0.0
 11
314.832711211413
 21
356.8286708388523
 31
0.0
  0
LINE
  5
3130
330
1A
100
AcDbEntity
  8
細線
100
AcDbLine
 10
321.7327112114135
 20
360.5286708388522
 30
0.0
 11
318.0327112114137
 21
360.5286708388522
 31
0.0
  0
LINE
  5
3131
330
1A
100
AcDbEntity
  8
細線
100
AcDbLine
 10
318.0327112114137
 20
360.5286708388522
 30
0.0
 11
318.0327112114137
 21
356.8286708388523
 31
0.0
  0
LINE
  5
3132
330
1A
100
AcDbEntity
  8
細線
100
AcDbLine
 10
321.7327112114135
 20
360.5286708388522
 30
0.0
 11
321.7327112114135
 21
356.8286708388523
 31
0.0
  0
LINE
  5
3133
330
1A
100
AcDbEntity
  8
細線
100
AcDbLine
 10
321.7327112114135
 20
356.8286708388523
 30
0.0
 11
318.0327112114137
 21
356.8286708388523
 31
0.0
  0
LINE
  5
3134
330
1A
100
AcDbEntity
  8
細線
100
AcDbLine
 10
321.7327112114144
 20
346.1691751806739
 30
0.0
 11
321.7327112114144
 21
349.8691751806737
 31
0.0
  0
LINE
  5
3135
330
1A
100
AcDbEntity
  8
細線
100
AcDbLine
 10
321.7327112114144
 20
349.8691751806737
 30
0.0
 11
318.0327112114137
 21
349.8691751806723
 31
0.0
  0
CIRCLE
  5
3136
330
1A
100
AcDbEntity
  8
細線
100
AcDbCircle
 10
312.9763655521829
 20
358.6166397033053
 30
0.0
 40
1.199999999999999
  0
CIRCLE
  5
3137
330
1A
100
AcDbEntity
  8
細線
100
AcDbCircle
 10
319.9554499775559
 20
358.5716470705124
 30
0.0
 40
1.199999999999999
  0
CIRCLE
  5
3138
330
1A
100
AcDbEntity
  8
細線
100
AcDbCircle
 10
319.865436219975
 20
347.9951717062909
 30
0.0
 40
1.199999999999999
  0
CIRCLE
  5
3139
330
1A
100
AcDbEntity
  8
細線
100
AcDbCircle
 10
312.9763655521829
 20
347.9051367250836
 30
0.0
 40
1.199999999999999
  0
LINE
  5
313A
330
1A
100
AcDbEntity
  8
細線
100
AcDbLine
 10
314.832711211413
 20
349.8691751806714
 30
0.0
 11
314.832711211413
 21
346.1691751806739
 31
0.0
  0
LINE
  5
313B
330
1A
100
AcDbEntity
  8
細線
100
AcDbLine
 10
318.0327112114137
 20
349.8691751806723
 30
0.0
 11
318.0327112114137
 21
346.1691751806739
 31
0.0
  0
LINE
  5
313C
330
1A
100
AcDbEntity
  8
細線
100
AcDbLine
 10
314.832711211413
 20
349.8691751806714
 30
0.0
 11
311.1327112114113
 21
349.8691751806696
 31
0.0
  0
LINE
  5
313D
330
1A
100
AcDbEntity
  8
細線
100
AcDbLine
 10
314.832711211413
 20
356.8286708388523
 30
0.0
 11
311.1327112114131
 21
356.8286708388523
 31
0.0
  0
LINE
  5
313E
330
1A
100
AcDbEntity
  8
外形線
100
AcDbLine
 10
355.5039210184296
 20
245.4976405300299
 30
0.0
 11
277.5039210184305
 21
245.4976405300299
 31
0.0
  0
LINE
  5
313F
330
1A
100
AcDbEntity
  8
外形線
100
AcDbLine
 10
326.5039210184286
 20
278.4976405300299
 30
0.0
 11
355.5039210184296
 21
245.4976405300299
 31
0.0
  0
ARC
  5
3140
330
1A
100
AcDbEntity
  8
外形線
100
AcDbCircle
 10
329.6617837842441
 20
304.847564669567
 30
0.0
 40
4.000000000000571
100
AcDbArc
 50
211.6644463082453
 51
148.3355536917624
  0
ARC
  5
3141
330
1A
100
AcDbEntity
  8
外形線
100
AcDbCircle
 10
316.2572357202944
 20
319.9475646695614
 30
0.0
 40
10.00000000000294
100
AcDbArc
 50
0.0000000000130276
 51
77.95879320582568
  0
LINE
  5
3142
330
1A
100
AcDbEntity
  8
外形線
100
AcDbLine
 10
317.3369066498035
 20
521.8220913754635
 30
0.0
 11
317.3369066498035
 21
394.5855170003233
 31
0.0
  0
LINE
  5
3143
330
1A
100
AcDbEntity
  8
外形線
100
AcDbLine
 10
315.3702481174132
 20
521.8220913754635
 30
0.0
 11
315.3702481174132
 21
400.2422892592911
 31
0.0
  0
LINE
  5
3144
330
1A
100
AcDbEntity
  8
外形線
100
AcDbLine
 10
315.3702481174132
 20
429.8934918849371
 30
0.0
 11
315.3702481174132
 21
394.5855170003233
 31
0.0
  0
LINE
  5
3145
330
1A
100
AcDbEntity
  8
外形線
100
AcDbLine
 10
216.4414288436301
 20
537.8220913754626
 30
0.0
 11
216.4414288436301
 21
521.8220913754626
 31
0.0
  0
LINE
  5
3146
330
1A
100
AcDbEntity
  8
外形線
100
AcDbLine
 10
216.4414288436301
 20
537.8220913754626
 30
0.0
 11
216.4414288436301
 21
521.8220913754626
 31
0.0
  0
LINE
  5
3147
330
1A
100
AcDbEntity
  8
中心線
 48
10.0
100
AcDbLine
 10
239.508213782713
 20
542.8122958884423
 30
0.0
 11
239.508213782713
 21
516.6487370084014
 31
0.0
  0
LINE
  5
3148
330
1A
100
AcDbEntity
  8
外形線
100
AcDbLine
 10
259.4414288436301
 20
537.8220913754626
 30
0.0
 11
216.4414288436301
 21
537.8220913754626
 31
0.0
  0
LINE
  5
3149
330
1A
100
AcDbEntity
  8
外形線
100
AcDbLine
 10
259.4414288436301
 20
537.8220913754626
 30
0.0
 11
216.4414288436301
 21
537.8220913754626
 31
0.0
  0
LINE
  5
314A
330
1A
100
AcDbEntity
  8
外形線
100
AcDbLine
 10
241.4414288436292
 20
609.8220913754626
 30
0.0
 11
241.4414288436292
 21
776.6815487586097
 31
0.0
  0
LINE
  5
314E
330
1A
100
AcDbEntity
  8
外形線
100
AcDbLine
 10
311.5039210184286
 20
215.4976405300299
 30
0.0
 11
311.5039210184286
 21
170.4976405300299
 31
0.0
  0
LINE
  5
314F
330
1A
100
AcDbEntity
  8
外形線
100
AcDbLine
 10
321.5039210184305
 20
170.4976405300299
 30
0.0
 11
321.5039210184305
 21
215.4976405300299
 31
0.0
  0
LINE
  5
3150
330
1A
100
AcDbEntity
  8
外形線
100
AcDbLine
 10
321.5039210184305
 20
170.4976405300299
 30
0.0
 11
316.5039210184304
 21
165.4976405300303
 31
0.0
  0
LINE
  5
3151
330
1A
100
AcDbEntity
  8
外形線
100
AcDbLine
 10
316.5039210184304
 20
165.4976405300303
 30
0.0
 11
311.5039210184286
 21
170.4976405300299
 31
0.0
  0
LINE
  5
3152
330
1A
100
AcDbEntity
  8
外形線
100
AcDbLine
 10
321.5039210184305
 20
215.4976405300299
 30
0.0
 11
311.5039210184286
 21
215.4976405300299
 31
0.0
  0
LINE
  5
3153
330
1A
100
AcDbEntity
  8
外形線
100
AcDbLine
 10
311.5039210184286
 20
170.4976405300299
 30
0.0
 11
321.5039210184305
 21
170.4976405300299
 31
0.0
  0
LINE
  5
3154
330
1A
100
AcDbEntity
  8
外形線
100
AcDbLine
 10
277.5039210184305
 20
215.4976405300299
 30
0.0
 11
355.5039210184296
 21
215.4976405300299
 31
0.0
  0
LINE
  5
3155
330
1A
100
AcDbEntity
  8
外形線
100
AcDbLine
 10
277.5039210184305
 20
245.4976405300299
 30
0.0
 11
277.5039210184305
 21
215.4976405300299
 31
0.0
  0
LINE
  5
3156
330
1A
100
AcDbEntity
  8
外形線
100
AcDbLine
 10
355.5039210184296
 20
215.4976405300299
 30
0.0
 11
355.5039210184296
 21
245.4976405300299
 31
0.0
  0
DIMENSION
  5
3157
330
1A
100
AcDbEntity
  8
寸法線
100
AcDbDimension
  2
*D18
 10
505.4414288436291
 20
961.1986767690146
 30
0.0
 11
376.4414288436291
 21
961.1986767690146
 31
0.0
 70
   160
 71
     5
 42
258.0
  3
ISO-25
100
AcDbAlignedDimension
 13
247.4414288436292
 23
913.6315487586102
 33
0.0
 14
505.4414288436291
 24
913.6315487586102
 34
0.0
100
AcDbRotatedDimension
1001
ACAD
1000
DSTYLE
1002
{
1070
    41
1040
10.0
1070
    40
1040
1.0
1070
   144
1040
1.0
1070
    47
1040
0.1
1070
    48
1040
0.1
1070
    73
1070
     0
1070
   140
1040
16.0
1070
   178
1070
   256
1070
   271
1070
     2
1070
   272
1070
     2
1070
   289
1070
     0
1002
}
  0
DIMENSION
  5
3158
330
1A
100
AcDbEntity
  8
寸法線
100
AcDbDimension
  2
*D19
 10
511.4414288436291
 20
982.3066662366805
 30
0.0
 11
376.4414288436291
 21
982.3066662366805
 31
0.0
 70
   160
 71
     5
 42
270.0
  3
ISO-25
100
AcDbAlignedDimension
 13
241.4414288436292
 23
939.8220913754633
 33
0.0
 14
511.4414288436291
 24
939.8220913754633
 34
0.0
100
AcDbRotatedDimension
1001
ACAD
1000
DSTYLE
1002
{
1070
    41
1040
10.0
1070
    40
1040
1.0
1070
   144
1040
1.0
1070
    47
1040
0.1
1070
    48
1040
0.1
1070
    73
1070
     0
1070
   140
1040
16.0
1070
   178
1070
   256
1070
   271
1070
     2
1070
   272
1070
     2
1070
   289
1070
     0
1002
}
  0
LINE
  5
3159
330
1A
100
AcDbEntity
  8
外形線
100
AcDbLine
 10
250.4414288436301
 20
916.6315487586098
 30
0.0
 11
502.4414288436291
 21
916.6315487586098
 31
0.0
  0
LINE
  5
315A
330
1A
100
AcDbEntity
  8
細線
100
AcDbLine
 10
511.4414288436291
 20
936.8220913754626
 30
0.0
 11
241.4414288436292
 21
936.8220913754626
 31
0.0
  0
LINE
  5
315B
330
1A
100
AcDbEntity
  8
外形線
100
AcDbLine
 10
241.4414288436292
 20
939.8220913754624
 30
0.0
 11
511.4414288436291
 21
939.8220913754624
 31
0.0
  0
LINE
  5
315C
330
1A
100
AcDbEntity
  8
外形線
100
AcDbLine
 10
241.4414288436292
 20
934.8220913754628
 30
0.0
 11
511.4414288436291
 21
934.8220913754628
 31
0.0
  0
LINE
  5
315D
330
1A
100
AcDbEntity
  8
外形線
100
AcDbLine
 10
502.4414288436291
 20
658.6315487586102
 30
0.0
 11
250.4414288436301
 21
658.6315487586102
 31
0.0
  0
LINE
  5
315E
330
1A
100
AcDbEntity
  8
外形線
100
AcDbLine
 10
511.4414288436291
 20
609.8220913754626
 30
0.0
 11
241.4414288436292
 21
609.8220913754626
 31
0.0
  0
CIRCLE
  5
315F
330
1A
100
AcDbEntity
  8
細線
  6
DASHED
 48
5.0
100
AcDbCircle
 10
396.4414288436291
 20
819.8220913754626
 30
0.0
 40
89.0
  0
CIRCLE
  5
3160
330
1A
100
AcDbEntity
  8
細線
  6
DASHED
 48
5.0
100
AcDbCircle
 10
396.4414288436291
 20
819.8220913754626
 30
0.0
 40
78.5
  0
LINE
  5
3161
330
1A
100
AcDbEntity
  8
中心線
 48
10.0
100
AcDbLine
 10
232.4441159139638
 20
819.8220913754626
 30
0.0
 11
518.6773642950002
 21
819.8220913754626
 31
0.0
  0
DIMENSION
  5
3162
330
1A
100
AcDbEntity
  8
寸法線
100
AcDbDimension
  2
*D20
 10
316.4414288436292
 20
568.0285987308782
 30
0.0
 11
413.9414288436291
 21
576.6535987308782
 31
0.0
 70
    32
 71
     5
 42
195.0
  3
ISO-25
100
AcDbAlignedDimension
 13
511.4414288436291
 23
609.822091375463
 33
0.0
 14
316.4414288436292
 24
568.0285987308782
 34
0.0
100
AcDbRotatedDimension
1001
ACAD
1000
DSTYLE
1002
{
1070
    41
1040
10.0
1070
    40
1040
1.0
1070
   144
1040
1.0
1070
    47
1040
0.1
1070
    48
1040
0.1
1070
    73
1070
     0
1070
   140
1040
16.0
1070
   178
1070
   256
1070
   271
1070
     2
1070
   272
1070
     2
1070
   289
1070
     0
1002
}
  0
LINE
  5
3163
330
1A
100
AcDbEntity
  8
外形線
100
AcDbLine
 10
216.4414288436301
 20
521.8220913754626
 30
0.0
 11
416.4414288436301
 21
521.8220913754635
 31
0.0
  0
LINE
  5
3164
330
1A
100
AcDbEntity
  8
外形線
100
AcDbLine
 10
216.4414288436301
 20
521.8220913754626
 30
0.0
 11
416.4414288436301
 21
521.8220913754635
 31
0.0
  0
LINE
  5
3165
330
1A
100
AcDbEntity
  8
外形線
100
AcDbLine
 10
416.4414288436301
 20
537.8220913754626
 30
0.0
 11
373.4414288436291
 21
537.8220913754626
 31
0.0
  0
LINE
  5
3166
330
1A
100
AcDbEntity
  8
外形線
100
AcDbLine
 10
416.4414288436301
 20
537.8220913754626
 30
0.0
 11
373.4414288436291
 21
537.8220913754626
 31
0.0
  0
DIMENSION
  5
3167
330
1A
100
AcDbEntity
  8
寸法線
100
AcDbDimension
  2
*D21
 10
329.0508862267779
 20
692.9392792019885
 30
0.0
 11
417.2461575352044
 21
692.9392792019885
 31
0.0
 70
   160
  1
176
 71
     5
 42
176.3905426168521
  3
ISO-25
100
AcDbAlignedDimension
 13
505.4414288436301
 23
664.6084324443677
 33
0.0
 14
329.0508862267779
 24
688.5316407319427
 34
0.0
100
AcDbRotatedDimension
1001
ACAD
1000
DSTYLE
1002
{
1070
    41
1040
10.0
1070
    40
1040
1.0
1070
   144
1040
1.0
1070
    47
1040
0.1
1070
    48
1040
0.1
1070
    73
1070
     0
1070
   140
1040
16.0
1070
   178
1070
   256
1070
   271
1070
     2
1070
   272
1070
     2
1070
   289
1070
     0
1002
}
  0
LEADER
  5
33CC
330
1A
100
AcDbEntity
  8
寸法線
 48
10.0
100
AcDbLeader
  3
ISO-25
 73
     0
 75
     1
 40
42.66981627296589
 41
169.9132323206556
 76
     3
 10
284.9496142074658
 20
655.0925283846667
 30
0.0
 10
193.6422461411365
 20
592.4089889744723
 30
0.0
 10
183.6422461411365
 20
592.4089889744723
 30
0.0
340
33CD
1001
ACAD
1000
DSTYLE
1002
{
1070
   147
1040
0.4209
1070
    77
1070
     1
1070
    41
1040
10.0
1070
    47
1040
0.1
1070
    48
1040
0.1
1070
    73
1070
     0
1070
   140
1040
5.0
1070
   271
1070
     1
1070
   272
1070
     1
1070
   341
1005
0
1070
   342
1005
2AF4
1002
}
  0
MTEXT
  5
33CD
102
{ACAD_REACTORS
330
33CC
102
}
330
1A
100
AcDbEntity
  8
寸法線
 48
10.0
100
AcDbMText
 10
183.2213461411366
 20
592.8298889744723
 30
0.0
 40
16.0
 41
0.0
 71
     9
 72
     1
  1
\A1;ケーブル引き出し用\P穴径φ21（2箇所）
 73
     1
 44
1.0
1001
ACAD
1000
MTEXTBEGIN
1070
    73
1070
     1
1070
    44
1040
1.0
1070
    74
1070
     0
1000
MTEXTEND
  0
LEADER
  5
33D0
330
1A
100
AcDbEntity
  8
寸法線
 48
10.0
100
AcDbLeader
  3
ISO-25
 73
     0
 74
     0
 75
     1
 40
16.0
 41
90.66666666666666
 76
     3
 10
1062.213654223286
 20
941.2480539110298
 30
0.0
 10
1067.363586074663
 20
952.3236425952097
 30
0.0
 10
1077.363586074663
 20
952.3236425952097
 30
0.0
340
33D1
1001
ACAD
1000
DSTYLE
1002
{
1070
   147
1040
0.4209
1070
    77
1070
     1
1070
    41
1040
10.0
1070
    47
1040
0.1
1070
    48
1040
0.1
1070
    73
1070
     0
1070
   140
1040
16.0
1070
   271
1070
     1
1070
   272
1070
     1
1070
   341
1005
0
1070
   342
1005
2AF4
1002
}
  0
MTEXT
  5
33D1
102
{ACAD_REACTORS
330
33D0
102
}
330
1A
100
AcDbEntity
  8
寸法線
 48
10.0
100
AcDbMText
 10
1077.784486074663
 20
952.7445425952096
 30
0.0
 40
16.0
 41
0.0
 71
     7
 72
     1
  1
\A1;フタ　鉄板
 73
     1
 44
1.0
1001
ACAD
1000
MTEXTBEGIN
1070
    73
1070
     1
1070
    44
1040
1.0
1070
    74
1070
     0
1000
MTEXTEND
  0
LEADER
  5
3468
330
1A
100
AcDbEntity
  8
寸法線
 48
10.0
100
AcDbLeader
  3
ISO-25
 73
     0
 74
     0
 75
     1
 40
16.0
 41
110.9333333333333
 76
     3
 10
867.0500750313824
 20
916.8146531117168
 30
0.0
 10
884.8167378662973
 20
936.2734082856878
 30
0.0
 10
894.8167378662972
 20
936.2734082856878
 30
0.0
340
3469
1001
ACAD
1000
DSTYLE
1002
{
1070
   147
1040
0.4209
1070
    77
1070
     1
1070
    41
1040
10.0
1070
    47
1040
0.1
1070
    48
1040
0.1
1070
    73
1070
     0
1070
   271
1070
     1
1070
   272
1070
     1
1070
   341
1005
0
1070
   342
1005
2AF4
1002
}
  0
MTEXT
  5
3469
102
{ACAD_REACTORS
330
3468
102
}
330
1A
100
AcDbEntity
  8
寸法線
 48
10.0
100
AcDbMText
 10
895.2376378662973
 20
936.6943082856876
 30
0.0
 40
16.0
 41
0.0
 71
     7
 72
     1
  1
本体枠　鋼板
 73
     1
 44
1.0
1001
ACAD
1000
MTEXTBEGIN
1070
    73
1070
     1
1070
    44
1040
1.0
1070
    74
1070
     0
1000
MTEXTEND
  0
LEADER
  5
346B
330
1A
100
AcDbEntity
  8
寸法線
 48
10.0
100
AcDbLeader
  3
ISO-25
 73
     0
 75
     1
 40
16.0
 41
90.66666666666666
 76
     3
 10
805.4547327463167
 20
701.1735856702913
 30
0.0
 10
742.8756167507436
 20
623.3934072113553
 30
0.0
 10
732.8756167507435
 20
623.3934072113553
 30
0.0
340
346C
1001
ACAD
1000
DSTYLE
1002
{
1070
   147
1040
0.4209
1070
    77
1070
     1
1070
    41
1040
10.0
1070
    47
1040
0.1
1070
    48
1040
0.1
1070
    73
1070
     0
1070
   271
1070
     1
1070
   272
1070
     1
1070
   341
1005
0
1070
   342
1005
2AF4
1002
}
  0
MTEXT
  5
346C
102
{ACAD_REACTORS
330
346B
102
}
330
1A
100
AcDbEntity
  8
寸法線
 48
10.0
100
AcDbMText
 10
732.4547167507436
 20
623.8143072113551
 30
0.0
 40
16.0
 41
0.0
 71
     9
 72
     1
  1
\A1;フタ　鉄板
 73
     1
 44
1.0
1001
ACAD
1000
MTEXTBEGIN
1070
    73
1070
     1
1070
    44
1040
1.0
1070
    74
1070
     0
1000
MTEXTEND
  0
LEADER
  5
346E
330
1A
100
AcDbEntity
  8
寸法線
 48
10.0
100
AcDbLeader
  3
ISO-25
 73
     0
 75
     1
 40
17.6
 41
158.6603674540682
 76
     3
 10
1084.387936415336
 20
259.8487364022171
 30
0.0
 10
1015.392049530772
 20
325.1488270151863
 30
0.0
 10
1005.392049530772
 20
325.1488270151863
 30
0.0
340
346F
1001
ACAD
1000
DSTYLE
1002
{
1070
   147
1040
0.4209
1070
    77
1070
     1
1070
    41
1040
10.0
1070
    47
1040
0.1
1070
    48
1040
0.1
1070
    73
1070
     0
1070
   271
1070
     1
1070
   272
1070
     1
1070
   341
1005
0
1070
   342
1005
2AF4
1002
}
  0
MTEXT
  5
346F
102
{ACAD_REACTORS
330
346E
102
}
330
1A
100
AcDbEntity
  8
寸法線
 48
10.0
100
AcDbMText
 10
1004.971149530772
 20
325.5697270151863
 30
0.0
 40
16.0
 41
0.0
 71
     9
 72
     1
  1
\A1;ウエイト（SS400)
 73
     1
 44
1.0
1001
ACAD
1000
MTEXTBEGIN
1070
    73
1070
     1
1070
    44
1040
1.0
1070
    74
1070
     0
1000
MTEXTEND
  0
LEADER
  5
3470
330
1A
100
AcDbEntity
  8
寸法線
 48
10.0
100
AcDbLeader
  3
ISO-25
 73
     0
 75
     1
 40
16.00314960629921
 41
215.3294083664637
 76
     3
 10
1114.744050259067
 20
441.8186748874926
 30
0.0
 10
1067.4460183748
 20
391.1905763915697
 30
0.0
 10
1057.4460183748
 20
391.1905763915697
 30
0.0
340
3471
1001
ACAD
1000
DSTYLE
1002
{
1070
   147
1040
0.4209
1070
    77
1070
     1
1070
    41
1040
10.0
1070
    47
1040
0.1
1070
    48
1040
0.1
1070
    73
1070
     0
1070
   271
1070
     1
1070
   272
1070
     1
1070
   341
1005
0
1070
   342
1005
2AF4
1002
}
  0
MTEXT
  5
3471
102
{ACAD_REACTORS
330
3470
102
}
330
1A
100
AcDbEntity
  8
寸法線
 48
10.0
100
AcDbMText
 10
1057.0251183748
 20
391.6114763915699
 30
0.0
 40
16.0
 41
0.0
 71
     9
 72
     1
  1
\A1;ワイヤーφ2（SUS304）
 73
     1
 44
1.0
1001
ACAD
1000
MTEXTBEGIN
1070
    73
1070
     1
1070
    44
1040
1.0
1070
    74
1070
     0
1000
MTEXTEND
  0
LEADER
  5
3472
330
1A
100
AcDbEntity
  8
寸法線
 48
10.0
100
AcDbLeader
  3
ISO-25
 73
     0
 75
     1
 40
97.02253967444162
 41
255.8070341207349
 76
     3
 10
1033.582366485525
 20
522.6453894707487
 30
0.0
 10
977.3061534967546
 20
427.3146374876525
 30
0.0
 10
967.3061534967546
 20
427.3146374876525
 30
0.0
340
3473
1001
ACAD
1000
DSTYLE
1002
{
1070
   147
1040
0.4209
1070
    77
1070
     1
1070
    41
1040
10.0
1070
    47
1040
0.1
1070
    48
1040
0.1
1070
    73
1070
     0
1070
   271
1070
     1
1070
   272
1070
     1
1070
   341
1005
0
1070
   342
1005
2AF4
1002
}
  0
MTEXT
  5
3473
102
{ACAD_REACTORS
330
3472
102
}
330
1A
100
AcDbEntity
  8
寸法線
 48
10.0
100
AcDbMText
 10
966.8852534967543
 20
427.7355374876528
 30
0.0
 40
16.0
 41
0.0
 71
     9
 72
     1
  1
\A1;フランジJIS5K100A（SS400)\PDφ200\PPCD165\P取付穴8-φ19
 73
     1
 44
1.0
1001
ACAD
1000
MTEXTBEGIN
1070
    73
1070
     1
1070
    44
1040
1.0
1070
    74
1070
     0
1000
MTEXTEND
  0
LEADER
  5
3474
330
1A
100
AcDbEntity
  8
寸法線
 48
10.0
100
AcDbLeader
  3
ISO-25
 73
     0
 75
     1
 40
42.66981627296589
 41
169.9132323206556
 76
     3
 10
861.0315530937514
 20
654.8307172570062
 30
0.0
 10
786.8378436070201
 20
558.3933470402638
 30
0.0
 10
776.8378436070201
 20
558.3933470402638
 30
0.0
340
3475
1001
ACAD
1000
DSTYLE
1002
{
1070
   147
1040
0.4209
1070
    77
1070
     1
1070
    41
1040
10.0
1070
    47
1040
0.1
1070
    48
1040
0.1
1070
    73
1070
     0
1070
   271
1070
     1
1070
   272
1070
     1
1070
   341
1005
0
1070
   342
1005
2AF4
1002
}
  0
MTEXT
  5
3475
102
{ACAD_REACTORS
330
3474
102
}
330
1A
100
AcDbEntity
  8
寸法線
 48
10.0
100
AcDbMText
 10
776.4169436070201
 20
558.8142470402638
 30
0.0
 40
16.0
 41
0.0
 71
     9
 72
     1
  1
\A1;ケーブル引き出し用\P穴径φ21（2箇所）
 73
     1
 44
1.0
1001
ACAD
1000
MTEXTBEGIN
1070
    73
1070
     1
1070
    44
1040
1.0
1070
    74
1070
     0
1000
MTEXTEND
  0
LEADER
  5
3476
330
1A
100
AcDbEntity
  8
寸法線
 48
10.0
100
AcDbLeader
  3
ISO-25
 73
     0
 74
     0
 75
     1
 40
42.66666666666664
 41
93.59999999999999
 76
     3
 10
1196.934739676997
 20
736.9140984529917
 30
0.0
 10
1318.91092096132
 20
684.755347240919
 30
0.0
 10
1328.91092096132
 20
684.755347240919
 30
0.0
340
3477
1001
ACAD
1000
DSTYLE
1002
{
1070
   147
1040
0.4209
1070
    77
1070
     1
1070
    41
1040
10.0
1070
    47
1040
0.1
1070
    48
1040
0.1
1070
    73
1070
     0
1070
   271
1070
     1
1070
   272
1070
     1
1070
   341
1005
0
1070
   342
1005
2AF4
1002
}
  0
MTEXT
  5
3477
102
{ACAD_REACTORS
330
3476
102
}
330
1A
100
AcDbEntity
  8
寸法線
 48
10.0
100
AcDbMText
 10
1329.33182096132
 20
685.1762472409189
 30
0.0
 40
16.0
 41
0.0
 71
     7
 72
     1
  1
\A1;本体ケース\P鋼板
 73
     1
 44
1.0
1001
ACAD
1000
MTEXTBEGIN
1070
    73
1070
     1
1070
    44
1040
1.0
1070
    74
1070
     0
1000
MTEXTEND
  0
LEADER
  5
3479
330
1A
100
AcDbEntity
  8
寸法線
 48
10.0
100
AcDbLeader
  3
ISO-25
 73
     0
 74
     0
 75
     1
 40
42.66666666666664
 41
129.8264646413113
 76
     3
 10
1151.318407797405
 20
731.9843747453147
 30
0.0
 10
1313.596917064858
 20
601.3407914038888
 30
0.0
 10
1323.596917064858
 20
601.3407914038888
 30
0.0
340
347A
1001
ACAD
1000
DSTYLE
1002
{
1070
   147
1040
0.4209
1070
    77
1070
     1
1070
    41
1040
10.0
1070
    47
1040
0.1
1070
    48
1040
0.1
1070
    73
1070
     0
1070
   271
1070
     1
1070
   272
1070
     1
1070
   341
1005
0
1070
   342
1005
2AF4
1002
}
  0
MTEXT
  5
347A
102
{ACAD_REACTORS
330
3479
102
}
330
1A
100
AcDbEntity
  8
寸法線
 48
10.0
100
AcDbMText
 10
1324.017817064858
 20
601.7616914038889
 30
0.0
 40
16.0
 41
0.0
 71
     7
 72
     1
  1
\A1;ワイヤードラム\Pアルミ鋳物
 73
     1
 44
1.0
1001
ACAD
1000
MTEXTBEGIN
1070
    73
1070
     1
1070
    44
1040
1.0
1070
    74
1070
     0
1000
MTEXTEND
  0
VIEWPORT
  5
3312
102
{ACAD_XDICTIONARY
360
34CB
102
}
330
3310
100
AcDbEntity
 67
     1
  8
0
 48
10.0
100
AcDbViewport
 10
236.6614122072952
 20
141.7263627836854
 30
0.0
 40
596.7671199639811
 41
337.644554716463
 68
     1
 69
     1
 12
236.6614122072952
 22
141.7263627836854
 13
0.0
 23
0.0
 14
10.0
 24
10.0
 15
10.0
 25
10.0
 16
0.0
 26
0.0
 36
1.0
 17
0.0
 27
0.0
 37
0.0
 42
50.0
 43
0.0
 44
0.0
 45
337.644554716463
 50
0.0
 51
0.0
 72
   100
 90
    32800
  1

281
     0
 71
     1
 74
     0
110
0.0
120
0.0
130
0.0
111
1.0
121
0.0
131
0.0
112
0.0
122
1.0
132
0.0
 79
     0
146
0.0
  0
VIEWPORT
  5
3313
102
{ACAD_XDICTIONARY
360
34CD
102
}
330
3310
100
AcDbEntity
 67
     1
  8
図枠太線
 48
10.0
100
AcDbViewport
 10
204.7463051290833
 20
161.3966454581311
 30
0.0
 40
400.0
 41
240.0
 68
     2
 69
     2
 12
671.8517100083494
 22
560.1147293603125
 13
0.0
 23
0.0
 14
1.0
 24
1.0
 15
0.0
 25
0.0
 16
0.0
 26
0.0
 36
1.0
 17
0.0
 27
0.0
 37
0.0
 42
50.0
 43
0.0
 44
0.0
 45
960.0
 50
0.0
 51
0.0
 72
   100
 90
    32768
  1

281
     0
 71
     1
 74
     0
110
0.0
120
0.0
130
0.0
111
1.0
121
0.0
131
0.0
112
0.0
122
1.0
132
0.0
 79
     0
146
0.0
  0
INSERT
  5
3314
330
3310
100
AcDbEntity
 67
     1
  8
図枠太線
100
AcDbBlockReference
  2
A3横用　タイトル
 10
-0.35210940670936
 20
-2.129314295395635
 30
0.0
  0
MTEXT
  5
3316
330
3310
100
AcDbEntity
 67
     1
  8
寸法線
 48
10.0
100
AcDbMText
 10
362.2555075156258
 20
37.81467763264835
 30
0.0
 40
5.0
 41
43.67516300195529
 71
     1
 72
     5
  1
サウンジング式\Pレベル計
 73
     1
 44
1.0
1001
ACAD
1000
MTEXTBEGIN
1070
    73
1070
     1
1070
    44
1040
1.0
1070
    74
1070
     0
1000
MTEXTEND
  0
MTEXT
  5
3317
330
3310
100
AcDbEntity
 67
     1
  8
寸法線
 48
10.0
100
AcDbMText
 10
214.1157815526824
 20
38.87691823136739
 30
0.0
 40
5.0
 41
83.36931560478523
 71
     1
 72
     5
  1
TLX-120AP1 ／ TLX-200AP
 73
     1
 44
1.0
1001
ACAD
1000
MTEXTBEGIN
1070
    73
1070
     1
1070
    44
1040
1.0
1070
    74
1070
     0
1000
MTEXTEND
  0
MTEXT
  5
3318
330
3310
100
AcDbEntity
 67
     1
  8
寸法線
 48
10.0
100
AcDbMText
 10
324.2524809280449
 20
34.68620210878226
 30
0.0
 40
7.0
 41
28.74585879205369
 71
     1
 72
     5
  1
外形図
 73
     1
 44
1.0
1001
ACAD
1000
MTEXTBEGIN
1070
    73
1070
     1
1070
    44
1040
1.0
1070
    74
1070
     0
1000
MTEXTEND
  0
MTEXT
  5
3319
330
3310
100
AcDbEntity
 67
     1
  8
寸法線
 48
10.0
100
AcDbMText
 10
175.8581511149039
 20
12.60637778562477
 30
0.0
 40
5.0
 41
26.35527416018408
 71
     1
 72
     5
  1
2005.4.19
 73
     1
 44
1.0
1001
ACAD
1000
MTEXTBEGIN
1070
    73
1070
     1
1070
    44
1040
1.0
1070
    74
1070
     0
1000
MTEXTEND
  0
MTEXT
  5
331A
330
3310
100
AcDbEntity
 67
     1
  8
寸法線
 48
10.0
100
AcDbMText
 10
146.4389580688023
 20
13.088133149702
 30
0.0
 40
6.0
 41
18.32671235653356
 71
     1
 72
     5
  1
NTS
 73
     1
 44
1.0
1001
ACAD
1000
MTEXTBEGIN
1070
    73
1070
     1
1070
    44
1040
1.0
1070
    74
1070
     0
1000
MTEXTEND
  0
MTEXT
  5
331B
330
3310
100
AcDbEntity
 67
     1
  8
寸法線
 48
10.0
100
AcDbMText
 10
176.8227149231427
 20
32.12704182111816
 30
0.0
 40
5.0
 41
22.66724794101924
 71
     1
 72
     5
  1
KONISHI
 73
     1
 44
1.0
1001
ACAD
1000
MTEXTBEGIN
1070
    73
1070
     1
1070
    44
1040
1.0
1070
    74
1070
     0
1000
MTEXTEND
  0
MTEXT
  5
331C
330
3310
100
AcDbEntity
 67
     1
  8
寸法線
 48
10.0
100
AcDbMText
 10
345.4428863017048
 20
14.92381227978706
 30
0.0
 40
7.0
 41
32.9784612502349
 71
     1
 72
     5
  1
HW-8369
 73
     1
 44
1.0
1001
ACAD
1000
MTEXTBEGIN
1070
    73
1070
     1
1070
    44
1040
1.0
1070
    74
1070
     0
1000
MTEXTEND
  0
ENDSEC
  0
SECTION
  2
OBJECTS
  0
DICTIONARY
  5
C
330
0
100
AcDbDictionary
281
     1
  3
ACAD_COLOR
350
2948
  3
ACAD_GROUP
350
D
  3
ACAD_LAYOUT
350
2816
  3
ACAD_MATERIAL
350
2947
  3
ACAD_MLINESTYLE
350
E
  3
ACAD_PLOTSETTINGS
350
2817
  3
ACAD_PLOTSTYLENAME
350
2814
  3
AcadDim
350
33CF
  3
ACDBHEADERROUNDTRIPXREC
350
34C6
  3
AcDbVariableDictionary
350
3485
  3
DWGPROPS
350
34C5
  0
DICTIONARY
  5
29EA
330
2
100
AcDbDictionary
280
     1
281
     1
  3
ACAD_LAYERFILTERS
360
2B0C
  3
ACAD_LAYERSTATES
360
29EB
  0
DICTIONARY
  5
34CB
330
3312
100
AcDbDictionary
280
     1
281
     1
  3
ACAD_XREC_ROUNDTRIP
360
34CC
  0
DICTIONARY
  5
34CD
330
3313
100
AcDbDictionary
280
     1
281
     1
  3
ACAD_XREC_ROUNDTRIP
360
34CE
  0
DICTIONARY
  5
2948
102
{ACAD_REACTORS
330
C
102
}
330
C
100
AcDbDictionary
281
     1
  0
DICTIONARY
  5
D
102
{ACAD_REACTORS
330
C
102
}
330
C
100
AcDbDictionary
281
     1
  0
DICTIONARY
  5
2816
102
{ACAD_REACTORS
330
C
102
}
330
C
100
AcDbDictionary
281
     1
  3
A3横
350
331E
  3
Model
350
2818
  0
DICTIONARY
  5
2947
102
{ACAD_REACTORS
330
C
102
}
330
C
100
AcDbDictionary
281
     1
  0
DICTIONARY
  5
E
102
{ACAD_REACTORS
330
C
102
}
330
C
100
AcDbDictionary
281
     1
  3
STANDARD
350
13
  0
DICTIONARY
  5
2817
102
{ACAD_REACTORS
330
C
102
}
330
C
100
AcDbDictionary
281
     1
  0
ACDBDICTIONARYWDFLT
  5
2814
102
{ACAD_REACTORS
330
C
102
}
330
C
100
AcDbDictionary
281
     1
  3
Normal
350
2815
100
AcDbDictionaryWithDefault
340
2815
  0
XRECORD
  5
33CF
102
{ACAD_REACTORS
330
C
102
}
330
C
100
AcDbXrecord
280
     1
 90
   990106
  3

 60
     0
 61
     0
 62
     4
 63
     4
 64
     1
 65
     0
 66
     0
 67
     3
 68
     1
 69
     0
 70
     0
 71
     0
 72
     0
 40
0.0
170
     2
340
347A
  0
DICTIONARY
  5
34C6
102
{ACAD_REACTORS
330
C
102
}
330
C
100
AcDbDictionary
281
     1
  3
COLORDICT
350
34C8
  3
MATERIALDICT
350
34C7
  0
DICTIONARY
  5
3485
102
{ACAD_REACTORS
330
C
102
}
330
C
100
AcDbDictionary
281
     1
  3
DIMASSOC
350
3486
  3
PROJECTNAME
350
3487
  0
XRECORD
  5
34C5
102
{ACAD_REACTORS
330
C
102
}
330
C
100
AcDbXrecord
280
     1
  1
DWGPROPS COOKIE
  2

  3

  4

  6

  7

  8

  9

300
=
301
=
302
=
303
=
304
=
305
=
306
=
307
=
308
=
309
=
 40
1.060183645833333
 41
2450576.597302431
 42
2454134.688209931
  1

 90
        0
  0
DICTIONARY
  5
2B0C
102
{ACAD_REACTORS
330
29EA
102
}
330
29EA
100
AcDbDictionary
281
     1
  0
DICTIONARY
  5
29EB
102
{ACAD_REACTORS
330
29EA
102
}
330
29EA
100
AcDbDictionary
281
     1
  0
XRECORD
  5
34CC
102
{ACAD_REACTORS
330
34CB
102
}
330
34CB
100
AcDbXrecord
280
     1
102
SHADEPLOT
 70
     0
  0
XRECORD
  5
34CE
102
{ACAD_REACTORS
330
34CD
102
}
330
34CD
100
AcDbXrecord
280
     1
102
SHADEPLOT
 70
     0
  0
LAYOUT
  5
331E
102
{ACAD_XDICTIONARY
360
34CF
102
}
102
{ACAD_REACTORS
330
2816
102
}
330
2816
100
AcDbPlotSettings
  1

  2
DocuCentre 352
  4
A4
  6

 40
4.857749938964841
 41
4.900062561035156
 42
4.942413330078125
 43
4.857757568359375
 44
209.9733276367186
 45
296.9683227539062
 46
0.0
 47
0.0
 48
0.0
 49
0.0
140
0.0
141
0.0
142
1.0
143
1.41421356
 70
   736
 72
     1
 73
     1
 74
     5
  7
TOWA.ctb
 75
     0
147
1.0
148
0.0
149
0.0
100
AcDbLayout
  1
A3横
 70
     1
 71
     1
 10
-6.869906624366453
 20
-6.869895834773254
 11
413.1067223046643
 21
290.0772313473972
 12
0.0
 22
0.0
 32
0.0
 14
4.746305129083339
 24
1.396645458131182
 34
0.0
 15
404.7463051290833
 25
281.3966454581311
 35
0.0
146
0.0
 13
0.0
 23
0.0
 33
0.0
 16
1.0
 26
0.0
 36
0.0
 17
0.0
 27
1.0
 37
0.0
 76
     0
330
3310
331
3312
  0
LAYOUT
  5
2818
102
{ACAD_XDICTIONARY
360
34C9
102
}
102
{ACAD_REACTORS
330
2816
102
}
330
2816
100
AcDbPlotSettings
  1

  2
EPSON LP-8000S
  4

  6

 40
0.0
 41
0.0
 42
0.0
 43
0.0
 44
0.0
 45
0.0
 46
0.0
 47
0.0
 48
0.0
 49
0.0
140
0.0
141
0.0
142
1.0
143
1.0
 70
  1712
 72
     0
 73
     0
 74
     0
  7
TOWA.ctb
 75
     0
147
1.0
148
0.0
149
0.0
100
AcDbLayout
  1
Model
 70
     1
 71
     0
 10
0.0
 20
0.0
 11
12.0
 21
9.0
 12
0.0
 22
0.0
 32
0.0
 14
0.0
 24
0.0
 34
0.0
 15
0.0
 25
0.0
 35
0.0
146
0.0
 13
0.0
 23
0.0
 33
0.0
 16
1.0
 26
0.0
 36
0.0
 17
0.0
 27
1.0
 37
0.0
 76
     0
330
1A
  0
MLINESTYLE
  5
13
102
{ACAD_REACTORS
330
E
102
}
330
E
100
AcDbMlineStyle
  2
STANDARD
 70
     0
  3

 62
     0
 51
90.0
 52
90.0
 71
     2
 49
0.5
 62
   256
  6
BYLAYER
 49
-0.5
 62
   256
  6
BYLAYER
  0
ACDBPLACEHOLDER
  5
2815
102
{ACAD_REACTORS
330
2814
102
}
330
2814
  0
XRECORD
  5
34C8
102
{ACAD_REACTORS
330
34C6
102
}
330
34C6
100
AcDbXrecord
280
     1
340
2948
  0
XRECORD
  5
34C7
102
{ACAD_REACTORS
330
34C6
102
}
330
34C6
100
AcDbXrecord
280
     1
340
2947
  0
DICTIONARYVAR
  5
3486
102
{ACAD_REACTORS
330
3485
102
}
330
3485
100
DictionaryVariables
280
     0
  1
1
  0
DICTIONARYVAR
  5
3487
102
{ACAD_REACTORS
330
3485
102
}
330
3485
100
DictionaryVariables
280
     0
  1

  0
DICTIONARY
  5
34CF
330
331E
100
AcDbDictionary
280
     1
281
     1
  3
ACAD_XREC_ROUNDTRIP
360
34D0
  0
DICTIONARY
  5
34C9
330
2818
100
AcDbDictionary
280
     1
281
     1
  3
ACAD_XREC_ROUNDTRIP
360
34CA
  0
XRECORD
  5
34D0
102
{ACAD_REACTORS
330
34CF
102
}
330
34CF
100
AcDbXrecord
280
     1
102
SHADEPLOT
 70
     1
102
SHADEPLOTRESLEVEL
 70
     2
102
SHADEPLOTCUSTOMDPI
 70
   300
  0
XRECORD
  5
34CA
102
{ACAD_REACTORS
330
34C9
102
}
330
34C9
100
AcDbXrecord
280
     1
102
SHADEPLOT
 70
     0
102
SHADEPLOTRESLEVEL
 70
     2
102
SHADEPLOTCUSTOMDPI
 70
   300
  0
ENDSEC
  0
EOF
