  0
SECTION
  2
HEADER
  9
$ACADVER
  1
AC1014
  9
$ACADMAINTVER
 70
     9
  9
$DWGCODEPAGE
  3
ANSI_932
  9
$INSBASE
 10
0.0
 20
0.0
 30
0.0
  9
$EXTMIN
 10
-84.49767751786
 20
170.246718515142
 30
0.0
  9
$EXTMAX
 10
609.184644719826
 20
554.707219839992
 30
0.0
  9
$LIMMIN
 10
-360.747566795242
 20
4.457354754526
  9
$LIMMAX
 10
-162.153696144267
 20
287.675440264018
  9
$ORTHOMODE
 70
     0
  9
$REGENMODE
 70
     1
  9
$FILLMODE
 70
     1
  9
$QTEXTMODE
 70
     0
  9
$MIRRTEXT
 70
     1
  9
$DRAGMODE
 70
     2
  9
$LTSCALE
 40
1.0
  9
$OSMODE
 70
   935
  9
$ATTMODE
 70
     1
  9
$TEXTSIZE
 40
4.0
  9
$TRACEWID
 40
1.0
  9
$TEXTSTYLE
  7
STANDARD
  9
$CLAYER
  8
寸法線
  9
$CELTYPE
  6
BYLAYER
  9
$CECOLOR
 62
   256
  9
$CELTSCALE
 40
10.0
  9
$DELOBJ
 70
     1
  9
$DISPSILH
 70
     0
  9
$DIMSCALE
 40
1.0
  9
$DIMASZ
 40
6.0
  9
$DIMEXO
 40
0.625
  9
$DIMDLI
 40
3.75
  9
$DIMRND
 40
0.0
  9
$DIMDLE
 40
0.0
  9
$DIMEXE
 40
1.25
  9
$DIMTP
 40
0.1
  9
$DIMTM
 40
0.1
  9
$DIMTXT
 40
8.0
  9
$DIMCEN
 40
2.5
  9
$DIMTSZ
 40
0.0
  9
$DIMTOL
 70
     0
  9
$DIMLIM
 70
     0
  9
$DIMTIH
 70
     0
  9
$DIMTOH
 70
     0
  9
$DIMSE1
 70
     0
  9
$DIMSE2
 70
     0
  9
$DIMTAD
 70
     1
  9
$DIMZIN
 70
     8
  9
$DIMBLK
  1
OPEN30
  9
$DIMASO
 70
     1
  9
$DIMSHO
 70
     1
  9
$DIMPOST
  1

  9
$DIMAPOST
  1

  9
$DIMALT
 70
     0
  9
$DIMALTD
 70
     2
  9
$DIMALTF
 40
0.0394
  9
$DIMLFAC
 40
1.0
  9
$DIMTOFL
 70
     1
  9
$DIMTVP
 40
1.0
  9
$DIMTIX
 70
     0
  9
$DIMSOXD
 70
     0
  9
$DIMSAH
 70
     0
  9
$DIMBLK1
  1

  9
$DIMBLK2
  1

  9
$DIMSTYLE
  2
ISO-25
  9
$DIMCLRD
 70
     0
  9
$DIMCLRE
 70
     0
  9
$DIMCLRT
 70
     0
  9
$DIMTFAC
 40
1.0
  9
$DIMGAP
 40
0.625
  9
$DIMJUST
 70
     0
  9
$DIMSD1
 70
     0
  9
$DIMSD2
 70
     0
  9
$DIMTOLJ
 70
     1
  9
$DIMTZIN
 70
     0
  9
$DIMALTZ
 70
     0
  9
$DIMALTTZ
 70
     0
  9
$DIMFIT
 70
     3
  9
$DIMUPT
 70
     0
  9
$DIMUNIT
 70
     2
  9
$DIMDEC
 70
     1
  9
$DIMTDEC
 70
     1
  9
$DIMALTU
 70
     2
  9
$DIMALTTD
 70
     2
  9
$DIMTXSTY
  7
STANDARD
  9
$DIMAUNIT
 70
     0
  9
$LUNITS
 70
     2
  9
$LUPREC
 70
     4
  9
$SKETCHINC
 40
1.0
  9
$FILLETRAD
 40
1.0
  9
$AUNITS
 70
     0
  9
$AUPREC
 70
     0
  9
$MENU
  1
.
  9
$ELEVATION
 40
0.0
  9
$PELEVATION
 40
0.0
  9
$THICKNESS
 40
0.0
  9
$LIMCHECK
 70
     0
  9
$CHAMFERA
 40
0.5
  9
$CHAMFERB
 40
0.5
  9
$CHAMFERC
 40
20.0
  9
$CHAMFERD
 40
0.0
  9
$SKPOLY
 70
     0
  9
$TDCREATE
 40
2450576.597302431
  9
$TDUPDATE
 40
2457658.776234803
  9
$TDINDWG
 40
1.3224382523
  9
$TDUSRTIMER
 40
1.3224382523
  9
$USRTIMER
 70
     1
  9
$ANGBASE
 50
0.0
  9
$ANGDIR
 70
     0
  9
$PDMODE
 70
     0
  9
$PDSIZE
 40
0.0
  9
$PLINEWID
 40
0.0
  9
$COORDS
 70
     2
  9
$SPLFRAME
 70
     0
  9
$SPLINETYPE
 70
     6
  9
$SPLINESEGS
 70
     8
  9
$ATTDIA
 70
     0
  9
$ATTREQ
 70
     1
  9
$HANDLING
 70
     1
  9
$HANDSEED
  5
5454
  9
$SURFTAB1
 70
     6
  9
$SURFTAB2
 70
     6
  9
$SURFTYPE
 70
     6
  9
$SURFU
 70
     6
  9
$SURFV
 70
     6
  9
$UCSNAME
  2

  9
$UCSORG
 10
0.0
 20
0.0
 30
0.0
  9
$UCSXDIR
 10
1.0
 20
0.0
 30
0.0
  9
$UCSYDIR
 10
0.0
 20
1.0
 30
0.0
  9
$PUCSNAME
  2

  9
$PUCSORG
 10
0.0
 20
0.0
 30
0.0
  9
$PUCSXDIR
 10
1.0
 20
0.0
 30
0.0
  9
$PUCSYDIR
 10
0.0
 20
1.0
 30
0.0
  9
$USERI1
 70
     0
  9
$USERI2
 70
     0
  9
$USERI3
 70
     0
  9
$USERI4
 70
     0
  9
$USERI5
 70
     0
  9
$USERR1
 40
0.0
  9
$USERR2
 40
0.0
  9
$USERR3
 40
0.0
  9
$USERR4
 40
0.0
  9
$USERR5
 40
0.0
  9
$WORLDVIEW
 70
     1
  9
$SHADEDGE
 70
     3
  9
$SHADEDIF
 70
    70
  9
$TILEMODE
 70
     0
  9
$MAXACTVP
 70
    16
  9
$PINSBASE
 10
0.0
 20
0.0
 30
0.0
  9
$PLIMCHECK
 70
     0
  9
$PEXTMIN
 10
4.746305129083
 20
1.396645458131
 30
0.0
  9
$PEXTMAX
 10
404.746305129083
 20
281.396645458131
 30
0.0
  9
$PLIMMIN
 10
-6.946593322754
 20
-6.94658241272
  9
$PLIMMAX
 10
417.718108215332
 20
293.315276107788
  9
$UNITMODE
 70
     0
  9
$VISRETAIN
 70
     0
  9
$PLINEGEN
 70
     0
  9
$PSLTSCALE
 70
     1
  9
$TREEDEPTH
 70
  3020
  9
$PICKSTYLE
 70
     1
  9
$CMLSTYLE
  2
STANDARD
  9
$CMLJUST
 70
     0
  9
$CMLSCALE
 40
1.0
  9
$PROXYGRAPHICS
 70
     1
  9
$MEASUREMENT
 70
     1
  0
ENDSEC
  0
SECTION
  2
CLASSES
  0
CLASS
  1
ACDBDICTIONARYWDFLT
  2
AcDbDictionaryWithDefault
  3
ObjectDBX Classes
 90
        0
280
     0
281
     0
  0
CLASS
  1
ACDBPLACEHOLDER
  2
AcDbPlaceHolder
  3
ObjectDBX Classes
 90
        0
280
     0
281
     0
  0
CLASS
  1
LAYOUT
  2
AcDbLayout
  3
ObjectDBX Classes
 90
        0
280
     0
281
     0
  0
CLASS
  1
SORTENTSTABLE
  2
AcDbSortentsTable
  3
ObjectDBX Classes
 90
        0
280
     0
281
     0
  0
CLASS
  1
VISUALSTYLE
  2
AcDbVisualStyle
  3
ObjectDBX Classes
 90
     4095
280
     0
281
     0
  0
CLASS
  1
SCALE
  2
AcDbScale
  3
ObjectDBX Classes
 90
     1153
280
     0
281
     0
  0
CLASS
  1
MATERIAL
  2
AcDbMaterial
  3
ObjectDBX Classes
 90
     1153
280
     0
281
     0
  0
CLASS
  1
TABLESTYLE
  2
AcDbTableStyle
  3
ObjectDBX Classes
 90
     4095
280
     0
281
     0
  0
CLASS
  1
MLEADERSTYLE
  2
AcDbMLeaderStyle
  3
ACDB_MLEADERSTYLE_CLASS
 90
     4095
280
     0
281
     0
  0
CLASS
  1
SUN
  2
AcDbSun
  3
SCENEOE
 90
     1153
280
     0
281
     0
  0
CLASS
  1
DICTIONARYVAR
  2
AcDbDictionaryVar
  3
ObjectDBX Classes
 90
        0
280
     0
281
     0
  0
CLASS
  1
CELLSTYLEMAP
  2
AcDbCellStyleMap
  3
ObjectDBX Classes
 90
     1152
280
     0
281
     0
  0
CLASS
  1
XRECORD
  2
AcDbXrecord
  3
ObjectDBX Classes
 90
        0
280
     0
281
     0
  0
CLASS
  1
LWPOLYLINE
  2
AcDbPolyline
  3
ObjectDBX Classes
 90
        0
280
     0
281
     1
  0
CLASS
  1
HATCH
  2
AcDbHatch
  3
ObjectDBX Classes
 90
        0
280
     0
281
     1
  0
ENDSEC
  0
SECTION
  2
TABLES
  0
TABLE
  2
VPORT
  5
8
102
{ACAD_XDICTIONARY
360
544C
102
}
330
0
100
AcDbSymbolTable
 70
     4
  0
VPORT
  5
4B47
330
8
100
AcDbSymbolTableRecord
100
AcDbViewportTableRecord
  2
*ACTIVE
 70
     0
 10
0.0
 20
0.0
 11
1.0
 21
1.0
 12
262.343483600983
 22
362.476969177567
 13
0.0
 23
0.0
 14
1.0
 24
1.0
 15
0.0
 25
0.0
 16
0.0
 26
0.0
 36
1.0
 17
0.0
 27
0.0
 37
0.0
 40
402.155919983473
 41
1.759407069555
 42
50.0
 43
0.0
 44
0.0
 50
0.0
 51
0.0
 71
    16
 72
   100
 73
     1
 74
     0
 75
     0
 76
     0
 77
     0
 78
     0
  0
ENDTAB
  0
TABLE
  2
LTYPE
  5
5
330
0
100
AcDbSymbolTable
 70
     6
  0
LTYPE
  5
14
330
5
100
AcDbSymbolTableRecord
100
AcDbLinetypeTableRecord
  2
BYBLOCK
 70
     0
  3

 72
    65
 73
     0
 40
0.0
  0
LTYPE
  5
15
330
5
100
AcDbSymbolTableRecord
100
AcDbLinetypeTableRecord
  2
BYLAYER
 70
     0
  3

 72
    65
 73
     0
 40
0.0
  0
LTYPE
  5
16
330
5
100
AcDbSymbolTableRecord
100
AcDbLinetypeTableRecord
  2
CONTINUOUS
 70
     0
  3
Solid line
 72
    65
 73
     0
 40
0.0
  0
LTYPE
  5
1EC
330
5
100
AcDbSymbolTableRecord
100
AcDbLinetypeTableRecord
  2
CENTER
 70
     0
  3
____ _ ____ _ ____ _ ____ _ ____ _ ____ _ ____ 
 72
    65
 73
     4
 40
2.0
 49
1.25
 74
     0
 49
-0.25
 74
     0
 49
0.25
 74
     0
 49
-0.25
 74
     0
  0
LTYPE
  5
1ED
330
5
100
AcDbSymbolTableRecord
100
AcDbLinetypeTableRecord
  2
DASHED
 70
     0
  3
__ __ __ __ __ __ __ __ __ __ __ __ __ __ __ __
 72
    65
 73
     2
 40
0.75
 49
0.5
 74
     0
 49
-0.25
 74
     0
  0
LTYPE
  5
2B1F
330
5
100
AcDbSymbolTableRecord
100
AcDbLinetypeTableRecord
  2
DASHDOT
 70
     0
  3
一点鎖線
 72
    65
 73
     4
 40
25.6
 49
20.0
 74
     0
 49
-2.0
 74
     0
 49
1.6
 74
     0
 49
-2.0
 74
     0
  0
LTYPE
  5
31A1
330
5
100
AcDbSymbolTableRecord
100
AcDbLinetypeTableRecord
  2
CENTER2
 70
     0
  3
Center (.5x) ___ _ ___ _ ___ _ ___ _ ___ _ ___
 72
    65
 73
     4
 40
28.575
 49
19.05
 74
     0
 49
-3.175
 74
     0
 49
3.175
 74
     0
 49
-3.175
 74
     0
  0
LTYPE
  5
4002
330
5
100
AcDbSymbolTableRecord
100
AcDbLinetypeTableRecord
  2
DASHED2
 70
     0
  3
Dashed (.5x) _ _ _ _ _ _ _ _ _ _ _ _ _ _ _ _ _
 72
    65
 73
     2
 40
9.525
 49
6.35
 74
     0
 49
-3.175
 74
     0
  0
ENDTAB
  0
TABLE
  2
LAYER
  5
2
102
{ACAD_XDICTIONARY
360
29EA
102
}
330
0
100
AcDbSymbolTable
 70
    12
  0
LAYER
  5
F
330
2
100
AcDbSymbolTableRecord
100
AcDbLayerTableRecord
  2
0
 70
     0
 62
     7
  6
CONTINUOUS
  0
LAYER
  5
61
330
2
100
AcDbSymbolTableRecord
100
AcDbLayerTableRecord
  2
図枠太線
 70
     0
 62
   251
  6
CONTINUOUS
  0
LAYER
  5
62
330
2
100
AcDbSymbolTableRecord
100
AcDbLayerTableRecord
  2
図枠細線
 70
     0
 62
   252
  6
CONTINUOUS
  0
LAYER
  5
63
330
2
100
AcDbSymbolTableRecord
100
AcDbLayerTableRecord
  2
図枠ロゴマーク
 70
     0
 62
   253
  6
CONTINUOUS
  0
LAYER
  5
1EF
330
2
100
AcDbSymbolTableRecord
100
AcDbLayerTableRecord
  2
外形線
 70
     0
 62
     7
  6
CONTINUOUS
  0
LAYER
  5
1F0
330
2
100
AcDbSymbolTableRecord
100
AcDbLayerTableRecord
  2
寸法線
 70
     0
 62
     1
  6
CONTINUOUS
  0
LAYER
  5
1F1
330
2
100
AcDbSymbolTableRecord
100
AcDbLayerTableRecord
  2
中心線
 70
     0
 62
     4
  6
CENTER
  0
LAYER
  5
1F4
330
2
100
AcDbSymbolTableRecord
100
AcDbLayerTableRecord
  2
DEFPOINTS
 70
     0
 62
     7
  6
CONTINUOUS
  0
LAYER
  5
2AA2
330
2
100
AcDbSymbolTableRecord
100
AcDbLayerTableRecord
  2
下書線
 70
     0
 62
     2
  6
CONTINUOUS
  0
LAYER
  5
2AA3
330
2
100
AcDbSymbolTableRecord
100
AcDbLayerTableRecord
  2
隠れ線
 70
     0
 62
     3
  6
DASHED
  0
LAYER
  5
2AA4
330
2
100
AcDbSymbolTableRecord
100
AcDbLayerTableRecord
  2
細線
 70
     0
 62
     6
  6
CONTINUOUS
  0
LAYER
  5
2AA5
330
2
100
AcDbSymbolTableRecord
100
AcDbLayerTableRecord
  2
太線
 70
     0
 62
   190
  6
CONTINUOUS
  0
ENDTAB
  0
TABLE
  2
STYLE
  5
3
330
0
100
AcDbSymbolTable
 70
     2
  0
STYLE
  5
10
330
3
100
AcDbSymbolTableRecord
100
AcDbTextStyleTableRecord
  2
STANDARD
 70
     0
 40
0.0
 41
1.0
 50
0.0
 71
     0
 42
4.0
  3
ISOCP
  4
bigfont.shx
  0
STYLE
  5
64
330
3
100
AcDbSymbolTableRecord
100
AcDbTextStyleTableRecord
  2
EXCADSTD
 70
     0
 40
0.0
 41
1.0
 50
0.0
 71
     0
 42
0.2
  3
monotxt
  4
bigfont
  0
ENDTAB
  0
TABLE
  2
VIEW
  5
6
330
0
100
AcDbSymbolTable
 70
     0
  0
ENDTAB
  0
TABLE
  2
UCS
  5
7
330
0
100
AcDbSymbolTable
 70
     0
  0
ENDTAB
  0
TABLE
  2
APPID
  5
9
330
0
100
AcDbSymbolTable
 70
     6
  0
APPID
  5
11
330
9
100
AcDbSymbolTableRecord
100
AcDbRegAppTableRecord
  2
ACAD
 70
     0
  0
APPID
  5
3507
330
9
100
AcDbSymbolTableRecord
100
AcDbRegAppTableRecord
  2
ACAD_DIMASSOC_CALC_DIMLFAC
 70
     0
  0
APPID
  5
3508
330
9
100
AcDbSymbolTableRecord
100
AcDbRegAppTableRecord
  2
ACAD_DIMASSOC_DIMLFAC
 70
     0
  0
APPID
  5
3509
330
9
100
AcDbSymbolTableRecord
100
AcDbRegAppTableRecord
  2
ACAD_DIMASSOC_OVERRIDDEN_D
 70
     0
  0
APPID
  5
4B8B
330
9
100
AcDbSymbolTableRecord
100
AcDbRegAppTableRecord
  2
ACADANNOTATIVE
 70
     0
  0
APPID
  5
4F19
330
9
100
AcDbSymbolTableRecord
100
AcDbRegAppTableRecord
  2
ACAD_MLEADERVER
 70
     0
  0
ENDTAB
  0
TABLE
  2
DIMSTYLE
  5
A
330
0
100
AcDbSymbolTable
 70
     2
  0
DIMSTYLE
105
1D
330
A
100
AcDbSymbolTableRecord
100
AcDbDimStyleTableRecord
  2
STANDARD
 70
     0
  3

  4

  5

  6

  7

 40
1.0
 41
0.18
 42
0.0625
 43
0.38
 44
0.18
 45
0.0
 46
0.0
 47
0.0
 48
0.0
140
0.18
141
0.09
142
0.0
143
25.4
144
1.0
145
0.0
146
1.0
147
0.09
 71
     0
 72
     0
 73
     1
 74
     1
 75
     0
 76
     0
 77
     0
 78
     0
170
     0
171
     2
172
     0
173
     0
174
     0
175
     0
176
     0
177
     0
178
     0
270
     2
271
     4
272
     4
273
     2
274
     2
340
10
275
     0
280
     0
281
     0
282
     0
283
     1
284
     0
285
     0
286
     0
287
     3
288
     0
  0
DIMSTYLE
105
24
102
{ACAD_REACTORS
330
4618
330
4663
330
4845
330
499E
330
4DDD
330
4DDE
330
4DDF
330
4DE0
330
4DE1
330
4DE9
330
4E75
330
52F6
102
}
330
A
100
AcDbSymbolTableRecord
100
AcDbDimStyleTableRecord
  2
ISO-25
 70
     0
  3

  4

  5

  6

  7

 40
1.0
 41
2.5
 42
0.625
 43
3.75
 44
1.25
 45
0.0
 46
0.0
 47
0.0
 48
0.0
140
2.5
141
2.5
142
0.0
143
0.0394
144
1.0
145
1.0
146
1.0
147
0.625
 71
     0
 72
     0
 73
     1
 74
     0
 75
     0
 76
     0
 77
     1
 78
     8
170
     0
171
     2
172
     1
173
     0
174
     0
175
     0
176
     0
177
     0
178
     0
270
     2
271
     4
272
     4
273
     2
274
     2
340
10
275
     0
280
     0
281
     0
282
     0
283
     1
284
     0
285
     0
286
     0
287
     3
288
     0
  0
ENDTAB
  0
TABLE
  2
BLOCK_RECORD
  5
1
330
0
100
AcDbSymbolTable
 70
    75
  0
BLOCK_RECORD
  5
1A
330
1
100
AcDbSymbolTableRecord
100
AcDbBlockTableRecord
  2
*MODEL_SPACE
  0
BLOCK_RECORD
  5
28FB
330
1
100
AcDbSymbolTableRecord
100
AcDbBlockTableRecord
  2
*PAPER_SPACE
  0
BLOCK_RECORD
  5
65
330
1
100
AcDbSymbolTableRecord
100
AcDbBlockTableRecord
  2
A$C3392
  0
BLOCK_RECORD
  5
29BF
330
1
100
AcDbSymbolTableRecord
100
AcDbBlockTableRecord
  2
A4横用_タイトル
1001
ACAD
1000
DesignCenter Data
1002
{
1070
     1
1070
     4
1002
}
  0
BLOCK_RECORD
  5
29F4
330
1
100
AcDbSymbolTableRecord
100
AcDbBlockTableRecord
  2
A4縦用_タイトル
1001
ACAD
1000
DesignCenter Data
1002
{
1070
     1
1070
     4
1002
}
  0
BLOCK_RECORD
  5
2A32
330
1
100
AcDbSymbolTableRecord
100
AcDbBlockTableRecord
  2
A3横用_タイトル
1001
ACAD
1000
DesignCenter Data
1002
{
1070
     1
1070
     4
1002
}
  0
BLOCK_RECORD
  5
2A6C
330
1
100
AcDbSymbolTableRecord
100
AcDbBlockTableRecord
  2
A3縦用_タイトル
1001
ACAD
1000
DesignCenter Data
1002
{
1070
     1
1070
     4
1002
}
  0
BLOCK_RECORD
  5
2AF4
330
1
100
AcDbSymbolTableRecord
100
AcDbBlockTableRecord
  2
_OPEN30
  0
BLOCK_RECORD
  5
4619
330
1
100
AcDbSymbolTableRecord
100
AcDbBlockTableRecord
  2
*D13
  0
BLOCK_RECORD
  5
4664
330
1
100
AcDbSymbolTableRecord
100
AcDbBlockTableRecord
  2
*D15
  0
BLOCK_RECORD
  5
46A0
330
1
100
AcDbSymbolTableRecord
100
AcDbBlockTableRecord
  2
静電容量センサ
  0
BLOCK_RECORD
  5
4846
330
1
100
AcDbSymbolTableRecord
100
AcDbBlockTableRecord
  2
*D20
  0
BLOCK_RECORD
  5
4A1F
330
1
100
AcDbSymbolTableRecord
100
AcDbBlockTableRecord
  2
*D43
  0
BLOCK_RECORD
  5
4E26
330
1
100
AcDbSymbolTableRecord
100
AcDbBlockTableRecord
  2
*D64
  0
BLOCK_RECORD
  5
4E31
330
1
100
AcDbSymbolTableRecord
100
AcDbBlockTableRecord
  2
*D65
  0
BLOCK_RECORD
  5
4E3C
330
1
100
AcDbSymbolTableRecord
100
AcDbBlockTableRecord
  2
*D66
  0
BLOCK_RECORD
  5
4E47
330
1
100
AcDbSymbolTableRecord
100
AcDbBlockTableRecord
  2
*D67
  0
BLOCK_RECORD
  5
4E52
330
1
100
AcDbSymbolTableRecord
100
AcDbBlockTableRecord
  2
*D68
  0
BLOCK_RECORD
  5
4E6A
330
1
100
AcDbSymbolTableRecord
100
AcDbBlockTableRecord
  2
*D70
  0
BLOCK_RECORD
  5
4E76
330
1
100
AcDbSymbolTableRecord
100
AcDbBlockTableRecord
  2
*D71
  0
BLOCK_RECORD
  5
5305
330
1
100
AcDbSymbolTableRecord
100
AcDbBlockTableRecord
  2
*D74
  0
ENDTAB
  0
ENDSEC
  0
SECTION
  2
BLOCKS
  0
BLOCK
  5
1B
330
1A
100
AcDbEntity
  8
0
100
AcDbBlockBegin
  2
*MODEL_SPACE
 70
     0
 10
0.0
 20
0.0
 30
0.0
  3
*MODEL_SPACE
  1

  0
ENDBLK
  5
1C
330
1A
100
AcDbEntity
  8
0
100
AcDbBlockEnd
  0
BLOCK
  5
28FD
330
28FB
100
AcDbEntity
 67
     1
  8
0
 48
10.0
100
AcDbBlockBegin
  2
*PAPER_SPACE
 70
     0
 10
0.0
 20
0.0
 30
0.0
  3
*PAPER_SPACE
  1

  0
ENDBLK
  5
28FE
330
28FB
100
AcDbEntity
 67
     1
  8
0
 48
10.0
100
AcDbBlockEnd
  0
BLOCK
  5
93
330
65
100
AcDbEntity
  8
0
100
AcDbBlockBegin
  2
A$C3392
 70
     0
 10
0.0
 20
0.0
 30
0.0
  3
A$C3392
  1

  0
LINE
  5
66
330
65
100
AcDbEntity
  8
図枠太線
  6
CONTINUOUS
100
AcDbLine
 10
211.858584505185
 20
30.927375675439
 30
0.0
 11
211.858584505185
 21
0.927375675439
 31
0.0
  0
LINE
  5
67
330
65
100
AcDbEntity
  8
図枠細線
  6
CONTINUOUS
100
AcDbLine
 10
231.858592505185
 20
15.927377675439
 30
0.0
 11
287.858592505185
 21
15.927375675439
 31
0.0
  0
LINE
  5
68
330
65
100
AcDbEntity
  8
図枠細線
  6
CONTINUOUS
100
AcDbLine
 10
211.858592505185
 20
15.927377675439
 30
0.0
 11
231.858592505185
 21
15.927377675439
 31
0.0
  0
LINE
  5
69
330
65
100
AcDbEntity
  8
図枠太線
  6
CONTINUOUS
 62
   251
100
AcDbLine
 10
1.858584505185
 20
0.927375675439
 30
0.0
 11
1.858584505185
 21
275.927375675439
 31
0.0
  0
TEXT
  5
6A
330
65
100
AcDbEntity
  8
図枠細線
  6
CONTINUOUS
 62
   252
100
AcDbText
 10
351.358592505185
 20
28.427377675439
 30
0.0
 40
2.0
  1
ＴＩＴＬＥ
 41
0.903614457831
  7
EXCADSTD
 72
     5
 11
361.358592505185
 21
28.427377675439
 31
0.0
100
AcDbText
  0
TEXT
  5
6B
330
65
100
AcDbEntity
  8
図枠細線
  6
CONTINUOUS
 62
   252
100
AcDbText
 10
345.358592505185
 20
28.427377675439
 30
0.0
 40
2.0
  1
名称
 41
1.171875
  7
EXCADSTD
 72
     5
 11
350.358592505185
 21
28.427377675439
 31
0.0
100
AcDbText
  0
TEXT
  5
6C
330
65
100
AcDbEntity
  8
図枠細線
  6
CONTINUOUS
 62
   252
100
AcDbText
 10
274.358592505185
 20
25.927377675439
 30
0.0
 40
2.0
  1
ＤＲＡＷＮ
 41
0.882352941176
  7
EXCADSTD
 72
     5
 11
284.358592505185
 21
25.927377675439
 31
0.0
100
AcDbText
  0
TEXT
  5
6D
330
65
100
AcDbEntity
  8
図枠細線
  6
CONTINUOUS
 62
   252
100
AcDbText
 10
260.358592505185
 20
25.927377675439
 30
0.0
 40
2.0
  1
ＤＥＳＩＧＮＥＤ
 41
0.713043472041
  7
EXCADSTD
 72
     5
 11
273.478592390744
 21
25.927377675439
 31
0.0
100
AcDbText
  0
TEXT
  5
6E
330
65
100
AcDbEntity
  8
図枠細線
  6
CONTINUOUS
 62
   252
100
AcDbText
 10
246.358592505185
 20
25.927377675439
 30
0.0
 40
2.0
  1
ＣＨＥＣＫＥＤ
 41
0.831249989569
  7
EXCADSTD
 72
     5
 11
259.658592338292
 21
25.927377675439
 31
0.0
100
AcDbText
  0
TEXT
  5
6F
330
65
100
AcDbEntity
  8
図枠細線
  6
CONTINUOUS
 62
   252
100
AcDbText
 10
274.358592505185
 20
28.427377675439
 30
0.0
 40
2.0
  1
製図
 41
1.209677419355
  7
EXCADSTD
 72
     5
 11
279.358592505185
 21
28.427377675439
 31
0.0
100
AcDbText
  0
TEXT
  5
70
330
65
100
AcDbEntity
  8
図枠細線
  6
CONTINUOUS
 62
   252
100
AcDbText
 10
260.358592505185
 20
28.427377675439
 30
0.0
 40
2.0
  1
設計
 41
1.171875
  7
EXCADSTD
 72
     5
 11
265.358592505185
 21
28.427377675439
 31
0.0
100
AcDbText
  0
TEXT
  5
71
330
65
100
AcDbEntity
  8
図枠細線
  6
CONTINUOUS
 62
   252
100
AcDbText
 10
246.358592505185
 20
28.427377675439
 30
0.0
 40
2.0
  1
検図
 41
1.209677419355
  7
EXCADSTD
 72
     5
 11
251.358592505185
 21
28.427377675439
 31
0.0
100
AcDbText
  0
TEXT
  5
72
330
65
100
AcDbEntity
  8
図枠細線
  6
CONTINUOUS
 62
   252
100
AcDbText
 10
232.358592505185
 20
25.927377675439
 30
0.0
 40
2.0
  1
ＡＰＰＲＯＶＥＤ
 41
0.695652184279
  7
EXCADSTD
 72
     5
 11
245.15859269592
 21
25.927377675439
 31
0.0
100
AcDbText
  0
TEXT
  5
73
330
65
100
AcDbEntity
  8
図枠細線
  6
CONTINUOUS
 62
   252
100
AcDbText
 10
232.358592505185
 20
28.427377675439
 30
0.0
 40
2.0
  1
承認
 41
1.171875
  7
EXCADSTD
 72
     5
 11
237.358592505185
 21
28.427377675439
 31
0.0
100
AcDbText
  0
TEXT
  5
74
330
65
100
AcDbEntity
  8
図枠細線
  6
CONTINUOUS
 62
   252
100
AcDbText
 10
290.069888505185
 20
2.574868675439
 30
0.0
 40
3.5
  1
ＴＯＷＡ　ＳＥＩＤＥＮ　ＩＮＤＵＳＴＲＩＡＬ　ＣＯ．，ＬＴＤ．
 41
0.414568012377
  7
EXCADSTD
 72
     5
 11
342.692388209546
 21
2.574868675439
 31
0.0
100
AcDbText
  0
TEXT
  5
75
330
65
100
AcDbEntity
  8
図枠ロゴマーク
  6
CONTINUOUS
 62
   253
100
AcDbText
 10
290.107348505185
 20
7.519769675439
 30
0.0
 40
7.0
  1
東和制電工業株式会社
 41
0.639204545455
  7
EXCADSTD
 72
     5
 11
342.607348505185
 21
7.519769675439
 31
0.0
100
AcDbText
  0
TEXT
  5
76
330
65
100
AcDbEntity
  8
図枠細線
  6
CONTINUOUS
 62
   252
100
AcDbText
 10
232.499705505185
 20
5.759088675439
 30
0.0
 40
2.0
  1
ＰＲＯＪＥＣＴＩＯＮ
 41
0.754285710199
  7
EXCADSTD
 72
     5
 11
250.099705409817
 21
5.759088675439
 31
0.0
100
AcDbText
  0
TEXT
  5
77
330
65
100
AcDbEntity
  8
図枠細線
  6
CONTINUOUS
 62
   252
100
AcDbText
 10
232.574629505185
 20
8.681077675439
 30
0.0
 40
2.0
  1
ＴＨＩＲＤ　ＡＮＧＬＥ
 41
0.691099486738
  7
EXCADSTD
 72
     5
 11
250.174629767445
 21
8.681077675439
 31
0.0
100
AcDbText
  0
TEXT
  5
78
330
65
100
AcDbEntity
  8
図枠細線
  6
CONTINUOUS
 62
   252
100
AcDbText
 10
256.823999505185
 20
13.427377675439
 30
0.0
 40
2.0
  1
ＳＣＡＬＥ
 41
0.903614457831
  7
EXCADSTD
 72
     5
 11
266.823999505185
 21
13.427377675439
 31
0.0
100
AcDbText
  0
TEXT
  5
79
330
65
100
AcDbEntity
  8
図枠細線
  6
CONTINUOUS
 62
   252
100
AcDbText
 10
274.858592505185
 20
13.427377675439
 30
0.0
 40
2.0
  1
ＤＡＴＥ
 41
0.923076923077
  7
EXCADSTD
 72
     5
 11
282.858592505185
 21
13.427377675439
 31
0.0
100
AcDbText
  0
TEXT
  5
7A
330
65
100
AcDbEntity
  8
図枠細線
  6
CONTINUOUS
 62
   252
100
AcDbText
 10
356.358592505185
 20
13.427377675439
 30
0.0
 40
2.0
  1
ＤＲＧ．ＮＯ．
 41
0.9375
  7
EXCADSTD
 72
     5
 11
370.358592505185
 21
13.427377675439
 31
0.0
100
AcDbText
  0
TEXT
  5
7B
330
65
100
AcDbEntity
  8
図枠細線
  6
CONTINUOUS
 62
   252
100
AcDbText
 10
345.358592505185
 20
13.427377675439
 30
0.0
 40
2.0
  1
図面番号
 41
1.102941176471
  7
EXCADSTD
 72
     5
 11
355.358592505185
 21
13.427377675439
 31
0.0
100
AcDbText
  0
TEXT
  5
7C
330
65
100
AcDbEntity
  8
図枠細線
  6
CONTINUOUS
 62
   252
100
AcDbText
 10
269.358592505185
 20
13.427377675439
 30
0.0
 40
2.0
  1
日付
 41
1.171875
  7
EXCADSTD
 72
     5
 11
274.358592505185
 21
13.427377675439
 31
0.0
100
AcDbText
  0
TEXT
  5
7D
330
65
100
AcDbEntity
  8
図枠細線
  6
CONTINUOUS
 62
   252
100
AcDbText
 10
251.451512505185
 20
13.427377675439
 30
0.0
 40
2.0
  1
尺度
 41
1.171875
  7
EXCADSTD
 72
     5
 11
256.451512505185
 21
13.427377675439
 31
0.0
100
AcDbText
  0
TEXT
  5
7E
330
65
100
AcDbEntity
  8
図枠細線
  6
CONTINUOUS
 62
   252
100
AcDbText
 10
232.358592505185
 20
13.427377675439
 30
0.0
 40
2.0
  1
第三角法
 41
1.102941176471
  7
EXCADSTD
 72
     5
 11
242.358592505185
 21
13.427377675439
 31
0.0
100
AcDbText
  0
TEXT
  5
7F
330
65
100
AcDbEntity
  8
図枠細線
  6
CONTINUOUS
 62
   252
100
AcDbText
 10
212.358592505185
 20
28.427377675439
 30
0.0
 40
2.0
  1
ＮＯＴＥ
 41
0.923076923077
  7
EXCADSTD
 72
     5
 11
220.358592505185
 21
28.427377675439
 31
0.0
100
AcDbText
  0
LINE
  5
80
330
65
100
AcDbEntity
  8
図枠細線
  6
CONTINUOUS
 62
   252
100
AcDbLine
 10
287.858592505185
 20
23.427375675439
 30
0.0
 11
344.858592505185
 21
23.427375675439
 31
0.0
  0
LINE
  5
81
330
65
100
AcDbEntity
  8
図枠太線
  6
CONTINUOUS
 62
   251
100
AcDbLine
 10
287.858584505185
 20
15.927375675439
 30
0.0
 11
344.858592505185
 21
15.927375675439
 31
0.0
  0
LINE
  5
82
330
65
100
AcDbEntity
  8
図枠細線
  6
CONTINUOUS
 62
   252
100
AcDbLine
 10
344.858592505185
 20
15.927375675439
 30
0.0
 11
401.858584505185
 21
15.927375675439
 31
0.0
  0
LINE
  5
83
330
65
100
AcDbEntity
  8
図枠太線
  6
CONTINUOUS
 62
   251
100
AcDbLine
 10
344.858592505185
 20
0.927377675439
 30
0.0
 11
344.858592505185
 21
30.927375675439
 31
0.0
  0
LINE
  5
84
330
65
100
AcDbEntity
  8
図枠太線
  6
CONTINUOUS
 62
   251
100
AcDbLine
 10
287.858592505185
 20
0.927377675439
 30
0.0
 11
287.858592505185
 21
30.927375675439
 31
0.0
  0
LINE
  5
85
330
65
100
AcDbEntity
  8
図枠細線
  6
CONTINUOUS
 62
   252
100
AcDbLine
 10
268.858592505185
 20
0.927377675439
 30
0.0
 11
268.858592505185
 21
15.927375675439
 31
0.0
  0
LINE
  5
86
330
65
100
AcDbEntity
  8
図枠細線
  6
CONTINUOUS
 62
   252
100
AcDbLine
 10
250.858592505185
 20
0.927377675439
 30
0.0
 11
250.858592505185
 21
15.927375675439
 31
0.0
  0
LINE
  5
87
330
65
100
AcDbEntity
  8
図枠細線
  6
CONTINUOUS
 62
   252
100
AcDbLine
 10
273.858592505185
 20
30.927375675439
 30
0.0
 11
273.858592505185
 21
15.927375675439
 31
0.0
  0
LINE
  5
88
330
65
100
AcDbEntity
  8
図枠細線
  6
CONTINUOUS
 62
   252
100
AcDbLine
 10
259.858592505185
 20
30.927375675439
 30
0.0
 11
259.858592505185
 21
15.927375675439
 31
0.0
  0
LINE
  5
89
330
65
100
AcDbEntity
  8
図枠細線
  6
CONTINUOUS
 62
   252
100
AcDbLine
 10
245.858592505185
 20
30.927375675439
 30
0.0
 11
245.858592505185
 21
15.927375675439
 31
0.0
  0
LINE
  5
8A
330
65
100
AcDbEntity
  8
図枠太線
  6
CONTINUOUS
 62
   251
100
AcDbLine
 10
231.858592505185
 20
0.927377675439
 30
0.0
 11
231.858592505185
 21
30.927375675439
 31
0.0
  0
LINE
  5
8B
330
65
100
AcDbEntity
  8
図枠細線
  6
CONTINUOUS
 62
   252
100
AcDbLine
 10
211.858592505185
 20
25.927375675439
 30
0.0
 11
231.858592505185
 21
25.927375675439
 31
0.0
  0
LINE
  5
8C
330
65
100
AcDbEntity
  8
図枠細線
  6
CONTINUOUS
 62
   252
100
AcDbLine
 10
211.858592505185
 20
20.927375675439
 30
0.0
 11
231.858592505185
 21
20.927375675439
 31
0.0
  0
LINE
  5
8D
330
65
100
AcDbEntity
  8
図枠細線
  6
CONTINUOUS
 62
   252
100
AcDbLine
 10
211.858592505185
 20
10.927375675439
 30
0.0
 11
231.858592505185
 21
10.927375675439
 31
0.0
  0
LINE
  5
8E
330
65
100
AcDbEntity
  8
図枠細線
  6
CONTINUOUS
 62
   252
100
AcDbLine
 10
211.858592505185
 20
5.927377675439
 30
0.0
 11
231.858592505185
 21
5.927377675439
 31
0.0
  0
LINE
  5
8F
330
65
100
AcDbEntity
  8
図枠太線
  6
CONTINUOUS
 62
   251
100
AcDbLine
 10
211.858592505185
 20
30.927375675439
 30
0.0
 11
401.858584505185
 21
30.927375675439
 31
0.0
  0
LINE
  5
90
330
65
100
AcDbEntity
  8
図枠太線
  6
CONTINUOUS
 62
   251
100
AcDbLine
 10
1.858584505185
 20
275.927375675439
 30
0.0
 11
401.858584505185
 21
275.927375675439
 31
0.0
  0
LINE
  5
91
330
65
100
AcDbEntity
  8
図枠太線
  6
CONTINUOUS
 62
   251
100
AcDbLine
 10
401.858584505185
 20
0.927375675439
 30
0.0
 11
401.858584505185
 21
275.927375675439
 31
0.0
  0
LINE
  5
92
330
65
100
AcDbEntity
  8
図枠太線
  6
CONTINUOUS
 62
   251
100
AcDbLine
 10
1.858584505185
 20
0.927375675439
 30
0.0
 11
401.858584505185
 21
0.927375675439
 31
0.0
  0
ENDBLK
  5
94
330
65
100
AcDbEntity
  8
0
100
AcDbBlockEnd
  0
BLOCK
  5
29C0
330
29BF
100
AcDbEntity
  8
0
100
AcDbBlockBegin
  2
A4横用_タイトル
 70
     0
 10
0.0
 20
0.0
 30
0.0
  3
A4横用_タイトル
  1

  0
LINE
  5
29C1
330
29BF
100
AcDbEntity
  8
図枠細線
  6
CONTINUOUS
100
AcDbLine
 10
75.061011071051
 20
16.806607253358
 30
0.0
 11
144.061011071051
 21
16.806604789072
 31
0.0
  0
LINE
  5
29C2
330
29BF
100
AcDbEntity
  8
図枠細線
  6
CONTINUOUS
 62
   252
100
AcDbLine
 10
4.061011071051
 20
11.806606253358
 30
0.0
 11
75.061011071051
 21
11.806606253358
 31
0.0
  0
LINE
  5
29C3
330
29BF
100
AcDbEntity
  8
図枠細線
  6
CONTINUOUS
 62
   252
100
AcDbLine
 10
4.061011071051
 20
21.806606253358
 30
0.0
 11
75.061011071051
 21
21.806606253358
 31
0.0
  0
LINE
  5
29C4
330
29BF
100
AcDbEntity
  8
図枠細線
  6
CONTINUOUS
 62
   252
100
AcDbLine
 10
4.061011071051
 20
26.806606253358
 30
0.0
 11
75.061011071051
 21
26.806606253358
 31
0.0
  0
LINE
  5
29C5
330
29BF
100
AcDbEntity
  8
図枠細線
  6
CONTINUOUS
100
AcDbLine
 10
4.061011071051
 20
16.806608253358
 30
0.0
 11
75.061011071051
 21
16.806608253358
 31
0.0
  0
TEXT
  5
29C6
330
29BF
100
AcDbEntity
  8
図枠細線
  6
CONTINUOUS
 62
   252
100
AcDbText
 10
76.405475827713
 20
9.560308253358
 30
0.0
 40
2.0
  1
ＴＨＩＲＤ　ＡＮＧＬＥ
 41
0.691099486738
  7
EXCADSTD
 72
     5
 11
94.005476089973
 21
9.560308253358
 31
0.0
100
AcDbText
  0
TEXT
  5
29C7
330
29BF
100
AcDbEntity
  8
図枠細線
  6
CONTINUOUS
 62
   252
100
AcDbText
 10
76.705775880921
 20
14.306608253358
 30
0.0
 40
2.0
  1
第三角法
 41
1.102941176471
  7
EXCADSTD
 72
     5
 11
86.705775880921
 21
14.306608253358
 31
0.0
100
AcDbText
  0
TEXT
  5
29C8
330
29BF
100
AcDbEntity
  8
図枠細線
  6
CONTINUOUS
 62
   252
100
AcDbText
 10
76.705775880921
 20
26.806608253358
 30
0.0
 40
2.0
  1
ＡＰＰＲＯＶＥＤ
 41
0.695652184279
  7
EXCADSTD
 72
     5
 11
89.505776071656
 21
26.806608253358
 31
0.0
100
AcDbText
  0
TEXT
  5
29C9
330
29BF
100
AcDbEntity
  8
図枠細線
  6
CONTINUOUS
 62
   252
100
AcDbText
 10
76.705775880921
 20
29.306608253358
 30
0.0
 40
2.0
  1
承認
 41
1.171875
  7
EXCADSTD
 72
     5
 11
81.705775880921
 21
29.306608253358
 31
0.0
100
AcDbText
  0
LINE
  5
29CA
330
29BF
100
AcDbEntity
  8
図枠細線
  6
CONTINUOUS
 62
   252
100
AcDbLine
 10
98.061011071051
 20
31.806606253358
 30
0.0
 11
98.061011071051
 21
16.806606253358
 31
0.0
  0
TEXT
  5
29CB
330
29BF
100
AcDbEntity
  8
図枠細線
  6
CONTINUOUS
 62
   252
100
AcDbText
 10
104.216531119804
 20
14.306608253358
 30
0.0
 40
2.0
  1
ＳＣＡＬＥ
 41
0.903614457831
  7
EXCADSTD
 72
     5
 11
114.216531119804
 21
14.306608253358
 31
0.0
100
AcDbText
  0
TEXT
  5
29CC
330
29BF
100
AcDbEntity
  8
図枠細線
  6
CONTINUOUS
 62
   252
100
AcDbText
 10
98.844044119804
 20
14.306608253358
 30
0.0
 40
2.0
  1
尺度
 41
1.171875
  7
EXCADSTD
 72
     5
 11
103.844044119804
 21
14.306608253358
 31
0.0
100
AcDbText
  0
TEXT
  5
29CD
330
29BF
100
AcDbEntity
  8
図枠細線
  6
CONTINUOUS
 62
   252
100
AcDbText
 10
98.968727707497
 20
26.806608253358
 30
0.0
 40
2.0
  1
ＣＨＥＣＫＥＤ
 41
0.831249989569
  7
EXCADSTD
 72
     5
 11
112.268727540604
 21
26.806608253358
 31
0.0
100
AcDbText
  0
TEXT
  5
29CE
330
29BF
100
AcDbEntity
  8
図枠細線
  6
CONTINUOUS
 62
   252
100
AcDbText
 10
98.968727707497
 20
29.306608253358
 30
0.0
 40
2.0
  1
検図
 41
1.209677419355
  7
EXCADSTD
 72
     5
 11
103.968727707497
 21
29.306608253358
 31
0.0
100
AcDbText
  0
LINE
  5
29CF
330
29BF
100
AcDbEntity
  8
図枠細線
  6
CONTINUOUS
 62
   252
100
AcDbLine
 10
121.061011071051
 20
31.806606253358
 30
0.0
 11
121.061011071051
 21
16.806606253358
 31
0.0
  0
TEXT
  5
29D0
330
29BF
100
AcDbEntity
  8
図枠細線
  6
CONTINUOUS
 62
   252
100
AcDbText
 10
128.001465247253
 20
14.306608253358
 30
0.0
 40
2.0
  1
ＤＡＴＥ
 41
0.923076923077
  7
EXCADSTD
 72
     5
 11
136.001465247253
 21
14.306608253358
 31
0.0
100
AcDbText
  0
TEXT
  5
29D1
330
29BF
100
AcDbEntity
  8
図枠細線
  6
CONTINUOUS
 62
   252
100
AcDbText
 10
122.066415498841
 20
14.306608253358
 30
0.0
 40
2.0
  1
日付
 41
1.171875
  7
EXCADSTD
 72
     5
 11
127.066415498841
 21
14.306608253358
 31
0.0
100
AcDbText
  0
TEXT
  5
29D2
330
29BF
100
AcDbEntity
  8
図枠細線
  6
CONTINUOUS
 62
   252
100
AcDbText
 10
121.59429406571
 20
29.306608253358
 30
0.0
 40
2.0
  1
製図
 41
1.209677419355
  7
EXCADSTD
 72
     5
 11
126.59429406571
 21
29.306608253358
 31
0.0
100
AcDbText
  0
TEXT
  5
29D3
330
29BF
100
AcDbEntity
  8
図枠細線
  6
CONTINUOUS
 62
   252
100
AcDbText
 10
121.59429406571
 20
26.806608253358
 30
0.0
 40
2.0
  1
ＤＲＡＷＮ
 41
0.882352941176
  7
EXCADSTD
 72
     5
 11
131.59429406571
 21
26.806608253358
 31
0.0
100
AcDbText
  0
TEXT
  5
29D4
330
29BF
100
AcDbEntity
  8
図枠細線
  6
CONTINUOUS
 62
   252
100
AcDbText
 10
226.591229661348
 20
14.306608253358
 30
0.0
 40
2.0
  1
ＤＲＧ．ＮＯ．
 41
0.9375
  7
EXCADSTD
 72
     5
 11
240.591229661348
 21
14.306608253358
 31
0.0
100
AcDbText
  0
LINE
  5
29D5
330
29BF
100
AcDbEntity
  8
図枠太線
  6
CONTINUOUS
 62
   251
100
AcDbLine
 10
144.061003071051
 20
16.806606253358
 30
0.0
 11
214.061011071051
 21
16.806606253358
 31
0.0
  0
LINE
  5
29D6
330
29BF
100
AcDbEntity
  8
図枠細線
  6
CONTINUOUS
 62
   252
100
AcDbLine
 10
144.061011071051
 20
24.306606253358
 30
0.0
 11
214.061011071051
 21
24.306606253358
 31
0.0
  0
TEXT
  5
29D7
330
29BF
100
AcDbEntity
  8
図枠ロゴマーク
  6
CONTINUOUS
 62
   253
100
AcDbText
 10
146.433776781596
 20
8.399000253358
 30
0.0
 40
7.0
  1
東和制電工業株式会社
 41
0.80361088462
  7
EXCADSTD
 72
     5
 11
212.437017438349
 21
8.399000253358
 31
0.0
100
AcDbText
  0
TEXT
  5
29D8
330
29BF
100
AcDbEntity
  8
図枠細線
  6
CONTINUOUS
 62
   252
100
AcDbText
 10
215.156179912936
 20
14.306608253358
 30
0.0
 40
2.0
  1
図面番号
 41
1.102941176471
  7
EXCADSTD
 72
     5
 11
225.156179912936
 21
14.306608253358
 31
0.0
100
AcDbText
  0
TEXT
  5
29D9
330
29BF
100
AcDbEntity
  8
図枠細線
  6
CONTINUOUS
 62
   252
100
AcDbText
 10
221.591229661348
 20
29.306608253358
 30
0.0
 40
2.0
  1
ＴＩＴＬＥ
 41
0.903614457831
  7
EXCADSTD
 72
     5
 11
231.591229661348
 21
29.306608253358
 31
0.0
100
AcDbText
  0
TEXT
  5
29DA
330
29BF
100
AcDbEntity
  8
図枠細線
  6
CONTINUOUS
 62
   252
100
AcDbText
 10
215.156179912936
 20
29.306608253358
 30
0.0
 40
2.0
  1
名称
 41
1.171875
  7
EXCADSTD
 72
     5
 11
220.156179912936
 21
29.306608253358
 31
0.0
100
AcDbText
  0
LINE
  5
29DB
330
29BF
100
AcDbEntity
  8
図枠太線
  6
CONTINUOUS
 62
   251
100
AcDbLine
 10
4.061011071051
 20
1.806608253358
 30
0.0
 11
284.061011071051
 21
1.806608253358
 31
0.0
  0
LINE
  5
29DC
330
29BF
100
AcDbEntity
  8
図枠細線
  6
CONTINUOUS
 62
   252
100
AcDbLine
 10
4.061011071051
 20
6.806608253358
 30
0.0
 11
75.061011071051
 21
6.806608253358
 31
0.0
  0
LINE
  5
29DD
330
29BF
100
AcDbEntity
  8
図枠太線
  6
CONTINUOUS
 62
   251
100
AcDbLine
 10
75.061011071051
 20
1.806608253358
 30
0.0
 11
75.061011071051
 21
31.806606253358
 31
0.0
  0
TEXT
  5
29DE
330
29BF
100
AcDbEntity
  8
図枠細線
  6
CONTINUOUS
 62
   252
100
AcDbText
 10
76.330551827713
 20
6.638319253358
 30
0.0
 40
2.0
  1
ＰＲＯＪＥＣＴＩＯＮ
 41
0.754285710199
  7
EXCADSTD
 72
     5
 11
93.930551732346
 21
6.638319253358
 31
0.0
100
AcDbText
  0
LINE
  5
29DF
330
29BF
100
AcDbEntity
  8
図枠細線
  6
CONTINUOUS
 62
   252
100
AcDbLine
 10
98.061011071051
 20
1.806606931929
 30
0.0
 11
98.061011071051
 21
16.806604931929
 31
0.0
  0
LINE
  5
29E0
330
29BF
100
AcDbEntity
  8
図枠細線
  6
CONTINUOUS
 62
   252
100
AcDbLine
 10
121.061011071051
 20
1.806607574787
 30
0.0
 11
121.061011071051
 21
16.806605574787
 31
0.0
  0
LINE
  5
29E1
330
29BF
100
AcDbEntity
  8
図枠太線
  6
CONTINUOUS
 62
   251
100
AcDbLine
 10
284.061011071051
 20
1.806608253358
 30
0.0
 11
284.061011071051
 21
31.806606253358
 31
0.0
  0
LINE
  5
29E2
330
29BF
100
AcDbEntity
  8
図枠細線
  6
CONTINUOUS
 62
   252
100
AcDbLine
 10
214.061011071051
 20
16.806606253358
 30
0.0
 11
284.061011071051
 21
16.806606253358
 31
0.0
  0
TEXT
  5
29E3
330
29BF
100
AcDbEntity
  8
図枠細線
  6
CONTINUOUS
 62
   252
100
AcDbText
 10
146.199593676182
 20
3.454099253358
 30
0.0
 40
3.5
  1
ＴＯＷＡ　ＳＥＩＤＥＮ　ＩＮＤＵＳＴＲＩＡＬ　ＣＯ．，ＬＴＤ．
 41
0.528937826907
  7
EXCADSTD
 72
     5
 11
213.339435171588
 21
3.454099253358
 31
0.0
100
AcDbText
  0
LINE
  5
29E4
330
29BF
100
AcDbEntity
  8
図枠太線
  6
CONTINUOUS
 62
   251
100
AcDbLine
 10
144.061011071051
 20
1.806608253358
 30
0.0
 11
144.061011071051
 21
31.806606253358
 31
0.0
  0
LINE
  5
29E5
330
29BF
100
AcDbEntity
  8
図枠太線
  6
CONTINUOUS
 62
   251
100
AcDbLine
 10
214.061011071051
 20
1.806608253358
 30
0.0
 11
214.061011071051
 21
31.806606253358
 31
0.0
  0
MTEXT
  5
29E6
330
29BF
100
AcDbEntity
  8
図枠太線
100
AcDbMText
 10
5.064337346478
 20
31.010982137407
 30
0.0
 40
2.5
 41
8.67856098472
 71
     1
 72
     5
  1
{\Fmonotxt.shx,bigfont.shx|c128;図暦}
  0
LINE
  5
29E7
330
29BF
100
AcDbEntity
  8
図枠太線
  6
CONTINUOUS
 62
   251
100
AcDbLine
 10
4.061011071051
 20
1.806608253358
 30
0.0
 11
4.061011071051
 21
31.806606253358
 31
0.0
  0
TEXT
  5
29E8
330
29BF
100
AcDbEntity
  8
図枠細線
 48
10.0
100
AcDbText
 10
12.260817420402
 20
28.625419626495
 30
0.0
 40
2.0
  1
CHANGE NOTICE
100
AcDbText
  0
ENDBLK
  5
29E9
330
29BF
100
AcDbEntity
  8
0
100
AcDbBlockEnd
  0
BLOCK
  5
29F5
330
29F4
100
AcDbEntity
  8
0
100
AcDbBlockBegin
  2
A4縦用_タイトル
 70
     0
 10
0.0
 20
0.0
 30
0.0
  3
A4縦用_タイトル
  1

  0
LINE
  5
29F6
330
29F4
100
AcDbEntity
  8
図枠太線
  6
CONTINUOUS
 62
   251
100
AcDbLine
 10
2.368253864267
 20
4.525433224584
 30
0.0
 11
192.368245864267
 21
4.525433224584
 31
0.0
  0
LINE
  5
29F7
330
29F4
100
AcDbEntity
  8
図枠太線
  6
CONTINUOUS
 62
   251
100
AcDbLine
 10
78.368245864267
 20
19.525431224584
 30
0.0
 11
135.368253864267
 21
19.525431224584
 31
0.0
  0
LINE
  5
29F8
330
29F4
100
AcDbEntity
  8
図枠細線
  6
CONTINUOUS
 62
   252
100
AcDbLine
 10
78.368253864267
 20
27.025431224584
 30
0.0
 11
135.368253864267
 21
27.025431224584
 31
0.0
  0
TEXT
  5
29F9
330
29F4
100
AcDbEntity
  8
図枠ロゴマーク
  6
CONTINUOUS
 62
   253
100
AcDbText
 10
80.617009864267
 20
11.117825224584
 30
0.0
 40
7.0
  1
東和制電工業株式会社
 41
0.639204545455
  7
EXCADSTD
 72
     5
 11
133.117009864267
 21
11.117825224584
 31
0.0
100
AcDbText
  0
TEXT
  5
29FA
330
29F4
100
AcDbEntity
  8
図枠細線
  6
CONTINUOUS
 62
   252
100
AcDbText
 10
80.579549864267
 20
6.172924224584
 30
0.0
 40
3.5
  1
ＴＯＷＡ　ＳＥＩＤＥＮ　ＩＮＤＵＳＴＲＩＡＬ　ＣＯ．，ＬＴＤ．
 41
0.414568012377
  7
EXCADSTD
 72
     5
 11
133.202049568628
 21
6.172924224584
 31
0.0
100
AcDbText
  0
LINE
  5
29FB
330
29F4
100
AcDbEntity
  8
図枠太線
  6
CONTINUOUS
 62
   251
100
AcDbLine
 10
2.368253864267
 20
4.525433224584
 30
0.0
 11
2.368253864267
 21
34.525431224584
 31
0.0
  0
TEXT
  5
29FC
330
29F4
100
AcDbEntity
  8
図枠細線
  6
CONTINUOUS
 62
   252
100
AcDbText
 10
22.504308136501
 20
12.279133224584
 30
0.0
 40
2.0
  1
ＴＨＩＲＤ　ＡＮＧＬＥ
 41
0.691099486738
  7
EXCADSTD
 72
     5
 11
40.104308398762
 21
12.279133224584
 31
0.0
100
AcDbText
  0
TEXT
  5
29FD
330
29F4
100
AcDbEntity
  8
図枠細線
  6
CONTINUOUS
 62
   252
100
AcDbText
 10
22.429384136501
 20
9.357144224584
 30
0.0
 40
2.0
  1
ＰＲＯＪＥＣＴＩＯＮ
 41
0.754285710199
  7
EXCADSTD
 72
     5
 11
40.029384041134
 21
9.357144224584
 31
0.0
100
AcDbText
  0
LINE
  5
29FE
330
29F4
100
AcDbEntity
  8
図枠細線
  6
CONTINUOUS
100
AcDbLine
 10
22.368253864267
 20
19.525433224584
 30
0.0
 11
78.368253864267
 21
19.525431224584
 31
0.0
  0
TEXT
  5
29FF
330
29F4
100
AcDbEntity
  8
図枠細線
  6
CONTINUOUS
 62
   252
100
AcDbText
 10
22.868253864267
 20
17.025433224584
 30
0.0
 40
2.0
  1
第三角法
 41
1.102941176471
  7
EXCADSTD
 72
     5
 11
32.868253864267
 21
17.025433224584
 31
0.0
100
AcDbText
  0
TEXT
  5
2A00
330
29F4
100
AcDbEntity
  8
図枠細線
  6
CONTINUOUS
 62
   252
100
AcDbText
 10
22.868253864267
 20
29.525433224584
 30
0.0
 40
2.0
  1
ＡＰＰＲＯＶＥＤ
 41
0.695652184279
  7
EXCADSTD
 72
     5
 11
35.668254055002
 21
29.525433224584
 31
0.0
100
AcDbText
  0
LINE
  5
2A01
330
29F4
100
AcDbEntity
  8
図枠細線
  6
CONTINUOUS
 62
   252
100
AcDbLine
 10
2.368253864267
 20
9.525433224584
 30
0.0
 11
22.368253864267
 21
9.525433224584
 31
0.0
  0
LINE
  5
2A02
330
29F4
100
AcDbEntity
  8
図枠細線
  6
CONTINUOUS
 62
   252
100
AcDbLine
 10
2.368253864267
 20
14.525431224584
 30
0.0
 11
22.368253864267
 21
14.525431224584
 31
0.0
  0
LINE
  5
2A03
330
29F4
100
AcDbEntity
  8
図枠細線
  6
CONTINUOUS
 62
   252
100
AcDbLine
 10
2.368253864267
 20
24.525431224584
 30
0.0
 11
22.368253864267
 21
24.525431224584
 31
0.0
  0
LINE
  5
2A04
330
29F4
100
AcDbEntity
  8
図枠細線
  6
CONTINUOUS
 62
   252
100
AcDbLine
 10
2.368253864267
 20
29.525431224584
 30
0.0
 11
22.368253864267
 21
29.525431224584
 31
0.0
  0
LINE
  5
2A05
330
29F4
100
AcDbEntity
  8
図枠細線
  6
CONTINUOUS
100
AcDbLine
 10
2.368253864267
 20
19.525433224584
 30
0.0
 11
22.368253864267
 21
19.525433224584
 31
0.0
  0
TEXT
  5
2A06
330
29F4
100
AcDbEntity
  8
図枠細線
  6
CONTINUOUS
 62
   252
100
AcDbText
 10
2.868253864267
 20
32.025433224584
 30
0.0
 40
2.0
  1
ＮＯＴＥ
 41
0.923076923077
  7
EXCADSTD
 72
     5
 11
10.868253864267
 21
32.025433224584
 31
0.0
100
AcDbText
  0
LINE
  5
2A07
330
29F4
100
AcDbEntity
  8
図枠太線
  6
CONTINUOUS
 62
   251
100
AcDbLine
 10
22.368253864267
 20
4.525433224584
 30
0.0
 11
22.368253864267
 21
34.525431224584
 31
0.0
  0
TEXT
  5
2A08
330
29F4
100
AcDbEntity
  8
図枠細線
  6
CONTINUOUS
 62
   252
100
AcDbText
 10
22.868253864267
 20
32.025433224584
 30
0.0
 40
2.0
  1
承認
 41
1.171875
  7
EXCADSTD
 72
     5
 11
27.868253864267
 21
32.025433224584
 31
0.0
100
AcDbText
  0
TEXT
  5
2A09
330
29F4
100
AcDbEntity
  8
図枠細線
  6
CONTINUOUS
 62
   252
100
AcDbText
 10
60.711709035982
 20
32.025433224584
 30
0.0
 40
2.0
  1
製図
 41
1.209677419355
  7
EXCADSTD
 72
     5
 11
65.711709035982
 21
32.025433224584
 31
0.0
100
AcDbText
  0
TEXT
  5
2A0A
330
29F4
100
AcDbEntity
  8
図枠細線
  6
CONTINUOUS
 62
   252
100
AcDbText
 10
60.711709035982
 20
29.525433224584
 30
0.0
 40
2.0
  1
ＤＲＡＷＮ
 41
0.882352941176
  7
EXCADSTD
 72
     5
 11
70.711709035982
 21
29.525433224584
 31
0.0
100
AcDbText
  0
TEXT
  5
2A0B
330
29F4
100
AcDbEntity
  8
図枠細線
  6
CONTINUOUS
 62
   252
100
AcDbText
 10
60.834891743877
 20
17.025433224584
 30
0.0
 40
2.0
  1
日付
 41
1.171875
  7
EXCADSTD
 72
     5
 11
65.834891743877
 21
17.025433224584
 31
0.0
100
AcDbText
  0
TEXT
  5
2A0C
330
29F4
100
AcDbEntity
  8
図枠細線
  6
CONTINUOUS
 62
   252
100
AcDbText
 10
47.333660864267
 20
17.025433224584
 30
0.0
 40
2.0
  1
ＳＣＡＬＥ
 41
0.903614457831
  7
EXCADSTD
 72
     5
 11
57.333660864267
 21
17.025433224584
 31
0.0
100
AcDbText
  0
TEXT
  5
2A0D
330
29F4
100
AcDbEntity
  8
図枠細線
  6
CONTINUOUS
 62
   252
100
AcDbText
 10
42.281425990082
 20
29.525433224584
 30
0.0
 40
2.0
  1
ＣＨＥＣＫＥＤ
 41
0.831249989569
  7
EXCADSTD
 72
     5
 11
55.581425823189
 21
29.525433224584
 31
0.0
100
AcDbText
  0
LINE
  5
2A0E
330
29F4
100
AcDbEntity
  8
図枠細線
  6
CONTINUOUS
 62
   252
100
AcDbLine
 10
40.968253864267
 20
34.525431224584
 30
0.0
 11
40.968253864267
 21
19.525431224584
 31
0.0
  0
LINE
  5
2A0F
330
29F4
100
AcDbEntity
  8
図枠細線
  6
CONTINUOUS
 62
   252
100
AcDbLine
 10
40.968253864267
 20
4.525433224584
 30
0.0
 11
40.968253864267
 21
19.525431224584
 31
0.0
  0
TEXT
  5
2A10
330
29F4
100
AcDbEntity
  8
図枠細線
  6
CONTINUOUS
 62
   252
100
AcDbText
 10
41.961173864267
 20
17.025433224584
 30
0.0
 40
2.0
  1
尺度
 41
1.171875
  7
EXCADSTD
 72
     5
 11
46.961173864267
 21
17.025433224584
 31
0.0
100
AcDbText
  0
TEXT
  5
2A11
330
29F4
100
AcDbEntity
  8
図枠細線
  6
CONTINUOUS
 62
   252
100
AcDbText
 10
42.281425990082
 20
32.025433224584
 30
0.0
 40
2.0
  1
検図
 41
1.209677419355
  7
EXCADSTD
 72
     5
 11
47.281425990082
 21
32.025433224584
 31
0.0
100
AcDbText
  0
LINE
  5
2A12
330
29F4
100
AcDbEntity
  8
図枠細線
  6
CONTINUOUS
 62
   252
100
AcDbLine
 10
59.768253864267
 20
34.525431224584
 30
0.0
 11
59.768253864267
 21
19.525431224584
 31
0.0
  0
LINE
  5
2A13
330
29F4
100
AcDbEntity
  8
図枠細線
  6
CONTINUOUS
 62
   252
100
AcDbLine
 10
59.768253864267
 20
4.525433224584
 30
0.0
 11
59.768253864267
 21
19.525431224584
 31
0.0
  0
LINE
  5
2A14
330
29F4
100
AcDbEntity
  8
図枠太線
  6
CONTINUOUS
 62
   251
100
AcDbLine
 10
78.368253864267
 20
4.525433224584
 30
0.0
 11
78.368253864267
 21
34.525431224584
 31
0.0
  0
TEXT
  5
2A15
330
29F4
100
AcDbEntity
  8
図枠細線
  6
CONTINUOUS
 62
   252
100
AcDbText
 10
66.334891743877
 20
17.025433224584
 30
0.0
 40
2.0
  1
ＤＡＴＥ
 41
0.923076923077
  7
EXCADSTD
 72
     5
 11
74.334891743877
 21
17.025433224584
 31
0.0
100
AcDbText
  0
LINE
  5
2A16
330
29F4
100
AcDbEntity
  8
図枠細線
  6
CONTINUOUS
 62
   252
100
AcDbLine
 10
135.368253864267
 20
19.525431224584
 30
0.0
 11
192.368245864267
 21
19.525431224584
 31
0.0
  0
TEXT
  5
2A17
330
29F4
100
AcDbEntity
  8
図枠細線
  6
CONTINUOUS
 62
   252
100
AcDbText
 10
141.868253864267
 20
32.025433224584
 30
0.0
 40
2.0
  1
ＴＩＴＬＥ
 41
0.903614457831
  7
EXCADSTD
 72
     5
 11
151.868253864267
 21
32.025433224584
 31
0.0
100
AcDbText
  0
LINE
  5
2A18
330
29F4
100
AcDbEntity
  8
図枠太線
  6
CONTINUOUS
 62
   251
100
AcDbLine
 10
135.368253864267
 20
4.525433224584
 30
0.0
 11
135.368253864267
 21
34.525431224584
 31
0.0
  0
TEXT
  5
2A19
330
29F4
100
AcDbEntity
  8
図枠細線
  6
CONTINUOUS
 62
   252
100
AcDbText
 10
135.868253864267
 20
17.025433224584
 30
0.0
 40
2.0
  1
図面番号
 41
1.102941176471
  7
EXCADSTD
 72
     5
 11
145.868253864267
 21
17.025433224584
 31
0.0
100
AcDbText
  0
TEXT
  5
2A1A
330
29F4
100
AcDbEntity
  8
図枠細線
  6
CONTINUOUS
 62
   252
100
AcDbText
 10
135.868253864267
 20
32.025433224584
 30
0.0
 40
2.0
  1
名称
 41
1.171875
  7
EXCADSTD
 72
     5
 11
140.868253864267
 21
32.025433224584
 31
0.0
100
AcDbText
  0
TEXT
  5
2A1B
330
29F4
100
AcDbEntity
  8
図枠細線
  6
CONTINUOUS
 62
   252
100
AcDbText
 10
146.868253864267
 20
17.025433224584
 30
0.0
 40
2.0
  1
ＤＲＧ．ＮＯ．
 41
0.9375
  7
EXCADSTD
 72
     5
 11
160.868253864267
 21
17.025433224584
 31
0.0
100
AcDbText
  0
LINE
  5
2A1C
330
29F4
100
AcDbEntity
  8
図枠太線
  6
CONTINUOUS
 62
   251
100
AcDbLine
 10
192.368245864267
 20
4.525433224584
 30
0.0
 11
192.368245864267
 21
34.525431224584
 31
0.0
  0
ENDBLK
  5
2A1D
330
29F4
100
AcDbEntity
  8
0
100
AcDbBlockEnd
  0
BLOCK
  5
2A33
330
2A32
100
AcDbEntity
  8
0
100
AcDbBlockBegin
  2
A3横用_タイトル
 70
     0
 10
0.0
 20
0.0
 30
0.0
  3
A3横用_タイトル
  1

  0
LINE
  5
2A34
330
2A32
100
AcDbEntity
  8
図枠細線
  6
CONTINUOUS
 62
   252
100
AcDbLine
 10
205.098414535793
 20
33.525959753527
 30
0.0
 11
305.098414535793
 21
33.525959753527
 31
0.0
  0
LINE
  5
2A35
330
2A32
100
AcDbEntity
  8
図枠太線
  6
CONTINUOUS
 62
   251
100
AcDbLine
 10
205.098414535793
 20
23.525959753527
 30
0.0
 11
305.098414535793
 21
23.525959753527
 31
0.0
  0
LINE
  5
2A36
330
2A32
100
AcDbEntity
  8
図枠細線
  6
CONTINUOUS
100
AcDbLine
 10
5.098414535793
 20
23.525959753527
 30
0.0
 11
105.098414535793
 21
23.525959753527
 31
0.0
  0
LINE
  5
2A37
330
2A32
100
AcDbEntity
  8
図枠細線
  6
CONTINUOUS
 62
   252
100
AcDbLine
 10
5.098414535793
 20
36.725957753527
 30
0.0
 11
105.098414535793
 21
36.725957753527
 31
0.0
  0
LINE
  5
2A38
330
2A32
100
AcDbEntity
  8
図枠細線
  6
CONTINUOUS
 62
   252
100
AcDbLine
 10
5.098414535793
 20
30.125957753527
 30
0.0
 11
105.098414535793
 21
30.125957753527
 31
0.0
  0
LINE
  5
2A39
330
2A32
100
AcDbEntity
  8
図枠細線
  6
CONTINUOUS
 62
   252
100
AcDbLine
 10
5.098414535793
 20
16.725959753527
 30
0.0
 11
105.098414535793
 21
16.725959753527
 31
0.0
  0
LINE
  5
2A3A
330
2A32
100
AcDbEntity
  8
図枠細線
  6
CONTINUOUS
 62
   252
100
AcDbLine
 10
5.098414535793
 20
10.125959753527
 30
0.0
 11
105.098414535793
 21
10.125959753527
 31
0.0
  0
LINE
  5
2A3B
330
2A32
100
AcDbEntity
  8
図枠細線
  6
CONTINUOUS
100
AcDbLine
 10
105.098414535793
 20
23.525961753527
 30
0.0
 11
205.098414535793
 21
23.525959753527
 31
0.0
  0
LINE
  5
2A3C
330
2A32
100
AcDbEntity
  8
図枠細線
  6
CONTINUOUS
 62
   252
100
AcDbLine
 10
138.398414535793
 20
43.525959753527
 30
0.0
 11
138.398414535793
 21
18.525957753527
 31
0.0
  0
LINE
  5
2A3D
330
2A32
100
AcDbEntity
  8
図枠細線
  6
CONTINUOUS
 62
   252
100
AcDbLine
 10
171.698414535793
 20
43.525959753527
 30
0.0
 11
171.698414535793
 21
18.525957753527
 31
0.0
  0
LINE
  5
2A3E
330
2A32
100
AcDbEntity
  8
図枠細線
  6
CONTINUOUS
 62
   252
100
AcDbLine
 10
305.098414535793
 20
23.525959753527
 30
0.0
 11
405.098414535793
 21
23.525959753527
 31
0.0
  0
TEXT
  5
2A3F
330
2A32
100
AcDbEntity
  8
図枠ロゴマーク
  6
CONTINUOUS
 62
   253
100
AcDbText
 10
206.102509212755
 20
13.294257570546
 30
0.0
 40
7.0
  1
東和制電工業株式会社
 50
0.016555220185
 41
1.186384129432
  7
EXCADSTD
 72
     5
 11
303.544188309143
 21
13.322412672217
 31
0.0
100
AcDbText
  0
MTEXT
  5
2A40
330
2A32
100
AcDbEntity
  8
図枠細線
100
AcDbMText
 10
6.356764112375
 20
41.976594175478
 30
0.0
 40
2.5
 41
49.938282706292
 71
     1
 72
     5
  1
{\Fmonotxt.shx,bigfont.shx|c128;図暦　CHANGE　NOTICE}
  0
MTEXT
  5
2A41
330
2A32
100
AcDbEntity
  8
図枠細線
 48
10.0
100
AcDbMText
 10
306.544114926828
 20
41.701835800934
 30
0.0
 40
2.5
 41
28.002809618823
 71
     1
 72
     5
  1
{\Fmonotxt.shx,bigfont.shx|c128;名称　TITLE}
  0
MTEXT
  5
2A42
330
2A32
100
AcDbEntity
  8
図枠細線
 48
10.0
100
AcDbMText
 10
307.329617114284
 20
21.606206797226
 30
0.0
 40
2.5
 41
24.385612216707
 71
     1
 72
     5
  1
{\Fmonotxt.shx,bigfont.shx|c128;図面番号\PDRG.　No.}
  0
MTEXT
  5
2A43
330
2A32
100
AcDbEntity
  8
図枠細線
 48
10.0
100
AcDbMText
 10
173.726349404609
 20
21.73680662198
 30
0.0
 40
2.5
 41
25.735090160813
 71
     1
 72
     5
  1
{\Fmonotxt.shx,bigfont.shx|c128;日付 DATE}
  0
MTEXT
  5
2A44
330
2A32
100
AcDbEntity
  8
図枠細線
 48
10.0
100
AcDbMText
 10
173.48708833982
 20
41.621592044998
 30
0.0
 40
2.5
 41
24.983741184205
 71
     1
 72
     5
  1
{\Fmonotxt.shx,bigfont.shx|c128;製図　DRAWN}
  0
MTEXT
  5
2A45
330
2A32
100
AcDbEntity
  8
図枠細線
 48
10.0
100
AcDbMText
 10
139.28009927741
 20
21.866713069868
 30
0.0
 40
2.5
 41
22.629632913243
 71
     1
 72
     5
  1
{\Fmonotxt.shx,bigfont.shx|c128;尺度　SCALE}
  0
MTEXT
  5
2A46
330
2A32
100
AcDbEntity
  8
図枠細線
 48
10.0
100
AcDbMText
 10
139.910091179835
 20
41.311840415554
 30
0.0
 40
2.5
 41
28.998753428368
 71
     1
 72
     5
  1
{\Fmonotxt.shx,bigfont.shx|c128;検図  CHECKED}
  0
MTEXT
  5
2A47
330
2A32
100
AcDbEntity
  8
図枠細線
 48
10.0
100
AcDbMText
 10
114.253294667728
 20
21.916124850174
 30
0.0
 40
3.0
 41
19.692400475383
 71
     1
 72
     5
  1
{\Fmonotxt.shx,bigfont.shx|c128;第三角法}
  0
MTEXT
  5
2A48
330
2A32
100
AcDbEntity
  8
図枠細線
 48
10.0
100
AcDbMText
 10
108.986959929915
 20
15.282880185837
 30
0.0
 40
2.5
 41
27.954882823547
 71
     1
 72
     5
  1
{\Fmonotxt.shx,bigfont.shx|c128;THIRD ANGLE\PPROJECTION}
  0
MTEXT
  5
2A49
330
2A32
100
AcDbEntity
  8
図枠細線
 48
10.0
100
AcDbMText
 10
106.319432640184
 20
41.511437145487
 30
0.0
 40
2.5
 41
28.233595265074
 71
     1
 72
     5
  1
{\Fmonotxt.shx,bigfont.shx|c128;承認 APPROVED}
  0
LINE
  5
2A4A
330
2A32
100
AcDbEntity
  8
図枠太線
  6
CONTINUOUS
 62
   251
100
AcDbLine
 10
5.098414535793
 20
3.525959753527
 30
0.0
 11
405.098414535793
 21
3.525959753527
 31
0.0
  0
LINE
  5
2A4B
330
2A32
100
AcDbEntity
  8
図枠太線
 48
10.0
100
AcDbLine
 10
5.098414535793
 20
3.525959753527
 30
0.0
 11
5.098414535793
 21
43.525959753527
 31
0.0
  0
LINE
  5
2A4C
330
2A32
100
AcDbEntity
  8
図枠太線
  6
CONTINUOUS
 62
   251
100
AcDbLine
 10
105.098414535793
 20
3.525959753527
 30
0.0
 11
105.098414535793
 21
43.525959753527
 31
0.0
  0
LINE
  5
2A4D
330
2A32
100
AcDbEntity
  8
図枠細線
  6
CONTINUOUS
 62
   252
100
AcDbLine
 10
138.398414535793
 20
3.525959753527
 30
0.0
 11
138.398414535793
 21
18.525957753527
 31
0.0
  0
LINE
  5
2A4E
330
2A32
100
AcDbEntity
  8
図枠細線
  6
CONTINUOUS
 62
   252
100
AcDbLine
 10
171.698414535793
 20
3.525959753527
 30
0.0
 11
171.698414535793
 21
18.525957753527
 31
0.0
  0
LINE
  5
2A4F
330
2A32
100
AcDbEntity
  8
図枠太線
  6
CONTINUOUS
 62
   251
100
AcDbLine
 10
205.098414535793
 20
3.525959753527
 30
0.0
 11
205.098414535793
 21
43.525959753527
 31
0.0
  0
LINE
  5
2A50
330
2A32
100
AcDbEntity
  8
図枠太線
 48
10.0
100
AcDbLine
 10
405.098414535793
 20
43.525959753527
 30
0.0
 11
405.098414535793
 21
3.525959753527
 31
0.0
  0
TEXT
  5
2A51
330
2A32
100
AcDbEntity
  8
図枠細線
  6
CONTINUOUS
 62
   252
100
AcDbText
 10
208.519754474572
 20
6.482358407285
 30
0.0
 40
3.5
  1
ＴＯＷＡ　ＳＥＩＤＥＮ　ＩＮＤＵＳＴＲＩＡＬ　ＣＯ．，ＬＴＤ．
 41
0.746656297509
  7
EXCADSTD
 72
     5
 11
303.295327171727
 21
6.482358407285
 31
0.0
100
AcDbText
  0
LINE
  5
2A52
330
2A32
100
AcDbEntity
  8
図枠太線
  6
CONTINUOUS
 62
   251
100
AcDbLine
 10
305.098414535793
 20
3.525959753527
 30
0.0
 11
305.098414535793
 21
43.525959753527
 31
0.0
  0
ENDBLK
  5
2A53
330
2A32
100
AcDbEntity
  8
0
100
AcDbBlockEnd
  0
BLOCK
  5
2A6D
330
2A6C
100
AcDbEntity
  8
0
100
AcDbBlockBegin
  2
A3縦用_タイトル
 70
     0
 10
0.0
 20
0.0
 30
0.0
  3
A3縦用_タイトル
  1

  0
MTEXT
  5
2A6E
330
2A6C
100
AcDbEntity
  8
図枠細線
100
AcDbMText
 10
5.040804501593
 20
31.626098649005
 30
0.0
 40
2.5
 41
49.938282706292
 71
     1
 72
     5
  1
{\Fmonotxt.shx,bigfont.shx|c128;図暦　CHANGE　NOTICE}
  0
LINE
  5
2A6F
330
2A6C
100
AcDbEntity
  8
図枠太線
  6
CONTINUOUS
 62
   251
100
AcDbLine
 10
283.577871882961
 20
2.820844689254
 30
0.0
 11
283.577871882961
 21
32.820842689254
 31
0.0
  0
MTEXT
  5
2A70
330
2A6C
100
AcDbEntity
  8
図枠細線
 48
10.0
100
AcDbMText
 10
214.912458947454
 20
31.621488632308
 30
0.0
 40
2.5
 41
28.002809618823
 71
     1
 72
     5
  1
{\Fmonotxt.shx,bigfont.shx|c128;名称　TITLE}
  0
MTEXT
  5
2A71
330
2A6C
100
AcDbEntity
  8
図枠細線
 48
10.0
100
AcDbMText
 10
214.740030458938
 20
16.310225796722
 30
0.0
 40
2.5
 41
24.385612216707
 71
     1
 72
     5
  1
{\Fmonotxt.shx,bigfont.shx|c128;図面番号\PDRG.　No.}
  0
LINE
  5
2A72
330
2A6C
100
AcDbEntity
  8
図枠太線
  6
CONTINUOUS
 62
   251
100
AcDbLine
 10
213.577871882961
 20
2.820844689254
 30
0.0
 11
213.577871882961
 21
32.820842689254
 31
0.0
  0
LINE
  5
2A73
330
2A6C
100
AcDbEntity
  8
図枠太線
  6
CONTINUOUS
 62
   251
100
AcDbLine
 10
143.577871882961
 20
2.820844689254
 30
0.0
 11
143.577871882961
 21
32.820842689254
 31
0.0
  0
TEXT
  5
2A74
330
2A6C
100
AcDbEntity
  8
図枠細線
  6
CONTINUOUS
 62
   252
100
AcDbText
 10
145.716454488093
 20
4.468335689254
 30
0.0
 40
3.5
  1
ＴＯＷＡ　ＳＥＩＤＥＮ　ＩＮＤＵＳＴＲＩＡＬ　ＣＯ．，ＬＴＤ．
 41
0.528937826907
  7
EXCADSTD
 72
     5
 11
212.856295983498
 21
4.468335689254
 31
0.0
100
AcDbText
  0
TEXT
  5
2A75
330
2A6C
100
AcDbEntity
  8
図枠ロゴマーク
  6
CONTINUOUS
 62
   253
100
AcDbText
 10
145.950637593507
 20
9.413236689254
 30
0.0
 40
7.0
  1
東和制電工業株式会社
 41
0.80361088462
  7
EXCADSTD
 72
     5
 11
211.953878250259
 21
9.413236689254
 31
0.0
100
AcDbText
  0
LINE
  5
2A76
330
2A6C
100
AcDbEntity
  8
図枠細線
  6
CONTINUOUS
 62
   252
100
AcDbLine
 10
143.577871882961
 20
25.320842689254
 30
0.0
 11
213.577871882961
 21
25.320842689254
 31
0.0
  0
LINE
  5
2A77
330
2A6C
100
AcDbEntity
  8
図枠太線
  6
CONTINUOUS
 62
   251
100
AcDbLine
 10
143.577863882961
 20
17.820842689254
 30
0.0
 11
213.577871882961
 21
17.820842689254
 31
0.0
  0
LINE
  5
2A78
330
2A6C
100
AcDbEntity
  8
図枠細線
  6
CONTINUOUS
 62
   252
100
AcDbLine
 10
213.577871882961
 20
17.820842689254
 30
0.0
 11
283.577871882961
 21
17.820842689254
 31
0.0
  0
LINE
  5
2A79
330
2A6C
100
AcDbEntity
  8
図枠細線
  6
CONTINUOUS
 62
   252
100
AcDbLine
 10
120.577871882961
 20
32.820842689254
 30
0.0
 11
120.577871882961
 21
17.820842689254
 31
0.0
  0
MTEXT
  5
2A7A
330
2A6C
100
AcDbEntity
  8
図枠細線
 48
10.0
100
AcDbMText
 10
121.100885670352
 20
16.33785922638
 30
0.0
 40
2.0
 41
17.705978285068
 71
     1
 72
     5
  1
{\Fmonotxt.shx,bigfont.shx|c128;日付 DATE}
  0
MTEXT
  5
2A7B
330
2A6C
100
AcDbEntity
  8
図枠細線
 48
10.0
100
AcDbMText
 10
121.254842273491
 20
31.208993514037
 30
0.0
 40
2.0
 41
18.363799568758
 71
     1
 72
     5
  1
{\Fmonotxt.shx,bigfont.shx|c128;製図　DRAWN}
  0
LINE
  5
2A7C
330
2A6C
100
AcDbEntity
  8
図枠細線
  6
CONTINUOUS
 62
   252
100
AcDbLine
 10
97.577871882961
 20
32.820842689254
 30
0.0
 11
97.577871882961
 21
17.820842689254
 31
0.0
  0
MTEXT
  5
2A7D
330
2A6C
100
AcDbEntity
  8
図枠細線
 48
10.0
100
AcDbMText
 10
98.239734796872
 20
16.467764839281
 30
0.0
 40
2.0
 41
17.757791689903
 71
     1
 72
     5
  1
{\Fmonotxt.shx,bigfont.shx|c128;尺度　SCALE}
  0
MTEXT
  5
2A7E
330
2A6C
100
AcDbEntity
  8
図枠細線
 48
10.0
100
AcDbMText
 10
97.864744625154
 20
31.298433377664
 30
0.0
 40
2.0
 41
23.162655920976
 71
     1
 72
     5
  1
{\Fmonotxt.shx,bigfont.shx|c128;検図  CHECKED}
  0
LINE
  5
2A7F
330
2A6C
100
AcDbEntity
  8
図枠細線
  6
CONTINUOUS
 62
   252
100
AcDbLine
 10
97.577871882961
 20
2.820843367826
 30
0.0
 11
97.577871882961
 21
17.820841367826
 31
0.0
  0
LINE
  5
2A80
330
2A6C
100
AcDbEntity
  8
図枠細線
  6
CONTINUOUS
 62
   252
100
AcDbLine
 10
120.577871882961
 20
2.820844010683
 30
0.0
 11
120.577871882961
 21
17.820842010683
 31
0.0
  0
MTEXT
  5
2A81
330
2A6C
100
AcDbEntity
  8
図枠細線
 48
10.0
100
AcDbMText
 10
81.402399084102
 20
16.316484117426
 30
0.0
 40
2.0
 41
12.920322819369
 71
     1
 72
     5
  1
{\Fmonotxt.shx,bigfont.shx|c128;第三角法}
  0
MTEXT
  5
2A82
330
2A6C
100
AcDbEntity
  8
図枠細線
 48
10.0
100
AcDbMText
 10
75.736576535096
 20
11.080410931319
 30
0.0
 40
2.0
 41
21.072870671471
 71
     1
 72
     5
  1
{\Fmonotxt.shx,bigfont.shx|c128;THIRD ANGLE\PPROJECTION}
  0
LINE
  5
2A83
330
2A6C
100
AcDbEntity
  8
図枠太線
  6
CONTINUOUS
 62
   251
100
AcDbLine
 10
74.577871882961
 20
2.820844689254
 30
0.0
 11
74.577871882961
 21
32.820842689254
 31
0.0
  0
MTEXT
  5
2A84
330
2A6C
100
AcDbEntity
  8
図枠細線
 48
10.0
100
AcDbMText
 10
75.060214781573
 20
31.298434778555
 30
0.0
 40
2.0
 41
22.240928805967
 71
     1
 72
     5
  1
{\Fmonotxt.shx,bigfont.shx|c128;承認 APPROVED}
  0
LINE
  5
2A85
330
2A6C
100
AcDbEntity
  8
図枠細線
  6
CONTINUOUS
100
AcDbLine
 10
3.577871882961
 20
17.820844689254
 30
0.0
 11
74.577871882961
 21
17.820844689254
 31
0.0
  0
LINE
  5
2A86
330
2A6C
100
AcDbEntity
  8
図枠細線
  6
CONTINUOUS
 62
   252
100
AcDbLine
 10
3.577871882961
 20
27.820842689254
 30
0.0
 11
74.577871882961
 21
27.820842689254
 31
0.0
  0
LINE
  5
2A87
330
2A6C
100
AcDbEntity
  8
図枠細線
  6
CONTINUOUS
 62
   252
100
AcDbLine
 10
3.577871882961
 20
22.820842689254
 30
0.0
 11
74.577871882961
 21
22.820842689254
 31
0.0
  0
LINE
  5
2A88
330
2A6C
100
AcDbEntity
  8
図枠細線
  6
CONTINUOUS
 62
   252
100
AcDbLine
 10
3.577871882961
 20
12.820842689254
 30
0.0
 11
74.577871882961
 21
12.820842689254
 31
0.0
  0
LINE
  5
2A89
330
2A6C
100
AcDbEntity
  8
図枠細線
  6
CONTINUOUS
 62
   252
100
AcDbLine
 10
3.577871882961
 20
7.820844689254
 30
0.0
 11
74.577871882961
 21
7.820844689254
 31
0.0
  0
LINE
  5
2A8A
330
2A6C
100
AcDbEntity
  8
図枠細線
  6
CONTINUOUS
100
AcDbLine
 10
74.577871882961
 20
17.820843689254
 30
0.0
 11
143.577871882961
 21
17.820841224969
 31
0.0
  0
LINE
  5
2A8B
330
2A6C
100
AcDbEntity
  8
図枠太線
  6
CONTINUOUS
 62
   251
100
AcDbLine
 10
3.577871882961
 20
2.820844689254
 30
0.0
 11
283.577871882961
 21
2.820844689254
 31
0.0
  0
LINE
  5
2A8C
330
2A6C
100
AcDbEntity
  8
図枠太線
  6
CONTINUOUS
 62
   251
100
AcDbLine
 10
3.577871882961
 20
2.820844689254
 30
0.0
 11
3.577871882961
 21
32.820842689254
 31
0.0
  0
ENDBLK
  5
2A8D
330
2A6C
100
AcDbEntity
  8
0
100
AcDbBlockEnd
  0
BLOCK
  5
2AF8
330
2AF4
100
AcDbEntity
  8
0
 48
10.0
100
AcDbBlockBegin
  2
_OPEN30
 70
     0
 10
0.0
 20
0.0
 30
0.0
  3
_OPEN30
  1

  0
LINE
  5
2AF5
330
2AF4
100
AcDbEntity
  8
0
  6
BYBLOCK
 62
     0
100
AcDbLine
 10
-1.0
 20
0.26794919
 30
0.0
 11
0.0
 21
0.0
 31
0.0
  0
LINE
  5
2AF6
330
2AF4
100
AcDbEntity
  8
0
  6
BYBLOCK
 62
     0
100
AcDbLine
 10
0.0
 20
0.0
 30
0.0
 11
-1.0
 21
-0.26794919
 31
0.0
  0
LINE
  5
2AF7
330
2AF4
100
AcDbEntity
  8
0
  6
BYBLOCK
 62
     0
100
AcDbLine
 10
0.0
 20
0.0
 30
0.0
 11
-1.0
 21
0.0
 31
0.0
  0
ENDBLK
  5
2AF9
330
2AF4
100
AcDbEntity
  8
0
 48
10.0
100
AcDbBlockEnd
  0
BLOCK
  5
4623
330
4619
100
AcDbEntity
  8
0
 48
10.0
100
AcDbBlockBegin
  2
*D13
 70
     1
 10
0.0
 20
0.0
 30
0.0
  3
*D13
  1

  0
LINE
  5
4AFE
330
4619
100
AcDbEntity
  8
寸法線
 62
     0
 48
10.0
100
AcDbLine
 10
302.638468256273
 20
406.58948649626
 30
0.0
 11
302.638468256273
 21
362.151345307372
 31
0.0
  0
LINE
  5
4AFF
330
4619
100
AcDbEntity
  8
寸法線
 62
     0
 48
10.0
100
AcDbLine
 10
327.638468256272
 20
419.588796725467
 30
0.0
 11
327.638468256272
 21
362.151345307372
 31
0.0
  0
LINE
  5
4B00
330
4619
100
AcDbEntity
  8
寸法線
 62
     0
 48
10.0
100
AcDbLine
 10
308.638468256273
 20
363.401345307372
 30
0.0
 11
321.638468256272
 21
363.401345307372
 31
0.0
  0
INSERT
  5
4B01
330
4619
100
AcDbEntity
  8
寸法線
 62
     0
100
AcDbBlockReference
  2
_OPEN30
 10
302.638468256273
 20
363.401345307372
 30
0.0
 41
6.0
 42
6.0
 43
6.0
 50
180.0
  0
INSERT
  5
4B02
330
4619
100
AcDbEntity
  8
寸法線
 62
     0
100
AcDbBlockReference
  2
_OPEN30
 10
327.638468256272
 20
363.401345307372
 30
0.0
 41
6.0
 42
6.0
 43
6.0
  0
MTEXT
  5
4B03
330
4619
100
AcDbEntity
  8
寸法線
 62
     0
 48
10.0
100
AcDbMText
 10
315.138468256273
 20
368.030511974039
 30
0.0
 40
8.0
 41
0.0
 71
     5
 72
     1
  1
\A1;25
  0
POINT
  5
4B04
330
4619
100
AcDbEntity
  8
DEFPOINTS
 62
     0
100
AcDbPoint
 10
302.638468256273
 20
407.21448649626
 30
0.0
  0
POINT
  5
4B05
330
4619
100
AcDbEntity
  8
DEFPOINTS
 62
     0
100
AcDbPoint
 10
327.638468256272
 20
420.213796725467
 30
0.0
  0
POINT
  5
4B06
330
4619
100
AcDbEntity
  8
DEFPOINTS
 62
     0
100
AcDbPoint
 10
327.638468256272
 20
363.401345307372
 30
0.0
  0
ENDBLK
  5
4624
330
4619
100
AcDbEntity
  8
0
 48
10.0
100
AcDbBlockEnd
  0
BLOCK
  5
466E
330
4664
100
AcDbEntity
  8
0
 48
10.0
100
AcDbBlockBegin
  2
*D15
 70
     1
 10
0.0
 20
0.0
 30
0.0
  3
*D15
  1

  0
LINE
  5
4AEC
330
4664
100
AcDbEntity
  8
寸法線
 62
     0
 48
10.0
100
AcDbLine
 10
327.638468256273
 20
419.588796725466
 30
0.0
 11
327.638468256273
 21
362.151345307372
 31
0.0
  0
LINE
  5
4AED
330
4664
100
AcDbEntity
  8
寸法線
 62
     0
 48
10.0
100
AcDbLine
 10
347.638468256273
 20
419.588796725466
 30
0.0
 11
347.638468256273
 21
362.151345307372
 31
0.0
  0
LINE
  5
4AEE
330
4664
100
AcDbEntity
  8
寸法線
 62
     0
 48
10.0
100
AcDbLine
 10
333.638468256273
 20
363.401345307372
 30
0.0
 11
341.638468256273
 21
363.401345307372
 31
0.0
  0
INSERT
  5
4AEF
330
4664
100
AcDbEntity
  8
寸法線
 62
     0
100
AcDbBlockReference
  2
_OPEN30
 10
327.638468256273
 20
363.401345307372
 30
0.0
 41
6.0
 42
6.0
 43
6.0
 50
180.0
  0
INSERT
  5
4AF0
330
4664
100
AcDbEntity
  8
寸法線
 62
     0
100
AcDbBlockReference
  2
_OPEN30
 10
347.638468256273
 20
363.401345307372
 30
0.0
 41
6.0
 42
6.0
 43
6.0
  0
MTEXT
  5
4AF1
330
4664
100
AcDbEntity
  8
寸法線
 62
     0
 48
10.0
100
AcDbMText
 10
337.638468256273
 20
368.030511974039
 30
0.0
 40
8.0
 41
0.0
 71
     5
 72
     1
  1
\A1;20
  0
POINT
  5
4AF2
330
4664
100
AcDbEntity
  8
DEFPOINTS
 62
     0
100
AcDbPoint
 10
327.638468256273
 20
420.213796725466
 30
0.0
  0
POINT
  5
4AF3
330
4664
100
AcDbEntity
  8
DEFPOINTS
 62
     0
100
AcDbPoint
 10
347.638468256273
 20
420.213796725466
 30
0.0
  0
POINT
  5
4AF4
330
4664
100
AcDbEntity
  8
DEFPOINTS
 62
     0
100
AcDbPoint
 10
347.638468256273
 20
363.401345307372
 30
0.0
  0
ENDBLK
  5
466F
330
4664
100
AcDbEntity
  8
0
 48
10.0
100
AcDbBlockEnd
  0
BLOCK
  5
46A1
330
46A0
100
AcDbEntity
  8
0
 48
10.0
100
AcDbBlockBegin
  2
静電容量センサ
 70
     0
 10
0.0
 20
0.0
 30
0.0
  3
静電容量センサ
  1

  0
ARC
  5
46A2
330
46A0
100
AcDbEntity
  8
外形線
 48
10.0
100
AcDbCircle
 10
1021.898525663106
 20
1073.412780408912
 30
0.0
 40
1.0
100
AcDbArc
 50
180.0
 51
268.999999999998
  0
ARC
  5
46A3
330
46A0
100
AcDbEntity
  8
外形線
 48
10.0
100
AcDbCircle
 10
1021.898525663106
 20
1115.960781516243
 30
0.0
 40
1.0
100
AcDbArc
 50
91.000000000002
 51
180.0
  0
LINE
  5
46A4
330
46A0
100
AcDbEntity
  8
外形線
 48
10.0
100
AcDbLine
 10
1020.898525663106
 20
1115.960781516243
 30
0.0
 11
1020.898525663106
 21
1073.412780408912
 31
0.0
  0
LINE
  5
46A5
330
46A0
100
AcDbEntity
  8
外形線
 48
10.0
100
AcDbLine
 10
1035.026308504175
 20
1117.944859066978
 30
0.0
 11
1041.278741748243
 21
1143.02199911049
 31
0.0
  0
ARC
  5
46A6
330
46A0
100
AcDbEntity
  8
外形線
 48
10.0
100
AcDbCircle
 10
1046.130220379623
 20
1141.812389632491
 30
0.0
 40
5.0
100
AcDbArc
 50
91.3
 51
166.000000000004
  0
ARC
  5
46A7
330
46A0
100
AcDbEntity
  8
外形線
 48
10.0
100
AcDbCircle
 10
1034.056012777899
 20
1118.186780962578
 30
0.0
 40
1.0
100
AcDbArc
 50
270.0
 51
346.000000000004
  0
ARC
  5
46A8
330
46A0
100
AcDbEntity
  8
外形線
 48
10.0
100
AcDbCircle
 10
1034.056012777899
 20
1118.186780962578
 30
0.0
 40
1.0
100
AcDbArc
 50
270.0
 51
346.000000000004
  0
LINE
  5
46A9
330
46A0
100
AcDbEntity
  8
外形線
 48
10.0
100
AcDbLine
 10
1021.881073256669
 20
1116.960629211399
 30
0.0
 11
1034.056012777899
 21
1117.186780962578
 31
0.0
  0
ARC
  5
46AA
330
46A0
100
AcDbEntity
  8
外形線
 48
10.0
100
AcDbCircle
 10
1122.899564892808
 20
1151.93622955513
 30
0.0
 40
0.5
100
AcDbArc
 50
359.999254274584
 51
88.999999999998
  0
ARC
  5
46AB
330
46A0
100
AcDbEntity
  8
細線
 48
10.0
100
AcDbCircle
 10
1123.898525663106
 20
1107.819822714047
 30
0.0
 40
0.5
100
AcDbArc
 50
180.0
 51
264.089361084595
  0
ARC
  5
46AC
330
46A0
100
AcDbEntity
  8
外形線
 48
10.0
100
AcDbCircle
 10
1123.898525663106
 20
1100.44543233102
 30
0.0
 40
0.5
100
AcDbArc
 50
91.000000000002
 51
180.0
  0
ARC
  5
46AD
330
46A0
100
AcDbEntity
  8
細線
 48
10.0
100
AcDbCircle
 10
1123.898525663106
 20
1108.078641759149
 30
0.0
 40
0.5
100
AcDbArc
 50
180.0
 51
264.089361084595
  0
ARC
  5
46AE
330
46A0
100
AcDbEntity
  8
細線
 48
10.0
100
AcDbCircle
 10
1123.898525663106
 20
1129.71320712675
 30
0.0
 40
0.5
100
AcDbArc
 50
180.0
 51
254.206830951738
  0
ARC
  5
46AF
330
46A0
100
AcDbEntity
  8
細線
 48
10.0
100
AcDbCircle
 10
1123.898525663106
 20
1130.420313907937
 30
0.0
 40
0.5
100
AcDbArc
 50
180.0
 51
254.206830951738
  0
ARC
  5
46B0
330
46A0
100
AcDbEntity
  8
細線
 48
10.0
100
AcDbCircle
 10
1123.898525663106
 20
1142.359984147006
 30
0.0
 40
0.5
100
AcDbArc
 50
180.0
 51
248.874947125989
  0
ARC
  5
46B1
330
46A0
100
AcDbEntity
  8
細線
 48
10.0
100
AcDbCircle
 10
1123.898525663106
 20
1143.325909973296
 30
0.0
 40
0.5
100
AcDbArc
 50
180.0
 51
248.874947125989
  0
ARC
  5
46B2
330
46A0
100
AcDbEntity
  8
外形線
 48
10.0
100
AcDbCircle
 10
1123.898413585187
 20
1144.632076415673
 30
0.0
 40
0.5
100
AcDbArc
 50
180.019033969455
 51
248.025023881972
  0
LINE
  5
46B3
330
46A0
100
AcDbEntity
  8
外形線
 48
10.0
100
AcDbLine
 10
1123.398525663106
 20
1143.325909973296
 30
0.0
 11
1123.398525663106
 21
1144.294618045039
 31
0.0
  0
LINE
  5
46B4
330
46A0
100
AcDbEntity
  8
外形線
 48
10.0
100
AcDbLine
 10
1123.398525663106
 20
1142.359984147006
 30
0.0
 11
1123.398525663106
 21
1142.98307227703
 31
0.0
  0
LINE
  5
46B5
330
46A0
100
AcDbEntity
  8
外形線
 48
10.0
100
AcDbLine
 10
1123.398525663106
 20
1130.420313907937
 30
0.0
 11
1123.398525663106
 21
1142.017146450741
 31
0.0
  0
LINE
  5
46B6
330
46A0
100
AcDbEntity
  8
外形線
 48
10.0
100
AcDbLine
 10
1123.398525663106
 20
1129.71320712675
 30
0.0
 11
1123.398525663106
 21
1130.042120021904
 31
0.0
  0
LINE
  5
46B7
330
46A0
100
AcDbEntity
  8
外形線
 48
10.0
100
AcDbLine
 10
1123.398525663106
 20
1108.078641759149
 30
0.0
 11
1123.398525663106
 21
1130.420313907937
 31
0.0
  0
LINE
  5
46B8
330
46A0
100
AcDbEntity
  8
外形線
 48
10.0
100
AcDbLine
 10
1123.398525663106
 20
1107.819822714047
 30
0.0
 11
1123.398525663106
 21
1108.700149198143
 31
0.0
  0
LINE
  5
46B9
330
46A0
100
AcDbEntity
  8
外形線
 48
10.0
100
AcDbLine
 10
1123.398525663106
 20
1100.44543233102
 30
0.0
 11
1123.398525663106
 21
1108.078641759149
 31
0.0
  0
ARC
  5
46BA
330
46A0
100
AcDbEntity
  8
外形線
 48
10.0
100
AcDbCircle
 10
1123.898525663106
 20
1088.928129594135
 30
0.0
 40
0.5
100
AcDbArc
 50
180.0
 51
268.999999999998
  0
LINE
  5
46BB
330
46A0
100
AcDbEntity
  8
外形線
 48
10.0
100
AcDbLine
 10
1123.398525663106
 20
1088.928129594135
 30
0.0
 11
1123.398525663106
 21
1100.44543233102
 31
0.0
  0
ARC
  5
46BC
330
46A0
100
AcDbEntity
  8
外形線
 48
10.0
100
AcDbCircle
 10
1135.396646406818
 20
1087.727276821958
 30
0.0
 40
0.5
100
AcDbArc
 50
0.002863323129
 51
88.999999999998
  0
ARC
  5
46BD
330
46A0
100
AcDbEntity
  8
外形線
 48
10.0
100
AcDbCircle
 10
1135.396646406818
 20
1101.646285103198
 30
0.0
 40
0.5
100
AcDbArc
 50
271.000000000002
 51
359.997136676878
  0
ARC
  5
46BE
330
46A0
100
AcDbEntity
  8
細線
 48
10.0
100
AcDbCircle
 10
1135.398359871226
 20
1105.882746614783
 30
0.0
 40
0.5
100
AcDbArc
 50
359.978936747976
 51
84.089361084595
  0
ARC
  5
46BF
330
46A0
100
AcDbEntity
  8
細線
 48
10.0
100
AcDbCircle
 10
1135.396845195015
 20
1105.6240843805
 30
0.0
 40
0.5
100
AcDbArc
 50
359.997136676878
 51
84.089361084595
  0
ARC
  5
46C0
330
46A0
100
AcDbEntity
  8
細線
 48
10.0
100
AcDbCircle
 10
1135.398405428356
 20
1136.84472607817
 30
0.0
 40
0.5
100
AcDbArc
 50
359.997136676878
 51
68.874947125989
  0
ARC
  5
46C1
330
46A0
100
AcDbEntity
  8
細線
 48
10.0
100
AcDbCircle
 10
1135.398453699003
 20
1137.810633254114
 30
0.0
 40
0.5
100
AcDbArc
 50
359.997136676878
 51
68.874947125989
  0
ARC
  5
46C2
330
46A0
100
AcDbEntity
  8
外形線
 48
10.0
100
AcDbCircle
 10
1135.398508800797
 20
1138.913233296621
 30
0.0
 40
0.5
100
AcDbArc
 50
359.997136676878
 51
68.025023881972
  0
LINE
  5
46C3
330
46A0
100
AcDbEntity
  8
外形線
 48
10.0
100
AcDbLine
 10
1135.405372610037
 20
1101.146361255619
 30
0.0
 11
1123.889799459887
 21
1100.945356178598
 31
0.0
  0
LINE
  5
46C4
330
46A0
100
AcDbEntity
  8
外形線
 48
10.0
100
AcDbLine
 10
1135.405372610037
 20
1088.227200669536
 30
0.0
 11
1123.889799459887
 21
1088.428205746557
 31
0.0
  0
LINE
  5
46C5
330
46A0
100
AcDbEntity
  8
外形線
 48
10.0
100
AcDbLine
 10
1123.711312779708
 20
1144.168402728055
 30
0.0
 11
1135.585609606275
 21
1139.376906984239
 31
0.0
  0
LINE
  5
46C6
330
46A0
100
AcDbEntity
  8
細線
 48
10.0
100
AcDbLine
 10
1135.448333812772
 20
1106.121426237015
 30
0.0
 11
1123.847037045349
 21
1107.322480857532
 31
0.0
  0
LINE
  5
46C7
330
46A0
100
AcDbEntity
  8
細線
 48
10.0
100
AcDbLine
 10
1135.449848488983
 20
1106.380088471297
 30
0.0
 11
1123.847037045349
 21
1107.581299902634
 31
0.0
  0
LINE
  5
46C8
330
46A0
100
AcDbEntity
  8
細線
 48
10.0
100
AcDbLine
 10
1135.533952658586
 20
1126.609702933466
 30
0.0
 11
1123.762442899618
 21
1129.939188683612
 31
0.0
  0
LINE
  5
46C9
330
46A0
100
AcDbEntity
  8
細線
 48
10.0
100
AcDbLine
 10
1135.578607784566
 20
1137.311124095764
 30
0.0
 11
1123.718323306896
 21
1141.893586129411
 31
0.0
  0
LINE
  5
46CA
330
46A0
100
AcDbEntity
  8
細線
 48
10.0
100
AcDbLine
 10
1135.578656055213
 20
1138.277031271709
 30
0.0
 11
1123.718323306896
 21
1142.859511955701
 31
0.0
  0
LINE
  5
46CB
330
46A0
100
AcDbEntity
  8
外形線
 48
10.0
100
AcDbLine
 10
1108.899561566736
 20
1152.686780962578
 30
0.0
 11
1122.908291096026
 21
1152.436153402709
 31
0.0
  0
LINE
  5
46CC
330
46A0
100
AcDbEntity
  8
外形線
 48
10.0
100
AcDbLine
 10
1108.899561566736
 20
1152.686780962578
 30
0.0
 11
1108.399561566736
 21
1152.180676686204
 31
0.0
  0
LINE
  5
46CD
330
46A0
100
AcDbEntity
  8
外形線
 48
10.0
100
AcDbLine
 10
1108.399561566736
 20
1151.192885238951
 30
0.0
 11
1108.399561566736
 21
1150.692885238951
 31
0.0
  0
ARC
  5
46CE
330
46A0
100
AcDbEntity
  8
外形線
 48
10.0
100
AcDbCircle
 10
1098.998525663106
 20
1152.414559409545
 30
0.0
 40
4.4
100
AcDbArc
 50
271.3
 51
0.0
  0
LINE
  5
46CF
330
46A0
100
AcDbEntity
  8
外形線
 48
10.0
100
AcDbLine
 10
1046.016783711759
 20
1146.811102679105
 30
0.0
 11
1099.098349930826
 21
1148.015691928525
 31
0.0
  0
LINE
  5
46D0
330
46A0
100
AcDbEntity
  8
外形線
 48
10.0
100
AcDbLine
 10
1103.398525663105
 20
1152.686780962578
 30
0.0
 11
1103.398525663105
 21
1152.414559409545
 31
0.0
  0
LINE
  5
46D1
330
46A0
100
AcDbEntity
  8
外形線
 48
10.0
100
AcDbLine
 10
1106.398525663105
 20
1152.686780962578
 30
0.0
 11
1103.398525663105
 21
1152.686780962578
 31
0.0
  0
ARC
  5
46D2
330
46A0
100
AcDbEntity
  8
外形線
 48
10.0
100
AcDbCircle
 10
1107.898525663105
 20
1150.161780962577
 30
0.0
 40
1.500000000000156
100
AcDbArc
 50
70.528779365514
 51
179.999999999993
  0
LINE
  5
46D3
330
46A0
100
AcDbEntity
  8
細線
 48
10.0
100
AcDbLine
 10
1108.899561566736
 20
1152.686780962578
 30
0.0
 11
1108.899561566736
 21
1036.686780962578
 31
0.0
  0
LINE
  5
46D4
330
46A0
100
AcDbEntity
  8
細線
 48
10.0
100
AcDbLine
 10
1108.899561566736
 20
1152.680676686204
 30
0.0
 11
1108.899561566736
 21
1036.692885238951
 31
0.0
  0
LINE
  5
46D5
330
46A0
100
AcDbEntity
  8
外形線
 48
10.0
100
AcDbLine
 10
1123.398525663106
 20
1072.956444458874
 30
0.0
 11
1123.398525663106
 21
1059.660354798405
 31
0.0
  0
ARC
  5
46D6
330
46A0
100
AcDbEntity
  8
細線
 48
10.0
100
AcDbCircle
 10
1123.898525663106
 20
1047.013577778149
 30
0.0
 40
0.5
100
AcDbArc
 50
111.125052874011
 51
180.0
  0
ARC
  5
46D7
330
46A0
100
AcDbEntity
  8
細線
 48
10.0
100
AcDbCircle
 10
1123.898066965619
 20
1046.04747472476
 30
0.0
 40
0.5
100
AcDbArc
 50
111.125052874011
 51
179.923306313171
  0
ARC
  5
46D8
330
46A0
100
AcDbEntity
  8
細線
 48
10.0
100
AcDbCircle
 10
1123.898525663106
 20
1059.660354798405
 30
0.0
 40
0.5
100
AcDbArc
 50
105.793169048262
 51
180.0
  0
ARC
  5
46D9
330
46A0
100
AcDbEntity
  8
細線
 48
10.0
100
AcDbCircle
 10
1123.898525663106
 20
1058.953248017218
 30
0.0
 40
0.5
100
AcDbArc
 50
105.793169048262
 51
180.0
  0
ARC
  5
46DA
330
46A0
100
AcDbEntity
  8
細線
 48
10.0
100
AcDbCircle
 10
1123.898525663106
 20
1081.294920166006
 30
0.0
 40
0.5
100
AcDbArc
 50
95.910638915405
 51
180.0
  0
ARC
  5
46DB
330
46A0
100
AcDbEntity
  8
細線
 48
10.0
100
AcDbCircle
 10
1123.898525663106
 20
1081.553739211108
 30
0.0
 40
0.5
100
AcDbArc
 50
95.910638915405
 51
180.0
  0
LINE
  5
46DC
330
46A0
100
AcDbEntity
  8
外形線
 48
10.0
100
AcDbLine
 10
1123.398525663106
 20
1081.294920166006
 30
0.0
 11
1123.398525663106
 21
1088.928129594135
 31
0.0
  0
LINE
  5
46DD
330
46A0
100
AcDbEntity
  8
外形線
 48
10.0
100
AcDbLine
 10
1123.398525663106
 20
1081.745828707453
 30
0.0
 11
1123.398525663106
 21
1082.004647752555
 31
0.0
  0
LINE
  5
46DE
330
46A0
100
AcDbEntity
  8
外形線
 48
10.0
100
AcDbLine
 10
1123.398525663106
 20
1072.956444458874
 30
0.0
 11
1123.398525663106
 21
1081.294920166006
 31
0.0
  0
LINE
  5
46DF
330
46A0
100
AcDbEntity
  8
外形線
 48
10.0
100
AcDbLine
 10
1123.398525663106
 20
1058.953248017218
 30
0.0
 11
1123.398525663106
 21
1059.660354798405
 31
0.0
  0
LINE
  5
46E0
330
46A0
100
AcDbEntity
  8
外形線
 48
10.0
100
AcDbLine
 10
1123.398525663106
 20
1047.013577778149
 30
0.0
 11
1123.398525663106
 21
1058.953248017218
 31
0.0
  0
LINE
  5
46E1
330
46A0
100
AcDbEntity
  8
外形線
 48
10.0
100
AcDbLine
 10
1123.398067413553
 20
1046.048144003235
 30
0.0
 11
1123.398525663106
 21
1047.013577778149
 31
0.0
  0
LINE
  5
46E2
330
46A0
100
AcDbEntity
  8
外形線
 48
10.0
100
AcDbLine
 10
1123.396317242873
 20
1044.740639597053
 30
0.0
 11
1123.398067413553
 21
1046.048144003235
 31
0.0
  0
ARC
  5
46E3
330
46A0
100
AcDbEntity
  8
外形線
 48
10.0
100
AcDbCircle
 10
1123.896317242873
 20
1044.740639597053
 30
0.0
 40
0.5
100
AcDbArc
 50
111.974976118028
 51
180.0
  0
ARC
  5
46E4
330
46A0
100
AcDbEntity
  8
細線
 48
10.0
100
AcDbCircle
 10
1135.398494161258
 20
1063.952267566336
 30
0.0
 40
0.5
100
AcDbArc
 50
285.793169048262
 51
0.004772330144
  0
ARC
  5
46E5
330
46A0
100
AcDbEntity
  8
細線
 48
10.0
100
AcDbCircle
 10
1135.398525663106
 20
1063.245169695216
 30
0.0
 40
0.5
100
AcDbArc
 50
285.793169048262
 51
0.0
  0
ARC
  5
46E6
330
46A0
100
AcDbEntity
  8
細線
 48
10.0
100
AcDbCircle
 10
1135.398525663106
 20
1052.528882302126
 30
0.0
 40
0.5
100
AcDbArc
 50
291.125052874011
 51
0.0
  0
ARC
  5
46E7
330
46A0
100
AcDbEntity
  8
細線
 48
10.0
100
AcDbCircle
 10
1135.398525663106
 20
1051.562956475835
 30
0.0
 40
0.5
100
AcDbArc
 50
291.125052874011
 51
0.0
  0
ARC
  5
46E8
330
46A0
100
AcDbEntity
  8
外形線
 48
10.0
100
AcDbCircle
 10
1135.398525663106
 20
1050.460335432784
 30
0.0
 40
0.5
100
AcDbArc
 50
291.974976118028
 51
0.0
  0
LINE
  5
46E9
330
46A0
100
AcDbEntity
  8
外形線
 48
10.0
100
AcDbLine
 10
1135.898525663106
 20
1051.562956475835
 30
0.0
 11
1135.898525663106
 21
1050.460335432784
 31
0.0
  0
LINE
  5
46EA
330
46A0
100
AcDbEntity
  8
外形線
 48
10.0
100
AcDbLine
 10
1135.898525663106
 20
1052.528882302126
 30
0.0
 11
1135.898525663106
 21
1051.562956475835
 31
0.0
  0
LINE
  5
46EB
330
46A0
100
AcDbEntity
  8
外形線
 48
10.0
100
AcDbLine
 10
1135.898525663106
 20
1063.245169695216
 30
0.0
 11
1135.898525663106
 21
1052.528882302126
 31
0.0
  0
LINE
  5
46EC
330
46A0
100
AcDbEntity
  8
外形線
 48
10.0
100
AcDbLine
 10
1135.898494159523
 20
1063.952309212773
 30
0.0
 11
1135.898525663106
 21
1063.245169695216
 31
0.0
  0
LINE
  5
46ED
330
46A0
100
AcDbEntity
  8
外形線
 48
10.0
100
AcDbLine
 10
1135.896845194391
 20
1083.749502531863
 30
0.0
 11
1135.898494159523
 21
1063.952309212773
 31
0.0
  0
ARC
  5
46EE
330
46A0
100
AcDbEntity
  8
細線
 48
10.0
100
AcDbCircle
 10
1135.396794220963
 20
1083.49065322233
 30
0.0
 40
0.5
100
AcDbArc
 50
275.910638915405
 51
0.00199902817
  0
ARC
  5
46EF
330
46A0
100
AcDbEntity
  8
細線
 48
10.0
100
AcDbCircle
 10
1135.396845195015
 20
1083.749477544655
 30
0.0
 40
0.5
100
AcDbArc
 50
275.910638915405
 51
0.002863323129
  0
ARC
  5
46F0
330
46A0
100
AcDbEntity
  8
外形線
 48
10.0
100
AcDbCircle
 10
1122.897486448612
 20
1037.437296090646
 30
0.0
 40
0.5
100
AcDbArc
 50
271.000000000002
 51
359.984453673186
  0
LINE
  5
46F1
330
46A0
100
AcDbEntity
  8
外形線
 48
10.0
100
AcDbLine
 10
1135.896646406194
 20
1087.727301809166
 30
0.0
 11
1135.896794220659
 21
1083.490670667142
 31
0.0
  0
LINE
  5
46F2
330
46A0
100
AcDbEntity
  8
外形線
 48
10.0
100
AcDbLine
 10
1123.709216437395
 20
1045.204313284671
 30
0.0
 11
1135.585626468584
 21
1049.996661745166
 31
0.0
  0
LINE
  5
46F3
330
46A0
100
AcDbEntity
  8
細線
 48
10.0
100
AcDbLine
 10
1135.578728019316
 20
1052.062484284531
 30
0.0
 11
1123.718323306896
 21
1047.479975795744
 31
0.0
  0
LINE
  5
46F4
330
46A0
100
AcDbEntity
  8
細線
 48
10.0
100
AcDbLine
 10
1135.578728019316
 20
1051.09655845824
 30
0.0
 11
1123.717864609409
 21
1046.513872742355
 31
0.0
  0
LINE
  5
46F5
330
46A0
100
AcDbEntity
  8
細線
 48
10.0
100
AcDbLine
 10
1135.534608426593
 20
1062.764044470891
 30
0.0
 11
1123.762442899618
 21
1059.434373241543
 31
0.0
  0
LINE
  5
46F6
330
46A0
100
AcDbEntity
  8
細線
 48
10.0
100
AcDbLine
 10
1135.534576924746
 20
1063.471142342011
 30
0.0
 11
1123.762442899618
 21
1060.141480022729
 31
0.0
  0
LINE
  5
46F7
330
46A0
100
AcDbEntity
  8
細線
 48
10.0
100
AcDbLine
 10
1135.44828283872
 20
1082.993311365815
 30
0.0
 11
1123.847037045349
 21
1081.792262022521
 31
0.0
  0
LINE
  5
46F8
330
46A0
100
AcDbEntity
  8
細線
 48
10.0
100
AcDbLine
 10
1135.448333812772
 20
1083.25213568814
 30
0.0
 11
1123.847037045349
 21
1082.051081067623
 31
0.0
  0
LINE
  5
46F9
330
46A0
100
AcDbEntity
  8
外形線
 48
10.0
100
AcDbLine
 10
1123.399470041665
 20
1044.747733739171
 30
0.0
 11
1123.397486430207
 21
1037.437160423353
 31
0.0
  0
LINE
  5
46FA
330
46A0
100
AcDbEntity
  8
外形線
 48
10.0
100
AcDbLine
 10
1123.399564892765
 20
1151.936223047449
 30
0.0
 11
1123.397486430207
 21
1037.437160423353
 31
0.0
  0
LINE
  5
46FB
330
46A0
100
AcDbEntity
  8
外形線
 48
10.0
100
AcDbLine
 10
1108.399561566736
 20
1152.180676686204
 30
0.0
 11
1108.399561566736
 21
1037.192885238951
 31
0.0
  0
LINE
  5
46FC
330
46A0
100
AcDbEntity
  8
外形線
 48
10.0
100
AcDbLine
 10
1108.899561566736
 20
1036.686780962578
 30
0.0
 11
1122.906212651831
 21
1036.937372243068
 31
0.0
  0
LINE
  5
46FD
330
46A0
100
AcDbEntity
  8
外形線
 48
10.0
100
AcDbLine
 10
1108.899561566736
 20
1036.686780962578
 30
0.0
 11
1108.399561566736
 21
1037.192885238951
 31
0.0
  0
LINE
  5
46FE
330
46A0
100
AcDbEntity
  8
外形線
 48
10.0
100
AcDbLine
 10
1108.399561566736
 20
1038.192885238951
 30
0.0
 11
1108.399561566736
 21
1038.692885238951
 31
0.0
  0
LINE
  5
46FF
330
46A0
100
AcDbEntity
  8
外形線
 48
10.0
100
AcDbLine
 10
1035.022931603883
 20
1071.442246865485
 30
0.0
 11
1041.278741748243
 21
1046.351562814666
 31
0.0
  0
ARC
  5
4700
330
46A0
100
AcDbEntity
  8
外形線
 48
10.0
100
AcDbCircle
 10
1046.130220379623
 20
1047.561172292664
 30
0.0
 40
5.0
100
AcDbArc
 50
193.999999999996
 51
268.7
  0
ARC
  5
4701
330
46A0
100
AcDbEntity
  8
外形線
 48
10.0
100
AcDbCircle
 10
1034.052635877606
 20
1071.200324969886
 30
0.0
 40
1.0
100
AcDbArc
 50
13.999999999996
 51
89.000000000011
  0
ARC
  5
4702
330
46A0
100
AcDbEntity
  8
外形線
 48
10.0
100
AcDbCircle
 10
1069.398525663106
 20
1041.031595836918
 30
0.0
 40
1.0
100
AcDbArc
 50
0.0
 51
88.7
  0
ARC
  5
4703
330
46A0
100
AcDbEntity
  8
外形線
 48
10.0
100
AcDbCircle
 10
1071.398525663106
 20
1031.186780962577
 30
0.0
 40
1.0
100
AcDbArc
 50
180.0
 51
270.0
  0
ARC
  5
4704
330
46A0
100
AcDbEntity
  8
外形線
 48
10.0
100
AcDbCircle
 10
1105.398525663105
 20
1031.186780962577
 30
0.0
 40
1.0
100
AcDbArc
 50
270.0
 51
0.0
  0
LINE
  5
4705
330
46A0
100
AcDbEntity
  8
外形線
 48
10.0
100
AcDbLine
 10
1070.398525663106
 20
1031.186780962577
 30
0.0
 11
1070.398525663106
 21
1041.031595836918
 31
0.0
  0
LINE
  5
4706
330
46A0
100
AcDbEntity
  8
外形線
 48
10.0
100
AcDbLine
 10
1046.016783711759
 20
1042.56245924605
 30
0.0
 11
1099.098349930826
 21
1041.35786999663
 31
0.0
  0
LINE
  5
4707
330
46A0
100
AcDbEntity
  8
外形線
 48
10.0
100
AcDbLine
 10
1021.881073256668
 20
1072.412932713756
 30
0.0
 11
1034.070088284044
 21
1072.200172665042
 31
0.0
  0
LINE
  5
4708
330
46A0
100
AcDbEntity
  8
外形線
 48
10.0
100
AcDbLine
 10
1106.398525663105
 20
1040.711780962577
 30
0.0
 11
1106.398525663105
 21
1031.186780962577
 31
0.0
  0
LINE
  5
4709
330
46A0
100
AcDbEntity
  8
外形線
 48
10.0
100
AcDbLine
 10
1106.398525663105
 20
1040.711780962577
 30
0.0
 11
1106.398525663105
 21
1152.686780962578
 31
0.0
  0
LINE
  5
470A
330
46A0
100
AcDbEntity
  8
外形線
 48
10.0
100
AcDbLine
 10
1105.398525663105
 20
1030.186780962577
 30
0.0
 11
1071.398525663106
 21
1030.186780962577
 31
0.0
  0
LINE
  5
470B
330
46A0
100
AcDbEntity
  8
外形線
 48
10.0
100
AcDbLine
 10
1103.398525663106
 20
1036.95900251561
 30
0.0
 11
1103.398525663105
 21
1036.692885238951
 31
0.0
  0
LINE
  5
470C
330
46A0
100
AcDbEntity
  8
外形線
 48
10.0
100
AcDbLine
 10
1106.398525663105
 20
1036.692885238951
 30
0.0
 11
1103.398525663105
 21
1036.692885238951
 31
0.0
  0
ARC
  5
470D
330
46A0
100
AcDbEntity
  8
外形線
 48
10.0
100
AcDbCircle
 10
1107.898525663105
 20
1039.211780962577
 30
0.0
 40
1.499999999999659
100
AcDbArc
 50
179.99999999998
 51
289.471220634515
  0
ARC
  5
470E
330
46A0
100
AcDbEntity
  8
外形線
 48
10.0
100
AcDbCircle
 10
1098.998525663106
 20
1036.95900251561
 30
0.0
 40
4.4
100
AcDbArc
 50
0.0
 51
88.7
  0
LINE
  5
470F
330
46A0
100
AcDbEntity
  8
細線
 48
10.0
100
AcDbLine
 10
1103.398525663105
 20
1152.686780962578
 30
0.0
 11
1103.398525663106
 21
1036.95900251561
 31
0.0
  0
LINE
  5
4710
330
46A0
100
AcDbEntity
  8
細線
 48
10.0
100
AcDbLine
 10
1034.837298404406
 20
1072.186780962578
 30
0.0
 11
1034.840933619068
 21
1117.201361012233
 31
0.0
  0
LINE
  5
4711
330
46A0
100
AcDbEntity
  8
細線
 48
10.0
100
AcDbLine
 10
1042.201886517784
 20
1144.905639229587
 30
0.0
 11
1042.201886517784
 21
1044.467922695569
 31
0.0
  0
LINE
  5
4712
330
46A0
100
AcDbEntity
  8
外形線
 48
10.0
100
AcDbLine
 10
1135.898508800172
 20
1138.913208309413
 30
0.0
 11
1135.896646406194
 21
1101.646260115989
 31
0.0
  0
ARC
  5
4713
330
46A0
100
AcDbEntity
  8
細線
 48
10.0
100
AcDbCircle
 10
1135.397834558349
 20
1125.421480922695
 30
0.0
 40
0.5
100
AcDbArc
 50
359.997136676878
 51
74.206830951738
  0
ARC
  5
4714
330
46A0
100
AcDbEntity
  8
細線
 48
10.0
100
AcDbCircle
 10
1135.397869895098
 20
1126.128577709141
 30
0.0
 40
0.5
100
AcDbArc
 50
359.997136676878
 51
74.206830951738
  0
LINE
  5
4715
330
46A0
100
AcDbEntity
  8
細線
 48
10.0
100
AcDbLine
 10
1135.533917321837
 20
1125.90260614702
 30
0.0
 11
1123.762442899618
 21
1129.232081902426
 31
0.0
  0
LINE
  5
4716
330
46A0
100
AcDbEntity
  8
中心線
 48
10.0
100
AcDbLine
 10
1088.398525663106
 20
1052.03299312045
 30
0.0
 11
1088.398525663106
 21
1013.722487401784
 31
0.0
  0
ENDBLK
  5
4717
330
46A0
100
AcDbEntity
  8
0
 48
10.0
100
AcDbBlockEnd
  0
BLOCK
  5
4850
330
4846
100
AcDbEntity
  8
0
 48
10.0
100
AcDbBlockBegin
  2
*D20
 70
     1
 10
0.0
 20
0.0
 30
0.0
  3
*D20
  1

  0
LINE
  5
4B3D
330
4846
100
AcDbEntity
  8
寸法線
 62
     0
 48
10.0
100
AcDbLine
 10
302.638468256273
 20
362.776345307372
 30
0.0
 11
302.638468256273
 21
340.056282997388
 31
0.0
  0
LINE
  5
4B3E
330
4846
100
AcDbEntity
  8
寸法線
 62
     0
 48
10.0
100
AcDbLine
 10
437.638503829947
 20
407.626622814943
 30
0.0
 11
437.638503829947
 21
340.056282997388
 31
0.0
  0
LINE
  5
4B3F
330
4846
100
AcDbEntity
  8
寸法線
 62
     0
 48
10.0
100
AcDbLine
 10
308.638468256273
 20
341.306282997388
 30
0.0
 11
431.638503829947
 21
341.306282997388
 31
0.0
  0
INSERT
  5
4B40
330
4846
100
AcDbEntity
  8
寸法線
 62
     0
100
AcDbBlockReference
  2
_OPEN30
 10
302.638468256273
 20
341.306282997388
 30
0.0
 41
6.0
 42
6.0
 43
6.0
 50
180.0
  0
INSERT
  5
4B41
330
4846
100
AcDbEntity
  8
寸法線
 62
     0
100
AcDbBlockReference
  2
_OPEN30
 10
437.638503829947
 20
341.306282997388
 30
0.0
 41
6.0
 42
6.0
 43
6.0
  0
MTEXT
  5
4B42
330
4846
100
AcDbEntity
  8
寸法線
 62
     0
 48
10.0
100
AcDbMText
 10
370.13848604311
 20
345.935449664055
 30
0.0
 40
8.0
 41
0.0
 71
     5
 72
     1
  1
\A1;135
  0
POINT
  5
4B43
330
4846
100
AcDbEntity
  8
DEFPOINTS
 62
     0
100
AcDbPoint
 10
302.638468256273
 20
363.401345307372
 30
0.0
  0
POINT
  5
4B44
330
4846
100
AcDbEntity
  8
DEFPOINTS
 62
     0
100
AcDbPoint
 10
437.638503829947
 20
408.251622814943
 30
0.0
  0
POINT
  5
4B45
330
4846
100
AcDbEntity
  8
DEFPOINTS
 62
     0
100
AcDbPoint
 10
437.638503829947
 20
341.306282997388
 30
0.0
  0
ENDBLK
  5
4851
330
4846
100
AcDbEntity
  8
0
 48
10.0
100
AcDbBlockEnd
  0
BLOCK
  5
4A29
330
4A1F
100
AcDbEntity
  8
0
 48
10.0
100
AcDbBlockBegin
  2
*D43
 70
     1
 10
0.0
 20
0.0
 30
0.0
  3
*D43
  1

  0
LINE
  5
4AE3
330
4A1F
100
AcDbEntity
  8
寸法線
 62
     0
 48
10.0
100
AcDbLine
 10
403.386506966404
 20
478.213833833937
 30
0.0
 11
461.625
 21
478.213833833937
 31
0.0
  0
LINE
  5
4AE4
330
4A1F
100
AcDbEntity
  8
寸法線
 62
     0
 48
10.0
100
AcDbLine
 10
423.905468256273
 20
393.213796722261
 30
0.0
 11
461.625
 21
393.213796722261
 31
0.0
  0
LINE
  5
4AE5
330
4A1F
100
AcDbEntity
  8
寸法線
 62
     0
 48
10.0
100
AcDbLine
 10
460.375
 20
472.213833833937
 30
0.0
 11
460.375
 21
399.213796722261
 31
0.0
  0
INSERT
  5
4AE6
330
4A1F
100
AcDbEntity
  8
寸法線
 62
     0
100
AcDbBlockReference
  2
_OPEN30
 10
460.375
 20
478.213833833937
 30
0.0
 41
6.0
 42
6.0
 43
6.0
 50
90.0
  0
INSERT
  5
4AE7
330
4A1F
100
AcDbEntity
  8
寸法線
 62
     0
100
AcDbBlockReference
  2
_OPEN30
 10
460.375
 20
393.213796722261
 30
0.0
 41
6.0
 42
6.0
 43
6.0
 50
270.0
  0
MTEXT
  5
4AE8
330
4A1F
100
AcDbEntity
  8
寸法線
 62
     0
 48
10.0
100
AcDbMText
 10
455.741666666666
 20
435.713815278099
 30
0.0
 40
8.0
 41
0.0
 71
     5
 72
     1
  1
\A1;85
 11
0.0
 21
1.0
 31
0.0
  0
POINT
  5
4AE9
330
4A1F
100
AcDbEntity
  8
DEFPOINTS
 62
     0
100
AcDbPoint
 10
402.761506966404
 20
478.213833833937
 30
0.0
  0
POINT
  5
4AEA
330
4A1F
100
AcDbEntity
  8
DEFPOINTS
 62
     0
100
AcDbPoint
 10
423.280468256273
 20
393.213796722261
 30
0.0
  0
POINT
  5
4AEB
330
4A1F
100
AcDbEntity
  8
DEFPOINTS
 62
     0
100
AcDbPoint
 10
460.375
 20
393.213796722261
 30
0.0
  0
ENDBLK
  5
4A2A
330
4A1F
100
AcDbEntity
  8
0
 48
10.0
100
AcDbBlockEnd
  0
BLOCK
  5
4E27
330
4E26
100
AcDbEntity
  8
0
100
AcDbBlockBegin
  2
*D64
 70
     1
 10
0.0
 20
0.0
 30
0.0
  3
*D64
  1

  0
LINE
  5
4E29
330
4E26
100
AcDbEntity
  8
寸法線
 62
     0
 48
10.0
100
AcDbLine
 10
52.638468256273
 20
431.588796727988
 30
0.0
 11
52.638468256273
 21
340.056282997388
 31
0.0
  0
LINE
  5
4E2A
330
4E26
100
AcDbEntity
  8
寸法線
 62
     0
 48
10.0
100
AcDbLine
 10
302.638468256273
 20
353.089486348731
 30
0.0
 11
302.638468256273
 21
340.056282997388
 31
0.0
  0
LINE
  5
4E2B
330
4E26
100
AcDbEntity
  8
寸法線
 62
     0
 48
10.0
100
AcDbLine
 10
58.638468256273
 20
341.306282997388
 30
0.0
 11
296.638468256273
 21
341.306282997388
 31
0.0
  0
INSERT
  5
4E2C
330
4E26
100
AcDbEntity
  8
寸法線
 62
     0
100
AcDbBlockReference
  2
_OPEN30
 10
52.638468256273
 20
341.306282997388
 30
0.0
 41
6.0
 42
6.0
 43
6.0
 50
180.0
  0
INSERT
  5
4E2D
330
4E26
100
AcDbEntity
  8
寸法線
 62
     0
100
AcDbBlockReference
  2
_OPEN30
 10
302.638468256273
 20
341.306282997388
 30
0.0
 41
6.0
 42
6.0
 43
6.0
  0
POINT
  5
4E2E
330
4E26
100
AcDbEntity
  8
DEFPOINTS
 62
     0
100
AcDbPoint
 10
52.638468256273
 20
432.213796727988
 30
0.0
  0
POINT
  5
4E2F
330
4E26
100
AcDbEntity
  8
DEFPOINTS
 62
     0
100
AcDbPoint
 10
302.638468256273
 20
353.714486348731
 30
0.0
  0
POINT
  5
4E30
330
4E26
100
AcDbEntity
  8
DEFPOINTS
 62
     0
100
AcDbPoint
 10
302.638468256273
 20
341.306282997388
 30
0.0
  0
ENDBLK
  5
4E28
330
4E26
100
AcDbEntity
  8
0
100
AcDbBlockEnd
  0
BLOCK
  5
4E32
330
4E31
100
AcDbEntity
  8
0
100
AcDbBlockBegin
  2
*D65
 70
     1
 10
0.0
 20
0.0
 30
0.0
  3
*D65
  1

  0
LINE
  5
4E34
330
4E31
100
AcDbEntity
  8
寸法線
 62
     0
 48
10.0
100
AcDbLine
 10
202.638468256273
 20
427.838796727988
 30
0.0
 11
202.638468256273
 21
362.151345307372
 31
0.0
  0
LINE
  5
4E35
330
4E31
100
AcDbEntity
  8
寸法線
 62
     0
 48
10.0
100
AcDbLine
 10
302.638468256273
 20
406.58948649626
 30
0.0
 11
302.638468256273
 21
362.151345307372
 31
0.0
  0
LINE
  5
4E36
330
4E31
100
AcDbEntity
  8
寸法線
 62
     0
 48
10.0
100
AcDbLine
 10
208.638468256273
 20
363.401345307372
 30
0.0
 11
296.638468256273
 21
363.401345307372
 31
0.0
  0
INSERT
  5
4E37
330
4E31
100
AcDbEntity
  8
寸法線
 62
     0
100
AcDbBlockReference
  2
_OPEN30
 10
202.638468256273
 20
363.401345307372
 30
0.0
 41
6.0
 42
6.0
 43
6.0
 50
180.0
  0
INSERT
  5
4E38
330
4E31
100
AcDbEntity
  8
寸法線
 62
     0
100
AcDbBlockReference
  2
_OPEN30
 10
302.638468256273
 20
363.401345307372
 30
0.0
 41
6.0
 42
6.0
 43
6.0
  0
POINT
  5
4E39
330
4E31
100
AcDbEntity
  8
DEFPOINTS
 62
     0
100
AcDbPoint
 10
202.638468256273
 20
428.463796727988
 30
0.0
  0
POINT
  5
4E3A
330
4E31
100
AcDbEntity
  8
DEFPOINTS
 62
     0
100
AcDbPoint
 10
302.638468256273
 20
407.21448649626
 30
0.0
  0
POINT
  5
4E3B
330
4E31
100
AcDbEntity
  8
DEFPOINTS
 62
     0
100
AcDbPoint
 10
302.638468256273
 20
363.401345307372
 30
0.0
  0
ENDBLK
  5
4E33
330
4E31
100
AcDbEntity
  8
0
100
AcDbBlockEnd
  0
BLOCK
  5
4E3D
330
4E3C
100
AcDbEntity
  8
0
100
AcDbBlockBegin
  2
*D66
 70
     1
 10
0.0
 20
0.0
 30
0.0
  3
*D66
  1

  0
LINE
  5
4E3F
330
4E3C
100
AcDbEntity
  8
寸法線
 62
     0
 48
10.0
100
AcDbLine
 10
152.638468256273
 20
428.338796727988
 30
0.0
 11
152.638468256273
 21
362.151345307372
 31
0.0
  0
LINE
  5
4E40
330
4E3C
100
AcDbEntity
  8
寸法線
 62
     0
 48
10.0
100
AcDbLine
 10
202.638468256273
 20
427.838796727988
 30
0.0
 11
202.638468256273
 21
362.151345307372
 31
0.0
  0
LINE
  5
4E41
330
4E3C
100
AcDbEntity
  8
寸法線
 62
     0
 48
10.0
100
AcDbLine
 10
158.638468256273
 20
363.401345307372
 30
0.0
 11
196.638468256273
 21
363.401345307372
 31
0.0
  0
INSERT
  5
4E42
330
4E3C
100
AcDbEntity
  8
寸法線
 62
     0
100
AcDbBlockReference
  2
_OPEN30
 10
152.638468256273
 20
363.401345307372
 30
0.0
 41
6.0
 42
6.0
 43
6.0
 50
180.0
  0
INSERT
  5
4E43
330
4E3C
100
AcDbEntity
  8
寸法線
 62
     0
100
AcDbBlockReference
  2
_OPEN30
 10
202.638468256273
 20
363.401345307372
 30
0.0
 41
6.0
 42
6.0
 43
6.0
  0
POINT
  5
4E44
330
4E3C
100
AcDbEntity
  8
DEFPOINTS
 62
     0
100
AcDbPoint
 10
152.638468256273
 20
428.963796727988
 30
0.0
  0
POINT
  5
4E45
330
4E3C
100
AcDbEntity
  8
DEFPOINTS
 62
     0
100
AcDbPoint
 10
202.638468256273
 20
428.463796727988
 30
0.0
  0
POINT
  5
4E46
330
4E3C
100
AcDbEntity
  8
DEFPOINTS
 62
     0
100
AcDbPoint
 10
202.638468256273
 20
363.401345307372
 30
0.0
  0
ENDBLK
  5
4E3E
330
4E3C
100
AcDbEntity
  8
0
100
AcDbBlockEnd
  0
BLOCK
  5
4E48
330
4E47
100
AcDbEntity
  8
0
100
AcDbBlockBegin
  2
*D67
 70
     1
 10
0.0
 20
0.0
 30
0.0
  3
*D67
  1

  0
LINE
  5
4E4A
330
4E47
100
AcDbEntity
  8
寸法線
 62
     0
 48
10.0
100
AcDbLine
 10
52.638468256273
 20
431.588796727988
 30
0.0
 11
52.638468256273
 21
362.151345307372
 31
0.0
  0
LINE
  5
4E4B
330
4E47
100
AcDbEntity
  8
寸法線
 62
     0
 48
10.0
100
AcDbLine
 10
152.638468256273
 20
428.338796727988
 30
0.0
 11
152.638468256273
 21
362.151345307372
 31
0.0
  0
LINE
  5
4E4C
330
4E47
100
AcDbEntity
  8
寸法線
 62
     0
 48
10.0
100
AcDbLine
 10
58.638468256273
 20
363.401345307372
 30
0.0
 11
146.638468256273
 21
363.401345307372
 31
0.0
  0
INSERT
  5
4E4D
330
4E47
100
AcDbEntity
  8
寸法線
 62
     0
100
AcDbBlockReference
  2
_OPEN30
 10
52.638468256273
 20
363.401345307372
 30
0.0
 41
6.0
 42
6.0
 43
6.0
 50
180.0
  0
INSERT
  5
4E4E
330
4E47
100
AcDbEntity
  8
寸法線
 62
     0
100
AcDbBlockReference
  2
_OPEN30
 10
152.638468256273
 20
363.401345307372
 30
0.0
 41
6.0
 42
6.0
 43
6.0
  0
POINT
  5
4E4F
330
4E47
100
AcDbEntity
  8
DEFPOINTS
 62
     0
100
AcDbPoint
 10
52.638468256273
 20
432.213796727988
 30
0.0
  0
POINT
  5
4E50
330
4E47
100
AcDbEntity
  8
DEFPOINTS
 62
     0
100
AcDbPoint
 10
152.638468256273
 20
428.963796727988
 30
0.0
  0
POINT
  5
4E51
330
4E47
100
AcDbEntity
  8
DEFPOINTS
 62
     0
100
AcDbPoint
 10
152.638468256273
 20
363.401345307372
 30
0.0
  0
ENDBLK
  5
4E49
330
4E47
100
AcDbEntity
  8
0
100
AcDbBlockEnd
  0
BLOCK
  5
4E53
330
4E52
100
AcDbEntity
  8
0
100
AcDbBlockBegin
  2
*D68
 70
     1
 10
0.0
 20
0.0
 30
0.0
  3
*D68
  1

  0
LINE
  5
4E55
330
4E52
100
AcDbEntity
  8
寸法線
 62
     0
 48
10.0
100
AcDbLine
 10
190.0
 20
449.963796727988
 30
0.0
 11
190.0
 21
481.512815486271
 31
0.0
  0
LINE
  5
4E56
330
4E52
100
AcDbEntity
  8
寸法線
 62
     0
 48
10.0
100
AcDbLine
 10
190.0
 20
443.963796727988
 30
0.0
 11
190.0
 21
434.463796727988
 31
0.0
  0
INSERT
  5
4E57
330
4E52
100
AcDbEntity
  8
寸法線
 62
     0
100
AcDbBlockReference
  2
_OPEN30
 10
190.0
 20
449.963796727988
 30
0.0
 41
6.0
 42
6.0
 43
6.0
 50
90.0
  0
INSERT
  5
4E58
330
4E52
100
AcDbEntity
  8
寸法線
 62
     0
100
AcDbBlockReference
  2
_OPEN30
 10
190.0
 20
428.463796727988
 30
0.0
 41
6.0
 42
6.0
 43
6.0
 50
270.0
  0
MTEXT
  5
4E59
330
4E52
100
AcDbEntity
  8
寸法線
 62
     0
 48
10.0
100
AcDbMText
 10
185.370833333333
 20
468.954482152938
 30
0.0
 40
8.0
 41
0.0
 71
     5
 72
     1
  1
\A1;φ21.5
 11
0.0
 21
1.0
 31
0.0
  0
POINT
  5
4E5A
330
4E52
100
AcDbEntity
  8
DEFPOINTS
 62
     0
100
AcDbPoint
 10
202.638468256273
 20
449.963796727988
 30
0.0
  0
POINT
  5
4E5B
330
4E52
100
AcDbEntity
  8
DEFPOINTS
 62
     0
100
AcDbPoint
 10
202.638468256273
 20
428.463796727988
 30
0.0
  0
POINT
  5
4E5C
330
4E52
100
AcDbEntity
  8
DEFPOINTS
 62
     0
100
AcDbPoint
 10
190.0
 20
428.463796727988
 30
0.0
  0
ENDBLK
  5
4E54
330
4E52
100
AcDbEntity
  8
0
100
AcDbBlockEnd
  0
BLOCK
  5
4E6B
330
4E6A
100
AcDbEntity
  8
0
100
AcDbBlockBegin
  2
*D70
 70
     1
 10
0.0
 20
0.0
 30
0.0
  3
*D70
  1

  0
LINE
  5
4E6D
330
4E6A
100
AcDbEntity
  8
寸法線
 62
     0
 48
10.0
100
AcDbLine
 10
277.503245931181
 20
449.963796727988
 30
0.0
 11
277.503245931181
 21
481.512815486271
 31
0.0
  0
LINE
  5
4E6E
330
4E6A
100
AcDbEntity
  8
寸法線
 62
     0
 48
10.0
100
AcDbLine
 10
277.503245931181
 20
443.963796727988
 30
0.0
 11
277.503245931181
 21
434.463796727988
 31
0.0
  0
INSERT
  5
4E6F
330
4E6A
100
AcDbEntity
  8
寸法線
 62
     0
100
AcDbBlockReference
  2
_OPEN30
 10
277.503245931181
 20
449.963796727988
 30
0.0
 41
6.0
 42
6.0
 43
6.0
 50
90.0
  0
INSERT
  5
4E70
330
4E6A
100
AcDbEntity
  8
寸法線
 62
     0
100
AcDbBlockReference
  2
_OPEN30
 10
277.503245931181
 20
428.463796727988
 30
0.0
 41
6.0
 42
6.0
 43
6.0
 50
270.0
  0
MTEXT
  5
4E71
330
4E6A
100
AcDbEntity
  8
寸法線
 62
     0
 48
10.0
100
AcDbMText
 10
272.874079264514
 20
468.954482152938
 30
0.0
 40
8.0
 41
0.0
 71
     5
 72
     1
  1
\A1;φ21.5
 11
0.0
 21
1.0
 31
0.0
  0
POINT
  5
4E72
330
4E6A
100
AcDbEntity
  8
DEFPOINTS
 62
     0
100
AcDbPoint
 10
289.167112089597
 20
449.963796727988
 30
0.0
  0
POINT
  5
4E73
330
4E6A
100
AcDbEntity
  8
DEFPOINTS
 62
     0
100
AcDbPoint
 10
289.167112089597
 20
428.463796727988
 30
0.0
  0
POINT
  5
4E74
330
4E6A
100
AcDbEntity
  8
DEFPOINTS
 62
     0
100
AcDbPoint
 10
277.503245931181
 20
428.463796727988
 30
0.0
  0
ENDBLK
  5
4E6C
330
4E6A
100
AcDbEntity
  8
0
100
AcDbBlockEnd
  0
BLOCK
  5
4E77
330
4E76
100
AcDbEntity
  8
0
100
AcDbBlockBegin
  2
*D71
 70
     1
 10
0.0
 20
0.0
 30
0.0
  3
*D71
  1

  0
LINE
  5
4E79
330
4E76
100
AcDbEntity
  8
寸法線
 62
     0
 48
10.0
100
AcDbLine
 10
347.638468256781
 20
419.588796722261
 30
0.0
 11
347.638468256781
 21
362.151345307372
 31
0.0
  0
LINE
  5
4E7A
330
4E76
100
AcDbEntity
  8
寸法線
 62
     0
 48
10.0
100
AcDbLine
 10
437.638503829947
 20
392.588796722261
 30
0.0
 11
437.638503829947
 21
362.151345307372
 31
0.0
  0
LINE
  5
4E7B
330
4E76
100
AcDbEntity
  8
寸法線
 62
     0
 48
10.0
100
AcDbLine
 10
353.638468256781
 20
363.401345307372
 30
0.0
 11
431.638503829947
 21
363.401345307372
 31
0.0
  0
INSERT
  5
4E7C
330
4E76
100
AcDbEntity
  8
寸法線
 62
     0
100
AcDbBlockReference
  2
_OPEN30
 10
347.638468256781
 20
363.401345307372
 30
0.0
 41
6.0
 42
6.0
 43
6.0
 50
180.0
  0
INSERT
  5
4E7D
330
4E76
100
AcDbEntity
  8
寸法線
 62
     0
100
AcDbBlockReference
  2
_OPEN30
 10
437.638503829947
 20
363.401345307372
 30
0.0
 41
6.0
 42
6.0
 43
6.0
  0
MTEXT
  5
4E7E
330
4E76
100
AcDbEntity
  8
寸法線
 62
     0
 48
10.0
100
AcDbMText
 10
392.638486043364
 20
368.026345307372
 30
0.0
 40
8.0
 41
0.0
 71
     5
 72
     1
  1
\A1;90
  0
POINT
  5
4E7F
330
4E76
100
AcDbEntity
  8
DEFPOINTS
 62
     0
100
AcDbPoint
 10
347.638468256781
 20
420.213796722261
 30
0.0
  0
POINT
  5
4E80
330
4E76
100
AcDbEntity
  8
DEFPOINTS
 62
     0
100
AcDbPoint
 10
437.638503829947
 20
393.213796722261
 30
0.0
  0
POINT
  5
4E81
330
4E76
100
AcDbEntity
  8
DEFPOINTS
 62
     0
100
AcDbPoint
 10
437.638503829947
 20
363.401345307372
 30
0.0
  0
ENDBLK
  5
4E78
330
4E76
100
AcDbEntity
  8
0
100
AcDbBlockEnd
  0
BLOCK
  5
5306
330
5305
100
AcDbEntity
  8
0
100
AcDbBlockBegin
  2
*D74
 70
     1
 10
0.0
 20
0.0
 30
0.0
  3
*D74
  1

  0
LINE
  5
5308
330
5305
100
AcDbEntity
  8
寸法線
 62
     0
 48
10.0
100
AcDbLine
 10
53.013468256273
 20
449.963796727988
 30
0.0
 11
38.75
 21
449.963796727988
 31
0.0
  0
LINE
  5
5309
330
5305
100
AcDbEntity
  8
寸法線
 62
     0
 48
10.0
100
AcDbLine
 10
53.013468256273
 20
428.463796727989
 30
0.0
 11
38.75
 21
428.463796727989
 31
0.0
  0
LINE
  5
530A
330
5305
100
AcDbEntity
  8
寸法線
 62
     0
 48
10.0
100
AcDbLine
 10
40.0
 20
449.963796727988
 30
0.0
 11
40.0
 21
481.080463394655
 31
0.0
  0
LINE
  5
530B
330
5305
100
AcDbEntity
  8
寸法線
 62
     0
 48
10.0
100
AcDbLine
 10
40.0
 20
443.963796727988
 30
0.0
 11
40.0
 21
434.463796727989
 31
0.0
  0
INSERT
  5
530C
330
5305
100
AcDbEntity
  8
寸法線
 62
     0
100
AcDbBlockReference
  2
_OPEN30
 10
40.0
 20
449.963796727988
 30
0.0
 41
6.0
 42
6.0
 43
6.0
 50
90.0
  0
INSERT
  5
530D
330
5305
100
AcDbEntity
  8
寸法線
 62
     0
100
AcDbBlockReference
  2
_OPEN30
 10
40.0
 20
428.463796727989
 30
0.0
 41
6.0
 42
6.0
 43
6.0
 50
270.0
  0
MTEXT
  5
530E
330
5305
100
AcDbEntity
  8
寸法線
 62
     0
 48
10.0
100
AcDbMText
 10
35.370833333333
 20
468.522130061322
 30
0.0
 40
8.0
 41
0.0
 71
     5
 72
     1
  1
\A1;φ21.5
 11
0.0
 21
1.0
 31
0.0
  0
POINT
  5
530F
330
5305
100
AcDbEntity
  8
DEFPOINTS
 62
     0
100
AcDbPoint
 10
53.638468256273
 20
449.963796727988
 30
0.0
  0
POINT
  5
5310
330
5305
100
AcDbEntity
  8
DEFPOINTS
 62
     0
100
AcDbPoint
 10
53.638468256273
 20
428.463796727989
 30
0.0
  0
POINT
  5
5311
330
5305
100
AcDbEntity
  8
DEFPOINTS
 62
     0
100
AcDbPoint
 10
40.0
 20
428.463796727989
 30
0.0
  0
ENDBLK
  5
5307
330
5305
100
AcDbEntity
  8
0
100
AcDbBlockEnd
  0
ENDSEC
  0
SECTION
  2
ENTITIES
  0
LINE
  5
3E98
330
1A
100
AcDbEntity
  8
下書線
100
AcDbLine
 10
453.763782926379
 20
523.714486348731
 30
0.0
 11
24.465305219005
 21
523.714486348731
 31
0.0
  0
LINE
  5
408F
330
1A
100
AcDbEntity
  8
中心線
 48
10.0
100
AcDbLine
 10
44.467402087177
 20
439.214486496261
 30
0.0
 11
441.403831148162
 21
439.214486496261
 31
0.0
  0
MTEXT
  5
428B
330
1A
100
AcDbEntity
  8
寸法線
 48
10.0
100
AcDbMText
 10
255.331674542073
 20
523.714486348731
 30
0.0
 40
8.0
 41
0.0
 71
     7
 72
     1
  1
\A1;接地電極\PSUS304
  0
MTEXT
  5
428E
330
1A
100
AcDbEntity
  8
寸法線
 48
10.0
100
AcDbMText
 10
185.191190673532
 20
523.714486348731
 30
0.0
 40
8.0
 41
0.0
 71
     7
 72
     1
  1
\A1;シール\Pシリコンゴム
  0
MTEXT
  5
4290
330
1A
100
AcDbEntity
  8
寸法線
 48
10.0
100
AcDbMText
 10
145.715397440258
 20
523.714486348731
 30
0.0
 40
8.0
 41
0.0
 71
     9
 72
     1
  1
絶縁体\Pテフロン
  0
MTEXT
  5
4292
330
1A
100
AcDbEntity
  8
寸法線
 48
10.0
100
AcDbMText
 10
75.715397440258
 20
523.714486348731
 30
0.0
 40
8.0
 41
0.0
 71
     9
 72
     1
  1
\A1;検知電極\PSUS304
  0
LINE
  5
4415
102
{ACAD_REACTORS
330
4615
102
}
330
1A
100
AcDbEntity
  8
細線
100
AcDbLine
 10
312.638468256273
 20
464.61448649626
 30
0.0
 11
312.638468256273
 21
413.81448649626
 31
0.0
  0
LINE
  5
4416
102
{ACAD_REACTORS
330
4615
102
}
330
1A
100
AcDbEntity
  8
外形線
100
AcDbLine
 10
313.638468256273
 20
414.81448649626
 30
0.0
 11
312.638468256273
 21
413.81448649626
 31
0.0
  0
LINE
  5
4417
102
{ACAD_REACTORS
330
4615
102
}
330
1A
100
AcDbEntity
  8
外形線
100
AcDbLine
 10
308.23034338655
 20
413.81448649626
 30
0.0
 11
312.638468256273
 21
413.81448649626
 31
0.0
  0
LINE
  5
4418
102
{ACAD_REACTORS
330
4615
102
}
330
1A
100
AcDbEntity
  8
外形線
100
AcDbLine
 10
305.488468256273
 20
407.21448649626
 30
0.0
 11
307.273318982116
 21
413.104493891543
 31
0.0
  0
LWPOLYLINE
  5
4419
102
{ACAD_REACTORS
330
4615
102
}
330
1A
100
AcDbEntity
  8
外形線
100
AcDbPolyline
 90
        4
 70
     1
 43
0.0
 10
302.638468256273
 20
407.21448649626
 10
305.488468256273
 20
407.21448649626
 10
305.488468256273
 20
471.21448649626
 10
302.638468256273
 20
471.21448649626
  0
LINE
  5
441A
102
{ACAD_REACTORS
330
4615
102
}
330
1A
100
AcDbEntity
  8
細線
100
AcDbLine
 10
307.488468256273
 20
464.61448649626
 30
0.0
 11
307.488468256273
 21
413.81448649626
 31
0.0
  0
LINE
  5
441B
102
{ACAD_REACTORS
330
4615
102
}
330
1A
100
AcDbEntity
  8
外形線
100
AcDbLine
 10
305.488468256273
 20
471.21448649626
 30
0.0
 11
307.273318982116
 21
465.324479100978
 31
0.0
  0
LINE
  5
441C
102
{ACAD_REACTORS
330
4615
102
}
330
1A
100
AcDbEntity
  8
外形線
100
AcDbLine
 10
327.638468256273
 20
422.014486496261
 30
0.0
 11
313.638468256273
 21
422.014486496261
 31
0.0
  0
LINE
  5
441D
102
{ACAD_REACTORS
330
4615
102
}
330
1A
100
AcDbEntity
  8
外形線
100
AcDbLine
 10
313.638468256273
 20
463.61448649626
 30
0.0
 11
313.638468256273
 21
414.81448649626
 31
0.0
  0
LINE
  5
441E
102
{ACAD_REACTORS
330
4615
102
}
330
1A
100
AcDbEntity
  8
外形線
100
AcDbLine
 10
327.638468256273
 20
456.414486496261
 30
0.0
 11
313.638468256273
 21
456.414486496261
 31
0.0
  0
LINE
  5
4420
102
{ACAD_REACTORS
330
4615
102
}
330
1A
100
AcDbEntity
  8
外形線
100
AcDbLine
 10
308.23034338655
 20
464.61448649626
 30
0.0
 11
312.638468256273
 21
464.61448649626
 31
0.0
  0
LINE
  5
4421
102
{ACAD_REACTORS
330
4615
102
}
330
1A
100
AcDbEntity
  8
外形線
100
AcDbLine
 10
312.638468256273
 20
464.61448649626
 30
0.0
 11
313.638468256273
 21
463.61448649626
 31
0.0
  0
LINE
  5
4432
102
{ACAD_REACTORS
330
4615
102
}
330
1A
100
AcDbEntity
  8
外形線
 48
10.0
100
AcDbLine
 10
311.638468256273
 20
456.414486496261
 30
0.0
 11
313.638468256273
 21
458.41448649626
 31
0.0
  0
LINE
  5
4433
102
{ACAD_REACTORS
330
4615
102
}
330
1A
100
AcDbEntity
  8
外形線
 48
10.0
100
AcDbLine
 10
311.638468256273
 20
456.414486496261
 30
0.0
 11
313.638468256273
 21
455.414486496261
 31
0.0
  0
HATCH
  5
443B
102
{ACAD_REACTORS
330
4615
102
}
330
1A
100
AcDbEntity
  8
外形線
 48
10.0
100
AcDbHatch
 10
0.0
 20
0.0
 30
0.0
210
0.0
220
0.0
230
1.0
  2
SOLID
 70
     1
 71
     0
 91
        2
 92
        7
 72
     0
 73
     1
 93
        4
 10
313.6384682562727
 20
458.4144864962604
 10
312.6384682562727
 20
457.4144864962605
 10
312.6384682562727
 20
455.9144864962606
 10
313.6384682562727
 20
455.4144864962605
 97
        0
 92
        7
 72
     0
 73
     1
 93
        3
 10
312.6384682562727
 20
457.4144864962605
 10
311.6384682562728
 20
456.4144864962605
 10
312.6384682562727
 20
455.9144864962605
 97
        0
 75
     0
 76
     1
 47
0.021280244428
 98
        2
 10
313.4071682965176
 20
456.7392869076937
 10
312.342840417947
 20
456.6541662671664
  0
HATCH
  5
443C
102
{ACAD_REACTORS
330
4615
102
}
330
1A
100
AcDbEntity
  8
外形線
 48
10.0
100
AcDbHatch
 10
0.0
 20
0.0
 30
0.0
210
0.0
220
0.0
230
1.0
  2
SOLID
 70
     1
 71
     0
 91
        2
 92
        7
 72
     0
 73
     1
 93
        4
 10
313.6384682562728
 20
420.0144864962606
 10
312.6384682562727
 20
421.0144864962606
 10
312.6384682562727
 20
422.5144864962605
 10
313.6384682562727
 20
423.0144864962605
 97
        0
 92
        7
 72
     0
 73
     1
 93
        3
 10
312.6384682562728
 20
421.0144864962605
 10
311.6384682562728
 20
422.0144864962605
 10
312.6384682562727
 20
422.5144864962605
 97
        0
 75
     0
 76
     1
 47
0.021280244428
 98
        2
 10
313.4071682965176
 20
421.6896860848273
 10
312.342840417947
 20
421.7748067253546
  0
LINE
  5
443D
102
{ACAD_REACTORS
330
4615
102
}
330
1A
100
AcDbEntity
  8
外形線
 48
10.0
100
AcDbLine
 10
311.638468256273
 20
422.014486496261
 30
0.0
 11
313.638468256273
 21
423.014486496261
 31
0.0
  0
LINE
  5
443E
102
{ACAD_REACTORS
330
4615
102
}
330
1A
100
AcDbEntity
  8
外形線
 48
10.0
100
AcDbLine
 10
311.638468256273
 20
422.014486496261
 30
0.0
 11
313.638468256273
 21
420.014486496261
 31
0.0
  0
MTEXT
  5
4482
330
1A
100
AcDbEntity
  8
寸法線
 48
10.0
100
AcDbMText
 10
307.213847756904
 20
523.71448634873
 30
0.0
 40
8.0
 41
0.0
 71
     7
 72
     1
  1
\A1;ヘルール2S\PSUS304
  0
MTEXT
  5
4487
330
1A
100
AcDbEntity
  8
寸法線
 48
10.0
100
AcDbMText
 10
329.79436899607
 20
486.060115463966
 30
0.0
 40
8.0
 41
0.0
 71
     7
 72
     1
  1
\A1;溶接
  0
ARC
  5
449F
102
{ACAD_REACTORS
330
4615
102
}
330
1A
100
AcDbEntity
  8
外形線
100
AcDbCircle
 10
308.23034338655
 20
412.81448649626
 30
0.0
 40
1.0
100
AcDbArc
 50
90.0
 51
163.141601232261
  0
ARC
  5
44A0
102
{ACAD_REACTORS
330
4615
102
}
330
1A
100
AcDbEntity
  8
外形線
100
AcDbCircle
 10
308.23034338655
 20
465.61448649626
 30
0.0
 40
1.0
100
AcDbArc
 50
196.858398767739
 51
270.0
  0
LINE
  5
44B9
102
{ACAD_REACTORS
330
4615
102
}
330
1A
100
AcDbEntity
  8
中心線
 48
10.0
100
AcDbLine
 10
304.638468256273
 20
467.464486496261
 30
0.0
 11
300.638468256273
 21
467.464486496261
 31
0.0
  0
ARC
  5
44BB
102
{ACAD_REACTORS
330
4615
102
}
330
1A
100
AcDbEntity
  8
隠れ線
 48
10.0
100
AcDbCircle
 10
302.638468256273
 20
467.464486496261
 30
0.0
 40
1.0
100
AcDbArc
 50
270.0
 51
90.0
  0
ARC
  5
44BC
102
{ACAD_REACTORS
330
4615
102
}
330
1A
100
AcDbEntity
  8
隠れ線
 48
10.0
100
AcDbCircle
 10
302.638468256273
 20
410.964486496261
 30
0.0
 40
1.0
100
AcDbArc
 50
270.0
 51
90.0
  0
LINE
  5
44BD
102
{ACAD_REACTORS
330
4615
102
}
330
1A
100
AcDbEntity
  8
中心線
 48
10.0
100
AcDbLine
 10
304.638468256273
 20
410.964486496261
 30
0.0
 11
300.638468256273
 21
410.964486496261
 31
0.0
  0
LINE
  5
45F2
102
{ACAD_REACTORS
330
4615
102
}
330
1A
100
AcDbEntity
  8
細線
100
AcDbLine
 10
330.638468256273
 20
450.18448649626
 30
0.0
 11
344.638468256273
 21
450.18448649626
 31
0.0
  0
LINE
  5
45F3
102
{ACAD_REACTORS
330
4615
102
}
330
1A
100
AcDbEntity
  8
細線
100
AcDbLine
 10
330.638468256273
 20
428.24448649626
 30
0.0
 11
344.638468256273
 21
428.24448649626
 31
0.0
  0
ARC
  5
4606
102
{ACAD_REACTORS
330
4615
102
}
330
1A
100
AcDbEntity
  8
細線
 48
10.0
100
AcDbCircle
 10
349.195284843642
 20
439.21448649626
 30
0.0
 40
21.5568165984052
100
AcDbArc
 50
149.410227986311
 51
210.589772013689
  0
ARC
  5
4607
102
{ACAD_REACTORS
330
4615
102
}
330
1A
100
AcDbEntity
  8
細線
 48
10.0
100
AcDbCircle
 10
326.081651668904
 20
439.21448649626
 30
0.0
 40
21.55681659840436
100
AcDbArc
 50
329.41022798631
 51
30.589772013689
  0
LINE
  5
4608
102
{ACAD_REACTORS
330
4615
102
}
330
1A
100
AcDbEntity
  8
外形線
 48
10.0
100
AcDbLine
 10
330.638468256273
 20
461.154486496261
 30
0.0
 11
344.638468256273
 21
461.154486496261
 31
0.0
  0
LINE
  5
4609
102
{ACAD_REACTORS
330
4615
102
}
330
1A
100
AcDbEntity
  8
外形線
 48
10.0
100
AcDbLine
 10
330.638468256273
 20
417.275866037849
 30
0.0
 11
344.638468256273
 21
417.275866037849
 31
0.0
  0
ARC
  5
460A
102
{ACAD_REACTORS
330
4615
102
}
330
1A
100
AcDbEntity
  8
細線
 48
10.0
100
AcDbCircle
 10
348.928994159277
 20
461.592917082083
 30
0.0
 40
21.5568
100
AcDbArc
 50
189.014839552026
 51
211.953209848838
  0
ARC
  5
460B
102
{ACAD_REACTORS
330
4615
102
}
330
1A
100
AcDbEntity
  8
外形線
 48
10.0
100
AcDbCircle
 10
344.153128233608
 20
444.360154358989
 30
0.0
 40
21.5568
100
AcDbArc
 50
128.824173789179
 51
140.004933775737
  0
ARC
  5
460C
102
{ACAD_REACTORS
330
4615
102
}
330
1A
100
AcDbEntity
  8
外形線
 48
10.0
100
AcDbCircle
 10
331.123808278937
 20
444.360154358989
 30
0.0
 40
21.5568
100
AcDbArc
 50
39.995066224263
 51
51.175826210821
  0
ARC
  5
460D
102
{ACAD_REACTORS
330
4615
102
}
330
1A
100
AcDbEntity
  8
細線
 48
10.0
100
AcDbCircle
 10
326.347942353269
 20
461.592917082083
 30
0.0
 40
21.5568
100
AcDbArc
 50
328.046790151162
 51
350.985160447974
  0
ARC
  5
460E
102
{ACAD_REACTORS
330
4615
102
}
330
1A
100
AcDbEntity
  8
外形線
 48
10.0
100
AcDbCircle
 10
344.153128233608
 20
434.068818633532
 30
0.0
 40
21.5568
100
AcDbArc
 50
219.995066224261
 51
231.175826210819
  0
ARC
  5
460F
102
{ACAD_REACTORS
330
4615
102
}
330
1A
100
AcDbEntity
  8
外形線
 48
10.0
100
AcDbCircle
 10
331.123808278937
 20
434.068818633532
 30
0.0
 40
21.5568
100
AcDbArc
 50
308.824173789179
 51
320.004933775737
  0
ARC
  5
4610
102
{ACAD_REACTORS
330
4615
102
}
330
1A
100
AcDbEntity
  8
細線
 48
10.0
100
AcDbCircle
 10
326.347942353268
 20
416.836055910438
 30
0.0
 40
21.5568
100
AcDbArc
 50
9.014839552025
 51
31.953209848837
  0
ARC
  5
4611
102
{ACAD_REACTORS
330
4615
102
}
330
1A
100
AcDbEntity
  8
細線
 48
10.0
100
AcDbCircle
 10
348.928994159277
 20
416.836055910438
 30
0.0
 40
21.5568
100
AcDbArc
 50
148.046790151162
 51
170.985160447973
  0
LINE
  5
4612
102
{ACAD_REACTORS
330
4615
102
}
330
1A
100
AcDbEntity
  8
外形線
 48
10.0
100
AcDbLine
 10
327.638468256273
 20
458.215176267055
 30
0.0
 11
327.638468256273
 21
420.213796725466
 31
0.0
  0
LINE
  5
4613
102
{ACAD_REACTORS
330
4615
102
}
330
1A
100
AcDbEntity
  8
外形線
 48
10.0
100
AcDbLine
 10
347.638468256273
 20
458.215176267055
 30
0.0
 11
347.638468256273
 21
420.213796725466
 31
0.0
  0
DIMENSION
  5
4618
330
1A
100
AcDbEntity
  8
寸法線
 48
10.0
100
AcDbDimension
  2
*D13
 10
327.638468256272
 20
363.401345307372
 30
0.0
 11
315.138468256273
 21
368.030511974039
 31
0.0
 70
    32
  3
ISO-25
100
AcDbAlignedDimension
 13
302.638468256273
 23
407.21448649626
 33
0.0
 14
327.638468256272
 24
420.213796725467
 34
0.0
100
AcDbRotatedDimension
1001
ACAD
1000
DSTYLE
1002
{
1070
     5
1000
OPEN30
1070
    41
1040
6.0
1070
    47
1040
0.1
1070
    48
1040
0.1
1070
    73
1070
     0
1070
   140
1040
8.0
1070
   271
1070
     1
1070
   272
1070
     1
1070
   341
1005
2AF4
1002
}
  0
DIMENSION
  5
4663
330
1A
100
AcDbEntity
  8
寸法線
 48
10.0
100
AcDbDimension
  2
*D15
 10
347.638468256273
 20
363.401345307372
 30
0.0
 11
337.638468256273
 21
363.401345307372
 31
0.0
 70
   160
  3
ISO-25
100
AcDbAlignedDimension
 13
327.638468256273
 23
420.213796725466
 33
0.0
 14
347.638468256273
 24
420.213796725466
 34
0.0
100
AcDbRotatedDimension
1001
ACAD
1000
DSTYLE
1002
{
1070
     5
1000
OPEN30
1070
    41
1040
6.0
1070
    47
1040
0.1
1070
    48
1040
0.1
1070
    73
1070
     0
1070
   140
1040
8.0
1070
   271
1070
     1
1070
   272
1070
     1
1070
   341
1005
2AF4
1002
}
  0
DIMENSION
  5
4845
330
1A
100
AcDbEntity
  8
寸法線
 48
10.0
100
AcDbDimension
  2
*D20
 10
437.638503829947
 20
341.306282997388
 30
0.0
 11
370.13848604311
 21
345.935449664055
 31
0.0
 70
    32
  3
ISO-25
100
AcDbAlignedDimension
 13
302.638468256273
 23
363.401345307372
 33
0.0
 14
437.638503829947
 24
408.251622814943
 34
0.0
100
AcDbRotatedDimension
1001
ACAD
1000
DSTYLE
1002
{
1070
     5
1000
OPEN30
1070
    41
1040
6.0
1070
    47
1040
0.1
1070
    48
1040
0.1
1070
    73
1070
     0
1070
   140
1040
8.0
1070
   271
1070
     1
1070
   272
1070
     1
1070
   341
1005
2AF4
1002
}
  0
MTEXT
  5
485C
330
1A
100
AcDbEntity
  8
寸法線
 48
10.0
100
AcDbMText
 10
388.071231561797
 20
554.707219839992
 30
0.0
 40
8.0
 41
114.338813593862
 71
     1
 72
     5
  1
塗装色：10YR7.5/14
  0
LWPOLYLINE
  5
4958
330
1A
100
AcDbEntity
  8
外形線
100
AcDbPolyline
 90
        4
 70
     1
 43
0.0
 10
347.638468256273
 20
420.213796722261
 10
350.638468256273
 20
420.213796722261
 10
350.638468256273
 20
458.213796722261
 10
347.638468256273
 20
458.213796722261
  0
LINE
  5
497A
330
1A
100
AcDbEntity
  8
外形線
100
AcDbLine
 10
350.638468256273
 20
455.213796722261
 30
0.0
 11
350.638468256273
 21
423.213796722261
 31
0.0
  0
ARC
  5
497B
330
1A
100
AcDbEntity
  8
外形線
100
AcDbCircle
 10
352.138468256273
 20
455.213796722261
 30
0.0
 40
1.5
100
AcDbArc
 50
90.0
 51
180.0
  0
ARC
  5
497C
330
1A
100
AcDbEntity
  8
外形線
100
AcDbCircle
 10
352.138468256273
 20
423.213796722261
 30
0.0
 40
1.5
100
AcDbArc
 50
180.0
 51
270.0
  0
LINE
  5
497D
330
1A
100
AcDbEntity
  8
外形線
100
AcDbLine
 10
373.780468256273
 20
460.213796722261
 30
0.0
 11
373.780468256273
 21
418.213796722261
 31
0.0
  0
ARC
  5
497E
330
1A
100
AcDbEntity
  8
外形線
100
AcDbCircle
 10
372.280468256273
 20
420.213796722261
 30
0.0
 40
1.5
100
AcDbArc
 50
0.0
 51
90.0
  0
ARC
  5
497F
330
1A
100
AcDbEntity
  8
外形線
100
AcDbCircle
 10
372.280468256273
 20
458.213796722261
 30
0.0
 40
1.5
100
AcDbArc
 50
270.0
 51
0.0
  0
LINE
  5
4980
330
1A
100
AcDbEntity
  8
外形線
100
AcDbLine
 10
424.731301547787
 20
409.309565029329
 30
0.0
 11
426.639524480497
 21
410.260969887644
 31
0.0
  0
LINE
  5
4981
330
1A
100
AcDbEntity
  8
外形線
100
AcDbLine
 10
394.911901697659
 20
469.118028415193
 30
0.0
 11
396.820124630369
 21
470.069433273508
 31
0.0
  0
LINE
  5
4982
330
1A
100
AcDbEntity
  8
外形線
100
AcDbLine
 10
396.820124630369
 20
470.069433273508
 30
0.0
 11
426.639524480497
 21
410.260969887644
 31
0.0
  0
LINE
  5
4983
330
1A
100
AcDbEntity
  8
外形線
100
AcDbLine
 10
424.731301547787
 20
409.309565029329
 30
0.0
 11
394.911901697659
 21
469.118028415193
 31
0.0
  0
ARC
  5
4984
330
1A
100
AcDbEntity
  8
細線
100
AcDbCircle
 10
408.277668664875
 20
380.202598356671
 30
0.0
 40
34.01119848081266
100
AcDbArc
 50
63.825050098629
 51
116.164440091243
  0
LINE
  5
4985
330
1A
100
AcDbEntity
  8
外形線
100
AcDbLine
 10
423.280468256273
 20
393.213796722261
 30
0.0
 11
424.280468256273
 21
394.213796722261
 31
0.0
  0
LINE
  5
4986
330
1A
100
AcDbEntity
  8
外形線
100
AcDbLine
 10
393.280468256273
 20
393.213796722261
 30
0.0
 11
423.280468256273
 21
393.213796722261
 31
0.0
  0
LINE
  5
4987
330
1A
100
AcDbEntity
  8
外形線
100
AcDbLine
 10
392.280468256273
 20
394.213796722261
 30
0.0
 11
393.280468256273
 21
393.213796722261
 31
0.0
  0
LINE
  5
4988
330
1A
100
AcDbEntity
  8
外形線
100
AcDbLine
 10
392.280468256273
 20
394.213796722261
 30
0.0
 11
392.280468256273
 21
409.213796722261
 31
0.0
  0
ARC
  5
4989
330
1A
100
AcDbEntity
  8
外形線
100
AcDbCircle
 10
391.280468256273
 20
409.213796722261
 30
0.0
 40
1.0
100
AcDbArc
 50
0.0
 51
90.0
  0
ARC
  5
498A
330
1A
100
AcDbEntity
  8
外形線
100
AcDbCircle
 10
381.780468256273
 20
460.213796722261
 30
0.0
 40
8.0
100
AcDbArc
 50
90.0
 51
180.0
  0
ARC
  5
498B
330
1A
100
AcDbEntity
  8
外形線
100
AcDbCircle
 10
381.780468256273
 20
418.213796722261
 30
0.0
 40
8.0
100
AcDbArc
 50
180.0
 51
270.0
  0
ARC
  5
498C
330
1A
100
AcDbEntity
  8
外形線
100
AcDbCircle
 10
402.287148653289
 20
475.251573853655
 30
0.0
 40
3.0
100
AcDbArc
 50
45.30448303075
 51
116.499999999995
  0
ARC
  5
498D
330
1A
100
AcDbEntity
  8
外形線
100
AcDbCircle
 10
434.6655227892
 20
411.808402079099
 30
0.0
 40
3.0
100
AcDbArc
 50
296.499999999995
 51
7.695516969253
  0
LINE
  5
498E
330
1A
100
AcDbEntity
  8
外形線
100
AcDbLine
 10
428.95811674645
 20
405.610593242174
 30
0.0
 11
436.004116228529
 21
409.123598994293
 31
0.0
  0
LINE
  5
498F
330
1A
100
AcDbEntity
  8
外形線
100
AcDbLine
 10
439.332854702249
 20
443.371790836514
 30
0.0
 11
430.100893928323
 21
438.768904988364
 31
0.0
  0
LINE
  5
4990
330
1A
100
AcDbEntity
  8
外形線
100
AcDbLine
 10
427.929423114125
 20
443.831951694227
 30
0.0
 11
436.878766730145
 21
448.293929825325
 31
0.0
  0
LINE
  5
4991
330
1A
100
AcDbEntity
  8
外形線
100
AcDbLine
 10
424.359840609246
 20
450.991426587043
 30
0.0
 11
433.309184225267
 21
455.453404718141
 31
0.0
  0
LINE
  5
4992
330
1A
100
AcDbEntity
  8
外形線
100
AcDbLine
 10
430.855096253163
 20
460.375543706952
 30
0.0
 11
421.623135479237
 21
455.772657858802
 31
0.0
  0
LINE
  5
4993
330
1A
100
AcDbEntity
  8
外形線
100
AcDbLine
 10
433.309184225267
 20
455.453404718141
 30
0.0
 11
430.855096253163
 21
460.375543706952
 31
0.0
  0
LINE
  5
4994
330
1A
100
AcDbEntity
  8
外形線
100
AcDbLine
 10
436.878766730145
 20
448.293929825325
 30
0.0
 11
439.332854702249
 21
443.371790836514
 31
0.0
  0
LINE
  5
4995
330
1A
100
AcDbEntity
  8
外形線
100
AcDbLine
 10
424.280468256273
 20
394.213796722261
 30
0.0
 11
424.280468256273
 21
410.213796722261
 31
0.0
  0
LINE
  5
4996
330
1A
100
AcDbEntity
  8
中心線
 48
10.0
100
AcDbLine
 10
408.280468256273
 20
419.213796722261
 30
0.0
 11
408.280468256273
 21
380.202598356671
 31
0.0
  0
LINE
  5
4997
330
1A
100
AcDbEntity
  8
外形線
 48
10.0
100
AcDbLine
 10
394.501532364416
 20
474.722009918978
 30
0.0
 11
400.94855521396
 21
477.936376938461
 31
0.0
  0
ARC
  5
4998
330
1A
100
AcDbEntity
  8
外形線
 48
10.0
100
AcDbCircle
 10
322.01779234723
 20
394.470295099286
 30
0.0
 40
116.880564807258
100
AcDbArc
 50
8.420101953746
 51
45.185262866733
  0
LINE
  5
4999
330
1A
100
AcDbEntity
  8
外形線
 48
10.0
100
AcDbLine
 10
394.501532364416
 20
474.722009918978
 30
0.0
 11
428.95811674645
 21
405.610593242174
 31
0.0
  0
LINE
  5
499A
330
1A
100
AcDbEntity
  8
外形線
 48
10.0
100
AcDbLine
 10
381.780468256273
 20
468.213796722261
 30
0.0
 11
395.321601622723
 21
468.213796722261
 31
0.0
  0
LINE
  5
499B
330
1A
100
AcDbEntity
  8
外形線
 48
10.0
100
AcDbLine
 10
352.138468256273
 20
456.713796722261
 30
0.0
 11
372.280468256273
 21
456.713796722261
 31
0.0
  0
LINE
  5
499C
330
1A
100
AcDbEntity
  8
外形線
 48
10.0
100
AcDbLine
 10
352.138468256273
 20
421.713796722261
 30
0.0
 11
372.280468256273
 21
421.713796722261
 31
0.0
  0
LINE
  5
499D
330
1A
100
AcDbEntity
  8
外形線
 48
10.0
100
AcDbLine
 10
381.780468256273
 20
410.213796722261
 30
0.0
 11
391.280468256273
 21
410.213796722261
 31
0.0
  0
DIMENSION
  5
499E
330
1A
100
AcDbEntity
  8
寸法線
 48
10.0
100
AcDbDimension
  2
*D43
 10
460.375
 20
393.213796722261
 30
0.0
 11
460.375
 21
435.713815278099
 31
0.0
 70
   160
  3
ISO-25
100
AcDbAlignedDimension
 13
402.761506966404
 23
478.213833833937
 33
0.0
 14
423.280468256273
 24
393.213796722261
 34
0.0
 50
90.0
100
AcDbRotatedDimension
1001
ACAD
1000
DSTYLE
1002
{
1070
     5
1000
OPEN30
1070
    41
1040
6.0
1070
    47
1040
0.1
1070
    48
1040
0.1
1070
    73
1070
     0
1070
   140
1040
8.0
1070
   271
1070
     1
1070
   272
1070
     1
1070
   341
1005
2AF4
1002
}
  0
LEADER
  5
49AB
330
1A
100
AcDbEntity
  8
寸法線
 48
10.0
100
AcDbLeader
  3
ISO-25
 73
     0
 74
     0
 75
     1
 40
21.341666666667
 41
45.066666666667
 76
     3
 10
411.23078169683
 20
391.233808453188
 30
0.0
 10
447.011432510992
 20
359.008846392175
 30
0.0
 10
453.011432510992
 20
359.008846392175
 30
0.0
340
49AC
213
6.563625079290432
223
-1.863095294587993
233
0.0
1001
ACAD
1000
DSTYLE
1002
{
1070
     5
1000
OPEN30
1070
   147
1040
0.625
1070
    77
1070
     0
1070
    41
1040
6.0
1070
    47
1040
0.1
1070
    48
1040
0.1
1070
    73
1070
     0
1070
   140
1040
5.0
1070
   271
1070
     1
1070
   272
1070
     1
1070
   341
1005
2AF4
1070
   342
1005
2AF4
1002
}
  0
MTEXT
  5
49AC
102
{ACAD_REACTORS
330
49AB
102
}
330
1A
100
AcDbEntity
  8
寸法線
 48
10.0
100
AcDbMText
 10
447.072807431702
 20
360.871941686763
 30
0.0
 40
8.0
 41
0.0
 71
     7
 72
     1
  1
導線取出口\PG1/2"
  0
LEADER
  5
49B1
330
1A
100
AcDbEntity
  8
寸法線
 48
10.0
100
AcDbLeader
  3
ISO-25
 76
     3
 10
242.217682131984
 20
449.82157523005
 30
0.0
 10
254.942132073475
 20
522.971650484411
 30
0.0
 10
264.274755498554
 20
522.971650484411
 30
0.0
1001
ACAD
1000
DSTYLE
1002
{
1070
     5
1000
OPEN30
1070
   147
1040
0.625
1070
    77
1070
     0
1070
    41
1040
6.0
1070
    47
1040
0.1
1070
    48
1040
0.1
1070
    73
1070
     0
1070
   140
1040
8.0
1070
   271
1070
     1
1070
   272
1070
     1
1070
   341
1005
2AF4
1070
   342
1005
2AF4
1002
}
  0
LEADER
  5
4ADC
330
1A
100
AcDbEntity
  8
寸法線
 48
10.0
100
AcDbLeader
  3
ISO-25
 76
     3
 10
202.660983410792
 20
449.82157523005
 30
0.0
 10
185.498848359318
 20
522.971650484411
 30
0.0
 10
194.831471784397
 20
522.971650484411
 30
0.0
1001
ACAD
1000
DSTYLE
1002
{
1070
     5
1000
OPEN30
1070
   147
1040
0.625
1070
    77
1070
     0
1070
    41
1040
6.0
1070
    47
1040
0.1
1070
    48
1040
0.1
1070
    73
1070
     0
1070
   140
1040
8.0
1070
   271
1070
     1
1070
   272
1070
     1
1070
   341
1005
2AF4
1070
   342
1005
2AF4
1002
}
  0
LEADER
  5
4ADD
330
1A
100
AcDbEntity
  8
寸法線
 48
10.0
100
AcDbLeader
  3
ISO-25
 76
     3
 10
162.343418827636
 20
449.82157523005
 30
0.0
 10
143.160190555803
 20
522.971650484411
 30
0.0
 10
131.910482301389
 20
522.971650484411
 30
0.0
1001
ACAD
1000
DSTYLE
1002
{
1070
     5
1000
OPEN30
1070
   147
1040
0.625
1070
    77
1070
     0
1070
    41
1040
6.0
1070
    47
1040
0.1
1070
    48
1040
0.1
1070
    73
1070
     0
1070
   140
1040
8.0
1070
   271
1070
     1
1070
   272
1070
     1
1070
   341
1005
2AF4
1070
   342
1005
2AF4
1002
}
  0
LEADER
  5
4ADE
330
1A
100
AcDbEntity
  8
寸法線
 48
10.0
100
AcDbLeader
  3
ISO-25
 76
     3
 10
83.603102432172
 20
449.963796727988
 30
0.0
 10
76.402555418428
 20
522.971650484411
 30
0.0
 10
67.071171869684
 20
522.971650484411
 30
0.0
1001
ACAD
1000
DSTYLE
1002
{
1070
     5
1000
OPEN30
1070
   147
1040
0.625
1070
    77
1070
     0
1070
    41
1040
6.0
1070
    47
1040
0.1
1070
    48
1040
0.1
1070
    73
1070
     0
1070
   140
1040
8.0
1070
   271
1070
     1
1070
   272
1070
     1
1070
   341
1005
2AF4
1070
   342
1005
2AF4
1002
}
  0
LEADER
  5
4ADF
330
1A
100
AcDbEntity
  8
寸法線
 48
10.0
100
AcDbLeader
  3
ISO-25
 76
     3
 10
304.157891872769
 20
471.103995249028
 30
0.0
 10
306.363001560066
 20
522.971650484411
 30
0.0
 10
315.695624985145
 20
522.971650484411
 30
0.0
1001
ACAD
1000
DSTYLE
1002
{
1070
     5
1000
OPEN30
1070
   147
1040
0.625
1070
    77
1070
     0
1070
    41
1040
6.0
1070
    47
1040
0.1
1070
    48
1040
0.1
1070
    73
1070
     0
1070
   140
1040
8.0
1070
   271
1070
     1
1070
   272
1070
     1
1070
   341
1005
2AF4
1070
   342
1005
2AF4
1002
}
  0
LEADER
  5
4AE0
330
1A
100
AcDbEntity
  8
寸法線
 48
10.0
100
AcDbLeader
  3
ISO-25
 76
     3
 10
313.779007627849
 20
456.987639521591
 30
0.0
 10
328.992281623505
 20
485.323067202647
 30
0.0
 10
337.753851126625
 20
485.323067202647
 30
0.0
1001
ACAD
1000
DSTYLE
1002
{
1070
     5
1000
OPEN30
1070
   147
1040
0.625
1070
    77
1070
     0
1070
    41
1040
6.0
1070
    47
1040
0.1
1070
    48
1040
0.1
1070
    73
1070
     0
1070
   140
1040
8.0
1070
   271
1070
     1
1070
   272
1070
     1
1070
   341
1005
2AF4
1070
   342
1005
2AF4
1002
}
  0
MTEXT
  5
4AE1
330
1A
100
AcDbEntity
  8
寸法線
 48
10.0
100
AcDbMText
 10
394.09242534161
 20
523.713796574732
 30
0.0
 40
8.0
 41
0.0
 71
     7
 72
     1
  1
\A1;アルミ鋳物
  0
LEADER
  5
4AE2
330
1A
100
AcDbEntity
  8
寸法線
 48
10.0
100
AcDbLeader
  3
ISO-25
 76
     3
 10
382.179690407828
 20
468.614739021594
 30
0.0
 10
392.043490129543
 20
523.695872067227
 30
0.0
 10
405.167494891856
 20
523.695872067227
 30
0.0
1001
ACAD
1000
DSTYLE
1002
{
1070
     5
1000
OPEN30
1070
   147
1040
0.625
1070
    77
1070
     0
1070
    41
1040
6.0
1070
    47
1040
0.1
1070
    48
1040
0.1
1070
    73
1070
     0
1070
   140
1040
8.0
1070
   271
1070
     1
1070
   272
1070
     1
1070
   341
1005
2AF4
1070
   342
1005
2AF4
1002
}
  0
CIRCLE
  5
4D78
330
1A
100
AcDbEntity
  8
寸法線
 48
10.0
100
AcDbCircle
 10
-72.299655476858
 20
246.984336229843
 30
0.0
 40
2.0
  0
CIRCLE
  5
4D79
330
1A
100
AcDbEntity
  8
寸法線
 48
10.0
100
AcDbCircle
 10
-50.099215476858
 20
246.984336229843
 30
0.0
 40
2.0
  0
TEXT
  5
4D7A
330
1A
100
AcDbEntity
  8
寸法線
100
AcDbText
 10
-52.387710350915
 20
233.755783310432
 30
0.0
 40
8.0
  1
E
100
AcDbText
  0
TEXT
  5
4D7B
330
1A
100
AcDbEntity
  8
寸法線
100
AcDbText
 10
-74.347341508237
 20
233.755783310432
 30
0.0
 40
8.0
  1
P
100
AcDbText
  0
TEXT
  5
4D7C
330
1A
100
AcDbEntity
  8
寸法線
 48
10.0
100
AcDbText
 10
-84.100544951786
 20
209.96593748664
 30
0.0
 40
10.0
  1
変換器へ
100
AcDbText
  0
TEXT
  5
4D7D
330
1A
100
AcDbEntity
  8
寸法線
 48
10.0
100
AcDbText
 10
-76.815652482605
 20
267.739285293253
 30
0.0
 40
10.0
  1
端子図
100
AcDbText
  0
LINE
  5
4D7E
330
1A
100
AcDbEntity
  8
寸法線
 48
10.0
100
AcDbLine
 10
-83.699923476858
 20
232.984092229843
 30
0.0
 11
-80.699861476858
 21
228.183920229843
 31
0.0
  0
LINE
  5
4D7F
330
1A
100
AcDbEntity
  8
寸法線
 48
10.0
100
AcDbLine
 10
-80.699861476858
 20
228.183920229843
 30
0.0
 11
-41.699007476858
 21
228.183920229843
 31
0.0
  0
LINE
  5
4D80
330
1A
100
AcDbEntity
  8
寸法線
 48
10.0
100
AcDbLine
 10
-41.699007476858
 20
228.183920229843
 30
0.0
 11
-38.698947476858
 21
232.984092229843
 31
0.0
  0
LINE
  5
4D81
330
1A
100
AcDbEntity
  8
寸法線
 48
10.0
100
AcDbLine
 10
-84.49767751786
 20
265.736288229843
 30
0.0
 11
-36.393227583415
 21
265.736288229843
 31
0.0
  0
LINE
  5
4D82
330
1A
100
AcDbEntity
  8
寸法線
100
AcDbLine
 10
52.439742126761
 20
196.428666739901
 30
0.0
 11
609.184644719825
 21
196.428666739901
 31
0.0
  0
LINE
  5
4D83
330
1A
100
AcDbEntity
  8
寸法線
100
AcDbLine
 10
84.439712126761
 20
183.376040632324
 30
0.0
 11
84.439712126761
 21
301.86704949294
 31
0.0
  0
LINE
  5
4D84
330
1A
100
AcDbEntity
  8
寸法線
100
AcDbLine
 10
52.439742126761
 20
287.79704949294
 30
0.0
 11
609.184644719826
 21
287.79704949294
 31
0.0
  0
LINE
  5
4D85
330
1A
100
AcDbEntity
  8
寸法線
100
AcDbLine
 10
52.439742126761
 20
301.86704949294
 30
0.0
 11
609.184644719826
 21
301.86704949294
 31
0.0
  0
LINE
  5
4D86
330
1A
100
AcDbEntity
  8
寸法線
100
AcDbLine
 10
52.439742126761
 20
183.376040632324
 30
0.0
 11
52.439742126761
 21
301.86704949294
 31
0.0
  0
LINE
  5
4D87
330
1A
100
AcDbEntity
  8
寸法線
100
AcDbLine
 10
299.189905072524
 20
183.376040632324
 30
0.0
 11
299.189905072524
 21
301.86704949294
 31
0.0
  0
LINE
  5
4D88
330
1A
100
AcDbEntity
  8
寸法線
100
AcDbLine
 10
52.439742126761
 20
261.691797277786
 30
0.0
 11
609.184644719825
 21
261.691797277786
 31
0.0
  0
LINE
  5
4D89
330
1A
100
AcDbEntity
  8
寸法線
100
AcDbLine
 10
52.439742126761
 20
248.63917117021
 30
0.0
 11
609.184644719825
 21
248.63917117021
 31
0.0
  0
LINE
  5
4D8A
330
1A
100
AcDbEntity
  8
寸法線
100
AcDbLine
 10
52.439742126761
 20
235.586545062633
 30
0.0
 11
609.184644719825
 21
235.586545062633
 31
0.0
  0
LINE
  5
4D8B
330
1A
100
AcDbEntity
  8
寸法線
100
AcDbLine
 10
52.439742126761
 20
222.533918955055
 30
0.0
 11
609.184644719825
 21
222.533918955055
 31
0.0
  0
LINE
  5
4D8C
330
1A
100
AcDbEntity
  8
寸法線
100
AcDbLine
 10
52.439742126761
 20
209.481292847478
 30
0.0
 11
609.184644719825
 21
209.481292847478
 31
0.0
  0
LINE
  5
4D8D
330
1A
100
AcDbEntity
  8
寸法線
100
AcDbLine
 10
330.946223636813
 20
183.376040632324
 30
0.0
 11
330.946223636813
 21
301.86704949294
 31
0.0
  0
LINE
  5
4D8E
330
1A
100
AcDbEntity
  8
寸法線
100
AcDbLine
 10
52.439742126761
 20
274.744423385363
 30
0.0
 11
609.184644719825
 21
274.744423385363
 31
0.0
  0
MTEXT
  5
4D8F
102
{ACAD_XDICTIONARY
360
4D90
102
}
330
1A
100
AcDbEntity
  8
寸法線
 48
10.0
100
AcDbMText
 10
122.529556560035
 20
299.010268461545
 30
0.0
 40
8.0
 41
76.179688866548
 71
     2
 72
     5
  1
型式TSS-A5SA-025\PTSS-A5SA-030\PTSS-A5SA-035\PTSS-A5SA-040\PTSS-A5SA-045\PTSS-A5SA-050\PTSS-A5SA-055\PTSS-A5SA-060
1001
ACADANNOTATIVE
1000
AnnotativeData
1002
{
1070
     1
1070
     0
1002
}
1001
ACAD
1000
MTEXTBEGIN
1070
    44
1040
0.99
1000
MTEXTEND
  0
LINE
  5
4D93
330
1A
100
AcDbEntity
  8
寸法線
 48
10.0
100
AcDbLine
 10
160.619400993309
 20
301.86704949294
 30
0.0
 11
160.619400993309
 21
183.376040632324
 31
0.0
  0
MTEXT
  5
4D94
330
1A
100
AcDbEntity
  8
寸法線
 48
10.0
100
AcDbMText
 10
54.966649287702
 20
299.149833248905
 30
0.0
 40
8.0
 41
41.842424242424
 71
     1
 72
     5
  1
御仕様\P \P\P　
  0
SPLINE
  5
4D95
330
1A
100
AcDbEntity
  8
寸法線
 48
10.0
100
AcDbSpline
210
0.0
220
0.0
230
1.0
 70
  1064
 71
     3
 72
    13
 73
     9
 74
     7
 42
0.000000001
 43
0.0000000001
 44
0.0000000001
 40
0.0
 40
0.0
 40
0.0
 40
0.0
 40
3.546053604694573
 40
9.27899609329885
 40
13.89970108471578
 40
17.0953966299493
 40
18.7947045570244
 40
20.02704699455825
 40
20.02704699455825
 40
20.02704699455825
 40
20.02704699455825
 10
170.1679568033433
 20
290.9858251849264
 30
0.0
 10
171.2224850724216
 20
291.4729539191306
 30
0.0
 10
173.9818803833375
 20
292.7476288466698
 30
0.0
 10
174.6468172896976
 20
301.6460857194883
 30
0.0
 10
170.7135142705512
 20
295.2459988955463
 30
0.0
 10
170.8857504667525
 20
291.9969813369779
 30
0.0
 10
172.9580321644017
 20
290.7241622601677
 30
0.0
 10
173.8746362426377
 20
291.1826793440374
 30
0.0
 10
174.2599380227078
 20
291.3754206298361
 30
0.0
 11
170.1679568033433
 21
290.9858251849264
 31
0.0
 11
172.993372236292
 21
293.1286093081228
 31
0.0
 11
173.6266551294997
 21
298.8264670068386
 31
0.0
 11
171.1422387296415
 21
294.930496040594
 31
0.0
 11
171.5806657161039
 21
291.7650179099845
 31
0.0
 11
173.0908001896647
 21
290.9858251849264
 31
0.0
 11
174.2599380227078
 21
291.3754206298361
 31
0.0
  0
SPLINE
  5
4D96
330
1A
100
AcDbEntity
  8
寸法線
 48
10.0
100
AcDbSpline
210
0.0
220
0.0
230
1.0
 70
  1064
 71
     3
 72
    13
 73
     9
 74
     7
 42
0.000000001
 43
0.0000000001
 44
0.0000000001
 40
0.0
 40
0.0
 40
0.0
 40
0.0
 40
3.546053604694573
 40
9.27899609329885
 40
13.89970108471578
 40
17.0953966299493
 40
18.7947045570244
 40
20.02704699455825
 40
20.02704699455825
 40
20.02704699455825
 40
20.02704699455825
 10
194.4068499075632
 20
290.9858251849264
 30
0.0
 10
195.4613781766415
 20
291.4729539191306
 30
0.0
 10
198.2207734875574
 20
292.7476288466698
 30
0.0
 10
198.8857103939174
 20
301.6460857194883
 30
0.0
 10
194.952407374771
 20
295.2459988955463
 30
0.0
 10
195.1246435709725
 20
291.9969813369779
 30
0.0
 10
197.1969252686214
 20
290.7241622601677
 30
0.0
 10
198.1135293468576
 20
291.1826793440374
 30
0.0
 10
198.4988311269276
 20
291.3754206298361
 30
0.0
 11
194.4068499075632
 21
290.9858251849264
 31
0.0
 11
197.2322653405119
 21
293.1286093081228
 31
0.0
 11
197.8655482337196
 21
298.8264670068386
 31
0.0
 11
195.3811318338614
 21
294.930496040594
 31
0.0
 11
195.8195588203238
 21
291.7650179099845
 31
0.0
 11
197.3296932938846
 21
290.9858251849264
 31
0.0
 11
198.4988311269276
 21
291.3754206298361
 31
0.0
  0
LINE
  5
4D9B
330
1A
100
AcDbEntity
  8
寸法線
 48
10.0
100
AcDbLine
 10
184.592140185204
 20
301.86704949294
 30
0.0
 11
184.592140185204
 21
183.376040632324
 31
0.0
  0
LINE
  5
4D9C
330
1A
100
AcDbEntity
  8
寸法線
 48
10.0
100
AcDbLine
 10
210.442715302716
 20
301.86704949294
 30
0.0
 11
210.442715302716
 21
183.376040632324
 31
0.0
  0
LINE
  5
4D9D
330
1A
100
AcDbEntity
  8
寸法線
 48
10.0
100
AcDbLine
 10
234.793997955012
 20
301.86704949294
 30
0.0
 11
234.793997955012
 21
183.376040632324
 31
0.0
  0
LINE
  5
4D9E
330
1A
100
AcDbEntity
  8
寸法線
 48
10.0
100
AcDbLine
 10
260.644573072524
 20
301.86704949294
 30
0.0
 11
260.644573072524
 21
183.376040632324
 31
0.0
  0
TEXT
  5
4D9F
330
1A
100
AcDbEntity
  8
寸法線
 48
10.0
100
AcDbText
 10
200.864878705047
 20
291.07015292427
 30
0.0
 40
5.2
  1
1
100
AcDbText
  0
SPLINE
  5
4DA0
330
1A
100
AcDbEntity
  8
寸法線
 48
10.0
100
AcDbSpline
210
0.0
220
0.0
230
1.0
 70
  1064
 71
     3
 72
    13
 73
     9
 74
     7
 42
0.000000001
 43
0.0000000001
 44
0.0000000001
 40
0.0
 40
0.0
 40
0.0
 40
0.0
 40
3.546053604694664
 40
9.278996093298929
 40
13.89970108471585
 40
17.09539662994938
 40
18.79470455702448
 40
20.02704699455833
 40
20.02704699455833
 40
20.02704699455833
 40
20.02704699455833
 10
218.758132559859
 20
290.9858251849264
 30
0.0
 10
219.8126608289373
 20
291.4729539191306
 30
0.0
 10
222.5720561398533
 20
292.7476288466696
 30
0.0
 10
223.2369930462133
 20
301.6460857194883
 30
0.0
 10
219.3036900270669
 20
295.2459988955463
 30
0.0
 10
219.4759262232682
 20
291.9969813369779
 30
0.0
 10
221.5482079209173
 20
290.7241622601677
 30
0.0
 10
222.4648119991534
 20
291.1826793440374
 30
0.0
 10
222.8501137792234
 20
291.3754206298361
 30
0.0
 11
218.758132559859
 21
290.9858251849264
 31
0.0
 11
221.5835479928078
 21
293.1286093081228
 31
0.0
 11
222.2168308860154
 21
298.8264670068386
 31
0.0
 11
219.7324144861572
 21
294.930496040594
 31
0.0
 11
220.1708414726196
 21
291.7650179099845
 31
0.0
 11
221.6809759461804
 21
290.9858251849264
 31
0.0
 11
222.8501137792234
 21
291.3754206298361
 31
0.0
  0
TEXT
  5
4DA1
330
1A
100
AcDbEntity
  8
寸法線
 48
10.0
100
AcDbText
 10
225.216161357343
 20
291.07015292427
 30
0.0
 40
5.2
  1
2
100
AcDbText
  0
TEXT
  5
4DA2
330
1A
100
AcDbEntity
  8
寸法線
 48
10.0
100
AcDbText
 10
251.066736474855
 20
291.07015292427
 30
0.0
 40
5.2
  1
3
100
AcDbText
  0
SPLINE
  5
4DA3
330
1A
100
AcDbEntity
  8
寸法線
 48
10.0
100
AcDbSpline
210
0.0
220
0.0
230
1.0
 70
  1064
 71
     3
 72
    13
 73
     9
 74
     7
 42
0.000000001
 43
0.0000000001
 44
0.0000000001
 40
0.0
 40
0.0
 40
0.0
 40
0.0
 40
3.546053604694664
 40
9.278996093298929
 40
13.89970108471585
 40
17.09539662994938
 40
18.79470455702448
 40
20.02704699455833
 40
20.02704699455833
 40
20.02704699455833
 40
20.02704699455833
 10
244.6087076773708
 20
290.9858251849264
 30
0.0
 10
245.6632359464492
 20
291.4729539191306
 30
0.0
 10
248.4226312573651
 20
292.7476288466696
 30
0.0
 10
249.0875681637252
 20
301.6460857194883
 30
0.0
 10
245.1542651445787
 20
295.2459988955463
 30
0.0
 10
245.3265013407801
 20
291.9969813369779
 30
0.0
 10
247.3987830384292
 20
290.7241622601677
 30
0.0
 10
248.3153871166652
 20
291.1826793440374
 30
0.0
 10
248.7006888967353
 20
291.3754206298361
 30
0.0
 11
244.6087076773708
 21
290.9858251849264
 31
0.0
 11
247.4341231103197
 21
293.1286093081228
 31
0.0
 11
248.0674060035273
 21
298.8264670068386
 31
0.0
 11
245.582989603669
 21
294.930496040594
 31
0.0
 11
246.0214165901315
 21
291.7650179099845
 31
0.0
 11
247.5315510636923
 21
290.9858251849264
 31
0.0
 11
248.7006888967353
 21
291.3754206298361
 31
0.0
  0
MTEXT
  5
4DA4
330
1A
100
AcDbEntity
  8
寸法線
 48
10.0
100
AcDbMText
 10
270.823295809253
 20
298.649231834913
 30
0.0
 40
8.0
 41
19.321844296148
 71
     1
 72
     5
  1
記事
  0
MTEXT
  5
4DA5
330
1A
100
AcDbEntity
  8
寸法線
 48
10.0
100
AcDbMText
 10
306.509927500234
 20
298.649231834913
 30
0.0
 40
8.0
 41
27.29696969697
 71
     1
 72
     5
  1
台数\P\P 
  0
LINE
  5
4DA6
330
1A
100
AcDbEntity
  8
寸法線
100
AcDbLine
 10
333.480723685489
 20
183.376040632324
 30
0.0
 11
333.480723685489
 21
301.86704949294
 31
0.0
  0
MTEXT
  5
4DA7
330
1A
100
AcDbEntity
  8
寸法線
 48
10.0
100
AcDbMText
 10
336.00763084643
 20
298.649231834913
 30
0.0
 40
8.0
 41
27.323158825411
 71
     1
 72
     5
  1
御仕様
  0
MTEXT
  5
4DA8
102
{ACAD_XDICTIONARY
360
4DA9
102
}
330
1A
100
AcDbEntity
  8
寸法線
 48
10.0
100
AcDbMText
 10
403.570538118763
 20
299.010268461545
 30
0.0
 40
8.0
 41
76.179688866548
 71
     2
 72
     5
  1
型式\PTSS-A5SA-065\PTSS-A5SA-070\PTSS-A5SA-075\PTSS-A5SA-080\PTSS-A5SA-085\PTSS-A5SA-090\PTSS-A5SA-095\PTSS-A5SA-100
1001
ACADANNOTATIVE
1000
AnnotativeData
1002
{
1070
     1
1070
     0
1002
}
1001
ACAD
1000
MTEXTBEGIN
1070
    44
1040
0.99
1000
MTEXTEND
  0
MTEXT
  5
4DB3
330
1A
100
AcDbEntity
  8
寸法線
 48
10.0
100
AcDbMText
 10
549.061716892265
 20
298.649231834913
 30
0.0
 40
8.0
 41
19.321844296148
 71
     1
 72
     5
  1
記事
  0
MTEXT
  5
4DB4
330
1A
100
AcDbEntity
  8
寸法線
 48
10.0
100
AcDbMText
 10
584.748348583247
 20
298.649231834913
 30
0.0
 40
8.0
 41
19.321844296148
 71
     1
 72
     5
  1
台数
  0
LINE
  5
4DB9
330
1A
100
AcDbEntity
  8
寸法線
100
AcDbLine
 10
365.480693685489
 20
183.376040632324
 30
0.0
 11
365.480693685489
 21
301.86704949294
 31
0.0
  0
LINE
  5
4DBF
330
1A
100
AcDbEntity
  8
寸法線
100
AcDbLine
 10
577.428326155537
 20
183.376040632324
 30
0.0
 11
577.428326155537
 21
301.86704949294
 31
0.0
  0
LINE
  5
4DC0
330
1A
100
AcDbEntity
  8
寸法線
100
AcDbLine
 10
609.184644719825
 20
183.376040632324
 30
0.0
 11
609.184644719826
 21
301.86704949294
 31
0.0
  0
TEXT
  5
4DC1
330
1A
100
AcDbEntity
  8
寸法線
 48
10.0
100
AcDbText
 10
447.89701006485
 20
170.246718515142
 30
0.0
 40
8.0
  1
○印が今回の貴社の御仕様です。
100
AcDbText
  0
LINE
  5
4DC3
330
1A
100
AcDbEntity
  8
寸法線
100
AcDbLine
 10
52.439742126761
 20
183.376040632324
 30
0.0
 11
609.184644719825
 21
183.376040632324
 31
0.0
  0
ARC
  5
4DCA
330
1A
100
AcDbEntity
  8
細線
 48
10.0
100
AcDbCircle
 10
242.915812006273
 20
444.588796727989
 30
0.0
 40
8.222656249999796
100
AcDbArc
 50
319.180234332392
 51
40.819765667608
  0
ARC
  5
4DCB
330
1A
100
AcDbEntity
  8
細線
 48
10.0
100
AcDbCircle
 10
242.915812006273
 20
433.838796727989
 30
0.0
 40
8.222656249999796
100
AcDbArc
 50
319.180234332392
 51
40.819765667609
  0
ARC
  5
4DCC
330
1A
100
AcDbEntity
  8
細線
 48
10.0
100
AcDbCircle
 10
255.361124506273
 20
444.588796727988
 30
0.0
 40
8.222656249999796
100
AcDbArc
 50
139.180234332391
 51
220.819765667608
  0
ARC
  5
4DCD
330
1A
100
AcDbEntity
  8
細線
 48
10.0
100
AcDbCircle
 10
262.361124506272
 20
444.588796727989
 30
0.0
 40
8.222656249999796
100
AcDbArc
 50
139.180234332391
 51
220.819765667609
  0
ARC
  5
4DCE
330
1A
100
AcDbEntity
  8
細線
 48
10.0
100
AcDbCircle
 10
249.915812006273
 20
433.838796727989
 30
0.0
 40
8.222656249999796
100
AcDbArc
 50
319.180234332392
 51
40.819765667608
  0
ARC
  5
4DCF
330
1A
100
AcDbEntity
  8
細線
 48
10.0
100
AcDbCircle
 10
262.361124506272
 20
433.838796727989
 30
0.0
 40
8.222656249999796
100
AcDbArc
 50
139.180234332391
 51
220.819765667609
  0
ARC
  5
4DD0
330
1A
100
AcDbEntity
  8
細線
 48
10.0
100
AcDbCircle
 10
180.611124506273
 20
444.588796727988
 30
0.0
 40
8.222656249999796
100
AcDbArc
 50
139.180234332391
 51
220.819765667607
  0
ARC
  5
4DD1
330
1A
100
AcDbEntity
  8
細線
 48
10.0
100
AcDbCircle
 10
168.165812006273
 20
444.588796727989
 30
0.0
 40
8.222656249999796
100
AcDbArc
 50
319.180234332392
 51
40.819765667609
  0
ARC
  5
4DD2
330
1A
100
AcDbEntity
  8
細線
 48
10.0
100
AcDbCircle
 10
168.165812006273
 20
433.838796727989
 30
0.0
 40
8.222656249999796
100
AcDbArc
 50
319.180234332391
 51
40.819765667609
  0
ARC
  5
4DD3
330
1A
100
AcDbEntity
  8
細線
 48
10.0
100
AcDbCircle
 10
187.611124506272
 20
433.838796727989
 30
0.0
 40
8.222656249999796
100
AcDbArc
 50
139.180234332391
 51
220.819765667608
  0
ARC
  5
4DD4
330
1A
100
AcDbEntity
  8
細線
 48
10.0
100
AcDbCircle
 10
175.165812006273
 20
433.838796727989
 30
0.0
 40
8.222656249999796
100
AcDbArc
 50
319.180234332392
 51
40.819765667609
  0
ARC
  5
4DD5
330
1A
100
AcDbEntity
  8
細線
 48
10.0
100
AcDbCircle
 10
187.611124506272
 20
444.588796727988
 30
0.0
 40
8.222656249999796
100
AcDbArc
 50
139.180234332391
 51
220.819765667608
  0
SPLINE
  5
4DD6
330
1A
100
AcDbEntity
  8
寸法線
 48
10.0
100
AcDbSpline
210
0.0
220
0.0
230
1.0
 70
  1064
 71
     3
 72
    13
 73
     9
 74
     7
 42
0.000000001
 43
0.0000000001
 44
0.0000000001
 40
0.0
 40
0.0
 40
0.0
 40
0.0
 40
3.223685095176967
 40
8.435450993908002
 40
12.63609189519606
 40
15.54126966359024
 40
17.08609505184027
 40
18.20640635868928
 40
18.20640635868928
 40
18.20640635868928
 40
18.20640635868928
 10
98.65828069620497
 20
364.3745131037279
 30
0.0
 10
99.61694275900344
 20
364.8173574075498
 30
0.0
 10
102.1254839507452
 20
365.9761527962219
 30
0.0
 10
102.7299720474363
 20
374.0656590442385
 30
0.0
 10
99.15424203003016
 20
368.2473982952005
 30
0.0
 10
99.31082039021332
 20
365.2937459692292
 30
0.0
 10
101.1947128426217
 20
364.1366377175839
 30
0.0
 10
102.0279892773817
 20
364.5534714301924
 30
0.0
 10
102.3782636228999
 20
364.7286907809185
 30
0.0
 11
98.65828069620497
 21
364.3745131037279
 31
0.0
 11
101.2268401807039
 21
366.3224986702701
 31
0.0
 11
101.8025519018018
 21
371.5023693054662
 31
0.0
 11
99.5439915382942
 21
367.9605775179712
 31
0.0
 11
99.94256152598737
 21
365.082870126508
 31
0.0
 11
101.3154110474062
 21
364.3745131037279
 31
0.0
 11
102.3782636228999
 21
364.7286907809185
 31
0.0
  0
TEXT
  5
4DD7
330
1A
100
AcDbEntity
  8
寸法線
 48
10.0
100
AcDbText
 10
104.74431120102
 20
364.423423075353
 30
0.0
 40
5.2
  1
1
100
AcDbText
  0
SPLINE
  5
4DD8
330
1A
100
AcDbEntity
  8
寸法線
 48
10.0
100
AcDbSpline
210
0.0
220
0.0
230
1.0
 70
  1064
 71
     3
 72
    13
 73
     9
 74
     7
 42
0.000000001
 43
0.0000000001
 44
0.0000000001
 40
0.0
 40
0.0
 40
0.0
 40
0.0
 40
3.223685095176967
 40
8.435450993908002
 40
12.63609189519606
 40
15.54126966359024
 40
17.08609505184027
 40
18.20640635868928
 40
18.20640635868928
 40
18.20640635868928
 40
18.20640635868928
 10
173.6610436436546
 20
364.3745131037279
 30
0.0
 10
174.619705706453
 20
364.8173574075498
 30
0.0
 10
177.1282468981948
 20
365.9761527962219
 30
0.0
 10
177.7327349948858
 20
374.0656590442385
 30
0.0
 10
174.1570049774798
 20
368.2473982952005
 30
0.0
 10
174.3135833376629
 20
365.2937459692292
 30
0.0
 10
176.1974757900713
 20
364.1366377175839
 30
0.0
 10
177.0307522248312
 20
364.5534714301924
 30
0.0
 10
177.3810265703495
 20
364.7286907809185
 30
0.0
 11
173.6610436436546
 21
364.3745131037279
 31
0.0
 11
176.2296031281535
 21
366.3224986702701
 31
0.0
 11
176.8053148492513
 21
371.5023693054662
 31
0.0
 11
174.5467544857438
 21
367.9605775179712
 31
0.0
 11
174.945324473437
 21
365.082870126508
 31
0.0
 11
176.3181739948558
 21
364.3745131037279
 31
0.0
 11
177.3810265703495
 21
364.7286907809185
 31
0.0
  0
TEXT
  5
4DD9
330
1A
100
AcDbEntity
  8
寸法線
 48
10.0
100
AcDbText
 10
179.747074148469
 20
364.423423075353
 30
0.0
 40
5.2
  1
2
100
AcDbText
  0
TEXT
  5
4DDA
330
1A
100
AcDbEntity
  8
寸法線
 48
10.0
100
AcDbText
 10
253.9506181916
 20
364.423423075353
 30
0.0
 40
5.2
  1
3
100
AcDbText
  0
SPLINE
  5
4DDB
330
1A
100
AcDbEntity
  8
寸法線
 48
10.0
100
AcDbSpline
210
0.0
220
0.0
230
1.0
 70
  1064
 71
     3
 72
    13
 73
     9
 74
     7
 42
0.000000001
 43
0.0000000001
 44
0.0000000001
 40
0.0
 40
0.0
 40
0.0
 40
0.0
 40
3.223685095176967
 40
8.43545099390801
 40
12.6360918951961
 40
15.54126966359029
 40
17.08609505184032
 40
18.20640635868933
 40
18.20640635868933
 40
18.20640635868933
 40
18.20640635868933
 10
247.864587686785
 20
364.3745131037279
 30
0.0
 10
248.8232497495835
 20
364.8173574075499
 30
0.0
 10
251.3317909413253
 20
365.976152796222
 30
0.0
 10
251.9362790380164
 20
374.0656590442384
 30
0.0
 10
248.3605490206101
 20
368.2473982952005
 30
0.0
 10
248.5171273807934
 20
365.2937459692292
 30
0.0
 10
250.4010198332018
 20
364.1366377175837
 30
0.0
 10
251.2342962679618
 20
364.5534714301925
 30
0.0
 10
251.58457061348
 20
364.7286907809185
 30
0.0
 11
247.864587686785
 21
364.3745131037279
 31
0.0
 11
250.4331471712839
 21
366.3224986702701
 31
0.0
 11
251.0088588923819
 21
371.5023693054662
 31
0.0
 11
248.7502985288742
 21
367.9605775179712
 31
0.0
 11
249.1488685165675
 21
365.082870126508
 31
0.0
 11
250.5217180379863
 21
364.3745131037279
 31
0.0
 11
251.58457061348
 21
364.7286907809185
 31
0.0
  0
SPLINE
  5
4DDC
330
1A
100
AcDbEntity
  8
寸法線
 48
10.0
100
AcDbSpline
210
0.0
220
0.0
230
1.0
 70
  1064
 71
     3
 72
    13
 73
     9
 74
     7
 42
0.000000001
 43
0.0000000001
 44
0.0000000001
 40
0.0
 40
0.0
 40
0.0
 40
0.0
 40
3.223685095176967
 40
8.435450993908116
 40
12.63609189519624
 40
15.54126966359041
 40
17.08609505184049
 40
18.20640635868945
 40
18.20640635868945
 40
18.20640635868945
 40
18.20640635868945
 10
176.347269227936
 20
342.5310654569479
 30
0.0
 10
177.3059312907345
 20
342.9739097607699
 30
0.0
 10
179.8144724824763
 20
344.1327051494419
 30
0.0
 10
180.4189605791674
 20
352.2222113974589
 30
0.0
 10
176.8432305617613
 20
346.4039506484205
 30
0.0
 10
176.9998089219444
 20
343.4502983224492
 30
0.0
 10
178.8837013743528
 20
342.2931900708039
 30
0.0
 10
179.7169778091128
 20
342.7100237834126
 30
0.0
 10
180.067252154631
 20
342.8852431341385
 30
0.0
 11
176.347269227936
 21
342.5310654569479
 31
0.0
 11
178.9158287124349
 21
344.4790510234902
 31
0.0
 11
179.4915404335328
 21
349.6589216586863
 31
0.0
 11
177.2329800700253
 21
346.1171298711913
 31
0.0
 11
177.6315500577184
 21
343.239422479728
 31
0.0
 11
179.0043995791374
 21
342.5310654569479
 31
0.0
 11
180.067252154631
 21
342.8852431341385
 31
0.0
  0
DIMENSION
  5
4DDD
330
1A
100
AcDbEntity
  8
寸法線
 48
10.0
100
AcDbDimension
  2
*D64
 10
302.638468256273
 20
341.306282997388
 30
0.0
 11
177.638468256273
 21
324.711385351917
 31
0.0
 70
    32
  1
 
  3
ISO-25
100
AcDbAlignedDimension
 13
52.638468256273
 23
432.213796727988
 33
0.0
 14
302.638468256273
 24
353.714486348731
 34
0.0
100
AcDbRotatedDimension
1001
ACAD
1000
DSTYLE
1002
{
1070
     5
1000
OPEN30
1070
    41
1040
6.0
1070
    47
1040
0.1
1070
    48
1040
0.1
1070
    73
1070
     0
1070
   140
1040
8.0
1070
   271
1070
     1
1070
   272
1070
     1
1070
   341
1005
2AF4
1002
}
  0
DIMENSION
  5
4DDE
330
1A
100
AcDbEntity
  8
寸法線
 48
10.0
100
AcDbDimension
  2
*D65
 10
302.638468256273
 20
363.401345307372
 30
0.0
 11
252.638468256273
 21
344.711385351917
 31
0.0
 70
    32
  1
 
  3
ISO-25
100
AcDbAlignedDimension
 13
202.638468256273
 23
428.463796727988
 33
0.0
 14
302.638468256273
 24
407.21448649626
 34
0.0
100
AcDbRotatedDimension
1001
ACAD
1000
DSTYLE
1002
{
1070
     5
1000
OPEN30
1070
    41
1040
6.0
1070
    47
1040
0.1
1070
    48
1040
0.1
1070
    73
1070
     0
1070
   140
1040
8.0
1070
   271
1070
     1
1070
   272
1070
     1
1070
   341
1005
2AF4
1002
}
  0
DIMENSION
  5
4DDF
330
1A
100
AcDbEntity
  8
寸法線
 48
10.0
100
AcDbDimension
  2
*D66
 10
202.638468256273
 20
363.401345307372
 30
0.0
 11
177.638468256273
 21
344.711385351917
 31
0.0
 70
    32
  1
 
  3
ISO-25
100
AcDbAlignedDimension
 13
152.638468256273
 23
428.963796727988
 33
0.0
 14
202.638468256273
 24
428.463796727988
 34
0.0
100
AcDbRotatedDimension
1001
ACAD
1000
DSTYLE
1002
{
1070
     5
1000
OPEN30
1070
    41
1040
6.0
1070
    47
1040
0.1
1070
    48
1040
0.1
1070
    73
1070
     0
1070
   140
1040
8.0
1070
   271
1070
     1
1070
   272
1070
     1
1070
   341
1005
2AF4
1002
}
  0
DIMENSION
  5
4DE0
330
1A
100
AcDbEntity
  8
寸法線
 48
10.0
100
AcDbDimension
  2
*D67
 10
152.638468256273
 20
363.401345307372
 30
0.0
 11
102.638468256273
 21
344.711385351917
 31
0.0
 70
    32
  1
 
  3
ISO-25
100
AcDbAlignedDimension
 13
52.638468256273
 23
432.213796727988
 33
0.0
 14
152.638468256273
 24
428.963796727988
 34
0.0
100
AcDbRotatedDimension
1001
ACAD
1000
DSTYLE
1002
{
1070
     5
1000
OPEN30
1070
    41
1040
6.0
1070
    47
1040
0.1
1070
    48
1040
0.1
1070
    73
1070
     0
1070
   140
1040
8.0
1070
   271
1070
     1
1070
   272
1070
     1
1070
   341
1005
2AF4
1002
}
  0
DIMENSION
  5
4DE1
330
1A
100
AcDbEntity
  8
寸法線
 48
10.0
100
AcDbDimension
  2
*D68
 10
190.0
 20
428.463796727988
 30
0.0
 11
190.0
 21
468.954482152938
 31
0.0
 70
   160
  1
φ<>
  3
ISO-25
100
AcDbAlignedDimension
 13
202.638468256273
 23
449.963796727988
 33
0.0
 14
202.638468256273
 24
428.463796727988
 34
0.0
 50
90.0
100
AcDbRotatedDimension
1001
ACAD
1000
DSTYLE
1002
{
1070
     5
1000
OPEN30
1070
    76
1070
     1
1070
    75
1070
     1
1070
   282
1070
     0
1070
   281
1070
     0
1070
    41
1040
6.0
1070
    47
1040
0.1
1070
    48
1040
0.1
1070
    73
1070
     0
1070
   140
1040
8.0
1070
   271
1070
     1
1070
   272
1070
     1
1070
   341
1005
2AF4
1002
}
  0
LWPOLYLINE
  5
4DE3
330
1A
100
AcDbEntity
  8
外形線
100
AcDbPolyline
 90
        6
 70
     0
 43
0.0
 10
249.138468256273
 20
449.963796727989
 10
203.138468256273
 20
449.963796727989
 10
202.638468256273
 20
449.463796727989
 10
202.638468256273
 20
428.963796727989
 10
203.138468256273
 20
428.463796727989
 10
249.138468256273
 20
428.463796727989
  0
LWPOLYLINE
  5
4DE4
330
1A
100
AcDbEntity
  8
外形線
100
AcDbPolyline
 90
        6
 70
     0
 43
0.0
 10
174.388468256273
 20
449.963796727988
 10
153.138468256273
 20
449.963796727988
 10
152.638468256273
 20
449.463796727988
 10
152.638468256273
 20
428.963796727988
 10
153.138468256273
 20
428.463796727988
 10
174.388468256273
 20
428.463796727988
  0
LWPOLYLINE
  5
4DE6
330
1A
100
AcDbEntity
  8
外形線
100
AcDbPolyline
 90
        4
 70
     0
 43
0.0
 10
256.138468256272
 20
428.463796727989
 10
302.638468256273
 20
428.463796727989
 10
302.638468256273
 20
449.963796727989
 10
256.138468256273
 20
449.963796727989
  0
LWPOLYLINE
  5
4DE7
330
1A
100
AcDbEntity
  8
外形線
100
AcDbPolyline
 90
        4
 70
     0
 43
0.0
 10
181.388468256272
 20
428.463796727988
 10
202.638468256273
 20
428.463796727988
 10
202.638468256273
 20
449.963796727988
 10
181.388468256273
 20
449.963796727988
  0
DIMENSION
  5
4DE9
330
1A
100
AcDbEntity
  8
寸法線
 48
10.0
100
AcDbDimension
  2
*D70
 10
277.503245931181
 20
428.463796727988
 30
0.0
 11
277.503245931181
 21
468.954482152938
 31
0.0
 70
   160
  1
φ<>
  3
ISO-25
100
AcDbAlignedDimension
 13
289.167112089597
 23
449.963796727988
 33
0.0
 14
289.167112089597
 24
428.463796727988
 34
0.0
 50
90.0
100
AcDbRotatedDimension
1001
ACAD
1000
DSTYLE
1002
{
1070
     5
1000
OPEN30
1070
    76
1070
     1
1070
    75
1070
     1
1070
    41
1040
6.0
1070
    47
1040
0.1
1070
    48
1040
0.1
1070
    73
1070
     0
1070
   140
1040
8.0
1070
   271
1070
     1
1070
   272
1070
     1
1070
   341
1005
2AF4
1002
}
  0
DIMENSION
  5
4E75
330
1A
100
AcDbEntity
  8
寸法線
 48
10.0
100
AcDbDimension
  2
*D71
 10
437.638503829947
 20
363.401345307372
 30
0.0
 11
392.638486043364
 21
368.026345307372
 31
0.0
 70
    32
  3
ISO-25
100
AcDbAlignedDimension
 13
347.638468256781
 23
420.213796722261
 33
0.0
 14
437.638503829947
 24
393.213796722261
 34
0.0
100
AcDbRotatedDimension
1001
ACAD
1000
DSTYLE
1002
{
1070
     5
1000
OPEN30
1070
    41
1040
6.0
1070
   271
1070
     1
1070
   341
1005
2AF4
1070
   272
1070
     1
1070
    73
1070
     0
1070
    48
1040
0.1
1070
    47
1040
0.1
1070
   140
1040
8.0
1002
}
  0
MTEXT
  5
4E88
102
{ACAD_XDICTIONARY
360
4E89
102
}
330
1A
100
AcDbEntity
  8
寸法線
 48
10.0
100
AcDbMText
 10
172.855176847982
 20
284.757621851478
 30
0.0
 40
8.0
 41
23.854899029718
 71
     2
 72
     5
  1
250\P300\P350\P400\P450\P500\P550\P600
1001
ACADANNOTATIVE
1000
AnnotativeData
1002
{
1070
     1
1070
     0
1002
}
1001
ACAD
1000
MTEXTBEGIN
1070
    44
1040
0.98
1000
MTEXTEND
  0
MTEXT
  5
4E98
102
{ACAD_XDICTIONARY
360
4E99
102
}
330
1A
100
AcDbEntity
  8
寸法線
 48
10.0
100
AcDbMText
 10
197.289393237006
 20
284.757621851478
 30
0.0
 40
8.0
 41
23.854899029718
 71
     2
 72
     5
  1
100\P100\P100\P100\P100\P100\P150\P150
1001
ACADANNOTATIVE
1000
AnnotativeData
1002
{
1070
     1
1070
     0
1002
}
1001
ACAD
1000
MTEXTBEGIN
1070
    44
1040
0.98
1000
MTEXTEND
  0
MTEXT
  5
4E9C
102
{ACAD_XDICTIONARY
360
4E9D
102
}
330
1A
100
AcDbEntity
  8
寸法線
 48
10.0
100
AcDbMText
 10
221.488155939556
 20
284.757621851478
 30
0.0
 40
8.0
 41
23.854899029718
 71
     2
 72
     5
  1
50\P50\P50\P50\P50\P50\P50\P50
1001
ACADANNOTATIVE
1000
AnnotativeData
1002
{
1070
     1
1070
     0
1002
}
1001
ACAD
1000
MTEXTBEGIN
1070
    44
1040
0.98
1000
MTEXTEND
  0
MTEXT
  5
4EA0
102
{ACAD_XDICTIONARY
360
4EA1
102
}
330
1A
100
AcDbEntity
  8
寸法線
 48
10.0
100
AcDbMText
 10
247.607490700237
 20
284.757621851478
 30
0.0
 40
8.0
 41
23.854899029718
 71
     2
 72
     5
  1
100\P150\P200\P250\P300\P350\P350\P400
1001
ACADANNOTATIVE
1000
AnnotativeData
1002
{
1070
     1
1070
     0
1002
}
1001
ACAD
1000
MTEXTBEGIN
1070
    44
1040
0.98
1000
MTEXTEND
  0
MTEXT
  5
4EA4
102
{ACAD_XDICTIONARY
360
4EA5
102
}
330
1A
100
AcDbEntity
  8
寸法線
 48
10.0
100
AcDbMText
 10
479.864251224377
 20
284.757621851478
 30
0.0
 40
8.0
 41
23.854899029718
 71
     2
 72
     5
  1
150\P150\P150\P150\P150\P150\P150\P150
1001
ACADANNOTATIVE
1000
AnnotativeData
1002
{
1070
     1
1070
     0
1002
}
1001
ACAD
1000
MTEXTBEGIN
1070
    44
1040
0.98
1000
MTEXTEND
  0
MTEXT
  5
4EA8
102
{ACAD_XDICTIONARY
360
4EA9
102
}
330
1A
100
AcDbEntity
  8
寸法線
 48
10.0
100
AcDbMText
 10
504.857039216506
 20
284.757621851478
 30
0.0
 40
8.0
 41
23.854899029718
 71
     2
 72
     5
  1
50\P50\P50\P50\P50\P50\P50\P50
1001
ACADANNOTATIVE
1000
AnnotativeData
1002
{
1070
     1
1070
     0
1002
}
1001
ACAD
1000
MTEXTBEGIN
1070
    44
1040
0.98
1000
MTEXTEND
  0
MTEXT
  5
4EAC
102
{ACAD_XDICTIONARY
360
4EAD
102
}
330
1A
100
AcDbEntity
  8
寸法線
 48
10.0
100
AcDbMText
 10
529.09566150882
 20
284.757621851478
 30
0.0
 40
8.0
 41
23.854899029718
 71
     2
 72
     5
  1
450\P500\P550\P600\P650\P700\P750\P800
1001
ACADANNOTATIVE
1000
AnnotativeData
1002
{
1070
     1
1070
     0
1002
}
1001
ACAD
1000
MTEXTBEGIN
1070
    44
1040
0.98
1000
MTEXTEND
  0
MTEXT
  5
4EB0
102
{ACAD_XDICTIONARY
360
4EB1
102
}
330
1A
100
AcDbEntity
  8
寸法線
 48
10.0
100
AcDbMText
 10
453.363131832617
 20
284.757621851478
 30
0.0
 40
8.0
 41
23.854899029718
 71
     2
 72
     5
  1
650\P700\P750\P800\P850\P900\P950\P1000
1001
ACADANNOTATIVE
1000
AnnotativeData
1002
{
1070
     1
1070
     0
1002
}
1001
ACAD
1000
MTEXTBEGIN
1070
    44
1040
0.98
1000
MTEXTEND
  0
LINE
  5
512C
330
1A
100
AcDbEntity
  8
寸法線
 48
10.0
100
AcDbLine
 10
441.660382552038
 20
301.86704949294
 30
0.0
 11
441.660382552038
 21
183.376040632324
 31
0.0
  0
SPLINE
  5
512D
330
1A
100
AcDbEntity
  8
寸法線
 48
10.0
100
AcDbSpline
210
0.0
220
0.0
230
1.0
 70
  1064
 71
     3
 72
    13
 73
     9
 74
     7
 42
0.000000001
 43
0.0000000001
 44
0.0000000001
 40
0.0
 40
0.0
 40
0.0
 40
0.0
 40
3.546053604694573
 40
9.27899609329885
 40
13.89970108471578
 40
17.0953966299493
 40
18.7947045570244
 40
20.02704699455825
 40
20.02704699455825
 40
20.02704699455825
 40
20.02704699455825
 10
451.2089383620713
 20
290.9858251849264
 30
0.0
 10
452.2634666311496
 20
291.4729539191306
 30
0.0
 10
455.0228619420656
 20
292.7476288466698
 30
0.0
 10
455.6877988484255
 20
301.6460857194883
 30
0.0
 10
451.7544958292793
 20
295.2459988955463
 30
0.0
 10
451.9267320254806
 20
291.9969813369779
 30
0.0
 10
453.9990137231295
 20
290.7241622601677
 30
0.0
 10
454.9156178013657
 20
291.1826793440374
 30
0.0
 10
455.3009195814358
 20
291.3754206298361
 30
0.0
 11
451.2089383620713
 21
290.9858251849264
 31
0.0
 11
454.03435379502
 21
293.1286093081228
 31
0.0
 11
454.6676366882277
 21
298.8264670068386
 31
0.0
 11
452.1832202883695
 21
294.930496040594
 31
0.0
 11
452.621647274832
 21
291.7650179099845
 31
0.0
 11
454.1317817483928
 21
290.9858251849264
 31
0.0
 11
455.3009195814358
 21
291.3754206298361
 31
0.0
  0
SPLINE
  5
512E
330
1A
100
AcDbEntity
  8
寸法線
 48
10.0
100
AcDbSpline
210
0.0
220
0.0
230
1.0
 70
  1064
 71
     3
 72
    13
 73
     9
 74
     7
 42
0.000000001
 43
0.0000000001
 44
0.0000000001
 40
0.0
 40
0.0
 40
0.0
 40
0.0
 40
3.546053604694573
 40
9.27899609329885
 40
13.89970108471578
 40
17.0953966299493
 40
18.7947045570244
 40
20.02704699455825
 40
20.02704699455825
 40
20.02704699455825
 40
20.02704699455825
 10
475.4478314662912
 20
290.9858251849264
 30
0.0
 10
476.5023597353695
 20
291.4729539191306
 30
0.0
 10
479.2617550462855
 20
292.7476288466698
 30
0.0
 10
479.9266919526453
 20
301.6460857194883
 30
0.0
 10
475.9933889334992
 20
295.2459988955463
 30
0.0
 10
476.1656251297005
 20
291.9969813369779
 30
0.0
 10
478.2379068273494
 20
290.7241622601677
 30
0.0
 10
479.1545109055856
 20
291.1826793440374
 30
0.0
 10
479.5398126856556
 20
291.3754206298361
 30
0.0
 11
475.4478314662912
 21
290.9858251849264
 31
0.0
 11
478.2732468992399
 21
293.1286093081228
 31
0.0
 11
478.9065297924476
 21
298.8264670068386
 31
0.0
 11
476.4221133925894
 21
294.930496040594
 31
0.0
 11
476.8605403790518
 21
291.7650179099845
 31
0.0
 11
478.3706748526126
 21
290.9858251849264
 31
0.0
 11
479.5398126856556
 21
291.3754206298361
 31
0.0
  0
LINE
  5
512F
330
1A
100
AcDbEntity
  8
寸法線
 48
10.0
100
AcDbLine
 10
465.633121743933
 20
301.86704949294
 30
0.0
 11
465.633121743933
 21
183.376040632324
 31
0.0
  0
LINE
  5
5130
330
1A
100
AcDbEntity
  8
寸法線
 48
10.0
100
AcDbLine
 10
491.483696861444
 20
301.86704949294
 30
0.0
 11
491.483696861444
 21
183.376040632324
 31
0.0
  0
LINE
  5
5131
330
1A
100
AcDbEntity
  8
寸法線
 48
10.0
100
AcDbLine
 10
515.83497951374
 20
301.86704949294
 30
0.0
 11
515.83497951374
 21
183.376040632324
 31
0.0
  0
LINE
  5
5132
330
1A
100
AcDbEntity
  8
寸法線
 48
10.0
100
AcDbLine
 10
541.685554631252
 20
301.86704949294
 30
0.0
 11
541.685554631252
 21
183.376040632324
 31
0.0
  0
TEXT
  5
5133
330
1A
100
AcDbEntity
  8
寸法線
 48
10.0
100
AcDbText
 10
481.905860263775
 20
291.07015292427
 30
0.0
 40
5.2
  1
1
100
AcDbText
  0
SPLINE
  5
5134
330
1A
100
AcDbEntity
  8
寸法線
 48
10.0
100
AcDbSpline
210
0.0
220
0.0
230
1.0
 70
  1064
 71
     3
 72
    13
 73
     9
 74
     7
 42
0.000000001
 43
0.0000000001
 44
0.0000000001
 40
0.0
 40
0.0
 40
0.0
 40
0.0
 40
3.546053604694664
 40
9.278996093298929
 40
13.89970108471585
 40
17.09539662994938
 40
18.79470455702448
 40
20.02704699455833
 40
20.02704699455833
 40
20.02704699455833
 40
20.02704699455833
 10
499.799114118587
 20
290.9858251849264
 30
0.0
 10
500.8536423876653
 20
291.4729539191306
 30
0.0
 10
503.6130376985813
 20
292.7476288466696
 30
0.0
 10
504.2779746049414
 20
301.6460857194883
 30
0.0
 10
500.3446715857951
 20
295.2459988955463
 30
0.0
 10
500.5169077819963
 20
291.9969813369779
 30
0.0
 10
502.5891894796452
 20
290.7241622601677
 30
0.0
 10
503.5057935578814
 20
291.1826793440374
 30
0.0
 10
503.8910953379515
 20
291.3754206298361
 30
0.0
 11
499.799114118587
 21
290.9858251849264
 31
0.0
 11
502.6245295515358
 21
293.1286093081228
 31
0.0
 11
503.2578124447434
 21
298.8264670068386
 31
0.0
 11
500.7733960448852
 21
294.930496040594
 31
0.0
 11
501.2118230313476
 21
291.7650179099845
 31
0.0
 11
502.7219575049085
 21
290.9858251849264
 31
0.0
 11
503.8910953379515
 21
291.3754206298361
 31
0.0
  0
TEXT
  5
5135
330
1A
100
AcDbEntity
  8
寸法線
 48
10.0
100
AcDbText
 10
506.257142916071
 20
291.07015292427
 30
0.0
 40
5.2
  1
2
100
AcDbText
  0
TEXT
  5
5136
330
1A
100
AcDbEntity
  8
寸法線
 48
10.0
100
AcDbText
 10
532.107718033583
 20
291.07015292427
 30
0.0
 40
5.2
  1
3
100
AcDbText
  0
SPLINE
  5
5137
330
1A
100
AcDbEntity
  8
寸法線
 48
10.0
100
AcDbSpline
210
0.0
220
0.0
230
1.0
 70
  1064
 71
     3
 72
    13
 73
     9
 74
     7
 42
0.000000001
 43
0.0000000001
 44
0.0000000001
 40
0.0
 40
0.0
 40
0.0
 40
0.0
 40
3.546053604694664
 40
9.278996093298929
 40
13.89970108471585
 40
17.09539662994938
 40
18.79470455702448
 40
20.02704699455833
 40
20.02704699455833
 40
20.02704699455833
 40
20.02704699455833
 10
525.6496892360989
 20
290.9858251849264
 30
0.0
 10
526.7042175051772
 20
291.4729539191306
 30
0.0
 10
529.463612816093
 20
292.7476288466696
 30
0.0
 10
530.1285497224533
 20
301.6460857194883
 30
0.0
 10
526.1952467033069
 20
295.2459988955463
 30
0.0
 10
526.3674828995082
 20
291.9969813369779
 30
0.0
 10
528.4397645971571
 20
290.7241622601677
 30
0.0
 10
529.3563686753932
 20
291.1826793440374
 30
0.0
 10
529.7416704554633
 20
291.3754206298361
 30
0.0
 11
525.6496892360989
 21
290.9858251849264
 31
0.0
 11
528.4751046690477
 21
293.1286093081228
 31
0.0
 11
529.1083875622553
 21
298.8264670068386
 31
0.0
 11
526.6239711623971
 21
294.930496040594
 31
0.0
 11
527.0623981488595
 21
291.7650179099845
 31
0.0
 11
528.5725326224203
 21
290.9858251849264
 31
0.0
 11
529.7416704554633
 21
291.3754206298361
 31
0.0
  0
DIMENSION
  5
52F6
330
1A
100
AcDbEntity
  8
寸法線
 48
10.0
100
AcDbDimension
  2
*D74
 10
40.0
 20
428.463796727989
 30
0.0
 11
40.0
 21
468.522130061322
 31
0.0
 70
   160
  1
φ<>
  3
ISO-25
100
AcDbAlignedDimension
 13
53.638468256273
 23
449.963796727988
 33
0.0
 14
53.638468256273
 24
428.463796727989
 34
0.0
 50
90.0
100
AcDbRotatedDimension
1001
ACAD
1000
DSTYLE
1002
{
1070
     5
1000
OPEN30
1070
    41
1040
6.0
1070
    47
1040
0.1
1070
    48
1040
0.1
1070
    73
1070
     0
1070
   140
1040
8.0
1070
   271
1070
     1
1070
   272
1070
     1
1070
   341
1005
2AF4
1002
}
  0
LINE
  5
52F7
330
1A
100
AcDbEntity
  8
外形線
100
AcDbLine
 10
152.638468256273
 20
428.463796727989
 30
0.0
 11
152.638468256273
 21
449.963796727988
 31
0.0
  0
LINE
  5
52F8
330
1A
100
AcDbEntity
  8
外形線
100
AcDbLine
 10
152.638468256273
 20
449.963796727988
 30
0.0
 11
106.138468256273
 21
449.963796727988
 31
0.0
  0
LINE
  5
52F9
330
1A
100
AcDbEntity
  8
外形線
100
AcDbLine
 10
53.638468256273
 20
449.963796727988
 30
0.0
 11
52.638468256273
 21
448.963796727988
 31
0.0
  0
LINE
  5
52FA
330
1A
100
AcDbEntity
  8
外形線
100
AcDbLine
 10
52.638468256273
 20
448.963796727988
 30
0.0
 11
52.638468256273
 21
429.463796727989
 31
0.0
  0
LINE
  5
52FB
330
1A
100
AcDbEntity
  8
外形線
100
AcDbLine
 10
53.638468256273
 20
428.463796727989
 30
0.0
 11
52.638468256273
 21
429.463796727989
 31
0.0
  0
LINE
  5
52FC
330
1A
100
AcDbEntity
  8
外形線
100
AcDbLine
 10
152.638468256273
 20
428.463796727989
 30
0.0
 11
106.138468256272
 21
428.463796727989
 31
0.0
  0
ARC
  5
52FD
330
1A
100
AcDbEntity
  8
細線
 48
10.0
100
AcDbCircle
 10
92.915812006273
 20
444.588796727989
 30
0.0
 40
8.222656249999796
100
AcDbArc
 50
319.180234332391
 51
40.819765667609
  0
ARC
  5
52FE
330
1A
100
AcDbEntity
  8
細線
 48
10.0
100
AcDbCircle
 10
92.915812006273
 20
433.838796727989
 30
0.0
 40
8.222656249999796
100
AcDbArc
 50
319.180234332391
 51
40.819765667609
  0
ARC
  5
52FF
330
1A
100
AcDbEntity
  8
細線
 48
10.0
100
AcDbCircle
 10
105.361124506273
 20
444.588796727989
 30
0.0
 40
8.222656249999796
100
AcDbArc
 50
139.180234332391
 51
220.819765667608
  0
ARC
  5
5300
330
1A
100
AcDbEntity
  8
細線
 48
10.0
100
AcDbCircle
 10
112.361124506272
 20
444.588796727989
 30
0.0
 40
8.222656249999796
100
AcDbArc
 50
139.180234332391
 51
220.819765667608
  0
ARC
  5
5301
330
1A
100
AcDbEntity
  8
細線
 48
10.0
100
AcDbCircle
 10
99.915812006273
 20
433.838796727989
 30
0.0
 40
8.222656249999796
100
AcDbArc
 50
319.180234332391
 51
40.819765667609
  0
ARC
  5
5302
330
1A
100
AcDbEntity
  8
細線
 48
10.0
100
AcDbCircle
 10
112.361124506272
 20
433.838796727989
 30
0.0
 40
8.222656249999796
100
AcDbArc
 50
139.180234332391
 51
220.819765667608
  0
LINE
  5
5303
330
1A
100
AcDbEntity
  8
外形線
100
AcDbLine
 10
99.138468256273
 20
449.963796727988
 30
0.0
 11
53.638468256273
 21
449.963796727988
 31
0.0
  0
LINE
  5
5304
330
1A
100
AcDbEntity
  8
外形線
100
AcDbLine
 10
99.138468256272
 20
428.463796727989
 30
0.0
 11
53.638468256273
 21
428.463796727989
 31
0.0
  0
VIEWPORT
  5
2902
330
28FB
100
AcDbEntity
 67
     1
  8
0
 48
10.0
100
AcDbViewport
 10
0.0
 20
0.0
 30
0.0
 40
528.349942987457
 41
300.3
 68
     1
 69
     1
1001
ACAD
1000
MVIEW
1002
{
1070
    16
1010
0.0
1020
0.0
1030
0.0
1010
0.0
1020
0.0
1030
1.0
1040
0.0
1040
300.3
1040
205.756503333333
1040
143.551503333333
1040
50.0
1040
0.0
1040
0.0
1070
    16
1070
   100
1070
     0
1070
     1
1070
     0
1070
     0
1070
     0
1070
     0
1040
0.0
1040
0.0
1040
0.0
1040
10.0
1040
10.0
1040
10.0
1040
10.0
1070
     0
1002
{
1002
}
1002
}
  0
VIEWPORT
  5
2904
330
28FB
100
AcDbEntity
 67
     1
  8
図枠太線
 48
10.0
100
AcDbViewport
 10
204.746305129083
 20
161.396645458131
 30
0.0
 40
400.0
 41
240.0
 68
     2
 69
     2
1001
ACAD
1000
MVIEW
1002
{
1070
    16
1010
0.0
1020
0.0
1030
0.0
1010
0.0
1020
0.0
1030
1.0
1040
0.0
1040
480.000003849169
1040
242.540199591992
1040
364.079116365292
1040
50.0
1040
0.0
1040
0.0
1070
     0
1070
   100
1070
     0
1070
     0
1070
     0
1070
     0
1070
     0
1070
     0
1040
0.0
1040
0.0
1040
0.0
1040
1.0
1040
1.0
1040
0.0
1040
0.0
1070
     0
1002
{
1002
}
1002
}
  0
INSERT
  5
2A59
330
28FB
100
AcDbEntity
 67
     1
  8
図枠太線
100
AcDbBlockReference
  2
A3横用_タイトル
 10
-0.352109406709
 20
-2.129314295396
 30
0.0
  0
MTEXT
  5
2E70
330
28FB
100
AcDbEntity
 67
     1
  8
寸法線
 48
10.0
100
AcDbMText
 10
290.692196981713
 20
50.409704435936
 30
0.0
 40
5.0
 41
59.487124795261
 71
     1
 72
     5
  1
A3縮小図
  0
LINE
  5
2E72
330
28FB
100
AcDbEntity
 67
     1
  8
寸法線
 48
10.0
100
AcDbLine
 10
289.758575030668
 20
44.026105349677
 30
0.0
 11
315.393438640485
 21
44.026105349677
 31
0.0
  0
MTEXT
  5
2E85
330
28FB
100
AcDbEntity
 67
     1
  8
寸法線
 48
10.0
100
AcDbMText
 10
149.12611673873
 20
14.255245025413
 30
0.0
 40
5.0
 41
11.452149180996
 71
     1
 72
     5
  1
{\H1.4x;1:2}
  0
MTEXT
  5
4F4C
330
28FB
100
AcDbEntity
 67
     1
  8
下書線
 48
10.0
100
AcDbMText
 10
12.795560442841
 20
56.920209277522
 30
0.0
 40
10.0
 41
175.933723286424
 71
     1
 72
     1
  1
HP用図面、追記・変更　不可
  0
LWPOLYLINE
  5
4F4D
330
28FB
100
AcDbEntity
 67
     1
  8
下書線
 48
10.0
100
AcDbPolyline
 90
        4
 70
     1
 43
0.0
 10
4.746305129083
 20
62.669677358777
 10
176.655400758628
 20
62.669677358777
 10
176.655400758628
 20
41.396645458131
 10
4.746305129083
 20
41.396645458131
  0
MTEXT
  5
4FE1
330
28FB
100
AcDbEntity
 67
     1
  8
寸法線
 48
10.0
100
AcDbMText
 10
368.525652335469
 20
37.824901447322
 30
0.0
 40
5.0
 41
44.607313995184
 71
     1
 72
     5
  1
静電容量式\Pレベルセンサ
  0
MTEXT
  5
4FE2
102
{ACAD_XDICTIONARY
360
4FE3
102
}
330
28FB
100
AcDbEntity
 67
     1
  8
寸法線
 48
10.0
100
AcDbMText
 10
310.136612996814
 20
32.490274306478
 30
0.0
 40
6.0
 41
45.0
 71
     1
 72
     5
  1
TSS-A5SA-□
1001
ACADANNOTATIVE
1000
AnnotativeData
1002
{
1070
     1
1070
     0
1002
}
  0
MTEXT
  5
4FE6
102
{ACAD_XDICTIONARY
360
4FE7
102
}
330
28FB
100
AcDbEntity
 67
     1
  8
寸法線
 48
10.0
100
AcDbMText
 10
340.381880955765
 20
14.040659141141
 30
0.0
 40
8.0
 41
45.0
 71
     1
 72
     5
  1
HE-13006
1001
ACADANNOTATIVE
1000
AnnotativeData
1002
{
1070
     1
1070
     0
1002
}
1001
ACAD
1000
MTEXTBEGIN
1070
    44
1040
1.2
1000
MTEXTEND
  0
MTEXT
  5
501D
102
{ACAD_XDICTIONARY
360
501E
102
}
330
28FB
100
AcDbEntity
 67
     1
  8
寸法線
 48
10.0
100
AcDbMText
 10
374.494025913896
 20
50.249424629171
 30
0.0
 40
5.0
 41
34.444444444444
 71
     1
 72
     5
  1
台数   台
1001
ACADANNOTATIVE
1000
AnnotativeData
1002
{
1070
     1
1070
     0
1002
}
  0
MTEXT
  5
5058
102
{ACAD_XDICTIONARY
360
5059
102
}
330
28FB
100
AcDbEntity
 67
     1
  8
寸法線
 48
10.0
100
AcDbMText
 10
177.061338661012
 20
12.023595502767
 30
0.0
 40
5.0
 41
31.372065131184
 71
     1
 72
     5
  1
2016.9.14
1001
ACADANNOTATIVE
1000
AnnotativeData
1002
{
1070
     1
1070
     0
1002
}
  0
MTEXT
  5
505C
102
{ACAD_XDICTIONARY
360
505D
102
}
330
28FB
100
AcDbEntity
 67
     1
  8
寸法線
 48
10.0
100
AcDbMText
 10
174.063755540461
 20
31.731156297467
 30
0.0
 40
5.0
 41
27.609563343169
 71
     1
 72
     5
  1
takahashi
1001
ACADANNOTATIVE
1000
AnnotativeData
1002
{
1070
     1
1070
     0
1002
}
  0
ENDSEC
  0
SECTION
  2
OBJECTS
  0
DICTIONARY
  5
C
330
0
100
AcDbDictionary
  3
ACAD_COLOR
350
2948
  3
ACAD_GROUP
350
D
  3
ACAD_LAYOUT
350
2816
  3
ACAD_MATERIAL
350
2947
  3
ACAD_MLEADERSTYLE
350
4B88
  3
ACAD_MLINESTYLE
350
E
  3
ACAD_PLOTSETTINGS
350
2817
  3
ACAD_SCALELIST
350
4B61
  3
ACAD_VISUALSTYLE
350
4B48
  3
ACADDIM
350
4312
  3
ACDBHEADERROUNDTRIPXREC
350
5426
  3
ACDBVARIABLEDICTIONARY
350
4EB4
  3
DWGPROPS
350
544B
  0
DICTIONARY
  5
544C
330
8
100
AcDbDictionary
280
     1
  3
ACAD_XREC_ROUNDTRIP
360
544D
  0
DICTIONARY
  5
29EA
330
2
100
AcDbDictionary
280
     1
  3
ACAD_LAYERFILTERS
360
2B0C
  3
ACAD_LAYERSTATES
360
29EB
  0
DICTIONARY
  5
4D90
330
4D8F
100
AcDbDictionary
280
     1
  3
ACDBCONTEXTDATAMANAGER
360
4D91
  0
DICTIONARY
  5
4DA9
330
4DA8
100
AcDbDictionary
280
     1
  3
ACDBCONTEXTDATAMANAGER
360
4DAA
  0
DICTIONARY
  5
4E89
330
4E88
100
AcDbDictionary
280
     1
  3
ACDBCONTEXTDATAMANAGER
360
4E8A
  0
DICTIONARY
  5
4E99
330
4E98
100
AcDbDictionary
280
     1
  3
ACDBCONTEXTDATAMANAGER
360
4E9A
  0
DICTIONARY
  5
4E9D
330
4E9C
100
AcDbDictionary
280
     1
  3
ACDBCONTEXTDATAMANAGER
360
4E9E
  0
DICTIONARY
  5
4EA1
330
4EA0
100
AcDbDictionary
280
     1
  3
ACDBCONTEXTDATAMANAGER
360
4EA2
  0
DICTIONARY
  5
4EA5
330
4EA4
100
AcDbDictionary
280
     1
  3
ACDBCONTEXTDATAMANAGER
360
4EA6
  0
DICTIONARY
  5
4EA9
330
4EA8
100
AcDbDictionary
280
     1
  3
ACDBCONTEXTDATAMANAGER
360
4EAA
  0
DICTIONARY
  5
4EAD
330
4EAC
100
AcDbDictionary
280
     1
  3
ACDBCONTEXTDATAMANAGER
360
4EAE
  0
DICTIONARY
  5
4EB1
330
4EB0
100
AcDbDictionary
280
     1
  3
ACDBCONTEXTDATAMANAGER
360
4EB2
  0
DICTIONARY
  5
4FE3
330
4FE2
100
AcDbDictionary
280
     1
  3
ACDBCONTEXTDATAMANAGER
360
4FE4
  0
DICTIONARY
  5
4FE7
330
4FE6
100
AcDbDictionary
280
     1
  3
ACDBCONTEXTDATAMANAGER
360
4FE8
  0
DICTIONARY
  5
501E
330
501D
100
AcDbDictionary
280
     1
  3
ACDBCONTEXTDATAMANAGER
360
501F
  0
DICTIONARY
  5
5059
330
5058
100
AcDbDictionary
280
     1
  3
ACDBCONTEXTDATAMANAGER
360
505A
  0
DICTIONARY
  5
505D
330
505C
100
AcDbDictionary
280
     1
  3
ACDBCONTEXTDATAMANAGER
360
505E
  0
DICTIONARY
  5
2948
102
{ACAD_REACTORS
330
C
102
}
330
C
100
AcDbDictionary
  0
DICTIONARY
  5
D
102
{ACAD_REACTORS
330
C
102
}
330
C
100
AcDbDictionary
  3
*A1
350
4615
  0
DICTIONARY
  5
2816
102
{ACAD_REACTORS
330
C
102
}
330
C
100
AcDbDictionary
  0
DICTIONARY
  5
2947
102
{ACAD_REACTORS
330
C
102
}
330
C
100
AcDbDictionary
  3
BYBLOCK
350
4B84
  3
BYLAYER
350
4B83
  3
GLOBAL
350
4B85
  0
DICTIONARY
  5
4B88
102
{ACAD_REACTORS
330
C
102
}
330
C
100
AcDbDictionary
  3
STANDARD
350
4B89
  0
DICTIONARY
  5
E
102
{ACAD_REACTORS
330
C
102
}
330
C
100
AcDbDictionary
  3
STANDARD
350
13
  0
DICTIONARY
  5
2817
102
{ACAD_REACTORS
330
C
102
}
330
C
100
AcDbDictionary
  0
DICTIONARY
  5
4B61
102
{ACAD_REACTORS
330
C
102
}
330
C
100
AcDbDictionary
  3
A0
350
4B62
  3
A1
350
4B63
  3
A2
350
4B64
  3
A3
350
4B65
  3
A4
350
4B66
  3
A5
350
4B67
  3
A6
350
4B68
  3
A7
350
4B69
  3
A8
350
4B6A
  3
A9
350
4B6B
  3
B0
350
4B6C
  3
B1
350
4B6D
  3
B2
350
4B6E
  3
B3
350
4B6F
  3
B4
350
4B70
  3
B5
350
4B71
  3
B6
350
4B72
  3
B7
350
4B73
  3
B8
350
4B74
  3
B9
350
4B75
  3
C0
350
4B76
  3
C1
350
4B77
  3
C2
350
4B78
  3
C3
350
4B79
  3
C4
350
4B7A
  3
C5
350
4B7B
  3
C6
350
4B7C
  3
C7
350
4B7D
  3
C8
350
4B7E
  3
C9
350
4B7F
  3
D0
350
4B80
  3
D1
350
4B81
  3
D2
350
4B82
  0
DICTIONARY
  5
4B48
102
{ACAD_REACTORS
330
C
102
}
330
C
100
AcDbDictionary
  3
2DWIREFRAME
350
4B4D
  3
BASIC
350
4B50
  3
BRIGHTEN
350
4B54
  3
COLORCHANGE
350
4B58
  3
CONCEPTUAL
350
4B52
  3
DIM
350
4B53
  3
EDGECOLOROFF
350
4B5B
  3
FACEPATTERN
350
4B57
  3
FLAT
350
4B49
  3
FLATWITHEDGES
350
4B4A
  3
GOURAUD
350
4B4B
  3
GOURAUDWITHEDGES
350
4B4C
  3
HIDDEN
350
4B4F
  3
JITTEROFF
350
4B59
  3
LINEPATTERN
350
4B56
  3
MODELING
350
4FA8
  3
OVERHANGOFF
350
4B5A
  3
REALISTIC
350
4B51
  3
SHADED
350
4B60
  3
SHADED_WITH_EDGES
350
4B5F
  3
SHADES_OF_GRAY
350
4B5C
  3
SKETCHY
350
4B5D
  3
THICKEN
350
4B55
  3
WIREFRAME
350
4B4E
  3
X-RAY
350
4B5E
  0
XRECORD
  5
4312
102
{ACAD_REACTORS
330
C
102
}
330
C
100
AcDbXrecord
 90
   990106
  3

 60
     0
 61
     0
 62
     4
 63
     4
 64
     0
 65
     0
 66
     0
 67
     3
 68
     1
 69
     0
 70
     0
 71
     0
 72
     0
 40
0.0
170
     2
340
4487
  0
DICTIONARY
  5
5426
102
{ACAD_REACTORS
330
C
102
}
330
C
100
AcDbDictionary
  3
CEPSNID
350
5430
  3
CEPSNTYPE
350
542F
  3
COLORDICT
350
5449
  3
DIMSTYLEDATA
350
5446
  3
FINGERPRINTGUID
350
5431
  3
HYPERLINKBASE
350
5429
  3
INSUNITS
350
542E
  3
LAYOUTDICT
350
542B
  3
LWETCUNION
350
542D
  3
MATERIALDICT
350
544A
  3
PLOTSETDICT
350
542C
  3
PSVPSCALE
350
5433
  3
PUCSBASE
350
5436
  3
PUCSORGBACK
350
543C
  3
PUCSORGBOTTOM
350
5438
  3
PUCSORGFRONT
350
543B
  3
PUCSORGLEFT
350
5439
  3
PUCSORGRIGHT
350
543A
  3
PUCSORGTOP
350
5437
  3
PUCSORTHOREF
350
5434
  3
PUCSORTHOVIEW
350
5435
  3
STYLESHEET
350
542A
  3
TSTACKALIGN
350
5427
  3
TSTACKSIZE
350
5428
  3
UCSBASE
350
543F
  3
UCSORGBACK
350
5445
  3
UCSORGBOTTOM
350
5441
  3
UCSORGFRONT
350
5444
  3
UCSORGLEFT
350
5442
  3
UCSORGRIGHT
350
5443
  3
UCSORGTOP
350
5440
  3
UCSORTHOREF
350
543D
  3
UCSORTHOVIEW
350
543E
  3
VERSIONGUID
350
5432
  0
DICTIONARY
  5
4EB4
102
{ACAD_REACTORS
330
C
102
}
330
C
100
AcDbDictionary
  3
CANNOSCALE
350
4EB5
  3
CMLEADERSTYLE
350
4EB7
  3
CTABLESTYLE
350
4EB6
  3
DIMASSOC
350
5447
  3
HIDETEXT
350
5448
  3
MSLTSCALE
350
4EB8
  3
XCLIPFRAME
350
4EB9
  0
XRECORD
  5
544B
102
{ACAD_REACTORS
330
C
102
}
330
C
100
AcDbXrecord
  1
DWGPROPS COOKIE
  2

  3

  4

  6

  7

  8
takahashi
  9

300
=
301
=
302
=
303
=
304
=
305
=
306
=
307
=
308
=
309
=
 40
0.0
 41
2450576.222302431
 42
2457658.401234803
  1

 90
        0
  0
XRECORD
  5
544D
102
{ACAD_REACTORS
330
544C
102
}
330
544C
100
AcDbXrecord
102
VTR_0.000_0.000_1.000_1.000_VISUALSTYLE
340
4B4D
102
VTR_0.000_0.000_1.000_1.000_GRIDDISPLAY
 70
     3
102
VTR_0.000_0.000_1.000_1.000_GRIDMAJOR
 70
     5
102
VTR_0.000_0.000_1.000_1.000_DEFAULTLIGHTING
280
     1
102
VTR_0.000_0.000_1.000_1.000_DEFAULTLIGHTINGTYPE
 70
     1
102
VTR_0.000_0.000_1.000_1.000_BRIGHTNESS
141
0.0
102
VTR_0.000_0.000_1.000_1.000_CONTRAST
142
0.0
  0
DICTIONARY
  5
2B0C
102
{ACAD_REACTORS
330
29EA
102
}
330
29EA
100
AcDbDictionary
  0
DICTIONARY
  5
29EB
102
{ACAD_REACTORS
330
29EA
102
}
330
29EA
100
AcDbDictionary
  0
DICTIONARY
  5
4D91
102
{ACAD_REACTORS
330
4D90
102
}
330
4D90
100
AcDbDictionary
  3
ACDB_ANNOTATIONSCALES
350
4D92
  0
DICTIONARY
  5
4DAA
102
{ACAD_REACTORS
330
4DA9
102
}
330
4DA9
100
AcDbDictionary
  3
ACDB_ANNOTATIONSCALES
350
4DAB
  0
DICTIONARY
  5
4E8A
102
{ACAD_REACTORS
330
4E89
102
}
330
4E89
100
AcDbDictionary
  3
ACDB_ANNOTATIONSCALES
350
4E8B
  0
DICTIONARY
  5
4E9A
102
{ACAD_REACTORS
330
4E99
102
}
330
4E99
100
AcDbDictionary
  3
ACDB_ANNOTATIONSCALES
350
4E9B
  0
DICTIONARY
  5
4E9E
102
{ACAD_REACTORS
330
4E9D
102
}
330
4E9D
100
AcDbDictionary
  3
ACDB_ANNOTATIONSCALES
350
4E9F
  0
DICTIONARY
  5
4EA2
102
{ACAD_REACTORS
330
4EA1
102
}
330
4EA1
100
AcDbDictionary
  3
ACDB_ANNOTATIONSCALES
350
4EA3
  0
DICTIONARY
  5
4EA6
102
{ACAD_REACTORS
330
4EA5
102
}
330
4EA5
100
AcDbDictionary
  3
ACDB_ANNOTATIONSCALES
350
4EA7
  0
DICTIONARY
  5
4EAA
102
{ACAD_REACTORS
330
4EA9
102
}
330
4EA9
100
AcDbDictionary
  3
ACDB_ANNOTATIONSCALES
350
4EAB
  0
DICTIONARY
  5
4EAE
102
{ACAD_REACTORS
330
4EAD
102
}
330
4EAD
100
AcDbDictionary
  3
ACDB_ANNOTATIONSCALES
350
4EAF
  0
DICTIONARY
  5
4EB2
102
{ACAD_REACTORS
330
4EB1
102
}
330
4EB1
100
AcDbDictionary
  3
ACDB_ANNOTATIONSCALES
350
4EB3
  0
DICTIONARY
  5
4FE4
102
{ACAD_REACTORS
330
4FE3
102
}
330
4FE3
100
AcDbDictionary
  3
ACDB_ANNOTATIONSCALES
350
4FE5
  0
DICTIONARY
  5
4FE8
102
{ACAD_REACTORS
330
4FE7
102
}
330
4FE7
100
AcDbDictionary
  3
ACDB_ANNOTATIONSCALES
350
4FE9
  0
DICTIONARY
  5
501F
102
{ACAD_REACTORS
330
501E
102
}
330
501E
100
AcDbDictionary
  3
ACDB_ANNOTATIONSCALES
350
5020
  0
DICTIONARY
  5
505A
102
{ACAD_REACTORS
330
5059
102
}
330
5059
100
AcDbDictionary
  3
ACDB_ANNOTATIONSCALES
350
505B
  0
DICTIONARY
  5
505E
102
{ACAD_REACTORS
330
505D
102
}
330
505D
100
AcDbDictionary
  3
ACDB_ANNOTATIONSCALES
350
505F
  0
GROUP
  5
4615
102
{ACAD_REACTORS
330
D
102
}
330
D
100
AcDbGroup
300

 70
     1
 71
     1
340
4613
340
4612
340
4611
340
4610
340
460F
340
460E
340
460D
340
460C
340
460B
340
460A
340
4609
340
4608
340
4607
340
4606
340
45F3
340
45F2
340
44BD
340
44BC
340
44BB
340
44B9
340
44A0
340
449F
340
443E
340
443D
340
443C
340
443B
340
4433
340
4432
340
4421
340
4420
340
441E
340
441D
340
441C
340
441B
340
441A
340
4419
340
4418
340
4417
340
4416
340
4415
  0
MATERIAL
  5
4B84
102
{ACAD_REACTORS
330
2947
102
}
102
{ACAD_XDICTIONARY
360
5450
102
}
330
2947
100
AcDbMaterial
  1
BYBLOCK
  0
MATERIAL
  5
4B83
102
{ACAD_REACTORS
330
2947
102
}
102
{ACAD_XDICTIONARY
360
544E
102
}
330
2947
100
AcDbMaterial
  1
BYLAYER
  0
MATERIAL
  5
4B85
102
{ACAD_REACTORS
330
2947
102
}
102
{ACAD_XDICTIONARY
360
5452
102
}
330
2947
100
AcDbMaterial
  1
GLOBAL
  0
ACAD_PROXY_OBJECT
  5
4B89
102
{ACAD_REACTORS
330
4B88
102
}
330
4B88
100
AcDbProxyObject
 90
      499
 91
      508
 93
      610
310
40901902A4063FBFFFFFE0000000000000020400000000000020404214DD185B99185C990000000000000104090141901A00000000000004100000000000000041025764000000000000039000
340
14
340
0
340
10
340
0
 94
        0
1001
ACAD_MLEADERVER
1070
     2
  0
MLINESTYLE
  5
13
102
{ACAD_REACTORS
330
E
102
}
330
E
100
AcDbMlineStyle
  2
STANDARD
 70
     0
  3

 62
     0
 51
90.0
 52
90.0
 71
     2
 49
0.5
 62
   256
  6
BYLAYER
 49
-0.5
 62
   256
  6
BYLAYER
  0
ACAD_PROXY_OBJECT
  5
4B62
102
{ACAD_REACTORS
330
4B61
102
}
330
4B61
100
AcDbProxyObject
 90
      499
 91
      505
 93
       41
310
903313A31580
  0
ACAD_PROXY_OBJECT
  5
4B63
102
{ACAD_REACTORS
330
4B61
102
}
330
4B61
100
AcDbProxyObject
 90
      499
 91
      505
 93
      105
310
903313A324000000000000004000
  0
ACAD_PROXY_OBJECT
  5
4B64
102
{ACAD_REACTORS
330
4B61
102
}
330
4B61
100
AcDbProxyObject
 90
      499
 91
      505
 93
      105
310
903313A344000000000000104000
  0
ACAD_PROXY_OBJECT
  5
4B65
102
{ACAD_REACTORS
330
4B61
102
}
330
4B61
100
AcDbProxyObject
 90
      499
 91
      505
 93
      105
310
903313A354000000000000144000
  0
ACAD_PROXY_OBJECT
  5
4B66
102
{ACAD_REACTORS
330
4B61
102
}
330
4B61
100
AcDbProxyObject
 90
      499
 91
      505
 93
      105
310
903313A384000000000000204000
  0
ACAD_PROXY_OBJECT
  5
4B67
102
{ACAD_REACTORS
330
4B61
102
}
330
4B61
100
AcDbProxyObject
 90
      499
 91
      505
 93
      113
310
904313A31304000000000000244000
  0
ACAD_PROXY_OBJECT
  5
4B68
102
{ACAD_REACTORS
330
4B61
102
}
330
4B61
100
AcDbProxyObject
 90
      499
 91
      505
 93
      113
310
904313A31364000000000000304000
  0
ACAD_PROXY_OBJECT
  5
4B69
102
{ACAD_REACTORS
330
4B61
102
}
330
4B61
100
AcDbProxyObject
 90
      499
 91
      505
 93
      113
310
904313A32304000000000000344000
  0
ACAD_PROXY_OBJECT
  5
4B6A
102
{ACAD_REACTORS
330
4B61
102
}
330
4B61
100
AcDbProxyObject
 90
      499
 91
      505
 93
      113
310
904313A333040000000000003E4000
  0
ACAD_PROXY_OBJECT
  5
4B6B
102
{ACAD_REACTORS
330
4B61
102
}
330
4B61
100
AcDbProxyObject
 90
      499
 91
      505
 93
      113
310
904313A34304000000000000444000
  0
ACAD_PROXY_OBJECT
  5
4B6C
102
{ACAD_REACTORS
330
4B61
102
}
330
4B61
100
AcDbProxyObject
 90
      499
 91
      505
 93
      113
310
904313A35304000000000000494000
  0
ACAD_PROXY_OBJECT
  5
4B6D
102
{ACAD_REACTORS
330
4B61
102
}
330
4B61
100
AcDbProxyObject
 90
      499
 91
      505
 93
      121
310
905313A3130304000000000000594000
  0
ACAD_PROXY_OBJECT
  5
4B6E
102
{ACAD_REACTORS
330
4B61
102
}
330
4B61
100
AcDbProxyObject
 90
      499
 91
      505
 93
      105
310
903323A310000000000000010100
  0
ACAD_PROXY_OBJECT
  5
4B6F
102
{ACAD_REACTORS
330
4B61
102
}
330
4B61
100
AcDbProxyObject
 90
      499
 91
      505
 93
      105
310
903343A310000000000000410100
  0
ACAD_PROXY_OBJECT
  5
4B70
102
{ACAD_REACTORS
330
4B61
102
}
330
4B61
100
AcDbProxyObject
 90
      499
 91
      505
 93
      105
310
903383A310000000000000810100
  0
ACAD_PROXY_OBJECT
  5
4B71
102
{ACAD_REACTORS
330
4B61
102
}
330
4B61
100
AcDbProxyObject
 90
      499
 91
      505
 93
      113
310
90431303A310000000000000910100
  0
ACAD_PROXY_OBJECT
  5
4B72
102
{ACAD_REACTORS
330
4B61
102
}
330
4B61
100
AcDbProxyObject
 90
      499
 91
      505
 93
      121
310
9053130303A310000000000001650100
  0
ACAD_PROXY_OBJECT
  5
4B73
102
{ACAD_REACTORS
330
4B61
102
}
330
4B61
100
AcDbProxyObject
 90
      499
 91
      505
 93
      257
310
90E312F31323822203D2031272D3022000000000000200FC000000000000284000
  0
ACAD_PROXY_OBJECT
  5
4B74
102
{ACAD_REACTORS
330
4B61
102
}
330
4B61
100
AcDbProxyObject
 90
      499
 91
      505
 93
      249
310
90D312F363422203D2031272D3022000000000000240FC000000000000284000
  0
ACAD_PROXY_OBJECT
  5
4B75
102
{ACAD_REACTORS
330
4B61
102
}
330
4B61
100
AcDbProxyObject
 90
      499
 91
      505
 93
      249
310
90D312F333222203D2031272D3022000000000000280FC000000000000284000
  0
ACAD_PROXY_OBJECT
  5
4B76
102
{ACAD_REACTORS
330
4B61
102
}
330
4B61
100
AcDbProxyObject
 90
      499
 91
      505
 93
      249
310
90D312F313622203D2031272D30220000000000002C0FC000000000000284000
  0
ACAD_PROXY_OBJECT
  5
4B77
102
{ACAD_REACTORS
330
4B61
102
}
330
4B61
100
AcDbProxyObject
 90
      499
 91
      505
 93
      249
310
90D332F333222203D2031272D30220000000000002E0FC000000000000284000
  0
ACAD_PROXY_OBJECT
  5
4B78
102
{ACAD_REACTORS
330
4B61
102
}
330
4B61
100
AcDbProxyObject
 90
      499
 91
      505
 93
      241
310
90C312F3822203D2031272D3022000000000000300FC000000000000284000
  0
ACAD_PROXY_OBJECT
  5
4B79
102
{ACAD_REACTORS
330
4B61
102
}
330
4B61
100
AcDbProxyObject
 90
      499
 91
      505
 93
      249
310
90D332F313622203D2031272D3022000000000000320FC000000000000284000
  0
ACAD_PROXY_OBJECT
  5
4B7A
102
{ACAD_REACTORS
330
4B61
102
}
330
4B61
100
AcDbProxyObject
 90
      499
 91
      505
 93
      241
310
90C312F3422203D2031272D3022000000000000340FC000000000000284000
  0
ACAD_PROXY_OBJECT
  5
4B7B
102
{ACAD_REACTORS
330
4B61
102
}
330
4B61
100
AcDbProxyObject
 90
      499
 91
      505
 93
      241
310
90C332F3822203D2031272D3022000000000000360FC000000000000284000
  0
ACAD_PROXY_OBJECT
  5
4B7C
102
{ACAD_REACTORS
330
4B61
102
}
330
4B61
100
AcDbProxyObject
 90
      499
 91
      505
 93
      241
310
90C312F3222203D2031272D3022000000000000380FC000000000000284000
  0
ACAD_PROXY_OBJECT
  5
4B7D
102
{ACAD_REACTORS
330
4B61
102
}
330
4B61
100
AcDbProxyObject
 90
      499
 91
      505
 93
      241
310
90C332F3422203D2031272D30220000000000003A0FC000000000000284000
  0
ACAD_PROXY_OBJECT
  5
4B7E
102
{ACAD_REACTORS
330
4B61
102
}
330
4B61
100
AcDbProxyObject
 90
      499
 91
      505
 93
      161
310
90A3122203D2031272D30224000000000000284000
  0
ACAD_PROXY_OBJECT
  5
4B7F
102
{ACAD_REACTORS
330
4B61
102
}
330
4B61
100
AcDbProxyObject
 90
      499
 91
      505
 93
      257
310
90E312D312F3222203D2031272D30220000000000003E0FC000000000000284000
  0
ACAD_PROXY_OBJECT
  5
4B80
102
{ACAD_REACTORS
330
4B61
102
}
330
4B61
100
AcDbProxyObject
 90
      499
 91
      505
 93
      225
310
90A3322203D2031272D302200000000000002100000000000000284000
  0
ACAD_PROXY_OBJECT
  5
4B81
102
{ACAD_REACTORS
330
4B61
102
}
330
4B61
100
AcDbProxyObject
 90
      499
 91
      505
 93
      225
310
90A3622203D2031272D302200000000000006100000000000000284000
  0
ACAD_PROXY_OBJECT
  5
4B82
102
{ACAD_REACTORS
330
4B61
102
}
330
4B61
100
AcDbProxyObject
 90
      499
 91
      505
 93
      249
310
90D31272D3022203D2031272D30220000000000000A100000000000000284000
  0
ACAD_PROXY_OBJECT
  5
4B4D
102
{ACAD_REACTORS
330
4B48
102
}
330
4B48
100
AcDbProxyObject
 90
      499
 91
      504
 93
      436
310
42CC9915DA5C99599C985B595049028333333333333E33F0000000000000F90107901411070040501600405405064090741402480A0340
1001
ACAD
1000
AcDbSavedByObjectVersion
1070
     0
  0
ACAD_PROXY_OBJECT
  5
4B50
102
{ACAD_REACTORS
330
4B48
102
}
330
4B48
100
AcDbProxyObject
 90
      499
 91
      504
 93
      388
310
4150985CDA58D07406404333333333333E33F0000000000000F90107A41107004050150841D405064090741402480A0350
1001
ACAD
1000
AcDbSavedByObjectVersion
1070
     0
  0
ACAD_PROXY_OBJECT
  5
4B54
102
{ACAD_REACTORS
330
4B48
102
}
330
4B48
100
AcDbProxyObject
 90
      499
 91
      504
 93
      428
310
42109C9A59DA1D195B90C409028333333333333E33F0000000000000F9010790141107004050150841D405064090741402480A029950
1001
ACAD
1000
AcDbSavedByObjectVersion
1070
     0
  0
ACAD_PROXY_OBJECT
  5
4B58
102
{ACAD_REACTORS
330
4B48
102
}
330
4B48
100
AcDbProxyObject
 90
      499
 91
      504
 93
      452
310
42D0DBDB1BDC90DA185B99D95104090240C333333333333E33F0000000000000F90108901411070040501508421405064090741402480A0350
1001
ACAD
1000
AcDbSavedByObjectVersion
1070
     0
  0
ACAD_PROXY_OBJECT
  5
4B52
102
{ACAD_REACTORS
330
4B48
102
}
330
4B48
100
AcDbProxyObject
 90
      499
 91
      504
 93
      500
310
4290DBDB98D95C1D1D585B10940D028333333333333E33F0000000000000F90107902409070040501000000000018199010841D405064090740C02480A0340
1001
ACAD
1000
AcDbSavedByObjectVersion
1070
     0
  0
ACAD_PROXY_OBJECT
  5
4B53
102
{ACAD_REACTORS
330
4B48
102
}
330
4B48
100
AcDbProxyObject
 90
      499
 91
      504
 93
      412
310
40D11A5B50B409028333333333333E33F0000000000000F9010790141107004050150841D405064090741402480A02677FFFFFD0
1001
ACAD
1000
AcDbSavedByObjectVersion
1070
     0
  0
ACAD_PROXY_OBJECT
  5
4B5B
102
{ACAD_REACTORS
330
4B48
102
}
330
4B48
100
AcDbProxyObject
 90
      499
 91
      504
 93
      452
310
43115919D950DBDB1BDC93D999916409028333333333333E33F0000000000000F9010790141107004050150841D405064090741402480A0350
1001
ACAD
1000
AcDbSavedByObjectVersion
1070
     0
  0
ACAD_PROXY_OBJECT
  5
4B57
102
{ACAD_REACTORS
330
4B48
102
}
330
4B48
100
AcDbProxyObject
 90
      499
 91
      504
 93
      444
310
42D19858D95C185D1D195C9B90F409028333333333333E33F0000000000000F9010790141107004050150841D405064090741402480A0350
1001
ACAD
1000
AcDbSavedByObjectVersion
1070
     0
  0
ACAD_PROXY_OBJECT
  5
4B49
102
{ACAD_REACTORS
330
4B48
102
}
330
4B48
100
AcDbProxyObject
 90
      499
 91
      504
 93
      380
310
41119B185D240901404333333333333E33F0000000000000F9010740A907004050150841D405064090741402480A1B50
1001
ACAD
1000
AcDbSavedByObjectVersion
1070
     0
  0
ACAD_PROXY_OBJECT
  5
4B4A
102
{ACAD_REACTORS
330
4B48
102
}
330
4B48
100
AcDbProxyObject
 90
      499
 91
      504
 93
      468
310
43519B185D15DA5D1A115919D95CD0140901404333333333333E33F0000000000000F90107409019070040501600405405064090741402480A1B50
1001
ACAD
1000
AcDbSavedByObjectVersion
1070
     0
  0
ACAD_PROXY_OBJECT
  5
4B4B
102
{ACAD_REACTORS
330
4B48
102
}
330
4B48
100
AcDbProxyObject
 90
      499
 91
      504
 93
      404
310
41D1DBDD5C985D5910240902404333333333333E33F0000000000000F9010740A9070040501641D405064090741402480A1B50
1001
ACAD
1000
AcDbSavedByObjectVersion
1070
     0
  0
ACAD_PROXY_OBJECT
  5
4B4C
102
{ACAD_REACTORS
330
4B48
102
}
330
4B48
100
AcDbProxyObject
 90
      499
 91
      504
 93
      492
310
4411DBDD5C985D5915DA5D1A115919D95CD0340902404333333333333E33F0000000000000F90107409019070040501600405405064090741402480A1B50
1001
ACAD
1000
AcDbSavedByObjectVersion
1070
     0
  0
ACAD_PROXY_OBJECT
  5
4B4F
102
{ACAD_REACTORS
330
4B48
102
}
330
4B48
100
AcDbProxyObject
 90
      499
 91
      504
 93
      476
310
41921A5919195B90640502408333333333333E33F0000000000000F901079024090700405020000000000001110200405405064090740C02480A0340
1001
ACAD
1000
AcDbSavedByObjectVersion
1070
     0
  0
ACAD_PROXY_OBJECT
  5
4B59
102
{ACAD_REACTORS
330
4B48
102
}
330
4B48
100
AcDbProxyObject
 90
      499
 91
      504
 93
      428
310
42529A5D1D195C93D999914409028333333333333E33F0000000000000F9010790141107004050150A41D405064090741402480A0350
1001
ACAD
1000
AcDbSavedByObjectVersion
1070
     0
  0
ACAD_PROXY_OBJECT
  5
4B56
102
{ACAD_REACTORS
330
4B48
102
}
330
4B48
100
AcDbProxyObject
 90
      499
 91
      504
 93
      444
310
42D31A5B995C185D1D195C9B90E409028333333333333E33F0000000000000F9010790141107004050750841D405064090741402483A0350
1001
ACAD
1000
AcDbSavedByObjectVersion
1070
     0
  0
ACAD_PROXY_OBJECT
  5
4FA8
102
{ACAD_REACTORS
330
4B48
102
}
330
4B48
100
AcDbProxyObject
 90
      499
 91
      504
 93
      412
310
90A409038333333333333E33F0000000000000F901074090290700405010000000000201990108421405064090741402480A1B40
1001
ACAD
1000
AcDbSavedByObjectVersion
1070
     0
  0
ACAD_PROXY_OBJECT
  5
4B5A
102
{ACAD_REACTORS
330
4B48
102
}
330
4B48
100
AcDbProxyObject
 90
      499
 91
      504
 93
      444
310
42D3DD995C9A185B99D3D999915409028333333333333E33F0000000000000F9010790141107004050150941D405064090741402480A0350
1001
ACAD
1000
AcDbSavedByObjectVersion
1070
     0
  0
ACAD_PROXY_OBJECT
  5
4B51
102
{ACAD_REACTORS
330
4B48
102
}
330
4B48
100
AcDbProxyObject
 90
      499
 91
      504
 93
      428
310
425499585B1A5CDD1A58D08409038333333333333E33F0000000000000F9010740A907004050150800405405064090740C02480A1B40
1001
ACAD
1000
AcDbSavedByObjectVersion
1070
     0
  0
ACAD_PROXY_OBJECT
  5
4B60
102
{ACAD_REACTORS
330
4B48
102
}
330
4B48
100
AcDbProxyObject
 90
      499
 91
      504
 93
      420
310
4194DA1859195911B40902404333333333333E33F0000000000000F9010740A41107004050150800405405064090840C02480A0B40
1001
ACAD
1000
AcDbSavedByObjectVersion
1070
     0
  0
ACAD_PROXY_OBJECT
  5
4B5F
102
{ACAD_REACTORS
330
4B48
102
}
330
4B48
100
AcDbProxyObject
 90
      499
 91
      504
 93
      516
310
4454DA18591959081DDA5D1A08195919D95CD1A40902404333333333333E33F0000000000000F901074090142907004050250800405405064090740C02480A0B40
1001
ACAD
1000
AcDbSavedByObjectVersion
1070
     0
  0
ACAD_PROXY_OBJECT
  5
4B5C
102
{ACAD_REACTORS
330
4B48
102
}
330
4B48
100
AcDbProxyObject
 90
      499
 91
      504
 93
      532
310
4394DA1859195CC81BD98811DC985E5174090240C333333333333E33F0000000000000F901079024090741D01000000000000111010841D405064090740C02480A0340
1001
ACAD
1000
AcDbSavedByObjectVersion
1070
     0
  0
ACAD_PROXY_OBJECT
  5
4B5D
102
{ACAD_REACTORS
330
4B48
102
}
330
4B48
100
AcDbProxyObject
 90
      499
 91
      504
 93
      476
310
41D4DAD95D18DA1E51840502408333333333333E33F0000000000000F901079024090741D01000000000000111010B41D405064090741802480A0340
1001
ACAD
1000
AcDbSavedByObjectVersion
1070
     0
  0
ACAD_PROXY_OBJECT
  5
4B55
102
{ACAD_REACTORS
330
4B48
102
}
330
4B48
100
AcDbProxyObject
 90
      499
 91
      504
 93
      412
310
41D51A1A58DAD95B90D409028333333333333E33F0000000000000F9010790141107004050150C41D405064090741402480A0350
1001
ACAD
1000
AcDbSavedByObjectVersion
1070
     0
  0
ACAD_PROXY_OBJECT
  5
4B4E
102
{ACAD_REACTORS
330
4B48
102
}
330
4B48
100
AcDbProxyObject
 90
      499
 91
      504
 93
      420
310
4255DA5C99599C985B595059028333333333333E33F0000000000000F90107901411070040501600405405064090740C02480A0340
1001
ACAD
1000
AcDbSavedByObjectVersion
1070
     0
  0
ACAD_PROXY_OBJECT
  5
4B5E
102
{ACAD_REACTORS
330
4B48
102
}
330
4B48
100
AcDbProxyObject
 90
      499
 91
      504
 93
      404
310
41560B54985E51940902404000000000000E03F0000000000000F9010740501907004050150841D405064090740C02480A1B40
1001
ACAD
1000
AcDbSavedByObjectVersion
1070
     0
  0
XRECORD
  5
5430
102
{ACAD_REACTORS
330
5426
102
}
330
5426
100
AcDbXrecord
340
0
  0
XRECORD
  5
542F
102
{ACAD_REACTORS
330
5426
102
}
330
5426
100
AcDbXrecord
 90
        0
  0
XRECORD
  5
5449
102
{ACAD_REACTORS
330
5426
102
}
330
5426
100
AcDbXrecord
340
2948
  0
XRECORD
  5
5446
102
{ACAD_REACTORS
330
5426
102
}
330
5426
100
AcDbXrecord
1000
DSTYLE
1002
{
1070
   171
 70
     2
1070
   143
 40
0.0394
1070
   274
 70
     2
1070
    41
 40
6.0
1070
   342
340
2AF4
1070
   271
 70
     1
1070
   278
 70
    46
1070
   341
340
2AF4
1070
   272
 70
     1
1070
    48
 40
0.1
1070
   283
 70
     1
1070
    47
 40
0.1
1070
   145
 40
1.0
1070
   340
340
10
1070
   140
 40
8.0
1070
   284
 70
     0
1002
}
  0
XRECORD
  5
5431
102
{ACAD_REACTORS
330
5426
102
}
330
5426
100
AcDbXrecord
  1
{23698909-1D67-4744-B0E2-8DE11E3ED422}
  0
XRECORD
  5
5429
102
{ACAD_REACTORS
330
5426
102
}
330
5426
100
AcDbXrecord
  1

  0
XRECORD
  5
542E
102
{ACAD_REACTORS
330
5426
102
}
330
5426
100
AcDbXrecord
 90
        0
  0
XRECORD
  5
542B
102
{ACAD_REACTORS
330
5426
102
}
330
5426
100
AcDbXrecord
340
2816
  0
XRECORD
  5
542D
102
{ACAD_REACTORS
330
5426
102
}
330
5426
100
AcDbXrecord
 90
    10781
  0
XRECORD
  5
544A
102
{ACAD_REACTORS
330
5426
102
}
330
5426
100
AcDbXrecord
340
2947
  0
XRECORD
  5
542C
102
{ACAD_REACTORS
330
5426
102
}
330
5426
100
AcDbXrecord
340
2817
  0
XRECORD
  5
5433
102
{ACAD_REACTORS
330
5426
102
}
330
5426
100
AcDbXrecord
 40
0.25
  0
XRECORD
  5
5436
102
{ACAD_REACTORS
330
5426
102
}
330
5426
100
AcDbXrecord
340
0
  0
XRECORD
  5
543C
102
{ACAD_REACTORS
330
5426
102
}
330
5426
100
AcDbXrecord
 10
0.0
 20
0.0
 30
0.0
  0
XRECORD
  5
5438
102
{ACAD_REACTORS
330
5426
102
}
330
5426
100
AcDbXrecord
 10
0.0
 20
0.0
 30
0.0
  0
XRECORD
  5
543B
102
{ACAD_REACTORS
330
5426
102
}
330
5426
100
AcDbXrecord
 10
0.0
 20
0.0
 30
0.0
  0
XRECORD
  5
5439
102
{ACAD_REACTORS
330
5426
102
}
330
5426
100
AcDbXrecord
 10
0.0
 20
0.0
 30
0.0
  0
XRECORD
  5
543A
102
{ACAD_REACTORS
330
5426
102
}
330
5426
100
AcDbXrecord
 10
0.0
 20
0.0
 30
0.0
  0
XRECORD
  5
5437
102
{ACAD_REACTORS
330
5426
102
}
330
5426
100
AcDbXrecord
 10
0.0
 20
0.0
 30
0.0
  0
XRECORD
  5
5434
102
{ACAD_REACTORS
330
5426
102
}
330
5426
100
AcDbXrecord
340
0
  0
XRECORD
  5
5435
102
{ACAD_REACTORS
330
5426
102
}
330
5426
100
AcDbXrecord
 70
     0
  0
XRECORD
  5
542A
102
{ACAD_REACTORS
330
5426
102
}
330
5426
100
AcDbXrecord
  1

  0
XRECORD
  5
5427
102
{ACAD_REACTORS
330
5426
102
}
330
5426
100
AcDbXrecord
 90
        1
  0
XRECORD
  5
5428
102
{ACAD_REACTORS
330
5426
102
}
330
5426
100
AcDbXrecord
 90
       70
  0
XRECORD
  5
543F
102
{ACAD_REACTORS
330
5426
102
}
330
5426
100
AcDbXrecord
340
0
  0
XRECORD
  5
5445
102
{ACAD_REACTORS
330
5426
102
}
330
5426
100
AcDbXrecord
 10
0.0
 20
0.0
 30
0.0
  0
XRECORD
  5
5441
102
{ACAD_REACTORS
330
5426
102
}
330
5426
100
AcDbXrecord
 10
0.0
 20
0.0
 30
0.0
  0
XRECORD
  5
5444
102
{ACAD_REACTORS
330
5426
102
}
330
5426
100
AcDbXrecord
 10
0.0
 20
0.0
 30
0.0
  0
XRECORD
  5
5442
102
{ACAD_REACTORS
330
5426
102
}
330
5426
100
AcDbXrecord
 10
0.0
 20
0.0
 30
0.0
  0
XRECORD
  5
5443
102
{ACAD_REACTORS
330
5426
102
}
330
5426
100
AcDbXrecord
 10
0.0
 20
0.0
 30
0.0
  0
XRECORD
  5
5440
102
{ACAD_REACTORS
330
5426
102
}
330
5426
100
AcDbXrecord
 10
0.0
 20
0.0
 30
0.0
  0
XRECORD
  5
543D
102
{ACAD_REACTORS
330
5426
102
}
330
5426
100
AcDbXrecord
340
0
  0
XRECORD
  5
543E
102
{ACAD_REACTORS
330
5426
102
}
330
5426
100
AcDbXrecord
 70
     0
  0
XRECORD
  5
5432
102
{ACAD_REACTORS
330
5426
102
}
330
5426
100
AcDbXrecord
  1
{A6A3C6CA-1178-4696-B360-21B090ED1A5A}
  0
DICTIONARYVAR
  5
4EB5
102
{ACAD_REACTORS
330
4EB4
102
}
330
4EB4
100
DictionaryVariables
280
     0
  1
1:1
  0
DICTIONARYVAR
  5
4EB7
102
{ACAD_REACTORS
330
4EB4
102
}
330
4EB4
100
DictionaryVariables
280
     0
  1
Standard
  0
DICTIONARYVAR
  5
4EB6
102
{ACAD_REACTORS
330
4EB4
102
}
330
4EB4
100
DictionaryVariables
280
     0
  1
Standard
  0
DICTIONARYVAR
  5
5447
102
{ACAD_REACTORS
330
4EB4
102
}
330
4EB4
100
DictionaryVariables
280
     0
  1
1
  0
DICTIONARYVAR
  5
5448
102
{ACAD_REACTORS
330
4EB4
102
}
330
4EB4
100
DictionaryVariables
280
     0
  1
0
  0
DICTIONARYVAR
  5
4EB8
102
{ACAD_REACTORS
330
4EB4
102
}
330
4EB4
100
DictionaryVariables
280
     0
  1
0
  0
DICTIONARYVAR
  5
4EB9
102
{ACAD_REACTORS
330
4EB4
102
}
330
4EB4
100
DictionaryVariables
280
     0
  1
0
  0
DICTIONARY
  5
4D92
102
{ACAD_REACTORS
330
4D91
102
}
330
4D91
100
AcDbDictionary
  0
DICTIONARY
  5
4DAB
102
{ACAD_REACTORS
330
4DAA
102
}
330
4DAA
100
AcDbDictionary
  0
DICTIONARY
  5
4E8B
102
{ACAD_REACTORS
330
4E8A
102
}
330
4E8A
100
AcDbDictionary
  0
DICTIONARY
  5
4E9B
102
{ACAD_REACTORS
330
4E9A
102
}
330
4E9A
100
AcDbDictionary
  0
DICTIONARY
  5
4E9F
102
{ACAD_REACTORS
330
4E9E
102
}
330
4E9E
100
AcDbDictionary
  0
DICTIONARY
  5
4EA3
102
{ACAD_REACTORS
330
4EA2
102
}
330
4EA2
100
AcDbDictionary
  0
DICTIONARY
  5
4EA7
102
{ACAD_REACTORS
330
4EA6
102
}
330
4EA6
100
AcDbDictionary
  0
DICTIONARY
  5
4EAB
102
{ACAD_REACTORS
330
4EAA
102
}
330
4EAA
100
AcDbDictionary
  0
DICTIONARY
  5
4EAF
102
{ACAD_REACTORS
330
4EAE
102
}
330
4EAE
100
AcDbDictionary
  0
DICTIONARY
  5
4EB3
102
{ACAD_REACTORS
330
4EB2
102
}
330
4EB2
100
AcDbDictionary
  0
DICTIONARY
  5
4FE5
102
{ACAD_REACTORS
330
4FE4
102
}
330
4FE4
100
AcDbDictionary
  0
DICTIONARY
  5
4FE9
102
{ACAD_REACTORS
330
4FE8
102
}
330
4FE8
100
AcDbDictionary
  0
DICTIONARY
  5
5020
102
{ACAD_REACTORS
330
501F
102
}
330
501F
100
AcDbDictionary
  0
DICTIONARY
  5
505B
102
{ACAD_REACTORS
330
505A
102
}
330
505A
100
AcDbDictionary
  0
DICTIONARY
  5
505F
102
{ACAD_REACTORS
330
505E
102
}
330
505E
100
AcDbDictionary
  0
DICTIONARY
  5
5450
330
4B84
100
AcDbDictionary
280
     1
  3
ACAD_XREC_ROUNDTRIP
360
5451
  0
DICTIONARY
  5
544E
330
4B83
100
AcDbDictionary
280
     1
  3
ACAD_XREC_ROUNDTRIP
360
544F
  0
DICTIONARY
  5
5452
330
4B85
100
AcDbDictionary
280
     1
  3
ACAD_XREC_ROUNDTRIP
360
5453
  0
XRECORD
  5
5451
102
{ACAD_REACTORS
330
5450
102
}
330
5450
100
AcDbXrecord
102
MATERIAL
148
0.0
149
0.0
149
0.0
 93
        0
 94
      127
282
     0
 72
     1
 77
     1
171
     1
175
     1
179
     1
273
     0
  0
XRECORD
  5
544F
102
{ACAD_REACTORS
330
544E
102
}
330
544E
100
AcDbXrecord
102
MATERIAL
148
0.0
149
0.0
149
0.0
 93
        0
 94
      127
282
     0
 72
     1
 77
     1
171
     1
175
     1
179
     1
273
     0
  0
XRECORD
  5
5453
102
{ACAD_REACTORS
330
5452
102
}
330
5452
100
AcDbXrecord
102
MATERIAL
148
0.0
149
0.0
149
0.0
 93
        0
 94
      127
282
     0
 72
     1
 77
     1
171
     1
175
     1
179
     1
273
     0
  0
ENDSEC
  0
EOF
