  0
SECTION
  2
HEADER
  9
$ACADVER
  1
AC1014
  9
$ACADMAINTVER
 70
     9
  9
$DWGCODEPAGE
  3
ANSI_932
  9
$INSBASE
 10
0.0
 20
0.0
 30
0.0
  9
$EXTMIN
 10
-81.122074309261
 20
115.280756585078
 30
0.0
  9
$EXTMAX
 10
591.820944274719
 20
520.737865402922
 30
0.0
  9
$LIMMIN
 10
-360.747566795242
 20
4.457354754526
  9
$LIMMAX
 10
-162.153696144267
 20
287.675440264018
  9
$ORTHOMODE
 70
     0
  9
$REGENMODE
 70
     1
  9
$FILLMODE
 70
     1
  9
$QTEXTMODE
 70
     0
  9
$MIRRTEXT
 70
     1
  9
$DRAGMODE
 70
     2
  9
$LTSCALE
 40
1.0
  9
$OSMODE
 70
   935
  9
$ATTMODE
 70
     1
  9
$TEXTSIZE
 40
4.0
  9
$TRACEWID
 40
1.0
  9
$TEXTSTYLE
  7
STANDARD
  9
$CLAYER
  8
寸法線
  9
$CELTYPE
  6
BYLAYER
  9
$CECOLOR
 62
   256
  9
$CELTSCALE
 40
10.0
  9
$DELOBJ
 70
     1
  9
$DISPSILH
 70
     0
  9
$DIMSCALE
 40
1.0
  9
$DIMASZ
 40
6.0
  9
$DIMEXO
 40
0.625
  9
$DIMDLI
 40
3.75
  9
$DIMRND
 40
0.0
  9
$DIMDLE
 40
0.0
  9
$DIMEXE
 40
1.25
  9
$DIMTP
 40
0.1
  9
$DIMTM
 40
0.1
  9
$DIMTXT
 40
8.0
  9
$DIMCEN
 40
2.5
  9
$DIMTSZ
 40
0.0
  9
$DIMTOL
 70
     0
  9
$DIMLIM
 70
     0
  9
$DIMTIH
 70
     0
  9
$DIMTOH
 70
     0
  9
$DIMSE1
 70
     0
  9
$DIMSE2
 70
     0
  9
$DIMTAD
 70
     1
  9
$DIMZIN
 70
     8
  9
$DIMBLK
  1
OPEN30
  9
$DIMASO
 70
     1
  9
$DIMSHO
 70
     1
  9
$DIMPOST
  1

  9
$DIMAPOST
  1

  9
$DIMALT
 70
     0
  9
$DIMALTD
 70
     2
  9
$DIMALTF
 40
0.0394
  9
$DIMLFAC
 40
1.0
  9
$DIMTOFL
 70
     1
  9
$DIMTVP
 40
1.0
  9
$DIMTIX
 70
     0
  9
$DIMSOXD
 70
     0
  9
$DIMSAH
 70
     0
  9
$DIMBLK1
  1

  9
$DIMBLK2
  1

  9
$DIMSTYLE
  2
ISO-25
  9
$DIMCLRD
 70
     0
  9
$DIMCLRE
 70
     0
  9
$DIMCLRT
 70
     0
  9
$DIMTFAC
 40
1.0
  9
$DIMGAP
 40
0.625
  9
$DIMJUST
 70
     0
  9
$DIMSD1
 70
     0
  9
$DIMSD2
 70
     0
  9
$DIMTOLJ
 70
     1
  9
$DIMTZIN
 70
     0
  9
$DIMALTZ
 70
     0
  9
$DIMALTTZ
 70
     0
  9
$DIMFIT
 70
     3
  9
$DIMUPT
 70
     0
  9
$DIMUNIT
 70
     2
  9
$DIMDEC
 70
     1
  9
$DIMTDEC
 70
     1
  9
$DIMALTU
 70
     2
  9
$DIMALTTD
 70
     2
  9
$DIMTXSTY
  7
STANDARD
  9
$DIMAUNIT
 70
     0
  9
$LUNITS
 70
     2
  9
$LUPREC
 70
     4
  9
$SKETCHINC
 40
1.0
  9
$FILLETRAD
 40
11.0
  9
$AUNITS
 70
     0
  9
$AUPREC
 70
     0
  9
$MENU
  1
.
  9
$ELEVATION
 40
0.0
  9
$PELEVATION
 40
0.0
  9
$THICKNESS
 40
0.0
  9
$LIMCHECK
 70
     0
  9
$CHAMFERA
 40
0.5
  9
$CHAMFERB
 40
0.5
  9
$CHAMFERC
 40
20.0
  9
$CHAMFERD
 40
0.0
  9
$SKPOLY
 70
     0
  9
$TDCREATE
 40
2450576.597302431
  9
$TDUPDATE
 40
2457658.776628553
  9
$TDINDWG
 40
1.3930126273
  9
$TDUSRTIMER
 40
1.3930126273
  9
$USRTIMER
 70
     1
  9
$ANGBASE
 50
0.0
  9
$ANGDIR
 70
     0
  9
$PDMODE
 70
     0
  9
$PDSIZE
 40
0.0
  9
$PLINEWID
 40
0.0
  9
$COORDS
 70
     2
  9
$SPLFRAME
 70
     0
  9
$SPLINETYPE
 70
     6
  9
$SPLINESEGS
 70
     8
  9
$ATTDIA
 70
     0
  9
$ATTREQ
 70
     1
  9
$HANDLING
 70
     1
  9
$HANDSEED
  5
5A9D
  9
$SURFTAB1
 70
     6
  9
$SURFTAB2
 70
     6
  9
$SURFTYPE
 70
     6
  9
$SURFU
 70
     6
  9
$SURFV
 70
     6
  9
$UCSNAME
  2

  9
$UCSORG
 10
0.0
 20
0.0
 30
0.0
  9
$UCSXDIR
 10
1.0
 20
0.0
 30
0.0
  9
$UCSYDIR
 10
0.0
 20
1.0
 30
0.0
  9
$PUCSNAME
  2

  9
$PUCSORG
 10
0.0
 20
0.0
 30
0.0
  9
$PUCSXDIR
 10
1.0
 20
0.0
 30
0.0
  9
$PUCSYDIR
 10
0.0
 20
1.0
 30
0.0
  9
$USERI1
 70
     0
  9
$USERI2
 70
     0
  9
$USERI3
 70
     0
  9
$USERI4
 70
     0
  9
$USERI5
 70
     0
  9
$USERR1
 40
0.0
  9
$USERR2
 40
0.0
  9
$USERR3
 40
0.0
  9
$USERR4
 40
0.0
  9
$USERR5
 40
0.0
  9
$WORLDVIEW
 70
     1
  9
$SHADEDGE
 70
     3
  9
$SHADEDIF
 70
    70
  9
$TILEMODE
 70
     0
  9
$MAXACTVP
 70
    16
  9
$PINSBASE
 10
0.0
 20
0.0
 30
0.0
  9
$PLIMCHECK
 70
     0
  9
$PEXTMIN
 10
4.746305129083
 20
1.396645458131
 30
0.0
  9
$PEXTMAX
 10
404.746305129083
 20
281.396645458131
 30
0.0
  9
$PLIMMIN
 10
-7.007122192383
 20
-7.007118782997
  9
$PLIMMAX
 10
417.718108215332
 20
293.315290427208
  9
$UNITMODE
 70
     0
  9
$VISRETAIN
 70
     0
  9
$PLINEGEN
 70
     0
  9
$PSLTSCALE
 70
     1
  9
$TREEDEPTH
 70
  3020
  9
$PICKSTYLE
 70
     1
  9
$CMLSTYLE
  2
STANDARD
  9
$CMLJUST
 70
     0
  9
$CMLSCALE
 40
1.0
  9
$PROXYGRAPHICS
 70
     1
  9
$MEASUREMENT
 70
     1
  0
ENDSEC
  0
SECTION
  2
CLASSES
  0
CLASS
  1
ACDBDICTIONARYWDFLT
  2
AcDbDictionaryWithDefault
  3
ObjectDBX Classes
 90
        0
280
     0
281
     0
  0
CLASS
  1
ACDBPLACEHOLDER
  2
AcDbPlaceHolder
  3
ObjectDBX Classes
 90
        0
280
     0
281
     0
  0
CLASS
  1
LAYOUT
  2
AcDbLayout
  3
ObjectDBX Classes
 90
        0
280
     0
281
     0
  0
CLASS
  1
SORTENTSTABLE
  2
AcDbSortentsTable
  3
ObjectDBX Classes
 90
        0
280
     0
281
     0
  0
CLASS
  1
VISUALSTYLE
  2
AcDbVisualStyle
  3
ObjectDBX Classes
 90
     4095
280
     0
281
     0
  0
CLASS
  1
SCALE
  2
AcDbScale
  3
ObjectDBX Classes
 90
     1153
280
     0
281
     0
  0
CLASS
  1
MATERIAL
  2
AcDbMaterial
  3
ObjectDBX Classes
 90
     1153
280
     0
281
     0
  0
CLASS
  1
TABLESTYLE
  2
AcDbTableStyle
  3
ObjectDBX Classes
 90
     4095
280
     0
281
     0
  0
CLASS
  1
MLEADERSTYLE
  2
AcDbMLeaderStyle
  3
ACDB_MLEADERSTYLE_CLASS
 90
     4095
280
     0
281
     0
  0
CLASS
  1
SUN
  2
AcDbSun
  3
SCENEOE
 90
     1153
280
     0
281
     0
  0
CLASS
  1
DICTIONARYVAR
  2
AcDbDictionaryVar
  3
ObjectDBX Classes
 90
        0
280
     0
281
     0
  0
CLASS
  1
CELLSTYLEMAP
  2
AcDbCellStyleMap
  3
ObjectDBX Classes
 90
     1152
280
     0
281
     0
  0
CLASS
  1
XRECORD
  2
AcDbXrecord
  3
ObjectDBX Classes
 90
        0
280
     0
281
     0
  0
CLASS
  1
LWPOLYLINE
  2
AcDbPolyline
  3
ObjectDBX Classes
 90
        0
280
     0
281
     1
  0
CLASS
  1
HATCH
  2
AcDbHatch
  3
ObjectDBX Classes
 90
        0
280
     0
281
     1
  0
ENDSEC
  0
SECTION
  2
TABLES
  0
TABLE
  2
VPORT
  5
8
102
{ACAD_XDICTIONARY
360
5A95
102
}
330
0
100
AcDbSymbolTable
 70
     4
  0
VPORT
  5
51D7
330
8
100
AcDbSymbolTableRecord
100
AcDbViewportTableRecord
  2
*ACTIVE
 70
     0
 10
0.0
 20
0.0
 11
1.0
 21
1.0
 12
255.349434982729
 22
318.009310994
 13
0.0
 23
0.0
 14
1.0
 24
1.0
 15
0.0
 25
0.0
 16
0.0
 26
0.0
 36
1.0
 17
0.0
 27
0.0
 37
0.0
 40
413.566250994201
 41
1.759407069555
 42
50.0
 43
0.0
 44
0.0
 50
0.0
 51
0.0
 71
    16
 72
   100
 73
     1
 74
     0
 75
     0
 76
     0
 77
     0
 78
     0
  0
ENDTAB
  0
TABLE
  2
LTYPE
  5
5
330
0
100
AcDbSymbolTable
 70
     6
  0
LTYPE
  5
14
330
5
100
AcDbSymbolTableRecord
100
AcDbLinetypeTableRecord
  2
BYBLOCK
 70
     0
  3

 72
    65
 73
     0
 40
0.0
  0
LTYPE
  5
15
330
5
100
AcDbSymbolTableRecord
100
AcDbLinetypeTableRecord
  2
BYLAYER
 70
     0
  3

 72
    65
 73
     0
 40
0.0
  0
LTYPE
  5
16
330
5
100
AcDbSymbolTableRecord
100
AcDbLinetypeTableRecord
  2
CONTINUOUS
 70
     0
  3
Solid line
 72
    65
 73
     0
 40
0.0
  0
LTYPE
  5
1EC
330
5
100
AcDbSymbolTableRecord
100
AcDbLinetypeTableRecord
  2
CENTER
 70
     0
  3
____ _ ____ _ ____ _ ____ _ ____ _ ____ _ ____ 
 72
    65
 73
     4
 40
2.0
 49
1.25
 74
     0
 49
-0.25
 74
     0
 49
0.25
 74
     0
 49
-0.25
 74
     0
  0
LTYPE
  5
1ED
330
5
100
AcDbSymbolTableRecord
100
AcDbLinetypeTableRecord
  2
DASHED
 70
     0
  3
__ __ __ __ __ __ __ __ __ __ __ __ __ __ __ __
 72
    65
 73
     2
 40
0.75
 49
0.5
 74
     0
 49
-0.25
 74
     0
  0
LTYPE
  5
2B1F
330
5
100
AcDbSymbolTableRecord
100
AcDbLinetypeTableRecord
  2
DASHDOT
 70
     0
  3
一点鎖線
 72
    65
 73
     4
 40
25.6
 49
20.0
 74
     0
 49
-2.0
 74
     0
 49
1.6
 74
     0
 49
-2.0
 74
     0
  0
LTYPE
  5
31A1
330
5
100
AcDbSymbolTableRecord
100
AcDbLinetypeTableRecord
  2
CENTER2
 70
     0
  3
Center (.5x) ___ _ ___ _ ___ _ ___ _ ___ _ ___
 72
    65
 73
     4
 40
28.575
 49
19.05
 74
     0
 49
-3.175
 74
     0
 49
3.175
 74
     0
 49
-3.175
 74
     0
  0
LTYPE
  5
409E
330
5
100
AcDbSymbolTableRecord
100
AcDbLinetypeTableRecord
  2
DASHED2
 70
     0
  3
Dashed (.5x) _ _ _ _ _ _ _ _ _ _ _ _ _ _ _ _ _
 72
    65
 73
     2
 40
9.525
 49
6.35
 74
     0
 49
-3.175
 74
     0
  0
ENDTAB
  0
TABLE
  2
LAYER
  5
2
102
{ACAD_XDICTIONARY
360
29EA
102
}
330
0
100
AcDbSymbolTable
 70
    12
  0
LAYER
  5
F
330
2
100
AcDbSymbolTableRecord
100
AcDbLayerTableRecord
  2
0
 70
     0
 62
     7
  6
CONTINUOUS
  0
LAYER
  5
61
330
2
100
AcDbSymbolTableRecord
100
AcDbLayerTableRecord
  2
図枠太線
 70
     0
 62
   251
  6
CONTINUOUS
  0
LAYER
  5
62
330
2
100
AcDbSymbolTableRecord
100
AcDbLayerTableRecord
  2
図枠細線
 70
     0
 62
   252
  6
CONTINUOUS
  0
LAYER
  5
63
330
2
100
AcDbSymbolTableRecord
100
AcDbLayerTableRecord
  2
図枠ロゴマーク
 70
     0
 62
   253
  6
CONTINUOUS
  0
LAYER
  5
1EF
330
2
100
AcDbSymbolTableRecord
100
AcDbLayerTableRecord
  2
外形線
 70
     0
 62
     7
  6
CONTINUOUS
  0
LAYER
  5
1F0
330
2
100
AcDbSymbolTableRecord
100
AcDbLayerTableRecord
  2
寸法線
 70
     0
 62
     1
  6
CONTINUOUS
  0
LAYER
  5
1F1
330
2
100
AcDbSymbolTableRecord
100
AcDbLayerTableRecord
  2
中心線
 70
     0
 62
     4
  6
CENTER
  0
LAYER
  5
1F4
330
2
100
AcDbSymbolTableRecord
100
AcDbLayerTableRecord
  2
DEFPOINTS
 70
     0
 62
     7
  6
CONTINUOUS
  0
LAYER
  5
2AA2
330
2
100
AcDbSymbolTableRecord
100
AcDbLayerTableRecord
  2
下書線
 70
     0
 62
     2
  6
CONTINUOUS
  0
LAYER
  5
2AA3
330
2
100
AcDbSymbolTableRecord
100
AcDbLayerTableRecord
  2
隠れ線
 70
     0
 62
     3
  6
DASHED
  0
LAYER
  5
2AA4
330
2
100
AcDbSymbolTableRecord
100
AcDbLayerTableRecord
  2
細線
 70
     0
 62
     6
  6
CONTINUOUS
  0
LAYER
  5
2AA5
330
2
100
AcDbSymbolTableRecord
100
AcDbLayerTableRecord
  2
太線
 70
     0
 62
   190
  6
CONTINUOUS
  0
ENDTAB
  0
TABLE
  2
STYLE
  5
3
330
0
100
AcDbSymbolTable
 70
     2
  0
STYLE
  5
10
330
3
100
AcDbSymbolTableRecord
100
AcDbTextStyleTableRecord
  2
STANDARD
 70
     0
 40
0.0
 41
1.0
 50
0.0
 71
     0
 42
4.0
  3
ISOCP
  4
bigfont.shx
  0
STYLE
  5
64
330
3
100
AcDbSymbolTableRecord
100
AcDbTextStyleTableRecord
  2
EXCADSTD
 70
     0
 40
0.0
 41
1.0
 50
0.0
 71
     0
 42
0.2
  3
monotxt
  4
bigfont
  0
ENDTAB
  0
TABLE
  2
VIEW
  5
6
330
0
100
AcDbSymbolTable
 70
     0
  0
ENDTAB
  0
TABLE
  2
UCS
  5
7
330
0
100
AcDbSymbolTable
 70
     0
  0
ENDTAB
  0
TABLE
  2
APPID
  5
9
330
0
100
AcDbSymbolTable
 70
     6
  0
APPID
  5
11
330
9
100
AcDbSymbolTableRecord
100
AcDbRegAppTableRecord
  2
ACAD
 70
     0
  0
APPID
  5
3507
330
9
100
AcDbSymbolTableRecord
100
AcDbRegAppTableRecord
  2
ACAD_DIMASSOC_CALC_DIMLFAC
 70
     0
  0
APPID
  5
3508
330
9
100
AcDbSymbolTableRecord
100
AcDbRegAppTableRecord
  2
ACAD_DIMASSOC_DIMLFAC
 70
     0
  0
APPID
  5
3509
330
9
100
AcDbSymbolTableRecord
100
AcDbRegAppTableRecord
  2
ACAD_DIMASSOC_OVERRIDDEN_D
 70
     0
  0
APPID
  5
524B
330
9
100
AcDbSymbolTableRecord
100
AcDbRegAppTableRecord
  2
ACADANNOTATIVE
 70
     0
  0
APPID
  5
53C7
330
9
100
AcDbSymbolTableRecord
100
AcDbRegAppTableRecord
  2
ACAD_MLEADERVER
 70
     0
  0
ENDTAB
  0
TABLE
  2
DIMSTYLE
  5
A
330
0
100
AcDbSymbolTable
 70
     2
  0
DIMSTYLE
105
1D
330
A
100
AcDbSymbolTableRecord
100
AcDbDimStyleTableRecord
  2
STANDARD
 70
     0
  3

  4

  5

  6

  7

 40
1.0
 41
0.18
 42
0.0625
 43
0.38
 44
0.18
 45
0.0
 46
0.0
 47
0.0
 48
0.0
140
0.18
141
0.09
142
0.0
143
25.4
144
1.0
145
0.0
146
1.0
147
0.09
 71
     0
 72
     0
 73
     1
 74
     1
 75
     0
 76
     0
 77
     0
 78
     0
170
     0
171
     2
172
     0
173
     0
174
     0
175
     0
176
     0
177
     0
178
     0
270
     2
271
     4
272
     4
273
     2
274
     2
340
10
275
     0
280
     0
281
     0
282
     0
283
     1
284
     0
285
     0
286
     0
287
     3
288
     0
  0
DIMSTYLE
105
24
102
{ACAD_REACTORS
330
410D
330
411A
330
4127
330
4134
330
46CD
330
46DA
330
46E7
330
48A2
330
48AF
330
5626
330
5627
102
}
330
A
100
AcDbSymbolTableRecord
100
AcDbDimStyleTableRecord
  2
ISO-25
 70
     0
  3

  4

  5

  6

  7

 40
1.0
 41
2.5
 42
0.625
 43
3.75
 44
1.25
 45
0.0
 46
0.0
 47
0.0
 48
0.0
140
2.5
141
2.5
142
0.0
143
0.0394
144
1.0
145
1.0
146
1.0
147
0.625
 71
     0
 72
     0
 73
     1
 74
     0
 75
     0
 76
     0
 77
     1
 78
     8
170
     0
171
     2
172
     1
173
     0
174
     0
175
     0
176
     0
177
     0
178
     0
270
     2
271
     4
272
     4
273
     2
274
     2
340
10
275
     0
280
     0
281
     0
282
     0
283
     1
284
     0
285
     0
286
     0
287
     3
288
     0
  0
ENDTAB
  0
TABLE
  2
BLOCK_RECORD
  5
1
330
0
100
AcDbSymbolTable
 70
    78
  0
BLOCK_RECORD
  5
1A
330
1
100
AcDbSymbolTableRecord
100
AcDbBlockTableRecord
  2
*MODEL_SPACE
  0
BLOCK_RECORD
  5
28FB
330
1
100
AcDbSymbolTableRecord
100
AcDbBlockTableRecord
  2
*PAPER_SPACE
  0
BLOCK_RECORD
  5
65
330
1
100
AcDbSymbolTableRecord
100
AcDbBlockTableRecord
  2
A$C3392
  0
BLOCK_RECORD
  5
29BF
330
1
100
AcDbSymbolTableRecord
100
AcDbBlockTableRecord
  2
A4横用_タイトル
1001
ACAD
1000
DesignCenter Data
1002
{
1070
     1
1070
     4
1002
}
  0
BLOCK_RECORD
  5
29F4
330
1
100
AcDbSymbolTableRecord
100
AcDbBlockTableRecord
  2
A4縦用_タイトル
1001
ACAD
1000
DesignCenter Data
1002
{
1070
     1
1070
     4
1002
}
  0
BLOCK_RECORD
  5
2A32
330
1
100
AcDbSymbolTableRecord
100
AcDbBlockTableRecord
  2
A3横用_タイトル
1001
ACAD
1000
DesignCenter Data
1002
{
1070
     1
1070
     4
1002
}
  0
BLOCK_RECORD
  5
2A6C
330
1
100
AcDbSymbolTableRecord
100
AcDbBlockTableRecord
  2
A3縦用_タイトル
1001
ACAD
1000
DesignCenter Data
1002
{
1070
     1
1070
     4
1002
}
  0
BLOCK_RECORD
  5
2AF4
330
1
100
AcDbSymbolTableRecord
100
AcDbBlockTableRecord
  2
_OPEN30
  0
BLOCK_RECORD
  5
410E
330
1
100
AcDbSymbolTableRecord
100
AcDbBlockTableRecord
  2
*D6
  0
BLOCK_RECORD
  5
411B
330
1
100
AcDbSymbolTableRecord
100
AcDbBlockTableRecord
  2
*D7
  0
BLOCK_RECORD
  5
4128
330
1
100
AcDbSymbolTableRecord
100
AcDbBlockTableRecord
  2
*D8
  0
BLOCK_RECORD
  5
4135
330
1
100
AcDbSymbolTableRecord
100
AcDbBlockTableRecord
  2
*D9
  0
BLOCK_RECORD
  5
4212
330
1
100
AcDbSymbolTableRecord
100
AcDbBlockTableRecord
  2
_DOTSMALL
  0
BLOCK_RECORD
  5
4216
330
1
100
AcDbSymbolTableRecord
100
AcDbBlockTableRecord
  2
_DOT
  0
BLOCK_RECORD
  5
4501
330
1
100
AcDbSymbolTableRecord
100
AcDbBlockTableRecord
  2
静電容量センサ
  0
BLOCK_RECORD
  5
46CE
330
1
100
AcDbSymbolTableRecord
100
AcDbBlockTableRecord
  2
*D17
  0
BLOCK_RECORD
  5
46DB
330
1
100
AcDbSymbolTableRecord
100
AcDbBlockTableRecord
  2
*D18
  0
BLOCK_RECORD
  5
46E8
330
1
100
AcDbSymbolTableRecord
100
AcDbBlockTableRecord
  2
*D19
  0
BLOCK_RECORD
  5
490E
330
1
100
AcDbSymbolTableRecord
100
AcDbBlockTableRecord
  2
*D20
  0
BLOCK_RECORD
  5
4926
330
1
100
AcDbSymbolTableRecord
100
AcDbBlockTableRecord
  2
*D21
  0
BLOCK_RECORD
  5
5638
330
1
100
AcDbSymbolTableRecord
100
AcDbBlockTableRecord
  2
*D76
  0
BLOCK_RECORD
  5
5645
330
1
100
AcDbSymbolTableRecord
100
AcDbBlockTableRecord
  2
*D77
  0
ENDTAB
  0
ENDSEC
  0
SECTION
  2
BLOCKS
  0
BLOCK
  5
1B
330
1A
100
AcDbEntity
  8
0
100
AcDbBlockBegin
  2
*MODEL_SPACE
 70
     0
 10
0.0
 20
0.0
 30
0.0
  3
*MODEL_SPACE
  1

  0
ENDBLK
  5
1C
330
1A
100
AcDbEntity
  8
0
100
AcDbBlockEnd
  0
BLOCK
  5
28FD
330
28FB
100
AcDbEntity
 67
     1
  8
0
 48
10.0
100
AcDbBlockBegin
  2
*PAPER_SPACE
 70
     0
 10
0.0
 20
0.0
 30
0.0
  3
*PAPER_SPACE
  1

  0
ENDBLK
  5
28FE
330
28FB
100
AcDbEntity
 67
     1
  8
0
 48
10.0
100
AcDbBlockEnd
  0
BLOCK
  5
93
330
65
100
AcDbEntity
  8
0
100
AcDbBlockBegin
  2
A$C3392
 70
     0
 10
0.0
 20
0.0
 30
0.0
  3
A$C3392
  1

  0
LINE
  5
66
330
65
100
AcDbEntity
  8
図枠太線
  6
CONTINUOUS
100
AcDbLine
 10
211.858584505185
 20
30.927375675439
 30
0.0
 11
211.858584505185
 21
0.927375675439
 31
0.0
  0
LINE
  5
67
330
65
100
AcDbEntity
  8
図枠細線
  6
CONTINUOUS
100
AcDbLine
 10
231.858592505185
 20
15.927377675439
 30
0.0
 11
287.858592505185
 21
15.927375675439
 31
0.0
  0
LINE
  5
68
330
65
100
AcDbEntity
  8
図枠細線
  6
CONTINUOUS
100
AcDbLine
 10
211.858592505185
 20
15.927377675439
 30
0.0
 11
231.858592505185
 21
15.927377675439
 31
0.0
  0
LINE
  5
69
330
65
100
AcDbEntity
  8
図枠太線
  6
CONTINUOUS
 62
   251
100
AcDbLine
 10
1.858584505185
 20
0.927375675439
 30
0.0
 11
1.858584505185
 21
275.927375675439
 31
0.0
  0
TEXT
  5
6A
330
65
100
AcDbEntity
  8
図枠細線
  6
CONTINUOUS
 62
   252
100
AcDbText
 10
351.358592505185
 20
28.427377675439
 30
0.0
 40
2.0
  1
ＴＩＴＬＥ
 41
0.903614457831
  7
EXCADSTD
 72
     5
 11
361.358592505185
 21
28.427377675439
 31
0.0
100
AcDbText
  0
TEXT
  5
6B
330
65
100
AcDbEntity
  8
図枠細線
  6
CONTINUOUS
 62
   252
100
AcDbText
 10
345.358592505185
 20
28.427377675439
 30
0.0
 40
2.0
  1
名称
 41
1.171875
  7
EXCADSTD
 72
     5
 11
350.358592505185
 21
28.427377675439
 31
0.0
100
AcDbText
  0
TEXT
  5
6C
330
65
100
AcDbEntity
  8
図枠細線
  6
CONTINUOUS
 62
   252
100
AcDbText
 10
274.358592505185
 20
25.927377675439
 30
0.0
 40
2.0
  1
ＤＲＡＷＮ
 41
0.882352941176
  7
EXCADSTD
 72
     5
 11
284.358592505185
 21
25.927377675439
 31
0.0
100
AcDbText
  0
TEXT
  5
6D
330
65
100
AcDbEntity
  8
図枠細線
  6
CONTINUOUS
 62
   252
100
AcDbText
 10
260.358592505185
 20
25.927377675439
 30
0.0
 40
2.0
  1
ＤＥＳＩＧＮＥＤ
 41
0.713043472041
  7
EXCADSTD
 72
     5
 11
273.478592390744
 21
25.927377675439
 31
0.0
100
AcDbText
  0
TEXT
  5
6E
330
65
100
AcDbEntity
  8
図枠細線
  6
CONTINUOUS
 62
   252
100
AcDbText
 10
246.358592505185
 20
25.927377675439
 30
0.0
 40
2.0
  1
ＣＨＥＣＫＥＤ
 41
0.831249989569
  7
EXCADSTD
 72
     5
 11
259.658592338292
 21
25.927377675439
 31
0.0
100
AcDbText
  0
TEXT
  5
6F
330
65
100
AcDbEntity
  8
図枠細線
  6
CONTINUOUS
 62
   252
100
AcDbText
 10
274.358592505185
 20
28.427377675439
 30
0.0
 40
2.0
  1
製図
 41
1.209677419355
  7
EXCADSTD
 72
     5
 11
279.358592505185
 21
28.427377675439
 31
0.0
100
AcDbText
  0
TEXT
  5
70
330
65
100
AcDbEntity
  8
図枠細線
  6
CONTINUOUS
 62
   252
100
AcDbText
 10
260.358592505185
 20
28.427377675439
 30
0.0
 40
2.0
  1
設計
 41
1.171875
  7
EXCADSTD
 72
     5
 11
265.358592505185
 21
28.427377675439
 31
0.0
100
AcDbText
  0
TEXT
  5
71
330
65
100
AcDbEntity
  8
図枠細線
  6
CONTINUOUS
 62
   252
100
AcDbText
 10
246.358592505185
 20
28.427377675439
 30
0.0
 40
2.0
  1
検図
 41
1.209677419355
  7
EXCADSTD
 72
     5
 11
251.358592505185
 21
28.427377675439
 31
0.0
100
AcDbText
  0
TEXT
  5
72
330
65
100
AcDbEntity
  8
図枠細線
  6
CONTINUOUS
 62
   252
100
AcDbText
 10
232.358592505185
 20
25.927377675439
 30
0.0
 40
2.0
  1
ＡＰＰＲＯＶＥＤ
 41
0.695652184279
  7
EXCADSTD
 72
     5
 11
245.15859269592
 21
25.927377675439
 31
0.0
100
AcDbText
  0
TEXT
  5
73
330
65
100
AcDbEntity
  8
図枠細線
  6
CONTINUOUS
 62
   252
100
AcDbText
 10
232.358592505185
 20
28.427377675439
 30
0.0
 40
2.0
  1
承認
 41
1.171875
  7
EXCADSTD
 72
     5
 11
237.358592505185
 21
28.427377675439
 31
0.0
100
AcDbText
  0
TEXT
  5
74
330
65
100
AcDbEntity
  8
図枠細線
  6
CONTINUOUS
 62
   252
100
AcDbText
 10
290.069888505185
 20
2.574868675439
 30
0.0
 40
3.5
  1
ＴＯＷＡ　ＳＥＩＤＥＮ　ＩＮＤＵＳＴＲＩＡＬ　ＣＯ．，ＬＴＤ．
 41
0.414568012377
  7
EXCADSTD
 72
     5
 11
342.692388209546
 21
2.574868675439
 31
0.0
100
AcDbText
  0
TEXT
  5
75
330
65
100
AcDbEntity
  8
図枠ロゴマーク
  6
CONTINUOUS
 62
   253
100
AcDbText
 10
290.107348505185
 20
7.519769675439
 30
0.0
 40
7.0
  1
東和制電工業株式会社
 41
0.639204545455
  7
EXCADSTD
 72
     5
 11
342.607348505185
 21
7.519769675439
 31
0.0
100
AcDbText
  0
TEXT
  5
76
330
65
100
AcDbEntity
  8
図枠細線
  6
CONTINUOUS
 62
   252
100
AcDbText
 10
232.499705505185
 20
5.759088675439
 30
0.0
 40
2.0
  1
ＰＲＯＪＥＣＴＩＯＮ
 41
0.754285710199
  7
EXCADSTD
 72
     5
 11
250.099705409817
 21
5.759088675439
 31
0.0
100
AcDbText
  0
TEXT
  5
77
330
65
100
AcDbEntity
  8
図枠細線
  6
CONTINUOUS
 62
   252
100
AcDbText
 10
232.574629505185
 20
8.681077675439
 30
0.0
 40
2.0
  1
ＴＨＩＲＤ　ＡＮＧＬＥ
 41
0.691099486738
  7
EXCADSTD
 72
     5
 11
250.174629767445
 21
8.681077675439
 31
0.0
100
AcDbText
  0
TEXT
  5
78
330
65
100
AcDbEntity
  8
図枠細線
  6
CONTINUOUS
 62
   252
100
AcDbText
 10
256.823999505185
 20
13.427377675439
 30
0.0
 40
2.0
  1
ＳＣＡＬＥ
 41
0.903614457831
  7
EXCADSTD
 72
     5
 11
266.823999505185
 21
13.427377675439
 31
0.0
100
AcDbText
  0
TEXT
  5
79
330
65
100
AcDbEntity
  8
図枠細線
  6
CONTINUOUS
 62
   252
100
AcDbText
 10
274.858592505185
 20
13.427377675439
 30
0.0
 40
2.0
  1
ＤＡＴＥ
 41
0.923076923077
  7
EXCADSTD
 72
     5
 11
282.858592505185
 21
13.427377675439
 31
0.0
100
AcDbText
  0
TEXT
  5
7A
330
65
100
AcDbEntity
  8
図枠細線
  6
CONTINUOUS
 62
   252
100
AcDbText
 10
356.358592505185
 20
13.427377675439
 30
0.0
 40
2.0
  1
ＤＲＧ．ＮＯ．
 41
0.9375
  7
EXCADSTD
 72
     5
 11
370.358592505185
 21
13.427377675439
 31
0.0
100
AcDbText
  0
TEXT
  5
7B
330
65
100
AcDbEntity
  8
図枠細線
  6
CONTINUOUS
 62
   252
100
AcDbText
 10
345.358592505185
 20
13.427377675439
 30
0.0
 40
2.0
  1
図面番号
 41
1.102941176471
  7
EXCADSTD
 72
     5
 11
355.358592505185
 21
13.427377675439
 31
0.0
100
AcDbText
  0
TEXT
  5
7C
330
65
100
AcDbEntity
  8
図枠細線
  6
CONTINUOUS
 62
   252
100
AcDbText
 10
269.358592505185
 20
13.427377675439
 30
0.0
 40
2.0
  1
日付
 41
1.171875
  7
EXCADSTD
 72
     5
 11
274.358592505185
 21
13.427377675439
 31
0.0
100
AcDbText
  0
TEXT
  5
7D
330
65
100
AcDbEntity
  8
図枠細線
  6
CONTINUOUS
 62
   252
100
AcDbText
 10
251.451512505185
 20
13.427377675439
 30
0.0
 40
2.0
  1
尺度
 41
1.171875
  7
EXCADSTD
 72
     5
 11
256.451512505185
 21
13.427377675439
 31
0.0
100
AcDbText
  0
TEXT
  5
7E
330
65
100
AcDbEntity
  8
図枠細線
  6
CONTINUOUS
 62
   252
100
AcDbText
 10
232.358592505185
 20
13.427377675439
 30
0.0
 40
2.0
  1
第三角法
 41
1.102941176471
  7
EXCADSTD
 72
     5
 11
242.358592505185
 21
13.427377675439
 31
0.0
100
AcDbText
  0
TEXT
  5
7F
330
65
100
AcDbEntity
  8
図枠細線
  6
CONTINUOUS
 62
   252
100
AcDbText
 10
212.358592505185
 20
28.427377675439
 30
0.0
 40
2.0
  1
ＮＯＴＥ
 41
0.923076923077
  7
EXCADSTD
 72
     5
 11
220.358592505185
 21
28.427377675439
 31
0.0
100
AcDbText
  0
LINE
  5
80
330
65
100
AcDbEntity
  8
図枠細線
  6
CONTINUOUS
 62
   252
100
AcDbLine
 10
287.858592505185
 20
23.427375675439
 30
0.0
 11
344.858592505185
 21
23.427375675439
 31
0.0
  0
LINE
  5
81
330
65
100
AcDbEntity
  8
図枠太線
  6
CONTINUOUS
 62
   251
100
AcDbLine
 10
287.858584505185
 20
15.927375675439
 30
0.0
 11
344.858592505185
 21
15.927375675439
 31
0.0
  0
LINE
  5
82
330
65
100
AcDbEntity
  8
図枠細線
  6
CONTINUOUS
 62
   252
100
AcDbLine
 10
344.858592505185
 20
15.927375675439
 30
0.0
 11
401.858584505185
 21
15.927375675439
 31
0.0
  0
LINE
  5
83
330
65
100
AcDbEntity
  8
図枠太線
  6
CONTINUOUS
 62
   251
100
AcDbLine
 10
344.858592505185
 20
0.927377675439
 30
0.0
 11
344.858592505185
 21
30.927375675439
 31
0.0
  0
LINE
  5
84
330
65
100
AcDbEntity
  8
図枠太線
  6
CONTINUOUS
 62
   251
100
AcDbLine
 10
287.858592505185
 20
0.927377675439
 30
0.0
 11
287.858592505185
 21
30.927375675439
 31
0.0
  0
LINE
  5
85
330
65
100
AcDbEntity
  8
図枠細線
  6
CONTINUOUS
 62
   252
100
AcDbLine
 10
268.858592505185
 20
0.927377675439
 30
0.0
 11
268.858592505185
 21
15.927375675439
 31
0.0
  0
LINE
  5
86
330
65
100
AcDbEntity
  8
図枠細線
  6
CONTINUOUS
 62
   252
100
AcDbLine
 10
250.858592505185
 20
0.927377675439
 30
0.0
 11
250.858592505185
 21
15.927375675439
 31
0.0
  0
LINE
  5
87
330
65
100
AcDbEntity
  8
図枠細線
  6
CONTINUOUS
 62
   252
100
AcDbLine
 10
273.858592505185
 20
30.927375675439
 30
0.0
 11
273.858592505185
 21
15.927375675439
 31
0.0
  0
LINE
  5
88
330
65
100
AcDbEntity
  8
図枠細線
  6
CONTINUOUS
 62
   252
100
AcDbLine
 10
259.858592505185
 20
30.927375675439
 30
0.0
 11
259.858592505185
 21
15.927375675439
 31
0.0
  0
LINE
  5
89
330
65
100
AcDbEntity
  8
図枠細線
  6
CONTINUOUS
 62
   252
100
AcDbLine
 10
245.858592505185
 20
30.927375675439
 30
0.0
 11
245.858592505185
 21
15.927375675439
 31
0.0
  0
LINE
  5
8A
330
65
100
AcDbEntity
  8
図枠太線
  6
CONTINUOUS
 62
   251
100
AcDbLine
 10
231.858592505185
 20
0.927377675439
 30
0.0
 11
231.858592505185
 21
30.927375675439
 31
0.0
  0
LINE
  5
8B
330
65
100
AcDbEntity
  8
図枠細線
  6
CONTINUOUS
 62
   252
100
AcDbLine
 10
211.858592505185
 20
25.927375675439
 30
0.0
 11
231.858592505185
 21
25.927375675439
 31
0.0
  0
LINE
  5
8C
330
65
100
AcDbEntity
  8
図枠細線
  6
CONTINUOUS
 62
   252
100
AcDbLine
 10
211.858592505185
 20
20.927375675439
 30
0.0
 11
231.858592505185
 21
20.927375675439
 31
0.0
  0
LINE
  5
8D
330
65
100
AcDbEntity
  8
図枠細線
  6
CONTINUOUS
 62
   252
100
AcDbLine
 10
211.858592505185
 20
10.927375675439
 30
0.0
 11
231.858592505185
 21
10.927375675439
 31
0.0
  0
LINE
  5
8E
330
65
100
AcDbEntity
  8
図枠細線
  6
CONTINUOUS
 62
   252
100
AcDbLine
 10
211.858592505185
 20
5.927377675439
 30
0.0
 11
231.858592505185
 21
5.927377675439
 31
0.0
  0
LINE
  5
8F
330
65
100
AcDbEntity
  8
図枠太線
  6
CONTINUOUS
 62
   251
100
AcDbLine
 10
211.858592505185
 20
30.927375675439
 30
0.0
 11
401.858584505185
 21
30.927375675439
 31
0.0
  0
LINE
  5
90
330
65
100
AcDbEntity
  8
図枠太線
  6
CONTINUOUS
 62
   251
100
AcDbLine
 10
1.858584505185
 20
275.927375675439
 30
0.0
 11
401.858584505185
 21
275.927375675439
 31
0.0
  0
LINE
  5
91
330
65
100
AcDbEntity
  8
図枠太線
  6
CONTINUOUS
 62
   251
100
AcDbLine
 10
401.858584505185
 20
0.927375675439
 30
0.0
 11
401.858584505185
 21
275.927375675439
 31
0.0
  0
LINE
  5
92
330
65
100
AcDbEntity
  8
図枠太線
  6
CONTINUOUS
 62
   251
100
AcDbLine
 10
1.858584505185
 20
0.927375675439
 30
0.0
 11
401.858584505185
 21
0.927375675439
 31
0.0
  0
ENDBLK
  5
94
330
65
100
AcDbEntity
  8
0
100
AcDbBlockEnd
  0
BLOCK
  5
29C0
330
29BF
100
AcDbEntity
  8
0
100
AcDbBlockBegin
  2
A4横用_タイトル
 70
     0
 10
0.0
 20
0.0
 30
0.0
  3
A4横用_タイトル
  1

  0
LINE
  5
29C1
330
29BF
100
AcDbEntity
  8
図枠細線
  6
CONTINUOUS
100
AcDbLine
 10
75.061011071051
 20
16.806607253358
 30
0.0
 11
144.061011071051
 21
16.806604789072
 31
0.0
  0
LINE
  5
29C2
330
29BF
100
AcDbEntity
  8
図枠細線
  6
CONTINUOUS
 62
   252
100
AcDbLine
 10
4.061011071051
 20
11.806606253358
 30
0.0
 11
75.061011071051
 21
11.806606253358
 31
0.0
  0
LINE
  5
29C3
330
29BF
100
AcDbEntity
  8
図枠細線
  6
CONTINUOUS
 62
   252
100
AcDbLine
 10
4.061011071051
 20
21.806606253358
 30
0.0
 11
75.061011071051
 21
21.806606253358
 31
0.0
  0
LINE
  5
29C4
330
29BF
100
AcDbEntity
  8
図枠細線
  6
CONTINUOUS
 62
   252
100
AcDbLine
 10
4.061011071051
 20
26.806606253358
 30
0.0
 11
75.061011071051
 21
26.806606253358
 31
0.0
  0
LINE
  5
29C5
330
29BF
100
AcDbEntity
  8
図枠細線
  6
CONTINUOUS
100
AcDbLine
 10
4.061011071051
 20
16.806608253358
 30
0.0
 11
75.061011071051
 21
16.806608253358
 31
0.0
  0
TEXT
  5
29C6
330
29BF
100
AcDbEntity
  8
図枠細線
  6
CONTINUOUS
 62
   252
100
AcDbText
 10
76.405475827713
 20
9.560308253358
 30
0.0
 40
2.0
  1
ＴＨＩＲＤ　ＡＮＧＬＥ
 41
0.691099486738
  7
EXCADSTD
 72
     5
 11
94.005476089973
 21
9.560308253358
 31
0.0
100
AcDbText
  0
TEXT
  5
29C7
330
29BF
100
AcDbEntity
  8
図枠細線
  6
CONTINUOUS
 62
   252
100
AcDbText
 10
76.705775880921
 20
14.306608253358
 30
0.0
 40
2.0
  1
第三角法
 41
1.102941176471
  7
EXCADSTD
 72
     5
 11
86.705775880921
 21
14.306608253358
 31
0.0
100
AcDbText
  0
TEXT
  5
29C8
330
29BF
100
AcDbEntity
  8
図枠細線
  6
CONTINUOUS
 62
   252
100
AcDbText
 10
76.705775880921
 20
26.806608253358
 30
0.0
 40
2.0
  1
ＡＰＰＲＯＶＥＤ
 41
0.695652184279
  7
EXCADSTD
 72
     5
 11
89.505776071656
 21
26.806608253358
 31
0.0
100
AcDbText
  0
TEXT
  5
29C9
330
29BF
100
AcDbEntity
  8
図枠細線
  6
CONTINUOUS
 62
   252
100
AcDbText
 10
76.705775880921
 20
29.306608253358
 30
0.0
 40
2.0
  1
承認
 41
1.171875
  7
EXCADSTD
 72
     5
 11
81.705775880921
 21
29.306608253358
 31
0.0
100
AcDbText
  0
LINE
  5
29CA
330
29BF
100
AcDbEntity
  8
図枠細線
  6
CONTINUOUS
 62
   252
100
AcDbLine
 10
98.061011071051
 20
31.806606253358
 30
0.0
 11
98.061011071051
 21
16.806606253358
 31
0.0
  0
TEXT
  5
29CB
330
29BF
100
AcDbEntity
  8
図枠細線
  6
CONTINUOUS
 62
   252
100
AcDbText
 10
104.216531119804
 20
14.306608253358
 30
0.0
 40
2.0
  1
ＳＣＡＬＥ
 41
0.903614457831
  7
EXCADSTD
 72
     5
 11
114.216531119804
 21
14.306608253358
 31
0.0
100
AcDbText
  0
TEXT
  5
29CC
330
29BF
100
AcDbEntity
  8
図枠細線
  6
CONTINUOUS
 62
   252
100
AcDbText
 10
98.844044119804
 20
14.306608253358
 30
0.0
 40
2.0
  1
尺度
 41
1.171875
  7
EXCADSTD
 72
     5
 11
103.844044119804
 21
14.306608253358
 31
0.0
100
AcDbText
  0
TEXT
  5
29CD
330
29BF
100
AcDbEntity
  8
図枠細線
  6
CONTINUOUS
 62
   252
100
AcDbText
 10
98.968727707497
 20
26.806608253358
 30
0.0
 40
2.0
  1
ＣＨＥＣＫＥＤ
 41
0.831249989569
  7
EXCADSTD
 72
     5
 11
112.268727540604
 21
26.806608253358
 31
0.0
100
AcDbText
  0
TEXT
  5
29CE
330
29BF
100
AcDbEntity
  8
図枠細線
  6
CONTINUOUS
 62
   252
100
AcDbText
 10
98.968727707497
 20
29.306608253358
 30
0.0
 40
2.0
  1
検図
 41
1.209677419355
  7
EXCADSTD
 72
     5
 11
103.968727707497
 21
29.306608253358
 31
0.0
100
AcDbText
  0
LINE
  5
29CF
330
29BF
100
AcDbEntity
  8
図枠細線
  6
CONTINUOUS
 62
   252
100
AcDbLine
 10
121.061011071051
 20
31.806606253358
 30
0.0
 11
121.061011071051
 21
16.806606253358
 31
0.0
  0
TEXT
  5
29D0
330
29BF
100
AcDbEntity
  8
図枠細線
  6
CONTINUOUS
 62
   252
100
AcDbText
 10
128.001465247253
 20
14.306608253358
 30
0.0
 40
2.0
  1
ＤＡＴＥ
 41
0.923076923077
  7
EXCADSTD
 72
     5
 11
136.001465247253
 21
14.306608253358
 31
0.0
100
AcDbText
  0
TEXT
  5
29D1
330
29BF
100
AcDbEntity
  8
図枠細線
  6
CONTINUOUS
 62
   252
100
AcDbText
 10
122.066415498841
 20
14.306608253358
 30
0.0
 40
2.0
  1
日付
 41
1.171875
  7
EXCADSTD
 72
     5
 11
127.066415498841
 21
14.306608253358
 31
0.0
100
AcDbText
  0
TEXT
  5
29D2
330
29BF
100
AcDbEntity
  8
図枠細線
  6
CONTINUOUS
 62
   252
100
AcDbText
 10
121.59429406571
 20
29.306608253358
 30
0.0
 40
2.0
  1
製図
 41
1.209677419355
  7
EXCADSTD
 72
     5
 11
126.59429406571
 21
29.306608253358
 31
0.0
100
AcDbText
  0
TEXT
  5
29D3
330
29BF
100
AcDbEntity
  8
図枠細線
  6
CONTINUOUS
 62
   252
100
AcDbText
 10
121.59429406571
 20
26.806608253358
 30
0.0
 40
2.0
  1
ＤＲＡＷＮ
 41
0.882352941176
  7
EXCADSTD
 72
     5
 11
131.59429406571
 21
26.806608253358
 31
0.0
100
AcDbText
  0
TEXT
  5
29D4
330
29BF
100
AcDbEntity
  8
図枠細線
  6
CONTINUOUS
 62
   252
100
AcDbText
 10
226.591229661348
 20
14.306608253358
 30
0.0
 40
2.0
  1
ＤＲＧ．ＮＯ．
 41
0.9375
  7
EXCADSTD
 72
     5
 11
240.591229661348
 21
14.306608253358
 31
0.0
100
AcDbText
  0
LINE
  5
29D5
330
29BF
100
AcDbEntity
  8
図枠太線
  6
CONTINUOUS
 62
   251
100
AcDbLine
 10
144.061003071051
 20
16.806606253358
 30
0.0
 11
214.061011071051
 21
16.806606253358
 31
0.0
  0
LINE
  5
29D6
330
29BF
100
AcDbEntity
  8
図枠細線
  6
CONTINUOUS
 62
   252
100
AcDbLine
 10
144.061011071051
 20
24.306606253358
 30
0.0
 11
214.061011071051
 21
24.306606253358
 31
0.0
  0
TEXT
  5
29D7
330
29BF
100
AcDbEntity
  8
図枠ロゴマーク
  6
CONTINUOUS
 62
   253
100
AcDbText
 10
146.433776781596
 20
8.399000253358
 30
0.0
 40
7.0
  1
東和制電工業株式会社
 41
0.80361088462
  7
EXCADSTD
 72
     5
 11
212.437017438349
 21
8.399000253358
 31
0.0
100
AcDbText
  0
TEXT
  5
29D8
330
29BF
100
AcDbEntity
  8
図枠細線
  6
CONTINUOUS
 62
   252
100
AcDbText
 10
215.156179912936
 20
14.306608253358
 30
0.0
 40
2.0
  1
図面番号
 41
1.102941176471
  7
EXCADSTD
 72
     5
 11
225.156179912936
 21
14.306608253358
 31
0.0
100
AcDbText
  0
TEXT
  5
29D9
330
29BF
100
AcDbEntity
  8
図枠細線
  6
CONTINUOUS
 62
   252
100
AcDbText
 10
221.591229661348
 20
29.306608253358
 30
0.0
 40
2.0
  1
ＴＩＴＬＥ
 41
0.903614457831
  7
EXCADSTD
 72
     5
 11
231.591229661348
 21
29.306608253358
 31
0.0
100
AcDbText
  0
TEXT
  5
29DA
330
29BF
100
AcDbEntity
  8
図枠細線
  6
CONTINUOUS
 62
   252
100
AcDbText
 10
215.156179912936
 20
29.306608253358
 30
0.0
 40
2.0
  1
名称
 41
1.171875
  7
EXCADSTD
 72
     5
 11
220.156179912936
 21
29.306608253358
 31
0.0
100
AcDbText
  0
LINE
  5
29DB
330
29BF
100
AcDbEntity
  8
図枠太線
  6
CONTINUOUS
 62
   251
100
AcDbLine
 10
4.061011071051
 20
1.806608253358
 30
0.0
 11
284.061011071051
 21
1.806608253358
 31
0.0
  0
LINE
  5
29DC
330
29BF
100
AcDbEntity
  8
図枠細線
  6
CONTINUOUS
 62
   252
100
AcDbLine
 10
4.061011071051
 20
6.806608253358
 30
0.0
 11
75.061011071051
 21
6.806608253358
 31
0.0
  0
LINE
  5
29DD
330
29BF
100
AcDbEntity
  8
図枠太線
  6
CONTINUOUS
 62
   251
100
AcDbLine
 10
75.061011071051
 20
1.806608253358
 30
0.0
 11
75.061011071051
 21
31.806606253358
 31
0.0
  0
TEXT
  5
29DE
330
29BF
100
AcDbEntity
  8
図枠細線
  6
CONTINUOUS
 62
   252
100
AcDbText
 10
76.330551827713
 20
6.638319253358
 30
0.0
 40
2.0
  1
ＰＲＯＪＥＣＴＩＯＮ
 41
0.754285710199
  7
EXCADSTD
 72
     5
 11
93.930551732346
 21
6.638319253358
 31
0.0
100
AcDbText
  0
LINE
  5
29DF
330
29BF
100
AcDbEntity
  8
図枠細線
  6
CONTINUOUS
 62
   252
100
AcDbLine
 10
98.061011071051
 20
1.806606931929
 30
0.0
 11
98.061011071051
 21
16.806604931929
 31
0.0
  0
LINE
  5
29E0
330
29BF
100
AcDbEntity
  8
図枠細線
  6
CONTINUOUS
 62
   252
100
AcDbLine
 10
121.061011071051
 20
1.806607574787
 30
0.0
 11
121.061011071051
 21
16.806605574787
 31
0.0
  0
LINE
  5
29E1
330
29BF
100
AcDbEntity
  8
図枠太線
  6
CONTINUOUS
 62
   251
100
AcDbLine
 10
284.061011071051
 20
1.806608253358
 30
0.0
 11
284.061011071051
 21
31.806606253358
 31
0.0
  0
LINE
  5
29E2
330
29BF
100
AcDbEntity
  8
図枠細線
  6
CONTINUOUS
 62
   252
100
AcDbLine
 10
214.061011071051
 20
16.806606253358
 30
0.0
 11
284.061011071051
 21
16.806606253358
 31
0.0
  0
TEXT
  5
29E3
330
29BF
100
AcDbEntity
  8
図枠細線
  6
CONTINUOUS
 62
   252
100
AcDbText
 10
146.199593676182
 20
3.454099253358
 30
0.0
 40
3.5
  1
ＴＯＷＡ　ＳＥＩＤＥＮ　ＩＮＤＵＳＴＲＩＡＬ　ＣＯ．，ＬＴＤ．
 41
0.528937826907
  7
EXCADSTD
 72
     5
 11
213.339435171588
 21
3.454099253358
 31
0.0
100
AcDbText
  0
LINE
  5
29E4
330
29BF
100
AcDbEntity
  8
図枠太線
  6
CONTINUOUS
 62
   251
100
AcDbLine
 10
144.061011071051
 20
1.806608253358
 30
0.0
 11
144.061011071051
 21
31.806606253358
 31
0.0
  0
LINE
  5
29E5
330
29BF
100
AcDbEntity
  8
図枠太線
  6
CONTINUOUS
 62
   251
100
AcDbLine
 10
214.061011071051
 20
1.806608253358
 30
0.0
 11
214.061011071051
 21
31.806606253358
 31
0.0
  0
MTEXT
  5
29E6
330
29BF
100
AcDbEntity
  8
図枠太線
100
AcDbMText
 10
5.064337346478
 20
31.010982137407
 30
0.0
 40
2.5
 41
8.67856098472
 71
     1
 72
     5
  1
{\Fmonotxt.shx,bigfont.shx|c128;図暦}
  0
LINE
  5
29E7
330
29BF
100
AcDbEntity
  8
図枠太線
  6
CONTINUOUS
 62
   251
100
AcDbLine
 10
4.061011071051
 20
1.806608253358
 30
0.0
 11
4.061011071051
 21
31.806606253358
 31
0.0
  0
TEXT
  5
29E8
330
29BF
100
AcDbEntity
  8
図枠細線
 48
10.0
100
AcDbText
 10
12.260817420402
 20
28.625419626495
 30
0.0
 40
2.0
  1
CHANGE NOTICE
100
AcDbText
  0
ENDBLK
  5
29E9
330
29BF
100
AcDbEntity
  8
0
100
AcDbBlockEnd
  0
BLOCK
  5
29F5
330
29F4
100
AcDbEntity
  8
0
100
AcDbBlockBegin
  2
A4縦用_タイトル
 70
     0
 10
0.0
 20
0.0
 30
0.0
  3
A4縦用_タイトル
  1

  0
LINE
  5
29F6
330
29F4
100
AcDbEntity
  8
図枠太線
  6
CONTINUOUS
 62
   251
100
AcDbLine
 10
2.368253864267
 20
4.525433224584
 30
0.0
 11
192.368245864267
 21
4.525433224584
 31
0.0
  0
LINE
  5
29F7
330
29F4
100
AcDbEntity
  8
図枠太線
  6
CONTINUOUS
 62
   251
100
AcDbLine
 10
78.368245864267
 20
19.525431224584
 30
0.0
 11
135.368253864267
 21
19.525431224584
 31
0.0
  0
LINE
  5
29F8
330
29F4
100
AcDbEntity
  8
図枠細線
  6
CONTINUOUS
 62
   252
100
AcDbLine
 10
78.368253864267
 20
27.025431224584
 30
0.0
 11
135.368253864267
 21
27.025431224584
 31
0.0
  0
TEXT
  5
29F9
330
29F4
100
AcDbEntity
  8
図枠ロゴマーク
  6
CONTINUOUS
 62
   253
100
AcDbText
 10
80.617009864267
 20
11.117825224584
 30
0.0
 40
7.0
  1
東和制電工業株式会社
 41
0.639204545455
  7
EXCADSTD
 72
     5
 11
133.117009864267
 21
11.117825224584
 31
0.0
100
AcDbText
  0
TEXT
  5
29FA
330
29F4
100
AcDbEntity
  8
図枠細線
  6
CONTINUOUS
 62
   252
100
AcDbText
 10
80.579549864267
 20
6.172924224584
 30
0.0
 40
3.5
  1
ＴＯＷＡ　ＳＥＩＤＥＮ　ＩＮＤＵＳＴＲＩＡＬ　ＣＯ．，ＬＴＤ．
 41
0.414568012377
  7
EXCADSTD
 72
     5
 11
133.202049568628
 21
6.172924224584
 31
0.0
100
AcDbText
  0
LINE
  5
29FB
330
29F4
100
AcDbEntity
  8
図枠太線
  6
CONTINUOUS
 62
   251
100
AcDbLine
 10
2.368253864267
 20
4.525433224584
 30
0.0
 11
2.368253864267
 21
34.525431224584
 31
0.0
  0
TEXT
  5
29FC
330
29F4
100
AcDbEntity
  8
図枠細線
  6
CONTINUOUS
 62
   252
100
AcDbText
 10
22.504308136501
 20
12.279133224584
 30
0.0
 40
2.0
  1
ＴＨＩＲＤ　ＡＮＧＬＥ
 41
0.691099486738
  7
EXCADSTD
 72
     5
 11
40.104308398762
 21
12.279133224584
 31
0.0
100
AcDbText
  0
TEXT
  5
29FD
330
29F4
100
AcDbEntity
  8
図枠細線
  6
CONTINUOUS
 62
   252
100
AcDbText
 10
22.429384136501
 20
9.357144224584
 30
0.0
 40
2.0
  1
ＰＲＯＪＥＣＴＩＯＮ
 41
0.754285710199
  7
EXCADSTD
 72
     5
 11
40.029384041134
 21
9.357144224584
 31
0.0
100
AcDbText
  0
LINE
  5
29FE
330
29F4
100
AcDbEntity
  8
図枠細線
  6
CONTINUOUS
100
AcDbLine
 10
22.368253864267
 20
19.525433224584
 30
0.0
 11
78.368253864267
 21
19.525431224584
 31
0.0
  0
TEXT
  5
29FF
330
29F4
100
AcDbEntity
  8
図枠細線
  6
CONTINUOUS
 62
   252
100
AcDbText
 10
22.868253864267
 20
17.025433224584
 30
0.0
 40
2.0
  1
第三角法
 41
1.102941176471
  7
EXCADSTD
 72
     5
 11
32.868253864267
 21
17.025433224584
 31
0.0
100
AcDbText
  0
TEXT
  5
2A00
330
29F4
100
AcDbEntity
  8
図枠細線
  6
CONTINUOUS
 62
   252
100
AcDbText
 10
22.868253864267
 20
29.525433224584
 30
0.0
 40
2.0
  1
ＡＰＰＲＯＶＥＤ
 41
0.695652184279
  7
EXCADSTD
 72
     5
 11
35.668254055002
 21
29.525433224584
 31
0.0
100
AcDbText
  0
LINE
  5
2A01
330
29F4
100
AcDbEntity
  8
図枠細線
  6
CONTINUOUS
 62
   252
100
AcDbLine
 10
2.368253864267
 20
9.525433224584
 30
0.0
 11
22.368253864267
 21
9.525433224584
 31
0.0
  0
LINE
  5
2A02
330
29F4
100
AcDbEntity
  8
図枠細線
  6
CONTINUOUS
 62
   252
100
AcDbLine
 10
2.368253864267
 20
14.525431224584
 30
0.0
 11
22.368253864267
 21
14.525431224584
 31
0.0
  0
LINE
  5
2A03
330
29F4
100
AcDbEntity
  8
図枠細線
  6
CONTINUOUS
 62
   252
100
AcDbLine
 10
2.368253864267
 20
24.525431224584
 30
0.0
 11
22.368253864267
 21
24.525431224584
 31
0.0
  0
LINE
  5
2A04
330
29F4
100
AcDbEntity
  8
図枠細線
  6
CONTINUOUS
 62
   252
100
AcDbLine
 10
2.368253864267
 20
29.525431224584
 30
0.0
 11
22.368253864267
 21
29.525431224584
 31
0.0
  0
LINE
  5
2A05
330
29F4
100
AcDbEntity
  8
図枠細線
  6
CONTINUOUS
100
AcDbLine
 10
2.368253864267
 20
19.525433224584
 30
0.0
 11
22.368253864267
 21
19.525433224584
 31
0.0
  0
TEXT
  5
2A06
330
29F4
100
AcDbEntity
  8
図枠細線
  6
CONTINUOUS
 62
   252
100
AcDbText
 10
2.868253864267
 20
32.025433224584
 30
0.0
 40
2.0
  1
ＮＯＴＥ
 41
0.923076923077
  7
EXCADSTD
 72
     5
 11
10.868253864267
 21
32.025433224584
 31
0.0
100
AcDbText
  0
LINE
  5
2A07
330
29F4
100
AcDbEntity
  8
図枠太線
  6
CONTINUOUS
 62
   251
100
AcDbLine
 10
22.368253864267
 20
4.525433224584
 30
0.0
 11
22.368253864267
 21
34.525431224584
 31
0.0
  0
TEXT
  5
2A08
330
29F4
100
AcDbEntity
  8
図枠細線
  6
CONTINUOUS
 62
   252
100
AcDbText
 10
22.868253864267
 20
32.025433224584
 30
0.0
 40
2.0
  1
承認
 41
1.171875
  7
EXCADSTD
 72
     5
 11
27.868253864267
 21
32.025433224584
 31
0.0
100
AcDbText
  0
TEXT
  5
2A09
330
29F4
100
AcDbEntity
  8
図枠細線
  6
CONTINUOUS
 62
   252
100
AcDbText
 10
60.711709035982
 20
32.025433224584
 30
0.0
 40
2.0
  1
製図
 41
1.209677419355
  7
EXCADSTD
 72
     5
 11
65.711709035982
 21
32.025433224584
 31
0.0
100
AcDbText
  0
TEXT
  5
2A0A
330
29F4
100
AcDbEntity
  8
図枠細線
  6
CONTINUOUS
 62
   252
100
AcDbText
 10
60.711709035982
 20
29.525433224584
 30
0.0
 40
2.0
  1
ＤＲＡＷＮ
 41
0.882352941176
  7
EXCADSTD
 72
     5
 11
70.711709035982
 21
29.525433224584
 31
0.0
100
AcDbText
  0
TEXT
  5
2A0B
330
29F4
100
AcDbEntity
  8
図枠細線
  6
CONTINUOUS
 62
   252
100
AcDbText
 10
60.834891743877
 20
17.025433224584
 30
0.0
 40
2.0
  1
日付
 41
1.171875
  7
EXCADSTD
 72
     5
 11
65.834891743877
 21
17.025433224584
 31
0.0
100
AcDbText
  0
TEXT
  5
2A0C
330
29F4
100
AcDbEntity
  8
図枠細線
  6
CONTINUOUS
 62
   252
100
AcDbText
 10
47.333660864267
 20
17.025433224584
 30
0.0
 40
2.0
  1
ＳＣＡＬＥ
 41
0.903614457831
  7
EXCADSTD
 72
     5
 11
57.333660864267
 21
17.025433224584
 31
0.0
100
AcDbText
  0
TEXT
  5
2A0D
330
29F4
100
AcDbEntity
  8
図枠細線
  6
CONTINUOUS
 62
   252
100
AcDbText
 10
42.281425990082
 20
29.525433224584
 30
0.0
 40
2.0
  1
ＣＨＥＣＫＥＤ
 41
0.831249989569
  7
EXCADSTD
 72
     5
 11
55.581425823189
 21
29.525433224584
 31
0.0
100
AcDbText
  0
LINE
  5
2A0E
330
29F4
100
AcDbEntity
  8
図枠細線
  6
CONTINUOUS
 62
   252
100
AcDbLine
 10
40.968253864267
 20
34.525431224584
 30
0.0
 11
40.968253864267
 21
19.525431224584
 31
0.0
  0
LINE
  5
2A0F
330
29F4
100
AcDbEntity
  8
図枠細線
  6
CONTINUOUS
 62
   252
100
AcDbLine
 10
40.968253864267
 20
4.525433224584
 30
0.0
 11
40.968253864267
 21
19.525431224584
 31
0.0
  0
TEXT
  5
2A10
330
29F4
100
AcDbEntity
  8
図枠細線
  6
CONTINUOUS
 62
   252
100
AcDbText
 10
41.961173864267
 20
17.025433224584
 30
0.0
 40
2.0
  1
尺度
 41
1.171875
  7
EXCADSTD
 72
     5
 11
46.961173864267
 21
17.025433224584
 31
0.0
100
AcDbText
  0
TEXT
  5
2A11
330
29F4
100
AcDbEntity
  8
図枠細線
  6
CONTINUOUS
 62
   252
100
AcDbText
 10
42.281425990082
 20
32.025433224584
 30
0.0
 40
2.0
  1
検図
 41
1.209677419355
  7
EXCADSTD
 72
     5
 11
47.281425990082
 21
32.025433224584
 31
0.0
100
AcDbText
  0
LINE
  5
2A12
330
29F4
100
AcDbEntity
  8
図枠細線
  6
CONTINUOUS
 62
   252
100
AcDbLine
 10
59.768253864267
 20
34.525431224584
 30
0.0
 11
59.768253864267
 21
19.525431224584
 31
0.0
  0
LINE
  5
2A13
330
29F4
100
AcDbEntity
  8
図枠細線
  6
CONTINUOUS
 62
   252
100
AcDbLine
 10
59.768253864267
 20
4.525433224584
 30
0.0
 11
59.768253864267
 21
19.525431224584
 31
0.0
  0
LINE
  5
2A14
330
29F4
100
AcDbEntity
  8
図枠太線
  6
CONTINUOUS
 62
   251
100
AcDbLine
 10
78.368253864267
 20
4.525433224584
 30
0.0
 11
78.368253864267
 21
34.525431224584
 31
0.0
  0
TEXT
  5
2A15
330
29F4
100
AcDbEntity
  8
図枠細線
  6
CONTINUOUS
 62
   252
100
AcDbText
 10
66.334891743877
 20
17.025433224584
 30
0.0
 40
2.0
  1
ＤＡＴＥ
 41
0.923076923077
  7
EXCADSTD
 72
     5
 11
74.334891743877
 21
17.025433224584
 31
0.0
100
AcDbText
  0
LINE
  5
2A16
330
29F4
100
AcDbEntity
  8
図枠細線
  6
CONTINUOUS
 62
   252
100
AcDbLine
 10
135.368253864267
 20
19.525431224584
 30
0.0
 11
192.368245864267
 21
19.525431224584
 31
0.0
  0
TEXT
  5
2A17
330
29F4
100
AcDbEntity
  8
図枠細線
  6
CONTINUOUS
 62
   252
100
AcDbText
 10
141.868253864267
 20
32.025433224584
 30
0.0
 40
2.0
  1
ＴＩＴＬＥ
 41
0.903614457831
  7
EXCADSTD
 72
     5
 11
151.868253864267
 21
32.025433224584
 31
0.0
100
AcDbText
  0
LINE
  5
2A18
330
29F4
100
AcDbEntity
  8
図枠太線
  6
CONTINUOUS
 62
   251
100
AcDbLine
 10
135.368253864267
 20
4.525433224584
 30
0.0
 11
135.368253864267
 21
34.525431224584
 31
0.0
  0
TEXT
  5
2A19
330
29F4
100
AcDbEntity
  8
図枠細線
  6
CONTINUOUS
 62
   252
100
AcDbText
 10
135.868253864267
 20
17.025433224584
 30
0.0
 40
2.0
  1
図面番号
 41
1.102941176471
  7
EXCADSTD
 72
     5
 11
145.868253864267
 21
17.025433224584
 31
0.0
100
AcDbText
  0
TEXT
  5
2A1A
330
29F4
100
AcDbEntity
  8
図枠細線
  6
CONTINUOUS
 62
   252
100
AcDbText
 10
135.868253864267
 20
32.025433224584
 30
0.0
 40
2.0
  1
名称
 41
1.171875
  7
EXCADSTD
 72
     5
 11
140.868253864267
 21
32.025433224584
 31
0.0
100
AcDbText
  0
TEXT
  5
2A1B
330
29F4
100
AcDbEntity
  8
図枠細線
  6
CONTINUOUS
 62
   252
100
AcDbText
 10
146.868253864267
 20
17.025433224584
 30
0.0
 40
2.0
  1
ＤＲＧ．ＮＯ．
 41
0.9375
  7
EXCADSTD
 72
     5
 11
160.868253864267
 21
17.025433224584
 31
0.0
100
AcDbText
  0
LINE
  5
2A1C
330
29F4
100
AcDbEntity
  8
図枠太線
  6
CONTINUOUS
 62
   251
100
AcDbLine
 10
192.368245864267
 20
4.525433224584
 30
0.0
 11
192.368245864267
 21
34.525431224584
 31
0.0
  0
ENDBLK
  5
2A1D
330
29F4
100
AcDbEntity
  8
0
100
AcDbBlockEnd
  0
BLOCK
  5
2A33
330
2A32
100
AcDbEntity
  8
0
100
AcDbBlockBegin
  2
A3横用_タイトル
 70
     0
 10
0.0
 20
0.0
 30
0.0
  3
A3横用_タイトル
  1

  0
LINE
  5
2A34
330
2A32
100
AcDbEntity
  8
図枠細線
  6
CONTINUOUS
 62
   252
100
AcDbLine
 10
205.098414535793
 20
33.525959753527
 30
0.0
 11
305.098414535793
 21
33.525959753527
 31
0.0
  0
LINE
  5
2A35
330
2A32
100
AcDbEntity
  8
図枠太線
  6
CONTINUOUS
 62
   251
100
AcDbLine
 10
205.098414535793
 20
23.525959753527
 30
0.0
 11
305.098414535793
 21
23.525959753527
 31
0.0
  0
LINE
  5
2A36
330
2A32
100
AcDbEntity
  8
図枠細線
  6
CONTINUOUS
100
AcDbLine
 10
5.098414535793
 20
23.525959753527
 30
0.0
 11
105.098414535793
 21
23.525959753527
 31
0.0
  0
LINE
  5
2A37
330
2A32
100
AcDbEntity
  8
図枠細線
  6
CONTINUOUS
 62
   252
100
AcDbLine
 10
5.098414535793
 20
36.725957753527
 30
0.0
 11
105.098414535793
 21
36.725957753527
 31
0.0
  0
LINE
  5
2A38
330
2A32
100
AcDbEntity
  8
図枠細線
  6
CONTINUOUS
 62
   252
100
AcDbLine
 10
5.098414535793
 20
30.125957753527
 30
0.0
 11
105.098414535793
 21
30.125957753527
 31
0.0
  0
LINE
  5
2A39
330
2A32
100
AcDbEntity
  8
図枠細線
  6
CONTINUOUS
 62
   252
100
AcDbLine
 10
5.098414535793
 20
16.725959753527
 30
0.0
 11
105.098414535793
 21
16.725959753527
 31
0.0
  0
LINE
  5
2A3A
330
2A32
100
AcDbEntity
  8
図枠細線
  6
CONTINUOUS
 62
   252
100
AcDbLine
 10
5.098414535793
 20
10.125959753527
 30
0.0
 11
105.098414535793
 21
10.125959753527
 31
0.0
  0
LINE
  5
2A3B
330
2A32
100
AcDbEntity
  8
図枠細線
  6
CONTINUOUS
100
AcDbLine
 10
105.098414535793
 20
23.525961753527
 30
0.0
 11
205.098414535793
 21
23.525959753527
 31
0.0
  0
LINE
  5
2A3C
330
2A32
100
AcDbEntity
  8
図枠細線
  6
CONTINUOUS
 62
   252
100
AcDbLine
 10
138.398414535793
 20
43.525959753527
 30
0.0
 11
138.398414535793
 21
18.525957753527
 31
0.0
  0
LINE
  5
2A3D
330
2A32
100
AcDbEntity
  8
図枠細線
  6
CONTINUOUS
 62
   252
100
AcDbLine
 10
171.698414535793
 20
43.525959753527
 30
0.0
 11
171.698414535793
 21
18.525957753527
 31
0.0
  0
LINE
  5
2A3E
330
2A32
100
AcDbEntity
  8
図枠細線
  6
CONTINUOUS
 62
   252
100
AcDbLine
 10
305.098414535793
 20
23.525959753527
 30
0.0
 11
405.098414535793
 21
23.525959753527
 31
0.0
  0
TEXT
  5
2A3F
330
2A32
100
AcDbEntity
  8
図枠ロゴマーク
  6
CONTINUOUS
 62
   253
100
AcDbText
 10
206.102509212755
 20
13.294257570546
 30
0.0
 40
7.0
  1
東和制電工業株式会社
 50
0.016555220185
 41
1.186384129432
  7
EXCADSTD
 72
     5
 11
303.544188309143
 21
13.322412672217
 31
0.0
100
AcDbText
  0
MTEXT
  5
2A40
330
2A32
100
AcDbEntity
  8
図枠細線
100
AcDbMText
 10
6.356764112375
 20
41.976594175478
 30
0.0
 40
2.5
 41
49.938282706292
 71
     1
 72
     5
  1
{\Fmonotxt.shx,bigfont.shx|c128;図暦　CHANGE　NOTICE}
  0
MTEXT
  5
2A41
330
2A32
100
AcDbEntity
  8
図枠細線
 48
10.0
100
AcDbMText
 10
306.544114926828
 20
41.701835800934
 30
0.0
 40
2.5
 41
28.002809618823
 71
     1
 72
     5
  1
{\Fmonotxt.shx,bigfont.shx|c128;名称　TITLE}
  0
MTEXT
  5
2A42
330
2A32
100
AcDbEntity
  8
図枠細線
 48
10.0
100
AcDbMText
 10
307.329617114284
 20
21.606206797226
 30
0.0
 40
2.5
 41
24.385612216707
 71
     1
 72
     5
  1
{\Fmonotxt.shx,bigfont.shx|c128;図面番号\PDRG.　No.}
  0
MTEXT
  5
2A43
330
2A32
100
AcDbEntity
  8
図枠細線
 48
10.0
100
AcDbMText
 10
173.726349404609
 20
21.73680662198
 30
0.0
 40
2.5
 41
25.735090160813
 71
     1
 72
     5
  1
{\Fmonotxt.shx,bigfont.shx|c128;日付 DATE}
  0
MTEXT
  5
2A44
330
2A32
100
AcDbEntity
  8
図枠細線
 48
10.0
100
AcDbMText
 10
173.48708833982
 20
41.621592044998
 30
0.0
 40
2.5
 41
24.983741184205
 71
     1
 72
     5
  1
{\Fmonotxt.shx,bigfont.shx|c128;製図　DRAWN}
  0
MTEXT
  5
2A45
330
2A32
100
AcDbEntity
  8
図枠細線
 48
10.0
100
AcDbMText
 10
139.28009927741
 20
21.866713069868
 30
0.0
 40
2.5
 41
22.629632913243
 71
     1
 72
     5
  1
{\Fmonotxt.shx,bigfont.shx|c128;尺度　SCALE}
  0
MTEXT
  5
2A46
330
2A32
100
AcDbEntity
  8
図枠細線
 48
10.0
100
AcDbMText
 10
139.910091179835
 20
41.311840415554
 30
0.0
 40
2.5
 41
28.998753428368
 71
     1
 72
     5
  1
{\Fmonotxt.shx,bigfont.shx|c128;検図  CHECKED}
  0
MTEXT
  5
2A47
330
2A32
100
AcDbEntity
  8
図枠細線
 48
10.0
100
AcDbMText
 10
114.253294667728
 20
21.916124850174
 30
0.0
 40
3.0
 41
19.692400475383
 71
     1
 72
     5
  1
{\Fmonotxt.shx,bigfont.shx|c128;第三角法}
  0
MTEXT
  5
2A48
330
2A32
100
AcDbEntity
  8
図枠細線
 48
10.0
100
AcDbMText
 10
108.986959929915
 20
15.282880185837
 30
0.0
 40
2.5
 41
27.954882823547
 71
     1
 72
     5
  1
{\Fmonotxt.shx,bigfont.shx|c128;THIRD ANGLE\PPROJECTION}
  0
MTEXT
  5
2A49
330
2A32
100
AcDbEntity
  8
図枠細線
 48
10.0
100
AcDbMText
 10
106.319432640184
 20
41.511437145487
 30
0.0
 40
2.5
 41
28.233595265074
 71
     1
 72
     5
  1
{\Fmonotxt.shx,bigfont.shx|c128;承認 APPROVED}
  0
LINE
  5
2A4A
330
2A32
100
AcDbEntity
  8
図枠太線
  6
CONTINUOUS
 62
   251
100
AcDbLine
 10
5.098414535793
 20
3.525959753527
 30
0.0
 11
405.098414535793
 21
3.525959753527
 31
0.0
  0
LINE
  5
2A4B
330
2A32
100
AcDbEntity
  8
図枠太線
 48
10.0
100
AcDbLine
 10
5.098414535793
 20
3.525959753527
 30
0.0
 11
5.098414535793
 21
43.525959753527
 31
0.0
  0
LINE
  5
2A4C
330
2A32
100
AcDbEntity
  8
図枠太線
  6
CONTINUOUS
 62
   251
100
AcDbLine
 10
105.098414535793
 20
3.525959753527
 30
0.0
 11
105.098414535793
 21
43.525959753527
 31
0.0
  0
LINE
  5
2A4D
330
2A32
100
AcDbEntity
  8
図枠細線
  6
CONTINUOUS
 62
   252
100
AcDbLine
 10
138.398414535793
 20
3.525959753527
 30
0.0
 11
138.398414535793
 21
18.525957753527
 31
0.0
  0
LINE
  5
2A4E
330
2A32
100
AcDbEntity
  8
図枠細線
  6
CONTINUOUS
 62
   252
100
AcDbLine
 10
171.698414535793
 20
3.525959753527
 30
0.0
 11
171.698414535793
 21
18.525957753527
 31
0.0
  0
LINE
  5
2A4F
330
2A32
100
AcDbEntity
  8
図枠太線
  6
CONTINUOUS
 62
   251
100
AcDbLine
 10
205.098414535793
 20
3.525959753527
 30
0.0
 11
205.098414535793
 21
43.525959753527
 31
0.0
  0
LINE
  5
2A50
330
2A32
100
AcDbEntity
  8
図枠太線
 48
10.0
100
AcDbLine
 10
405.098414535793
 20
43.525959753527
 30
0.0
 11
405.098414535793
 21
3.525959753527
 31
0.0
  0
TEXT
  5
2A51
330
2A32
100
AcDbEntity
  8
図枠細線
  6
CONTINUOUS
 62
   252
100
AcDbText
 10
208.519754474572
 20
6.482358407285
 30
0.0
 40
3.5
  1
ＴＯＷＡ　ＳＥＩＤＥＮ　ＩＮＤＵＳＴＲＩＡＬ　ＣＯ．，ＬＴＤ．
 41
0.746656297509
  7
EXCADSTD
 72
     5
 11
303.295327171727
 21
6.482358407285
 31
0.0
100
AcDbText
  0
LINE
  5
2A52
330
2A32
100
AcDbEntity
  8
図枠太線
  6
CONTINUOUS
 62
   251
100
AcDbLine
 10
305.098414535793
 20
3.525959753527
 30
0.0
 11
305.098414535793
 21
43.525959753527
 31
0.0
  0
ENDBLK
  5
2A53
330
2A32
100
AcDbEntity
  8
0
100
AcDbBlockEnd
  0
BLOCK
  5
2A6D
330
2A6C
100
AcDbEntity
  8
0
100
AcDbBlockBegin
  2
A3縦用_タイトル
 70
     0
 10
0.0
 20
0.0
 30
0.0
  3
A3縦用_タイトル
  1

  0
MTEXT
  5
2A6E
330
2A6C
100
AcDbEntity
  8
図枠細線
100
AcDbMText
 10
5.040804501593
 20
31.626098649005
 30
0.0
 40
2.5
 41
49.938282706292
 71
     1
 72
     5
  1
{\Fmonotxt.shx,bigfont.shx|c128;図暦　CHANGE　NOTICE}
  0
LINE
  5
2A6F
330
2A6C
100
AcDbEntity
  8
図枠太線
  6
CONTINUOUS
 62
   251
100
AcDbLine
 10
283.577871882961
 20
2.820844689254
 30
0.0
 11
283.577871882961
 21
32.820842689254
 31
0.0
  0
MTEXT
  5
2A70
330
2A6C
100
AcDbEntity
  8
図枠細線
 48
10.0
100
AcDbMText
 10
214.912458947454
 20
31.621488632308
 30
0.0
 40
2.5
 41
28.002809618823
 71
     1
 72
     5
  1
{\Fmonotxt.shx,bigfont.shx|c128;名称　TITLE}
  0
MTEXT
  5
2A71
330
2A6C
100
AcDbEntity
  8
図枠細線
 48
10.0
100
AcDbMText
 10
214.740030458938
 20
16.310225796722
 30
0.0
 40
2.5
 41
24.385612216707
 71
     1
 72
     5
  1
{\Fmonotxt.shx,bigfont.shx|c128;図面番号\PDRG.　No.}
  0
LINE
  5
2A72
330
2A6C
100
AcDbEntity
  8
図枠太線
  6
CONTINUOUS
 62
   251
100
AcDbLine
 10
213.577871882961
 20
2.820844689254
 30
0.0
 11
213.577871882961
 21
32.820842689254
 31
0.0
  0
LINE
  5
2A73
330
2A6C
100
AcDbEntity
  8
図枠太線
  6
CONTINUOUS
 62
   251
100
AcDbLine
 10
143.577871882961
 20
2.820844689254
 30
0.0
 11
143.577871882961
 21
32.820842689254
 31
0.0
  0
TEXT
  5
2A74
330
2A6C
100
AcDbEntity
  8
図枠細線
  6
CONTINUOUS
 62
   252
100
AcDbText
 10
145.716454488093
 20
4.468335689254
 30
0.0
 40
3.5
  1
ＴＯＷＡ　ＳＥＩＤＥＮ　ＩＮＤＵＳＴＲＩＡＬ　ＣＯ．，ＬＴＤ．
 41
0.528937826907
  7
EXCADSTD
 72
     5
 11
212.856295983498
 21
4.468335689254
 31
0.0
100
AcDbText
  0
TEXT
  5
2A75
330
2A6C
100
AcDbEntity
  8
図枠ロゴマーク
  6
CONTINUOUS
 62
   253
100
AcDbText
 10
145.950637593507
 20
9.413236689254
 30
0.0
 40
7.0
  1
東和制電工業株式会社
 41
0.80361088462
  7
EXCADSTD
 72
     5
 11
211.953878250259
 21
9.413236689254
 31
0.0
100
AcDbText
  0
LINE
  5
2A76
330
2A6C
100
AcDbEntity
  8
図枠細線
  6
CONTINUOUS
 62
   252
100
AcDbLine
 10
143.577871882961
 20
25.320842689254
 30
0.0
 11
213.577871882961
 21
25.320842689254
 31
0.0
  0
LINE
  5
2A77
330
2A6C
100
AcDbEntity
  8
図枠太線
  6
CONTINUOUS
 62
   251
100
AcDbLine
 10
143.577863882961
 20
17.820842689254
 30
0.0
 11
213.577871882961
 21
17.820842689254
 31
0.0
  0
LINE
  5
2A78
330
2A6C
100
AcDbEntity
  8
図枠細線
  6
CONTINUOUS
 62
   252
100
AcDbLine
 10
213.577871882961
 20
17.820842689254
 30
0.0
 11
283.577871882961
 21
17.820842689254
 31
0.0
  0
LINE
  5
2A79
330
2A6C
100
AcDbEntity
  8
図枠細線
  6
CONTINUOUS
 62
   252
100
AcDbLine
 10
120.577871882961
 20
32.820842689254
 30
0.0
 11
120.577871882961
 21
17.820842689254
 31
0.0
  0
MTEXT
  5
2A7A
330
2A6C
100
AcDbEntity
  8
図枠細線
 48
10.0
100
AcDbMText
 10
121.100885670352
 20
16.33785922638
 30
0.0
 40
2.0
 41
17.705978285068
 71
     1
 72
     5
  1
{\Fmonotxt.shx,bigfont.shx|c128;日付 DATE}
  0
MTEXT
  5
2A7B
330
2A6C
100
AcDbEntity
  8
図枠細線
 48
10.0
100
AcDbMText
 10
121.254842273491
 20
31.208993514037
 30
0.0
 40
2.0
 41
18.363799568758
 71
     1
 72
     5
  1
{\Fmonotxt.shx,bigfont.shx|c128;製図　DRAWN}
  0
LINE
  5
2A7C
330
2A6C
100
AcDbEntity
  8
図枠細線
  6
CONTINUOUS
 62
   252
100
AcDbLine
 10
97.577871882961
 20
32.820842689254
 30
0.0
 11
97.577871882961
 21
17.820842689254
 31
0.0
  0
MTEXT
  5
2A7D
330
2A6C
100
AcDbEntity
  8
図枠細線
 48
10.0
100
AcDbMText
 10
98.239734796872
 20
16.467764839281
 30
0.0
 40
2.0
 41
17.757791689903
 71
     1
 72
     5
  1
{\Fmonotxt.shx,bigfont.shx|c128;尺度　SCALE}
  0
MTEXT
  5
2A7E
330
2A6C
100
AcDbEntity
  8
図枠細線
 48
10.0
100
AcDbMText
 10
97.864744625154
 20
31.298433377664
 30
0.0
 40
2.0
 41
23.162655920976
 71
     1
 72
     5
  1
{\Fmonotxt.shx,bigfont.shx|c128;検図  CHECKED}
  0
LINE
  5
2A7F
330
2A6C
100
AcDbEntity
  8
図枠細線
  6
CONTINUOUS
 62
   252
100
AcDbLine
 10
97.577871882961
 20
2.820843367826
 30
0.0
 11
97.577871882961
 21
17.820841367826
 31
0.0
  0
LINE
  5
2A80
330
2A6C
100
AcDbEntity
  8
図枠細線
  6
CONTINUOUS
 62
   252
100
AcDbLine
 10
120.577871882961
 20
2.820844010683
 30
0.0
 11
120.577871882961
 21
17.820842010683
 31
0.0
  0
MTEXT
  5
2A81
330
2A6C
100
AcDbEntity
  8
図枠細線
 48
10.0
100
AcDbMText
 10
81.402399084102
 20
16.316484117426
 30
0.0
 40
2.0
 41
12.920322819369
 71
     1
 72
     5
  1
{\Fmonotxt.shx,bigfont.shx|c128;第三角法}
  0
MTEXT
  5
2A82
330
2A6C
100
AcDbEntity
  8
図枠細線
 48
10.0
100
AcDbMText
 10
75.736576535096
 20
11.080410931319
 30
0.0
 40
2.0
 41
21.072870671471
 71
     1
 72
     5
  1
{\Fmonotxt.shx,bigfont.shx|c128;THIRD ANGLE\PPROJECTION}
  0
LINE
  5
2A83
330
2A6C
100
AcDbEntity
  8
図枠太線
  6
CONTINUOUS
 62
   251
100
AcDbLine
 10
74.577871882961
 20
2.820844689254
 30
0.0
 11
74.577871882961
 21
32.820842689254
 31
0.0
  0
MTEXT
  5
2A84
330
2A6C
100
AcDbEntity
  8
図枠細線
 48
10.0
100
AcDbMText
 10
75.060214781573
 20
31.298434778555
 30
0.0
 40
2.0
 41
22.240928805967
 71
     1
 72
     5
  1
{\Fmonotxt.shx,bigfont.shx|c128;承認 APPROVED}
  0
LINE
  5
2A85
330
2A6C
100
AcDbEntity
  8
図枠細線
  6
CONTINUOUS
100
AcDbLine
 10
3.577871882961
 20
17.820844689254
 30
0.0
 11
74.577871882961
 21
17.820844689254
 31
0.0
  0
LINE
  5
2A86
330
2A6C
100
AcDbEntity
  8
図枠細線
  6
CONTINUOUS
 62
   252
100
AcDbLine
 10
3.577871882961
 20
27.820842689254
 30
0.0
 11
74.577871882961
 21
27.820842689254
 31
0.0
  0
LINE
  5
2A87
330
2A6C
100
AcDbEntity
  8
図枠細線
  6
CONTINUOUS
 62
   252
100
AcDbLine
 10
3.577871882961
 20
22.820842689254
 30
0.0
 11
74.577871882961
 21
22.820842689254
 31
0.0
  0
LINE
  5
2A88
330
2A6C
100
AcDbEntity
  8
図枠細線
  6
CONTINUOUS
 62
   252
100
AcDbLine
 10
3.577871882961
 20
12.820842689254
 30
0.0
 11
74.577871882961
 21
12.820842689254
 31
0.0
  0
LINE
  5
2A89
330
2A6C
100
AcDbEntity
  8
図枠細線
  6
CONTINUOUS
 62
   252
100
AcDbLine
 10
3.577871882961
 20
7.820844689254
 30
0.0
 11
74.577871882961
 21
7.820844689254
 31
0.0
  0
LINE
  5
2A8A
330
2A6C
100
AcDbEntity
  8
図枠細線
  6
CONTINUOUS
100
AcDbLine
 10
74.577871882961
 20
17.820843689254
 30
0.0
 11
143.577871882961
 21
17.820841224969
 31
0.0
  0
LINE
  5
2A8B
330
2A6C
100
AcDbEntity
  8
図枠太線
  6
CONTINUOUS
 62
   251
100
AcDbLine
 10
3.577871882961
 20
2.820844689254
 30
0.0
 11
283.577871882961
 21
2.820844689254
 31
0.0
  0
LINE
  5
2A8C
330
2A6C
100
AcDbEntity
  8
図枠太線
  6
CONTINUOUS
 62
   251
100
AcDbLine
 10
3.577871882961
 20
2.820844689254
 30
0.0
 11
3.577871882961
 21
32.820842689254
 31
0.0
  0
ENDBLK
  5
2A8D
330
2A6C
100
AcDbEntity
  8
0
100
AcDbBlockEnd
  0
BLOCK
  5
2AF8
330
2AF4
100
AcDbEntity
  8
0
 48
10.0
100
AcDbBlockBegin
  2
_OPEN30
 70
     0
 10
0.0
 20
0.0
 30
0.0
  3
_OPEN30
  1

  0
LINE
  5
2AF5
330
2AF4
100
AcDbEntity
  8
0
  6
BYBLOCK
 62
     0
100
AcDbLine
 10
-1.0
 20
0.26794919
 30
0.0
 11
0.0
 21
0.0
 31
0.0
  0
LINE
  5
2AF6
330
2AF4
100
AcDbEntity
  8
0
  6
BYBLOCK
 62
     0
100
AcDbLine
 10
0.0
 20
0.0
 30
0.0
 11
-1.0
 21
-0.26794919
 31
0.0
  0
LINE
  5
2AF7
330
2AF4
100
AcDbEntity
  8
0
  6
BYBLOCK
 62
     0
100
AcDbLine
 10
0.0
 20
0.0
 30
0.0
 11
-1.0
 21
0.0
 31
0.0
  0
ENDBLK
  5
2AF9
330
2AF4
100
AcDbEntity
  8
0
 48
10.0
100
AcDbBlockEnd
  0
BLOCK
  5
4118
330
410E
100
AcDbEntity
  8
0
 48
10.0
100
AcDbBlockBegin
  2
*D6
 70
     1
 10
0.0
 20
0.0
 30
0.0
  3
*D6
  1

  0
LINE
  5
51A2
330
410E
100
AcDbEntity
  8
寸法線
 62
     0
 48
10.0
100
AcDbLine
 10
202.638468256273
 20
368.997572079334
 30
0.0
 11
202.638468256273
 21
294.960748836363
 31
0.0
  0
LINE
  5
51A3
330
410E
100
AcDbEntity
  8
寸法線
 62
     0
 48
10.0
100
AcDbLine
 10
302.638468256273
 20
361.719448263984
 30
0.0
 11
302.638468256273
 21
294.960748836363
 31
0.0
  0
LINE
  5
51A4
330
410E
100
AcDbEntity
  8
寸法線
 62
     0
 48
10.0
100
AcDbLine
 10
208.638468256273
 20
296.210748836363
 30
0.0
 11
296.638468256273
 21
296.210748836363
 31
0.0
  0
INSERT
  5
51A5
330
410E
100
AcDbEntity
  8
寸法線
 62
     0
 48
10.0
100
AcDbBlockReference
  2
_OPEN30
 10
202.638468256273
 20
296.210748836363
 30
0.0
 41
6.0
 42
6.0
 43
6.0
 50
180.0
  0
INSERT
  5
51A6
330
410E
100
AcDbEntity
  8
寸法線
 62
     0
 48
10.0
100
AcDbBlockReference
  2
_OPEN30
 10
302.638468256273
 20
296.210748836363
 30
0.0
 41
6.0
 42
6.0
 43
6.0
  0
MTEXT
  5
51A7
330
410E
100
AcDbEntity
  8
寸法線
 62
     0
 48
10.0
100
AcDbMText
 10
252.638468256273
 20
300.835748836363
 30
0.0
 40
8.0
 41
0.0
 71
     5
 72
     1
  1
\A1;100
  0
POINT
  5
51A8
330
410E
100
AcDbEntity
  8
DEFPOINTS
 62
     0
 48
10.0
100
AcDbPoint
 10
202.638468256273
 20
369.622572079334
 30
0.0
  0
POINT
  5
51A9
330
410E
100
AcDbEntity
  8
DEFPOINTS
 62
     0
 48
10.0
100
AcDbPoint
 10
302.638468256273
 20
362.344448263984
 30
0.0
  0
POINT
  5
51AA
330
410E
100
AcDbEntity
  8
DEFPOINTS
 62
     0
 48
10.0
100
AcDbPoint
 10
302.638468256273
 20
296.210748836363
 30
0.0
  0
ENDBLK
  5
4119
330
410E
100
AcDbEntity
  8
0
 48
10.0
100
AcDbBlockEnd
  0
BLOCK
  5
4125
330
411B
100
AcDbEntity
  8
0
 48
10.0
100
AcDbBlockBegin
  2
*D7
 70
     1
 10
0.0
 20
0.0
 30
0.0
  3
*D7
  1

  0
LINE
  5
5199
330
411B
100
AcDbEntity
  8
寸法線
 62
     0
 48
10.0
100
AcDbLine
 10
152.638468256273
 20
368.997572079334
 30
0.0
 11
152.638468256273
 21
294.960748836363
 31
0.0
  0
LINE
  5
519A
330
411B
100
AcDbEntity
  8
寸法線
 62
     0
 48
10.0
100
AcDbLine
 10
202.638468256273
 20
368.997572079334
 30
0.0
 11
202.638468256273
 21
294.960748836363
 31
0.0
  0
LINE
  5
519B
330
411B
100
AcDbEntity
  8
寸法線
 62
     0
 48
10.0
100
AcDbLine
 10
158.638468256273
 20
296.210748836363
 30
0.0
 11
196.638468256273
 21
296.210748836363
 31
0.0
  0
INSERT
  5
519C
330
411B
100
AcDbEntity
  8
寸法線
 62
     0
 48
10.0
100
AcDbBlockReference
  2
_OPEN30
 10
152.638468256273
 20
296.210748836363
 30
0.0
 41
6.0
 42
6.0
 43
6.0
 50
180.0
  0
INSERT
  5
519D
330
411B
100
AcDbEntity
  8
寸法線
 62
     0
 48
10.0
100
AcDbBlockReference
  2
_OPEN30
 10
202.638468256273
 20
296.210748836363
 30
0.0
 41
6.0
 42
6.0
 43
6.0
  0
MTEXT
  5
519E
330
411B
100
AcDbEntity
  8
寸法線
 62
     0
 48
10.0
100
AcDbMText
 10
177.638468256273
 20
300.835748836363
 30
0.0
 40
8.0
 41
0.0
 71
     5
 72
     1
  1
\A1;50
  0
POINT
  5
519F
330
411B
100
AcDbEntity
  8
DEFPOINTS
 62
     0
 48
10.0
100
AcDbPoint
 10
152.638468256273
 20
369.622572079334
 30
0.0
  0
POINT
  5
51A0
330
411B
100
AcDbEntity
  8
DEFPOINTS
 62
     0
 48
10.0
100
AcDbPoint
 10
202.638468256273
 20
369.622572079334
 30
0.0
  0
POINT
  5
51A1
330
411B
100
AcDbEntity
  8
DEFPOINTS
 62
     0
 48
10.0
100
AcDbPoint
 10
202.638468256273
 20
296.210748836363
 30
0.0
  0
ENDBLK
  5
4126
330
411B
100
AcDbEntity
  8
0
 48
10.0
100
AcDbBlockEnd
  0
BLOCK
  5
4132
330
4128
100
AcDbEntity
  8
0
 48
10.0
100
AcDbBlockBegin
  2
*D8
 70
     1
 10
0.0
 20
0.0
 30
0.0
  3
*D8
  1

  0
LINE
  5
5190
330
4128
100
AcDbEntity
  8
寸法線
 62
     0
 48
10.0
100
AcDbLine
 10
52.638468256273
 20
369.997572079334
 30
0.0
 11
52.638468256273
 21
294.960748836363
 31
0.0
  0
LINE
  5
5191
330
4128
100
AcDbEntity
  8
寸法線
 62
     0
 48
10.0
100
AcDbLine
 10
152.638468256273
 20
368.997572079334
 30
0.0
 11
152.638468256273
 21
294.960748836363
 31
0.0
  0
LINE
  5
5192
330
4128
100
AcDbEntity
  8
寸法線
 62
     0
 48
10.0
100
AcDbLine
 10
58.638468256273
 20
296.210748836363
 30
0.0
 11
146.638468256273
 21
296.210748836363
 31
0.0
  0
INSERT
  5
5193
330
4128
100
AcDbEntity
  8
寸法線
 62
     0
 48
10.0
100
AcDbBlockReference
  2
_OPEN30
 10
52.638468256273
 20
296.210748836363
 30
0.0
 41
6.0
 42
6.0
 43
6.0
 50
180.0
  0
INSERT
  5
5194
330
4128
100
AcDbEntity
  8
寸法線
 62
     0
 48
10.0
100
AcDbBlockReference
  2
_OPEN30
 10
152.638468256273
 20
296.210748836363
 30
0.0
 41
6.0
 42
6.0
 43
6.0
  0
MTEXT
  5
5195
330
4128
100
AcDbEntity
  8
寸法線
 62
     0
 48
10.0
100
AcDbMText
 10
102.638468256273
 20
300.835748836363
 30
0.0
 40
8.0
 41
0.0
 71
     5
 72
     1
  1
\A1;100
  0
POINT
  5
5196
330
4128
100
AcDbEntity
  8
DEFPOINTS
 62
     0
 48
10.0
100
AcDbPoint
 10
52.638468256273
 20
370.622572079334
 30
0.0
  0
POINT
  5
5197
330
4128
100
AcDbEntity
  8
DEFPOINTS
 62
     0
 48
10.0
100
AcDbPoint
 10
152.638468256273
 20
369.622572079334
 30
0.0
  0
POINT
  5
5198
330
4128
100
AcDbEntity
  8
DEFPOINTS
 62
     0
 48
10.0
100
AcDbPoint
 10
152.638468256273
 20
296.210748836363
 30
0.0
  0
ENDBLK
  5
4133
330
4128
100
AcDbEntity
  8
0
 48
10.0
100
AcDbBlockEnd
  0
BLOCK
  5
413F
330
4135
100
AcDbEntity
  8
0
 48
10.0
100
AcDbBlockBegin
  2
*D9
 70
     1
 10
0.0
 20
0.0
 30
0.0
  3
*D9
  1

  0
LINE
  5
5187
330
4135
100
AcDbEntity
  8
寸法線
 62
     0
 48
10.0
100
AcDbLine
 10
52.638468256273
 20
369.997572079334
 30
0.0
 11
52.638468256273
 21
272.675338246297
 31
0.0
  0
LINE
  5
5188
330
4135
100
AcDbEntity
  8
寸法線
 62
     0
 48
10.0
100
AcDbLine
 10
302.638468256273
 20
361.719448263984
 30
0.0
 11
302.638468256273
 21
272.675338246297
 31
0.0
  0
LINE
  5
5189
330
4135
100
AcDbEntity
  8
寸法線
 62
     0
 48
10.0
100
AcDbLine
 10
58.638468256273
 20
273.925338246297
 30
0.0
 11
296.638468256273
 21
273.925338246297
 31
0.0
  0
INSERT
  5
518A
330
4135
100
AcDbEntity
  8
寸法線
 62
     0
 48
10.0
100
AcDbBlockReference
  2
_OPEN30
 10
52.638468256273
 20
273.925338246297
 30
0.0
 41
6.0
 42
6.0
 43
6.0
 50
180.0
  0
INSERT
  5
518B
330
4135
100
AcDbEntity
  8
寸法線
 62
     0
 48
10.0
100
AcDbBlockReference
  2
_OPEN30
 10
302.638468256273
 20
273.925338246297
 30
0.0
 41
6.0
 42
6.0
 43
6.0
  0
MTEXT
  5
518C
330
4135
100
AcDbEntity
  8
寸法線
 62
     0
 48
10.0
100
AcDbMText
 10
177.638468256273
 20
278.551125647872
 30
0.0
 40
8.0
 41
0.0
 71
     5
 72
     1
  1
\A1;250
  0
POINT
  5
518D
330
4135
100
AcDbEntity
  8
DEFPOINTS
 62
     0
 48
10.0
100
AcDbPoint
 10
52.638468256273
 20
370.622572079334
 30
0.0
  0
POINT
  5
518E
330
4135
100
AcDbEntity
  8
DEFPOINTS
 62
     0
 48
10.0
100
AcDbPoint
 10
302.638468256273
 20
362.344448263984
 30
0.0
  0
POINT
  5
518F
330
4135
100
AcDbEntity
  8
DEFPOINTS
 62
     0
 48
10.0
100
AcDbPoint
 10
302.638468256273
 20
273.925338246297
 30
0.0
  0
ENDBLK
  5
4140
330
4135
100
AcDbEntity
  8
0
 48
10.0
100
AcDbBlockEnd
  0
BLOCK
  5
4214
330
4212
100
AcDbEntity
  8
0
 48
10.0
100
AcDbBlockBegin
  2
_DOTSMALL
 70
     0
 10
0.0
 20
0.0
 30
0.0
  3
_DOTSMALL
  1

  0
LWPOLYLINE
  5
4213
330
4212
100
AcDbEntity
  8
0
  6
BYBLOCK
 62
     0
100
AcDbPolyline
 90
        2
 70
     1
 43
0.5
 10
-0.0625
 20
0.0
 42
1.0
 10
0.0625
 20
0.0
 42
1.0
  0
ENDBLK
  5
4215
330
4212
100
AcDbEntity
  8
0
 48
10.0
100
AcDbBlockEnd
  0
BLOCK
  5
4219
330
4216
100
AcDbEntity
  8
0
 48
10.0
100
AcDbBlockBegin
  2
_DOT
 70
     0
 10
0.0
 20
0.0
 30
0.0
  3
_DOT
  1

  0
LWPOLYLINE
  5
4217
330
4216
100
AcDbEntity
  8
0
  6
BYBLOCK
 62
     0
100
AcDbPolyline
 90
        2
 70
     1
 43
0.5
 10
-0.25
 20
0.0
 42
1.0
 10
0.25
 20
0.0
 42
1.0
  0
LINE
  5
4218
330
4216
100
AcDbEntity
  8
0
  6
BYBLOCK
 62
     0
100
AcDbLine
 10
-0.5
 20
0.0
 30
0.0
 11
-1.0
 21
0.0
 31
0.0
  0
ENDBLK
  5
421A
330
4216
100
AcDbEntity
  8
0
 48
10.0
100
AcDbBlockEnd
  0
BLOCK
  5
4502
330
4501
100
AcDbEntity
  8
0
 48
10.0
100
AcDbBlockBegin
  2
静電容量センサ
 70
     0
 10
0.0
 20
0.0
 30
0.0
  3
静電容量センサ
  1

  0
ARC
  5
4503
330
4501
100
AcDbEntity
  8
外形線
 48
10.0
100
AcDbCircle
 10
1021.898525663106
 20
1073.412780408912
 30
0.0
 40
1.0
100
AcDbArc
 50
180.0
 51
268.999999999998
  0
ARC
  5
4504
330
4501
100
AcDbEntity
  8
外形線
 48
10.0
100
AcDbCircle
 10
1021.898525663106
 20
1115.960781516243
 30
0.0
 40
1.0
100
AcDbArc
 50
91.000000000002
 51
180.0
  0
LINE
  5
4505
330
4501
100
AcDbEntity
  8
外形線
 48
10.0
100
AcDbLine
 10
1020.898525663106
 20
1115.960781516243
 30
0.0
 11
1020.898525663106
 21
1073.412780408912
 31
0.0
  0
LINE
  5
4506
330
4501
100
AcDbEntity
  8
外形線
 48
10.0
100
AcDbLine
 10
1035.026308504175
 20
1117.944859066978
 30
0.0
 11
1041.278741748243
 21
1143.02199911049
 31
0.0
  0
ARC
  5
4507
330
4501
100
AcDbEntity
  8
外形線
 48
10.0
100
AcDbCircle
 10
1046.130220379623
 20
1141.812389632491
 30
0.0
 40
5.0
100
AcDbArc
 50
91.3
 51
166.000000000004
  0
ARC
  5
4508
330
4501
100
AcDbEntity
  8
外形線
 48
10.0
100
AcDbCircle
 10
1034.056012777899
 20
1118.186780962578
 30
0.0
 40
1.0
100
AcDbArc
 50
270.0
 51
346.000000000004
  0
ARC
  5
4509
330
4501
100
AcDbEntity
  8
外形線
 48
10.0
100
AcDbCircle
 10
1034.056012777899
 20
1118.186780962578
 30
0.0
 40
1.0
100
AcDbArc
 50
270.0
 51
346.000000000004
  0
LINE
  5
450A
330
4501
100
AcDbEntity
  8
外形線
 48
10.0
100
AcDbLine
 10
1021.881073256669
 20
1116.960629211399
 30
0.0
 11
1034.056012777899
 21
1117.186780962578
 31
0.0
  0
ARC
  5
450B
330
4501
100
AcDbEntity
  8
外形線
 48
10.0
100
AcDbCircle
 10
1122.899564892808
 20
1151.93622955513
 30
0.0
 40
0.5
100
AcDbArc
 50
359.999254274584
 51
88.999999999998
  0
ARC
  5
450C
330
4501
100
AcDbEntity
  8
細線
 48
10.0
100
AcDbCircle
 10
1123.898525663106
 20
1107.819822714047
 30
0.0
 40
0.5
100
AcDbArc
 50
180.0
 51
264.089361084595
  0
ARC
  5
450D
330
4501
100
AcDbEntity
  8
外形線
 48
10.0
100
AcDbCircle
 10
1123.898525663106
 20
1100.44543233102
 30
0.0
 40
0.5
100
AcDbArc
 50
91.000000000002
 51
180.0
  0
ARC
  5
450E
330
4501
100
AcDbEntity
  8
細線
 48
10.0
100
AcDbCircle
 10
1123.898525663106
 20
1108.078641759149
 30
0.0
 40
0.5
100
AcDbArc
 50
180.0
 51
264.089361084595
  0
ARC
  5
450F
330
4501
100
AcDbEntity
  8
細線
 48
10.0
100
AcDbCircle
 10
1123.898525663106
 20
1129.71320712675
 30
0.0
 40
0.5
100
AcDbArc
 50
180.0
 51
254.206830951738
  0
ARC
  5
4510
330
4501
100
AcDbEntity
  8
細線
 48
10.0
100
AcDbCircle
 10
1123.898525663106
 20
1130.420313907937
 30
0.0
 40
0.5
100
AcDbArc
 50
180.0
 51
254.206830951738
  0
ARC
  5
4511
330
4501
100
AcDbEntity
  8
細線
 48
10.0
100
AcDbCircle
 10
1123.898525663106
 20
1142.359984147006
 30
0.0
 40
0.5
100
AcDbArc
 50
180.0
 51
248.874947125989
  0
ARC
  5
4512
330
4501
100
AcDbEntity
  8
細線
 48
10.0
100
AcDbCircle
 10
1123.898525663106
 20
1143.325909973296
 30
0.0
 40
0.5
100
AcDbArc
 50
180.0
 51
248.874947125989
  0
ARC
  5
4513
330
4501
100
AcDbEntity
  8
外形線
 48
10.0
100
AcDbCircle
 10
1123.898413585187
 20
1144.632076415673
 30
0.0
 40
0.5
100
AcDbArc
 50
180.019033969455
 51
248.025023881972
  0
LINE
  5
4514
330
4501
100
AcDbEntity
  8
外形線
 48
10.0
100
AcDbLine
 10
1123.398525663106
 20
1143.325909973296
 30
0.0
 11
1123.398525663106
 21
1144.294618045039
 31
0.0
  0
LINE
  5
4515
330
4501
100
AcDbEntity
  8
外形線
 48
10.0
100
AcDbLine
 10
1123.398525663106
 20
1142.359984147006
 30
0.0
 11
1123.398525663106
 21
1142.98307227703
 31
0.0
  0
LINE
  5
4516
330
4501
100
AcDbEntity
  8
外形線
 48
10.0
100
AcDbLine
 10
1123.398525663106
 20
1130.420313907937
 30
0.0
 11
1123.398525663106
 21
1142.017146450741
 31
0.0
  0
LINE
  5
4517
330
4501
100
AcDbEntity
  8
外形線
 48
10.0
100
AcDbLine
 10
1123.398525663106
 20
1129.71320712675
 30
0.0
 11
1123.398525663106
 21
1130.042120021904
 31
0.0
  0
LINE
  5
4518
330
4501
100
AcDbEntity
  8
外形線
 48
10.0
100
AcDbLine
 10
1123.398525663106
 20
1108.078641759149
 30
0.0
 11
1123.398525663106
 21
1130.420313907937
 31
0.0
  0
LINE
  5
4519
330
4501
100
AcDbEntity
  8
外形線
 48
10.0
100
AcDbLine
 10
1123.398525663106
 20
1107.819822714047
 30
0.0
 11
1123.398525663106
 21
1108.700149198143
 31
0.0
  0
LINE
  5
451A
330
4501
100
AcDbEntity
  8
外形線
 48
10.0
100
AcDbLine
 10
1123.398525663106
 20
1100.44543233102
 30
0.0
 11
1123.398525663106
 21
1108.078641759149
 31
0.0
  0
ARC
  5
451B
330
4501
100
AcDbEntity
  8
外形線
 48
10.0
100
AcDbCircle
 10
1123.898525663106
 20
1088.928129594135
 30
0.0
 40
0.5
100
AcDbArc
 50
180.0
 51
268.999999999998
  0
LINE
  5
451C
330
4501
100
AcDbEntity
  8
外形線
 48
10.0
100
AcDbLine
 10
1123.398525663106
 20
1088.928129594135
 30
0.0
 11
1123.398525663106
 21
1100.44543233102
 31
0.0
  0
ARC
  5
451D
330
4501
100
AcDbEntity
  8
外形線
 48
10.0
100
AcDbCircle
 10
1135.396646406818
 20
1087.727276821958
 30
0.0
 40
0.5
100
AcDbArc
 50
0.002863323129
 51
88.999999999998
  0
ARC
  5
451E
330
4501
100
AcDbEntity
  8
外形線
 48
10.0
100
AcDbCircle
 10
1135.396646406818
 20
1101.646285103198
 30
0.0
 40
0.5
100
AcDbArc
 50
271.000000000002
 51
359.997136676878
  0
ARC
  5
451F
330
4501
100
AcDbEntity
  8
細線
 48
10.0
100
AcDbCircle
 10
1135.398359871226
 20
1105.882746614783
 30
0.0
 40
0.5
100
AcDbArc
 50
359.978936747976
 51
84.089361084595
  0
ARC
  5
4520
330
4501
100
AcDbEntity
  8
細線
 48
10.0
100
AcDbCircle
 10
1135.396845195015
 20
1105.6240843805
 30
0.0
 40
0.5
100
AcDbArc
 50
359.997136676878
 51
84.089361084595
  0
ARC
  5
4521
330
4501
100
AcDbEntity
  8
細線
 48
10.0
100
AcDbCircle
 10
1135.398405428356
 20
1136.84472607817
 30
0.0
 40
0.5
100
AcDbArc
 50
359.997136676878
 51
68.874947125989
  0
ARC
  5
4522
330
4501
100
AcDbEntity
  8
細線
 48
10.0
100
AcDbCircle
 10
1135.398453699003
 20
1137.810633254114
 30
0.0
 40
0.5
100
AcDbArc
 50
359.997136676878
 51
68.874947125989
  0
ARC
  5
4523
330
4501
100
AcDbEntity
  8
外形線
 48
10.0
100
AcDbCircle
 10
1135.398508800797
 20
1138.913233296621
 30
0.0
 40
0.5
100
AcDbArc
 50
359.997136676878
 51
68.025023881972
  0
LINE
  5
4524
330
4501
100
AcDbEntity
  8
外形線
 48
10.0
100
AcDbLine
 10
1135.405372610037
 20
1101.146361255619
 30
0.0
 11
1123.889799459887
 21
1100.945356178598
 31
0.0
  0
LINE
  5
4525
330
4501
100
AcDbEntity
  8
外形線
 48
10.0
100
AcDbLine
 10
1135.405372610037
 20
1088.227200669536
 30
0.0
 11
1123.889799459887
 21
1088.428205746557
 31
0.0
  0
LINE
  5
4526
330
4501
100
AcDbEntity
  8
外形線
 48
10.0
100
AcDbLine
 10
1123.711312779708
 20
1144.168402728055
 30
0.0
 11
1135.585609606275
 21
1139.376906984239
 31
0.0
  0
LINE
  5
4527
330
4501
100
AcDbEntity
  8
細線
 48
10.0
100
AcDbLine
 10
1135.448333812772
 20
1106.121426237015
 30
0.0
 11
1123.847037045349
 21
1107.322480857532
 31
0.0
  0
LINE
  5
4528
330
4501
100
AcDbEntity
  8
細線
 48
10.0
100
AcDbLine
 10
1135.449848488983
 20
1106.380088471297
 30
0.0
 11
1123.847037045349
 21
1107.581299902634
 31
0.0
  0
LINE
  5
4529
330
4501
100
AcDbEntity
  8
細線
 48
10.0
100
AcDbLine
 10
1135.533952658586
 20
1126.609702933466
 30
0.0
 11
1123.762442899618
 21
1129.939188683612
 31
0.0
  0
LINE
  5
452A
330
4501
100
AcDbEntity
  8
細線
 48
10.0
100
AcDbLine
 10
1135.578607784566
 20
1137.311124095764
 30
0.0
 11
1123.718323306896
 21
1141.893586129411
 31
0.0
  0
LINE
  5
452B
330
4501
100
AcDbEntity
  8
細線
 48
10.0
100
AcDbLine
 10
1135.578656055213
 20
1138.277031271709
 30
0.0
 11
1123.718323306896
 21
1142.859511955701
 31
0.0
  0
LINE
  5
452C
330
4501
100
AcDbEntity
  8
外形線
 48
10.0
100
AcDbLine
 10
1108.899561566736
 20
1152.686780962578
 30
0.0
 11
1122.908291096026
 21
1152.436153402709
 31
0.0
  0
LINE
  5
452D
330
4501
100
AcDbEntity
  8
外形線
 48
10.0
100
AcDbLine
 10
1108.899561566736
 20
1152.686780962578
 30
0.0
 11
1108.399561566736
 21
1152.180676686204
 31
0.0
  0
LINE
  5
452E
330
4501
100
AcDbEntity
  8
外形線
 48
10.0
100
AcDbLine
 10
1108.399561566736
 20
1151.192885238951
 30
0.0
 11
1108.399561566736
 21
1150.692885238951
 31
0.0
  0
ARC
  5
452F
330
4501
100
AcDbEntity
  8
外形線
 48
10.0
100
AcDbCircle
 10
1098.998525663106
 20
1152.414559409545
 30
0.0
 40
4.4
100
AcDbArc
 50
271.3
 51
0.0
  0
LINE
  5
4530
330
4501
100
AcDbEntity
  8
外形線
 48
10.0
100
AcDbLine
 10
1046.016783711759
 20
1146.811102679105
 30
0.0
 11
1099.098349930826
 21
1148.015691928525
 31
0.0
  0
LINE
  5
4531
330
4501
100
AcDbEntity
  8
外形線
 48
10.0
100
AcDbLine
 10
1103.398525663105
 20
1152.686780962578
 30
0.0
 11
1103.398525663105
 21
1152.414559409545
 31
0.0
  0
LINE
  5
4532
330
4501
100
AcDbEntity
  8
外形線
 48
10.0
100
AcDbLine
 10
1106.398525663105
 20
1152.686780962578
 30
0.0
 11
1103.398525663105
 21
1152.686780962578
 31
0.0
  0
ARC
  5
4533
330
4501
100
AcDbEntity
  8
外形線
 48
10.0
100
AcDbCircle
 10
1107.898525663105
 20
1150.161780962577
 30
0.0
 40
1.500000000000156
100
AcDbArc
 50
70.528779365514
 51
179.999999999993
  0
LINE
  5
4534
330
4501
100
AcDbEntity
  8
細線
 48
10.0
100
AcDbLine
 10
1108.899561566736
 20
1152.686780962578
 30
0.0
 11
1108.899561566736
 21
1036.686780962578
 31
0.0
  0
LINE
  5
4535
330
4501
100
AcDbEntity
  8
細線
 48
10.0
100
AcDbLine
 10
1108.899561566736
 20
1152.680676686204
 30
0.0
 11
1108.899561566736
 21
1036.692885238951
 31
0.0
  0
LINE
  5
4536
330
4501
100
AcDbEntity
  8
外形線
 48
10.0
100
AcDbLine
 10
1123.398525663106
 20
1072.956444458874
 30
0.0
 11
1123.398525663106
 21
1059.660354798405
 31
0.0
  0
ARC
  5
4537
330
4501
100
AcDbEntity
  8
細線
 48
10.0
100
AcDbCircle
 10
1123.898525663106
 20
1047.013577778149
 30
0.0
 40
0.5
100
AcDbArc
 50
111.125052874011
 51
180.0
  0
ARC
  5
4538
330
4501
100
AcDbEntity
  8
細線
 48
10.0
100
AcDbCircle
 10
1123.898066965619
 20
1046.04747472476
 30
0.0
 40
0.5
100
AcDbArc
 50
111.125052874011
 51
179.923306313171
  0
ARC
  5
4539
330
4501
100
AcDbEntity
  8
細線
 48
10.0
100
AcDbCircle
 10
1123.898525663106
 20
1059.660354798405
 30
0.0
 40
0.5
100
AcDbArc
 50
105.793169048262
 51
180.0
  0
ARC
  5
453A
330
4501
100
AcDbEntity
  8
細線
 48
10.0
100
AcDbCircle
 10
1123.898525663106
 20
1058.953248017218
 30
0.0
 40
0.5
100
AcDbArc
 50
105.793169048262
 51
180.0
  0
ARC
  5
453B
330
4501
100
AcDbEntity
  8
細線
 48
10.0
100
AcDbCircle
 10
1123.898525663106
 20
1081.294920166006
 30
0.0
 40
0.5
100
AcDbArc
 50
95.910638915405
 51
180.0
  0
ARC
  5
453C
330
4501
100
AcDbEntity
  8
細線
 48
10.0
100
AcDbCircle
 10
1123.898525663106
 20
1081.553739211108
 30
0.0
 40
0.5
100
AcDbArc
 50
95.910638915405
 51
180.0
  0
LINE
  5
453D
330
4501
100
AcDbEntity
  8
外形線
 48
10.0
100
AcDbLine
 10
1123.398525663106
 20
1081.294920166006
 30
0.0
 11
1123.398525663106
 21
1088.928129594135
 31
0.0
  0
LINE
  5
453E
330
4501
100
AcDbEntity
  8
外形線
 48
10.0
100
AcDbLine
 10
1123.398525663106
 20
1081.745828707453
 30
0.0
 11
1123.398525663106
 21
1082.004647752555
 31
0.0
  0
LINE
  5
453F
330
4501
100
AcDbEntity
  8
外形線
 48
10.0
100
AcDbLine
 10
1123.398525663106
 20
1072.956444458874
 30
0.0
 11
1123.398525663106
 21
1081.294920166006
 31
0.0
  0
LINE
  5
4540
330
4501
100
AcDbEntity
  8
外形線
 48
10.0
100
AcDbLine
 10
1123.398525663106
 20
1058.953248017218
 30
0.0
 11
1123.398525663106
 21
1059.660354798405
 31
0.0
  0
LINE
  5
4541
330
4501
100
AcDbEntity
  8
外形線
 48
10.0
100
AcDbLine
 10
1123.398525663106
 20
1047.013577778149
 30
0.0
 11
1123.398525663106
 21
1058.953248017218
 31
0.0
  0
LINE
  5
4542
330
4501
100
AcDbEntity
  8
外形線
 48
10.0
100
AcDbLine
 10
1123.398067413553
 20
1046.048144003235
 30
0.0
 11
1123.398525663106
 21
1047.013577778149
 31
0.0
  0
LINE
  5
4543
330
4501
100
AcDbEntity
  8
外形線
 48
10.0
100
AcDbLine
 10
1123.396317242873
 20
1044.740639597053
 30
0.0
 11
1123.398067413553
 21
1046.048144003235
 31
0.0
  0
ARC
  5
4544
330
4501
100
AcDbEntity
  8
外形線
 48
10.0
100
AcDbCircle
 10
1123.896317242873
 20
1044.740639597053
 30
0.0
 40
0.5
100
AcDbArc
 50
111.974976118028
 51
180.0
  0
ARC
  5
4545
330
4501
100
AcDbEntity
  8
細線
 48
10.0
100
AcDbCircle
 10
1135.398494161258
 20
1063.952267566336
 30
0.0
 40
0.5
100
AcDbArc
 50
285.793169048262
 51
0.004772330144
  0
ARC
  5
4546
330
4501
100
AcDbEntity
  8
細線
 48
10.0
100
AcDbCircle
 10
1135.398525663106
 20
1063.245169695216
 30
0.0
 40
0.5
100
AcDbArc
 50
285.793169048262
 51
0.0
  0
ARC
  5
4547
330
4501
100
AcDbEntity
  8
細線
 48
10.0
100
AcDbCircle
 10
1135.398525663106
 20
1052.528882302126
 30
0.0
 40
0.5
100
AcDbArc
 50
291.125052874011
 51
0.0
  0
ARC
  5
4548
330
4501
100
AcDbEntity
  8
細線
 48
10.0
100
AcDbCircle
 10
1135.398525663106
 20
1051.562956475835
 30
0.0
 40
0.5
100
AcDbArc
 50
291.125052874011
 51
0.0
  0
ARC
  5
4549
330
4501
100
AcDbEntity
  8
外形線
 48
10.0
100
AcDbCircle
 10
1135.398525663106
 20
1050.460335432784
 30
0.0
 40
0.5
100
AcDbArc
 50
291.974976118028
 51
0.0
  0
LINE
  5
454A
330
4501
100
AcDbEntity
  8
外形線
 48
10.0
100
AcDbLine
 10
1135.898525663106
 20
1051.562956475835
 30
0.0
 11
1135.898525663106
 21
1050.460335432784
 31
0.0
  0
LINE
  5
454B
330
4501
100
AcDbEntity
  8
外形線
 48
10.0
100
AcDbLine
 10
1135.898525663106
 20
1052.528882302126
 30
0.0
 11
1135.898525663106
 21
1051.562956475835
 31
0.0
  0
LINE
  5
454C
330
4501
100
AcDbEntity
  8
外形線
 48
10.0
100
AcDbLine
 10
1135.898525663106
 20
1063.245169695216
 30
0.0
 11
1135.898525663106
 21
1052.528882302126
 31
0.0
  0
LINE
  5
454D
330
4501
100
AcDbEntity
  8
外形線
 48
10.0
100
AcDbLine
 10
1135.898494159523
 20
1063.952309212773
 30
0.0
 11
1135.898525663106
 21
1063.245169695216
 31
0.0
  0
LINE
  5
454E
330
4501
100
AcDbEntity
  8
外形線
 48
10.0
100
AcDbLine
 10
1135.896845194391
 20
1083.749502531863
 30
0.0
 11
1135.898494159523
 21
1063.952309212773
 31
0.0
  0
ARC
  5
454F
330
4501
100
AcDbEntity
  8
細線
 48
10.0
100
AcDbCircle
 10
1135.396794220963
 20
1083.49065322233
 30
0.0
 40
0.5
100
AcDbArc
 50
275.910638915405
 51
0.00199902817
  0
ARC
  5
4550
330
4501
100
AcDbEntity
  8
細線
 48
10.0
100
AcDbCircle
 10
1135.396845195015
 20
1083.749477544655
 30
0.0
 40
0.5
100
AcDbArc
 50
275.910638915405
 51
0.002863323129
  0
ARC
  5
4551
330
4501
100
AcDbEntity
  8
外形線
 48
10.0
100
AcDbCircle
 10
1122.897486448612
 20
1037.437296090646
 30
0.0
 40
0.5
100
AcDbArc
 50
271.000000000002
 51
359.984453673186
  0
LINE
  5
4552
330
4501
100
AcDbEntity
  8
外形線
 48
10.0
100
AcDbLine
 10
1135.896646406194
 20
1087.727301809166
 30
0.0
 11
1135.896794220659
 21
1083.490670667142
 31
0.0
  0
LINE
  5
4553
330
4501
100
AcDbEntity
  8
外形線
 48
10.0
100
AcDbLine
 10
1123.709216437395
 20
1045.204313284671
 30
0.0
 11
1135.585626468584
 21
1049.996661745166
 31
0.0
  0
LINE
  5
4554
330
4501
100
AcDbEntity
  8
細線
 48
10.0
100
AcDbLine
 10
1135.578728019316
 20
1052.062484284531
 30
0.0
 11
1123.718323306896
 21
1047.479975795744
 31
0.0
  0
LINE
  5
4555
330
4501
100
AcDbEntity
  8
細線
 48
10.0
100
AcDbLine
 10
1135.578728019316
 20
1051.09655845824
 30
0.0
 11
1123.717864609409
 21
1046.513872742355
 31
0.0
  0
LINE
  5
4556
330
4501
100
AcDbEntity
  8
細線
 48
10.0
100
AcDbLine
 10
1135.534608426593
 20
1062.764044470891
 30
0.0
 11
1123.762442899618
 21
1059.434373241543
 31
0.0
  0
LINE
  5
4557
330
4501
100
AcDbEntity
  8
細線
 48
10.0
100
AcDbLine
 10
1135.534576924746
 20
1063.471142342011
 30
0.0
 11
1123.762442899618
 21
1060.141480022729
 31
0.0
  0
LINE
  5
4558
330
4501
100
AcDbEntity
  8
細線
 48
10.0
100
AcDbLine
 10
1135.44828283872
 20
1082.993311365815
 30
0.0
 11
1123.847037045349
 21
1081.792262022521
 31
0.0
  0
LINE
  5
4559
330
4501
100
AcDbEntity
  8
細線
 48
10.0
100
AcDbLine
 10
1135.448333812772
 20
1083.25213568814
 30
0.0
 11
1123.847037045349
 21
1082.051081067623
 31
0.0
  0
LINE
  5
455A
330
4501
100
AcDbEntity
  8
外形線
 48
10.0
100
AcDbLine
 10
1123.399470041665
 20
1044.747733739171
 30
0.0
 11
1123.397486430207
 21
1037.437160423353
 31
0.0
  0
LINE
  5
455B
330
4501
100
AcDbEntity
  8
外形線
 48
10.0
100
AcDbLine
 10
1123.399564892765
 20
1151.936223047449
 30
0.0
 11
1123.397486430207
 21
1037.437160423353
 31
0.0
  0
LINE
  5
455C
330
4501
100
AcDbEntity
  8
外形線
 48
10.0
100
AcDbLine
 10
1108.399561566736
 20
1152.180676686204
 30
0.0
 11
1108.399561566736
 21
1037.192885238951
 31
0.0
  0
LINE
  5
455D
330
4501
100
AcDbEntity
  8
外形線
 48
10.0
100
AcDbLine
 10
1108.899561566736
 20
1036.686780962578
 30
0.0
 11
1122.906212651831
 21
1036.937372243068
 31
0.0
  0
LINE
  5
455E
330
4501
100
AcDbEntity
  8
外形線
 48
10.0
100
AcDbLine
 10
1108.899561566736
 20
1036.686780962578
 30
0.0
 11
1108.399561566736
 21
1037.192885238951
 31
0.0
  0
LINE
  5
455F
330
4501
100
AcDbEntity
  8
外形線
 48
10.0
100
AcDbLine
 10
1108.399561566736
 20
1038.192885238951
 30
0.0
 11
1108.399561566736
 21
1038.692885238951
 31
0.0
  0
LINE
  5
4560
330
4501
100
AcDbEntity
  8
外形線
 48
10.0
100
AcDbLine
 10
1035.022931603883
 20
1071.442246865485
 30
0.0
 11
1041.278741748243
 21
1046.351562814666
 31
0.0
  0
ARC
  5
4561
330
4501
100
AcDbEntity
  8
外形線
 48
10.0
100
AcDbCircle
 10
1046.130220379623
 20
1047.561172292664
 30
0.0
 40
5.0
100
AcDbArc
 50
193.999999999996
 51
268.7
  0
ARC
  5
4562
330
4501
100
AcDbEntity
  8
外形線
 48
10.0
100
AcDbCircle
 10
1034.052635877606
 20
1071.200324969886
 30
0.0
 40
1.0
100
AcDbArc
 50
13.999999999996
 51
89.000000000011
  0
ARC
  5
4563
330
4501
100
AcDbEntity
  8
外形線
 48
10.0
100
AcDbCircle
 10
1069.398525663106
 20
1041.031595836918
 30
0.0
 40
1.0
100
AcDbArc
 50
0.0
 51
88.7
  0
ARC
  5
4564
330
4501
100
AcDbEntity
  8
外形線
 48
10.0
100
AcDbCircle
 10
1071.398525663106
 20
1031.186780962577
 30
0.0
 40
1.0
100
AcDbArc
 50
180.0
 51
270.0
  0
ARC
  5
4565
330
4501
100
AcDbEntity
  8
外形線
 48
10.0
100
AcDbCircle
 10
1105.398525663105
 20
1031.186780962577
 30
0.0
 40
1.0
100
AcDbArc
 50
270.0
 51
0.0
  0
LINE
  5
4566
330
4501
100
AcDbEntity
  8
外形線
 48
10.0
100
AcDbLine
 10
1070.398525663106
 20
1031.186780962577
 30
0.0
 11
1070.398525663106
 21
1041.031595836918
 31
0.0
  0
LINE
  5
4567
330
4501
100
AcDbEntity
  8
外形線
 48
10.0
100
AcDbLine
 10
1046.016783711759
 20
1042.56245924605
 30
0.0
 11
1099.098349930826
 21
1041.35786999663
 31
0.0
  0
LINE
  5
4568
330
4501
100
AcDbEntity
  8
外形線
 48
10.0
100
AcDbLine
 10
1021.881073256668
 20
1072.412932713756
 30
0.0
 11
1034.070088284044
 21
1072.200172665042
 31
0.0
  0
LINE
  5
4569
330
4501
100
AcDbEntity
  8
外形線
 48
10.0
100
AcDbLine
 10
1106.398525663105
 20
1040.711780962577
 30
0.0
 11
1106.398525663105
 21
1031.186780962577
 31
0.0
  0
LINE
  5
456A
330
4501
100
AcDbEntity
  8
外形線
 48
10.0
100
AcDbLine
 10
1106.398525663105
 20
1040.711780962577
 30
0.0
 11
1106.398525663105
 21
1152.686780962578
 31
0.0
  0
LINE
  5
456B
330
4501
100
AcDbEntity
  8
外形線
 48
10.0
100
AcDbLine
 10
1105.398525663105
 20
1030.186780962577
 30
0.0
 11
1071.398525663106
 21
1030.186780962577
 31
0.0
  0
LINE
  5
456C
330
4501
100
AcDbEntity
  8
外形線
 48
10.0
100
AcDbLine
 10
1103.398525663106
 20
1036.95900251561
 30
0.0
 11
1103.398525663105
 21
1036.692885238951
 31
0.0
  0
LINE
  5
456D
330
4501
100
AcDbEntity
  8
外形線
 48
10.0
100
AcDbLine
 10
1106.398525663105
 20
1036.692885238951
 30
0.0
 11
1103.398525663105
 21
1036.692885238951
 31
0.0
  0
ARC
  5
456E
330
4501
100
AcDbEntity
  8
外形線
 48
10.0
100
AcDbCircle
 10
1107.898525663105
 20
1039.211780962577
 30
0.0
 40
1.499999999999659
100
AcDbArc
 50
179.99999999998
 51
289.471220634515
  0
ARC
  5
456F
330
4501
100
AcDbEntity
  8
外形線
 48
10.0
100
AcDbCircle
 10
1098.998525663106
 20
1036.95900251561
 30
0.0
 40
4.4
100
AcDbArc
 50
0.0
 51
88.7
  0
LINE
  5
4570
330
4501
100
AcDbEntity
  8
細線
 48
10.0
100
AcDbLine
 10
1103.398525663105
 20
1152.686780962578
 30
0.0
 11
1103.398525663106
 21
1036.95900251561
 31
0.0
  0
LINE
  5
4571
330
4501
100
AcDbEntity
  8
細線
 48
10.0
100
AcDbLine
 10
1034.837298404406
 20
1072.186780962578
 30
0.0
 11
1034.840933619068
 21
1117.201361012233
 31
0.0
  0
LINE
  5
4572
330
4501
100
AcDbEntity
  8
細線
 48
10.0
100
AcDbLine
 10
1042.201886517784
 20
1144.905639229587
 30
0.0
 11
1042.201886517784
 21
1044.467922695569
 31
0.0
  0
LINE
  5
4573
330
4501
100
AcDbEntity
  8
外形線
 48
10.0
100
AcDbLine
 10
1135.898508800172
 20
1138.913208309413
 30
0.0
 11
1135.896646406194
 21
1101.646260115989
 31
0.0
  0
ARC
  5
4574
330
4501
100
AcDbEntity
  8
細線
 48
10.0
100
AcDbCircle
 10
1135.397834558349
 20
1125.421480922695
 30
0.0
 40
0.5
100
AcDbArc
 50
359.997136676878
 51
74.206830951738
  0
ARC
  5
4575
330
4501
100
AcDbEntity
  8
細線
 48
10.0
100
AcDbCircle
 10
1135.397869895098
 20
1126.128577709141
 30
0.0
 40
0.5
100
AcDbArc
 50
359.997136676878
 51
74.206830951738
  0
LINE
  5
4576
330
4501
100
AcDbEntity
  8
細線
 48
10.0
100
AcDbLine
 10
1135.533917321837
 20
1125.90260614702
 30
0.0
 11
1123.762442899618
 21
1129.232081902426
 31
0.0
  0
LINE
  5
4577
330
4501
100
AcDbEntity
  8
中心線
 48
10.0
100
AcDbLine
 10
1088.398525663106
 20
1052.03299312045
 30
0.0
 11
1088.398525663106
 21
1013.722487401784
 31
0.0
  0
ENDBLK
  5
4578
330
4501
100
AcDbEntity
  8
0
 48
10.0
100
AcDbBlockEnd
  0
BLOCK
  5
46D8
330
46CE
100
AcDbEntity
  8
0
 48
10.0
100
AcDbBlockBegin
  2
*D17
 70
     1
 10
0.0
 20
0.0
 30
0.0
  3
*D17
  1

  0
LINE
  5
516A
330
46CE
100
AcDbEntity
  8
寸法線
 62
     0
 48
10.0
100
AcDbLine
 10
327.638468256273
 20
358.418625570059
 30
0.0
 11
327.638468256273
 21
294.960748836363
 31
0.0
  0
LINE
  5
516B
330
46CE
100
AcDbEntity
  8
寸法線
 62
     0
 48
10.0
100
AcDbLine
 10
362.638468256273
 20
357.218948263984
 30
0.0
 11
362.638468256273
 21
294.960748836363
 31
0.0
  0
LINE
  5
516C
330
46CE
100
AcDbEntity
  8
寸法線
 62
     0
 48
10.0
100
AcDbLine
 10
333.638468256273
 20
296.210748836363
 30
0.0
 11
356.638468256273
 21
296.210748836363
 31
0.0
  0
INSERT
  5
516D
330
46CE
100
AcDbEntity
  8
寸法線
 62
     0
 48
10.0
100
AcDbBlockReference
  2
_OPEN30
 10
327.638468256273
 20
296.210748836363
 30
0.0
 41
6.0
 42
6.0
 43
6.0
 50
180.0
  0
INSERT
  5
516E
330
46CE
100
AcDbEntity
  8
寸法線
 62
     0
 48
10.0
100
AcDbBlockReference
  2
_OPEN30
 10
362.638468256273
 20
296.210748836363
 30
0.0
 41
6.0
 42
6.0
 43
6.0
  0
MTEXT
  5
516F
330
46CE
100
AcDbEntity
  8
寸法線
 62
     0
 48
10.0
100
AcDbMText
 10
345.138468256273
 20
300.835748836363
 30
0.0
 40
8.0
 41
0.0
 71
     5
 72
     1
  1
\A1;35
  0
POINT
  5
5170
330
46CE
100
AcDbEntity
  8
DEFPOINTS
 62
     0
 48
10.0
100
AcDbPoint
 10
327.638468256273
 20
359.043625570059
 30
0.0
  0
POINT
  5
5171
330
46CE
100
AcDbEntity
  8
DEFPOINTS
 62
     0
 48
10.0
100
AcDbPoint
 10
362.638468256273
 20
357.843948263984
 30
0.0
  0
POINT
  5
5172
330
46CE
100
AcDbEntity
  8
DEFPOINTS
 62
     0
 48
10.0
100
AcDbPoint
 10
362.638468256273
 20
296.210748836363
 30
0.0
  0
ENDBLK
  5
46D9
330
46CE
100
AcDbEntity
  8
0
 48
10.0
100
AcDbBlockEnd
  0
BLOCK
  5
46E5
330
46DB
100
AcDbEntity
  8
0
 48
10.0
100
AcDbBlockBegin
  2
*D18
 70
     1
 10
0.0
 20
0.0
 30
0.0
  3
*D18
  1

  0
LINE
  5
5161
330
46DB
100
AcDbEntity
  8
寸法線
 62
     0
 48
10.0
100
AcDbLine
 10
302.638468256273
 20
300.468948263984
 30
0.0
 11
302.638468256273
 21
294.960748836363
 31
0.0
  0
LINE
  5
5162
330
46DB
100
AcDbEntity
  8
寸法線
 62
     0
 48
10.0
100
AcDbLine
 10
327.638468256273
 20
358.418625570059
 30
0.0
 11
327.638468256273
 21
294.960748836363
 31
0.0
  0
LINE
  5
5163
330
46DB
100
AcDbEntity
  8
寸法線
 62
     0
 48
10.0
100
AcDbLine
 10
308.638468256273
 20
296.210748836363
 30
0.0
 11
321.638468256273
 21
296.210748836363
 31
0.0
  0
INSERT
  5
5164
330
46DB
100
AcDbEntity
  8
寸法線
 62
     0
 48
10.0
100
AcDbBlockReference
  2
_OPEN30
 10
302.638468256273
 20
296.210748836363
 30
0.0
 41
6.0
 42
6.0
 43
6.0
 50
180.0
  0
INSERT
  5
5165
330
46DB
100
AcDbEntity
  8
寸法線
 62
     0
 48
10.0
100
AcDbBlockReference
  2
_OPEN30
 10
327.638468256273
 20
296.210748836363
 30
0.0
 41
6.0
 42
6.0
 43
6.0
  0
MTEXT
  5
5166
330
46DB
100
AcDbEntity
  8
寸法線
 62
     0
 48
10.0
100
AcDbMText
 10
315.138468256273
 20
300.836536237937
 30
0.0
 40
8.0
 41
0.0
 71
     5
 72
     1
  1
\A1;25
  0
POINT
  5
5167
330
46DB
100
AcDbEntity
  8
DEFPOINTS
 62
     0
 48
10.0
100
AcDbPoint
 10
302.638468256273
 20
301.093948263984
 30
0.0
  0
POINT
  5
5168
330
46DB
100
AcDbEntity
  8
DEFPOINTS
 62
     0
 48
10.0
100
AcDbPoint
 10
327.638468256273
 20
359.043625570059
 30
0.0
  0
POINT
  5
5169
330
46DB
100
AcDbEntity
  8
DEFPOINTS
 62
     0
 48
10.0
100
AcDbPoint
 10
327.638468256273
 20
296.210748836363
 30
0.0
  0
ENDBLK
  5
46E6
330
46DB
100
AcDbEntity
  8
0
 48
10.0
100
AcDbBlockEnd
  0
BLOCK
  5
46F2
330
46E8
100
AcDbEntity
  8
0
 48
10.0
100
AcDbBlockBegin
  2
*D19
 70
     1
 10
0.0
 20
0.0
 30
0.0
  3
*D19
  1

  0
LINE
  5
5158
330
46E8
100
AcDbEntity
  8
寸法線
 62
     0
 48
10.0
100
AcDbLine
 10
302.638468256273
 20
300.468948263984
 30
0.0
 11
302.638468256273
 21
272.675338246297
 31
0.0
  0
LINE
  5
5159
330
46E8
100
AcDbEntity
  8
寸法線
 62
     0
 48
10.0
100
AcDbLine
 10
452.638503829948
 20
346.424519170404
 30
0.0
 11
452.638503829948
 21
272.675338246297
 31
0.0
  0
LINE
  5
515A
330
46E8
100
AcDbEntity
  8
寸法線
 62
     0
 48
10.0
100
AcDbLine
 10
308.638468256273
 20
273.925338246297
 30
0.0
 11
446.638503829948
 21
273.925338246297
 31
0.0
  0
INSERT
  5
515B
330
46E8
100
AcDbEntity
  8
寸法線
 62
     0
100
AcDbBlockReference
  2
_OPEN30
 10
302.638468256273
 20
273.925338246297
 30
0.0
 41
6.0
 42
6.0
 43
6.0
 50
180.0
  0
INSERT
  5
515C
330
46E8
100
AcDbEntity
  8
寸法線
 62
     0
100
AcDbBlockReference
  2
_OPEN30
 10
452.638503829948
 20
273.925338246297
 30
0.0
 41
6.0
 42
6.0
 43
6.0
  0
MTEXT
  5
515D
330
46E8
100
AcDbEntity
  8
寸法線
 62
     0
 48
10.0
100
AcDbMText
 10
377.63848604311
 20
278.550338246297
 30
0.0
 40
8.0
 41
0.0
 71
     5
 72
     1
  1
\A1;150
  0
POINT
  5
515E
330
46E8
100
AcDbEntity
  8
DEFPOINTS
 62
     0
100
AcDbPoint
 10
302.638468256273
 20
301.093948263984
 30
0.0
  0
POINT
  5
515F
330
46E8
100
AcDbEntity
  8
DEFPOINTS
 62
     0
100
AcDbPoint
 10
452.638503829948
 20
347.049519170404
 30
0.0
  0
POINT
  5
5160
330
46E8
100
AcDbEntity
  8
DEFPOINTS
 62
     0
100
AcDbPoint
 10
452.638503829948
 20
273.925338246297
 30
0.0
  0
ENDBLK
  5
46F3
330
46E8
100
AcDbEntity
  8
0
 48
10.0
100
AcDbBlockEnd
  0
BLOCK
  5
4918
330
490E
100
AcDbEntity
  8
0
 48
10.0
100
AcDbBlockBegin
  2
*D20
 70
     1
 10
0.0
 20
0.0
 30
0.0
  3
*D20
  1

  0
LINE
  5
514F
330
490E
100
AcDbEntity
  8
寸法線
 62
     0
 48
10.0
100
AcDbLine
 10
362.638468256273
 20
358.468948263984
 30
0.0
 11
362.638468256273
 21
294.960748836363
 31
0.0
  0
LINE
  5
5150
330
490E
100
AcDbEntity
  8
寸法線
 62
     0
 48
10.0
100
AcDbLine
 10
452.638503829948
 20
346.424519170404
 30
0.0
 11
452.638503829948
 21
294.960748836363
 31
0.0
  0
LINE
  5
5151
330
490E
100
AcDbEntity
  8
寸法線
 62
     0
 48
10.0
100
AcDbLine
 10
368.638468256273
 20
296.210748836363
 30
0.0
 11
446.638503829948
 21
296.210748836363
 31
0.0
  0
INSERT
  5
5152
330
490E
100
AcDbEntity
  8
寸法線
 62
     0
100
AcDbBlockReference
  2
_OPEN30
 10
362.638468256273
 20
296.210748836363
 30
0.0
 41
6.0
 42
6.0
 43
6.0
 50
180.0
  0
INSERT
  5
5153
330
490E
100
AcDbEntity
  8
寸法線
 62
     0
100
AcDbBlockReference
  2
_OPEN30
 10
452.638503829948
 20
296.210748836363
 30
0.0
 41
6.0
 42
6.0
 43
6.0
  0
MTEXT
  5
5154
330
490E
100
AcDbEntity
  8
寸法線
 62
     0
 48
10.0
100
AcDbMText
 10
407.63848604311
 20
300.835748836363
 30
0.0
 40
8.0
 41
0.0
 71
     5
 72
     1
  1
\A1;90
  0
POINT
  5
5155
330
490E
100
AcDbEntity
  8
DEFPOINTS
 62
     0
100
AcDbPoint
 10
362.638468256273
 20
359.093948263984
 30
0.0
  0
POINT
  5
5156
330
490E
100
AcDbEntity
  8
DEFPOINTS
 62
     0
100
AcDbPoint
 10
452.638503829948
 20
347.049519170404
 30
0.0
  0
POINT
  5
5157
330
490E
100
AcDbEntity
  8
DEFPOINTS
 62
     0
100
AcDbPoint
 10
452.638503829948
 20
296.210748836363
 30
0.0
  0
ENDBLK
  5
4919
330
490E
100
AcDbEntity
  8
0
 48
10.0
100
AcDbBlockEnd
  0
BLOCK
  5
4930
330
4926
100
AcDbEntity
  8
0
 48
10.0
100
AcDbBlockBegin
  2
*D21
 70
     1
 10
0.0
 20
0.0
 30
0.0
  3
*D21
  1

  0
LINE
  5
5146
330
4926
100
AcDbEntity
  8
寸法線
 62
     0
 48
10.0
100
AcDbLine
 10
418.386506966404
 20
417.093985375659
 30
0.0
 11
476.625
 21
417.093985375659
 31
0.0
  0
LINE
  5
5147
330
4926
100
AcDbEntity
  8
寸法線
 62
     0
 48
10.0
100
AcDbLine
 10
438.905468256273
 20
332.093948263984
 30
0.0
 11
476.625
 21
332.093948263984
 31
0.0
  0
LINE
  5
5148
330
4926
100
AcDbEntity
  8
寸法線
 62
     0
 48
10.0
100
AcDbLine
 10
475.375
 20
411.093985375659
 30
0.0
 11
475.375
 21
338.093948263984
 31
0.0
  0
INSERT
  5
5149
330
4926
100
AcDbEntity
  8
寸法線
 62
     0
 48
10.0
100
AcDbBlockReference
  2
_OPEN30
 10
475.375
 20
417.093985375659
 30
0.0
 41
6.0
 42
6.0
 43
6.0
 50
90.0
  0
INSERT
  5
514A
330
4926
100
AcDbEntity
  8
寸法線
 62
     0
 48
10.0
100
AcDbBlockReference
  2
_OPEN30
 10
475.375
 20
332.093948263984
 30
0.0
 41
6.0
 42
6.0
 43
6.0
 50
270.0
  0
MTEXT
  5
514B
330
4926
100
AcDbEntity
  8
寸法線
 62
     0
 48
10.0
100
AcDbMText
 10
470.75
 20
374.593966819821
 30
0.0
 40
8.0
 41
0.0
 71
     5
 72
     1
  1
\A1;85
 11
6.123031769111886E-17
 21
1.0
 31
0.0
  0
POINT
  5
514C
330
4926
100
AcDbEntity
  8
DEFPOINTS
 62
     0
 48
10.0
100
AcDbPoint
 10
417.761506966404
 20
417.093985375659
 30
0.0
  0
POINT
  5
514D
330
4926
100
AcDbEntity
  8
DEFPOINTS
 62
     0
 48
10.0
100
AcDbPoint
 10
438.280468256273
 20
332.093948263984
 30
0.0
  0
POINT
  5
514E
330
4926
100
AcDbEntity
  8
DEFPOINTS
 62
     0
 48
10.0
100
AcDbPoint
 10
475.375
 20
332.093948263984
 30
0.0
  0
ENDBLK
  5
4931
330
4926
100
AcDbEntity
  8
0
 48
10.0
100
AcDbBlockEnd
  0
BLOCK
  5
5639
330
5638
100
AcDbEntity
  8
0
100
AcDbBlockBegin
  2
*D76
 70
     1
 10
0.0
 20
0.0
 30
0.0
  3
*D76
  1

  0
LINE
  5
563B
330
5638
100
AcDbEntity
  8
寸法線
 62
     0
 48
10.0
100
AcDbLine
 10
52.013468256273
 20
389.047230934686
 30
0.0
 11
10.706890138817
 21
389.047230934686
 31
0.0
  0
LINE
  5
563C
330
5638
100
AcDbEntity
  8
寸法線
 62
     0
 48
10.0
100
AcDbLine
 10
52.013468256273
 20
367.047230934686
 30
0.0
 11
10.706890138817
 21
367.047230934686
 31
0.0
  0
LINE
  5
563D
330
5638
100
AcDbEntity
  8
寸法線
 62
     0
 48
10.0
100
AcDbLine
 10
11.956890138817
 20
389.047230934686
 30
0.0
 11
11.956890138817
 21
414.270800488492
 31
0.0
  0
LINE
  5
563E
330
5638
100
AcDbEntity
  8
寸法線
 62
     0
 48
10.0
100
AcDbLine
 10
11.956890138817
 20
383.047230934686
 30
0.0
 11
11.956890138817
 21
373.047230934686
 31
0.0
  0
INSERT
  5
563F
330
5638
100
AcDbEntity
  8
寸法線
 62
     0
100
AcDbBlockReference
  2
_OPEN30
 10
11.956890138817
 20
389.047230934686
 30
0.0
 41
6.0
 42
6.0
 43
6.0
 50
90.0
  0
INSERT
  5
5640
330
5638
100
AcDbEntity
  8
寸法線
 62
     0
100
AcDbBlockReference
  2
_OPEN30
 10
11.956890138817
 20
367.047230934686
 30
0.0
 41
6.0
 42
6.0
 43
6.0
 50
270.0
  0
MTEXT
  5
5641
330
5638
100
AcDbEntity
  8
寸法線
 62
     0
 48
10.0
100
AcDbMText
 10
7.323556805484
 20
404.912467155159
 30
0.0
 40
8.0
 41
0.0
 71
     5
 72
     1
  1
\A1;φ22
 11
0.0
 21
1.0
 31
0.0
  0
POINT
  5
5642
330
5638
100
AcDbEntity
  8
DEFPOINTS
 62
     0
100
AcDbPoint
 10
52.638468256273
 20
389.047230934686
 30
0.0
  0
POINT
  5
5643
330
5638
100
AcDbEntity
  8
DEFPOINTS
 62
     0
100
AcDbPoint
 10
52.638468256273
 20
367.047230934686
 30
0.0
  0
POINT
  5
5644
330
5638
100
AcDbEntity
  8
DEFPOINTS
 62
     0
100
AcDbPoint
 10
11.956890138817
 20
367.047230934686
 30
0.0
  0
ENDBLK
  5
563A
330
5638
100
AcDbEntity
  8
0
100
AcDbBlockEnd
  0
BLOCK
  5
5646
330
5645
100
AcDbEntity
  8
0
100
AcDbBlockBegin
  2
*D77
 70
     1
 10
0.0
 20
0.0
 30
0.0
  3
*D77
  1

  0
LINE
  5
5648
330
5645
100
AcDbEntity
  8
寸法線
 62
     0
 48
10.0
100
AcDbLine
 10
53.013468256273
 20
386.593948263984
 30
0.0
 11
26.706890138817
 21
386.593948263984
 31
0.0
  0
LINE
  5
5649
330
5645
100
AcDbEntity
  8
寸法線
 62
     0
 48
10.0
100
AcDbLine
 10
53.013468256273
 20
369.593948263984
 30
0.0
 11
26.706890138817
 21
369.593948263984
 31
0.0
  0
LINE
  5
564A
330
5645
100
AcDbEntity
  8
寸法線
 62
     0
 48
10.0
100
AcDbLine
 10
27.956890138817
 20
386.593948263984
 30
0.0
 11
27.956890138817
 21
409.977281597317
 31
0.0
  0
LINE
  5
564B
330
5645
100
AcDbEntity
  8
寸法線
 62
     0
 48
10.0
100
AcDbLine
 10
27.956890138817
 20
380.593948263984
 30
0.0
 11
27.956890138817
 21
375.593948263984
 31
0.0
  0
INSERT
  5
564C
330
5645
100
AcDbEntity
  8
寸法線
 62
     0
100
AcDbBlockReference
  2
_OPEN30
 10
27.956890138817
 20
386.593948263984
 30
0.0
 41
6.0
 42
6.0
 43
6.0
 50
90.0
  0
INSERT
  5
564D
330
5645
100
AcDbEntity
  8
寸法線
 62
     0
100
AcDbBlockReference
  2
_OPEN30
 10
27.956890138817
 20
369.593948263984
 30
0.0
 41
6.0
 42
6.0
 43
6.0
 50
270.0
  0
MTEXT
  5
564E
330
5645
100
AcDbEntity
  8
寸法線
 62
     0
 48
10.0
100
AcDbMText
 10
23.331890138817
 20
401.418948263984
 30
0.0
 40
8.0
 41
0.0
 71
     5
 72
     1
  1
\A1;φ17
 11
0.0
 21
1.0
 31
0.0
  0
POINT
  5
564F
330
5645
100
AcDbEntity
  8
DEFPOINTS
 62
     0
100
AcDbPoint
 10
53.638468256273
 20
386.593948263984
 30
0.0
  0
POINT
  5
5650
330
5645
100
AcDbEntity
  8
DEFPOINTS
 62
     0
100
AcDbPoint
 10
53.638468256273
 20
369.593948263984
 30
0.0
  0
POINT
  5
5651
330
5645
100
AcDbEntity
  8
DEFPOINTS
 62
     0
100
AcDbPoint
 10
27.956890138817
 20
369.593948263984
 30
0.0
  0
ENDBLK
  5
5647
330
5645
100
AcDbEntity
  8
0
100
AcDbBlockEnd
  0
ENDSEC
  0
SECTION
  2
ENTITIES
  0
LINE
  5
2E01
330
1A
100
AcDbEntity
  8
下書線
100
AcDbLine
 10
486.425452588152
 20
480.189152079461
 30
0.0
 11
5.27939666324
 21
480.189152079461
 31
0.0
  0
MTEXT
  5
3FB2
330
1A
100
AcDbEntity
  8
寸法線
 48
10.0
100
AcDbMText
 10
219.753639127397
 20
480.750199513651
 30
0.0
 40
8.0
 41
0.0
 71
     9
 72
     1
  1
電極部被覆\Pテフロンチューブ
  0
DIMENSION
  5
410D
330
1A
100
AcDbEntity
  8
寸法線
 48
10.0
100
AcDbDimension
  2
*D6
 10
302.638468256273
 20
296.210748836363
 30
0.0
 11
252.638468256273
 21
300.835748836363
 31
0.0
 70
    32
  3
ISO-25
100
AcDbAlignedDimension
 13
202.638468256273
 23
369.622572079334
 33
0.0
 14
302.638468256273
 24
362.344448263984
 34
0.0
100
AcDbRotatedDimension
1001
ACAD
1000
DSTYLE
1002
{
1070
     5
1000
OPEN30
1070
    41
1040
6.0
1070
    47
1040
0.1
1070
    48
1040
0.1
1070
    73
1070
     0
1070
   140
1040
8.0
1070
   271
1070
     1
1070
   272
1070
     1
1070
   341
1005
2AF4
1002
}
  0
DIMENSION
  5
411A
330
1A
100
AcDbEntity
  8
寸法線
 48
10.0
100
AcDbDimension
  2
*D7
 10
202.638468256273
 20
296.210748836363
 30
0.0
 11
177.638468256273
 21
300.835748836363
 31
0.0
 70
    32
  3
ISO-25
100
AcDbAlignedDimension
 13
152.638468256273
 23
369.622572079334
 33
0.0
 14
202.638468256273
 24
369.622572079334
 34
0.0
100
AcDbRotatedDimension
1001
ACAD
1000
DSTYLE
1002
{
1070
     5
1000
OPEN30
1070
    41
1040
6.0
1070
    47
1040
0.1
1070
    48
1040
0.1
1070
    73
1070
     0
1070
   140
1040
8.0
1070
   271
1070
     1
1070
   272
1070
     1
1070
   341
1005
2AF4
1002
}
  0
DIMENSION
  5
4127
330
1A
100
AcDbEntity
  8
寸法線
 48
10.0
100
AcDbDimension
  2
*D8
 10
152.638468256273
 20
296.210748836363
 30
0.0
 11
102.638468256273
 21
300.835748836363
 31
0.0
 70
    32
  3
ISO-25
100
AcDbAlignedDimension
 13
52.638468256273
 23
370.622572079334
 33
0.0
 14
152.638468256273
 24
369.622572079334
 34
0.0
100
AcDbRotatedDimension
1001
ACAD
1000
DSTYLE
1002
{
1070
     5
1000
OPEN30
1070
    41
1040
6.0
1070
    47
1040
0.1
1070
    48
1040
0.1
1070
    73
1070
     0
1070
   140
1040
8.0
1070
   271
1070
     1
1070
   272
1070
     1
1070
   341
1005
2AF4
1002
}
  0
DIMENSION
  5
4134
330
1A
100
AcDbEntity
  8
寸法線
 48
10.0
100
AcDbDimension
  2
*D9
 10
302.638468256273
 20
273.925338246297
 30
0.0
 11
177.638468256273
 21
273.925338246297
 31
0.0
 70
   160
  3
ISO-25
100
AcDbAlignedDimension
 13
52.638468256273
 23
370.622572079334
 33
0.0
 14
302.638468256273
 24
362.344448263984
 34
0.0
100
AcDbRotatedDimension
1001
ACAD
1000
DSTYLE
1002
{
1070
     5
1000
OPEN30
1070
    41
1040
6.0
1070
    47
1040
0.1
1070
    48
1040
0.1
1070
    73
1070
     0
1070
   140
1040
8.0
1070
   271
1070
     1
1070
   272
1070
     1
1070
   341
1005
2AF4
1002
}
  0
LINE
  5
41F7
330
1A
100
AcDbEntity
  8
中心線
 48
10.0
100
AcDbLine
 10
36.754903451303
 20
378.093948263984
 30
0.0
 11
457.73706439321
 21
378.093948263984
 31
0.0
  0
MTEXT
  5
4211
330
1A
100
AcDbEntity
  8
寸法線
 48
10.0
100
AcDbMText
 10
277.665696272789
 20
481.121817184097
 30
0.0
 40
8.0
 41
0.0
 71
     9
 72
     1
  1
\A1;接地電極\PSUS304
  0
MTEXT
  5
4225
330
1A
100
AcDbEntity
  8
寸法線
 48
10.0
100
AcDbMText
 10
48.767185440235
 20
481.121817184097
 30
0.0
 40
8.0
 41
0.0
 71
     9
 72
     1
  1
\A1;検知電極\PSUS304
  0
MTEXT
  5
4227
330
1A
100
AcDbEntity
  8
寸法線
 48
10.0
100
AcDbMText
 10
128.954736246898
 20
481.121817184097
 30
0.0
 40
8.0
 41
0.0
 71
     9
 72
     1
  1
\A1;絶縁体\Pポリアセタール
  0
DIMENSION
  5
46CD
330
1A
100
AcDbEntity
  8
寸法線
 48
10.0
100
AcDbDimension
  2
*D17
 10
362.638468256273
 20
296.210748836363
 30
0.0
 11
345.138468256273
 21
300.835748836363
 31
0.0
 70
    32
  3
ISO-25
100
AcDbAlignedDimension
 13
327.638468256273
 23
359.043625570059
 33
0.0
 14
362.638468256273
 24
357.843948263984
 34
0.0
100
AcDbRotatedDimension
1001
ACAD
1000
DSTYLE
1002
{
1070
     5
1000
OPEN30
1070
    41
1040
6.0
1070
    47
1040
0.1
1070
    48
1040
0.1
1070
    73
1070
     0
1070
   140
1040
8.0
1070
   271
1070
     1
1070
   272
1070
     1
1070
   341
1005
2AF4
1002
}
  0
DIMENSION
  5
46DA
330
1A
100
AcDbEntity
  8
寸法線
 48
10.0
100
AcDbDimension
  2
*D18
 10
327.638468256273
 20
296.210748836363
 30
0.0
 11
315.138468256273
 21
296.210748836363
 31
0.0
 70
   160
  3
ISO-25
100
AcDbAlignedDimension
 13
302.638468256273
 23
301.093948263984
 33
0.0
 14
327.638468256273
 24
359.043625570059
 34
0.0
100
AcDbRotatedDimension
1001
ACAD
1000
DSTYLE
1002
{
1070
     5
1000
OPEN30
1070
    41
1040
6.0
1070
    47
1040
0.1
1070
    48
1040
0.1
1070
    73
1070
     0
1070
   140
1040
8.0
1070
   271
1070
     1
1070
   272
1070
     1
1070
   341
1005
2AF4
1002
}
  0
DIMENSION
  5
46E7
330
1A
100
AcDbEntity
  8
寸法線
 48
10.0
100
AcDbDimension
  2
*D19
 10
452.638503829948
 20
273.925338246297
 30
0.0
 11
377.63848604311
 21
278.550338246297
 31
0.0
 70
    32
  3
ISO-25
100
AcDbAlignedDimension
 13
302.638468256273
 23
301.093948263984
 33
0.0
 14
452.638503829948
 24
347.049519170404
 34
0.0
100
AcDbRotatedDimension
1001
ACAD
1000
DSTYLE
1002
{
1070
     5
1000
OPEN30
1070
    41
1040
6.0
1070
    47
1040
0.1
1070
    48
1040
0.1
1070
    73
1070
     0
1070
   140
1040
8.0
1070
   271
1070
     1
1070
   272
1070
     1
1070
   341
1005
2AF4
1002
}
  0
LEADER
  5
488D
330
1A
100
AcDbEntity
  8
寸法線
 48
10.0
100
AcDbLeader
  3
ISO-25
 76
     3
 10
426.195493853744
 20
329.633808296849
 30
0.0
 10
467.896585897868
 20
296.210748836363
 30
0.0
 10
511.898382491459
 20
296.210748836363
 30
0.0
1001
ACAD
1000
DSTYLE
1002
{
1070
     5
1000
OPEN30
1070
   147
1040
0.625
1070
    77
1070
     0
1070
    41
1040
6.0
1070
    47
1040
0.1
1070
    48
1040
0.1
1070
    73
1070
     0
1070
   140
1040
8.0
1070
   271
1070
     1
1070
   272
1070
     1
1070
   341
1005
2AF4
1070
   342
1005
2AF4
1002
}
  0
LEADER
  5
488F
330
1A
100
AcDbEntity
  8
寸法線
 48
10.0
100
AcDbLeader
  3
ISO-25
 76
     3
 10
402.367183015545
 20
407.141384807856
 30
0.0
 10
424.824721868078
 20
480.188872371449
 30
0.0
 10
437.436919830753
 20
480.188872371449
 30
0.0
1001
ACAD
1000
DSTYLE
1002
{
1070
     5
1000
OPEN30
1070
   147
1040
0.625
1070
    77
1070
     0
1070
    41
1040
6.0
1070
    47
1040
0.1
1070
    48
1040
0.1
1070
    73
1070
     0
1070
   140
1040
8.0
1070
   271
1070
     1
1070
   272
1070
     1
1070
   341
1005
2AF4
1070
   342
1005
2AF4
1002
}
  0
DIMENSION
  5
48A2
330
1A
100
AcDbEntity
  8
寸法線
 48
10.0
100
AcDbDimension
  2
*D20
 10
452.638503829948
 20
296.210748836363
 30
0.0
 11
407.63848604311
 21
300.835748836363
 31
0.0
 70
    32
  3
ISO-25
100
AcDbAlignedDimension
 13
362.638468256273
 23
359.093948263984
 33
0.0
 14
452.638503829948
 24
347.049519170404
 34
0.0
100
AcDbRotatedDimension
1001
ACAD
1000
DSTYLE
1002
{
1070
     5
1000
OPEN30
1070
    41
1040
6.0
1070
    47
1040
0.1
1070
    48
1040
0.1
1070
    73
1070
     0
1070
   140
1040
8.0
1070
   271
1070
     1
1070
   272
1070
     1
1070
   341
1005
2AF4
1002
}
  0
LINE
  5
48A4
330
1A
100
AcDbEntity
  8
寸法線
 48
10.0
100
AcDbLine
 10
-81.122074309261
 20
224.017610919117
 30
0.0
 11
-33.017624374817
 21
224.017610919117
 31
0.0
  0
LINE
  5
48A5
330
1A
100
AcDbEntity
  8
寸法線
 48
10.0
100
AcDbLine
 10
-38.323404268259
 20
186.465242919117
 30
0.0
 11
-35.323344268259
 21
191.265414919117
 31
0.0
  0
LINE
  5
48A6
330
1A
100
AcDbEntity
  8
寸法線
 48
10.0
100
AcDbLine
 10
-77.324258268259
 20
186.465242919117
 30
0.0
 11
-38.323404268259
 21
186.465242919117
 31
0.0
  0
LINE
  5
48A7
330
1A
100
AcDbEntity
  8
寸法線
 48
10.0
100
AcDbLine
 10
-80.32432026826
 20
191.265414919117
 30
0.0
 11
-77.324258268259
 21
186.465242919117
 31
0.0
  0
TEXT
  5
48A8
330
1A
100
AcDbEntity
  8
寸法線
 48
10.0
100
AcDbText
 10
-73.440049274006
 20
226.020607982526
 30
0.0
 40
10.0
  1
端子図
100
AcDbText
  0
TEXT
  5
48A9
330
1A
100
AcDbEntity
  8
寸法線
 48
10.0
100
AcDbText
 10
-80.724941743188
 20
168.247260175914
 30
0.0
 40
10.0
  1
変換器へ
100
AcDbText
  0
TEXT
  5
48AA
330
1A
100
AcDbEntity
  8
寸法線
100
AcDbText
 10
-51.377891708126
 20
192.037105999706
 30
0.0
 40
8.0
  1
E
 41
1.818181818182
 72
     5
 11
-43.377891708126
 21
192.037105999706
 31
0.0
100
AcDbText
  0
TEXT
  5
48AB
330
1A
100
AcDbEntity
  8
寸法線
100
AcDbText
 10
-73.578331708126
 20
192.037105999706
 30
0.0
 40
8.0
  1
P
 41
1.553398058252
 72
     5
 11
-65.578331708126
 21
192.037105999706
 31
0.0
100
AcDbText
  0
CIRCLE
  5
48AC
330
1A
100
AcDbEntity
  8
寸法線
 48
10.0
100
AcDbCircle
 10
-46.723612268259
 20
205.265658919117
 30
0.0
 40
2.0
  0
CIRCLE
  5
48AD
330
1A
100
AcDbEntity
  8
寸法線
 48
10.0
100
AcDbCircle
 10
-68.92405226826
 20
205.265658919117
 30
0.0
 40
2.0
  0
MTEXT
  5
48AE
330
1A
100
AcDbEntity
  8
寸法線
 48
10.0
100
AcDbMText
 10
426.386204988681
 20
481.602169884548
 30
0.0
 40
8.0
 41
0.0
 71
     7
 72
     1
  1
\A1;アルミ鋳物
  0
DIMENSION
  5
48AF
330
1A
100
AcDbEntity
  8
寸法線
 48
10.0
100
AcDbDimension
  2
*D21
 10
475.375
 20
332.093948263984
 30
0.0
 11
475.375
 21
374.593966819821
 31
0.0
 70
   160
  3
ISO-25
100
AcDbAlignedDimension
 13
417.761506966404
 23
417.093985375659
 33
0.0
 14
438.280468256273
 24
332.093948263984
 34
0.0
 50
90.0
100
AcDbRotatedDimension
1001
ACAD
1000
DSTYLE
1002
{
1070
     5
1000
OPEN30
1070
    41
1040
6.0
1070
    47
1040
0.1
1070
    48
1040
0.1
1070
    73
1070
     0
1070
   140
1040
8.0
1070
   271
1070
     1
1070
   272
1070
     1
1070
   341
1005
2AF4
1002
}
  0
LINE
  5
48B0
330
1A
100
AcDbEntity
  8
外形線
 48
10.0
100
AcDbLine
 10
396.780468256273
 20
349.093948263984
 30
0.0
 11
406.280468256273
 21
349.093948263984
 31
0.0
  0
LINE
  5
48B1
330
1A
100
AcDbEntity
  8
外形線
 48
10.0
100
AcDbLine
 10
367.138468256273
 20
360.593948263984
 30
0.0
 11
387.280468256273
 21
360.593948263984
 31
0.0
  0
LINE
  5
48B2
330
1A
100
AcDbEntity
  8
外形線
 48
10.0
100
AcDbLine
 10
367.138468256273
 20
395.593948263984
 30
0.0
 11
387.280468256273
 21
395.593948263984
 31
0.0
  0
LINE
  5
48B3
330
1A
100
AcDbEntity
  8
外形線
 48
10.0
100
AcDbLine
 10
396.780468256273
 20
407.093948263984
 30
0.0
 11
410.321601622723
 21
407.093948263984
 31
0.0
  0
LINE
  5
48B4
330
1A
100
AcDbEntity
  8
外形線
 48
10.0
100
AcDbLine
 10
409.501532364416
 20
413.602161460701
 30
0.0
 11
443.95811674645
 21
344.490744783896
 31
0.0
  0
ARC
  5
48B5
330
1A
100
AcDbEntity
  8
外形線
 48
10.0
100
AcDbCircle
 10
337.01779234723
 20
333.350446641008
 30
0.0
 40
116.880564807258
100
AcDbArc
 50
8.420101953746
 51
45.185262866739
  0
LINE
  5
48B6
330
1A
100
AcDbEntity
  8
外形線
 48
10.0
100
AcDbLine
 10
409.501532364416
 20
413.602161460701
 30
0.0
 11
415.94855521396
 21
416.816528480183
 31
0.0
  0
LINE
  5
48B7
330
1A
100
AcDbEntity
  8
中心線
 48
10.0
100
AcDbLine
 10
423.280468256273
 20
358.093948263984
 30
0.0
 11
423.280468256273
 21
319.082749898394
 31
0.0
  0
LINE
  5
48B8
330
1A
100
AcDbEntity
  8
外形線
100
AcDbLine
 10
439.280468256273
 20
333.093948263984
 30
0.0
 11
439.280468256273
 21
349.093948263984
 31
0.0
  0
LINE
  5
48B9
330
1A
100
AcDbEntity
  8
外形線
100
AcDbLine
 10
451.878766730146
 20
387.174081367047
 30
0.0
 11
454.332854702249
 21
382.251942378236
 31
0.0
  0
LINE
  5
48BA
330
1A
100
AcDbEntity
  8
外形線
100
AcDbLine
 10
448.309184225267
 20
394.333556259864
 30
0.0
 11
445.855096253163
 21
399.255695248675
 31
0.0
  0
LINE
  5
48BB
330
1A
100
AcDbEntity
  8
外形線
100
AcDbLine
 10
445.855096253163
 20
399.255695248675
 30
0.0
 11
436.623135479237
 21
394.652809400524
 31
0.0
  0
LINE
  5
48BC
330
1A
100
AcDbEntity
  8
外形線
100
AcDbLine
 10
439.359840609247
 20
389.871578128766
 30
0.0
 11
448.309184225267
 21
394.333556259864
 31
0.0
  0
LINE
  5
48BD
330
1A
100
AcDbEntity
  8
外形線
100
AcDbLine
 10
442.929423114125
 20
382.712103235949
 30
0.0
 11
451.878766730146
 21
387.174081367047
 31
0.0
  0
LINE
  5
48BE
330
1A
100
AcDbEntity
  8
外形線
100
AcDbLine
 10
454.332854702249
 20
382.251942378236
 30
0.0
 11
445.100893928323
 21
377.649056530086
 31
0.0
  0
LINE
  5
48BF
330
1A
100
AcDbEntity
  8
外形線
100
AcDbLine
 10
443.95811674645
 20
344.490744783896
 30
0.0
 11
451.004116228529
 21
348.003750536015
 31
0.0
  0
ARC
  5
48C0
330
1A
100
AcDbEntity
  8
外形線
100
AcDbCircle
 10
449.6655227892
 20
350.688553620821
 30
0.0
 40
3.0
100
AcDbArc
 50
296.499999999995
 51
7.695516969253
  0
ARC
  5
48C1
330
1A
100
AcDbEntity
  8
外形線
100
AcDbCircle
 10
417.28714865329
 20
414.131725395377
 30
0.0
 40
3.0
100
AcDbArc
 50
45.30448303075
 51
116.499999999995
  0
ARC
  5
48C2
330
1A
100
AcDbEntity
  8
外形線
100
AcDbCircle
 10
396.780468256273
 20
357.093948263984
 30
0.0
 40
8.0
100
AcDbArc
 50
180.0
 51
270.0
  0
ARC
  5
48C3
330
1A
100
AcDbEntity
  8
外形線
100
AcDbCircle
 10
396.780468256273
 20
399.093948263984
 30
0.0
 40
8.0
100
AcDbArc
 50
90.0
 51
180.0
  0
ARC
  5
48C4
330
1A
100
AcDbEntity
  8
外形線
100
AcDbCircle
 10
406.280468256273
 20
348.093948263984
 30
0.0
 40
1.0
100
AcDbArc
 50
0.0
 51
90.0
  0
LINE
  5
48C5
330
1A
100
AcDbEntity
  8
外形線
100
AcDbLine
 10
407.280468256273
 20
333.093948263984
 30
0.0
 11
407.280468256273
 21
348.093948263984
 31
0.0
  0
LINE
  5
48C6
330
1A
100
AcDbEntity
  8
外形線
100
AcDbLine
 10
407.280468256273
 20
333.093948263984
 30
0.0
 11
408.280468256273
 21
332.093948263984
 31
0.0
  0
LINE
  5
48C7
330
1A
100
AcDbEntity
  8
外形線
100
AcDbLine
 10
408.280468256273
 20
332.093948263984
 30
0.0
 11
438.280468256273
 21
332.093948263984
 31
0.0
  0
LINE
  5
48C8
330
1A
100
AcDbEntity
  8
外形線
100
AcDbLine
 10
438.280468256273
 20
332.093948263984
 30
0.0
 11
439.280468256273
 21
333.093948263984
 31
0.0
  0
ARC
  5
48C9
330
1A
100
AcDbEntity
  8
細線
100
AcDbCircle
 10
423.277668664875
 20
319.082749898394
 30
0.0
 40
34.01119848081266
100
AcDbArc
 50
63.82505009863
 51
116.164440091244
  0
LINE
  5
48CA
330
1A
100
AcDbEntity
  8
外形線
100
AcDbLine
 10
439.731301547788
 20
348.189716571052
 30
0.0
 11
409.911901697659
 21
407.998179956915
 31
0.0
  0
LINE
  5
48CB
330
1A
100
AcDbEntity
  8
外形線
100
AcDbLine
 10
411.820124630369
 20
408.94958481523
 30
0.0
 11
441.639524480497
 21
349.141121429367
 31
0.0
  0
LINE
  5
48CC
330
1A
100
AcDbEntity
  8
外形線
100
AcDbLine
 10
409.911901697659
 20
407.998179956915
 30
0.0
 11
411.820124630369
 21
408.94958481523
 31
0.0
  0
LINE
  5
48CD
330
1A
100
AcDbEntity
  8
外形線
100
AcDbLine
 10
439.731301547788
 20
348.189716571052
 30
0.0
 11
441.639524480497
 21
349.141121429367
 31
0.0
  0
ARC
  5
48CE
330
1A
100
AcDbEntity
  8
外形線
100
AcDbCircle
 10
387.280468256273
 20
397.093948263984
 30
0.0
 40
1.5
100
AcDbArc
 50
270.0
 51
0.0
  0
ARC
  5
48CF
330
1A
100
AcDbEntity
  8
外形線
100
AcDbCircle
 10
387.280468256273
 20
359.093948263984
 30
0.0
 40
1.5
100
AcDbArc
 50
0.0
 51
90.0
  0
LINE
  5
48D0
330
1A
100
AcDbEntity
  8
外形線
100
AcDbLine
 10
388.780468256273
 20
399.093948263984
 30
0.0
 11
388.780468256273
 21
357.093948263984
 31
0.0
  0
ARC
  5
48D1
330
1A
100
AcDbEntity
  8
外形線
100
AcDbCircle
 10
367.138468256273
 20
362.093948263984
 30
0.0
 40
1.5
100
AcDbArc
 50
180.0
 51
270.0
  0
ARC
  5
48D2
330
1A
100
AcDbEntity
  8
外形線
100
AcDbCircle
 10
367.138468256273
 20
394.093948263984
 30
0.0
 40
1.5
100
AcDbArc
 50
90.0
 51
180.0
  0
LINE
  5
48D3
330
1A
100
AcDbEntity
  8
外形線
100
AcDbLine
 10
365.638468256273
 20
394.093948263984
 30
0.0
 11
365.638468256273
 21
362.093948263984
 31
0.0
  0
MTEXT
  5
48D4
330
1A
100
AcDbEntity
  8
寸法線
 48
10.0
100
AcDbMText
 10
470.137623204106
 20
298.061050503906
 30
0.0
 40
8.0
 41
0.0
 71
     7
 72
     1
  1
導線取出口\PG 1/2"
  0
TEXT
  5
48D5
330
1A
100
AcDbEntity
  8
寸法線
100
AcDbText
 10
414.77213382518
 20
512.737865402922
 30
0.0
 40
8.0
  1
塗装色：10YR7.5/14
100
AcDbText
  0
LWPOLYLINE
  5
4900
330
1A
100
AcDbEntity
  8
外形線
100
AcDbPolyline
 90
        4
 70
     1
 43
0.0
 10
362.638468256273
 20
359.093948263984
 10
365.638468256273
 20
359.093948263984
 10
365.638468256273
 20
397.093948263984
 10
362.638468256273
 20
397.093948263984
  0
LEADER
  5
4A23
330
1A
100
AcDbEntity
  8
寸法線
 48
10.0
100
AcDbLeader
  3
ISO-25
 76
     3
 10
159.168373847398
 20
382.682693981041
 30
0.0
 10
131.216448881926
 20
480.189152079461
 30
0.0
 10
115.640739768698
 20
480.189152079461
 30
0.0
213
-5.684341886080801E-14
223
-0.06375711999010036
233
0.0
1001
ACAD
1000
DSTYLE
1002
{
1070
     5
1000
DOTSMALL
1070
   147
1040
0.625
1070
    77
1070
     0
1070
    41
1040
6.0
1070
    47
1040
0.1
1070
    48
1040
0.1
1070
    73
1070
     0
1070
   140
1040
8.0
1070
   271
1070
     1
1070
   272
1070
     1
1070
   341
1005
4212
1070
   342
1005
2AF4
1002
}
  0
LEADER
  5
4A24
330
1A
100
AcDbEntity
  8
寸法線
 48
10.0
100
AcDbLeader
  3
ISO-25
 76
     3
 10
235.1684576849
 20
389.415212472243
 30
0.0
 10
221.479333528432
 20
480.189152079461
 30
0.0
 10
208.023581239277
 20
480.189152079461
 30
0.0
213
-0.4828560215943867
223
0.08841557559014745
233
0.0
1001
ACAD
1000
DSTYLE
1002
{
1070
     5
1000
OPEN30
1070
   147
1040
0.625
1070
    77
1070
     0
1070
    41
1040
6.0
1070
    47
1040
0.1
1070
    48
1040
0.1
1070
    73
1070
     0
1070
   140
1040
8.0
1070
   271
1070
     1
1070
   272
1070
     1
1070
   341
1005
2AF4
1070
   342
1005
2AF4
1002
}
  0
LEADER
  5
4A25
330
1A
100
AcDbEntity
  8
寸法線
 48
10.0
100
AcDbLeader
  3
ISO-25
 76
     3
 10
79.192596684624
 20
382.696136825532
 30
0.0
 10
50.042071470991
 20
480.189152079461
 30
0.0
 10
38.574201846318
 20
480.189152079461
 30
0.0
213
0.0
223
0.1981569574292052
233
0.0
1001
ACAD
1000
DSTYLE
1002
{
1070
     5
1000
DOTSMALL
1070
   147
1040
0.625
1070
    77
1070
     0
1070
    41
1040
6.0
1070
    47
1040
0.1
1070
    48
1040
0.1
1070
    73
1070
     0
1070
   140
1040
8.0
1070
   271
1070
     1
1070
   272
1070
     1
1070
   341
1005
4212
1070
   342
1005
2AF4
1002
}
  0
LEADER
  5
4A26
330
1A
100
AcDbEntity
  8
寸法線
 48
10.0
100
AcDbLeader
  3
ISO-25
 76
     3
 10
287.245910628366
 20
382.975322579259
 30
0.0
 10
277.845793377857
 20
480.186845955026
 30
0.0
 10
267.399972601669
 20
480.186845955026
 30
0.0
1001
ACAD
1000
DSTYLE
1002
{
1070
     5
1000
DOTSMALL
1070
   147
1040
0.625
1070
    77
1070
     0
1070
    41
1040
6.0
1070
    47
1040
0.1
1070
    48
1040
0.1
1070
    73
1070
     0
1070
   140
1040
8.0
1070
   271
1070
     1
1070
   272
1070
     1
1070
   341
1005
4212
1070
   342
1005
2AF4
1002
}
  0
MTEXT
  5
5023
330
1A
100
AcDbEntity
  8
寸法線
 48
10.0
100
AcDbMText
 10
322.874081585078
 20
481.245852685103
 30
0.0
 40
8.0
 41
0.0
 71
     7
 72
     1
  1
取付ねじR1"\PSUS304
  0
LWPOLYLINE
  5
5027
330
1A
100
AcDbEntity
  8
外形線
100
AcDbPolyline
 90
        4
 70
     1
 43
0.0
 10
362.638468256273
 20
359.093258495712
 10
365.638468256273
 20
359.093258495712
 10
365.638468256273
 20
397.093258495712
 10
362.638468256273
 20
397.093258495712
  0
LINE
  5
5028
330
1A
100
AcDbEntity
  8
細線
 48
10.0
100
AcDbLine
 10
354.038468256273
 20
389.063258495712
 30
0.0
 11
360.638468256273
 21
389.063258495712
 31
0.0
  0
LINE
  5
5029
330
1A
100
AcDbEntity
  8
細線
 48
10.0
100
AcDbLine
 10
354.038468256273
 20
367.123258495712
 30
0.0
 11
360.638468256273
 21
367.123258495712
 31
0.0
  0
ARC
  5
502A
330
1A
100
AcDbEntity
  8
細線
 48
10.0
100
AcDbCircle
 10
383.123693256272
 20
378.093258495712
 30
0.0
 40
31.08522499999937
100
AcDbArc
 50
159.335157523596
 51
200.664842476404
  0
ARC
  5
502B
330
1A
100
AcDbEntity
  8
細線
 48
10.0
100
AcDbCircle
 10
331.553243256273
 20
378.093258495712
 30
0.0
 40
31.08522499999937
100
AcDbArc
 50
339.335157523596
 51
20.664842476404
  0
LWPOLYLINE
  5
502C
330
1A
100
AcDbEntity
  8
外形線
 48
10.0
100
AcDbPolyline
 90
        4
 70
     1
 43
0.0
 10
347.638468256273
 20
392.093258495712
 10
352.038468256273
 20
392.093258495712
 10
352.038468256273
 20
364.093258495712
 10
347.638468256273
 20
364.093258495712
  0
LINE
  5
502D
330
1A
100
AcDbEntity
  8
細線
100
AcDbLine
 10
330.638468256273
 20
389.063258495712
 30
0.0
 11
344.638468256273
 21
389.063258495712
 31
0.0
  0
LINE
  5
502E
330
1A
100
AcDbEntity
  8
細線
100
AcDbLine
 10
330.638468256273
 20
367.123258495712
 30
0.0
 11
344.638468256273
 21
367.123258495712
 31
0.0
  0
LINE
  5
502F
330
1A
100
AcDbEntity
  8
外形線
100
AcDbLine
 10
302.638468256273
 20
362.344448263984
 30
0.0
 11
327.638468256273
 21
360.781948263984
 31
0.0
  0
LINE
  5
5030
330
1A
100
AcDbEntity
  8
細線
100
AcDbLine
 10
302.638468256273
 20
363.823448263984
 30
0.0
 11
327.638468256273
 21
362.260948263984
 31
0.0
  0
LINE
  5
5031
330
1A
100
AcDbEntity
  8
細線
100
AcDbLine
 10
302.638468256273
 20
392.364448263984
 30
0.0
 11
327.638468256273
 21
393.926948263984
 31
0.0
  0
LINE
  5
5032
330
1A
100
AcDbEntity
  8
外形線
100
AcDbLine
 10
302.638468256273
 20
393.843448263984
 30
0.0
 11
302.638468256273
 21
362.344448263984
 31
0.0
  0
LINE
  5
5033
330
1A
100
AcDbEntity
  8
外形線
100
AcDbLine
 10
302.638468256273
 20
393.843448263984
 30
0.0
 11
327.638468256273
 21
395.405948263984
 31
0.0
  0
ARC
  5
5034
330
1A
100
AcDbEntity
  8
細線
 48
10.0
100
AcDbCircle
 10
349.195284843643
 20
378.093258495712
 30
0.0
 40
21.5568165984052
100
AcDbArc
 50
149.410227986312
 51
210.589772013688
  0
ARC
  5
5035
330
1A
100
AcDbEntity
  8
細線
 48
10.0
100
AcDbCircle
 10
326.081651668904
 20
378.093258495712
 30
0.0
 40
21.55681659840436
100
AcDbArc
 50
329.410227986312
 51
30.589772013688
  0
LINE
  5
5036
330
1A
100
AcDbEntity
  8
外形線
 48
10.0
100
AcDbLine
 10
330.638468256273
 20
400.033258495712
 30
0.0
 11
344.638468256273
 21
400.033258495712
 31
0.0
  0
LINE
  5
5037
330
1A
100
AcDbEntity
  8
外形線
 48
10.0
100
AcDbLine
 10
330.638468256273
 20
356.154638037301
 30
0.0
 11
344.638468256273
 21
356.154638037301
 31
0.0
  0
ARC
  5
5038
330
1A
100
AcDbEntity
  8
細線
 48
10.0
100
AcDbCircle
 10
348.928994159277
 20
400.471689081535
 30
0.0
 40
21.5568
100
AcDbArc
 50
189.014839552023
 51
211.953209848842
  0
ARC
  5
5039
330
1A
100
AcDbEntity
  8
外形線
 48
10.0
100
AcDbCircle
 10
344.153128233609
 20
383.23892635844
 30
0.0
 40
21.5568
100
AcDbArc
 50
128.824173789176
 51
140.004933775735
  0
ARC
  5
503A
330
1A
100
AcDbEntity
  8
外形線
 48
10.0
100
AcDbCircle
 10
331.123808278937
 20
383.23892635844
 30
0.0
 40
21.5568
100
AcDbArc
 50
39.995066224265
 51
51.175826210824
  0
ARC
  5
503B
330
1A
100
AcDbEntity
  8
細線
 48
10.0
100
AcDbCircle
 10
326.347942353269
 20
400.471689081535
 30
0.0
 40
21.5568
100
AcDbArc
 50
328.046790151158
 51
350.985160447977
  0
ARC
  5
503C
330
1A
100
AcDbEntity
  8
外形線
 48
10.0
100
AcDbCircle
 10
344.153128233609
 20
372.947590632984
 30
0.0
 40
21.5568
100
AcDbArc
 50
219.995066224258
 51
231.175826210816
  0
ARC
  5
503D
330
1A
100
AcDbEntity
  8
外形線
 48
10.0
100
AcDbCircle
 10
331.123808278937
 20
372.947590632984
 30
0.0
 40
21.5568
100
AcDbArc
 50
308.824173789176
 51
320.004933775735
  0
ARC
  5
503E
330
1A
100
AcDbEntity
  8
細線
 48
10.0
100
AcDbCircle
 10
326.347942353269
 20
355.714827909889
 30
0.0
 40
21.5568
100
AcDbArc
 50
9.014839552023
 51
31.953209848834
  0
ARC
  5
503F
330
1A
100
AcDbEntity
  8
細線
 48
10.0
100
AcDbCircle
 10
348.928994159277
 20
355.714827909889
 30
0.0
 40
21.5568
100
AcDbArc
 50
148.046790151158
 51
170.985160447971
  0
LINE
  5
5040
330
1A
100
AcDbEntity
  8
外形線
 48
10.0
100
AcDbLine
 10
327.638468256273
 20
397.093948266506
 30
0.0
 11
327.638468256273
 21
359.092568724918
 31
0.0
  0
LINE
  5
5041
330
1A
100
AcDbEntity
  8
外形線
 48
10.0
100
AcDbLine
 10
347.638468256273
 20
397.093948266506
 30
0.0
 11
347.638468256273
 21
359.092568724918
 31
0.0
  0
ARC
  5
5042
330
1A
100
AcDbEntity
  8
細線
 48
10.0
100
AcDbCircle
 10
389.939329444316
 20
401.775875260047
 30
0.0
 40
38.0852
100
AcDbArc
 50
185.63953412921
 51
199.499227192461
  0
ARC
  5
5043
330
1A
100
AcDbEntity
  8
外形線
 48
10.0
100
AcDbCircle
 10
379.950198589344
 20
372.121528162639
 30
0.0
 40
38.0852
100
AcDbArc
 50
132.871952856858
 51
137.128047143137
  0
ARC
  5
5044
330
1A
100
AcDbEntity
  8
細線
 48
10.0
100
AcDbCircle
 10
324.73760706823
 20
401.775875260047
 30
0.0
 40
38.0852
100
AcDbArc
 50
340.500772807539
 51
354.360465870783
  0
ARC
  5
5045
330
1A
100
AcDbEntity
  8
外形線
 48
10.0
100
AcDbCircle
 10
334.726737923201
 20
372.121528162639
 30
0.0
 40
38.0852
100
AcDbArc
 50
42.871952856863
 51
47.128047143142
  0
LINE
  5
5046
330
1A
100
AcDbEntity
  8
外形線
 48
10.0
100
AcDbLine
 10
354.038468256273
 20
400.033258495712
 30
0.0
 11
360.638468256273
 21
400.033258495712
 31
0.0
  0
ARC
  5
5047
330
1A
100
AcDbEntity
  8
外形線
 48
10.0
100
AcDbCircle
 10
379.950198589344
 20
384.064988828785
 30
0.0
 40
38.0852
100
AcDbArc
 50
222.871952856863
 51
227.128047143142
  0
ARC
  5
5048
330
1A
100
AcDbEntity
  8
外形線
 48
10.0
100
AcDbCircle
 10
334.726737923201
 20
384.064988828785
 30
0.0
 40
38.0852
100
AcDbArc
 50
312.871952856858
 51
317.128047143137
  0
LINE
  5
5049
330
1A
100
AcDbEntity
  8
外形線
 48
10.0
100
AcDbLine
 10
354.038468256273
 20
356.153258495712
 30
0.0
 11
360.638468256273
 21
356.153258495712
 31
0.0
  0
ARC
  5
504A
330
1A
100
AcDbEntity
  8
細線
 48
10.0
100
AcDbCircle
 10
389.939329444316
 20
354.410641731376
 30
0.0
 40
38.0852
100
AcDbArc
 50
160.500772807539
 51
174.360465870783
  0
ARC
  5
504B
330
1A
100
AcDbEntity
  8
細線
 48
10.0
100
AcDbCircle
 10
324.73760706823
 20
354.410641731376
 30
0.0
 40
38.0852
100
AcDbArc
 50
5.639534129217
 51
19.499227192461
  0
LINE
  5
504C
330
1A
100
AcDbEntity
  8
外形線
 48
10.0
100
AcDbLine
 10
352.038468256273
 20
398.033258495712
 30
0.0
 11
352.038468256273
 21
358.153258495712
 31
0.0
  0
LINE
  5
504D
330
1A
100
AcDbEntity
  8
外形線
 48
10.0
100
AcDbLine
 10
362.638468256273
 20
398.033258495712
 30
0.0
 11
362.638468256273
 21
358.153258495712
 31
0.0
  0
LEADER
  5
50C5
330
1A
100
AcDbEntity
  8
寸法線
 48
10.0
100
AcDbLeader
  3
ISO-25
 76
     3
 10
315.138468256273
 20
394.624698263984
 30
0.0
 10
321.147734954816
 20
480.189152079461
 30
0.0
 10
334.229764636901
 20
480.189152079461
 30
0.0
1001
ACAD
1000
DSTYLE
1002
{
1070
     5
1000
OPEN30
1070
   147
1040
0.625
1070
    77
1070
     0
1070
    41
1040
6.0
1070
    47
1040
0.1
1070
    48
1040
0.1
1070
    73
1070
     0
1070
   140
1040
8.0
1070
   271
1070
     1
1070
   272
1070
     1
1070
   341
1005
2AF4
1070
   342
1005
2AF4
1002
}
  0
LINE
  5
55EE
330
1A
100
AcDbEntity
  8
外形線
100
AcDbLine
 10
302.638468256273
 20
393.890165593281
 30
0.0
 11
302.638468256273
 21
362.391165593281
 31
0.0
  0
LWPOLYLINE
  5
55EF
330
1A
100
AcDbEntity
  8
隠れ線
 48
10.0
100
AcDbPolyline
 90
        6
 70
     0
 43
0.0
 10
162.534699478384
 20
369.593948263984
 10
153.138468256273
 20
369.593948263984
 10
152.638468256273
 20
370.093948263984
 10
152.638468256273
 20
386.093948263984
 10
153.138468256273
 20
386.593948263984
 10
160.859747115375
 20
386.593948263984
  0
LINE
  5
55F0
330
1A
100
AcDbEntity
  8
外形線
 48
10.0
100
AcDbLine
 10
192.806081887443
 20
367.093948263984
 30
0.0
 11
237.375335687674
 21
367.093948263984
 31
0.0
  0
LINE
  5
55F1
330
1A
100
AcDbEntity
  8
外形線
 48
10.0
100
AcDbLine
 10
161.697223313068
 20
389.093948263984
 30
0.0
 11
119.949320425152
 21
389.093948263984
 31
0.0
  0
LWPOLYLINE
  5
55F2
330
1A
100
AcDbEntity
  8
隠れ線
 48
10.0
100
AcDbPolyline
 90
        4
 70
     0
 43
0.0
 10
120.786796590468
 20
369.593948263984
 10
152.638468256273
 20
369.593948263984
 10
152.638468256273
 20
386.593948263984
 10
119.111844227459
 20
386.593948263984
  0
LINE
  5
55F3
330
1A
100
AcDbEntity
  8
外形線
 48
10.0
100
AcDbLine
 10
119.949320425152
 20
367.093948263984
 30
0.0
 11
161.697223313068
 21
367.093948263984
 31
0.0
  0
ARC
  5
55F4
330
1A
100
AcDbEntity
  8
外形線
 48
10.0
100
AcDbCircle
 10
52.638468256273
 20
378.047230934686
 30
0.0
 40
11.0
100
AcDbArc
 50
180.0
 51
270.0
  0
LINE
  5
55F5
330
1A
100
AcDbEntity
  8
外形線
 48
10.0
100
AcDbLine
 10
32.638468256273
 20
378.093948263984
 30
0.0
 11
32.638468256273
 21
378.093948263984
 31
0.0
  0
ARC
  5
55F6
330
1A
100
AcDbEntity
  8
外形線
 48
10.0
100
AcDbCircle
 10
52.638468256273
 20
378.047230934686
 30
0.0
 40
11.0
100
AcDbArc
 50
90.0
 51
180.0
  0
LINE
  5
55F7
330
1A
100
AcDbEntity
  8
外形線
 48
10.0
100
AcDbLine
 10
237.375335687674
 20
389.093948263984
 30
0.0
 11
192.806081887443
 21
389.093948263984
 31
0.0
  0
ARC
  5
55F8
330
1A
100
AcDbEntity
  8
細線
 48
10.0
100
AcDbCircle
 10
205.07544445353
 20
372.593948263984
 30
0.0
 40
13.44571522002898
100
AcDbArc
 50
192.892317105158
 51
204.145312225804
  0
ARC
  5
55F9
330
1A
100
AcDbEntity
  8
細線
 48
10.0
100
AcDbCircle
 10
149.429031452493
 20
383.593947788201
 30
0.0
 40
13.44464714157577
100
AcDbArc
 50
12.893361030079
 51
24.147354872351
  0
ARC
  5
55FA
330
1A
100
AcDbEntity
  8
細線
 48
10.0
100
AcDbCircle
 10
188.588104669382
 20
373.843948263984
 30
0.0
 40
9.409426936313128
100
AcDbArc
 50
153.148818773033
 51
206.851181226967
  0
ARC
  5
55FB
330
1A
100
AcDbEntity
  8
細線
 48
10.0
100
AcDbCircle
 10
165.915200531122
 20
373.843948263984
 30
0.0
 40
9.409426936319111
100
AcDbArc
 50
333.148818773055
 51
26.851181226945
  0
ARC
  5
55FC
330
1A
100
AcDbEntity
  8
細線
 48
10.0
100
AcDbCircle
 10
171.798248771264
 20
373.843948263984
 30
0.0
 40
9.409426936320505
100
AcDbArc
 50
333.148818773055
 51
26.851181226945
  0
ARC
  5
55FD
330
1A
100
AcDbEntity
  8
細線
 48
10.0
100
AcDbCircle
 10
180.537890849522
 20
372.5939485638
 30
0.0
 40
13.44464631892182
100
AcDbArc
 50
335.852644377744
 51
24.147351999997
  0
ARC
  5
55FE
330
1A
100
AcDbEntity
  8
細線
 48
10.0
100
AcDbCircle
 10
149.429032275146
 20
372.5939485638
 30
0.0
 40
13.44464631892319
100
AcDbArc
 50
335.852644377744
 51
24.147351999997
  0
ARC
  5
55FF
330
1A
100
AcDbEntity
  8
細線
 48
10.0
100
AcDbCircle
 10
182.705056429239
 20
382.343948263984
 30
0.0
 40
9.409426936313837
100
AcDbArc
 50
153.148818773033
 51
206.851181226967
  0
ARC
  5
5600
330
1A
100
AcDbEntity
  8
細線
 48
10.0
100
AcDbCircle
 10
165.915200531122
 20
382.343948263984
 30
0.0
 40
9.409426936319138
100
AcDbArc
 50
333.148818773055
 51
26.851181226945
  0
ARC
  5
5601
330
1A
100
AcDbEntity
  8
細線
 48
10.0
100
AcDbCircle
 10
188.588104669381
 20
382.343948263984
 30
0.0
 40
9.409426936312773
100
AcDbArc
 50
153.148818773033
 51
206.851181226967
  0
ARC
  5
5602
330
1A
100
AcDbEntity
  8
細線
 48
10.0
100
AcDbCircle
 10
173.965412949326
 20
383.593948263984
 30
0.0
 40
13.44464491725928
100
AcDbArc
 50
155.852643100039
 51
204.147356899961
  0
ARC
  5
5603
330
1A
100
AcDbEntity
  8
細線
 48
10.0
100
AcDbCircle
 10
205.074271523702
 20
383.593948263984
 30
0.0
 40
13.44464491726098
100
AcDbArc
 50
155.852643100039
 51
204.147356899961
  0
ARC
  5
5604
330
1A
100
AcDbEntity
  8
細線
 48
10.0
100
AcDbCircle
 10
132.217510061412
 20
383.593948263984
 30
0.0
 40
13.44464491726098
100
AcDbArc
 50
155.852643100039
 51
204.147356899961
  0
ARC
  5
5605
330
1A
100
AcDbEntity
  8
細線
 48
10.0
100
AcDbCircle
 10
100.999448308943
 20
383.570589599335
 30
0.0
 40
13.33546219693629
100
AcDbArc
 50
155.752282605285
 51
204.247717394713
  0
ARC
  5
5606
330
1A
100
AcDbEntity
  8
細線
 48
10.0
100
AcDbCircle
 10
115.731343207091
 20
382.343948263984
 30
0.0
 40
9.409426936312773
100
AcDbArc
 50
153.148818773033
 51
206.851181226967
  0
ARC
  5
5607
330
1A
100
AcDbEntity
  8
細線
 48
10.0
100
AcDbCircle
 10
93.058439068832
 20
382.343948263984
 30
0.0
 40
9.409426936319138
100
AcDbArc
 50
333.148818773055
 51
26.851181226945
  0
ARC
  5
5608
330
1A
100
AcDbEntity
  8
細線
 48
10.0
100
AcDbCircle
 10
109.848294966948
 20
382.343948263984
 30
0.0
 40
9.409426936313837
100
AcDbArc
 50
153.148818773033
 51
206.851181226967
  0
ARC
  5
5609
330
1A
100
AcDbEntity
  8
細線
 48
10.0
100
AcDbCircle
 10
76.4630676119
 20
372.570589900949
 30
0.0
 40
13.55386964725521
100
AcDbArc
 50
335.951387681257
 51
24.048608711802
  0
ARC
  5
560A
330
1A
100
AcDbEntity
  8
細線
 48
10.0
100
AcDbCircle
 10
107.681129387231
 20
372.5939485638
 30
0.0
 40
13.44464631892182
100
AcDbArc
 50
335.852644377744
 51
24.147351999997
  0
ARC
  5
560B
330
1A
100
AcDbEntity
  8
細線
 48
10.0
100
AcDbCircle
 10
98.941487308974
 20
373.843948263984
 30
0.0
 40
9.409426936320505
100
AcDbArc
 50
333.148818773055
 51
26.851181226945
  0
ARC
  5
560C
330
1A
100
AcDbEntity
  8
細線
 48
10.0
100
AcDbCircle
 10
93.058439068832
 20
373.843948263984
 30
0.0
 40
9.409426936319111
100
AcDbArc
 50
333.148818773055
 51
26.851181226945
  0
ARC
  5
560D
330
1A
100
AcDbEntity
  8
細線
 48
10.0
100
AcDbCircle
 10
115.731343207091
 20
373.843948263984
 30
0.0
 40
9.409426936313128
100
AcDbArc
 50
153.148818773033
 51
206.851181226967
  0
ARC
  5
560E
330
1A
100
AcDbEntity
  8
細線
 48
10.0
100
AcDbCircle
 10
78.306021000569
 20
384.081507191846
 30
0.0
 40
11.64615199612067
100
AcDbArc
 50
12.458442464368
 51
25.238247931289
  0
ARC
  5
560F
330
1A
100
AcDbEntity
  8
細線
 48
10.0
100
AcDbCircle
 10
132.21868299124
 20
372.593948263984
 30
0.0
 40
13.44571522002898
100
AcDbArc
 50
192.892317105158
 51
204.145312225804
  0
LINE
  5
5610
330
1A
100
AcDbEntity
  8
隠れ線
 48
10.0
100
AcDbLine
 10
269.321670427365
 20
369.593948263984
 30
0.0
 11
302.638468256273
 21
369.593948263984
 31
0.0
  0
LINE
  5
5611
330
1A
100
AcDbEntity
  8
隠れ線
 48
10.0
100
AcDbLine
 10
267.646718064356
 20
386.593948263984
 30
0.0
 11
302.638468256273
 21
386.593948263984
 31
0.0
  0
LINE
  5
5612
330
1A
100
AcDbEntity
  8
外形線
 48
10.0
100
AcDbLine
 10
268.484194262048
 20
367.093948263984
 30
0.0
 11
302.638468256273
 21
367.093948263984
 31
0.0
  0
LINE
  5
5613
330
1A
100
AcDbEntity
  8
外形線
 48
10.0
100
AcDbLine
 10
268.484194262049
 20
389.093948263984
 30
0.0
 11
302.638468256273
 21
389.093948263984
 31
0.0
  0
ARC
  5
5614
330
1A
100
AcDbEntity
  8
細線
 48
10.0
100
AcDbCircle
 10
280.753556828136
 20
372.593948263984
 30
0.0
 40
13.44571522002898
100
AcDbArc
 50
192.892317105158
 51
204.145312225804
  0
ARC
  5
5615
330
1A
100
AcDbEntity
  8
細線
 48
10.0
100
AcDbCircle
 10
225.107143827099
 20
383.593947788201
 30
0.0
 40
13.44464714157577
100
AcDbArc
 50
12.893361030079
 51
24.147354872351
  0
ARC
  5
5616
330
1A
100
AcDbEntity
  8
細線
 48
10.0
100
AcDbCircle
 10
264.266217043988
 20
373.843948263984
 30
0.0
 40
9.409426936313128
100
AcDbArc
 50
153.148818773033
 51
206.851181226967
  0
ARC
  5
5617
330
1A
100
AcDbEntity
  8
細線
 48
10.0
100
AcDbCircle
 10
241.593312905728
 20
373.843948263984
 30
0.0
 40
9.409426936319111
100
AcDbArc
 50
333.148818773055
 51
26.851181226945
  0
ARC
  5
5618
330
1A
100
AcDbEntity
  8
細線
 48
10.0
100
AcDbCircle
 10
247.47636114587
 20
373.843948263984
 30
0.0
 40
9.409426936320505
100
AcDbArc
 50
333.148818773055
 51
26.851181226945
  0
ARC
  5
5619
330
1A
100
AcDbEntity
  8
細線
 48
10.0
100
AcDbCircle
 10
256.216003224128
 20
372.5939485638
 30
0.0
 40
13.44464631892182
100
AcDbArc
 50
335.852644377744
 51
24.147351999997
  0
ARC
  5
561A
330
1A
100
AcDbEntity
  8
細線
 48
10.0
100
AcDbCircle
 10
225.107144649752
 20
372.5939485638
 30
0.0
 40
13.44464631892319
100
AcDbArc
 50
335.852644377744
 51
24.147351999997
  0
ARC
  5
561B
330
1A
100
AcDbEntity
  8
細線
 48
10.0
100
AcDbCircle
 10
258.383168803845
 20
382.343948263984
 30
0.0
 40
9.409426936313837
100
AcDbArc
 50
153.148818773033
 51
206.851181226967
  0
ARC
  5
561C
330
1A
100
AcDbEntity
  8
細線
 48
10.0
100
AcDbCircle
 10
241.593312905728
 20
382.343948263984
 30
0.0
 40
9.409426936319138
100
AcDbArc
 50
333.148818773055
 51
26.851181226945
  0
ARC
  5
561D
330
1A
100
AcDbEntity
  8
細線
 48
10.0
100
AcDbCircle
 10
264.266217043987
 20
382.343948263984
 30
0.0
 40
9.409426936312773
100
AcDbArc
 50
153.148818773033
 51
206.851181226967
  0
ARC
  5
561E
330
1A
100
AcDbEntity
  8
細線
 48
10.0
100
AcDbCircle
 10
249.643525323932
 20
383.593948263984
 30
0.0
 40
13.44464491725928
100
AcDbArc
 50
155.852643100039
 51
204.147356899961
  0
ARC
  5
561F
330
1A
100
AcDbEntity
  8
細線
 48
10.0
100
AcDbCircle
 10
280.752383898308
 20
383.593948263984
 30
0.0
 40
13.44464491726098
100
AcDbArc
 50
155.85264310004
 51
204.14735689996
  0
LINE
  5
5620
330
1A
100
AcDbEntity
  8
隠れ線
 48
10.0
100
AcDbLine
 10
203.138468256273
 20
369.593948263984
 30
0.0
 11
238.21281185299
 21
369.593948263984
 31
0.0
  0
LINE
  5
5621
330
1A
100
AcDbEntity
  8
隠れ線
 48
10.0
100
AcDbLine
 10
203.138468256273
 20
386.593948263984
 30
0.0
 11
236.537859489981
 21
386.593948263984
 31
0.0
  0
LINE
  5
5622
330
1A
100
AcDbEntity
  8
隠れ線
 48
10.0
100
AcDbLine
 10
302.638468256273
 20
386.593948263984
 30
0.0
 11
302.638468256273
 21
369.593948263984
 31
0.0
  0
LINE
  5
5623
330
1A
100
AcDbEntity
  8
隠れ線
 48
10.0
100
AcDbLine
 10
202.638468256273
 20
370.093948263984
 30
0.0
 11
203.138468256273
 21
369.593948263984
 31
0.0
  0
LINE
  5
5624
330
1A
100
AcDbEntity
  8
隠れ線
 48
10.0
100
AcDbLine
 10
202.638468256273
 20
386.093948263984
 30
0.0
 11
202.638468256273
 21
370.093948263984
 31
0.0
  0
LINE
  5
5625
330
1A
100
AcDbEntity
  8
隠れ線
 48
10.0
100
AcDbLine
 10
203.138468256273
 20
386.593948263984
 30
0.0
 11
202.638468256273
 21
386.093948263984
 31
0.0
  0
DIMENSION
  5
5626
330
1A
100
AcDbEntity
  8
寸法線
 48
10.0
100
AcDbDimension
  2
*D76
 10
11.956890138817
 20
367.047230934686
 30
0.0
 11
11.956890138817
 21
404.912467155159
 31
0.0
 70
   160
  1
φ<>
  3
ISO-25
100
AcDbAlignedDimension
 13
52.638468256273
 23
389.047230934686
 33
0.0
 14
52.638468256273
 24
367.047230934686
 34
0.0
 50
90.0
100
AcDbRotatedDimension
1001
ACAD
1000
DSTYLE
1002
{
1070
     5
1000
OPEN30
1070
    41
1040
6.0
1070
    47
1040
0.1
1070
    48
1040
0.1
1070
    73
1070
     0
1070
   140
1040
8.0
1070
   271
1070
     1
1070
   272
1070
     1
1070
   341
1005
2AF4
1002
}
  0
DIMENSION
  5
5627
330
1A
100
AcDbEntity
  8
寸法線
 48
10.0
100
AcDbDimension
  2
*D77
 10
27.956890138817
 20
369.593948263984
 30
0.0
 11
27.956890138817
 21
401.418948263984
 31
0.0
 70
   160
  1
φ<>
  3
ISO-25
100
AcDbAlignedDimension
 13
53.638468256273
 23
386.593948263984
 33
0.0
 14
53.638468256273
 24
369.593948263984
 34
0.0
 50
90.0
100
AcDbRotatedDimension
1001
ACAD
1000
DSTYLE
1002
{
1070
     5
1000
OPEN30
1070
    41
1040
6.0
1070
    47
1040
0.1
1070
    48
1040
0.1
1070
    73
1070
     0
1070
   140
1040
8.0
1070
   271
1070
     1
1070
   272
1070
     1
1070
   341
1005
2AF4
1002
}
  0
LWPOLYLINE
  5
5628
330
1A
100
AcDbEntity
  8
隠れ線
 48
10.0
100
AcDbPolyline
 90
        6
 70
     0
 43
0.0
 10
88.011228477464
 20
386.593948263984
 10
53.638468256273
 20
386.593948263984
 10
52.638468256273
 20
385.593948263984
 10
52.638468256273
 20
370.593948263984
 10
53.638468256273
 20
369.593948263984
 10
89.686039553936
 20
369.593948263984
  0
LWPOLYLINE
  5
5629
330
1A
100
AcDbEntity
  8
隠れ線
 48
10.0
100
AcDbPolyline
 90
        4
 70
     0
 43
0.0
 10
191.96860568975
 20
386.593948263984
 10
202.638468256273
 20
386.593948263984
 10
202.638468256273
 20
369.593948263984
 10
193.643558052759
 20
369.593948263984
  0
LINE
  5
562A
330
1A
100
AcDbEntity
  8
外形線
 48
10.0
100
AcDbLine
 10
52.638468256273
 20
389.047230934686
 30
0.0
 11
88.840461850778
 21
389.047230934686
 31
0.0
  0
LINE
  5
562B
330
1A
100
AcDbEntity
  8
外形線
 48
10.0
100
AcDbLine
 10
52.638468256273
 20
367.047230934686
 30
0.0
 11
88.840461850777
 21
367.047230934686
 31
0.0
  0
LINE
  5
562C
330
1A
100
AcDbEntity
  8
細線
 48
10.0
100
AcDbLine
 10
88.011228477464
 20
386.593948263984
 30
0.0
 11
101.453367017893
 21
386.593948263984
 31
0.0
  0
LINE
  5
562D
330
1A
100
AcDbEntity
  8
細線
 48
10.0
100
AcDbLine
 10
107.336415258036
 20
386.593948263984
 30
0.0
 11
119.111844227459
 21
386.593948263984
 31
0.0
  0
LINE
  5
562E
330
1A
100
AcDbEntity
  8
細線
 48
10.0
100
AcDbLine
 10
89.686039553936
 20
369.593948263984
 30
0.0
 11
101.453367017893
 21
369.593948263984
 31
0.0
  0
LINE
  5
562F
330
1A
100
AcDbEntity
  8
細線
 48
10.0
100
AcDbLine
 10
107.336415258036
 20
369.593948263984
 30
0.0
 11
120.786796590468
 21
369.593948263984
 31
0.0
  0
LINE
  5
5630
330
1A
100
AcDbEntity
  8
細線
 48
10.0
100
AcDbLine
 10
160.859747115375
 20
386.593948263984
 30
0.0
 11
174.310128480184
 21
386.593948263983
 31
0.0
  0
LINE
  5
5631
330
1A
100
AcDbEntity
  8
細線
 48
10.0
100
AcDbLine
 10
180.193176720327
 20
386.593948263984
 30
0.0
 11
191.96860568975
 21
386.593948263984
 31
0.0
  0
LINE
  5
5632
330
1A
100
AcDbEntity
  8
細線
 48
10.0
100
AcDbLine
 10
174.310128480184
 20
369.593948263984
 30
0.0
 11
162.534699478384
 21
369.593948263984
 31
0.0
  0
LINE
  5
5633
330
1A
100
AcDbEntity
  8
細線
 48
10.0
100
AcDbLine
 10
180.193176720327
 20
369.593948263983
 30
0.0
 11
193.643558052759
 21
369.593948263984
 31
0.0
  0
LINE
  5
5634
330
1A
100
AcDbEntity
  8
細線
 48
10.0
100
AcDbLine
 10
236.537859489981
 20
386.593948263984
 30
0.0
 11
249.98824085479
 21
386.593948263983
 31
0.0
  0
LINE
  5
5635
330
1A
100
AcDbEntity
  8
細線
 48
10.0
100
AcDbLine
 10
255.871289094933
 20
386.593948263984
 30
0.0
 11
267.646718064356
 21
386.593948263984
 31
0.0
  0
LINE
  5
5636
330
1A
100
AcDbEntity
  8
細線
 48
10.0
100
AcDbLine
 10
238.21281185299
 20
369.593948263984
 30
0.0
 11
249.98824085479
 21
369.593948263984
 31
0.0
  0
LINE
  5
5637
330
1A
100
AcDbEntity
  8
細線
 48
10.0
100
AcDbLine
 10
255.871289094933
 20
369.593948263983
 30
0.0
 11
269.321670427365
 21
369.593948263984
 31
0.0
  0
LINE
  5
5761
330
1A
100
AcDbEntity
  8
寸法線
100
AcDbLine
 10
18.329980993059
 20
141.462704809837
 30
0.0
 11
590.067780705682
 21
141.462704809837
 31
0.0
  0
LINE
  5
5762
330
1A
100
AcDbEntity
  8
寸法線
100
AcDbLine
 10
50.329950993059
 20
128.41007870226
 30
0.0
 11
50.329950993059
 21
246.901087562876
 31
0.0
  0
LINE
  5
5763
330
1A
100
AcDbEntity
  8
寸法線
100
AcDbLine
 10
18.329980993059
 20
232.831087562876
 30
0.0
 11
590.067780705682
 21
232.831087562876
 31
0.0
  0
LINE
  5
5764
330
1A
100
AcDbEntity
  8
寸法線
100
AcDbLine
 10
18.329980993059
 20
246.901087562876
 30
0.0
 11
590.067780705682
 21
246.901087562876
 31
0.0
  0
LINE
  5
5765
330
1A
100
AcDbEntity
  8
寸法線
100
AcDbLine
 10
18.329980993059
 20
128.41007870226
 30
0.0
 11
18.329980993059
 21
246.901087562876
 31
0.0
  0
LINE
  5
5766
330
1A
100
AcDbEntity
  8
寸法線
100
AcDbLine
 10
271.175312260744
 20
128.41007870226
 30
0.0
 11
271.175312260744
 21
246.901087562876
 31
0.0
  0
LINE
  5
5767
330
1A
100
AcDbEntity
  8
寸法線
100
AcDbLine
 10
18.329980993059
 20
206.725835347722
 30
0.0
 11
590.067780705682
 21
206.725835347722
 31
0.0
  0
LINE
  5
5768
330
1A
100
AcDbEntity
  8
寸法線
100
AcDbLine
 10
18.329980993059
 20
193.673209240146
 30
0.0
 11
590.067780705682
 21
193.673209240146
 31
0.0
  0
LINE
  5
5769
330
1A
100
AcDbEntity
  8
寸法線
100
AcDbLine
 10
18.329980993059
 20
180.620583132569
 30
0.0
 11
590.067780705682
 21
180.620583132569
 31
0.0
  0
LINE
  5
576A
330
1A
100
AcDbEntity
  8
寸法線
100
AcDbLine
 10
18.329980993059
 20
167.567957024991
 30
0.0
 11
590.067780705682
 21
167.567957024991
 31
0.0
  0
LINE
  5
576B
330
1A
100
AcDbEntity
  8
寸法線
100
AcDbLine
 10
18.329980993059
 20
154.515330917414
 30
0.0
 11
590.067780705682
 21
154.515330917414
 31
0.0
  0
LINE
  5
576C
330
1A
100
AcDbEntity
  8
寸法線
100
AcDbLine
 10
302.931630825032
 20
128.41007870226
 30
0.0
 11
302.931630825033
 21
246.901087562876
 31
0.0
  0
LINE
  5
576D
330
1A
100
AcDbEntity
  8
寸法線
100
AcDbLine
 10
18.329980993059
 20
219.778461455299
 30
0.0
 11
590.067780705682
 21
219.778461455299
 31
0.0
  0
MTEXT
  5
576E
102
{ACAD_XDICTIONARY
360
576F
102
}
330
1A
100
AcDbEntity
  8
寸法線
 48
10.0
100
AcDbMText
 10
89.778815391878
 20
244.044306531482
 30
0.0
 40
8.0
 41
78.897728797637
 71
     2
 72
     5
  1
型式\PTSS-A1FA-025\PTSS-A1FA-030\PTSS-A1FA-035\PTSS-A1FA-040\PTSS-A1FA-045\PTSS-A1FA-050\PTSS-A1FA-055\PTSS-A1FA-060
1001
ACADANNOTATIVE
1000
AnnotativeData
1002
{
1070
     1
1070
     0
1002
}
1001
ACAD
1000
MTEXTBEGIN
1070
    44
1040
0.99
1000
MTEXTEND
  0
LINE
  5
5772
330
1A
100
AcDbEntity
  8
寸法線
 48
10.0
100
AcDbLine
 10
129.227679790696
 20
246.901087562876
 30
0.0
 11
129.227679790696
 21
128.41007870226
 31
0.0
  0
MTEXT
  5
5773
330
1A
100
AcDbEntity
  8
寸法線
 48
10.0
100
AcDbMText
 10
20.856888154
 20
244.183871318842
 30
0.0
 40
8.0
 41
41.842424242424
 71
     1
 72
     5
  1
御仕様\P \P\P　
  0
SPLINE
  5
5774
330
1A
100
AcDbEntity
  8
寸法線
 48
10.0
100
AcDbSpline
210
0.0
220
0.0
230
1.0
 70
  1064
 71
     3
 72
    13
 73
     9
 74
     7
 42
0.000000001
 43
0.0000000001
 44
0.0000000001
 40
0.0
 40
0.0
 40
0.0
 40
0.0
 40
3.546053604694636
 40
9.278996093298913
 40
13.89970108471584
 40
17.09539662994941
 40
18.7947045570245
 40
20.02704699455836
 40
20.02704699455836
 40
20.02704699455836
 40
20.02704699455836
 10
140.6540715263468
 20
236.0198632548625
 30
0.0
 10
141.7085997954251
 20
236.5069919890666
 30
0.0
 10
144.4679951063411
 20
237.7816669166059
 30
0.0
 10
145.1329320127012
 20
246.6801237894245
 30
0.0
 10
141.1996289935547
 20
240.2800369654821
 30
0.0
 10
141.371865189756
 20
237.0310194069139
 30
0.0
 10
143.4441468874053
 20
235.758200330104
 30
0.0
 10
144.3607509656412
 20
236.2167174139735
 30
0.0
 10
144.7460527457113
 20
236.4094586997722
 30
0.0
 11
140.6540715263468
 21
236.0198632548625
 31
0.0
 11
143.4794869592956
 21
238.1626473780589
 31
0.0
 11
144.1127698525033
 21
243.8605050767747
 31
0.0
 11
141.6283534526451
 21
239.9645341105301
 31
0.0
 11
142.0667804391074
 21
236.7990559799206
 31
0.0
 11
143.5769149126683
 21
236.0198632548625
 31
0.0
 11
144.7460527457113
 21
236.4094586997722
 31
0.0
  0
SPLINE
  5
5775
330
1A
100
AcDbEntity
  8
寸法線
 48
10.0
100
AcDbSpline
210
0.0
220
0.0
230
1.0
 70
  1064
 71
     3
 72
    13
 73
     9
 74
     7
 42
0.000000001
 43
0.0000000001
 44
0.0000000001
 40
0.0
 40
0.0
 40
0.0
 40
0.0
 40
3.546053604694636
 40
9.278996093298913
 40
13.89970108471584
 40
17.09539662994941
 40
18.7947045570245
 40
20.02704699455836
 40
20.02704699455836
 40
20.02704699455836
 40
20.02704699455836
 10
166.676523472785
 20
236.0198632548625
 30
0.0
 10
167.7310517418633
 20
236.5069919890666
 30
0.0
 10
170.4904470527793
 20
237.7816669166059
 30
0.0
 10
171.1553839591394
 20
246.6801237894245
 30
0.0
 10
167.2220809399928
 20
240.2800369654821
 30
0.0
 10
167.3943171361941
 20
237.0310194069139
 30
0.0
 10
169.4665988338435
 20
235.758200330104
 30
0.0
 10
170.3832029120794
 20
236.2167174139735
 30
0.0
 10
170.7685046921495
 20
236.4094586997722
 30
0.0
 11
166.676523472785
 21
236.0198632548625
 31
0.0
 11
169.5019389057338
 21
238.1626473780589
 31
0.0
 11
170.1352217989415
 21
243.8605050767747
 31
0.0
 11
167.6508053990833
 21
239.9645341105301
 31
0.0
 11
168.0892323855456
 21
236.7990559799206
 31
0.0
 11
169.5993668591065
 21
236.0198632548625
 31
0.0
 11
170.7685046921495
 21
236.4094586997722
 31
0.0
  0
LINE
  5
5776
330
1A
100
AcDbEntity
  8
寸法線
 48
10.0
100
AcDbLine
 10
156.861813750426
 20
246.901087562876
 30
0.0
 11
156.861813750426
 21
128.41007870226
 31
0.0
  0
LINE
  5
5777
330
1A
100
AcDbEntity
  8
寸法線
 48
10.0
100
AcDbLine
 10
182.712388867938
 20
246.901087562876
 30
0.0
 11
182.712388867938
 21
128.41007870226
 31
0.0
  0
LINE
  5
5778
330
1A
100
AcDbEntity
  8
寸法線
 48
10.0
100
AcDbLine
 10
206.779405143232
 20
246.901087562876
 30
0.0
 11
206.779405143232
 21
128.41007870226
 31
0.0
  0
LINE
  5
5779
330
1A
100
AcDbEntity
  8
寸法線
 48
10.0
100
AcDbLine
 10
232.629980260744
 20
246.901087562876
 30
0.0
 11
232.629980260744
 21
128.41007870226
 31
0.0
  0
TEXT
  5
577A
330
1A
100
AcDbEntity
  8
寸法線
 48
10.0
100
AcDbText
 10
173.134552270269
 20
236.104190994206
 30
0.0
 40
5.2
  1
1
100
AcDbText
  0
SPLINE
  5
577B
330
1A
100
AcDbEntity
  8
寸法線
 48
10.0
100
AcDbSpline
210
0.0
220
0.0
230
1.0
 70
  1064
 71
     3
 72
    13
 73
     9
 74
     7
 42
0.000000001
 43
0.0000000001
 44
0.0000000001
 40
0.0
 40
0.0
 40
0.0
 40
0.0
 40
3.546053604694681
 40
9.278996093298952
 40
13.89970108471588
 40
17.09539662994944
 40
18.79470455702454
 40
20.0270469945584
 40
20.0270469945584
 40
20.0270469945584
 40
20.0270469945584
 10
190.7435397480785
 20
236.0198632548625
 30
0.0
 10
191.7980680171569
 20
236.5069919890666
 30
0.0
 10
194.5574633280728
 20
237.7816669166057
 30
0.0
 10
195.222400234433
 20
246.6801237894244
 30
0.0
 10
191.2890972152864
 20
240.2800369654822
 30
0.0
 10
191.4613334114877
 20
237.0310194069139
 30
0.0
 10
193.533615109137
 20
235.758200330104
 30
0.0
 10
194.450219187373
 20
236.2167174139735
 30
0.0
 10
194.835520967443
 20
236.4094586997722
 30
0.0
 11
190.7435397480785
 21
236.0198632548625
 31
0.0
 11
193.5689551810274
 21
238.1626473780589
 31
0.0
 11
194.202238074235
 21
243.8605050767747
 31
0.0
 11
191.7178216743768
 21
239.9645341105301
 31
0.0
 11
192.1562486608392
 21
236.7990559799206
 31
0.0
 11
193.6663831344
 21
236.0198632548625
 31
0.0
 11
194.835520967443
 21
236.4094586997722
 31
0.0
  0
TEXT
  5
577C
330
1A
100
AcDbEntity
  8
寸法線
 48
10.0
100
AcDbText
 10
197.201568545563
 20
236.104190994206
 30
0.0
 40
5.2
  1
2
100
AcDbText
  0
TEXT
  5
577D
330
1A
100
AcDbEntity
  8
寸法線
 48
10.0
100
AcDbText
 10
223.052143663075
 20
236.104190994206
 30
0.0
 40
5.2
  1
3
100
AcDbText
  0
SPLINE
  5
577E
330
1A
100
AcDbEntity
  8
寸法線
 48
10.0
100
AcDbSpline
210
0.0
220
0.0
230
1.0
 70
  1064
 71
     3
 72
    13
 73
     9
 74
     7
 42
0.000000001
 43
0.0000000001
 44
0.0000000001
 40
0.0
 40
0.0
 40
0.0
 40
0.0
 40
3.546053604694681
 40
9.278996093298952
 40
13.89970108471591
 40
17.09539662994949
 40
18.79470455702458
 40
20.02704699455844
 40
20.02704699455844
 40
20.02704699455844
 40
20.02704699455844
 10
216.5941148655904
 20
236.0198632548625
 30
0.0
 10
217.6486431346688
 20
236.5069919890666
 30
0.0
 10
220.4080384455846
 20
237.7816669166057
 30
0.0
 10
221.0729753519449
 20
246.6801237894244
 30
0.0
 10
217.1396723327983
 20
240.2800369654823
 30
0.0
 10
217.3119085289996
 20
237.0310194069139
 30
0.0
 10
219.3841902266489
 20
235.758200330104
 30
0.0
 10
220.3007943048848
 20
236.2167174139735
 30
0.0
 10
220.6860960849549
 20
236.4094586997722
 30
0.0
 11
216.5941148655904
 21
236.0198632548625
 31
0.0
 11
219.4195302985393
 21
238.1626473780589
 31
0.0
 11
220.0528131917469
 21
243.8605050767747
 31
0.0
 11
217.5683967918886
 21
239.9645341105301
 31
0.0
 11
218.0068237783511
 21
236.7990559799206
 31
0.0
 11
219.5169582519119
 21
236.0198632548625
 31
0.0
 11
220.6860960849549
 21
236.4094586997722
 31
0.0
  0
MTEXT
  5
577F
330
1A
100
AcDbEntity
  8
寸法線
 48
10.0
100
AcDbMText
 10
242.808702997472
 20
243.683269904849
 30
0.0
 40
8.0
 41
19.321844296148
 71
     1
 72
     5
  1
記事
  0
MTEXT
  5
5780
330
1A
100
AcDbEntity
  8
寸法線
 48
10.0
100
AcDbMText
 10
278.495334688454
 20
243.683269904849
 30
0.0
 40
8.0
 41
27.29696969697
 71
     1
 72
     5
  1
台数\P\P 
  0
LINE
  5
5781
330
1A
100
AcDbEntity
  8
寸法線
100
AcDbLine
 10
305.466130873709
 20
128.41007870226
 30
0.0
 11
305.466130873709
 21
246.901087562876
 31
0.0
  0
MTEXT
  5
5782
102
{ACAD_XDICTIONARY
360
5783
102
}
330
1A
100
AcDbEntity
  8
寸法線
 48
10.0
100
AcDbMText
 10
376.914965272527
 20
244.044306531482
 30
0.0
 40
8.0
 41
78.897728797637
 71
     2
 72
     5
  1
型式\PTSS-A1FA-065\PTSS-A1FA-070\PTSS-A1FA-075\PTSS-A1FA-080\PTSS-A1FA-085\PTSS-A1FA-090\PTSS-A1FA-095\PTSS-A1FA-100
1001
ACADANNOTATIVE
1000
AnnotativeData
1002
{
1070
     1
1070
     0
1002
}
1001
ACAD
1000
MTEXTBEGIN
1070
    44
1040
0.99
1000
MTEXTEND
  0
TEXT
  5
5786
330
1A
100
AcDbEntity
  8
寸法線
 48
10.0
100
AcDbText
 10
455.554277608052
 20
115.280756585078
 30
0.0
 40
8.0
  1
○印が今回の貴社の御仕様です。
100
AcDbText
  0
LINE
  5
5787
330
1A
100
AcDbEntity
  8
寸法線
100
AcDbLine
 10
18.329980993059
 20
128.41007870226
 30
0.0
 11
590.067780705682
 21
128.41007870226
 31
0.0
  0
MTEXT
  5
5788
102
{ACAD_XDICTIONARY
360
5789
102
}
330
1A
100
AcDbEntity
  8
寸法線
 48
10.0
100
AcDbMText
 10
142.667830232728
 20
230.092406670919
 30
0.0
 40
8.0
 41
23.854899029718
 71
     2
 72
     5
  1
250\P300\P350\P400\P450\P500\P550\P600
1001
ACADANNOTATIVE
1000
AnnotativeData
1002
{
1070
     1
1070
     0
1002
}
1001
ACAD
1000
MTEXTBEGIN
1070
    44
1040
0.98
1000
MTEXTEND
  0
MTEXT
  5
578C
102
{ACAD_XDICTIONARY
360
578D
102
}
330
1A
100
AcDbEntity
  8
寸法線
 48
10.0
100
AcDbMText
 10
168.885605463971
 20
230.092406670919
 30
0.0
 40
8.0
 41
23.854899029718
 71
     2
 72
     5
  1
100\P100\P100\P100\P100\P100\P150\P150
1001
ACADANNOTATIVE
1000
AnnotativeData
1002
{
1070
     1
1070
     0
1002
}
1001
ACAD
1000
MTEXTBEGIN
1070
    44
1040
0.98
1000
MTEXTEND
  0
MTEXT
  5
5790
102
{ACAD_XDICTIONARY
360
5791
102
}
330
1A
100
AcDbEntity
  8
寸法線
 48
10.0
100
AcDbMText
 10
194.86792700874
 20
230.092406670919
 30
0.0
 40
8.0
 41
23.854899029718
 71
     2
 72
     5
  1
50\P50\P50\P50\P50\P50\P50\P50
1001
ACADANNOTATIVE
1000
AnnotativeData
1002
{
1070
     1
1070
     0
1002
}
1001
ACAD
1000
MTEXTBEGIN
1070
    44
1040
0.98
1000
MTEXTEND
  0
MTEXT
  5
5794
102
{ACAD_XDICTIONARY
360
5795
102
}
330
1A
100
AcDbEntity
  8
寸法線
 48
10.0
100
AcDbMText
 10
219.968085288153
 20
230.092406670919
 30
0.0
 40
8.0
 41
23.854899029718
 71
     2
 72
     5
  1
100\P150\P200\P250\P300\P350\P350\P400
1001
ACADANNOTATIVE
1000
AnnotativeData
1002
{
1070
     1
1070
     0
1002
}
1001
ACAD
1000
MTEXTBEGIN
1070
    44
1040
0.98
1000
MTEXTEND
  0
MTEXT
  5
5798
102
{ACAD_XDICTIONARY
360
5799
102
}
330
1A
100
AcDbEntity
  8
寸法線
 48
10.0
100
AcDbMText
 10
456.923251189832
 20
230.092406670919
 30
0.0
 40
8.0
 41
25.850575117512
 71
     2
 72
     5
  1
150\P150\P150\P150\P150\P150\P150\P150
1001
ACADANNOTATIVE
1000
AnnotativeData
1002
{
1070
     1
1070
     0
1002
}
1001
ACAD
1000
MTEXTBEGIN
1070
    44
1040
0.98
1000
MTEXTEND
  0
MTEXT
  5
579C
102
{ACAD_XDICTIONARY
360
579D
102
}
330
1A
100
AcDbEntity
  8
寸法線
 48
10.0
100
AcDbMText
 10
481.882046886235
 20
230.092406670919
 30
0.0
 40
8.0
 41
24.067016275294
 71
     2
 72
     5
  1
50\P50\P50\P50\P50\P50\P50\P50
1001
ACADANNOTATIVE
1000
AnnotativeData
1002
{
1070
     1
1070
     0
1002
}
1001
ACAD
1000
MTEXTBEGIN
1070
    44
1040
0.98
1000
MTEXTEND
  0
MTEXT
  5
57A0
102
{ACAD_XDICTIONARY
360
57A1
102
}
330
1A
100
AcDbEntity
  8
寸法線
 48
10.0
100
AcDbMText
 10
506.840842582637
 20
230.092406670919
 30
0.0
 40
8.0
 41
25.850575117512
 71
     2
 72
     5
  1
450\P500\P550\P600\P650\P700\P750\P800
1001
ACADANNOTATIVE
1000
AnnotativeData
1002
{
1070
     1
1070
     0
1002
}
1001
ACAD
1000
MTEXTBEGIN
1070
    44
1040
0.98
1000
MTEXTEND
  0
MTEXT
  5
57A4
102
{ACAD_XDICTIONARY
360
57A5
102
}
330
1A
100
AcDbEntity
  8
寸法線
 48
10.0
100
AcDbMText
 10
430.180896651211
 20
230.092406670919
 30
0.0
 40
8.0
 41
27.63413395973
 71
     2
 72
     5
  1
650\P700\P750\P800\P850\P900\P950\P1000
1001
ACADANNOTATIVE
1000
AnnotativeData
1002
{
1070
     1
1070
     0
1002
}
1001
ACAD
1000
MTEXTBEGIN
1070
    44
1040
0.98
1000
MTEXTEND
  0
LINE
  5
57A8
330
1A
100
AcDbEntity
  8
寸法線
100
AcDbLine
 10
337.466100873709
 20
128.41007870226
 30
0.0
 11
337.466100873709
 21
246.901087562876
 31
0.0
  0
LINE
  5
57A9
330
1A
100
AcDbEntity
  8
寸法線
100
AcDbLine
 10
558.311462141393
 20
128.41007870226
 30
0.0
 11
558.311462141393
 21
246.901087562876
 31
0.0
  0
LINE
  5
57AA
330
1A
100
AcDbEntity
  8
寸法線
100
AcDbLine
 10
590.067780705682
 20
128.41007870226
 30
0.0
 11
590.067780705682
 21
246.901087562876
 31
0.0
  0
LINE
  5
57AB
330
1A
100
AcDbEntity
  8
寸法線
 48
10.0
100
AcDbLine
 10
416.363829671346
 20
246.901087562876
 30
0.0
 11
416.363829671346
 21
128.41007870226
 31
0.0
  0
MTEXT
  5
57AC
330
1A
100
AcDbEntity
  8
寸法線
 48
10.0
100
AcDbMText
 10
307.993038034649
 20
244.183871318842
 30
0.0
 40
8.0
 41
41.842424242424
 71
     1
 72
     5
  1
御仕様\P \P\P　
  0
SPLINE
  5
57AD
330
1A
100
AcDbEntity
  8
寸法線
 48
10.0
100
AcDbSpline
210
0.0
220
0.0
230
1.0
 70
  1064
 71
     3
 72
    13
 73
     9
 74
     7
 42
0.000000001
 43
0.0000000001
 44
0.0000000001
 40
0.0
 40
0.0
 40
0.0
 40
0.0
 40
3.546053604694636
 40
9.278996093298913
 40
13.89970108471584
 40
17.09539662994941
 40
18.7947045570245
 40
20.02704699455836
 40
20.02704699455836
 40
20.02704699455836
 40
20.02704699455836
 10
427.7902214069964
 20
236.0198632548625
 30
0.0
 10
428.8447496760747
 20
236.5069919890666
 30
0.0
 10
431.6041449869908
 20
237.7816669166059
 30
0.0
 10
432.2690818933509
 20
246.6801237894245
 30
0.0
 10
428.3357788742041
 20
240.2800369654821
 30
0.0
 10
428.5080150704055
 20
237.0310194069139
 30
0.0
 10
430.5802967680549
 20
235.758200330104
 30
0.0
 10
431.4969008462908
 20
236.2167174139735
 30
0.0
 10
431.8822026263608
 20
236.4094586997722
 30
0.0
 11
427.7902214069964
 21
236.0198632548625
 31
0.0
 11
430.6156368399451
 21
238.1626473780589
 31
0.0
 11
431.2489197331528
 21
243.8605050767747
 31
0.0
 11
428.7645033332946
 21
239.9645341105301
 31
0.0
 11
429.202930319757
 21
236.7990559799206
 31
0.0
 11
430.7130647933178
 21
236.0198632548625
 31
0.0
 11
431.8822026263608
 21
236.4094586997722
 31
0.0
  0
SPLINE
  5
57AE
330
1A
100
AcDbEntity
  8
寸法線
 48
10.0
100
AcDbSpline
210
0.0
220
0.0
230
1.0
 70
  1064
 71
     3
 72
    13
 73
     9
 74
     7
 42
0.000000001
 43
0.0000000001
 44
0.0000000001
 40
0.0
 40
0.0
 40
0.0
 40
0.0
 40
3.54605360469459
 40
9.278996093298868
 40
13.89970108471579
 40
17.09539662994937
 40
18.79470455702447
 40
20.02704699455833
 40
20.02704699455833
 40
20.02704699455833
 40
20.02704699455833
 10
453.8126733534345
 20
236.0198632548625
 30
0.0
 10
454.8672016225129
 20
236.5069919890667
 30
0.0
 10
457.6265969334287
 20
237.7816669166059
 30
0.0
 10
458.2915338397889
 20
246.6801237894245
 30
0.0
 10
454.3582308206424
 20
240.2800369654823
 30
0.0
 10
454.5304670168435
 20
237.0310194069139
 30
0.0
 10
456.6027487144931
 20
235.758200330104
 30
0.0
 10
457.519352792729
 20
236.2167174139735
 30
0.0
 10
457.904654572799
 20
236.4094586997722
 30
0.0
 11
453.8126733534345
 21
236.0198632548625
 31
0.0
 11
456.6380887863833
 21
238.1626473780589
 31
0.0
 11
457.271371679591
 21
243.8605050767747
 31
0.0
 11
454.7869552797328
 21
239.9645341105301
 31
0.0
 11
455.2253822661952
 21
236.7990559799206
 31
0.0
 11
456.735516739756
 21
236.0198632548625
 31
0.0
 11
457.904654572799
 21
236.4094586997722
 31
0.0
  0
LINE
  5
57AF
330
1A
100
AcDbEntity
  8
寸法線
 48
10.0
100
AcDbLine
 10
443.997963631076
 20
246.901087562876
 30
0.0
 11
443.997963631076
 21
128.41007870226
 31
0.0
  0
LINE
  5
57B0
330
1A
100
AcDbEntity
  8
寸法線
 48
10.0
100
AcDbLine
 10
469.848538748588
 20
246.901087562876
 30
0.0
 11
469.848538748588
 21
128.41007870226
 31
0.0
  0
LINE
  5
57B1
330
1A
100
AcDbEntity
  8
寸法線
 48
10.0
100
AcDbLine
 10
493.915555023881
 20
246.901087562876
 30
0.0
 11
493.915555023881
 21
128.41007870226
 31
0.0
  0
LINE
  5
57B2
330
1A
100
AcDbEntity
  8
寸法線
 48
10.0
100
AcDbLine
 10
519.766130141393
 20
246.901087562876
 30
0.0
 11
519.766130141393
 21
128.41007870226
 31
0.0
  0
TEXT
  5
57B3
330
1A
100
AcDbEntity
  8
寸法線
 48
10.0
100
AcDbText
 10
460.270702150919
 20
236.104190994206
 30
0.0
 40
5.2
  1
1
100
AcDbText
  0
SPLINE
  5
57B4
330
1A
100
AcDbEntity
  8
寸法線
 48
10.0
100
AcDbSpline
210
0.0
220
0.0
230
1.0
 70
  1064
 71
     3
 72
    13
 73
     9
 74
     7
 42
0.000000001
 43
0.0000000001
 44
0.0000000001
 40
0.0
 40
0.0
 40
0.0
 40
0.0
 40
3.546053604694681
 40
9.278996093298932
 40
13.89970108471586
 40
17.09539662994944
 40
18.79470455702453
 40
20.0270469945585
 40
20.0270469945585
 40
20.0270469945585
 40
20.0270469945585
 10
477.8796896287282
 20
236.0198632548625
 30
0.0
 10
478.9342178978064
 20
236.5069919890666
 30
0.0
 10
481.6936132087225
 20
237.7816669166057
 30
0.0
 10
482.3585501150824
 20
246.6801237894245
 30
0.0
 10
478.425247095936
 20
240.2800369654823
 30
0.0
 10
478.597483292137
 20
237.0310194069138
 30
0.0
 10
480.6697649897866
 20
235.758200330104
 30
0.0
 10
481.5863690680226
 20
236.2167174139736
 30
0.0
 10
481.9716708480926
 20
236.4094586997722
 30
0.0
 11
477.8796896287282
 21
236.0198632548625
 31
0.0
 11
480.705105061677
 21
238.1626473780589
 31
0.0
 11
481.3383879548845
 21
243.8605050767747
 31
0.0
 11
478.8539715550262
 21
239.9645341105301
 31
0.0
 11
479.2923985414887
 21
236.7990559799206
 31
0.0
 11
480.8025330150495
 21
236.0198632548625
 31
0.0
 11
481.9716708480926
 21
236.4094586997722
 31
0.0
  0
TEXT
  5
57B5
330
1A
100
AcDbEntity
  8
寸法線
 48
10.0
100
AcDbText
 10
484.337718426212
 20
236.104190994206
 30
0.0
 40
5.2
  1
2
100
AcDbText
  0
TEXT
  5
57B6
330
1A
100
AcDbEntity
  8
寸法線
 48
10.0
100
AcDbText
 10
510.188293543724
 20
236.104190994206
 30
0.0
 40
5.2
  1
3
100
AcDbText
  0
SPLINE
  5
57B7
330
1A
100
AcDbEntity
  8
寸法線
 48
10.0
100
AcDbSpline
210
0.0
220
0.0
230
1.0
 70
  1064
 71
     3
 72
    13
 73
     9
 74
     7
 42
0.000000001
 43
0.0000000001
 44
0.0000000001
 40
0.0
 40
0.0
 40
0.0
 40
0.0
 40
3.546053604694681
 40
9.278996093298932
 40
13.89970108471586
 40
17.09539662994944
 40
18.79470455702453
 40
20.0270469945585
 40
20.0270469945585
 40
20.0270469945585
 40
20.0270469945585
 10
503.73026474624
 20
236.0198632548625
 30
0.0
 10
504.7847930153183
 20
236.5069919890666
 30
0.0
 10
507.5441883262343
 20
237.7816669166057
 30
0.0
 10
508.2091252325943
 20
246.6801237894245
 30
0.0
 10
504.2758222134479
 20
240.2800369654823
 30
0.0
 10
504.448058409649
 20
237.0310194069138
 30
0.0
 10
506.5203401072985
 20
235.758200330104
 30
0.0
 10
507.4369441855345
 20
236.2167174139736
 30
0.0
 10
507.8222459656045
 20
236.4094586997722
 30
0.0
 11
503.73026474624
 21
236.0198632548625
 31
0.0
 11
506.5556801791889
 21
238.1626473780589
 31
0.0
 11
507.1889630723963
 21
243.8605050767747
 31
0.0
 11
504.7045466725381
 21
239.9645341105301
 31
0.0
 11
505.1429736590006
 21
236.7990559799206
 31
0.0
 11
506.6531081325614
 21
236.0198632548625
 31
0.0
 11
507.8222459656045
 21
236.4094586997722
 31
0.0
  0
MTEXT
  5
57B8
330
1A
100
AcDbEntity
  8
寸法線
 48
10.0
100
AcDbMText
 10
529.944852878122
 20
243.683269904849
 30
0.0
 40
8.0
 41
19.321844296148
 71
     1
 72
     5
  1
記事
  0
MTEXT
  5
57B9
330
1A
100
AcDbEntity
  8
寸法線
 48
10.0
100
AcDbMText
 10
565.631484569104
 20
243.683269904849
 30
0.0
 40
8.0
 41
27.29696969697
 71
     1
 72
     5
  1
台数\P\P 
  0
VIEWPORT
  5
2902
330
28FB
100
AcDbEntity
 67
     1
  8
0
 48
10.0
100
AcDbViewport
 10
0.0
 20
0.0
 30
0.0
 40
528.349942987457
 41
300.3
 68
     1
 69
     1
1001
ACAD
1000
MVIEW
1002
{
1070
    16
1010
0.0
1020
0.0
1030
0.0
1010
0.0
1020
0.0
1030
1.0
1040
0.0
1040
300.3
1040
205.756503333333
1040
143.551503333333
1040
50.0
1040
0.0
1040
0.0
1070
    16
1070
   100
1070
     0
1070
     1
1070
     0
1070
     0
1070
     0
1070
     0
1040
0.0
1040
0.0
1040
0.0
1040
10.0
1040
10.0
1040
10.0
1040
10.0
1070
     0
1002
{
1002
}
1002
}
  0
VIEWPORT
  5
2904
330
28FB
100
AcDbEntity
 67
     1
  8
図枠太線
 48
10.0
100
AcDbViewport
 10
204.746305129083
 20
161.396645458131
 30
0.0
 40
400.0
 41
240.0
 68
     2
 69
     2
1001
ACAD
1000
MVIEW
1002
{
1070
    16
1010
0.0
1020
0.0
1030
0.0
1010
0.0
1020
0.0
1030
1.0
1040
0.0
1040
480.0
1040
238.797941394272
1040
313.500383521383
1040
50.0
1040
0.0
1040
0.0
1070
    16
1070
   100
1070
     0
1070
     0
1070
     0
1070
     0
1070
     0
1070
     0
1040
0.0
1040
0.0
1040
0.0
1040
1.0
1040
1.0
1040
0.0
1040
0.0
1070
     0
1002
{
1002
}
1002
}
  0
INSERT
  5
2A59
330
28FB
100
AcDbEntity
 67
     1
  8
図枠太線
100
AcDbBlockReference
  2
A3横用_タイトル
 10
-0.352109406709
 20
-2.129314295396
 30
0.0
  0
MTEXT
  5
2E85
330
28FB
100
AcDbEntity
 67
     1
  8
寸法線
 48
10.0
100
AcDbMText
 10
149.12611673873
 20
14.255245025413
 30
0.0
 40
5.0
 41
11.452149180996
 71
     1
 72
     5
  1
{\H1.4x;1:2}
  0
MTEXT
  5
5403
330
28FB
100
AcDbEntity
 67
     1
  8
寸法線
 48
10.0
100
AcDbMText
 10
368.525652335469
 20
37.824901447322
 30
0.0
 40
5.0
 41
44.607313995184
 71
     1
 72
     5
  1
静電容量式\Pレベルセンサ
  0
MTEXT
  5
5404
102
{ACAD_XDICTIONARY
360
5405
102
}
330
28FB
100
AcDbEntity
 67
     1
  8
寸法線
 48
10.0
100
AcDbMText
 10
310.136612996814
 20
32.490274306478
 30
0.0
 40
6.0
 41
45.0
 71
     1
 72
     5
  1
TSS-A1FA-□
1001
ACADANNOTATIVE
1000
AnnotativeData
1002
{
1070
     1
1070
     0
1002
}
  0
MTEXT
  5
5408
102
{ACAD_XDICTIONARY
360
5409
102
}
330
28FB
100
AcDbEntity
 67
     1
  8
寸法線
 48
10.0
100
AcDbMText
 10
340.381880955765
 20
14.040659141141
 30
0.0
 40
8.0
 41
45.0
 71
     1
 72
     5
  1
HE-13002
1001
ACADANNOTATIVE
1000
AnnotativeData
1002
{
1070
     1
1070
     0
1002
}
1001
ACAD
1000
MTEXTBEGIN
1070
    44
1040
1.2
1000
MTEXTEND
  0
MTEXT
  5
543F
102
{ACAD_XDICTIONARY
360
5440
102
}
330
28FB
100
AcDbEntity
 67
     1
  8
寸法線
 48
10.0
100
AcDbMText
 10
374.494025913896
 20
50.249424629171
 30
0.0
 40
5.0
 41
34.444444444444
 71
     1
 72
     5
  1
台数   台
1001
ACADANNOTATIVE
1000
AnnotativeData
1002
{
1070
     1
1070
     0
1002
}
  0
MTEXT
  5
547A
102
{ACAD_XDICTIONARY
360
547B
102
}
330
28FB
100
AcDbEntity
 67
     1
  8
寸法線
 48
10.0
100
AcDbMText
 10
177.061338661012
 20
12.023595502767
 30
0.0
 40
5.0
 41
31.372065131184
 71
     1
 72
     5
  1
2016.9.14
1001
ACADANNOTATIVE
1000
AnnotativeData
1002
{
1070
     1
1070
     0
1002
}
  0
MTEXT
  5
547E
102
{ACAD_XDICTIONARY
360
547F
102
}
330
28FB
100
AcDbEntity
 67
     1
  8
寸法線
 48
10.0
100
AcDbMText
 10
174.063755540461
 20
31.731156297467
 30
0.0
 40
5.0
 41
27.609563343169
 71
     1
 72
     5
  1
takahashi
1001
ACADANNOTATIVE
1000
AnnotativeData
1002
{
1070
     1
1070
     0
1002
}
  0
MTEXT
  5
59B5
330
28FB
100
AcDbEntity
 67
     1
  8
寸法線
 48
10.0
100
AcDbMText
 10
290.692196981713
 20
50.409704435936
 30
0.0
 40
5.0
 41
59.487124795261
 71
     1
 72
     5
  1
A3縮小図
  0
LINE
  5
59B6
330
28FB
100
AcDbEntity
 67
     1
  8
寸法線
 48
10.0
100
AcDbLine
 10
289.758575030668
 20
44.026105349677
 30
0.0
 11
315.393438640485
 21
44.026105349677
 31
0.0
  0
ENDSEC
  0
SECTION
  2
OBJECTS
  0
DICTIONARY
  5
C
330
0
100
AcDbDictionary
  3
ACAD_COLOR
350
2948
  3
ACAD_GROUP
350
D
  3
ACAD_LAYOUT
350
2816
  3
ACAD_MATERIAL
350
2947
  3
ACAD_MLEADERSTYLE
350
5218
  3
ACAD_MLINESTYLE
350
E
  3
ACAD_PLOTSETTINGS
350
2817
  3
ACAD_SCALELIST
350
51F1
  3
ACAD_VISUALSTYLE
350
51D8
  3
ACADDIM
350
4A22
  3
ACDBHEADERROUNDTRIPXREC
350
5A6F
  3
ACDBVARIABLEDICTIONARY
350
526D
  3
DWGPROPS
350
5A94
  0
DICTIONARY
  5
5A95
330
8
100
AcDbDictionary
280
     1
  3
ACAD_XREC_ROUNDTRIP
360
5A96
  0
DICTIONARY
  5
29EA
330
2
100
AcDbDictionary
280
     1
  3
ACAD_LAYERFILTERS
360
2B0C
  3
ACAD_LAYERSTATES
360
29EB
  0
DICTIONARY
  5
576F
330
576E
100
AcDbDictionary
280
     1
  3
ACDBCONTEXTDATAMANAGER
360
5770
  0
DICTIONARY
  5
5783
330
5782
100
AcDbDictionary
280
     1
  3
ACDBCONTEXTDATAMANAGER
360
5784
  0
DICTIONARY
  5
5789
330
5788
100
AcDbDictionary
280
     1
  3
ACDBCONTEXTDATAMANAGER
360
578A
  0
DICTIONARY
  5
578D
330
578C
100
AcDbDictionary
280
     1
  3
ACDBCONTEXTDATAMANAGER
360
578E
  0
DICTIONARY
  5
5791
330
5790
100
AcDbDictionary
280
     1
  3
ACDBCONTEXTDATAMANAGER
360
5792
  0
DICTIONARY
  5
5795
330
5794
100
AcDbDictionary
280
     1
  3
ACDBCONTEXTDATAMANAGER
360
5796
  0
DICTIONARY
  5
5799
330
5798
100
AcDbDictionary
280
     1
  3
ACDBCONTEXTDATAMANAGER
360
579A
  0
DICTIONARY
  5
579D
330
579C
100
AcDbDictionary
280
     1
  3
ACDBCONTEXTDATAMANAGER
360
579E
  0
DICTIONARY
  5
57A1
330
57A0
100
AcDbDictionary
280
     1
  3
ACDBCONTEXTDATAMANAGER
360
57A2
  0
DICTIONARY
  5
57A5
330
57A4
100
AcDbDictionary
280
     1
  3
ACDBCONTEXTDATAMANAGER
360
57A6
  0
DICTIONARY
  5
5405
330
5404
100
AcDbDictionary
280
     1
  3
ACDBCONTEXTDATAMANAGER
360
5406
  0
DICTIONARY
  5
5409
330
5408
100
AcDbDictionary
280
     1
  3
ACDBCONTEXTDATAMANAGER
360
540A
  0
DICTIONARY
  5
5440
330
543F
100
AcDbDictionary
280
     1
  3
ACDBCONTEXTDATAMANAGER
360
5441
  0
DICTIONARY
  5
547B
330
547A
100
AcDbDictionary
280
     1
  3
ACDBCONTEXTDATAMANAGER
360
547C
  0
DICTIONARY
  5
547F
330
547E
100
AcDbDictionary
280
     1
  3
ACDBCONTEXTDATAMANAGER
360
5480
  0
DICTIONARY
  5
2948
102
{ACAD_REACTORS
330
C
102
}
330
C
100
AcDbDictionary
  0
DICTIONARY
  5
D
102
{ACAD_REACTORS
330
C
102
}
330
C
100
AcDbDictionary
  0
DICTIONARY
  5
2816
102
{ACAD_REACTORS
330
C
102
}
330
C
100
AcDbDictionary
  0
DICTIONARY
  5
2947
102
{ACAD_REACTORS
330
C
102
}
330
C
100
AcDbDictionary
  3
BYBLOCK
350
5214
  3
BYLAYER
350
5213
  3
GLOBAL
350
5215
  0
DICTIONARY
  5
5218
102
{ACAD_REACTORS
330
C
102
}
330
C
100
AcDbDictionary
  3
STANDARD
350
5219
  0
DICTIONARY
  5
E
102
{ACAD_REACTORS
330
C
102
}
330
C
100
AcDbDictionary
  3
STANDARD
350
13
  0
DICTIONARY
  5
2817
102
{ACAD_REACTORS
330
C
102
}
330
C
100
AcDbDictionary
  0
DICTIONARY
  5
51F1
102
{ACAD_REACTORS
330
C
102
}
330
C
100
AcDbDictionary
  3
A0
350
51F2
  3
A1
350
51F3
  3
A2
350
51F4
  3
A3
350
51F5
  3
A4
350
51F6
  3
A5
350
51F7
  3
A6
350
51F8
  3
A7
350
51F9
  3
A8
350
51FA
  3
A9
350
51FB
  3
B0
350
51FC
  3
B1
350
51FD
  3
B2
350
51FE
  3
B3
350
51FF
  3
B4
350
5200
  3
B5
350
5201
  3
B6
350
5202
  3
B7
350
5203
  3
B8
350
5204
  3
B9
350
5205
  3
C0
350
5206
  3
C1
350
5207
  3
C2
350
5208
  3
C3
350
5209
  3
C4
350
520A
  3
C5
350
520B
  3
C6
350
520C
  3
C7
350
520D
  3
C8
350
520E
  3
C9
350
520F
  3
D0
350
5210
  3
D1
350
5211
  3
D2
350
5212
  0
DICTIONARY
  5
51D8
102
{ACAD_REACTORS
330
C
102
}
330
C
100
AcDbDictionary
  3
2DWIREFRAME
350
51DD
  3
BASIC
350
51E0
  3
BRIGHTEN
350
51E4
  3
COLORCHANGE
350
51E8
  3
CONCEPTUAL
350
51E2
  3
DIM
350
51E3
  3
EDGECOLOROFF
350
51EB
  3
FACEPATTERN
350
51E7
  3
FLAT
350
51D9
  3
FLATWITHEDGES
350
51DA
  3
GOURAUD
350
51DB
  3
GOURAUDWITHEDGES
350
51DC
  3
HIDDEN
350
51DF
  3
JITTEROFF
350
51E9
  3
LINEPATTERN
350
51E6
  3
MODELING
350
521A
  3
OVERHANGOFF
350
51EA
  3
REALISTIC
350
51E1
  3
SHADED
350
51F0
  3
SHADED_WITH_EDGES
350
51EF
  3
SHADES_OF_GRAY
350
51EC
  3
SKETCHY
350
51ED
  3
THICKEN
350
51E5
  3
WIREFRAME
350
51DE
  3
X-RAY
350
51EE
  0
XRECORD
  5
4A22
102
{ACAD_REACTORS
330
C
102
}
330
C
100
AcDbXrecord
 90
   990106
  3

 60
     0
 61
     0
 62
     4
 63
     4
 64
     0
 65
     0
 66
     0
 67
     3
 68
     1
 69
     0
 70
     0
 71
     0
 72
     0
 40
0.0
170
     2
340
4227
  0
DICTIONARY
  5
5A6F
102
{ACAD_REACTORS
330
C
102
}
330
C
100
AcDbDictionary
  3
CEPSNID
350
5A79
  3
CEPSNTYPE
350
5A78
  3
COLORDICT
350
5A92
  3
DIMSTYLEDATA
350
5A8F
  3
FINGERPRINTGUID
350
5A7A
  3
HYPERLINKBASE
350
5A72
  3
INSUNITS
350
5A77
  3
LAYOUTDICT
350
5A74
  3
LWETCUNION
350
5A76
  3
MATERIALDICT
350
5A93
  3
PLOTSETDICT
350
5A75
  3
PSVPSCALE
350
5A7C
  3
PUCSBASE
350
5A7F
  3
PUCSORGBACK
350
5A85
  3
PUCSORGBOTTOM
350
5A81
  3
PUCSORGFRONT
350
5A84
  3
PUCSORGLEFT
350
5A82
  3
PUCSORGRIGHT
350
5A83
  3
PUCSORGTOP
350
5A80
  3
PUCSORTHOREF
350
5A7D
  3
PUCSORTHOVIEW
350
5A7E
  3
STYLESHEET
350
5A73
  3
TSTACKALIGN
350
5A70
  3
TSTACKSIZE
350
5A71
  3
UCSBASE
350
5A88
  3
UCSORGBACK
350
5A8E
  3
UCSORGBOTTOM
350
5A8A
  3
UCSORGFRONT
350
5A8D
  3
UCSORGLEFT
350
5A8B
  3
UCSORGRIGHT
350
5A8C
  3
UCSORGTOP
350
5A89
  3
UCSORTHOREF
350
5A86
  3
UCSORTHOVIEW
350
5A87
  3
VERSIONGUID
350
5A7B
  0
DICTIONARY
  5
526D
102
{ACAD_REACTORS
330
C
102
}
330
C
100
AcDbDictionary
  3
CANNOSCALE
350
526E
  3
CMLEADERSTYLE
350
52AF
  3
CTABLESTYLE
350
52AE
  3
DIMASSOC
350
5A90
  3
HIDETEXT
350
5A91
  3
MSLTSCALE
350
52B0
  3
XCLIPFRAME
350
52B1
  0
XRECORD
  5
5A94
102
{ACAD_REACTORS
330
C
102
}
330
C
100
AcDbXrecord
  1
DWGPROPS COOKIE
  2

  3

  4

  6

  7

  8
takahashi
  9

300
=
301
=
302
=
303
=
304
=
305
=
306
=
307
=
308
=
309
=
 40
0.0
 41
2450576.222302431
 42
2457658.401628553
  1

 90
        0
  0
XRECORD
  5
5A96
102
{ACAD_REACTORS
330
5A95
102
}
330
5A95
100
AcDbXrecord
102
VTR_0.000_0.000_1.000_1.000_VISUALSTYLE
340
51DD
102
VTR_0.000_0.000_1.000_1.000_GRIDDISPLAY
 70
     3
102
VTR_0.000_0.000_1.000_1.000_GRIDMAJOR
 70
     5
102
VTR_0.000_0.000_1.000_1.000_DEFAULTLIGHTING
280
     1
102
VTR_0.000_0.000_1.000_1.000_DEFAULTLIGHTINGTYPE
 70
     1
102
VTR_0.000_0.000_1.000_1.000_BRIGHTNESS
141
0.0
102
VTR_0.000_0.000_1.000_1.000_CONTRAST
142
0.0
  0
DICTIONARY
  5
2B0C
102
{ACAD_REACTORS
330
29EA
102
}
330
29EA
100
AcDbDictionary
  0
DICTIONARY
  5
29EB
102
{ACAD_REACTORS
330
29EA
102
}
330
29EA
100
AcDbDictionary
  0
DICTIONARY
  5
5770
102
{ACAD_REACTORS
330
576F
102
}
330
576F
100
AcDbDictionary
  3
ACDB_ANNOTATIONSCALES
350
5771
  0
DICTIONARY
  5
5784
102
{ACAD_REACTORS
330
5783
102
}
330
5783
100
AcDbDictionary
  3
ACDB_ANNOTATIONSCALES
350
5785
  0
DICTIONARY
  5
578A
102
{ACAD_REACTORS
330
5789
102
}
330
5789
100
AcDbDictionary
  3
ACDB_ANNOTATIONSCALES
350
578B
  0
DICTIONARY
  5
578E
102
{ACAD_REACTORS
330
578D
102
}
330
578D
100
AcDbDictionary
  3
ACDB_ANNOTATIONSCALES
350
578F
  0
DICTIONARY
  5
5792
102
{ACAD_REACTORS
330
5791
102
}
330
5791
100
AcDbDictionary
  3
ACDB_ANNOTATIONSCALES
350
5793
  0
DICTIONARY
  5
5796
102
{ACAD_REACTORS
330
5795
102
}
330
5795
100
AcDbDictionary
  3
ACDB_ANNOTATIONSCALES
350
5797
  0
DICTIONARY
  5
579A
102
{ACAD_REACTORS
330
5799
102
}
330
5799
100
AcDbDictionary
  3
ACDB_ANNOTATIONSCALES
350
579B
  0
DICTIONARY
  5
579E
102
{ACAD_REACTORS
330
579D
102
}
330
579D
100
AcDbDictionary
  3
ACDB_ANNOTATIONSCALES
350
579F
  0
DICTIONARY
  5
57A2
102
{ACAD_REACTORS
330
57A1
102
}
330
57A1
100
AcDbDictionary
  3
ACDB_ANNOTATIONSCALES
350
57A3
  0
DICTIONARY
  5
57A6
102
{ACAD_REACTORS
330
57A5
102
}
330
57A5
100
AcDbDictionary
  3
ACDB_ANNOTATIONSCALES
350
57A7
  0
DICTIONARY
  5
5406
102
{ACAD_REACTORS
330
5405
102
}
330
5405
100
AcDbDictionary
  3
ACDB_ANNOTATIONSCALES
350
5407
  0
DICTIONARY
  5
540A
102
{ACAD_REACTORS
330
5409
102
}
330
5409
100
AcDbDictionary
  3
ACDB_ANNOTATIONSCALES
350
540B
  0
DICTIONARY
  5
5441
102
{ACAD_REACTORS
330
5440
102
}
330
5440
100
AcDbDictionary
  3
ACDB_ANNOTATIONSCALES
350
5442
  0
DICTIONARY
  5
547C
102
{ACAD_REACTORS
330
547B
102
}
330
547B
100
AcDbDictionary
  3
ACDB_ANNOTATIONSCALES
350
547D
  0
DICTIONARY
  5
5480
102
{ACAD_REACTORS
330
547F
102
}
330
547F
100
AcDbDictionary
  3
ACDB_ANNOTATIONSCALES
350
5481
  0
MATERIAL
  5
5214
102
{ACAD_REACTORS
330
2947
102
}
102
{ACAD_XDICTIONARY
360
5A99
102
}
330
2947
100
AcDbMaterial
  1
BYBLOCK
  0
MATERIAL
  5
5213
102
{ACAD_REACTORS
330
2947
102
}
102
{ACAD_XDICTIONARY
360
5A97
102
}
330
2947
100
AcDbMaterial
  1
BYLAYER
  0
MATERIAL
  5
5215
102
{ACAD_REACTORS
330
2947
102
}
102
{ACAD_XDICTIONARY
360
5A9B
102
}
330
2947
100
AcDbMaterial
  1
GLOBAL
  0
ACAD_PROXY_OBJECT
  5
5219
102
{ACAD_REACTORS
330
5218
102
}
330
5218
100
AcDbProxyObject
 90
      499
 91
      508
 93
      610
310
40901902A4063FBFFFFFE0000000000000020400000000000020404214DD185B99185C990000000000000104090141901A00000000000004100000000000000041025764000000000000039000
340
14
340
0
340
10
340
0
 94
        0
1001
ACAD_MLEADERVER
1070
     2
  0
MLINESTYLE
  5
13
102
{ACAD_REACTORS
330
E
102
}
330
E
100
AcDbMlineStyle
  2
STANDARD
 70
     0
  3

 62
     0
 51
90.0
 52
90.0
 71
     2
 49
0.5
 62
   256
  6
BYLAYER
 49
-0.5
 62
   256
  6
BYLAYER
  0
ACAD_PROXY_OBJECT
  5
51F2
102
{ACAD_REACTORS
330
51F1
102
}
330
51F1
100
AcDbProxyObject
 90
      499
 91
      505
 93
       41
310
903313A31580
  0
ACAD_PROXY_OBJECT
  5
51F3
102
{ACAD_REACTORS
330
51F1
102
}
330
51F1
100
AcDbProxyObject
 90
      499
 91
      505
 93
      105
310
903313A324000000000000004000
  0
ACAD_PROXY_OBJECT
  5
51F4
102
{ACAD_REACTORS
330
51F1
102
}
330
51F1
100
AcDbProxyObject
 90
      499
 91
      505
 93
      105
310
903313A344000000000000104000
  0
ACAD_PROXY_OBJECT
  5
51F5
102
{ACAD_REACTORS
330
51F1
102
}
330
51F1
100
AcDbProxyObject
 90
      499
 91
      505
 93
      105
310
903313A354000000000000144000
  0
ACAD_PROXY_OBJECT
  5
51F6
102
{ACAD_REACTORS
330
51F1
102
}
330
51F1
100
AcDbProxyObject
 90
      499
 91
      505
 93
      105
310
903313A384000000000000204000
  0
ACAD_PROXY_OBJECT
  5
51F7
102
{ACAD_REACTORS
330
51F1
102
}
330
51F1
100
AcDbProxyObject
 90
      499
 91
      505
 93
      113
310
904313A31304000000000000244000
  0
ACAD_PROXY_OBJECT
  5
51F8
102
{ACAD_REACTORS
330
51F1
102
}
330
51F1
100
AcDbProxyObject
 90
      499
 91
      505
 93
      113
310
904313A31364000000000000304000
  0
ACAD_PROXY_OBJECT
  5
51F9
102
{ACAD_REACTORS
330
51F1
102
}
330
51F1
100
AcDbProxyObject
 90
      499
 91
      505
 93
      113
310
904313A32304000000000000344000
  0
ACAD_PROXY_OBJECT
  5
51FA
102
{ACAD_REACTORS
330
51F1
102
}
330
51F1
100
AcDbProxyObject
 90
      499
 91
      505
 93
      113
310
904313A333040000000000003E4000
  0
ACAD_PROXY_OBJECT
  5
51FB
102
{ACAD_REACTORS
330
51F1
102
}
330
51F1
100
AcDbProxyObject
 90
      499
 91
      505
 93
      113
310
904313A34304000000000000444000
  0
ACAD_PROXY_OBJECT
  5
51FC
102
{ACAD_REACTORS
330
51F1
102
}
330
51F1
100
AcDbProxyObject
 90
      499
 91
      505
 93
      113
310
904313A35304000000000000494000
  0
ACAD_PROXY_OBJECT
  5
51FD
102
{ACAD_REACTORS
330
51F1
102
}
330
51F1
100
AcDbProxyObject
 90
      499
 91
      505
 93
      121
310
905313A3130304000000000000594000
  0
ACAD_PROXY_OBJECT
  5
51FE
102
{ACAD_REACTORS
330
51F1
102
}
330
51F1
100
AcDbProxyObject
 90
      499
 91
      505
 93
      105
310
903323A310000000000000010100
  0
ACAD_PROXY_OBJECT
  5
51FF
102
{ACAD_REACTORS
330
51F1
102
}
330
51F1
100
AcDbProxyObject
 90
      499
 91
      505
 93
      105
310
903343A310000000000000410100
  0
ACAD_PROXY_OBJECT
  5
5200
102
{ACAD_REACTORS
330
51F1
102
}
330
51F1
100
AcDbProxyObject
 90
      499
 91
      505
 93
      105
310
903383A310000000000000810100
  0
ACAD_PROXY_OBJECT
  5
5201
102
{ACAD_REACTORS
330
51F1
102
}
330
51F1
100
AcDbProxyObject
 90
      499
 91
      505
 93
      113
310
90431303A310000000000000910100
  0
ACAD_PROXY_OBJECT
  5
5202
102
{ACAD_REACTORS
330
51F1
102
}
330
51F1
100
AcDbProxyObject
 90
      499
 91
      505
 93
      121
310
9053130303A310000000000001650100
  0
ACAD_PROXY_OBJECT
  5
5203
102
{ACAD_REACTORS
330
51F1
102
}
330
51F1
100
AcDbProxyObject
 90
      499
 91
      505
 93
      257
310
90E312F31323822203D2031272D3022000000000000200FC000000000000284000
  0
ACAD_PROXY_OBJECT
  5
5204
102
{ACAD_REACTORS
330
51F1
102
}
330
51F1
100
AcDbProxyObject
 90
      499
 91
      505
 93
      249
310
90D312F363422203D2031272D3022000000000000240FC000000000000284000
  0
ACAD_PROXY_OBJECT
  5
5205
102
{ACAD_REACTORS
330
51F1
102
}
330
51F1
100
AcDbProxyObject
 90
      499
 91
      505
 93
      249
310
90D312F333222203D2031272D3022000000000000280FC000000000000284000
  0
ACAD_PROXY_OBJECT
  5
5206
102
{ACAD_REACTORS
330
51F1
102
}
330
51F1
100
AcDbProxyObject
 90
      499
 91
      505
 93
      249
310
90D312F313622203D2031272D30220000000000002C0FC000000000000284000
  0
ACAD_PROXY_OBJECT
  5
5207
102
{ACAD_REACTORS
330
51F1
102
}
330
51F1
100
AcDbProxyObject
 90
      499
 91
      505
 93
      249
310
90D332F333222203D2031272D30220000000000002E0FC000000000000284000
  0
ACAD_PROXY_OBJECT
  5
5208
102
{ACAD_REACTORS
330
51F1
102
}
330
51F1
100
AcDbProxyObject
 90
      499
 91
      505
 93
      241
310
90C312F3822203D2031272D3022000000000000300FC000000000000284000
  0
ACAD_PROXY_OBJECT
  5
5209
102
{ACAD_REACTORS
330
51F1
102
}
330
51F1
100
AcDbProxyObject
 90
      499
 91
      505
 93
      249
310
90D332F313622203D2031272D3022000000000000320FC000000000000284000
  0
ACAD_PROXY_OBJECT
  5
520A
102
{ACAD_REACTORS
330
51F1
102
}
330
51F1
100
AcDbProxyObject
 90
      499
 91
      505
 93
      241
310
90C312F3422203D2031272D3022000000000000340FC000000000000284000
  0
ACAD_PROXY_OBJECT
  5
520B
102
{ACAD_REACTORS
330
51F1
102
}
330
51F1
100
AcDbProxyObject
 90
      499
 91
      505
 93
      241
310
90C332F3822203D2031272D3022000000000000360FC000000000000284000
  0
ACAD_PROXY_OBJECT
  5
520C
102
{ACAD_REACTORS
330
51F1
102
}
330
51F1
100
AcDbProxyObject
 90
      499
 91
      505
 93
      241
310
90C312F3222203D2031272D3022000000000000380FC000000000000284000
  0
ACAD_PROXY_OBJECT
  5
520D
102
{ACAD_REACTORS
330
51F1
102
}
330
51F1
100
AcDbProxyObject
 90
      499
 91
      505
 93
      241
310
90C332F3422203D2031272D30220000000000003A0FC000000000000284000
  0
ACAD_PROXY_OBJECT
  5
520E
102
{ACAD_REACTORS
330
51F1
102
}
330
51F1
100
AcDbProxyObject
 90
      499
 91
      505
 93
      161
310
90A3122203D2031272D30224000000000000284000
  0
ACAD_PROXY_OBJECT
  5
520F
102
{ACAD_REACTORS
330
51F1
102
}
330
51F1
100
AcDbProxyObject
 90
      499
 91
      505
 93
      257
310
90E312D312F3222203D2031272D30220000000000003E0FC000000000000284000
  0
ACAD_PROXY_OBJECT
  5
5210
102
{ACAD_REACTORS
330
51F1
102
}
330
51F1
100
AcDbProxyObject
 90
      499
 91
      505
 93
      225
310
90A3322203D2031272D302200000000000002100000000000000284000
  0
ACAD_PROXY_OBJECT
  5
5211
102
{ACAD_REACTORS
330
51F1
102
}
330
51F1
100
AcDbProxyObject
 90
      499
 91
      505
 93
      225
310
90A3622203D2031272D302200000000000006100000000000000284000
  0
ACAD_PROXY_OBJECT
  5
5212
102
{ACAD_REACTORS
330
51F1
102
}
330
51F1
100
AcDbProxyObject
 90
      499
 91
      505
 93
      249
310
90D31272D3022203D2031272D30220000000000000A100000000000000284000
  0
ACAD_PROXY_OBJECT
  5
51DD
102
{ACAD_REACTORS
330
51D8
102
}
330
51D8
100
AcDbProxyObject
 90
      499
 91
      504
 93
      436
310
42CC9915DA5C99599C985B595049028333333333333E33F0000000000000F90107901411070040501600405405064090741402480A0340
1001
ACAD
1000
AcDbSavedByObjectVersion
1070
     0
  0
ACAD_PROXY_OBJECT
  5
51E0
102
{ACAD_REACTORS
330
51D8
102
}
330
51D8
100
AcDbProxyObject
 90
      499
 91
      504
 93
      388
310
4150985CDA58D07406404333333333333E33F0000000000000F90107A41107004050150841D405064090741402480A0350
1001
ACAD
1000
AcDbSavedByObjectVersion
1070
     0
  0
ACAD_PROXY_OBJECT
  5
51E4
102
{ACAD_REACTORS
330
51D8
102
}
330
51D8
100
AcDbProxyObject
 90
      499
 91
      504
 93
      428
310
42109C9A59DA1D195B90C409028333333333333E33F0000000000000F9010790141107004050150841D405064090741402480A029950
1001
ACAD
1000
AcDbSavedByObjectVersion
1070
     0
  0
ACAD_PROXY_OBJECT
  5
51E8
102
{ACAD_REACTORS
330
51D8
102
}
330
51D8
100
AcDbProxyObject
 90
      499
 91
      504
 93
      452
310
42D0DBDB1BDC90DA185B99D95104090240C333333333333E33F0000000000000F90108901411070040501508421405064090741402480A0350
1001
ACAD
1000
AcDbSavedByObjectVersion
1070
     0
  0
ACAD_PROXY_OBJECT
  5
51E2
102
{ACAD_REACTORS
330
51D8
102
}
330
51D8
100
AcDbProxyObject
 90
      499
 91
      504
 93
      500
310
4290DBDB98D95C1D1D585B10940D028333333333333E33F0000000000000F90107902409070040501000000000018199010841D405064090740C02480A0340
1001
ACAD
1000
AcDbSavedByObjectVersion
1070
     0
  0
ACAD_PROXY_OBJECT
  5
51E3
102
{ACAD_REACTORS
330
51D8
102
}
330
51D8
100
AcDbProxyObject
 90
      499
 91
      504
 93
      412
310
40D11A5B50B409028333333333333E33F0000000000000F9010790141107004050150841D405064090741402480A02677FFFFFD0
1001
ACAD
1000
AcDbSavedByObjectVersion
1070
     0
  0
ACAD_PROXY_OBJECT
  5
51EB
102
{ACAD_REACTORS
330
51D8
102
}
330
51D8
100
AcDbProxyObject
 90
      499
 91
      504
 93
      452
310
43115919D950DBDB1BDC93D999916409028333333333333E33F0000000000000F9010790141107004050150841D405064090741402480A0350
1001
ACAD
1000
AcDbSavedByObjectVersion
1070
     0
  0
ACAD_PROXY_OBJECT
  5
51E7
102
{ACAD_REACTORS
330
51D8
102
}
330
51D8
100
AcDbProxyObject
 90
      499
 91
      504
 93
      444
310
42D19858D95C185D1D195C9B90F409028333333333333E33F0000000000000F9010790141107004050150841D405064090741402480A0350
1001
ACAD
1000
AcDbSavedByObjectVersion
1070
     0
  0
ACAD_PROXY_OBJECT
  5
51D9
102
{ACAD_REACTORS
330
51D8
102
}
330
51D8
100
AcDbProxyObject
 90
      499
 91
      504
 93
      380
310
41119B185D240901404333333333333E33F0000000000000F9010740A907004050150841D405064090741402480A1B50
1001
ACAD
1000
AcDbSavedByObjectVersion
1070
     0
  0
ACAD_PROXY_OBJECT
  5
51DA
102
{ACAD_REACTORS
330
51D8
102
}
330
51D8
100
AcDbProxyObject
 90
      499
 91
      504
 93
      468
310
43519B185D15DA5D1A115919D95CD0140901404333333333333E33F0000000000000F90107409019070040501600405405064090741402480A1B50
1001
ACAD
1000
AcDbSavedByObjectVersion
1070
     0
  0
ACAD_PROXY_OBJECT
  5
51DB
102
{ACAD_REACTORS
330
51D8
102
}
330
51D8
100
AcDbProxyObject
 90
      499
 91
      504
 93
      404
310
41D1DBDD5C985D5910240902404333333333333E33F0000000000000F9010740A9070040501641D405064090741402480A1B50
1001
ACAD
1000
AcDbSavedByObjectVersion
1070
     0
  0
ACAD_PROXY_OBJECT
  5
51DC
102
{ACAD_REACTORS
330
51D8
102
}
330
51D8
100
AcDbProxyObject
 90
      499
 91
      504
 93
      492
310
4411DBDD5C985D5915DA5D1A115919D95CD0340902404333333333333E33F0000000000000F90107409019070040501600405405064090741402480A1B50
1001
ACAD
1000
AcDbSavedByObjectVersion
1070
     0
  0
ACAD_PROXY_OBJECT
  5
51DF
102
{ACAD_REACTORS
330
51D8
102
}
330
51D8
100
AcDbProxyObject
 90
      499
 91
      504
 93
      476
310
41921A5919195B90640502408333333333333E33F0000000000000F901079024090700405020000000000001110200405405064090740C02480A0340
1001
ACAD
1000
AcDbSavedByObjectVersion
1070
     0
  0
ACAD_PROXY_OBJECT
  5
51E9
102
{ACAD_REACTORS
330
51D8
102
}
330
51D8
100
AcDbProxyObject
 90
      499
 91
      504
 93
      428
310
42529A5D1D195C93D999914409028333333333333E33F0000000000000F9010790141107004050150A41D405064090741402480A0350
1001
ACAD
1000
AcDbSavedByObjectVersion
1070
     0
  0
ACAD_PROXY_OBJECT
  5
51E6
102
{ACAD_REACTORS
330
51D8
102
}
330
51D8
100
AcDbProxyObject
 90
      499
 91
      504
 93
      444
310
42D31A5B995C185D1D195C9B90E409028333333333333E33F0000000000000F9010790141107004050750841D405064090741402483A0350
1001
ACAD
1000
AcDbSavedByObjectVersion
1070
     0
  0
ACAD_PROXY_OBJECT
  5
521A
102
{ACAD_REACTORS
330
51D8
102
}
330
51D8
100
AcDbProxyObject
 90
      499
 91
      504
 93
      412
310
90A409038333333333333E33F0000000000000F901074090290700405010000000000201990108421405064090741402480A1B40
1001
ACAD
1000
AcDbSavedByObjectVersion
1070
     0
  0
ACAD_PROXY_OBJECT
  5
51EA
102
{ACAD_REACTORS
330
51D8
102
}
330
51D8
100
AcDbProxyObject
 90
      499
 91
      504
 93
      444
310
42D3DD995C9A185B99D3D999915409028333333333333E33F0000000000000F9010790141107004050150941D405064090741402480A0350
1001
ACAD
1000
AcDbSavedByObjectVersion
1070
     0
  0
ACAD_PROXY_OBJECT
  5
51E1
102
{ACAD_REACTORS
330
51D8
102
}
330
51D8
100
AcDbProxyObject
 90
      499
 91
      504
 93
      428
310
425499585B1A5CDD1A58D08409038333333333333E33F0000000000000F9010740A907004050150800405405064090740C02480A1B40
1001
ACAD
1000
AcDbSavedByObjectVersion
1070
     0
  0
ACAD_PROXY_OBJECT
  5
51F0
102
{ACAD_REACTORS
330
51D8
102
}
330
51D8
100
AcDbProxyObject
 90
      499
 91
      504
 93
      420
310
4194DA1859195911B40902404333333333333E33F0000000000000F9010740A41107004050150800405405064090840C02480A0B40
1001
ACAD
1000
AcDbSavedByObjectVersion
1070
     0
  0
ACAD_PROXY_OBJECT
  5
51EF
102
{ACAD_REACTORS
330
51D8
102
}
330
51D8
100
AcDbProxyObject
 90
      499
 91
      504
 93
      516
310
4454DA18591959081DDA5D1A08195919D95CD1A40902404333333333333E33F0000000000000F901074090142907004050250800405405064090740C02480A0B40
1001
ACAD
1000
AcDbSavedByObjectVersion
1070
     0
  0
ACAD_PROXY_OBJECT
  5
51EC
102
{ACAD_REACTORS
330
51D8
102
}
330
51D8
100
AcDbProxyObject
 90
      499
 91
      504
 93
      532
310
4394DA1859195CC81BD98811DC985E5174090240C333333333333E33F0000000000000F901079024090741D01000000000000111010841D405064090740C02480A0340
1001
ACAD
1000
AcDbSavedByObjectVersion
1070
     0
  0
ACAD_PROXY_OBJECT
  5
51ED
102
{ACAD_REACTORS
330
51D8
102
}
330
51D8
100
AcDbProxyObject
 90
      499
 91
      504
 93
      476
310
41D4DAD95D18DA1E51840502408333333333333E33F0000000000000F901079024090741D01000000000000111010B41D405064090741802480A0340
1001
ACAD
1000
AcDbSavedByObjectVersion
1070
     0
  0
ACAD_PROXY_OBJECT
  5
51E5
102
{ACAD_REACTORS
330
51D8
102
}
330
51D8
100
AcDbProxyObject
 90
      499
 91
      504
 93
      412
310
41D51A1A58DAD95B90D409028333333333333E33F0000000000000F9010790141107004050150C41D405064090741402480A0350
1001
ACAD
1000
AcDbSavedByObjectVersion
1070
     0
  0
ACAD_PROXY_OBJECT
  5
51DE
102
{ACAD_REACTORS
330
51D8
102
}
330
51D8
100
AcDbProxyObject
 90
      499
 91
      504
 93
      420
310
4255DA5C99599C985B595059028333333333333E33F0000000000000F90107901411070040501600405405064090740C02480A0340
1001
ACAD
1000
AcDbSavedByObjectVersion
1070
     0
  0
ACAD_PROXY_OBJECT
  5
51EE
102
{ACAD_REACTORS
330
51D8
102
}
330
51D8
100
AcDbProxyObject
 90
      499
 91
      504
 93
      404
310
41560B54985E51940902404000000000000E03F0000000000000F9010740501907004050150841D405064090740C02480A1B40
1001
ACAD
1000
AcDbSavedByObjectVersion
1070
     0
  0
XRECORD
  5
5A79
102
{ACAD_REACTORS
330
5A6F
102
}
330
5A6F
100
AcDbXrecord
340
0
  0
XRECORD
  5
5A78
102
{ACAD_REACTORS
330
5A6F
102
}
330
5A6F
100
AcDbXrecord
 90
        0
  0
XRECORD
  5
5A92
102
{ACAD_REACTORS
330
5A6F
102
}
330
5A6F
100
AcDbXrecord
340
2948
  0
XRECORD
  5
5A8F
102
{ACAD_REACTORS
330
5A6F
102
}
330
5A6F
100
AcDbXrecord
1000
DSTYLE
1002
{
1070
   171
 70
     2
1070
   143
 40
0.0394
1070
   274
 70
     2
1070
    41
 40
6.0
1070
   342
340
2AF4
1070
   271
 70
     1
1070
   278
 70
    46
1070
   341
340
2AF4
1070
   272
 70
     1
1070
    48
 40
0.1
1070
   283
 70
     1
1070
    47
 40
0.1
1070
   145
 40
1.0
1070
   340
340
10
1070
   140
 40
8.0
1070
   284
 70
     0
1002
}
  0
XRECORD
  5
5A7A
102
{ACAD_REACTORS
330
5A6F
102
}
330
5A6F
100
AcDbXrecord
  1
{23698909-1D67-4744-B0E2-8DE11E3ED422}
  0
XRECORD
  5
5A72
102
{ACAD_REACTORS
330
5A6F
102
}
330
5A6F
100
AcDbXrecord
  1

  0
XRECORD
  5
5A77
102
{ACAD_REACTORS
330
5A6F
102
}
330
5A6F
100
AcDbXrecord
 90
        0
  0
XRECORD
  5
5A74
102
{ACAD_REACTORS
330
5A6F
102
}
330
5A6F
100
AcDbXrecord
340
2816
  0
XRECORD
  5
5A76
102
{ACAD_REACTORS
330
5A6F
102
}
330
5A6F
100
AcDbXrecord
 90
    10781
  0
XRECORD
  5
5A93
102
{ACAD_REACTORS
330
5A6F
102
}
330
5A6F
100
AcDbXrecord
340
2947
  0
XRECORD
  5
5A75
102
{ACAD_REACTORS
330
5A6F
102
}
330
5A6F
100
AcDbXrecord
340
2817
  0
XRECORD
  5
5A7C
102
{ACAD_REACTORS
330
5A6F
102
}
330
5A6F
100
AcDbXrecord
 40
0.25
  0
XRECORD
  5
5A7F
102
{ACAD_REACTORS
330
5A6F
102
}
330
5A6F
100
AcDbXrecord
340
0
  0
XRECORD
  5
5A85
102
{ACAD_REACTORS
330
5A6F
102
}
330
5A6F
100
AcDbXrecord
 10
0.0
 20
0.0
 30
0.0
  0
XRECORD
  5
5A81
102
{ACAD_REACTORS
330
5A6F
102
}
330
5A6F
100
AcDbXrecord
 10
0.0
 20
0.0
 30
0.0
  0
XRECORD
  5
5A84
102
{ACAD_REACTORS
330
5A6F
102
}
330
5A6F
100
AcDbXrecord
 10
0.0
 20
0.0
 30
0.0
  0
XRECORD
  5
5A82
102
{ACAD_REACTORS
330
5A6F
102
}
330
5A6F
100
AcDbXrecord
 10
0.0
 20
0.0
 30
0.0
  0
XRECORD
  5
5A83
102
{ACAD_REACTORS
330
5A6F
102
}
330
5A6F
100
AcDbXrecord
 10
0.0
 20
0.0
 30
0.0
  0
XRECORD
  5
5A80
102
{ACAD_REACTORS
330
5A6F
102
}
330
5A6F
100
AcDbXrecord
 10
0.0
 20
0.0
 30
0.0
  0
XRECORD
  5
5A7D
102
{ACAD_REACTORS
330
5A6F
102
}
330
5A6F
100
AcDbXrecord
340
0
  0
XRECORD
  5
5A7E
102
{ACAD_REACTORS
330
5A6F
102
}
330
5A6F
100
AcDbXrecord
 70
     0
  0
XRECORD
  5
5A73
102
{ACAD_REACTORS
330
5A6F
102
}
330
5A6F
100
AcDbXrecord
  1

  0
XRECORD
  5
5A70
102
{ACAD_REACTORS
330
5A6F
102
}
330
5A6F
100
AcDbXrecord
 90
        1
  0
XRECORD
  5
5A71
102
{ACAD_REACTORS
330
5A6F
102
}
330
5A6F
100
AcDbXrecord
 90
       70
  0
XRECORD
  5
5A88
102
{ACAD_REACTORS
330
5A6F
102
}
330
5A6F
100
AcDbXrecord
340
0
  0
XRECORD
  5
5A8E
102
{ACAD_REACTORS
330
5A6F
102
}
330
5A6F
100
AcDbXrecord
 10
0.0
 20
0.0
 30
0.0
  0
XRECORD
  5
5A8A
102
{ACAD_REACTORS
330
5A6F
102
}
330
5A6F
100
AcDbXrecord
 10
0.0
 20
0.0
 30
0.0
  0
XRECORD
  5
5A8D
102
{ACAD_REACTORS
330
5A6F
102
}
330
5A6F
100
AcDbXrecord
 10
0.0
 20
0.0
 30
0.0
  0
XRECORD
  5
5A8B
102
{ACAD_REACTORS
330
5A6F
102
}
330
5A6F
100
AcDbXrecord
 10
0.0
 20
0.0
 30
0.0
  0
XRECORD
  5
5A8C
102
{ACAD_REACTORS
330
5A6F
102
}
330
5A6F
100
AcDbXrecord
 10
0.0
 20
0.0
 30
0.0
  0
XRECORD
  5
5A89
102
{ACAD_REACTORS
330
5A6F
102
}
330
5A6F
100
AcDbXrecord
 10
0.0
 20
0.0
 30
0.0
  0
XRECORD
  5
5A86
102
{ACAD_REACTORS
330
5A6F
102
}
330
5A6F
100
AcDbXrecord
340
0
  0
XRECORD
  5
5A87
102
{ACAD_REACTORS
330
5A6F
102
}
330
5A6F
100
AcDbXrecord
 70
     0
  0
XRECORD
  5
5A7B
102
{ACAD_REACTORS
330
5A6F
102
}
330
5A6F
100
AcDbXrecord
  1
{5B68F692-0047-419B-84B8-231B9991F8D9}
  0
DICTIONARYVAR
  5
526E
102
{ACAD_REACTORS
330
526D
102
}
330
526D
100
DictionaryVariables
280
     0
  1
1:1
  0
DICTIONARYVAR
  5
52AF
102
{ACAD_REACTORS
330
526D
102
}
330
526D
100
DictionaryVariables
280
     0
  1
Standard
  0
DICTIONARYVAR
  5
52AE
102
{ACAD_REACTORS
330
526D
102
}
330
526D
100
DictionaryVariables
280
     0
  1
Standard
  0
DICTIONARYVAR
  5
5A90
102
{ACAD_REACTORS
330
526D
102
}
330
526D
100
DictionaryVariables
280
     0
  1
1
  0
DICTIONARYVAR
  5
5A91
102
{ACAD_REACTORS
330
526D
102
}
330
526D
100
DictionaryVariables
280
     0
  1
0
  0
DICTIONARYVAR
  5
52B0
102
{ACAD_REACTORS
330
526D
102
}
330
526D
100
DictionaryVariables
280
     0
  1
0
  0
DICTIONARYVAR
  5
52B1
102
{ACAD_REACTORS
330
526D
102
}
330
526D
100
DictionaryVariables
280
     0
  1
0
  0
DICTIONARY
  5
5771
102
{ACAD_REACTORS
330
5770
102
}
330
5770
100
AcDbDictionary
  0
DICTIONARY
  5
5785
102
{ACAD_REACTORS
330
5784
102
}
330
5784
100
AcDbDictionary
  0
DICTIONARY
  5
578B
102
{ACAD_REACTORS
330
578A
102
}
330
578A
100
AcDbDictionary
  0
DICTIONARY
  5
578F
102
{ACAD_REACTORS
330
578E
102
}
330
578E
100
AcDbDictionary
  0
DICTIONARY
  5
5793
102
{ACAD_REACTORS
330
5792
102
}
330
5792
100
AcDbDictionary
  0
DICTIONARY
  5
5797
102
{ACAD_REACTORS
330
5796
102
}
330
5796
100
AcDbDictionary
  0
DICTIONARY
  5
579B
102
{ACAD_REACTORS
330
579A
102
}
330
579A
100
AcDbDictionary
  0
DICTIONARY
  5
579F
102
{ACAD_REACTORS
330
579E
102
}
330
579E
100
AcDbDictionary
  0
DICTIONARY
  5
57A3
102
{ACAD_REACTORS
330
57A2
102
}
330
57A2
100
AcDbDictionary
  0
DICTIONARY
  5
57A7
102
{ACAD_REACTORS
330
57A6
102
}
330
57A6
100
AcDbDictionary
  0
DICTIONARY
  5
5407
102
{ACAD_REACTORS
330
5406
102
}
330
5406
100
AcDbDictionary
  0
DICTIONARY
  5
540B
102
{ACAD_REACTORS
330
540A
102
}
330
540A
100
AcDbDictionary
  0
DICTIONARY
  5
5442
102
{ACAD_REACTORS
330
5441
102
}
330
5441
100
AcDbDictionary
  0
DICTIONARY
  5
547D
102
{ACAD_REACTORS
330
547C
102
}
330
547C
100
AcDbDictionary
  0
DICTIONARY
  5
5481
102
{ACAD_REACTORS
330
5480
102
}
330
5480
100
AcDbDictionary
  0
DICTIONARY
  5
5A99
330
5214
100
AcDbDictionary
280
     1
  3
ACAD_XREC_ROUNDTRIP
360
5A9A
  0
DICTIONARY
  5
5A97
330
5213
100
AcDbDictionary
280
     1
  3
ACAD_XREC_ROUNDTRIP
360
5A98
  0
DICTIONARY
  5
5A9B
330
5215
100
AcDbDictionary
280
     1
  3
ACAD_XREC_ROUNDTRIP
360
5A9C
  0
XRECORD
  5
5A9A
102
{ACAD_REACTORS
330
5A99
102
}
330
5A99
100
AcDbXrecord
102
MATERIAL
148
0.0
149
0.0
149
0.0
 93
        0
 94
      127
282
     0
 72
     1
 77
     1
171
     1
175
     1
179
     1
273
     0
  0
XRECORD
  5
5A98
102
{ACAD_REACTORS
330
5A97
102
}
330
5A97
100
AcDbXrecord
102
MATERIAL
148
0.0
149
0.0
149
0.0
 93
        0
 94
      127
282
     0
 72
     1
 77
     1
171
     1
175
     1
179
     1
273
     0
  0
XRECORD
  5
5A9C
102
{ACAD_REACTORS
330
5A9B
102
}
330
5A9B
100
AcDbXrecord
102
MATERIAL
148
0.0
149
0.0
149
0.0
 93
        0
 94
      127
282
     0
 72
     1
 77
     1
171
     1
175
     1
179
     1
273
     0
  0
ENDSEC
  0
EOF
