  0
SECTION
  2
HEADER
  9
$ACADVER
  1
AC1014
  9
$ACADMAINTVER
 70
     9
  9
$DWGCODEPAGE
  3
ANSI_932
  9
$INSBASE
 10
0.0
 20
0.0
 30
0.0
  9
$EXTMIN
 10
-74.303382073291
 20
148.838882943675
 30
0.0
  9
$EXTMAX
 10
669.073159933802
 20
552.711714421854
 30
0.0
  9
$LIMMIN
 10
-360.747566795242
 20
4.457354754526
  9
$LIMMAX
 10
-162.153696144267
 20
287.675440264018
  9
$ORTHOMODE
 70
     0
  9
$REGENMODE
 70
     1
  9
$FILLMODE
 70
     1
  9
$QTEXTMODE
 70
     0
  9
$MIRRTEXT
 70
     1
  9
$DRAGMODE
 70
     2
  9
$LTSCALE
 40
1.0
  9
$OSMODE
 70
   935
  9
$ATTMODE
 70
     1
  9
$TEXTSIZE
 40
8.0
  9
$TRACEWID
 40
1.0
  9
$TEXTSTYLE
  7
STANDARD
  9
$CLAYER
  8
寸法線
  9
$CELTYPE
  6
BYLAYER
  9
$CECOLOR
 62
   256
  9
$CELTSCALE
 40
10.0
  9
$DELOBJ
 70
     1
  9
$DISPSILH
 70
     0
  9
$DIMSCALE
 40
1.0
  9
$DIMASZ
 40
6.0
  9
$DIMEXO
 40
0.625
  9
$DIMDLI
 40
3.75
  9
$DIMRND
 40
0.0
  9
$DIMDLE
 40
0.0
  9
$DIMEXE
 40
1.25
  9
$DIMTP
 40
0.1
  9
$DIMTM
 40
0.1
  9
$DIMTXT
 40
8.0
  9
$DIMCEN
 40
2.5
  9
$DIMTSZ
 40
0.0
  9
$DIMTOL
 70
     0
  9
$DIMLIM
 70
     0
  9
$DIMTIH
 70
     0
  9
$DIMTOH
 70
     0
  9
$DIMSE1
 70
     0
  9
$DIMSE2
 70
     0
  9
$DIMTAD
 70
     1
  9
$DIMZIN
 70
     8
  9
$DIMBLK
  1
OPEN30
  9
$DIMASO
 70
     1
  9
$DIMSHO
 70
     1
  9
$DIMPOST
  1

  9
$DIMAPOST
  1

  9
$DIMALT
 70
     0
  9
$DIMALTD
 70
     2
  9
$DIMALTF
 40
0.0394
  9
$DIMLFAC
 40
1.0
  9
$DIMTOFL
 70
     1
  9
$DIMTVP
 40
1.0
  9
$DIMTIX
 70
     0
  9
$DIMSOXD
 70
     0
  9
$DIMSAH
 70
     0
  9
$DIMBLK1
  1

  9
$DIMBLK2
  1

  9
$DIMSTYLE
  2
ISO-25
  9
$DIMCLRD
 70
     0
  9
$DIMCLRE
 70
     0
  9
$DIMCLRT
 70
     0
  9
$DIMTFAC
 40
1.0
  9
$DIMGAP
 40
0.625
  9
$DIMJUST
 70
     0
  9
$DIMSD1
 70
     0
  9
$DIMSD2
 70
     0
  9
$DIMTOLJ
 70
     1
  9
$DIMTZIN
 70
     0
  9
$DIMALTZ
 70
     0
  9
$DIMALTTZ
 70
     0
  9
$DIMFIT
 70
     3
  9
$DIMUPT
 70
     0
  9
$DIMUNIT
 70
     2
  9
$DIMDEC
 70
     1
  9
$DIMTDEC
 70
     1
  9
$DIMALTU
 70
     2
  9
$DIMALTTD
 70
     2
  9
$DIMTXSTY
  7
STANDARD
  9
$DIMAUNIT
 70
     0
  9
$LUNITS
 70
     2
  9
$LUPREC
 70
     4
  9
$SKETCHINC
 40
1.0
  9
$FILLETRAD
 40
1.0
  9
$AUNITS
 70
     0
  9
$AUPREC
 70
     0
  9
$MENU
  1
.
  9
$ELEVATION
 40
0.0
  9
$PELEVATION
 40
0.0
  9
$THICKNESS
 40
0.0
  9
$LIMCHECK
 70
     0
  9
$CHAMFERA
 40
0.5
  9
$CHAMFERB
 40
0.5
  9
$CHAMFERC
 40
20.0
  9
$CHAMFERD
 40
0.0
  9
$SKPOLY
 70
     0
  9
$TDCREATE
 40
2450576.597302431
  9
$TDUPDATE
 40
2457661.614667893
  9
$TDINDWG
 40
1.3884676736
  9
$TDUSRTIMER
 40
1.3884676736
  9
$USRTIMER
 70
     1
  9
$ANGBASE
 50
0.0
  9
$ANGDIR
 70
     0
  9
$PDMODE
 70
     0
  9
$PDSIZE
 40
0.0
  9
$PLINEWID
 40
0.0
  9
$COORDS
 70
     1
  9
$SPLFRAME
 70
     0
  9
$SPLINETYPE
 70
     6
  9
$SPLINESEGS
 70
     8
  9
$ATTDIA
 70
     0
  9
$ATTREQ
 70
     1
  9
$HANDLING
 70
     1
  9
$HANDSEED
  5
5B1E
  9
$SURFTAB1
 70
     6
  9
$SURFTAB2
 70
     6
  9
$SURFTYPE
 70
     6
  9
$SURFU
 70
     6
  9
$SURFV
 70
     6
  9
$UCSNAME
  2

  9
$UCSORG
 10
0.0
 20
0.0
 30
0.0
  9
$UCSXDIR
 10
1.0
 20
0.0
 30
0.0
  9
$UCSYDIR
 10
0.0
 20
1.0
 30
0.0
  9
$PUCSNAME
  2

  9
$PUCSORG
 10
0.0
 20
0.0
 30
0.0
  9
$PUCSXDIR
 10
1.0
 20
0.0
 30
0.0
  9
$PUCSYDIR
 10
0.0
 20
1.0
 30
0.0
  9
$USERI1
 70
     0
  9
$USERI2
 70
     0
  9
$USERI3
 70
     0
  9
$USERI4
 70
     0
  9
$USERI5
 70
     0
  9
$USERR1
 40
0.0
  9
$USERR2
 40
0.0
  9
$USERR3
 40
0.0
  9
$USERR4
 40
0.0
  9
$USERR5
 40
0.0
  9
$WORLDVIEW
 70
     1
  9
$SHADEDGE
 70
     3
  9
$SHADEDIF
 70
    70
  9
$TILEMODE
 70
     0
  9
$MAXACTVP
 70
    16
  9
$PINSBASE
 10
0.0
 20
0.0
 30
0.0
  9
$PLIMCHECK
 70
     0
  9
$PEXTMIN
 10
4.746305129083
 20
2.648311913437
 30
0.0
  9
$PEXTMAX
 10
404.746305129083
 20
282.648311913437
 30
0.0
  9
$PLIMMIN
 10
-7.007122192383
 20
-7.007118782997
  9
$PLIMMAX
 10
417.718108215332
 20
293.315290427208
  9
$UNITMODE
 70
     0
  9
$VISRETAIN
 70
     0
  9
$PLINEGEN
 70
     0
  9
$PSLTSCALE
 70
     1
  9
$TREEDEPTH
 70
  3020
  9
$PICKSTYLE
 70
     1
  9
$CMLSTYLE
  2
STANDARD
  9
$CMLJUST
 70
     0
  9
$CMLSCALE
 40
1.0
  9
$PROXYGRAPHICS
 70
     1
  9
$MEASUREMENT
 70
     1
  0
ENDSEC
  0
SECTION
  2
CLASSES
  0
CLASS
  1
ACDBDICTIONARYWDFLT
  2
AcDbDictionaryWithDefault
  3
ObjectDBX Classes
 90
        0
280
     0
281
     0
  0
CLASS
  1
ACDBPLACEHOLDER
  2
AcDbPlaceHolder
  3
ObjectDBX Classes
 90
        0
280
     0
281
     0
  0
CLASS
  1
LAYOUT
  2
AcDbLayout
  3
ObjectDBX Classes
 90
        0
280
     0
281
     0
  0
CLASS
  1
VISUALSTYLE
  2
AcDbVisualStyle
  3
ObjectDBX Classes
 90
     4095
280
     0
281
     0
  0
CLASS
  1
SCALE
  2
AcDbScale
  3
ObjectDBX Classes
 90
     1153
280
     0
281
     0
  0
CLASS
  1
MATERIAL
  2
AcDbMaterial
  3
ObjectDBX Classes
 90
     1153
280
     0
281
     0
  0
CLASS
  1
TABLESTYLE
  2
AcDbTableStyle
  3
ObjectDBX Classes
 90
     4095
280
     0
281
     0
  0
CLASS
  1
MLEADERSTYLE
  2
AcDbMLeaderStyle
  3
ACDB_MLEADERSTYLE_CLASS
 90
     4095
280
     0
281
     0
  0
CLASS
  1
SUN
  2
AcDbSun
  3
SCENEOE
 90
     1153
280
     0
281
     0
  0
CLASS
  1
DICTIONARYVAR
  2
AcDbDictionaryVar
  3
ObjectDBX Classes
 90
        0
280
     0
281
     0
  0
CLASS
  1
CELLSTYLEMAP
  2
AcDbCellStyleMap
  3
ObjectDBX Classes
 90
     1152
280
     0
281
     0
  0
CLASS
  1
SORTENTSTABLE
  2
AcDbSortentsTable
  3
ObjectDBX Classes
 90
        0
280
     0
281
     0
  0
CLASS
  1
XRECORD
  2
AcDbXrecord
  3
ObjectDBX Classes
 90
        0
280
     0
281
     0
  0
CLASS
  1
LWPOLYLINE
  2
AcDbPolyline
  3
ObjectDBX Classes
 90
        0
280
     0
281
     1
  0
CLASS
  1
HATCH
  2
AcDbHatch
  3
ObjectDBX Classes
 90
        0
280
     0
281
     1
  0
ENDSEC
  0
SECTION
  2
TABLES
  0
TABLE
  2
VPORT
  5
8
102
{ACAD_XDICTIONARY
360
5B16
102
}
330
0
100
AcDbSymbolTable
 70
     8
  0
VPORT
  5
5000
330
8
100
AcDbSymbolTableRecord
100
AcDbViewportTableRecord
  2
*ACTIVE
 70
     0
 10
0.0
 20
0.0
 11
1.0
 21
1.0
 12
297.384888930256
 22
350.775298682765
 13
0.0
 23
0.0
 14
1.0
 24
1.0
 15
0.0
 25
0.0
 16
0.0
 26
0.0
 36
1.0
 17
0.0
 27
0.0
 37
0.0
 40
430.965684955946
 41
1.759407069555
 42
50.0
 43
0.0
 44
0.0
 50
0.0
 51
0.0
 71
    16
 72
   100
 73
     1
 74
     0
 75
     0
 76
     0
 77
     0
 78
     0
  0
ENDTAB
  0
TABLE
  2
LTYPE
  5
5
330
0
100
AcDbSymbolTable
 70
     6
  0
LTYPE
  5
14
330
5
100
AcDbSymbolTableRecord
100
AcDbLinetypeTableRecord
  2
BYBLOCK
 70
     0
  3

 72
    65
 73
     0
 40
0.0
  0
LTYPE
  5
15
330
5
100
AcDbSymbolTableRecord
100
AcDbLinetypeTableRecord
  2
BYLAYER
 70
     0
  3

 72
    65
 73
     0
 40
0.0
  0
LTYPE
  5
16
330
5
100
AcDbSymbolTableRecord
100
AcDbLinetypeTableRecord
  2
CONTINUOUS
 70
     0
  3
Solid line
 72
    65
 73
     0
 40
0.0
  0
LTYPE
  5
1EC
330
5
100
AcDbSymbolTableRecord
100
AcDbLinetypeTableRecord
  2
CENTER
 70
     0
  3
____ _ ____ _ ____ _ ____ _ ____ _ ____ _ ____ 
 72
    65
 73
     4
 40
2.0
 49
1.25
 74
     0
 49
-0.25
 74
     0
 49
0.25
 74
     0
 49
-0.25
 74
     0
  0
LTYPE
  5
1ED
330
5
100
AcDbSymbolTableRecord
100
AcDbLinetypeTableRecord
  2
DASHED
 70
     0
  3
__ __ __ __ __ __ __ __ __ __ __ __ __ __ __ __
 72
    65
 73
     2
 40
0.75
 49
0.5
 74
     0
 49
-0.25
 74
     0
  0
LTYPE
  5
2B1F
330
5
100
AcDbSymbolTableRecord
100
AcDbLinetypeTableRecord
  2
DASHDOT
 70
     0
  3
一点鎖線
 72
    65
 73
     4
 40
25.6
 49
20.0
 74
     0
 49
-2.0
 74
     0
 49
1.6
 74
     0
 49
-2.0
 74
     0
  0
LTYPE
  5
31A1
330
5
100
AcDbSymbolTableRecord
100
AcDbLinetypeTableRecord
  2
CENTER2
 70
     0
  3
Center (.5x) ___ _ ___ _ ___ _ ___ _ ___ _ ___
 72
    65
 73
     4
 40
28.575
 49
19.05
 74
     0
 49
-3.175
 74
     0
 49
3.175
 74
     0
 49
-3.175
 74
     0
  0
LTYPE
  5
4002
330
5
100
AcDbSymbolTableRecord
100
AcDbLinetypeTableRecord
  2
DASHED2
 70
     0
  3
Dashed (.5x) _ _ _ _ _ _ _ _ _ _ _ _ _ _ _ _ _
 72
    65
 73
     2
 40
9.525
 49
6.35
 74
     0
 49
-3.175
 74
     0
  0
ENDTAB
  0
TABLE
  2
LAYER
  5
2
102
{ACAD_XDICTIONARY
360
29EA
102
}
330
0
100
AcDbSymbolTable
 70
    12
  0
LAYER
  5
F
330
2
100
AcDbSymbolTableRecord
100
AcDbLayerTableRecord
  2
0
 70
     0
 62
     7
  6
CONTINUOUS
  0
LAYER
  5
61
330
2
100
AcDbSymbolTableRecord
100
AcDbLayerTableRecord
  2
図枠太線
 70
     0
 62
   251
  6
CONTINUOUS
  0
LAYER
  5
62
330
2
100
AcDbSymbolTableRecord
100
AcDbLayerTableRecord
  2
図枠細線
 70
     0
 62
   252
  6
CONTINUOUS
  0
LAYER
  5
63
330
2
100
AcDbSymbolTableRecord
100
AcDbLayerTableRecord
  2
図枠ロゴマーク
 70
     0
 62
   253
  6
CONTINUOUS
  0
LAYER
  5
1EF
330
2
100
AcDbSymbolTableRecord
100
AcDbLayerTableRecord
  2
外形線
 70
     0
 62
     7
  6
CONTINUOUS
  0
LAYER
  5
1F0
330
2
100
AcDbSymbolTableRecord
100
AcDbLayerTableRecord
  2
寸法線
 70
     0
 62
     1
  6
CONTINUOUS
  0
LAYER
  5
1F1
330
2
100
AcDbSymbolTableRecord
100
AcDbLayerTableRecord
  2
中心線
 70
     0
 62
     4
  6
CENTER
  0
LAYER
  5
1F4
330
2
100
AcDbSymbolTableRecord
100
AcDbLayerTableRecord
  2
DEFPOINTS
 70
     0
 62
     7
  6
CONTINUOUS
  0
LAYER
  5
2AA2
330
2
100
AcDbSymbolTableRecord
100
AcDbLayerTableRecord
  2
下書線
 70
     0
 62
     2
  6
CONTINUOUS
  0
LAYER
  5
2AA3
330
2
100
AcDbSymbolTableRecord
100
AcDbLayerTableRecord
  2
隠れ線
 70
     0
 62
     3
  6
DASHED
  0
LAYER
  5
2AA4
330
2
100
AcDbSymbolTableRecord
100
AcDbLayerTableRecord
  2
細線
 70
     0
 62
     6
  6
CONTINUOUS
  0
LAYER
  5
2AA5
330
2
100
AcDbSymbolTableRecord
100
AcDbLayerTableRecord
  2
太線
 70
     0
 62
   190
  6
CONTINUOUS
  0
ENDTAB
  0
TABLE
  2
STYLE
  5
3
330
0
100
AcDbSymbolTable
 70
     2
  0
STYLE
  5
10
330
3
100
AcDbSymbolTableRecord
100
AcDbTextStyleTableRecord
  2
STANDARD
 70
     0
 40
0.0
 41
1.0
 50
0.0
 71
     0
 42
8.0
  3
ISOCP
  4
bigfont.shx
  0
STYLE
  5
64
330
3
100
AcDbSymbolTableRecord
100
AcDbTextStyleTableRecord
  2
EXCADSTD
 70
     0
 40
0.0
 41
1.0
 50
0.0
 71
     0
 42
0.2
  3
monotxt
  4
bigfont
  0
ENDTAB
  0
TABLE
  2
VIEW
  5
6
330
0
100
AcDbSymbolTable
 70
     0
  0
ENDTAB
  0
TABLE
  2
UCS
  5
7
330
0
100
AcDbSymbolTable
 70
     0
  0
ENDTAB
  0
TABLE
  2
APPID
  5
9
330
0
100
AcDbSymbolTable
 70
     6
  0
APPID
  5
11
330
9
100
AcDbSymbolTableRecord
100
AcDbRegAppTableRecord
  2
ACAD
 70
     0
  0
APPID
  5
3507
330
9
100
AcDbSymbolTableRecord
100
AcDbRegAppTableRecord
  2
ACAD_DIMASSOC_CALC_DIMLFAC
 70
     0
  0
APPID
  5
3508
330
9
100
AcDbSymbolTableRecord
100
AcDbRegAppTableRecord
  2
ACAD_DIMASSOC_DIMLFAC
 70
     0
  0
APPID
  5
3509
330
9
100
AcDbSymbolTableRecord
100
AcDbRegAppTableRecord
  2
ACAD_DIMASSOC_OVERRIDDEN_D
 70
     0
  0
APPID
  5
5044
330
9
100
AcDbSymbolTableRecord
100
AcDbRegAppTableRecord
  2
ACADANNOTATIVE
 70
     0
  0
APPID
  5
54F4
330
9
100
AcDbSymbolTableRecord
100
AcDbRegAppTableRecord
  2
ACAD_MLEADERVER
 70
     0
  0
ENDTAB
  0
TABLE
  2
DIMSTYLE
  5
A
330
0
100
AcDbSymbolTable
 70
     2
  0
DIMSTYLE
105
1D
330
A
100
AcDbSymbolTableRecord
100
AcDbDimStyleTableRecord
  2
STANDARD
 70
     0
  3

  4

  5

  6

  7

 40
1.0
 41
0.18
 42
0.0625
 43
0.38
 44
0.18
 45
0.0
 46
0.0
 47
0.0
 48
0.0
140
0.18
141
0.09
142
0.0
143
25.4
144
1.0
145
0.0
146
1.0
147
0.09
 71
     0
 72
     0
 73
     1
 74
     1
 75
     0
 76
     0
 77
     0
 78
     0
170
     0
171
     2
172
     0
173
     0
174
     0
175
     0
176
     0
177
     0
178
     0
270
     2
271
     4
272
     4
273
     2
274
     2
340
10
275
     0
280
     0
281
     0
282
     0
283
     1
284
     0
285
     0
286
     0
287
     3
288
     0
  0
DIMSTYLE
105
24
102
{ACAD_REACTORS
330
46DD
330
46EA
330
471B
330
473A
330
4759
330
478D
330
47B8
330
47EC
330
483E
330
484B
330
4A7D
330
4AB1
330
4AC8
330
4AEF
330
4D32
330
4D48
102
}
330
A
100
AcDbSymbolTableRecord
100
AcDbDimStyleTableRecord
  2
ISO-25
 70
     0
  3

  4

  5

  6

  7

 40
1.0
 41
2.5
 42
0.625
 43
3.75
 44
1.25
 45
0.0
 46
0.0
 47
0.0
 48
0.0
140
2.5
141
2.5
142
0.0
143
0.0394
144
1.0
145
1.0
146
1.0
147
0.625
 71
     0
 72
     0
 73
     1
 74
     0
 75
     0
 76
     0
 77
     1
 78
     8
170
     0
171
     2
172
     1
173
     0
174
     0
175
     0
176
     0
177
     0
178
     0
270
     2
271
     4
272
     4
273
     2
274
     2
340
10
275
     0
280
     0
281
     0
282
     0
283
     1
284
     0
285
     0
286
     0
287
     3
288
     0
  0
ENDTAB
  0
TABLE
  2
BLOCK_RECORD
  5
1
330
0
100
AcDbSymbolTable
 70
    24
  0
BLOCK_RECORD
  5
1A
330
1
100
AcDbSymbolTableRecord
100
AcDbBlockTableRecord
  2
*MODEL_SPACE
  0
BLOCK_RECORD
  5
28FB
330
1
100
AcDbSymbolTableRecord
100
AcDbBlockTableRecord
  2
*PAPER_SPACE
  0
BLOCK_RECORD
  5
65
330
1
100
AcDbSymbolTableRecord
100
AcDbBlockTableRecord
  2
A$C3392
  0
BLOCK_RECORD
  5
29BF
330
1
100
AcDbSymbolTableRecord
100
AcDbBlockTableRecord
  2
A4横用_タイトル
1001
ACAD
1000
DesignCenter Data
1002
{
1070
     1
1070
     4
1002
}
  0
BLOCK_RECORD
  5
29F4
330
1
100
AcDbSymbolTableRecord
100
AcDbBlockTableRecord
  2
A4縦用_タイトル
1001
ACAD
1000
DesignCenter Data
1002
{
1070
     1
1070
     4
1002
}
  0
BLOCK_RECORD
  5
2A32
330
1
100
AcDbSymbolTableRecord
100
AcDbBlockTableRecord
  2
A3横用_タイトル
1001
ACAD
1000
DesignCenter Data
1002
{
1070
     1
1070
     4
1002
}
  0
BLOCK_RECORD
  5
2A6C
330
1
100
AcDbSymbolTableRecord
100
AcDbBlockTableRecord
  2
A3縦用_タイトル
1001
ACAD
1000
DesignCenter Data
1002
{
1070
     1
1070
     4
1002
}
  0
BLOCK_RECORD
  5
2AF4
330
1
100
AcDbSymbolTableRecord
100
AcDbBlockTableRecord
  2
_OPEN30
  0
BLOCK_RECORD
  5
46DE
330
1
100
AcDbSymbolTableRecord
100
AcDbBlockTableRecord
  2
*D6
  0
BLOCK_RECORD
  5
46EB
330
1
100
AcDbSymbolTableRecord
100
AcDbBlockTableRecord
  2
*D7
  0
BLOCK_RECORD
  5
471C
330
1
100
AcDbSymbolTableRecord
100
AcDbBlockTableRecord
  2
*D8
  0
BLOCK_RECORD
  5
473B
330
1
100
AcDbSymbolTableRecord
100
AcDbBlockTableRecord
  2
*D9
  0
BLOCK_RECORD
  5
475A
330
1
100
AcDbSymbolTableRecord
100
AcDbBlockTableRecord
  2
*D10
  0
BLOCK_RECORD
  5
478E
330
1
100
AcDbSymbolTableRecord
100
AcDbBlockTableRecord
  2
*D11
  0
BLOCK_RECORD
  5
47B9
330
1
100
AcDbSymbolTableRecord
100
AcDbBlockTableRecord
  2
*D12
  0
BLOCK_RECORD
  5
47ED
330
1
100
AcDbSymbolTableRecord
100
AcDbBlockTableRecord
  2
*D13
  0
BLOCK_RECORD
  5
483F
330
1
100
AcDbSymbolTableRecord
100
AcDbBlockTableRecord
  2
*D14
  0
BLOCK_RECORD
  5
484C
330
1
100
AcDbSymbolTableRecord
100
AcDbBlockTableRecord
  2
*D15
  0
BLOCK_RECORD
  5
4A7E
330
1
100
AcDbSymbolTableRecord
100
AcDbBlockTableRecord
  2
*D16
  0
BLOCK_RECORD
  5
4AB2
330
1
100
AcDbSymbolTableRecord
100
AcDbBlockTableRecord
  2
*D17
  0
BLOCK_RECORD
  5
4AC9
330
1
100
AcDbSymbolTableRecord
100
AcDbBlockTableRecord
  2
*D18
  0
BLOCK_RECORD
  5
4AF0
330
1
100
AcDbSymbolTableRecord
100
AcDbBlockTableRecord
  2
*D19
  0
BLOCK_RECORD
  5
4B06
330
1
100
AcDbSymbolTableRecord
100
AcDbBlockTableRecord
  2
静電容量センサ
  0
BLOCK_RECORD
  5
4D33
330
1
100
AcDbSymbolTableRecord
100
AcDbBlockTableRecord
  2
*D21
  0
BLOCK_RECORD
  5
4D49
330
1
100
AcDbSymbolTableRecord
100
AcDbBlockTableRecord
  2
*D22
  0
BLOCK_RECORD
  5
4E7E
330
1
100
AcDbSymbolTableRecord
100
AcDbBlockTableRecord
  2
A$C024602DC
  0
ENDTAB
  0
ENDSEC
  0
SECTION
  2
BLOCKS
  0
BLOCK
  5
1B
330
1A
100
AcDbEntity
  8
0
100
AcDbBlockBegin
  2
*MODEL_SPACE
 70
     0
 10
0.0
 20
0.0
 30
0.0
  3
*MODEL_SPACE
  1

  0
ENDBLK
  5
1C
330
1A
100
AcDbEntity
  8
0
100
AcDbBlockEnd
  0
BLOCK
  5
28FD
330
28FB
100
AcDbEntity
 67
     1
  8
0
 48
10.0
100
AcDbBlockBegin
  2
*PAPER_SPACE
 70
     0
 10
0.0
 20
0.0
 30
0.0
  3
*PAPER_SPACE
  1

  0
ENDBLK
  5
28FE
330
28FB
100
AcDbEntity
 67
     1
  8
0
 48
10.0
100
AcDbBlockEnd
  0
BLOCK
  5
93
330
65
100
AcDbEntity
  8
0
100
AcDbBlockBegin
  2
A$C3392
 70
     0
 10
0.0
 20
0.0
 30
0.0
  3
A$C3392
  1

  0
LINE
  5
66
330
65
100
AcDbEntity
  8
図枠太線
  6
CONTINUOUS
100
AcDbLine
 10
211.858584505185
 20
30.927375675439
 30
0.0
 11
211.858584505185
 21
0.927375675439
 31
0.0
  0
LINE
  5
67
330
65
100
AcDbEntity
  8
図枠細線
  6
CONTINUOUS
100
AcDbLine
 10
231.858592505185
 20
15.927377675439
 30
0.0
 11
287.858592505185
 21
15.927375675439
 31
0.0
  0
LINE
  5
68
330
65
100
AcDbEntity
  8
図枠細線
  6
CONTINUOUS
100
AcDbLine
 10
211.858592505185
 20
15.927377675439
 30
0.0
 11
231.858592505185
 21
15.927377675439
 31
0.0
  0
LINE
  5
69
330
65
100
AcDbEntity
  8
図枠太線
  6
CONTINUOUS
 62
   251
100
AcDbLine
 10
1.858584505185
 20
0.927375675439
 30
0.0
 11
1.858584505185
 21
275.927375675439
 31
0.0
  0
TEXT
  5
6A
330
65
100
AcDbEntity
  8
図枠細線
  6
CONTINUOUS
 62
   252
100
AcDbText
 10
351.358592505185
 20
28.427377675439
 30
0.0
 40
2.0
  1
ＴＩＴＬＥ
 41
0.903614457831
  7
EXCADSTD
 72
     5
 11
361.358592505185
 21
28.427377675439
 31
0.0
100
AcDbText
  0
TEXT
  5
6B
330
65
100
AcDbEntity
  8
図枠細線
  6
CONTINUOUS
 62
   252
100
AcDbText
 10
345.358592505185
 20
28.427377675439
 30
0.0
 40
2.0
  1
名称
 41
1.171875
  7
EXCADSTD
 72
     5
 11
350.358592505185
 21
28.427377675439
 31
0.0
100
AcDbText
  0
TEXT
  5
6C
330
65
100
AcDbEntity
  8
図枠細線
  6
CONTINUOUS
 62
   252
100
AcDbText
 10
274.358592505185
 20
25.927377675439
 30
0.0
 40
2.0
  1
ＤＲＡＷＮ
 41
0.882352941176
  7
EXCADSTD
 72
     5
 11
284.358592505185
 21
25.927377675439
 31
0.0
100
AcDbText
  0
TEXT
  5
6D
330
65
100
AcDbEntity
  8
図枠細線
  6
CONTINUOUS
 62
   252
100
AcDbText
 10
260.358592505185
 20
25.927377675439
 30
0.0
 40
2.0
  1
ＤＥＳＩＧＮＥＤ
 41
0.713043472041
  7
EXCADSTD
 72
     5
 11
273.478592390744
 21
25.927377675439
 31
0.0
100
AcDbText
  0
TEXT
  5
6E
330
65
100
AcDbEntity
  8
図枠細線
  6
CONTINUOUS
 62
   252
100
AcDbText
 10
246.358592505185
 20
25.927377675439
 30
0.0
 40
2.0
  1
ＣＨＥＣＫＥＤ
 41
0.831249989569
  7
EXCADSTD
 72
     5
 11
259.658592338292
 21
25.927377675439
 31
0.0
100
AcDbText
  0
TEXT
  5
6F
330
65
100
AcDbEntity
  8
図枠細線
  6
CONTINUOUS
 62
   252
100
AcDbText
 10
274.358592505185
 20
28.427377675439
 30
0.0
 40
2.0
  1
製図
 41
1.209677419355
  7
EXCADSTD
 72
     5
 11
279.358592505185
 21
28.427377675439
 31
0.0
100
AcDbText
  0
TEXT
  5
70
330
65
100
AcDbEntity
  8
図枠細線
  6
CONTINUOUS
 62
   252
100
AcDbText
 10
260.358592505185
 20
28.427377675439
 30
0.0
 40
2.0
  1
設計
 41
1.171875
  7
EXCADSTD
 72
     5
 11
265.358592505185
 21
28.427377675439
 31
0.0
100
AcDbText
  0
TEXT
  5
71
330
65
100
AcDbEntity
  8
図枠細線
  6
CONTINUOUS
 62
   252
100
AcDbText
 10
246.358592505185
 20
28.427377675439
 30
0.0
 40
2.0
  1
検図
 41
1.209677419355
  7
EXCADSTD
 72
     5
 11
251.358592505185
 21
28.427377675439
 31
0.0
100
AcDbText
  0
TEXT
  5
72
330
65
100
AcDbEntity
  8
図枠細線
  6
CONTINUOUS
 62
   252
100
AcDbText
 10
232.358592505185
 20
25.927377675439
 30
0.0
 40
2.0
  1
ＡＰＰＲＯＶＥＤ
 41
0.695652184279
  7
EXCADSTD
 72
     5
 11
245.15859269592
 21
25.927377675439
 31
0.0
100
AcDbText
  0
TEXT
  5
73
330
65
100
AcDbEntity
  8
図枠細線
  6
CONTINUOUS
 62
   252
100
AcDbText
 10
232.358592505185
 20
28.427377675439
 30
0.0
 40
2.0
  1
承認
 41
1.171875
  7
EXCADSTD
 72
     5
 11
237.358592505185
 21
28.427377675439
 31
0.0
100
AcDbText
  0
TEXT
  5
74
330
65
100
AcDbEntity
  8
図枠細線
  6
CONTINUOUS
 62
   252
100
AcDbText
 10
290.069888505185
 20
2.574868675439
 30
0.0
 40
3.5
  1
ＴＯＷＡ　ＳＥＩＤＥＮ　ＩＮＤＵＳＴＲＩＡＬ　ＣＯ．，ＬＴＤ．
 41
0.414568012377
  7
EXCADSTD
 72
     5
 11
342.692388209546
 21
2.574868675439
 31
0.0
100
AcDbText
  0
TEXT
  5
75
330
65
100
AcDbEntity
  8
図枠ロゴマーク
  6
CONTINUOUS
 62
   253
100
AcDbText
 10
290.107348505185
 20
7.519769675439
 30
0.0
 40
7.0
  1
東和制電工業株式会社
 41
0.639204545455
  7
EXCADSTD
 72
     5
 11
342.607348505185
 21
7.519769675439
 31
0.0
100
AcDbText
  0
TEXT
  5
76
330
65
100
AcDbEntity
  8
図枠細線
  6
CONTINUOUS
 62
   252
100
AcDbText
 10
232.499705505185
 20
5.759088675439
 30
0.0
 40
2.0
  1
ＰＲＯＪＥＣＴＩＯＮ
 41
0.754285710199
  7
EXCADSTD
 72
     5
 11
250.099705409817
 21
5.759088675439
 31
0.0
100
AcDbText
  0
TEXT
  5
77
330
65
100
AcDbEntity
  8
図枠細線
  6
CONTINUOUS
 62
   252
100
AcDbText
 10
232.574629505185
 20
8.681077675439
 30
0.0
 40
2.0
  1
ＴＨＩＲＤ　ＡＮＧＬＥ
 41
0.691099486738
  7
EXCADSTD
 72
     5
 11
250.174629767445
 21
8.681077675439
 31
0.0
100
AcDbText
  0
TEXT
  5
78
330
65
100
AcDbEntity
  8
図枠細線
  6
CONTINUOUS
 62
   252
100
AcDbText
 10
256.823999505185
 20
13.427377675439
 30
0.0
 40
2.0
  1
ＳＣＡＬＥ
 41
0.903614457831
  7
EXCADSTD
 72
     5
 11
266.823999505185
 21
13.427377675439
 31
0.0
100
AcDbText
  0
TEXT
  5
79
330
65
100
AcDbEntity
  8
図枠細線
  6
CONTINUOUS
 62
   252
100
AcDbText
 10
274.858592505185
 20
13.427377675439
 30
0.0
 40
2.0
  1
ＤＡＴＥ
 41
0.923076923077
  7
EXCADSTD
 72
     5
 11
282.858592505185
 21
13.427377675439
 31
0.0
100
AcDbText
  0
TEXT
  5
7A
330
65
100
AcDbEntity
  8
図枠細線
  6
CONTINUOUS
 62
   252
100
AcDbText
 10
356.358592505185
 20
13.427377675439
 30
0.0
 40
2.0
  1
ＤＲＧ．ＮＯ．
 41
0.9375
  7
EXCADSTD
 72
     5
 11
370.358592505185
 21
13.427377675439
 31
0.0
100
AcDbText
  0
TEXT
  5
7B
330
65
100
AcDbEntity
  8
図枠細線
  6
CONTINUOUS
 62
   252
100
AcDbText
 10
345.358592505185
 20
13.427377675439
 30
0.0
 40
2.0
  1
図面番号
 41
1.102941176471
  7
EXCADSTD
 72
     5
 11
355.358592505185
 21
13.427377675439
 31
0.0
100
AcDbText
  0
TEXT
  5
7C
330
65
100
AcDbEntity
  8
図枠細線
  6
CONTINUOUS
 62
   252
100
AcDbText
 10
269.358592505185
 20
13.427377675439
 30
0.0
 40
2.0
  1
日付
 41
1.171875
  7
EXCADSTD
 72
     5
 11
274.358592505185
 21
13.427377675439
 31
0.0
100
AcDbText
  0
TEXT
  5
7D
330
65
100
AcDbEntity
  8
図枠細線
  6
CONTINUOUS
 62
   252
100
AcDbText
 10
251.451512505185
 20
13.427377675439
 30
0.0
 40
2.0
  1
尺度
 41
1.171875
  7
EXCADSTD
 72
     5
 11
256.451512505185
 21
13.427377675439
 31
0.0
100
AcDbText
  0
TEXT
  5
7E
330
65
100
AcDbEntity
  8
図枠細線
  6
CONTINUOUS
 62
   252
100
AcDbText
 10
232.358592505185
 20
13.427377675439
 30
0.0
 40
2.0
  1
第三角法
 41
1.102941176471
  7
EXCADSTD
 72
     5
 11
242.358592505185
 21
13.427377675439
 31
0.0
100
AcDbText
  0
TEXT
  5
7F
330
65
100
AcDbEntity
  8
図枠細線
  6
CONTINUOUS
 62
   252
100
AcDbText
 10
212.358592505185
 20
28.427377675439
 30
0.0
 40
2.0
  1
ＮＯＴＥ
 41
0.923076923077
  7
EXCADSTD
 72
     5
 11
220.358592505185
 21
28.427377675439
 31
0.0
100
AcDbText
  0
LINE
  5
80
330
65
100
AcDbEntity
  8
図枠細線
  6
CONTINUOUS
 62
   252
100
AcDbLine
 10
287.858592505185
 20
23.427375675439
 30
0.0
 11
344.858592505185
 21
23.427375675439
 31
0.0
  0
LINE
  5
81
330
65
100
AcDbEntity
  8
図枠太線
  6
CONTINUOUS
 62
   251
100
AcDbLine
 10
287.858584505185
 20
15.927375675439
 30
0.0
 11
344.858592505185
 21
15.927375675439
 31
0.0
  0
LINE
  5
82
330
65
100
AcDbEntity
  8
図枠細線
  6
CONTINUOUS
 62
   252
100
AcDbLine
 10
344.858592505185
 20
15.927375675439
 30
0.0
 11
401.858584505185
 21
15.927375675439
 31
0.0
  0
LINE
  5
83
330
65
100
AcDbEntity
  8
図枠太線
  6
CONTINUOUS
 62
   251
100
AcDbLine
 10
344.858592505185
 20
0.927377675439
 30
0.0
 11
344.858592505185
 21
30.927375675439
 31
0.0
  0
LINE
  5
84
330
65
100
AcDbEntity
  8
図枠太線
  6
CONTINUOUS
 62
   251
100
AcDbLine
 10
287.858592505185
 20
0.927377675439
 30
0.0
 11
287.858592505185
 21
30.927375675439
 31
0.0
  0
LINE
  5
85
330
65
100
AcDbEntity
  8
図枠細線
  6
CONTINUOUS
 62
   252
100
AcDbLine
 10
268.858592505185
 20
0.927377675439
 30
0.0
 11
268.858592505185
 21
15.927375675439
 31
0.0
  0
LINE
  5
86
330
65
100
AcDbEntity
  8
図枠細線
  6
CONTINUOUS
 62
   252
100
AcDbLine
 10
250.858592505185
 20
0.927377675439
 30
0.0
 11
250.858592505185
 21
15.927375675439
 31
0.0
  0
LINE
  5
87
330
65
100
AcDbEntity
  8
図枠細線
  6
CONTINUOUS
 62
   252
100
AcDbLine
 10
273.858592505185
 20
30.927375675439
 30
0.0
 11
273.858592505185
 21
15.927375675439
 31
0.0
  0
LINE
  5
88
330
65
100
AcDbEntity
  8
図枠細線
  6
CONTINUOUS
 62
   252
100
AcDbLine
 10
259.858592505185
 20
30.927375675439
 30
0.0
 11
259.858592505185
 21
15.927375675439
 31
0.0
  0
LINE
  5
89
330
65
100
AcDbEntity
  8
図枠細線
  6
CONTINUOUS
 62
   252
100
AcDbLine
 10
245.858592505185
 20
30.927375675439
 30
0.0
 11
245.858592505185
 21
15.927375675439
 31
0.0
  0
LINE
  5
8A
330
65
100
AcDbEntity
  8
図枠太線
  6
CONTINUOUS
 62
   251
100
AcDbLine
 10
231.858592505185
 20
0.927377675439
 30
0.0
 11
231.858592505185
 21
30.927375675439
 31
0.0
  0
LINE
  5
8B
330
65
100
AcDbEntity
  8
図枠細線
  6
CONTINUOUS
 62
   252
100
AcDbLine
 10
211.858592505185
 20
25.927375675439
 30
0.0
 11
231.858592505185
 21
25.927375675439
 31
0.0
  0
LINE
  5
8C
330
65
100
AcDbEntity
  8
図枠細線
  6
CONTINUOUS
 62
   252
100
AcDbLine
 10
211.858592505185
 20
20.927375675439
 30
0.0
 11
231.858592505185
 21
20.927375675439
 31
0.0
  0
LINE
  5
8D
330
65
100
AcDbEntity
  8
図枠細線
  6
CONTINUOUS
 62
   252
100
AcDbLine
 10
211.858592505185
 20
10.927375675439
 30
0.0
 11
231.858592505185
 21
10.927375675439
 31
0.0
  0
LINE
  5
8E
330
65
100
AcDbEntity
  8
図枠細線
  6
CONTINUOUS
 62
   252
100
AcDbLine
 10
211.858592505185
 20
5.927377675439
 30
0.0
 11
231.858592505185
 21
5.927377675439
 31
0.0
  0
LINE
  5
8F
330
65
100
AcDbEntity
  8
図枠太線
  6
CONTINUOUS
 62
   251
100
AcDbLine
 10
211.858592505185
 20
30.927375675439
 30
0.0
 11
401.858584505185
 21
30.927375675439
 31
0.0
  0
LINE
  5
90
330
65
100
AcDbEntity
  8
図枠太線
  6
CONTINUOUS
 62
   251
100
AcDbLine
 10
1.858584505185
 20
275.927375675439
 30
0.0
 11
401.858584505185
 21
275.927375675439
 31
0.0
  0
LINE
  5
91
330
65
100
AcDbEntity
  8
図枠太線
  6
CONTINUOUS
 62
   251
100
AcDbLine
 10
401.858584505185
 20
0.927375675439
 30
0.0
 11
401.858584505185
 21
275.927375675439
 31
0.0
  0
LINE
  5
92
330
65
100
AcDbEntity
  8
図枠太線
  6
CONTINUOUS
 62
   251
100
AcDbLine
 10
1.858584505185
 20
0.927375675439
 30
0.0
 11
401.858584505185
 21
0.927375675439
 31
0.0
  0
ENDBLK
  5
94
330
65
100
AcDbEntity
  8
0
100
AcDbBlockEnd
  0
BLOCK
  5
29C0
330
29BF
100
AcDbEntity
  8
0
100
AcDbBlockBegin
  2
A4横用_タイトル
 70
     0
 10
0.0
 20
0.0
 30
0.0
  3
A4横用_タイトル
  1

  0
LINE
  5
29C1
330
29BF
100
AcDbEntity
  8
図枠細線
  6
CONTINUOUS
100
AcDbLine
 10
75.061011071051
 20
16.806607253358
 30
0.0
 11
144.061011071051
 21
16.806604789072
 31
0.0
  0
LINE
  5
29C2
330
29BF
100
AcDbEntity
  8
図枠細線
  6
CONTINUOUS
 62
   252
100
AcDbLine
 10
4.061011071051
 20
11.806606253358
 30
0.0
 11
75.061011071051
 21
11.806606253358
 31
0.0
  0
LINE
  5
29C3
330
29BF
100
AcDbEntity
  8
図枠細線
  6
CONTINUOUS
 62
   252
100
AcDbLine
 10
4.061011071051
 20
21.806606253358
 30
0.0
 11
75.061011071051
 21
21.806606253358
 31
0.0
  0
LINE
  5
29C4
330
29BF
100
AcDbEntity
  8
図枠細線
  6
CONTINUOUS
 62
   252
100
AcDbLine
 10
4.061011071051
 20
26.806606253358
 30
0.0
 11
75.061011071051
 21
26.806606253358
 31
0.0
  0
LINE
  5
29C5
330
29BF
100
AcDbEntity
  8
図枠細線
  6
CONTINUOUS
100
AcDbLine
 10
4.061011071051
 20
16.806608253358
 30
0.0
 11
75.061011071051
 21
16.806608253358
 31
0.0
  0
TEXT
  5
29C6
330
29BF
100
AcDbEntity
  8
図枠細線
  6
CONTINUOUS
 62
   252
100
AcDbText
 10
76.405475827713
 20
9.560308253358
 30
0.0
 40
2.0
  1
ＴＨＩＲＤ　ＡＮＧＬＥ
 41
0.691099486738
  7
EXCADSTD
 72
     5
 11
94.005476089973
 21
9.560308253358
 31
0.0
100
AcDbText
  0
TEXT
  5
29C7
330
29BF
100
AcDbEntity
  8
図枠細線
  6
CONTINUOUS
 62
   252
100
AcDbText
 10
76.705775880921
 20
14.306608253358
 30
0.0
 40
2.0
  1
第三角法
 41
1.102941176471
  7
EXCADSTD
 72
     5
 11
86.705775880921
 21
14.306608253358
 31
0.0
100
AcDbText
  0
TEXT
  5
29C8
330
29BF
100
AcDbEntity
  8
図枠細線
  6
CONTINUOUS
 62
   252
100
AcDbText
 10
76.705775880921
 20
26.806608253358
 30
0.0
 40
2.0
  1
ＡＰＰＲＯＶＥＤ
 41
0.695652184279
  7
EXCADSTD
 72
     5
 11
89.505776071656
 21
26.806608253358
 31
0.0
100
AcDbText
  0
TEXT
  5
29C9
330
29BF
100
AcDbEntity
  8
図枠細線
  6
CONTINUOUS
 62
   252
100
AcDbText
 10
76.705775880921
 20
29.306608253358
 30
0.0
 40
2.0
  1
承認
 41
1.171875
  7
EXCADSTD
 72
     5
 11
81.705775880921
 21
29.306608253358
 31
0.0
100
AcDbText
  0
LINE
  5
29CA
330
29BF
100
AcDbEntity
  8
図枠細線
  6
CONTINUOUS
 62
   252
100
AcDbLine
 10
98.061011071051
 20
31.806606253358
 30
0.0
 11
98.061011071051
 21
16.806606253358
 31
0.0
  0
TEXT
  5
29CB
330
29BF
100
AcDbEntity
  8
図枠細線
  6
CONTINUOUS
 62
   252
100
AcDbText
 10
104.216531119804
 20
14.306608253358
 30
0.0
 40
2.0
  1
ＳＣＡＬＥ
 41
0.903614457831
  7
EXCADSTD
 72
     5
 11
114.216531119804
 21
14.306608253358
 31
0.0
100
AcDbText
  0
TEXT
  5
29CC
330
29BF
100
AcDbEntity
  8
図枠細線
  6
CONTINUOUS
 62
   252
100
AcDbText
 10
98.844044119804
 20
14.306608253358
 30
0.0
 40
2.0
  1
尺度
 41
1.171875
  7
EXCADSTD
 72
     5
 11
103.844044119804
 21
14.306608253358
 31
0.0
100
AcDbText
  0
TEXT
  5
29CD
330
29BF
100
AcDbEntity
  8
図枠細線
  6
CONTINUOUS
 62
   252
100
AcDbText
 10
98.968727707497
 20
26.806608253358
 30
0.0
 40
2.0
  1
ＣＨＥＣＫＥＤ
 41
0.831249989569
  7
EXCADSTD
 72
     5
 11
112.268727540604
 21
26.806608253358
 31
0.0
100
AcDbText
  0
TEXT
  5
29CE
330
29BF
100
AcDbEntity
  8
図枠細線
  6
CONTINUOUS
 62
   252
100
AcDbText
 10
98.968727707497
 20
29.306608253358
 30
0.0
 40
2.0
  1
検図
 41
1.209677419355
  7
EXCADSTD
 72
     5
 11
103.968727707497
 21
29.306608253358
 31
0.0
100
AcDbText
  0
LINE
  5
29CF
330
29BF
100
AcDbEntity
  8
図枠細線
  6
CONTINUOUS
 62
   252
100
AcDbLine
 10
121.061011071051
 20
31.806606253358
 30
0.0
 11
121.061011071051
 21
16.806606253358
 31
0.0
  0
TEXT
  5
29D0
330
29BF
100
AcDbEntity
  8
図枠細線
  6
CONTINUOUS
 62
   252
100
AcDbText
 10
128.001465247253
 20
14.306608253358
 30
0.0
 40
2.0
  1
ＤＡＴＥ
 41
0.923076923077
  7
EXCADSTD
 72
     5
 11
136.001465247253
 21
14.306608253358
 31
0.0
100
AcDbText
  0
TEXT
  5
29D1
330
29BF
100
AcDbEntity
  8
図枠細線
  6
CONTINUOUS
 62
   252
100
AcDbText
 10
122.066415498841
 20
14.306608253358
 30
0.0
 40
2.0
  1
日付
 41
1.171875
  7
EXCADSTD
 72
     5
 11
127.066415498841
 21
14.306608253358
 31
0.0
100
AcDbText
  0
TEXT
  5
29D2
330
29BF
100
AcDbEntity
  8
図枠細線
  6
CONTINUOUS
 62
   252
100
AcDbText
 10
121.59429406571
 20
29.306608253358
 30
0.0
 40
2.0
  1
製図
 41
1.209677419355
  7
EXCADSTD
 72
     5
 11
126.59429406571
 21
29.306608253358
 31
0.0
100
AcDbText
  0
TEXT
  5
29D3
330
29BF
100
AcDbEntity
  8
図枠細線
  6
CONTINUOUS
 62
   252
100
AcDbText
 10
121.59429406571
 20
26.806608253358
 30
0.0
 40
2.0
  1
ＤＲＡＷＮ
 41
0.882352941176
  7
EXCADSTD
 72
     5
 11
131.59429406571
 21
26.806608253358
 31
0.0
100
AcDbText
  0
TEXT
  5
29D4
330
29BF
100
AcDbEntity
  8
図枠細線
  6
CONTINUOUS
 62
   252
100
AcDbText
 10
226.591229661348
 20
14.306608253358
 30
0.0
 40
2.0
  1
ＤＲＧ．ＮＯ．
 41
0.9375
  7
EXCADSTD
 72
     5
 11
240.591229661348
 21
14.306608253358
 31
0.0
100
AcDbText
  0
LINE
  5
29D5
330
29BF
100
AcDbEntity
  8
図枠太線
  6
CONTINUOUS
 62
   251
100
AcDbLine
 10
144.061003071051
 20
16.806606253358
 30
0.0
 11
214.061011071051
 21
16.806606253358
 31
0.0
  0
LINE
  5
29D6
330
29BF
100
AcDbEntity
  8
図枠細線
  6
CONTINUOUS
 62
   252
100
AcDbLine
 10
144.061011071051
 20
24.306606253358
 30
0.0
 11
214.061011071051
 21
24.306606253358
 31
0.0
  0
TEXT
  5
29D7
330
29BF
100
AcDbEntity
  8
図枠ロゴマーク
  6
CONTINUOUS
 62
   253
100
AcDbText
 10
146.433776781596
 20
8.399000253358
 30
0.0
 40
7.0
  1
東和制電工業株式会社
 41
0.80361088462
  7
EXCADSTD
 72
     5
 11
212.437017438349
 21
8.399000253358
 31
0.0
100
AcDbText
  0
TEXT
  5
29D8
330
29BF
100
AcDbEntity
  8
図枠細線
  6
CONTINUOUS
 62
   252
100
AcDbText
 10
215.156179912936
 20
14.306608253358
 30
0.0
 40
2.0
  1
図面番号
 41
1.102941176471
  7
EXCADSTD
 72
     5
 11
225.156179912936
 21
14.306608253358
 31
0.0
100
AcDbText
  0
TEXT
  5
29D9
330
29BF
100
AcDbEntity
  8
図枠細線
  6
CONTINUOUS
 62
   252
100
AcDbText
 10
221.591229661348
 20
29.306608253358
 30
0.0
 40
2.0
  1
ＴＩＴＬＥ
 41
0.903614457831
  7
EXCADSTD
 72
     5
 11
231.591229661348
 21
29.306608253358
 31
0.0
100
AcDbText
  0
TEXT
  5
29DA
330
29BF
100
AcDbEntity
  8
図枠細線
  6
CONTINUOUS
 62
   252
100
AcDbText
 10
215.156179912936
 20
29.306608253358
 30
0.0
 40
2.0
  1
名称
 41
1.171875
  7
EXCADSTD
 72
     5
 11
220.156179912936
 21
29.306608253358
 31
0.0
100
AcDbText
  0
LINE
  5
29DB
330
29BF
100
AcDbEntity
  8
図枠太線
  6
CONTINUOUS
 62
   251
100
AcDbLine
 10
4.061011071051
 20
1.806608253358
 30
0.0
 11
284.061011071051
 21
1.806608253358
 31
0.0
  0
LINE
  5
29DC
330
29BF
100
AcDbEntity
  8
図枠細線
  6
CONTINUOUS
 62
   252
100
AcDbLine
 10
4.061011071051
 20
6.806608253358
 30
0.0
 11
75.061011071051
 21
6.806608253358
 31
0.0
  0
LINE
  5
29DD
330
29BF
100
AcDbEntity
  8
図枠太線
  6
CONTINUOUS
 62
   251
100
AcDbLine
 10
75.061011071051
 20
1.806608253358
 30
0.0
 11
75.061011071051
 21
31.806606253358
 31
0.0
  0
TEXT
  5
29DE
330
29BF
100
AcDbEntity
  8
図枠細線
  6
CONTINUOUS
 62
   252
100
AcDbText
 10
76.330551827713
 20
6.638319253358
 30
0.0
 40
2.0
  1
ＰＲＯＪＥＣＴＩＯＮ
 41
0.754285710199
  7
EXCADSTD
 72
     5
 11
93.930551732346
 21
6.638319253358
 31
0.0
100
AcDbText
  0
LINE
  5
29DF
330
29BF
100
AcDbEntity
  8
図枠細線
  6
CONTINUOUS
 62
   252
100
AcDbLine
 10
98.061011071051
 20
1.806606931929
 30
0.0
 11
98.061011071051
 21
16.806604931929
 31
0.0
  0
LINE
  5
29E0
330
29BF
100
AcDbEntity
  8
図枠細線
  6
CONTINUOUS
 62
   252
100
AcDbLine
 10
121.061011071051
 20
1.806607574787
 30
0.0
 11
121.061011071051
 21
16.806605574787
 31
0.0
  0
LINE
  5
29E1
330
29BF
100
AcDbEntity
  8
図枠太線
  6
CONTINUOUS
 62
   251
100
AcDbLine
 10
284.061011071051
 20
1.806608253358
 30
0.0
 11
284.061011071051
 21
31.806606253358
 31
0.0
  0
LINE
  5
29E2
330
29BF
100
AcDbEntity
  8
図枠細線
  6
CONTINUOUS
 62
   252
100
AcDbLine
 10
214.061011071051
 20
16.806606253358
 30
0.0
 11
284.061011071051
 21
16.806606253358
 31
0.0
  0
TEXT
  5
29E3
330
29BF
100
AcDbEntity
  8
図枠細線
  6
CONTINUOUS
 62
   252
100
AcDbText
 10
146.199593676182
 20
3.454099253358
 30
0.0
 40
3.5
  1
ＴＯＷＡ　ＳＥＩＤＥＮ　ＩＮＤＵＳＴＲＩＡＬ　ＣＯ．，ＬＴＤ．
 41
0.528937826907
  7
EXCADSTD
 72
     5
 11
213.339435171588
 21
3.454099253358
 31
0.0
100
AcDbText
  0
LINE
  5
29E4
330
29BF
100
AcDbEntity
  8
図枠太線
  6
CONTINUOUS
 62
   251
100
AcDbLine
 10
144.061011071051
 20
1.806608253358
 30
0.0
 11
144.061011071051
 21
31.806606253358
 31
0.0
  0
LINE
  5
29E5
330
29BF
100
AcDbEntity
  8
図枠太線
  6
CONTINUOUS
 62
   251
100
AcDbLine
 10
214.061011071051
 20
1.806608253358
 30
0.0
 11
214.061011071051
 21
31.806606253358
 31
0.0
  0
MTEXT
  5
29E6
330
29BF
100
AcDbEntity
  8
図枠太線
100
AcDbMText
 10
5.064337346478
 20
31.010982137407
 30
0.0
 40
2.5
 41
8.67856098472
 71
     1
 72
     5
  1
{\Fmonotxt.shx,bigfont.shx|c128;図暦}
  0
LINE
  5
29E7
330
29BF
100
AcDbEntity
  8
図枠太線
  6
CONTINUOUS
 62
   251
100
AcDbLine
 10
4.061011071051
 20
1.806608253358
 30
0.0
 11
4.061011071051
 21
31.806606253358
 31
0.0
  0
TEXT
  5
29E8
330
29BF
100
AcDbEntity
  8
図枠細線
 48
10.0
100
AcDbText
 10
12.260817420402
 20
28.625419626495
 30
0.0
 40
2.0
  1
CHANGE NOTICE
100
AcDbText
  0
ENDBLK
  5
29E9
330
29BF
100
AcDbEntity
  8
0
100
AcDbBlockEnd
  0
BLOCK
  5
29F5
330
29F4
100
AcDbEntity
  8
0
100
AcDbBlockBegin
  2
A4縦用_タイトル
 70
     0
 10
0.0
 20
0.0
 30
0.0
  3
A4縦用_タイトル
  1

  0
LINE
  5
29F6
330
29F4
100
AcDbEntity
  8
図枠太線
  6
CONTINUOUS
 62
   251
100
AcDbLine
 10
2.368253864267
 20
4.525433224584
 30
0.0
 11
192.368245864267
 21
4.525433224584
 31
0.0
  0
LINE
  5
29F7
330
29F4
100
AcDbEntity
  8
図枠太線
  6
CONTINUOUS
 62
   251
100
AcDbLine
 10
78.368245864267
 20
19.525431224584
 30
0.0
 11
135.368253864267
 21
19.525431224584
 31
0.0
  0
LINE
  5
29F8
330
29F4
100
AcDbEntity
  8
図枠細線
  6
CONTINUOUS
 62
   252
100
AcDbLine
 10
78.368253864267
 20
27.025431224584
 30
0.0
 11
135.368253864267
 21
27.025431224584
 31
0.0
  0
TEXT
  5
29F9
330
29F4
100
AcDbEntity
  8
図枠ロゴマーク
  6
CONTINUOUS
 62
   253
100
AcDbText
 10
80.617009864267
 20
11.117825224584
 30
0.0
 40
7.0
  1
東和制電工業株式会社
 41
0.639204545455
  7
EXCADSTD
 72
     5
 11
133.117009864267
 21
11.117825224584
 31
0.0
100
AcDbText
  0
TEXT
  5
29FA
330
29F4
100
AcDbEntity
  8
図枠細線
  6
CONTINUOUS
 62
   252
100
AcDbText
 10
80.579549864267
 20
6.172924224584
 30
0.0
 40
3.5
  1
ＴＯＷＡ　ＳＥＩＤＥＮ　ＩＮＤＵＳＴＲＩＡＬ　ＣＯ．，ＬＴＤ．
 41
0.414568012377
  7
EXCADSTD
 72
     5
 11
133.202049568628
 21
6.172924224584
 31
0.0
100
AcDbText
  0
LINE
  5
29FB
330
29F4
100
AcDbEntity
  8
図枠太線
  6
CONTINUOUS
 62
   251
100
AcDbLine
 10
2.368253864267
 20
4.525433224584
 30
0.0
 11
2.368253864267
 21
34.525431224584
 31
0.0
  0
TEXT
  5
29FC
330
29F4
100
AcDbEntity
  8
図枠細線
  6
CONTINUOUS
 62
   252
100
AcDbText
 10
22.504308136501
 20
12.279133224584
 30
0.0
 40
2.0
  1
ＴＨＩＲＤ　ＡＮＧＬＥ
 41
0.691099486738
  7
EXCADSTD
 72
     5
 11
40.104308398762
 21
12.279133224584
 31
0.0
100
AcDbText
  0
TEXT
  5
29FD
330
29F4
100
AcDbEntity
  8
図枠細線
  6
CONTINUOUS
 62
   252
100
AcDbText
 10
22.429384136501
 20
9.357144224584
 30
0.0
 40
2.0
  1
ＰＲＯＪＥＣＴＩＯＮ
 41
0.754285710199
  7
EXCADSTD
 72
     5
 11
40.029384041134
 21
9.357144224584
 31
0.0
100
AcDbText
  0
LINE
  5
29FE
330
29F4
100
AcDbEntity
  8
図枠細線
  6
CONTINUOUS
100
AcDbLine
 10
22.368253864267
 20
19.525433224584
 30
0.0
 11
78.368253864267
 21
19.525431224584
 31
0.0
  0
TEXT
  5
29FF
330
29F4
100
AcDbEntity
  8
図枠細線
  6
CONTINUOUS
 62
   252
100
AcDbText
 10
22.868253864267
 20
17.025433224584
 30
0.0
 40
2.0
  1
第三角法
 41
1.102941176471
  7
EXCADSTD
 72
     5
 11
32.868253864267
 21
17.025433224584
 31
0.0
100
AcDbText
  0
TEXT
  5
2A00
330
29F4
100
AcDbEntity
  8
図枠細線
  6
CONTINUOUS
 62
   252
100
AcDbText
 10
22.868253864267
 20
29.525433224584
 30
0.0
 40
2.0
  1
ＡＰＰＲＯＶＥＤ
 41
0.695652184279
  7
EXCADSTD
 72
     5
 11
35.668254055002
 21
29.525433224584
 31
0.0
100
AcDbText
  0
LINE
  5
2A01
330
29F4
100
AcDbEntity
  8
図枠細線
  6
CONTINUOUS
 62
   252
100
AcDbLine
 10
2.368253864267
 20
9.525433224584
 30
0.0
 11
22.368253864267
 21
9.525433224584
 31
0.0
  0
LINE
  5
2A02
330
29F4
100
AcDbEntity
  8
図枠細線
  6
CONTINUOUS
 62
   252
100
AcDbLine
 10
2.368253864267
 20
14.525431224584
 30
0.0
 11
22.368253864267
 21
14.525431224584
 31
0.0
  0
LINE
  5
2A03
330
29F4
100
AcDbEntity
  8
図枠細線
  6
CONTINUOUS
 62
   252
100
AcDbLine
 10
2.368253864267
 20
24.525431224584
 30
0.0
 11
22.368253864267
 21
24.525431224584
 31
0.0
  0
LINE
  5
2A04
330
29F4
100
AcDbEntity
  8
図枠細線
  6
CONTINUOUS
 62
   252
100
AcDbLine
 10
2.368253864267
 20
29.525431224584
 30
0.0
 11
22.368253864267
 21
29.525431224584
 31
0.0
  0
LINE
  5
2A05
330
29F4
100
AcDbEntity
  8
図枠細線
  6
CONTINUOUS
100
AcDbLine
 10
2.368253864267
 20
19.525433224584
 30
0.0
 11
22.368253864267
 21
19.525433224584
 31
0.0
  0
TEXT
  5
2A06
330
29F4
100
AcDbEntity
  8
図枠細線
  6
CONTINUOUS
 62
   252
100
AcDbText
 10
2.868253864267
 20
32.025433224584
 30
0.0
 40
2.0
  1
ＮＯＴＥ
 41
0.923076923077
  7
EXCADSTD
 72
     5
 11
10.868253864267
 21
32.025433224584
 31
0.0
100
AcDbText
  0
LINE
  5
2A07
330
29F4
100
AcDbEntity
  8
図枠太線
  6
CONTINUOUS
 62
   251
100
AcDbLine
 10
22.368253864267
 20
4.525433224584
 30
0.0
 11
22.368253864267
 21
34.525431224584
 31
0.0
  0
TEXT
  5
2A08
330
29F4
100
AcDbEntity
  8
図枠細線
  6
CONTINUOUS
 62
   252
100
AcDbText
 10
22.868253864267
 20
32.025433224584
 30
0.0
 40
2.0
  1
承認
 41
1.171875
  7
EXCADSTD
 72
     5
 11
27.868253864267
 21
32.025433224584
 31
0.0
100
AcDbText
  0
TEXT
  5
2A09
330
29F4
100
AcDbEntity
  8
図枠細線
  6
CONTINUOUS
 62
   252
100
AcDbText
 10
60.711709035982
 20
32.025433224584
 30
0.0
 40
2.0
  1
製図
 41
1.209677419355
  7
EXCADSTD
 72
     5
 11
65.711709035982
 21
32.025433224584
 31
0.0
100
AcDbText
  0
TEXT
  5
2A0A
330
29F4
100
AcDbEntity
  8
図枠細線
  6
CONTINUOUS
 62
   252
100
AcDbText
 10
60.711709035982
 20
29.525433224584
 30
0.0
 40
2.0
  1
ＤＲＡＷＮ
 41
0.882352941176
  7
EXCADSTD
 72
     5
 11
70.711709035982
 21
29.525433224584
 31
0.0
100
AcDbText
  0
TEXT
  5
2A0B
330
29F4
100
AcDbEntity
  8
図枠細線
  6
CONTINUOUS
 62
   252
100
AcDbText
 10
60.834891743877
 20
17.025433224584
 30
0.0
 40
2.0
  1
日付
 41
1.171875
  7
EXCADSTD
 72
     5
 11
65.834891743877
 21
17.025433224584
 31
0.0
100
AcDbText
  0
TEXT
  5
2A0C
330
29F4
100
AcDbEntity
  8
図枠細線
  6
CONTINUOUS
 62
   252
100
AcDbText
 10
47.333660864267
 20
17.025433224584
 30
0.0
 40
2.0
  1
ＳＣＡＬＥ
 41
0.903614457831
  7
EXCADSTD
 72
     5
 11
57.333660864267
 21
17.025433224584
 31
0.0
100
AcDbText
  0
TEXT
  5
2A0D
330
29F4
100
AcDbEntity
  8
図枠細線
  6
CONTINUOUS
 62
   252
100
AcDbText
 10
42.281425990082
 20
29.525433224584
 30
0.0
 40
2.0
  1
ＣＨＥＣＫＥＤ
 41
0.831249989569
  7
EXCADSTD
 72
     5
 11
55.581425823189
 21
29.525433224584
 31
0.0
100
AcDbText
  0
LINE
  5
2A0E
330
29F4
100
AcDbEntity
  8
図枠細線
  6
CONTINUOUS
 62
   252
100
AcDbLine
 10
40.968253864267
 20
34.525431224584
 30
0.0
 11
40.968253864267
 21
19.525431224584
 31
0.0
  0
LINE
  5
2A0F
330
29F4
100
AcDbEntity
  8
図枠細線
  6
CONTINUOUS
 62
   252
100
AcDbLine
 10
40.968253864267
 20
4.525433224584
 30
0.0
 11
40.968253864267
 21
19.525431224584
 31
0.0
  0
TEXT
  5
2A10
330
29F4
100
AcDbEntity
  8
図枠細線
  6
CONTINUOUS
 62
   252
100
AcDbText
 10
41.961173864267
 20
17.025433224584
 30
0.0
 40
2.0
  1
尺度
 41
1.171875
  7
EXCADSTD
 72
     5
 11
46.961173864267
 21
17.025433224584
 31
0.0
100
AcDbText
  0
TEXT
  5
2A11
330
29F4
100
AcDbEntity
  8
図枠細線
  6
CONTINUOUS
 62
   252
100
AcDbText
 10
42.281425990082
 20
32.025433224584
 30
0.0
 40
2.0
  1
検図
 41
1.209677419355
  7
EXCADSTD
 72
     5
 11
47.281425990082
 21
32.025433224584
 31
0.0
100
AcDbText
  0
LINE
  5
2A12
330
29F4
100
AcDbEntity
  8
図枠細線
  6
CONTINUOUS
 62
   252
100
AcDbLine
 10
59.768253864267
 20
34.525431224584
 30
0.0
 11
59.768253864267
 21
19.525431224584
 31
0.0
  0
LINE
  5
2A13
330
29F4
100
AcDbEntity
  8
図枠細線
  6
CONTINUOUS
 62
   252
100
AcDbLine
 10
59.768253864267
 20
4.525433224584
 30
0.0
 11
59.768253864267
 21
19.525431224584
 31
0.0
  0
LINE
  5
2A14
330
29F4
100
AcDbEntity
  8
図枠太線
  6
CONTINUOUS
 62
   251
100
AcDbLine
 10
78.368253864267
 20
4.525433224584
 30
0.0
 11
78.368253864267
 21
34.525431224584
 31
0.0
  0
TEXT
  5
2A15
330
29F4
100
AcDbEntity
  8
図枠細線
  6
CONTINUOUS
 62
   252
100
AcDbText
 10
66.334891743877
 20
17.025433224584
 30
0.0
 40
2.0
  1
ＤＡＴＥ
 41
0.923076923077
  7
EXCADSTD
 72
     5
 11
74.334891743877
 21
17.025433224584
 31
0.0
100
AcDbText
  0
LINE
  5
2A16
330
29F4
100
AcDbEntity
  8
図枠細線
  6
CONTINUOUS
 62
   252
100
AcDbLine
 10
135.368253864267
 20
19.525431224584
 30
0.0
 11
192.368245864267
 21
19.525431224584
 31
0.0
  0
TEXT
  5
2A17
330
29F4
100
AcDbEntity
  8
図枠細線
  6
CONTINUOUS
 62
   252
100
AcDbText
 10
141.868253864267
 20
32.025433224584
 30
0.0
 40
2.0
  1
ＴＩＴＬＥ
 41
0.903614457831
  7
EXCADSTD
 72
     5
 11
151.868253864267
 21
32.025433224584
 31
0.0
100
AcDbText
  0
LINE
  5
2A18
330
29F4
100
AcDbEntity
  8
図枠太線
  6
CONTINUOUS
 62
   251
100
AcDbLine
 10
135.368253864267
 20
4.525433224584
 30
0.0
 11
135.368253864267
 21
34.525431224584
 31
0.0
  0
TEXT
  5
2A19
330
29F4
100
AcDbEntity
  8
図枠細線
  6
CONTINUOUS
 62
   252
100
AcDbText
 10
135.868253864267
 20
17.025433224584
 30
0.0
 40
2.0
  1
図面番号
 41
1.102941176471
  7
EXCADSTD
 72
     5
 11
145.868253864267
 21
17.025433224584
 31
0.0
100
AcDbText
  0
TEXT
  5
2A1A
330
29F4
100
AcDbEntity
  8
図枠細線
  6
CONTINUOUS
 62
   252
100
AcDbText
 10
135.868253864267
 20
32.025433224584
 30
0.0
 40
2.0
  1
名称
 41
1.171875
  7
EXCADSTD
 72
     5
 11
140.868253864267
 21
32.025433224584
 31
0.0
100
AcDbText
  0
TEXT
  5
2A1B
330
29F4
100
AcDbEntity
  8
図枠細線
  6
CONTINUOUS
 62
   252
100
AcDbText
 10
146.868253864267
 20
17.025433224584
 30
0.0
 40
2.0
  1
ＤＲＧ．ＮＯ．
 41
0.9375
  7
EXCADSTD
 72
     5
 11
160.868253864267
 21
17.025433224584
 31
0.0
100
AcDbText
  0
LINE
  5
2A1C
330
29F4
100
AcDbEntity
  8
図枠太線
  6
CONTINUOUS
 62
   251
100
AcDbLine
 10
192.368245864267
 20
4.525433224584
 30
0.0
 11
192.368245864267
 21
34.525431224584
 31
0.0
  0
ENDBLK
  5
2A1D
330
29F4
100
AcDbEntity
  8
0
100
AcDbBlockEnd
  0
BLOCK
  5
2A33
330
2A32
100
AcDbEntity
  8
0
100
AcDbBlockBegin
  2
A3横用_タイトル
 70
     0
 10
0.0
 20
0.0
 30
0.0
  3
A3横用_タイトル
  1

  0
LINE
  5
2A34
330
2A32
100
AcDbEntity
  8
図枠細線
  6
CONTINUOUS
 62
   252
100
AcDbLine
 10
205.098414535793
 20
33.525959753527
 30
0.0
 11
305.098414535793
 21
33.525959753527
 31
0.0
  0
LINE
  5
2A35
330
2A32
100
AcDbEntity
  8
図枠太線
  6
CONTINUOUS
 62
   251
100
AcDbLine
 10
205.098414535793
 20
23.525959753527
 30
0.0
 11
305.098414535793
 21
23.525959753527
 31
0.0
  0
LINE
  5
2A36
330
2A32
100
AcDbEntity
  8
図枠細線
  6
CONTINUOUS
100
AcDbLine
 10
5.098414535793
 20
23.525959753527
 30
0.0
 11
105.098414535793
 21
23.525959753527
 31
0.0
  0
LINE
  5
2A37
330
2A32
100
AcDbEntity
  8
図枠細線
  6
CONTINUOUS
 62
   252
100
AcDbLine
 10
5.098414535793
 20
36.725957753527
 30
0.0
 11
105.098414535793
 21
36.725957753527
 31
0.0
  0
LINE
  5
2A38
330
2A32
100
AcDbEntity
  8
図枠細線
  6
CONTINUOUS
 62
   252
100
AcDbLine
 10
5.098414535793
 20
30.125957753527
 30
0.0
 11
105.098414535793
 21
30.125957753527
 31
0.0
  0
LINE
  5
2A39
330
2A32
100
AcDbEntity
  8
図枠細線
  6
CONTINUOUS
 62
   252
100
AcDbLine
 10
5.098414535793
 20
16.725959753527
 30
0.0
 11
105.098414535793
 21
16.725959753527
 31
0.0
  0
LINE
  5
2A3A
330
2A32
100
AcDbEntity
  8
図枠細線
  6
CONTINUOUS
 62
   252
100
AcDbLine
 10
5.098414535793
 20
10.125959753527
 30
0.0
 11
105.098414535793
 21
10.125959753527
 31
0.0
  0
LINE
  5
2A3B
330
2A32
100
AcDbEntity
  8
図枠細線
  6
CONTINUOUS
100
AcDbLine
 10
105.098414535793
 20
23.525961753527
 30
0.0
 11
205.098414535793
 21
23.525959753527
 31
0.0
  0
LINE
  5
2A3C
330
2A32
100
AcDbEntity
  8
図枠細線
  6
CONTINUOUS
 62
   252
100
AcDbLine
 10
138.398414535793
 20
43.525959753527
 30
0.0
 11
138.398414535793
 21
18.525957753527
 31
0.0
  0
LINE
  5
2A3D
330
2A32
100
AcDbEntity
  8
図枠細線
  6
CONTINUOUS
 62
   252
100
AcDbLine
 10
171.698414535793
 20
43.525959753527
 30
0.0
 11
171.698414535793
 21
18.525957753527
 31
0.0
  0
LINE
  5
2A3E
330
2A32
100
AcDbEntity
  8
図枠細線
  6
CONTINUOUS
 62
   252
100
AcDbLine
 10
305.098414535793
 20
23.525959753527
 30
0.0
 11
405.098414535793
 21
23.525959753527
 31
0.0
  0
TEXT
  5
2A3F
330
2A32
100
AcDbEntity
  8
図枠ロゴマーク
  6
CONTINUOUS
 62
   253
100
AcDbText
 10
206.102509212755
 20
13.294257570546
 30
0.0
 40
7.0
  1
東和制電工業株式会社
 50
0.016555220185
 41
1.186384129432
  7
EXCADSTD
 72
     5
 11
303.544188309143
 21
13.322412672217
 31
0.0
100
AcDbText
  0
MTEXT
  5
2A40
330
2A32
100
AcDbEntity
  8
図枠細線
100
AcDbMText
 10
6.356764112375
 20
41.976594175478
 30
0.0
 40
2.5
 41
49.938282706292
 71
     1
 72
     5
  1
{\Fmonotxt.shx,bigfont.shx|c128;図暦　CHANGE　NOTICE}
  0
MTEXT
  5
2A41
330
2A32
100
AcDbEntity
  8
図枠細線
 48
10.0
100
AcDbMText
 10
306.544114926828
 20
41.701835800934
 30
0.0
 40
2.5
 41
28.002809618823
 71
     1
 72
     5
  1
{\Fmonotxt.shx,bigfont.shx|c128;名称　TITLE}
  0
MTEXT
  5
2A42
330
2A32
100
AcDbEntity
  8
図枠細線
 48
10.0
100
AcDbMText
 10
307.329617114284
 20
21.606206797226
 30
0.0
 40
2.5
 41
24.385612216707
 71
     1
 72
     5
  1
{\Fmonotxt.shx,bigfont.shx|c128;図面番号\PDRG.　No.}
  0
MTEXT
  5
2A43
330
2A32
100
AcDbEntity
  8
図枠細線
 48
10.0
100
AcDbMText
 10
173.726349404609
 20
21.73680662198
 30
0.0
 40
2.5
 41
25.735090160813
 71
     1
 72
     5
  1
{\Fmonotxt.shx,bigfont.shx|c128;日付 DATE}
  0
MTEXT
  5
2A44
330
2A32
100
AcDbEntity
  8
図枠細線
 48
10.0
100
AcDbMText
 10
173.48708833982
 20
41.621592044998
 30
0.0
 40
2.5
 41
24.983741184205
 71
     1
 72
     5
  1
{\Fmonotxt.shx,bigfont.shx|c128;製図　DRAWN}
  0
MTEXT
  5
2A45
330
2A32
100
AcDbEntity
  8
図枠細線
 48
10.0
100
AcDbMText
 10
139.28009927741
 20
21.866713069868
 30
0.0
 40
2.5
 41
22.629632913243
 71
     1
 72
     5
  1
{\Fmonotxt.shx,bigfont.shx|c128;尺度　SCALE}
  0
MTEXT
  5
2A46
330
2A32
100
AcDbEntity
  8
図枠細線
 48
10.0
100
AcDbMText
 10
139.910091179835
 20
41.311840415554
 30
0.0
 40
2.5
 41
28.998753428368
 71
     1
 72
     5
  1
{\Fmonotxt.shx,bigfont.shx|c128;検図  CHECKED}
  0
MTEXT
  5
2A47
330
2A32
100
AcDbEntity
  8
図枠細線
 48
10.0
100
AcDbMText
 10
114.253294667728
 20
21.916124850174
 30
0.0
 40
3.0
 41
19.692400475383
 71
     1
 72
     5
  1
{\Fmonotxt.shx,bigfont.shx|c128;第三角法}
  0
MTEXT
  5
2A48
330
2A32
100
AcDbEntity
  8
図枠細線
 48
10.0
100
AcDbMText
 10
108.986959929915
 20
15.282880185837
 30
0.0
 40
2.5
 41
27.954882823547
 71
     1
 72
     5
  1
{\Fmonotxt.shx,bigfont.shx|c128;THIRD ANGLE\PPROJECTION}
  0
MTEXT
  5
2A49
330
2A32
100
AcDbEntity
  8
図枠細線
 48
10.0
100
AcDbMText
 10
106.319432640184
 20
41.511437145487
 30
0.0
 40
2.5
 41
28.233595265074
 71
     1
 72
     5
  1
{\Fmonotxt.shx,bigfont.shx|c128;承認 APPROVED}
  0
LINE
  5
2A4A
330
2A32
100
AcDbEntity
  8
図枠太線
  6
CONTINUOUS
 62
   251
100
AcDbLine
 10
5.098414535793
 20
3.525959753527
 30
0.0
 11
405.098414535793
 21
3.525959753527
 31
0.0
  0
LINE
  5
2A4B
330
2A32
100
AcDbEntity
  8
図枠太線
 48
10.0
100
AcDbLine
 10
5.098414535793
 20
3.525959753527
 30
0.0
 11
5.098414535793
 21
43.525959753527
 31
0.0
  0
LINE
  5
2A4C
330
2A32
100
AcDbEntity
  8
図枠太線
  6
CONTINUOUS
 62
   251
100
AcDbLine
 10
105.098414535793
 20
3.525959753527
 30
0.0
 11
105.098414535793
 21
43.525959753527
 31
0.0
  0
LINE
  5
2A4D
330
2A32
100
AcDbEntity
  8
図枠細線
  6
CONTINUOUS
 62
   252
100
AcDbLine
 10
138.398414535793
 20
3.525959753527
 30
0.0
 11
138.398414535793
 21
18.525957753527
 31
0.0
  0
LINE
  5
2A4E
330
2A32
100
AcDbEntity
  8
図枠細線
  6
CONTINUOUS
 62
   252
100
AcDbLine
 10
171.698414535793
 20
3.525959753527
 30
0.0
 11
171.698414535793
 21
18.525957753527
 31
0.0
  0
LINE
  5
2A4F
330
2A32
100
AcDbEntity
  8
図枠太線
  6
CONTINUOUS
 62
   251
100
AcDbLine
 10
205.098414535793
 20
3.525959753527
 30
0.0
 11
205.098414535793
 21
43.525959753527
 31
0.0
  0
LINE
  5
2A50
330
2A32
100
AcDbEntity
  8
図枠太線
 48
10.0
100
AcDbLine
 10
405.098414535793
 20
43.525959753527
 30
0.0
 11
405.098414535793
 21
3.525959753527
 31
0.0
  0
TEXT
  5
2A51
330
2A32
100
AcDbEntity
  8
図枠細線
  6
CONTINUOUS
 62
   252
100
AcDbText
 10
208.519754474572
 20
6.482358407285
 30
0.0
 40
3.5
  1
ＴＯＷＡ　ＳＥＩＤＥＮ　ＩＮＤＵＳＴＲＩＡＬ　ＣＯ．，ＬＴＤ．
 41
0.746656297509
  7
EXCADSTD
 72
     5
 11
303.295327171727
 21
6.482358407285
 31
0.0
100
AcDbText
  0
LINE
  5
2A52
330
2A32
100
AcDbEntity
  8
図枠太線
  6
CONTINUOUS
 62
   251
100
AcDbLine
 10
305.098414535793
 20
3.525959753527
 30
0.0
 11
305.098414535793
 21
43.525959753527
 31
0.0
  0
ENDBLK
  5
2A53
330
2A32
100
AcDbEntity
  8
0
100
AcDbBlockEnd
  0
BLOCK
  5
2A6D
330
2A6C
100
AcDbEntity
  8
0
100
AcDbBlockBegin
  2
A3縦用_タイトル
 70
     0
 10
0.0
 20
0.0
 30
0.0
  3
A3縦用_タイトル
  1

  0
MTEXT
  5
2A6E
330
2A6C
100
AcDbEntity
  8
図枠細線
100
AcDbMText
 10
5.040804501593
 20
31.626098649005
 30
0.0
 40
2.5
 41
49.938282706292
 71
     1
 72
     5
  1
{\Fmonotxt.shx,bigfont.shx|c128;図暦　CHANGE　NOTICE}
  0
LINE
  5
2A6F
330
2A6C
100
AcDbEntity
  8
図枠太線
  6
CONTINUOUS
 62
   251
100
AcDbLine
 10
283.577871882961
 20
2.820844689254
 30
0.0
 11
283.577871882961
 21
32.820842689254
 31
0.0
  0
MTEXT
  5
2A70
330
2A6C
100
AcDbEntity
  8
図枠細線
 48
10.0
100
AcDbMText
 10
214.912458947454
 20
31.621488632308
 30
0.0
 40
2.5
 41
28.002809618823
 71
     1
 72
     5
  1
{\Fmonotxt.shx,bigfont.shx|c128;名称　TITLE}
  0
MTEXT
  5
2A71
330
2A6C
100
AcDbEntity
  8
図枠細線
 48
10.0
100
AcDbMText
 10
214.740030458938
 20
16.310225796722
 30
0.0
 40
2.5
 41
24.385612216707
 71
     1
 72
     5
  1
{\Fmonotxt.shx,bigfont.shx|c128;図面番号\PDRG.　No.}
  0
LINE
  5
2A72
330
2A6C
100
AcDbEntity
  8
図枠太線
  6
CONTINUOUS
 62
   251
100
AcDbLine
 10
213.577871882961
 20
2.820844689254
 30
0.0
 11
213.577871882961
 21
32.820842689254
 31
0.0
  0
LINE
  5
2A73
330
2A6C
100
AcDbEntity
  8
図枠太線
  6
CONTINUOUS
 62
   251
100
AcDbLine
 10
143.577871882961
 20
2.820844689254
 30
0.0
 11
143.577871882961
 21
32.820842689254
 31
0.0
  0
TEXT
  5
2A74
330
2A6C
100
AcDbEntity
  8
図枠細線
  6
CONTINUOUS
 62
   252
100
AcDbText
 10
145.716454488093
 20
4.468335689254
 30
0.0
 40
3.5
  1
ＴＯＷＡ　ＳＥＩＤＥＮ　ＩＮＤＵＳＴＲＩＡＬ　ＣＯ．，ＬＴＤ．
 41
0.528937826907
  7
EXCADSTD
 72
     5
 11
212.856295983498
 21
4.468335689254
 31
0.0
100
AcDbText
  0
TEXT
  5
2A75
330
2A6C
100
AcDbEntity
  8
図枠ロゴマーク
  6
CONTINUOUS
 62
   253
100
AcDbText
 10
145.950637593507
 20
9.413236689254
 30
0.0
 40
7.0
  1
東和制電工業株式会社
 41
0.80361088462
  7
EXCADSTD
 72
     5
 11
211.953878250259
 21
9.413236689254
 31
0.0
100
AcDbText
  0
LINE
  5
2A76
330
2A6C
100
AcDbEntity
  8
図枠細線
  6
CONTINUOUS
 62
   252
100
AcDbLine
 10
143.577871882961
 20
25.320842689254
 30
0.0
 11
213.577871882961
 21
25.320842689254
 31
0.0
  0
LINE
  5
2A77
330
2A6C
100
AcDbEntity
  8
図枠太線
  6
CONTINUOUS
 62
   251
100
AcDbLine
 10
143.577863882961
 20
17.820842689254
 30
0.0
 11
213.577871882961
 21
17.820842689254
 31
0.0
  0
LINE
  5
2A78
330
2A6C
100
AcDbEntity
  8
図枠細線
  6
CONTINUOUS
 62
   252
100
AcDbLine
 10
213.577871882961
 20
17.820842689254
 30
0.0
 11
283.577871882961
 21
17.820842689254
 31
0.0
  0
LINE
  5
2A79
330
2A6C
100
AcDbEntity
  8
図枠細線
  6
CONTINUOUS
 62
   252
100
AcDbLine
 10
120.577871882961
 20
32.820842689254
 30
0.0
 11
120.577871882961
 21
17.820842689254
 31
0.0
  0
MTEXT
  5
2A7A
330
2A6C
100
AcDbEntity
  8
図枠細線
 48
10.0
100
AcDbMText
 10
121.100885670352
 20
16.33785922638
 30
0.0
 40
2.0
 41
17.705978285068
 71
     1
 72
     5
  1
{\Fmonotxt.shx,bigfont.shx|c128;日付 DATE}
  0
MTEXT
  5
2A7B
330
2A6C
100
AcDbEntity
  8
図枠細線
 48
10.0
100
AcDbMText
 10
121.254842273491
 20
31.208993514037
 30
0.0
 40
2.0
 41
18.363799568758
 71
     1
 72
     5
  1
{\Fmonotxt.shx,bigfont.shx|c128;製図　DRAWN}
  0
LINE
  5
2A7C
330
2A6C
100
AcDbEntity
  8
図枠細線
  6
CONTINUOUS
 62
   252
100
AcDbLine
 10
97.577871882961
 20
32.820842689254
 30
0.0
 11
97.577871882961
 21
17.820842689254
 31
0.0
  0
MTEXT
  5
2A7D
330
2A6C
100
AcDbEntity
  8
図枠細線
 48
10.0
100
AcDbMText
 10
98.239734796872
 20
16.467764839281
 30
0.0
 40
2.0
 41
17.757791689903
 71
     1
 72
     5
  1
{\Fmonotxt.shx,bigfont.shx|c128;尺度　SCALE}
  0
MTEXT
  5
2A7E
330
2A6C
100
AcDbEntity
  8
図枠細線
 48
10.0
100
AcDbMText
 10
97.864744625154
 20
31.298433377664
 30
0.0
 40
2.0
 41
23.162655920976
 71
     1
 72
     5
  1
{\Fmonotxt.shx,bigfont.shx|c128;検図  CHECKED}
  0
LINE
  5
2A7F
330
2A6C
100
AcDbEntity
  8
図枠細線
  6
CONTINUOUS
 62
   252
100
AcDbLine
 10
97.577871882961
 20
2.820843367826
 30
0.0
 11
97.577871882961
 21
17.820841367826
 31
0.0
  0
LINE
  5
2A80
330
2A6C
100
AcDbEntity
  8
図枠細線
  6
CONTINUOUS
 62
   252
100
AcDbLine
 10
120.577871882961
 20
2.820844010683
 30
0.0
 11
120.577871882961
 21
17.820842010683
 31
0.0
  0
MTEXT
  5
2A81
330
2A6C
100
AcDbEntity
  8
図枠細線
 48
10.0
100
AcDbMText
 10
81.402399084102
 20
16.316484117426
 30
0.0
 40
2.0
 41
12.920322819369
 71
     1
 72
     5
  1
{\Fmonotxt.shx,bigfont.shx|c128;第三角法}
  0
MTEXT
  5
2A82
330
2A6C
100
AcDbEntity
  8
図枠細線
 48
10.0
100
AcDbMText
 10
75.736576535096
 20
11.080410931319
 30
0.0
 40
2.0
 41
21.072870671471
 71
     1
 72
     5
  1
{\Fmonotxt.shx,bigfont.shx|c128;THIRD ANGLE\PPROJECTION}
  0
LINE
  5
2A83
330
2A6C
100
AcDbEntity
  8
図枠太線
  6
CONTINUOUS
 62
   251
100
AcDbLine
 10
74.577871882961
 20
2.820844689254
 30
0.0
 11
74.577871882961
 21
32.820842689254
 31
0.0
  0
MTEXT
  5
2A84
330
2A6C
100
AcDbEntity
  8
図枠細線
 48
10.0
100
AcDbMText
 10
75.060214781573
 20
31.298434778555
 30
0.0
 40
2.0
 41
22.240928805967
 71
     1
 72
     5
  1
{\Fmonotxt.shx,bigfont.shx|c128;承認 APPROVED}
  0
LINE
  5
2A85
330
2A6C
100
AcDbEntity
  8
図枠細線
  6
CONTINUOUS
100
AcDbLine
 10
3.577871882961
 20
17.820844689254
 30
0.0
 11
74.577871882961
 21
17.820844689254
 31
0.0
  0
LINE
  5
2A86
330
2A6C
100
AcDbEntity
  8
図枠細線
  6
CONTINUOUS
 62
   252
100
AcDbLine
 10
3.577871882961
 20
27.820842689254
 30
0.0
 11
74.577871882961
 21
27.820842689254
 31
0.0
  0
LINE
  5
2A87
330
2A6C
100
AcDbEntity
  8
図枠細線
  6
CONTINUOUS
 62
   252
100
AcDbLine
 10
3.577871882961
 20
22.820842689254
 30
0.0
 11
74.577871882961
 21
22.820842689254
 31
0.0
  0
LINE
  5
2A88
330
2A6C
100
AcDbEntity
  8
図枠細線
  6
CONTINUOUS
 62
   252
100
AcDbLine
 10
3.577871882961
 20
12.820842689254
 30
0.0
 11
74.577871882961
 21
12.820842689254
 31
0.0
  0
LINE
  5
2A89
330
2A6C
100
AcDbEntity
  8
図枠細線
  6
CONTINUOUS
 62
   252
100
AcDbLine
 10
3.577871882961
 20
7.820844689254
 30
0.0
 11
74.577871882961
 21
7.820844689254
 31
0.0
  0
LINE
  5
2A8A
330
2A6C
100
AcDbEntity
  8
図枠細線
  6
CONTINUOUS
100
AcDbLine
 10
74.577871882961
 20
17.820843689254
 30
0.0
 11
143.577871882961
 21
17.820841224969
 31
0.0
  0
LINE
  5
2A8B
330
2A6C
100
AcDbEntity
  8
図枠太線
  6
CONTINUOUS
 62
   251
100
AcDbLine
 10
3.577871882961
 20
2.820844689254
 30
0.0
 11
283.577871882961
 21
2.820844689254
 31
0.0
  0
LINE
  5
2A8C
330
2A6C
100
AcDbEntity
  8
図枠太線
  6
CONTINUOUS
 62
   251
100
AcDbLine
 10
3.577871882961
 20
2.820844689254
 30
0.0
 11
3.577871882961
 21
32.820842689254
 31
0.0
  0
ENDBLK
  5
2A8D
330
2A6C
100
AcDbEntity
  8
0
100
AcDbBlockEnd
  0
BLOCK
  5
2AF8
330
2AF4
100
AcDbEntity
  8
0
 48
10.0
100
AcDbBlockBegin
  2
_OPEN30
 70
     0
 10
0.0
 20
0.0
 30
0.0
  3
_OPEN30
  1

  0
LINE
  5
2AF5
330
2AF4
100
AcDbEntity
  8
0
  6
BYBLOCK
 62
     0
100
AcDbLine
 10
-1.0
 20
0.26794919
 30
0.0
 11
0.0
 21
0.0
 31
0.0
  0
LINE
  5
2AF6
330
2AF4
100
AcDbEntity
  8
0
  6
BYBLOCK
 62
     0
100
AcDbLine
 10
0.0
 20
0.0
 30
0.0
 11
-1.0
 21
-0.26794919
 31
0.0
  0
LINE
  5
2AF7
330
2AF4
100
AcDbEntity
  8
0
  6
BYBLOCK
 62
     0
100
AcDbLine
 10
0.0
 20
0.0
 30
0.0
 11
-1.0
 21
0.0
 31
0.0
  0
ENDBLK
  5
2AF9
330
2AF4
100
AcDbEntity
  8
0
 48
10.0
100
AcDbBlockEnd
  0
BLOCK
  5
46E8
330
46DE
100
AcDbEntity
  8
0
 48
10.0
100
AcDbBlockBegin
  2
*D6
 70
     1
 10
0.0
 20
0.0
 30
0.0
  3
*D6
  1

  0
LINE
  5
4FF6
330
46DE
100
AcDbEntity
  8
寸法線
 62
     0
 48
10.0
100
AcDbLine
 10
276.603654286315
 20
420.328564746701
 30
0.0
 11
276.603654286315
 21
342.903564599171
 31
0.0
  0
LINE
  5
4FF7
330
46DE
100
AcDbEntity
  8
寸法線
 62
     0
 48
10.0
100
AcDbLine
 10
291.603654286315
 20
418.028564746701
 30
0.0
 11
291.603654286315
 21
342.903564599171
 31
0.0
  0
LINE
  5
4FF8
330
46DE
100
AcDbEntity
  8
寸法線
 62
     0
 48
10.0
100
AcDbLine
 10
282.603654286315
 20
344.153564599171
 30
0.0
 11
285.603654286315
 21
344.153564599171
 31
0.0
  0
INSERT
  5
4FF9
330
46DE
100
AcDbEntity
  8
寸法線
 62
     0
100
AcDbBlockReference
  2
_OPEN30
 10
276.603654286315
 20
344.153564599171
 30
0.0
 41
6.0
 42
6.0
 43
6.0
 50
180.0
  0
INSERT
  5
4FFA
330
46DE
100
AcDbEntity
  8
寸法線
 62
     0
100
AcDbBlockReference
  2
_OPEN30
 10
291.603654286315
 20
344.153564599171
 30
0.0
 41
6.0
 42
6.0
 43
6.0
  0
MTEXT
  5
4FFB
330
46DE
100
AcDbEntity
  8
寸法線
 62
     0
 48
10.0
100
AcDbMText
 10
284.103654286315
 20
348.778564599171
 30
0.0
 40
8.0
 41
0.0
 71
     5
 72
     1
  1
\A1;15
  0
POINT
  5
4FFC
330
46DE
100
AcDbEntity
  8
DEFPOINTS
 62
     0
100
AcDbPoint
 10
276.603654286315
 20
420.953564746701
 30
0.0
  0
POINT
  5
4FFD
330
46DE
100
AcDbEntity
  8
DEFPOINTS
 62
     0
100
AcDbPoint
 10
291.603654286315
 20
418.653564746701
 30
0.0
  0
POINT
  5
4FFE
330
46DE
100
AcDbEntity
  8
DEFPOINTS
 62
     0
100
AcDbPoint
 10
291.603654286315
 20
344.153564599171
 30
0.0
  0
ENDBLK
  5
46E9
330
46DE
100
AcDbEntity
  8
0
 48
10.0
100
AcDbBlockEnd
  0
BLOCK
  5
46F5
330
46EB
100
AcDbEntity
  8
0
 48
10.0
100
AcDbBlockBegin
  2
*D7
 70
     1
 10
0.0
 20
0.0
 30
0.0
  3
*D7
  1

  0
LINE
  5
4FED
330
46EB
100
AcDbEntity
  8
寸法線
 62
     0
 48
10.0
100
AcDbLine
 10
226.603654286315
 20
420.328564746701
 30
0.0
 11
226.603654286315
 21
342.903564599171
 31
0.0
  0
LINE
  5
4FEE
330
46EB
100
AcDbEntity
  8
寸法線
 62
     0
 48
10.0
100
AcDbLine
 10
276.603654286315
 20
420.328564746701
 30
0.0
 11
276.603654286315
 21
342.903564599171
 31
0.0
  0
LINE
  5
4FEF
330
46EB
100
AcDbEntity
  8
寸法線
 62
     0
 48
10.0
100
AcDbLine
 10
232.603654286315
 20
344.153564599171
 30
0.0
 11
270.603654286315
 21
344.153564599171
 31
0.0
  0
INSERT
  5
4FF0
330
46EB
100
AcDbEntity
  8
寸法線
 62
     0
100
AcDbBlockReference
  2
_OPEN30
 10
226.603654286315
 20
344.153564599171
 30
0.0
 41
6.0
 42
6.0
 43
6.0
 50
180.0
  0
INSERT
  5
4FF1
330
46EB
100
AcDbEntity
  8
寸法線
 62
     0
100
AcDbBlockReference
  2
_OPEN30
 10
276.603654286315
 20
344.153564599171
 30
0.0
 41
6.0
 42
6.0
 43
6.0
  0
MTEXT
  5
4FF2
330
46EB
100
AcDbEntity
  8
寸法線
 62
     0
 48
10.0
100
AcDbMText
 10
251.603654286315
 20
348.778564599171
 30
0.0
 40
8.0
 41
0.0
 71
     5
 72
     1
  1
\A1;50
  0
POINT
  5
4FF3
330
46EB
100
AcDbEntity
  8
DEFPOINTS
 62
     0
100
AcDbPoint
 10
226.603654286315
 20
420.953564746701
 30
0.0
  0
POINT
  5
4FF4
330
46EB
100
AcDbEntity
  8
DEFPOINTS
 62
     0
100
AcDbPoint
 10
276.603654286315
 20
420.953564746701
 30
0.0
  0
POINT
  5
4FF5
330
46EB
100
AcDbEntity
  8
DEFPOINTS
 62
     0
100
AcDbPoint
 10
276.603654286315
 20
344.153564599171
 30
0.0
  0
ENDBLK
  5
46F6
330
46EB
100
AcDbEntity
  8
0
 48
10.0
100
AcDbBlockEnd
  0
BLOCK
  5
4726
330
471C
100
AcDbEntity
  8
0
 48
10.0
100
AcDbBlockBegin
  2
*D8
 70
     1
 10
0.0
 20
0.0
 30
0.0
  3
*D8
  1

  0
LINE
  5
4FE4
330
471C
100
AcDbEntity
  8
寸法線
 62
     0
 48
10.0
100
AcDbLine
 10
-40.488862624699
 20
421.028564746701
 30
0.0
 11
-40.488862624699
 21
342.903564599171
 31
0.0
  0
LINE
  5
4FE5
330
471C
100
AcDbEntity
  8
寸法線
 62
     0
 48
10.0
100
AcDbLine
 10
59.511137375301
 20
419.528564746701
 30
0.0
 11
59.511137375301
 21
342.903564599171
 31
0.0
  0
LINE
  5
4FE6
330
471C
100
AcDbEntity
  8
寸法線
 62
     0
 48
10.0
100
AcDbLine
 10
-34.488862624699
 20
344.153564599171
 30
0.0
 11
53.511137375301
 21
344.153564599171
 31
0.0
  0
INSERT
  5
4FE7
330
471C
100
AcDbEntity
  8
寸法線
 62
     0
100
AcDbBlockReference
  2
_OPEN30
 10
-40.488862624699
 20
344.153564599171
 30
0.0
 41
6.0
 42
6.0
 43
6.0
 50
180.0
  0
INSERT
  5
4FE8
330
471C
100
AcDbEntity
  8
寸法線
 62
     0
100
AcDbBlockReference
  2
_OPEN30
 10
59.511137375301
 20
344.153564599171
 30
0.0
 41
6.0
 42
6.0
 43
6.0
  0
MTEXT
  5
4FE9
330
471C
100
AcDbEntity
  8
寸法線
 62
     0
 48
10.0
100
AcDbMText
 10
9.511137375301
 20
348.786897932505
 30
0.0
 40
8.0
 41
0.0
 71
     5
 72
     1
  1
\A1;220
  0
POINT
  5
4FEA
330
471C
100
AcDbEntity
  8
DEFPOINTS
 62
     0
100
AcDbPoint
 10
-40.488862624699
 20
421.653564746701
 30
0.0
  0
POINT
  5
4FEB
330
471C
100
AcDbEntity
  8
DEFPOINTS
 62
     0
100
AcDbPoint
 10
59.511137375301
 20
420.153564746701
 30
0.0
  0
POINT
  5
4FEC
330
471C
100
AcDbEntity
  8
DEFPOINTS
 62
     0
100
AcDbPoint
 10
59.511137375301
 20
344.153564599171
 30
0.0
  0
ENDBLK
  5
4727
330
471C
100
AcDbEntity
  8
0
 48
10.0
100
AcDbBlockEnd
  0
BLOCK
  5
4745
330
473B
100
AcDbEntity
  8
0
 48
10.0
100
AcDbBlockBegin
  2
*D9
 70
     1
 10
0.0
 20
0.0
 30
0.0
  3
*D9
  1

  0
LINE
  5
4FDC
330
473B
100
AcDbEntity
  8
寸法線
 62
     0
 48
10.0
100
AcDbLine
 10
-40.488862624699
 20
421.028564746701
 30
0.0
 11
-40.488862624699
 21
322.903564599171
 31
0.0
  0
LINE
  5
4FDD
330
473B
100
AcDbEntity
  8
寸法線
 62
     0
 48
10.0
100
AcDbLine
 10
441.603654286315
 20
413.279064746701
 30
0.0
 11
441.603654286315
 21
322.903564599171
 31
0.0
  0
LINE
  5
4FDE
330
473B
100
AcDbEntity
  8
寸法線
 62
     0
 48
10.0
100
AcDbLine
 10
-34.488862624699
 20
324.153564599171
 30
0.0
 11
435.603654286315
 21
324.153564599171
 31
0.0
  0
INSERT
  5
4FDF
330
473B
100
AcDbEntity
  8
寸法線
 62
     0
100
AcDbBlockReference
  2
_OPEN30
 10
-40.488862624699
 20
324.153564599171
 30
0.0
 41
6.0
 42
6.0
 43
6.0
 50
180.0
  0
INSERT
  5
4FE0
330
473B
100
AcDbEntity
  8
寸法線
 62
     0
100
AcDbBlockReference
  2
_OPEN30
 10
441.603654286315
 20
324.153564599171
 30
0.0
 41
6.0
 42
6.0
 43
6.0
  0
POINT
  5
4FE1
330
473B
100
AcDbEntity
  8
DEFPOINTS
 62
     0
100
AcDbPoint
 10
-40.488862624699
 20
421.653564746701
 30
0.0
  0
POINT
  5
4FE2
330
473B
100
AcDbEntity
  8
DEFPOINTS
 62
     0
100
AcDbPoint
 10
441.603654286315
 20
413.904064746701
 30
0.0
  0
POINT
  5
4FE3
330
473B
100
AcDbEntity
  8
DEFPOINTS
 62
     0
100
AcDbPoint
 10
441.603654286315
 20
324.153564599171
 30
0.0
  0
ENDBLK
  5
4746
330
473B
100
AcDbEntity
  8
0
 48
10.0
100
AcDbBlockEnd
  0
BLOCK
  5
4764
330
475A
100
AcDbEntity
  8
0
 48
10.0
100
AcDbBlockBegin
  2
*D10
 70
     1
 10
0.0
 20
0.0
 30
0.0
  3
*D10
  1

  0
LINE
  5
4FD4
330
475A
100
AcDbEntity
  8
寸法線
 62
     0
 48
10.0
100
AcDbLine
 10
413.259307068889
 20
442.653564746701
 30
0.0
 11
413.259307068889
 21
467.831156610218
 31
0.0
  0
LINE
  5
4FD5
330
475A
100
AcDbEntity
  8
寸法線
 62
     0
 48
10.0
100
AcDbLine
 10
413.259307068889
 20
436.653564746701
 30
0.0
 11
413.259307068889
 21
422.653564746701
 31
0.0
  0
INSERT
  5
4FD6
330
475A
100
AcDbEntity
  8
寸法線
 62
     0
100
AcDbBlockReference
  2
_OPEN30
 10
413.259307068889
 20
442.653564746701
 30
0.0
 41
6.0
 42
6.0
 43
6.0
 50
90.0
  0
INSERT
  5
4FD7
330
475A
100
AcDbEntity
  8
寸法線
 62
     0
100
AcDbBlockReference
  2
_OPEN30
 10
413.259307068889
 20
416.653564746701
 30
0.0
 41
6.0
 42
6.0
 43
6.0
 50
270.0
  0
MTEXT
  5
4FD8
330
475A
100
AcDbEntity
  8
寸法線
 62
     0
 48
10.0
100
AcDbMText
 10
408.630140402222
 20
458.476989943551
 30
0.0
 40
8.0
 41
0.0
 71
     5
 72
     1
  1
\A1;φ26
 11
0.0
 21
1.0
 31
0.0
  0
POINT
  5
4FD9
330
475A
100
AcDbEntity
  8
DEFPOINTS
 62
     0
100
AcDbPoint
 10
441.603654286315
 20
442.653564746701
 30
0.0
  0
POINT
  5
4FDA
330
475A
100
AcDbEntity
  8
DEFPOINTS
 62
     0
100
AcDbPoint
 10
441.603654286315
 20
416.653564746701
 30
0.0
  0
POINT
  5
4FDB
330
475A
100
AcDbEntity
  8
DEFPOINTS
 62
     0
100
AcDbPoint
 10
413.259307068889
 20
416.653564746701
 30
0.0
  0
ENDBLK
  5
4765
330
475A
100
AcDbEntity
  8
0
 48
10.0
100
AcDbBlockEnd
  0
BLOCK
  5
4798
330
478E
100
AcDbEntity
  8
0
 48
10.0
100
AcDbBlockBegin
  2
*D11
 70
     1
 10
0.0
 20
0.0
 30
0.0
  3
*D11
  1

  0
LINE
  5
4FCC
330
478E
100
AcDbEntity
  8
寸法線
 62
     0
 48
10.0
100
AcDbLine
 10
332.259307068889
 20
442.153564746701
 30
0.0
 11
332.259307068889
 21
467.302583504983
 31
0.0
  0
LINE
  5
4FCD
330
478E
100
AcDbEntity
  8
寸法線
 62
     0
 48
10.0
100
AcDbLine
 10
332.259307068889
 20
436.153564746701
 30
0.0
 11
332.259307068889
 21
423.153564746701
 31
0.0
  0
INSERT
  5
4FCE
330
478E
100
AcDbEntity
  8
寸法線
 62
     0
100
AcDbBlockReference
  2
_OPEN30
 10
332.259307068889
 20
442.153564746701
 30
0.0
 41
6.0
 42
6.0
 43
6.0
 50
90.0
  0
INSERT
  5
4FCF
330
478E
100
AcDbEntity
  8
寸法線
 62
     0
100
AcDbBlockReference
  2
_OPEN30
 10
332.259307068889
 20
417.153564746701
 30
0.0
 41
6.0
 42
6.0
 43
6.0
 50
270.0
  0
MTEXT
  5
4FD0
330
478E
100
AcDbEntity
  8
寸法線
 62
     0
 48
10.0
100
AcDbMText
 10
327.630140402222
 20
457.94425017165
 30
0.0
 40
8.0
 41
0.0
 71
     5
 72
     1
  1
\A1;φ25
 11
0.0
 21
1.0
 31
0.0
  0
POINT
  5
4FD1
330
478E
100
AcDbEntity
  8
DEFPOINTS
 62
     0
100
AcDbPoint
 10
341.603654286315
 20
442.153564746701
 30
0.0
  0
POINT
  5
4FD2
330
478E
100
AcDbEntity
  8
DEFPOINTS
 62
     0
100
AcDbPoint
 10
341.603654286315
 20
417.153564746701
 30
0.0
  0
POINT
  5
4FD3
330
478E
100
AcDbEntity
  8
DEFPOINTS
 62
     0
100
AcDbPoint
 10
332.259307068889
 20
417.153564746701
 30
0.0
  0
ENDBLK
  5
4799
330
478E
100
AcDbEntity
  8
0
 48
10.0
100
AcDbBlockEnd
  0
BLOCK
  5
47C5
330
47B9
100
AcDbEntity
  8
0
 48
10.0
100
AcDbBlockBegin
  2
*D12
 70
     1
 10
0.0
 20
0.0
 30
0.0
  3
*D12
  1

  0
LINE
  5
4FC3
330
47B9
100
AcDbEntity
  8
寸法線
 62
     0
 48
10.0
100
AcDbLine
 10
106.166790157875
 20
432.153564746701
 30
0.0
 11
106.166790157875
 21
457.702583504983
 31
0.0
  0
LINE
  5
4FC4
330
47B9
100
AcDbEntity
  8
寸法線
 62
     0
 48
10.0
100
AcDbLine
 10
106.166790157875
 20
432.153564746701
 30
0.0
 11
106.166790157875
 21
427.153564746701
 31
0.0
  0
LINE
  5
4FC5
330
47B9
100
AcDbEntity
  8
寸法線
 62
     0
 48
10.0
100
AcDbLine
 10
106.166790157875
 20
438.153564746701
 30
0.0
 11
106.166790157875
 21
444.153564746701
 31
0.0
  0
LINE
  5
4FC6
330
47B9
100
AcDbEntity
  8
寸法線
 62
     0
 48
10.0
100
AcDbLine
 10
106.166790157875
 20
421.153564746701
 30
0.0
 11
106.166790157875
 21
415.153564746701
 31
0.0
  0
INSERT
  5
4FC7
330
47B9
100
AcDbEntity
  8
寸法線
 62
     0
100
AcDbBlockReference
  2
_OPEN30
 10
106.166790157875
 20
432.153564746701
 30
0.0
 41
6.0
 42
6.0
 43
6.0
 50
270.0
  0
INSERT
  5
4FC8
330
47B9
100
AcDbEntity
  8
寸法線
 62
     0
100
AcDbBlockReference
  2
_OPEN30
 10
106.166790157875
 20
427.153564746701
 30
0.0
 41
6.0
 42
6.0
 43
6.0
 50
90.0
  0
MTEXT
  5
4FC9
330
47B9
100
AcDbEntity
  8
寸法線
 62
     0
 48
10.0
100
AcDbMText
 10
101.541790157875
 20
451.14425017165
 30
0.0
 40
8.0
 41
0.0
 71
     5
 72
     1
  1
\A1;φ5
 11
0.0
 21
1.0
 31
0.0
  0
POINT
  5
4FCA
330
47B9
100
AcDbEntity
  8
DEFPOINTS
 62
     0
100
AcDbPoint
 10
77.511137375301
 20
432.153564746701
 30
0.0
  0
POINT
  5
4FCB
330
47B9
100
AcDbEntity
  8
DEFPOINTS
 62
     0
100
AcDbPoint
 10
77.511137375301
 20
427.153564746701
 30
0.0
  0
POINT
  5
5415
330
47B9
100
AcDbEntity
  8
DEFPOINTS
 62
     0
100
AcDbPoint
 10
106.166790157875
 20
427.153564746701
 30
0.0
  0
ENDBLK
  5
47C6
330
47B9
100
AcDbEntity
  8
0
 48
10.0
100
AcDbBlockEnd
  0
BLOCK
  5
47F7
330
47ED
100
AcDbEntity
  8
0
 48
10.0
100
AcDbBlockBegin
  2
*D13
 70
     1
 10
0.0
 20
0.0
 30
0.0
  3
*D13
  1

  0
LINE
  5
4FBB
330
47ED
100
AcDbEntity
  8
寸法線
 62
     0
 48
10.0
100
AcDbLine
 10
39.430515013351
 20
439.653564746701
 30
0.0
 11
39.430515013351
 21
464.640047686333
 31
0.0
  0
LINE
  5
4FBC
330
47ED
100
AcDbEntity
  8
寸法線
 62
     0
 48
10.0
100
AcDbLine
 10
39.430515013351
 20
433.653564746701
 30
0.0
 11
39.430515013351
 21
425.653564746701
 31
0.0
  0
INSERT
  5
4FBD
330
47ED
100
AcDbEntity
  8
寸法線
 62
     0
100
AcDbBlockReference
  2
_OPEN30
 10
39.430515013351
 20
439.653564746701
 30
0.0
 41
6.0
 42
6.0
 43
6.0
 50
90.0
  0
INSERT
  5
4FBE
330
47ED
100
AcDbEntity
  8
寸法線
 62
     0
100
AcDbBlockReference
  2
_OPEN30
 10
39.430515013351
 20
419.653564746701
 30
0.0
 41
6.0
 42
6.0
 43
6.0
 50
270.0
  0
MTEXT
  5
4FBF
330
47ED
100
AcDbEntity
  8
寸法線
 62
     0
 48
10.0
100
AcDbMText
 10
34.801348346685
 20
455.281714353
 30
0.0
 40
8.0
 41
0.0
 71
     5
 72
     1
  1
\A1;φ20
 11
0.0
 21
1.0
 31
0.0
  0
POINT
  5
4FC0
330
47ED
100
AcDbEntity
  8
DEFPOINTS
 62
     0
100
AcDbPoint
 10
52.274862230777
 20
439.653564746701
 30
0.0
  0
POINT
  5
4FC1
330
47ED
100
AcDbEntity
  8
DEFPOINTS
 62
     0
100
AcDbPoint
 10
52.274862230777
 20
419.653564746701
 30
0.0
  0
POINT
  5
4FC2
330
47ED
100
AcDbEntity
  8
DEFPOINTS
 62
     0
100
AcDbPoint
 10
39.430515013351
 20
419.653564746701
 30
0.0
  0
ENDBLK
  5
47F8
330
47ED
100
AcDbEntity
  8
0
 48
10.0
100
AcDbBlockEnd
  0
BLOCK
  5
4849
330
483F
100
AcDbEntity
  8
0
 48
10.0
100
AcDbBlockBegin
  2
*D14
 70
     1
 10
0.0
 20
0.0
 30
0.0
  3
*D14
  1

  0
LINE
  5
4FB2
330
483F
100
AcDbEntity
  8
寸法線
 62
     0
 48
10.0
100
AcDbLine
 10
291.603654286315
 20
418.028564746701
 30
0.0
 11
291.603654286315
 21
342.903564599171
 31
0.0
  0
LINE
  5
4FB3
330
483F
100
AcDbEntity
  8
寸法線
 62
     0
 48
10.0
100
AcDbLine
 10
341.603654286315
 20
416.528564746701
 30
0.0
 11
341.603654286315
 21
342.903564599171
 31
0.0
  0
LINE
  5
4FB4
330
483F
100
AcDbEntity
  8
寸法線
 62
     0
 48
10.0
100
AcDbLine
 10
297.603654286315
 20
344.153564599171
 30
0.0
 11
335.603654286315
 21
344.153564599171
 31
0.0
  0
INSERT
  5
4FB5
330
483F
100
AcDbEntity
  8
寸法線
 62
     0
100
AcDbBlockReference
  2
_OPEN30
 10
291.603654286315
 20
344.153564599171
 30
0.0
 41
6.0
 42
6.0
 43
6.0
 50
180.0
  0
INSERT
  5
4FB6
330
483F
100
AcDbEntity
  8
寸法線
 62
     0
100
AcDbBlockReference
  2
_OPEN30
 10
341.603654286315
 20
344.153564599171
 30
0.0
 41
6.0
 42
6.0
 43
6.0
  0
MTEXT
  5
4FB7
330
483F
100
AcDbEntity
  8
寸法線
 62
     0
 48
10.0
100
AcDbMText
 10
316.603654286315
 20
348.778564599171
 30
0.0
 40
8.0
 41
0.0
 71
     5
 72
     1
  1
\A1;50
  0
POINT
  5
4FB8
330
483F
100
AcDbEntity
  8
DEFPOINTS
 62
     0
100
AcDbPoint
 10
291.603654286315
 20
418.653564746701
 30
0.0
  0
POINT
  5
4FB9
330
483F
100
AcDbEntity
  8
DEFPOINTS
 62
     0
100
AcDbPoint
 10
341.603654286315
 20
417.153564746701
 30
0.0
  0
POINT
  5
4FBA
330
483F
100
AcDbEntity
  8
DEFPOINTS
 62
     0
100
AcDbPoint
 10
341.603654286315
 20
344.153564599171
 30
0.0
  0
ENDBLK
  5
484A
330
483F
100
AcDbEntity
  8
0
 48
10.0
100
AcDbBlockEnd
  0
BLOCK
  5
4856
330
484C
100
AcDbEntity
  8
0
 48
10.0
100
AcDbBlockBegin
  2
*D15
 70
     1
 10
0.0
 20
0.0
 30
0.0
  3
*D15
  1

  0
LINE
  5
4FA9
330
484C
100
AcDbEntity
  8
寸法線
 62
     0
 48
10.0
100
AcDbLine
 10
341.603654286314
 20
416.528564746701
 30
0.0
 11
341.603654286314
 21
342.903564599171
 31
0.0
  0
LINE
  5
4FAA
330
484C
100
AcDbEntity
  8
寸法線
 62
     0
 48
10.0
100
AcDbLine
 10
441.603654286315
 20
413.2790647467
 30
0.0
 11
441.603654286315
 21
342.903564599171
 31
0.0
  0
LINE
  5
4FAB
330
484C
100
AcDbEntity
  8
寸法線
 62
     0
 48
10.0
100
AcDbLine
 10
347.603654286314
 20
344.153564599171
 30
0.0
 11
435.603654286315
 21
344.153564599171
 31
0.0
  0
INSERT
  5
4FAC
330
484C
100
AcDbEntity
  8
寸法線
 62
     0
100
AcDbBlockReference
  2
_OPEN30
 10
341.603654286314
 20
344.153564599171
 30
0.0
 41
6.0
 42
6.0
 43
6.0
 50
180.0
  0
INSERT
  5
4FAD
330
484C
100
AcDbEntity
  8
寸法線
 62
     0
100
AcDbBlockReference
  2
_OPEN30
 10
441.603654286315
 20
344.153564599171
 30
0.0
 41
6.0
 42
6.0
 43
6.0
  0
MTEXT
  5
4FAE
330
484C
100
AcDbEntity
  8
寸法線
 62
     0
 48
10.0
100
AcDbMText
 10
391.603654286315
 20
348.778564599171
 30
0.0
 40
8.0
 41
0.0
 71
     5
 72
     1
  1
\A1;100
  0
POINT
  5
4FAF
330
484C
100
AcDbEntity
  8
DEFPOINTS
 62
     0
100
AcDbPoint
 10
341.603654286314
 20
417.153564746701
 30
0.0
  0
POINT
  5
4FB0
330
484C
100
AcDbEntity
  8
DEFPOINTS
 62
     0
100
AcDbPoint
 10
441.603654286315
 20
413.9040647467
 30
0.0
  0
POINT
  5
4FB1
330
484C
100
AcDbEntity
  8
DEFPOINTS
 62
     0
100
AcDbPoint
 10
441.603654286315
 20
344.153564599171
 30
0.0
  0
ENDBLK
  5
4857
330
484C
100
AcDbEntity
  8
0
 48
10.0
100
AcDbBlockEnd
  0
BLOCK
  5
4A88
330
4A7E
100
AcDbEntity
  8
0
 48
10.0
100
AcDbBlockBegin
  2
*D16
 70
     1
 10
0.0
 20
0.0
 30
0.0
  3
*D16
  1

  0
LINE
  5
4FA0
330
4A7E
100
AcDbEntity
  8
寸法線
 62
     0
 48
10.0
100
AcDbLine
 10
441.603654286315
 20
413.279064746701
 30
0.0
 11
441.603654286315
 21
342.903564599171
 31
0.0
  0
LINE
  5
4FA1
330
4A7E
100
AcDbEntity
  8
寸法線
 62
     0
 48
10.0
100
AcDbLine
 10
466.603654286314
 20
410.027185207635
 30
0.0
 11
466.603654286314
 21
342.903564599171
 31
0.0
  0
LINE
  5
4FA2
330
4A7E
100
AcDbEntity
  8
寸法線
 62
     0
 48
10.0
100
AcDbLine
 10
447.603654286315
 20
344.153564599171
 30
0.0
 11
460.603654286314
 21
344.153564599171
 31
0.0
  0
INSERT
  5
4FA3
330
4A7E
100
AcDbEntity
  8
寸法線
 62
     0
100
AcDbBlockReference
  2
_OPEN30
 10
441.603654286315
 20
344.153564599171
 30
0.0
 41
6.0
 42
6.0
 43
6.0
 50
180.0
  0
INSERT
  5
4FA4
330
4A7E
100
AcDbEntity
  8
寸法線
 62
     0
100
AcDbBlockReference
  2
_OPEN30
 10
466.603654286314
 20
344.153564599171
 30
0.0
 41
6.0
 42
6.0
 43
6.0
  0
MTEXT
  5
4FA5
330
4A7E
100
AcDbEntity
  8
寸法線
 62
     0
 48
10.0
100
AcDbMText
 10
454.103654286314
 20
348.782731265838
 30
0.0
 40
8.0
 41
0.0
 71
     5
 72
     1
  1
\A1;25
  0
POINT
  5
4FA6
330
4A7E
100
AcDbEntity
  8
DEFPOINTS
 62
     0
100
AcDbPoint
 10
441.603654286315
 20
413.904064746701
 30
0.0
  0
POINT
  5
4FA7
330
4A7E
100
AcDbEntity
  8
DEFPOINTS
 62
     0
100
AcDbPoint
 10
466.603654286314
 20
410.652185207635
 30
0.0
  0
POINT
  5
4FA8
330
4A7E
100
AcDbEntity
  8
DEFPOINTS
 62
     0
100
AcDbPoint
 10
466.603654286314
 20
344.153564599171
 30
0.0
  0
ENDBLK
  5
4A89
330
4A7E
100
AcDbEntity
  8
0
 48
10.0
100
AcDbBlockEnd
  0
BLOCK
  5
4ABC
330
4AB2
100
AcDbEntity
  8
0
 48
10.0
100
AcDbBlockBegin
  2
*D17
 70
     1
 10
0.0
 20
0.0
 30
0.0
  3
*D17
  1

  0
LINE
  5
4F97
330
4AB2
100
AcDbEntity
  8
寸法線
 62
     0
 48
10.0
100
AcDbLine
 10
593.065248326522
 20
371.652874978429
 30
0.0
 11
625.982059141506
 21
371.652874978429
 31
0.0
  0
LINE
  5
4F98
330
4AB2
100
AcDbEntity
  8
寸法線
 62
     0
 48
10.0
100
AcDbLine
 10
592.697403001124
 20
487.652874978429
 30
0.0
 11
625.982059141506
 21
487.652874978429
 31
0.0
  0
LINE
  5
4F99
330
4AB2
100
AcDbEntity
  8
寸法線
 62
     0
 48
10.0
100
AcDbLine
 10
624.732059141506
 20
377.652874978429
 30
0.0
 11
624.732059141506
 21
481.652874978429
 31
0.0
  0
INSERT
  5
4F9A
330
4AB2
100
AcDbEntity
  8
寸法線
 62
     0
100
AcDbBlockReference
  2
_OPEN30
 10
624.732059141506
 20
371.652874978429
 30
0.0
 41
6.0
 42
6.0
 43
6.0
 50
270.0
  0
INSERT
  5
4F9B
330
4AB2
100
AcDbEntity
  8
寸法線
 62
     0
100
AcDbBlockReference
  2
_OPEN30
 10
624.732059141506
 20
487.652874978429
 30
0.0
 41
6.0
 42
6.0
 43
6.0
 50
90.0
  0
MTEXT
  5
4F9C
330
4AB2
100
AcDbEntity
  8
寸法線
 62
     0
 48
10.0
100
AcDbMText
 10
620.107059141506
 20
429.652874978429
 30
0.0
 40
8.0
 41
0.0
 71
     5
 72
     1
  1
\A1;φ116
 11
0.0
 21
1.0
 31
0.0
  0
POINT
  5
4F9D
330
4AB2
100
AcDbEntity
  8
DEFPOINTS
 62
     0
100
AcDbPoint
 10
592.440248326522
 20
371.652874978429
 30
0.0
  0
POINT
  5
4F9E
330
4AB2
100
AcDbEntity
  8
DEFPOINTS
 62
     0
100
AcDbPoint
 10
592.072403001124
 20
487.652874978429
 30
0.0
  0
POINT
  5
4F9F
330
4AB2
100
AcDbEntity
  8
DEFPOINTS
 62
     0
100
AcDbPoint
 10
624.732059141506
 20
487.652874978429
 30
0.0
  0
ENDBLK
  5
4ABD
330
4AB2
100
AcDbEntity
  8
0
 48
10.0
100
AcDbBlockEnd
  0
BLOCK
  5
4AD3
330
4AC9
100
AcDbEntity
  8
0
 48
10.0
100
AcDbBlockBegin
  2
*D18
 70
     1
 10
0.0
 20
0.0
 30
0.0
  3
*D18
  1

  0
LINE
  5
4F8E
330
4AC9
100
AcDbEntity
  8
寸法線
 62
     0
 48
10.0
100
AcDbLine
 10
466.603654286315
 20
410.027185207635
 30
0.0
 11
466.603654286315
 21
342.903564599171
 31
0.0
  0
LINE
  5
4F8F
330
4AC9
100
AcDbEntity
  8
寸法線
 62
     0
 48
10.0
100
AcDbLine
 10
486.603654286314
 20
410.027185207635
 30
0.0
 11
486.603654286314
 21
342.903564599171
 31
0.0
  0
LINE
  5
4F90
330
4AC9
100
AcDbEntity
  8
寸法線
 62
     0
 48
10.0
100
AcDbLine
 10
472.603654286315
 20
344.153564599171
 30
0.0
 11
480.603654286314
 21
344.153564599171
 31
0.0
  0
INSERT
  5
4F91
330
4AC9
100
AcDbEntity
  8
寸法線
 62
     0
100
AcDbBlockReference
  2
_OPEN30
 10
466.603654286315
 20
344.153564599171
 30
0.0
 41
6.0
 42
6.0
 43
6.0
 50
180.0
  0
INSERT
  5
4F92
330
4AC9
100
AcDbEntity
  8
寸法線
 62
     0
100
AcDbBlockReference
  2
_OPEN30
 10
486.603654286314
 20
344.153564599171
 30
0.0
 41
6.0
 42
6.0
 43
6.0
  0
MTEXT
  5
4F93
330
4AC9
100
AcDbEntity
  8
寸法線
 62
     0
 48
10.0
100
AcDbMText
 10
476.603654286314
 20
348.782731265838
 30
0.0
 40
8.0
 41
0.0
 71
     5
 72
     1
  1
\A1;20
  0
POINT
  5
4F94
330
4AC9
100
AcDbEntity
  8
DEFPOINTS
 62
     0
100
AcDbPoint
 10
466.603654286315
 20
410.652185207635
 30
0.0
  0
POINT
  5
4F95
330
4AC9
100
AcDbEntity
  8
DEFPOINTS
 62
     0
100
AcDbPoint
 10
486.603654286314
 20
410.652185207635
 30
0.0
  0
POINT
  5
4F96
330
4AC9
100
AcDbEntity
  8
DEFPOINTS
 62
     0
100
AcDbPoint
 10
486.603654286314
 20
344.153564599171
 30
0.0
  0
ENDBLK
  5
4AD4
330
4AC9
100
AcDbEntity
  8
0
 48
10.0
100
AcDbBlockEnd
  0
BLOCK
  5
4AFA
330
4AF0
100
AcDbEntity
  8
0
 48
10.0
100
AcDbBlockBegin
  2
*D19
 70
     1
 10
0.0
 20
0.0
 30
0.0
  3
*D19
  1

  0
LINE
  5
4F85
330
4AF0
100
AcDbEntity
  8
寸法線
 62
     0
 48
10.0
100
AcDbLine
 10
441.603654286315
 20
343.528564599171
 30
0.0
 11
441.603654286315
 21
322.903564599171
 31
0.0
  0
LINE
  5
4F86
330
4AF0
100
AcDbEntity
  8
寸法線
 62
     0
 48
10.0
100
AcDbLine
 10
604.603654286315
 20
384.801429448635
 30
0.0
 11
604.603654286315
 21
322.903564599171
 31
0.0
  0
LINE
  5
4F87
330
4AF0
100
AcDbEntity
  8
寸法線
 62
     0
 48
10.0
100
AcDbLine
 10
447.603654286315
 20
324.153564599171
 30
0.0
 11
598.603654286315
 21
324.153564599171
 31
0.0
  0
INSERT
  5
4F88
330
4AF0
100
AcDbEntity
  8
寸法線
 62
     0
100
AcDbBlockReference
  2
_OPEN30
 10
441.603654286315
 20
324.153564599171
 30
0.0
 41
6.0
 42
6.0
 43
6.0
 50
180.0
  0
INSERT
  5
4F89
330
4AF0
100
AcDbEntity
  8
寸法線
 62
     0
100
AcDbBlockReference
  2
_OPEN30
 10
604.603654286315
 20
324.153564599171
 30
0.0
 41
6.0
 42
6.0
 43
6.0
  0
MTEXT
  5
4F8A
330
4AF0
100
AcDbEntity
  8
寸法線
 62
     0
 48
10.0
100
AcDbMText
 10
523.103654286315
 20
328.778564599171
 30
0.0
 40
8.0
 41
0.0
 71
     5
 72
     1
  1
\A1;163
  0
POINT
  5
4F8B
330
4AF0
100
AcDbEntity
  8
DEFPOINTS
 62
     0
100
AcDbPoint
 10
441.603654286315
 20
344.153564599171
 30
0.0
  0
POINT
  5
4F8C
330
4AF0
100
AcDbEntity
  8
DEFPOINTS
 62
     0
100
AcDbPoint
 10
604.603654286315
 20
385.426429448635
 30
0.0
  0
POINT
  5
4F8D
330
4AF0
100
AcDbEntity
  8
DEFPOINTS
 62
     0
100
AcDbPoint
 10
604.603654286315
 20
324.153564599171
 30
0.0
  0
ENDBLK
  5
4AFB
330
4AF0
100
AcDbEntity
  8
0
 48
10.0
100
AcDbBlockEnd
  0
BLOCK
  5
4B07
330
4B06
100
AcDbEntity
  8
0
 48
10.0
100
AcDbBlockBegin
  2
静電容量センサ
 70
     0
 10
0.0
 20
0.0
 30
0.0
  3
静電容量センサ
  1

  0
ARC
  5
4B08
330
4B06
100
AcDbEntity
  8
外形線
 48
10.0
100
AcDbCircle
 10
1021.898525663106
 20
1073.412780408912
 30
0.0
 40
1.0
100
AcDbArc
 50
180.0
 51
268.999999999998
  0
ARC
  5
4B09
330
4B06
100
AcDbEntity
  8
外形線
 48
10.0
100
AcDbCircle
 10
1021.898525663106
 20
1115.960781516243
 30
0.0
 40
1.0
100
AcDbArc
 50
91.000000000002
 51
180.0
  0
LINE
  5
4B0A
330
4B06
100
AcDbEntity
  8
外形線
 48
10.0
100
AcDbLine
 10
1020.898525663106
 20
1115.960781516243
 30
0.0
 11
1020.898525663106
 21
1073.412780408912
 31
0.0
  0
LINE
  5
4B0B
330
4B06
100
AcDbEntity
  8
外形線
 48
10.0
100
AcDbLine
 10
1035.026308504175
 20
1117.944859066978
 30
0.0
 11
1041.278741748243
 21
1143.02199911049
 31
0.0
  0
ARC
  5
4B0C
330
4B06
100
AcDbEntity
  8
外形線
 48
10.0
100
AcDbCircle
 10
1046.130220379623
 20
1141.812389632491
 30
0.0
 40
5.0
100
AcDbArc
 50
91.3
 51
166.000000000004
  0
ARC
  5
4B0D
330
4B06
100
AcDbEntity
  8
外形線
 48
10.0
100
AcDbCircle
 10
1034.056012777899
 20
1118.186780962578
 30
0.0
 40
1.0
100
AcDbArc
 50
270.0
 51
346.000000000004
  0
ARC
  5
4B0E
330
4B06
100
AcDbEntity
  8
外形線
 48
10.0
100
AcDbCircle
 10
1034.056012777899
 20
1118.186780962578
 30
0.0
 40
1.0
100
AcDbArc
 50
270.0
 51
346.000000000004
  0
LINE
  5
4B0F
330
4B06
100
AcDbEntity
  8
外形線
 48
10.0
100
AcDbLine
 10
1021.881073256669
 20
1116.960629211399
 30
0.0
 11
1034.056012777899
 21
1117.186780962578
 31
0.0
  0
ARC
  5
4B10
330
4B06
100
AcDbEntity
  8
外形線
 48
10.0
100
AcDbCircle
 10
1122.899564892808
 20
1151.93622955513
 30
0.0
 40
0.5
100
AcDbArc
 50
359.999254274584
 51
88.999999999998
  0
ARC
  5
4B11
330
4B06
100
AcDbEntity
  8
細線
 48
10.0
100
AcDbCircle
 10
1123.898525663106
 20
1107.819822714047
 30
0.0
 40
0.5
100
AcDbArc
 50
180.0
 51
264.089361084595
  0
ARC
  5
4B12
330
4B06
100
AcDbEntity
  8
外形線
 48
10.0
100
AcDbCircle
 10
1123.898525663106
 20
1100.44543233102
 30
0.0
 40
0.5
100
AcDbArc
 50
91.000000000002
 51
180.0
  0
ARC
  5
4B13
330
4B06
100
AcDbEntity
  8
細線
 48
10.0
100
AcDbCircle
 10
1123.898525663106
 20
1108.078641759149
 30
0.0
 40
0.5
100
AcDbArc
 50
180.0
 51
264.089361084595
  0
ARC
  5
4B14
330
4B06
100
AcDbEntity
  8
細線
 48
10.0
100
AcDbCircle
 10
1123.898525663106
 20
1129.71320712675
 30
0.0
 40
0.5
100
AcDbArc
 50
180.0
 51
254.206830951738
  0
ARC
  5
4B15
330
4B06
100
AcDbEntity
  8
細線
 48
10.0
100
AcDbCircle
 10
1123.898525663106
 20
1130.420313907937
 30
0.0
 40
0.5
100
AcDbArc
 50
180.0
 51
254.206830951738
  0
ARC
  5
4B16
330
4B06
100
AcDbEntity
  8
細線
 48
10.0
100
AcDbCircle
 10
1123.898525663106
 20
1142.359984147006
 30
0.0
 40
0.5
100
AcDbArc
 50
180.0
 51
248.874947125989
  0
ARC
  5
4B17
330
4B06
100
AcDbEntity
  8
細線
 48
10.0
100
AcDbCircle
 10
1123.898525663106
 20
1143.325909973296
 30
0.0
 40
0.5
100
AcDbArc
 50
180.0
 51
248.874947125989
  0
ARC
  5
4B18
330
4B06
100
AcDbEntity
  8
外形線
 48
10.0
100
AcDbCircle
 10
1123.898413585187
 20
1144.632076415673
 30
0.0
 40
0.5
100
AcDbArc
 50
180.019033969455
 51
248.025023881972
  0
LINE
  5
4B19
330
4B06
100
AcDbEntity
  8
外形線
 48
10.0
100
AcDbLine
 10
1123.398525663106
 20
1143.325909973296
 30
0.0
 11
1123.398525663106
 21
1144.294618045039
 31
0.0
  0
LINE
  5
4B1A
330
4B06
100
AcDbEntity
  8
外形線
 48
10.0
100
AcDbLine
 10
1123.398525663106
 20
1142.359984147006
 30
0.0
 11
1123.398525663106
 21
1142.98307227703
 31
0.0
  0
LINE
  5
4B1B
330
4B06
100
AcDbEntity
  8
外形線
 48
10.0
100
AcDbLine
 10
1123.398525663106
 20
1130.420313907937
 30
0.0
 11
1123.398525663106
 21
1142.017146450741
 31
0.0
  0
LINE
  5
4B1C
330
4B06
100
AcDbEntity
  8
外形線
 48
10.0
100
AcDbLine
 10
1123.398525663106
 20
1129.71320712675
 30
0.0
 11
1123.398525663106
 21
1130.042120021904
 31
0.0
  0
LINE
  5
4B1D
330
4B06
100
AcDbEntity
  8
外形線
 48
10.0
100
AcDbLine
 10
1123.398525663106
 20
1108.078641759149
 30
0.0
 11
1123.398525663106
 21
1130.420313907937
 31
0.0
  0
LINE
  5
4B1E
330
4B06
100
AcDbEntity
  8
外形線
 48
10.0
100
AcDbLine
 10
1123.398525663106
 20
1107.819822714047
 30
0.0
 11
1123.398525663106
 21
1108.700149198143
 31
0.0
  0
LINE
  5
4B1F
330
4B06
100
AcDbEntity
  8
外形線
 48
10.0
100
AcDbLine
 10
1123.398525663106
 20
1100.44543233102
 30
0.0
 11
1123.398525663106
 21
1108.078641759149
 31
0.0
  0
ARC
  5
4B20
330
4B06
100
AcDbEntity
  8
外形線
 48
10.0
100
AcDbCircle
 10
1123.898525663106
 20
1088.928129594135
 30
0.0
 40
0.5
100
AcDbArc
 50
180.0
 51
268.999999999998
  0
LINE
  5
4B21
330
4B06
100
AcDbEntity
  8
外形線
 48
10.0
100
AcDbLine
 10
1123.398525663106
 20
1088.928129594135
 30
0.0
 11
1123.398525663106
 21
1100.44543233102
 31
0.0
  0
ARC
  5
4B22
330
4B06
100
AcDbEntity
  8
外形線
 48
10.0
100
AcDbCircle
 10
1135.396646406818
 20
1087.727276821958
 30
0.0
 40
0.5
100
AcDbArc
 50
0.002863323129
 51
88.999999999998
  0
ARC
  5
4B23
330
4B06
100
AcDbEntity
  8
外形線
 48
10.0
100
AcDbCircle
 10
1135.396646406818
 20
1101.646285103198
 30
0.0
 40
0.5
100
AcDbArc
 50
271.000000000002
 51
359.997136676878
  0
ARC
  5
4B24
330
4B06
100
AcDbEntity
  8
細線
 48
10.0
100
AcDbCircle
 10
1135.398359871226
 20
1105.882746614783
 30
0.0
 40
0.5
100
AcDbArc
 50
359.978936747976
 51
84.089361084595
  0
ARC
  5
4B25
330
4B06
100
AcDbEntity
  8
細線
 48
10.0
100
AcDbCircle
 10
1135.396845195015
 20
1105.6240843805
 30
0.0
 40
0.5
100
AcDbArc
 50
359.997136676878
 51
84.089361084595
  0
ARC
  5
4B26
330
4B06
100
AcDbEntity
  8
細線
 48
10.0
100
AcDbCircle
 10
1135.398405428356
 20
1136.84472607817
 30
0.0
 40
0.5
100
AcDbArc
 50
359.997136676878
 51
68.874947125989
  0
ARC
  5
4B27
330
4B06
100
AcDbEntity
  8
細線
 48
10.0
100
AcDbCircle
 10
1135.398453699003
 20
1137.810633254114
 30
0.0
 40
0.5
100
AcDbArc
 50
359.997136676878
 51
68.874947125989
  0
ARC
  5
4B28
330
4B06
100
AcDbEntity
  8
外形線
 48
10.0
100
AcDbCircle
 10
1135.398508800797
 20
1138.913233296621
 30
0.0
 40
0.5
100
AcDbArc
 50
359.997136676878
 51
68.025023881972
  0
LINE
  5
4B29
330
4B06
100
AcDbEntity
  8
外形線
 48
10.0
100
AcDbLine
 10
1135.405372610037
 20
1101.146361255619
 30
0.0
 11
1123.889799459887
 21
1100.945356178598
 31
0.0
  0
LINE
  5
4B2A
330
4B06
100
AcDbEntity
  8
外形線
 48
10.0
100
AcDbLine
 10
1135.405372610037
 20
1088.227200669536
 30
0.0
 11
1123.889799459887
 21
1088.428205746557
 31
0.0
  0
LINE
  5
4B2B
330
4B06
100
AcDbEntity
  8
外形線
 48
10.0
100
AcDbLine
 10
1123.711312779708
 20
1144.168402728055
 30
0.0
 11
1135.585609606275
 21
1139.376906984239
 31
0.0
  0
LINE
  5
4B2C
330
4B06
100
AcDbEntity
  8
細線
 48
10.0
100
AcDbLine
 10
1135.448333812772
 20
1106.121426237015
 30
0.0
 11
1123.847037045349
 21
1107.322480857532
 31
0.0
  0
LINE
  5
4B2D
330
4B06
100
AcDbEntity
  8
細線
 48
10.0
100
AcDbLine
 10
1135.449848488983
 20
1106.380088471297
 30
0.0
 11
1123.847037045349
 21
1107.581299902634
 31
0.0
  0
LINE
  5
4B2E
330
4B06
100
AcDbEntity
  8
細線
 48
10.0
100
AcDbLine
 10
1135.533952658586
 20
1126.609702933466
 30
0.0
 11
1123.762442899618
 21
1129.939188683612
 31
0.0
  0
LINE
  5
4B2F
330
4B06
100
AcDbEntity
  8
細線
 48
10.0
100
AcDbLine
 10
1135.578607784566
 20
1137.311124095764
 30
0.0
 11
1123.718323306896
 21
1141.893586129411
 31
0.0
  0
LINE
  5
4B30
330
4B06
100
AcDbEntity
  8
細線
 48
10.0
100
AcDbLine
 10
1135.578656055213
 20
1138.277031271709
 30
0.0
 11
1123.718323306896
 21
1142.859511955701
 31
0.0
  0
LINE
  5
4B31
330
4B06
100
AcDbEntity
  8
外形線
 48
10.0
100
AcDbLine
 10
1108.899561566736
 20
1152.686780962578
 30
0.0
 11
1122.908291096026
 21
1152.436153402709
 31
0.0
  0
LINE
  5
4B32
330
4B06
100
AcDbEntity
  8
外形線
 48
10.0
100
AcDbLine
 10
1108.899561566736
 20
1152.686780962578
 30
0.0
 11
1108.399561566736
 21
1152.180676686204
 31
0.0
  0
LINE
  5
4B33
330
4B06
100
AcDbEntity
  8
外形線
 48
10.0
100
AcDbLine
 10
1108.399561566736
 20
1151.192885238951
 30
0.0
 11
1108.399561566736
 21
1150.692885238951
 31
0.0
  0
ARC
  5
4B34
330
4B06
100
AcDbEntity
  8
外形線
 48
10.0
100
AcDbCircle
 10
1098.998525663106
 20
1152.414559409545
 30
0.0
 40
4.4
100
AcDbArc
 50
271.3
 51
0.0
  0
LINE
  5
4B35
330
4B06
100
AcDbEntity
  8
外形線
 48
10.0
100
AcDbLine
 10
1046.016783711759
 20
1146.811102679105
 30
0.0
 11
1099.098349930826
 21
1148.015691928525
 31
0.0
  0
LINE
  5
4B36
330
4B06
100
AcDbEntity
  8
外形線
 48
10.0
100
AcDbLine
 10
1103.398525663105
 20
1152.686780962578
 30
0.0
 11
1103.398525663105
 21
1152.414559409545
 31
0.0
  0
LINE
  5
4B37
330
4B06
100
AcDbEntity
  8
外形線
 48
10.0
100
AcDbLine
 10
1106.398525663105
 20
1152.686780962578
 30
0.0
 11
1103.398525663105
 21
1152.686780962578
 31
0.0
  0
ARC
  5
4B38
330
4B06
100
AcDbEntity
  8
外形線
 48
10.0
100
AcDbCircle
 10
1107.898525663105
 20
1150.161780962577
 30
0.0
 40
1.500000000000156
100
AcDbArc
 50
70.528779365514
 51
179.999999999993
  0
LINE
  5
4B39
330
4B06
100
AcDbEntity
  8
細線
 48
10.0
100
AcDbLine
 10
1108.899561566736
 20
1152.686780962578
 30
0.0
 11
1108.899561566736
 21
1036.686780962578
 31
0.0
  0
LINE
  5
4B3A
330
4B06
100
AcDbEntity
  8
細線
 48
10.0
100
AcDbLine
 10
1108.899561566736
 20
1152.680676686204
 30
0.0
 11
1108.899561566736
 21
1036.692885238951
 31
0.0
  0
LINE
  5
4B3B
330
4B06
100
AcDbEntity
  8
外形線
 48
10.0
100
AcDbLine
 10
1123.398525663106
 20
1072.956444458874
 30
0.0
 11
1123.398525663106
 21
1059.660354798405
 31
0.0
  0
ARC
  5
4B3C
330
4B06
100
AcDbEntity
  8
細線
 48
10.0
100
AcDbCircle
 10
1123.898525663106
 20
1047.013577778149
 30
0.0
 40
0.5
100
AcDbArc
 50
111.125052874011
 51
180.0
  0
ARC
  5
4B3D
330
4B06
100
AcDbEntity
  8
細線
 48
10.0
100
AcDbCircle
 10
1123.898066965619
 20
1046.04747472476
 30
0.0
 40
0.5
100
AcDbArc
 50
111.125052874011
 51
179.923306313171
  0
ARC
  5
4B3E
330
4B06
100
AcDbEntity
  8
細線
 48
10.0
100
AcDbCircle
 10
1123.898525663106
 20
1059.660354798405
 30
0.0
 40
0.5
100
AcDbArc
 50
105.793169048262
 51
180.0
  0
ARC
  5
4B3F
330
4B06
100
AcDbEntity
  8
細線
 48
10.0
100
AcDbCircle
 10
1123.898525663106
 20
1058.953248017218
 30
0.0
 40
0.5
100
AcDbArc
 50
105.793169048262
 51
180.0
  0
ARC
  5
4B40
330
4B06
100
AcDbEntity
  8
細線
 48
10.0
100
AcDbCircle
 10
1123.898525663106
 20
1081.294920166006
 30
0.0
 40
0.5
100
AcDbArc
 50
95.910638915405
 51
180.0
  0
ARC
  5
4B41
330
4B06
100
AcDbEntity
  8
細線
 48
10.0
100
AcDbCircle
 10
1123.898525663106
 20
1081.553739211108
 30
0.0
 40
0.5
100
AcDbArc
 50
95.910638915405
 51
180.0
  0
LINE
  5
4B42
330
4B06
100
AcDbEntity
  8
外形線
 48
10.0
100
AcDbLine
 10
1123.398525663106
 20
1081.294920166006
 30
0.0
 11
1123.398525663106
 21
1088.928129594135
 31
0.0
  0
LINE
  5
4B43
330
4B06
100
AcDbEntity
  8
外形線
 48
10.0
100
AcDbLine
 10
1123.398525663106
 20
1081.745828707453
 30
0.0
 11
1123.398525663106
 21
1082.004647752555
 31
0.0
  0
LINE
  5
4B44
330
4B06
100
AcDbEntity
  8
外形線
 48
10.0
100
AcDbLine
 10
1123.398525663106
 20
1072.956444458874
 30
0.0
 11
1123.398525663106
 21
1081.294920166006
 31
0.0
  0
LINE
  5
4B45
330
4B06
100
AcDbEntity
  8
外形線
 48
10.0
100
AcDbLine
 10
1123.398525663106
 20
1058.953248017218
 30
0.0
 11
1123.398525663106
 21
1059.660354798405
 31
0.0
  0
LINE
  5
4B46
330
4B06
100
AcDbEntity
  8
外形線
 48
10.0
100
AcDbLine
 10
1123.398525663106
 20
1047.013577778149
 30
0.0
 11
1123.398525663106
 21
1058.953248017218
 31
0.0
  0
LINE
  5
4B47
330
4B06
100
AcDbEntity
  8
外形線
 48
10.0
100
AcDbLine
 10
1123.398067413553
 20
1046.048144003235
 30
0.0
 11
1123.398525663106
 21
1047.013577778149
 31
0.0
  0
LINE
  5
4B48
330
4B06
100
AcDbEntity
  8
外形線
 48
10.0
100
AcDbLine
 10
1123.396317242873
 20
1044.740639597053
 30
0.0
 11
1123.398067413553
 21
1046.048144003235
 31
0.0
  0
ARC
  5
4B49
330
4B06
100
AcDbEntity
  8
外形線
 48
10.0
100
AcDbCircle
 10
1123.896317242873
 20
1044.740639597053
 30
0.0
 40
0.5
100
AcDbArc
 50
111.974976118028
 51
180.0
  0
ARC
  5
4B4A
330
4B06
100
AcDbEntity
  8
細線
 48
10.0
100
AcDbCircle
 10
1135.398494161258
 20
1063.952267566336
 30
0.0
 40
0.5
100
AcDbArc
 50
285.793169048262
 51
0.004772330144
  0
ARC
  5
4B4B
330
4B06
100
AcDbEntity
  8
細線
 48
10.0
100
AcDbCircle
 10
1135.398525663106
 20
1063.245169695216
 30
0.0
 40
0.5
100
AcDbArc
 50
285.793169048262
 51
0.0
  0
ARC
  5
4B4C
330
4B06
100
AcDbEntity
  8
細線
 48
10.0
100
AcDbCircle
 10
1135.398525663106
 20
1052.528882302126
 30
0.0
 40
0.5
100
AcDbArc
 50
291.125052874011
 51
0.0
  0
ARC
  5
4B4D
330
4B06
100
AcDbEntity
  8
細線
 48
10.0
100
AcDbCircle
 10
1135.398525663106
 20
1051.562956475835
 30
0.0
 40
0.5
100
AcDbArc
 50
291.125052874011
 51
0.0
  0
ARC
  5
4B4E
330
4B06
100
AcDbEntity
  8
外形線
 48
10.0
100
AcDbCircle
 10
1135.398525663106
 20
1050.460335432784
 30
0.0
 40
0.5
100
AcDbArc
 50
291.974976118028
 51
0.0
  0
LINE
  5
4B4F
330
4B06
100
AcDbEntity
  8
外形線
 48
10.0
100
AcDbLine
 10
1135.898525663106
 20
1051.562956475835
 30
0.0
 11
1135.898525663106
 21
1050.460335432784
 31
0.0
  0
LINE
  5
4B50
330
4B06
100
AcDbEntity
  8
外形線
 48
10.0
100
AcDbLine
 10
1135.898525663106
 20
1052.528882302126
 30
0.0
 11
1135.898525663106
 21
1051.562956475835
 31
0.0
  0
LINE
  5
4B51
330
4B06
100
AcDbEntity
  8
外形線
 48
10.0
100
AcDbLine
 10
1135.898525663106
 20
1063.245169695216
 30
0.0
 11
1135.898525663106
 21
1052.528882302126
 31
0.0
  0
LINE
  5
4B52
330
4B06
100
AcDbEntity
  8
外形線
 48
10.0
100
AcDbLine
 10
1135.898494159523
 20
1063.952309212773
 30
0.0
 11
1135.898525663106
 21
1063.245169695216
 31
0.0
  0
LINE
  5
4B53
330
4B06
100
AcDbEntity
  8
外形線
 48
10.0
100
AcDbLine
 10
1135.896845194391
 20
1083.749502531863
 30
0.0
 11
1135.898494159523
 21
1063.952309212773
 31
0.0
  0
ARC
  5
4B54
330
4B06
100
AcDbEntity
  8
細線
 48
10.0
100
AcDbCircle
 10
1135.396794220963
 20
1083.49065322233
 30
0.0
 40
0.5
100
AcDbArc
 50
275.910638915405
 51
0.00199902817
  0
ARC
  5
4B55
330
4B06
100
AcDbEntity
  8
細線
 48
10.0
100
AcDbCircle
 10
1135.396845195015
 20
1083.749477544655
 30
0.0
 40
0.5
100
AcDbArc
 50
275.910638915405
 51
0.002863323129
  0
ARC
  5
4B56
330
4B06
100
AcDbEntity
  8
外形線
 48
10.0
100
AcDbCircle
 10
1122.897486448612
 20
1037.437296090646
 30
0.0
 40
0.5
100
AcDbArc
 50
271.000000000002
 51
359.984453673186
  0
LINE
  5
4B57
330
4B06
100
AcDbEntity
  8
外形線
 48
10.0
100
AcDbLine
 10
1135.896646406194
 20
1087.727301809166
 30
0.0
 11
1135.896794220659
 21
1083.490670667142
 31
0.0
  0
LINE
  5
4B58
330
4B06
100
AcDbEntity
  8
外形線
 48
10.0
100
AcDbLine
 10
1123.709216437395
 20
1045.204313284671
 30
0.0
 11
1135.585626468584
 21
1049.996661745166
 31
0.0
  0
LINE
  5
4B59
330
4B06
100
AcDbEntity
  8
細線
 48
10.0
100
AcDbLine
 10
1135.578728019316
 20
1052.062484284531
 30
0.0
 11
1123.718323306896
 21
1047.479975795744
 31
0.0
  0
LINE
  5
4B5A
330
4B06
100
AcDbEntity
  8
細線
 48
10.0
100
AcDbLine
 10
1135.578728019316
 20
1051.09655845824
 30
0.0
 11
1123.717864609409
 21
1046.513872742355
 31
0.0
  0
LINE
  5
4B5B
330
4B06
100
AcDbEntity
  8
細線
 48
10.0
100
AcDbLine
 10
1135.534608426593
 20
1062.764044470891
 30
0.0
 11
1123.762442899618
 21
1059.434373241543
 31
0.0
  0
LINE
  5
4B5C
330
4B06
100
AcDbEntity
  8
細線
 48
10.0
100
AcDbLine
 10
1135.534576924746
 20
1063.471142342011
 30
0.0
 11
1123.762442899618
 21
1060.141480022729
 31
0.0
  0
LINE
  5
4B5D
330
4B06
100
AcDbEntity
  8
細線
 48
10.0
100
AcDbLine
 10
1135.44828283872
 20
1082.993311365815
 30
0.0
 11
1123.847037045349
 21
1081.792262022521
 31
0.0
  0
LINE
  5
4B5E
330
4B06
100
AcDbEntity
  8
細線
 48
10.0
100
AcDbLine
 10
1135.448333812772
 20
1083.25213568814
 30
0.0
 11
1123.847037045349
 21
1082.051081067623
 31
0.0
  0
LINE
  5
4B5F
330
4B06
100
AcDbEntity
  8
外形線
 48
10.0
100
AcDbLine
 10
1123.399470041665
 20
1044.747733739171
 30
0.0
 11
1123.397486430207
 21
1037.437160423353
 31
0.0
  0
LINE
  5
4B60
330
4B06
100
AcDbEntity
  8
外形線
 48
10.0
100
AcDbLine
 10
1123.399564892765
 20
1151.936223047449
 30
0.0
 11
1123.397486430207
 21
1037.437160423353
 31
0.0
  0
LINE
  5
4B61
330
4B06
100
AcDbEntity
  8
外形線
 48
10.0
100
AcDbLine
 10
1108.399561566736
 20
1152.180676686204
 30
0.0
 11
1108.399561566736
 21
1037.192885238951
 31
0.0
  0
LINE
  5
4B62
330
4B06
100
AcDbEntity
  8
外形線
 48
10.0
100
AcDbLine
 10
1108.899561566736
 20
1036.686780962578
 30
0.0
 11
1122.906212651831
 21
1036.937372243068
 31
0.0
  0
LINE
  5
4B63
330
4B06
100
AcDbEntity
  8
外形線
 48
10.0
100
AcDbLine
 10
1108.899561566736
 20
1036.686780962578
 30
0.0
 11
1108.399561566736
 21
1037.192885238951
 31
0.0
  0
LINE
  5
4B64
330
4B06
100
AcDbEntity
  8
外形線
 48
10.0
100
AcDbLine
 10
1108.399561566736
 20
1038.192885238951
 30
0.0
 11
1108.399561566736
 21
1038.692885238951
 31
0.0
  0
LINE
  5
4B65
330
4B06
100
AcDbEntity
  8
外形線
 48
10.0
100
AcDbLine
 10
1035.022931603883
 20
1071.442246865485
 30
0.0
 11
1041.278741748243
 21
1046.351562814666
 31
0.0
  0
ARC
  5
4B66
330
4B06
100
AcDbEntity
  8
外形線
 48
10.0
100
AcDbCircle
 10
1046.130220379623
 20
1047.561172292664
 30
0.0
 40
5.0
100
AcDbArc
 50
193.999999999996
 51
268.7
  0
ARC
  5
4B67
330
4B06
100
AcDbEntity
  8
外形線
 48
10.0
100
AcDbCircle
 10
1034.052635877606
 20
1071.200324969886
 30
0.0
 40
1.0
100
AcDbArc
 50
13.999999999996
 51
89.000000000011
  0
ARC
  5
4B68
330
4B06
100
AcDbEntity
  8
外形線
 48
10.0
100
AcDbCircle
 10
1069.398525663106
 20
1041.031595836918
 30
0.0
 40
1.0
100
AcDbArc
 50
0.0
 51
88.7
  0
ARC
  5
4B69
330
4B06
100
AcDbEntity
  8
外形線
 48
10.0
100
AcDbCircle
 10
1071.398525663106
 20
1031.186780962577
 30
0.0
 40
1.0
100
AcDbArc
 50
180.0
 51
270.0
  0
ARC
  5
4B6A
330
4B06
100
AcDbEntity
  8
外形線
 48
10.0
100
AcDbCircle
 10
1105.398525663105
 20
1031.186780962577
 30
0.0
 40
1.0
100
AcDbArc
 50
270.0
 51
0.0
  0
LINE
  5
4B6B
330
4B06
100
AcDbEntity
  8
外形線
 48
10.0
100
AcDbLine
 10
1070.398525663106
 20
1031.186780962577
 30
0.0
 11
1070.398525663106
 21
1041.031595836918
 31
0.0
  0
LINE
  5
4B6C
330
4B06
100
AcDbEntity
  8
外形線
 48
10.0
100
AcDbLine
 10
1046.016783711759
 20
1042.56245924605
 30
0.0
 11
1099.098349930826
 21
1041.35786999663
 31
0.0
  0
LINE
  5
4B6D
330
4B06
100
AcDbEntity
  8
外形線
 48
10.0
100
AcDbLine
 10
1021.881073256668
 20
1072.412932713756
 30
0.0
 11
1034.070088284044
 21
1072.200172665042
 31
0.0
  0
LINE
  5
4B6E
330
4B06
100
AcDbEntity
  8
外形線
 48
10.0
100
AcDbLine
 10
1106.398525663105
 20
1040.711780962577
 30
0.0
 11
1106.398525663105
 21
1031.186780962577
 31
0.0
  0
LINE
  5
4B6F
330
4B06
100
AcDbEntity
  8
外形線
 48
10.0
100
AcDbLine
 10
1106.398525663105
 20
1040.711780962577
 30
0.0
 11
1106.398525663105
 21
1152.686780962578
 31
0.0
  0
LINE
  5
4B70
330
4B06
100
AcDbEntity
  8
外形線
 48
10.0
100
AcDbLine
 10
1105.398525663105
 20
1030.186780962577
 30
0.0
 11
1071.398525663106
 21
1030.186780962577
 31
0.0
  0
LINE
  5
4B71
330
4B06
100
AcDbEntity
  8
外形線
 48
10.0
100
AcDbLine
 10
1103.398525663106
 20
1036.95900251561
 30
0.0
 11
1103.398525663105
 21
1036.692885238951
 31
0.0
  0
LINE
  5
4B72
330
4B06
100
AcDbEntity
  8
外形線
 48
10.0
100
AcDbLine
 10
1106.398525663105
 20
1036.692885238951
 30
0.0
 11
1103.398525663105
 21
1036.692885238951
 31
0.0
  0
ARC
  5
4B73
330
4B06
100
AcDbEntity
  8
外形線
 48
10.0
100
AcDbCircle
 10
1107.898525663105
 20
1039.211780962577
 30
0.0
 40
1.499999999999659
100
AcDbArc
 50
179.99999999998
 51
289.471220634515
  0
ARC
  5
4B74
330
4B06
100
AcDbEntity
  8
外形線
 48
10.0
100
AcDbCircle
 10
1098.998525663106
 20
1036.95900251561
 30
0.0
 40
4.4
100
AcDbArc
 50
0.0
 51
88.7
  0
LINE
  5
4B75
330
4B06
100
AcDbEntity
  8
細線
 48
10.0
100
AcDbLine
 10
1103.398525663105
 20
1152.686780962578
 30
0.0
 11
1103.398525663106
 21
1036.95900251561
 31
0.0
  0
LINE
  5
4B76
330
4B06
100
AcDbEntity
  8
細線
 48
10.0
100
AcDbLine
 10
1034.837298404406
 20
1072.186780962578
 30
0.0
 11
1034.840933619068
 21
1117.201361012233
 31
0.0
  0
LINE
  5
4B77
330
4B06
100
AcDbEntity
  8
細線
 48
10.0
100
AcDbLine
 10
1042.201886517784
 20
1144.905639229587
 30
0.0
 11
1042.201886517784
 21
1044.467922695569
 31
0.0
  0
LINE
  5
4B78
330
4B06
100
AcDbEntity
  8
外形線
 48
10.0
100
AcDbLine
 10
1135.898508800172
 20
1138.913208309413
 30
0.0
 11
1135.896646406194
 21
1101.646260115989
 31
0.0
  0
ARC
  5
4B79
330
4B06
100
AcDbEntity
  8
細線
 48
10.0
100
AcDbCircle
 10
1135.397834558349
 20
1125.421480922695
 30
0.0
 40
0.5
100
AcDbArc
 50
359.997136676878
 51
74.206830951738
  0
ARC
  5
4B7A
330
4B06
100
AcDbEntity
  8
細線
 48
10.0
100
AcDbCircle
 10
1135.397869895098
 20
1126.128577709141
 30
0.0
 40
0.5
100
AcDbArc
 50
359.997136676878
 51
74.206830951738
  0
LINE
  5
4B7B
330
4B06
100
AcDbEntity
  8
細線
 48
10.0
100
AcDbLine
 10
1135.533917321837
 20
1125.90260614702
 30
0.0
 11
1123.762442899618
 21
1129.232081902426
 31
0.0
  0
LINE
  5
4B7C
330
4B06
100
AcDbEntity
  8
中心線
 48
10.0
100
AcDbLine
 10
1088.398525663106
 20
1052.03299312045
 30
0.0
 11
1088.398525663106
 21
1013.722487401784
 31
0.0
  0
ENDBLK
  5
4B7D
330
4B06
100
AcDbEntity
  8
0
 48
10.0
100
AcDbBlockEnd
  0
BLOCK
  5
4D3D
330
4D33
100
AcDbEntity
  8
0
 48
10.0
100
AcDbBlockBegin
  2
*D21
 70
     1
 10
0.0
 20
0.0
 30
0.0
  3
*D21
  1

  0
LINE
  5
4F7C
330
4D33
100
AcDbEntity
  8
寸法線
 62
     0
 48
10.0
100
AcDbLine
 10
575.103654286314
 20
365.527874978429
 30
0.0
 11
575.103654286314
 21
342.903564599171
 31
0.0
  0
LINE
  5
4F7D
330
4D33
100
AcDbEntity
  8
寸法線
 62
     0
 48
10.0
100
AcDbLine
 10
604.603654286315
 20
384.801429448635
 30
0.0
 11
604.603654286315
 21
342.903564599171
 31
0.0
  0
LINE
  5
4F7E
330
4D33
100
AcDbEntity
  8
寸法線
 62
     0
 48
10.0
100
AcDbLine
 10
581.103654286314
 20
344.153564599171
 30
0.0
 11
598.603654286315
 21
344.153564599171
 31
0.0
  0
INSERT
  5
4F7F
330
4D33
100
AcDbEntity
  8
寸法線
 62
     0
100
AcDbBlockReference
  2
_OPEN30
 10
575.103654286314
 20
344.153564599171
 30
0.0
 41
6.0
 42
6.0
 43
6.0
 50
180.0
  0
INSERT
  5
4F80
330
4D33
100
AcDbEntity
  8
寸法線
 62
     0
100
AcDbBlockReference
  2
_OPEN30
 10
604.603654286315
 20
344.153564599171
 30
0.0
 41
6.0
 42
6.0
 43
6.0
  0
MTEXT
  5
4F81
330
4D33
100
AcDbEntity
  8
寸法線
 62
     0
 48
10.0
100
AcDbMText
 10
589.853654286314
 20
348.782731265838
 30
0.0
 40
8.0
 41
0.0
 71
     5
 72
     1
  1
\A1;30
  0
POINT
  5
4F82
330
4D33
100
AcDbEntity
  8
DEFPOINTS
 62
     0
100
AcDbPoint
 10
575.103654286314
 20
366.152874978429
 30
0.0
  0
POINT
  5
4F83
330
4D33
100
AcDbEntity
  8
DEFPOINTS
 62
     0
100
AcDbPoint
 10
604.603654286315
 20
385.426429448635
 30
0.0
  0
POINT
  5
4F84
330
4D33
100
AcDbEntity
  8
DEFPOINTS
 62
     0
100
AcDbPoint
 10
604.603654286315
 20
344.153564599171
 30
0.0
  0
ENDBLK
  5
4D3E
330
4D33
100
AcDbEntity
  8
0
 48
10.0
100
AcDbBlockEnd
  0
BLOCK
  5
4D53
330
4D49
100
AcDbEntity
  8
0
 48
10.0
100
AcDbBlockBegin
  2
*D22
 70
     1
 10
0.0
 20
0.0
 30
0.0
  3
*D22
  1

  0
LINE
  5
4F73
330
4D49
100
AcDbEntity
  8
寸法線
 62
     0
 48
10.0
100
AcDbLine
 10
486.603654286314
 20
410.027185207634
 30
0.0
 11
486.603654286314
 21
342.903564599171
 31
0.0
  0
LINE
  5
4F74
330
4D49
100
AcDbEntity
  8
寸法線
 62
     0
 48
10.0
100
AcDbLine
 10
575.103654286314
 20
365.527874978429
 30
0.0
 11
575.103654286314
 21
342.903564599171
 31
0.0
  0
LINE
  5
4F75
330
4D49
100
AcDbEntity
  8
寸法線
 62
     0
 48
10.0
100
AcDbLine
 10
492.603654286314
 20
344.153564599171
 30
0.0
 11
569.103654286314
 21
344.153564599171
 31
0.0
  0
INSERT
  5
4F76
330
4D49
100
AcDbEntity
  8
寸法線
 62
     0
100
AcDbBlockReference
  2
_OPEN30
 10
486.603654286314
 20
344.153564599171
 30
0.0
 41
6.0
 42
6.0
 43
6.0
 50
180.0
  0
INSERT
  5
4F77
330
4D49
100
AcDbEntity
  8
寸法線
 62
     0
100
AcDbBlockReference
  2
_OPEN30
 10
575.103654286314
 20
344.153564599171
 30
0.0
 41
6.0
 42
6.0
 43
6.0
  0
MTEXT
  5
4F78
330
4D49
100
AcDbEntity
  8
寸法線
 62
     0
 48
10.0
100
AcDbMText
 10
530.853654286314
 20
348.795231265838
 30
0.0
 40
8.0
 41
0.0
 71
     5
 72
     1
  1
\A1;88
  0
POINT
  5
4F79
330
4D49
100
AcDbEntity
  8
DEFPOINTS
 62
     0
100
AcDbPoint
 10
486.603654286314
 20
410.652185207634
 30
0.0
  0
POINT
  5
4F7A
330
4D49
100
AcDbEntity
  8
DEFPOINTS
 62
     0
100
AcDbPoint
 10
575.103654286314
 20
366.152874978429
 30
0.0
  0
POINT
  5
4F7B
330
4D49
100
AcDbEntity
  8
DEFPOINTS
 62
     0
100
AcDbPoint
 10
575.103654286314
 20
344.153564599171
 30
0.0
  0
ENDBLK
  5
4D54
330
4D49
100
AcDbEntity
  8
0
 48
10.0
100
AcDbBlockEnd
  0
BLOCK
  5
4EAF
330
4E7E
100
AcDbEntity
  8
0
 48
10.0
100
AcDbBlockBegin
  2
A$C024602DC
 70
     0
 10
0.0
 20
0.0
 30
0.0
  3
A$C024602DC
  1

  0
MTEXT
  5
4E7F
330
4E7E
100
AcDbEntity
  8
寸法線
 48
10.0
100
AcDbMText
 10
93.359878690486
 20
6.555794975295
 30
0.0
 40
4.0
 41
8.845580007951
 71
     5
 72
     5
  1
50\P100
  0
MTEXT
  5
4E80
330
4E7E
100
AcDbEntity
  8
寸法線
 48
10.0
100
AcDbMText
 10
81.027836289476
 20
6.555794975295
 30
0.0
 40
4.0
 41
8.845580007951
 71
     5
 72
     5
  1
30\P50
  0
MTEXT
  5
4E81
330
4E7E
100
AcDbEntity
  8
寸法線
 48
10.0
100
AcDbMText
 10
69.249154895393
 20
6.555794975295
 30
0.0
 40
4.0
 41
8.845580007951
 71
     5
 72
     5
  1
70\P100
  0
MTEXT
  5
4E82
330
4E7E
100
AcDbEntity
  8
寸法線
 48
10.0
100
AcDbMText
 10
53.759147649098
 20
11.889522009416
 30
0.0
 40
4.0
 41
8.845580007951
 71
     1
 72
     5
  1
150\P250
  0
ARC
  5
4E83
330
4E7E
100
AcDbEntity
  8
寸法線
100
AcDbCircle
 10
68.562519428792
 20
15.297904715544
 30
0.0
 40
0.880295
100
AcDbArc
 50
252.903398883406
 51
337.412611017142
  0
ARC
  5
4E84
330
4E7E
100
AcDbEntity
  8
寸法線
100
AcDbCircle
 10
66.293720428792
 20
16.958976715544
 30
0.0
 40
2.506569
100
AcDbArc
 50
273.280470979898
 51
33.415912335968
  0
ARC
  5
4E85
330
4E7E
100
AcDbEntity
  8
寸法線
100
AcDbCircle
 10
69.469013428792
 20
16.456504715544
 30
0.0
 40
2.31469
100
AcDbArc
 50
123.469024399699
 51
239.774013712204
  0
ARC
  5
4E86
330
4E7E
100
AcDbEntity
  8
寸法線
100
AcDbCircle
 10
69.469013428792
 20
16.456504715544
 30
0.0
 40
2.314693
100
AcDbArc
 50
123.469024399699
 51
239.773899120647
  0
ARC
  5
4E87
330
4E7E
100
AcDbEntity
  8
寸法線
100
AcDbCircle
 10
68.267465405894
 20
18.275745246849
 30
0.0
 40
0.134475
100
AcDbArc
 50
28.230948369049
 51
123.883845843405
  0
TEXT
  5
4E88
330
4E7E
100
AcDbEntity
  8
寸法線
100
AcDbText
 10
69.931934428792
 20
14.152640715544
 30
0.0
 40
2.0
  1
１
 41
1.875
  7
EXCADSTD
 72
     5
 11
71.931934428792
 21
14.152640715544
 31
0.0
100
AcDbText
  0
ARC
  5
4E89
330
4E7E
100
AcDbEntity
  8
寸法線
100
AcDbCircle
 10
93.315076065795
 20
16.552171567482
 30
0.0
 40
2.31469
100
AcDbArc
 50
123.469024399699
 51
239.774013712204
  0
ARC
  5
4E8A
330
4E7E
100
AcDbEntity
  8
寸法線
100
AcDbCircle
 10
93.315076065795
 20
16.552171567482
 30
0.0
 40
2.314693
100
AcDbArc
 50
123.469024399699
 51
239.773899120647
  0
ARC
  5
4E8B
330
4E7E
100
AcDbEntity
  8
寸法線
100
AcDbCircle
 10
92.113528042898
 20
18.371412098787
 30
0.0
 40
0.134475
100
AcDbArc
 50
28.230948369049
 51
123.883845843405
  0
ARC
  5
4E8C
330
4E7E
100
AcDbEntity
  8
寸法線
100
AcDbCircle
 10
92.408582065795
 20
15.393571567482
 30
0.0
 40
0.880295
100
AcDbArc
 50
252.903398883406
 51
337.412611017142
  0
ARC
  5
4E8D
330
4E7E
100
AcDbEntity
  8
寸法線
100
AcDbCircle
 10
90.139783065795
 20
17.054643567482
 30
0.0
 40
2.506569
100
AcDbArc
 50
273.280470979898
 51
33.415912335968
  0
TEXT
  5
4E8E
330
4E7E
100
AcDbEntity
  8
寸法線
100
AcDbText
 10
93.777997065795
 20
14.248307567482
 30
0.0
 40
2.0
  1
３
 41
1.25
  7
EXCADSTD
 72
     5
 11
95.777997065795
 21
14.248307567482
 31
0.0
100
AcDbText
  0
LINE
  5
4E8F
330
4E7E
100
AcDbEntity
  8
寸法線
100
AcDbLine
 10
98.99998551914
 20
19.799999947378
 30
0.0
 11
98.99998551914
 21
-0.000000052622
 31
0.0
  0
LINE
  5
4E90
330
4E7E
100
AcDbEntity
  8
寸法線
100
AcDbLine
 10
62.99998551914
 20
19.799999947378
 30
0.0
 11
62.99998551914
 21
-0.000000052622
 31
0.0
  0
TEXT
  5
4E91
330
4E7E
100
AcDbEntity
  8
寸法線
100
AcDbText
 10
137.72345713243
 20
0.77230542232
 30
0.0
 40
4.5
  1
４
 41
1.25
  7
EXCADSTD
 72
     5
 11
142.22345713243
 21
0.77230542232
 31
0.0
100
AcDbText
  0
CIRCLE
  5
4E92
330
4E7E
100
AcDbEntity
  8
寸法線
100
AcDbCircle
 10
7.884479290529
 20
9.742901158313
 30
0.0
 40
2.0
  0
LINE
  5
4E93
330
4E7E
100
AcDbEntity
  8
寸法線
 48
10.0
100
AcDbLine
 10
0.00000051914
 20
-0.000000052622
 30
0.0
 11
147.533030421028
 21
-0.000000052622
 31
0.0
  0
LINE
  5
4E94
330
4E7E
100
AcDbEntity
  8
寸法線
 48
10.0
100
AcDbLine
 10
0.00000051914
 20
6.599999947378
 30
0.0
 11
147.533030421028
 21
6.599999947378
 31
0.0
  0
LINE
  5
4E95
330
4E7E
100
AcDbEntity
  8
寸法線
 48
10.0
100
AcDbLine
 10
0.00000051914
 20
13.199999947378
 30
0.0
 11
147.533030421028
 21
13.199999947378
 31
0.0
  0
MTEXT
  5
4E96
330
4E7E
100
AcDbEntity
  8
寸法線
 48
10.0
100
AcDbMText
 10
1.26345409961
 20
18.191091118365
 30
0.0
 40
4.0
 41
50.74039207493
 71
     1
 72
     5
  1
御仕様　　　型式
  0
TEXT
  5
4E97
330
4E7E
100
AcDbEntity
  8
寸法線
100
AcDbText
 10
111.162326198138
 20
14.174754947378
 30
0.0
 40
4.5
  1
記事
 41
0.9375
  7
EXCADSTD
 72
     5
 11
120.162326198138
 21
14.174754947378
 31
0.0
100
AcDbText
  0
TEXT
  5
4E98
330
4E7E
100
AcDbEntity
  8
寸法線
100
AcDbText
 10
81.619188669063
 20
14.152640715544
 30
0.0
 40
2.0
  1
２
 41
1.25
  7
EXCADSTD
 72
     5
 11
83.619188669063
 21
14.152640715544
 31
0.0
100
AcDbText
  0
ARC
  5
4E99
330
4E7E
100
AcDbEntity
  8
寸法線
100
AcDbCircle
 10
79.954719646165
 20
18.275745246849
 30
0.0
 40
0.134475
100
AcDbArc
 50
28.230948369049
 51
123.883845843405
  0
ARC
  5
4E9A
330
4E7E
100
AcDbEntity
  8
寸法線
100
AcDbCircle
 10
81.156267669063
 20
16.456504715544
 30
0.0
 40
2.314693
100
AcDbArc
 50
123.469024399699
 51
239.773899120647
  0
ARC
  5
4E9B
330
4E7E
100
AcDbEntity
  8
寸法線
100
AcDbCircle
 10
81.156267669063
 20
16.456504715544
 30
0.0
 40
2.31469
100
AcDbArc
 50
123.469024399699
 51
239.774013712204
  0
ARC
  5
4E9C
330
4E7E
100
AcDbEntity
  8
寸法線
100
AcDbCircle
 10
77.980974669063
 20
16.958976715544
 30
0.0
 40
2.506569
100
AcDbArc
 50
273.280470979898
 51
33.415912335968
  0
ARC
  5
4E9D
330
4E7E
100
AcDbEntity
  8
寸法線
100
AcDbCircle
 10
80.249773669063
 20
15.297904715544
 30
0.0
 40
0.880295
100
AcDbArc
 50
252.903398883406
 51
337.412611017142
  0
LINE
  5
4E9E
330
4E7E
100
AcDbEntity
  8
寸法線
100
AcDbLine
 10
0.00000051914
 20
19.799999947378
 30
0.0
 11
147.533030421028
 21
19.799999947378
 31
0.0
  0
ARC
  5
4E9F
330
4E7E
100
AcDbEntity
  8
寸法線
100
AcDbCircle
 10
57.893819308069
 20
18.104473947378
 30
0.0
 40
0.134475
100
AcDbArc
 50
28.230948369014
 51
123.883845843405
  0
ARC
  5
4EA0
330
4E7E
100
AcDbEntity
  8
寸法線
100
AcDbCircle
 10
59.095357308069
 20
16.285198947378
 30
0.0
 40
2.314693
100
AcDbArc
 50
123.469024399699
 51
239.773899120643
  0
ARC
  5
4EA1
330
4E7E
100
AcDbEntity
  8
寸法線
100
AcDbCircle
 10
59.095357308069
 20
16.285198947378
 30
0.0
 40
2.31469
100
AcDbArc
 50
123.469024399699
 51
239.774013712204
  0
ARC
  5
4EA2
330
4E7E
100
AcDbEntity
  8
寸法線
100
AcDbCircle
 10
55.920064308069
 20
16.787670947378
 30
0.0
 40
2.506569
100
AcDbArc
 50
273.280470979895
 51
33.415912335968
  0
ARC
  5
4EA3
330
4E7E
100
AcDbEntity
  8
寸法線
100
AcDbCircle
 10
58.188924308069
 20
15.126598947378
 30
0.0
 40
0.880295
100
AcDbArc
 50
252.903398883406
 51
337.412611017142
  0
TEXT
  5
4EA4
330
4E7E
100
AcDbEntity
  8
寸法線
100
AcDbText
 10
136.139689339347
 20
14.074748947378
 30
0.0
 40
4.5
  1
台数
 41
0.9375
  7
EXCADSTD
 72
     5
 11
145.139689339347
 21
14.074748947378
 31
0.0
100
AcDbText
  0
LINE
  5
4EA5
330
4E7E
100
AcDbEntity
  8
寸法線
 48
10.0
100
AcDbLine
 10
50.99998551914
 20
19.799999947378
 30
0.0
 11
50.99998551914
 21
-0.000000052622
 31
0.0
  0
MTEXT
  5
4EA6
330
4E7E
100
AcDbEntity
  8
寸法線
 48
10.0
100
AcDbMText
 10
17.869198934505
 20
11.889522009416
 30
0.0
 40
4.0
 41
33.130786584635
 71
     1
 72
     5
  1
CD-A5SA-015\PCD-A5SA-025
  0
LINE
  5
4EA7
330
4E7E
100
AcDbEntity
  8
寸法線
100
AcDbLine
 10
133.971347002434
 20
19.799999947378
 30
0.0
 11
133.971347002434
 21
-0.000000052622
 31
0.0
  0
LINE
  5
4EA8
330
4E7E
100
AcDbEntity
  8
寸法線
100
AcDbLine
 10
86.99998551914
 20
19.799999947378
 30
0.0
 11
86.99998551914
 21
-0.000000052622
 31
0.0
  0
LINE
  5
4EA9
330
4E7E
100
AcDbEntity
  8
寸法線
100
AcDbLine
 10
74.99998551914
 20
19.799999947378
 30
0.0
 11
74.99998551914
 21
-0.000000052622
 31
0.0
  0
LINE
  5
4EAA
330
4E7E
100
AcDbEntity
  8
寸法線
100
AcDbLine
 10
147.533030421028
 20
-0.000000052622
 30
0.0
 11
147.533030421028
 21
19.799999947378
 31
0.0
  0
LINE
  5
4EAB
330
4E7E
100
AcDbEntity
  8
寸法線
100
AcDbLine
 10
0.00000051914
 20
-0.000000052622
 30
0.0
 11
0.00000051914
 21
19.799999947378
 31
0.0
  0
LINE
  5
4EAC
330
4E7E
100
AcDbEntity
  8
寸法線
100
AcDbLine
 10
15.99998551914
 20
-0.000000052622
 30
0.0
 11
15.99998551914
 21
19.799999947378
 31
0.0
  0
CIRCLE
  5
4EAD
330
4E7E
100
AcDbEntity
  8
寸法線
100
AcDbCircle
 10
7.884479290529
 20
3.257503234733
 30
0.0
 40
2.0
  0
TEXT
  5
4EAE
330
4E7E
100
AcDbEntity
  8
寸法線
100
AcDbText
 10
137.72345713243
 20
7.74381158028
 30
0.0
 40
4.5
  1
３
 41
1.25
  7
EXCADSTD
 72
     5
 11
142.22345713243
 21
7.74381158028
 31
0.0
100
AcDbText
  0
ENDBLK
  5
4EB0
330
4E7E
100
AcDbEntity
  8
0
 48
10.0
100
AcDbBlockEnd
  0
ENDSEC
  0
SECTION
  2
ENTITIES
  0
LWPOLYLINE
  5
31A0
330
1A
100
AcDbEntity
  8
外形線
100
AcDbPolyline
 90
        4
 70
     1
 43
0.0
 10
486.603654286315
 20
410.652874978429
 10
489.603654286315
 20
410.652874978429
 10
489.603654286315
 20
448.652874978429
 10
486.603654286315
 20
448.652874978429
  0
MTEXT
  5
376D
330
1A
100
AcDbEntity
  8
寸法線
 48
10.0
100
AcDbMText
 10
590.803244949016
 20
296.144368466105
 30
0.0
 40
8.0
 41
0.0
 71
     7
 72
     1
  1
導線取出口\PG 1/2"
  0
LINE
  5
3E98
330
1A
100
AcDbEntity
  8
下書線
100
AcDbLine
 10
626.955916012827
 20
514.153564599171
 30
0.0
 11
-70.444083987173
 21
514.153564599171
 31
0.0
  0
LINE
  5
3E99
330
1A
100
AcDbEntity
  8
下書線
 48
10.0
100
AcDbLine
 10
-70.665793849297
 20
324.153564599171
 30
0.0
 11
626.955916012827
 21
324.153564599171
 31
0.0
  0
LINE
  5
3E9A
330
1A
100
AcDbEntity
  8
下書線
 48
10.0
100
AcDbLine
 10
-70.665793849297
 20
344.153564599171
 30
0.0
 11
626.955916012827
 21
344.153564599171
 31
0.0
  0
MTEXT
  5
3E9C
330
1A
100
AcDbEntity
  8
寸法線
 48
10.0
100
AcDbMText
 10
436.360497957959
 20
514.153564599171
 30
0.0
 40
8.0
 41
0.0
 71
     7
 72
     1
  1
取付ねじR1"\PSUS304
  0
MTEXT
  5
4289
330
1A
100
AcDbEntity
  8
寸法線
 48
10.0
100
AcDbMText
 10
559.437841748841
 20
514.153564599171
 30
0.0
 40
8.0
 41
0.0
 71
     7
 72
     1
  1
\A1;Ｏリング
  0
MTEXT
  5
428B
330
1A
100
AcDbEntity
  8
寸法線
 48
10.0
100
AcDbMText
 10
387.581054249622
 20
514.153564599171
 30
0.0
 40
8.0
 41
0.0
 71
     7
 72
     1
  1
\A1;接地電極\PSUS304
  0
MTEXT
  5
4290
330
1A
100
AcDbEntity
  8
寸法線
 48
10.0
100
AcDbMText
 10
307.450979790916
 20
514.153564599171
 30
0.0
 40
8.0
 41
0.0
 71
     9
 72
     1
  1
\A1;絶縁体\Pポリアセタール
  0
MTEXT
  5
4292
330
1A
100
AcDbEntity
  8
寸法線
 48
10.0
100
AcDbMText
 10
224.642762822658
 20
514.153564599171
 30
0.0
 40
8.0
 41
0.0
 71
     9
 72
     1
  1
接続金具\PSUS304
  0
LWPOLYLINE
  5
4533
102
{ACAD_REACTORS
330
456F
102
}
330
1A
100
AcDbEntity
  8
外形線
100
AcDbPolyline
 90
        6
 70
     0
 43
0.0
 10
13.511137375301
 20
419.653564746701
 10
59.011137375301
 20
419.653564746701
 10
59.511137375301
 20
420.153564746701
 10
59.511137375301
 20
439.153564746701
 10
59.011137375301
 20
439.653564746701
 10
13.511137375301
 20
439.653564746701
  0
ARC
  5
4534
102
{ACAD_REACTORS
330
456F
102
}
330
1A
100
AcDbEntity
  8
細線
100
AcDbCircle
 10
0.261137375301
 20
434.653564746701
 30
0.0
 40
7.25
100
AcDbArc
 50
316.397181027297
 51
43.602818972703
  0
ARC
  5
4535
102
{ACAD_REACTORS
330
456F
102
}
330
1A
100
AcDbEntity
  8
細線
100
AcDbCircle
 10
10.761137375301
 20
434.653564746701
 30
0.0
 40
7.25
100
AcDbArc
 50
136.397181027297
 51
223.602818972703
  0
ARC
  5
4536
102
{ACAD_REACTORS
330
456F
102
}
330
1A
100
AcDbEntity
  8
細線
100
AcDbCircle
 10
0.261137375301
 20
424.653564746701
 30
0.0
 40
7.25
100
AcDbArc
 50
316.397181027297
 51
43.602818972703
  0
ARC
  5
4537
102
{ACAD_REACTORS
330
456F
102
}
330
1A
100
AcDbEntity
  8
細線
100
AcDbCircle
 10
18.761137375301
 20
424.653564746701
 30
0.0
 40
7.25
100
AcDbArc
 50
136.397181027297
 51
223.602818972703
  0
ARC
  5
4538
102
{ACAD_REACTORS
330
456F
102
}
330
1A
100
AcDbEntity
  8
細線
100
AcDbCircle
 10
8.261137375301
 20
424.653564746701
 30
0.0
 40
7.25
100
AcDbArc
 50
316.397181027297
 51
43.602818972703
  0
ARC
  5
4539
102
{ACAD_REACTORS
330
456F
102
}
330
1A
100
AcDbEntity
  8
細線
100
AcDbCircle
 10
18.761137375301
 20
434.653564746701
 30
0.0
 40
7.25
100
AcDbArc
 50
136.397181027297
 51
223.602818972703
  0
LWPOLYLINE
  5
453A
102
{ACAD_REACTORS
330
456F
102
}
330
1A
100
AcDbEntity
  8
外形線
100
AcDbPolyline
 90
        6
 70
     0
 43
0.0
 10
5.511137375301
 20
439.653564746701
 10
-38.488862624699
 20
439.653564746701
 10
-40.488862624699
 20
437.653564746701
 10
-40.488862624699
 20
421.653564746701
 10
-38.488862624699
 20
419.653564746701
 10
5.511137375301
 20
419.653564746701
  0
LINE
  5
453B
102
{ACAD_REACTORS
330
456F
102
}
330
1A
100
AcDbEntity
  8
細線
100
AcDbLine
 10
-38.488862624699
 20
439.653564746701
 30
0.0
 11
-38.488862624699
 21
419.653564746701
 31
0.0
  0
LINE
  5
453C
102
{ACAD_REACTORS
330
4833
102
}
330
1A
100
AcDbEntity
  8
外形線
100
AcDbLine
 10
59.511137375301
 20
436.153564746701
 30
0.0
 11
59.511137375301
 21
423.153564746701
 31
0.0
  0
LINE
  5
453D
330
1A
100
AcDbEntity
  8
外形線
100
AcDbLine
 10
208.603654286315
 20
432.153564746701
 30
0.0
 11
208.603654286315
 21
427.153564746701
 31
0.0
  0
LINE
  5
453E
330
1A
100
AcDbEntity
  8
外形線
100
AcDbLine
 10
77.511137375301
 20
432.153564746701
 30
0.0
 11
77.511137375301
 21
427.153564746701
 31
0.0
  0
LINE
  5
453F
330
1A
100
AcDbEntity
  8
外形線
100
AcDbLine
 10
145.47661356613
 20
427.153564746701
 30
0.0
 11
208.603654286315
 21
427.153564746701
 31
0.0
  0
LINE
  5
4540
330
1A
100
AcDbEntity
  8
外形線
100
AcDbLine
 10
145.47661356613
 20
432.153564746701
 30
0.0
 11
208.603654286315
 21
432.153564746701
 31
0.0
  0
ARC
  5
4541
330
1A
100
AcDbEntity
  8
細線
100
AcDbCircle
 10
145.75786356613
 20
428.403564746701
 30
0.0
 40
1.28125
100
AcDbArc
 50
102.680383491819
 51
257.319616508181
  0
ARC
  5
4542
330
1A
100
AcDbEntity
  8
細線
100
AcDbCircle
 10
145.19536356613
 20
428.403564746701
 30
0.0
 40
1.28125
100
AcDbArc
 50
282.680383491819
 51
77.319616508181
  0
ARC
  5
4543
330
1A
100
AcDbEntity
  8
細線
100
AcDbCircle
 10
145.75786356613
 20
430.903564746701
 30
0.0
 40
1.28125
100
AcDbArc
 50
102.680383491819
 51
257.319616508181
  0
ARC
  5
4544
330
1A
100
AcDbEntity
  8
細線
100
AcDbCircle
 10
140.75786356613
 20
430.903564746701
 30
0.0
 40
1.28125
100
AcDbArc
 50
102.680383491819
 51
257.319616508181
  0
ARC
  5
4545
330
1A
100
AcDbEntity
  8
細線
100
AcDbCircle
 10
140.19536356613
 20
430.903564746701
 30
0.0
 40
1.28125
100
AcDbArc
 50
282.680383491819
 51
77.319616508181
  0
ARC
  5
4546
330
1A
100
AcDbEntity
  8
細線
100
AcDbCircle
 10
140.19536356613
 20
428.403564746701
 30
0.0
 40
1.28125
100
AcDbArc
 50
282.680383491819
 51
77.319616508181
  0
LINE
  5
4548
330
1A
100
AcDbEntity
  8
外形線
100
AcDbLine
 10
77.511137375301
 20
432.153564746701
 30
0.0
 11
140.47661356613
 21
432.153564746701
 31
0.0
  0
ARC
  5
4549
102
{ACAD_REACTORS
330
4833
102
}
330
1A
100
AcDbEntity
  8
細線
100
AcDbCircle
 10
65.249887375301
 20
439.353564746701
 30
0.0
 40
12.26124999999995
100
AcDbArc
 50
336.699401124926
 51
355.499148004291
  0
ARC
  5
454A
102
{ACAD_REACTORS
330
4833
102
}
330
1A
100
AcDbEntity
  8
細線
100
AcDbCircle
 10
65.249887375301
 20
429.653564746701
 30
0.0
 40
12.26124999999995
100
AcDbArc
 50
336.699401124926
 51
23.300598875074
  0
ARC
  5
454B
102
{ACAD_REACTORS
330
4833
102
}
330
1A
100
AcDbEntity
  8
細線
100
AcDbCircle
 10
65.249887375301
 20
419.953564746701
 30
0.0
 40
12.26124999999995
100
AcDbArc
 50
4.500851995706
 51
23.300598875074
  0
LINE
  5
454C
102
{ACAD_REACTORS
330
4833
102
}
330
1A
100
AcDbEntity
  8
細線
100
AcDbLine
 10
76.511137375301
 20
424.803564746701
 30
0.0
 11
62.511137375301
 21
424.803564746701
 31
0.0
  0
LINE
  5
454D
102
{ACAD_REACTORS
330
4833
102
}
330
1A
100
AcDbEntity
  8
細線
100
AcDbLine
 10
76.511137375301
 20
434.503564746701
 30
0.0
 11
62.511137375301
 21
434.503564746701
 31
0.0
  0
LWPOLYLINE
  5
454E
102
{ACAD_REACTORS
330
4833
102
}
330
1A
100
AcDbEntity
  8
外形線
100
AcDbPolyline
 90
        6
 70
     1
 43
0.0
 10
76.511137375301
 20
419.953564746701
 10
62.511137375301
 20
419.953564746701
 10
62.511137375301
 20
439.353564746701
 10
76.511137375301
 20
439.353564746701
 10
77.511137375301
 20
438.353564746701
 10
77.511137375301
 20
420.953564746701
  0
LINE
  5
454F
102
{ACAD_REACTORS
330
4833
102
}
330
1A
100
AcDbEntity
  8
外形線
100
AcDbLine
 10
62.511137375301
 20
436.153564746701
 30
0.0
 11
59.511137375301
 21
436.153564746701
 31
0.0
  0
LINE
  5
4550
102
{ACAD_REACTORS
330
4833
102
}
330
1A
100
AcDbEntity
  8
外形線
100
AcDbLine
 10
62.511137375301
 20
423.153564746701
 30
0.0
 11
59.511137375301
 21
423.153564746701
 31
0.0
  0
LINE
  5
4551
102
{ACAD_REACTORS
330
4832
102
}
330
1A
100
AcDbEntity
  8
外形線
100
AcDbLine
 10
226.603654286315
 20
436.153564746701
 30
0.0
 11
226.603654286315
 21
423.153564746701
 31
0.0
  0
LINE
  5
4552
102
{ACAD_REACTORS
330
4830
102
}
330
1A
100
AcDbEntity
  8
細線
100
AcDbLine
 10
277.603654286315
 20
434.503564746701
 30
0.0
 11
291.603654286315
 21
434.503564746701
 31
0.0
  0
LINE
  5
4553
102
{ACAD_REACTORS
330
4830
102
}
330
1A
100
AcDbEntity
  8
細線
100
AcDbLine
 10
277.603654286315
 20
424.803564746701
 30
0.0
 11
291.603654286315
 21
424.803564746701
 31
0.0
  0
ARC
  5
4554
102
{ACAD_REACTORS
330
4830
102
}
330
1A
100
AcDbEntity
  8
細線
100
AcDbCircle
 10
288.864904286315
 20
419.953564746701
 30
0.0
 40
12.26124999999995
100
AcDbArc
 50
156.699401124926
 51
175.499148004294
  0
ARC
  5
4555
102
{ACAD_REACTORS
330
4830
102
}
330
1A
100
AcDbEntity
  8
細線
100
AcDbCircle
 10
288.864904286314
 20
429.653564746701
 30
0.0
 40
12.26124999999995
100
AcDbArc
 50
156.699401124926
 51
203.300598875074
  0
ARC
  5
4556
102
{ACAD_REACTORS
330
4830
102
}
330
1A
100
AcDbEntity
  8
細線
100
AcDbCircle
 10
288.864904286314
 20
439.353564746701
 30
0.0
 40
12.26124999999995
100
AcDbArc
 50
184.500851995709
 51
203.300598875074
  0
LWPOLYLINE
  5
4557
102
{ACAD_REACTORS
330
4830
102
}
330
1A
100
AcDbEntity
  8
外形線
100
AcDbPolyline
 90
        6
 70
     1
 43
0.0
 10
277.603654286315
 20
419.953564746701
 10
291.603654286315
 20
419.953564746701
 10
291.603654286315
 20
439.353564746701
 10
277.603654286315
 20
439.353564746701
 10
276.603654286315
 20
438.353564746701
 10
276.603654286315
 20
420.953564746701
  0
ARC
  5
4558
102
{ACAD_REACTORS
330
4831
102
}
330
1A
100
AcDbEntity
  8
細線
100
AcDbCircle
 10
264.342404286314
 20
439.3535647467
 30
0.0
 40
12.26125000000018
100
AcDbArc
 50
336.699401124925
 51
355.499148004294
  0
ARC
  5
4559
102
{ACAD_REACTORS
330
4831
102
}
330
1A
100
AcDbEntity
  8
細線
100
AcDbCircle
 10
264.342404286314
 20
429.653564746701
 30
0.0
 40
12.26125000000018
100
AcDbArc
 50
336.699401124925
 51
23.300598875074
  0
ARC
  5
455A
102
{ACAD_REACTORS
330
4831
102
}
330
1A
100
AcDbEntity
  8
細線
100
AcDbCircle
 10
264.342404286314
 20
419.953564746701
 30
0.0
 40
12.26125000000018
100
AcDbArc
 50
4.500851995709
 51
23.300598875074
  0
ARC
  5
455B
102
{ACAD_REACTORS
330
4831
102
}
330
1A
100
AcDbEntity
  8
細線
100
AcDbCircle
 10
238.864904286315
 20
419.953564746701
 30
0.0
 40
12.26125000000014
100
AcDbArc
 50
156.699401124926
 51
175.499148004294
  0
ARC
  5
455C
102
{ACAD_REACTORS
330
4831
102
}
330
1A
100
AcDbEntity
  8
細線
100
AcDbCircle
 10
238.864904286315
 20
429.653564746701
 30
0.0
 40
12.26125000000014
100
AcDbArc
 50
156.699401124926
 51
203.300598875074
  0
ARC
  5
455D
102
{ACAD_REACTORS
330
4831
102
}
330
1A
100
AcDbEntity
  8
細線
100
AcDbCircle
 10
238.864904286315
 20
439.353564746701
 30
0.0
 40
12.26125000000014
100
AcDbArc
 50
184.500851995709
 51
203.300598875074
  0
LINE
  5
455E
102
{ACAD_REACTORS
330
4831
102
}
330
1A
100
AcDbEntity
  8
細線
100
AcDbLine
 10
227.603654286315
 20
434.503564746701
 30
0.0
 11
275.603654286315
 21
434.503564746701
 31
0.0
  0
LINE
  5
455F
102
{ACAD_REACTORS
330
4831
102
}
330
1A
100
AcDbEntity
  8
細線
100
AcDbLine
 10
227.603654286315
 20
424.803564746701
 30
0.0
 11
275.603654286315
 21
424.803564746701
 31
0.0
  0
LWPOLYLINE
  5
4560
102
{ACAD_REACTORS
330
4831
102
}
330
1A
100
AcDbEntity
  8
外形線
100
AcDbPolyline
 90
        8
 70
     1
 43
0.0
 10
227.603654286315
 20
419.953564746701
 10
275.603654286315
 20
419.953564746701
 10
276.603654286315
 20
420.953564746701
 10
276.603654286315
 20
438.353564746701
 10
275.603654286315
 20
439.353564746701
 10
227.603654286315
 20
439.353564746701
 10
226.603654286315
 20
438.353564746701
 10
226.603654286315
 20
420.953564746701
  0
LINE
  5
4561
102
{ACAD_REACTORS
330
4832
102
}
330
1A
100
AcDbEntity
  8
外形線
100
AcDbLine
 10
223.603654286315
 20
423.153564746701
 30
0.0
 11
226.603654286315
 21
423.153564746701
 31
0.0
  0
LINE
  5
4562
102
{ACAD_REACTORS
330
4832
102
}
330
1A
100
AcDbEntity
  8
外形線
100
AcDbLine
 10
223.603654286315
 20
436.153564746701
 30
0.0
 11
226.603654286315
 21
436.153564746701
 31
0.0
  0
LINE
  5
4563
102
{ACAD_REACTORS
330
4832
102
}
330
1A
100
AcDbEntity
  8
細線
100
AcDbLine
 10
209.603654286315
 20
434.503564746701
 30
0.0
 11
223.603654286315
 21
434.503564746701
 31
0.0
  0
LINE
  5
4564
102
{ACAD_REACTORS
330
4832
102
}
330
1A
100
AcDbEntity
  8
細線
100
AcDbLine
 10
209.603654286315
 20
424.803564746701
 30
0.0
 11
223.603654286315
 21
424.803564746701
 31
0.0
  0
ARC
  5
4565
102
{ACAD_REACTORS
330
4832
102
}
330
1A
100
AcDbEntity
  8
細線
100
AcDbCircle
 10
220.864904286315
 20
419.953564746701
 30
0.0
 40
12.26124999999995
100
AcDbArc
 50
156.699401124926
 51
175.499148004294
  0
ARC
  5
4566
102
{ACAD_REACTORS
330
4832
102
}
330
1A
100
AcDbEntity
  8
細線
100
AcDbCircle
 10
220.864904286315
 20
429.653564746701
 30
0.0
 40
12.26124999999995
100
AcDbArc
 50
156.699401124926
 51
203.300598875074
  0
ARC
  5
4567
102
{ACAD_REACTORS
330
4832
102
}
330
1A
100
AcDbEntity
  8
細線
100
AcDbCircle
 10
220.864904286315
 20
439.353564746701
 30
0.0
 40
12.26124999999995
100
AcDbArc
 50
184.500851995709
 51
203.300598875074
  0
LWPOLYLINE
  5
4568
102
{ACAD_REACTORS
330
4832
102
}
330
1A
100
AcDbEntity
  8
外形線
100
AcDbPolyline
 90
        6
 70
     1
 43
0.0
 10
209.603654286315
 20
419.953564746701
 10
223.603654286315
 20
419.953564746701
 10
223.603654286315
 20
439.353564746701
 10
209.603654286315
 20
439.353564746701
 10
208.603654286315
 20
438.353564746701
 10
208.603654286315
 20
420.953564746701
  0
LWPOLYLINE
  5
4569
330
1A
100
AcDbEntity
  8
外形線
100
AcDbPolyline
 90
        6
 70
     1
 43
0.0
 10
293.103654286315
 20
417.153564746701
 10
341.603654286315
 20
417.153564746701
 10
341.603654286315
 20
442.153564746701
 10
293.103654286315
 20
442.153564746701
 10
291.603654286315
 20
440.653564746701
 10
291.603654286315
 20
418.653564746701
  0
LWPOLYLINE
  5
456A
330
1A
100
AcDbEntity
  8
外形線
100
AcDbPolyline
 90
        6
 70
     1
 43
0.0
 10
342.103654286314
 20
416.653564746701
 10
441.603654286315
 20
416.653564746701
 10
441.603654286315
 20
442.653564746701
 10
342.103654286315
 20
442.653564746701
 10
341.603654286315
 20
442.153564746701
 10
341.603654286314
 20
417.153564746701
  0
LINE
  5
46C2
330
1A
100
AcDbEntity
  8
中心線
 48
10.0
100
AcDbLine
 10
-61.60619964626
 20
429.653564746701
 30
0.0
 11
604.559701428944
 21
429.653564746701
 31
0.0
  0
DIMENSION
  5
46DD
330
1A
100
AcDbEntity
  8
寸法線
 48
10.0
100
AcDbDimension
  2
*D6
 10
291.603654286315
 20
344.153564599171
 30
0.0
 11
284.103654286315
 21
348.778564599171
 31
0.0
 70
    32
  3
ISO-25
100
AcDbAlignedDimension
 13
276.603654286315
 23
420.953564746701
 33
0.0
 14
291.603654286315
 24
418.653564746701
 34
0.0
100
AcDbRotatedDimension
1001
ACAD
1000
DSTYLE
1002
{
1070
     5
1000
OPEN30
1070
    41
1040
6.0
1070
    47
1040
0.1
1070
    48
1040
0.1
1070
    73
1070
     0
1070
   140
1040
8.0
1070
   271
1070
     1
1070
   272
1070
     1
1070
   341
1005
2AF4
1002
}
  0
DIMENSION
  5
46EA
330
1A
100
AcDbEntity
  8
寸法線
 48
10.0
100
AcDbDimension
  2
*D7
 10
276.603654286315
 20
344.153564599171
 30
0.0
 11
251.603654286315
 21
348.778564599171
 31
0.0
 70
    32
  3
ISO-25
100
AcDbAlignedDimension
 13
226.603654286315
 23
420.953564746701
 33
0.0
 14
276.603654286315
 24
420.953564746701
 34
0.0
100
AcDbRotatedDimension
1001
ACAD
1000
DSTYLE
1002
{
1070
     5
1000
OPEN30
1070
    41
1040
6.0
1070
    47
1040
0.1
1070
    48
1040
0.1
1070
    73
1070
     0
1070
   140
1040
8.0
1070
   271
1070
     1
1070
   272
1070
     1
1070
   341
1005
2AF4
1002
}
  0
DIMENSION
  5
471B
330
1A
100
AcDbEntity
  8
寸法線
 48
10.0
100
AcDbDimension
  2
*D8
 10
59.511137375301
 20
344.153564599171
 30
0.0
 11
9.511137375301
 21
348.786897932505
 31
0.0
 70
    32
  1
220
  3
ISO-25
100
AcDbAlignedDimension
 13
-40.488862624699
 23
421.653564746701
 33
0.0
 14
59.511137375301
 24
420.153564746701
 34
0.0
100
AcDbRotatedDimension
1001
ACAD
1000
DSTYLE
1002
{
1070
     5
1000
OPEN30
1070
    41
1040
6.0
1070
    47
1040
0.1
1070
    48
1040
0.1
1070
    73
1070
     0
1070
   140
1040
8.0
1070
   271
1070
     1
1070
   272
1070
     1
1070
   341
1005
2AF4
1002
}
  0
DIMENSION
  5
473A
330
1A
100
AcDbEntity
  8
寸法線
 48
10.0
100
AcDbDimension
  2
*D9
 10
441.603654286315
 20
324.153564599171
 30
0.0
 11
200.557395830808
 21
324.153564599171
 31
0.0
 70
    32
  1
 
  3
ISO-25
100
AcDbAlignedDimension
 13
-40.488862624699
 23
421.653564746701
 33
0.0
 14
441.603654286315
 24
413.904064746701
 34
0.0
100
AcDbRotatedDimension
1001
ACAD
1000
DSTYLE
1002
{
1070
     5
1000
OPEN30
1070
    41
1040
6.0
1070
    47
1040
0.1
1070
    48
1040
0.1
1070
    73
1070
     0
1070
   140
1040
8.0
1070
   271
1070
     1
1070
   272
1070
     1
1070
   341
1005
2AF4
1002
}
  0
DIMENSION
  5
4759
330
1A
100
AcDbEntity
  8
寸法線
 48
10.0
100
AcDbDimension
  2
*D10
 10
413.259307068889
 20
416.653564746701
 30
0.0
 11
413.259307068889
 21
458.476989943551
 31
0.0
 70
   160
  1
φ<>
  3
ISO-25
100
AcDbAlignedDimension
 13
441.603654286315
 23
442.653564746701
 33
0.0
 14
441.603654286315
 24
416.653564746701
 34
0.0
 50
90.0
100
AcDbRotatedDimension
1001
ACAD
1000
DSTYLE
1002
{
1070
     5
1000
OPEN30
1070
    76
1070
     1
1070
    75
1070
     1
1070
    41
1040
6.0
1070
    47
1040
0.1
1070
    48
1040
0.1
1070
    73
1070
     0
1070
   140
1040
8.0
1070
   271
1070
     1
1070
   272
1070
     1
1070
   341
1005
2AF4
1002
}
  0
DIMENSION
  5
478D
330
1A
100
AcDbEntity
  8
寸法線
 48
10.0
100
AcDbDimension
  2
*D11
 10
332.259307068889
 20
417.153564746701
 30
0.0
 11
332.259307068889
 21
457.94425017165
 31
0.0
 70
   160
  1
φ<>
  3
ISO-25
100
AcDbAlignedDimension
 13
341.603654286315
 23
442.153564746701
 33
0.0
 14
341.603654286315
 24
417.153564746701
 34
0.0
 50
90.0
100
AcDbRotatedDimension
1001
ACAD
1000
DSTYLE
1002
{
1070
     5
1000
OPEN30
1070
    76
1070
     1
1070
    75
1070
     1
1070
    41
1040
6.0
1070
    47
1040
0.1
1070
    48
1040
0.1
1070
    73
1070
     0
1070
   140
1040
8.0
1070
   271
1070
     1
1070
   272
1070
     1
1070
   341
1005
2AF4
1002
}
  0
DIMENSION
  5
47B8
330
1A
100
AcDbEntity
  8
寸法線
 48
10.0
100
AcDbDimension
  2
*D12
 10
106.166790157875
 20
427.153564746701
 30
0.0
 11
106.166790157875
 21
451.14425017165
 31
0.0
 70
   160
  1
φ<>
  3
ISO-25
100
AcDbAlignedDimension
 13
77.511137375301
 23
432.153564746701
 33
0.0
 14
77.511137375301
 24
427.153564746701
 34
0.0
 50
90.0
100
AcDbRotatedDimension
1001
ACAD
1000
DSTYLE
1002
{
1070
     5
1000
OPEN30
1070
    76
1070
     1
1070
    75
1070
     1
1070
    41
1040
6.0
1070
    47
1040
0.1
1070
    48
1040
0.1
1070
    73
1070
     0
1070
   140
1040
8.0
1070
   271
1070
     1
1070
   272
1070
     1
1070
   341
1005
2AF4
1002
}
  0
DIMENSION
  5
47EC
330
1A
100
AcDbEntity
  8
寸法線
 48
10.0
100
AcDbDimension
  2
*D13
 10
39.430515013351
 20
419.653564746701
 30
0.0
 11
39.430515013351
 21
455.281714353
 31
0.0
 70
   160
  1
φ<>
  3
ISO-25
100
AcDbAlignedDimension
 13
52.274862230777
 23
439.653564746701
 33
0.0
 14
52.274862230777
 24
419.653564746701
 34
0.0
 50
90.0
100
AcDbRotatedDimension
1001
ACAD
1000
DSTYLE
1002
{
1070
     5
1000
OPEN30
1070
    76
1070
     1
1070
    75
1070
     1
1070
    41
1040
6.0
1070
    47
1040
0.1
1070
    48
1040
0.1
1070
    73
1070
     0
1070
   140
1040
8.0
1070
   271
1070
     1
1070
   272
1070
     1
1070
   341
1005
2AF4
1002
}
  0
MTEXT
  5
4818
330
1A
100
AcDbEntity
  8
寸法線
 48
10.0
100
AcDbMText
 10
175.863573581307
 20
514.153564599171
 30
0.0
 40
8.0
 41
0.0
 71
     9
 72
     1
  1
締付金具\PSUS304
  0
MTEXT
  5
481E
330
1A
100
AcDbEntity
  8
寸法線
 48
10.0
100
AcDbMText
 10
123.655855974849
 20
514.153564599171
 30
0.0
 40
8.0
 41
0.0
 71
     9
 72
     1
  1
ステンレス\Pワイヤーロープ\Pスリーブにて固定
  0
MTEXT
  5
481F
330
1A
100
AcDbEntity
  8
寸法線
 48
10.0
100
AcDbMText
 10
26.002779065229
 20
514.153564599171
 30
0.0
 40
8.0
 41
0.0
 71
     9
 72
     1
  1
締付金具\PSUS304
  0
MTEXT
  5
4821
330
1A
100
AcDbEntity
  8
寸法線
 48
10.0
100
AcDbMText
 10
-37.503382073291
 20
514.153564599171
 30
0.0
 40
8.0
 41
0.0
 71
     9
 72
     1
  1
検知電極\PSUS304
  0
DIMENSION
  5
483E
330
1A
100
AcDbEntity
  8
寸法線
 48
10.0
100
AcDbDimension
  2
*D14
 10
341.603654286315
 20
344.153564599171
 30
0.0
 11
316.603654286315
 21
348.778564599171
 31
0.0
 70
    32
  3
ISO-25
100
AcDbAlignedDimension
 13
291.603654286315
 23
418.653564746701
 33
0.0
 14
341.603654286315
 24
417.153564746701
 34
0.0
100
AcDbRotatedDimension
1001
ACAD
1000
DSTYLE
1002
{
1070
     5
1000
OPEN30
1070
    41
1040
6.0
1070
    47
1040
0.1
1070
    48
1040
0.1
1070
    73
1070
     0
1070
   140
1040
8.0
1070
   271
1070
     1
1070
   272
1070
     1
1070
   341
1005
2AF4
1002
}
  0
DIMENSION
  5
484B
330
1A
100
AcDbEntity
  8
寸法線
 48
10.0
100
AcDbDimension
  2
*D15
 10
441.603654286315
 20
344.153564599171
 30
0.0
 11
391.603654286315
 21
348.778564599171
 31
0.0
 70
    32
  3
ISO-25
100
AcDbAlignedDimension
 13
341.603654286314
 23
417.153564746701
 33
0.0
 14
441.603654286315
 24
413.9040647467
 34
0.0
100
AcDbRotatedDimension
1001
ACAD
1000
DSTYLE
1002
{
1070
     5
1000
OPEN30
1070
    41
1040
6.0
1070
    47
1040
0.1
1070
    48
1040
0.1
1070
    73
1070
     0
1070
   140
1040
8.0
1070
   271
1070
     1
1070
   272
1070
     1
1070
   341
1005
2AF4
1002
}
  0
MTEXT
  5
4862
330
1A
100
AcDbEntity
  8
寸法線
 48
10.0
100
AcDbMText
 10
318.152165850971
 20
514.153564599171
 30
0.0
 40
8.0
 41
0.0
 71
     7
 72
     1
  1
\A1;シール\Pシリコンゴム
  0
LINE
  5
4A56
102
{ACAD_REACTORS
330
4A79
102
}
330
1A
100
AcDbEntity
  8
細線
100
AcDbLine
 10
469.603654286315
 20
440.622874978429
 30
0.0
 11
483.603654286315
 21
440.622874978429
 31
0.0
  0
LINE
  5
4A57
102
{ACAD_REACTORS
330
4A79
102
}
330
1A
100
AcDbEntity
  8
細線
100
AcDbLine
 10
469.603654286315
 20
418.682874978429
 30
0.0
 11
483.603654286315
 21
418.682874978429
 31
0.0
  0
LINE
  5
4A58
102
{ACAD_REACTORS
330
4A79
102
}
330
1A
100
AcDbEntity
  8
外形線
100
AcDbLine
 10
441.603654286315
 20
413.904064746701
 30
0.0
 11
466.603654286315
 21
412.341564746701
 31
0.0
  0
LINE
  5
4A59
102
{ACAD_REACTORS
330
4A79
102
}
330
1A
100
AcDbEntity
  8
細線
100
AcDbLine
 10
441.603654286315
 20
415.383064746701
 30
0.0
 11
466.603654286315
 21
413.820564746701
 31
0.0
  0
LINE
  5
4A5A
102
{ACAD_REACTORS
330
4A79
102
}
330
1A
100
AcDbEntity
  8
細線
100
AcDbLine
 10
441.603654286315
 20
443.924064746701
 30
0.0
 11
466.603654286315
 21
445.486564746701
 31
0.0
  0
LINE
  5
4A5B
102
{ACAD_REACTORS
330
4A79
102
}
330
1A
100
AcDbEntity
  8
外形線
100
AcDbLine
 10
441.603654286315
 20
445.403064746701
 30
0.0
 11
441.603654286315
 21
413.904064746701
 31
0.0
  0
LINE
  5
4A5C
102
{ACAD_REACTORS
330
4A79
102
}
330
1A
100
AcDbEntity
  8
外形線
100
AcDbLine
 10
441.603654286315
 20
445.403064746701
 30
0.0
 11
466.603654286315
 21
446.965564746701
 31
0.0
  0
ARC
  5
4A6A
102
{ACAD_REACTORS
330
4A79
102
}
330
1A
100
AcDbEntity
  8
細線
 48
10.0
100
AcDbCircle
 10
488.160470873684
 20
429.652874978429
 30
0.0
 40
21.5568165984052
100
AcDbArc
 50
149.410227986311
 51
210.589772013689
  0
ARC
  5
4A6B
102
{ACAD_REACTORS
330
4A79
102
}
330
1A
100
AcDbEntity
  8
細線
 48
10.0
100
AcDbCircle
 10
465.046837698946
 20
429.652874978429
 30
0.0
 40
21.55681659840436
100
AcDbArc
 50
329.410227986311
 51
30.589772013689
  0
LINE
  5
4A6C
102
{ACAD_REACTORS
330
4A79
102
}
330
1A
100
AcDbEntity
  8
外形線
 48
10.0
100
AcDbLine
 10
469.603654286315
 20
451.592874978429
 30
0.0
 11
483.603654286315
 21
451.592874978429
 31
0.0
  0
LINE
  5
4A6D
102
{ACAD_REACTORS
330
4A79
102
}
330
1A
100
AcDbEntity
  8
外形線
 48
10.0
100
AcDbLine
 10
469.603654286315
 20
407.714254520018
 30
0.0
 11
483.603654286315
 21
407.714254520018
 31
0.0
  0
ARC
  5
4A6E
102
{ACAD_REACTORS
330
4A79
102
}
330
1A
100
AcDbEntity
  8
細線
 48
10.0
100
AcDbCircle
 10
487.894180189319
 20
452.031305564252
 30
0.0
 40
21.5568
100
AcDbArc
 50
189.014839552026
 51
211.953209848837
  0
ARC
  5
4A6F
102
{ACAD_REACTORS
330
4A79
102
}
330
1A
100
AcDbEntity
  8
外形線
 48
10.0
100
AcDbCircle
 10
483.11831426365
 20
434.798542841157
 30
0.0
 40
21.5568
100
AcDbArc
 50
128.824173789179
 51
140.004933775737
  0
ARC
  5
4A70
102
{ACAD_REACTORS
330
4A79
102
}
330
1A
100
AcDbEntity
  8
外形線
 48
10.0
100
AcDbCircle
 10
470.088994308979
 20
434.798542841157
 30
0.0
 40
21.5568
100
AcDbArc
 50
39.995066224263
 51
51.175826210821
  0
ARC
  5
4A71
102
{ACAD_REACTORS
330
4A79
102
}
330
1A
100
AcDbEntity
  8
細線
 48
10.0
100
AcDbCircle
 10
465.31312838331
 20
452.031305564252
 30
0.0
 40
21.5568
100
AcDbArc
 50
328.046790151163
 51
350.985160447974
  0
ARC
  5
4A72
102
{ACAD_REACTORS
330
4A79
102
}
330
1A
100
AcDbEntity
  8
外形線
 48
10.0
100
AcDbCircle
 10
483.11831426365
 20
424.507207115701
 30
0.0
 40
21.5568
100
AcDbArc
 50
219.995066224262
 51
231.17582621082
  0
ARC
  5
4A73
102
{ACAD_REACTORS
330
4A79
102
}
330
1A
100
AcDbEntity
  8
外形線
 48
10.0
100
AcDbCircle
 10
470.088994308979
 20
424.507207115701
 30
0.0
 40
21.5568
100
AcDbArc
 50
308.824173789179
 51
320.004933775737
  0
ARC
  5
4A74
102
{ACAD_REACTORS
330
4A79
102
}
330
1A
100
AcDbEntity
  8
細線
 48
10.0
100
AcDbCircle
 10
465.31312838331
 20
407.274444392606
 30
0.0
 40
21.5568
100
AcDbArc
 50
9.014839552025
 51
31.953209848837
  0
ARC
  5
4A75
102
{ACAD_REACTORS
330
4A79
102
}
330
1A
100
AcDbEntity
  8
細線
 48
10.0
100
AcDbCircle
 10
487.894180189319
 20
407.274444392606
 30
0.0
 40
21.5568
100
AcDbArc
 50
148.046790151163
 51
170.985160447973
  0
LINE
  5
4A76
102
{ACAD_REACTORS
330
4A79
102
}
330
1A
100
AcDbEntity
  8
外形線
 48
10.0
100
AcDbLine
 10
466.603654286315
 20
448.653564749223
 30
0.0
 11
466.603654286314
 21
410.652185207635
 31
0.0
  0
LINE
  5
4A77
102
{ACAD_REACTORS
330
4A79
102
}
330
1A
100
AcDbEntity
  8
外形線
 48
10.0
100
AcDbLine
 10
486.603654286315
 20
448.653564749223
 30
0.0
 11
486.603654286314
 21
410.652185207635
 31
0.0
  0
DIMENSION
  5
4A7D
330
1A
100
AcDbEntity
  8
寸法線
 48
10.0
100
AcDbDimension
  2
*D16
 10
466.603654286314
 20
344.153564599171
 30
0.0
 11
454.103654286314
 21
348.782731265838
 31
0.0
 70
    32
  3
ISO-25
100
AcDbAlignedDimension
 13
441.603654286315
 23
413.904064746701
 33
0.0
 14
466.603654286314
 24
410.652185207635
 34
0.0
100
AcDbRotatedDimension
1001
ACAD
1000
DSTYLE
1002
{
1070
     5
1000
OPEN30
1070
    41
1040
6.0
1070
    47
1040
0.1
1070
    48
1040
0.1
1070
    73
1070
     0
1070
   140
1040
8.0
1070
   271
1070
     1
1070
   272
1070
     1
1070
   341
1005
2AF4
1002
}
  0
DIMENSION
  5
4AB1
330
1A
100
AcDbEntity
  8
寸法線
 48
10.0
100
AcDbDimension
  2
*D17
 10
624.732059141506
 20
487.652874978429
 30
0.0
 11
624.732059141506
 21
429.652874978429
 31
0.0
 70
   160
  1
φ<>
  3
ISO-25
100
AcDbAlignedDimension
 13
592.440248326522
 23
371.652874978429
 33
0.0
 14
592.072403001124
 24
487.652874978429
 34
0.0
 50
90.0
100
AcDbRotatedDimension
1001
ACAD
1000
DSTYLE
1002
{
1070
     5
1000
OPEN30
1070
    41
1040
6.0
1070
    47
1040
0.1
1070
    48
1040
0.1
1070
    73
1070
     0
1070
   140
1040
8.0
1070
   271
1070
     1
1070
   272
1070
     1
1070
   341
1005
2AF4
1002
}
  0
DIMENSION
  5
4AC8
330
1A
100
AcDbEntity
  8
寸法線
 48
10.0
100
AcDbDimension
  2
*D18
 10
486.603654286314
 20
344.153564599171
 30
0.0
 11
476.603654286314
 21
348.782731265838
 31
0.0
 70
    32
  3
ISO-25
100
AcDbAlignedDimension
 13
466.603654286315
 23
410.652185207635
 33
0.0
 14
486.603654286314
 24
410.652185207635
 34
0.0
100
AcDbRotatedDimension
1001
ACAD
1000
DSTYLE
1002
{
1070
     5
1000
OPEN30
1070
    41
1040
6.0
1070
    47
1040
0.1
1070
    48
1040
0.1
1070
    73
1070
     0
1070
   140
1040
8.0
1070
   271
1070
     1
1070
   272
1070
     1
1070
   341
1005
2AF4
1002
}
  0
DIMENSION
  5
4AEF
330
1A
100
AcDbEntity
  8
寸法線
 48
10.0
100
AcDbDimension
  2
*D19
 10
604.603654286315
 20
324.153564599171
 30
0.0
 11
523.103654286315
 21
328.778564599171
 31
0.0
 70
    32
  3
ISO-25
100
AcDbAlignedDimension
 13
441.603654286315
 23
344.153564599171
 33
0.0
 14
604.603654286315
 24
385.426429448635
 34
0.0
100
AcDbRotatedDimension
1001
ACAD
1000
DSTYLE
1002
{
1070
     5
1000
OPEN30
1070
    41
1040
6.0
1070
    47
1040
0.1
1070
    48
1040
0.1
1070
    73
1070
     0
1070
   140
1040
8.0
1070
   271
1070
     1
1070
   272
1070
     1
1070
   341
1005
2AF4
1002
}
  0
TEXT
  5
4CE1
330
1A
100
AcDbEntity
  8
寸法線
100
AcDbText
 10
540.650686758787
 20
544.711714421854
 30
0.0
 40
8.0
  1
塗装色：10YR7.5/14
100
AcDbText
  0
DIMENSION
  5
4D32
330
1A
100
AcDbEntity
  8
寸法線
 48
10.0
100
AcDbDimension
  2
*D21
 10
604.603654286315
 20
344.153564599171
 30
0.0
 11
589.853654286314
 21
348.782731265838
 31
0.0
 70
    32
  1
30
  3
ISO-25
100
AcDbAlignedDimension
 13
575.103654286314
 23
366.152874978429
 33
0.0
 14
604.603654286315
 24
385.426429448635
 34
0.0
100
AcDbRotatedDimension
1001
ACAD
1000
DSTYLE
1002
{
1070
     5
1000
OPEN30
1070
    41
1040
6.0
1070
    47
1040
0.1
1070
    48
1040
0.1
1070
    73
1070
     0
1070
   140
1040
8.0
1070
   271
1070
     1
1070
   272
1070
     1
1070
   341
1005
2AF4
1002
}
  0
DIMENSION
  5
4D48
330
1A
100
AcDbEntity
  8
寸法線
 48
10.0
100
AcDbDimension
  2
*D22
 10
575.103654286314
 20
344.153564599171
 30
0.0
 11
530.853654286314
 21
348.795231265838
 31
0.0
 70
    32
  1
88
  3
ISO-25
100
AcDbAlignedDimension
 13
486.603654286314
 23
410.652185207634
 33
0.0
 14
575.103654286314
 24
366.152874978429
 34
0.0
100
AcDbRotatedDimension
1001
ACAD
1000
DSTYLE
1002
{
1070
     5
1000
OPEN30
1070
    41
1040
6.0
1070
    47
1040
0.1
1070
    48
1040
0.1
1070
    73
1070
     0
1070
   140
1040
8.0
1070
   271
1070
     1
1070
   272
1070
     1
1070
   341
1005
2AF4
1002
}
  0
LINE
  5
4DBC
330
1A
100
AcDbEntity
  8
外形線
100
AcDbLine
 10
77.511137375301
 20
427.153564746701
 30
0.0
 11
140.47661356613
 21
427.153564746701
 31
0.0
  0
LEADER
  5
4E6B
330
1A
100
AcDbEntity
  8
寸法線
 48
10.0
100
AcDbLeader
  3
ISO-25
 76
     3
 10
341.627014020388
 20
442.304250294988
 30
0.0
 10
373.742719629972
 20
513.943713163032
 30
0.0
 10
361.103633552219
 20
513.943713163032
 30
0.0
1001
ACAD
1000
DSTYLE
1002
{
1070
     5
1000
OPEN30
1070
   147
1040
0.625
1070
    77
1070
     0
1070
    41
1040
6.0
1070
    47
1040
0.1
1070
    48
1040
0.1
1070
    73
1070
     0
1070
   140
1040
8.0
1070
   271
1070
     1
1070
   272
1070
     1
1070
   341
1005
2AF4
1070
   342
1005
2AF4
1002
}
  0
LEADER
  5
4E6C
330
1A
100
AcDbEntity
  8
寸法線
 48
10.0
100
AcDbLeader
  3
ISO-25
 73
     0
 76
     3
 10
305.52973713118
 20
442.289161700145
 30
0.0
 10
305.52973713118
 20
513.721571956801
 30
0.0
 10
292.683454887346
 20
513.721571956801
 30
0.0
340
4E6D
1001
ACAD
1000
DSTYLE
1002
{
1070
     5
1000
OPEN30
1070
   147
1040
0.625
1070
    77
1070
     0
1070
    41
1040
6.0
1070
    47
1040
0.1
1070
    48
1040
0.1
1070
    73
1070
     0
1070
   140
1040
8.0
1070
   271
1070
     1
1070
   272
1070
     1
1070
   341
1005
2AF4
1070
   342
1005
2AF4
1002
}
  0
MTEXT
  5
4E6D
102
{ACAD_REACTORS
330
4E6C
102
}
330
1A
100
AcDbEntity
  8
寸法線
 48
10.0
100
AcDbMText
 10
284.12216962246
 20
499.106631025578
 30
0.0
 40
8.0
 41
0.0
 71
     9
 72
     1
  1
\A1;
  0
LEADER
  5
4E6E
330
1A
100
AcDbEntity
  8
寸法線
 48
10.0
100
AcDbLeader
  3
ISO-25
 76
     3
 10
387.446125977463
 20
442.505709232943
 30
0.0
 10
387.446125977463
 20
513.938121374261
 30
0.0
 10
396.562841247794
 20
513.938121374261
 30
0.0
1001
ACAD
1000
DSTYLE
1002
{
1070
     5
1000
OPEN30
1070
   147
1040
0.625
1070
    77
1070
     0
1070
    41
1040
6.0
1070
    47
1040
0.1
1070
    48
1040
0.1
1070
    73
1070
     0
1070
   140
1040
8.0
1070
   271
1070
     1
1070
   272
1070
     1
1070
   341
1005
2AF4
1070
   342
1005
2AF4
1002
}
  0
LEADER
  5
4E6F
330
1A
100
AcDbEntity
  8
寸法線
 48
10.0
100
AcDbLeader
  3
ISO-25
 76
     3
 10
451.508688034311
 20
446.248824743419
 30
0.0
 10
436.383227972451
 20
514.161378299721
 30
0.0
 10
445.914339573172
 20
514.161378299721
 30
0.0
1001
ACAD
1000
DSTYLE
1002
{
1070
     5
1000
OPEN30
1070
   147
1040
0.625
1070
    77
1070
     0
1070
    41
1040
6.0
1070
    47
1040
0.1
1070
    48
1040
0.1
1070
    73
1070
     0
1070
   140
1040
8.0
1070
   271
1070
     1
1070
   272
1070
     1
1070
   341
1005
2AF4
1070
   342
1005
2AF4
1002
}
  0
LEADER
  5
4E70
330
1A
100
AcDbEntity
  8
寸法線
 48
10.0
100
AcDbLeader
  3
ISO-25
 76
     3
 10
517.619110434201
 20
481.858432511183
 30
0.0
 10
499.385679893538
 20
513.951253691132
 30
0.0
 10
512.024761973063
 20
513.951253691132
 30
0.0
1001
ACAD
1000
DSTYLE
1002
{
1070
     5
1000
OPEN30
1070
   147
1040
0.625
1070
    77
1070
     0
1070
    41
1040
6.0
1070
    47
1040
0.1
1070
    48
1040
0.1
1070
    73
1070
     0
1070
   140
1040
8.0
1070
   271
1070
     1
1070
   272
1070
     1
1070
   341
1005
2AF4
1070
   342
1005
2AF4
1002
}
  0
LEADER
  5
4E71
330
1A
100
AcDbEntity
  8
寸法線
 48
10.0
100
AcDbLeader
  3
ISO-25
 76
     3
 10
576.165349447321
 20
486.718490395597
 30
0.0
 10
560.768897495056
 20
514.005952203268
 30
0.0
 10
569.919617693652
 20
514.005952203268
 30
0.0
1001
ACAD
1000
DSTYLE
1002
{
1070
     5
1000
OPEN30
1070
   147
1040
0.625
1070
    77
1070
     0
1070
    41
1040
6.0
1070
    47
1040
0.1
1070
    48
1040
0.1
1070
    73
1070
     0
1070
   140
1040
8.0
1070
   271
1070
     1
1070
   272
1070
     1
1070
   341
1005
2AF4
1070
   342
1005
2AF4
1002
}
  0
LEADER
  5
4E72
330
1A
100
AcDbEntity
  8
寸法線
 48
10.0
100
AcDbLeader
  3
ISO-25
 76
     3
 10
598.417078989071
 20
477.142375909088
 30
0.0
 10
604.808058365785
 20
513.864331247615
 30
0.0
 10
615.847025651546
 20
513.864331247615
 30
0.0
1001
ACAD
1000
DSTYLE
1002
{
1070
     5
1000
OPEN30
1070
   147
1040
0.625
1070
    77
1070
     0
1070
    41
1040
6.0
1070
    47
1040
0.1
1070
    48
1040
0.1
1070
    73
1070
     0
1070
   140
1040
8.0
1070
   271
1070
     1
1070
   272
1070
     1
1070
   341
1005
2AF4
1070
   342
1005
2AF4
1002
}
  0
ARC
  5
4F1F
330
1A
100
AcDbEntity
  8
寸法線
100
AcDbCircle
 10
202.835315539404
 20
327.026662071248
 30
0.0
 40
2.153876638355526
100
AcDbArc
 50
252.903398883407
 51
337.412611017142
  0
ARC
  5
4F20
330
1A
100
AcDbEntity
  8
寸法線
100
AcDbCircle
 10
197.283944067683
 20
331.090918002983
 30
0.0
 40
6.132989976685284
100
AcDbArc
 50
273.280470979895
 51
33.415912335967
  0
ARC
  5
4F21
330
1A
100
AcDbEntity
  8
寸法線
100
AcDbCircle
 10
205.053145770105
 20
329.861486162262
 30
0.0
 40
5.66350679719316
100
AcDbArc
 50
123.469024399699
 51
239.774013712205
  0
ARC
  5
4F22
330
1A
100
AcDbEntity
  8
寸法線
100
AcDbCircle
 10
205.053145770105
 20
329.861486162262
 30
0.0
 40
5.663514137493759
100
AcDbArc
 50
123.469024399699
 51
239.773899120643
  0
ARC
  5
4F23
330
1A
100
AcDbEntity
  8
寸法線
100
AcDbCircle
 10
202.113262403397
 20
334.312827952508
 30
0.0
 40
0.3290289743129967
100
AcDbArc
 50
28.230948369013
 51
123.883845843404
  0
LEADER
  5
5049
330
1A
100
AcDbEntity
  8
寸法線
 48
10.0
100
AcDbLeader
  3
ISO-25
 76
     3
 10
-23.268565193173
 20
439.602684452123
 30
0.0
 10
-36.87838207329
 20
514.153564599171
 30
0.0
 10
-45.659984225404
 20
514.153564599171
 30
0.0
1001
ACAD
1000
DSTYLE
1002
{
1070
     5
1000
OPEN30
1070
    41
1040
6.0
1070
   342
1005
2AF4
1070
   271
1070
     1
1070
   341
1005
2AF4
1070
   272
1070
     1
1070
    73
1070
     0
1070
    48
1040
0.1
1070
    47
1040
0.1
1070
   140
1040
8.0
1002
}
  0
LEADER
  5
504A
330
1A
100
AcDbEntity
  8
寸法線
 48
10.0
100
AcDbLeader
  3
ISO-25
 76
     3
 10
66.207054139358
 20
439.602684452123
 30
0.0
 10
25.57108018174
 20
514.153564599171
 30
0.0
 10
16.789478029627
 20
514.153564599171
 30
0.0
1001
ACAD
1000
DSTYLE
1002
{
1070
     5
1000
OPEN30
1070
    41
1040
6.0
1070
   342
1005
2AF4
1070
   271
1070
     1
1070
   341
1005
2AF4
1070
   272
1070
     1
1070
    73
1070
     0
1070
    48
1040
0.1
1070
    47
1040
0.1
1070
   140
1040
8.0
1002
}
  0
LEADER
  5
504D
330
1A
100
AcDbEntity
  8
寸法線
 48
10.0
100
AcDbLeader
  3
ISO-25
 76
     3
 10
237.006002823683
 20
439.602684452123
 30
0.0
 10
223.396185943566
 20
514.153564599171
 30
0.0
 10
214.614583791452
 20
514.153564599171
 30
0.0
1001
ACAD
1000
DSTYLE
1002
{
1070
     5
1000
OPEN30
1070
    41
1040
6.0
1070
   342
1005
2AF4
1070
   271
1070
     1
1070
   341
1005
2AF4
1070
   272
1070
     1
1070
    73
1070
     0
1070
    48
1040
0.1
1070
    47
1040
0.1
1070
   140
1040
8.0
1002
}
  0
LEADER
  5
504E
330
1A
100
AcDbEntity
  8
寸法線
 48
10.0
100
AcDbLeader
  3
ISO-25
 76
     3
 10
214.775088230279
 20
439.602684452123
 30
0.0
 10
176.668574253037
 20
514.153564599171
 30
0.0
 10
167.886972100923
 20
514.153564599171
 30
0.0
1001
ACAD
1000
DSTYLE
1002
{
1070
     5
1000
OPEN30
1070
    41
1040
6.0
1070
   342
1005
2AF4
1070
   271
1070
     1
1070
   341
1005
2AF4
1070
   272
1070
     1
1070
    73
1070
     0
1070
    48
1040
0.1
1070
    47
1040
0.1
1070
   140
1040
8.0
1002
}
  0
LEADER
  5
504F
330
1A
100
AcDbEntity
  8
寸法線
 48
10.0
100
AcDbLeader
  3
ISO-25
 76
     3
 10
138.453221803659
 20
432.404544980125
 30
0.0
 10
124.843404923541
 20
514.153564599171
 30
0.0
 10
116.061802771427
 20
514.153564599171
 30
0.0
1001
ACAD
1000
DSTYLE
1002
{
1070
     5
1000
OPEN30
1070
    41
1040
6.0
1070
   342
1005
2AF4
1070
   271
1070
     1
1070
   341
1005
2AF4
1070
   272
1070
     1
1070
    73
1070
     0
1070
    48
1040
0.1
1070
    47
1040
0.1
1070
   140
1040
8.0
1002
}
  0
MTEXT
  5
5299
330
1A
100
AcDbEntity
  8
寸法線
 48
10.0
100
AcDbMText
 10
605.961275260103
 20
514.352404045917
 30
0.0
 40
8.0
 41
0.0
 71
     7
 72
     1
  1
アルミ\Pダイカスト
  0
MTEXT
  5
529A
330
1A
100
AcDbEntity
  8
寸法線
 48
10.0
100
AcDbMText
 10
500.233798487839
 20
514.352404045917
 30
0.0
 40
8.0
 41
0.0
 71
     7
 72
     1
  1
アルミ\Pダイカスト
  0
LINE
  5
5332
330
1A
100
AcDbEntity
  8
寸法線
100
AcDbLine
 10
321.441747166479
 20
238.183369807182
 30
0.0
 11
321.441747166479
 21
291.411248129912
 31
0.0
  0
LINE
  5
5333
330
1A
100
AcDbEntity
  8
寸法線
100
AcDbLine
 10
289.441777166479
 20
277.341248129912
 30
0.0
 11
565.145698200816
 21
277.341248129912
 31
0.0
  0
LINE
  5
5334
330
1A
100
AcDbEntity
  8
寸法線
100
AcDbLine
 10
289.441777166479
 20
291.411248129912
 30
0.0
 11
565.145698200816
 21
291.411248129912
 31
0.0
  0
LINE
  5
5335
330
1A
100
AcDbEntity
  8
寸法線
100
AcDbLine
 10
289.441777166479
 20
238.183369807182
 30
0.0
 11
289.441777166479
 21
291.411248129912
 31
0.0
  0
LINE
  5
5336
330
1A
100
AcDbEntity
  8
寸法線
100
AcDbLine
 10
533.389379636527
 20
238.183369807182
 30
0.0
 11
533.389379636527
 21
291.411248129912
 31
0.0
  0
LINE
  5
5337
330
1A
100
AcDbEntity
  8
寸法線
100
AcDbLine
 10
289.441777166479
 20
251.235995914758
 30
0.0
 11
565.145698200816
 21
251.235995914758
 31
0.0
  0
LINE
  5
5338
330
1A
100
AcDbEntity
  8
寸法線
100
AcDbLine
 10
289.441777166479
 20
238.183369807182
 30
0.0
 11
565.145698200816
 21
238.183369807182
 31
0.0
  0
LINE
  5
533C
330
1A
100
AcDbEntity
  8
寸法線
100
AcDbLine
 10
565.145698200816
 20
238.183369807182
 30
0.0
 11
565.145698200816
 21
291.411248129912
 31
0.0
  0
LINE
  5
533D
330
1A
100
AcDbEntity
  8
寸法線
100
AcDbLine
 10
289.441777166479
 20
264.288622022335
 30
0.0
 11
565.145698200816
 21
264.288622022335
 31
0.0
  0
MTEXT
  5
533E
102
{ACAD_XDICTIONARY
360
533F
102
}
330
1A
100
AcDbEntity
  8
寸法線
 48
10.0
100
AcDbMText
 10
359.002764740403
 20
288.554467098518
 30
0.0
 40
8.0
 41
75.122035147847
 71
     2
 72
     5
  1
型式\P\W0.9;TSE-A1WA-100\PTSE-A1WA-200\PTSE-A1WA-300
1001
ACADANNOTATIVE
1000
AnnotativeData
1002
{
1070
     1
1070
     0
1002
}
1001
ACAD
1000
MTEXTBEGIN
1070
    44
1040
0.99
1000
MTEXTEND
  0
LINE
  5
5342
330
1A
100
AcDbEntity
  8
寸法線
 48
10.0
100
AcDbLine
 10
396.563782314326
 20
291.411248129912
 30
0.0
 11
396.563782314326
 21
238.183369807182
 31
0.0
  0
MTEXT
  5
5343
330
1A
100
AcDbEntity
  8
寸法線
 48
10.0
100
AcDbMText
 10
291.96868432742
 20
288.694031885878
 30
0.0
 40
8.0
 41
41.842424242424
 71
     1
 72
     5
  1
御仕様\P \P\P　
  0
SPLINE
  5
5344
330
1A
100
AcDbEntity
  8
寸法線
 48
10.0
100
AcDbSpline
210
0.0
220
0.0
230
1.0
 70
  1064
 71
     3
 72
    13
 73
     9
 74
     7
 42
0.000000001
 43
0.0000000001
 44
0.0000000001
 40
0.0
 40
0.0
 40
0.0
 40
0.0
 40
3.546053604694573
 40
9.27899609329885
 40
13.89970108471578
 40
17.0953966299493
 40
18.7947045570244
 40
20.02704699455825
 40
20.02704699455825
 40
20.02704699455825
 40
20.02704699455825
 10
412.4382679500935
 20
280.5300238218985
 30
0.0
 10
413.4927962191719
 20
281.0171525561027
 30
0.0
 10
416.2521915300878
 20
282.291827483642
 30
0.0
 10
416.9171284364479
 20
291.1902843564604
 30
0.0
 10
412.9838254173015
 20
284.7901975325184
 30
0.0
 10
413.1560616135027
 20
281.54117997395
 30
0.0
 10
415.2283433111518
 20
280.2683608971398
 30
0.0
 10
416.1449473893879
 20
280.7268779810095
 30
0.0
 10
416.530249169458
 20
280.9196192668082
 30
0.0
 11
412.4382679500935
 21
280.5300238218985
 31
0.0
 11
415.2636833830422
 21
282.6728079450949
 31
0.0
 11
415.8969662762499
 21
288.3706656438107
 31
0.0
 11
413.4125498763917
 21
284.4746946775661
 31
0.0
 11
413.8509768628542
 21
281.3092165469566
 31
0.0
 11
415.361111336415
 21
280.5300238218985
 31
0.0
 11
416.530249169458
 21
280.9196192668082
 31
0.0
  0
MTEXT
  5
5346
102
{ACAD_XDICTIONARY
360
5347
102
}
330
1A
100
AcDbEntity
  8
寸法線
 48
10.0
100
AcDbMText
 10
415.092648321262
 20
274.484467098518
 30
0.0
 40
8.0
 41
104.940745969905
 71
     2
 72
     5
  1
1000\P2000\P3000
1001
ACADANNOTATIVE
1000
AnnotativeData
1002
{
1070
     1
1070
     0
1002
}
1001
ACAD
1000
MTEXTBEGIN
1070
    44
1040
0.99
1000
MTEXTEND
  0
LINE
  5
534A
330
1A
100
AcDbEntity
  8
寸法線
 48
10.0
100
AcDbLine
 10
433.938936514493
 20
291.411248129912
 30
0.0
 11
433.938936514493
 21
238.183369807182
 31
0.0
  0
MTEXT
  5
5353
330
1A
100
AcDbEntity
  8
寸法線
 48
10.0
100
AcDbMText
 10
474.290559486176
 20
288.193430471886
 30
0.0
 40
8.0
 41
19.321844296148
 71
     1
 72
     5
  1
記事
  0
MTEXT
  5
5354
330
1A
100
AcDbEntity
  8
寸法線
 48
10.0
100
AcDbMText
 10
540.709402064237
 20
288.193430471886
 30
0.0
 40
8.0
 41
27.29696969697
 71
     1
 72
     5
  1
台数\P\P 
  0
TEXT
  5
5370
330
1A
100
AcDbEntity
  8
寸法線
 48
10.0
100
AcDbText
 10
423.830602054474
 20
223.90341174981
 30
0.0
 40
8.0
  1
○印が今回の貴社の御仕様です。
100
AcDbText
  0
LEADER
  5
541E
330
1A
100
AcDbEntity
  8
寸法線
 48
10.0
100
AcDbLeader
  3
ISO-25
 76
     3
 10
558.345842780012
 20
363.720115726721
 30
0.0
 10
588.569089485589
 20
295.062978367229
 30
0.0
 10
598.096507991628
 20
295.062978367229
 30
0.0
1001
ACAD
1000
DSTYLE
1002
{
1070
     5
1000
OPEN30
1070
    41
1040
6.0
1070
   342
1005
2AF4
1070
   271
1070
     1
1070
   341
1005
2AF4
1070
   272
1070
     1
1070
    73
1070
     0
1070
    48
1040
0.1
1070
    47
1040
0.1
1070
   140
1040
8.0
1002
}
  0
ARC
  5
541F
330
1A
100
AcDbEntity
  8
外形線
 48
10.0
100
AcDbCircle
 10
490.603654286315
 20
408.378874424764
 30
0.0
 40
1.0
100
AcDbArc
 50
180.0
 51
268.999999999998
  0
ARC
  5
5420
330
1A
100
AcDbEntity
  8
外形線
 48
10.0
100
AcDbCircle
 10
490.603654286315
 20
450.926875532094
 30
0.0
 40
1.0
100
AcDbArc
 50
91.000000000002
 51
180.0
  0
LINE
  5
5421
330
1A
100
AcDbEntity
  8
外形線
 48
10.0
100
AcDbLine
 10
489.603654286315
 20
450.926875532094
 30
0.0
 11
489.603654286315
 21
408.378874424764
 31
0.0
  0
LINE
  5
5422
330
1A
100
AcDbEntity
  8
外形線
 48
10.0
100
AcDbLine
 10
503.731437127384
 20
452.910953082829
 30
0.0
 11
509.983870371452
 21
477.988093126341
 31
0.0
  0
ARC
  5
5423
330
1A
100
AcDbEntity
  8
外形線
 48
10.0
100
AcDbCircle
 10
514.835349002831
 20
476.778483648343
 30
0.0
 40
5.0
100
AcDbArc
 50
91.3
 51
166.000000000005
  0
ARC
  5
5424
330
1A
100
AcDbEntity
  8
外形線
 48
10.0
100
AcDbCircle
 10
502.761141401108
 20
453.152874978429
 30
0.0
 40
1.0
100
AcDbArc
 50
270.0
 51
346.000000000009
  0
ARC
  5
5425
330
1A
100
AcDbEntity
  8
外形線
 48
10.0
100
AcDbCircle
 10
502.761141401108
 20
453.152874978429
 30
0.0
 40
1.0
100
AcDbArc
 50
270.0
 51
346.000000000009
  0
LINE
  5
5426
330
1A
100
AcDbEntity
  8
外形線
 48
10.0
100
AcDbLine
 10
490.586201879877
 20
451.926723227251
 30
0.0
 11
502.761141401108
 21
452.152874978429
 31
0.0
  0
ARC
  5
5427
330
1A
100
AcDbEntity
  8
外形線
 48
10.0
100
AcDbCircle
 10
591.604693516016
 20
486.902323570982
 30
0.0
 40
0.5
100
AcDbArc
 50
359.999254274577
 51
88.999999999998
  0
ARC
  5
5428
330
1A
100
AcDbEntity
  8
細線
 48
10.0
100
AcDbCircle
 10
592.603654286315
 20
442.785916729898
 30
0.0
 40
0.5
100
AcDbArc
 50
180.0
 51
264.089361084594
  0
ARC
  5
5429
330
1A
100
AcDbEntity
  8
外形線
 48
10.0
100
AcDbCircle
 10
592.603654286315
 20
435.411526346871
 30
0.0
 40
0.5
100
AcDbArc
 50
91.000000000002
 51
180.0
  0
ARC
  5
542A
330
1A
100
AcDbEntity
  8
細線
 48
10.0
100
AcDbCircle
 10
592.603654286315
 20
443.044735775
 30
0.0
 40
0.5
100
AcDbArc
 50
180.0
 51
264.089361084594
  0
ARC
  5
542B
330
1A
100
AcDbEntity
  8
細線
 48
10.0
100
AcDbCircle
 10
592.603654286315
 20
464.679301142602
 30
0.0
 40
0.5
100
AcDbArc
 50
180.0
 51
254.206830951723
  0
ARC
  5
542C
330
1A
100
AcDbEntity
  8
細線
 48
10.0
100
AcDbCircle
 10
592.603654286315
 20
465.386407923788
 30
0.0
 40
0.5
100
AcDbArc
 50
180.0
 51
254.206830951723
  0
ARC
  5
542D
330
1A
100
AcDbEntity
  8
細線
 48
10.0
100
AcDbCircle
 10
592.603654286315
 20
477.326078162857
 30
0.0
 40
0.5
100
AcDbArc
 50
180.0
 51
248.874947125992
  0
ARC
  5
542E
330
1A
100
AcDbEntity
  8
細線
 48
10.0
100
AcDbCircle
 10
592.603654286315
 20
478.292003989147
 30
0.0
 40
0.5
100
AcDbArc
 50
180.0
 51
248.874947125992
  0
ARC
  5
542F
330
1A
100
AcDbEntity
  8
外形線
 48
10.0
100
AcDbCircle
 10
592.603542208395
 20
479.598170431525
 30
0.0
 40
0.5
100
AcDbArc
 50
180.019033969441
 51
248.025023881981
  0
LINE
  5
5430
330
1A
100
AcDbEntity
  8
外形線
 48
10.0
100
AcDbLine
 10
592.103654286315
 20
478.292003989147
 30
0.0
 11
592.103654286315
 21
479.26071206089
 31
0.0
  0
LINE
  5
5431
330
1A
100
AcDbEntity
  8
外形線
 48
10.0
100
AcDbLine
 10
592.103654286315
 20
477.326078162857
 30
0.0
 11
592.103654286315
 21
477.949166292881
 31
0.0
  0
LINE
  5
5432
330
1A
100
AcDbEntity
  8
外形線
 48
10.0
100
AcDbLine
 10
592.103654286315
 20
465.386407923788
 30
0.0
 11
592.103654286315
 21
476.983240466592
 31
0.0
  0
LINE
  5
5433
330
1A
100
AcDbEntity
  8
外形線
 48
10.0
100
AcDbLine
 10
592.103654286315
 20
464.679301142602
 30
0.0
 11
592.103654286315
 21
465.008214037755
 31
0.0
  0
LINE
  5
5434
330
1A
100
AcDbEntity
  8
外形線
 48
10.0
100
AcDbLine
 10
592.103654286315
 20
443.044735775
 30
0.0
 11
592.103654286315
 21
465.386407923788
 31
0.0
  0
LINE
  5
5435
330
1A
100
AcDbEntity
  8
外形線
 48
10.0
100
AcDbLine
 10
592.103654286315
 20
442.785916729898
 30
0.0
 11
592.103654286315
 21
443.666243213995
 31
0.0
  0
LINE
  5
5436
330
1A
100
AcDbEntity
  8
外形線
 48
10.0
100
AcDbLine
 10
592.103654286315
 20
435.411526346871
 30
0.0
 11
592.103654286315
 21
443.044735775
 31
0.0
  0
ARC
  5
5437
330
1A
100
AcDbEntity
  8
外形線
 48
10.0
100
AcDbCircle
 10
592.603654286315
 20
423.894223609987
 30
0.0
 40
0.5
100
AcDbArc
 50
180.0
 51
268.999999999998
  0
LINE
  5
5438
330
1A
100
AcDbEntity
  8
外形線
 48
10.0
100
AcDbLine
 10
592.103654286315
 20
423.894223609987
 30
0.0
 11
592.103654286315
 21
435.411526346871
 31
0.0
  0
ARC
  5
5439
330
1A
100
AcDbEntity
  8
外形線
 48
10.0
100
AcDbCircle
 10
604.101775030027
 20
422.693370837809
 30
0.0
 40
0.5
100
AcDbArc
 50
0.002863323122
 51
88.999999999998
  0
ARC
  5
543A
330
1A
100
AcDbEntity
  8
外形線
 48
10.0
100
AcDbCircle
 10
604.101775030027
 20
436.612379119049
 30
0.0
 40
0.5
100
AcDbArc
 50
271.000000000002
 51
359.997136676878
  0
ARC
  5
543B
330
1A
100
AcDbEntity
  8
細線
 48
10.0
100
AcDbCircle
 10
604.103488494435
 20
440.848840630634
 30
0.0
 40
0.5
100
AcDbArc
 50
359.97893674797
 51
84.089361084594
  0
ARC
  5
543C
330
1A
100
AcDbEntity
  8
細線
 48
10.0
100
AcDbCircle
 10
604.101973818224
 20
440.590178396351
 30
0.0
 40
0.5
100
AcDbArc
 50
359.997136676878
 51
84.089361084594
  0
ARC
  5
543D
330
1A
100
AcDbEntity
  8
細線
 48
10.0
100
AcDbCircle
 10
604.103534051565
 20
471.810820094021
 30
0.0
 40
0.5
100
AcDbArc
 50
359.997136676878
 51
68.874947125992
  0
ARC
  5
543E
330
1A
100
AcDbEntity
  8
細線
 48
10.0
100
AcDbCircle
 10
604.103582322212
 20
472.776727269966
 30
0.0
 40
0.5
100
AcDbArc
 50
359.997136676878
 51
68.874947125992
  0
ARC
  5
543F
330
1A
100
AcDbEntity
  8
外形線
 48
10.0
100
AcDbCircle
 10
604.103637424005
 20
473.879327312472
 30
0.0
 40
0.5
100
AcDbArc
 50
359.997136676878
 51
68.025023881981
  0
LINE
  5
5440
330
1A
100
AcDbEntity
  8
外形線
 48
10.0
100
AcDbLine
 10
604.110501233246
 20
436.112455271471
 30
0.0
 11
592.594928083096
 21
435.911450194449
 31
0.0
  0
LINE
  5
5441
330
1A
100
AcDbEntity
  8
外形線
 48
10.0
100
AcDbLine
 10
604.110501233246
 20
423.193294685387
 30
0.0
 11
592.594928083096
 21
423.394299762408
 31
0.0
  0
LINE
  5
5442
330
1A
100
AcDbEntity
  8
外形線
 48
10.0
100
AcDbLine
 10
592.416441402917
 20
479.134496743907
 30
0.0
 11
604.290738229484
 21
474.34300100009
 31
0.0
  0
LINE
  5
5443
330
1A
100
AcDbEntity
  8
細線
 48
10.0
100
AcDbLine
 10
604.153462435981
 20
441.087520252866
 30
0.0
 11
592.552165668558
 21
442.288574873383
 31
0.0
  0
LINE
  5
5444
330
1A
100
AcDbEntity
  8
細線
 48
10.0
100
AcDbLine
 10
604.154977112192
 20
441.346182487149
 30
0.0
 11
592.552165668558
 21
442.547393918486
 31
0.0
  0
LINE
  5
5445
330
1A
100
AcDbEntity
  8
細線
 48
10.0
100
AcDbLine
 10
604.239081281795
 20
461.575796949317
 30
0.0
 11
592.467571522827
 21
464.905282699464
 31
0.0
  0
LINE
  5
5446
330
1A
100
AcDbEntity
  8
細線
 48
10.0
100
AcDbLine
 10
604.283736407775
 20
472.277218111616
 30
0.0
 11
592.423451930105
 21
476.859680145263
 31
0.0
  0
LINE
  5
5447
330
1A
100
AcDbEntity
  8
細線
 48
10.0
100
AcDbLine
 10
604.283784678422
 20
473.24312528756
 30
0.0
 11
592.423451930105
 21
477.825605971552
 31
0.0
  0
LINE
  5
5448
330
1A
100
AcDbEntity
  8
外形線
 48
10.0
100
AcDbLine
 10
577.604690189945
 20
487.652874978429
 30
0.0
 11
591.613419719235
 21
487.40224741856
 31
0.0
  0
LINE
  5
5449
330
1A
100
AcDbEntity
  8
外形線
 48
10.0
100
AcDbLine
 10
577.604690189945
 20
487.652874978429
 30
0.0
 11
577.104690189945
 21
487.146770702056
 31
0.0
  0
LINE
  5
544A
330
1A
100
AcDbEntity
  8
外形線
 48
10.0
100
AcDbLine
 10
577.104690189945
 20
486.158979254802
 30
0.0
 11
577.104690189945
 21
485.658979254802
 31
0.0
  0
ARC
  5
544B
330
1A
100
AcDbEntity
  8
外形線
 48
10.0
100
AcDbCircle
 10
567.703654286315
 20
487.380653425396
 30
0.0
 40
4.4
100
AcDbArc
 50
271.299999999999
 51
0.0
  0
LINE
  5
544C
330
1A
100
AcDbEntity
  8
外形線
 48
10.0
100
AcDbLine
 10
514.721912334968
 20
481.777196694956
 30
0.0
 11
567.803478554035
 21
482.981785944376
 31
0.0
  0
LINE
  5
544D
330
1A
100
AcDbEntity
  8
外形線
 48
10.0
100
AcDbLine
 10
572.103654286314
 20
487.652874978429
 30
0.0
 11
572.103654286314
 21
487.380653425396
 31
0.0
  0
LINE
  5
544E
330
1A
100
AcDbEntity
  8
外形線
 48
10.0
100
AcDbLine
 10
575.103654286314
 20
487.652874978429
 30
0.0
 11
572.103654286314
 21
487.652874978429
 31
0.0
  0
ARC
  5
544F
330
1A
100
AcDbEntity
  8
外形線
 48
10.0
100
AcDbCircle
 10
576.603654286314
 20
485.127874978429
 30
0.0
 40
1.500000000000156
100
AcDbArc
 50
70.528779365512
 51
179.999999999991
  0
LINE
  5
5450
330
1A
100
AcDbEntity
  8
細線
 48
10.0
100
AcDbLine
 10
577.604690189945
 20
487.652874978429
 30
0.0
 11
577.604690189945
 21
371.652874978429
 31
0.0
  0
LINE
  5
5451
330
1A
100
AcDbEntity
  8
細線
 48
10.0
100
AcDbLine
 10
577.604690189945
 20
487.646770702056
 30
0.0
 11
577.604690189945
 21
371.658979254802
 31
0.0
  0
LINE
  5
5452
330
1A
100
AcDbEntity
  8
外形線
 48
10.0
100
AcDbLine
 10
592.103654286315
 20
407.922538474725
 30
0.0
 11
592.103654286315
 21
394.626448814256
 31
0.0
  0
ARC
  5
5453
330
1A
100
AcDbEntity
  8
細線
 48
10.0
100
AcDbCircle
 10
592.603654286315
 20
381.979671794
 30
0.0
 40
0.5
100
AcDbArc
 50
111.125052874008
 51
180.0
  0
ARC
  5
5454
330
1A
100
AcDbEntity
  8
細線
 48
10.0
100
AcDbCircle
 10
592.603195588828
 20
381.013568740611
 30
0.0
 40
0.5
100
AcDbArc
 50
111.125052874008
 51
179.923306313171
  0
ARC
  5
5455
330
1A
100
AcDbEntity
  8
細線
 48
10.0
100
AcDbCircle
 10
592.603654286315
 20
394.626448814256
 30
0.0
 40
0.5
100
AcDbArc
 50
105.793169048277
 51
180.0
  0
ARC
  5
5456
330
1A
100
AcDbEntity
  8
細線
 48
10.0
100
AcDbCircle
 10
592.603654286315
 20
393.919342033069
 30
0.0
 40
0.5
100
AcDbArc
 50
105.793169048277
 51
180.0
  0
ARC
  5
5457
330
1A
100
AcDbEntity
  8
細線
 48
10.0
100
AcDbCircle
 10
592.603654286315
 20
416.261014181857
 30
0.0
 40
0.5
100
AcDbArc
 50
95.910638915406
 51
180.0
  0
ARC
  5
5458
330
1A
100
AcDbEntity
  8
細線
 48
10.0
100
AcDbCircle
 10
592.603654286315
 20
416.51983322696
 30
0.0
 40
0.5
100
AcDbArc
 50
95.910638915406
 51
180.0
  0
LINE
  5
5459
330
1A
100
AcDbEntity
  8
外形線
 48
10.0
100
AcDbLine
 10
592.103654286315
 20
416.261014181857
 30
0.0
 11
592.103654286315
 21
423.894223609987
 31
0.0
  0
LINE
  5
545A
330
1A
100
AcDbEntity
  8
外形線
 48
10.0
100
AcDbLine
 10
592.103654286315
 20
416.711922723304
 30
0.0
 11
592.103654286315
 21
416.970741768407
 31
0.0
  0
LINE
  5
545B
330
1A
100
AcDbEntity
  8
外形線
 48
10.0
100
AcDbLine
 10
592.103654286315
 20
407.922538474725
 30
0.0
 11
592.103654286315
 21
416.261014181857
 31
0.0
  0
LINE
  5
545C
330
1A
100
AcDbEntity
  8
外形線
 48
10.0
100
AcDbLine
 10
592.103654286315
 20
393.919342033069
 30
0.0
 11
592.103654286315
 21
394.626448814256
 31
0.0
  0
LINE
  5
545D
330
1A
100
AcDbEntity
  8
外形線
 48
10.0
100
AcDbLine
 10
592.103654286315
 20
381.979671794
 30
0.0
 11
592.103654286315
 21
393.919342033069
 31
0.0
  0
LINE
  5
545E
330
1A
100
AcDbEntity
  8
外形線
 48
10.0
100
AcDbLine
 10
592.103196036762
 20
381.014238019087
 30
0.0
 11
592.103654286315
 21
381.979671794
 31
0.0
  0
LINE
  5
545F
330
1A
100
AcDbEntity
  8
外形線
 48
10.0
100
AcDbLine
 10
592.101445866082
 20
379.706733612904
 30
0.0
 11
592.103196036762
 21
381.014238019087
 31
0.0
  0
ARC
  5
5460
330
1A
100
AcDbEntity
  8
外形線
 48
10.0
100
AcDbCircle
 10
592.601445866082
 20
379.706733612904
 30
0.0
 40
0.5
100
AcDbArc
 50
111.974976118019
 51
180.0
  0
ARC
  5
5461
330
1A
100
AcDbEntity
  8
細線
 48
10.0
100
AcDbCircle
 10
604.103622784466
 20
398.918361582187
 30
0.0
 40
0.5
100
AcDbArc
 50
285.793169048277
 51
0.004772330151
  0
ARC
  5
5462
330
1A
100
AcDbEntity
  8
細線
 48
10.0
100
AcDbCircle
 10
604.103654286315
 20
398.211263711067
 30
0.0
 40
0.5
100
AcDbArc
 50
285.793169048277
 51
0.0
  0
ARC
  5
5463
330
1A
100
AcDbEntity
  8
細線
 48
10.0
100
AcDbCircle
 10
604.103654286315
 20
387.494976317977
 30
0.0
 40
0.5
100
AcDbArc
 50
291.125052874008
 51
0.0
  0
ARC
  5
5464
330
1A
100
AcDbEntity
  8
細線
 48
10.0
100
AcDbCircle
 10
604.103654286315
 20
386.529050491686
 30
0.0
 40
0.5
100
AcDbArc
 50
291.125052874008
 51
0.0
  0
ARC
  5
5465
330
1A
100
AcDbEntity
  8
外形線
 48
10.0
100
AcDbCircle
 10
604.103654286315
 20
385.426429448635
 30
0.0
 40
0.5
100
AcDbArc
 50
291.974976118019
 51
0.0
  0
LINE
  5
5466
330
1A
100
AcDbEntity
  8
外形線
 48
10.0
100
AcDbLine
 10
604.603654286315
 20
386.529050491686
 30
0.0
 11
604.603654286315
 21
385.426429448635
 31
0.0
  0
LINE
  5
5467
330
1A
100
AcDbEntity
  8
外形線
 48
10.0
100
AcDbLine
 10
604.603654286315
 20
387.494976317977
 30
0.0
 11
604.603654286315
 21
386.529050491686
 31
0.0
  0
LINE
  5
5468
330
1A
100
AcDbEntity
  8
外形線
 48
10.0
100
AcDbLine
 10
604.603654286315
 20
398.211263711067
 30
0.0
 11
604.603654286315
 21
387.494976317977
 31
0.0
  0
LINE
  5
5469
330
1A
100
AcDbEntity
  8
外形線
 48
10.0
100
AcDbLine
 10
604.603622782732
 20
398.918403228624
 30
0.0
 11
604.603654286315
 21
398.211263711067
 31
0.0
  0
LINE
  5
546A
330
1A
100
AcDbEntity
  8
外形線
 48
10.0
100
AcDbLine
 10
604.601973817599
 20
418.715596547715
 30
0.0
 11
604.603622782732
 21
398.918403228624
 31
0.0
  0
ARC
  5
546B
330
1A
100
AcDbEntity
  8
細線
 48
10.0
100
AcDbCircle
 10
604.101922844172
 20
418.456747238181
 30
0.0
 40
0.5
100
AcDbArc
 50
275.910638915406
 51
0.001999028164
  0
ARC
  5
546C
330
1A
100
AcDbEntity
  8
細線
 48
10.0
100
AcDbCircle
 10
604.101973818224
 20
418.715571560507
 30
0.0
 40
0.5
100
AcDbArc
 50
275.910638915406
 51
0.002863323122
  0
ARC
  5
546D
330
1A
100
AcDbEntity
  8
外形線
 48
10.0
100
AcDbCircle
 10
591.602615071821
 20
372.403390106497
 30
0.0
 40
0.5
100
AcDbArc
 50
271.000000000002
 51
359.984453673186
  0
LINE
  5
546E
330
1A
100
AcDbEntity
  8
外形線
 48
10.0
100
AcDbLine
 10
604.601775029403
 20
422.693395825017
 30
0.0
 11
604.601922843868
 21
418.456764682993
 31
0.0
  0
LINE
  5
546F
330
1A
100
AcDbEntity
  8
外形線
 48
10.0
100
AcDbLine
 10
592.414345060604
 20
380.170407300522
 30
0.0
 11
604.290755091793
 21
384.962755761017
 31
0.0
  0
LINE
  5
5470
330
1A
100
AcDbEntity
  8
細線
 48
10.0
100
AcDbLine
 10
604.283856642525
 20
387.028578300382
 30
0.0
 11
592.423451930105
 21
382.446069811595
 31
0.0
  0
LINE
  5
5471
330
1A
100
AcDbEntity
  8
細線
 48
10.0
100
AcDbLine
 10
604.283856642525
 20
386.062652474091
 30
0.0
 11
592.422993232618
 21
381.479966758206
 31
0.0
  0
LINE
  5
5472
330
1A
100
AcDbEntity
  8
細線
 48
10.0
100
AcDbLine
 10
604.239737049802
 20
397.730138486742
 30
0.0
 11
592.467571522827
 21
394.400467257394
 31
0.0
  0
LINE
  5
5473
330
1A
100
AcDbEntity
  8
細線
 48
10.0
100
AcDbLine
 10
604.239705547954
 20
398.437236357862
 30
0.0
 11
592.467571522827
 21
395.107574038581
 31
0.0
  0
LINE
  5
5474
330
1A
100
AcDbEntity
  8
細線
 48
10.0
100
AcDbLine
 10
604.153411461929
 20
417.959405381667
 30
0.0
 11
592.552165668558
 21
416.758356038372
 31
0.0
  0
LINE
  5
5475
330
1A
100
AcDbEntity
  8
細線
 48
10.0
100
AcDbLine
 10
604.153462435981
 20
418.218229703992
 30
0.0
 11
592.552165668558
 21
417.017175083474
 31
0.0
  0
LINE
  5
5476
330
1A
100
AcDbEntity
  8
外形線
 48
10.0
100
AcDbLine
 10
592.104598664874
 20
379.713827755022
 30
0.0
 11
592.102615053416
 21
372.403254439204
 31
0.0
  0
LINE
  5
5477
330
1A
100
AcDbEntity
  8
外形線
 48
10.0
100
AcDbLine
 10
592.104693515974
 20
486.9023170633
 30
0.0
 11
592.102615053416
 21
372.403254439204
 31
0.0
  0
LINE
  5
5478
330
1A
100
AcDbEntity
  8
外形線
 48
10.0
100
AcDbLine
 10
577.104690189945
 20
487.146770702056
 30
0.0
 11
577.104690189945
 21
372.158979254802
 31
0.0
  0
LINE
  5
5479
330
1A
100
AcDbEntity
  8
外形線
 48
10.0
100
AcDbLine
 10
577.604690189945
 20
371.652874978429
 30
0.0
 11
591.61134127504
 21
371.903466258919
 31
0.0
  0
LINE
  5
547A
330
1A
100
AcDbEntity
  8
外形線
 48
10.0
100
AcDbLine
 10
577.604690189945
 20
371.652874978429
 30
0.0
 11
577.104690189945
 21
372.158979254802
 31
0.0
  0
LINE
  5
547B
330
1A
100
AcDbEntity
  8
外形線
 48
10.0
100
AcDbLine
 10
577.104690189945
 20
373.158979254802
 30
0.0
 11
577.104690189945
 21
373.658979254802
 31
0.0
  0
LINE
  5
547C
330
1A
100
AcDbEntity
  8
外形線
 48
10.0
100
AcDbLine
 10
503.728060227091
 20
406.408340881337
 30
0.0
 11
509.983870371452
 21
381.317656830517
 31
0.0
  0
ARC
  5
547D
330
1A
100
AcDbEntity
  8
外形線
 48
10.0
100
AcDbCircle
 10
514.835349002832
 20
382.527266308515
 30
0.0
 40
5.0
100
AcDbArc
 50
193.999999999995
 51
268.7
  0
ARC
  5
547E
330
1A
100
AcDbEntity
  8
外形線
 48
10.0
100
AcDbCircle
 10
502.757764500815
 20
406.166418985737
 30
0.0
 40
1.0
100
AcDbArc
 50
13.999999999991
 51
89.000000000011
  0
ARC
  5
547F
330
1A
100
AcDbEntity
  8
外形線
 48
10.0
100
AcDbCircle
 10
538.103654286315
 20
375.997689852769
 30
0.0
 40
1.0
100
AcDbArc
 50
0.0
 51
88.7
  0
ARC
  5
5480
330
1A
100
AcDbEntity
  8
外形線
 48
10.0
100
AcDbCircle
 10
540.103654286315
 20
366.152874978429
 30
0.0
 40
1.0
100
AcDbArc
 50
180.0
 51
270.0
  0
ARC
  5
5481
330
1A
100
AcDbEntity
  8
外形線
 48
10.0
100
AcDbCircle
 10
574.103654286314
 20
366.152874978429
 30
0.0
 40
1.0
100
AcDbArc
 50
270.0
 51
0.0
  0
LINE
  5
5482
330
1A
100
AcDbEntity
  8
外形線
 48
10.0
100
AcDbLine
 10
539.103654286315
 20
366.152874978429
 30
0.0
 11
539.103654286315
 21
375.997689852769
 31
0.0
  0
LINE
  5
5483
330
1A
100
AcDbEntity
  8
外形線
 48
10.0
100
AcDbLine
 10
514.721912334968
 20
377.528553261902
 30
0.0
 11
567.803478554035
 21
376.323964012481
 31
0.0
  0
LINE
  5
5484
330
1A
100
AcDbEntity
  8
外形線
 48
10.0
100
AcDbLine
 10
490.586201879877
 20
407.379026729607
 30
0.0
 11
502.775216907253
 21
407.166266680894
 31
0.0
  0
LINE
  5
5485
330
1A
100
AcDbEntity
  8
外形線
 48
10.0
100
AcDbLine
 10
575.103654286314
 20
375.677874978429
 30
0.0
 11
575.103654286314
 21
366.152874978429
 31
0.0
  0
LINE
  5
5486
330
1A
100
AcDbEntity
  8
外形線
 48
10.0
100
AcDbLine
 10
575.103654286314
 20
375.677874978429
 30
0.0
 11
575.103654286314
 21
487.652874978429
 31
0.0
  0
LINE
  5
5487
330
1A
100
AcDbEntity
  8
外形線
 48
10.0
100
AcDbLine
 10
574.103654286314
 20
365.152874978429
 30
0.0
 11
540.103654286315
 21
365.152874978429
 31
0.0
  0
LINE
  5
5488
330
1A
100
AcDbEntity
  8
外形線
 48
10.0
100
AcDbLine
 10
572.103654286315
 20
371.925096531462
 30
0.0
 11
572.103654286314
 21
371.658979254802
 31
0.0
  0
LINE
  5
5489
330
1A
100
AcDbEntity
  8
外形線
 48
10.0
100
AcDbLine
 10
575.103654286314
 20
371.658979254802
 30
0.0
 11
572.103654286314
 21
371.658979254802
 31
0.0
  0
ARC
  5
548A
330
1A
100
AcDbEntity
  8
外形線
 48
10.0
100
AcDbCircle
 10
576.603654286314
 20
374.177874978428
 30
0.0
 40
1.499999999999659
100
AcDbArc
 50
179.999999999983
 51
289.471220634513
  0
ARC
  5
548B
330
1A
100
AcDbEntity
  8
外形線
 48
10.0
100
AcDbCircle
 10
567.703654286315
 20
371.925096531462
 30
0.0
 40
4.4
100
AcDbArc
 50
0.0
 51
88.700000000001
  0
LINE
  5
548C
330
1A
100
AcDbEntity
  8
細線
 48
10.0
100
AcDbLine
 10
572.103654286314
 20
487.652874978429
 30
0.0
 11
572.103654286315
 21
371.925096531462
 31
0.0
  0
LINE
  5
548D
330
1A
100
AcDbEntity
  8
細線
 48
10.0
100
AcDbLine
 10
503.542427027615
 20
407.152874978429
 30
0.0
 11
503.546062242277
 21
452.167455028084
 31
0.0
  0
LINE
  5
548E
330
1A
100
AcDbEntity
  8
細線
 48
10.0
100
AcDbLine
 10
510.907015140993
 20
479.871733245438
 30
0.0
 11
510.907015140993
 21
379.43401671142
 31
0.0
  0
LINE
  5
548F
330
1A
100
AcDbEntity
  8
外形線
 48
10.0
100
AcDbLine
 10
604.603637423381
 20
473.879302325264
 30
0.0
 11
604.601775029403
 21
436.612354131841
 31
0.0
  0
ARC
  5
5490
330
1A
100
AcDbEntity
  8
細線
 48
10.0
100
AcDbCircle
 10
604.102963181557
 20
460.387574938547
 30
0.0
 40
0.5
100
AcDbArc
 50
359.997136676878
 51
74.206830951723
  0
ARC
  5
5491
330
1A
100
AcDbEntity
  8
細線
 48
10.0
100
AcDbCircle
 10
604.102998518307
 20
461.094671724993
 30
0.0
 40
0.5
100
AcDbArc
 50
359.997136676878
 51
74.206830951723
  0
LINE
  5
5492
330
1A
100
AcDbEntity
  8
細線
 48
10.0
100
AcDbLine
 10
604.239045945046
 20
460.868700162872
 30
0.0
 11
592.467571522827
 21
464.198175918277
 31
0.0
  0
LINE
  5
5493
330
1A
100
AcDbEntity
  8
中心線
 48
10.0
100
AcDbLine
 10
557.103654286315
 20
381.616876591396
 30
0.0
 11
557.103654286315
 21
357.69766558995
 31
0.0
  0
LINE
  5
5817
330
1A
100
AcDbEntity
  8
寸法線
100
AcDbLine
 10
-12.86333824041
 20
205.201870339902
 30
0.0
 11
-12.86333824041
 21
223.951870339902
 31
0.0
  0
LINE
  5
5818
330
1A
100
AcDbEntity
  8
寸法線
100
AcDbLine
 10
15.88666175959
 20
205.201870339902
 30
0.0
 11
-12.86333824041
 21
205.201870339902
 31
0.0
  0
CIRCLE
  5
5819
330
1A
100
AcDbEntity
  8
寸法線
100
AcDbCircle
 10
72.136661759591
 20
205.201870339902
 30
0.0
 40
3.75
  0
CIRCLE
  5
581A
330
1A
100
AcDbEntity
  8
寸法線
100
AcDbCircle
 10
72.136661759591
 20
205.201870339902
 30
0.0
 40
2.5
  0
CIRCLE
  5
581B
330
1A
100
AcDbEntity
  8
寸法線
100
AcDbCircle
 10
47.136661759591
 20
205.201870339902
 30
0.0
 40
2.5
  0
CIRCLE
  5
581C
330
1A
100
AcDbEntity
  8
寸法線
100
AcDbCircle
 10
47.136661759591
 20
205.201870339902
 30
0.0
 40
3.75
  0
CIRCLE
  5
581D
330
1A
100
AcDbEntity
  8
寸法線
100
AcDbCircle
 10
22.136661759591
 20
205.201870339902
 30
0.0
 40
2.5
  0
CIRCLE
  5
581E
330
1A
100
AcDbEntity
  8
寸法線
100
AcDbCircle
 10
22.136661759591
 20
205.201870339902
 30
0.0
 40
3.75
  0
LINE
  5
581F
330
1A
100
AcDbEntity
  8
寸法線
100
AcDbLine
 10
82.13666175959
 20
230.201870339902
 30
0.0
 11
82.13666175959
 21
238.951870339902
 31
0.0
  0
LINE
  5
5820
330
1A
100
AcDbEntity
  8
寸法線
100
AcDbLine
 10
12.13666175959
 20
238.951870339902
 30
0.0
 11
12.13666175959
 21
230.201870339902
 31
0.0
  0
LINE
  5
5821
330
1A
100
AcDbEntity
  8
寸法線
100
AcDbLine
 10
82.13666175959
 20
230.201870339902
 30
0.0
 11
12.13666175959
 21
230.201870339902
 31
0.0
  0
LINE
  5
5822
330
1A
100
AcDbEntity
  8
寸法線
100
AcDbLine
 10
78.38666175959
 20
205.201870339902
 30
0.0
 11
107.13666175959
 21
205.201870339902
 31
0.0
  0
LINE
  5
5823
330
1A
100
AcDbEntity
  8
寸法線
100
AcDbLine
 10
107.13666175959
 20
205.201870339902
 30
0.0
 11
107.13666175959
 21
223.951870339902
 31
0.0
  0
LINE
  5
5824
330
1A
100
AcDbEntity
  8
寸法線
100
AcDbLine
 10
72.13666175959
 20
230.201870339902
 30
0.0
 11
72.13666175959
 21
208.951870339902
 31
0.0
  0
LINE
  5
5825
330
1A
100
AcDbEntity
  8
寸法線
100
AcDbLine
 10
47.13666175959
 20
230.201870339902
 30
0.0
 11
47.13666175959
 21
208.951870339902
 31
0.0
  0
LINE
  5
5826
330
1A
100
AcDbEntity
  8
寸法線
100
AcDbLine
 10
22.13666175959
 20
230.201870339902
 30
0.0
 11
22.13666175959
 21
208.951870339902
 31
0.0
  0
TEXT
  5
5827
330
1A
100
AcDbEntity
  8
寸法線
100
AcDbText
 10
15.88666175959
 20
189.264370339902
 30
0.0
 40
8.75
  1
B1
100
AcDbText
  0
TEXT
  5
5828
330
1A
100
AcDbEntity
  8
寸法線
100
AcDbText
 10
40.88666175959
 20
189.264370339902
 30
0.0
 40
8.75
  1
NC
100
AcDbText
  0
TEXT
  5
5829
330
1A
100
AcDbEntity
  8
寸法線
100
AcDbText
 10
65.88666175959
 20
189.264370339902
 30
0.0
 40
8.75
  1
B2
100
AcDbText
  0
LINE
  5
582A
330
1A
100
AcDbEntity
  8
寸法線
100
AcDbLine
 10
72.13666175959
 20
187.701870339902
 30
0.0
 11
72.13666175959
 21
167.701870339902
 31
0.0
  0
LINE
  5
582B
330
1A
100
AcDbEntity
  8
寸法線
100
AcDbLine
 10
67.13666175959
 20
162.701870339902
 30
0.0
 11
-12.86333824041
 21
162.701870339902
 31
0.0
  0
TEXT
  5
582C
330
1A
100
AcDbEntity
  8
寸法線
100
AcDbText
 10
-55.238338240409
 20
158.326870339902
 30
0.0
 40
8.75
  1
変換器へ
100
AcDbText
  0
ARC
  5
582D
330
1A
100
AcDbEntity
  8
寸法線
100
AcDbCircle
 10
67.13666175959
 20
167.701870339902
 30
0.0
 40
5.0
100
AcDbArc
 50
270.0
 51
0.0
  0
ARC
  5
582E
330
1A
100
AcDbEntity
  8
寸法線
100
AcDbCircle
 10
42.13666175959
 20
167.701870339902
 30
0.0
 40
5.0
100
AcDbArc
 50
270.0
 51
0.0
  0
LINE
  5
582F
330
1A
100
AcDbEntity
  8
寸法線
100
AcDbLine
 10
47.13666175959
 20
187.701870339902
 30
0.0
 11
47.13666175959
 21
167.701870339902
 31
0.0
  0
ARC
  5
5830
330
1A
100
AcDbEntity
  8
寸法線
100
AcDbCircle
 10
17.13666175959
 20
167.701870339902
 30
0.0
 40
5.0
100
AcDbArc
 50
270.0
 51
0.0
  0
LINE
  5
5831
330
1A
100
AcDbEntity
  8
寸法線
100
AcDbLine
 10
22.13666175959
 20
187.701870339902
 30
0.0
 11
22.13666175959
 21
167.701870339902
 31
0.0
  0
TEXT
  5
5862
330
1A
100
AcDbEntity
  8
寸法線
100
AcDbText
 10
586.823159933802
 20
173.838882943675
 30
0.0
 40
8.75
  1
ia3nG5
100
AcDbText
  0
TEXT
  5
5863
330
1A
100
AcDbEntity
  8
寸法線
100
AcDbText
 10
586.823159933802
 20
161.338882943675
 30
0.0
 40
8.75
  1
労検第T68867号
100
AcDbText
  0
TEXT
  5
5864
330
1A
100
AcDbEntity
  8
寸法線
100
AcDbText
 10
586.823159933802
 20
148.838882943675
 30
0.0
 40
8.75
  1
本質安全防爆構造
100
AcDbText
  0
VIEWPORT
  5
2902
330
28FB
100
AcDbEntity
 67
     1
  8
0
 48
10.0
100
AcDbViewport
 10
0.0
 20
0.0
 30
0.0
 40
528.349942987457
 41
300.3
 68
     1
 69
     1
1001
ACAD
1000
MVIEW
1002
{
1070
    16
1010
0.0
1020
0.0
1030
0.0
1010
0.0
1020
0.0
1030
1.0
1040
0.0
1040
300.3
1040
205.756503333333
1040
143.551503333333
1040
50.0
1040
0.0
1040
0.0
1070
    16
1070
   100
1070
     0
1070
     1
1070
     0
1070
     0
1070
     0
1070
     0
1040
0.0
1040
0.0
1040
0.0
1040
10.0
1040
10.0
1040
10.0
1040
10.0
1070
     0
1002
{
1002
}
1002
}
  0
VIEWPORT
  5
2904
330
28FB
100
AcDbEntity
 67
     1
  8
図枠太線
 48
10.0
100
AcDbViewport
 10
204.746305129083
 20
162.648311913437
 30
0.0
 40
400.0
 41
240.0
 68
     2
 69
     2
1001
ACAD
1000
MVIEW
1002
{
1070
    16
1010
0.0
1020
0.0
1030
0.0
1010
0.0
1020
0.0
1030
1.0
1040
0.0
1040
480.000003578159
1040
282.611713550006
1040
341.364015912703
1040
50.0
1040
0.0
1040
0.0
1070
     0
1070
   100
1070
     0
1070
     0
1070
     0
1070
     0
1070
     0
1070
     0
1040
0.0
1040
0.0
1040
0.0
1040
1.0
1040
1.0
1040
0.0
1040
0.0
1070
     0
1002
{
1002
}
1002
}
  0
INSERT
  5
2A59
330
28FB
100
AcDbEntity
 67
     1
  8
図枠太線
100
AcDbBlockReference
  2
A3横用_タイトル
 10
-0.352109406709
 20
-0.877647840089
 30
0.0
  0
MTEXT
  5
2E70
330
28FB
100
AcDbEntity
 67
     1
  8
寸法線
 48
10.0
100
AcDbMText
 10
275.276848610136
 20
51.661370891242
 30
0.0
 40
5.0
 41
59.487124795261
 71
     1
 72
     5
  1
A3縮小図
  0
MTEXT
  5
2E71
102
{ACAD_XDICTIONARY
360
5045
102
}
330
28FB
100
AcDbEntity
 67
     1
  8
寸法線
 48
10.0
100
AcDbMText
 10
371.895692395313
 20
51.501091084477
 30
0.0
 40
5.0
 41
34.444444444444
 71
     1
 72
     5
  1
台数   台
1001
ACADANNOTATIVE
1000
AnnotativeData
1002
{
1070
     1
1070
     0
1002
}
  0
LINE
  5
2E72
330
28FB
100
AcDbEntity
 67
     1
  8
寸法線
 48
10.0
100
AcDbLine
 10
274.343226659091
 20
45.277771804984
 30
0.0
 11
299.978090268908
 21
45.277771804984
 31
0.0
  0
MTEXT
  5
2E85
330
28FB
100
AcDbEntity
 67
     1
  8
寸法線
 48
10.0
100
AcDbMText
 10
149.12611673873
 20
15.50691148072
 30
0.0
 40
5.0
 41
11.452149180996
 71
     1
 72
     5
  1
{\H1.4x;1:2}
  0
MTEXT
  5
5527
330
28FB
100
AcDbEntity
 67
     1
  8
下書線
 48
10.0
100
AcDbMText
 10
115.608093296907
 20
71.349827571828
 30
0.0
 40
10.0
 41
175.933723286424
 71
     1
 72
     1
  1
HP用図面、追記・変更　不可
  0
LWPOLYLINE
  5
5528
330
28FB
100
AcDbEntity
 67
     1
  8
下書線
 48
10.0
100
AcDbPolyline
 90
        4
 70
     1
 43
0.0
 10
107.558837983149
 20
77.099295653084
 10
279.467933612694
 20
77.099295653084
 10
279.467933612694
 20
55.826263752438
 10
107.558837983149
 20
55.826263752438
  0
MTEXT
  5
55C0
102
{ACAD_XDICTIONARY
360
55C1
102
}
330
28FB
100
AcDbEntity
 67
     1
  8
寸法線
 48
10.0
100
AcDbMText
 10
173.844001466027
 20
33.378565975581
 30
0.0
 40
5.0
 41
31.372065131184
 71
     1
 72
     5
  1
takahashi
1001
ACADANNOTATIVE
1000
AnnotativeData
1002
{
1070
     1
1070
     0
1002
}
  0
MTEXT
  5
56AE
102
{ACAD_XDICTIONARY
360
56AF
102
}
330
28FB
100
AcDbEntity
 67
     1
  8
寸法線
 48
10.0
100
AcDbMText
 10
310.214176586136
 20
34.215458354798
 30
0.0
 40
6.0
 41
58.239684951579
 71
     1
 72
     5
  1
TSE-A1WA-□
1001
ACADANNOTATIVE
1000
AnnotativeData
1002
{
1070
     1
1070
     0
1002
}
  0
MTEXT
  5
56E0
330
28FB
100
AcDbEntity
 67
     1
  8
寸法線
 48
10.0
100
AcDbMText
 10
370.673835800578
 20
38.148288496002
 30
0.0
 40
4.0
 41
39.417543602742
 71
     1
 72
     5
  1
{\H1.125x;静電容量式\Pレベルセンサ}
  0
MTEXT
  5
5713
102
{ACAD_XDICTIONARY
360
5714
102
}
330
28FB
100
AcDbEntity
 67
     1
  8
寸法線
 48
10.0
100
AcDbMText
 10
338.952685188947
 20
16.745599577447
 30
0.0
 40
8.0
 41
33.206594841881
 71
     1
 72
     5
  1
HE-14010
1001
ACADANNOTATIVE
1000
AnnotativeData
1002
{
1070
     1
1070
     0
1002
}
  0
MTEXT
  5
59AC
102
{ACAD_XDICTIONARY
360
59AD
102
}
330
28FB
100
AcDbEntity
 67
     1
  8
寸法線
 48
10.0
100
AcDbMText
 10
175.252680195869
 20
13.495941356833
 30
0.0
 40
4.5
 41
31.372065131184
 71
     1
 72
     5
  1
2016.09.26
1001
ACADANNOTATIVE
1000
AnnotativeData
1002
{
1070
     1
1070
     0
1002
}
  0
ENDSEC
  0
SECTION
  2
OBJECTS
  0
DICTIONARY
  5
C
330
0
100
AcDbDictionary
  3
ACAD_COLOR
350
2948
  3
ACAD_GROUP
350
D
  3
ACAD_LAYOUT
350
2816
  3
ACAD_MATERIAL
350
2947
  3
ACAD_MLEADERSTYLE
350
5041
  3
ACAD_MLINESTYLE
350
E
  3
ACAD_PLOTSETTINGS
350
2817
  3
ACAD_SCALELIST
350
501A
  3
ACAD_VISUALSTYLE
350
5001
  3
ACADDIM
350
4312
  3
ACDBHEADERROUNDTRIPXREC
350
5AF2
  3
ACDBVARIABLEDICTIONARY
350
5416
  3
DWGPROPS
350
5B15
  0
DICTIONARY
  5
5B16
330
8
100
AcDbDictionary
280
     1
  3
ACAD_XREC_ROUNDTRIP
360
5B17
  0
DICTIONARY
  5
29EA
330
2
100
AcDbDictionary
280
     1
  3
ACAD_LAYERFILTERS
360
2B0C
  3
ACAD_LAYERSTATES
360
29EB
  0
DICTIONARY
  5
533F
330
533E
100
AcDbDictionary
280
     1
  3
ACDBCONTEXTDATAMANAGER
360
5340
  0
DICTIONARY
  5
5347
330
5346
100
AcDbDictionary
280
     1
  3
ACDBCONTEXTDATAMANAGER
360
5348
  0
DICTIONARY
  5
5045
330
2E71
100
AcDbDictionary
280
     1
  3
ACDBCONTEXTDATAMANAGER
360
5046
  0
DICTIONARY
  5
55C1
330
55C0
100
AcDbDictionary
280
     1
  3
ACDBCONTEXTDATAMANAGER
360
55C2
  0
DICTIONARY
  5
56AF
330
56AE
100
AcDbDictionary
280
     1
  3
ACDBCONTEXTDATAMANAGER
360
56B0
  0
DICTIONARY
  5
5714
330
5713
100
AcDbDictionary
280
     1
  3
ACDBCONTEXTDATAMANAGER
360
5715
  0
DICTIONARY
  5
59AD
330
59AC
100
AcDbDictionary
280
     1
  3
ACDBCONTEXTDATAMANAGER
360
59AE
  0
DICTIONARY
  5
2948
102
{ACAD_REACTORS
330
C
102
}
330
C
100
AcDbDictionary
  0
DICTIONARY
  5
D
102
{ACAD_REACTORS
330
C
102
}
330
C
100
AcDbDictionary
  3
*A1
350
4830
  3
*A2
350
4831
  3
*A3
350
4832
  3
*A4
350
4833
  3
*A5
350
456F
  3
*A6
350
4A79
  0
DICTIONARY
  5
2816
102
{ACAD_REACTORS
330
C
102
}
330
C
100
AcDbDictionary
  0
DICTIONARY
  5
2947
102
{ACAD_REACTORS
330
C
102
}
330
C
100
AcDbDictionary
  3
BYBLOCK
350
503D
  3
BYLAYER
350
503C
  3
GLOBAL
350
503E
  0
DICTIONARY
  5
5041
102
{ACAD_REACTORS
330
C
102
}
330
C
100
AcDbDictionary
  3
STANDARD
350
5042
  0
DICTIONARY
  5
E
102
{ACAD_REACTORS
330
C
102
}
330
C
100
AcDbDictionary
  3
STANDARD
350
13
  0
DICTIONARY
  5
2817
102
{ACAD_REACTORS
330
C
102
}
330
C
100
AcDbDictionary
  0
DICTIONARY
  5
501A
102
{ACAD_REACTORS
330
C
102
}
330
C
100
AcDbDictionary
  3
A0
350
501B
  3
A1
350
501C
  3
A2
350
501D
  3
A3
350
501E
  3
A4
350
501F
  3
A5
350
5020
  3
A6
350
5021
  3
A7
350
5022
  3
A8
350
5023
  3
A9
350
5024
  3
B0
350
5025
  3
B1
350
5026
  3
B2
350
5027
  3
B3
350
5028
  3
B4
350
5029
  3
B5
350
502A
  3
B6
350
502B
  3
B7
350
502C
  3
B8
350
502D
  3
B9
350
502E
  3
C0
350
502F
  3
C1
350
5030
  3
C2
350
5031
  3
C3
350
5032
  3
C4
350
5033
  3
C5
350
5034
  3
C6
350
5035
  3
C7
350
5036
  3
C8
350
5037
  3
C9
350
5038
  3
D0
350
5039
  3
D1
350
503A
  3
D2
350
503B
  0
DICTIONARY
  5
5001
102
{ACAD_REACTORS
330
C
102
}
330
C
100
AcDbDictionary
  3
2DWIREFRAME
350
5006
  3
BASIC
350
5009
  3
BRIGHTEN
350
500D
  3
COLORCHANGE
350
5011
  3
CONCEPTUAL
350
500B
  3
DIM
350
500C
  3
EDGECOLOROFF
350
5014
  3
FACEPATTERN
350
5010
  3
FLAT
350
5002
  3
FLATWITHEDGES
350
5003
  3
GOURAUD
350
5004
  3
GOURAUDWITHEDGES
350
5005
  3
HIDDEN
350
5008
  3
JITTEROFF
350
5012
  3
LINEPATTERN
350
500F
  3
MODELING
350
5583
  3
OVERHANGOFF
350
5013
  3
REALISTIC
350
500A
  3
SHADED
350
5019
  3
SHADED_WITH_EDGES
350
5018
  3
SHADES_OF_GRAY
350
5015
  3
SKETCHY
350
5016
  3
THICKEN
350
500E
  3
WIREFRAME
350
5007
  3
X-RAY
350
5017
  0
XRECORD
  5
4312
102
{ACAD_REACTORS
330
C
102
}
330
C
100
AcDbXrecord
 90
   990106
  3

 60
     0
 61
     0
 62
     4
 63
     4
 64
     0
 65
     0
 66
     0
 67
     3
 68
     1
 69
     0
 70
     0
 71
     0
 72
     0
 40
0.0
170
     2
340
4E6D
  0
DICTIONARY
  5
5AF2
102
{ACAD_REACTORS
330
C
102
}
330
C
100
AcDbDictionary
  3
CEPSNID
350
5AFC
  3
CEPSNTYPE
350
5AFB
  3
COLORDICT
350
5B13
  3
DIMSTYLEDATA
350
5B12
  3
FINGERPRINTGUID
350
5AFD
  3
HYPERLINKBASE
350
5AF5
  3
INSUNITS
350
5AFA
  3
LAYOUTDICT
350
5AF7
  3
LWETCUNION
350
5AF9
  3
MATERIALDICT
350
5B14
  3
PLOTSETDICT
350
5AF8
  3
PSVPSCALE
350
5AFF
  3
PUCSBASE
350
5B02
  3
PUCSORGBACK
350
5B08
  3
PUCSORGBOTTOM
350
5B04
  3
PUCSORGFRONT
350
5B07
  3
PUCSORGLEFT
350
5B05
  3
PUCSORGRIGHT
350
5B06
  3
PUCSORGTOP
350
5B03
  3
PUCSORTHOREF
350
5B00
  3
PUCSORTHOVIEW
350
5B01
  3
STYLESHEET
350
5AF6
  3
TSTACKALIGN
350
5AF3
  3
TSTACKSIZE
350
5AF4
  3
UCSBASE
350
5B0B
  3
UCSORGBACK
350
5B11
  3
UCSORGBOTTOM
350
5B0D
  3
UCSORGFRONT
350
5B10
  3
UCSORGLEFT
350
5B0E
  3
UCSORGRIGHT
350
5B0F
  3
UCSORGTOP
350
5B0C
  3
UCSORTHOREF
350
5B09
  3
UCSORTHOVIEW
350
5B0A
  3
VERSIONGUID
350
5AFE
  0
DICTIONARY
  5
5416
102
{ACAD_REACTORS
330
C
102
}
330
C
100
AcDbDictionary
  3
CANNOSCALE
350
5417
  3
CMLEADERSTYLE
350
5419
  3
CTABLESTYLE
350
5418
  3
DIMASSOC
350
5AE5
  3
HIDETEXT
350
5AE6
  3
MSLTSCALE
350
541A
  3
XCLIPFRAME
350
541B
  0
XRECORD
  5
5B15
102
{ACAD_REACTORS
330
C
102
}
330
C
100
AcDbXrecord
  1
DWGPROPS COOKIE
  2

  3

  4

  6

  7

  8
takahashi
  9

300
=
301
=
302
=
303
=
304
=
305
=
306
=
307
=
308
=
309
=
 40
0.0
 41
2450576.222302431
 42
2457661.239667893
  1

 90
        0
  0
XRECORD
  5
5B17
102
{ACAD_REACTORS
330
5B16
102
}
330
5B16
100
AcDbXrecord
102
VTR_0.000_0.000_1.000_1.000_VISUALSTYLE
340
5006
102
VTR_0.000_0.000_1.000_1.000_GRIDDISPLAY
 70
     3
102
VTR_0.000_0.000_1.000_1.000_GRIDMAJOR
 70
     5
102
VTR_0.000_0.000_1.000_1.000_DEFAULTLIGHTING
280
     1
102
VTR_0.000_0.000_1.000_1.000_DEFAULTLIGHTINGTYPE
 70
     1
102
VTR_0.000_0.000_1.000_1.000_BRIGHTNESS
141
0.0
102
VTR_0.000_0.000_1.000_1.000_CONTRAST
142
0.0
  0
DICTIONARY
  5
2B0C
102
{ACAD_REACTORS
330
29EA
102
}
330
29EA
100
AcDbDictionary
  0
DICTIONARY
  5
29EB
102
{ACAD_REACTORS
330
29EA
102
}
330
29EA
100
AcDbDictionary
  0
DICTIONARY
  5
5340
102
{ACAD_REACTORS
330
533F
102
}
330
533F
100
AcDbDictionary
  3
ACDB_ANNOTATIONSCALES
350
5341
  0
DICTIONARY
  5
5348
102
{ACAD_REACTORS
330
5347
102
}
330
5347
100
AcDbDictionary
  3
ACDB_ANNOTATIONSCALES
350
5349
  0
DICTIONARY
  5
5046
102
{ACAD_REACTORS
330
5045
102
}
330
5045
100
AcDbDictionary
  3
ACDB_ANNOTATIONSCALES
350
5047
  0
DICTIONARY
  5
55C2
102
{ACAD_REACTORS
330
55C1
102
}
330
55C1
100
AcDbDictionary
  3
ACDB_ANNOTATIONSCALES
350
55C3
  0
DICTIONARY
  5
56B0
102
{ACAD_REACTORS
330
56AF
102
}
330
56AF
100
AcDbDictionary
  3
ACDB_ANNOTATIONSCALES
350
56B1
  0
DICTIONARY
  5
5715
102
{ACAD_REACTORS
330
5714
102
}
330
5714
100
AcDbDictionary
  3
ACDB_ANNOTATIONSCALES
350
5716
  0
DICTIONARY
  5
59AE
102
{ACAD_REACTORS
330
59AD
102
}
330
59AD
100
AcDbDictionary
  3
ACDB_ANNOTATIONSCALES
350
59AF
  0
GROUP
  5
4830
102
{ACAD_REACTORS
330
D
102
}
330
D
100
AcDbGroup
300

 70
     1
 71
     1
340
4556
340
4555
340
4554
340
4553
340
4552
340
4557
  0
GROUP
  5
4831
102
{ACAD_REACTORS
330
D
102
}
330
D
100
AcDbGroup
300

 70
     1
 71
     1
340
4558
340
4559
340
455A
340
455B
340
455C
340
455D
340
455E
340
455F
340
4560
  0
GROUP
  5
4832
102
{ACAD_REACTORS
330
D
102
}
330
D
100
AcDbGroup
300

 70
     1
 71
     1
340
4567
340
4566
340
4565
340
4563
340
4564
340
4551
340
4561
340
4562
340
4568
  0
GROUP
  5
4833
102
{ACAD_REACTORS
330
D
102
}
330
D
100
AcDbGroup
300

 70
     1
 71
     1
340
454D
340
454C
340
454B
340
454A
340
4549
340
4550
340
454F
340
454E
340
453C
  0
GROUP
  5
456F
102
{ACAD_REACTORS
330
D
102
}
330
D
100
AcDbGroup
300

 70
     1
 71
     1
340
453B
340
453A
340
4539
340
4538
340
4537
340
4536
340
4535
340
4534
340
4533
  0
GROUP
  5
4A79
102
{ACAD_REACTORS
330
D
102
}
330
D
100
AcDbGroup
300

 70
     1
 71
     1
340
4A77
340
4A76
340
4A75
340
4A74
340
4A73
340
4A72
340
4A71
340
4A70
340
4A6F
340
4A6E
340
4A6D
340
4A6C
340
4A6B
340
4A6A
340
4A5C
340
4A5B
340
4A5A
340
4A59
340
4A58
340
4A57
340
4A56
  0
MATERIAL
  5
503D
102
{ACAD_REACTORS
330
2947
102
}
102
{ACAD_XDICTIONARY
360
5B1A
102
}
330
2947
100
AcDbMaterial
  1
BYBLOCK
  0
MATERIAL
  5
503C
102
{ACAD_REACTORS
330
2947
102
}
102
{ACAD_XDICTIONARY
360
5B18
102
}
330
2947
100
AcDbMaterial
  1
BYLAYER
  0
MATERIAL
  5
503E
102
{ACAD_REACTORS
330
2947
102
}
102
{ACAD_XDICTIONARY
360
5B1C
102
}
330
2947
100
AcDbMaterial
  1
GLOBAL
  0
ACAD_PROXY_OBJECT
  5
5042
102
{ACAD_REACTORS
330
5041
102
}
330
5041
100
AcDbProxyObject
 90
      499
 91
      507
 93
      610
310
40901902A4063FBFFFFFE0000000000000020400000000000020404214DD185B99185C990000000000000104090141901A00000000000004100000000000000041025764000000000000039000
340
14
340
0
340
10
340
0
 94
        0
1001
ACAD_MLEADERVER
1070
     2
  0
MLINESTYLE
  5
13
102
{ACAD_REACTORS
330
E
102
}
330
E
100
AcDbMlineStyle
  2
STANDARD
 70
     0
  3

 62
     0
 51
90.0
 52
90.0
 71
     2
 49
0.5
 62
   256
  6
BYLAYER
 49
-0.5
 62
   256
  6
BYLAYER
  0
ACAD_PROXY_OBJECT
  5
501B
102
{ACAD_REACTORS
330
501A
102
}
330
501A
100
AcDbProxyObject
 90
      499
 91
      504
 93
       41
310
903313A31580
  0
ACAD_PROXY_OBJECT
  5
501C
102
{ACAD_REACTORS
330
501A
102
}
330
501A
100
AcDbProxyObject
 90
      499
 91
      504
 93
      105
310
903313A324000000000000004000
  0
ACAD_PROXY_OBJECT
  5
501D
102
{ACAD_REACTORS
330
501A
102
}
330
501A
100
AcDbProxyObject
 90
      499
 91
      504
 93
      105
310
903313A344000000000000104000
  0
ACAD_PROXY_OBJECT
  5
501E
102
{ACAD_REACTORS
330
501A
102
}
330
501A
100
AcDbProxyObject
 90
      499
 91
      504
 93
      105
310
903313A354000000000000144000
  0
ACAD_PROXY_OBJECT
  5
501F
102
{ACAD_REACTORS
330
501A
102
}
330
501A
100
AcDbProxyObject
 90
      499
 91
      504
 93
      105
310
903313A384000000000000204000
  0
ACAD_PROXY_OBJECT
  5
5020
102
{ACAD_REACTORS
330
501A
102
}
330
501A
100
AcDbProxyObject
 90
      499
 91
      504
 93
      113
310
904313A31304000000000000244000
  0
ACAD_PROXY_OBJECT
  5
5021
102
{ACAD_REACTORS
330
501A
102
}
330
501A
100
AcDbProxyObject
 90
      499
 91
      504
 93
      113
310
904313A31364000000000000304000
  0
ACAD_PROXY_OBJECT
  5
5022
102
{ACAD_REACTORS
330
501A
102
}
330
501A
100
AcDbProxyObject
 90
      499
 91
      504
 93
      113
310
904313A32304000000000000344000
  0
ACAD_PROXY_OBJECT
  5
5023
102
{ACAD_REACTORS
330
501A
102
}
330
501A
100
AcDbProxyObject
 90
      499
 91
      504
 93
      113
310
904313A333040000000000003E4000
  0
ACAD_PROXY_OBJECT
  5
5024
102
{ACAD_REACTORS
330
501A
102
}
330
501A
100
AcDbProxyObject
 90
      499
 91
      504
 93
      113
310
904313A34304000000000000444000
  0
ACAD_PROXY_OBJECT
  5
5025
102
{ACAD_REACTORS
330
501A
102
}
330
501A
100
AcDbProxyObject
 90
      499
 91
      504
 93
      113
310
904313A35304000000000000494000
  0
ACAD_PROXY_OBJECT
  5
5026
102
{ACAD_REACTORS
330
501A
102
}
330
501A
100
AcDbProxyObject
 90
      499
 91
      504
 93
      121
310
905313A3130304000000000000594000
  0
ACAD_PROXY_OBJECT
  5
5027
102
{ACAD_REACTORS
330
501A
102
}
330
501A
100
AcDbProxyObject
 90
      499
 91
      504
 93
      105
310
903323A310000000000000010100
  0
ACAD_PROXY_OBJECT
  5
5028
102
{ACAD_REACTORS
330
501A
102
}
330
501A
100
AcDbProxyObject
 90
      499
 91
      504
 93
      105
310
903343A310000000000000410100
  0
ACAD_PROXY_OBJECT
  5
5029
102
{ACAD_REACTORS
330
501A
102
}
330
501A
100
AcDbProxyObject
 90
      499
 91
      504
 93
      105
310
903383A310000000000000810100
  0
ACAD_PROXY_OBJECT
  5
502A
102
{ACAD_REACTORS
330
501A
102
}
330
501A
100
AcDbProxyObject
 90
      499
 91
      504
 93
      113
310
90431303A310000000000000910100
  0
ACAD_PROXY_OBJECT
  5
502B
102
{ACAD_REACTORS
330
501A
102
}
330
501A
100
AcDbProxyObject
 90
      499
 91
      504
 93
      121
310
9053130303A310000000000001650100
  0
ACAD_PROXY_OBJECT
  5
502C
102
{ACAD_REACTORS
330
501A
102
}
330
501A
100
AcDbProxyObject
 90
      499
 91
      504
 93
      257
310
90E312F31323822203D2031272D3022000000000000200FC000000000000284000
  0
ACAD_PROXY_OBJECT
  5
502D
102
{ACAD_REACTORS
330
501A
102
}
330
501A
100
AcDbProxyObject
 90
      499
 91
      504
 93
      249
310
90D312F363422203D2031272D3022000000000000240FC000000000000284000
  0
ACAD_PROXY_OBJECT
  5
502E
102
{ACAD_REACTORS
330
501A
102
}
330
501A
100
AcDbProxyObject
 90
      499
 91
      504
 93
      249
310
90D312F333222203D2031272D3022000000000000280FC000000000000284000
  0
ACAD_PROXY_OBJECT
  5
502F
102
{ACAD_REACTORS
330
501A
102
}
330
501A
100
AcDbProxyObject
 90
      499
 91
      504
 93
      249
310
90D312F313622203D2031272D30220000000000002C0FC000000000000284000
  0
ACAD_PROXY_OBJECT
  5
5030
102
{ACAD_REACTORS
330
501A
102
}
330
501A
100
AcDbProxyObject
 90
      499
 91
      504
 93
      249
310
90D332F333222203D2031272D30220000000000002E0FC000000000000284000
  0
ACAD_PROXY_OBJECT
  5
5031
102
{ACAD_REACTORS
330
501A
102
}
330
501A
100
AcDbProxyObject
 90
      499
 91
      504
 93
      241
310
90C312F3822203D2031272D3022000000000000300FC000000000000284000
  0
ACAD_PROXY_OBJECT
  5
5032
102
{ACAD_REACTORS
330
501A
102
}
330
501A
100
AcDbProxyObject
 90
      499
 91
      504
 93
      249
310
90D332F313622203D2031272D3022000000000000320FC000000000000284000
  0
ACAD_PROXY_OBJECT
  5
5033
102
{ACAD_REACTORS
330
501A
102
}
330
501A
100
AcDbProxyObject
 90
      499
 91
      504
 93
      241
310
90C312F3422203D2031272D3022000000000000340FC000000000000284000
  0
ACAD_PROXY_OBJECT
  5
5034
102
{ACAD_REACTORS
330
501A
102
}
330
501A
100
AcDbProxyObject
 90
      499
 91
      504
 93
      241
310
90C332F3822203D2031272D3022000000000000360FC000000000000284000
  0
ACAD_PROXY_OBJECT
  5
5035
102
{ACAD_REACTORS
330
501A
102
}
330
501A
100
AcDbProxyObject
 90
      499
 91
      504
 93
      241
310
90C312F3222203D2031272D3022000000000000380FC000000000000284000
  0
ACAD_PROXY_OBJECT
  5
5036
102
{ACAD_REACTORS
330
501A
102
}
330
501A
100
AcDbProxyObject
 90
      499
 91
      504
 93
      241
310
90C332F3422203D2031272D30220000000000003A0FC000000000000284000
  0
ACAD_PROXY_OBJECT
  5
5037
102
{ACAD_REACTORS
330
501A
102
}
330
501A
100
AcDbProxyObject
 90
      499
 91
      504
 93
      161
310
90A3122203D2031272D30224000000000000284000
  0
ACAD_PROXY_OBJECT
  5
5038
102
{ACAD_REACTORS
330
501A
102
}
330
501A
100
AcDbProxyObject
 90
      499
 91
      504
 93
      257
310
90E312D312F3222203D2031272D30220000000000003E0FC000000000000284000
  0
ACAD_PROXY_OBJECT
  5
5039
102
{ACAD_REACTORS
330
501A
102
}
330
501A
100
AcDbProxyObject
 90
      499
 91
      504
 93
      225
310
90A3322203D2031272D302200000000000002100000000000000284000
  0
ACAD_PROXY_OBJECT
  5
503A
102
{ACAD_REACTORS
330
501A
102
}
330
501A
100
AcDbProxyObject
 90
      499
 91
      504
 93
      225
310
90A3622203D2031272D302200000000000006100000000000000284000
  0
ACAD_PROXY_OBJECT
  5
503B
102
{ACAD_REACTORS
330
501A
102
}
330
501A
100
AcDbProxyObject
 90
      499
 91
      504
 93
      249
310
90D31272D3022203D2031272D30220000000000000A100000000000000284000
  0
ACAD_PROXY_OBJECT
  5
5006
102
{ACAD_REACTORS
330
5001
102
}
330
5001
100
AcDbProxyObject
 90
      499
 91
      503
 93
      436
310
42CC9915DA5C99599C985B595049028333333333333E33F0000000000000F90107901411070040501600405405064090741402480A0340
1001
ACAD
1000
AcDbSavedByObjectVersion
1070
     0
  0
ACAD_PROXY_OBJECT
  5
5009
102
{ACAD_REACTORS
330
5001
102
}
330
5001
100
AcDbProxyObject
 90
      499
 91
      503
 93
      388
310
4150985CDA58D07406404333333333333E33F0000000000000F90107A41107004050150841D405064090741402480A0350
1001
ACAD
1000
AcDbSavedByObjectVersion
1070
     0
  0
ACAD_PROXY_OBJECT
  5
500D
102
{ACAD_REACTORS
330
5001
102
}
330
5001
100
AcDbProxyObject
 90
      499
 91
      503
 93
      428
310
42109C9A59DA1D195B90C409028333333333333E33F0000000000000F9010790141107004050150841D405064090741402480A029950
1001
ACAD
1000
AcDbSavedByObjectVersion
1070
     0
  0
ACAD_PROXY_OBJECT
  5
5011
102
{ACAD_REACTORS
330
5001
102
}
330
5001
100
AcDbProxyObject
 90
      499
 91
      503
 93
      452
310
42D0DBDB1BDC90DA185B99D95104090240C333333333333E33F0000000000000F90108901411070040501508421405064090741402480A0350
1001
ACAD
1000
AcDbSavedByObjectVersion
1070
     0
  0
ACAD_PROXY_OBJECT
  5
500B
102
{ACAD_REACTORS
330
5001
102
}
330
5001
100
AcDbProxyObject
 90
      499
 91
      503
 93
      500
310
4290DBDB98D95C1D1D585B10940D028333333333333E33F0000000000000F90107902409070040501000000000018199010841D405064090740C02480A0340
1001
ACAD
1000
AcDbSavedByObjectVersion
1070
     0
  0
ACAD_PROXY_OBJECT
  5
500C
102
{ACAD_REACTORS
330
5001
102
}
330
5001
100
AcDbProxyObject
 90
      499
 91
      503
 93
      412
310
40D11A5B50B409028333333333333E33F0000000000000F9010790141107004050150841D405064090741402480A02677FFFFFD0
1001
ACAD
1000
AcDbSavedByObjectVersion
1070
     0
  0
ACAD_PROXY_OBJECT
  5
5014
102
{ACAD_REACTORS
330
5001
102
}
330
5001
100
AcDbProxyObject
 90
      499
 91
      503
 93
      452
310
43115919D950DBDB1BDC93D999916409028333333333333E33F0000000000000F9010790141107004050150841D405064090741402480A0350
1001
ACAD
1000
AcDbSavedByObjectVersion
1070
     0
  0
ACAD_PROXY_OBJECT
  5
5010
102
{ACAD_REACTORS
330
5001
102
}
330
5001
100
AcDbProxyObject
 90
      499
 91
      503
 93
      444
310
42D19858D95C185D1D195C9B90F409028333333333333E33F0000000000000F9010790141107004050150841D405064090741402480A0350
1001
ACAD
1000
AcDbSavedByObjectVersion
1070
     0
  0
ACAD_PROXY_OBJECT
  5
5002
102
{ACAD_REACTORS
330
5001
102
}
330
5001
100
AcDbProxyObject
 90
      499
 91
      503
 93
      380
310
41119B185D240901404333333333333E33F0000000000000F9010740A907004050150841D405064090741402480A1B50
1001
ACAD
1000
AcDbSavedByObjectVersion
1070
     0
  0
ACAD_PROXY_OBJECT
  5
5003
102
{ACAD_REACTORS
330
5001
102
}
330
5001
100
AcDbProxyObject
 90
      499
 91
      503
 93
      468
310
43519B185D15DA5D1A115919D95CD0140901404333333333333E33F0000000000000F90107409019070040501600405405064090741402480A1B50
1001
ACAD
1000
AcDbSavedByObjectVersion
1070
     0
  0
ACAD_PROXY_OBJECT
  5
5004
102
{ACAD_REACTORS
330
5001
102
}
330
5001
100
AcDbProxyObject
 90
      499
 91
      503
 93
      404
310
41D1DBDD5C985D5910240902404333333333333E33F0000000000000F9010740A9070040501641D405064090741402480A1B50
1001
ACAD
1000
AcDbSavedByObjectVersion
1070
     0
  0
ACAD_PROXY_OBJECT
  5
5005
102
{ACAD_REACTORS
330
5001
102
}
330
5001
100
AcDbProxyObject
 90
      499
 91
      503
 93
      492
310
4411DBDD5C985D5915DA5D1A115919D95CD0340902404333333333333E33F0000000000000F90107409019070040501600405405064090741402480A1B50
1001
ACAD
1000
AcDbSavedByObjectVersion
1070
     0
  0
ACAD_PROXY_OBJECT
  5
5008
102
{ACAD_REACTORS
330
5001
102
}
330
5001
100
AcDbProxyObject
 90
      499
 91
      503
 93
      476
310
41921A5919195B90640502408333333333333E33F0000000000000F901079024090700405020000000000001110200405405064090740C02480A0340
1001
ACAD
1000
AcDbSavedByObjectVersion
1070
     0
  0
ACAD_PROXY_OBJECT
  5
5012
102
{ACAD_REACTORS
330
5001
102
}
330
5001
100
AcDbProxyObject
 90
      499
 91
      503
 93
      428
310
42529A5D1D195C93D999914409028333333333333E33F0000000000000F9010790141107004050150A41D405064090741402480A0350
1001
ACAD
1000
AcDbSavedByObjectVersion
1070
     0
  0
ACAD_PROXY_OBJECT
  5
500F
102
{ACAD_REACTORS
330
5001
102
}
330
5001
100
AcDbProxyObject
 90
      499
 91
      503
 93
      444
310
42D31A5B995C185D1D195C9B90E409028333333333333E33F0000000000000F9010790141107004050750841D405064090741402483A0350
1001
ACAD
1000
AcDbSavedByObjectVersion
1070
     0
  0
ACAD_PROXY_OBJECT
  5
5583
102
{ACAD_REACTORS
330
5001
102
}
330
5001
100
AcDbProxyObject
 90
      499
 91
      503
 93
      412
310
90A409038333333333333E33F0000000000000F901074090290700405010000000000201990108421405064090741402480A1B40
1001
ACAD
1000
AcDbSavedByObjectVersion
1070
     0
  0
ACAD_PROXY_OBJECT
  5
5013
102
{ACAD_REACTORS
330
5001
102
}
330
5001
100
AcDbProxyObject
 90
      499
 91
      503
 93
      444
310
42D3DD995C9A185B99D3D999915409028333333333333E33F0000000000000F9010790141107004050150941D405064090741402480A0350
1001
ACAD
1000
AcDbSavedByObjectVersion
1070
     0
  0
ACAD_PROXY_OBJECT
  5
500A
102
{ACAD_REACTORS
330
5001
102
}
330
5001
100
AcDbProxyObject
 90
      499
 91
      503
 93
      428
310
425499585B1A5CDD1A58D08409038333333333333E33F0000000000000F9010740A907004050150800405405064090740C02480A1B40
1001
ACAD
1000
AcDbSavedByObjectVersion
1070
     0
  0
ACAD_PROXY_OBJECT
  5
5019
102
{ACAD_REACTORS
330
5001
102
}
330
5001
100
AcDbProxyObject
 90
      499
 91
      503
 93
      420
310
4194DA1859195911B40902404333333333333E33F0000000000000F9010740A41107004050150800405405064090840C02480A0B40
1001
ACAD
1000
AcDbSavedByObjectVersion
1070
     0
  0
ACAD_PROXY_OBJECT
  5
5018
102
{ACAD_REACTORS
330
5001
102
}
330
5001
100
AcDbProxyObject
 90
      499
 91
      503
 93
      516
310
4454DA18591959081DDA5D1A08195919D95CD1A40902404333333333333E33F0000000000000F901074090142907004050250800405405064090740C02480A0B40
1001
ACAD
1000
AcDbSavedByObjectVersion
1070
     0
  0
ACAD_PROXY_OBJECT
  5
5015
102
{ACAD_REACTORS
330
5001
102
}
330
5001
100
AcDbProxyObject
 90
      499
 91
      503
 93
      532
310
4394DA1859195CC81BD98811DC985E5174090240C333333333333E33F0000000000000F901079024090741D01000000000000111010841D405064090740C02480A0340
1001
ACAD
1000
AcDbSavedByObjectVersion
1070
     0
  0
ACAD_PROXY_OBJECT
  5
5016
102
{ACAD_REACTORS
330
5001
102
}
330
5001
100
AcDbProxyObject
 90
      499
 91
      503
 93
      476
310
41D4DAD95D18DA1E51840502408333333333333E33F0000000000000F901079024090741D01000000000000111010B41D405064090741802480A0340
1001
ACAD
1000
AcDbSavedByObjectVersion
1070
     0
  0
ACAD_PROXY_OBJECT
  5
500E
102
{ACAD_REACTORS
330
5001
102
}
330
5001
100
AcDbProxyObject
 90
      499
 91
      503
 93
      412
310
41D51A1A58DAD95B90D409028333333333333E33F0000000000000F9010790141107004050150C41D405064090741402480A0350
1001
ACAD
1000
AcDbSavedByObjectVersion
1070
     0
  0
ACAD_PROXY_OBJECT
  5
5007
102
{ACAD_REACTORS
330
5001
102
}
330
5001
100
AcDbProxyObject
 90
      499
 91
      503
 93
      420
310
4255DA5C99599C985B595059028333333333333E33F0000000000000F90107901411070040501600405405064090740C02480A0340
1001
ACAD
1000
AcDbSavedByObjectVersion
1070
     0
  0
ACAD_PROXY_OBJECT
  5
5017
102
{ACAD_REACTORS
330
5001
102
}
330
5001
100
AcDbProxyObject
 90
      499
 91
      503
 93
      404
310
41560B54985E51940902404000000000000E03F0000000000000F9010740501907004050150841D405064090740C02480A1B40
1001
ACAD
1000
AcDbSavedByObjectVersion
1070
     0
  0
XRECORD
  5
5AFC
102
{ACAD_REACTORS
330
5AF2
102
}
330
5AF2
100
AcDbXrecord
340
0
  0
XRECORD
  5
5AFB
102
{ACAD_REACTORS
330
5AF2
102
}
330
5AF2
100
AcDbXrecord
 90
        0
  0
XRECORD
  5
5B13
102
{ACAD_REACTORS
330
5AF2
102
}
330
5AF2
100
AcDbXrecord
340
2948
  0
XRECORD
  5
5B12
102
{ACAD_REACTORS
330
5AF2
102
}
330
5AF2
100
AcDbXrecord
1000
DSTYLE
1002
{
1070
   171
 70
     2
1070
   143
 40
0.0394
1070
   274
 70
     2
1070
    41
 40
6.0
1070
   342
340
2AF4
1070
   271
 70
     1
1070
   278
 70
    46
1070
   341
340
2AF4
1070
   272
 70
     1
1070
    48
 40
0.1
1070
   283
 70
     1
1070
    47
 40
0.1
1070
   145
 40
1.0
1070
   340
340
10
1070
   140
 40
8.0
1070
   284
 70
     0
1002
}
  0
XRECORD
  5
5AFD
102
{ACAD_REACTORS
330
5AF2
102
}
330
5AF2
100
AcDbXrecord
  1
{23698909-1D67-4744-B0E2-8DE11E3ED422}
  0
XRECORD
  5
5AF5
102
{ACAD_REACTORS
330
5AF2
102
}
330
5AF2
100
AcDbXrecord
  1

  0
XRECORD
  5
5AFA
102
{ACAD_REACTORS
330
5AF2
102
}
330
5AF2
100
AcDbXrecord
 90
        0
  0
XRECORD
  5
5AF7
102
{ACAD_REACTORS
330
5AF2
102
}
330
5AF2
100
AcDbXrecord
340
2816
  0
XRECORD
  5
5AF9
102
{ACAD_REACTORS
330
5AF2
102
}
330
5AF2
100
AcDbXrecord
 90
    10781
  0
XRECORD
  5
5B14
102
{ACAD_REACTORS
330
5AF2
102
}
330
5AF2
100
AcDbXrecord
340
2947
  0
XRECORD
  5
5AF8
102
{ACAD_REACTORS
330
5AF2
102
}
330
5AF2
100
AcDbXrecord
340
2817
  0
XRECORD
  5
5AFF
102
{ACAD_REACTORS
330
5AF2
102
}
330
5AF2
100
AcDbXrecord
 40
0.25
  0
XRECORD
  5
5B02
102
{ACAD_REACTORS
330
5AF2
102
}
330
5AF2
100
AcDbXrecord
340
0
  0
XRECORD
  5
5B08
102
{ACAD_REACTORS
330
5AF2
102
}
330
5AF2
100
AcDbXrecord
 10
0.0
 20
0.0
 30
0.0
  0
XRECORD
  5
5B04
102
{ACAD_REACTORS
330
5AF2
102
}
330
5AF2
100
AcDbXrecord
 10
0.0
 20
0.0
 30
0.0
  0
XRECORD
  5
5B07
102
{ACAD_REACTORS
330
5AF2
102
}
330
5AF2
100
AcDbXrecord
 10
0.0
 20
0.0
 30
0.0
  0
XRECORD
  5
5B05
102
{ACAD_REACTORS
330
5AF2
102
}
330
5AF2
100
AcDbXrecord
 10
0.0
 20
0.0
 30
0.0
  0
XRECORD
  5
5B06
102
{ACAD_REACTORS
330
5AF2
102
}
330
5AF2
100
AcDbXrecord
 10
0.0
 20
0.0
 30
0.0
  0
XRECORD
  5
5B03
102
{ACAD_REACTORS
330
5AF2
102
}
330
5AF2
100
AcDbXrecord
 10
0.0
 20
0.0
 30
0.0
  0
XRECORD
  5
5B00
102
{ACAD_REACTORS
330
5AF2
102
}
330
5AF2
100
AcDbXrecord
340
0
  0
XRECORD
  5
5B01
102
{ACAD_REACTORS
330
5AF2
102
}
330
5AF2
100
AcDbXrecord
 70
     0
  0
XRECORD
  5
5AF6
102
{ACAD_REACTORS
330
5AF2
102
}
330
5AF2
100
AcDbXrecord
  1

  0
XRECORD
  5
5AF3
102
{ACAD_REACTORS
330
5AF2
102
}
330
5AF2
100
AcDbXrecord
 90
        1
  0
XRECORD
  5
5AF4
102
{ACAD_REACTORS
330
5AF2
102
}
330
5AF2
100
AcDbXrecord
 90
       70
  0
XRECORD
  5
5B0B
102
{ACAD_REACTORS
330
5AF2
102
}
330
5AF2
100
AcDbXrecord
340
0
  0
XRECORD
  5
5B11
102
{ACAD_REACTORS
330
5AF2
102
}
330
5AF2
100
AcDbXrecord
 10
0.0
 20
0.0
 30
0.0
  0
XRECORD
  5
5B0D
102
{ACAD_REACTORS
330
5AF2
102
}
330
5AF2
100
AcDbXrecord
 10
0.0
 20
0.0
 30
0.0
  0
XRECORD
  5
5B10
102
{ACAD_REACTORS
330
5AF2
102
}
330
5AF2
100
AcDbXrecord
 10
0.0
 20
0.0
 30
0.0
  0
XRECORD
  5
5B0E
102
{ACAD_REACTORS
330
5AF2
102
}
330
5AF2
100
AcDbXrecord
 10
0.0
 20
0.0
 30
0.0
  0
XRECORD
  5
5B0F
102
{ACAD_REACTORS
330
5AF2
102
}
330
5AF2
100
AcDbXrecord
 10
0.0
 20
0.0
 30
0.0
  0
XRECORD
  5
5B0C
102
{ACAD_REACTORS
330
5AF2
102
}
330
5AF2
100
AcDbXrecord
 10
0.0
 20
0.0
 30
0.0
  0
XRECORD
  5
5B09
102
{ACAD_REACTORS
330
5AF2
102
}
330
5AF2
100
AcDbXrecord
340
0
  0
XRECORD
  5
5B0A
102
{ACAD_REACTORS
330
5AF2
102
}
330
5AF2
100
AcDbXrecord
 70
     0
  0
XRECORD
  5
5AFE
102
{ACAD_REACTORS
330
5AF2
102
}
330
5AF2
100
AcDbXrecord
  1
{7EC3AD5B-7A7F-4CD8-B125-2260EC7356A0}
  0
DICTIONARYVAR
  5
5417
102
{ACAD_REACTORS
330
5416
102
}
330
5416
100
DictionaryVariables
280
     0
  1
1:1
  0
DICTIONARYVAR
  5
5419
102
{ACAD_REACTORS
330
5416
102
}
330
5416
100
DictionaryVariables
280
     0
  1
Standard
  0
DICTIONARYVAR
  5
5418
102
{ACAD_REACTORS
330
5416
102
}
330
5416
100
DictionaryVariables
280
     0
  1
Standard
  0
DICTIONARYVAR
  5
5AE5
102
{ACAD_REACTORS
330
5416
102
}
330
5416
100
DictionaryVariables
280
     0
  1
1
  0
DICTIONARYVAR
  5
5AE6
102
{ACAD_REACTORS
330
5416
102
}
330
5416
100
DictionaryVariables
280
     0
  1
0
  0
DICTIONARYVAR
  5
541A
102
{ACAD_REACTORS
330
5416
102
}
330
5416
100
DictionaryVariables
280
     0
  1
0
  0
DICTIONARYVAR
  5
541B
102
{ACAD_REACTORS
330
5416
102
}
330
5416
100
DictionaryVariables
280
     0
  1
0
  0
DICTIONARY
  5
5341
102
{ACAD_REACTORS
330
5340
102
}
330
5340
100
AcDbDictionary
  0
DICTIONARY
  5
5349
102
{ACAD_REACTORS
330
5348
102
}
330
5348
100
AcDbDictionary
  0
DICTIONARY
  5
5047
102
{ACAD_REACTORS
330
5046
102
}
330
5046
100
AcDbDictionary
  0
DICTIONARY
  5
55C3
102
{ACAD_REACTORS
330
55C2
102
}
330
55C2
100
AcDbDictionary
  0
DICTIONARY
  5
56B1
102
{ACAD_REACTORS
330
56B0
102
}
330
56B0
100
AcDbDictionary
  0
DICTIONARY
  5
5716
102
{ACAD_REACTORS
330
5715
102
}
330
5715
100
AcDbDictionary
  0
DICTIONARY
  5
59AF
102
{ACAD_REACTORS
330
59AE
102
}
330
59AE
100
AcDbDictionary
  0
DICTIONARY
  5
5B1A
330
503D
100
AcDbDictionary
280
     1
  3
ACAD_XREC_ROUNDTRIP
360
5B1B
  0
DICTIONARY
  5
5B18
330
503C
100
AcDbDictionary
280
     1
  3
ACAD_XREC_ROUNDTRIP
360
5B19
  0
DICTIONARY
  5
5B1C
330
503E
100
AcDbDictionary
280
     1
  3
ACAD_XREC_ROUNDTRIP
360
5B1D
  0
XRECORD
  5
5B1B
102
{ACAD_REACTORS
330
5B1A
102
}
330
5B1A
100
AcDbXrecord
102
MATERIAL
148
0.0
149
0.0
149
0.0
 93
        0
 94
      127
282
     0
 72
     1
 77
     1
171
     1
175
     1
179
     1
273
     0
  0
XRECORD
  5
5B19
102
{ACAD_REACTORS
330
5B18
102
}
330
5B18
100
AcDbXrecord
102
MATERIAL
148
0.0
149
0.0
149
0.0
 93
        0
 94
      127
282
     0
 72
     1
 77
     1
171
     1
175
     1
179
     1
273
     0
  0
XRECORD
  5
5B1D
102
{ACAD_REACTORS
330
5B1C
102
}
330
5B1C
100
AcDbXrecord
102
MATERIAL
148
0.0
149
0.0
149
0.0
 93
        0
 94
      127
282
     0
 72
     1
 77
     1
171
     1
175
     1
179
     1
273
     0
  0
ENDSEC
  0
EOF
