  0
SECTION
  2
HEADER
  9
$ACADVER
  1
AC1014
  9
$ACADMAINTVER
 70
     9
  9
$DWGCODEPAGE
  3
ANSI_932
  9
$INSBASE
 10
0.0
 20
0.0
 30
0.0
  9
$EXTMIN
 10
-108.632036792844
 20
93.935149165873
 30
0.0
  9
$EXTMAX
 10
639.808123740151
 20
514.223809919728
 30
0.0
  9
$LIMMIN
 10
-360.747566795242
 20
4.457354754526
  9
$LIMMAX
 10
-162.153696144267
 20
287.675440264018
  9
$ORTHOMODE
 70
     0
  9
$REGENMODE
 70
     1
  9
$FILLMODE
 70
     1
  9
$QTEXTMODE
 70
     0
  9
$MIRRTEXT
 70
     1
  9
$DRAGMODE
 70
     2
  9
$LTSCALE
 40
1.0
  9
$OSMODE
 70
   935
  9
$ATTMODE
 70
     1
  9
$TEXTSIZE
 40
4.0
  9
$TRACEWID
 40
1.0
  9
$TEXTSTYLE
  7
STANDARD
  9
$CLAYER
  8
下書線
  9
$CELTYPE
  6
BYLAYER
  9
$CECOLOR
 62
   256
  9
$CELTSCALE
 40
10.0
  9
$DELOBJ
 70
     1
  9
$DISPSILH
 70
     0
  9
$DIMSCALE
 40
1.0
  9
$DIMASZ
 40
6.0
  9
$DIMEXO
 40
0.625
  9
$DIMDLI
 40
3.75
  9
$DIMRND
 40
0.0
  9
$DIMDLE
 40
0.0
  9
$DIMEXE
 40
1.25
  9
$DIMTP
 40
0.1
  9
$DIMTM
 40
0.1
  9
$DIMTXT
 40
8.0
  9
$DIMCEN
 40
2.5
  9
$DIMTSZ
 40
0.0
  9
$DIMTOL
 70
     0
  9
$DIMLIM
 70
     0
  9
$DIMTIH
 70
     0
  9
$DIMTOH
 70
     0
  9
$DIMSE1
 70
     0
  9
$DIMSE2
 70
     0
  9
$DIMTAD
 70
     1
  9
$DIMZIN
 70
     8
  9
$DIMBLK
  1
OPEN30
  9
$DIMASO
 70
     1
  9
$DIMSHO
 70
     1
  9
$DIMPOST
  1

  9
$DIMAPOST
  1

  9
$DIMALT
 70
     0
  9
$DIMALTD
 70
     2
  9
$DIMALTF
 40
0.0394
  9
$DIMLFAC
 40
1.0
  9
$DIMTOFL
 70
     1
  9
$DIMTVP
 40
1.0
  9
$DIMTIX
 70
     0
  9
$DIMSOXD
 70
     0
  9
$DIMSAH
 70
     0
  9
$DIMBLK1
  1

  9
$DIMBLK2
  1

  9
$DIMSTYLE
  2
ISO-25
  9
$DIMCLRD
 70
     0
  9
$DIMCLRE
 70
     0
  9
$DIMCLRT
 70
     0
  9
$DIMTFAC
 40
1.0
  9
$DIMGAP
 40
0.625
  9
$DIMJUST
 70
     0
  9
$DIMSD1
 70
     0
  9
$DIMSD2
 70
     0
  9
$DIMTOLJ
 70
     1
  9
$DIMTZIN
 70
     0
  9
$DIMALTZ
 70
     0
  9
$DIMALTTZ
 70
     0
  9
$DIMFIT
 70
     3
  9
$DIMUPT
 70
     0
  9
$DIMUNIT
 70
     2
  9
$DIMDEC
 70
     1
  9
$DIMTDEC
 70
     1
  9
$DIMALTU
 70
     2
  9
$DIMALTTD
 70
     2
  9
$DIMTXSTY
  7
STANDARD
  9
$DIMAUNIT
 70
     0
  9
$LUNITS
 70
     2
  9
$LUPREC
 70
     4
  9
$SKETCHINC
 40
1.0
  9
$FILLETRAD
 40
1.0
  9
$AUNITS
 70
     0
  9
$AUPREC
 70
     0
  9
$MENU
  1
.
  9
$ELEVATION
 40
0.0
  9
$PELEVATION
 40
0.0
  9
$THICKNESS
 40
0.0
  9
$LIMCHECK
 70
     0
  9
$CHAMFERA
 40
0.5
  9
$CHAMFERB
 40
0.5
  9
$CHAMFERC
 40
20.0
  9
$CHAMFERD
 40
0.0
  9
$SKPOLY
 70
     0
  9
$TDCREATE
 40
2450576.597302431
  9
$TDUPDATE
 40
2457661.61497669
  9
$TDINDWG
 40
1.4964863542
  9
$TDUSRTIMER
 40
1.4964863542
  9
$USRTIMER
 70
     1
  9
$ANGBASE
 50
0.0
  9
$ANGDIR
 70
     0
  9
$PDMODE
 70
     0
  9
$PDSIZE
 40
0.0
  9
$PLINEWID
 40
0.0
  9
$COORDS
 70
     1
  9
$SPLFRAME
 70
     0
  9
$SPLINETYPE
 70
     6
  9
$SPLINESEGS
 70
     8
  9
$ATTDIA
 70
     0
  9
$ATTREQ
 70
     1
  9
$HANDLING
 70
     1
  9
$HANDSEED
  5
5554
  9
$SURFTAB1
 70
     6
  9
$SURFTAB2
 70
     6
  9
$SURFTYPE
 70
     6
  9
$SURFU
 70
     6
  9
$SURFV
 70
     6
  9
$UCSNAME
  2

  9
$UCSORG
 10
0.0
 20
0.0
 30
0.0
  9
$UCSXDIR
 10
1.0
 20
0.0
 30
0.0
  9
$UCSYDIR
 10
0.0
 20
1.0
 30
0.0
  9
$PUCSNAME
  2

  9
$PUCSORG
 10
0.0
 20
0.0
 30
0.0
  9
$PUCSXDIR
 10
1.0
 20
0.0
 30
0.0
  9
$PUCSYDIR
 10
0.0
 20
1.0
 30
0.0
  9
$USERI1
 70
     0
  9
$USERI2
 70
     0
  9
$USERI3
 70
     0
  9
$USERI4
 70
     0
  9
$USERI5
 70
     0
  9
$USERR1
 40
0.0
  9
$USERR2
 40
0.0
  9
$USERR3
 40
0.0
  9
$USERR4
 40
0.0
  9
$USERR5
 40
0.0
  9
$WORLDVIEW
 70
     1
  9
$SHADEDGE
 70
     3
  9
$SHADEDIF
 70
    70
  9
$TILEMODE
 70
     0
  9
$MAXACTVP
 70
    16
  9
$PINSBASE
 10
0.0
 20
0.0
 30
0.0
  9
$PLIMCHECK
 70
     0
  9
$PEXTMIN
 10
4.746305129083
 20
1.396645458131
 30
0.0
  9
$PEXTMAX
 10
400.746305129083
 20
278.596645458131
 30
0.0
  9
$PLIMMIN
 10
-7.007122192383
 20
-7.007118782997
  9
$PLIMMAX
 10
417.718108215332
 20
293.315290427208
  9
$UNITMODE
 70
     0
  9
$VISRETAIN
 70
     0
  9
$PLINEGEN
 70
     0
  9
$PSLTSCALE
 70
     1
  9
$TREEDEPTH
 70
  3020
  9
$PICKSTYLE
 70
     1
  9
$CMLSTYLE
  2
STANDARD
  9
$CMLJUST
 70
     0
  9
$CMLSCALE
 40
1.0
  9
$PROXYGRAPHICS
 70
     1
  9
$MEASUREMENT
 70
     1
  0
ENDSEC
  0
SECTION
  2
CLASSES
  0
CLASS
  1
ACDBDICTIONARYWDFLT
  2
AcDbDictionaryWithDefault
  3
ObjectDBX Classes
 90
        0
280
     0
281
     0
  0
CLASS
  1
ACDBPLACEHOLDER
  2
AcDbPlaceHolder
  3
ObjectDBX Classes
 90
        0
280
     0
281
     0
  0
CLASS
  1
LAYOUT
  2
AcDbLayout
  3
ObjectDBX Classes
 90
        0
280
     0
281
     0
  0
CLASS
  1
SCALE
  2
AcDbScale
  3
ObjectDBX Classes
 90
     1153
280
     0
281
     0
  0
CLASS
  1
MATERIAL
  2
AcDbMaterial
  3
ObjectDBX Classes
 90
     1153
280
     0
281
     0
  0
CLASS
  1
VISUALSTYLE
  2
AcDbVisualStyle
  3
ObjectDBX Classes
 90
     4095
280
     0
281
     0
  0
CLASS
  1
DICTIONARYVAR
  2
AcDbDictionaryVar
  3
ObjectDBX Classes
 90
        0
280
     0
281
     0
  0
CLASS
  1
TABLESTYLE
  2
AcDbTableStyle
  3
ObjectDBX Classes
 90
     4095
280
     0
281
     0
  0
CLASS
  1
MLEADERSTYLE
  2
AcDbMLeaderStyle
  3
ACDB_MLEADERSTYLE_CLASS
 90
     4095
280
     0
281
     0
  0
CLASS
  1
SUN
  2
AcDbSun
  3
SCENEOE
 90
     1153
280
     0
281
     0
  0
CLASS
  1
CELLSTYLEMAP
  2
AcDbCellStyleMap
  3
ObjectDBX Classes
 90
     1152
280
     0
281
     0
  0
CLASS
  1
SORTENTSTABLE
  2
AcDbSortentsTable
  3
ObjectDBX Classes
 90
        0
280
     0
281
     0
  0
CLASS
  1
XRECORD
  2
AcDbXrecord
  3
ObjectDBX Classes
 90
        0
280
     0
281
     0
  0
CLASS
  1
LWPOLYLINE
  2
AcDbPolyline
  3
ObjectDBX Classes
 90
        0
280
     0
281
     1
  0
CLASS
  1
HATCH
  2
AcDbHatch
  3
ObjectDBX Classes
 90
        0
280
     0
281
     1
  0
ENDSEC
  0
SECTION
  2
TABLES
  0
TABLE
  2
VPORT
  5
8
102
{ACAD_XDICTIONARY
360
554C
102
}
330
0
100
AcDbSymbolTable
 70
     1
  0
VPORT
  5
4855
330
8
100
AcDbSymbolTableRecord
100
AcDbViewportTableRecord
  2
*ACTIVE
 70
     0
 10
0.0
 20
0.0
 11
1.0
 21
1.0
 12
265.296376806987
 22
304.079479542801
 13
0.0
 23
0.0
 14
1.0
 24
1.0
 15
0.0
 25
0.0
 16
0.0
 26
0.0
 36
1.0
 17
0.0
 27
0.0
 37
0.0
 40
434.239453145292
 41
1.759407069555
 42
50.0
 43
0.0
 44
0.0
 50
0.0
 51
0.0
 71
    16
 72
   100
 73
     1
 74
     0
 75
     0
 76
     0
 77
     0
 78
     0
  0
ENDTAB
  0
TABLE
  2
LTYPE
  5
5
330
0
100
AcDbSymbolTable
 70
     6
  0
LTYPE
  5
14
330
5
100
AcDbSymbolTableRecord
100
AcDbLinetypeTableRecord
  2
BYBLOCK
 70
     0
  3

 72
    65
 73
     0
 40
0.0
  0
LTYPE
  5
15
330
5
100
AcDbSymbolTableRecord
100
AcDbLinetypeTableRecord
  2
BYLAYER
 70
     0
  3

 72
    65
 73
     0
 40
0.0
  0
LTYPE
  5
16
330
5
100
AcDbSymbolTableRecord
100
AcDbLinetypeTableRecord
  2
CONTINUOUS
 70
     0
  3
Solid line
 72
    65
 73
     0
 40
0.0
  0
LTYPE
  5
1EC
330
5
100
AcDbSymbolTableRecord
100
AcDbLinetypeTableRecord
  2
CENTER
 70
     0
  3
____ _ ____ _ ____ _ ____ _ ____ _ ____ _ ____ 
 72
    65
 73
     4
 40
2.0
 49
1.25
 74
     0
 49
-0.25
 74
     0
 49
0.25
 74
     0
 49
-0.25
 74
     0
  0
LTYPE
  5
1ED
330
5
100
AcDbSymbolTableRecord
100
AcDbLinetypeTableRecord
  2
DASHED
 70
     0
  3
__ __ __ __ __ __ __ __ __ __ __ __ __ __ __ __
 72
    65
 73
     2
 40
0.75
 49
0.5
 74
     0
 49
-0.25
 74
     0
  0
LTYPE
  5
2B1F
330
5
100
AcDbSymbolTableRecord
100
AcDbLinetypeTableRecord
  2
DASHDOT
 70
     0
  3
一点鎖線
 72
    65
 73
     4
 40
25.6
 49
20.0
 74
     0
 49
-2.0
 74
     0
 49
1.6
 74
     0
 49
-2.0
 74
     0
  0
LTYPE
  5
31A1
330
5
100
AcDbSymbolTableRecord
100
AcDbLinetypeTableRecord
  2
CENTER2
 70
     0
  3
Center (.5x) ___ _ ___ _ ___ _ ___ _ ___ _ ___
 72
    65
 73
     4
 40
28.575
 49
19.05
 74
     0
 49
-3.175
 74
     0
 49
3.175
 74
     0
 49
-3.175
 74
     0
  0
LTYPE
  5
4002
330
5
100
AcDbSymbolTableRecord
100
AcDbLinetypeTableRecord
  2
DASHED2
 70
     0
  3
Dashed (.5x) _ _ _ _ _ _ _ _ _ _ _ _ _ _ _ _ _
 72
    65
 73
     2
 40
9.525
 49
6.35
 74
     0
 49
-3.175
 74
     0
  0
ENDTAB
  0
TABLE
  2
LAYER
  5
2
102
{ACAD_XDICTIONARY
360
29EA
102
}
330
0
100
AcDbSymbolTable
 70
    12
  0
LAYER
  5
F
330
2
100
AcDbSymbolTableRecord
100
AcDbLayerTableRecord
  2
0
 70
     0
 62
     7
  6
CONTINUOUS
  0
LAYER
  5
61
330
2
100
AcDbSymbolTableRecord
100
AcDbLayerTableRecord
  2
図枠太線
 70
     0
 62
   251
  6
CONTINUOUS
  0
LAYER
  5
62
330
2
100
AcDbSymbolTableRecord
100
AcDbLayerTableRecord
  2
図枠細線
 70
     0
 62
   252
  6
CONTINUOUS
  0
LAYER
  5
63
330
2
100
AcDbSymbolTableRecord
100
AcDbLayerTableRecord
  2
図枠ロゴマーク
 70
     0
 62
   253
  6
CONTINUOUS
  0
LAYER
  5
1EF
330
2
100
AcDbSymbolTableRecord
100
AcDbLayerTableRecord
  2
外形線
 70
     0
 62
     7
  6
CONTINUOUS
  0
LAYER
  5
1F0
330
2
100
AcDbSymbolTableRecord
100
AcDbLayerTableRecord
  2
寸法線
 70
     0
 62
     1
  6
CONTINUOUS
  0
LAYER
  5
1F1
330
2
100
AcDbSymbolTableRecord
100
AcDbLayerTableRecord
  2
中心線
 70
     0
 62
     4
  6
CENTER
  0
LAYER
  5
1F4
330
2
100
AcDbSymbolTableRecord
100
AcDbLayerTableRecord
  2
DEFPOINTS
 70
     0
 62
     7
  6
CONTINUOUS
  0
LAYER
  5
2AA2
330
2
100
AcDbSymbolTableRecord
100
AcDbLayerTableRecord
  2
下書線
 70
     0
 62
     2
  6
CONTINUOUS
  0
LAYER
  5
2AA3
330
2
100
AcDbSymbolTableRecord
100
AcDbLayerTableRecord
  2
隠れ線
 70
     0
 62
     3
  6
DASHED
  0
LAYER
  5
2AA4
330
2
100
AcDbSymbolTableRecord
100
AcDbLayerTableRecord
  2
細線
 70
     0
 62
     6
  6
CONTINUOUS
  0
LAYER
  5
2AA5
330
2
100
AcDbSymbolTableRecord
100
AcDbLayerTableRecord
  2
太線
 70
     0
 62
   190
  6
CONTINUOUS
  0
ENDTAB
  0
TABLE
  2
STYLE
  5
3
330
0
100
AcDbSymbolTable
 70
     2
  0
STYLE
  5
10
330
3
100
AcDbSymbolTableRecord
100
AcDbTextStyleTableRecord
  2
STANDARD
 70
     0
 40
0.0
 41
1.0
 50
0.0
 71
     0
 42
4.0
  3
ISOCP
  4
bigfont.shx
  0
STYLE
  5
64
330
3
100
AcDbSymbolTableRecord
100
AcDbTextStyleTableRecord
  2
EXCADSTD
 70
     0
 40
0.0
 41
1.0
 50
0.0
 71
     0
 42
0.2
  3
monotxt
  4
bigfont
  0
ENDTAB
  0
TABLE
  2
VIEW
  5
6
330
0
100
AcDbSymbolTable
 70
     0
  0
ENDTAB
  0
TABLE
  2
UCS
  5
7
330
0
100
AcDbSymbolTable
 70
     0
  0
ENDTAB
  0
TABLE
  2
APPID
  5
9
330
0
100
AcDbSymbolTable
 70
     6
  0
APPID
  5
11
330
9
100
AcDbSymbolTableRecord
100
AcDbRegAppTableRecord
  2
ACAD
 70
     0
  0
APPID
  5
3507
330
9
100
AcDbSymbolTableRecord
100
AcDbRegAppTableRecord
  2
ACAD_DIMASSOC_CALC_DIMLFAC
 70
     0
  0
APPID
  5
3508
330
9
100
AcDbSymbolTableRecord
100
AcDbRegAppTableRecord
  2
ACAD_DIMASSOC_DIMLFAC
 70
     0
  0
APPID
  5
3509
330
9
100
AcDbSymbolTableRecord
100
AcDbRegAppTableRecord
  2
ACAD_DIMASSOC_OVERRIDDEN_D
 70
     0
  0
APPID
  5
4BD2
330
9
100
AcDbSymbolTableRecord
100
AcDbRegAppTableRecord
  2
ACAD_MLEADERVER
 70
     0
  0
APPID
  5
4BDA
330
9
100
AcDbSymbolTableRecord
100
AcDbRegAppTableRecord
  2
ACADANNOTATIVE
 70
     0
  0
ENDTAB
  0
TABLE
  2
DIMSTYLE
  5
A
330
0
100
AcDbSymbolTable
 70
     2
  0
DIMSTYLE
105
1D
330
A
100
AcDbSymbolTableRecord
100
AcDbDimStyleTableRecord
  2
STANDARD
 70
     0
  3

  4

  5

  6

  7

 40
1.0
 41
0.18
 42
0.0625
 43
0.38
 44
0.18
 45
0.0
 46
0.0
 47
0.0
 48
0.0
140
0.18
141
0.09
142
0.0
143
25.4
144
1.0
145
0.0
146
1.0
147
0.09
 71
     0
 72
     0
 73
     1
 74
     1
 75
     0
 76
     0
 77
     0
 78
     0
170
     0
171
     2
172
     0
173
     0
174
     0
175
     0
176
     0
177
     0
178
     0
270
     2
271
     4
272
     4
273
     2
274
     2
340
10
275
     0
280
     0
281
     0
282
     0
283
     1
284
     0
285
     0
286
     0
287
     3
288
     0
  0
DIMSTYLE
105
24
102
{ACAD_REACTORS
330
4A30
330
4A28
330
4CB6
330
4D01
330
4F4C
330
4F4D
330
4F4E
330
4F4F
330
4F50
330
4F51
330
4F52
330
4F53
330
4F54
102
}
330
A
100
AcDbSymbolTableRecord
100
AcDbDimStyleTableRecord
  2
ISO-25
 70
     0
  3

  4

  5

  6

  7

 40
1.0
 41
2.5
 42
0.625
 43
3.75
 44
1.25
 45
0.0
 46
0.0
 47
0.0
 48
0.0
140
2.5
141
2.5
142
0.0
143
0.0394
144
1.0
145
1.0
146
1.0
147
0.625
 71
     0
 72
     0
 73
     1
 74
     0
 75
     0
 76
     0
 77
     1
 78
     8
170
     0
171
     2
172
     1
173
     0
174
     0
175
     0
176
     0
177
     0
178
     0
270
     2
271
     4
272
     4
273
     2
274
     2
340
10
275
     0
280
     0
281
     0
282
     0
283
     1
284
     0
285
     0
286
     0
287
     3
288
     0
  0
ENDTAB
  0
TABLE
  2
BLOCK_RECORD
  5
1
330
0
100
AcDbSymbolTable
 70
    91
  0
BLOCK_RECORD
  5
1A
330
1
100
AcDbSymbolTableRecord
100
AcDbBlockTableRecord
  2
*MODEL_SPACE
  0
BLOCK_RECORD
  5
28FB
330
1
100
AcDbSymbolTableRecord
100
AcDbBlockTableRecord
  2
*PAPER_SPACE
  0
BLOCK_RECORD
  5
65
330
1
100
AcDbSymbolTableRecord
100
AcDbBlockTableRecord
  2
A$C3392
  0
BLOCK_RECORD
  5
29BF
330
1
100
AcDbSymbolTableRecord
100
AcDbBlockTableRecord
  2
A4横用_タイトル
1001
ACAD
1000
DesignCenter Data
1002
{
1070
     1
1070
     4
1002
}
  0
BLOCK_RECORD
  5
29F4
330
1
100
AcDbSymbolTableRecord
100
AcDbBlockTableRecord
  2
A4縦用_タイトル
1001
ACAD
1000
DesignCenter Data
1002
{
1070
     1
1070
     4
1002
}
  0
BLOCK_RECORD
  5
2A32
330
1
100
AcDbSymbolTableRecord
100
AcDbBlockTableRecord
  2
A3横用_タイトル
1001
ACAD
1000
DesignCenter Data
1002
{
1070
     1
1070
     4
1002
}
  0
BLOCK_RECORD
  5
2A6C
330
1
100
AcDbSymbolTableRecord
100
AcDbBlockTableRecord
  2
A3縦用_タイトル
1001
ACAD
1000
DesignCenter Data
1002
{
1070
     1
1070
     4
1002
}
  0
BLOCK_RECORD
  5
2AF4
330
1
100
AcDbSymbolTableRecord
100
AcDbBlockTableRecord
  2
_OPEN30
  0
BLOCK_RECORD
  5
4966
330
1
100
AcDbSymbolTableRecord
100
AcDbBlockTableRecord
  2
静電容量センサ
  0
BLOCK_RECORD
  5
4A56
330
1
100
AcDbSymbolTableRecord
100
AcDbBlockTableRecord
  2
*D36
  0
BLOCK_RECORD
  5
4AB5
330
1
100
AcDbSymbolTableRecord
100
AcDbBlockTableRecord
  2
*D44
  0
BLOCK_RECORD
  5
4CB7
330
1
100
AcDbSymbolTableRecord
100
AcDbBlockTableRecord
  2
*D51
  0
BLOCK_RECORD
  5
4D02
330
1
100
AcDbSymbolTableRecord
100
AcDbBlockTableRecord
  2
*D54
  0
BLOCK_RECORD
  5
4F6E
330
1
100
AcDbSymbolTableRecord
100
AcDbBlockTableRecord
  2
*D82
  0
BLOCK_RECORD
  5
4F79
330
1
100
AcDbSymbolTableRecord
100
AcDbBlockTableRecord
  2
*D83
  0
BLOCK_RECORD
  5
4F84
330
1
100
AcDbSymbolTableRecord
100
AcDbBlockTableRecord
  2
*D84
  0
BLOCK_RECORD
  5
4F8F
330
1
100
AcDbSymbolTableRecord
100
AcDbBlockTableRecord
  2
*D85
  0
BLOCK_RECORD
  5
4F9A
330
1
100
AcDbSymbolTableRecord
100
AcDbBlockTableRecord
  2
*D86
  0
BLOCK_RECORD
  5
4FA6
330
1
100
AcDbSymbolTableRecord
100
AcDbBlockTableRecord
  2
*D87
  0
BLOCK_RECORD
  5
4FB2
330
1
100
AcDbSymbolTableRecord
100
AcDbBlockTableRecord
  2
*D88
  0
BLOCK_RECORD
  5
4FBE
330
1
100
AcDbSymbolTableRecord
100
AcDbBlockTableRecord
  2
*D89
  0
BLOCK_RECORD
  5
4FCA
330
1
100
AcDbSymbolTableRecord
100
AcDbBlockTableRecord
  2
*D90
  0
ENDTAB
  0
ENDSEC
  0
SECTION
  2
BLOCKS
  0
BLOCK
  5
1B
330
1A
100
AcDbEntity
  8
0
100
AcDbBlockBegin
  2
*MODEL_SPACE
 70
     0
 10
0.0
 20
0.0
 30
0.0
  3
*MODEL_SPACE
  1

  0
ENDBLK
  5
1C
330
1A
100
AcDbEntity
  8
0
100
AcDbBlockEnd
  0
BLOCK
  5
28FD
330
28FB
100
AcDbEntity
 67
     1
  8
0
 48
10.0
100
AcDbBlockBegin
  2
*PAPER_SPACE
 70
     0
 10
0.0
 20
0.0
 30
0.0
  3
*PAPER_SPACE
  1

  0
ENDBLK
  5
28FE
330
28FB
100
AcDbEntity
 67
     1
  8
0
 48
10.0
100
AcDbBlockEnd
  0
BLOCK
  5
93
330
65
100
AcDbEntity
  8
0
100
AcDbBlockBegin
  2
A$C3392
 70
     0
 10
0.0
 20
0.0
 30
0.0
  3
A$C3392
  1

  0
LINE
  5
66
330
65
100
AcDbEntity
  8
図枠太線
  6
CONTINUOUS
100
AcDbLine
 10
211.858584505185
 20
30.927375675439
 30
0.0
 11
211.858584505185
 21
0.927375675439
 31
0.0
  0
LINE
  5
67
330
65
100
AcDbEntity
  8
図枠細線
  6
CONTINUOUS
100
AcDbLine
 10
231.858592505185
 20
15.927377675439
 30
0.0
 11
287.858592505185
 21
15.927375675439
 31
0.0
  0
LINE
  5
68
330
65
100
AcDbEntity
  8
図枠細線
  6
CONTINUOUS
100
AcDbLine
 10
211.858592505185
 20
15.927377675439
 30
0.0
 11
231.858592505185
 21
15.927377675439
 31
0.0
  0
LINE
  5
69
330
65
100
AcDbEntity
  8
図枠太線
  6
CONTINUOUS
 62
   251
100
AcDbLine
 10
1.858584505185
 20
0.927375675439
 30
0.0
 11
1.858584505185
 21
275.927375675439
 31
0.0
  0
TEXT
  5
6A
330
65
100
AcDbEntity
  8
図枠細線
  6
CONTINUOUS
 62
   252
100
AcDbText
 10
351.358592505185
 20
28.427377675439
 30
0.0
 40
2.0
  1
ＴＩＴＬＥ
 41
0.903614457831
  7
EXCADSTD
 72
     5
 11
361.358592505185
 21
28.427377675439
 31
0.0
100
AcDbText
  0
TEXT
  5
6B
330
65
100
AcDbEntity
  8
図枠細線
  6
CONTINUOUS
 62
   252
100
AcDbText
 10
345.358592505185
 20
28.427377675439
 30
0.0
 40
2.0
  1
名称
 41
1.171875
  7
EXCADSTD
 72
     5
 11
350.358592505185
 21
28.427377675439
 31
0.0
100
AcDbText
  0
TEXT
  5
6C
330
65
100
AcDbEntity
  8
図枠細線
  6
CONTINUOUS
 62
   252
100
AcDbText
 10
274.358592505185
 20
25.927377675439
 30
0.0
 40
2.0
  1
ＤＲＡＷＮ
 41
0.882352941176
  7
EXCADSTD
 72
     5
 11
284.358592505185
 21
25.927377675439
 31
0.0
100
AcDbText
  0
TEXT
  5
6D
330
65
100
AcDbEntity
  8
図枠細線
  6
CONTINUOUS
 62
   252
100
AcDbText
 10
260.358592505185
 20
25.927377675439
 30
0.0
 40
2.0
  1
ＤＥＳＩＧＮＥＤ
 41
0.713043472041
  7
EXCADSTD
 72
     5
 11
273.478592390744
 21
25.927377675439
 31
0.0
100
AcDbText
  0
TEXT
  5
6E
330
65
100
AcDbEntity
  8
図枠細線
  6
CONTINUOUS
 62
   252
100
AcDbText
 10
246.358592505185
 20
25.927377675439
 30
0.0
 40
2.0
  1
ＣＨＥＣＫＥＤ
 41
0.831249989569
  7
EXCADSTD
 72
     5
 11
259.658592338292
 21
25.927377675439
 31
0.0
100
AcDbText
  0
TEXT
  5
6F
330
65
100
AcDbEntity
  8
図枠細線
  6
CONTINUOUS
 62
   252
100
AcDbText
 10
274.358592505185
 20
28.427377675439
 30
0.0
 40
2.0
  1
製図
 41
1.209677419355
  7
EXCADSTD
 72
     5
 11
279.358592505185
 21
28.427377675439
 31
0.0
100
AcDbText
  0
TEXT
  5
70
330
65
100
AcDbEntity
  8
図枠細線
  6
CONTINUOUS
 62
   252
100
AcDbText
 10
260.358592505185
 20
28.427377675439
 30
0.0
 40
2.0
  1
設計
 41
1.171875
  7
EXCADSTD
 72
     5
 11
265.358592505185
 21
28.427377675439
 31
0.0
100
AcDbText
  0
TEXT
  5
71
330
65
100
AcDbEntity
  8
図枠細線
  6
CONTINUOUS
 62
   252
100
AcDbText
 10
246.358592505185
 20
28.427377675439
 30
0.0
 40
2.0
  1
検図
 41
1.209677419355
  7
EXCADSTD
 72
     5
 11
251.358592505185
 21
28.427377675439
 31
0.0
100
AcDbText
  0
TEXT
  5
72
330
65
100
AcDbEntity
  8
図枠細線
  6
CONTINUOUS
 62
   252
100
AcDbText
 10
232.358592505185
 20
25.927377675439
 30
0.0
 40
2.0
  1
ＡＰＰＲＯＶＥＤ
 41
0.695652184279
  7
EXCADSTD
 72
     5
 11
245.15859269592
 21
25.927377675439
 31
0.0
100
AcDbText
  0
TEXT
  5
73
330
65
100
AcDbEntity
  8
図枠細線
  6
CONTINUOUS
 62
   252
100
AcDbText
 10
232.358592505185
 20
28.427377675439
 30
0.0
 40
2.0
  1
承認
 41
1.171875
  7
EXCADSTD
 72
     5
 11
237.358592505185
 21
28.427377675439
 31
0.0
100
AcDbText
  0
TEXT
  5
74
330
65
100
AcDbEntity
  8
図枠細線
  6
CONTINUOUS
 62
   252
100
AcDbText
 10
290.069888505185
 20
2.574868675439
 30
0.0
 40
3.5
  1
ＴＯＷＡ　ＳＥＩＤＥＮ　ＩＮＤＵＳＴＲＩＡＬ　ＣＯ．，ＬＴＤ．
 41
0.414568012377
  7
EXCADSTD
 72
     5
 11
342.692388209546
 21
2.574868675439
 31
0.0
100
AcDbText
  0
TEXT
  5
75
330
65
100
AcDbEntity
  8
図枠ロゴマーク
  6
CONTINUOUS
 62
   253
100
AcDbText
 10
290.107348505185
 20
7.519769675439
 30
0.0
 40
7.0
  1
東和制電工業株式会社
 41
0.639204545455
  7
EXCADSTD
 72
     5
 11
342.607348505185
 21
7.519769675439
 31
0.0
100
AcDbText
  0
TEXT
  5
76
330
65
100
AcDbEntity
  8
図枠細線
  6
CONTINUOUS
 62
   252
100
AcDbText
 10
232.499705505185
 20
5.759088675439
 30
0.0
 40
2.0
  1
ＰＲＯＪＥＣＴＩＯＮ
 41
0.754285710199
  7
EXCADSTD
 72
     5
 11
250.099705409817
 21
5.759088675439
 31
0.0
100
AcDbText
  0
TEXT
  5
77
330
65
100
AcDbEntity
  8
図枠細線
  6
CONTINUOUS
 62
   252
100
AcDbText
 10
232.574629505185
 20
8.681077675439
 30
0.0
 40
2.0
  1
ＴＨＩＲＤ　ＡＮＧＬＥ
 41
0.691099486738
  7
EXCADSTD
 72
     5
 11
250.174629767445
 21
8.681077675439
 31
0.0
100
AcDbText
  0
TEXT
  5
78
330
65
100
AcDbEntity
  8
図枠細線
  6
CONTINUOUS
 62
   252
100
AcDbText
 10
256.823999505185
 20
13.427377675439
 30
0.0
 40
2.0
  1
ＳＣＡＬＥ
 41
0.903614457831
  7
EXCADSTD
 72
     5
 11
266.823999505185
 21
13.427377675439
 31
0.0
100
AcDbText
  0
TEXT
  5
79
330
65
100
AcDbEntity
  8
図枠細線
  6
CONTINUOUS
 62
   252
100
AcDbText
 10
274.858592505185
 20
13.427377675439
 30
0.0
 40
2.0
  1
ＤＡＴＥ
 41
0.923076923077
  7
EXCADSTD
 72
     5
 11
282.858592505185
 21
13.427377675439
 31
0.0
100
AcDbText
  0
TEXT
  5
7A
330
65
100
AcDbEntity
  8
図枠細線
  6
CONTINUOUS
 62
   252
100
AcDbText
 10
356.358592505185
 20
13.427377675439
 30
0.0
 40
2.0
  1
ＤＲＧ．ＮＯ．
 41
0.9375
  7
EXCADSTD
 72
     5
 11
370.358592505185
 21
13.427377675439
 31
0.0
100
AcDbText
  0
TEXT
  5
7B
330
65
100
AcDbEntity
  8
図枠細線
  6
CONTINUOUS
 62
   252
100
AcDbText
 10
345.358592505185
 20
13.427377675439
 30
0.0
 40
2.0
  1
図面番号
 41
1.102941176471
  7
EXCADSTD
 72
     5
 11
355.358592505185
 21
13.427377675439
 31
0.0
100
AcDbText
  0
TEXT
  5
7C
330
65
100
AcDbEntity
  8
図枠細線
  6
CONTINUOUS
 62
   252
100
AcDbText
 10
269.358592505185
 20
13.427377675439
 30
0.0
 40
2.0
  1
日付
 41
1.171875
  7
EXCADSTD
 72
     5
 11
274.358592505185
 21
13.427377675439
 31
0.0
100
AcDbText
  0
TEXT
  5
7D
330
65
100
AcDbEntity
  8
図枠細線
  6
CONTINUOUS
 62
   252
100
AcDbText
 10
251.451512505185
 20
13.427377675439
 30
0.0
 40
2.0
  1
尺度
 41
1.171875
  7
EXCADSTD
 72
     5
 11
256.451512505185
 21
13.427377675439
 31
0.0
100
AcDbText
  0
TEXT
  5
7E
330
65
100
AcDbEntity
  8
図枠細線
  6
CONTINUOUS
 62
   252
100
AcDbText
 10
232.358592505185
 20
13.427377675439
 30
0.0
 40
2.0
  1
第三角法
 41
1.102941176471
  7
EXCADSTD
 72
     5
 11
242.358592505185
 21
13.427377675439
 31
0.0
100
AcDbText
  0
TEXT
  5
7F
330
65
100
AcDbEntity
  8
図枠細線
  6
CONTINUOUS
 62
   252
100
AcDbText
 10
212.358592505185
 20
28.427377675439
 30
0.0
 40
2.0
  1
ＮＯＴＥ
 41
0.923076923077
  7
EXCADSTD
 72
     5
 11
220.358592505185
 21
28.427377675439
 31
0.0
100
AcDbText
  0
LINE
  5
80
330
65
100
AcDbEntity
  8
図枠細線
  6
CONTINUOUS
 62
   252
100
AcDbLine
 10
287.858592505185
 20
23.427375675439
 30
0.0
 11
344.858592505185
 21
23.427375675439
 31
0.0
  0
LINE
  5
81
330
65
100
AcDbEntity
  8
図枠太線
  6
CONTINUOUS
 62
   251
100
AcDbLine
 10
287.858584505185
 20
15.927375675439
 30
0.0
 11
344.858592505185
 21
15.927375675439
 31
0.0
  0
LINE
  5
82
330
65
100
AcDbEntity
  8
図枠細線
  6
CONTINUOUS
 62
   252
100
AcDbLine
 10
344.858592505185
 20
15.927375675439
 30
0.0
 11
401.858584505185
 21
15.927375675439
 31
0.0
  0
LINE
  5
83
330
65
100
AcDbEntity
  8
図枠太線
  6
CONTINUOUS
 62
   251
100
AcDbLine
 10
344.858592505185
 20
0.927377675439
 30
0.0
 11
344.858592505185
 21
30.927375675439
 31
0.0
  0
LINE
  5
84
330
65
100
AcDbEntity
  8
図枠太線
  6
CONTINUOUS
 62
   251
100
AcDbLine
 10
287.858592505185
 20
0.927377675439
 30
0.0
 11
287.858592505185
 21
30.927375675439
 31
0.0
  0
LINE
  5
85
330
65
100
AcDbEntity
  8
図枠細線
  6
CONTINUOUS
 62
   252
100
AcDbLine
 10
268.858592505185
 20
0.927377675439
 30
0.0
 11
268.858592505185
 21
15.927375675439
 31
0.0
  0
LINE
  5
86
330
65
100
AcDbEntity
  8
図枠細線
  6
CONTINUOUS
 62
   252
100
AcDbLine
 10
250.858592505185
 20
0.927377675439
 30
0.0
 11
250.858592505185
 21
15.927375675439
 31
0.0
  0
LINE
  5
87
330
65
100
AcDbEntity
  8
図枠細線
  6
CONTINUOUS
 62
   252
100
AcDbLine
 10
273.858592505185
 20
30.927375675439
 30
0.0
 11
273.858592505185
 21
15.927375675439
 31
0.0
  0
LINE
  5
88
330
65
100
AcDbEntity
  8
図枠細線
  6
CONTINUOUS
 62
   252
100
AcDbLine
 10
259.858592505185
 20
30.927375675439
 30
0.0
 11
259.858592505185
 21
15.927375675439
 31
0.0
  0
LINE
  5
89
330
65
100
AcDbEntity
  8
図枠細線
  6
CONTINUOUS
 62
   252
100
AcDbLine
 10
245.858592505185
 20
30.927375675439
 30
0.0
 11
245.858592505185
 21
15.927375675439
 31
0.0
  0
LINE
  5
8A
330
65
100
AcDbEntity
  8
図枠太線
  6
CONTINUOUS
 62
   251
100
AcDbLine
 10
231.858592505185
 20
0.927377675439
 30
0.0
 11
231.858592505185
 21
30.927375675439
 31
0.0
  0
LINE
  5
8B
330
65
100
AcDbEntity
  8
図枠細線
  6
CONTINUOUS
 62
   252
100
AcDbLine
 10
211.858592505185
 20
25.927375675439
 30
0.0
 11
231.858592505185
 21
25.927375675439
 31
0.0
  0
LINE
  5
8C
330
65
100
AcDbEntity
  8
図枠細線
  6
CONTINUOUS
 62
   252
100
AcDbLine
 10
211.858592505185
 20
20.927375675439
 30
0.0
 11
231.858592505185
 21
20.927375675439
 31
0.0
  0
LINE
  5
8D
330
65
100
AcDbEntity
  8
図枠細線
  6
CONTINUOUS
 62
   252
100
AcDbLine
 10
211.858592505185
 20
10.927375675439
 30
0.0
 11
231.858592505185
 21
10.927375675439
 31
0.0
  0
LINE
  5
8E
330
65
100
AcDbEntity
  8
図枠細線
  6
CONTINUOUS
 62
   252
100
AcDbLine
 10
211.858592505185
 20
5.927377675439
 30
0.0
 11
231.858592505185
 21
5.927377675439
 31
0.0
  0
LINE
  5
8F
330
65
100
AcDbEntity
  8
図枠太線
  6
CONTINUOUS
 62
   251
100
AcDbLine
 10
211.858592505185
 20
30.927375675439
 30
0.0
 11
401.858584505185
 21
30.927375675439
 31
0.0
  0
LINE
  5
90
330
65
100
AcDbEntity
  8
図枠太線
  6
CONTINUOUS
 62
   251
100
AcDbLine
 10
1.858584505185
 20
275.927375675439
 30
0.0
 11
401.858584505185
 21
275.927375675439
 31
0.0
  0
LINE
  5
91
330
65
100
AcDbEntity
  8
図枠太線
  6
CONTINUOUS
 62
   251
100
AcDbLine
 10
401.858584505185
 20
0.927375675439
 30
0.0
 11
401.858584505185
 21
275.927375675439
 31
0.0
  0
LINE
  5
92
330
65
100
AcDbEntity
  8
図枠太線
  6
CONTINUOUS
 62
   251
100
AcDbLine
 10
1.858584505185
 20
0.927375675439
 30
0.0
 11
401.858584505185
 21
0.927375675439
 31
0.0
  0
ENDBLK
  5
94
330
65
100
AcDbEntity
  8
0
100
AcDbBlockEnd
  0
BLOCK
  5
29C0
330
29BF
100
AcDbEntity
  8
0
100
AcDbBlockBegin
  2
A4横用_タイトル
 70
     0
 10
0.0
 20
0.0
 30
0.0
  3
A4横用_タイトル
  1

  0
LINE
  5
29C1
330
29BF
100
AcDbEntity
  8
図枠細線
  6
CONTINUOUS
100
AcDbLine
 10
75.061011071051
 20
16.806607253358
 30
0.0
 11
144.061011071051
 21
16.806604789072
 31
0.0
  0
LINE
  5
29C2
330
29BF
100
AcDbEntity
  8
図枠細線
  6
CONTINUOUS
 62
   252
100
AcDbLine
 10
4.061011071051
 20
11.806606253358
 30
0.0
 11
75.061011071051
 21
11.806606253358
 31
0.0
  0
LINE
  5
29C3
330
29BF
100
AcDbEntity
  8
図枠細線
  6
CONTINUOUS
 62
   252
100
AcDbLine
 10
4.061011071051
 20
21.806606253358
 30
0.0
 11
75.061011071051
 21
21.806606253358
 31
0.0
  0
LINE
  5
29C4
330
29BF
100
AcDbEntity
  8
図枠細線
  6
CONTINUOUS
 62
   252
100
AcDbLine
 10
4.061011071051
 20
26.806606253358
 30
0.0
 11
75.061011071051
 21
26.806606253358
 31
0.0
  0
LINE
  5
29C5
330
29BF
100
AcDbEntity
  8
図枠細線
  6
CONTINUOUS
100
AcDbLine
 10
4.061011071051
 20
16.806608253358
 30
0.0
 11
75.061011071051
 21
16.806608253358
 31
0.0
  0
TEXT
  5
29C6
330
29BF
100
AcDbEntity
  8
図枠細線
  6
CONTINUOUS
 62
   252
100
AcDbText
 10
76.405475827713
 20
9.560308253358
 30
0.0
 40
2.0
  1
ＴＨＩＲＤ　ＡＮＧＬＥ
 41
0.691099486738
  7
EXCADSTD
 72
     5
 11
94.005476089973
 21
9.560308253358
 31
0.0
100
AcDbText
  0
TEXT
  5
29C7
330
29BF
100
AcDbEntity
  8
図枠細線
  6
CONTINUOUS
 62
   252
100
AcDbText
 10
76.705775880921
 20
14.306608253358
 30
0.0
 40
2.0
  1
第三角法
 41
1.102941176471
  7
EXCADSTD
 72
     5
 11
86.705775880921
 21
14.306608253358
 31
0.0
100
AcDbText
  0
TEXT
  5
29C8
330
29BF
100
AcDbEntity
  8
図枠細線
  6
CONTINUOUS
 62
   252
100
AcDbText
 10
76.705775880921
 20
26.806608253358
 30
0.0
 40
2.0
  1
ＡＰＰＲＯＶＥＤ
 41
0.695652184279
  7
EXCADSTD
 72
     5
 11
89.505776071656
 21
26.806608253358
 31
0.0
100
AcDbText
  0
TEXT
  5
29C9
330
29BF
100
AcDbEntity
  8
図枠細線
  6
CONTINUOUS
 62
   252
100
AcDbText
 10
76.705775880921
 20
29.306608253358
 30
0.0
 40
2.0
  1
承認
 41
1.171875
  7
EXCADSTD
 72
     5
 11
81.705775880921
 21
29.306608253358
 31
0.0
100
AcDbText
  0
LINE
  5
29CA
330
29BF
100
AcDbEntity
  8
図枠細線
  6
CONTINUOUS
 62
   252
100
AcDbLine
 10
98.061011071051
 20
31.806606253358
 30
0.0
 11
98.061011071051
 21
16.806606253358
 31
0.0
  0
TEXT
  5
29CB
330
29BF
100
AcDbEntity
  8
図枠細線
  6
CONTINUOUS
 62
   252
100
AcDbText
 10
104.216531119804
 20
14.306608253358
 30
0.0
 40
2.0
  1
ＳＣＡＬＥ
 41
0.903614457831
  7
EXCADSTD
 72
     5
 11
114.216531119804
 21
14.306608253358
 31
0.0
100
AcDbText
  0
TEXT
  5
29CC
330
29BF
100
AcDbEntity
  8
図枠細線
  6
CONTINUOUS
 62
   252
100
AcDbText
 10
98.844044119804
 20
14.306608253358
 30
0.0
 40
2.0
  1
尺度
 41
1.171875
  7
EXCADSTD
 72
     5
 11
103.844044119804
 21
14.306608253358
 31
0.0
100
AcDbText
  0
TEXT
  5
29CD
330
29BF
100
AcDbEntity
  8
図枠細線
  6
CONTINUOUS
 62
   252
100
AcDbText
 10
98.968727707497
 20
26.806608253358
 30
0.0
 40
2.0
  1
ＣＨＥＣＫＥＤ
 41
0.831249989569
  7
EXCADSTD
 72
     5
 11
112.268727540604
 21
26.806608253358
 31
0.0
100
AcDbText
  0
TEXT
  5
29CE
330
29BF
100
AcDbEntity
  8
図枠細線
  6
CONTINUOUS
 62
   252
100
AcDbText
 10
98.968727707497
 20
29.306608253358
 30
0.0
 40
2.0
  1
検図
 41
1.209677419355
  7
EXCADSTD
 72
     5
 11
103.968727707497
 21
29.306608253358
 31
0.0
100
AcDbText
  0
LINE
  5
29CF
330
29BF
100
AcDbEntity
  8
図枠細線
  6
CONTINUOUS
 62
   252
100
AcDbLine
 10
121.061011071051
 20
31.806606253358
 30
0.0
 11
121.061011071051
 21
16.806606253358
 31
0.0
  0
TEXT
  5
29D0
330
29BF
100
AcDbEntity
  8
図枠細線
  6
CONTINUOUS
 62
   252
100
AcDbText
 10
128.001465247253
 20
14.306608253358
 30
0.0
 40
2.0
  1
ＤＡＴＥ
 41
0.923076923077
  7
EXCADSTD
 72
     5
 11
136.001465247253
 21
14.306608253358
 31
0.0
100
AcDbText
  0
TEXT
  5
29D1
330
29BF
100
AcDbEntity
  8
図枠細線
  6
CONTINUOUS
 62
   252
100
AcDbText
 10
122.066415498841
 20
14.306608253358
 30
0.0
 40
2.0
  1
日付
 41
1.171875
  7
EXCADSTD
 72
     5
 11
127.066415498841
 21
14.306608253358
 31
0.0
100
AcDbText
  0
TEXT
  5
29D2
330
29BF
100
AcDbEntity
  8
図枠細線
  6
CONTINUOUS
 62
   252
100
AcDbText
 10
121.59429406571
 20
29.306608253358
 30
0.0
 40
2.0
  1
製図
 41
1.209677419355
  7
EXCADSTD
 72
     5
 11
126.59429406571
 21
29.306608253358
 31
0.0
100
AcDbText
  0
TEXT
  5
29D3
330
29BF
100
AcDbEntity
  8
図枠細線
  6
CONTINUOUS
 62
   252
100
AcDbText
 10
121.59429406571
 20
26.806608253358
 30
0.0
 40
2.0
  1
ＤＲＡＷＮ
 41
0.882352941176
  7
EXCADSTD
 72
     5
 11
131.59429406571
 21
26.806608253358
 31
0.0
100
AcDbText
  0
TEXT
  5
29D4
330
29BF
100
AcDbEntity
  8
図枠細線
  6
CONTINUOUS
 62
   252
100
AcDbText
 10
226.591229661348
 20
14.306608253358
 30
0.0
 40
2.0
  1
ＤＲＧ．ＮＯ．
 41
0.9375
  7
EXCADSTD
 72
     5
 11
240.591229661348
 21
14.306608253358
 31
0.0
100
AcDbText
  0
LINE
  5
29D5
330
29BF
100
AcDbEntity
  8
図枠太線
  6
CONTINUOUS
 62
   251
100
AcDbLine
 10
144.061003071051
 20
16.806606253358
 30
0.0
 11
214.061011071051
 21
16.806606253358
 31
0.0
  0
LINE
  5
29D6
330
29BF
100
AcDbEntity
  8
図枠細線
  6
CONTINUOUS
 62
   252
100
AcDbLine
 10
144.061011071051
 20
24.306606253358
 30
0.0
 11
214.061011071051
 21
24.306606253358
 31
0.0
  0
TEXT
  5
29D7
330
29BF
100
AcDbEntity
  8
図枠ロゴマーク
  6
CONTINUOUS
 62
   253
100
AcDbText
 10
146.433776781596
 20
8.399000253358
 30
0.0
 40
7.0
  1
東和制電工業株式会社
 41
0.80361088462
  7
EXCADSTD
 72
     5
 11
212.437017438349
 21
8.399000253358
 31
0.0
100
AcDbText
  0
TEXT
  5
29D8
330
29BF
100
AcDbEntity
  8
図枠細線
  6
CONTINUOUS
 62
   252
100
AcDbText
 10
215.156179912936
 20
14.306608253358
 30
0.0
 40
2.0
  1
図面番号
 41
1.102941176471
  7
EXCADSTD
 72
     5
 11
225.156179912936
 21
14.306608253358
 31
0.0
100
AcDbText
  0
TEXT
  5
29D9
330
29BF
100
AcDbEntity
  8
図枠細線
  6
CONTINUOUS
 62
   252
100
AcDbText
 10
221.591229661348
 20
29.306608253358
 30
0.0
 40
2.0
  1
ＴＩＴＬＥ
 41
0.903614457831
  7
EXCADSTD
 72
     5
 11
231.591229661348
 21
29.306608253358
 31
0.0
100
AcDbText
  0
TEXT
  5
29DA
330
29BF
100
AcDbEntity
  8
図枠細線
  6
CONTINUOUS
 62
   252
100
AcDbText
 10
215.156179912936
 20
29.306608253358
 30
0.0
 40
2.0
  1
名称
 41
1.171875
  7
EXCADSTD
 72
     5
 11
220.156179912936
 21
29.306608253358
 31
0.0
100
AcDbText
  0
LINE
  5
29DB
330
29BF
100
AcDbEntity
  8
図枠太線
  6
CONTINUOUS
 62
   251
100
AcDbLine
 10
4.061011071051
 20
1.806608253358
 30
0.0
 11
284.061011071051
 21
1.806608253358
 31
0.0
  0
LINE
  5
29DC
330
29BF
100
AcDbEntity
  8
図枠細線
  6
CONTINUOUS
 62
   252
100
AcDbLine
 10
4.061011071051
 20
6.806608253358
 30
0.0
 11
75.061011071051
 21
6.806608253358
 31
0.0
  0
LINE
  5
29DD
330
29BF
100
AcDbEntity
  8
図枠太線
  6
CONTINUOUS
 62
   251
100
AcDbLine
 10
75.061011071051
 20
1.806608253358
 30
0.0
 11
75.061011071051
 21
31.806606253358
 31
0.0
  0
TEXT
  5
29DE
330
29BF
100
AcDbEntity
  8
図枠細線
  6
CONTINUOUS
 62
   252
100
AcDbText
 10
76.330551827713
 20
6.638319253358
 30
0.0
 40
2.0
  1
ＰＲＯＪＥＣＴＩＯＮ
 41
0.754285710199
  7
EXCADSTD
 72
     5
 11
93.930551732346
 21
6.638319253358
 31
0.0
100
AcDbText
  0
LINE
  5
29DF
330
29BF
100
AcDbEntity
  8
図枠細線
  6
CONTINUOUS
 62
   252
100
AcDbLine
 10
98.061011071051
 20
1.806606931929
 30
0.0
 11
98.061011071051
 21
16.806604931929
 31
0.0
  0
LINE
  5
29E0
330
29BF
100
AcDbEntity
  8
図枠細線
  6
CONTINUOUS
 62
   252
100
AcDbLine
 10
121.061011071051
 20
1.806607574787
 30
0.0
 11
121.061011071051
 21
16.806605574787
 31
0.0
  0
LINE
  5
29E1
330
29BF
100
AcDbEntity
  8
図枠太線
  6
CONTINUOUS
 62
   251
100
AcDbLine
 10
284.061011071051
 20
1.806608253358
 30
0.0
 11
284.061011071051
 21
31.806606253358
 31
0.0
  0
LINE
  5
29E2
330
29BF
100
AcDbEntity
  8
図枠細線
  6
CONTINUOUS
 62
   252
100
AcDbLine
 10
214.061011071051
 20
16.806606253358
 30
0.0
 11
284.061011071051
 21
16.806606253358
 31
0.0
  0
TEXT
  5
29E3
330
29BF
100
AcDbEntity
  8
図枠細線
  6
CONTINUOUS
 62
   252
100
AcDbText
 10
146.199593676182
 20
3.454099253358
 30
0.0
 40
3.5
  1
ＴＯＷＡ　ＳＥＩＤＥＮ　ＩＮＤＵＳＴＲＩＡＬ　ＣＯ．，ＬＴＤ．
 41
0.528937826907
  7
EXCADSTD
 72
     5
 11
213.339435171588
 21
3.454099253358
 31
0.0
100
AcDbText
  0
LINE
  5
29E4
330
29BF
100
AcDbEntity
  8
図枠太線
  6
CONTINUOUS
 62
   251
100
AcDbLine
 10
144.061011071051
 20
1.806608253358
 30
0.0
 11
144.061011071051
 21
31.806606253358
 31
0.0
  0
LINE
  5
29E5
330
29BF
100
AcDbEntity
  8
図枠太線
  6
CONTINUOUS
 62
   251
100
AcDbLine
 10
214.061011071051
 20
1.806608253358
 30
0.0
 11
214.061011071051
 21
31.806606253358
 31
0.0
  0
MTEXT
  5
29E6
330
29BF
100
AcDbEntity
  8
図枠太線
100
AcDbMText
 10
5.064337346478
 20
31.010982137407
 30
0.0
 40
2.5
 41
8.67856098472
 71
     1
 72
     5
  1
{\Fmonotxt.shx,bigfont.shx|c128;図暦}
  0
LINE
  5
29E7
330
29BF
100
AcDbEntity
  8
図枠太線
  6
CONTINUOUS
 62
   251
100
AcDbLine
 10
4.061011071051
 20
1.806608253358
 30
0.0
 11
4.061011071051
 21
31.806606253358
 31
0.0
  0
TEXT
  5
29E8
330
29BF
100
AcDbEntity
  8
図枠細線
 48
10.0
100
AcDbText
 10
12.260817420402
 20
28.625419626495
 30
0.0
 40
2.0
  1
CHANGE NOTICE
100
AcDbText
  0
ENDBLK
  5
29E9
330
29BF
100
AcDbEntity
  8
0
100
AcDbBlockEnd
  0
BLOCK
  5
29F5
330
29F4
100
AcDbEntity
  8
0
100
AcDbBlockBegin
  2
A4縦用_タイトル
 70
     0
 10
0.0
 20
0.0
 30
0.0
  3
A4縦用_タイトル
  1

  0
LINE
  5
29F6
330
29F4
100
AcDbEntity
  8
図枠太線
  6
CONTINUOUS
 62
   251
100
AcDbLine
 10
2.368253864267
 20
4.525433224584
 30
0.0
 11
192.368245864267
 21
4.525433224584
 31
0.0
  0
LINE
  5
29F7
330
29F4
100
AcDbEntity
  8
図枠太線
  6
CONTINUOUS
 62
   251
100
AcDbLine
 10
78.368245864267
 20
19.525431224584
 30
0.0
 11
135.368253864267
 21
19.525431224584
 31
0.0
  0
LINE
  5
29F8
330
29F4
100
AcDbEntity
  8
図枠細線
  6
CONTINUOUS
 62
   252
100
AcDbLine
 10
78.368253864267
 20
27.025431224584
 30
0.0
 11
135.368253864267
 21
27.025431224584
 31
0.0
  0
TEXT
  5
29F9
330
29F4
100
AcDbEntity
  8
図枠ロゴマーク
  6
CONTINUOUS
 62
   253
100
AcDbText
 10
80.617009864267
 20
11.117825224584
 30
0.0
 40
7.0
  1
東和制電工業株式会社
 41
0.639204545455
  7
EXCADSTD
 72
     5
 11
133.117009864267
 21
11.117825224584
 31
0.0
100
AcDbText
  0
TEXT
  5
29FA
330
29F4
100
AcDbEntity
  8
図枠細線
  6
CONTINUOUS
 62
   252
100
AcDbText
 10
80.579549864267
 20
6.172924224584
 30
0.0
 40
3.5
  1
ＴＯＷＡ　ＳＥＩＤＥＮ　ＩＮＤＵＳＴＲＩＡＬ　ＣＯ．，ＬＴＤ．
 41
0.414568012377
  7
EXCADSTD
 72
     5
 11
133.202049568628
 21
6.172924224584
 31
0.0
100
AcDbText
  0
LINE
  5
29FB
330
29F4
100
AcDbEntity
  8
図枠太線
  6
CONTINUOUS
 62
   251
100
AcDbLine
 10
2.368253864267
 20
4.525433224584
 30
0.0
 11
2.368253864267
 21
34.525431224584
 31
0.0
  0
TEXT
  5
29FC
330
29F4
100
AcDbEntity
  8
図枠細線
  6
CONTINUOUS
 62
   252
100
AcDbText
 10
22.504308136501
 20
12.279133224584
 30
0.0
 40
2.0
  1
ＴＨＩＲＤ　ＡＮＧＬＥ
 41
0.691099486738
  7
EXCADSTD
 72
     5
 11
40.104308398762
 21
12.279133224584
 31
0.0
100
AcDbText
  0
TEXT
  5
29FD
330
29F4
100
AcDbEntity
  8
図枠細線
  6
CONTINUOUS
 62
   252
100
AcDbText
 10
22.429384136501
 20
9.357144224584
 30
0.0
 40
2.0
  1
ＰＲＯＪＥＣＴＩＯＮ
 41
0.754285710199
  7
EXCADSTD
 72
     5
 11
40.029384041134
 21
9.357144224584
 31
0.0
100
AcDbText
  0
LINE
  5
29FE
330
29F4
100
AcDbEntity
  8
図枠細線
  6
CONTINUOUS
100
AcDbLine
 10
22.368253864267
 20
19.525433224584
 30
0.0
 11
78.368253864267
 21
19.525431224584
 31
0.0
  0
TEXT
  5
29FF
330
29F4
100
AcDbEntity
  8
図枠細線
  6
CONTINUOUS
 62
   252
100
AcDbText
 10
22.868253864267
 20
17.025433224584
 30
0.0
 40
2.0
  1
第三角法
 41
1.102941176471
  7
EXCADSTD
 72
     5
 11
32.868253864267
 21
17.025433224584
 31
0.0
100
AcDbText
  0
TEXT
  5
2A00
330
29F4
100
AcDbEntity
  8
図枠細線
  6
CONTINUOUS
 62
   252
100
AcDbText
 10
22.868253864267
 20
29.525433224584
 30
0.0
 40
2.0
  1
ＡＰＰＲＯＶＥＤ
 41
0.695652184279
  7
EXCADSTD
 72
     5
 11
35.668254055002
 21
29.525433224584
 31
0.0
100
AcDbText
  0
LINE
  5
2A01
330
29F4
100
AcDbEntity
  8
図枠細線
  6
CONTINUOUS
 62
   252
100
AcDbLine
 10
2.368253864267
 20
9.525433224584
 30
0.0
 11
22.368253864267
 21
9.525433224584
 31
0.0
  0
LINE
  5
2A02
330
29F4
100
AcDbEntity
  8
図枠細線
  6
CONTINUOUS
 62
   252
100
AcDbLine
 10
2.368253864267
 20
14.525431224584
 30
0.0
 11
22.368253864267
 21
14.525431224584
 31
0.0
  0
LINE
  5
2A03
330
29F4
100
AcDbEntity
  8
図枠細線
  6
CONTINUOUS
 62
   252
100
AcDbLine
 10
2.368253864267
 20
24.525431224584
 30
0.0
 11
22.368253864267
 21
24.525431224584
 31
0.0
  0
LINE
  5
2A04
330
29F4
100
AcDbEntity
  8
図枠細線
  6
CONTINUOUS
 62
   252
100
AcDbLine
 10
2.368253864267
 20
29.525431224584
 30
0.0
 11
22.368253864267
 21
29.525431224584
 31
0.0
  0
LINE
  5
2A05
330
29F4
100
AcDbEntity
  8
図枠細線
  6
CONTINUOUS
100
AcDbLine
 10
2.368253864267
 20
19.525433224584
 30
0.0
 11
22.368253864267
 21
19.525433224584
 31
0.0
  0
TEXT
  5
2A06
330
29F4
100
AcDbEntity
  8
図枠細線
  6
CONTINUOUS
 62
   252
100
AcDbText
 10
2.868253864267
 20
32.025433224584
 30
0.0
 40
2.0
  1
ＮＯＴＥ
 41
0.923076923077
  7
EXCADSTD
 72
     5
 11
10.868253864267
 21
32.025433224584
 31
0.0
100
AcDbText
  0
LINE
  5
2A07
330
29F4
100
AcDbEntity
  8
図枠太線
  6
CONTINUOUS
 62
   251
100
AcDbLine
 10
22.368253864267
 20
4.525433224584
 30
0.0
 11
22.368253864267
 21
34.525431224584
 31
0.0
  0
TEXT
  5
2A08
330
29F4
100
AcDbEntity
  8
図枠細線
  6
CONTINUOUS
 62
   252
100
AcDbText
 10
22.868253864267
 20
32.025433224584
 30
0.0
 40
2.0
  1
承認
 41
1.171875
  7
EXCADSTD
 72
     5
 11
27.868253864267
 21
32.025433224584
 31
0.0
100
AcDbText
  0
TEXT
  5
2A09
330
29F4
100
AcDbEntity
  8
図枠細線
  6
CONTINUOUS
 62
   252
100
AcDbText
 10
60.711709035982
 20
32.025433224584
 30
0.0
 40
2.0
  1
製図
 41
1.209677419355
  7
EXCADSTD
 72
     5
 11
65.711709035982
 21
32.025433224584
 31
0.0
100
AcDbText
  0
TEXT
  5
2A0A
330
29F4
100
AcDbEntity
  8
図枠細線
  6
CONTINUOUS
 62
   252
100
AcDbText
 10
60.711709035982
 20
29.525433224584
 30
0.0
 40
2.0
  1
ＤＲＡＷＮ
 41
0.882352941176
  7
EXCADSTD
 72
     5
 11
70.711709035982
 21
29.525433224584
 31
0.0
100
AcDbText
  0
TEXT
  5
2A0B
330
29F4
100
AcDbEntity
  8
図枠細線
  6
CONTINUOUS
 62
   252
100
AcDbText
 10
60.834891743877
 20
17.025433224584
 30
0.0
 40
2.0
  1
日付
 41
1.171875
  7
EXCADSTD
 72
     5
 11
65.834891743877
 21
17.025433224584
 31
0.0
100
AcDbText
  0
TEXT
  5
2A0C
330
29F4
100
AcDbEntity
  8
図枠細線
  6
CONTINUOUS
 62
   252
100
AcDbText
 10
47.333660864267
 20
17.025433224584
 30
0.0
 40
2.0
  1
ＳＣＡＬＥ
 41
0.903614457831
  7
EXCADSTD
 72
     5
 11
57.333660864267
 21
17.025433224584
 31
0.0
100
AcDbText
  0
TEXT
  5
2A0D
330
29F4
100
AcDbEntity
  8
図枠細線
  6
CONTINUOUS
 62
   252
100
AcDbText
 10
42.281425990082
 20
29.525433224584
 30
0.0
 40
2.0
  1
ＣＨＥＣＫＥＤ
 41
0.831249989569
  7
EXCADSTD
 72
     5
 11
55.581425823189
 21
29.525433224584
 31
0.0
100
AcDbText
  0
LINE
  5
2A0E
330
29F4
100
AcDbEntity
  8
図枠細線
  6
CONTINUOUS
 62
   252
100
AcDbLine
 10
40.968253864267
 20
34.525431224584
 30
0.0
 11
40.968253864267
 21
19.525431224584
 31
0.0
  0
LINE
  5
2A0F
330
29F4
100
AcDbEntity
  8
図枠細線
  6
CONTINUOUS
 62
   252
100
AcDbLine
 10
40.968253864267
 20
4.525433224584
 30
0.0
 11
40.968253864267
 21
19.525431224584
 31
0.0
  0
TEXT
  5
2A10
330
29F4
100
AcDbEntity
  8
図枠細線
  6
CONTINUOUS
 62
   252
100
AcDbText
 10
41.961173864267
 20
17.025433224584
 30
0.0
 40
2.0
  1
尺度
 41
1.171875
  7
EXCADSTD
 72
     5
 11
46.961173864267
 21
17.025433224584
 31
0.0
100
AcDbText
  0
TEXT
  5
2A11
330
29F4
100
AcDbEntity
  8
図枠細線
  6
CONTINUOUS
 62
   252
100
AcDbText
 10
42.281425990082
 20
32.025433224584
 30
0.0
 40
2.0
  1
検図
 41
1.209677419355
  7
EXCADSTD
 72
     5
 11
47.281425990082
 21
32.025433224584
 31
0.0
100
AcDbText
  0
LINE
  5
2A12
330
29F4
100
AcDbEntity
  8
図枠細線
  6
CONTINUOUS
 62
   252
100
AcDbLine
 10
59.768253864267
 20
34.525431224584
 30
0.0
 11
59.768253864267
 21
19.525431224584
 31
0.0
  0
LINE
  5
2A13
330
29F4
100
AcDbEntity
  8
図枠細線
  6
CONTINUOUS
 62
   252
100
AcDbLine
 10
59.768253864267
 20
4.525433224584
 30
0.0
 11
59.768253864267
 21
19.525431224584
 31
0.0
  0
LINE
  5
2A14
330
29F4
100
AcDbEntity
  8
図枠太線
  6
CONTINUOUS
 62
   251
100
AcDbLine
 10
78.368253864267
 20
4.525433224584
 30
0.0
 11
78.368253864267
 21
34.525431224584
 31
0.0
  0
TEXT
  5
2A15
330
29F4
100
AcDbEntity
  8
図枠細線
  6
CONTINUOUS
 62
   252
100
AcDbText
 10
66.334891743877
 20
17.025433224584
 30
0.0
 40
2.0
  1
ＤＡＴＥ
 41
0.923076923077
  7
EXCADSTD
 72
     5
 11
74.334891743877
 21
17.025433224584
 31
0.0
100
AcDbText
  0
LINE
  5
2A16
330
29F4
100
AcDbEntity
  8
図枠細線
  6
CONTINUOUS
 62
   252
100
AcDbLine
 10
135.368253864267
 20
19.525431224584
 30
0.0
 11
192.368245864267
 21
19.525431224584
 31
0.0
  0
TEXT
  5
2A17
330
29F4
100
AcDbEntity
  8
図枠細線
  6
CONTINUOUS
 62
   252
100
AcDbText
 10
141.868253864267
 20
32.025433224584
 30
0.0
 40
2.0
  1
ＴＩＴＬＥ
 41
0.903614457831
  7
EXCADSTD
 72
     5
 11
151.868253864267
 21
32.025433224584
 31
0.0
100
AcDbText
  0
LINE
  5
2A18
330
29F4
100
AcDbEntity
  8
図枠太線
  6
CONTINUOUS
 62
   251
100
AcDbLine
 10
135.368253864267
 20
4.525433224584
 30
0.0
 11
135.368253864267
 21
34.525431224584
 31
0.0
  0
TEXT
  5
2A19
330
29F4
100
AcDbEntity
  8
図枠細線
  6
CONTINUOUS
 62
   252
100
AcDbText
 10
135.868253864267
 20
17.025433224584
 30
0.0
 40
2.0
  1
図面番号
 41
1.102941176471
  7
EXCADSTD
 72
     5
 11
145.868253864267
 21
17.025433224584
 31
0.0
100
AcDbText
  0
TEXT
  5
2A1A
330
29F4
100
AcDbEntity
  8
図枠細線
  6
CONTINUOUS
 62
   252
100
AcDbText
 10
135.868253864267
 20
32.025433224584
 30
0.0
 40
2.0
  1
名称
 41
1.171875
  7
EXCADSTD
 72
     5
 11
140.868253864267
 21
32.025433224584
 31
0.0
100
AcDbText
  0
TEXT
  5
2A1B
330
29F4
100
AcDbEntity
  8
図枠細線
  6
CONTINUOUS
 62
   252
100
AcDbText
 10
146.868253864267
 20
17.025433224584
 30
0.0
 40
2.0
  1
ＤＲＧ．ＮＯ．
 41
0.9375
  7
EXCADSTD
 72
     5
 11
160.868253864267
 21
17.025433224584
 31
0.0
100
AcDbText
  0
LINE
  5
2A1C
330
29F4
100
AcDbEntity
  8
図枠太線
  6
CONTINUOUS
 62
   251
100
AcDbLine
 10
192.368245864267
 20
4.525433224584
 30
0.0
 11
192.368245864267
 21
34.525431224584
 31
0.0
  0
ENDBLK
  5
2A1D
330
29F4
100
AcDbEntity
  8
0
100
AcDbBlockEnd
  0
BLOCK
  5
2A33
330
2A32
100
AcDbEntity
  8
0
100
AcDbBlockBegin
  2
A3横用_タイトル
 70
     0
 10
0.0
 20
0.0
 30
0.0
  3
A3横用_タイトル
  1

  0
LINE
  5
2A34
330
2A32
100
AcDbEntity
  8
図枠細線
  6
CONTINUOUS
 62
   252
100
AcDbLine
 10
205.098414535793
 20
33.525959753527
 30
0.0
 11
305.098414535793
 21
33.525959753527
 31
0.0
  0
LINE
  5
2A35
330
2A32
100
AcDbEntity
  8
図枠太線
  6
CONTINUOUS
 62
   251
100
AcDbLine
 10
205.098414535793
 20
23.525959753527
 30
0.0
 11
305.098414535793
 21
23.525959753527
 31
0.0
  0
LINE
  5
2A36
330
2A32
100
AcDbEntity
  8
図枠細線
  6
CONTINUOUS
100
AcDbLine
 10
5.098414535793
 20
23.525959753527
 30
0.0
 11
105.098414535793
 21
23.525959753527
 31
0.0
  0
LINE
  5
2A37
330
2A32
100
AcDbEntity
  8
図枠細線
  6
CONTINUOUS
 62
   252
100
AcDbLine
 10
5.098414535793
 20
36.725957753527
 30
0.0
 11
105.098414535793
 21
36.725957753527
 31
0.0
  0
LINE
  5
2A38
330
2A32
100
AcDbEntity
  8
図枠細線
  6
CONTINUOUS
 62
   252
100
AcDbLine
 10
5.098414535793
 20
30.125957753527
 30
0.0
 11
105.098414535793
 21
30.125957753527
 31
0.0
  0
LINE
  5
2A39
330
2A32
100
AcDbEntity
  8
図枠細線
  6
CONTINUOUS
 62
   252
100
AcDbLine
 10
5.098414535793
 20
16.725959753527
 30
0.0
 11
105.098414535793
 21
16.725959753527
 31
0.0
  0
LINE
  5
2A3A
330
2A32
100
AcDbEntity
  8
図枠細線
  6
CONTINUOUS
 62
   252
100
AcDbLine
 10
5.098414535793
 20
10.125959753527
 30
0.0
 11
105.098414535793
 21
10.125959753527
 31
0.0
  0
LINE
  5
2A3B
330
2A32
100
AcDbEntity
  8
図枠細線
  6
CONTINUOUS
100
AcDbLine
 10
105.098414535793
 20
23.525961753527
 30
0.0
 11
205.098414535793
 21
23.525959753527
 31
0.0
  0
LINE
  5
2A3C
330
2A32
100
AcDbEntity
  8
図枠細線
  6
CONTINUOUS
 62
   252
100
AcDbLine
 10
138.398414535793
 20
43.525959753527
 30
0.0
 11
138.398414535793
 21
18.525957753527
 31
0.0
  0
LINE
  5
2A3D
330
2A32
100
AcDbEntity
  8
図枠細線
  6
CONTINUOUS
 62
   252
100
AcDbLine
 10
171.698414535793
 20
43.525959753527
 30
0.0
 11
171.698414535793
 21
18.525957753527
 31
0.0
  0
LINE
  5
2A3E
330
2A32
100
AcDbEntity
  8
図枠細線
  6
CONTINUOUS
 62
   252
100
AcDbLine
 10
305.098414535793
 20
23.525959753527
 30
0.0
 11
405.098414535793
 21
23.525959753527
 31
0.0
  0
TEXT
  5
2A3F
330
2A32
100
AcDbEntity
  8
図枠ロゴマーク
  6
CONTINUOUS
 62
   253
100
AcDbText
 10
206.102509212755
 20
13.294257570546
 30
0.0
 40
7.0
  1
東和制電工業株式会社
 50
0.016555220185
 41
1.186384129432
  7
EXCADSTD
 72
     5
 11
303.544188309143
 21
13.322412672217
 31
0.0
100
AcDbText
  0
MTEXT
  5
2A40
330
2A32
100
AcDbEntity
  8
図枠細線
100
AcDbMText
 10
6.356764112375
 20
41.976594175478
 30
0.0
 40
2.5
 41
49.938282706292
 71
     1
 72
     5
  1
{\Fmonotxt.shx,bigfont.shx|c128;図暦　CHANGE　NOTICE}
  0
MTEXT
  5
2A41
330
2A32
100
AcDbEntity
  8
図枠細線
 48
10.0
100
AcDbMText
 10
306.544114926828
 20
41.701835800934
 30
0.0
 40
2.5
 41
28.002809618823
 71
     1
 72
     5
  1
{\Fmonotxt.shx,bigfont.shx|c128;名称　TITLE}
  0
MTEXT
  5
2A42
330
2A32
100
AcDbEntity
  8
図枠細線
 48
10.0
100
AcDbMText
 10
307.329617114284
 20
21.606206797226
 30
0.0
 40
2.5
 41
24.385612216707
 71
     1
 72
     5
  1
{\Fmonotxt.shx,bigfont.shx|c128;図面番号\PDRG.　No.}
  0
MTEXT
  5
2A43
330
2A32
100
AcDbEntity
  8
図枠細線
 48
10.0
100
AcDbMText
 10
173.726349404609
 20
21.73680662198
 30
0.0
 40
2.5
 41
25.735090160813
 71
     1
 72
     5
  1
{\Fmonotxt.shx,bigfont.shx|c128;日付 DATE}
  0
MTEXT
  5
2A44
330
2A32
100
AcDbEntity
  8
図枠細線
 48
10.0
100
AcDbMText
 10
173.48708833982
 20
41.621592044998
 30
0.0
 40
2.5
 41
24.983741184205
 71
     1
 72
     5
  1
{\Fmonotxt.shx,bigfont.shx|c128;製図　DRAWN}
  0
MTEXT
  5
2A45
330
2A32
100
AcDbEntity
  8
図枠細線
 48
10.0
100
AcDbMText
 10
139.28009927741
 20
21.866713069868
 30
0.0
 40
2.5
 41
22.629632913243
 71
     1
 72
     5
  1
{\Fmonotxt.shx,bigfont.shx|c128;尺度　SCALE}
  0
MTEXT
  5
2A46
330
2A32
100
AcDbEntity
  8
図枠細線
 48
10.0
100
AcDbMText
 10
139.910091179835
 20
41.311840415554
 30
0.0
 40
2.5
 41
28.998753428368
 71
     1
 72
     5
  1
{\Fmonotxt.shx,bigfont.shx|c128;検図  CHECKED}
  0
MTEXT
  5
2A47
330
2A32
100
AcDbEntity
  8
図枠細線
 48
10.0
100
AcDbMText
 10
114.253294667728
 20
21.916124850174
 30
0.0
 40
3.0
 41
19.692400475383
 71
     1
 72
     5
  1
{\Fmonotxt.shx,bigfont.shx|c128;第三角法}
  0
MTEXT
  5
2A48
330
2A32
100
AcDbEntity
  8
図枠細線
 48
10.0
100
AcDbMText
 10
108.986959929915
 20
15.282880185837
 30
0.0
 40
2.5
 41
27.954882823547
 71
     1
 72
     5
  1
{\Fmonotxt.shx,bigfont.shx|c128;THIRD ANGLE\PPROJECTION}
  0
MTEXT
  5
2A49
330
2A32
100
AcDbEntity
  8
図枠細線
 48
10.0
100
AcDbMText
 10
106.319432640184
 20
41.511437145487
 30
0.0
 40
2.5
 41
28.233595265074
 71
     1
 72
     5
  1
{\Fmonotxt.shx,bigfont.shx|c128;承認 APPROVED}
  0
LINE
  5
2A4A
330
2A32
100
AcDbEntity
  8
図枠太線
  6
CONTINUOUS
 62
   251
100
AcDbLine
 10
5.098414535793
 20
3.525959753527
 30
0.0
 11
405.098414535793
 21
3.525959753527
 31
0.0
  0
LINE
  5
2A4B
330
2A32
100
AcDbEntity
  8
図枠太線
 48
10.0
100
AcDbLine
 10
5.098414535793
 20
3.525959753527
 30
0.0
 11
5.098414535793
 21
43.525959753527
 31
0.0
  0
LINE
  5
2A4C
330
2A32
100
AcDbEntity
  8
図枠太線
  6
CONTINUOUS
 62
   251
100
AcDbLine
 10
105.098414535793
 20
3.525959753527
 30
0.0
 11
105.098414535793
 21
43.525959753527
 31
0.0
  0
LINE
  5
2A4D
330
2A32
100
AcDbEntity
  8
図枠細線
  6
CONTINUOUS
 62
   252
100
AcDbLine
 10
138.398414535793
 20
3.525959753527
 30
0.0
 11
138.398414535793
 21
18.525957753527
 31
0.0
  0
LINE
  5
2A4E
330
2A32
100
AcDbEntity
  8
図枠細線
  6
CONTINUOUS
 62
   252
100
AcDbLine
 10
171.698414535793
 20
3.525959753527
 30
0.0
 11
171.698414535793
 21
18.525957753527
 31
0.0
  0
LINE
  5
2A4F
330
2A32
100
AcDbEntity
  8
図枠太線
  6
CONTINUOUS
 62
   251
100
AcDbLine
 10
205.098414535793
 20
3.525959753527
 30
0.0
 11
205.098414535793
 21
43.525959753527
 31
0.0
  0
LINE
  5
2A50
330
2A32
100
AcDbEntity
  8
図枠太線
 48
10.0
100
AcDbLine
 10
405.098414535793
 20
43.525959753527
 30
0.0
 11
405.098414535793
 21
3.525959753527
 31
0.0
  0
TEXT
  5
2A51
330
2A32
100
AcDbEntity
  8
図枠細線
  6
CONTINUOUS
 62
   252
100
AcDbText
 10
208.519754474572
 20
6.482358407285
 30
0.0
 40
3.5
  1
ＴＯＷＡ　ＳＥＩＤＥＮ　ＩＮＤＵＳＴＲＩＡＬ　ＣＯ．，ＬＴＤ．
 41
0.746656297509
  7
EXCADSTD
 72
     5
 11
303.295327171727
 21
6.482358407285
 31
0.0
100
AcDbText
  0
LINE
  5
2A52
330
2A32
100
AcDbEntity
  8
図枠太線
  6
CONTINUOUS
 62
   251
100
AcDbLine
 10
305.098414535793
 20
3.525959753527
 30
0.0
 11
305.098414535793
 21
43.525959753527
 31
0.0
  0
ENDBLK
  5
2A53
330
2A32
100
AcDbEntity
  8
0
100
AcDbBlockEnd
  0
BLOCK
  5
2A6D
330
2A6C
100
AcDbEntity
  8
0
100
AcDbBlockBegin
  2
A3縦用_タイトル
 70
     0
 10
0.0
 20
0.0
 30
0.0
  3
A3縦用_タイトル
  1

  0
MTEXT
  5
2A6E
330
2A6C
100
AcDbEntity
  8
図枠細線
100
AcDbMText
 10
5.040804501593
 20
31.626098649005
 30
0.0
 40
2.5
 41
49.938282706292
 71
     1
 72
     5
  1
{\Fmonotxt.shx,bigfont.shx|c128;図暦　CHANGE　NOTICE}
  0
LINE
  5
2A6F
330
2A6C
100
AcDbEntity
  8
図枠太線
  6
CONTINUOUS
 62
   251
100
AcDbLine
 10
283.577871882961
 20
2.820844689254
 30
0.0
 11
283.577871882961
 21
32.820842689254
 31
0.0
  0
MTEXT
  5
2A70
330
2A6C
100
AcDbEntity
  8
図枠細線
 48
10.0
100
AcDbMText
 10
214.912458947454
 20
31.621488632308
 30
0.0
 40
2.5
 41
28.002809618823
 71
     1
 72
     5
  1
{\Fmonotxt.shx,bigfont.shx|c128;名称　TITLE}
  0
MTEXT
  5
2A71
330
2A6C
100
AcDbEntity
  8
図枠細線
 48
10.0
100
AcDbMText
 10
214.740030458938
 20
16.310225796722
 30
0.0
 40
2.5
 41
24.385612216707
 71
     1
 72
     5
  1
{\Fmonotxt.shx,bigfont.shx|c128;図面番号\PDRG.　No.}
  0
LINE
  5
2A72
330
2A6C
100
AcDbEntity
  8
図枠太線
  6
CONTINUOUS
 62
   251
100
AcDbLine
 10
213.577871882961
 20
2.820844689254
 30
0.0
 11
213.577871882961
 21
32.820842689254
 31
0.0
  0
LINE
  5
2A73
330
2A6C
100
AcDbEntity
  8
図枠太線
  6
CONTINUOUS
 62
   251
100
AcDbLine
 10
143.577871882961
 20
2.820844689254
 30
0.0
 11
143.577871882961
 21
32.820842689254
 31
0.0
  0
TEXT
  5
2A74
330
2A6C
100
AcDbEntity
  8
図枠細線
  6
CONTINUOUS
 62
   252
100
AcDbText
 10
145.716454488093
 20
4.468335689254
 30
0.0
 40
3.5
  1
ＴＯＷＡ　ＳＥＩＤＥＮ　ＩＮＤＵＳＴＲＩＡＬ　ＣＯ．，ＬＴＤ．
 41
0.528937826907
  7
EXCADSTD
 72
     5
 11
212.856295983498
 21
4.468335689254
 31
0.0
100
AcDbText
  0
TEXT
  5
2A75
330
2A6C
100
AcDbEntity
  8
図枠ロゴマーク
  6
CONTINUOUS
 62
   253
100
AcDbText
 10
145.950637593507
 20
9.413236689254
 30
0.0
 40
7.0
  1
東和制電工業株式会社
 41
0.80361088462
  7
EXCADSTD
 72
     5
 11
211.953878250259
 21
9.413236689254
 31
0.0
100
AcDbText
  0
LINE
  5
2A76
330
2A6C
100
AcDbEntity
  8
図枠細線
  6
CONTINUOUS
 62
   252
100
AcDbLine
 10
143.577871882961
 20
25.320842689254
 30
0.0
 11
213.577871882961
 21
25.320842689254
 31
0.0
  0
LINE
  5
2A77
330
2A6C
100
AcDbEntity
  8
図枠太線
  6
CONTINUOUS
 62
   251
100
AcDbLine
 10
143.577863882961
 20
17.820842689254
 30
0.0
 11
213.577871882961
 21
17.820842689254
 31
0.0
  0
LINE
  5
2A78
330
2A6C
100
AcDbEntity
  8
図枠細線
  6
CONTINUOUS
 62
   252
100
AcDbLine
 10
213.577871882961
 20
17.820842689254
 30
0.0
 11
283.577871882961
 21
17.820842689254
 31
0.0
  0
LINE
  5
2A79
330
2A6C
100
AcDbEntity
  8
図枠細線
  6
CONTINUOUS
 62
   252
100
AcDbLine
 10
120.577871882961
 20
32.820842689254
 30
0.0
 11
120.577871882961
 21
17.820842689254
 31
0.0
  0
MTEXT
  5
2A7A
330
2A6C
100
AcDbEntity
  8
図枠細線
 48
10.0
100
AcDbMText
 10
121.100885670352
 20
16.33785922638
 30
0.0
 40
2.0
 41
17.705978285068
 71
     1
 72
     5
  1
{\Fmonotxt.shx,bigfont.shx|c128;日付 DATE}
  0
MTEXT
  5
2A7B
330
2A6C
100
AcDbEntity
  8
図枠細線
 48
10.0
100
AcDbMText
 10
121.254842273491
 20
31.208993514037
 30
0.0
 40
2.0
 41
18.363799568758
 71
     1
 72
     5
  1
{\Fmonotxt.shx,bigfont.shx|c128;製図　DRAWN}
  0
LINE
  5
2A7C
330
2A6C
100
AcDbEntity
  8
図枠細線
  6
CONTINUOUS
 62
   252
100
AcDbLine
 10
97.577871882961
 20
32.820842689254
 30
0.0
 11
97.577871882961
 21
17.820842689254
 31
0.0
  0
MTEXT
  5
2A7D
330
2A6C
100
AcDbEntity
  8
図枠細線
 48
10.0
100
AcDbMText
 10
98.239734796872
 20
16.467764839281
 30
0.0
 40
2.0
 41
17.757791689903
 71
     1
 72
     5
  1
{\Fmonotxt.shx,bigfont.shx|c128;尺度　SCALE}
  0
MTEXT
  5
2A7E
330
2A6C
100
AcDbEntity
  8
図枠細線
 48
10.0
100
AcDbMText
 10
97.864744625154
 20
31.298433377664
 30
0.0
 40
2.0
 41
23.162655920976
 71
     1
 72
     5
  1
{\Fmonotxt.shx,bigfont.shx|c128;検図  CHECKED}
  0
LINE
  5
2A7F
330
2A6C
100
AcDbEntity
  8
図枠細線
  6
CONTINUOUS
 62
   252
100
AcDbLine
 10
97.577871882961
 20
2.820843367826
 30
0.0
 11
97.577871882961
 21
17.820841367826
 31
0.0
  0
LINE
  5
2A80
330
2A6C
100
AcDbEntity
  8
図枠細線
  6
CONTINUOUS
 62
   252
100
AcDbLine
 10
120.577871882961
 20
2.820844010683
 30
0.0
 11
120.577871882961
 21
17.820842010683
 31
0.0
  0
MTEXT
  5
2A81
330
2A6C
100
AcDbEntity
  8
図枠細線
 48
10.0
100
AcDbMText
 10
81.402399084102
 20
16.316484117426
 30
0.0
 40
2.0
 41
12.920322819369
 71
     1
 72
     5
  1
{\Fmonotxt.shx,bigfont.shx|c128;第三角法}
  0
MTEXT
  5
2A82
330
2A6C
100
AcDbEntity
  8
図枠細線
 48
10.0
100
AcDbMText
 10
75.736576535096
 20
11.080410931319
 30
0.0
 40
2.0
 41
21.072870671471
 71
     1
 72
     5
  1
{\Fmonotxt.shx,bigfont.shx|c128;THIRD ANGLE\PPROJECTION}
  0
LINE
  5
2A83
330
2A6C
100
AcDbEntity
  8
図枠太線
  6
CONTINUOUS
 62
   251
100
AcDbLine
 10
74.577871882961
 20
2.820844689254
 30
0.0
 11
74.577871882961
 21
32.820842689254
 31
0.0
  0
MTEXT
  5
2A84
330
2A6C
100
AcDbEntity
  8
図枠細線
 48
10.0
100
AcDbMText
 10
75.060214781573
 20
31.298434778555
 30
0.0
 40
2.0
 41
22.240928805967
 71
     1
 72
     5
  1
{\Fmonotxt.shx,bigfont.shx|c128;承認 APPROVED}
  0
LINE
  5
2A85
330
2A6C
100
AcDbEntity
  8
図枠細線
  6
CONTINUOUS
100
AcDbLine
 10
3.577871882961
 20
17.820844689254
 30
0.0
 11
74.577871882961
 21
17.820844689254
 31
0.0
  0
LINE
  5
2A86
330
2A6C
100
AcDbEntity
  8
図枠細線
  6
CONTINUOUS
 62
   252
100
AcDbLine
 10
3.577871882961
 20
27.820842689254
 30
0.0
 11
74.577871882961
 21
27.820842689254
 31
0.0
  0
LINE
  5
2A87
330
2A6C
100
AcDbEntity
  8
図枠細線
  6
CONTINUOUS
 62
   252
100
AcDbLine
 10
3.577871882961
 20
22.820842689254
 30
0.0
 11
74.577871882961
 21
22.820842689254
 31
0.0
  0
LINE
  5
2A88
330
2A6C
100
AcDbEntity
  8
図枠細線
  6
CONTINUOUS
 62
   252
100
AcDbLine
 10
3.577871882961
 20
12.820842689254
 30
0.0
 11
74.577871882961
 21
12.820842689254
 31
0.0
  0
LINE
  5
2A89
330
2A6C
100
AcDbEntity
  8
図枠細線
  6
CONTINUOUS
 62
   252
100
AcDbLine
 10
3.577871882961
 20
7.820844689254
 30
0.0
 11
74.577871882961
 21
7.820844689254
 31
0.0
  0
LINE
  5
2A8A
330
2A6C
100
AcDbEntity
  8
図枠細線
  6
CONTINUOUS
100
AcDbLine
 10
74.577871882961
 20
17.820843689254
 30
0.0
 11
143.577871882961
 21
17.820841224969
 31
0.0
  0
LINE
  5
2A8B
330
2A6C
100
AcDbEntity
  8
図枠太線
  6
CONTINUOUS
 62
   251
100
AcDbLine
 10
3.577871882961
 20
2.820844689254
 30
0.0
 11
283.577871882961
 21
2.820844689254
 31
0.0
  0
LINE
  5
2A8C
330
2A6C
100
AcDbEntity
  8
図枠太線
  6
CONTINUOUS
 62
   251
100
AcDbLine
 10
3.577871882961
 20
2.820844689254
 30
0.0
 11
3.577871882961
 21
32.820842689254
 31
0.0
  0
ENDBLK
  5
2A8D
330
2A6C
100
AcDbEntity
  8
0
100
AcDbBlockEnd
  0
BLOCK
  5
2AF8
330
2AF4
100
AcDbEntity
  8
0
 48
10.0
100
AcDbBlockBegin
  2
_OPEN30
 70
     0
 10
0.0
 20
0.0
 30
0.0
  3
_OPEN30
  1

  0
LINE
  5
2AF5
330
2AF4
100
AcDbEntity
  8
0
  6
BYBLOCK
 62
     0
100
AcDbLine
 10
-1.0
 20
0.26794919
 30
0.0
 11
0.0
 21
0.0
 31
0.0
  0
LINE
  5
2AF6
330
2AF4
100
AcDbEntity
  8
0
  6
BYBLOCK
 62
     0
100
AcDbLine
 10
0.0
 20
0.0
 30
0.0
 11
-1.0
 21
-0.26794919
 31
0.0
  0
LINE
  5
2AF7
330
2AF4
100
AcDbEntity
  8
0
  6
BYBLOCK
 62
     0
100
AcDbLine
 10
0.0
 20
0.0
 30
0.0
 11
-1.0
 21
0.0
 31
0.0
  0
ENDBLK
  5
2AF9
330
2AF4
100
AcDbEntity
  8
0
 48
10.0
100
AcDbBlockEnd
  0
BLOCK
  5
4967
330
4966
100
AcDbEntity
  8
0
 48
10.0
100
AcDbBlockBegin
  2
静電容量センサ
 70
     0
 10
0.0
 20
0.0
 30
0.0
  3
静電容量センサ
  1

  0
ARC
  5
4968
330
4966
100
AcDbEntity
  8
外形線
 48
10.0
100
AcDbCircle
 10
1021.898525663106
 20
1073.412780408912
 30
0.0
 40
1.0
100
AcDbArc
 50
180.0
 51
268.999999999998
  0
ARC
  5
4969
330
4966
100
AcDbEntity
  8
外形線
 48
10.0
100
AcDbCircle
 10
1021.898525663106
 20
1115.960781516243
 30
0.0
 40
1.0
100
AcDbArc
 50
91.000000000002
 51
180.0
  0
LINE
  5
496A
330
4966
100
AcDbEntity
  8
外形線
 48
10.0
100
AcDbLine
 10
1020.898525663106
 20
1115.960781516243
 30
0.0
 11
1020.898525663106
 21
1073.412780408912
 31
0.0
  0
LINE
  5
496B
330
4966
100
AcDbEntity
  8
外形線
 48
10.0
100
AcDbLine
 10
1035.026308504175
 20
1117.944859066978
 30
0.0
 11
1041.278741748243
 21
1143.02199911049
 31
0.0
  0
ARC
  5
496C
330
4966
100
AcDbEntity
  8
外形線
 48
10.0
100
AcDbCircle
 10
1046.130220379623
 20
1141.812389632491
 30
0.0
 40
5.0
100
AcDbArc
 50
91.3
 51
166.000000000004
  0
ARC
  5
496D
330
4966
100
AcDbEntity
  8
外形線
 48
10.0
100
AcDbCircle
 10
1034.056012777899
 20
1118.186780962578
 30
0.0
 40
1.0
100
AcDbArc
 50
270.0
 51
346.000000000004
  0
ARC
  5
496E
330
4966
100
AcDbEntity
  8
外形線
 48
10.0
100
AcDbCircle
 10
1034.056012777899
 20
1118.186780962578
 30
0.0
 40
1.0
100
AcDbArc
 50
270.0
 51
346.000000000004
  0
LINE
  5
496F
330
4966
100
AcDbEntity
  8
外形線
 48
10.0
100
AcDbLine
 10
1021.881073256669
 20
1116.960629211399
 30
0.0
 11
1034.056012777899
 21
1117.186780962578
 31
0.0
  0
ARC
  5
4970
330
4966
100
AcDbEntity
  8
外形線
 48
10.0
100
AcDbCircle
 10
1122.899564892808
 20
1151.93622955513
 30
0.0
 40
0.5
100
AcDbArc
 50
359.999254274584
 51
88.999999999998
  0
ARC
  5
4971
330
4966
100
AcDbEntity
  8
細線
 48
10.0
100
AcDbCircle
 10
1123.898525663106
 20
1107.819822714047
 30
0.0
 40
0.5
100
AcDbArc
 50
180.0
 51
264.089361084595
  0
ARC
  5
4972
330
4966
100
AcDbEntity
  8
外形線
 48
10.0
100
AcDbCircle
 10
1123.898525663106
 20
1100.44543233102
 30
0.0
 40
0.5
100
AcDbArc
 50
91.000000000002
 51
180.0
  0
ARC
  5
4973
330
4966
100
AcDbEntity
  8
細線
 48
10.0
100
AcDbCircle
 10
1123.898525663106
 20
1108.078641759149
 30
0.0
 40
0.5
100
AcDbArc
 50
180.0
 51
264.089361084595
  0
ARC
  5
4974
330
4966
100
AcDbEntity
  8
細線
 48
10.0
100
AcDbCircle
 10
1123.898525663106
 20
1129.71320712675
 30
0.0
 40
0.5
100
AcDbArc
 50
180.0
 51
254.206830951738
  0
ARC
  5
4975
330
4966
100
AcDbEntity
  8
細線
 48
10.0
100
AcDbCircle
 10
1123.898525663106
 20
1130.420313907937
 30
0.0
 40
0.5
100
AcDbArc
 50
180.0
 51
254.206830951738
  0
ARC
  5
4976
330
4966
100
AcDbEntity
  8
細線
 48
10.0
100
AcDbCircle
 10
1123.898525663106
 20
1142.359984147006
 30
0.0
 40
0.5
100
AcDbArc
 50
180.0
 51
248.874947125989
  0
ARC
  5
4977
330
4966
100
AcDbEntity
  8
細線
 48
10.0
100
AcDbCircle
 10
1123.898525663106
 20
1143.325909973296
 30
0.0
 40
0.5
100
AcDbArc
 50
180.0
 51
248.874947125989
  0
ARC
  5
4978
330
4966
100
AcDbEntity
  8
外形線
 48
10.0
100
AcDbCircle
 10
1123.898413585187
 20
1144.632076415673
 30
0.0
 40
0.5
100
AcDbArc
 50
180.019033969455
 51
248.025023881972
  0
LINE
  5
4979
330
4966
100
AcDbEntity
  8
外形線
 48
10.0
100
AcDbLine
 10
1123.398525663106
 20
1143.325909973296
 30
0.0
 11
1123.398525663106
 21
1144.294618045039
 31
0.0
  0
LINE
  5
497A
330
4966
100
AcDbEntity
  8
外形線
 48
10.0
100
AcDbLine
 10
1123.398525663106
 20
1142.359984147006
 30
0.0
 11
1123.398525663106
 21
1142.98307227703
 31
0.0
  0
LINE
  5
497B
330
4966
100
AcDbEntity
  8
外形線
 48
10.0
100
AcDbLine
 10
1123.398525663106
 20
1130.420313907937
 30
0.0
 11
1123.398525663106
 21
1142.017146450741
 31
0.0
  0
LINE
  5
497C
330
4966
100
AcDbEntity
  8
外形線
 48
10.0
100
AcDbLine
 10
1123.398525663106
 20
1129.71320712675
 30
0.0
 11
1123.398525663106
 21
1130.042120021904
 31
0.0
  0
LINE
  5
497D
330
4966
100
AcDbEntity
  8
外形線
 48
10.0
100
AcDbLine
 10
1123.398525663106
 20
1108.078641759149
 30
0.0
 11
1123.398525663106
 21
1130.420313907937
 31
0.0
  0
LINE
  5
497E
330
4966
100
AcDbEntity
  8
外形線
 48
10.0
100
AcDbLine
 10
1123.398525663106
 20
1107.819822714047
 30
0.0
 11
1123.398525663106
 21
1108.700149198143
 31
0.0
  0
LINE
  5
497F
330
4966
100
AcDbEntity
  8
外形線
 48
10.0
100
AcDbLine
 10
1123.398525663106
 20
1100.44543233102
 30
0.0
 11
1123.398525663106
 21
1108.078641759149
 31
0.0
  0
ARC
  5
4980
330
4966
100
AcDbEntity
  8
外形線
 48
10.0
100
AcDbCircle
 10
1123.898525663106
 20
1088.928129594135
 30
0.0
 40
0.5
100
AcDbArc
 50
180.0
 51
268.999999999998
  0
LINE
  5
4981
330
4966
100
AcDbEntity
  8
外形線
 48
10.0
100
AcDbLine
 10
1123.398525663106
 20
1088.928129594135
 30
0.0
 11
1123.398525663106
 21
1100.44543233102
 31
0.0
  0
ARC
  5
4982
330
4966
100
AcDbEntity
  8
外形線
 48
10.0
100
AcDbCircle
 10
1135.396646406818
 20
1087.727276821958
 30
0.0
 40
0.5
100
AcDbArc
 50
0.002863323129
 51
88.999999999998
  0
ARC
  5
4983
330
4966
100
AcDbEntity
  8
外形線
 48
10.0
100
AcDbCircle
 10
1135.396646406818
 20
1101.646285103198
 30
0.0
 40
0.5
100
AcDbArc
 50
271.000000000002
 51
359.997136676878
  0
ARC
  5
4984
330
4966
100
AcDbEntity
  8
細線
 48
10.0
100
AcDbCircle
 10
1135.398359871226
 20
1105.882746614783
 30
0.0
 40
0.5
100
AcDbArc
 50
359.978936747976
 51
84.089361084595
  0
ARC
  5
4985
330
4966
100
AcDbEntity
  8
細線
 48
10.0
100
AcDbCircle
 10
1135.396845195015
 20
1105.6240843805
 30
0.0
 40
0.5
100
AcDbArc
 50
359.997136676878
 51
84.089361084595
  0
ARC
  5
4986
330
4966
100
AcDbEntity
  8
細線
 48
10.0
100
AcDbCircle
 10
1135.398405428356
 20
1136.84472607817
 30
0.0
 40
0.5
100
AcDbArc
 50
359.997136676878
 51
68.874947125989
  0
ARC
  5
4987
330
4966
100
AcDbEntity
  8
細線
 48
10.0
100
AcDbCircle
 10
1135.398453699003
 20
1137.810633254114
 30
0.0
 40
0.5
100
AcDbArc
 50
359.997136676878
 51
68.874947125989
  0
ARC
  5
4988
330
4966
100
AcDbEntity
  8
外形線
 48
10.0
100
AcDbCircle
 10
1135.398508800797
 20
1138.913233296621
 30
0.0
 40
0.5
100
AcDbArc
 50
359.997136676878
 51
68.025023881972
  0
LINE
  5
4989
330
4966
100
AcDbEntity
  8
外形線
 48
10.0
100
AcDbLine
 10
1135.405372610037
 20
1101.146361255619
 30
0.0
 11
1123.889799459887
 21
1100.945356178598
 31
0.0
  0
LINE
  5
498A
330
4966
100
AcDbEntity
  8
外形線
 48
10.0
100
AcDbLine
 10
1135.405372610037
 20
1088.227200669536
 30
0.0
 11
1123.889799459887
 21
1088.428205746557
 31
0.0
  0
LINE
  5
498B
330
4966
100
AcDbEntity
  8
外形線
 48
10.0
100
AcDbLine
 10
1123.711312779708
 20
1144.168402728055
 30
0.0
 11
1135.585609606275
 21
1139.376906984239
 31
0.0
  0
LINE
  5
498C
330
4966
100
AcDbEntity
  8
細線
 48
10.0
100
AcDbLine
 10
1135.448333812772
 20
1106.121426237015
 30
0.0
 11
1123.847037045349
 21
1107.322480857532
 31
0.0
  0
LINE
  5
498D
330
4966
100
AcDbEntity
  8
細線
 48
10.0
100
AcDbLine
 10
1135.449848488983
 20
1106.380088471297
 30
0.0
 11
1123.847037045349
 21
1107.581299902634
 31
0.0
  0
LINE
  5
498E
330
4966
100
AcDbEntity
  8
細線
 48
10.0
100
AcDbLine
 10
1135.533952658586
 20
1126.609702933466
 30
0.0
 11
1123.762442899618
 21
1129.939188683612
 31
0.0
  0
LINE
  5
498F
330
4966
100
AcDbEntity
  8
細線
 48
10.0
100
AcDbLine
 10
1135.578607784566
 20
1137.311124095764
 30
0.0
 11
1123.718323306896
 21
1141.893586129411
 31
0.0
  0
LINE
  5
4990
330
4966
100
AcDbEntity
  8
細線
 48
10.0
100
AcDbLine
 10
1135.578656055213
 20
1138.277031271709
 30
0.0
 11
1123.718323306896
 21
1142.859511955701
 31
0.0
  0
LINE
  5
4991
330
4966
100
AcDbEntity
  8
外形線
 48
10.0
100
AcDbLine
 10
1108.899561566736
 20
1152.686780962578
 30
0.0
 11
1122.908291096026
 21
1152.436153402709
 31
0.0
  0
LINE
  5
4992
330
4966
100
AcDbEntity
  8
外形線
 48
10.0
100
AcDbLine
 10
1108.899561566736
 20
1152.686780962578
 30
0.0
 11
1108.399561566736
 21
1152.180676686204
 31
0.0
  0
LINE
  5
4993
330
4966
100
AcDbEntity
  8
外形線
 48
10.0
100
AcDbLine
 10
1108.399561566736
 20
1151.192885238951
 30
0.0
 11
1108.399561566736
 21
1150.692885238951
 31
0.0
  0
ARC
  5
4994
330
4966
100
AcDbEntity
  8
外形線
 48
10.0
100
AcDbCircle
 10
1098.998525663106
 20
1152.414559409545
 30
0.0
 40
4.4
100
AcDbArc
 50
271.3
 51
0.0
  0
LINE
  5
4995
330
4966
100
AcDbEntity
  8
外形線
 48
10.0
100
AcDbLine
 10
1046.016783711759
 20
1146.811102679105
 30
0.0
 11
1099.098349930826
 21
1148.015691928525
 31
0.0
  0
LINE
  5
4996
330
4966
100
AcDbEntity
  8
外形線
 48
10.0
100
AcDbLine
 10
1103.398525663105
 20
1152.686780962578
 30
0.0
 11
1103.398525663105
 21
1152.414559409545
 31
0.0
  0
LINE
  5
4997
330
4966
100
AcDbEntity
  8
外形線
 48
10.0
100
AcDbLine
 10
1106.398525663105
 20
1152.686780962578
 30
0.0
 11
1103.398525663105
 21
1152.686780962578
 31
0.0
  0
ARC
  5
4998
330
4966
100
AcDbEntity
  8
外形線
 48
10.0
100
AcDbCircle
 10
1107.898525663105
 20
1150.161780962577
 30
0.0
 40
1.500000000000156
100
AcDbArc
 50
70.528779365514
 51
179.999999999993
  0
LINE
  5
4999
330
4966
100
AcDbEntity
  8
細線
 48
10.0
100
AcDbLine
 10
1108.899561566736
 20
1152.686780962578
 30
0.0
 11
1108.899561566736
 21
1036.686780962578
 31
0.0
  0
LINE
  5
499A
330
4966
100
AcDbEntity
  8
細線
 48
10.0
100
AcDbLine
 10
1108.899561566736
 20
1152.680676686204
 30
0.0
 11
1108.899561566736
 21
1036.692885238951
 31
0.0
  0
LINE
  5
499B
330
4966
100
AcDbEntity
  8
外形線
 48
10.0
100
AcDbLine
 10
1123.398525663106
 20
1072.956444458874
 30
0.0
 11
1123.398525663106
 21
1059.660354798405
 31
0.0
  0
ARC
  5
499C
330
4966
100
AcDbEntity
  8
細線
 48
10.0
100
AcDbCircle
 10
1123.898525663106
 20
1047.013577778149
 30
0.0
 40
0.5
100
AcDbArc
 50
111.125052874011
 51
180.0
  0
ARC
  5
499D
330
4966
100
AcDbEntity
  8
細線
 48
10.0
100
AcDbCircle
 10
1123.898066965619
 20
1046.04747472476
 30
0.0
 40
0.5
100
AcDbArc
 50
111.125052874011
 51
179.923306313171
  0
ARC
  5
499E
330
4966
100
AcDbEntity
  8
細線
 48
10.0
100
AcDbCircle
 10
1123.898525663106
 20
1059.660354798405
 30
0.0
 40
0.5
100
AcDbArc
 50
105.793169048262
 51
180.0
  0
ARC
  5
499F
330
4966
100
AcDbEntity
  8
細線
 48
10.0
100
AcDbCircle
 10
1123.898525663106
 20
1058.953248017218
 30
0.0
 40
0.5
100
AcDbArc
 50
105.793169048262
 51
180.0
  0
ARC
  5
49A0
330
4966
100
AcDbEntity
  8
細線
 48
10.0
100
AcDbCircle
 10
1123.898525663106
 20
1081.294920166006
 30
0.0
 40
0.5
100
AcDbArc
 50
95.910638915405
 51
180.0
  0
ARC
  5
49A1
330
4966
100
AcDbEntity
  8
細線
 48
10.0
100
AcDbCircle
 10
1123.898525663106
 20
1081.553739211108
 30
0.0
 40
0.5
100
AcDbArc
 50
95.910638915405
 51
180.0
  0
LINE
  5
49A2
330
4966
100
AcDbEntity
  8
外形線
 48
10.0
100
AcDbLine
 10
1123.398525663106
 20
1081.294920166006
 30
0.0
 11
1123.398525663106
 21
1088.928129594135
 31
0.0
  0
LINE
  5
49A3
330
4966
100
AcDbEntity
  8
外形線
 48
10.0
100
AcDbLine
 10
1123.398525663106
 20
1081.745828707453
 30
0.0
 11
1123.398525663106
 21
1082.004647752555
 31
0.0
  0
LINE
  5
49A4
330
4966
100
AcDbEntity
  8
外形線
 48
10.0
100
AcDbLine
 10
1123.398525663106
 20
1072.956444458874
 30
0.0
 11
1123.398525663106
 21
1081.294920166006
 31
0.0
  0
LINE
  5
49A5
330
4966
100
AcDbEntity
  8
外形線
 48
10.0
100
AcDbLine
 10
1123.398525663106
 20
1058.953248017218
 30
0.0
 11
1123.398525663106
 21
1059.660354798405
 31
0.0
  0
LINE
  5
49A6
330
4966
100
AcDbEntity
  8
外形線
 48
10.0
100
AcDbLine
 10
1123.398525663106
 20
1047.013577778149
 30
0.0
 11
1123.398525663106
 21
1058.953248017218
 31
0.0
  0
LINE
  5
49A7
330
4966
100
AcDbEntity
  8
外形線
 48
10.0
100
AcDbLine
 10
1123.398067413553
 20
1046.048144003235
 30
0.0
 11
1123.398525663106
 21
1047.013577778149
 31
0.0
  0
LINE
  5
49A8
330
4966
100
AcDbEntity
  8
外形線
 48
10.0
100
AcDbLine
 10
1123.396317242873
 20
1044.740639597053
 30
0.0
 11
1123.398067413553
 21
1046.048144003235
 31
0.0
  0
ARC
  5
49A9
330
4966
100
AcDbEntity
  8
外形線
 48
10.0
100
AcDbCircle
 10
1123.896317242873
 20
1044.740639597053
 30
0.0
 40
0.5
100
AcDbArc
 50
111.974976118028
 51
180.0
  0
ARC
  5
49AA
330
4966
100
AcDbEntity
  8
細線
 48
10.0
100
AcDbCircle
 10
1135.398494161258
 20
1063.952267566336
 30
0.0
 40
0.5
100
AcDbArc
 50
285.793169048262
 51
0.004772330144
  0
ARC
  5
49AB
330
4966
100
AcDbEntity
  8
細線
 48
10.0
100
AcDbCircle
 10
1135.398525663106
 20
1063.245169695216
 30
0.0
 40
0.5
100
AcDbArc
 50
285.793169048262
 51
0.0
  0
ARC
  5
49AC
330
4966
100
AcDbEntity
  8
細線
 48
10.0
100
AcDbCircle
 10
1135.398525663106
 20
1052.528882302126
 30
0.0
 40
0.5
100
AcDbArc
 50
291.125052874011
 51
0.0
  0
ARC
  5
49AD
330
4966
100
AcDbEntity
  8
細線
 48
10.0
100
AcDbCircle
 10
1135.398525663106
 20
1051.562956475835
 30
0.0
 40
0.5
100
AcDbArc
 50
291.125052874011
 51
0.0
  0
ARC
  5
49AE
330
4966
100
AcDbEntity
  8
外形線
 48
10.0
100
AcDbCircle
 10
1135.398525663106
 20
1050.460335432784
 30
0.0
 40
0.5
100
AcDbArc
 50
291.974976118028
 51
0.0
  0
LINE
  5
49AF
330
4966
100
AcDbEntity
  8
外形線
 48
10.0
100
AcDbLine
 10
1135.898525663106
 20
1051.562956475835
 30
0.0
 11
1135.898525663106
 21
1050.460335432784
 31
0.0
  0
LINE
  5
49B0
330
4966
100
AcDbEntity
  8
外形線
 48
10.0
100
AcDbLine
 10
1135.898525663106
 20
1052.528882302126
 30
0.0
 11
1135.898525663106
 21
1051.562956475835
 31
0.0
  0
LINE
  5
49B1
330
4966
100
AcDbEntity
  8
外形線
 48
10.0
100
AcDbLine
 10
1135.898525663106
 20
1063.245169695216
 30
0.0
 11
1135.898525663106
 21
1052.528882302126
 31
0.0
  0
LINE
  5
49B2
330
4966
100
AcDbEntity
  8
外形線
 48
10.0
100
AcDbLine
 10
1135.898494159523
 20
1063.952309212773
 30
0.0
 11
1135.898525663106
 21
1063.245169695216
 31
0.0
  0
LINE
  5
49B3
330
4966
100
AcDbEntity
  8
外形線
 48
10.0
100
AcDbLine
 10
1135.896845194391
 20
1083.749502531863
 30
0.0
 11
1135.898494159523
 21
1063.952309212773
 31
0.0
  0
ARC
  5
49B4
330
4966
100
AcDbEntity
  8
細線
 48
10.0
100
AcDbCircle
 10
1135.396794220963
 20
1083.49065322233
 30
0.0
 40
0.5
100
AcDbArc
 50
275.910638915405
 51
0.00199902817
  0
ARC
  5
49B5
330
4966
100
AcDbEntity
  8
細線
 48
10.0
100
AcDbCircle
 10
1135.396845195015
 20
1083.749477544655
 30
0.0
 40
0.5
100
AcDbArc
 50
275.910638915405
 51
0.002863323129
  0
ARC
  5
49B6
330
4966
100
AcDbEntity
  8
外形線
 48
10.0
100
AcDbCircle
 10
1122.897486448612
 20
1037.437296090646
 30
0.0
 40
0.5
100
AcDbArc
 50
271.000000000002
 51
359.984453673186
  0
LINE
  5
49B7
330
4966
100
AcDbEntity
  8
外形線
 48
10.0
100
AcDbLine
 10
1135.896646406194
 20
1087.727301809166
 30
0.0
 11
1135.896794220659
 21
1083.490670667142
 31
0.0
  0
LINE
  5
49B8
330
4966
100
AcDbEntity
  8
外形線
 48
10.0
100
AcDbLine
 10
1123.709216437395
 20
1045.204313284671
 30
0.0
 11
1135.585626468584
 21
1049.996661745166
 31
0.0
  0
LINE
  5
49B9
330
4966
100
AcDbEntity
  8
細線
 48
10.0
100
AcDbLine
 10
1135.578728019316
 20
1052.062484284531
 30
0.0
 11
1123.718323306896
 21
1047.479975795744
 31
0.0
  0
LINE
  5
49BA
330
4966
100
AcDbEntity
  8
細線
 48
10.0
100
AcDbLine
 10
1135.578728019316
 20
1051.09655845824
 30
0.0
 11
1123.717864609409
 21
1046.513872742355
 31
0.0
  0
LINE
  5
49BB
330
4966
100
AcDbEntity
  8
細線
 48
10.0
100
AcDbLine
 10
1135.534608426593
 20
1062.764044470891
 30
0.0
 11
1123.762442899618
 21
1059.434373241543
 31
0.0
  0
LINE
  5
49BC
330
4966
100
AcDbEntity
  8
細線
 48
10.0
100
AcDbLine
 10
1135.534576924746
 20
1063.471142342011
 30
0.0
 11
1123.762442899618
 21
1060.141480022729
 31
0.0
  0
LINE
  5
49BD
330
4966
100
AcDbEntity
  8
細線
 48
10.0
100
AcDbLine
 10
1135.44828283872
 20
1082.993311365815
 30
0.0
 11
1123.847037045349
 21
1081.792262022521
 31
0.0
  0
LINE
  5
49BE
330
4966
100
AcDbEntity
  8
細線
 48
10.0
100
AcDbLine
 10
1135.448333812772
 20
1083.25213568814
 30
0.0
 11
1123.847037045349
 21
1082.051081067623
 31
0.0
  0
LINE
  5
49BF
330
4966
100
AcDbEntity
  8
外形線
 48
10.0
100
AcDbLine
 10
1123.399470041665
 20
1044.747733739171
 30
0.0
 11
1123.397486430207
 21
1037.437160423353
 31
0.0
  0
LINE
  5
49C0
330
4966
100
AcDbEntity
  8
外形線
 48
10.0
100
AcDbLine
 10
1123.399564892765
 20
1151.936223047449
 30
0.0
 11
1123.397486430207
 21
1037.437160423353
 31
0.0
  0
LINE
  5
49C1
330
4966
100
AcDbEntity
  8
外形線
 48
10.0
100
AcDbLine
 10
1108.399561566736
 20
1152.180676686204
 30
0.0
 11
1108.399561566736
 21
1037.192885238951
 31
0.0
  0
LINE
  5
49C2
330
4966
100
AcDbEntity
  8
外形線
 48
10.0
100
AcDbLine
 10
1108.899561566736
 20
1036.686780962578
 30
0.0
 11
1122.906212651831
 21
1036.937372243068
 31
0.0
  0
LINE
  5
49C3
330
4966
100
AcDbEntity
  8
外形線
 48
10.0
100
AcDbLine
 10
1108.899561566736
 20
1036.686780962578
 30
0.0
 11
1108.399561566736
 21
1037.192885238951
 31
0.0
  0
LINE
  5
49C4
330
4966
100
AcDbEntity
  8
外形線
 48
10.0
100
AcDbLine
 10
1108.399561566736
 20
1038.192885238951
 30
0.0
 11
1108.399561566736
 21
1038.692885238951
 31
0.0
  0
LINE
  5
49C5
330
4966
100
AcDbEntity
  8
外形線
 48
10.0
100
AcDbLine
 10
1035.022931603883
 20
1071.442246865485
 30
0.0
 11
1041.278741748243
 21
1046.351562814666
 31
0.0
  0
ARC
  5
49C6
330
4966
100
AcDbEntity
  8
外形線
 48
10.0
100
AcDbCircle
 10
1046.130220379623
 20
1047.561172292664
 30
0.0
 40
5.0
100
AcDbArc
 50
193.999999999996
 51
268.7
  0
ARC
  5
49C7
330
4966
100
AcDbEntity
  8
外形線
 48
10.0
100
AcDbCircle
 10
1034.052635877606
 20
1071.200324969886
 30
0.0
 40
1.0
100
AcDbArc
 50
13.999999999996
 51
89.000000000011
  0
ARC
  5
49C8
330
4966
100
AcDbEntity
  8
外形線
 48
10.0
100
AcDbCircle
 10
1069.398525663106
 20
1041.031595836918
 30
0.0
 40
1.0
100
AcDbArc
 50
0.0
 51
88.7
  0
ARC
  5
49C9
330
4966
100
AcDbEntity
  8
外形線
 48
10.0
100
AcDbCircle
 10
1071.398525663106
 20
1031.186780962577
 30
0.0
 40
1.0
100
AcDbArc
 50
180.0
 51
270.0
  0
ARC
  5
49CA
330
4966
100
AcDbEntity
  8
外形線
 48
10.0
100
AcDbCircle
 10
1105.398525663105
 20
1031.186780962577
 30
0.0
 40
1.0
100
AcDbArc
 50
270.0
 51
0.0
  0
LINE
  5
49CB
330
4966
100
AcDbEntity
  8
外形線
 48
10.0
100
AcDbLine
 10
1070.398525663106
 20
1031.186780962577
 30
0.0
 11
1070.398525663106
 21
1041.031595836918
 31
0.0
  0
LINE
  5
49CC
330
4966
100
AcDbEntity
  8
外形線
 48
10.0
100
AcDbLine
 10
1046.016783711759
 20
1042.56245924605
 30
0.0
 11
1099.098349930826
 21
1041.35786999663
 31
0.0
  0
LINE
  5
49CD
330
4966
100
AcDbEntity
  8
外形線
 48
10.0
100
AcDbLine
 10
1021.881073256668
 20
1072.412932713756
 30
0.0
 11
1034.070088284044
 21
1072.200172665042
 31
0.0
  0
LINE
  5
49CE
330
4966
100
AcDbEntity
  8
外形線
 48
10.0
100
AcDbLine
 10
1106.398525663105
 20
1040.711780962577
 30
0.0
 11
1106.398525663105
 21
1031.186780962577
 31
0.0
  0
LINE
  5
49CF
330
4966
100
AcDbEntity
  8
外形線
 48
10.0
100
AcDbLine
 10
1106.398525663105
 20
1040.711780962577
 30
0.0
 11
1106.398525663105
 21
1152.686780962578
 31
0.0
  0
LINE
  5
49D0
330
4966
100
AcDbEntity
  8
外形線
 48
10.0
100
AcDbLine
 10
1105.398525663105
 20
1030.186780962577
 30
0.0
 11
1071.398525663106
 21
1030.186780962577
 31
0.0
  0
LINE
  5
49D1
330
4966
100
AcDbEntity
  8
外形線
 48
10.0
100
AcDbLine
 10
1103.398525663106
 20
1036.95900251561
 30
0.0
 11
1103.398525663105
 21
1036.692885238951
 31
0.0
  0
LINE
  5
49D2
330
4966
100
AcDbEntity
  8
外形線
 48
10.0
100
AcDbLine
 10
1106.398525663105
 20
1036.692885238951
 30
0.0
 11
1103.398525663105
 21
1036.692885238951
 31
0.0
  0
ARC
  5
49D3
330
4966
100
AcDbEntity
  8
外形線
 48
10.0
100
AcDbCircle
 10
1107.898525663105
 20
1039.211780962577
 30
0.0
 40
1.499999999999659
100
AcDbArc
 50
179.99999999998
 51
289.471220634515
  0
ARC
  5
49D4
330
4966
100
AcDbEntity
  8
外形線
 48
10.0
100
AcDbCircle
 10
1098.998525663106
 20
1036.95900251561
 30
0.0
 40
4.4
100
AcDbArc
 50
0.0
 51
88.7
  0
LINE
  5
49D5
330
4966
100
AcDbEntity
  8
細線
 48
10.0
100
AcDbLine
 10
1103.398525663105
 20
1152.686780962578
 30
0.0
 11
1103.398525663106
 21
1036.95900251561
 31
0.0
  0
LINE
  5
49D6
330
4966
100
AcDbEntity
  8
細線
 48
10.0
100
AcDbLine
 10
1034.837298404406
 20
1072.186780962578
 30
0.0
 11
1034.840933619068
 21
1117.201361012233
 31
0.0
  0
LINE
  5
49D7
330
4966
100
AcDbEntity
  8
細線
 48
10.0
100
AcDbLine
 10
1042.201886517784
 20
1144.905639229587
 30
0.0
 11
1042.201886517784
 21
1044.467922695569
 31
0.0
  0
LINE
  5
49D8
330
4966
100
AcDbEntity
  8
外形線
 48
10.0
100
AcDbLine
 10
1135.898508800172
 20
1138.913208309413
 30
0.0
 11
1135.896646406194
 21
1101.646260115989
 31
0.0
  0
ARC
  5
49D9
330
4966
100
AcDbEntity
  8
細線
 48
10.0
100
AcDbCircle
 10
1135.397834558349
 20
1125.421480922695
 30
0.0
 40
0.5
100
AcDbArc
 50
359.997136676878
 51
74.206830951738
  0
ARC
  5
49DA
330
4966
100
AcDbEntity
  8
細線
 48
10.0
100
AcDbCircle
 10
1135.397869895098
 20
1126.128577709141
 30
0.0
 40
0.5
100
AcDbArc
 50
359.997136676878
 51
74.206830951738
  0
LINE
  5
49DB
330
4966
100
AcDbEntity
  8
細線
 48
10.0
100
AcDbLine
 10
1135.533917321837
 20
1125.90260614702
 30
0.0
 11
1123.762442899618
 21
1129.232081902426
 31
0.0
  0
LINE
  5
49DC
330
4966
100
AcDbEntity
  8
中心線
 48
10.0
100
AcDbLine
 10
1088.398525663106
 20
1052.03299312045
 30
0.0
 11
1088.398525663106
 21
1013.722487401784
 31
0.0
  0
ENDBLK
  5
49DD
330
4966
100
AcDbEntity
  8
0
 48
10.0
100
AcDbBlockEnd
  0
BLOCK
  5
4A61
330
4A56
100
AcDbEntity
  8
0
100
AcDbBlockBegin
  2
*D36
 70
     1
 10
0.0
 20
0.0
 30
0.0
  3
*D36
  1

  0
LINE
  5
4A57
330
4A56
100
AcDbEntity
  8
寸法線
 62
     0
 48
10.0
100
AcDbLine
 10
57.533684845147
 20
392.218264292819
 30
0.0
 11
43.770216588874
 21
392.218264292819
 31
0.0
  0
LINE
  5
4A58
330
4A56
100
AcDbEntity
  8
寸法線
 62
     0
 48
10.0
100
AcDbLine
 10
57.533684845147
 20
370.718264292819
 30
0.0
 11
43.770216588874
 21
370.718264292819
 31
0.0
  0
LINE
  5
4A59
330
4A56
100
AcDbEntity
  8
寸法線
 62
     0
 48
10.0
100
AcDbLine
 10
45.020216588874
 20
392.218264292819
 30
0.0
 11
45.020216588874
 21
424.126328808948
 31
0.0
  0
LINE
  5
4A5A
330
4A56
100
AcDbEntity
  8
寸法線
 62
     0
 48
10.0
100
AcDbLine
 10
45.020216588874
 20
386.218264292819
 30
0.0
 11
45.020216588874
 21
376.718264292819
 31
0.0
  0
INSERT
  5
4A5B
330
4A56
100
AcDbEntity
  8
寸法線
 62
     0
100
AcDbBlockReference
  2
_OPEN30
 10
45.020216588874
 20
392.218264292819
 30
0.0
 41
6.0
 42
6.0
 43
6.0
 50
90.0
  0
INSERT
  5
4A5C
330
4A56
100
AcDbEntity
  8
寸法線
 62
     0
100
AcDbBlockReference
  2
_OPEN30
 10
45.020216588874
 20
370.718264292819
 30
0.0
 41
6.0
 42
6.0
 43
6.0
 50
270.0
  0
MTEXT
  5
4A5D
330
4A56
100
AcDbEntity
  8
寸法線
 62
     0
 48
10.0
100
AcDbMText
 10
40.391049922207
 20
411.172296550884
 30
0.0
 40
8.0
 41
0.0
 71
     5
 72
     1
  1
\A1;φ21.5
 11
0.0
 21
1.0
 31
0.0
  0
POINT
  5
4A5E
330
4A56
100
AcDbEntity
  8
DEFPOINTS
 62
     0
100
AcDbPoint
 10
58.158684845147
 20
392.218264292819
 30
0.0
  0
POINT
  5
4A5F
330
4A56
100
AcDbEntity
  8
DEFPOINTS
 62
     0
100
AcDbPoint
 10
58.158684845147
 20
370.718264292819
 30
0.0
  0
POINT
  5
4A60
330
4A56
100
AcDbEntity
  8
DEFPOINTS
 62
     0
100
AcDbPoint
 10
45.020216588874
 20
370.718264292819
 30
0.0
  0
ENDBLK
  5
4A62
330
4A56
100
AcDbEntity
  8
0
100
AcDbBlockEnd
  0
BLOCK
  5
4ABF
330
4AB5
100
AcDbEntity
  8
0
100
AcDbBlockBegin
  2
*D44
 70
     1
 10
0.0
 20
0.0
 30
0.0
  3
*D44
  1

  0
LINE
  5
4AB6
330
4AB5
100
AcDbEntity
  8
寸法線
 62
     0
 48
10.0
100
AcDbLine
 10
444.284720748777
 20
439.462160016446
 30
0.0
 11
501.014645014615
 21
439.462160016446
 31
0.0
  0
LINE
  5
4AB7
330
4AB5
100
AcDbEntity
  8
寸法線
 62
     0
 48
10.0
100
AcDbLine
 10
444.284720748777
 20
323.468264292819
 30
0.0
 11
501.014645014615
 21
323.468264292819
 31
0.0
  0
LINE
  5
4AB8
330
4AB5
100
AcDbEntity
  8
寸法線
 62
     0
 48
10.0
100
AcDbLine
 10
499.764645014615
 20
433.462160016446
 30
0.0
 11
499.764645014615
 21
329.468264292819
 31
0.0
  0
INSERT
  5
4AB9
330
4AB5
100
AcDbEntity
  8
寸法線
 62
     0
100
AcDbBlockReference
  2
_OPEN30
 10
499.764645014615
 20
439.462160016446
 30
0.0
 41
6.0
 42
6.0
 43
6.0
 50
90.0
  0
INSERT
  5
4ABA
330
4AB5
100
AcDbEntity
  8
寸法線
 62
     0
100
AcDbBlockReference
  2
_OPEN30
 10
499.764645014615
 20
323.468264292819
 30
0.0
 41
6.0
 42
6.0
 43
6.0
 50
270.0
  0
MTEXT
  5
4ABB
330
4AB5
100
AcDbEntity
  8
寸法線
 62
     0
 48
10.0
100
AcDbMText
 10
495.139645014615
 20
381.465212154633
 30
0.0
 40
8.0
 41
0.0
 71
     5
 72
     1
  1
\A1;φ116
 11
0.0
 21
1.0
 31
0.0
  0
POINT
  5
4ABC
330
4AB5
100
AcDbEntity
  8
DEFPOINTS
 62
     0
100
AcDbPoint
 10
443.659720748777
 20
439.462160016446
 30
0.0
  0
POINT
  5
4ABD
330
4AB5
100
AcDbEntity
  8
DEFPOINTS
 62
     0
100
AcDbPoint
 10
443.659720748777
 20
323.468264292819
 30
0.0
  0
POINT
  5
4ABE
330
4AB5
100
AcDbEntity
  8
DEFPOINTS
 62
     0
100
AcDbPoint
 10
499.764645014615
 20
323.468264292819
 30
0.0
  0
ENDBLK
  5
4AC0
330
4AB5
100
AcDbEntity
  8
0
100
AcDbBlockEnd
  0
BLOCK
  5
4CB8
330
4CB7
100
AcDbEntity
  8
0
100
AcDbBlockBegin
  2
*D51
 70
     1
 10
0.0
 20
0.0
 30
0.0
  3
*D51
  1

  0
LINE
  5
4CBA
330
4CB7
100
AcDbEntity
  8
寸法線
 62
     0
 48
10.0
100
AcDbLine
 10
195.42215310142
 20
392.218264292819
 30
0.0
 11
181.658684845147
 21
392.218264292819
 31
0.0
  0
LINE
  5
4CBB
330
4CB7
100
AcDbEntity
  8
寸法線
 62
     0
 48
10.0
100
AcDbLine
 10
195.42215310142
 20
370.718264292819
 30
0.0
 11
181.658684845147
 21
370.718264292819
 31
0.0
  0
LINE
  5
4CBC
330
4CB7
100
AcDbEntity
  8
寸法線
 62
     0
 48
10.0
100
AcDbLine
 10
182.908684845147
 20
392.218264292819
 30
0.0
 11
182.908684845147
 21
423.730629884217
 31
0.0
  0
LINE
  5
4CBD
330
4CB7
100
AcDbEntity
  8
寸法線
 62
     0
 48
10.0
100
AcDbLine
 10
182.908684845147
 20
386.218264292819
 30
0.0
 11
182.908684845147
 21
376.718264292819
 31
0.0
  0
INSERT
  5
4CBE
330
4CB7
100
AcDbEntity
  8
寸法線
 62
     0
100
AcDbBlockReference
  2
_OPEN30
 10
182.908684845147
 20
392.218264292819
 30
0.0
 41
6.0
 42
6.0
 43
6.0
 50
90.0
  0
INSERT
  5
4CBF
330
4CB7
100
AcDbEntity
  8
寸法線
 62
     0
100
AcDbBlockReference
  2
_OPEN30
 10
182.908684845147
 20
370.718264292819
 30
0.0
 41
6.0
 42
6.0
 43
6.0
 50
270.0
  0
MTEXT
  5
4CC0
330
4CB7
100
AcDbEntity
  8
寸法線
 62
     0
 48
10.0
100
AcDbMText
 10
178.27951817848
 20
411.172296550884
 30
0.0
 40
8.0
 41
0.0
 71
     5
 72
     1
  1
\A1;φ21.5
 11
0.0
 21
1.0
 31
0.0
  0
POINT
  5
4CC1
330
4CB7
100
AcDbEntity
  8
DEFPOINTS
 62
     0
100
AcDbPoint
 10
196.04715310142
 20
392.218264292819
 30
0.0
  0
POINT
  5
4CC2
330
4CB7
100
AcDbEntity
  8
DEFPOINTS
 62
     0
100
AcDbPoint
 10
196.04715310142
 20
370.718264292819
 30
0.0
  0
POINT
  5
4CC3
330
4CB7
100
AcDbEntity
  8
DEFPOINTS
 62
     0
100
AcDbPoint
 10
182.908684845147
 20
370.718264292819
 30
0.0
  0
ENDBLK
  5
4CB9
330
4CB7
100
AcDbEntity
  8
0
100
AcDbBlockEnd
  0
BLOCK
  5
4D03
330
4D02
100
AcDbEntity
  8
0
100
AcDbBlockBegin
  2
*D54
 70
     1
 10
0.0
 20
0.0
 30
0.0
  3
*D54
  1

  0
LINE
  5
4D05
330
4D02
100
AcDbEntity
  8
寸法線
 62
     0
 48
10.0
100
AcDbLine
 10
288.769044728889
 20
392.218264292819
 30
0.0
 11
275.005576472616
 21
392.218264292819
 31
0.0
  0
LINE
  5
4D06
330
4D02
100
AcDbEntity
  8
寸法線
 62
     0
 48
10.0
100
AcDbLine
 10
288.769044728889
 20
370.718264292819
 30
0.0
 11
275.005576472616
 21
370.718264292819
 31
0.0
  0
LINE
  5
4D07
330
4D02
100
AcDbEntity
  8
寸法線
 62
     0
 48
10.0
100
AcDbLine
 10
276.255576472616
 20
392.218264292819
 30
0.0
 11
276.255576472616
 21
423.730629884217
 31
0.0
  0
LINE
  5
4D08
330
4D02
100
AcDbEntity
  8
寸法線
 62
     0
 48
10.0
100
AcDbLine
 10
276.255576472616
 20
386.218264292819
 30
0.0
 11
276.255576472616
 21
376.718264292819
 31
0.0
  0
INSERT
  5
4D09
330
4D02
100
AcDbEntity
  8
寸法線
 62
     0
100
AcDbBlockReference
  2
_OPEN30
 10
276.255576472616
 20
392.218264292819
 30
0.0
 41
6.0
 42
6.0
 43
6.0
 50
90.0
  0
INSERT
  5
4D0A
330
4D02
100
AcDbEntity
  8
寸法線
 62
     0
100
AcDbBlockReference
  2
_OPEN30
 10
276.255576472616
 20
370.718264292819
 30
0.0
 41
6.0
 42
6.0
 43
6.0
 50
270.0
  0
MTEXT
  5
4D0B
330
4D02
100
AcDbEntity
  8
寸法線
 62
     0
 48
10.0
100
AcDbMText
 10
271.626409805949
 20
411.172296550884
 30
0.0
 40
8.0
 41
0.0
 71
     5
 72
     1
  1
\A1;φ21.5
 11
0.0
 21
1.0
 31
0.0
  0
POINT
  5
4D0C
330
4D02
100
AcDbEntity
  8
DEFPOINTS
 62
     0
100
AcDbPoint
 10
289.394044728889
 20
392.218264292819
 30
0.0
  0
POINT
  5
4D0D
330
4D02
100
AcDbEntity
  8
DEFPOINTS
 62
     0
100
AcDbPoint
 10
289.394044728889
 20
370.718264292819
 30
0.0
  0
POINT
  5
4D0E
330
4D02
100
AcDbEntity
  8
DEFPOINTS
 62
     0
100
AcDbPoint
 10
276.255576472616
 20
370.718264292819
 30
0.0
  0
ENDBLK
  5
4D04
330
4D02
100
AcDbEntity
  8
0
100
AcDbBlockEnd
  0
BLOCK
  5
4F6F
330
4F6E
100
AcDbEntity
  8
0
100
AcDbBlockBegin
  2
*D82
 70
     1
 10
0.0
 20
0.0
 30
0.0
  3
*D82
  1

  0
LINE
  5
4F71
330
4F6E
100
AcDbEntity
  8
寸法線
 62
     0
 48
10.0
100
AcDbLine
 10
57.658684845147
 20
370.593264292819
 30
0.0
 11
57.658684845147
 21
286.213484850826
 31
0.0
  0
LINE
  5
4F72
330
4F6E
100
AcDbEntity
  8
寸法線
 62
     0
 48
10.0
100
AcDbLine
 10
157.658684845147
 20
370.093264292819
 30
0.0
 11
157.658684845147
 21
286.213484850826
 31
0.0
  0
LINE
  5
4F73
330
4F6E
100
AcDbEntity
  8
寸法線
 62
     0
 48
10.0
100
AcDbLine
 10
63.658684845147
 20
287.463484850826
 30
0.0
 11
151.658684845147
 21
287.463484850826
 31
0.0
  0
INSERT
  5
4F74
330
4F6E
100
AcDbEntity
  8
寸法線
 62
     0
100
AcDbBlockReference
  2
_OPEN30
 10
57.658684845147
 20
287.463484850826
 30
0.0
 41
6.0
 42
6.0
 43
6.0
 50
180.0
  0
INSERT
  5
4F75
330
4F6E
100
AcDbEntity
  8
寸法線
 62
     0
100
AcDbBlockReference
  2
_OPEN30
 10
157.658684845147
 20
287.463484850826
 30
0.0
 41
6.0
 42
6.0
 43
6.0
  0
POINT
  5
4F76
330
4F6E
100
AcDbEntity
  8
DEFPOINTS
 62
     0
100
AcDbPoint
 10
57.658684845147
 20
371.218264292819
 30
0.0
  0
POINT
  5
4F77
330
4F6E
100
AcDbEntity
  8
DEFPOINTS
 62
     0
100
AcDbPoint
 10
157.658684845147
 20
370.718264292819
 30
0.0
  0
POINT
  5
4F78
330
4F6E
100
AcDbEntity
  8
DEFPOINTS
 62
     0
100
AcDbPoint
 10
157.658684845147
 20
287.463484850826
 30
0.0
  0
ENDBLK
  5
4F70
330
4F6E
100
AcDbEntity
  8
0
100
AcDbBlockEnd
  0
BLOCK
  5
4F7A
330
4F79
100
AcDbEntity
  8
0
100
AcDbBlockBegin
  2
*D83
 70
     1
 10
0.0
 20
0.0
 30
0.0
  3
*D83
  1

  0
LINE
  5
4F7C
330
4F79
100
AcDbEntity
  8
寸法線
 62
     0
 48
10.0
100
AcDbLine
 10
157.658684845147
 20
370.093264292819
 30
0.0
 11
157.658684845147
 21
286.213484850826
 31
0.0
  0
LINE
  5
4F7D
330
4F79
100
AcDbEntity
  8
寸法線
 62
     0
 48
10.0
100
AcDbLine
 10
207.658684845147
 20
370.093264292819
 30
0.0
 11
207.658684845147
 21
286.213484850826
 31
0.0
  0
LINE
  5
4F7E
330
4F79
100
AcDbEntity
  8
寸法線
 62
     0
 48
10.0
100
AcDbLine
 10
163.658684845147
 20
287.463484850826
 30
0.0
 11
201.658684845147
 21
287.463484850826
 31
0.0
  0
INSERT
  5
4F7F
330
4F79
100
AcDbEntity
  8
寸法線
 62
     0
100
AcDbBlockReference
  2
_OPEN30
 10
157.658684845147
 20
287.463484850826
 30
0.0
 41
6.0
 42
6.0
 43
6.0
 50
180.0
  0
INSERT
  5
4F80
330
4F79
100
AcDbEntity
  8
寸法線
 62
     0
100
AcDbBlockReference
  2
_OPEN30
 10
207.658684845147
 20
287.463484850826
 30
0.0
 41
6.0
 42
6.0
 43
6.0
  0
POINT
  5
4F81
330
4F79
100
AcDbEntity
  8
DEFPOINTS
 62
     0
100
AcDbPoint
 10
157.658684845147
 20
370.718264292819
 30
0.0
  0
POINT
  5
4F82
330
4F79
100
AcDbEntity
  8
DEFPOINTS
 62
     0
100
AcDbPoint
 10
207.658684845147
 20
370.718264292819
 30
0.0
  0
POINT
  5
4F83
330
4F79
100
AcDbEntity
  8
DEFPOINTS
 62
     0
100
AcDbPoint
 10
207.658684845147
 20
287.463484850826
 30
0.0
  0
ENDBLK
  5
4F7B
330
4F79
100
AcDbEntity
  8
0
100
AcDbBlockEnd
  0
BLOCK
  5
4F85
330
4F84
100
AcDbEntity
  8
0
100
AcDbBlockBegin
  2
*D84
 70
     1
 10
0.0
 20
0.0
 30
0.0
  3
*D84
  1

  0
LINE
  5
4F87
330
4F84
100
AcDbEntity
  8
寸法線
 62
     0
 48
10.0
100
AcDbLine
 10
207.658684845147
 20
370.093264292819
 30
0.0
 11
207.658684845147
 21
286.213484850826
 31
0.0
  0
LINE
  5
4F88
330
4F84
100
AcDbEntity
  8
寸法線
 62
     0
 48
10.0
100
AcDbLine
 10
307.658684845147
 20
364.543451792819
 30
0.0
 11
307.658684845147
 21
286.213484850826
 31
0.0
  0
LINE
  5
4F89
330
4F84
100
AcDbEntity
  8
寸法線
 62
     0
 48
10.0
100
AcDbLine
 10
213.658684845147
 20
287.463484850826
 30
0.0
 11
301.658684845147
 21
287.463484850826
 31
0.0
  0
INSERT
  5
4F8A
330
4F84
100
AcDbEntity
  8
寸法線
 62
     0
100
AcDbBlockReference
  2
_OPEN30
 10
207.658684845147
 20
287.463484850826
 30
0.0
 41
6.0
 42
6.0
 43
6.0
 50
180.0
  0
INSERT
  5
4F8B
330
4F84
100
AcDbEntity
  8
寸法線
 62
     0
100
AcDbBlockReference
  2
_OPEN30
 10
307.658684845147
 20
287.463484850826
 30
0.0
 41
6.0
 42
6.0
 43
6.0
  0
POINT
  5
4F8C
330
4F84
100
AcDbEntity
  8
DEFPOINTS
 62
     0
100
AcDbPoint
 10
207.658684845147
 20
370.718264292819
 30
0.0
  0
POINT
  5
4F8D
330
4F84
100
AcDbEntity
  8
DEFPOINTS
 62
     0
100
AcDbPoint
 10
307.658684845147
 20
365.168451792819
 30
0.0
  0
POINT
  5
4F8E
330
4F84
100
AcDbEntity
  8
DEFPOINTS
 62
     0
100
AcDbPoint
 10
307.658684845147
 20
287.463484850826
 30
0.0
  0
ENDBLK
  5
4F86
330
4F84
100
AcDbEntity
  8
0
100
AcDbBlockEnd
  0
BLOCK
  5
4F90
330
4F8F
100
AcDbEntity
  8
0
100
AcDbBlockBegin
  2
*D85
 70
     1
 10
0.0
 20
0.0
 30
0.0
  3
*D85
  1

  0
LINE
  5
4F92
330
4F8F
100
AcDbEntity
  8
寸法線
 62
     0
 48
10.0
100
AcDbLine
 10
57.658684845147
 20
370.593264292819
 30
0.0
 11
57.658684845147
 21
266.213484850826
 31
0.0
  0
LINE
  5
4F93
330
4F8F
100
AcDbEntity
  8
寸法線
 62
     0
 48
10.0
100
AcDbLine
 10
307.658684845147
 20
364.543451792819
 30
0.0
 11
307.658684845147
 21
266.213484850826
 31
0.0
  0
LINE
  5
4F94
330
4F8F
100
AcDbEntity
  8
寸法線
 62
     0
 48
10.0
100
AcDbLine
 10
63.658684845147
 20
267.463484850826
 30
0.0
 11
301.658684845147
 21
267.463484850826
 31
0.0
  0
INSERT
  5
4F95
330
4F8F
100
AcDbEntity
  8
寸法線
 62
     0
100
AcDbBlockReference
  2
_OPEN30
 10
57.658684845147
 20
267.463484850826
 30
0.0
 41
6.0
 42
6.0
 43
6.0
 50
180.0
  0
INSERT
  5
4F96
330
4F8F
100
AcDbEntity
  8
寸法線
 62
     0
100
AcDbBlockReference
  2
_OPEN30
 10
307.658684845147
 20
267.463484850826
 30
0.0
 41
6.0
 42
6.0
 43
6.0
  0
POINT
  5
4F97
330
4F8F
100
AcDbEntity
  8
DEFPOINTS
 62
     0
100
AcDbPoint
 10
57.658684845147
 20
371.218264292819
 30
0.0
  0
POINT
  5
4F98
330
4F8F
100
AcDbEntity
  8
DEFPOINTS
 62
     0
100
AcDbPoint
 10
307.658684845147
 20
365.168451792819
 30
0.0
  0
POINT
  5
4F99
330
4F8F
100
AcDbEntity
  8
DEFPOINTS
 62
     0
100
AcDbPoint
 10
307.658684845147
 20
267.463484850826
 30
0.0
  0
ENDBLK
  5
4F91
330
4F8F
100
AcDbEntity
  8
0
100
AcDbBlockEnd
  0
BLOCK
  5
4F9B
330
4F9A
100
AcDbEntity
  8
0
100
AcDbBlockBegin
  2
*D86
 70
     1
 10
0.0
 20
0.0
 30
0.0
  3
*D86
  1

  0
LINE
  5
4F9D
330
4F9A
100
AcDbEntity
  8
寸法線
 62
     0
 48
10.0
100
AcDbLine
 10
307.658684845147
 20
364.543451792819
 30
0.0
 11
307.658684845147
 21
286.213484850826
 31
0.0
  0
LINE
  5
4F9E
330
4F9A
100
AcDbEntity
  8
寸法線
 62
     0
 48
10.0
100
AcDbLine
 10
332.658684845147
 20
361.843264292819
 30
0.0
 11
332.658684845147
 21
286.213484850826
 31
0.0
  0
LINE
  5
4F9F
330
4F9A
100
AcDbEntity
  8
寸法線
 62
     0
 48
10.0
100
AcDbLine
 10
313.658684845147
 20
287.463484850826
 30
0.0
 11
326.658684845147
 21
287.463484850826
 31
0.0
  0
INSERT
  5
4FA0
330
4F9A
100
AcDbEntity
  8
寸法線
 62
     0
100
AcDbBlockReference
  2
_OPEN30
 10
307.658684845147
 20
287.463484850826
 30
0.0
 41
6.0
 42
6.0
 43
6.0
 50
180.0
  0
INSERT
  5
4FA1
330
4F9A
100
AcDbEntity
  8
寸法線
 62
     0
100
AcDbBlockReference
  2
_OPEN30
 10
332.658684845147
 20
287.463484850826
 30
0.0
 41
6.0
 42
6.0
 43
6.0
  0
MTEXT
  5
4FA2
330
4F9A
100
AcDbEntity
  8
寸法線
 62
     0
 48
10.0
100
AcDbMText
 10
320.158684845147
 20
292.092651517492
 30
0.0
 40
8.0
 41
0.0
 71
     5
 72
     1
  1
\A1;25
  0
POINT
  5
4FA3
330
4F9A
100
AcDbEntity
  8
DEFPOINTS
 62
     0
100
AcDbPoint
 10
307.658684845147
 20
365.168451792819
 30
0.0
  0
POINT
  5
4FA4
330
4F9A
100
AcDbEntity
  8
DEFPOINTS
 62
     0
100
AcDbPoint
 10
332.658684845147
 20
362.468264292819
 30
0.0
  0
POINT
  5
4FA5
330
4F9A
100
AcDbEntity
  8
DEFPOINTS
 62
     0
100
AcDbPoint
 10
332.658684845147
 20
287.463484850826
 30
0.0
  0
ENDBLK
  5
4F9C
330
4F9A
100
AcDbEntity
  8
0
100
AcDbBlockEnd
  0
BLOCK
  5
4FA7
330
4FA6
100
AcDbEntity
  8
0
100
AcDbBlockBegin
  2
*D87
 70
     1
 10
0.0
 20
0.0
 30
0.0
  3
*D87
  1

  0
LINE
  5
4FA9
330
4FA6
100
AcDbEntity
  8
寸法線
 62
     0
 48
10.0
100
AcDbLine
 10
332.658684845147
 20
361.843264292819
 30
0.0
 11
332.658684845147
 21
286.213484850826
 31
0.0
  0
LINE
  5
4FAA
330
4FA6
100
AcDbEntity
  8
寸法線
 62
     0
 48
10.0
100
AcDbLine
 10
352.658684845147
 20
361.843264292819
 30
0.0
 11
352.658684845147
 21
286.213484850826
 31
0.0
  0
LINE
  5
4FAB
330
4FA6
100
AcDbEntity
  8
寸法線
 62
     0
 48
10.0
100
AcDbLine
 10
338.658684845147
 20
287.463484850826
 30
0.0
 11
346.658684845147
 21
287.463484850826
 31
0.0
  0
INSERT
  5
4FAC
330
4FA6
100
AcDbEntity
  8
寸法線
 62
     0
100
AcDbBlockReference
  2
_OPEN30
 10
332.658684845147
 20
287.463484850826
 30
0.0
 41
6.0
 42
6.0
 43
6.0
 50
180.0
  0
INSERT
  5
4FAD
330
4FA6
100
AcDbEntity
  8
寸法線
 62
     0
100
AcDbBlockReference
  2
_OPEN30
 10
352.658684845147
 20
287.463484850826
 30
0.0
 41
6.0
 42
6.0
 43
6.0
  0
MTEXT
  5
4FAE
330
4FA6
100
AcDbEntity
  8
寸法線
 62
     0
 48
10.0
100
AcDbMText
 10
342.658684845147
 20
292.092651517492
 30
0.0
 40
8.0
 41
0.0
 71
     5
 72
     1
  1
\A1;20
  0
POINT
  5
4FAF
330
4FA6
100
AcDbEntity
  8
DEFPOINTS
 62
     0
100
AcDbPoint
 10
332.658684845147
 20
362.468264292819
 30
0.0
  0
POINT
  5
4FB0
330
4FA6
100
AcDbEntity
  8
DEFPOINTS
 62
     0
100
AcDbPoint
 10
352.658684845147
 20
362.468264292819
 30
0.0
  0
POINT
  5
4FB1
330
4FA6
100
AcDbEntity
  8
DEFPOINTS
 62
     0
100
AcDbPoint
 10
352.658684845147
 20
287.463484850826
 30
0.0
  0
ENDBLK
  5
4FA8
330
4FA6
100
AcDbEntity
  8
0
100
AcDbBlockEnd
  0
BLOCK
  5
4FB3
330
4FB2
100
AcDbEntity
  8
0
100
AcDbBlockBegin
  2
*D88
 70
     1
 10
0.0
 20
0.0
 30
0.0
  3
*D88
  1

  0
LINE
  5
4FB5
330
4FB2
100
AcDbEntity
  8
寸法線
 62
     0
 48
10.0
100
AcDbLine
 10
307.658684845147
 20
364.543451792819
 30
0.0
 11
307.658684845147
 21
266.213484850826
 31
0.0
  0
LINE
  5
4FB6
330
4FB2
100
AcDbEntity
  8
寸法線
 62
     0
 48
10.0
100
AcDbLine
 10
470.658684845147
 20
336.616128994754
 30
0.0
 11
470.658684845147
 21
266.213484850826
 31
0.0
  0
LINE
  5
4FB7
330
4FB2
100
AcDbEntity
  8
寸法線
 62
     0
 48
10.0
100
AcDbLine
 10
313.658684845147
 20
267.463484850826
 30
0.0
 11
464.658684845147
 21
267.463484850826
 31
0.0
  0
INSERT
  5
4FB8
330
4FB2
100
AcDbEntity
  8
寸法線
 62
     0
100
AcDbBlockReference
  2
_OPEN30
 10
307.658684845147
 20
267.463484850826
 30
0.0
 41
6.0
 42
6.0
 43
6.0
 50
180.0
  0
INSERT
  5
4FB9
330
4FB2
100
AcDbEntity
  8
寸法線
 62
     0
100
AcDbBlockReference
  2
_OPEN30
 10
470.658684845147
 20
267.463484850826
 30
0.0
 41
6.0
 42
6.0
 43
6.0
  0
MTEXT
  5
4FBA
330
4FB2
100
AcDbEntity
  8
寸法線
 62
     0
 48
10.0
100
AcDbMText
 10
389.158684845147
 20
272.088484850826
 30
0.0
 40
8.0
 41
0.0
 71
     5
 72
     1
  1
\A1;163
  0
POINT
  5
4FBB
330
4FB2
100
AcDbEntity
  8
DEFPOINTS
 62
     0
100
AcDbPoint
 10
307.658684845147
 20
365.168451792819
 30
0.0
  0
POINT
  5
4FBC
330
4FB2
100
AcDbEntity
  8
DEFPOINTS
 62
     0
100
AcDbPoint
 10
470.658684845147
 20
337.241128994754
 30
0.0
  0
POINT
  5
4FBD
330
4FB2
100
AcDbEntity
  8
DEFPOINTS
 62
     0
100
AcDbPoint
 10
470.658684845147
 20
267.463484850826
 30
0.0
  0
ENDBLK
  5
4FB4
330
4FB2
100
AcDbEntity
  8
0
100
AcDbBlockEnd
  0
BLOCK
  5
4FBF
330
4FBE
100
AcDbEntity
  8
0
100
AcDbBlockBegin
  2
*D89
 70
     1
 10
0.0
 20
0.0
 30
0.0
  3
*D89
  1

  0
LINE
  5
4FC1
330
4FBE
100
AcDbEntity
  8
寸法線
 62
     0
 48
10.0
100
AcDbLine
 10
441.158684845146
 20
317.343264292819
 30
0.0
 11
441.158684845146
 21
286.213484850826
 31
0.0
  0
LINE
  5
4FC2
330
4FBE
100
AcDbEntity
  8
寸法線
 62
     0
 48
10.0
100
AcDbLine
 10
470.658684845147
 20
336.616818763026
 30
0.0
 11
470.658684845147
 21
286.213484850826
 31
0.0
  0
LINE
  5
4FC3
330
4FBE
100
AcDbEntity
  8
寸法線
 62
     0
 48
10.0
100
AcDbLine
 10
447.158684845146
 20
287.463484850826
 30
0.0
 11
464.658684845147
 21
287.463484850826
 31
0.0
  0
INSERT
  5
4FC4
330
4FBE
100
AcDbEntity
  8
寸法線
 62
     0
100
AcDbBlockReference
  2
_OPEN30
 10
441.158684845146
 20
287.463484850826
 30
0.0
 41
6.0
 42
6.0
 43
6.0
 50
180.0
  0
INSERT
  5
4FC5
330
4FBE
100
AcDbEntity
  8
寸法線
 62
     0
100
AcDbBlockReference
  2
_OPEN30
 10
470.658684845147
 20
287.463484850826
 30
0.0
 41
6.0
 42
6.0
 43
6.0
  0
MTEXT
  5
4FC6
330
4FBE
100
AcDbEntity
  8
寸法線
 62
     0
 48
10.0
100
AcDbMText
 10
455.908684845147
 20
292.092651517492
 30
0.0
 40
8.0
 41
0.0
 71
     5
 72
     1
  1
\A1;30
  0
POINT
  5
4FC7
330
4FBE
100
AcDbEntity
  8
DEFPOINTS
 62
     0
100
AcDbPoint
 10
441.158684845146
 20
317.968264292819
 30
0.0
  0
POINT
  5
4FC8
330
4FBE
100
AcDbEntity
  8
DEFPOINTS
 62
     0
100
AcDbPoint
 10
470.658684845147
 20
337.241818763026
 30
0.0
  0
POINT
  5
4FC9
330
4FBE
100
AcDbEntity
  8
DEFPOINTS
 62
     0
100
AcDbPoint
 10
470.658684845147
 20
287.463484850826
 30
0.0
  0
ENDBLK
  5
4FC0
330
4FBE
100
AcDbEntity
  8
0
100
AcDbBlockEnd
  0
BLOCK
  5
4FCB
330
4FCA
100
AcDbEntity
  8
0
100
AcDbBlockBegin
  2
*D90
 70
     1
 10
0.0
 20
0.0
 30
0.0
  3
*D90
  1

  0
LINE
  5
4FCD
330
4FCA
100
AcDbEntity
  8
寸法線
 62
     0
 48
10.0
100
AcDbLine
 10
352.658684845147
 20
361.843264292819
 30
0.0
 11
352.658684845147
 21
286.213484850826
 31
0.0
  0
LINE
  5
4FCE
330
4FCA
100
AcDbEntity
  8
寸法線
 62
     0
 48
10.0
100
AcDbLine
 10
441.158684845146
 20
317.343264292819
 30
0.0
 11
441.158684845146
 21
286.213484850826
 31
0.0
  0
LINE
  5
4FCF
330
4FCA
100
AcDbEntity
  8
寸法線
 62
     0
 48
10.0
100
AcDbLine
 10
358.658684845147
 20
287.463484850826
 30
0.0
 11
435.158684845146
 21
287.463484850826
 31
0.0
  0
INSERT
  5
4FD0
330
4FCA
100
AcDbEntity
  8
寸法線
 62
     0
100
AcDbBlockReference
  2
_OPEN30
 10
352.658684845147
 20
287.463484850826
 30
0.0
 41
6.0
 42
6.0
 43
6.0
 50
180.0
  0
INSERT
  5
4FD1
330
4FCA
100
AcDbEntity
  8
寸法線
 62
     0
100
AcDbBlockReference
  2
_OPEN30
 10
441.158684845146
 20
287.463484850826
 30
0.0
 41
6.0
 42
6.0
 43
6.0
  0
MTEXT
  5
4FD2
330
4FCA
100
AcDbEntity
  8
寸法線
 62
     0
 48
10.0
100
AcDbMText
 10
396.908684845147
 20
292.105151517492
 30
0.0
 40
8.0
 41
0.0
 71
     5
 72
     1
  1
\A1;88
  0
POINT
  5
4FD3
330
4FCA
100
AcDbEntity
  8
DEFPOINTS
 62
     0
100
AcDbPoint
 10
352.658684845147
 20
362.468264292819
 30
0.0
  0
POINT
  5
4FD4
330
4FCA
100
AcDbEntity
  8
DEFPOINTS
 62
     0
100
AcDbPoint
 10
441.158684845146
 20
317.968264292819
 30
0.0
  0
POINT
  5
4FD5
330
4FCA
100
AcDbEntity
  8
DEFPOINTS
 62
     0
100
AcDbPoint
 10
441.158684845146
 20
287.463484850826
 30
0.0
  0
ENDBLK
  5
4FCC
330
4FCA
100
AcDbEntity
  8
0
100
AcDbBlockEnd
  0
ENDSEC
  0
SECTION
  2
ENTITIES
  0
LINE
  5
4428
330
1A
100
AcDbEntity
  8
寸法線
100
AcDbLine
 10
-66.840370126178
 20
191.020242769768
 30
0.0
 11
-66.840370126178
 21
209.770242769768
 31
0.0
  0
LINE
  5
4429
330
1A
100
AcDbEntity
  8
寸法線
100
AcDbLine
 10
-38.090370126178
 20
191.020242769768
 30
0.0
 11
-66.840370126178
 21
191.020242769768
 31
0.0
  0
CIRCLE
  5
442A
330
1A
100
AcDbEntity
  8
寸法線
100
AcDbCircle
 10
18.159629873822
 20
191.020242769768
 30
0.0
 40
3.75
  0
CIRCLE
  5
442B
330
1A
100
AcDbEntity
  8
寸法線
100
AcDbCircle
 10
18.159629873822
 20
191.020242769768
 30
0.0
 40
2.5
  0
CIRCLE
  5
442C
330
1A
100
AcDbEntity
  8
寸法線
100
AcDbCircle
 10
-6.840370126178
 20
191.020242769768
 30
0.0
 40
2.5
  0
CIRCLE
  5
442D
330
1A
100
AcDbEntity
  8
寸法線
100
AcDbCircle
 10
-6.840370126178
 20
191.020242769768
 30
0.0
 40
3.75
  0
CIRCLE
  5
442E
330
1A
100
AcDbEntity
  8
寸法線
100
AcDbCircle
 10
-31.840370126178
 20
191.020242769768
 30
0.0
 40
2.5
  0
CIRCLE
  5
442F
330
1A
100
AcDbEntity
  8
寸法線
100
AcDbCircle
 10
-31.840370126178
 20
191.020242769768
 30
0.0
 40
3.75
  0
LINE
  5
4430
330
1A
100
AcDbEntity
  8
寸法線
100
AcDbLine
 10
28.159629873822
 20
216.020242769768
 30
0.0
 11
28.159629873822
 21
224.770242769768
 31
0.0
  0
LINE
  5
4431
330
1A
100
AcDbEntity
  8
寸法線
100
AcDbLine
 10
-41.840370126178
 20
224.770242769768
 30
0.0
 11
-41.840370126178
 21
216.020242769768
 31
0.0
  0
LINE
  5
4432
330
1A
100
AcDbEntity
  8
寸法線
100
AcDbLine
 10
28.159629873822
 20
216.020242769768
 30
0.0
 11
-41.840370126178
 21
216.020242769768
 31
0.0
  0
LINE
  5
4433
330
1A
100
AcDbEntity
  8
寸法線
100
AcDbLine
 10
24.409629873822
 20
191.020242769768
 30
0.0
 11
53.159629873822
 21
191.020242769768
 31
0.0
  0
LINE
  5
4434
330
1A
100
AcDbEntity
  8
寸法線
100
AcDbLine
 10
53.159629873822
 20
191.020242769768
 30
0.0
 11
53.159629873822
 21
209.770242769768
 31
0.0
  0
LINE
  5
4435
330
1A
100
AcDbEntity
  8
寸法線
100
AcDbLine
 10
18.159629873822
 20
216.020242769768
 30
0.0
 11
18.159629873822
 21
194.770242769768
 31
0.0
  0
LINE
  5
4436
330
1A
100
AcDbEntity
  8
寸法線
100
AcDbLine
 10
-6.840370126178
 20
216.020242769768
 30
0.0
 11
-6.840370126178
 21
194.770242769768
 31
0.0
  0
LINE
  5
4437
330
1A
100
AcDbEntity
  8
寸法線
100
AcDbLine
 10
-31.840370126178
 20
216.020242769768
 30
0.0
 11
-31.840370126178
 21
194.770242769768
 31
0.0
  0
TEXT
  5
4438
330
1A
100
AcDbEntity
  8
寸法線
100
AcDbText
 10
-38.090370126178
 20
175.082742769768
 30
0.0
 40
8.75
  1
B1
100
AcDbText
  0
TEXT
  5
4439
330
1A
100
AcDbEntity
  8
寸法線
100
AcDbText
 10
-13.090370126178
 20
175.082742769768
 30
0.0
 40
8.75
  1
NC
100
AcDbText
  0
TEXT
  5
443A
330
1A
100
AcDbEntity
  8
寸法線
100
AcDbText
 10
11.909629873822
 20
175.082742769768
 30
0.0
 40
8.75
  1
B2
100
AcDbText
  0
LINE
  5
443B
330
1A
100
AcDbEntity
  8
寸法線
100
AcDbLine
 10
18.159629873822
 20
173.520242769768
 30
0.0
 11
18.159629873822
 21
153.520242769768
 31
0.0
  0
LINE
  5
443C
330
1A
100
AcDbEntity
  8
寸法線
100
AcDbLine
 10
13.159629873822
 20
148.520242769768
 30
0.0
 11
-66.840370126178
 21
148.520242769768
 31
0.0
  0
TEXT
  5
443D
330
1A
100
AcDbEntity
  8
寸法線
100
AcDbText
 10
-109.215370126177
 20
144.145242769768
 30
0.0
 40
8.75
  1
変換器へ
100
AcDbText
  0
ARC
  5
443E
330
1A
100
AcDbEntity
  8
寸法線
100
AcDbCircle
 10
13.159629873822
 20
153.520242769768
 30
0.0
 40
5.0
100
AcDbArc
 50
270.0
 51
0.0
  0
ARC
  5
443F
330
1A
100
AcDbEntity
  8
寸法線
100
AcDbCircle
 10
-11.840370126178
 20
153.520242769768
 30
0.0
 40
5.0
100
AcDbArc
 50
270.0
 51
0.0
  0
LINE
  5
4440
330
1A
100
AcDbEntity
  8
寸法線
100
AcDbLine
 10
-6.840370126178
 20
173.520242769768
 30
0.0
 11
-6.840370126178
 21
153.520242769768
 31
0.0
  0
ARC
  5
4441
330
1A
100
AcDbEntity
  8
寸法線
100
AcDbCircle
 10
-36.840370126178
 20
153.520242769768
 30
0.0
 40
5.0
100
AcDbArc
 50
270.0
 51
0.0
  0
LINE
  5
4442
330
1A
100
AcDbEntity
  8
寸法線
100
AcDbLine
 10
-31.840370126178
 20
173.520242769768
 30
0.0
 11
-31.840370126178
 21
153.520242769768
 31
0.0
  0
TEXT
  5
4443
330
1A
100
AcDbEntity
  8
寸法線
100
AcDbText
 10
544.0708813453
 20
282.054912900617
 30
0.0
 40
8.75
  1
ia3nG5
100
AcDbText
  0
TEXT
  5
4444
330
1A
100
AcDbEntity
  8
寸法線
100
AcDbText
 10
544.0708813453
 20
269.554912900617
 30
0.0
 40
8.75
  1
労検第T68867号
100
AcDbText
  0
TEXT
  5
4445
330
1A
100
AcDbEntity
  8
寸法線
100
AcDbText
 10
544.0708813453
 20
257.054912900617
 30
0.0
 40
8.75
  1
本質安全防爆構造
100
AcDbText
  0
LWPOLYLINE
  5
4A19
330
1A
100
AcDbEntity
  8
外形線
100
AcDbPolyline
 90
        4
 70
     1
 43
0.0
 10
352.658684845147
 20
362.467574524548
 10
355.658684845147
 20
362.467574524548
 10
355.658684845147
 20
400.467574524547
 10
352.658684845147
 20
400.467574524547
  0
TEXT
  5
4A1A
330
1A
100
AcDbEntity
  8
寸法線
100
AcDbText
 10
503.848094429545
 20
506.223809919728
 30
0.0
 40
8.0
  1
塗装色：10YR7.5/14
100
AcDbText
  0
LINE
  5
4A1B
330
1A
100
AcDbEntity
  8
下書線
100
AcDbLine
 10
526.659776436146
 20
465.96826414529
 30
0.0
 11
38.946628328818
 21
465.96826414529
 31
0.0
  0
MTEXT
  5
4A1C
330
1A
100
AcDbEntity
  8
寸法線
 48
10.0
100
AcDbMText
 10
306.640014465393
 20
467.400546232795
 30
0.0
 40
8.0
 41
0.0
 71
     7
 72
     1
  1
取付ねじR1"\PSUS304
  0
LWPOLYLINE
  5
4A1E
330
1A
100
AcDbEntity
  8
外形線
100
AcDbPolyline
 90
        6
 70
     1
 43
0.0
 10
158.158684845147
 20
370.718264292819
 10
207.658684845147
 20
370.718264292819
 10
207.658684845147
 20
392.218264292819
 10
158.158684845147
 20
392.218264292819
 10
157.658684845147
 20
391.718264292819
 10
157.658684845147
 20
371.218264292819
  0
LWPOLYLINE
  5
4A1F
330
1A
100
AcDbEntity
  8
外形線
100
AcDbPolyline
 90
        6
 70
     1
 43
0.0
 10
208.158684845147
 20
370.718264292819
 10
307.658684845147
 20
370.718264292819
 10
307.658684845147
 20
392.218264292819
 10
208.158684845147
 20
392.218264292819
 10
207.658684845147
 20
391.718264292819
 10
207.658684845147
 20
371.218264292819
  0
LINE
  5
4A20
330
1A
100
AcDbEntity
  8
中心線
 48
10.0
100
AcDbLine
 10
49.487618676051
 20
381.468264292819
 30
0.0
 11
469.731120717683
 21
381.468264292819
 31
0.0
  0
MTEXT
  5
4A21
330
1A
100
AcDbEntity
  8
寸法線
 48
10.0
100
AcDbMText
 10
486.714851009652
 20
467.252277667275
 30
0.0
 40
8.0
 41
0.0
 71
     7
 72
     1
  1
アルミ\Pダイカスト
  0
MTEXT
  5
4A22
330
1A
100
AcDbEntity
  8
寸法線
 48
10.0
100
AcDbMText
 10
379.538735077263
 20
467.252277667275
 30
0.0
 40
8.0
 41
0.0
 71
     7
 72
     1
  1
アルミ\Pダイカスト
  0
MTEXT
  5
4A23
330
1A
100
AcDbEntity
  8
寸法線
 48
10.0
100
AcDbMText
 10
440.205224438562
 20
467.400546232795
 30
0.0
 40
8.0
 41
0.0
 71
     7
 72
     1
  1
Oリング
  0
MTEXT
  5
4A24
330
1A
100
AcDbEntity
  8
寸法線
 48
10.0
100
AcDbMText
 10
242.807509463576
 20
467.400546232795
 30
0.0
 40
8.0
 41
0.0
 71
     7
 72
     1
  1
\A1;接地電極\PSUS304
  0
MTEXT
  5
4A25
330
1A
100
AcDbEntity
  8
寸法線
 48
10.0
100
AcDbMText
 10
200.956031309109
 20
488.733879566129
 30
0.0
 40
8.0
 41
0.0
 71
     3
 72
     1
  1
\A1;シール\Pシリコンゴム
  0
MTEXT
  5
4A26
330
1A
100
AcDbEntity
  8
寸法線
 48
10.0
100
AcDbMText
 10
129.687114446675
 20
467.400546232795
 30
0.0
 40
8.0
 41
0.0
 71
     9
 72
     1
  1
\A1;絶縁体\Pポリアセタール
  0
MTEXT
  5
4A27
330
1A
100
AcDbEntity
  8
寸法線
 48
10.0
100
AcDbMText
 10
48.833014325721
 20
467.709224137508
 30
0.0
 40
8.0
 41
0.0
 71
     9
 72
     1
  1
\A1;検知電極\PSUS304
  0
DIMENSION
  5
4A28
330
1A
100
AcDbEntity
  8
寸法線
 48
10.0
100
AcDbDimension
  2
*D36
 10
45.020216588874
 20
370.718264292819
 30
0.0
 11
45.020216588874
 21
411.172296550884
 31
0.0
 70
   160
  1
φ<>
  3
ISO-25
100
AcDbAlignedDimension
 13
58.158684845147
 23
392.218264292819
 33
0.0
 14
58.158684845147
 24
370.718264292819
 34
0.0
 50
90.0
100
AcDbRotatedDimension
1001
ACAD
1000
DSTYLE
1002
{
1070
     5
1000
OPEN30
1070
    41
1040
6.0
1070
    47
1040
0.1
1070
    48
1040
0.1
1070
    73
1070
     0
1070
   140
1040
8.0
1070
   271
1070
     1
1070
   272
1070
     1
1070
   341
1005
2AF4
1002
}
  0
DIMENSION
  5
4A30
330
1A
100
AcDbEntity
  8
寸法線
 48
10.0
100
AcDbDimension
  2
*D44
 10
499.764645014615
 20
323.468264292819
 30
0.0
 11
495.139645014615
 21
381.465212154633
 31
0.0
 70
    32
  1
φ<>
  3
ISO-25
100
AcDbAlignedDimension
 13
443.659720748777
 23
439.462160016446
 33
0.0
 14
443.659720748777
 24
323.468264292819
 34
0.0
 50
90.0
100
AcDbRotatedDimension
1001
ACAD
1000
DSTYLE
1002
{
1070
     5
1000
OPEN30
1070
    41
1040
6.0
1070
    47
1040
0.1
1070
    48
1040
0.1
1070
    73
1070
     0
1070
   140
1040
8.0
1070
   271
1070
     1
1070
   272
1070
     1
1070
   341
1005
2AF4
1002
}
  0
INSERT
  5
4A34
330
1A
100
AcDbEntity
  8
外形線
100
AcDbBlockReference
  2
静電容量センサ
 10
-665.239840817959
 20
-713.218516669758
 30
0.0
  0
MTEXT
  5
4A37
330
1A
100
AcDbEntity
  8
寸法線
 48
10.0
100
AcDbMText
 10
447.033227169481
 20
235.097829759443
 30
0.0
 40
8.0
 41
0.0
 71
     7
 72
     1
  1
導線取出口\PG 1/2"
  0
LINE
  5
4A38
330
1A
100
AcDbEntity
  8
外形線
100
AcDbLine
 10
350.961673293083
 20
403.407574522025
 30
0.0
 11
352.658684845147
 21
400.468264292819
 31
0.0
  0
LINE
  5
4A39
330
1A
100
AcDbEntity
  8
細線
100
AcDbLine
 10
307.658684845147
 20
366.647451792819
 30
0.0
 11
332.658684845147
 21
365.866201792819
 31
0.0
  0
LINE
  5
4A3A
330
1A
100
AcDbEntity
  8
細線
100
AcDbLine
 10
307.658684845147
 20
396.289076792819
 30
0.0
 11
332.658684845147
 21
397.070326792819
 31
0.0
  0
LINE
  5
4A3B
330
1A
100
AcDbEntity
  8
外形線
100
AcDbLine
 10
307.658684845147
 20
365.168451792819
 30
0.0
 11
332.658684845147
 21
364.387201792819
 31
0.0
  0
LINE
  5
4A3C
330
1A
100
AcDbEntity
  8
外形線
100
AcDbLine
 10
307.658684845147
 20
365.168451792819
 30
0.0
 11
307.658684845147
 21
397.768076792819
 31
0.0
  0
LINE
  5
4A3D
330
1A
100
AcDbEntity
  8
外形線
100
AcDbLine
 10
307.658684845147
 20
397.768076792819
 30
0.0
 11
332.658684845147
 21
398.549326792819
 31
0.0
  0
ARC
  5
4A3E
330
1A
100
AcDbEntity
  8
細線
100
AcDbCircle
 10
316.519290367379
 20
359.025594430594
 30
0.0
 40
36.303
100
AcDbArc
 50
5.441624729911
 51
18.423300686138
  0
ARC
  5
4A3F
330
1A
100
AcDbEntity
  8
細線
100
AcDbCircle
 10
368.798079322915
 20
359.025594430594
 30
0.0
 40
36.303
100
AcDbArc
 50
161.576699313861
 51
174.558375270088
  0
ARC
  5
4A40
330
1A
100
AcDbEntity
  8
細線
100
AcDbCircle
 10
316.519290367379
 20
403.910934155044
 30
0.0
 40
36.303
100
AcDbArc
 50
341.576699313862
 51
354.558375270088
  0
ARC
  5
4A41
330
1A
100
AcDbEntity
  8
細線
100
AcDbCircle
 10
368.798079322915
 20
403.910934155044
 30
0.0
 40
36.303
100
AcDbArc
 50
185.441624729912
 51
198.423300686138
  0
ARC
  5
4A42
330
1A
100
AcDbEntity
  8
細線
100
AcDbCircle
 10
316.355696397209
 20
381.468264292819
 30
0.0
 40
36.30298844793743
100
AcDbArc
 50
342.412046226007
 51
17.587953773993
  0
ARC
  5
4A43
330
1A
100
AcDbEntity
  8
細線
100
AcDbCircle
 10
368.961673293082
 20
381.468264292819
 30
0.0
 40
36.30298844793568
100
AcDbArc
 50
162.412046226006
 51
197.587953773994
  0
LINE
  5
4A44
330
1A
100
AcDbEntity
  8
細線
100
AcDbLine
 10
334.355696397211
 20
370.498609178216
 30
0.0
 11
350.961673293083
 21
370.498609178216
 31
0.0
  0
LINE
  5
4A45
330
1A
100
AcDbEntity
  8
細線
100
AcDbLine
 10
334.355696397211
 20
392.437919407422
 30
0.0
 11
350.961673293083
 21
392.437919407422
 31
0.0
  0
LINE
  5
4A46
330
1A
100
AcDbEntity
  8
外形線
100
AcDbLine
 10
352.658684845147
 20
400.468264292819
 30
0.0
 11
352.658684845147
 21
362.468264292819
 31
0.0
  0
LINE
  5
4A47
330
1A
100
AcDbEntity
  8
外形線
100
AcDbLine
 10
350.961673293083
 20
359.528954063614
 30
0.0
 11
352.658684845147
 21
362.468264292819
 31
0.0
  0
LINE
  5
4A48
330
1A
100
AcDbEntity
  8
外形線
100
AcDbLine
 10
332.658684845147
 20
362.468264292819
 30
0.0
 11
334.355696397211
 21
359.528954063614
 31
0.0
  0
LINE
  5
4A49
330
1A
100
AcDbEntity
  8
外形線
100
AcDbLine
 10
334.355696397211
 20
359.528954063614
 30
0.0
 11
350.961673293083
 21
359.528954063614
 31
0.0
  0
LINE
  5
4A4A
330
1A
100
AcDbEntity
  8
外形線
100
AcDbLine
 10
332.658684845147
 20
400.468264292819
 30
0.0
 11
334.355696397211
 21
403.407574522025
 31
0.0
  0
LINE
  5
4A4B
330
1A
100
AcDbEntity
  8
外形線
100
AcDbLine
 10
332.658684845147
 20
400.468264292819
 30
0.0
 11
332.658684845147
 21
362.468264292819
 31
0.0
  0
LINE
  5
4A4C
330
1A
100
AcDbEntity
  8
外形線
100
AcDbLine
 10
334.355696397211
 20
403.407574522025
 30
0.0
 11
350.961673293083
 21
403.407574522025
 31
0.0
  0
LEADER
  5
4A4D
330
1A
100
AcDbEntity
  8
寸法線
 48
10.0
100
AcDbLeader
  3
ISO-25
 76
     3
 10
207.658684845147
 20
391.718264292819
 30
0.0
 10
201.820322176294
 20
465.964290482046
 30
0.0
 10
189.318550569227
 20
465.964290482046
 30
0.0
1001
ACAD
1000
DSTYLE
1002
{
1070
     5
1000
OPEN30
1070
   147
1040
0.625
1070
    77
1070
     0
1070
    41
1040
6.0
1070
    47
1040
0.1
1070
    48
1040
0.1
1070
    73
1070
     0
1070
   140
1040
8.0
1070
   271
1070
     1
1070
   272
1070
     1
1070
   341
1005
2AF4
1070
   342
1005
2AF4
1002
}
  0
LEADER
  5
4A4E
330
1A
100
AcDbEntity
  8
寸法線
 48
10.0
100
AcDbLeader
  3
ISO-25
 76
     3
 10
167.535427395841
 20
392.225922393316
 30
0.0
 10
129.330888831807
 20
465.964290482046
 30
0.0
 10
117.134037225518
 20
465.964290482046
 30
0.0
1001
ACAD
1000
DSTYLE
1002
{
1070
     5
1000
OPEN30
1070
   147
1040
0.625
1070
    77
1070
     0
1070
    41
1040
6.0
1070
    47
1040
0.1
1070
    48
1040
0.1
1070
    73
1070
     0
1070
   140
1040
8.0
1070
   271
1070
     1
1070
   272
1070
     1
1070
   341
1005
2AF4
1070
   342
1005
2AF4
1002
}
  0
LEADER
  5
4A4F
330
1A
100
AcDbEntity
  8
寸法線
 48
10.0
100
AcDbLeader
  3
ISO-25
 76
     3
 10
76.421832453631
 20
392.218264292819
 30
0.0
 10
49.084545610086
 20
465.96826414529
 30
0.0
 10
39.93690690537
 20
465.96826414529
 30
0.0
1001
ACAD
1000
DSTYLE
1002
{
1070
     5
1000
OPEN30
1070
   147
1040
0.625
1070
    77
1070
     0
1070
    41
1040
6.0
1070
    47
1040
0.1
1070
    48
1040
0.1
1070
    73
1070
     0
1070
   140
1040
8.0
1070
   271
1070
     1
1070
   272
1070
     1
1070
   341
1005
2AF4
1070
   342
1005
2AF4
1002
}
  0
LEADER
  5
4A50
330
1A
100
AcDbEntity
  8
寸法線
 48
10.0
100
AcDbLeader
  3
ISO-25
 76
     3
 10
242.797179935922
 20
392.225922393316
 30
0.0
 10
242.797179935922
 20
465.964290482046
 30
0.0
 10
254.38418638314
 20
465.964290482046
 30
0.0
1001
ACAD
1000
DSTYLE
1002
{
1070
     5
1000
OPEN30
1070
   147
1040
0.625
1070
    77
1070
     0
1070
    41
1040
6.0
1070
    47
1040
0.1
1070
    48
1040
0.1
1070
    73
1070
     0
1070
   140
1040
8.0
1070
   271
1070
     1
1070
   272
1070
     1
1070
   341
1005
2AF4
1070
   342
1005
2AF4
1002
}
  0
LEADER
  5
4A51
330
1A
100
AcDbEntity
  8
寸法線
 48
10.0
100
AcDbLeader
  3
ISO-25
 76
     3
 10
315.314403119338
 20
398.320002360465
 30
0.0
 10
306.776609573693
 20
465.964290482046
 30
0.0
 10
316.839008280746
 20
465.964290482046
 30
0.0
1001
ACAD
1000
DSTYLE
1002
{
1070
     5
1000
OPEN30
1070
   147
1040
0.625
1070
    77
1070
     0
1070
    41
1040
6.0
1070
    47
1040
0.1
1070
    48
1040
0.1
1070
    73
1070
     0
1070
   140
1040
8.0
1070
   271
1070
     1
1070
   272
1070
     1
1070
   341
1005
2AF4
1070
   342
1005
2AF4
1002
}
  0
LEADER
  5
4A52
330
1A
100
AcDbEntity
  8
寸法線
 48
10.0
100
AcDbLeader
  3
ISO-25
 76
     3
 10
442.242150576707
 20
438.558055428828
 30
0.0
 10
439.825916866048
 20
465.96826414529
 30
0.0
 10
445.603385376694
 20
465.96826414529
 30
0.0
1001
ACAD
1000
DSTYLE
1002
{
1070
     5
1000
OPEN30
1070
   147
1040
0.625
1070
    77
1070
     0
1070
    41
1040
6.0
1070
    47
1040
0.1
1070
    48
1040
0.1
1070
    73
1070
     0
1070
   140
1040
8.0
1070
   271
1070
     1
1070
   272
1070
     1
1070
   341
1005
2AF4
1070
   342
1005
2AF4
1002
}
  0
LEADER
  5
4A53
330
1A
100
AcDbEntity
  8
寸法線
 48
10.0
100
AcDbLeader
  3
ISO-25
 76
     3
 10
381.105836120392
 20
433.699167718078
 30
0.0
 10
381.105836120392
 20
465.924966415834
 30
0.0
 10
388.774111381973
 20
465.924966415834
 30
0.0
1001
ACAD
1000
DSTYLE
1002
{
1070
     5
1000
OPEN30
1070
   147
1040
0.625
1070
    77
1070
     0
1070
    41
1040
6.0
1070
    47
1040
0.1
1070
    48
1040
0.1
1070
    73
1070
     0
1070
   140
1040
8.0
1070
   271
1070
     1
1070
   272
1070
     1
1070
   341
1005
2AF4
1070
   342
1005
2AF4
1002
}
  0
LEADER
  5
4A54
330
1A
100
AcDbEntity
  8
寸法線
 48
10.0
100
AcDbLeader
  3
ISO-25
 76
     3
 10
465.467756668672
 20
428.495054606057
 30
0.0
 10
486.466706393729
 20
465.930491132702
 30
0.0
 10
494.698295717455
 20
465.930491132702
 30
0.0
1001
ACAD
1000
DSTYLE
1002
{
1070
     5
1000
OPEN30
1070
   147
1040
0.625
1070
    77
1070
     0
1070
    41
1040
6.0
1070
    47
1040
0.1
1070
    48
1040
0.1
1070
    73
1070
     0
1070
   140
1040
8.0
1070
   271
1070
     1
1070
   272
1070
     1
1070
   341
1005
2AF4
1070
   342
1005
2AF4
1002
}
  0
LEADER
  5
4A55
330
1A
100
AcDbEntity
  8
寸法線
 48
10.0
100
AcDbLeader
  3
ISO-25
 76
     3
 10
425.531362230968
 20
314.538727859207
 30
0.0
 10
444.337445046169
 20
233.730188143012
 30
0.0
 10
454.815119094387
 20
233.730188143012
 30
0.0
1001
ACAD
1000
DSTYLE
1002
{
1070
     5
1000
OPEN30
1070
   147
1040
0.625
1070
    77
1070
     0
1070
    41
1040
6.0
1070
    47
1040
0.1
1070
    48
1040
0.1
1070
    73
1070
     0
1070
   140
1040
8.0
1070
   271
1070
     1
1070
   272
1070
     1
1070
   341
1005
2AF4
1070
   342
1005
2AF4
1002
}
  0
LWPOLYLINE
  5
4B24
330
1A
100
AcDbEntity
  8
外形線
100
AcDbPolyline
 90
        6
 70
     1
 43
0.0
 10
58.158684845147
 20
370.718264292819
 10
157.658684845147
 20
370.718264292819
 10
157.658684845147
 20
392.218264292819
 10
58.158684845147
 20
392.218264292819
 10
57.658684845147
 20
391.718264292819
 10
57.658684845147
 20
371.218264292819
  0
DIMENSION
  5
4CB6
330
1A
100
AcDbEntity
  8
寸法線
 48
10.0
100
AcDbDimension
  2
*D51
 10
182.908684845147
 20
370.718264292819
 30
0.0
 11
182.908684845147
 21
411.172296550884
 31
0.0
 70
   160
  1
φ<>
  3
ISO-25
100
AcDbAlignedDimension
 13
196.04715310142
 23
392.218264292819
 33
0.0
 14
196.04715310142
 24
370.718264292819
 34
0.0
 50
90.0
100
AcDbRotatedDimension
1001
ACAD
1000
DSTYLE
1002
{
1070
     5
1000
OPEN30
1070
    41
1040
6.0
1070
    47
1040
0.1
1070
    48
1040
0.1
1070
    73
1070
     0
1070
   140
1040
8.0
1070
   271
1070
     1
1070
   272
1070
     1
1070
   341
1005
2AF4
1002
}
  0
DIMENSION
  5
4D01
330
1A
100
AcDbEntity
  8
寸法線
 48
10.0
100
AcDbDimension
  2
*D54
 10
276.255576472616
 20
370.718264292819
 30
0.0
 11
276.255576472616
 21
411.172296550884
 31
0.0
 70
   160
  1
φ<>
  3
ISO-25
100
AcDbAlignedDimension
 13
289.394044728889
 23
392.218264292819
 33
0.0
 14
289.394044728889
 24
370.718264292819
 34
0.0
 50
90.0
100
AcDbRotatedDimension
1001
ACAD
1000
DSTYLE
1002
{
1070
     5
1000
OPEN30
1070
    41
1040
6.0
1070
    47
1040
0.1
1070
    48
1040
0.1
1070
    73
1070
     0
1070
   140
1040
8.0
1070
   271
1070
     1
1070
   272
1070
     1
1070
   341
1005
2AF4
1002
}
  0
DIMENSION
  5
4F4C
330
1A
100
AcDbEntity
  8
寸法線
 48
10.0
100
AcDbDimension
  2
*D82
 10
157.658684845147
 20
287.463484850826
 30
0.0
 11
107.658684845147
 21
292.088484850826
 31
0.0
 70
    32
  1
 
  3
ISO-25
100
AcDbAlignedDimension
 13
57.658684845147
 23
371.218264292819
 33
0.0
 14
157.658684845147
 24
370.718264292819
 34
0.0
100
AcDbRotatedDimension
1001
ACAD
1000
DSTYLE
1002
{
1070
     5
1000
OPEN30
1070
    41
1040
6.0
1070
    47
1040
0.1
1070
    48
1040
0.1
1070
    73
1070
     0
1070
   140
1040
8.0
1070
   271
1070
     1
1070
   272
1070
     1
1070
   341
1005
2AF4
1002
}
  0
DIMENSION
  5
4F4D
330
1A
100
AcDbEntity
  8
寸法線
 48
10.0
100
AcDbDimension
  2
*D83
 10
207.658684845147
 20
287.463484850826
 30
0.0
 11
182.658684845147
 21
292.088484850826
 31
0.0
 70
    32
  1
 
  3
ISO-25
100
AcDbAlignedDimension
 13
157.658684845147
 23
370.718264292819
 33
0.0
 14
207.658684845147
 24
370.718264292819
 34
0.0
100
AcDbRotatedDimension
1001
ACAD
1000
DSTYLE
1002
{
1070
     5
1000
OPEN30
1070
    41
1040
6.0
1070
    47
1040
0.1
1070
    48
1040
0.1
1070
    73
1070
     0
1070
   140
1040
8.0
1070
   271
1070
     1
1070
   272
1070
     1
1070
   341
1005
2AF4
1002
}
  0
DIMENSION
  5
4F4E
330
1A
100
AcDbEntity
  8
寸法線
 48
10.0
100
AcDbDimension
  2
*D84
 10
307.658684845147
 20
287.463484850826
 30
0.0
 11
257.658684845147
 21
292.092651517492
 31
0.0
 70
    32
  1
 
  3
ISO-25
100
AcDbAlignedDimension
 13
207.658684845147
 23
370.718264292819
 33
0.0
 14
307.658684845147
 24
365.168451792819
 34
0.0
100
AcDbRotatedDimension
1001
ACAD
1000
DSTYLE
1002
{
1070
     5
1000
OPEN30
1070
    41
1040
6.0
1070
    47
1040
0.1
1070
    48
1040
0.1
1070
    73
1070
     0
1070
   140
1040
8.0
1070
   271
1070
     1
1070
   272
1070
     1
1070
   341
1005
2AF4
1002
}
  0
DIMENSION
  5
4F4F
330
1A
100
AcDbEntity
  8
寸法線
 48
10.0
100
AcDbDimension
  2
*D85
 10
307.658684845147
 20
267.463484850826
 30
0.0
 11
182.658684845147
 21
272.092651517492
 31
0.0
 70
    32
  1
 
  3
ISO-25
100
AcDbAlignedDimension
 13
57.658684845147
 23
371.218264292819
 33
0.0
 14
307.658684845147
 24
365.168451792819
 34
0.0
100
AcDbRotatedDimension
1001
ACAD
1000
DSTYLE
1002
{
1070
     5
1000
OPEN30
1070
    41
1040
6.0
1070
    47
1040
0.1
1070
    48
1040
0.1
1070
    73
1070
     0
1070
   140
1040
8.0
1070
   271
1070
     1
1070
   272
1070
     1
1070
   341
1005
2AF4
1002
}
  0
DIMENSION
  5
4F50
330
1A
100
AcDbEntity
  8
寸法線
 48
10.0
100
AcDbDimension
  2
*D86
 10
332.658684845147
 20
287.463484850826
 30
0.0
 11
320.158684845147
 21
292.092651517492
 31
0.0
 70
    32
  3
ISO-25
100
AcDbAlignedDimension
 13
307.658684845147
 23
365.168451792819
 33
0.0
 14
332.658684845147
 24
362.468264292819
 34
0.0
100
AcDbRotatedDimension
1001
ACAD
1000
DSTYLE
1002
{
1070
     5
1000
OPEN30
1070
    41
1040
6.0
1070
    47
1040
0.1
1070
    48
1040
0.1
1070
    73
1070
     0
1070
   140
1040
8.0
1070
   271
1070
     1
1070
   272
1070
     1
1070
   341
1005
2AF4
1002
}
  0
DIMENSION
  5
4F51
330
1A
100
AcDbEntity
  8
寸法線
 48
10.0
100
AcDbDimension
  2
*D87
 10
352.658684845147
 20
287.463484850826
 30
0.0
 11
342.658684845147
 21
292.092651517492
 31
0.0
 70
    32
  3
ISO-25
100
AcDbAlignedDimension
 13
332.658684845147
 23
362.468264292819
 33
0.0
 14
352.658684845147
 24
362.468264292819
 34
0.0
100
AcDbRotatedDimension
1001
ACAD
1000
DSTYLE
1002
{
1070
     5
1000
OPEN30
1070
    41
1040
6.0
1070
    47
1040
0.1
1070
    48
1040
0.1
1070
    73
1070
     0
1070
   140
1040
8.0
1070
   271
1070
     1
1070
   272
1070
     1
1070
   341
1005
2AF4
1002
}
  0
DIMENSION
  5
4F52
330
1A
100
AcDbEntity
  8
寸法線
 48
10.0
100
AcDbDimension
  2
*D88
 10
470.658684845147
 20
267.463484850826
 30
0.0
 11
389.158684845147
 21
272.088484850826
 31
0.0
 70
    32
  3
ISO-25
100
AcDbAlignedDimension
 13
307.658684845147
 23
365.168451792819
 33
0.0
 14
470.658684845147
 24
337.241128994754
 34
0.0
100
AcDbRotatedDimension
1001
ACAD
1000
DSTYLE
1002
{
1070
     5
1000
OPEN30
1070
    41
1040
6.0
1070
    47
1040
0.1
1070
    48
1040
0.1
1070
    73
1070
     0
1070
   140
1040
8.0
1070
   271
1070
     1
1070
   272
1070
     1
1070
   341
1005
2AF4
1002
}
  0
DIMENSION
  5
4F53
330
1A
100
AcDbEntity
  8
寸法線
 48
10.0
100
AcDbDimension
  2
*D89
 10
470.658684845147
 20
287.463484850826
 30
0.0
 11
455.908684845147
 21
292.092651517492
 31
0.0
 70
    32
  1
30
  3
ISO-25
100
AcDbAlignedDimension
 13
441.158684845146
 23
317.968264292819
 33
0.0
 14
470.658684845147
 24
337.241818763026
 34
0.0
100
AcDbRotatedDimension
1001
ACAD
1000
DSTYLE
1002
{
1070
     5
1000
OPEN30
1070
    41
1040
6.0
1070
    47
1040
0.1
1070
    48
1040
0.1
1070
    73
1070
     0
1070
   140
1040
8.0
1070
   271
1070
     1
1070
   272
1070
     1
1070
   341
1005
2AF4
1002
}
  0
DIMENSION
  5
4F54
330
1A
100
AcDbEntity
  8
寸法線
 48
10.0
100
AcDbDimension
  2
*D90
 10
441.158684845146
 20
287.463484850826
 30
0.0
 11
396.908684845147
 21
292.105151517492
 31
0.0
 70
    32
  1
88
  3
ISO-25
100
AcDbAlignedDimension
 13
352.658684845147
 23
362.468264292819
 33
0.0
 14
441.158684845146
 24
317.968264292819
 34
0.0
100
AcDbRotatedDimension
1001
ACAD
1000
DSTYLE
1002
{
1070
     5
1000
OPEN30
1070
    41
1040
6.0
1070
    47
1040
0.1
1070
    48
1040
0.1
1070
    73
1070
     0
1070
   140
1040
8.0
1070
   271
1070
     1
1070
   272
1070
     1
1070
   341
1005
2AF4
1002
}
  0
ARC
  5
4F55
330
1A
100
AcDbEntity
  8
寸法線
100
AcDbCircle
 10
255.482046454673
 20
290.768810459316
 30
0.0
 40
1.76059
100
AcDbArc
 50
252.903398883406
 51
337.412611017141
  0
ARC
  5
4F56
330
1A
100
AcDbEntity
  8
寸法線
100
AcDbCircle
 10
250.936026454673
 20
294.090038459316
 30
0.0
 40
5.02039
100
AcDbArc
 50
274.628927150735
 51
33.374029121142
  0
ARC
  5
4F57
330
1A
100
AcDbEntity
  8
寸法線
100
AcDbCircle
 10
250.944448454673
 20
294.090954459316
 30
0.0
 40
5.013138
100
AcDbArc
 50
273.280470979898
 51
33.415912335969
  0
ARC
  5
4F58
330
1A
100
AcDbEntity
  8
寸法線
100
AcDbCircle
 10
257.295034454673
 20
293.086010459316
 30
0.0
 40
4.62938
100
AcDbArc
 50
123.469024399698
 51
239.774013712205
  0
ARC
  5
4F59
330
1A
100
AcDbEntity
  8
寸法線
100
AcDbCircle
 10
257.295034454673
 20
293.086010459316
 30
0.0
 40
4.629386
100
AcDbArc
 50
123.469024399698
 51
239.773899120646
  0
TEXT
  5
4F5A
330
1A
100
AcDbEntity
  8
寸法線
100
AcDbText
 10
258.220876454673
 20
288.478282459316
 30
0.0
 40
4.0
  1
３
 41
0.854632287386
  7
EXCADSTD
 72
     5
 11
260.841748802657
 21
288.478282459316
 31
0.0
100
AcDbText
  0
ARC
  5
4F5B
330
1A
100
AcDbEntity
  8
寸法線
100
AcDbCircle
 10
184.206793139918
 20
290.362405366407
 30
0.0
 40
1.76059
100
AcDbArc
 50
252.903398883406
 51
337.412611017141
  0
ARC
  5
4F5C
330
1A
100
AcDbEntity
  8
寸法線
100
AcDbCircle
 10
179.660773139918
 20
293.683693366407
 30
0.0
 40
5.02039
100
AcDbArc
 50
274.628927150735
 51
33.374029121142
  0
ARC
  5
4F5D
330
1A
100
AcDbEntity
  8
寸法線
100
AcDbCircle
 10
179.669197139918
 20
293.684549366407
 30
0.0
 40
5.013138
100
AcDbArc
 50
273.280470979898
 51
33.415912335969
  0
ARC
  5
4F5E
330
1A
100
AcDbEntity
  8
寸法線
100
AcDbCircle
 10
186.019783139918
 20
292.679665366407
 30
0.0
 40
4.62938
100
AcDbArc
 50
123.469024399698
 51
239.774013712205
  0
ARC
  5
4F5F
330
1A
100
AcDbEntity
  8
寸法線
100
AcDbCircle
 10
186.019783139918
 20
292.679665366407
 30
0.0
 40
4.629386
100
AcDbArc
 50
123.469024399698
 51
239.773899120646
  0
TEXT
  5
4F60
330
1A
100
AcDbEntity
  8
寸法線
100
AcDbText
 10
186.945685139918
 20
288.071877366407
 30
0.0
 40
4.0
  1
２
 41
0.786507233152
  7
EXCADSTD
 72
     5
 11
189.357640654917
 21
288.071877366407
 31
0.0
100
AcDbText
  0
ARC
  5
4F61
330
1A
100
AcDbEntity
  8
寸法線
100
AcDbCircle
 10
105.688411336162
 20
290.238583108558
 30
0.0
 40
1.76059
100
AcDbArc
 50
252.903398883406
 51
337.41261101714
  0
ARC
  5
4F62
330
1A
100
AcDbEntity
  8
寸法線
100
AcDbCircle
 10
101.142391336162
 20
293.559811108558
 30
0.0
 40
5.02039
100
AcDbArc
 50
274.628927150735
 51
33.374029121142
  0
ARC
  5
4F63
330
1A
100
AcDbEntity
  8
寸法線
100
AcDbCircle
 10
101.150753336162
 20
293.560727108558
 30
0.0
 40
5.013138
100
AcDbArc
 50
273.280470979898
 51
33.415912335969
  0
ARC
  5
4F64
330
1A
100
AcDbEntity
  8
寸法線
100
AcDbCircle
 10
107.501339336162
 20
292.555783108558
 30
0.0
 40
4.62938
100
AcDbArc
 50
123.469024399698
 51
239.774013712204
  0
ARC
  5
4F65
330
1A
100
AcDbEntity
  8
寸法線
100
AcDbCircle
 10
107.501339336162
 20
292.555783108558
 30
0.0
 40
4.629386
100
AcDbArc
 50
123.469024399698
 51
239.773899120646
  0
TEXT
  5
4F66
330
1A
100
AcDbEntity
  8
寸法線
100
AcDbText
 10
108.027217336162
 20
288.148007108558
 30
0.0
 40
4.0
  1
１
 41
1.5
  7
EXCADSTD
 72
     5
 11
112.027217336162
 21
288.148007108558
 31
0.0
100
AcDbText
  0
ARC
  5
4F67
330
1A
100
AcDbEntity
  8
寸法線
100
AcDbCircle
 10
185.549061429651
 20
270.497051545556
 30
0.0
 40
1.76059
100
AcDbArc
 50
252.903398883406
 51
337.412611017141
  0
ARC
  5
4F68
330
1A
100
AcDbEntity
  8
寸法線
100
AcDbCircle
 10
181.003041429651
 20
273.818279545556
 30
0.0
 40
5.02039
100
AcDbArc
 50
274.628927150735
 51
33.374029121142
  0
ARC
  5
4F69
330
1A
100
AcDbEntity
  8
寸法線
100
AcDbCircle
 10
181.011341429651
 20
273.819195545556
 30
0.0
 40
5.013138
100
AcDbArc
 50
273.280470979895
 51
33.415912335969
  0
ARC
  5
4F6A
330
1A
100
AcDbEntity
  8
寸法線
100
AcDbCircle
 10
187.361927429651
 20
272.814251545556
 30
0.0
 40
4.62938
100
AcDbArc
 50
123.469024399698
 51
239.774013712205
  0
ARC
  5
4F6B
330
1A
100
AcDbEntity
  8
寸法線
100
AcDbCircle
 10
187.361927429651
 20
272.814251545556
 30
0.0
 40
4.629386
100
AcDbArc
 50
123.469024399698
 51
239.773899120643
  0
ARC
  5
4F6C
330
1A
100
AcDbEntity
  8
寸法線
100
AcDbCircle
 10
184.958851429651
 20
276.452801545556
 30
0.0
 40
0.26895
100
AcDbArc
 50
28.23094836902
 51
123.883845843401
  0
LINE
  5
506B
330
1A
100
AcDbEntity
  8
寸法線
100
AcDbLine
 10
69.849200530158
 20
120.117097390632
 30
0.0
 11
639.80812374015
 21
120.117097390632
 31
0.0
  0
LINE
  5
506C
330
1A
100
AcDbEntity
  8
寸法線
100
AcDbLine
 10
101.849170530158
 20
107.064471283055
 30
0.0
 11
101.849170530158
 21
225.555480143671
 31
0.0
  0
LINE
  5
506D
330
1A
100
AcDbEntity
  8
寸法線
100
AcDbLine
 10
69.849200530158
 20
211.485480143671
 30
0.0
 11
639.808123740151
 21
211.485480143671
 31
0.0
  0
LINE
  5
506E
330
1A
100
AcDbEntity
  8
寸法線
100
AcDbLine
 10
69.849200530158
 20
225.555480143671
 30
0.0
 11
639.808123740151
 21
225.555480143671
 31
0.0
  0
LINE
  5
506F
330
1A
100
AcDbEntity
  8
寸法線
100
AcDbLine
 10
69.849200530158
 20
107.064471283055
 30
0.0
 11
69.849200530158
 21
225.555480143671
 31
0.0
  0
LINE
  5
5070
330
1A
100
AcDbEntity
  8
寸法線
100
AcDbLine
 10
322.410008663341
 20
107.064471283055
 30
0.0
 11
322.410008663341
 21
225.555480143671
 31
0.0
  0
LINE
  5
5071
330
1A
100
AcDbEntity
  8
寸法線
100
AcDbLine
 10
69.849200530158
 20
185.380227928518
 30
0.0
 11
639.808123740151
 21
185.380227928518
 31
0.0
  0
LINE
  5
5072
330
1A
100
AcDbEntity
  8
寸法線
100
AcDbLine
 10
69.849200530158
 20
172.327601820941
 30
0.0
 11
639.808123740151
 21
172.327601820941
 31
0.0
  0
LINE
  5
5073
330
1A
100
AcDbEntity
  8
寸法線
100
AcDbLine
 10
69.849200530158
 20
159.274975713364
 30
0.0
 11
639.808123740151
 21
159.274975713364
 31
0.0
  0
LINE
  5
5074
330
1A
100
AcDbEntity
  8
寸法線
100
AcDbLine
 10
69.849200530158
 20
146.222349605787
 30
0.0
 11
639.808123740151
 21
146.222349605787
 31
0.0
  0
LINE
  5
5075
330
1A
100
AcDbEntity
  8
寸法線
100
AcDbLine
 10
69.849200530158
 20
133.169723498209
 30
0.0
 11
639.80812374015
 21
133.169723498209
 31
0.0
  0
LINE
  5
5076
330
1A
100
AcDbEntity
  8
寸法線
100
AcDbLine
 10
354.16632722763
 20
107.064471283055
 30
0.0
 11
354.16632722763
 21
225.555480143671
 31
0.0
  0
LINE
  5
5077
330
1A
100
AcDbEntity
  8
寸法線
100
AcDbLine
 10
69.849200530158
 20
198.432854036094
 30
0.0
 11
639.808123740151
 21
198.432854036094
 31
0.0
  0
MTEXT
  5
5078
102
{ACAD_XDICTIONARY
360
5079
102
}
330
1A
100
AcDbEntity
  8
寸法線
 48
10.0
100
AcDbMText
 10
142.651161704556
 20
222.698699112277
 30
0.0
 40
8.0
 41
81.603982348796
 71
     2
 72
     5
  1
型式\PTSE-A1SA-025\PTSE-A1SA-030\PTSE-A1SA-035\PTSE-A1SA-040\PTSE-A1SA-045\PTSE-A1SA-050\PTSE-A1SA-055\PTSE-A1SA-060
1001
ACADANNOTATIVE
1000
AnnotativeData
1002
{
1070
     1
1070
     0
1002
}
1001
ACAD
1000
MTEXTBEGIN
1070
    44
1040
0.99
1000
MTEXTEND
  0
LINE
  5
507C
330
1A
100
AcDbEntity
  8
寸法線
 48
10.0
100
AcDbLine
 10
183.453152878954
 20
225.555480143671
 30
0.0
 11
183.453152878954
 21
107.064471283055
 31
0.0
  0
SPLINE
  5
507D
330
1A
100
AcDbEntity
  8
寸法線
 48
10.0
100
AcDbSpline
210
0.0
220
0.0
230
1.0
 70
  1064
 71
     3
 72
    13
 73
     9
 74
     7
 42
0.000000001
 43
0.0000000001
 44
0.0000000001
 40
0.0
 40
0.0
 40
0.0
 40
0.0
 40
3.546053604694618
 40
9.278996093298897
 40
13.89970108471585
 40
17.09539662994943
 40
18.79470455702451
 40
20.02704699455836
 40
20.02704699455836
 40
20.02704699455836
 40
20.02704699455836
 10
191.8887679289439
 20
214.6742558356576
 30
0.0
 10
192.9432961980222
 20
215.1613845698617
 30
0.0
 10
195.7026915089382
 20
216.4360594974009
 30
0.0
 10
196.3676284152984
 20
225.3345163702195
 30
0.0
 10
192.4343253961518
 20
218.9344295462774
 30
0.0
 10
192.606561592353
 20
215.6854119877089
 30
0.0
 10
194.6788432900023
 20
214.412592910899
 30
0.0
 10
195.5954473682383
 20
214.8711099947686
 30
0.0
 10
195.9807491483084
 20
215.0638512805672
 30
0.0
 11
191.8887679289439
 21
214.6742558356576
 31
0.0
 11
194.7141833618927
 21
216.817039958854
 31
0.0
 11
195.3474662551004
 21
222.5148976575697
 31
0.0
 11
192.8630498552421
 21
218.6189266913252
 31
0.0
 11
193.3014768417046
 21
215.4534485607156
 31
0.0
 11
194.8116113152654
 21
214.6742558356576
 31
0.0
 11
195.9807491483084
 21
215.0638512805672
 31
0.0
  0
SPLINE
  5
507E
330
1A
100
AcDbEntity
  8
寸法線
 48
10.0
100
AcDbSpline
210
0.0
220
0.0
230
1.0
 70
  1064
 71
     3
 72
    13
 73
     9
 74
     7
 42
0.000000001
 43
0.0000000001
 44
0.0000000001
 40
0.0
 40
0.0
 40
0.0
 40
0.0
 40
3.546053604694618
 40
9.278996093298897
 40
13.89970108471585
 40
17.09539662994943
 40
18.79470455702451
 40
20.02704699455836
 40
20.02704699455836
 40
20.02704699455836
 40
20.02704699455836
 10
216.1276610331638
 20
214.6742558356576
 30
0.0
 10
217.1821893022421
 20
215.1613845698617
 30
0.0
 10
219.941584613158
 20
216.4360594974009
 30
0.0
 10
220.6065215195183
 20
225.3345163702195
 30
0.0
 10
216.6732185003716
 20
218.9344295462774
 30
0.0
 10
216.8454546965729
 20
215.6854119877089
 30
0.0
 10
218.9177363942222
 20
214.412592910899
 30
0.0
 10
219.8343404724582
 20
214.8711099947686
 30
0.0
 10
220.2196422525283
 20
215.0638512805672
 30
0.0
 11
216.1276610331638
 21
214.6742558356576
 31
0.0
 11
218.9530764661126
 21
216.817039958854
 31
0.0
 11
219.5863593593203
 21
222.5148976575697
 31
0.0
 11
217.101942959462
 21
218.6189266913252
 31
0.0
 11
217.5403699459245
 21
215.4534485607156
 31
0.0
 11
219.0505044194853
 21
214.6742558356576
 31
0.0
 11
220.2196422525283
 21
215.0638512805672
 31
0.0
  0
LINE
  5
507F
330
1A
100
AcDbEntity
  8
寸法線
 48
10.0
100
AcDbLine
 10
209.575616786071
 20
225.555480143671
 30
0.0
 11
209.575616786071
 21
107.064471283055
 31
0.0
  0
LINE
  5
5080
330
1A
100
AcDbEntity
  8
寸法線
 48
10.0
100
AcDbLine
 10
233.79485916595
 20
225.555480143671
 30
0.0
 11
233.79485916595
 21
107.064471283055
 31
0.0
  0
LINE
  5
5081
330
1A
100
AcDbEntity
  8
寸法線
 48
10.0
100
AcDbLine
 10
258.014101545829
 20
225.555480143671
 30
0.0
 11
258.014101545829
 21
107.064471283055
 31
0.0
  0
LINE
  5
5082
330
1A
100
AcDbEntity
  8
寸法線
 48
10.0
100
AcDbLine
 10
283.864676663341
 20
225.555480143671
 30
0.0
 11
283.864676663341
 21
107.064471283055
 31
0.0
  0
TEXT
  5
5083
330
1A
100
AcDbEntity
  8
寸法線
 48
10.0
100
AcDbText
 10
222.585689830648
 20
214.758583575001
 30
0.0
 40
5.2
  1
1
100
AcDbText
  0
SPLINE
  5
5084
330
1A
100
AcDbEntity
  8
寸法線
 48
10.0
100
AcDbSpline
210
0.0
220
0.0
230
1.0
 70
  1064
 71
     3
 72
    13
 73
     9
 74
     7
 42
0.000000001
 43
0.0000000001
 44
0.0000000001
 40
0.0
 40
0.0
 40
0.0
 40
0.0
 40
3.546053604694664
 40
9.278996093298936
 40
13.89970108471589
 40
17.09539662994947
 40
18.79470455702455
 40
20.0270469945584
 40
20.0270469945584
 40
20.0270469945584
 40
20.0270469945584
 10
241.9782361506757
 20
214.6742558356576
 30
0.0
 10
243.032764419754
 20
215.1613845698617
 30
0.0
 10
245.79215973067
 20
216.4360594974008
 30
0.0
 10
246.4570966370301
 20
225.3345163702195
 30
0.0
 10
242.5237936178836
 20
218.9344295462774
 30
0.0
 10
242.6960298140848
 20
215.6854119877089
 30
0.0
 10
244.7683115117341
 20
214.4125929108991
 30
0.0
 10
245.6849155899701
 20
214.8711099947686
 30
0.0
 10
246.0702173700402
 20
215.0638512805672
 30
0.0
 11
241.9782361506757
 21
214.6742558356576
 31
0.0
 11
244.8036515836245
 21
216.817039958854
 31
0.0
 11
245.4369344768322
 21
222.5148976575697
 31
0.0
 11
242.9525180769739
 21
218.6189266913252
 31
0.0
 11
243.3909450634363
 21
215.4534485607156
 31
0.0
 11
244.9010795369971
 21
214.6742558356576
 31
0.0
 11
246.0702173700402
 21
215.0638512805672
 31
0.0
  0
TEXT
  5
5085
330
1A
100
AcDbEntity
  8
寸法線
 48
10.0
100
AcDbText
 10
248.43626494816
 20
214.758583575001
 30
0.0
 40
5.2
  1
2
100
AcDbText
  0
TEXT
  5
5086
330
1A
100
AcDbEntity
  8
寸法線
 48
10.0
100
AcDbText
 10
274.286840065672
 20
214.758583575001
 30
0.0
 40
5.2
  1
3
100
AcDbText
  0
SPLINE
  5
5087
330
1A
100
AcDbEntity
  8
寸法線
 48
10.0
100
AcDbSpline
210
0.0
220
0.0
230
1.0
 70
  1064
 71
     3
 72
    13
 73
     9
 74
     7
 42
0.000000001
 43
0.0000000001
 44
0.0000000001
 40
0.0
 40
0.0
 40
0.0
 40
0.0
 40
3.546053604694664
 40
9.278996093298936
 40
13.89970108471589
 40
17.09539662994947
 40
18.79470455702455
 40
20.0270469945584
 40
20.0270469945584
 40
20.0270469945584
 40
20.0270469945584
 10
267.8288112681876
 20
214.6742558356576
 30
0.0
 10
268.8833395372659
 20
215.1613845698617
 30
0.0
 10
271.6427348481818
 20
216.4360594974008
 30
0.0
 10
272.307671754542
 20
225.3345163702195
 30
0.0
 10
268.3743687353955
 20
218.9344295462774
 30
0.0
 10
268.5466049315967
 20
215.6854119877089
 30
0.0
 10
270.618886629246
 20
214.4125929108991
 30
0.0
 10
271.535490707482
 20
214.8711099947686
 30
0.0
 10
271.920792487552
 20
215.0638512805672
 30
0.0
 11
267.8288112681876
 21
214.6742558356576
 31
0.0
 11
270.6542267011364
 21
216.817039958854
 31
0.0
 11
271.287509594344
 21
222.5148976575697
 31
0.0
 11
268.8030931944858
 21
218.6189266913252
 31
0.0
 11
269.2415201809482
 21
215.4534485607156
 31
0.0
 11
270.751654654509
 21
214.6742558356576
 31
0.0
 11
271.920792487552
 21
215.0638512805672
 31
0.0
  0
MTEXT
  5
5088
102
{ACAD_XDICTIONARY
360
5089
102
}
330
1A
100
AcDbEntity
  8
寸法線
 48
10.0
100
AcDbMText
 10
291.569465371552
 20
222.337662485645
 30
0.0
 40
8.0
 41
19.321844296148
 71
     1
 72
     5
  1
記事
1001
ACADANNOTATIVE
1000
AnnotativeData
1002
{
1070
     1
1070
     0
1002
}
  0
MTEXT
  5
508C
102
{ACAD_XDICTIONARY
360
508D
102
}
330
1A
100
AcDbEntity
  8
寸法線
 48
10.0
100
AcDbMText
 10
329.730031091051
 20
222.337662485645
 30
0.0
 40
8.0
 41
27.29696969697
 71
     1
 72
     5
  1
台数\P\P 
1001
ACADANNOTATIVE
1000
AnnotativeData
1002
{
1070
     1
1070
     0
1002
}
  0
LINE
  5
5090
330
1A
100
AcDbEntity
  8
寸法線
100
AcDbLine
 10
356.700827276306
 20
107.064471283055
 30
0.0
 11
356.700827276306
 21
225.555480143671
 31
0.0
  0
MTEXT
  5
5091
102
{ACAD_XDICTIONARY
360
5092
102
}
330
1A
100
AcDbEntity
  8
寸法線
 48
10.0
100
AcDbMText
 10
427.557305047095
 20
222.698699112277
 30
0.0
 40
8.0
 41
77.713015541577
 71
     2
 72
     5
  1
型式\PTSE-A1SA-065\PTSE-A1SA-070\PTSE-A1SA-075\PTSE-A1SA-080\PTSE-A1SA-085\PTSE-A1SA-090\PTSE-A1SA-095\PTSE-A1SA-100
1001
ACADANNOTATIVE
1000
AnnotativeData
1002
{
1070
     1
1070
     0
1002
}
1001
ACAD
1000
MTEXTBEGIN
1070
    44
1040
0.99
1000
MTEXTEND
  0
SPLINE
  5
5095
330
1A
100
AcDbEntity
  8
寸法線
 48
10.0
100
AcDbSpline
210
0.0
220
0.0
230
1.0
 70
  1064
 71
     3
 72
    13
 73
     9
 74
     7
 42
0.000000001
 43
0.0000000001
 44
0.0000000001
 40
0.0
 40
0.0
 40
0.0
 40
0.0
 40
3.546053604694664
 40
9.278996093298941
 40
13.89970108471593
 40
17.09539662994951
 40
18.79470455702458
 40
20.02704699455843
 40
20.02704699455843
 40
20.02704699455843
 40
20.02704699455843
 10
477.5305644414649
 20
214.6742558356576
 30
0.0
 10
478.5850927105432
 20
215.1613845698617
 30
0.0
 10
481.3444880214591
 20
216.4360594974008
 30
0.0
 10
482.0094249278193
 20
225.3345163702194
 30
0.0
 10
478.0761219086727
 20
218.9344295462774
 30
0.0
 10
478.2483581048741
 20
215.6854119877089
 30
0.0
 10
480.3206398025234
 20
214.412592910899
 30
0.0
 10
481.2372438807594
 20
214.8711099947686
 30
0.0
 10
481.6225456608294
 20
215.0638512805672
 30
0.0
 11
477.5305644414649
 21
214.6742558356576
 31
0.0
 11
480.3559798744138
 21
216.817039958854
 31
0.0
 11
480.9892627676215
 21
222.5148976575697
 31
0.0
 11
478.5048463677632
 21
218.6189266913252
 31
0.0
 11
478.9432733542256
 21
215.4534485607156
 31
0.0
 11
480.4534078277864
 21
214.6742558356576
 31
0.0
 11
481.6225456608294
 21
215.0638512805672
 31
0.0
  0
SPLINE
  5
5096
330
1A
100
AcDbEntity
  8
寸法線
 48
10.0
100
AcDbSpline
210
0.0
220
0.0
230
1.0
 70
  1064
 71
     3
 72
    13
 73
     9
 74
     7
 42
0.000000001
 43
0.0000000001
 44
0.0000000001
 40
0.0
 40
0.0
 40
0.0
 40
0.0
 40
3.546053604694664
 40
9.278996093298941
 40
13.89970108471593
 40
17.09539662994951
 40
18.79470455702458
 40
20.02704699455843
 40
20.02704699455843
 40
20.02704699455843
 40
20.02704699455843
 10
501.7694575456848
 20
214.6742558356576
 30
0.0
 10
502.8239858147631
 20
215.1613845698617
 30
0.0
 10
505.583381125679
 20
216.4360594974008
 30
0.0
 10
506.2483180320393
 20
225.3345163702194
 30
0.0
 10
502.3150150128926
 20
218.9344295462774
 30
0.0
 10
502.4872512090939
 20
215.6854119877089
 30
0.0
 10
504.5595329067432
 20
214.412592910899
 30
0.0
 10
505.4761369849793
 20
214.8711099947686
 30
0.0
 10
505.8614387650493
 20
215.0638512805672
 30
0.0
 11
501.7694575456848
 21
214.6742558356576
 31
0.0
 11
504.5948729786336
 21
216.817039958854
 31
0.0
 11
505.2281558718414
 21
222.5148976575697
 31
0.0
 11
502.743739471983
 21
218.6189266913252
 31
0.0
 11
503.1821664584455
 21
215.4534485607156
 31
0.0
 11
504.6923009320063
 21
214.6742558356576
 31
0.0
 11
505.8614387650493
 21
215.0638512805672
 31
0.0
  0
TEXT
  5
5097
330
1A
100
AcDbEntity
  8
寸法線
 48
10.0
100
AcDbText
 10
508.227486343169
 20
214.758583575001
 30
0.0
 40
5.2
  1
1
100
AcDbText
  0
SPLINE
  5
5098
330
1A
100
AcDbEntity
  8
寸法線
 48
10.0
100
AcDbSpline
210
0.0
220
0.0
230
1.0
 70
  1064
 71
     3
 72
    13
 73
     9
 74
     7
 42
0.000000001
 43
0.0000000001
 44
0.0000000001
 40
0.0
 40
0.0
 40
0.0
 40
0.0
 40
3.546053604694664
 40
9.278996093298915
 40
13.89970108471584
 40
17.09539662994942
 40
18.7947045570245
 40
20.02704699455846
 40
20.02704699455846
 40
20.02704699455846
 40
20.02704699455846
 10
527.6200326631968
 20
214.6742558356576
 30
0.0
 10
528.6745609322751
 20
215.1613845698618
 30
0.0
 10
531.433956243191
 20
216.4360594974008
 30
0.0
 10
532.0988931495511
 20
225.3345163702195
 30
0.0
 10
528.1655901304046
 20
218.9344295462774
 30
0.0
 10
528.3378263266059
 20
215.6854119877089
 30
0.0
 10
530.4101080242551
 20
214.412592910899
 30
0.0
 10
531.3267121024911
 20
214.8711099947686
 30
0.0
 10
531.7120138825612
 20
215.0638512805672
 30
0.0
 11
527.6200326631968
 21
214.6742558356576
 31
0.0
 11
530.4454480961456
 21
216.817039958854
 31
0.0
 11
531.0787309893531
 21
222.5148976575697
 31
0.0
 11
528.5943145894948
 21
218.6189266913252
 31
0.0
 11
529.0327415759573
 21
215.4534485607156
 31
0.0
 11
530.5428760495181
 21
214.6742558356576
 31
0.0
 11
531.7120138825612
 21
215.0638512805672
 31
0.0
  0
TEXT
  5
5099
330
1A
100
AcDbEntity
  8
寸法線
 48
10.0
100
AcDbText
 10
534.078061460681
 20
214.758583575001
 30
0.0
 40
5.2
  1
2
100
AcDbText
  0
SPLINE
  5
509A
330
1A
100
AcDbEntity
  8
寸法線
 48
10.0
100
AcDbSpline
210
0.0
220
0.0
230
1.0
 70
  1064
 71
     3
 72
    13
 73
     9
 74
     7
 42
0.000000001
 43
0.0000000001
 44
0.0000000001
 40
0.0
 40
0.0
 40
0.0
 40
0.0
 40
3.546053604694664
 40
9.278996093298915
 40
13.89970108471584
 40
17.09539662994942
 40
18.7947045570245
 40
20.02704699455846
 40
20.02704699455846
 40
20.02704699455846
 40
20.02704699455846
 10
553.4706077807086
 20
214.6742558356576
 30
0.0
 10
554.5251360497871
 20
215.1613845698618
 30
0.0
 10
557.284531360703
 20
216.4360594974008
 30
0.0
 10
557.9494682670628
 20
225.3345163702195
 30
0.0
 10
554.0161652479164
 20
218.9344295462774
 30
0.0
 10
554.1884014441176
 20
215.6854119877089
 30
0.0
 10
556.260683141767
 20
214.412592910899
 30
0.0
 10
557.177287220003
 20
214.8711099947686
 30
0.0
 10
557.5625890000731
 20
215.0638512805672
 30
0.0
 11
553.4706077807086
 21
214.6742558356576
 31
0.0
 11
556.2960232136575
 21
216.817039958854
 31
0.0
 11
556.9293061068649
 21
222.5148976575697
 31
0.0
 11
554.4448897070067
 21
218.6189266913252
 31
0.0
 11
554.8833166934692
 21
215.4534485607156
 31
0.0
 11
556.39345116703
 21
214.6742558356576
 31
0.0
 11
557.5625890000731
 21
215.0638512805672
 31
0.0
  0
TEXT
  5
509B
330
1A
100
AcDbEntity
  8
寸法線
 48
10.0
100
AcDbText
 10
559.928636578193
 20
214.758583575001
 30
0.0
 40
5.2
  1
3
100
AcDbText
  0
LINE
  5
509C
330
1A
100
AcDbEntity
  8
寸法線
100
AcDbLine
 10
388.700797276306
 20
107.064471283055
 30
0.0
 11
388.700797276306
 21
225.555480143671
 31
0.0
  0
LINE
  5
509D
330
1A
100
AcDbEntity
  8
寸法線
 48
10.0
100
AcDbLine
 10
466.413812817883
 20
225.555480143671
 30
0.0
 11
466.413812817883
 21
107.064471283055
 31
0.0
  0
LINE
  5
509E
330
1A
100
AcDbEntity
  8
寸法線
 48
10.0
100
AcDbLine
 10
493.81258849574
 20
225.555480143671
 30
0.0
 11
493.81258849574
 21
107.064471283055
 31
0.0
  0
LINE
  5
509F
330
1A
100
AcDbEntity
  8
寸法線
 48
10.0
100
AcDbLine
 10
519.89062258301
 20
225.555480143671
 30
0.0
 11
519.89062258301
 21
107.064471283055
 31
0.0
  0
LINE
  5
50A0
330
1A
100
AcDbEntity
  8
寸法線
 48
10.0
100
AcDbLine
 10
543.65589805835
 20
225.555480143671
 30
0.0
 11
543.65589805835
 21
107.064471283055
 31
0.0
  0
LINE
  5
50A1
330
1A
100
AcDbEntity
  8
寸法線
 48
10.0
100
AcDbLine
 10
569.506473175862
 20
225.555480143671
 30
0.0
 11
569.506473175862
 21
107.064471283055
 31
0.0
  0
LINE
  5
50A2
330
1A
100
AcDbEntity
  8
寸法線
100
AcDbLine
 10
608.051805175862
 20
107.064471283055
 30
0.0
 11
608.051805175862
 21
225.555480143671
 31
0.0
  0
LINE
  5
50A3
330
1A
100
AcDbEntity
  8
寸法線
100
AcDbLine
 10
639.80812374015
 20
107.064471283055
 30
0.0
 11
639.808123740151
 21
225.555480143671
 31
0.0
  0
LINE
  5
50A4
330
1A
100
AcDbEntity
  8
寸法線
100
AcDbLine
 10
69.849200530158
 20
107.064471283055
 30
0.0
 11
639.80812374015
 21
107.064471283055
 31
0.0
  0
MTEXT
  5
50A5
102
{ACAD_XDICTIONARY
360
50A6
102
}
330
1A
100
AcDbEntity
  8
寸法線
 48
10.0
100
AcDbMText
 10
195.538295871542
 20
208.802227175892
 30
0.0
 40
8.0
 41
23.854899029718
 71
     2
 72
     5
  1
250\P300\P350\P400\P450\P500\P550\P600
1001
ACADANNOTATIVE
1000
AnnotativeData
1002
{
1070
     1
1070
     0
1002
}
1001
ACAD
1000
MTEXTBEGIN
1070
    44
1040
0.98
1000
MTEXTEND
  0
MTEXT
  5
50A9
102
{ACAD_XDICTIONARY
360
50AA
102
}
330
1A
100
AcDbEntity
  8
寸法線
 48
10.0
100
AcDbMText
 10
219.972512260566
 20
208.802227175892
 30
0.0
 40
8.0
 41
23.854899029718
 71
     2
 72
     5
  1
100\P100\P100\P100\P100\P100\P150\P150
1001
ACADANNOTATIVE
1000
AnnotativeData
1002
{
1070
     1
1070
     0
1002
}
1001
ACAD
1000
MTEXTBEGIN
1070
    44
1040
0.98
1000
MTEXTEND
  0
MTEXT
  5
50AD
102
{ACAD_XDICTIONARY
360
50AE
102
}
330
1A
100
AcDbEntity
  8
寸法線
 48
10.0
100
AcDbMText
 10
245.802607700749
 20
208.802227175892
 30
0.0
 40
8.0
 41
23.854899029718
 71
     2
 72
     5
  1
50\P50\P50\P50\P50\P50\P50\P50
1001
ACADANNOTATIVE
1000
AnnotativeData
1002
{
1070
     1
1070
     0
1002
}
1001
ACAD
1000
MTEXTBEGIN
1070
    44
1040
0.98
1000
MTEXTEND
  0
MTEXT
  5
50B1
102
{ACAD_XDICTIONARY
360
50B2
102
}
330
1A
100
AcDbEntity
  8
寸法線
 48
10.0
100
AcDbMText
 10
270.290609723797
 20
208.802227175892
 30
0.0
 40
8.0
 41
23.854899029718
 71
     2
 72
     5
  1
100\P150\P200\P250\P300\P350\P350\P400
1001
ACADANNOTATIVE
1000
AnnotativeData
1002
{
1070
     1
1070
     0
1002
}
1001
ACAD
1000
MTEXTBEGIN
1070
    44
1040
0.98
1000
MTEXTEND
  0
MTEXT
  5
50B5
102
{ACAD_XDICTIONARY
360
50B6
102
}
330
1A
100
AcDbEntity
  8
寸法線
 48
10.0
100
AcDbMText
 10
506.50710619224
 20
208.802227175892
 30
0.0
 40
8.0
 41
23.854899029718
 71
     2
 72
     5
  1
150\P150\P150\P150\P150\P150\P150\P150
1001
ACADANNOTATIVE
1000
AnnotativeData
1002
{
1070
     1
1070
     0
1002
}
1001
ACAD
1000
MTEXTBEGIN
1070
    44
1040
0.98
1000
MTEXTEND
  0
MTEXT
  5
50B9
102
{ACAD_XDICTIONARY
360
50BA
102
}
330
1A
100
AcDbEntity
  8
寸法線
 48
10.0
100
AcDbMText
 10
531.499894184369
 20
208.802227175892
 30
0.0
 40
8.0
 41
23.854899029718
 71
     2
 72
     5
  1
50\P50\P50\P50\P50\P50\P50\P50
1001
ACADANNOTATIVE
1000
AnnotativeData
1002
{
1070
     1
1070
     0
1002
}
1001
ACAD
1000
MTEXTBEGIN
1070
    44
1040
0.98
1000
MTEXTEND
  0
MTEXT
  5
50BD
102
{ACAD_XDICTIONARY
360
50BE
102
}
330
1A
100
AcDbEntity
  8
寸法線
 48
10.0
100
AcDbMText
 10
555.738516476683
 20
208.802227175892
 30
0.0
 40
8.0
 41
23.854899029718
 71
     2
 72
     5
  1
450\P500\P550\P600\P650\P700\P750\P800
1001
ACADANNOTATIVE
1000
AnnotativeData
1002
{
1070
     1
1070
     0
1002
}
1001
ACAD
1000
MTEXTBEGIN
1070
    44
1040
0.98
1000
MTEXTEND
  0
MTEXT
  5
50C1
102
{ACAD_XDICTIONARY
360
50C2
102
}
330
1A
100
AcDbEntity
  8
寸法線
 48
10.0
100
AcDbMText
 10
480.005986800481
 20
208.802227175892
 30
0.0
 40
8.0
 41
23.854899029718
 71
     2
 72
     5
  1
650\P700\P750\P800\P850\P900\P950\P1000
1001
ACADANNOTATIVE
1000
AnnotativeData
1002
{
1070
     1
1070
     0
1002
}
1001
ACAD
1000
MTEXTBEGIN
1070
    44
1040
0.98
1000
MTEXTEND
  0
LINE
  5
50C5
330
1A
100
AcDbEntity
  8
寸法線
 48
10.0
100
AcDbLine
 10
69.849200530158
 20
211.485480143671
 30
0.0
 11
101.849170530158
 21
225.555480143671
 31
0.0
  0
LINE
  5
50C6
330
1A
100
AcDbEntity
  8
寸法線
 48
10.0
100
AcDbLine
 10
356.700827276306
 20
211.485480143671
 30
0.0
 11
388.700797276306
 21
225.555480143671
 31
0.0
  0
MTEXT
  5
50C7
102
{ACAD_XDICTIONARY
360
50C8
102
}
330
1A
100
AcDbEntity
  8
寸法線
 48
10.0
100
AcDbMText
 10
615.371827603572
 20
222.337662485645
 30
0.0
 40
8.0
 41
27.29696969697
 71
     1
 72
     5
  1
台数\P 
1001
ACADANNOTATIVE
1000
AnnotativeData
1002
{
1070
     1
1070
     0
1002
}
  0
MTEXT
  5
50CF
102
{ACAD_XDICTIONARY
360
50D0
102
}
330
1A
100
AcDbEntity
  8
寸法線
 48
10.0
100
AcDbMText
 10
577.211261884073
 20
222.337662485645
 30
0.0
 40
8.0
 41
19.321844296148
 71
     1
 72
     5
  1
記事
1001
ACADANNOTATIVE
1000
AnnotativeData
1002
{
1070
     1
1070
     0
1002
}
  0
TEXT
  5
5161
330
1A
100
AcDbEntity
  8
寸法線
 48
10.0
100
AcDbText
 10
500.705908854615
 20
93.935149165873
 30
0.0
 40
8.0
  1
○印が今回の貴社の御仕様です。
100
AcDbText
  0
VIEWPORT
  5
2902
330
28FB
100
AcDbEntity
 67
     1
  8
0
 48
10.0
100
AcDbViewport
 10
0.0
 20
0.0
 30
0.0
 40
528.349942987457
 41
300.3
 68
     1
 69
     1
1001
ACAD
1000
MVIEW
1002
{
1070
    16
1010
0.0
1020
0.0
1030
0.0
1010
0.0
1020
0.0
1030
1.0
1040
0.0
1040
300.3
1040
205.756503333333
1040
143.551503333333
1040
50.0
1040
0.0
1040
0.0
1070
    16
1070
   100
1070
     0
1070
     1
1070
     0
1070
     0
1070
     0
1070
     0
1040
0.0
1040
0.0
1040
0.0
1040
10.0
1040
10.0
1040
10.0
1040
10.0
1070
     0
1002
{
1002
}
1002
}
  0
VIEWPORT
  5
2904
330
28FB
100
AcDbEntity
 67
     1
  8
図枠太線
 48
10.0
100
AcDbViewport
 10
202.746305129083
 20
159.796645458131
 30
0.0
 40
396.0
 41
237.6
 68
     2
 69
     2
1001
ACAD
1000
MVIEW
1002
{
1070
    16
1010
0.0
1020
0.0
1030
0.0
1010
0.0
1020
0.0
1030
1.0
1040
0.0
1040
475.200003194258
1040
262.06471240495
1040
298.429366703963
1040
50.0
1040
0.0
1040
0.0
1070
    16
1070
   100
1070
     0
1070
     0
1070
     0
1070
     0
1070
     0
1070
     0
1040
0.0
1040
0.0
1040
0.0
1040
1.0
1040
1.0
1040
0.0
1040
0.0
1070
     0
1002
{
1002
}
1002
}
  0
INSERT
  5
2A59
330
28FB
100
AcDbEntity
 67
     1
  8
図枠太線
100
AcDbBlockReference
  2
A3横用_タイトル
 10
-0.301125261351
 20
-2.09405469786
 30
0.0
 41
0.99
 42
0.99
 43
0.99
  0
MTEXT
  5
2E70
330
28FB
100
AcDbEntity
 67
     1
  8
寸法線
 48
10.0
100
AcDbMText
 10
274.563830244829
 20
49.514230216348
 30
0.0
 40
5.0
 41
59.487124795261
 71
     1
 72
     5
  1
A3縮小図
  0
MTEXT
  5
2E71
330
28FB
100
AcDbEntity
 67
     1
  8
寸法線
 48
10.0
100
AcDbMText
 10
368.121191831992
 20
50.249424629171
 30
0.0
 40
5.0
 41
34.444444444444
 71
     1
 72
     5
  1
台数   台
  0
LINE
  5
2E72
330
28FB
100
AcDbEntity
 67
     1
  8
寸法線
 48
10.0
100
AcDbLine
 10
273.630208293784
 20
43.130631130089
 30
0.0
 11
299.265071903601
 21
43.130631130089
 31
0.0
  0
MTEXT
  5
2E7F
330
28FB
100
AcDbEntity
 67
     1
  8
寸法線
 48
10.0
100
AcDbMText
 10
363.779782210623
 20
37.824901447322
 30
0.0
 40
5.0
 41
44.607313995184
 71
     1
 72
     5
  1
静電容量式\Pレベルセンサ
  0
MTEXT
  5
2E81
102
{ACAD_XDICTIONARY
360
5463
102
}
330
28FB
100
AcDbEntity
 67
     1
  8
寸法線
 48
10.0
100
AcDbMText
 10
304.705734275823
 20
32.778798821871
 30
0.0
 40
6.0
 41
53.585469274236
 71
     1
 72
     5
  1
TSE-A1SA-□
1001
ACADANNOTATIVE
1000
AnnotativeData
1002
{
1070
     1
1070
     0
1002
}
  0
MTEXT
  5
2E82
102
{ACAD_XDICTIONARY
360
4BDB
102
}
330
28FB
100
AcDbEntity
 67
     1
  8
寸法線
 48
10.0
100
AcDbMText
 10
337.992722460896
 20
15.49393312214
 30
0.0
 40
8.0
 41
33.206594841881
 71
     1
 72
     5
  1
HE-14001
1001
ACADANNOTATIVE
1000
AnnotativeData
1002
{
1070
     1
1070
     0
1002
}
  0
MTEXT
  5
2E84
102
{ACAD_XDICTIONARY
360
4BDE
102
}
330
28FB
100
AcDbEntity
 67
     1
  8
寸法線
 48
10.0
100
AcDbMText
 10
173.252680195869
 20
12.044274901526
 30
0.0
 40
4.5
 41
31.372065131184
 71
     1
 72
     5
  1
2016.09.26
1001
ACADANNOTATIVE
1000
AnnotativeData
1002
{
1070
     1
1070
     0
1002
}
  0
MTEXT
  5
2E85
330
28FB
100
AcDbEntity
 67
     1
  8
寸法線
 48
10.0
100
AcDbMText
 10
149.12611673873
 20
14.255245025413
 30
0.0
 40
5.0
 41
11.452149180996
 71
     1
 72
     5
  1
{\H1.4x;1:2}
  0
MTEXT
  5
4C15
102
{ACAD_XDICTIONARY
360
4C16
102
}
330
28FB
100
AcDbEntity
 67
     1
  8
寸法線
 48
10.0
100
AcDbMText
 10
186.213305129083
 20
32.179338017994
 30
0.0
 40
4.5
 41
33.066
 71
     2
 72
     5
  1
takahashi
1001
ACADANNOTATIVE
1000
AnnotativeData
1002
{
1070
     1
1070
     0
1002
}
  0
ENDSEC
  0
SECTION
  2
OBJECTS
  0
DICTIONARY
  5
C
330
0
100
AcDbDictionary
  3
ACAD_COLOR
350
2948
  3
ACAD_GROUP
350
D
  3
ACAD_LAYOUT
350
2816
  3
ACAD_MATERIAL
350
2947
  3
ACAD_MLEADERSTYLE
350
48A3
  3
ACAD_MLINESTYLE
350
E
  3
ACAD_PLOTSETTINGS
350
2817
  3
ACAD_SCALELIST
350
485F
  3
ACAD_VISUALSTYLE
350
4884
  3
ACADDIM
350
4312
  3
ACDBHEADERROUNDTRIPXREC
350
5526
  3
ACDBVARIABLEDICTIONARY
350
4AFD
  3
DWGPROPS
350
554B
  0
DICTIONARY
  5
554C
330
8
100
AcDbDictionary
280
     1
  3
ACAD_XREC_ROUNDTRIP
360
554D
  0
DICTIONARY
  5
29EA
330
2
100
AcDbDictionary
280
     1
  3
ACAD_LAYERFILTERS
360
2B0C
  3
ACAD_LAYERSTATES
360
29EB
  0
DICTIONARY
  5
5079
330
5078
100
AcDbDictionary
280
     1
  3
ACDBCONTEXTDATAMANAGER
360
507A
  0
DICTIONARY
  5
5089
330
5088
100
AcDbDictionary
280
     1
  3
ACDBCONTEXTDATAMANAGER
360
508A
  0
DICTIONARY
  5
508D
330
508C
100
AcDbDictionary
280
     1
  3
ACDBCONTEXTDATAMANAGER
360
508E
  0
DICTIONARY
  5
5092
330
5091
100
AcDbDictionary
280
     1
  3
ACDBCONTEXTDATAMANAGER
360
5093
  0
DICTIONARY
  5
50A6
330
50A5
100
AcDbDictionary
280
     1
  3
ACDBCONTEXTDATAMANAGER
360
50A7
  0
DICTIONARY
  5
50AA
330
50A9
100
AcDbDictionary
280
     1
  3
ACDBCONTEXTDATAMANAGER
360
50AB
  0
DICTIONARY
  5
50AE
330
50AD
100
AcDbDictionary
280
     1
  3
ACDBCONTEXTDATAMANAGER
360
50AF
  0
DICTIONARY
  5
50B2
330
50B1
100
AcDbDictionary
280
     1
  3
ACDBCONTEXTDATAMANAGER
360
50B3
  0
DICTIONARY
  5
50B6
330
50B5
100
AcDbDictionary
280
     1
  3
ACDBCONTEXTDATAMANAGER
360
50B7
  0
DICTIONARY
  5
50BA
330
50B9
100
AcDbDictionary
280
     1
  3
ACDBCONTEXTDATAMANAGER
360
50BB
  0
DICTIONARY
  5
50BE
330
50BD
100
AcDbDictionary
280
     1
  3
ACDBCONTEXTDATAMANAGER
360
50BF
  0
DICTIONARY
  5
50C2
330
50C1
100
AcDbDictionary
280
     1
  3
ACDBCONTEXTDATAMANAGER
360
50C3
  0
DICTIONARY
  5
50C8
330
50C7
100
AcDbDictionary
280
     1
  3
ACDBCONTEXTDATAMANAGER
360
50C9
  0
DICTIONARY
  5
50D0
330
50CF
100
AcDbDictionary
280
     1
  3
ACDBCONTEXTDATAMANAGER
360
50D1
  0
DICTIONARY
  5
5463
330
2E81
100
AcDbDictionary
280
     1
  3
ACDBCONTEXTDATAMANAGER
360
5464
  0
DICTIONARY
  5
4BDB
330
2E82
100
AcDbDictionary
280
     1
  3
ACDBCONTEXTDATAMANAGER
360
4BDC
  0
DICTIONARY
  5
4BDE
330
2E84
100
AcDbDictionary
280
     1
  3
ACDBCONTEXTDATAMANAGER
360
4BDF
  0
DICTIONARY
  5
4C16
330
4C15
100
AcDbDictionary
280
     1
  3
ACDBCONTEXTDATAMANAGER
360
4C17
  0
DICTIONARY
  5
2948
102
{ACAD_REACTORS
330
C
102
}
330
C
100
AcDbDictionary
  0
DICTIONARY
  5
D
102
{ACAD_REACTORS
330
C
102
}
330
C
100
AcDbDictionary
  0
DICTIONARY
  5
2816
102
{ACAD_REACTORS
330
C
102
}
330
C
100
AcDbDictionary
  0
DICTIONARY
  5
2947
102
{ACAD_REACTORS
330
C
102
}
330
C
100
AcDbDictionary
  3
BYBLOCK
350
4882
  3
BYLAYER
350
4881
  3
GLOBAL
350
4883
  0
DICTIONARY
  5
48A3
102
{ACAD_REACTORS
330
C
102
}
330
C
100
AcDbDictionary
  3
STANDARD
350
4B71
  0
DICTIONARY
  5
E
102
{ACAD_REACTORS
330
C
102
}
330
C
100
AcDbDictionary
  3
STANDARD
350
13
  0
DICTIONARY
  5
2817
102
{ACAD_REACTORS
330
C
102
}
330
C
100
AcDbDictionary
  0
DICTIONARY
  5
485F
102
{ACAD_REACTORS
330
C
102
}
330
C
100
AcDbDictionary
  3
A0
350
4860
  3
A1
350
4861
  3
A2
350
4862
  3
A3
350
4863
  3
A4
350
4864
  3
A5
350
4865
  3
A6
350
4866
  3
A7
350
4867
  3
A8
350
4868
  3
A9
350
4869
  3
B0
350
486A
  3
B1
350
486B
  3
B2
350
486C
  3
B3
350
486D
  3
B4
350
486E
  3
B5
350
486F
  3
B6
350
4870
  3
B7
350
4871
  3
B8
350
4872
  3
B9
350
4873
  3
C0
350
4874
  3
C1
350
4875
  3
C2
350
4876
  3
C3
350
4877
  3
C4
350
4878
  3
C5
350
4879
  3
C6
350
487A
  3
C7
350
487B
  3
C8
350
487C
  3
C9
350
487D
  3
D0
350
487E
  3
D1
350
487F
  3
D2
350
4880
  0
DICTIONARY
  5
4884
102
{ACAD_REACTORS
330
C
102
}
330
C
100
AcDbDictionary
  3
2DWIREFRAME
350
4889
  3
3D_HIDDEN
350
488B
  3
3DWIREFRAME
350
488A
  3
BASIC
350
488C
  3
BRIGHTEN
350
4890
  3
COLORCHANGE
350
4894
  3
CONCEPTUAL
350
488E
  3
DIM
350
488F
  3
EDGECOLOROFF
350
4B6A
  3
FACEPATTERN
350
4893
  3
FLAT
350
4885
  3
FLATWITHEDGES
350
4886
  3
GOURAUD
350
4887
  3
GOURAUDWITHEDGES
350
4888
  3
HIDDEN
350
4B67
  3
JITTEROFF
350
4B68
  3
LINEPATTERN
350
4892
  3
MODELING
350
4B72
  3
OVERHANGOFF
350
4B69
  3
REALISTIC
350
488D
  3
SHADED
350
4B6F
  3
SHADED_WITH_EDGES
350
4B6E
  3
SHADES_OF_GRAY
350
4B6B
  3
SKETCHY
350
4B6C
  3
THICKEN
350
4891
  3
WIREFRAME
350
4B66
  3
X-RAY
350
4B6D
  0
XRECORD
  5
4312
102
{ACAD_REACTORS
330
C
102
}
330
C
100
AcDbXrecord
 90
   990106
  3

 60
     0
 61
     0
 62
     4
 63
     4
 64
     0
 65
     0
 66
     0
 67
     3
 68
     1
 69
     0
 70
     0
 71
     0
 72
     0
 40
0.0
170
     2
340
0
  0
DICTIONARY
  5
5526
102
{ACAD_REACTORS
330
C
102
}
330
C
100
AcDbDictionary
  3
CEPSNID
350
5530
  3
CEPSNTYPE
350
552F
  3
COLORDICT
350
5549
  3
DIMSTYLEDATA
350
5546
  3
FINGERPRINTGUID
350
5531
  3
HYPERLINKBASE
350
5529
  3
INSUNITS
350
552E
  3
LAYOUTDICT
350
552B
  3
LWETCUNION
350
552D
  3
MATERIALDICT
350
554A
  3
PLOTSETDICT
350
552C
  3
PSVPSCALE
350
5533
  3
PUCSBASE
350
5536
  3
PUCSORGBACK
350
553C
  3
PUCSORGBOTTOM
350
5538
  3
PUCSORGFRONT
350
553B
  3
PUCSORGLEFT
350
5539
  3
PUCSORGRIGHT
350
553A
  3
PUCSORGTOP
350
5537
  3
PUCSORTHOREF
350
5534
  3
PUCSORTHOVIEW
350
5535
  3
STYLESHEET
350
552A
  3
TSTACKALIGN
350
5527
  3
TSTACKSIZE
350
5528
  3
UCSBASE
350
553F
  3
UCSORGBACK
350
5545
  3
UCSORGBOTTOM
350
5541
  3
UCSORGFRONT
350
5544
  3
UCSORGLEFT
350
5542
  3
UCSORGRIGHT
350
5543
  3
UCSORGTOP
350
5540
  3
UCSORTHOREF
350
553D
  3
UCSORTHOVIEW
350
553E
  3
VERSIONGUID
350
5532
  0
DICTIONARY
  5
4AFD
102
{ACAD_REACTORS
330
C
102
}
330
C
100
AcDbDictionary
  3
CANNOSCALE
350
4AFE
  3
CMLEADERSTYLE
350
4BD7
  3
CTABLESTYLE
350
4BD6
  3
DIMASSOC
350
5547
  3
HIDETEXT
350
5548
  3
MSLTSCALE
350
4AFF
  3
XCLIPFRAME
350
4B00
  0
XRECORD
  5
554B
102
{ACAD_REACTORS
330
C
102
}
330
C
100
AcDbXrecord
  1
DWGPROPS COOKIE
  2

  3

  4

  6

  7

  8
takahashi
  9

300
=
301
=
302
=
303
=
304
=
305
=
306
=
307
=
308
=
309
=
 40
0.0
 41
2450576.222302431
 42
2457661.23997669
  1

 90
        0
  0
XRECORD
  5
554D
102
{ACAD_REACTORS
330
554C
102
}
330
554C
100
AcDbXrecord
102
VTR_0.000_0.000_1.000_1.000_VISUALSTYLE
340
4889
102
VTR_0.000_0.000_1.000_1.000_GRIDDISPLAY
 70
     3
102
VTR_0.000_0.000_1.000_1.000_GRIDMAJOR
 70
     5
102
VTR_0.000_0.000_1.000_1.000_DEFAULTLIGHTING
280
     1
102
VTR_0.000_0.000_1.000_1.000_DEFAULTLIGHTINGTYPE
 70
     1
102
VTR_0.000_0.000_1.000_1.000_BRIGHTNESS
141
0.0
102
VTR_0.000_0.000_1.000_1.000_CONTRAST
142
0.0
  0
DICTIONARY
  5
2B0C
102
{ACAD_REACTORS
330
29EA
102
}
330
29EA
100
AcDbDictionary
  0
DICTIONARY
  5
29EB
102
{ACAD_REACTORS
330
29EA
102
}
330
29EA
100
AcDbDictionary
  0
DICTIONARY
  5
507A
102
{ACAD_REACTORS
330
5079
102
}
330
5079
100
AcDbDictionary
  3
ACDB_ANNOTATIONSCALES
350
507B
  0
DICTIONARY
  5
508A
102
{ACAD_REACTORS
330
5089
102
}
330
5089
100
AcDbDictionary
  3
ACDB_ANNOTATIONSCALES
350
508B
  0
DICTIONARY
  5
508E
102
{ACAD_REACTORS
330
508D
102
}
330
508D
100
AcDbDictionary
  3
ACDB_ANNOTATIONSCALES
350
508F
  0
DICTIONARY
  5
5093
102
{ACAD_REACTORS
330
5092
102
}
330
5092
100
AcDbDictionary
  3
ACDB_ANNOTATIONSCALES
350
5094
  0
DICTIONARY
  5
50A7
102
{ACAD_REACTORS
330
50A6
102
}
330
50A6
100
AcDbDictionary
  3
ACDB_ANNOTATIONSCALES
350
50A8
  0
DICTIONARY
  5
50AB
102
{ACAD_REACTORS
330
50AA
102
}
330
50AA
100
AcDbDictionary
  3
ACDB_ANNOTATIONSCALES
350
50AC
  0
DICTIONARY
  5
50AF
102
{ACAD_REACTORS
330
50AE
102
}
330
50AE
100
AcDbDictionary
  3
ACDB_ANNOTATIONSCALES
350
50B0
  0
DICTIONARY
  5
50B3
102
{ACAD_REACTORS
330
50B2
102
}
330
50B2
100
AcDbDictionary
  3
ACDB_ANNOTATIONSCALES
350
50B4
  0
DICTIONARY
  5
50B7
102
{ACAD_REACTORS
330
50B6
102
}
330
50B6
100
AcDbDictionary
  3
ACDB_ANNOTATIONSCALES
350
50B8
  0
DICTIONARY
  5
50BB
102
{ACAD_REACTORS
330
50BA
102
}
330
50BA
100
AcDbDictionary
  3
ACDB_ANNOTATIONSCALES
350
50BC
  0
DICTIONARY
  5
50BF
102
{ACAD_REACTORS
330
50BE
102
}
330
50BE
100
AcDbDictionary
  3
ACDB_ANNOTATIONSCALES
350
50C0
  0
DICTIONARY
  5
50C3
102
{ACAD_REACTORS
330
50C2
102
}
330
50C2
100
AcDbDictionary
  3
ACDB_ANNOTATIONSCALES
350
50C4
  0
DICTIONARY
  5
50C9
102
{ACAD_REACTORS
330
50C8
102
}
330
50C8
100
AcDbDictionary
  3
ACDB_ANNOTATIONSCALES
350
50CA
  0
DICTIONARY
  5
50D1
102
{ACAD_REACTORS
330
50D0
102
}
330
50D0
100
AcDbDictionary
  3
ACDB_ANNOTATIONSCALES
350
50D2
  0
DICTIONARY
  5
5464
102
{ACAD_REACTORS
330
5463
102
}
330
5463
100
AcDbDictionary
  3
ACDB_ANNOTATIONSCALES
350
5465
  0
DICTIONARY
  5
4BDC
102
{ACAD_REACTORS
330
4BDB
102
}
330
4BDB
100
AcDbDictionary
  3
ACDB_ANNOTATIONSCALES
350
4BDD
  0
DICTIONARY
  5
4BDF
102
{ACAD_REACTORS
330
4BDE
102
}
330
4BDE
100
AcDbDictionary
  3
ACDB_ANNOTATIONSCALES
350
4BE0
  0
DICTIONARY
  5
4C17
102
{ACAD_REACTORS
330
4C16
102
}
330
4C16
100
AcDbDictionary
  3
ACDB_ANNOTATIONSCALES
350
4C18
  0
MATERIAL
  5
4882
102
{ACAD_REACTORS
330
2947
102
}
102
{ACAD_XDICTIONARY
360
5550
102
}
330
2947
100
AcDbMaterial
  1
BYBLOCK
  0
MATERIAL
  5
4881
102
{ACAD_REACTORS
330
2947
102
}
102
{ACAD_XDICTIONARY
360
554E
102
}
330
2947
100
AcDbMaterial
  1
BYLAYER
  0
MATERIAL
  5
4883
102
{ACAD_REACTORS
330
2947
102
}
102
{ACAD_XDICTIONARY
360
5552
102
}
330
2947
100
AcDbMaterial
  1
GLOBAL
  0
ACAD_PROXY_OBJECT
  5
4B71
102
{ACAD_REACTORS
330
48A3
102
}
330
48A3
100
AcDbProxyObject
 90
      499
 91
      508
 93
      610
310
40901902A4063FBFFFFFE0000000000000020400000000000020404214DD185B99185C990000000000000104090141901A00000000000004100000000000000041025764000000000000039000
340
14
340
0
340
10
340
0
 94
        0
1001
ACAD_MLEADERVER
1070
     2
  0
MLINESTYLE
  5
13
102
{ACAD_REACTORS
330
E
102
}
330
E
100
AcDbMlineStyle
  2
STANDARD
 70
     0
  3

 62
     0
 51
90.0
 52
90.0
 71
     2
 49
0.5
 62
   256
  6
BYLAYER
 49
-0.5
 62
   256
  6
BYLAYER
  0
ACAD_PROXY_OBJECT
  5
4860
102
{ACAD_REACTORS
330
485F
102
}
330
485F
100
AcDbProxyObject
 90
      499
 91
      503
 93
       41
310
903313A31580
  0
ACAD_PROXY_OBJECT
  5
4861
102
{ACAD_REACTORS
330
485F
102
}
330
485F
100
AcDbProxyObject
 90
      499
 91
      503
 93
      105
310
903313A324000000000000004000
  0
ACAD_PROXY_OBJECT
  5
4862
102
{ACAD_REACTORS
330
485F
102
}
330
485F
100
AcDbProxyObject
 90
      499
 91
      503
 93
      105
310
903313A344000000000000104000
  0
ACAD_PROXY_OBJECT
  5
4863
102
{ACAD_REACTORS
330
485F
102
}
330
485F
100
AcDbProxyObject
 90
      499
 91
      503
 93
      105
310
903313A354000000000000144000
  0
ACAD_PROXY_OBJECT
  5
4864
102
{ACAD_REACTORS
330
485F
102
}
330
485F
100
AcDbProxyObject
 90
      499
 91
      503
 93
      105
310
903313A384000000000000204000
  0
ACAD_PROXY_OBJECT
  5
4865
102
{ACAD_REACTORS
330
485F
102
}
330
485F
100
AcDbProxyObject
 90
      499
 91
      503
 93
      113
310
904313A31304000000000000244000
  0
ACAD_PROXY_OBJECT
  5
4866
102
{ACAD_REACTORS
330
485F
102
}
330
485F
100
AcDbProxyObject
 90
      499
 91
      503
 93
      113
310
904313A31364000000000000304000
  0
ACAD_PROXY_OBJECT
  5
4867
102
{ACAD_REACTORS
330
485F
102
}
330
485F
100
AcDbProxyObject
 90
      499
 91
      503
 93
      113
310
904313A32304000000000000344000
  0
ACAD_PROXY_OBJECT
  5
4868
102
{ACAD_REACTORS
330
485F
102
}
330
485F
100
AcDbProxyObject
 90
      499
 91
      503
 93
      113
310
904313A333040000000000003E4000
  0
ACAD_PROXY_OBJECT
  5
4869
102
{ACAD_REACTORS
330
485F
102
}
330
485F
100
AcDbProxyObject
 90
      499
 91
      503
 93
      113
310
904313A34304000000000000444000
  0
ACAD_PROXY_OBJECT
  5
486A
102
{ACAD_REACTORS
330
485F
102
}
330
485F
100
AcDbProxyObject
 90
      499
 91
      503
 93
      113
310
904313A35304000000000000494000
  0
ACAD_PROXY_OBJECT
  5
486B
102
{ACAD_REACTORS
330
485F
102
}
330
485F
100
AcDbProxyObject
 90
      499
 91
      503
 93
      121
310
905313A3130304000000000000594000
  0
ACAD_PROXY_OBJECT
  5
486C
102
{ACAD_REACTORS
330
485F
102
}
330
485F
100
AcDbProxyObject
 90
      499
 91
      503
 93
      105
310
903323A310000000000000010100
  0
ACAD_PROXY_OBJECT
  5
486D
102
{ACAD_REACTORS
330
485F
102
}
330
485F
100
AcDbProxyObject
 90
      499
 91
      503
 93
      105
310
903343A310000000000000410100
  0
ACAD_PROXY_OBJECT
  5
486E
102
{ACAD_REACTORS
330
485F
102
}
330
485F
100
AcDbProxyObject
 90
      499
 91
      503
 93
      105
310
903383A310000000000000810100
  0
ACAD_PROXY_OBJECT
  5
486F
102
{ACAD_REACTORS
330
485F
102
}
330
485F
100
AcDbProxyObject
 90
      499
 91
      503
 93
      113
310
90431303A310000000000000910100
  0
ACAD_PROXY_OBJECT
  5
4870
102
{ACAD_REACTORS
330
485F
102
}
330
485F
100
AcDbProxyObject
 90
      499
 91
      503
 93
      121
310
9053130303A310000000000001650100
  0
ACAD_PROXY_OBJECT
  5
4871
102
{ACAD_REACTORS
330
485F
102
}
330
485F
100
AcDbProxyObject
 90
      499
 91
      503
 93
      257
310
90E312F31323822203D2031272D3022000000000000200FC000000000000284000
  0
ACAD_PROXY_OBJECT
  5
4872
102
{ACAD_REACTORS
330
485F
102
}
330
485F
100
AcDbProxyObject
 90
      499
 91
      503
 93
      249
310
90D312F363422203D2031272D3022000000000000240FC000000000000284000
  0
ACAD_PROXY_OBJECT
  5
4873
102
{ACAD_REACTORS
330
485F
102
}
330
485F
100
AcDbProxyObject
 90
      499
 91
      503
 93
      249
310
90D312F333222203D2031272D3022000000000000280FC000000000000284000
  0
ACAD_PROXY_OBJECT
  5
4874
102
{ACAD_REACTORS
330
485F
102
}
330
485F
100
AcDbProxyObject
 90
      499
 91
      503
 93
      249
310
90D312F313622203D2031272D30220000000000002C0FC000000000000284000
  0
ACAD_PROXY_OBJECT
  5
4875
102
{ACAD_REACTORS
330
485F
102
}
330
485F
100
AcDbProxyObject
 90
      499
 91
      503
 93
      249
310
90D332F333222203D2031272D30220000000000002E0FC000000000000284000
  0
ACAD_PROXY_OBJECT
  5
4876
102
{ACAD_REACTORS
330
485F
102
}
330
485F
100
AcDbProxyObject
 90
      499
 91
      503
 93
      241
310
90C312F3822203D2031272D3022000000000000300FC000000000000284000
  0
ACAD_PROXY_OBJECT
  5
4877
102
{ACAD_REACTORS
330
485F
102
}
330
485F
100
AcDbProxyObject
 90
      499
 91
      503
 93
      249
310
90D332F313622203D2031272D3022000000000000320FC000000000000284000
  0
ACAD_PROXY_OBJECT
  5
4878
102
{ACAD_REACTORS
330
485F
102
}
330
485F
100
AcDbProxyObject
 90
      499
 91
      503
 93
      241
310
90C312F3422203D2031272D3022000000000000340FC000000000000284000
  0
ACAD_PROXY_OBJECT
  5
4879
102
{ACAD_REACTORS
330
485F
102
}
330
485F
100
AcDbProxyObject
 90
      499
 91
      503
 93
      241
310
90C332F3822203D2031272D3022000000000000360FC000000000000284000
  0
ACAD_PROXY_OBJECT
  5
487A
102
{ACAD_REACTORS
330
485F
102
}
330
485F
100
AcDbProxyObject
 90
      499
 91
      503
 93
      241
310
90C312F3222203D2031272D3022000000000000380FC000000000000284000
  0
ACAD_PROXY_OBJECT
  5
487B
102
{ACAD_REACTORS
330
485F
102
}
330
485F
100
AcDbProxyObject
 90
      499
 91
      503
 93
      241
310
90C332F3422203D2031272D30220000000000003A0FC000000000000284000
  0
ACAD_PROXY_OBJECT
  5
487C
102
{ACAD_REACTORS
330
485F
102
}
330
485F
100
AcDbProxyObject
 90
      499
 91
      503
 93
      161
310
90A3122203D2031272D30224000000000000284000
  0
ACAD_PROXY_OBJECT
  5
487D
102
{ACAD_REACTORS
330
485F
102
}
330
485F
100
AcDbProxyObject
 90
      499
 91
      503
 93
      257
310
90E312D312F3222203D2031272D30220000000000003E0FC000000000000284000
  0
ACAD_PROXY_OBJECT
  5
487E
102
{ACAD_REACTORS
330
485F
102
}
330
485F
100
AcDbProxyObject
 90
      499
 91
      503
 93
      225
310
90A3322203D2031272D302200000000000002100000000000000284000
  0
ACAD_PROXY_OBJECT
  5
487F
102
{ACAD_REACTORS
330
485F
102
}
330
485F
100
AcDbProxyObject
 90
      499
 91
      503
 93
      225
310
90A3622203D2031272D302200000000000006100000000000000284000
  0
ACAD_PROXY_OBJECT
  5
4880
102
{ACAD_REACTORS
330
485F
102
}
330
485F
100
AcDbProxyObject
 90
      499
 91
      503
 93
      249
310
90D31272D3022203D2031272D30220000000000000A100000000000000284000
  0
ACAD_PROXY_OBJECT
  5
4889
102
{ACAD_REACTORS
330
4884
102
}
330
4884
100
AcDbProxyObject
 90
      499
 91
      505
 93
      436
310
42CC9915DA5C99599C985B595049028333333333333E3BF0000000000000FB0107901411070040501600405405064090741402480A0340
1001
ACAD
1000
AcDbSavedByObjectVersion
1070
     0
  0
ACAD_PROXY_OBJECT
  5
488B
102
{ACAD_REACTORS
330
4884
102
}
330
4884
100
AcDbProxyObject
 90
      499
 91
      505
 93
      500
310
424CD108121A5919195B90640502408333333333333E3BF0000000000000FB01079024090700405020000000000001110200405405064090740C02480A0340
1001
ACAD
1000
AcDbSavedByObjectVersion
1070
     0
  0
ACAD_PROXY_OBJECT
  5
488A
102
{ACAD_REACTORS
330
4884
102
}
330
4884
100
AcDbProxyObject
 90
      499
 91
      505
 93
      436
310
42CCD915DA5C99599C985B595059028333333333333E3BF0000000000000FB0107901411070040501600405405064090741402480A0340
1001
ACAD
1000
AcDbSavedByObjectVersion
1070
     0
  0
ACAD_PROXY_OBJECT
  5
488C
102
{ACAD_REACTORS
330
4884
102
}
330
4884
100
AcDbProxyObject
 90
      499
 91
      505
 93
      388
310
4150985CDA58D07406404333333333333E3BF0000000000000FB0107A41107004050150841D405064090741402480A0350
1001
ACAD
1000
AcDbSavedByObjectVersion
1070
     0
  0
ACAD_PROXY_OBJECT
  5
4890
102
{ACAD_REACTORS
330
4884
102
}
330
4884
100
AcDbProxyObject
 90
      499
 91
      505
 93
      428
310
42109C9A59DA1D195B90C409028333333333333E3BF0000000000000FB010790141107004050150841D405064090741402480A029950
1001
ACAD
1000
AcDbSavedByObjectVersion
1070
     0
  0
ACAD_PROXY_OBJECT
  5
4894
102
{ACAD_REACTORS
330
4884
102
}
330
4884
100
AcDbProxyObject
 90
      499
 91
      505
 93
      452
310
42D0DBDB1BDC90DA185B99D95104090240C333333333333E3BF0000000000000FB0108901411070040501508421405064090741402480A0350
1001
ACAD
1000
AcDbSavedByObjectVersion
1070
     0
  0
ACAD_PROXY_OBJECT
  5
488E
102
{ACAD_REACTORS
330
4884
102
}
330
4884
100
AcDbProxyObject
 90
      499
 91
      505
 93
      500
310
4290DBDB98D95C1D1D585B10940D028333333333333E3BF0000000000000FB0107902409070040501000000000000111010841D405064090740C02480A0340
1001
ACAD
1000
AcDbSavedByObjectVersion
1070
     0
  0
ACAD_PROXY_OBJECT
  5
488F
102
{ACAD_REACTORS
330
4884
102
}
330
4884
100
AcDbProxyObject
 90
      499
 91
      505
 93
      412
310
40D11A5B50B409028333333333333E3BF0000000000000FB010790141107004050150841D405064090741402480A02677FFFFFD0
1001
ACAD
1000
AcDbSavedByObjectVersion
1070
     0
  0
ACAD_PROXY_OBJECT
  5
4B6A
102
{ACAD_REACTORS
330
4884
102
}
330
4884
100
AcDbProxyObject
 90
      499
 91
      505
 93
      452
310
43115919D950DBDB1BDC93D999916409028333333333333E33F0000000000000F9010790141107004050150841D405064090741402480A0350
1001
ACAD
1000
AcDbSavedByObjectVersion
1070
     0
  0
ACAD_PROXY_OBJECT
  5
4893
102
{ACAD_REACTORS
330
4884
102
}
330
4884
100
AcDbProxyObject
 90
      499
 91
      505
 93
      444
310
42D19858D95C185D1D195C9B90F409028333333333333E3BF0000000000000FB010790141107004050150841D405064090741402480A0350
1001
ACAD
1000
AcDbSavedByObjectVersion
1070
     0
  0
ACAD_PROXY_OBJECT
  5
4885
102
{ACAD_REACTORS
330
4884
102
}
330
4884
100
AcDbProxyObject
 90
      499
 91
      505
 93
      388
310
41119B185D240901404333333333333E3BF0000000000000F9010740A41107004050150841D405064090741402480A1B50
1001
ACAD
1000
AcDbSavedByObjectVersion
1070
     0
  0
ACAD_PROXY_OBJECT
  5
4886
102
{ACAD_REACTORS
330
4884
102
}
330
4884
100
AcDbProxyObject
 90
      499
 91
      505
 93
      476
310
43519B185D15DA5D1A115919D95CD0140901404333333333333E3BF0000000000000F9010740901411070040501600405405064090741402480A1B50
1001
ACAD
1000
AcDbSavedByObjectVersion
1070
     0
  0
ACAD_PROXY_OBJECT
  5
4887
102
{ACAD_REACTORS
330
4884
102
}
330
4884
100
AcDbProxyObject
 90
      499
 91
      505
 93
      412
310
41D1DBDD5C985D5910240902404333333333333E3BF0000000000000F9010740A411070040501641D405064090741402480A1B50
1001
ACAD
1000
AcDbSavedByObjectVersion
1070
     0
  0
ACAD_PROXY_OBJECT
  5
4888
102
{ACAD_REACTORS
330
4884
102
}
330
4884
100
AcDbProxyObject
 90
      499
 91
      505
 93
      500
310
4411DBDD5C985D5915DA5D1A115919D95CD0340902404333333333333E3BF0000000000000F9010740901411070040501600405405064090741402480A1B50
1001
ACAD
1000
AcDbSavedByObjectVersion
1070
     0
  0
ACAD_PROXY_OBJECT
  5
4B67
102
{ACAD_REACTORS
330
4884
102
}
330
4884
100
AcDbProxyObject
 90
      499
 91
      505
 93
      476
310
41921A5919195B90640502408333333333333E33F0000000000000F901079024090700405020000000000001110200405405064090740C02480A0340
1001
ACAD
1000
AcDbSavedByObjectVersion
1070
     0
  0
ACAD_PROXY_OBJECT
  5
4B68
102
{ACAD_REACTORS
330
4884
102
}
330
4884
100
AcDbProxyObject
 90
      499
 91
      505
 93
      428
310
42529A5D1D195C93D999914409028333333333333E33F0000000000000F9010790141107004050150A41D405064090741402480A0350
1001
ACAD
1000
AcDbSavedByObjectVersion
1070
     0
  0
ACAD_PROXY_OBJECT
  5
4892
102
{ACAD_REACTORS
330
4884
102
}
330
4884
100
AcDbProxyObject
 90
      499
 91
      505
 93
      444
310
42D31A5B995C185D1D195C9B90E409028333333333333E3BF0000000000000FB010790141107004050750841D405064090741402483A0350
1001
ACAD
1000
AcDbSavedByObjectVersion
1070
     0
  0
ACAD_PROXY_OBJECT
  5
4B72
102
{ACAD_REACTORS
330
4884
102
}
330
4884
100
AcDbProxyObject
 90
      499
 91
      505
 93
      412
310
90A409038333333333333E33F0000000000000F901074090290700405010000000000201990108421405064090741402480A1B40
1001
ACAD
1000
AcDbSavedByObjectVersion
1070
     0
  0
ACAD_PROXY_OBJECT
  5
4B69
102
{ACAD_REACTORS
330
4884
102
}
330
4884
100
AcDbProxyObject
 90
      499
 91
      505
 93
      444
310
42D3DD995C9A185B99D3D999915409028333333333333E33F0000000000000F9010790141107004050150941D405064090741402480A0350
1001
ACAD
1000
AcDbSavedByObjectVersion
1070
     0
  0
ACAD_PROXY_OBJECT
  5
488D
102
{ACAD_REACTORS
330
4884
102
}
330
4884
100
AcDbProxyObject
 90
      499
 91
      505
 93
      428
310
425499585B1A5CDD1A58D08409038333333333333E33F0000000000000F9010740A907004050150800405405064090740C02480A1B40
1001
ACAD
1000
AcDbSavedByObjectVersion
1070
     0
  0
ACAD_PROXY_OBJECT
  5
4B6F
102
{ACAD_REACTORS
330
4884
102
}
330
4884
100
AcDbProxyObject
 90
      499
 91
      505
 93
      420
310
4194DA1859195911B40902404333333333333E33F0000000000000F9010740A41107004050150800405405064090840C02480A0B40
1001
ACAD
1000
AcDbSavedByObjectVersion
1070
     0
  0
ACAD_PROXY_OBJECT
  5
4B6E
102
{ACAD_REACTORS
330
4884
102
}
330
4884
100
AcDbProxyObject
 90
      499
 91
      505
 93
      516
310
4454DA18591959081DDA5D1A08195919D95CD1A40902404333333333333E33F0000000000000F901074090142907004050250800405405064090740C02480A0B40
1001
ACAD
1000
AcDbSavedByObjectVersion
1070
     0
  0
ACAD_PROXY_OBJECT
  5
4B6B
102
{ACAD_REACTORS
330
4884
102
}
330
4884
100
AcDbProxyObject
 90
      499
 91
      505
 93
      532
310
4394DA1859195CC81BD98811DC985E5174090240C333333333333E33F0000000000000F901079024090741D01000000000000111010841D405064090740C02480A0340
1001
ACAD
1000
AcDbSavedByObjectVersion
1070
     0
  0
ACAD_PROXY_OBJECT
  5
4B6C
102
{ACAD_REACTORS
330
4884
102
}
330
4884
100
AcDbProxyObject
 90
      499
 91
      505
 93
      476
310
41D4DAD95D18DA1E51840502408333333333333E33F0000000000000F901079024090741D01000000000000111010B41D405064090741802480A0340
1001
ACAD
1000
AcDbSavedByObjectVersion
1070
     0
  0
ACAD_PROXY_OBJECT
  5
4891
102
{ACAD_REACTORS
330
4884
102
}
330
4884
100
AcDbProxyObject
 90
      499
 91
      505
 93
      412
310
41D51A1A58DAD95B90D409028333333333333E3BF0000000000000FB010790141107004050150C41D405064090741402480A0350
1001
ACAD
1000
AcDbSavedByObjectVersion
1070
     0
  0
ACAD_PROXY_OBJECT
  5
4B66
102
{ACAD_REACTORS
330
4884
102
}
330
4884
100
AcDbProxyObject
 90
      499
 91
      505
 93
      420
310
4255DA5C99599C985B595059028333333333333E33F0000000000000F90107901411070040501600405405064090740C02480A0340
1001
ACAD
1000
AcDbSavedByObjectVersion
1070
     0
  0
ACAD_PROXY_OBJECT
  5
4B6D
102
{ACAD_REACTORS
330
4884
102
}
330
4884
100
AcDbProxyObject
 90
      499
 91
      505
 93
      404
310
41560B54985E51940902404000000000000E03F0000000000000F9010740501907004050150841D405064090740C02480A1B40
1001
ACAD
1000
AcDbSavedByObjectVersion
1070
     0
  0
XRECORD
  5
5530
102
{ACAD_REACTORS
330
5526
102
}
330
5526
100
AcDbXrecord
340
0
  0
XRECORD
  5
552F
102
{ACAD_REACTORS
330
5526
102
}
330
5526
100
AcDbXrecord
 90
        0
  0
XRECORD
  5
5549
102
{ACAD_REACTORS
330
5526
102
}
330
5526
100
AcDbXrecord
340
2948
  0
XRECORD
  5
5546
102
{ACAD_REACTORS
330
5526
102
}
330
5526
100
AcDbXrecord
1000
DSTYLE
1002
{
1070
   171
 70
     2
1070
   143
 40
0.0394
1070
   274
 70
     2
1070
    41
 40
6.0
1070
   342
340
2AF4
1070
   271
 70
     1
1070
   278
 70
    46
1070
   341
340
2AF4
1070
   272
 70
     1
1070
    48
 40
0.1
1070
   283
 70
     1
1070
    47
 40
0.1
1070
   145
 40
1.0
1070
   340
340
10
1070
   140
 40
8.0
1070
   284
 70
     0
1002
}
  0
XRECORD
  5
5531
102
{ACAD_REACTORS
330
5526
102
}
330
5526
100
AcDbXrecord
  1
{23698909-1D67-4744-B0E2-8DE11E3ED422}
  0
XRECORD
  5
5529
102
{ACAD_REACTORS
330
5526
102
}
330
5526
100
AcDbXrecord
  1

  0
XRECORD
  5
552E
102
{ACAD_REACTORS
330
5526
102
}
330
5526
100
AcDbXrecord
 90
        0
  0
XRECORD
  5
552B
102
{ACAD_REACTORS
330
5526
102
}
330
5526
100
AcDbXrecord
340
2816
  0
XRECORD
  5
552D
102
{ACAD_REACTORS
330
5526
102
}
330
5526
100
AcDbXrecord
 90
    10781
  0
XRECORD
  5
554A
102
{ACAD_REACTORS
330
5526
102
}
330
5526
100
AcDbXrecord
340
2947
  0
XRECORD
  5
552C
102
{ACAD_REACTORS
330
5526
102
}
330
5526
100
AcDbXrecord
340
2817
  0
XRECORD
  5
5533
102
{ACAD_REACTORS
330
5526
102
}
330
5526
100
AcDbXrecord
 40
0.25
  0
XRECORD
  5
5536
102
{ACAD_REACTORS
330
5526
102
}
330
5526
100
AcDbXrecord
340
0
  0
XRECORD
  5
553C
102
{ACAD_REACTORS
330
5526
102
}
330
5526
100
AcDbXrecord
 10
0.0
 20
0.0
 30
0.0
  0
XRECORD
  5
5538
102
{ACAD_REACTORS
330
5526
102
}
330
5526
100
AcDbXrecord
 10
0.0
 20
0.0
 30
0.0
  0
XRECORD
  5
553B
102
{ACAD_REACTORS
330
5526
102
}
330
5526
100
AcDbXrecord
 10
0.0
 20
0.0
 30
0.0
  0
XRECORD
  5
5539
102
{ACAD_REACTORS
330
5526
102
}
330
5526
100
AcDbXrecord
 10
0.0
 20
0.0
 30
0.0
  0
XRECORD
  5
553A
102
{ACAD_REACTORS
330
5526
102
}
330
5526
100
AcDbXrecord
 10
0.0
 20
0.0
 30
0.0
  0
XRECORD
  5
5537
102
{ACAD_REACTORS
330
5526
102
}
330
5526
100
AcDbXrecord
 10
0.0
 20
0.0
 30
0.0
  0
XRECORD
  5
5534
102
{ACAD_REACTORS
330
5526
102
}
330
5526
100
AcDbXrecord
340
0
  0
XRECORD
  5
5535
102
{ACAD_REACTORS
330
5526
102
}
330
5526
100
AcDbXrecord
 70
     0
  0
XRECORD
  5
552A
102
{ACAD_REACTORS
330
5526
102
}
330
5526
100
AcDbXrecord
  1

  0
XRECORD
  5
5527
102
{ACAD_REACTORS
330
5526
102
}
330
5526
100
AcDbXrecord
 90
        1
  0
XRECORD
  5
5528
102
{ACAD_REACTORS
330
5526
102
}
330
5526
100
AcDbXrecord
 90
       70
  0
XRECORD
  5
553F
102
{ACAD_REACTORS
330
5526
102
}
330
5526
100
AcDbXrecord
340
0
  0
XRECORD
  5
5545
102
{ACAD_REACTORS
330
5526
102
}
330
5526
100
AcDbXrecord
 10
0.0
 20
0.0
 30
0.0
  0
XRECORD
  5
5541
102
{ACAD_REACTORS
330
5526
102
}
330
5526
100
AcDbXrecord
 10
0.0
 20
0.0
 30
0.0
  0
XRECORD
  5
5544
102
{ACAD_REACTORS
330
5526
102
}
330
5526
100
AcDbXrecord
 10
0.0
 20
0.0
 30
0.0
  0
XRECORD
  5
5542
102
{ACAD_REACTORS
330
5526
102
}
330
5526
100
AcDbXrecord
 10
0.0
 20
0.0
 30
0.0
  0
XRECORD
  5
5543
102
{ACAD_REACTORS
330
5526
102
}
330
5526
100
AcDbXrecord
 10
0.0
 20
0.0
 30
0.0
  0
XRECORD
  5
5540
102
{ACAD_REACTORS
330
5526
102
}
330
5526
100
AcDbXrecord
 10
0.0
 20
0.0
 30
0.0
  0
XRECORD
  5
553D
102
{ACAD_REACTORS
330
5526
102
}
330
5526
100
AcDbXrecord
340
0
  0
XRECORD
  5
553E
102
{ACAD_REACTORS
330
5526
102
}
330
5526
100
AcDbXrecord
 70
     0
  0
XRECORD
  5
5532
102
{ACAD_REACTORS
330
5526
102
}
330
5526
100
AcDbXrecord
  1
{55C508FB-4A70-4744-AF99-0CB19049E0EC}
  0
DICTIONARYVAR
  5
4AFE
102
{ACAD_REACTORS
330
4AFD
102
}
330
4AFD
100
DictionaryVariables
280
     0
  1
1:1
  0
DICTIONARYVAR
  5
4BD7
102
{ACAD_REACTORS
330
4AFD
102
}
330
4AFD
100
DictionaryVariables
280
     0
  1
Standard
  0
DICTIONARYVAR
  5
4BD6
102
{ACAD_REACTORS
330
4AFD
102
}
330
4AFD
100
DictionaryVariables
280
     0
  1
Standard
  0
DICTIONARYVAR
  5
5547
102
{ACAD_REACTORS
330
4AFD
102
}
330
4AFD
100
DictionaryVariables
280
     0
  1
1
  0
DICTIONARYVAR
  5
5548
102
{ACAD_REACTORS
330
4AFD
102
}
330
4AFD
100
DictionaryVariables
280
     0
  1
0
  0
DICTIONARYVAR
  5
4AFF
102
{ACAD_REACTORS
330
4AFD
102
}
330
4AFD
100
DictionaryVariables
280
     0
  1
0
  0
DICTIONARYVAR
  5
4B00
102
{ACAD_REACTORS
330
4AFD
102
}
330
4AFD
100
DictionaryVariables
280
     0
  1
0
  0
DICTIONARY
  5
507B
102
{ACAD_REACTORS
330
507A
102
}
330
507A
100
AcDbDictionary
  0
DICTIONARY
  5
508B
102
{ACAD_REACTORS
330
508A
102
}
330
508A
100
AcDbDictionary
  0
DICTIONARY
  5
508F
102
{ACAD_REACTORS
330
508E
102
}
330
508E
100
AcDbDictionary
  0
DICTIONARY
  5
5094
102
{ACAD_REACTORS
330
5093
102
}
330
5093
100
AcDbDictionary
  0
DICTIONARY
  5
50A8
102
{ACAD_REACTORS
330
50A7
102
}
330
50A7
100
AcDbDictionary
  0
DICTIONARY
  5
50AC
102
{ACAD_REACTORS
330
50AB
102
}
330
50AB
100
AcDbDictionary
  0
DICTIONARY
  5
50B0
102
{ACAD_REACTORS
330
50AF
102
}
330
50AF
100
AcDbDictionary
  0
DICTIONARY
  5
50B4
102
{ACAD_REACTORS
330
50B3
102
}
330
50B3
100
AcDbDictionary
  0
DICTIONARY
  5
50B8
102
{ACAD_REACTORS
330
50B7
102
}
330
50B7
100
AcDbDictionary
  0
DICTIONARY
  5
50BC
102
{ACAD_REACTORS
330
50BB
102
}
330
50BB
100
AcDbDictionary
  0
DICTIONARY
  5
50C0
102
{ACAD_REACTORS
330
50BF
102
}
330
50BF
100
AcDbDictionary
  0
DICTIONARY
  5
50C4
102
{ACAD_REACTORS
330
50C3
102
}
330
50C3
100
AcDbDictionary
  0
DICTIONARY
  5
50CA
102
{ACAD_REACTORS
330
50C9
102
}
330
50C9
100
AcDbDictionary
  0
DICTIONARY
  5
50D2
102
{ACAD_REACTORS
330
50D1
102
}
330
50D1
100
AcDbDictionary
  0
DICTIONARY
  5
5465
102
{ACAD_REACTORS
330
5464
102
}
330
5464
100
AcDbDictionary
  0
DICTIONARY
  5
4BDD
102
{ACAD_REACTORS
330
4BDC
102
}
330
4BDC
100
AcDbDictionary
  0
DICTIONARY
  5
4BE0
102
{ACAD_REACTORS
330
4BDF
102
}
330
4BDF
100
AcDbDictionary
  0
DICTIONARY
  5
4C18
102
{ACAD_REACTORS
330
4C17
102
}
330
4C17
100
AcDbDictionary
  0
DICTIONARY
  5
5550
330
4882
100
AcDbDictionary
280
     1
  3
ACAD_XREC_ROUNDTRIP
360
5551
  0
DICTIONARY
  5
554E
330
4881
100
AcDbDictionary
280
     1
  3
ACAD_XREC_ROUNDTRIP
360
554F
  0
DICTIONARY
  5
5552
330
4883
100
AcDbDictionary
280
     1
  3
ACAD_XREC_ROUNDTRIP
360
5553
  0
XRECORD
  5
5551
102
{ACAD_REACTORS
330
5550
102
}
330
5550
100
AcDbXrecord
102
MATERIAL
148
0.0
149
0.0
149
0.0
 93
        0
 94
      127
282
     0
 72
     1
 77
     1
171
     1
175
     1
179
     1
273
     0
  0
XRECORD
  5
554F
102
{ACAD_REACTORS
330
554E
102
}
330
554E
100
AcDbXrecord
102
MATERIAL
148
0.0
149
0.0
149
0.0
 93
        0
 94
      127
282
     0
 72
     1
 77
     1
171
     1
175
     1
179
     1
273
     0
  0
XRECORD
  5
5553
102
{ACAD_REACTORS
330
5552
102
}
330
5552
100
AcDbXrecord
102
MATERIAL
148
0.0
149
0.0
149
0.0
 93
        0
 94
      127
282
     0
 72
     1
 77
     1
171
     1
175
     1
179
     1
273
     0
  0
ENDSEC
  0
EOF
