  0
SECTION
  2
HEADER
  9
$ACADVER
  1
AC1014
  9
$ACADMAINTVER
 70
     9
  9
$DWGCODEPAGE
  3
ANSI_932
  9
$INSBASE
 10
0.0
 20
0.0
 30
0.0
  9
$EXTMIN
 10
-89.900676425254
 20
96.454369318028
 30
0.0
  9
$EXTMAX
 10
658.53948410774
 20
523.781417155987
 30
0.0
  9
$LIMMIN
 10
-360.747566795242
 20
4.457354754526
  9
$LIMMAX
 10
-162.153696144267
 20
287.675440264018
  9
$ORTHOMODE
 70
     0
  9
$REGENMODE
 70
     1
  9
$FILLMODE
 70
     1
  9
$QTEXTMODE
 70
     0
  9
$MIRRTEXT
 70
     1
  9
$DRAGMODE
 70
     2
  9
$LTSCALE
 40
1.0
  9
$OSMODE
 70
   935
  9
$ATTMODE
 70
     1
  9
$TEXTSIZE
 40
4.0
  9
$TRACEWID
 40
1.0
  9
$TEXTSTYLE
  7
STANDARD
  9
$CLAYER
  8
寸法線
  9
$CELTYPE
  6
BYLAYER
  9
$CECOLOR
 62
     1
  9
$CELTSCALE
 40
10.0
  9
$DELOBJ
 70
     1
  9
$DISPSILH
 70
     0
  9
$DIMSCALE
 40
1.0
  9
$DIMASZ
 40
6.0
  9
$DIMEXO
 40
0.625
  9
$DIMDLI
 40
3.75
  9
$DIMRND
 40
0.0
  9
$DIMDLE
 40
0.0
  9
$DIMEXE
 40
1.25
  9
$DIMTP
 40
0.1
  9
$DIMTM
 40
0.1
  9
$DIMTXT
 40
8.0
  9
$DIMCEN
 40
2.5
  9
$DIMTSZ
 40
0.0
  9
$DIMTOL
 70
     0
  9
$DIMLIM
 70
     0
  9
$DIMTIH
 70
     0
  9
$DIMTOH
 70
     0
  9
$DIMSE1
 70
     0
  9
$DIMSE2
 70
     0
  9
$DIMTAD
 70
     1
  9
$DIMZIN
 70
     8
  9
$DIMBLK
  1
OPEN30
  9
$DIMASO
 70
     1
  9
$DIMSHO
 70
     1
  9
$DIMPOST
  1

  9
$DIMAPOST
  1

  9
$DIMALT
 70
     0
  9
$DIMALTD
 70
     2
  9
$DIMALTF
 40
0.0394
  9
$DIMLFAC
 40
1.0
  9
$DIMTOFL
 70
     1
  9
$DIMTVP
 40
1.0
  9
$DIMTIX
 70
     0
  9
$DIMSOXD
 70
     0
  9
$DIMSAH
 70
     0
  9
$DIMBLK1
  1

  9
$DIMBLK2
  1

  9
$DIMSTYLE
  2
ISO-25
  9
$DIMCLRD
 70
     0
  9
$DIMCLRE
 70
     0
  9
$DIMCLRT
 70
     0
  9
$DIMTFAC
 40
1.0
  9
$DIMGAP
 40
0.625
  9
$DIMJUST
 70
     0
  9
$DIMSD1
 70
     0
  9
$DIMSD2
 70
     0
  9
$DIMTOLJ
 70
     1
  9
$DIMTZIN
 70
     0
  9
$DIMALTZ
 70
     0
  9
$DIMALTTZ
 70
     0
  9
$DIMFIT
 70
     3
  9
$DIMUPT
 70
     0
  9
$DIMUNIT
 70
     2
  9
$DIMDEC
 70
     1
  9
$DIMTDEC
 70
     1
  9
$DIMALTU
 70
     2
  9
$DIMALTTD
 70
     2
  9
$DIMTXSTY
  7
STANDARD
  9
$DIMAUNIT
 70
     0
  9
$LUNITS
 70
     2
  9
$LUPREC
 70
     4
  9
$SKETCHINC
 40
1.0
  9
$FILLETRAD
 40
11.0
  9
$AUNITS
 70
     0
  9
$AUPREC
 70
     0
  9
$MENU
  1
.
  9
$ELEVATION
 40
0.0
  9
$PELEVATION
 40
0.0
  9
$THICKNESS
 40
0.0
  9
$LIMCHECK
 70
     0
  9
$CHAMFERA
 40
0.5
  9
$CHAMFERB
 40
0.5
  9
$CHAMFERC
 40
20.0
  9
$CHAMFERD
 40
0.0
  9
$SKPOLY
 70
     0
  9
$TDCREATE
 40
2450576.597302431
  9
$TDUPDATE
 40
2457661.615105972
  9
$TDINDWG
 40
1.3189148032
  9
$TDUSRTIMER
 40
1.3189148032
  9
$USRTIMER
 70
     1
  9
$ANGBASE
 50
0.0
  9
$ANGDIR
 70
     0
  9
$PDMODE
 70
     0
  9
$PDSIZE
 40
0.0
  9
$PLINEWID
 40
0.0
  9
$COORDS
 70
     1
  9
$SPLFRAME
 70
     0
  9
$SPLINETYPE
 70
     6
  9
$SPLINESEGS
 70
     8
  9
$ATTDIA
 70
     0
  9
$ATTREQ
 70
     1
  9
$HANDLING
 70
     1
  9
$HANDSEED
  5
54A2
  9
$SURFTAB1
 70
     6
  9
$SURFTAB2
 70
     6
  9
$SURFTYPE
 70
     6
  9
$SURFU
 70
     6
  9
$SURFV
 70
     6
  9
$UCSNAME
  2

  9
$UCSORG
 10
0.0
 20
0.0
 30
0.0
  9
$UCSXDIR
 10
1.0
 20
0.0
 30
0.0
  9
$UCSYDIR
 10
0.0
 20
1.0
 30
0.0
  9
$PUCSNAME
  2

  9
$PUCSORG
 10
0.0
 20
0.0
 30
0.0
  9
$PUCSXDIR
 10
1.0
 20
0.0
 30
0.0
  9
$PUCSYDIR
 10
0.0
 20
1.0
 30
0.0
  9
$USERI1
 70
     0
  9
$USERI2
 70
     0
  9
$USERI3
 70
     0
  9
$USERI4
 70
     0
  9
$USERI5
 70
     0
  9
$USERR1
 40
0.0
  9
$USERR2
 40
0.0
  9
$USERR3
 40
0.0
  9
$USERR4
 40
0.0
  9
$USERR5
 40
0.0
  9
$WORLDVIEW
 70
     1
  9
$SHADEDGE
 70
     3
  9
$SHADEDIF
 70
    70
  9
$TILEMODE
 70
     0
  9
$MAXACTVP
 70
    16
  9
$PINSBASE
 10
0.0
 20
0.0
 30
0.0
  9
$PLIMCHECK
 70
     0
  9
$PEXTMIN
 10
4.746305129083
 20
2.478723388613
 30
0.0
  9
$PEXTMAX
 10
404.746305129083
 20
282.478723388613
 30
0.0
  9
$PLIMMIN
 10
-7.007122192383
 20
-7.007118782997
  9
$PLIMMAX
 10
417.718108215332
 20
293.315290427208
  9
$UNITMODE
 70
     0
  9
$VISRETAIN
 70
     0
  9
$PLINEGEN
 70
     0
  9
$PSLTSCALE
 70
     1
  9
$TREEDEPTH
 70
  3020
  9
$PICKSTYLE
 70
     1
  9
$CMLSTYLE
  2
STANDARD
  9
$CMLJUST
 70
     0
  9
$CMLSCALE
 40
1.0
  9
$PROXYGRAPHICS
 70
     1
  9
$MEASUREMENT
 70
     1
  0
ENDSEC
  0
SECTION
  2
CLASSES
  0
CLASS
  1
ACDBDICTIONARYWDFLT
  2
AcDbDictionaryWithDefault
  3
ObjectDBX Classes
 90
        0
280
     0
281
     0
  0
CLASS
  1
ACDBPLACEHOLDER
  2
AcDbPlaceHolder
  3
ObjectDBX Classes
 90
        0
280
     0
281
     0
  0
CLASS
  1
LAYOUT
  2
AcDbLayout
  3
ObjectDBX Classes
 90
        0
280
     0
281
     0
  0
CLASS
  1
SORTENTSTABLE
  2
AcDbSortentsTable
  3
ObjectDBX Classes
 90
        0
280
     0
281
     0
  0
CLASS
  1
SCALE
  2
AcDbScale
  3
ObjectDBX Classes
 90
     1153
280
     0
281
     0
  0
CLASS
  1
MATERIAL
  2
AcDbMaterial
  3
ObjectDBX Classes
 90
     1153
280
     0
281
     0
  0
CLASS
  1
VISUALSTYLE
  2
AcDbVisualStyle
  3
ObjectDBX Classes
 90
     4095
280
     0
281
     0
  0
CLASS
  1
DICTIONARYVAR
  2
AcDbDictionaryVar
  3
ObjectDBX Classes
 90
        0
280
     0
281
     0
  0
CLASS
  1
TABLESTYLE
  2
AcDbTableStyle
  3
ObjectDBX Classes
 90
     4095
280
     0
281
     0
  0
CLASS
  1
MLEADERSTYLE
  2
AcDbMLeaderStyle
  3
ACDB_MLEADERSTYLE_CLASS
 90
     4095
280
     0
281
     0
  0
CLASS
  1
SUN
  2
AcDbSun
  3
SCENEOE
 90
     1153
280
     0
281
     0
  0
CLASS
  1
CELLSTYLEMAP
  2
AcDbCellStyleMap
  3
ObjectDBX Classes
 90
     1152
280
     0
281
     0
  0
CLASS
  1
XRECORD
  2
AcDbXrecord
  3
ObjectDBX Classes
 90
        0
280
     0
281
     0
  0
CLASS
  1
LWPOLYLINE
  2
AcDbPolyline
  3
ObjectDBX Classes
 90
        0
280
     0
281
     1
  0
CLASS
  1
HATCH
  2
AcDbHatch
  3
ObjectDBX Classes
 90
        0
280
     0
281
     1
  0
ENDSEC
  0
SECTION
  2
TABLES
  0
TABLE
  2
VPORT
  5
8
102
{ACAD_XDICTIONARY
360
549A
102
}
330
0
100
AcDbSymbolTable
 70
     2
  0
VPORT
  5
4C26
330
8
100
AcDbSymbolTableRecord
100
AcDbViewportTableRecord
  2
*ACTIVE
 70
     0
 10
0.0
 20
0.0
 11
1.0
 21
1.0
 12
284.027737174576
 22
310.117893237007
 13
0.0
 23
0.0
 14
1.0
 24
1.0
 15
0.0
 25
0.0
 16
0.0
 26
0.0
 36
1.0
 17
0.0
 27
0.0
 37
0.0
 40
435.873588794718
 41
1.759407069555
 42
50.0
 43
0.0
 44
0.0
 50
0.0
 51
0.0
 71
    16
 72
   100
 73
     1
 74
     0
 75
     0
 76
     0
 77
     0
 78
     0
  0
ENDTAB
  0
TABLE
  2
LTYPE
  5
5
330
0
100
AcDbSymbolTable
 70
     6
  0
LTYPE
  5
14
330
5
100
AcDbSymbolTableRecord
100
AcDbLinetypeTableRecord
  2
BYBLOCK
 70
     0
  3

 72
    65
 73
     0
 40
0.0
  0
LTYPE
  5
15
330
5
100
AcDbSymbolTableRecord
100
AcDbLinetypeTableRecord
  2
BYLAYER
 70
     0
  3

 72
    65
 73
     0
 40
0.0
  0
LTYPE
  5
16
330
5
100
AcDbSymbolTableRecord
100
AcDbLinetypeTableRecord
  2
CONTINUOUS
 70
     0
  3
Solid line
 72
    65
 73
     0
 40
0.0
  0
LTYPE
  5
1EC
330
5
100
AcDbSymbolTableRecord
100
AcDbLinetypeTableRecord
  2
CENTER
 70
     0
  3
____ _ ____ _ ____ _ ____ _ ____ _ ____ _ ____ 
 72
    65
 73
     4
 40
2.0
 49
1.25
 74
     0
 49
-0.25
 74
     0
 49
0.25
 74
     0
 49
-0.25
 74
     0
  0
LTYPE
  5
1ED
330
5
100
AcDbSymbolTableRecord
100
AcDbLinetypeTableRecord
  2
DASHED
 70
     0
  3
__ __ __ __ __ __ __ __ __ __ __ __ __ __ __ __
 72
    65
 73
     2
 40
0.75
 49
0.5
 74
     0
 49
-0.25
 74
     0
  0
LTYPE
  5
2B1F
330
5
100
AcDbSymbolTableRecord
100
AcDbLinetypeTableRecord
  2
DASHDOT
 70
     0
  3
一点鎖線
 72
    65
 73
     4
 40
25.6
 49
20.0
 74
     0
 49
-2.0
 74
     0
 49
1.6
 74
     0
 49
-2.0
 74
     0
  0
LTYPE
  5
31A1
330
5
100
AcDbSymbolTableRecord
100
AcDbLinetypeTableRecord
  2
CENTER2
 70
     0
  3
Center (.5x) ___ _ ___ _ ___ _ ___ _ ___ _ ___
 72
    65
 73
     4
 40
28.575
 49
19.05
 74
     0
 49
-3.175
 74
     0
 49
3.175
 74
     0
 49
-3.175
 74
     0
  0
LTYPE
  5
4002
330
5
100
AcDbSymbolTableRecord
100
AcDbLinetypeTableRecord
  2
DASHED2
 70
     0
  3
Dashed (.5x) _ _ _ _ _ _ _ _ _ _ _ _ _ _ _ _ _
 72
    65
 73
     2
 40
9.525
 49
6.35
 74
     0
 49
-3.175
 74
     0
  0
ENDTAB
  0
TABLE
  2
LAYER
  5
2
102
{ACAD_XDICTIONARY
360
29EA
102
}
330
0
100
AcDbSymbolTable
 70
    12
  0
LAYER
  5
F
330
2
100
AcDbSymbolTableRecord
100
AcDbLayerTableRecord
  2
0
 70
     0
 62
     7
  6
CONTINUOUS
  0
LAYER
  5
61
330
2
100
AcDbSymbolTableRecord
100
AcDbLayerTableRecord
  2
図枠太線
 70
     0
 62
   251
  6
CONTINUOUS
  0
LAYER
  5
62
330
2
100
AcDbSymbolTableRecord
100
AcDbLayerTableRecord
  2
図枠細線
 70
     0
 62
   252
  6
CONTINUOUS
  0
LAYER
  5
63
330
2
100
AcDbSymbolTableRecord
100
AcDbLayerTableRecord
  2
図枠ロゴマーク
 70
     0
 62
   253
  6
CONTINUOUS
  0
LAYER
  5
1EF
330
2
100
AcDbSymbolTableRecord
100
AcDbLayerTableRecord
  2
外形線
 70
     0
 62
     7
  6
CONTINUOUS
  0
LAYER
  5
1F0
330
2
100
AcDbSymbolTableRecord
100
AcDbLayerTableRecord
  2
寸法線
 70
     0
 62
     1
  6
CONTINUOUS
  0
LAYER
  5
1F1
330
2
100
AcDbSymbolTableRecord
100
AcDbLayerTableRecord
  2
中心線
 70
     0
 62
     4
  6
CENTER
  0
LAYER
  5
1F4
330
2
100
AcDbSymbolTableRecord
100
AcDbLayerTableRecord
  2
DEFPOINTS
 70
     0
 62
     7
  6
CONTINUOUS
  0
LAYER
  5
2AA2
330
2
100
AcDbSymbolTableRecord
100
AcDbLayerTableRecord
  2
下書線
 70
     0
 62
     2
  6
CONTINUOUS
  0
LAYER
  5
2AA3
330
2
100
AcDbSymbolTableRecord
100
AcDbLayerTableRecord
  2
隠れ線
 70
     0
 62
     3
  6
DASHED
  0
LAYER
  5
2AA4
330
2
100
AcDbSymbolTableRecord
100
AcDbLayerTableRecord
  2
細線
 70
     0
 62
     6
  6
CONTINUOUS
  0
LAYER
  5
2AA5
330
2
100
AcDbSymbolTableRecord
100
AcDbLayerTableRecord
  2
太線
 70
     0
 62
   190
  6
CONTINUOUS
  0
ENDTAB
  0
TABLE
  2
STYLE
  5
3
330
0
100
AcDbSymbolTable
 70
     2
  0
STYLE
  5
10
330
3
100
AcDbSymbolTableRecord
100
AcDbTextStyleTableRecord
  2
STANDARD
 70
     0
 40
0.0
 41
1.0
 50
0.0
 71
     0
 42
4.0
  3
ISOCP
  4
bigfont.shx
  0
STYLE
  5
64
330
3
100
AcDbSymbolTableRecord
100
AcDbTextStyleTableRecord
  2
EXCADSTD
 70
     0
 40
0.0
 41
1.0
 50
0.0
 71
     0
 42
0.2
  3
monotxt
  4
bigfont
  0
ENDTAB
  0
TABLE
  2
VIEW
  5
6
330
0
100
AcDbSymbolTable
 70
     0
  0
ENDTAB
  0
TABLE
  2
UCS
  5
7
330
0
100
AcDbSymbolTable
 70
     0
  0
ENDTAB
  0
TABLE
  2
APPID
  5
9
330
0
100
AcDbSymbolTable
 70
     6
  0
APPID
  5
11
330
9
100
AcDbSymbolTableRecord
100
AcDbRegAppTableRecord
  2
ACAD
 70
     0
  0
APPID
  5
3507
330
9
100
AcDbSymbolTableRecord
100
AcDbRegAppTableRecord
  2
ACAD_DIMASSOC_CALC_DIMLFAC
 70
     0
  0
APPID
  5
3508
330
9
100
AcDbSymbolTableRecord
100
AcDbRegAppTableRecord
  2
ACAD_DIMASSOC_DIMLFAC
 70
     0
  0
APPID
  5
3509
330
9
100
AcDbSymbolTableRecord
100
AcDbRegAppTableRecord
  2
ACAD_DIMASSOC_OVERRIDDEN_D
 70
     0
  0
APPID
  5
4F4A
330
9
100
AcDbSymbolTableRecord
100
AcDbRegAppTableRecord
  2
ACADANNOTATIVE
 70
     0
  0
APPID
  5
5281
330
9
100
AcDbSymbolTableRecord
100
AcDbRegAppTableRecord
  2
ACAD_MLEADERVER
 70
     0
  0
ENDTAB
  0
TABLE
  2
DIMSTYLE
  5
A
330
0
100
AcDbSymbolTable
 70
     2
  0
DIMSTYLE
105
1D
330
A
100
AcDbSymbolTableRecord
100
AcDbDimStyleTableRecord
  2
STANDARD
 70
     0
  3

  4

  5

  6

  7

 40
1.0
 41
0.18
 42
0.0625
 43
0.38
 44
0.18
 45
0.0
 46
0.0
 47
0.0
 48
0.0
140
0.18
141
0.09
142
0.0
143
25.4
144
1.0
145
0.0
146
1.0
147
0.09
 71
     0
 72
     0
 73
     1
 74
     1
 75
     0
 76
     0
 77
     0
 78
     0
170
     0
171
     2
172
     0
173
     0
174
     0
175
     0
176
     0
177
     0
178
     0
270
     2
271
     4
272
     4
273
     2
274
     2
340
10
275
     0
280
     0
281
     0
282
     0
283
     1
284
     0
285
     0
286
     0
287
     3
288
     0
  0
DIMSTYLE
105
24
102
{ACAD_REACTORS
330
4908
330
4E34
330
4E35
330
4E36
330
4E37
330
4E3A
330
4E3B
330
4E3C
330
4E3D
330
4EA1
330
4EA2
102
}
330
A
100
AcDbSymbolTableRecord
100
AcDbDimStyleTableRecord
  2
ISO-25
 70
     0
  3

  4

  5

  6

  7

 40
1.0
 41
2.5
 42
0.625
 43
3.75
 44
1.25
 45
0.0
 46
0.0
 47
0.0
 48
0.0
140
2.5
141
2.5
142
0.0
143
0.0394
144
1.0
145
1.0
146
1.0
147
0.625
 71
     0
 72
     0
 73
     1
 74
     0
 75
     0
 76
     0
 77
     1
 78
     8
170
     0
171
     2
172
     1
173
     0
174
     0
175
     0
176
     0
177
     0
178
     0
270
     2
271
     4
272
     4
273
     2
274
     2
340
10
275
     0
280
     0
281
     0
282
     0
283
     1
284
     0
285
     0
286
     0
287
     3
288
     0
  0
ENDTAB
  0
TABLE
  2
BLOCK_RECORD
  5
1
330
0
100
AcDbSymbolTable
 70
    40
  0
BLOCK_RECORD
  5
1A
330
1
100
AcDbSymbolTableRecord
100
AcDbBlockTableRecord
  2
*MODEL_SPACE
  0
BLOCK_RECORD
  5
28FB
330
1
100
AcDbSymbolTableRecord
100
AcDbBlockTableRecord
  2
*PAPER_SPACE
  0
BLOCK_RECORD
  5
65
330
1
100
AcDbSymbolTableRecord
100
AcDbBlockTableRecord
  2
A$C3392
  0
BLOCK_RECORD
  5
29BF
330
1
100
AcDbSymbolTableRecord
100
AcDbBlockTableRecord
  2
A4横用_タイトル
1001
ACAD
1000
DesignCenter Data
1002
{
1070
     1
1070
     4
1002
}
  0
BLOCK_RECORD
  5
29F4
330
1
100
AcDbSymbolTableRecord
100
AcDbBlockTableRecord
  2
A4縦用_タイトル
1001
ACAD
1000
DesignCenter Data
1002
{
1070
     1
1070
     4
1002
}
  0
BLOCK_RECORD
  5
2A32
330
1
100
AcDbSymbolTableRecord
100
AcDbBlockTableRecord
  2
A3横用_タイトル
1001
ACAD
1000
DesignCenter Data
1002
{
1070
     1
1070
     4
1002
}
  0
BLOCK_RECORD
  5
2A6C
330
1
100
AcDbSymbolTableRecord
100
AcDbBlockTableRecord
  2
A3縦用_タイトル
1001
ACAD
1000
DesignCenter Data
1002
{
1070
     1
1070
     4
1002
}
  0
BLOCK_RECORD
  5
2AF4
330
1
100
AcDbSymbolTableRecord
100
AcDbBlockTableRecord
  2
_OPEN30
  0
BLOCK_RECORD
  5
4547
330
1
100
AcDbSymbolTableRecord
100
AcDbBlockTableRecord
  2
_DOTSMALL
  0
BLOCK_RECORD
  5
4909
330
1
100
AcDbSymbolTableRecord
100
AcDbBlockTableRecord
  2
*D17
  0
BLOCK_RECORD
  5
491F
330
1
100
AcDbSymbolTableRecord
100
AcDbBlockTableRecord
  2
静電容量センサ
  0
BLOCK_RECORD
  5
4ECE
330
1
100
AcDbSymbolTableRecord
100
AcDbBlockTableRecord
  2
*D30
  0
BLOCK_RECORD
  5
4ED9
330
1
100
AcDbSymbolTableRecord
100
AcDbBlockTableRecord
  2
*D31
  0
BLOCK_RECORD
  5
4EE4
330
1
100
AcDbSymbolTableRecord
100
AcDbBlockTableRecord
  2
*D32
  0
BLOCK_RECORD
  5
4EEF
330
1
100
AcDbSymbolTableRecord
100
AcDbBlockTableRecord
  2
*D33
  0
BLOCK_RECORD
  5
4EFA
330
1
100
AcDbSymbolTableRecord
100
AcDbBlockTableRecord
  2
*D34
  0
BLOCK_RECORD
  5
4F06
330
1
100
AcDbSymbolTableRecord
100
AcDbBlockTableRecord
  2
*D35
  0
BLOCK_RECORD
  5
4F12
330
1
100
AcDbSymbolTableRecord
100
AcDbBlockTableRecord
  2
*D36
  0
BLOCK_RECORD
  5
4F1E
330
1
100
AcDbSymbolTableRecord
100
AcDbBlockTableRecord
  2
*D37
  0
BLOCK_RECORD
  5
4F2A
330
1
100
AcDbSymbolTableRecord
100
AcDbBlockTableRecord
  2
*D38
  0
BLOCK_RECORD
  5
4F37
330
1
100
AcDbSymbolTableRecord
100
AcDbBlockTableRecord
  2
*D39
  0
ENDTAB
  0
ENDSEC
  0
SECTION
  2
BLOCKS
  0
BLOCK
  5
1B
330
1A
100
AcDbEntity
  8
0
100
AcDbBlockBegin
  2
*MODEL_SPACE
 70
     0
 10
0.0
 20
0.0
 30
0.0
  3
*MODEL_SPACE
  1

  0
ENDBLK
  5
1C
330
1A
100
AcDbEntity
  8
0
100
AcDbBlockEnd
  0
BLOCK
  5
28FD
330
28FB
100
AcDbEntity
 67
     1
  8
0
 48
10.0
100
AcDbBlockBegin
  2
*PAPER_SPACE
 70
     0
 10
0.0
 20
0.0
 30
0.0
  3
*PAPER_SPACE
  1

  0
ENDBLK
  5
28FE
330
28FB
100
AcDbEntity
 67
     1
  8
0
 48
10.0
100
AcDbBlockEnd
  0
BLOCK
  5
93
330
65
100
AcDbEntity
  8
0
100
AcDbBlockBegin
  2
A$C3392
 70
     0
 10
0.0
 20
0.0
 30
0.0
  3
A$C3392
  1

  0
LINE
  5
66
330
65
100
AcDbEntity
  8
図枠太線
  6
CONTINUOUS
100
AcDbLine
 10
211.858584505185
 20
30.927375675439
 30
0.0
 11
211.858584505185
 21
0.927375675439
 31
0.0
  0
LINE
  5
67
330
65
100
AcDbEntity
  8
図枠細線
  6
CONTINUOUS
100
AcDbLine
 10
231.858592505185
 20
15.927377675439
 30
0.0
 11
287.858592505185
 21
15.927375675439
 31
0.0
  0
LINE
  5
68
330
65
100
AcDbEntity
  8
図枠細線
  6
CONTINUOUS
100
AcDbLine
 10
211.858592505185
 20
15.927377675439
 30
0.0
 11
231.858592505185
 21
15.927377675439
 31
0.0
  0
LINE
  5
69
330
65
100
AcDbEntity
  8
図枠太線
  6
CONTINUOUS
 62
   251
100
AcDbLine
 10
1.858584505185
 20
0.927375675439
 30
0.0
 11
1.858584505185
 21
275.927375675439
 31
0.0
  0
TEXT
  5
6A
330
65
100
AcDbEntity
  8
図枠細線
  6
CONTINUOUS
 62
   252
100
AcDbText
 10
351.358592505185
 20
28.427377675439
 30
0.0
 40
2.0
  1
ＴＩＴＬＥ
 41
0.903614457831
  7
EXCADSTD
 72
     5
 11
361.358592505185
 21
28.427377675439
 31
0.0
100
AcDbText
  0
TEXT
  5
6B
330
65
100
AcDbEntity
  8
図枠細線
  6
CONTINUOUS
 62
   252
100
AcDbText
 10
345.358592505185
 20
28.427377675439
 30
0.0
 40
2.0
  1
名称
 41
1.171875
  7
EXCADSTD
 72
     5
 11
350.358592505185
 21
28.427377675439
 31
0.0
100
AcDbText
  0
TEXT
  5
6C
330
65
100
AcDbEntity
  8
図枠細線
  6
CONTINUOUS
 62
   252
100
AcDbText
 10
274.358592505185
 20
25.927377675439
 30
0.0
 40
2.0
  1
ＤＲＡＷＮ
 41
0.882352941176
  7
EXCADSTD
 72
     5
 11
284.358592505185
 21
25.927377675439
 31
0.0
100
AcDbText
  0
TEXT
  5
6D
330
65
100
AcDbEntity
  8
図枠細線
  6
CONTINUOUS
 62
   252
100
AcDbText
 10
260.358592505185
 20
25.927377675439
 30
0.0
 40
2.0
  1
ＤＥＳＩＧＮＥＤ
 41
0.713043472041
  7
EXCADSTD
 72
     5
 11
273.478592390744
 21
25.927377675439
 31
0.0
100
AcDbText
  0
TEXT
  5
6E
330
65
100
AcDbEntity
  8
図枠細線
  6
CONTINUOUS
 62
   252
100
AcDbText
 10
246.358592505185
 20
25.927377675439
 30
0.0
 40
2.0
  1
ＣＨＥＣＫＥＤ
 41
0.831249989569
  7
EXCADSTD
 72
     5
 11
259.658592338292
 21
25.927377675439
 31
0.0
100
AcDbText
  0
TEXT
  5
6F
330
65
100
AcDbEntity
  8
図枠細線
  6
CONTINUOUS
 62
   252
100
AcDbText
 10
274.358592505185
 20
28.427377675439
 30
0.0
 40
2.0
  1
製図
 41
1.209677419355
  7
EXCADSTD
 72
     5
 11
279.358592505185
 21
28.427377675439
 31
0.0
100
AcDbText
  0
TEXT
  5
70
330
65
100
AcDbEntity
  8
図枠細線
  6
CONTINUOUS
 62
   252
100
AcDbText
 10
260.358592505185
 20
28.427377675439
 30
0.0
 40
2.0
  1
設計
 41
1.171875
  7
EXCADSTD
 72
     5
 11
265.358592505185
 21
28.427377675439
 31
0.0
100
AcDbText
  0
TEXT
  5
71
330
65
100
AcDbEntity
  8
図枠細線
  6
CONTINUOUS
 62
   252
100
AcDbText
 10
246.358592505185
 20
28.427377675439
 30
0.0
 40
2.0
  1
検図
 41
1.209677419355
  7
EXCADSTD
 72
     5
 11
251.358592505185
 21
28.427377675439
 31
0.0
100
AcDbText
  0
TEXT
  5
72
330
65
100
AcDbEntity
  8
図枠細線
  6
CONTINUOUS
 62
   252
100
AcDbText
 10
232.358592505185
 20
25.927377675439
 30
0.0
 40
2.0
  1
ＡＰＰＲＯＶＥＤ
 41
0.695652184279
  7
EXCADSTD
 72
     5
 11
245.15859269592
 21
25.927377675439
 31
0.0
100
AcDbText
  0
TEXT
  5
73
330
65
100
AcDbEntity
  8
図枠細線
  6
CONTINUOUS
 62
   252
100
AcDbText
 10
232.358592505185
 20
28.427377675439
 30
0.0
 40
2.0
  1
承認
 41
1.171875
  7
EXCADSTD
 72
     5
 11
237.358592505185
 21
28.427377675439
 31
0.0
100
AcDbText
  0
TEXT
  5
74
330
65
100
AcDbEntity
  8
図枠細線
  6
CONTINUOUS
 62
   252
100
AcDbText
 10
290.069888505185
 20
2.574868675439
 30
0.0
 40
3.5
  1
ＴＯＷＡ　ＳＥＩＤＥＮ　ＩＮＤＵＳＴＲＩＡＬ　ＣＯ．，ＬＴＤ．
 41
0.414568012377
  7
EXCADSTD
 72
     5
 11
342.692388209546
 21
2.574868675439
 31
0.0
100
AcDbText
  0
TEXT
  5
75
330
65
100
AcDbEntity
  8
図枠ロゴマーク
  6
CONTINUOUS
 62
   253
100
AcDbText
 10
290.107348505185
 20
7.519769675439
 30
0.0
 40
7.0
  1
東和制電工業株式会社
 41
0.639204545455
  7
EXCADSTD
 72
     5
 11
342.607348505185
 21
7.519769675439
 31
0.0
100
AcDbText
  0
TEXT
  5
76
330
65
100
AcDbEntity
  8
図枠細線
  6
CONTINUOUS
 62
   252
100
AcDbText
 10
232.499705505185
 20
5.759088675439
 30
0.0
 40
2.0
  1
ＰＲＯＪＥＣＴＩＯＮ
 41
0.754285710199
  7
EXCADSTD
 72
     5
 11
250.099705409817
 21
5.759088675439
 31
0.0
100
AcDbText
  0
TEXT
  5
77
330
65
100
AcDbEntity
  8
図枠細線
  6
CONTINUOUS
 62
   252
100
AcDbText
 10
232.574629505185
 20
8.681077675439
 30
0.0
 40
2.0
  1
ＴＨＩＲＤ　ＡＮＧＬＥ
 41
0.691099486738
  7
EXCADSTD
 72
     5
 11
250.174629767445
 21
8.681077675439
 31
0.0
100
AcDbText
  0
TEXT
  5
78
330
65
100
AcDbEntity
  8
図枠細線
  6
CONTINUOUS
 62
   252
100
AcDbText
 10
256.823999505185
 20
13.427377675439
 30
0.0
 40
2.0
  1
ＳＣＡＬＥ
 41
0.903614457831
  7
EXCADSTD
 72
     5
 11
266.823999505185
 21
13.427377675439
 31
0.0
100
AcDbText
  0
TEXT
  5
79
330
65
100
AcDbEntity
  8
図枠細線
  6
CONTINUOUS
 62
   252
100
AcDbText
 10
274.858592505185
 20
13.427377675439
 30
0.0
 40
2.0
  1
ＤＡＴＥ
 41
0.923076923077
  7
EXCADSTD
 72
     5
 11
282.858592505185
 21
13.427377675439
 31
0.0
100
AcDbText
  0
TEXT
  5
7A
330
65
100
AcDbEntity
  8
図枠細線
  6
CONTINUOUS
 62
   252
100
AcDbText
 10
356.358592505185
 20
13.427377675439
 30
0.0
 40
2.0
  1
ＤＲＧ．ＮＯ．
 41
0.9375
  7
EXCADSTD
 72
     5
 11
370.358592505185
 21
13.427377675439
 31
0.0
100
AcDbText
  0
TEXT
  5
7B
330
65
100
AcDbEntity
  8
図枠細線
  6
CONTINUOUS
 62
   252
100
AcDbText
 10
345.358592505185
 20
13.427377675439
 30
0.0
 40
2.0
  1
図面番号
 41
1.102941176471
  7
EXCADSTD
 72
     5
 11
355.358592505185
 21
13.427377675439
 31
0.0
100
AcDbText
  0
TEXT
  5
7C
330
65
100
AcDbEntity
  8
図枠細線
  6
CONTINUOUS
 62
   252
100
AcDbText
 10
269.358592505185
 20
13.427377675439
 30
0.0
 40
2.0
  1
日付
 41
1.171875
  7
EXCADSTD
 72
     5
 11
274.358592505185
 21
13.427377675439
 31
0.0
100
AcDbText
  0
TEXT
  5
7D
330
65
100
AcDbEntity
  8
図枠細線
  6
CONTINUOUS
 62
   252
100
AcDbText
 10
251.451512505185
 20
13.427377675439
 30
0.0
 40
2.0
  1
尺度
 41
1.171875
  7
EXCADSTD
 72
     5
 11
256.451512505185
 21
13.427377675439
 31
0.0
100
AcDbText
  0
TEXT
  5
7E
330
65
100
AcDbEntity
  8
図枠細線
  6
CONTINUOUS
 62
   252
100
AcDbText
 10
232.358592505185
 20
13.427377675439
 30
0.0
 40
2.0
  1
第三角法
 41
1.102941176471
  7
EXCADSTD
 72
     5
 11
242.358592505185
 21
13.427377675439
 31
0.0
100
AcDbText
  0
TEXT
  5
7F
330
65
100
AcDbEntity
  8
図枠細線
  6
CONTINUOUS
 62
   252
100
AcDbText
 10
212.358592505185
 20
28.427377675439
 30
0.0
 40
2.0
  1
ＮＯＴＥ
 41
0.923076923077
  7
EXCADSTD
 72
     5
 11
220.358592505185
 21
28.427377675439
 31
0.0
100
AcDbText
  0
LINE
  5
80
330
65
100
AcDbEntity
  8
図枠細線
  6
CONTINUOUS
 62
   252
100
AcDbLine
 10
287.858592505185
 20
23.427375675439
 30
0.0
 11
344.858592505185
 21
23.427375675439
 31
0.0
  0
LINE
  5
81
330
65
100
AcDbEntity
  8
図枠太線
  6
CONTINUOUS
 62
   251
100
AcDbLine
 10
287.858584505185
 20
15.927375675439
 30
0.0
 11
344.858592505185
 21
15.927375675439
 31
0.0
  0
LINE
  5
82
330
65
100
AcDbEntity
  8
図枠細線
  6
CONTINUOUS
 62
   252
100
AcDbLine
 10
344.858592505185
 20
15.927375675439
 30
0.0
 11
401.858584505185
 21
15.927375675439
 31
0.0
  0
LINE
  5
83
330
65
100
AcDbEntity
  8
図枠太線
  6
CONTINUOUS
 62
   251
100
AcDbLine
 10
344.858592505185
 20
0.927377675439
 30
0.0
 11
344.858592505185
 21
30.927375675439
 31
0.0
  0
LINE
  5
84
330
65
100
AcDbEntity
  8
図枠太線
  6
CONTINUOUS
 62
   251
100
AcDbLine
 10
287.858592505185
 20
0.927377675439
 30
0.0
 11
287.858592505185
 21
30.927375675439
 31
0.0
  0
LINE
  5
85
330
65
100
AcDbEntity
  8
図枠細線
  6
CONTINUOUS
 62
   252
100
AcDbLine
 10
268.858592505185
 20
0.927377675439
 30
0.0
 11
268.858592505185
 21
15.927375675439
 31
0.0
  0
LINE
  5
86
330
65
100
AcDbEntity
  8
図枠細線
  6
CONTINUOUS
 62
   252
100
AcDbLine
 10
250.858592505185
 20
0.927377675439
 30
0.0
 11
250.858592505185
 21
15.927375675439
 31
0.0
  0
LINE
  5
87
330
65
100
AcDbEntity
  8
図枠細線
  6
CONTINUOUS
 62
   252
100
AcDbLine
 10
273.858592505185
 20
30.927375675439
 30
0.0
 11
273.858592505185
 21
15.927375675439
 31
0.0
  0
LINE
  5
88
330
65
100
AcDbEntity
  8
図枠細線
  6
CONTINUOUS
 62
   252
100
AcDbLine
 10
259.858592505185
 20
30.927375675439
 30
0.0
 11
259.858592505185
 21
15.927375675439
 31
0.0
  0
LINE
  5
89
330
65
100
AcDbEntity
  8
図枠細線
  6
CONTINUOUS
 62
   252
100
AcDbLine
 10
245.858592505185
 20
30.927375675439
 30
0.0
 11
245.858592505185
 21
15.927375675439
 31
0.0
  0
LINE
  5
8A
330
65
100
AcDbEntity
  8
図枠太線
  6
CONTINUOUS
 62
   251
100
AcDbLine
 10
231.858592505185
 20
0.927377675439
 30
0.0
 11
231.858592505185
 21
30.927375675439
 31
0.0
  0
LINE
  5
8B
330
65
100
AcDbEntity
  8
図枠細線
  6
CONTINUOUS
 62
   252
100
AcDbLine
 10
211.858592505185
 20
25.927375675439
 30
0.0
 11
231.858592505185
 21
25.927375675439
 31
0.0
  0
LINE
  5
8C
330
65
100
AcDbEntity
  8
図枠細線
  6
CONTINUOUS
 62
   252
100
AcDbLine
 10
211.858592505185
 20
20.927375675439
 30
0.0
 11
231.858592505185
 21
20.927375675439
 31
0.0
  0
LINE
  5
8D
330
65
100
AcDbEntity
  8
図枠細線
  6
CONTINUOUS
 62
   252
100
AcDbLine
 10
211.858592505185
 20
10.927375675439
 30
0.0
 11
231.858592505185
 21
10.927375675439
 31
0.0
  0
LINE
  5
8E
330
65
100
AcDbEntity
  8
図枠細線
  6
CONTINUOUS
 62
   252
100
AcDbLine
 10
211.858592505185
 20
5.927377675439
 30
0.0
 11
231.858592505185
 21
5.927377675439
 31
0.0
  0
LINE
  5
8F
330
65
100
AcDbEntity
  8
図枠太線
  6
CONTINUOUS
 62
   251
100
AcDbLine
 10
211.858592505185
 20
30.927375675439
 30
0.0
 11
401.858584505185
 21
30.927375675439
 31
0.0
  0
LINE
  5
90
330
65
100
AcDbEntity
  8
図枠太線
  6
CONTINUOUS
 62
   251
100
AcDbLine
 10
1.858584505185
 20
275.927375675439
 30
0.0
 11
401.858584505185
 21
275.927375675439
 31
0.0
  0
LINE
  5
91
330
65
100
AcDbEntity
  8
図枠太線
  6
CONTINUOUS
 62
   251
100
AcDbLine
 10
401.858584505185
 20
0.927375675439
 30
0.0
 11
401.858584505185
 21
275.927375675439
 31
0.0
  0
LINE
  5
92
330
65
100
AcDbEntity
  8
図枠太線
  6
CONTINUOUS
 62
   251
100
AcDbLine
 10
1.858584505185
 20
0.927375675439
 30
0.0
 11
401.858584505185
 21
0.927375675439
 31
0.0
  0
ENDBLK
  5
94
330
65
100
AcDbEntity
  8
0
100
AcDbBlockEnd
  0
BLOCK
  5
29C0
330
29BF
100
AcDbEntity
  8
0
100
AcDbBlockBegin
  2
A4横用_タイトル
 70
     0
 10
0.0
 20
0.0
 30
0.0
  3
A4横用_タイトル
  1

  0
LINE
  5
29C1
330
29BF
100
AcDbEntity
  8
図枠細線
  6
CONTINUOUS
100
AcDbLine
 10
75.061011071051
 20
16.806607253358
 30
0.0
 11
144.061011071051
 21
16.806604789072
 31
0.0
  0
LINE
  5
29C2
330
29BF
100
AcDbEntity
  8
図枠細線
  6
CONTINUOUS
 62
   252
100
AcDbLine
 10
4.061011071051
 20
11.806606253358
 30
0.0
 11
75.061011071051
 21
11.806606253358
 31
0.0
  0
LINE
  5
29C3
330
29BF
100
AcDbEntity
  8
図枠細線
  6
CONTINUOUS
 62
   252
100
AcDbLine
 10
4.061011071051
 20
21.806606253358
 30
0.0
 11
75.061011071051
 21
21.806606253358
 31
0.0
  0
LINE
  5
29C4
330
29BF
100
AcDbEntity
  8
図枠細線
  6
CONTINUOUS
 62
   252
100
AcDbLine
 10
4.061011071051
 20
26.806606253358
 30
0.0
 11
75.061011071051
 21
26.806606253358
 31
0.0
  0
LINE
  5
29C5
330
29BF
100
AcDbEntity
  8
図枠細線
  6
CONTINUOUS
100
AcDbLine
 10
4.061011071051
 20
16.806608253358
 30
0.0
 11
75.061011071051
 21
16.806608253358
 31
0.0
  0
TEXT
  5
29C6
330
29BF
100
AcDbEntity
  8
図枠細線
  6
CONTINUOUS
 62
   252
100
AcDbText
 10
76.405475827713
 20
9.560308253358
 30
0.0
 40
2.0
  1
ＴＨＩＲＤ　ＡＮＧＬＥ
 41
0.691099486738
  7
EXCADSTD
 72
     5
 11
94.005476089973
 21
9.560308253358
 31
0.0
100
AcDbText
  0
TEXT
  5
29C7
330
29BF
100
AcDbEntity
  8
図枠細線
  6
CONTINUOUS
 62
   252
100
AcDbText
 10
76.705775880921
 20
14.306608253358
 30
0.0
 40
2.0
  1
第三角法
 41
1.102941176471
  7
EXCADSTD
 72
     5
 11
86.705775880921
 21
14.306608253358
 31
0.0
100
AcDbText
  0
TEXT
  5
29C8
330
29BF
100
AcDbEntity
  8
図枠細線
  6
CONTINUOUS
 62
   252
100
AcDbText
 10
76.705775880921
 20
26.806608253358
 30
0.0
 40
2.0
  1
ＡＰＰＲＯＶＥＤ
 41
0.695652184279
  7
EXCADSTD
 72
     5
 11
89.505776071656
 21
26.806608253358
 31
0.0
100
AcDbText
  0
TEXT
  5
29C9
330
29BF
100
AcDbEntity
  8
図枠細線
  6
CONTINUOUS
 62
   252
100
AcDbText
 10
76.705775880921
 20
29.306608253358
 30
0.0
 40
2.0
  1
承認
 41
1.171875
  7
EXCADSTD
 72
     5
 11
81.705775880921
 21
29.306608253358
 31
0.0
100
AcDbText
  0
LINE
  5
29CA
330
29BF
100
AcDbEntity
  8
図枠細線
  6
CONTINUOUS
 62
   252
100
AcDbLine
 10
98.061011071051
 20
31.806606253358
 30
0.0
 11
98.061011071051
 21
16.806606253358
 31
0.0
  0
TEXT
  5
29CB
330
29BF
100
AcDbEntity
  8
図枠細線
  6
CONTINUOUS
 62
   252
100
AcDbText
 10
104.216531119804
 20
14.306608253358
 30
0.0
 40
2.0
  1
ＳＣＡＬＥ
 41
0.903614457831
  7
EXCADSTD
 72
     5
 11
114.216531119804
 21
14.306608253358
 31
0.0
100
AcDbText
  0
TEXT
  5
29CC
330
29BF
100
AcDbEntity
  8
図枠細線
  6
CONTINUOUS
 62
   252
100
AcDbText
 10
98.844044119804
 20
14.306608253358
 30
0.0
 40
2.0
  1
尺度
 41
1.171875
  7
EXCADSTD
 72
     5
 11
103.844044119804
 21
14.306608253358
 31
0.0
100
AcDbText
  0
TEXT
  5
29CD
330
29BF
100
AcDbEntity
  8
図枠細線
  6
CONTINUOUS
 62
   252
100
AcDbText
 10
98.968727707497
 20
26.806608253358
 30
0.0
 40
2.0
  1
ＣＨＥＣＫＥＤ
 41
0.831249989569
  7
EXCADSTD
 72
     5
 11
112.268727540604
 21
26.806608253358
 31
0.0
100
AcDbText
  0
TEXT
  5
29CE
330
29BF
100
AcDbEntity
  8
図枠細線
  6
CONTINUOUS
 62
   252
100
AcDbText
 10
98.968727707497
 20
29.306608253358
 30
0.0
 40
2.0
  1
検図
 41
1.209677419355
  7
EXCADSTD
 72
     5
 11
103.968727707497
 21
29.306608253358
 31
0.0
100
AcDbText
  0
LINE
  5
29CF
330
29BF
100
AcDbEntity
  8
図枠細線
  6
CONTINUOUS
 62
   252
100
AcDbLine
 10
121.061011071051
 20
31.806606253358
 30
0.0
 11
121.061011071051
 21
16.806606253358
 31
0.0
  0
TEXT
  5
29D0
330
29BF
100
AcDbEntity
  8
図枠細線
  6
CONTINUOUS
 62
   252
100
AcDbText
 10
128.001465247253
 20
14.306608253358
 30
0.0
 40
2.0
  1
ＤＡＴＥ
 41
0.923076923077
  7
EXCADSTD
 72
     5
 11
136.001465247253
 21
14.306608253358
 31
0.0
100
AcDbText
  0
TEXT
  5
29D1
330
29BF
100
AcDbEntity
  8
図枠細線
  6
CONTINUOUS
 62
   252
100
AcDbText
 10
122.066415498841
 20
14.306608253358
 30
0.0
 40
2.0
  1
日付
 41
1.171875
  7
EXCADSTD
 72
     5
 11
127.066415498841
 21
14.306608253358
 31
0.0
100
AcDbText
  0
TEXT
  5
29D2
330
29BF
100
AcDbEntity
  8
図枠細線
  6
CONTINUOUS
 62
   252
100
AcDbText
 10
121.59429406571
 20
29.306608253358
 30
0.0
 40
2.0
  1
製図
 41
1.209677419355
  7
EXCADSTD
 72
     5
 11
126.59429406571
 21
29.306608253358
 31
0.0
100
AcDbText
  0
TEXT
  5
29D3
330
29BF
100
AcDbEntity
  8
図枠細線
  6
CONTINUOUS
 62
   252
100
AcDbText
 10
121.59429406571
 20
26.806608253358
 30
0.0
 40
2.0
  1
ＤＲＡＷＮ
 41
0.882352941176
  7
EXCADSTD
 72
     5
 11
131.59429406571
 21
26.806608253358
 31
0.0
100
AcDbText
  0
TEXT
  5
29D4
330
29BF
100
AcDbEntity
  8
図枠細線
  6
CONTINUOUS
 62
   252
100
AcDbText
 10
226.591229661348
 20
14.306608253358
 30
0.0
 40
2.0
  1
ＤＲＧ．ＮＯ．
 41
0.9375
  7
EXCADSTD
 72
     5
 11
240.591229661348
 21
14.306608253358
 31
0.0
100
AcDbText
  0
LINE
  5
29D5
330
29BF
100
AcDbEntity
  8
図枠太線
  6
CONTINUOUS
 62
   251
100
AcDbLine
 10
144.061003071051
 20
16.806606253358
 30
0.0
 11
214.061011071051
 21
16.806606253358
 31
0.0
  0
LINE
  5
29D6
330
29BF
100
AcDbEntity
  8
図枠細線
  6
CONTINUOUS
 62
   252
100
AcDbLine
 10
144.061011071051
 20
24.306606253358
 30
0.0
 11
214.061011071051
 21
24.306606253358
 31
0.0
  0
TEXT
  5
29D7
330
29BF
100
AcDbEntity
  8
図枠ロゴマーク
  6
CONTINUOUS
 62
   253
100
AcDbText
 10
146.433776781596
 20
8.399000253358
 30
0.0
 40
7.0
  1
東和制電工業株式会社
 41
0.80361088462
  7
EXCADSTD
 72
     5
 11
212.437017438349
 21
8.399000253358
 31
0.0
100
AcDbText
  0
TEXT
  5
29D8
330
29BF
100
AcDbEntity
  8
図枠細線
  6
CONTINUOUS
 62
   252
100
AcDbText
 10
215.156179912936
 20
14.306608253358
 30
0.0
 40
2.0
  1
図面番号
 41
1.102941176471
  7
EXCADSTD
 72
     5
 11
225.156179912936
 21
14.306608253358
 31
0.0
100
AcDbText
  0
TEXT
  5
29D9
330
29BF
100
AcDbEntity
  8
図枠細線
  6
CONTINUOUS
 62
   252
100
AcDbText
 10
221.591229661348
 20
29.306608253358
 30
0.0
 40
2.0
  1
ＴＩＴＬＥ
 41
0.903614457831
  7
EXCADSTD
 72
     5
 11
231.591229661348
 21
29.306608253358
 31
0.0
100
AcDbText
  0
TEXT
  5
29DA
330
29BF
100
AcDbEntity
  8
図枠細線
  6
CONTINUOUS
 62
   252
100
AcDbText
 10
215.156179912936
 20
29.306608253358
 30
0.0
 40
2.0
  1
名称
 41
1.171875
  7
EXCADSTD
 72
     5
 11
220.156179912936
 21
29.306608253358
 31
0.0
100
AcDbText
  0
LINE
  5
29DB
330
29BF
100
AcDbEntity
  8
図枠太線
  6
CONTINUOUS
 62
   251
100
AcDbLine
 10
4.061011071051
 20
1.806608253358
 30
0.0
 11
284.061011071051
 21
1.806608253358
 31
0.0
  0
LINE
  5
29DC
330
29BF
100
AcDbEntity
  8
図枠細線
  6
CONTINUOUS
 62
   252
100
AcDbLine
 10
4.061011071051
 20
6.806608253358
 30
0.0
 11
75.061011071051
 21
6.806608253358
 31
0.0
  0
LINE
  5
29DD
330
29BF
100
AcDbEntity
  8
図枠太線
  6
CONTINUOUS
 62
   251
100
AcDbLine
 10
75.061011071051
 20
1.806608253358
 30
0.0
 11
75.061011071051
 21
31.806606253358
 31
0.0
  0
TEXT
  5
29DE
330
29BF
100
AcDbEntity
  8
図枠細線
  6
CONTINUOUS
 62
   252
100
AcDbText
 10
76.330551827713
 20
6.638319253358
 30
0.0
 40
2.0
  1
ＰＲＯＪＥＣＴＩＯＮ
 41
0.754285710199
  7
EXCADSTD
 72
     5
 11
93.930551732346
 21
6.638319253358
 31
0.0
100
AcDbText
  0
LINE
  5
29DF
330
29BF
100
AcDbEntity
  8
図枠細線
  6
CONTINUOUS
 62
   252
100
AcDbLine
 10
98.061011071051
 20
1.806606931929
 30
0.0
 11
98.061011071051
 21
16.806604931929
 31
0.0
  0
LINE
  5
29E0
330
29BF
100
AcDbEntity
  8
図枠細線
  6
CONTINUOUS
 62
   252
100
AcDbLine
 10
121.061011071051
 20
1.806607574787
 30
0.0
 11
121.061011071051
 21
16.806605574787
 31
0.0
  0
LINE
  5
29E1
330
29BF
100
AcDbEntity
  8
図枠太線
  6
CONTINUOUS
 62
   251
100
AcDbLine
 10
284.061011071051
 20
1.806608253358
 30
0.0
 11
284.061011071051
 21
31.806606253358
 31
0.0
  0
LINE
  5
29E2
330
29BF
100
AcDbEntity
  8
図枠細線
  6
CONTINUOUS
 62
   252
100
AcDbLine
 10
214.061011071051
 20
16.806606253358
 30
0.0
 11
284.061011071051
 21
16.806606253358
 31
0.0
  0
TEXT
  5
29E3
330
29BF
100
AcDbEntity
  8
図枠細線
  6
CONTINUOUS
 62
   252
100
AcDbText
 10
146.199593676182
 20
3.454099253358
 30
0.0
 40
3.5
  1
ＴＯＷＡ　ＳＥＩＤＥＮ　ＩＮＤＵＳＴＲＩＡＬ　ＣＯ．，ＬＴＤ．
 41
0.528937826907
  7
EXCADSTD
 72
     5
 11
213.339435171588
 21
3.454099253358
 31
0.0
100
AcDbText
  0
LINE
  5
29E4
330
29BF
100
AcDbEntity
  8
図枠太線
  6
CONTINUOUS
 62
   251
100
AcDbLine
 10
144.061011071051
 20
1.806608253358
 30
0.0
 11
144.061011071051
 21
31.806606253358
 31
0.0
  0
LINE
  5
29E5
330
29BF
100
AcDbEntity
  8
図枠太線
  6
CONTINUOUS
 62
   251
100
AcDbLine
 10
214.061011071051
 20
1.806608253358
 30
0.0
 11
214.061011071051
 21
31.806606253358
 31
0.0
  0
MTEXT
  5
29E6
330
29BF
100
AcDbEntity
  8
図枠太線
100
AcDbMText
 10
5.064337346478
 20
31.010982137407
 30
0.0
 40
2.5
 41
8.67856098472
 71
     1
 72
     5
  1
{\Fmonotxt.shx,bigfont.shx|c128;図暦}
  0
LINE
  5
29E7
330
29BF
100
AcDbEntity
  8
図枠太線
  6
CONTINUOUS
 62
   251
100
AcDbLine
 10
4.061011071051
 20
1.806608253358
 30
0.0
 11
4.061011071051
 21
31.806606253358
 31
0.0
  0
TEXT
  5
29E8
330
29BF
100
AcDbEntity
  8
図枠細線
 48
10.0
100
AcDbText
 10
12.260817420402
 20
28.625419626495
 30
0.0
 40
2.0
  1
CHANGE NOTICE
100
AcDbText
  0
ENDBLK
  5
29E9
330
29BF
100
AcDbEntity
  8
0
100
AcDbBlockEnd
  0
BLOCK
  5
29F5
330
29F4
100
AcDbEntity
  8
0
100
AcDbBlockBegin
  2
A4縦用_タイトル
 70
     0
 10
0.0
 20
0.0
 30
0.0
  3
A4縦用_タイトル
  1

  0
LINE
  5
29F6
330
29F4
100
AcDbEntity
  8
図枠太線
  6
CONTINUOUS
 62
   251
100
AcDbLine
 10
2.368253864267
 20
4.525433224584
 30
0.0
 11
192.368245864267
 21
4.525433224584
 31
0.0
  0
LINE
  5
29F7
330
29F4
100
AcDbEntity
  8
図枠太線
  6
CONTINUOUS
 62
   251
100
AcDbLine
 10
78.368245864267
 20
19.525431224584
 30
0.0
 11
135.368253864267
 21
19.525431224584
 31
0.0
  0
LINE
  5
29F8
330
29F4
100
AcDbEntity
  8
図枠細線
  6
CONTINUOUS
 62
   252
100
AcDbLine
 10
78.368253864267
 20
27.025431224584
 30
0.0
 11
135.368253864267
 21
27.025431224584
 31
0.0
  0
TEXT
  5
29F9
330
29F4
100
AcDbEntity
  8
図枠ロゴマーク
  6
CONTINUOUS
 62
   253
100
AcDbText
 10
80.617009864267
 20
11.117825224584
 30
0.0
 40
7.0
  1
東和制電工業株式会社
 41
0.639204545455
  7
EXCADSTD
 72
     5
 11
133.117009864267
 21
11.117825224584
 31
0.0
100
AcDbText
  0
TEXT
  5
29FA
330
29F4
100
AcDbEntity
  8
図枠細線
  6
CONTINUOUS
 62
   252
100
AcDbText
 10
80.579549864267
 20
6.172924224584
 30
0.0
 40
3.5
  1
ＴＯＷＡ　ＳＥＩＤＥＮ　ＩＮＤＵＳＴＲＩＡＬ　ＣＯ．，ＬＴＤ．
 41
0.414568012377
  7
EXCADSTD
 72
     5
 11
133.202049568628
 21
6.172924224584
 31
0.0
100
AcDbText
  0
LINE
  5
29FB
330
29F4
100
AcDbEntity
  8
図枠太線
  6
CONTINUOUS
 62
   251
100
AcDbLine
 10
2.368253864267
 20
4.525433224584
 30
0.0
 11
2.368253864267
 21
34.525431224584
 31
0.0
  0
TEXT
  5
29FC
330
29F4
100
AcDbEntity
  8
図枠細線
  6
CONTINUOUS
 62
   252
100
AcDbText
 10
22.504308136501
 20
12.279133224584
 30
0.0
 40
2.0
  1
ＴＨＩＲＤ　ＡＮＧＬＥ
 41
0.691099486738
  7
EXCADSTD
 72
     5
 11
40.104308398762
 21
12.279133224584
 31
0.0
100
AcDbText
  0
TEXT
  5
29FD
330
29F4
100
AcDbEntity
  8
図枠細線
  6
CONTINUOUS
 62
   252
100
AcDbText
 10
22.429384136501
 20
9.357144224584
 30
0.0
 40
2.0
  1
ＰＲＯＪＥＣＴＩＯＮ
 41
0.754285710199
  7
EXCADSTD
 72
     5
 11
40.029384041134
 21
9.357144224584
 31
0.0
100
AcDbText
  0
LINE
  5
29FE
330
29F4
100
AcDbEntity
  8
図枠細線
  6
CONTINUOUS
100
AcDbLine
 10
22.368253864267
 20
19.525433224584
 30
0.0
 11
78.368253864267
 21
19.525431224584
 31
0.0
  0
TEXT
  5
29FF
330
29F4
100
AcDbEntity
  8
図枠細線
  6
CONTINUOUS
 62
   252
100
AcDbText
 10
22.868253864267
 20
17.025433224584
 30
0.0
 40
2.0
  1
第三角法
 41
1.102941176471
  7
EXCADSTD
 72
     5
 11
32.868253864267
 21
17.025433224584
 31
0.0
100
AcDbText
  0
TEXT
  5
2A00
330
29F4
100
AcDbEntity
  8
図枠細線
  6
CONTINUOUS
 62
   252
100
AcDbText
 10
22.868253864267
 20
29.525433224584
 30
0.0
 40
2.0
  1
ＡＰＰＲＯＶＥＤ
 41
0.695652184279
  7
EXCADSTD
 72
     5
 11
35.668254055002
 21
29.525433224584
 31
0.0
100
AcDbText
  0
LINE
  5
2A01
330
29F4
100
AcDbEntity
  8
図枠細線
  6
CONTINUOUS
 62
   252
100
AcDbLine
 10
2.368253864267
 20
9.525433224584
 30
0.0
 11
22.368253864267
 21
9.525433224584
 31
0.0
  0
LINE
  5
2A02
330
29F4
100
AcDbEntity
  8
図枠細線
  6
CONTINUOUS
 62
   252
100
AcDbLine
 10
2.368253864267
 20
14.525431224584
 30
0.0
 11
22.368253864267
 21
14.525431224584
 31
0.0
  0
LINE
  5
2A03
330
29F4
100
AcDbEntity
  8
図枠細線
  6
CONTINUOUS
 62
   252
100
AcDbLine
 10
2.368253864267
 20
24.525431224584
 30
0.0
 11
22.368253864267
 21
24.525431224584
 31
0.0
  0
LINE
  5
2A04
330
29F4
100
AcDbEntity
  8
図枠細線
  6
CONTINUOUS
 62
   252
100
AcDbLine
 10
2.368253864267
 20
29.525431224584
 30
0.0
 11
22.368253864267
 21
29.525431224584
 31
0.0
  0
LINE
  5
2A05
330
29F4
100
AcDbEntity
  8
図枠細線
  6
CONTINUOUS
100
AcDbLine
 10
2.368253864267
 20
19.525433224584
 30
0.0
 11
22.368253864267
 21
19.525433224584
 31
0.0
  0
TEXT
  5
2A06
330
29F4
100
AcDbEntity
  8
図枠細線
  6
CONTINUOUS
 62
   252
100
AcDbText
 10
2.868253864267
 20
32.025433224584
 30
0.0
 40
2.0
  1
ＮＯＴＥ
 41
0.923076923077
  7
EXCADSTD
 72
     5
 11
10.868253864267
 21
32.025433224584
 31
0.0
100
AcDbText
  0
LINE
  5
2A07
330
29F4
100
AcDbEntity
  8
図枠太線
  6
CONTINUOUS
 62
   251
100
AcDbLine
 10
22.368253864267
 20
4.525433224584
 30
0.0
 11
22.368253864267
 21
34.525431224584
 31
0.0
  0
TEXT
  5
2A08
330
29F4
100
AcDbEntity
  8
図枠細線
  6
CONTINUOUS
 62
   252
100
AcDbText
 10
22.868253864267
 20
32.025433224584
 30
0.0
 40
2.0
  1
承認
 41
1.171875
  7
EXCADSTD
 72
     5
 11
27.868253864267
 21
32.025433224584
 31
0.0
100
AcDbText
  0
TEXT
  5
2A09
330
29F4
100
AcDbEntity
  8
図枠細線
  6
CONTINUOUS
 62
   252
100
AcDbText
 10
60.711709035982
 20
32.025433224584
 30
0.0
 40
2.0
  1
製図
 41
1.209677419355
  7
EXCADSTD
 72
     5
 11
65.711709035982
 21
32.025433224584
 31
0.0
100
AcDbText
  0
TEXT
  5
2A0A
330
29F4
100
AcDbEntity
  8
図枠細線
  6
CONTINUOUS
 62
   252
100
AcDbText
 10
60.711709035982
 20
29.525433224584
 30
0.0
 40
2.0
  1
ＤＲＡＷＮ
 41
0.882352941176
  7
EXCADSTD
 72
     5
 11
70.711709035982
 21
29.525433224584
 31
0.0
100
AcDbText
  0
TEXT
  5
2A0B
330
29F4
100
AcDbEntity
  8
図枠細線
  6
CONTINUOUS
 62
   252
100
AcDbText
 10
60.834891743877
 20
17.025433224584
 30
0.0
 40
2.0
  1
日付
 41
1.171875
  7
EXCADSTD
 72
     5
 11
65.834891743877
 21
17.025433224584
 31
0.0
100
AcDbText
  0
TEXT
  5
2A0C
330
29F4
100
AcDbEntity
  8
図枠細線
  6
CONTINUOUS
 62
   252
100
AcDbText
 10
47.333660864267
 20
17.025433224584
 30
0.0
 40
2.0
  1
ＳＣＡＬＥ
 41
0.903614457831
  7
EXCADSTD
 72
     5
 11
57.333660864267
 21
17.025433224584
 31
0.0
100
AcDbText
  0
TEXT
  5
2A0D
330
29F4
100
AcDbEntity
  8
図枠細線
  6
CONTINUOUS
 62
   252
100
AcDbText
 10
42.281425990082
 20
29.525433224584
 30
0.0
 40
2.0
  1
ＣＨＥＣＫＥＤ
 41
0.831249989569
  7
EXCADSTD
 72
     5
 11
55.581425823189
 21
29.525433224584
 31
0.0
100
AcDbText
  0
LINE
  5
2A0E
330
29F4
100
AcDbEntity
  8
図枠細線
  6
CONTINUOUS
 62
   252
100
AcDbLine
 10
40.968253864267
 20
34.525431224584
 30
0.0
 11
40.968253864267
 21
19.525431224584
 31
0.0
  0
LINE
  5
2A0F
330
29F4
100
AcDbEntity
  8
図枠細線
  6
CONTINUOUS
 62
   252
100
AcDbLine
 10
40.968253864267
 20
4.525433224584
 30
0.0
 11
40.968253864267
 21
19.525431224584
 31
0.0
  0
TEXT
  5
2A10
330
29F4
100
AcDbEntity
  8
図枠細線
  6
CONTINUOUS
 62
   252
100
AcDbText
 10
41.961173864267
 20
17.025433224584
 30
0.0
 40
2.0
  1
尺度
 41
1.171875
  7
EXCADSTD
 72
     5
 11
46.961173864267
 21
17.025433224584
 31
0.0
100
AcDbText
  0
TEXT
  5
2A11
330
29F4
100
AcDbEntity
  8
図枠細線
  6
CONTINUOUS
 62
   252
100
AcDbText
 10
42.281425990082
 20
32.025433224584
 30
0.0
 40
2.0
  1
検図
 41
1.209677419355
  7
EXCADSTD
 72
     5
 11
47.281425990082
 21
32.025433224584
 31
0.0
100
AcDbText
  0
LINE
  5
2A12
330
29F4
100
AcDbEntity
  8
図枠細線
  6
CONTINUOUS
 62
   252
100
AcDbLine
 10
59.768253864267
 20
34.525431224584
 30
0.0
 11
59.768253864267
 21
19.525431224584
 31
0.0
  0
LINE
  5
2A13
330
29F4
100
AcDbEntity
  8
図枠細線
  6
CONTINUOUS
 62
   252
100
AcDbLine
 10
59.768253864267
 20
4.525433224584
 30
0.0
 11
59.768253864267
 21
19.525431224584
 31
0.0
  0
LINE
  5
2A14
330
29F4
100
AcDbEntity
  8
図枠太線
  6
CONTINUOUS
 62
   251
100
AcDbLine
 10
78.368253864267
 20
4.525433224584
 30
0.0
 11
78.368253864267
 21
34.525431224584
 31
0.0
  0
TEXT
  5
2A15
330
29F4
100
AcDbEntity
  8
図枠細線
  6
CONTINUOUS
 62
   252
100
AcDbText
 10
66.334891743877
 20
17.025433224584
 30
0.0
 40
2.0
  1
ＤＡＴＥ
 41
0.923076923077
  7
EXCADSTD
 72
     5
 11
74.334891743877
 21
17.025433224584
 31
0.0
100
AcDbText
  0
LINE
  5
2A16
330
29F4
100
AcDbEntity
  8
図枠細線
  6
CONTINUOUS
 62
   252
100
AcDbLine
 10
135.368253864267
 20
19.525431224584
 30
0.0
 11
192.368245864267
 21
19.525431224584
 31
0.0
  0
TEXT
  5
2A17
330
29F4
100
AcDbEntity
  8
図枠細線
  6
CONTINUOUS
 62
   252
100
AcDbText
 10
141.868253864267
 20
32.025433224584
 30
0.0
 40
2.0
  1
ＴＩＴＬＥ
 41
0.903614457831
  7
EXCADSTD
 72
     5
 11
151.868253864267
 21
32.025433224584
 31
0.0
100
AcDbText
  0
LINE
  5
2A18
330
29F4
100
AcDbEntity
  8
図枠太線
  6
CONTINUOUS
 62
   251
100
AcDbLine
 10
135.368253864267
 20
4.525433224584
 30
0.0
 11
135.368253864267
 21
34.525431224584
 31
0.0
  0
TEXT
  5
2A19
330
29F4
100
AcDbEntity
  8
図枠細線
  6
CONTINUOUS
 62
   252
100
AcDbText
 10
135.868253864267
 20
17.025433224584
 30
0.0
 40
2.0
  1
図面番号
 41
1.102941176471
  7
EXCADSTD
 72
     5
 11
145.868253864267
 21
17.025433224584
 31
0.0
100
AcDbText
  0
TEXT
  5
2A1A
330
29F4
100
AcDbEntity
  8
図枠細線
  6
CONTINUOUS
 62
   252
100
AcDbText
 10
135.868253864267
 20
32.025433224584
 30
0.0
 40
2.0
  1
名称
 41
1.171875
  7
EXCADSTD
 72
     5
 11
140.868253864267
 21
32.025433224584
 31
0.0
100
AcDbText
  0
TEXT
  5
2A1B
330
29F4
100
AcDbEntity
  8
図枠細線
  6
CONTINUOUS
 62
   252
100
AcDbText
 10
146.868253864267
 20
17.025433224584
 30
0.0
 40
2.0
  1
ＤＲＧ．ＮＯ．
 41
0.9375
  7
EXCADSTD
 72
     5
 11
160.868253864267
 21
17.025433224584
 31
0.0
100
AcDbText
  0
LINE
  5
2A1C
330
29F4
100
AcDbEntity
  8
図枠太線
  6
CONTINUOUS
 62
   251
100
AcDbLine
 10
192.368245864267
 20
4.525433224584
 30
0.0
 11
192.368245864267
 21
34.525431224584
 31
0.0
  0
ENDBLK
  5
2A1D
330
29F4
100
AcDbEntity
  8
0
100
AcDbBlockEnd
  0
BLOCK
  5
2A33
330
2A32
100
AcDbEntity
  8
0
100
AcDbBlockBegin
  2
A3横用_タイトル
 70
     0
 10
0.0
 20
0.0
 30
0.0
  3
A3横用_タイトル
  1

  0
LINE
  5
2A34
330
2A32
100
AcDbEntity
  8
図枠細線
  6
CONTINUOUS
 62
   252
100
AcDbLine
 10
205.098414535793
 20
33.525959753527
 30
0.0
 11
305.098414535793
 21
33.525959753527
 31
0.0
  0
LINE
  5
2A35
330
2A32
100
AcDbEntity
  8
図枠太線
  6
CONTINUOUS
 62
   251
100
AcDbLine
 10
205.098414535793
 20
23.525959753527
 30
0.0
 11
305.098414535793
 21
23.525959753527
 31
0.0
  0
LINE
  5
2A36
330
2A32
100
AcDbEntity
  8
図枠細線
  6
CONTINUOUS
100
AcDbLine
 10
5.098414535793
 20
23.525959753527
 30
0.0
 11
105.098414535793
 21
23.525959753527
 31
0.0
  0
LINE
  5
2A37
330
2A32
100
AcDbEntity
  8
図枠細線
  6
CONTINUOUS
 62
   252
100
AcDbLine
 10
5.098414535793
 20
36.725957753527
 30
0.0
 11
105.098414535793
 21
36.725957753527
 31
0.0
  0
LINE
  5
2A38
330
2A32
100
AcDbEntity
  8
図枠細線
  6
CONTINUOUS
 62
   252
100
AcDbLine
 10
5.098414535793
 20
30.125957753527
 30
0.0
 11
105.098414535793
 21
30.125957753527
 31
0.0
  0
LINE
  5
2A39
330
2A32
100
AcDbEntity
  8
図枠細線
  6
CONTINUOUS
 62
   252
100
AcDbLine
 10
5.098414535793
 20
16.725959753527
 30
0.0
 11
105.098414535793
 21
16.725959753527
 31
0.0
  0
LINE
  5
2A3A
330
2A32
100
AcDbEntity
  8
図枠細線
  6
CONTINUOUS
 62
   252
100
AcDbLine
 10
5.098414535793
 20
10.125959753527
 30
0.0
 11
105.098414535793
 21
10.125959753527
 31
0.0
  0
LINE
  5
2A3B
330
2A32
100
AcDbEntity
  8
図枠細線
  6
CONTINUOUS
100
AcDbLine
 10
105.098414535793
 20
23.525961753527
 30
0.0
 11
205.098414535793
 21
23.525959753527
 31
0.0
  0
LINE
  5
2A3C
330
2A32
100
AcDbEntity
  8
図枠細線
  6
CONTINUOUS
 62
   252
100
AcDbLine
 10
138.398414535793
 20
43.525959753527
 30
0.0
 11
138.398414535793
 21
18.525957753527
 31
0.0
  0
LINE
  5
2A3D
330
2A32
100
AcDbEntity
  8
図枠細線
  6
CONTINUOUS
 62
   252
100
AcDbLine
 10
171.698414535793
 20
43.525959753527
 30
0.0
 11
171.698414535793
 21
18.525957753527
 31
0.0
  0
LINE
  5
2A3E
330
2A32
100
AcDbEntity
  8
図枠細線
  6
CONTINUOUS
 62
   252
100
AcDbLine
 10
305.098414535793
 20
23.525959753527
 30
0.0
 11
405.098414535793
 21
23.525959753527
 31
0.0
  0
TEXT
  5
2A3F
330
2A32
100
AcDbEntity
  8
図枠ロゴマーク
  6
CONTINUOUS
 62
   253
100
AcDbText
 10
206.102509212755
 20
13.294257570546
 30
0.0
 40
7.0
  1
東和制電工業株式会社
 50
0.016555220185
 41
1.186384129432
  7
EXCADSTD
 72
     5
 11
303.544188309143
 21
13.322412672217
 31
0.0
100
AcDbText
  0
MTEXT
  5
2A40
330
2A32
100
AcDbEntity
  8
図枠細線
100
AcDbMText
 10
6.356764112375
 20
41.976594175478
 30
0.0
 40
2.5
 41
49.938282706292
 71
     1
 72
     5
  1
{\Fmonotxt.shx,bigfont.shx|c128;図暦　CHANGE　NOTICE}
  0
MTEXT
  5
2A41
330
2A32
100
AcDbEntity
  8
図枠細線
 48
10.0
100
AcDbMText
 10
306.544114926828
 20
41.701835800934
 30
0.0
 40
2.5
 41
28.002809618823
 71
     1
 72
     5
  1
{\Fmonotxt.shx,bigfont.shx|c128;名称　TITLE}
  0
MTEXT
  5
2A42
330
2A32
100
AcDbEntity
  8
図枠細線
 48
10.0
100
AcDbMText
 10
307.329617114284
 20
21.606206797226
 30
0.0
 40
2.5
 41
24.385612216707
 71
     1
 72
     5
  1
{\Fmonotxt.shx,bigfont.shx|c128;図面番号\PDRG.　No.}
  0
MTEXT
  5
2A43
330
2A32
100
AcDbEntity
  8
図枠細線
 48
10.0
100
AcDbMText
 10
173.726349404609
 20
21.73680662198
 30
0.0
 40
2.5
 41
25.735090160813
 71
     1
 72
     5
  1
{\Fmonotxt.shx,bigfont.shx|c128;日付 DATE}
  0
MTEXT
  5
2A44
330
2A32
100
AcDbEntity
  8
図枠細線
 48
10.0
100
AcDbMText
 10
173.48708833982
 20
41.621592044998
 30
0.0
 40
2.5
 41
24.983741184205
 71
     1
 72
     5
  1
{\Fmonotxt.shx,bigfont.shx|c128;製図　DRAWN}
  0
MTEXT
  5
2A45
330
2A32
100
AcDbEntity
  8
図枠細線
 48
10.0
100
AcDbMText
 10
139.28009927741
 20
21.866713069868
 30
0.0
 40
2.5
 41
22.629632913243
 71
     1
 72
     5
  1
{\Fmonotxt.shx,bigfont.shx|c128;尺度　SCALE}
  0
MTEXT
  5
2A46
330
2A32
100
AcDbEntity
  8
図枠細線
 48
10.0
100
AcDbMText
 10
139.910091179835
 20
41.311840415554
 30
0.0
 40
2.5
 41
28.998753428368
 71
     1
 72
     5
  1
{\Fmonotxt.shx,bigfont.shx|c128;検図  CHECKED}
  0
MTEXT
  5
2A47
330
2A32
100
AcDbEntity
  8
図枠細線
 48
10.0
100
AcDbMText
 10
114.253294667728
 20
21.916124850174
 30
0.0
 40
3.0
 41
19.692400475383
 71
     1
 72
     5
  1
{\Fmonotxt.shx,bigfont.shx|c128;第三角法}
  0
MTEXT
  5
2A48
330
2A32
100
AcDbEntity
  8
図枠細線
 48
10.0
100
AcDbMText
 10
108.986959929915
 20
15.282880185837
 30
0.0
 40
2.5
 41
27.954882823547
 71
     1
 72
     5
  1
{\Fmonotxt.shx,bigfont.shx|c128;THIRD ANGLE\PPROJECTION}
  0
MTEXT
  5
2A49
330
2A32
100
AcDbEntity
  8
図枠細線
 48
10.0
100
AcDbMText
 10
106.319432640184
 20
41.511437145487
 30
0.0
 40
2.5
 41
28.233595265074
 71
     1
 72
     5
  1
{\Fmonotxt.shx,bigfont.shx|c128;承認 APPROVED}
  0
LINE
  5
2A4A
330
2A32
100
AcDbEntity
  8
図枠太線
  6
CONTINUOUS
 62
   251
100
AcDbLine
 10
5.098414535793
 20
3.525959753527
 30
0.0
 11
405.098414535793
 21
3.525959753527
 31
0.0
  0
LINE
  5
2A4B
330
2A32
100
AcDbEntity
  8
図枠太線
 48
10.0
100
AcDbLine
 10
5.098414535793
 20
3.525959753527
 30
0.0
 11
5.098414535793
 21
43.525959753527
 31
0.0
  0
LINE
  5
2A4C
330
2A32
100
AcDbEntity
  8
図枠太線
  6
CONTINUOUS
 62
   251
100
AcDbLine
 10
105.098414535793
 20
3.525959753527
 30
0.0
 11
105.098414535793
 21
43.525959753527
 31
0.0
  0
LINE
  5
2A4D
330
2A32
100
AcDbEntity
  8
図枠細線
  6
CONTINUOUS
 62
   252
100
AcDbLine
 10
138.398414535793
 20
3.525959753527
 30
0.0
 11
138.398414535793
 21
18.525957753527
 31
0.0
  0
LINE
  5
2A4E
330
2A32
100
AcDbEntity
  8
図枠細線
  6
CONTINUOUS
 62
   252
100
AcDbLine
 10
171.698414535793
 20
3.525959753527
 30
0.0
 11
171.698414535793
 21
18.525957753527
 31
0.0
  0
LINE
  5
2A4F
330
2A32
100
AcDbEntity
  8
図枠太線
  6
CONTINUOUS
 62
   251
100
AcDbLine
 10
205.098414535793
 20
3.525959753527
 30
0.0
 11
205.098414535793
 21
43.525959753527
 31
0.0
  0
LINE
  5
2A50
330
2A32
100
AcDbEntity
  8
図枠太線
 48
10.0
100
AcDbLine
 10
405.098414535793
 20
43.525959753527
 30
0.0
 11
405.098414535793
 21
3.525959753527
 31
0.0
  0
TEXT
  5
2A51
330
2A32
100
AcDbEntity
  8
図枠細線
  6
CONTINUOUS
 62
   252
100
AcDbText
 10
208.519754474572
 20
6.482358407285
 30
0.0
 40
3.5
  1
ＴＯＷＡ　ＳＥＩＤＥＮ　ＩＮＤＵＳＴＲＩＡＬ　ＣＯ．，ＬＴＤ．
 41
0.746656297509
  7
EXCADSTD
 72
     5
 11
303.295327171727
 21
6.482358407285
 31
0.0
100
AcDbText
  0
LINE
  5
2A52
330
2A32
100
AcDbEntity
  8
図枠太線
  6
CONTINUOUS
 62
   251
100
AcDbLine
 10
305.098414535793
 20
3.525959753527
 30
0.0
 11
305.098414535793
 21
43.525959753527
 31
0.0
  0
ENDBLK
  5
2A53
330
2A32
100
AcDbEntity
  8
0
100
AcDbBlockEnd
  0
BLOCK
  5
2A6D
330
2A6C
100
AcDbEntity
  8
0
100
AcDbBlockBegin
  2
A3縦用_タイトル
 70
     0
 10
0.0
 20
0.0
 30
0.0
  3
A3縦用_タイトル
  1

  0
MTEXT
  5
2A6E
330
2A6C
100
AcDbEntity
  8
図枠細線
100
AcDbMText
 10
5.040804501593
 20
31.626098649005
 30
0.0
 40
2.5
 41
49.938282706292
 71
     1
 72
     5
  1
{\Fmonotxt.shx,bigfont.shx|c128;図暦　CHANGE　NOTICE}
  0
LINE
  5
2A6F
330
2A6C
100
AcDbEntity
  8
図枠太線
  6
CONTINUOUS
 62
   251
100
AcDbLine
 10
283.577871882961
 20
2.820844689254
 30
0.0
 11
283.577871882961
 21
32.820842689254
 31
0.0
  0
MTEXT
  5
2A70
330
2A6C
100
AcDbEntity
  8
図枠細線
 48
10.0
100
AcDbMText
 10
214.912458947454
 20
31.621488632308
 30
0.0
 40
2.5
 41
28.002809618823
 71
     1
 72
     5
  1
{\Fmonotxt.shx,bigfont.shx|c128;名称　TITLE}
  0
MTEXT
  5
2A71
330
2A6C
100
AcDbEntity
  8
図枠細線
 48
10.0
100
AcDbMText
 10
214.740030458938
 20
16.310225796722
 30
0.0
 40
2.5
 41
24.385612216707
 71
     1
 72
     5
  1
{\Fmonotxt.shx,bigfont.shx|c128;図面番号\PDRG.　No.}
  0
LINE
  5
2A72
330
2A6C
100
AcDbEntity
  8
図枠太線
  6
CONTINUOUS
 62
   251
100
AcDbLine
 10
213.577871882961
 20
2.820844689254
 30
0.0
 11
213.577871882961
 21
32.820842689254
 31
0.0
  0
LINE
  5
2A73
330
2A6C
100
AcDbEntity
  8
図枠太線
  6
CONTINUOUS
 62
   251
100
AcDbLine
 10
143.577871882961
 20
2.820844689254
 30
0.0
 11
143.577871882961
 21
32.820842689254
 31
0.0
  0
TEXT
  5
2A74
330
2A6C
100
AcDbEntity
  8
図枠細線
  6
CONTINUOUS
 62
   252
100
AcDbText
 10
145.716454488093
 20
4.468335689254
 30
0.0
 40
3.5
  1
ＴＯＷＡ　ＳＥＩＤＥＮ　ＩＮＤＵＳＴＲＩＡＬ　ＣＯ．，ＬＴＤ．
 41
0.528937826907
  7
EXCADSTD
 72
     5
 11
212.856295983498
 21
4.468335689254
 31
0.0
100
AcDbText
  0
TEXT
  5
2A75
330
2A6C
100
AcDbEntity
  8
図枠ロゴマーク
  6
CONTINUOUS
 62
   253
100
AcDbText
 10
145.950637593507
 20
9.413236689254
 30
0.0
 40
7.0
  1
東和制電工業株式会社
 41
0.80361088462
  7
EXCADSTD
 72
     5
 11
211.953878250259
 21
9.413236689254
 31
0.0
100
AcDbText
  0
LINE
  5
2A76
330
2A6C
100
AcDbEntity
  8
図枠細線
  6
CONTINUOUS
 62
   252
100
AcDbLine
 10
143.577871882961
 20
25.320842689254
 30
0.0
 11
213.577871882961
 21
25.320842689254
 31
0.0
  0
LINE
  5
2A77
330
2A6C
100
AcDbEntity
  8
図枠太線
  6
CONTINUOUS
 62
   251
100
AcDbLine
 10
143.577863882961
 20
17.820842689254
 30
0.0
 11
213.577871882961
 21
17.820842689254
 31
0.0
  0
LINE
  5
2A78
330
2A6C
100
AcDbEntity
  8
図枠細線
  6
CONTINUOUS
 62
   252
100
AcDbLine
 10
213.577871882961
 20
17.820842689254
 30
0.0
 11
283.577871882961
 21
17.820842689254
 31
0.0
  0
LINE
  5
2A79
330
2A6C
100
AcDbEntity
  8
図枠細線
  6
CONTINUOUS
 62
   252
100
AcDbLine
 10
120.577871882961
 20
32.820842689254
 30
0.0
 11
120.577871882961
 21
17.820842689254
 31
0.0
  0
MTEXT
  5
2A7A
330
2A6C
100
AcDbEntity
  8
図枠細線
 48
10.0
100
AcDbMText
 10
121.100885670352
 20
16.33785922638
 30
0.0
 40
2.0
 41
17.705978285068
 71
     1
 72
     5
  1
{\Fmonotxt.shx,bigfont.shx|c128;日付 DATE}
  0
MTEXT
  5
2A7B
330
2A6C
100
AcDbEntity
  8
図枠細線
 48
10.0
100
AcDbMText
 10
121.254842273491
 20
31.208993514037
 30
0.0
 40
2.0
 41
18.363799568758
 71
     1
 72
     5
  1
{\Fmonotxt.shx,bigfont.shx|c128;製図　DRAWN}
  0
LINE
  5
2A7C
330
2A6C
100
AcDbEntity
  8
図枠細線
  6
CONTINUOUS
 62
   252
100
AcDbLine
 10
97.577871882961
 20
32.820842689254
 30
0.0
 11
97.577871882961
 21
17.820842689254
 31
0.0
  0
MTEXT
  5
2A7D
330
2A6C
100
AcDbEntity
  8
図枠細線
 48
10.0
100
AcDbMText
 10
98.239734796872
 20
16.467764839281
 30
0.0
 40
2.0
 41
17.757791689903
 71
     1
 72
     5
  1
{\Fmonotxt.shx,bigfont.shx|c128;尺度　SCALE}
  0
MTEXT
  5
2A7E
330
2A6C
100
AcDbEntity
  8
図枠細線
 48
10.0
100
AcDbMText
 10
97.864744625154
 20
31.298433377664
 30
0.0
 40
2.0
 41
23.162655920976
 71
     1
 72
     5
  1
{\Fmonotxt.shx,bigfont.shx|c128;検図  CHECKED}
  0
LINE
  5
2A7F
330
2A6C
100
AcDbEntity
  8
図枠細線
  6
CONTINUOUS
 62
   252
100
AcDbLine
 10
97.577871882961
 20
2.820843367826
 30
0.0
 11
97.577871882961
 21
17.820841367826
 31
0.0
  0
LINE
  5
2A80
330
2A6C
100
AcDbEntity
  8
図枠細線
  6
CONTINUOUS
 62
   252
100
AcDbLine
 10
120.577871882961
 20
2.820844010683
 30
0.0
 11
120.577871882961
 21
17.820842010683
 31
0.0
  0
MTEXT
  5
2A81
330
2A6C
100
AcDbEntity
  8
図枠細線
 48
10.0
100
AcDbMText
 10
81.402399084102
 20
16.316484117426
 30
0.0
 40
2.0
 41
12.920322819369
 71
     1
 72
     5
  1
{\Fmonotxt.shx,bigfont.shx|c128;第三角法}
  0
MTEXT
  5
2A82
330
2A6C
100
AcDbEntity
  8
図枠細線
 48
10.0
100
AcDbMText
 10
75.736576535096
 20
11.080410931319
 30
0.0
 40
2.0
 41
21.072870671471
 71
     1
 72
     5
  1
{\Fmonotxt.shx,bigfont.shx|c128;THIRD ANGLE\PPROJECTION}
  0
LINE
  5
2A83
330
2A6C
100
AcDbEntity
  8
図枠太線
  6
CONTINUOUS
 62
   251
100
AcDbLine
 10
74.577871882961
 20
2.820844689254
 30
0.0
 11
74.577871882961
 21
32.820842689254
 31
0.0
  0
MTEXT
  5
2A84
330
2A6C
100
AcDbEntity
  8
図枠細線
 48
10.0
100
AcDbMText
 10
75.060214781573
 20
31.298434778555
 30
0.0
 40
2.0
 41
22.240928805967
 71
     1
 72
     5
  1
{\Fmonotxt.shx,bigfont.shx|c128;承認 APPROVED}
  0
LINE
  5
2A85
330
2A6C
100
AcDbEntity
  8
図枠細線
  6
CONTINUOUS
100
AcDbLine
 10
3.577871882961
 20
17.820844689254
 30
0.0
 11
74.577871882961
 21
17.820844689254
 31
0.0
  0
LINE
  5
2A86
330
2A6C
100
AcDbEntity
  8
図枠細線
  6
CONTINUOUS
 62
   252
100
AcDbLine
 10
3.577871882961
 20
27.820842689254
 30
0.0
 11
74.577871882961
 21
27.820842689254
 31
0.0
  0
LINE
  5
2A87
330
2A6C
100
AcDbEntity
  8
図枠細線
  6
CONTINUOUS
 62
   252
100
AcDbLine
 10
3.577871882961
 20
22.820842689254
 30
0.0
 11
74.577871882961
 21
22.820842689254
 31
0.0
  0
LINE
  5
2A88
330
2A6C
100
AcDbEntity
  8
図枠細線
  6
CONTINUOUS
 62
   252
100
AcDbLine
 10
3.577871882961
 20
12.820842689254
 30
0.0
 11
74.577871882961
 21
12.820842689254
 31
0.0
  0
LINE
  5
2A89
330
2A6C
100
AcDbEntity
  8
図枠細線
  6
CONTINUOUS
 62
   252
100
AcDbLine
 10
3.577871882961
 20
7.820844689254
 30
0.0
 11
74.577871882961
 21
7.820844689254
 31
0.0
  0
LINE
  5
2A8A
330
2A6C
100
AcDbEntity
  8
図枠細線
  6
CONTINUOUS
100
AcDbLine
 10
74.577871882961
 20
17.820843689254
 30
0.0
 11
143.577871882961
 21
17.820841224969
 31
0.0
  0
LINE
  5
2A8B
330
2A6C
100
AcDbEntity
  8
図枠太線
  6
CONTINUOUS
 62
   251
100
AcDbLine
 10
3.577871882961
 20
2.820844689254
 30
0.0
 11
283.577871882961
 21
2.820844689254
 31
0.0
  0
LINE
  5
2A8C
330
2A6C
100
AcDbEntity
  8
図枠太線
  6
CONTINUOUS
 62
   251
100
AcDbLine
 10
3.577871882961
 20
2.820844689254
 30
0.0
 11
3.577871882961
 21
32.820842689254
 31
0.0
  0
ENDBLK
  5
2A8D
330
2A6C
100
AcDbEntity
  8
0
100
AcDbBlockEnd
  0
BLOCK
  5
2AF8
330
2AF4
100
AcDbEntity
  8
0
 48
10.0
100
AcDbBlockBegin
  2
_OPEN30
 70
     0
 10
0.0
 20
0.0
 30
0.0
  3
_OPEN30
  1

  0
LINE
  5
2AF5
330
2AF4
100
AcDbEntity
  8
0
  6
BYBLOCK
 62
     0
100
AcDbLine
 10
-1.0
 20
0.26794919
 30
0.0
 11
0.0
 21
0.0
 31
0.0
  0
LINE
  5
2AF6
330
2AF4
100
AcDbEntity
  8
0
  6
BYBLOCK
 62
     0
100
AcDbLine
 10
0.0
 20
0.0
 30
0.0
 11
-1.0
 21
-0.26794919
 31
0.0
  0
LINE
  5
2AF7
330
2AF4
100
AcDbEntity
  8
0
  6
BYBLOCK
 62
     0
100
AcDbLine
 10
0.0
 20
0.0
 30
0.0
 11
-1.0
 21
0.0
 31
0.0
  0
ENDBLK
  5
2AF9
330
2AF4
100
AcDbEntity
  8
0
 48
10.0
100
AcDbBlockEnd
  0
BLOCK
  5
4548
330
4547
100
AcDbEntity
  8
0
 48
10.0
100
AcDbBlockBegin
  2
_DOTSMALL
 70
     0
 10
0.0
 20
0.0
 30
0.0
  3
_DOTSMALL
  1

  0
LWPOLYLINE
  5
4549
330
4547
100
AcDbEntity
  8
0
  6
BYBLOCK
 62
     0
100
AcDbPolyline
 90
        2
 70
     1
 43
0.5
 10
-0.0625
 20
0.0
 42
1.0
 10
0.0625
 20
0.0
 42
1.0
  0
ENDBLK
  5
454A
330
4547
100
AcDbEntity
  8
0
 48
10.0
100
AcDbBlockEnd
  0
BLOCK
  5
4913
330
4909
100
AcDbEntity
  8
0
 48
10.0
100
AcDbBlockBegin
  2
*D17
 70
     1
 10
0.0
 20
0.0
 30
0.0
  3
*D17
  1

  0
LINE
  5
4BB7
330
4909
100
AcDbEntity
  8
寸法線
 62
     0
 48
10.0
100
AcDbLine
 10
477.024810645657
 20
441.736856885106
 30
0.0
 11
517.024010066299
 21
441.736856885106
 31
0.0
  0
LINE
  5
4BB8
330
4909
100
AcDbEntity
  8
寸法線
 62
     0
 48
10.0
100
AcDbLine
 10
477.022732201615
 20
326.238075725467
 30
0.0
 11
517.024010066299
 21
326.238075725467
 31
0.0
  0
LINE
  5
4BB9
330
4909
100
AcDbEntity
  8
寸法線
 62
     0
 48
10.0
100
AcDbLine
 10
515.774010066299
 20
435.736856885106
 30
0.0
 11
515.774010066299
 21
332.238075725467
 31
0.0
  0
INSERT
  5
4BBA
330
4909
100
AcDbEntity
  8
寸法線
 62
     0
 48
10.0
100
AcDbBlockReference
  2
_OPEN30
 10
515.774010066299
 20
441.736856885106
 30
0.0
 41
6.0
 42
6.0
 43
6.0
 50
90.0
  0
INSERT
  5
4BBB
330
4909
100
AcDbEntity
  8
寸法線
 62
     0
 48
10.0
100
AcDbBlockReference
  2
_OPEN30
 10
515.774010066299
 20
326.238075725467
 30
0.0
 41
6.0
 42
6.0
 43
6.0
 50
270.0
  0
MTEXT
  5
4BBC
330
4909
100
AcDbEntity
  8
寸法線
 62
     0
 48
10.0
100
AcDbMText
 10
511.149010066299
 20
383.987466305287
 30
0.0
 40
8.0
 41
0.0
 71
     5
 72
     1
  1
\A1;φ116
 11
6.123031769111886E-17
 21
1.0
 31
0.0
  0
POINT
  5
4BBD
330
4909
100
AcDbEntity
  8
DEFPOINTS
 62
     0
 48
10.0
100
AcDbPoint
 10
476.399810645657
 20
441.736856885106
 30
0.0
  0
POINT
  5
4BBE
330
4909
100
AcDbEntity
  8
DEFPOINTS
 62
     0
 48
10.0
100
AcDbPoint
 10
476.397732201615
 20
326.238075725467
 30
0.0
  0
POINT
  5
4BBF
330
4909
100
AcDbEntity
  8
DEFPOINTS
 62
     0
 48
10.0
100
AcDbPoint
 10
515.774010066299
 20
326.238075725467
 30
0.0
  0
ENDBLK
  5
4914
330
4909
100
AcDbEntity
  8
0
 48
10.0
100
AcDbBlockEnd
  0
BLOCK
  5
4920
330
491F
100
AcDbEntity
  8
0
 48
10.0
100
AcDbBlockBegin
  2
静電容量センサ
 70
     0
 10
0.0
 20
0.0
 30
0.0
  3
静電容量センサ
  1

  0
ARC
  5
4921
330
491F
100
AcDbEntity
  8
外形線
 48
10.0
100
AcDbCircle
 10
1021.898525663106
 20
1073.412780408912
 30
0.0
 40
1.0
100
AcDbArc
 50
180.0
 51
268.999999999998
  0
ARC
  5
4922
330
491F
100
AcDbEntity
  8
外形線
 48
10.0
100
AcDbCircle
 10
1021.898525663106
 20
1115.960781516243
 30
0.0
 40
1.0
100
AcDbArc
 50
91.000000000002
 51
180.0
  0
LINE
  5
4923
330
491F
100
AcDbEntity
  8
外形線
 48
10.0
100
AcDbLine
 10
1020.898525663106
 20
1115.960781516243
 30
0.0
 11
1020.898525663106
 21
1073.412780408912
 31
0.0
  0
LINE
  5
4924
330
491F
100
AcDbEntity
  8
外形線
 48
10.0
100
AcDbLine
 10
1035.026308504175
 20
1117.944859066978
 30
0.0
 11
1041.278741748243
 21
1143.02199911049
 31
0.0
  0
ARC
  5
4925
330
491F
100
AcDbEntity
  8
外形線
 48
10.0
100
AcDbCircle
 10
1046.130220379623
 20
1141.812389632491
 30
0.0
 40
5.0
100
AcDbArc
 50
91.3
 51
166.000000000004
  0
ARC
  5
4926
330
491F
100
AcDbEntity
  8
外形線
 48
10.0
100
AcDbCircle
 10
1034.056012777899
 20
1118.186780962578
 30
0.0
 40
1.0
100
AcDbArc
 50
270.0
 51
346.000000000004
  0
ARC
  5
4927
330
491F
100
AcDbEntity
  8
外形線
 48
10.0
100
AcDbCircle
 10
1034.056012777899
 20
1118.186780962578
 30
0.0
 40
1.0
100
AcDbArc
 50
270.0
 51
346.000000000004
  0
LINE
  5
4928
330
491F
100
AcDbEntity
  8
外形線
 48
10.0
100
AcDbLine
 10
1021.881073256669
 20
1116.960629211399
 30
0.0
 11
1034.056012777899
 21
1117.186780962578
 31
0.0
  0
ARC
  5
4929
330
491F
100
AcDbEntity
  8
外形線
 48
10.0
100
AcDbCircle
 10
1122.899564892808
 20
1151.93622955513
 30
0.0
 40
0.5
100
AcDbArc
 50
359.999254274584
 51
88.999999999998
  0
ARC
  5
492A
330
491F
100
AcDbEntity
  8
細線
 48
10.0
100
AcDbCircle
 10
1123.898525663106
 20
1107.819822714047
 30
0.0
 40
0.5
100
AcDbArc
 50
180.0
 51
264.089361084595
  0
ARC
  5
492B
330
491F
100
AcDbEntity
  8
外形線
 48
10.0
100
AcDbCircle
 10
1123.898525663106
 20
1100.44543233102
 30
0.0
 40
0.5
100
AcDbArc
 50
91.000000000002
 51
180.0
  0
ARC
  5
492C
330
491F
100
AcDbEntity
  8
細線
 48
10.0
100
AcDbCircle
 10
1123.898525663106
 20
1108.078641759149
 30
0.0
 40
0.5
100
AcDbArc
 50
180.0
 51
264.089361084595
  0
ARC
  5
492D
330
491F
100
AcDbEntity
  8
細線
 48
10.0
100
AcDbCircle
 10
1123.898525663106
 20
1129.71320712675
 30
0.0
 40
0.5
100
AcDbArc
 50
180.0
 51
254.206830951738
  0
ARC
  5
492E
330
491F
100
AcDbEntity
  8
細線
 48
10.0
100
AcDbCircle
 10
1123.898525663106
 20
1130.420313907937
 30
0.0
 40
0.5
100
AcDbArc
 50
180.0
 51
254.206830951738
  0
ARC
  5
492F
330
491F
100
AcDbEntity
  8
細線
 48
10.0
100
AcDbCircle
 10
1123.898525663106
 20
1142.359984147006
 30
0.0
 40
0.5
100
AcDbArc
 50
180.0
 51
248.874947125989
  0
ARC
  5
4930
330
491F
100
AcDbEntity
  8
細線
 48
10.0
100
AcDbCircle
 10
1123.898525663106
 20
1143.325909973296
 30
0.0
 40
0.5
100
AcDbArc
 50
180.0
 51
248.874947125989
  0
ARC
  5
4931
330
491F
100
AcDbEntity
  8
外形線
 48
10.0
100
AcDbCircle
 10
1123.898413585187
 20
1144.632076415673
 30
0.0
 40
0.5
100
AcDbArc
 50
180.019033969455
 51
248.025023881972
  0
LINE
  5
4932
330
491F
100
AcDbEntity
  8
外形線
 48
10.0
100
AcDbLine
 10
1123.398525663106
 20
1143.325909973296
 30
0.0
 11
1123.398525663106
 21
1144.294618045039
 31
0.0
  0
LINE
  5
4933
330
491F
100
AcDbEntity
  8
外形線
 48
10.0
100
AcDbLine
 10
1123.398525663106
 20
1142.359984147006
 30
0.0
 11
1123.398525663106
 21
1142.98307227703
 31
0.0
  0
LINE
  5
4934
330
491F
100
AcDbEntity
  8
外形線
 48
10.0
100
AcDbLine
 10
1123.398525663106
 20
1130.420313907937
 30
0.0
 11
1123.398525663106
 21
1142.017146450741
 31
0.0
  0
LINE
  5
4935
330
491F
100
AcDbEntity
  8
外形線
 48
10.0
100
AcDbLine
 10
1123.398525663106
 20
1129.71320712675
 30
0.0
 11
1123.398525663106
 21
1130.042120021904
 31
0.0
  0
LINE
  5
4936
330
491F
100
AcDbEntity
  8
外形線
 48
10.0
100
AcDbLine
 10
1123.398525663106
 20
1108.078641759149
 30
0.0
 11
1123.398525663106
 21
1130.420313907937
 31
0.0
  0
LINE
  5
4937
330
491F
100
AcDbEntity
  8
外形線
 48
10.0
100
AcDbLine
 10
1123.398525663106
 20
1107.819822714047
 30
0.0
 11
1123.398525663106
 21
1108.700149198143
 31
0.0
  0
LINE
  5
4938
330
491F
100
AcDbEntity
  8
外形線
 48
10.0
100
AcDbLine
 10
1123.398525663106
 20
1100.44543233102
 30
0.0
 11
1123.398525663106
 21
1108.078641759149
 31
0.0
  0
ARC
  5
4939
330
491F
100
AcDbEntity
  8
外形線
 48
10.0
100
AcDbCircle
 10
1123.898525663106
 20
1088.928129594135
 30
0.0
 40
0.5
100
AcDbArc
 50
180.0
 51
268.999999999998
  0
LINE
  5
493A
330
491F
100
AcDbEntity
  8
外形線
 48
10.0
100
AcDbLine
 10
1123.398525663106
 20
1088.928129594135
 30
0.0
 11
1123.398525663106
 21
1100.44543233102
 31
0.0
  0
ARC
  5
493B
330
491F
100
AcDbEntity
  8
外形線
 48
10.0
100
AcDbCircle
 10
1135.396646406818
 20
1087.727276821958
 30
0.0
 40
0.5
100
AcDbArc
 50
0.002863323129
 51
88.999999999998
  0
ARC
  5
493C
330
491F
100
AcDbEntity
  8
外形線
 48
10.0
100
AcDbCircle
 10
1135.396646406818
 20
1101.646285103198
 30
0.0
 40
0.5
100
AcDbArc
 50
271.000000000002
 51
359.997136676878
  0
ARC
  5
493D
330
491F
100
AcDbEntity
  8
細線
 48
10.0
100
AcDbCircle
 10
1135.398359871226
 20
1105.882746614783
 30
0.0
 40
0.5
100
AcDbArc
 50
359.978936747976
 51
84.089361084595
  0
ARC
  5
493E
330
491F
100
AcDbEntity
  8
細線
 48
10.0
100
AcDbCircle
 10
1135.396845195015
 20
1105.6240843805
 30
0.0
 40
0.5
100
AcDbArc
 50
359.997136676878
 51
84.089361084595
  0
ARC
  5
493F
330
491F
100
AcDbEntity
  8
細線
 48
10.0
100
AcDbCircle
 10
1135.398405428356
 20
1136.84472607817
 30
0.0
 40
0.5
100
AcDbArc
 50
359.997136676878
 51
68.874947125989
  0
ARC
  5
4940
330
491F
100
AcDbEntity
  8
細線
 48
10.0
100
AcDbCircle
 10
1135.398453699003
 20
1137.810633254114
 30
0.0
 40
0.5
100
AcDbArc
 50
359.997136676878
 51
68.874947125989
  0
ARC
  5
4941
330
491F
100
AcDbEntity
  8
外形線
 48
10.0
100
AcDbCircle
 10
1135.398508800797
 20
1138.913233296621
 30
0.0
 40
0.5
100
AcDbArc
 50
359.997136676878
 51
68.025023881972
  0
LINE
  5
4942
330
491F
100
AcDbEntity
  8
外形線
 48
10.0
100
AcDbLine
 10
1135.405372610037
 20
1101.146361255619
 30
0.0
 11
1123.889799459887
 21
1100.945356178598
 31
0.0
  0
LINE
  5
4943
330
491F
100
AcDbEntity
  8
外形線
 48
10.0
100
AcDbLine
 10
1135.405372610037
 20
1088.227200669536
 30
0.0
 11
1123.889799459887
 21
1088.428205746557
 31
0.0
  0
LINE
  5
4944
330
491F
100
AcDbEntity
  8
外形線
 48
10.0
100
AcDbLine
 10
1123.711312779708
 20
1144.168402728055
 30
0.0
 11
1135.585609606275
 21
1139.376906984239
 31
0.0
  0
LINE
  5
4945
330
491F
100
AcDbEntity
  8
細線
 48
10.0
100
AcDbLine
 10
1135.448333812772
 20
1106.121426237015
 30
0.0
 11
1123.847037045349
 21
1107.322480857532
 31
0.0
  0
LINE
  5
4946
330
491F
100
AcDbEntity
  8
細線
 48
10.0
100
AcDbLine
 10
1135.449848488983
 20
1106.380088471297
 30
0.0
 11
1123.847037045349
 21
1107.581299902634
 31
0.0
  0
LINE
  5
4947
330
491F
100
AcDbEntity
  8
細線
 48
10.0
100
AcDbLine
 10
1135.533952658586
 20
1126.609702933466
 30
0.0
 11
1123.762442899618
 21
1129.939188683612
 31
0.0
  0
LINE
  5
4948
330
491F
100
AcDbEntity
  8
細線
 48
10.0
100
AcDbLine
 10
1135.578607784566
 20
1137.311124095764
 30
0.0
 11
1123.718323306896
 21
1141.893586129411
 31
0.0
  0
LINE
  5
4949
330
491F
100
AcDbEntity
  8
細線
 48
10.0
100
AcDbLine
 10
1135.578656055213
 20
1138.277031271709
 30
0.0
 11
1123.718323306896
 21
1142.859511955701
 31
0.0
  0
LINE
  5
494A
330
491F
100
AcDbEntity
  8
外形線
 48
10.0
100
AcDbLine
 10
1108.899561566736
 20
1152.686780962578
 30
0.0
 11
1122.908291096026
 21
1152.436153402709
 31
0.0
  0
LINE
  5
494B
330
491F
100
AcDbEntity
  8
外形線
 48
10.0
100
AcDbLine
 10
1108.899561566736
 20
1152.686780962578
 30
0.0
 11
1108.399561566736
 21
1152.180676686204
 31
0.0
  0
LINE
  5
494C
330
491F
100
AcDbEntity
  8
外形線
 48
10.0
100
AcDbLine
 10
1108.399561566736
 20
1151.192885238951
 30
0.0
 11
1108.399561566736
 21
1150.692885238951
 31
0.0
  0
ARC
  5
494D
330
491F
100
AcDbEntity
  8
外形線
 48
10.0
100
AcDbCircle
 10
1098.998525663106
 20
1152.414559409545
 30
0.0
 40
4.4
100
AcDbArc
 50
271.3
 51
0.0
  0
LINE
  5
494E
330
491F
100
AcDbEntity
  8
外形線
 48
10.0
100
AcDbLine
 10
1046.016783711759
 20
1146.811102679105
 30
0.0
 11
1099.098349930826
 21
1148.015691928525
 31
0.0
  0
LINE
  5
494F
330
491F
100
AcDbEntity
  8
外形線
 48
10.0
100
AcDbLine
 10
1103.398525663105
 20
1152.686780962578
 30
0.0
 11
1103.398525663105
 21
1152.414559409545
 31
0.0
  0
LINE
  5
4950
330
491F
100
AcDbEntity
  8
外形線
 48
10.0
100
AcDbLine
 10
1106.398525663105
 20
1152.686780962578
 30
0.0
 11
1103.398525663105
 21
1152.686780962578
 31
0.0
  0
ARC
  5
4951
330
491F
100
AcDbEntity
  8
外形線
 48
10.0
100
AcDbCircle
 10
1107.898525663105
 20
1150.161780962577
 30
0.0
 40
1.500000000000156
100
AcDbArc
 50
70.528779365514
 51
179.999999999993
  0
LINE
  5
4952
330
491F
100
AcDbEntity
  8
細線
 48
10.0
100
AcDbLine
 10
1108.899561566736
 20
1152.686780962578
 30
0.0
 11
1108.899561566736
 21
1036.686780962578
 31
0.0
  0
LINE
  5
4953
330
491F
100
AcDbEntity
  8
細線
 48
10.0
100
AcDbLine
 10
1108.899561566736
 20
1152.680676686204
 30
0.0
 11
1108.899561566736
 21
1036.692885238951
 31
0.0
  0
LINE
  5
4954
330
491F
100
AcDbEntity
  8
外形線
 48
10.0
100
AcDbLine
 10
1123.398525663106
 20
1072.956444458874
 30
0.0
 11
1123.398525663106
 21
1059.660354798405
 31
0.0
  0
ARC
  5
4955
330
491F
100
AcDbEntity
  8
細線
 48
10.0
100
AcDbCircle
 10
1123.898525663106
 20
1047.013577778149
 30
0.0
 40
0.5
100
AcDbArc
 50
111.125052874011
 51
180.0
  0
ARC
  5
4956
330
491F
100
AcDbEntity
  8
細線
 48
10.0
100
AcDbCircle
 10
1123.898066965619
 20
1046.04747472476
 30
0.0
 40
0.5
100
AcDbArc
 50
111.125052874011
 51
179.923306313171
  0
ARC
  5
4957
330
491F
100
AcDbEntity
  8
細線
 48
10.0
100
AcDbCircle
 10
1123.898525663106
 20
1059.660354798405
 30
0.0
 40
0.5
100
AcDbArc
 50
105.793169048262
 51
180.0
  0
ARC
  5
4958
330
491F
100
AcDbEntity
  8
細線
 48
10.0
100
AcDbCircle
 10
1123.898525663106
 20
1058.953248017218
 30
0.0
 40
0.5
100
AcDbArc
 50
105.793169048262
 51
180.0
  0
ARC
  5
4959
330
491F
100
AcDbEntity
  8
細線
 48
10.0
100
AcDbCircle
 10
1123.898525663106
 20
1081.294920166006
 30
0.0
 40
0.5
100
AcDbArc
 50
95.910638915405
 51
180.0
  0
ARC
  5
495A
330
491F
100
AcDbEntity
  8
細線
 48
10.0
100
AcDbCircle
 10
1123.898525663106
 20
1081.553739211108
 30
0.0
 40
0.5
100
AcDbArc
 50
95.910638915405
 51
180.0
  0
LINE
  5
495B
330
491F
100
AcDbEntity
  8
外形線
 48
10.0
100
AcDbLine
 10
1123.398525663106
 20
1081.294920166006
 30
0.0
 11
1123.398525663106
 21
1088.928129594135
 31
0.0
  0
LINE
  5
495C
330
491F
100
AcDbEntity
  8
外形線
 48
10.0
100
AcDbLine
 10
1123.398525663106
 20
1081.745828707453
 30
0.0
 11
1123.398525663106
 21
1082.004647752555
 31
0.0
  0
LINE
  5
495D
330
491F
100
AcDbEntity
  8
外形線
 48
10.0
100
AcDbLine
 10
1123.398525663106
 20
1072.956444458874
 30
0.0
 11
1123.398525663106
 21
1081.294920166006
 31
0.0
  0
LINE
  5
495E
330
491F
100
AcDbEntity
  8
外形線
 48
10.0
100
AcDbLine
 10
1123.398525663106
 20
1058.953248017218
 30
0.0
 11
1123.398525663106
 21
1059.660354798405
 31
0.0
  0
LINE
  5
495F
330
491F
100
AcDbEntity
  8
外形線
 48
10.0
100
AcDbLine
 10
1123.398525663106
 20
1047.013577778149
 30
0.0
 11
1123.398525663106
 21
1058.953248017218
 31
0.0
  0
LINE
  5
4960
330
491F
100
AcDbEntity
  8
外形線
 48
10.0
100
AcDbLine
 10
1123.398067413553
 20
1046.048144003235
 30
0.0
 11
1123.398525663106
 21
1047.013577778149
 31
0.0
  0
LINE
  5
4961
330
491F
100
AcDbEntity
  8
外形線
 48
10.0
100
AcDbLine
 10
1123.396317242873
 20
1044.740639597053
 30
0.0
 11
1123.398067413553
 21
1046.048144003235
 31
0.0
  0
ARC
  5
4962
330
491F
100
AcDbEntity
  8
外形線
 48
10.0
100
AcDbCircle
 10
1123.896317242873
 20
1044.740639597053
 30
0.0
 40
0.5
100
AcDbArc
 50
111.974976118028
 51
180.0
  0
ARC
  5
4963
330
491F
100
AcDbEntity
  8
細線
 48
10.0
100
AcDbCircle
 10
1135.398494161258
 20
1063.952267566336
 30
0.0
 40
0.5
100
AcDbArc
 50
285.793169048262
 51
0.004772330144
  0
ARC
  5
4964
330
491F
100
AcDbEntity
  8
細線
 48
10.0
100
AcDbCircle
 10
1135.398525663106
 20
1063.245169695216
 30
0.0
 40
0.5
100
AcDbArc
 50
285.793169048262
 51
0.0
  0
ARC
  5
4965
330
491F
100
AcDbEntity
  8
細線
 48
10.0
100
AcDbCircle
 10
1135.398525663106
 20
1052.528882302126
 30
0.0
 40
0.5
100
AcDbArc
 50
291.125052874011
 51
0.0
  0
ARC
  5
4966
330
491F
100
AcDbEntity
  8
細線
 48
10.0
100
AcDbCircle
 10
1135.398525663106
 20
1051.562956475835
 30
0.0
 40
0.5
100
AcDbArc
 50
291.125052874011
 51
0.0
  0
ARC
  5
4967
330
491F
100
AcDbEntity
  8
外形線
 48
10.0
100
AcDbCircle
 10
1135.398525663106
 20
1050.460335432784
 30
0.0
 40
0.5
100
AcDbArc
 50
291.974976118028
 51
0.0
  0
LINE
  5
4968
330
491F
100
AcDbEntity
  8
外形線
 48
10.0
100
AcDbLine
 10
1135.898525663106
 20
1051.562956475835
 30
0.0
 11
1135.898525663106
 21
1050.460335432784
 31
0.0
  0
LINE
  5
4969
330
491F
100
AcDbEntity
  8
外形線
 48
10.0
100
AcDbLine
 10
1135.898525663106
 20
1052.528882302126
 30
0.0
 11
1135.898525663106
 21
1051.562956475835
 31
0.0
  0
LINE
  5
496A
330
491F
100
AcDbEntity
  8
外形線
 48
10.0
100
AcDbLine
 10
1135.898525663106
 20
1063.245169695216
 30
0.0
 11
1135.898525663106
 21
1052.528882302126
 31
0.0
  0
LINE
  5
496B
330
491F
100
AcDbEntity
  8
外形線
 48
10.0
100
AcDbLine
 10
1135.898494159523
 20
1063.952309212773
 30
0.0
 11
1135.898525663106
 21
1063.245169695216
 31
0.0
  0
LINE
  5
496C
330
491F
100
AcDbEntity
  8
外形線
 48
10.0
100
AcDbLine
 10
1135.896845194391
 20
1083.749502531863
 30
0.0
 11
1135.898494159523
 21
1063.952309212773
 31
0.0
  0
ARC
  5
496D
330
491F
100
AcDbEntity
  8
細線
 48
10.0
100
AcDbCircle
 10
1135.396794220963
 20
1083.49065322233
 30
0.0
 40
0.5
100
AcDbArc
 50
275.910638915405
 51
0.00199902817
  0
ARC
  5
496E
330
491F
100
AcDbEntity
  8
細線
 48
10.0
100
AcDbCircle
 10
1135.396845195015
 20
1083.749477544655
 30
0.0
 40
0.5
100
AcDbArc
 50
275.910638915405
 51
0.002863323129
  0
ARC
  5
496F
330
491F
100
AcDbEntity
  8
外形線
 48
10.0
100
AcDbCircle
 10
1122.897486448612
 20
1037.437296090646
 30
0.0
 40
0.5
100
AcDbArc
 50
271.000000000002
 51
359.984453673186
  0
LINE
  5
4970
330
491F
100
AcDbEntity
  8
外形線
 48
10.0
100
AcDbLine
 10
1135.896646406194
 20
1087.727301809166
 30
0.0
 11
1135.896794220659
 21
1083.490670667142
 31
0.0
  0
LINE
  5
4971
330
491F
100
AcDbEntity
  8
外形線
 48
10.0
100
AcDbLine
 10
1123.709216437395
 20
1045.204313284671
 30
0.0
 11
1135.585626468584
 21
1049.996661745166
 31
0.0
  0
LINE
  5
4972
330
491F
100
AcDbEntity
  8
細線
 48
10.0
100
AcDbLine
 10
1135.578728019316
 20
1052.062484284531
 30
0.0
 11
1123.718323306896
 21
1047.479975795744
 31
0.0
  0
LINE
  5
4973
330
491F
100
AcDbEntity
  8
細線
 48
10.0
100
AcDbLine
 10
1135.578728019316
 20
1051.09655845824
 30
0.0
 11
1123.717864609409
 21
1046.513872742355
 31
0.0
  0
LINE
  5
4974
330
491F
100
AcDbEntity
  8
細線
 48
10.0
100
AcDbLine
 10
1135.534608426593
 20
1062.764044470891
 30
0.0
 11
1123.762442899618
 21
1059.434373241543
 31
0.0
  0
LINE
  5
4975
330
491F
100
AcDbEntity
  8
細線
 48
10.0
100
AcDbLine
 10
1135.534576924746
 20
1063.471142342011
 30
0.0
 11
1123.762442899618
 21
1060.141480022729
 31
0.0
  0
LINE
  5
4976
330
491F
100
AcDbEntity
  8
細線
 48
10.0
100
AcDbLine
 10
1135.44828283872
 20
1082.993311365815
 30
0.0
 11
1123.847037045349
 21
1081.792262022521
 31
0.0
  0
LINE
  5
4977
330
491F
100
AcDbEntity
  8
細線
 48
10.0
100
AcDbLine
 10
1135.448333812772
 20
1083.25213568814
 30
0.0
 11
1123.847037045349
 21
1082.051081067623
 31
0.0
  0
LINE
  5
4978
330
491F
100
AcDbEntity
  8
外形線
 48
10.0
100
AcDbLine
 10
1123.399470041665
 20
1044.747733739171
 30
0.0
 11
1123.397486430207
 21
1037.437160423353
 31
0.0
  0
LINE
  5
4979
330
491F
100
AcDbEntity
  8
外形線
 48
10.0
100
AcDbLine
 10
1123.399564892765
 20
1151.936223047449
 30
0.0
 11
1123.397486430207
 21
1037.437160423353
 31
0.0
  0
LINE
  5
497A
330
491F
100
AcDbEntity
  8
外形線
 48
10.0
100
AcDbLine
 10
1108.399561566736
 20
1152.180676686204
 30
0.0
 11
1108.399561566736
 21
1037.192885238951
 31
0.0
  0
LINE
  5
497B
330
491F
100
AcDbEntity
  8
外形線
 48
10.0
100
AcDbLine
 10
1108.899561566736
 20
1036.686780962578
 30
0.0
 11
1122.906212651831
 21
1036.937372243068
 31
0.0
  0
LINE
  5
497C
330
491F
100
AcDbEntity
  8
外形線
 48
10.0
100
AcDbLine
 10
1108.899561566736
 20
1036.686780962578
 30
0.0
 11
1108.399561566736
 21
1037.192885238951
 31
0.0
  0
LINE
  5
497D
330
491F
100
AcDbEntity
  8
外形線
 48
10.0
100
AcDbLine
 10
1108.399561566736
 20
1038.192885238951
 30
0.0
 11
1108.399561566736
 21
1038.692885238951
 31
0.0
  0
LINE
  5
497E
330
491F
100
AcDbEntity
  8
外形線
 48
10.0
100
AcDbLine
 10
1035.022931603883
 20
1071.442246865485
 30
0.0
 11
1041.278741748243
 21
1046.351562814666
 31
0.0
  0
ARC
  5
497F
330
491F
100
AcDbEntity
  8
外形線
 48
10.0
100
AcDbCircle
 10
1046.130220379623
 20
1047.561172292664
 30
0.0
 40
5.0
100
AcDbArc
 50
193.999999999996
 51
268.7
  0
ARC
  5
4980
330
491F
100
AcDbEntity
  8
外形線
 48
10.0
100
AcDbCircle
 10
1034.052635877606
 20
1071.200324969886
 30
0.0
 40
1.0
100
AcDbArc
 50
13.999999999996
 51
89.000000000011
  0
ARC
  5
4981
330
491F
100
AcDbEntity
  8
外形線
 48
10.0
100
AcDbCircle
 10
1069.398525663106
 20
1041.031595836918
 30
0.0
 40
1.0
100
AcDbArc
 50
0.0
 51
88.7
  0
ARC
  5
4982
330
491F
100
AcDbEntity
  8
外形線
 48
10.0
100
AcDbCircle
 10
1071.398525663106
 20
1031.186780962577
 30
0.0
 40
1.0
100
AcDbArc
 50
180.0
 51
270.0
  0
ARC
  5
4983
330
491F
100
AcDbEntity
  8
外形線
 48
10.0
100
AcDbCircle
 10
1105.398525663105
 20
1031.186780962577
 30
0.0
 40
1.0
100
AcDbArc
 50
270.0
 51
0.0
  0
LINE
  5
4984
330
491F
100
AcDbEntity
  8
外形線
 48
10.0
100
AcDbLine
 10
1070.398525663106
 20
1031.186780962577
 30
0.0
 11
1070.398525663106
 21
1041.031595836918
 31
0.0
  0
LINE
  5
4985
330
491F
100
AcDbEntity
  8
外形線
 48
10.0
100
AcDbLine
 10
1046.016783711759
 20
1042.56245924605
 30
0.0
 11
1099.098349930826
 21
1041.35786999663
 31
0.0
  0
LINE
  5
4986
330
491F
100
AcDbEntity
  8
外形線
 48
10.0
100
AcDbLine
 10
1021.881073256668
 20
1072.412932713756
 30
0.0
 11
1034.070088284044
 21
1072.200172665042
 31
0.0
  0
LINE
  5
4987
330
491F
100
AcDbEntity
  8
外形線
 48
10.0
100
AcDbLine
 10
1106.398525663105
 20
1040.711780962577
 30
0.0
 11
1106.398525663105
 21
1031.186780962577
 31
0.0
  0
LINE
  5
4988
330
491F
100
AcDbEntity
  8
外形線
 48
10.0
100
AcDbLine
 10
1106.398525663105
 20
1040.711780962577
 30
0.0
 11
1106.398525663105
 21
1152.686780962578
 31
0.0
  0
LINE
  5
4989
330
491F
100
AcDbEntity
  8
外形線
 48
10.0
100
AcDbLine
 10
1105.398525663105
 20
1030.186780962577
 30
0.0
 11
1071.398525663106
 21
1030.186780962577
 31
0.0
  0
LINE
  5
498A
330
491F
100
AcDbEntity
  8
外形線
 48
10.0
100
AcDbLine
 10
1103.398525663106
 20
1036.95900251561
 30
0.0
 11
1103.398525663105
 21
1036.692885238951
 31
0.0
  0
LINE
  5
498B
330
491F
100
AcDbEntity
  8
外形線
 48
10.0
100
AcDbLine
 10
1106.398525663105
 20
1036.692885238951
 30
0.0
 11
1103.398525663105
 21
1036.692885238951
 31
0.0
  0
ARC
  5
498C
330
491F
100
AcDbEntity
  8
外形線
 48
10.0
100
AcDbCircle
 10
1107.898525663105
 20
1039.211780962577
 30
0.0
 40
1.499999999999659
100
AcDbArc
 50
179.99999999998
 51
289.471220634515
  0
ARC
  5
498D
330
491F
100
AcDbEntity
  8
外形線
 48
10.0
100
AcDbCircle
 10
1098.998525663106
 20
1036.95900251561
 30
0.0
 40
4.4
100
AcDbArc
 50
0.0
 51
88.7
  0
LINE
  5
498E
330
491F
100
AcDbEntity
  8
細線
 48
10.0
100
AcDbLine
 10
1103.398525663105
 20
1152.686780962578
 30
0.0
 11
1103.398525663106
 21
1036.95900251561
 31
0.0
  0
LINE
  5
498F
330
491F
100
AcDbEntity
  8
細線
 48
10.0
100
AcDbLine
 10
1034.837298404406
 20
1072.186780962578
 30
0.0
 11
1034.840933619068
 21
1117.201361012233
 31
0.0
  0
LINE
  5
4990
330
491F
100
AcDbEntity
  8
細線
 48
10.0
100
AcDbLine
 10
1042.201886517784
 20
1144.905639229587
 30
0.0
 11
1042.201886517784
 21
1044.467922695569
 31
0.0
  0
LINE
  5
4991
330
491F
100
AcDbEntity
  8
外形線
 48
10.0
100
AcDbLine
 10
1135.898508800172
 20
1138.913208309413
 30
0.0
 11
1135.896646406194
 21
1101.646260115989
 31
0.0
  0
ARC
  5
4992
330
491F
100
AcDbEntity
  8
細線
 48
10.0
100
AcDbCircle
 10
1135.397834558349
 20
1125.421480922695
 30
0.0
 40
0.5
100
AcDbArc
 50
359.997136676878
 51
74.206830951738
  0
ARC
  5
4993
330
491F
100
AcDbEntity
  8
細線
 48
10.0
100
AcDbCircle
 10
1135.397869895098
 20
1126.128577709141
 30
0.0
 40
0.5
100
AcDbArc
 50
359.997136676878
 51
74.206830951738
  0
LINE
  5
4994
330
491F
100
AcDbEntity
  8
細線
 48
10.0
100
AcDbLine
 10
1135.533917321837
 20
1125.90260614702
 30
0.0
 11
1123.762442899618
 21
1129.232081902426
 31
0.0
  0
LINE
  5
4995
330
491F
100
AcDbEntity
  8
中心線
 48
10.0
100
AcDbLine
 10
1088.398525663106
 20
1052.03299312045
 30
0.0
 11
1088.398525663106
 21
1013.722487401784
 31
0.0
  0
ENDBLK
  5
4996
330
491F
100
AcDbEntity
  8
0
 48
10.0
100
AcDbBlockEnd
  0
BLOCK
  5
4ECF
330
4ECE
100
AcDbEntity
  8
0
100
AcDbBlockBegin
  2
*D30
 70
     1
 10
0.0
 20
0.0
 30
0.0
  3
*D30
  1

  0
LINE
  5
4ED1
330
4ECE
100
AcDbEntity
  8
寸法線
 62
     0
 48
10.0
100
AcDbLine
 10
61.390045212736
 20
375.863174213246
 30
0.0
 11
61.390045212736
 21
297.238174065717
 31
0.0
  0
LINE
  5
4ED2
330
4ECE
100
AcDbEntity
  8
寸法線
 62
     0
 48
10.0
100
AcDbLine
 10
161.390045212736
 20
374.863174213246
 30
0.0
 11
161.390045212736
 21
297.238174065717
 31
0.0
  0
LINE
  5
4ED3
330
4ECE
100
AcDbEntity
  8
寸法線
 62
     0
 48
10.0
100
AcDbLine
 10
67.390045212736
 20
298.488174065717
 30
0.0
 11
155.390045212736
 21
298.488174065717
 31
0.0
  0
INSERT
  5
4ED4
330
4ECE
100
AcDbEntity
  8
寸法線
 62
     0
100
AcDbBlockReference
  2
_OPEN30
 10
61.390045212736
 20
298.488174065717
 30
0.0
 41
6.0
 42
6.0
 43
6.0
 50
180.0
  0
INSERT
  5
4ED5
330
4ECE
100
AcDbEntity
  8
寸法線
 62
     0
100
AcDbBlockReference
  2
_OPEN30
 10
161.390045212736
 20
298.488174065717
 30
0.0
 41
6.0
 42
6.0
 43
6.0
  0
POINT
  5
4ED6
330
4ECE
100
AcDbEntity
  8
DEFPOINTS
 62
     0
100
AcDbPoint
 10
61.390045212736
 20
376.488174213246
 30
0.0
  0
POINT
  5
4ED7
330
4ECE
100
AcDbEntity
  8
DEFPOINTS
 62
     0
100
AcDbPoint
 10
161.390045212736
 20
375.488174213246
 30
0.0
  0
POINT
  5
4ED8
330
4ECE
100
AcDbEntity
  8
DEFPOINTS
 62
     0
100
AcDbPoint
 10
161.390045212736
 20
298.488174065717
 30
0.0
  0
ENDBLK
  5
4ED0
330
4ECE
100
AcDbEntity
  8
0
100
AcDbBlockEnd
  0
BLOCK
  5
4EDA
330
4ED9
100
AcDbEntity
  8
0
100
AcDbBlockBegin
  2
*D31
 70
     1
 10
0.0
 20
0.0
 30
0.0
  3
*D31
  1

  0
LINE
  5
4EDC
330
4ED9
100
AcDbEntity
  8
寸法線
 62
     0
 48
10.0
100
AcDbLine
 10
161.390045212736
 20
374.863174213246
 30
0.0
 11
161.390045212736
 21
297.238174065717
 31
0.0
  0
LINE
  5
4EDD
330
4ED9
100
AcDbEntity
  8
寸法線
 62
     0
 48
10.0
100
AcDbLine
 10
211.390045212736
 20
374.863174213246
 30
0.0
 11
211.390045212736
 21
297.238174065717
 31
0.0
  0
LINE
  5
4EDE
330
4ED9
100
AcDbEntity
  8
寸法線
 62
     0
 48
10.0
100
AcDbLine
 10
167.390045212736
 20
298.488174065717
 30
0.0
 11
205.390045212736
 21
298.488174065717
 31
0.0
  0
INSERT
  5
4EDF
330
4ED9
100
AcDbEntity
  8
寸法線
 62
     0
100
AcDbBlockReference
  2
_OPEN30
 10
161.390045212736
 20
298.488174065717
 30
0.0
 41
6.0
 42
6.0
 43
6.0
 50
180.0
  0
INSERT
  5
4EE0
330
4ED9
100
AcDbEntity
  8
寸法線
 62
     0
100
AcDbBlockReference
  2
_OPEN30
 10
211.390045212736
 20
298.488174065717
 30
0.0
 41
6.0
 42
6.0
 43
6.0
  0
POINT
  5
4EE1
330
4ED9
100
AcDbEntity
  8
DEFPOINTS
 62
     0
100
AcDbPoint
 10
161.390045212736
 20
375.488174213246
 30
0.0
  0
POINT
  5
4EE2
330
4ED9
100
AcDbEntity
  8
DEFPOINTS
 62
     0
100
AcDbPoint
 10
211.390045212736
 20
375.488174213246
 30
0.0
  0
POINT
  5
4EE3
330
4ED9
100
AcDbEntity
  8
DEFPOINTS
 62
     0
100
AcDbPoint
 10
211.390045212736
 20
298.488174065717
 30
0.0
  0
ENDBLK
  5
4EDB
330
4ED9
100
AcDbEntity
  8
0
100
AcDbBlockEnd
  0
BLOCK
  5
4EE5
330
4EE4
100
AcDbEntity
  8
0
100
AcDbBlockBegin
  2
*D32
 70
     1
 10
0.0
 20
0.0
 30
0.0
  3
*D32
  1

  0
LINE
  5
4EE7
330
4EE4
100
AcDbEntity
  8
寸法線
 62
     0
 48
10.0
100
AcDbLine
 10
211.390045212736
 20
374.863174213246
 30
0.0
 11
211.390045212736
 21
297.238174065717
 31
0.0
  0
LINE
  5
4EE8
330
4EE4
100
AcDbEntity
  8
寸法線
 62
     0
 48
10.0
100
AcDbLine
 10
311.390045212736
 20
367.613674213246
 30
0.0
 11
311.390045212736
 21
297.238174065717
 31
0.0
  0
LINE
  5
4EE9
330
4EE4
100
AcDbEntity
  8
寸法線
 62
     0
 48
10.0
100
AcDbLine
 10
217.390045212736
 20
298.488174065717
 30
0.0
 11
305.390045212736
 21
298.488174065717
 31
0.0
  0
INSERT
  5
4EEA
330
4EE4
100
AcDbEntity
  8
寸法線
 62
     0
100
AcDbBlockReference
  2
_OPEN30
 10
211.390045212736
 20
298.488174065717
 30
0.0
 41
6.0
 42
6.0
 43
6.0
 50
180.0
  0
INSERT
  5
4EEB
330
4EE4
100
AcDbEntity
  8
寸法線
 62
     0
100
AcDbBlockReference
  2
_OPEN30
 10
311.390045212736
 20
298.488174065717
 30
0.0
 41
6.0
 42
6.0
 43
6.0
  0
POINT
  5
4EEC
330
4EE4
100
AcDbEntity
  8
DEFPOINTS
 62
     0
100
AcDbPoint
 10
211.390045212736
 20
375.488174213246
 30
0.0
  0
POINT
  5
4EED
330
4EE4
100
AcDbEntity
  8
DEFPOINTS
 62
     0
100
AcDbPoint
 10
311.390045212736
 20
368.238674213246
 30
0.0
  0
POINT
  5
4EEE
330
4EE4
100
AcDbEntity
  8
DEFPOINTS
 62
     0
100
AcDbPoint
 10
311.390045212736
 20
298.488174065717
 30
0.0
  0
ENDBLK
  5
4EE6
330
4EE4
100
AcDbEntity
  8
0
100
AcDbBlockEnd
  0
BLOCK
  5
4EF0
330
4EEF
100
AcDbEntity
  8
0
100
AcDbBlockBegin
  2
*D33
 70
     1
 10
0.0
 20
0.0
 30
0.0
  3
*D33
  1

  0
LINE
  5
4EF2
330
4EEF
100
AcDbEntity
  8
寸法線
 62
     0
 48
10.0
100
AcDbLine
 10
61.390045212736
 20
375.863174213246
 30
0.0
 11
61.390045212736
 21
277.238174065717
 31
0.0
  0
LINE
  5
4EF3
330
4EEF
100
AcDbEntity
  8
寸法線
 62
     0
 48
10.0
100
AcDbLine
 10
311.390045212736
 20
367.613674213246
 30
0.0
 11
311.390045212736
 21
277.238174065717
 31
0.0
  0
LINE
  5
4EF4
330
4EEF
100
AcDbEntity
  8
寸法線
 62
     0
 48
10.0
100
AcDbLine
 10
67.390045212736
 20
278.488174065717
 30
0.0
 11
305.390045212736
 21
278.488174065717
 31
0.0
  0
INSERT
  5
4EF5
330
4EEF
100
AcDbEntity
  8
寸法線
 62
     0
100
AcDbBlockReference
  2
_OPEN30
 10
61.390045212736
 20
278.488174065717
 30
0.0
 41
6.0
 42
6.0
 43
6.0
 50
180.0
  0
INSERT
  5
4EF6
330
4EEF
100
AcDbEntity
  8
寸法線
 62
     0
100
AcDbBlockReference
  2
_OPEN30
 10
311.390045212736
 20
278.488174065717
 30
0.0
 41
6.0
 42
6.0
 43
6.0
  0
POINT
  5
4EF7
330
4EEF
100
AcDbEntity
  8
DEFPOINTS
 62
     0
100
AcDbPoint
 10
61.390045212736
 20
376.488174213246
 30
0.0
  0
POINT
  5
4EF8
330
4EEF
100
AcDbEntity
  8
DEFPOINTS
 62
     0
100
AcDbPoint
 10
311.390045212736
 20
368.238674213246
 30
0.0
  0
POINT
  5
4EF9
330
4EEF
100
AcDbEntity
  8
DEFPOINTS
 62
     0
100
AcDbPoint
 10
311.390045212736
 20
278.488174065717
 30
0.0
  0
ENDBLK
  5
4EF1
330
4EEF
100
AcDbEntity
  8
0
100
AcDbBlockEnd
  0
BLOCK
  5
4EFB
330
4EFA
100
AcDbEntity
  8
0
100
AcDbBlockBegin
  2
*D34
 70
     1
 10
0.0
 20
0.0
 30
0.0
  3
*D34
  1

  0
LINE
  5
4EFD
330
4EFA
100
AcDbEntity
  8
寸法線
 62
     0
 48
10.0
100
AcDbLine
 10
311.390045212736
 20
367.613674213246
 30
0.0
 11
311.390045212736
 21
297.238174065717
 31
0.0
  0
LINE
  5
4EFE
330
4EFA
100
AcDbEntity
  8
寸法線
 62
     0
 48
10.0
100
AcDbLine
 10
371.390045212736
 20
363.422484444974
 30
0.0
 11
371.390045212736
 21
297.238174065717
 31
0.0
  0
LINE
  5
4EFF
330
4EFA
100
AcDbEntity
  8
寸法線
 62
     0
 48
10.0
100
AcDbLine
 10
317.390045212736
 20
298.488174065717
 30
0.0
 11
365.390045212736
 21
298.488174065717
 31
0.0
  0
INSERT
  5
4F00
330
4EFA
100
AcDbEntity
  8
寸法線
 62
     0
100
AcDbBlockReference
  2
_OPEN30
 10
311.390045212736
 20
298.488174065717
 30
0.0
 41
6.0
 42
6.0
 43
6.0
 50
180.0
  0
INSERT
  5
4F01
330
4EFA
100
AcDbEntity
  8
寸法線
 62
     0
100
AcDbBlockReference
  2
_OPEN30
 10
371.390045212736
 20
298.488174065717
 30
0.0
 41
6.0
 42
6.0
 43
6.0
  0
MTEXT
  5
4F02
330
4EFA
100
AcDbEntity
  8
寸法線
 62
     0
 48
10.0
100
AcDbMText
 10
341.390045212736
 20
303.113174065717
 30
0.0
 40
8.0
 41
0.0
 71
     5
 72
     1
  1
\A1;60
  0
POINT
  5
4F03
330
4EFA
100
AcDbEntity
  8
DEFPOINTS
 62
     0
100
AcDbPoint
 10
311.390045212736
 20
368.238674213246
 30
0.0
  0
POINT
  5
4F04
330
4EFA
100
AcDbEntity
  8
DEFPOINTS
 62
     0
100
AcDbPoint
 10
371.390045212736
 20
364.047484444974
 30
0.0
  0
POINT
  5
4F05
330
4EFA
100
AcDbEntity
  8
DEFPOINTS
 62
     0
100
AcDbPoint
 10
371.390045212736
 20
298.488174065717
 30
0.0
  0
ENDBLK
  5
4EFC
330
4EFA
100
AcDbEntity
  8
0
100
AcDbBlockEnd
  0
BLOCK
  5
4F07
330
4F06
100
AcDbEntity
  8
0
100
AcDbBlockBegin
  2
*D35
 70
     1
 10
0.0
 20
0.0
 30
0.0
  3
*D35
  1

  0
LINE
  5
4F09
330
4F06
100
AcDbEntity
  8
寸法線
 62
     0
 48
10.0
100
AcDbLine
 10
371.390045212736
 20
363.422484444974
 30
0.0
 11
371.390045212736
 21
297.238174065717
 31
0.0
  0
LINE
  5
4F0A
330
4F06
100
AcDbEntity
  8
寸法線
 62
     0
 48
10.0
100
AcDbLine
 10
459.890045212736
 20
319.862484444974
 30
0.0
 11
459.890045212736
 21
297.238174065717
 31
0.0
  0
LINE
  5
4F0B
330
4F06
100
AcDbEntity
  8
寸法線
 62
     0
 48
10.0
100
AcDbLine
 10
377.390045212736
 20
298.488174065717
 30
0.0
 11
453.890045212736
 21
298.488174065717
 31
0.0
  0
INSERT
  5
4F0C
330
4F06
100
AcDbEntity
  8
寸法線
 62
     0
100
AcDbBlockReference
  2
_OPEN30
 10
371.390045212736
 20
298.488174065717
 30
0.0
 41
6.0
 42
6.0
 43
6.0
 50
180.0
  0
INSERT
  5
4F0D
330
4F06
100
AcDbEntity
  8
寸法線
 62
     0
100
AcDbBlockReference
  2
_OPEN30
 10
459.890045212736
 20
298.488174065717
 30
0.0
 41
6.0
 42
6.0
 43
6.0
  0
MTEXT
  5
4F0E
330
4F06
100
AcDbEntity
  8
寸法線
 62
     0
 48
10.0
100
AcDbMText
 10
415.640045212736
 20
303.129840732384
 30
0.0
 40
8.0
 41
0.0
 71
     5
 72
     1
  1
\A1;88
  0
POINT
  5
4F0F
330
4F06
100
AcDbEntity
  8
DEFPOINTS
 62
     0
100
AcDbPoint
 10
371.390045212736
 20
364.047484444974
 30
0.0
  0
POINT
  5
4F10
330
4F06
100
AcDbEntity
  8
DEFPOINTS
 62
     0
100
AcDbPoint
 10
459.890045212736
 20
320.487484444974
 30
0.0
  0
POINT
  5
4F11
330
4F06
100
AcDbEntity
  8
DEFPOINTS
 62
     0
100
AcDbPoint
 10
459.890045212736
 20
298.488174065717
 30
0.0
  0
ENDBLK
  5
4F08
330
4F06
100
AcDbEntity
  8
0
100
AcDbBlockEnd
  0
BLOCK
  5
4F13
330
4F12
100
AcDbEntity
  8
0
100
AcDbBlockBegin
  2
*D36
 70
     1
 10
0.0
 20
0.0
 30
0.0
  3
*D36
  1

  0
LINE
  5
4F15
330
4F12
100
AcDbEntity
  8
寸法線
 62
     0
 48
10.0
100
AcDbLine
 10
311.390045212736
 20
367.613674213246
 30
0.0
 11
311.390045212736
 21
277.238174065717
 31
0.0
  0
LINE
  5
4F16
330
4F12
100
AcDbEntity
  8
寸法線
 62
     0
 48
10.0
100
AcDbLine
 10
489.390045212737
 20
296.613174065717
 30
0.0
 11
489.390045212737
 21
277.238174065717
 31
0.0
  0
LINE
  5
4F17
330
4F12
100
AcDbEntity
  8
寸法線
 62
     0
 48
10.0
100
AcDbLine
 10
317.390045212736
 20
278.488174065717
 30
0.0
 11
483.390045212737
 21
278.488174065717
 31
0.0
  0
INSERT
  5
4F18
330
4F12
100
AcDbEntity
  8
寸法線
 62
     0
100
AcDbBlockReference
  2
_OPEN30
 10
311.390045212736
 20
278.488174065717
 30
0.0
 41
6.0
 42
6.0
 43
6.0
 50
180.0
  0
INSERT
  5
4F19
330
4F12
100
AcDbEntity
  8
寸法線
 62
     0
100
AcDbBlockReference
  2
_OPEN30
 10
489.390045212737
 20
278.488174065717
 30
0.0
 41
6.0
 42
6.0
 43
6.0
  0
MTEXT
  5
4F1A
330
4F12
100
AcDbEntity
  8
寸法線
 62
     0
 48
10.0
100
AcDbMText
 10
400.390045212737
 20
283.12150739905
 30
0.0
 40
8.0
 41
0.0
 71
     5
 72
     1
  1
\A1;178
  0
POINT
  5
4F1B
330
4F12
100
AcDbEntity
  8
DEFPOINTS
 62
     0
100
AcDbPoint
 10
311.390045212736
 20
368.238674213246
 30
0.0
  0
POINT
  5
4F1C
330
4F12
100
AcDbEntity
  8
DEFPOINTS
 62
     0
100
AcDbPoint
 10
489.390045212737
 20
297.238174065717
 30
0.0
  0
POINT
  5
4F1D
330
4F12
100
AcDbEntity
  8
DEFPOINTS
 62
     0
100
AcDbPoint
 10
489.390045212737
 20
278.488174065717
 30
0.0
  0
ENDBLK
  5
4F14
330
4F12
100
AcDbEntity
  8
0
100
AcDbBlockEnd
  0
BLOCK
  5
4F1F
330
4F1E
100
AcDbEntity
  8
0
100
AcDbBlockBegin
  2
*D37
 70
     1
 10
0.0
 20
0.0
 30
0.0
  3
*D37
  1

  0
LINE
  5
4F21
330
4F1E
100
AcDbEntity
  8
寸法線
 62
     0
 48
10.0
100
AcDbLine
 10
459.890045212736
 20
319.862484444974
 30
0.0
 11
459.890045212736
 21
297.238174065717
 31
0.0
  0
LINE
  5
4F22
330
4F1E
100
AcDbEntity
  8
寸法線
 62
     0
 48
10.0
100
AcDbLine
 10
489.390045212737
 20
339.136038915181
 30
0.0
 11
489.390045212737
 21
297.238174065717
 31
0.0
  0
LINE
  5
4F23
330
4F1E
100
AcDbEntity
  8
寸法線
 62
     0
 48
10.0
100
AcDbLine
 10
465.890045212736
 20
298.488174065717
 30
0.0
 11
483.390045212737
 21
298.488174065717
 31
0.0
  0
INSERT
  5
4F24
330
4F1E
100
AcDbEntity
  8
寸法線
 62
     0
100
AcDbBlockReference
  2
_OPEN30
 10
459.890045212736
 20
298.488174065717
 30
0.0
 41
6.0
 42
6.0
 43
6.0
 50
180.0
  0
INSERT
  5
4F25
330
4F1E
100
AcDbEntity
  8
寸法線
 62
     0
100
AcDbBlockReference
  2
_OPEN30
 10
489.390045212737
 20
298.488174065717
 30
0.0
 41
6.0
 42
6.0
 43
6.0
  0
MTEXT
  5
4F26
330
4F1E
100
AcDbEntity
  8
寸法線
 62
     0
 48
10.0
100
AcDbMText
 10
474.640045212736
 20
303.117340732384
 30
0.0
 40
8.0
 41
0.0
 71
     5
 72
     1
  1
\A1;30
  0
POINT
  5
4F27
330
4F1E
100
AcDbEntity
  8
DEFPOINTS
 62
     0
100
AcDbPoint
 10
459.890045212736
 20
320.487484444974
 30
0.0
  0
POINT
  5
4F28
330
4F1E
100
AcDbEntity
  8
DEFPOINTS
 62
     0
100
AcDbPoint
 10
489.390045212737
 20
339.761038915181
 30
0.0
  0
POINT
  5
4F29
330
4F1E
100
AcDbEntity
  8
DEFPOINTS
 62
     0
100
AcDbPoint
 10
489.390045212737
 20
298.488174065717
 30
0.0
  0
ENDBLK
  5
4F20
330
4F1E
100
AcDbEntity
  8
0
100
AcDbBlockEnd
  0
BLOCK
  5
4F2B
330
4F2A
100
AcDbEntity
  8
0
100
AcDbBlockBegin
  2
*D38
 70
     1
 10
0.0
 20
0.0
 30
0.0
  3
*D38
  1

  0
LINE
  5
4F2D
330
4F2A
100
AcDbEntity
  8
寸法線
 62
     0
 48
10.0
100
AcDbLine
 10
60.765045212736
 20
395.155914215788
 30
0.0
 11
19.45846709528
 21
395.155914215788
 31
0.0
  0
LINE
  5
4F2E
330
4F2A
100
AcDbEntity
  8
寸法線
 62
     0
 48
10.0
100
AcDbLine
 10
60.765045212736
 20
373.155914215788
 30
0.0
 11
19.45846709528
 21
373.155914215788
 31
0.0
  0
LINE
  5
4F2F
330
4F2A
100
AcDbEntity
  8
寸法線
 62
     0
 48
10.0
100
AcDbLine
 10
20.70846709528
 20
395.155914215788
 30
0.0
 11
20.70846709528
 21
420.379483769594
 31
0.0
  0
LINE
  5
4F30
330
4F2A
100
AcDbEntity
  8
寸法線
 62
     0
 48
10.0
100
AcDbLine
 10
20.70846709528
 20
389.155914215788
 30
0.0
 11
20.70846709528
 21
379.155914215788
 31
0.0
  0
INSERT
  5
4F31
330
4F2A
100
AcDbEntity
  8
寸法線
 62
     0
100
AcDbBlockReference
  2
_OPEN30
 10
20.70846709528
 20
395.155914215788
 30
0.0
 41
6.0
 42
6.0
 43
6.0
 50
90.0
  0
INSERT
  5
4F32
330
4F2A
100
AcDbEntity
  8
寸法線
 62
     0
100
AcDbBlockReference
  2
_OPEN30
 10
20.70846709528
 20
373.155914215788
 30
0.0
 41
6.0
 42
6.0
 43
6.0
 50
270.0
  0
MTEXT
  5
4F33
330
4F2A
100
AcDbEntity
  8
寸法線
 62
     0
 48
10.0
100
AcDbMText
 10
16.075133761947
 20
411.021150436261
 30
0.0
 40
8.0
 41
0.0
 71
     5
 72
     1
  1
\A1;φ22
 11
0.0
 21
1.0
 31
0.0
  0
POINT
  5
4F34
330
4F2A
100
AcDbEntity
  8
DEFPOINTS
 62
     0
100
AcDbPoint
 10
61.390045212736
 20
395.155914215788
 30
0.0
  0
POINT
  5
4F35
330
4F2A
100
AcDbEntity
  8
DEFPOINTS
 62
     0
100
AcDbPoint
 10
61.390045212736
 20
373.155914215788
 30
0.0
  0
POINT
  5
4F36
330
4F2A
100
AcDbEntity
  8
DEFPOINTS
 62
     0
100
AcDbPoint
 10
20.70846709528
 20
373.155914215788
 30
0.0
  0
ENDBLK
  5
4F2C
330
4F2A
100
AcDbEntity
  8
0
100
AcDbBlockEnd
  0
BLOCK
  5
4F38
330
4F37
100
AcDbEntity
  8
0
100
AcDbBlockBegin
  2
*D39
 70
     1
 10
0.0
 20
0.0
 30
0.0
  3
*D39
  1

  0
LINE
  5
4F3A
330
4F37
100
AcDbEntity
  8
寸法線
 62
     0
 48
10.0
100
AcDbLine
 10
61.765045212736
 20
392.702631545086
 30
0.0
 11
35.45846709528
 21
392.702631545086
 31
0.0
  0
LINE
  5
4F3B
330
4F37
100
AcDbEntity
  8
寸法線
 62
     0
 48
10.0
100
AcDbLine
 10
61.765045212736
 20
375.702631545086
 30
0.0
 11
35.45846709528
 21
375.702631545086
 31
0.0
  0
LINE
  5
4F3C
330
4F37
100
AcDbEntity
  8
寸法線
 62
     0
 48
10.0
100
AcDbLine
 10
36.70846709528
 20
392.702631545086
 30
0.0
 11
36.70846709528
 21
416.085964878419
 31
0.0
  0
LINE
  5
4F3D
330
4F37
100
AcDbEntity
  8
寸法線
 62
     0
 48
10.0
100
AcDbLine
 10
36.70846709528
 20
386.702631545086
 30
0.0
 11
36.70846709528
 21
381.702631545086
 31
0.0
  0
INSERT
  5
4F3E
330
4F37
100
AcDbEntity
  8
寸法線
 62
     0
100
AcDbBlockReference
  2
_OPEN30
 10
36.70846709528
 20
392.702631545086
 30
0.0
 41
6.0
 42
6.0
 43
6.0
 50
90.0
  0
INSERT
  5
4F3F
330
4F37
100
AcDbEntity
  8
寸法線
 62
     0
100
AcDbBlockReference
  2
_OPEN30
 10
36.70846709528
 20
375.702631545086
 30
0.0
 41
6.0
 42
6.0
 43
6.0
 50
270.0
  0
MTEXT
  5
4F40
330
4F37
100
AcDbEntity
  8
寸法線
 62
     0
 48
10.0
100
AcDbMText
 10
32.08346709528
 20
407.527631545086
 30
0.0
 40
8.0
 41
0.0
 71
     5
 72
     1
  1
\A1;φ17
 11
0.0
 21
1.0
 31
0.0
  0
POINT
  5
4F41
330
4F37
100
AcDbEntity
  8
DEFPOINTS
 62
     0
100
AcDbPoint
 10
62.390045212736
 20
392.702631545086
 30
0.0
  0
POINT
  5
4F42
330
4F37
100
AcDbEntity
  8
DEFPOINTS
 62
     0
100
AcDbPoint
 10
62.390045212736
 20
375.702631545086
 30
0.0
  0
POINT
  5
4F43
330
4F37
100
AcDbEntity
  8
DEFPOINTS
 62
     0
100
AcDbPoint
 10
36.70846709528
 20
375.702631545086
 30
0.0
  0
ENDBLK
  5
4F39
330
4F37
100
AcDbEntity
  8
0
100
AcDbBlockEnd
  0
ENDSEC
  0
SECTION
  2
ENTITIES
  0
LWPOLYLINE
  5
31A0
330
1A
100
AcDbEntity
  8
外形線
100
AcDbPolyline
 90
        4
 70
     1
 43
0.0
 10
371.390045212736
 20
364.987484444974
 10
374.390045212736
 20
364.987484444974
 10
374.390045212736
 20
402.987484444974
 10
371.390045212736
 20
402.987484444974
  0
LEADER
  5
376C
330
1A
100
AcDbEntity
  8
寸法線
 48
10.0
100
AcDbLeader
  3
ISO-25
 73
     0
 74
     0
 75
     1
 40
21.341666666667
 41
45.066666666667
 76
     3
 10
441.890045212736
 20
319.487484444974
 30
0.0
 10
473.515044714143
 20
248.487484297445
 30
0.0
 10
479.515044714143
 20
248.487484297445
 30
0.0
340
376D
1001
ACAD
1000
DSTYLE
1002
{
1070
     5
1000
OPEN30
1070
   147
1040
0.625
1070
    77
1070
     0
1070
    41
1040
6.0
1070
    47
1040
0.1
1070
    48
1040
0.1
1070
    73
1070
     0
1070
   140
1040
5.0
1070
   271
1070
     1
1070
   272
1070
     1
1070
   341
1005
2AF4
1070
   342
1005
2AF4
1002
}
  0
MTEXT
  5
376D
102
{ACAD_REACTORS
330
376C
102
}
330
1A
100
AcDbEntity
  8
寸法線
 48
10.0
100
AcDbMText
 10
480.140044714143
 20
248.487484297445
 30
0.0
 40
8.0
 41
0.0
 71
     7
 72
     1
  1
導線取出口\PG 1/2"
  0
MTEXT
  5
4279
330
1A
100
AcDbEntity
  8
寸法線
 48
10.0
100
AcDbMText
 10
531.7232307396
 20
480.849509145181
 30
0.0
 40
8.0
 41
0.0
 71
     7
 72
     1
  1
アルミ\Pダイカスト
  0
MTEXT
  5
427B
330
1A
100
AcDbEntity
  8
寸法線
 48
10.0
100
AcDbMText
 10
424.387909575991
 20
480.849509145181
 30
0.0
 40
8.0
 41
0.0
 71
     7
 72
     1
  1
アルミ\Pダイカスト
  0
MTEXT
  5
4289
330
1A
100
AcDbEntity
  8
寸法線
 48
10.0
100
AcDbMText
 10
484.778445042998
 20
480.849509145181
 30
0.0
 40
8.0
 41
0.0
 71
     7
 72
     1
  1
Oリング
  0
DIMENSION
  5
4908
330
1A
100
AcDbEntity
  8
寸法線
 48
10.0
100
AcDbDimension
  2
*D17
 10
515.774010066299
 20
326.238075725467
 30
0.0
 11
515.774010066299
 21
383.987466305287
 31
0.0
 70
   160
  1
φ116
  3
ISO-25
100
AcDbAlignedDimension
 13
476.399810645657
 23
441.736856885106
 33
0.0
 14
476.397732201615
 24
326.238075725467
 34
0.0
 50
90.0
100
AcDbRotatedDimension
1001
ACAD
1000
DSTYLE
1002
{
1070
     5
1000
OPEN30
1070
    41
1040
6.0
1070
    47
1040
0.1
1070
    48
1040
0.1
1070
    73
1070
     0
1070
   140
1040
8.0
1070
   271
1070
     1
1070
   272
1070
     1
1070
   341
1005
2AF4
1002
}
  0
INSERT
  5
499C
330
1A
100
AcDbEntity
  8
外形線
100
AcDbBlockReference
  2
静電容量センサ
 10
-646.508480450369
 20
-710.699296517603
 30
0.0
  0
MTEXT
  5
4B24
330
1A
100
AcDbEntity
  8
寸法線
 48
10.0
100
AcDbMText
 10
521.264617654411
 20
523.781417155987
 30
0.0
 40
8.0
 41
119.045773982674
 71
     1
 72
     5
  1
{\C1;塗装色：10YR7.5/14}
  0
LINE
  5
4BAA
330
1A
100
AcDbEntity
  8
下書線
 62
     2
 48
10.0
100
AcDbLine
 10
68.470895724356
 20
479.665648531151
 30
0.0
 11
620.264382419291
 21
479.665648531151
 31
0.0
  0
LEADER
  5
4BB2
330
1A
100
AcDbEntity
  8
寸法線
 62
     1
 48
10.0
100
AcDbLeader
  3
ISO-25
 76
     3
 10
411.346344085345
 20
436.380448888656
 30
0.0
 10
424.387909575991
 20
479.665648531151
 30
0.0
 10
434.300560625596
 20
479.665648531151
 30
0.0
1001
ACAD
1000
DSTYLE
1002
{
1070
     5
1000
OPEN30
1070
   147
1040
0.625
1070
    77
1070
     0
1070
    41
1040
6.0
1070
    47
1040
0.1
1070
    48
1040
0.1
1070
    73
1070
     0
1070
   140
1040
8.0
1070
   271
1070
     1
1070
   272
1070
     1
1070
   341
1005
2AF4
1070
   342
1005
2AF4
1002
}
  0
LEADER
  5
4BB3
330
1A
100
AcDbEntity
  8
寸法線
 62
     1
 48
10.0
100
AcDbLeader
  3
ISO-25
 76
     3
 10
461.891081116367
 20
441.481380168601
 30
0.0
 10
484.778445042998
 20
479.665648531151
 30
0.0
 10
495.659959749262
 20
479.665648531151
 30
0.0
1001
ACAD
1000
DSTYLE
1002
{
1070
     5
1000
OPEN30
1070
   147
1040
0.625
1070
    77
1070
     0
1070
    41
1040
6.0
1070
    47
1040
0.1
1070
    48
1040
0.1
1070
    73
1070
     0
1070
   140
1040
8.0
1070
   271
1070
     1
1070
   272
1070
     1
1070
   341
1005
2AF4
1070
   342
1005
2AF4
1002
}
  0
LEADER
  5
4BB4
330
1A
100
AcDbEntity
  8
寸法線
 62
     1
 48
10.0
100
AcDbLeader
  3
ISO-25
 76
     3
 10
483.139980742622
 20
431.073358338544
 30
0.0
 10
531.7232307396
 20
479.665648531151
 30
0.0
 10
543.568292802109
 20
479.665648531151
 30
0.0
1001
ACAD
1000
DSTYLE
1002
{
1070
     5
1000
OPEN30
1070
   147
1040
0.625
1070
    77
1070
     0
1070
    41
1040
6.0
1070
    47
1040
0.1
1070
    48
1040
0.1
1070
    73
1070
     0
1070
   140
1040
8.0
1070
   271
1070
     1
1070
   272
1070
     1
1070
   341
1005
2AF4
1070
   342
1005
2AF4
1002
}
  0
MTEXT
  5
4E2F
330
1A
100
AcDbEntity
  8
寸法線
 48
10.0
100
AcDbMText
 10
352.250470049666
 20
480.84950914518
 30
0.0
 40
8.0
 41
0.0
 71
     7
 72
     1
  1
取付ねじR1"\PSUS304
  0
MTEXT
  5
4E30
330
1A
100
AcDbEntity
  8
寸法線
 48
10.0
100
AcDbMText
 10
73.990231913421
 20
480.849509145181
 30
0.0
 40
8.0
 41
0.0
 71
     9
 72
     1
  1
\A1;検知電極\PSUS304
  0
MTEXT
  5
4E31
330
1A
100
AcDbEntity
  8
寸法線
 48
10.0
100
AcDbMText
 10
157.233089901097
 20
480.849509145181
 30
0.0
 40
8.0
 41
0.0
 71
     9
 72
     1
  1
\A1;絶縁体\Pポリアセタール
  0
MTEXT
  5
4E32
330
1A
100
AcDbEntity
  8
寸法線
 48
10.0
100
AcDbMText
 10
215.417060471599
 20
480.849509145181
 30
0.0
 40
8.0
 41
0.0
 71
     7
 72
     1
  1
電極部被覆\Pテフロンチューブ
  0
MTEXT
  5
4E33
330
1A
100
AcDbEntity
  8
寸法線
 48
10.0
100
AcDbMText
 10
302.623790807349
 20
480.849509145181
 30
0.0
 40
8.0
 41
0.0
 71
     7
 72
     1
  1
\A1;接地電極\PSUS304
  0
DIMENSION
  5
4E34
330
1A
100
AcDbEntity
  8
寸法線
 48
10.0
100
AcDbDimension
  2
*D30
 10
161.390045212736
 20
298.488174065717
 30
0.0
 11
111.390045212736
 21
303.113174065717
 31
0.0
 70
    32
  1
 
  3
ISO-25
100
AcDbAlignedDimension
 13
61.390045212736
 23
376.488174213246
 33
0.0
 14
161.390045212736
 24
375.488174213246
 34
0.0
100
AcDbRotatedDimension
1001
ACAD
1000
DSTYLE
1002
{
1070
     5
1000
OPEN30
1070
    41
1040
6.0
1070
    47
1040
0.1
1070
    48
1040
0.1
1070
    73
1070
     0
1070
   140
1040
8.0
1070
   271
1070
     1
1070
   272
1070
     1
1070
   341
1005
2AF4
1002
}
  0
DIMENSION
  5
4E35
330
1A
100
AcDbEntity
  8
寸法線
 48
10.0
100
AcDbDimension
  2
*D31
 10
211.390045212736
 20
298.488174065717
 30
0.0
 11
186.390045212736
 21
303.113174065717
 31
0.0
 70
    32
  1
 
  3
ISO-25
100
AcDbAlignedDimension
 13
161.390045212736
 23
375.488174213246
 33
0.0
 14
211.390045212736
 24
375.488174213246
 34
0.0
100
AcDbRotatedDimension
1001
ACAD
1000
DSTYLE
1002
{
1070
     5
1000
OPEN30
1070
    41
1040
6.0
1070
    47
1040
0.1
1070
    48
1040
0.1
1070
    73
1070
     0
1070
   140
1040
8.0
1070
   271
1070
     1
1070
   272
1070
     1
1070
   341
1005
2AF4
1002
}
  0
DIMENSION
  5
4E36
330
1A
100
AcDbEntity
  8
寸法線
 48
10.0
100
AcDbDimension
  2
*D32
 10
311.390045212736
 20
298.488174065717
 30
0.0
 11
261.390045212736
 21
303.113174065717
 31
0.0
 70
    32
  1
 
  3
ISO-25
100
AcDbAlignedDimension
 13
211.390045212736
 23
375.488174213246
 33
0.0
 14
311.390045212736
 24
368.238674213246
 34
0.0
100
AcDbRotatedDimension
1001
ACAD
1000
DSTYLE
1002
{
1070
     5
1000
OPEN30
1070
    41
1040
6.0
1070
    47
1040
0.1
1070
    48
1040
0.1
1070
    73
1070
     0
1070
   140
1040
8.0
1070
   271
1070
     1
1070
   272
1070
     1
1070
   341
1005
2AF4
1002
}
  0
DIMENSION
  5
4E37
330
1A
100
AcDbEntity
  8
寸法線
 48
10.0
100
AcDbDimension
  2
*D33
 10
311.390045212736
 20
278.488174065717
 30
0.0
 11
186.390045212736
 21
283.117340732384
 31
0.0
 70
    32
  1
 
  3
ISO-25
100
AcDbAlignedDimension
 13
61.390045212736
 23
376.488174213246
 33
0.0
 14
311.390045212736
 24
368.238674213246
 34
0.0
100
AcDbRotatedDimension
1001
ACAD
1000
DSTYLE
1002
{
1070
     5
1000
OPEN30
1070
    41
1040
6.0
1070
    47
1040
0.1
1070
    48
1040
0.1
1070
    73
1070
     0
1070
   140
1040
8.0
1070
   271
1070
     1
1070
   272
1070
     1
1070
   341
1005
2AF4
1002
}
  0
MTEXT
  5
4E38
102
{ACAD_REACTORS
330
4E39
102
}
330
1A
100
AcDbEntity
  8
寸法線
 48
10.0
100
AcDbMText
 10
361.773832351142
 20
445.158460531456
 30
0.0
 40
8.0
 41
0.0
 71
     7
 72
     1
  1
\A1;平径38
  0
LEADER
  5
4E39
330
1A
100
AcDbEntity
  8
寸法線
 48
10.0
100
AcDbLeader
  3
ISO-25
 73
     0
 74
     0
 75
     1
 40
8.025
 41
28.933333333333
 76
     3
 10
346.390045212736
 20
405.927484444975
 30
0.0
 10
355.148832351142
 20
445.158460531456
 30
0.0
 10
361.148832351142
 20
445.158460531456
 30
0.0
340
4E38
1001
ACAD
1000
DSTYLE
1002
{
1070
     5
1000
OPEN30
1070
   147
1040
0.625
1070
    77
1070
     0
1070
    41
1040
6.0
1070
    47
1040
0.1
1070
    48
1040
0.1
1070
    73
1070
     0
1070
   140
1040
5.0
1070
   271
1070
     1
1070
   272
1070
     1
1070
   341
1005
2AF4
1070
   342
1005
2AF4
1002
}
  0
DIMENSION
  5
4E3A
330
1A
100
AcDbEntity
  8
寸法線
 48
10.0
100
AcDbDimension
  2
*D34
 10
371.390045212736
 20
298.488174065717
 30
0.0
 11
341.390045212736
 21
303.113174065717
 31
0.0
 70
    32
  3
ISO-25
100
AcDbAlignedDimension
 13
311.390045212736
 23
368.238674213246
 33
0.0
 14
371.390045212736
 24
364.047484444974
 34
0.0
100
AcDbRotatedDimension
1001
ACAD
1000
DSTYLE
1002
{
1070
     5
1000
OPEN30
1070
    41
1040
6.0
1070
    47
1040
0.1
1070
    48
1040
0.1
1070
    73
1070
     0
1070
   140
1040
8.0
1070
   271
1070
     1
1070
   272
1070
     1
1070
   341
1005
2AF4
1002
}
  0
DIMENSION
  5
4E3B
330
1A
100
AcDbEntity
  8
寸法線
 48
10.0
100
AcDbDimension
  2
*D35
 10
459.890045212736
 20
298.488174065717
 30
0.0
 11
415.640045212736
 21
303.129840732384
 31
0.0
 70
    32
  1
88
  3
ISO-25
100
AcDbAlignedDimension
 13
371.390045212736
 23
364.047484444974
 33
0.0
 14
459.890045212736
 24
320.487484444974
 34
0.0
100
AcDbRotatedDimension
1001
ACAD
1000
DSTYLE
1002
{
1070
     5
1000
OPEN30
1070
    41
1040
6.0
1070
    47
1040
0.1
1070
    48
1040
0.1
1070
    73
1070
     0
1070
   140
1040
8.0
1070
   271
1070
     1
1070
   272
1070
     1
1070
   341
1005
2AF4
1002
}
  0
DIMENSION
  5
4E3C
330
1A
100
AcDbEntity
  8
寸法線
 48
10.0
100
AcDbDimension
  2
*D36
 10
489.390045212737
 20
278.488174065717
 30
0.0
 11
400.390045212737
 21
283.12150739905
 31
0.0
 70
    32
  3
ISO-25
100
AcDbAlignedDimension
 13
311.390045212736
 23
368.238674213246
 33
0.0
 14
489.390045212737
 24
297.238174065717
 34
0.0
100
AcDbRotatedDimension
1001
ACAD
1000
DSTYLE
1002
{
1070
     5
1000
OPEN30
1070
    41
1040
6.0
1070
    47
1040
0.1
1070
    48
1040
0.1
1070
    73
1070
     0
1070
   140
1040
8.0
1070
   271
1070
     1
1070
   272
1070
     1
1070
   341
1005
2AF4
1002
}
  0
DIMENSION
  5
4E3D
330
1A
100
AcDbEntity
  8
寸法線
 48
10.0
100
AcDbDimension
  2
*D37
 10
489.390045212737
 20
298.488174065717
 30
0.0
 11
474.640045212736
 21
303.117340732384
 31
0.0
 70
    32
  1
30
  3
ISO-25
100
AcDbAlignedDimension
 13
459.890045212736
 23
320.487484444974
 33
0.0
 14
489.390045212737
 24
339.761038915181
 34
0.0
100
AcDbRotatedDimension
1001
ACAD
1000
DSTYLE
1002
{
1070
     5
1000
OPEN30
1070
    41
1040
6.0
1070
    47
1040
0.1
1070
    48
1040
0.1
1070
    73
1070
     0
1070
   140
1040
8.0
1070
   271
1070
     1
1070
   272
1070
     1
1070
   341
1005
2AF4
1002
}
  0
LEADER
  5
4E3E
330
1A
100
AcDbEntity
  8
寸法線
 62
     1
 48
10.0
100
AcDbLeader
  3
ISO-25
 76
     3
 10
103.090521567694
 20
389.117684578289
 30
0.0
 10
74.470895724356
 20
479.665648531151
 30
0.0
 10
59.890972582377
 20
479.665648531151
 30
0.0
1001
ACAD
1000
DSTYLE
1002
{
1070
     5
1000
DOTSMALL
1070
   147
1040
0.625
1070
    77
1070
     0
1070
    41
1040
6.0
1070
    47
1040
0.1
1070
    48
1040
0.1
1070
    73
1070
     0
1070
   140
1040
8.0
1070
   271
1070
     1
1070
   272
1070
     1
1070
   341
1005
4547
1070
   342
1005
2AF4
1002
}
  0
LEADER
  5
4E3F
330
1A
100
AcDbEntity
  8
寸法線
 62
     1
 48
10.0
100
AcDbLeader
  3
ISO-25
 76
     3
 10
176.916077688727
 20
386.640026889934
 30
0.0
 10
157.713753712032
 20
479.665648531151
 30
0.0
 10
142.310035997395
 20
479.665648531151
 30
0.0
1001
ACAD
1000
DSTYLE
1002
{
1070
     5
1000
DOTSMALL
1070
   147
1040
0.625
1070
    77
1070
     0
1070
    41
1040
6.0
1070
    47
1040
0.1
1070
    48
1040
0.1
1070
    73
1070
     0
1070
   140
1040
8.0
1070
   271
1070
     1
1070
   272
1070
     1
1070
   341
1005
4547
1070
   342
1005
2AF4
1002
}
  0
LEADER
  5
4E40
330
1A
100
AcDbEntity
  8
寸法線
 62
     1
 48
10.0
100
AcDbLeader
  3
ISO-25
 76
     3
 10
206.503208947896
 20
394.941456883949
 30
0.0
 10
215.417060471599
 20
479.665648531151
 30
0.0
 10
228.87528294055
 20
479.665648531151
 30
0.0
1001
ACAD
1000
DSTYLE
1002
{
1070
     5
1000
OPEN30
1070
   147
1040
0.625
1070
    77
1070
     0
1070
    41
1040
6.0
1070
    47
1040
0.1
1070
    48
1040
0.1
1070
    73
1070
     0
1070
   140
1040
8.0
1070
   271
1070
     1
1070
   272
1070
     1
1070
   341
1005
2AF4
1070
   342
1005
2AF4
1002
}
  0
LEADER
  5
4E41
330
1A
100
AcDbEntity
  8
寸法線
 62
     1
 48
10.0
100
AcDbLeader
  3
ISO-25
 76
     3
 10
269.751576956464
 20
387.413535486653
 30
0.0
 10
302.623790807349
 20
479.665648531151
 30
0.0
 10
315.864102825791
 20
479.665648531151
 30
0.0
1001
ACAD
1000
DSTYLE
1002
{
1070
     5
1000
DOTSMALL
1070
   147
1040
0.625
1070
    77
1070
     0
1070
    41
1040
6.0
1070
    47
1040
0.1
1070
    48
1040
0.1
1070
    73
1070
     0
1070
   140
1040
8.0
1070
   271
1070
     1
1070
   272
1070
     1
1070
   341
1005
4547
1070
   342
1005
2AF4
1002
}
  0
LEADER
  5
4E42
330
1A
100
AcDbEntity
  8
寸法線
 62
     1
 48
10.0
100
AcDbLeader
  3
ISO-25
 76
     3
 10
324.359254879312
 20
400.548249817407
 30
0.0
 10
352.250470049666
 20
479.665648531151
 30
0.0
 10
363.835913275466
 20
479.665648531151
 30
0.0
1001
ACAD
1000
DSTYLE
1002
{
1070
     5
1000
OPEN30
1070
   147
1040
0.625
1070
    77
1070
     0
1070
    41
1040
6.0
1070
    47
1040
0.1
1070
    48
1040
0.1
1070
    73
1070
     0
1070
   140
1040
8.0
1070
   271
1070
     1
1070
   272
1070
     1
1070
   341
1005
2AF4
1070
   342
1005
2AF4
1002
}
  0
LINE
  5
4E44
330
1A
100
AcDbEntity
  8
細線
 48
10.0
100
AcDbLine
 10
362.790045212736
 20
394.957484444974
 30
0.0
 11
369.390045212736
 21
394.957484444975
 31
0.0
  0
LINE
  5
4E45
330
1A
100
AcDbEntity
  8
細線
 48
10.0
100
AcDbLine
 10
362.790045212736
 20
373.017484444974
 30
0.0
 11
369.390045212736
 21
373.017484444974
 31
0.0
  0
ARC
  5
4E46
330
1A
100
AcDbEntity
  8
細線
 48
10.0
100
AcDbCircle
 10
391.875270212736
 20
383.987484444974
 30
0.0
 40
31.08522499999937
100
AcDbArc
 50
159.335157523599
 51
200.664842476401
  0
ARC
  5
4E47
330
1A
100
AcDbEntity
  8
細線
 48
10.0
100
AcDbCircle
 10
340.304820212737
 20
383.987484444974
 30
0.0
 40
31.08522499999937
100
AcDbArc
 50
339.335157523599
 51
20.664842476401
  0
LWPOLYLINE
  5
4E48
330
1A
100
AcDbEntity
  8
外形線
 48
10.0
100
AcDbPolyline
 90
        4
 70
     1
 43
0.0
 10
356.390045212736
 20
397.987484444974
 10
360.790045212736
 20
397.987484444974
 10
360.790045212736
 20
369.987484444974
 10
356.390045212736
 20
369.987484444974
  0
LINE
  5
4E49
330
1A
100
AcDbEntity
  8
細線
100
AcDbLine
 10
339.390045212736
 20
394.957484444975
 30
0.0
 11
353.390045212736
 21
394.957484444975
 31
0.0
  0
LINE
  5
4E4A
330
1A
100
AcDbEntity
  8
細線
100
AcDbLine
 10
339.390045212736
 20
373.017484444975
 30
0.0
 11
353.390045212736
 21
373.017484444975
 31
0.0
  0
LINE
  5
4E4B
330
1A
100
AcDbEntity
  8
外形線
100
AcDbLine
 10
311.390045212736
 20
368.238674213246
 30
0.0
 11
336.390045212736
 21
366.676174213246
 31
0.0
  0
LINE
  5
4E4C
330
1A
100
AcDbEntity
  8
細線
100
AcDbLine
 10
311.390045212736
 20
369.717674213246
 30
0.0
 11
336.390045212736
 21
368.155174213246
 31
0.0
  0
LINE
  5
4E4D
330
1A
100
AcDbEntity
  8
細線
100
AcDbLine
 10
311.390045212736
 20
398.258674213246
 30
0.0
 11
336.390045212736
 21
399.821174213246
 31
0.0
  0
LINE
  5
4E4E
330
1A
100
AcDbEntity
  8
外形線
100
AcDbLine
 10
311.390045212736
 20
399.737674213246
 30
0.0
 11
311.390045212736
 21
368.238674213246
 31
0.0
  0
LINE
  5
4E4F
330
1A
100
AcDbEntity
  8
外形線
100
AcDbLine
 10
311.390045212736
 20
399.737674213246
 30
0.0
 11
336.390045212736
 21
401.300174213246
 31
0.0
  0
ARC
  5
4E50
330
1A
100
AcDbEntity
  8
細線
 48
10.0
100
AcDbCircle
 10
357.946861800106
 20
383.987484444975
 30
0.0
 40
21.5568165984052
100
AcDbArc
 50
149.410227986311
 51
210.589772013689
  0
ARC
  5
4E51
330
1A
100
AcDbEntity
  8
細線
 48
10.0
100
AcDbCircle
 10
334.833228625368
 20
383.987484444975
 30
0.0
 40
21.55681659840436
100
AcDbArc
 50
329.41022798631
 51
30.589772013689
  0
LINE
  5
4E52
330
1A
100
AcDbEntity
  8
外形線
 48
10.0
100
AcDbLine
 10
339.390045212736
 20
405.927484444975
 30
0.0
 11
353.390045212736
 21
405.927484444975
 31
0.0
  0
LINE
  5
4E53
330
1A
100
AcDbEntity
  8
外形線
 48
10.0
100
AcDbLine
 10
339.390045212736
 20
362.048863986563
 30
0.0
 11
353.390045212736
 21
362.048863986563
 31
0.0
  0
ARC
  5
4E54
330
1A
100
AcDbEntity
  8
細線
 48
10.0
100
AcDbCircle
 10
357.680571115741
 20
406.365915030797
 30
0.0
 40
21.5568
100
AcDbArc
 50
189.014839552026
 51
211.953209848838
  0
ARC
  5
4E55
330
1A
100
AcDbEntity
  8
外形線
 48
10.0
100
AcDbCircle
 10
352.904705190072
 20
389.133152307703
 30
0.0
 40
21.5568
100
AcDbArc
 50
128.824173789179
 51
140.004933775737
  0
ARC
  5
4E56
330
1A
100
AcDbEntity
  8
外形線
 48
10.0
100
AcDbCircle
 10
339.875385235401
 20
389.133152307703
 30
0.0
 40
21.5568
100
AcDbArc
 50
39.995066224263
 51
51.175826210821
  0
ARC
  5
4E57
330
1A
100
AcDbEntity
  8
細線
 48
10.0
100
AcDbCircle
 10
335.099519309732
 20
406.365915030797
 30
0.0
 40
21.5568
100
AcDbArc
 50
328.046790151162
 51
350.985160447974
  0
ARC
  5
4E58
330
1A
100
AcDbEntity
  8
外形線
 48
10.0
100
AcDbCircle
 10
352.904705190072
 20
378.841816582246
 30
0.0
 40
21.5568
100
AcDbArc
 50
219.995066224261
 51
231.175826210819
  0
ARC
  5
4E59
330
1A
100
AcDbEntity
  8
外形線
 48
10.0
100
AcDbCircle
 10
339.875385235401
 20
378.841816582247
 30
0.0
 40
21.5568
100
AcDbArc
 50
308.824173789179
 51
320.004933775737
  0
ARC
  5
4E5A
330
1A
100
AcDbEntity
  8
細線
 48
10.0
100
AcDbCircle
 10
335.099519309732
 20
361.609053859152
 30
0.0
 40
21.5568
100
AcDbArc
 50
9.014839552025
 51
31.953209848837
  0
ARC
  5
4E5B
330
1A
100
AcDbEntity
  8
細線
 48
10.0
100
AcDbCircle
 10
357.68057111574
 20
361.609053859152
 30
0.0
 40
21.5568
100
AcDbArc
 50
148.046790151162
 51
170.985160447973
  0
LINE
  5
4E5C
330
1A
100
AcDbEntity
  8
外形線
 48
10.0
100
AcDbLine
 10
336.390045212736
 20
402.988174215769
 30
0.0
 11
336.390045212736
 21
364.98679467418
 31
0.0
  0
LINE
  5
4E5D
330
1A
100
AcDbEntity
  8
外形線
 48
10.0
100
AcDbLine
 10
356.390045212736
 20
402.988174215769
 30
0.0
 11
356.390045212736
 21
364.98679467418
 31
0.0
  0
ARC
  5
4E5E
330
1A
100
AcDbEntity
  8
細線
 48
10.0
100
AcDbCircle
 10
398.69090640078
 20
407.67010120931
 30
0.0
 40
38.0852
100
AcDbArc
 50
185.639534129212
 51
199.499227192458
  0
ARC
  5
4E5F
330
1A
100
AcDbEntity
  8
外形線
 48
10.0
100
AcDbCircle
 10
388.701775545808
 20
378.015754111901
 30
0.0
 40
38.0852
100
AcDbArc
 50
132.871952856856
 51
137.128047143141
  0
ARC
  5
4E60
330
1A
100
AcDbEntity
  8
細線
 48
10.0
100
AcDbCircle
 10
333.489184024693
 20
407.67010120931
 30
0.0
 40
38.0852
100
AcDbArc
 50
340.500772807542
 51
354.360465870787
  0
ARC
  5
4E61
330
1A
100
AcDbEntity
  8
外形線
 48
10.0
100
AcDbCircle
 10
343.478314879665
 20
378.015754111901
 30
0.0
 40
38.0852
100
AcDbArc
 50
42.871952856859
 51
47.128047143144
  0
LINE
  5
4E62
330
1A
100
AcDbEntity
  8
外形線
 48
10.0
100
AcDbLine
 10
362.790045212736
 20
405.927484444974
 30
0.0
 11
369.390045212736
 21
405.927484444974
 31
0.0
  0
ARC
  5
4E63
330
1A
100
AcDbEntity
  8
外形線
 48
10.0
100
AcDbCircle
 10
388.701775545808
 20
389.959214778047
 30
0.0
 40
38.0852
100
AcDbArc
 50
222.871952856859
 51
227.128047143144
  0
ARC
  5
4E64
330
1A
100
AcDbEntity
  8
外形線
 48
10.0
100
AcDbCircle
 10
343.478314879665
 20
389.959214778047
 30
0.0
 40
38.0852
100
AcDbArc
 50
312.871952856856
 51
317.128047143141
  0
LINE
  5
4E65
330
1A
100
AcDbEntity
  8
外形線
 48
10.0
100
AcDbLine
 10
362.790045212736
 20
362.047484444974
 30
0.0
 11
369.390045212736
 21
362.047484444974
 31
0.0
  0
ARC
  5
4E66
330
1A
100
AcDbEntity
  8
細線
 48
10.0
100
AcDbCircle
 10
398.69090640078
 20
360.304867680639
 30
0.0
 40
38.0852
100
AcDbArc
 50
160.500772807542
 51
174.360465870788
  0
ARC
  5
4E67
330
1A
100
AcDbEntity
  8
細線
 48
10.0
100
AcDbCircle
 10
333.489184024693
 20
360.304867680639
 30
0.0
 40
38.0852
100
AcDbArc
 50
5.639534129212
 51
19.499227192459
  0
LINE
  5
4E68
330
1A
100
AcDbEntity
  8
外形線
 48
10.0
100
AcDbLine
 10
360.790045212736
 20
403.927484444974
 30
0.0
 11
360.790045212736
 21
364.047484444974
 31
0.0
  0
LINE
  5
4E69
330
1A
100
AcDbEntity
  8
外形線
 48
10.0
100
AcDbLine
 10
371.390045212736
 20
403.927484444974
 30
0.0
 11
371.390045212736
 21
364.047484444974
 31
0.0
  0
LWPOLYLINE
  5
4E6A
330
1A
100
AcDbEntity
  8
隠れ線
 48
10.0
100
AcDbPolyline
 90
        6
 70
     0
 43
0.0
 10
171.286276434848
 20
375.702631545086
 10
161.890045212736
 20
375.702631545086
 10
161.390045212736
 20
376.202631545086
 10
161.390045212736
 20
392.202631545086
 10
161.890045212736
 20
392.702631545086
 10
169.611324071839
 20
392.702631545086
  0
LINE
  5
4E6B
330
1A
100
AcDbEntity
  8
外形線
 48
10.0
100
AcDbLine
 10
201.557658843906
 20
373.202631545086
 30
0.0
 11
246.126912644138
 21
373.202631545086
 31
0.0
  0
LINE
  5
4E6C
330
1A
100
AcDbEntity
  8
外形線
 48
10.0
100
AcDbLine
 10
170.448800269531
 20
395.202631545086
 30
0.0
 11
128.700897381615
 21
395.202631545086
 31
0.0
  0
LWPOLYLINE
  5
4E6D
330
1A
100
AcDbEntity
  8
隠れ線
 48
10.0
100
AcDbPolyline
 90
        4
 70
     0
 43
0.0
 10
129.538373546931
 20
375.702631545086
 10
161.390045212736
 20
375.702631545086
 10
161.390045212736
 20
392.702631545086
 10
127.863421183923
 20
392.702631545086
  0
LINE
  5
4E6E
330
1A
100
AcDbEntity
  8
外形線
 48
10.0
100
AcDbLine
 10
128.700897381616
 20
373.202631545086
 30
0.0
 11
170.448800269532
 21
373.202631545086
 31
0.0
  0
ARC
  5
4E6F
330
1A
100
AcDbEntity
  8
外形線
 48
10.0
100
AcDbCircle
 10
61.390045212736
 20
384.155914215788
 30
0.0
 40
11.0
100
AcDbArc
 50
180.0
 51
270.0
  0
LINE
  5
4E70
330
1A
100
AcDbEntity
  8
外形線
 48
10.0
100
AcDbLine
 10
41.390045212736
 20
384.202631545086
 30
0.0
 11
41.390045212736
 21
384.202631545086
 31
0.0
  0
ARC
  5
4E71
330
1A
100
AcDbEntity
  8
外形線
 48
10.0
100
AcDbCircle
 10
61.390045212736
 20
384.155914215788
 30
0.0
 40
11.0
100
AcDbArc
 50
90.0
 51
180.0
  0
LINE
  5
4E72
330
1A
100
AcDbEntity
  8
外形線
 48
10.0
100
AcDbLine
 10
246.126912644137
 20
395.202631545086
 30
0.0
 11
201.557658843906
 21
395.202631545086
 31
0.0
  0
ARC
  5
4E73
330
1A
100
AcDbEntity
  8
細線
 48
10.0
100
AcDbCircle
 10
213.827021409994
 20
378.702631545086
 30
0.0
 40
13.44571522002898
100
AcDbArc
 50
192.892317105158
 51
204.145312225804
  0
ARC
  5
4E74
330
1A
100
AcDbEntity
  8
細線
 48
10.0
100
AcDbCircle
 10
158.180608408957
 20
389.702631069303
 30
0.0
 40
13.44464714157577
100
AcDbArc
 50
12.893361030079
 51
24.147354872351
  0
ARC
  5
4E75
330
1A
100
AcDbEntity
  8
細線
 48
10.0
100
AcDbCircle
 10
197.339681625845
 20
379.952631545086
 30
0.0
 40
9.409426936313128
100
AcDbArc
 50
153.148818773033
 51
206.851181226967
  0
ARC
  5
4E76
330
1A
100
AcDbEntity
  8
細線
 48
10.0
100
AcDbCircle
 10
174.666777487586
 20
379.952631545086
 30
0.0
 40
9.409426936319111
100
AcDbArc
 50
333.148818773055
 51
26.851181226945
  0
ARC
  5
4E77
330
1A
100
AcDbEntity
  8
細線
 48
10.0
100
AcDbCircle
 10
180.549825727728
 20
379.952631545086
 30
0.0
 40
9.409426936320505
100
AcDbArc
 50
333.148818773055
 51
26.851181226945
  0
ARC
  5
4E78
330
1A
100
AcDbEntity
  8
細線
 48
10.0
100
AcDbCircle
 10
189.289467805985
 20
378.702631844902
 30
0.0
 40
13.44464631892182
100
AcDbArc
 50
335.852644377744
 51
24.147351999997
  0
ARC
  5
4E79
330
1A
100
AcDbEntity
  8
細線
 48
10.0
100
AcDbCircle
 10
158.180609231609
 20
378.702631844902
 30
0.0
 40
13.44464631892319
100
AcDbArc
 50
335.852644377744
 51
24.147351999997
  0
ARC
  5
4E7A
330
1A
100
AcDbEntity
  8
細線
 48
10.0
100
AcDbCircle
 10
191.456633385702
 20
388.452631545086
 30
0.0
 40
9.409426936313837
100
AcDbArc
 50
153.148818773033
 51
206.851181226967
  0
ARC
  5
4E7B
330
1A
100
AcDbEntity
  8
細線
 48
10.0
100
AcDbCircle
 10
174.666777487586
 20
388.452631545086
 30
0.0
 40
9.409426936319138
100
AcDbArc
 50
333.148818773055
 51
26.851181226945
  0
ARC
  5
4E7C
330
1A
100
AcDbEntity
  8
細線
 48
10.0
100
AcDbCircle
 10
197.339681625845
 20
388.452631545086
 30
0.0
 40
9.409426936312773
100
AcDbArc
 50
153.148818773033
 51
206.851181226967
  0
ARC
  5
4E7D
330
1A
100
AcDbEntity
  8
細線
 48
10.0
100
AcDbCircle
 10
182.71698990579
 20
389.702631545086
 30
0.0
 40
13.44464491725928
100
AcDbArc
 50
155.852643100039
 51
204.147356899961
  0
ARC
  5
4E7E
330
1A
100
AcDbEntity
  8
細線
 48
10.0
100
AcDbCircle
 10
213.825848480166
 20
389.702631545086
 30
0.0
 40
13.44464491726098
100
AcDbArc
 50
155.852643100039
 51
204.147356899961
  0
ARC
  5
4E7F
330
1A
100
AcDbEntity
  8
細線
 48
10.0
100
AcDbCircle
 10
140.969087017875
 20
389.702631545086
 30
0.0
 40
13.44464491726098
100
AcDbArc
 50
155.852643100039
 51
204.147356899961
  0
ARC
  5
4E80
330
1A
100
AcDbEntity
  8
細線
 48
10.0
100
AcDbCircle
 10
109.751025265406
 20
389.679272880437
 30
0.0
 40
13.33546219693629
100
AcDbArc
 50
155.752282605285
 51
204.247717394713
  0
ARC
  5
4E81
330
1A
100
AcDbEntity
  8
細線
 48
10.0
100
AcDbCircle
 10
124.482920163554
 20
388.452631545086
 30
0.0
 40
9.409426936312773
100
AcDbArc
 50
153.148818773033
 51
206.851181226967
  0
ARC
  5
4E82
330
1A
100
AcDbEntity
  8
細線
 48
10.0
100
AcDbCircle
 10
101.810016025295
 20
388.452631545086
 30
0.0
 40
9.409426936319138
100
AcDbArc
 50
333.148818773055
 51
26.851181226945
  0
ARC
  5
4E83
330
1A
100
AcDbEntity
  8
細線
 48
10.0
100
AcDbCircle
 10
118.599871923411
 20
388.452631545086
 30
0.0
 40
9.409426936313837
100
AcDbArc
 50
153.148818773033
 51
206.851181226967
  0
ARC
  5
4E84
330
1A
100
AcDbEntity
  8
細線
 48
10.0
100
AcDbCircle
 10
85.214644568363
 20
378.679273182051
 30
0.0
 40
13.55386964725521
100
AcDbArc
 50
335.951387681257
 51
24.048608711802
  0
ARC
  5
4E85
330
1A
100
AcDbEntity
  8
細線
 48
10.0
100
AcDbCircle
 10
116.432706343694
 20
378.702631844902
 30
0.0
 40
13.44464631892182
100
AcDbArc
 50
335.852644377744
 51
24.147351999997
  0
ARC
  5
4E86
330
1A
100
AcDbEntity
  8
細線
 48
10.0
100
AcDbCircle
 10
107.693064265437
 20
379.952631545086
 30
0.0
 40
9.409426936320505
100
AcDbArc
 50
333.148818773055
 51
26.851181226945
  0
ARC
  5
4E87
330
1A
100
AcDbEntity
  8
細線
 48
10.0
100
AcDbCircle
 10
101.810016025295
 20
379.952631545086
 30
0.0
 40
9.409426936319111
100
AcDbArc
 50
333.148818773055
 51
26.851181226945
  0
ARC
  5
4E88
330
1A
100
AcDbEntity
  8
細線
 48
10.0
100
AcDbCircle
 10
124.482920163554
 20
379.952631545086
 30
0.0
 40
9.409426936313128
100
AcDbArc
 50
153.148818773033
 51
206.851181226967
  0
ARC
  5
4E89
330
1A
100
AcDbEntity
  8
細線
 48
10.0
100
AcDbCircle
 10
87.057597957033
 20
390.190190472948
 30
0.0
 40
11.64615199612067
100
AcDbArc
 50
12.458442464368
 51
25.238247931289
  0
ARC
  5
4E8A
330
1A
100
AcDbEntity
  8
細線
 48
10.0
100
AcDbCircle
 10
140.970259947703
 20
378.702631545086
 30
0.0
 40
13.44571522002898
100
AcDbArc
 50
192.892317105158
 51
204.145312225804
  0
LINE
  5
4E8B
330
1A
100
AcDbEntity
  8
隠れ線
 48
10.0
100
AcDbLine
 10
278.073247383828
 20
375.702631545086
 30
0.0
 11
311.390045212736
 21
375.702631545086
 31
0.0
  0
LINE
  5
4E8C
330
1A
100
AcDbEntity
  8
隠れ線
 48
10.0
100
AcDbLine
 10
276.398295020819
 20
392.702631545086
 30
0.0
 11
311.390045212736
 21
392.702631545086
 31
0.0
  0
LINE
  5
4E8D
330
1A
100
AcDbEntity
  8
外形線
 48
10.0
100
AcDbLine
 10
277.235771218512
 20
373.202631545086
 30
0.0
 11
311.390045212736
 21
373.202631545086
 31
0.0
  0
LINE
  5
4E8E
330
1A
100
AcDbEntity
  8
外形線
 48
10.0
100
AcDbLine
 10
277.235771218512
 20
395.202631545086
 30
0.0
 11
311.390045212736
 21
395.202631545086
 31
0.0
  0
ARC
  5
4E8F
330
1A
100
AcDbEntity
  8
細線
 48
10.0
100
AcDbCircle
 10
289.5051337846
 20
378.702631545086
 30
0.0
 40
13.44571522002898
100
AcDbArc
 50
192.892317105158
 51
204.145312225804
  0
ARC
  5
4E90
330
1A
100
AcDbEntity
  8
細線
 48
10.0
100
AcDbCircle
 10
233.858720783563
 20
389.702631069303
 30
0.0
 40
13.44464714157577
100
AcDbArc
 50
12.893361030079
 51
24.147354872351
  0
ARC
  5
4E91
330
1A
100
AcDbEntity
  8
細線
 48
10.0
100
AcDbCircle
 10
273.017794000451
 20
379.952631545086
 30
0.0
 40
9.409426936313128
100
AcDbArc
 50
153.148818773033
 51
206.851181226967
  0
ARC
  5
4E92
330
1A
100
AcDbEntity
  8
細線
 48
10.0
100
AcDbCircle
 10
250.344889862192
 20
379.952631545086
 30
0.0
 40
9.409426936319111
100
AcDbArc
 50
333.148818773055
 51
26.851181226945
  0
ARC
  5
4E93
330
1A
100
AcDbEntity
  8
細線
 48
10.0
100
AcDbCircle
 10
256.227938102334
 20
379.952631545086
 30
0.0
 40
9.409426936320505
100
AcDbArc
 50
333.148818773055
 51
26.851181226945
  0
ARC
  5
4E94
330
1A
100
AcDbEntity
  8
細線
 48
10.0
100
AcDbCircle
 10
264.967580180591
 20
378.702631844902
 30
0.0
 40
13.44464631892182
100
AcDbArc
 50
335.852644377744
 51
24.147351999997
  0
ARC
  5
4E95
330
1A
100
AcDbEntity
  8
細線
 48
10.0
100
AcDbCircle
 10
233.858721606215
 20
378.702631844902
 30
0.0
 40
13.44464631892319
100
AcDbArc
 50
335.852644377744
 51
24.147351999997
  0
ARC
  5
4E96
330
1A
100
AcDbEntity
  8
細線
 48
10.0
100
AcDbCircle
 10
267.134745760308
 20
388.452631545086
 30
0.0
 40
9.409426936313837
100
AcDbArc
 50
153.148818773033
 51
206.851181226967
  0
ARC
  5
4E97
330
1A
100
AcDbEntity
  8
細線
 48
10.0
100
AcDbCircle
 10
250.344889862192
 20
388.452631545086
 30
0.0
 40
9.409426936319138
100
AcDbArc
 50
333.148818773055
 51
26.851181226945
  0
ARC
  5
4E98
330
1A
100
AcDbEntity
  8
細線
 48
10.0
100
AcDbCircle
 10
273.017794000451
 20
388.452631545086
 30
0.0
 40
9.409426936312773
100
AcDbArc
 50
153.148818773033
 51
206.851181226967
  0
ARC
  5
4E99
330
1A
100
AcDbEntity
  8
細線
 48
10.0
100
AcDbCircle
 10
258.395102280396
 20
389.702631545086
 30
0.0
 40
13.44464491725928
100
AcDbArc
 50
155.852643100039
 51
204.147356899961
  0
ARC
  5
4E9A
330
1A
100
AcDbEntity
  8
細線
 48
10.0
100
AcDbCircle
 10
289.503960854772
 20
389.702631545086
 30
0.0
 40
13.44464491726098
100
AcDbArc
 50
155.85264310004
 51
204.14735689996
  0
LINE
  5
4E9B
330
1A
100
AcDbEntity
  8
隠れ線
 48
10.0
100
AcDbLine
 10
211.890045212736
 20
375.702631545086
 30
0.0
 11
246.964388809454
 21
375.702631545086
 31
0.0
  0
LINE
  5
4E9C
330
1A
100
AcDbEntity
  8
隠れ線
 48
10.0
100
AcDbLine
 10
211.890045212736
 20
392.702631545086
 30
0.0
 11
245.289436446445
 21
392.702631545086
 31
0.0
  0
LINE
  5
4E9D
330
1A
100
AcDbEntity
  8
隠れ線
 48
10.0
100
AcDbLine
 10
311.390045212736
 20
392.702631545086
 30
0.0
 11
311.390045212736
 21
375.702631545086
 31
0.0
  0
LINE
  5
4E9E
330
1A
100
AcDbEntity
  8
隠れ線
 48
10.0
100
AcDbLine
 10
211.390045212736
 20
376.202631545086
 30
0.0
 11
211.890045212736
 21
375.702631545086
 31
0.0
  0
LINE
  5
4E9F
330
1A
100
AcDbEntity
  8
隠れ線
 48
10.0
100
AcDbLine
 10
211.390045212736
 20
392.202631545086
 30
0.0
 11
211.390045212736
 21
376.202631545086
 31
0.0
  0
LINE
  5
4EA0
330
1A
100
AcDbEntity
  8
隠れ線
 48
10.0
100
AcDbLine
 10
211.890045212736
 20
392.702631545086
 30
0.0
 11
211.390045212736
 21
392.202631545086
 31
0.0
  0
DIMENSION
  5
4EA1
330
1A
100
AcDbEntity
  8
寸法線
 48
10.0
100
AcDbDimension
  2
*D38
 10
20.70846709528
 20
373.155914215788
 30
0.0
 11
20.70846709528
 21
411.021150436261
 31
0.0
 70
   160
  1
φ<>
  3
ISO-25
100
AcDbAlignedDimension
 13
61.390045212736
 23
395.155914215788
 33
0.0
 14
61.390045212736
 24
373.155914215788
 34
0.0
 50
90.0
100
AcDbRotatedDimension
1001
ACAD
1000
DSTYLE
1002
{
1070
     5
1000
OPEN30
1070
    41
1040
6.0
1070
    47
1040
0.1
1070
    48
1040
0.1
1070
    73
1070
     0
1070
   140
1040
8.0
1070
   271
1070
     1
1070
   272
1070
     1
1070
   341
1005
2AF4
1002
}
  0
DIMENSION
  5
4EA2
330
1A
100
AcDbEntity
  8
寸法線
 48
10.0
100
AcDbDimension
  2
*D39
 10
36.70846709528
 20
375.702631545086
 30
0.0
 11
36.70846709528
 21
407.527631545086
 31
0.0
 70
   160
  1
φ<>
  3
ISO-25
100
AcDbAlignedDimension
 13
62.390045212736
 23
392.702631545086
 33
0.0
 14
62.390045212736
 24
375.702631545086
 34
0.0
 50
90.0
100
AcDbRotatedDimension
1001
ACAD
1000
DSTYLE
1002
{
1070
     5
1000
OPEN30
1070
    41
1040
6.0
1070
    47
1040
0.1
1070
    48
1040
0.1
1070
    73
1070
     0
1070
   140
1040
8.0
1070
   271
1070
     1
1070
   272
1070
     1
1070
   341
1005
2AF4
1002
}
  0
LWPOLYLINE
  5
4EA3
330
1A
100
AcDbEntity
  8
隠れ線
 48
10.0
100
AcDbPolyline
 90
        6
 70
     0
 43
0.0
 10
96.762805433928
 20
392.702631545086
 10
62.390045212736
 20
392.702631545086
 10
61.390045212736
 20
391.702631545086
 10
61.390045212736
 20
376.702631545086
 10
62.390045212736
 20
375.702631545086
 10
98.437616510399
 20
375.702631545086
  0
LWPOLYLINE
  5
4EA4
330
1A
100
AcDbEntity
  8
隠れ線
 48
10.0
100
AcDbPolyline
 90
        4
 70
     0
 43
0.0
 10
200.720182646213
 20
392.702631545086
 10
211.390045212736
 20
392.702631545086
 10
211.390045212736
 20
375.702631545086
 10
202.395135009222
 20
375.702631545086
  0
LINE
  5
4EA5
330
1A
100
AcDbEntity
  8
外形線
 48
10.0
100
AcDbLine
 10
61.390045212736
 20
395.155914215788
 30
0.0
 11
97.592038807241
 21
395.155914215788
 31
0.0
  0
LINE
  5
4EA6
330
1A
100
AcDbEntity
  8
外形線
 48
10.0
100
AcDbLine
 10
61.390045212736
 20
373.155914215788
 30
0.0
 11
97.592038807241
 21
373.155914215788
 31
0.0
  0
LINE
  5
4EA7
330
1A
100
AcDbEntity
  8
細線
 48
10.0
100
AcDbLine
 10
96.762805433928
 20
392.702631545086
 30
0.0
 11
110.204943974356
 21
392.702631545086
 31
0.0
  0
LINE
  5
4EA8
330
1A
100
AcDbEntity
  8
細線
 48
10.0
100
AcDbLine
 10
116.0879922145
 20
392.702631545085
 30
0.0
 11
127.863421183923
 21
392.702631545086
 31
0.0
  0
LINE
  5
4EA9
330
1A
100
AcDbEntity
  8
細線
 48
10.0
100
AcDbLine
 10
98.437616510399
 20
375.702631545086
 30
0.0
 11
110.204943974356
 21
375.702631545086
 31
0.0
  0
LINE
  5
4EAA
330
1A
100
AcDbEntity
  8
細線
 48
10.0
100
AcDbLine
 10
116.0879922145
 20
375.702631545086
 30
0.0
 11
129.538373546931
 21
375.702631545086
 31
0.0
  0
LINE
  5
4EAB
330
1A
100
AcDbEntity
  8
細線
 48
10.0
100
AcDbLine
 10
169.611324071839
 20
392.702631545086
 30
0.0
 11
183.061705436647
 21
392.702631545085
 31
0.0
  0
LINE
  5
4EAC
330
1A
100
AcDbEntity
  8
細線
 48
10.0
100
AcDbLine
 10
188.944753676791
 20
392.702631545085
 30
0.0
 11
200.720182646213
 21
392.702631545086
 31
0.0
  0
LINE
  5
4EAD
330
1A
100
AcDbEntity
  8
細線
 48
10.0
100
AcDbLine
 10
183.061705436647
 20
375.702631545086
 30
0.0
 11
171.286276434848
 21
375.702631545086
 31
0.0
  0
LINE
  5
4EAE
330
1A
100
AcDbEntity
  8
細線
 48
10.0
100
AcDbLine
 10
188.944753676791
 20
375.702631545085
 30
0.0
 11
202.395135009222
 21
375.702631545086
 31
0.0
  0
LINE
  5
4EAF
330
1A
100
AcDbEntity
  8
細線
 48
10.0
100
AcDbLine
 10
245.289436446445
 20
392.702631545086
 30
0.0
 11
258.739817811253
 21
392.702631545085
 31
0.0
  0
LINE
  5
4EB0
330
1A
100
AcDbEntity
  8
細線
 48
10.0
100
AcDbLine
 10
264.622866051397
 20
392.702631545085
 30
0.0
 11
276.398295020819
 21
392.702631545086
 31
0.0
  0
LINE
  5
4EB1
330
1A
100
AcDbEntity
  8
細線
 48
10.0
100
AcDbLine
 10
246.964388809454
 20
375.702631545086
 30
0.0
 11
258.739817811253
 21
375.702631545086
 31
0.0
  0
LINE
  5
4EB2
330
1A
100
AcDbEntity
  8
細線
 48
10.0
100
AcDbLine
 10
264.622866051396
 20
375.702631545085
 30
0.0
 11
278.073247383828
 21
375.702631545086
 31
0.0
  0
ARC
  5
4EB3
330
1A
100
AcDbEntity
  8
寸法線
100
AcDbCircle
 10
259.213406822263
 20
301.793499674207
 30
0.0
 40
1.76059
100
AcDbArc
 50
252.903398883406
 51
337.412611017141
  0
ARC
  5
4EB4
330
1A
100
AcDbEntity
  8
寸法線
100
AcDbCircle
 10
254.667386822263
 20
305.114727674207
 30
0.0
 40
5.02039
100
AcDbArc
 50
274.628927150735
 51
33.374029121142
  0
ARC
  5
4EB5
330
1A
100
AcDbEntity
  8
寸法線
100
AcDbCircle
 10
254.675808822263
 20
305.115643674207
 30
0.0
 40
5.013138
100
AcDbArc
 50
273.280470979898
 51
33.415912335969
  0
ARC
  5
4EB6
330
1A
100
AcDbEntity
  8
寸法線
100
AcDbCircle
 10
261.026394822263
 20
304.110699674207
 30
0.0
 40
4.62938
100
AcDbArc
 50
123.469024399698
 51
239.774013712205
  0
ARC
  5
4EB7
330
1A
100
AcDbEntity
  8
寸法線
100
AcDbCircle
 10
261.026394822263
 20
304.110699674207
 30
0.0
 40
4.629386
100
AcDbArc
 50
123.469024399698
 51
239.773899120646
  0
ARC
  5
4EB8
330
1A
100
AcDbEntity
  8
寸法線
100
AcDbCircle
 10
258.623318822263
 20
307.749249674207
 30
0.0
 40
0.26895
100
AcDbArc
 50
28.230948369042
 51
123.883845843396
  0
TEXT
  5
4EB9
330
1A
100
AcDbEntity
  8
寸法線
100
AcDbText
 10
261.952236822263
 20
299.502971674207
 30
0.0
 40
4.0
  1
３
 41
0.854632287386
  7
EXCADSTD
 72
     5
 11
264.573109170246
 21
299.502971674207
 31
0.0
100
AcDbText
  0
ARC
  5
4EBA
330
1A
100
AcDbEntity
  8
寸法線
100
AcDbCircle
 10
187.938153507508
 20
301.387094581299
 30
0.0
 40
1.76059
100
AcDbArc
 50
252.903398883406
 51
337.412611017141
  0
ARC
  5
4EBB
330
1A
100
AcDbEntity
  8
寸法線
100
AcDbCircle
 10
183.392133507508
 20
304.708382581299
 30
0.0
 40
5.02039
100
AcDbArc
 50
274.628927150735
 51
33.374029121142
  0
ARC
  5
4EBC
330
1A
100
AcDbEntity
  8
寸法線
100
AcDbCircle
 10
183.400557507508
 20
304.709238581299
 30
0.0
 40
5.013138
100
AcDbArc
 50
273.280470979898
 51
33.415912335969
  0
ARC
  5
4EBD
330
1A
100
AcDbEntity
  8
寸法線
100
AcDbCircle
 10
189.751143507508
 20
303.704354581299
 30
0.0
 40
4.62938
100
AcDbArc
 50
123.469024399698
 51
239.774013712205
  0
ARC
  5
4EBE
330
1A
100
AcDbEntity
  8
寸法線
100
AcDbCircle
 10
189.751143507508
 20
303.704354581299
 30
0.0
 40
4.629386
100
AcDbArc
 50
123.469024399698
 51
239.773899120646
  0
ARC
  5
4EBF
330
1A
100
AcDbEntity
  8
寸法線
100
AcDbCircle
 10
187.348065507508
 20
307.342904581299
 30
0.0
 40
0.26895
100
AcDbArc
 50
28.230948369017
 51
123.883845843401
  0
TEXT
  5
4EC0
330
1A
100
AcDbEntity
  8
寸法線
100
AcDbText
 10
190.677045507508
 20
299.096566581299
 30
0.0
 40
4.0
  1
２
 41
0.786507233152
  7
EXCADSTD
 72
     5
 11
193.089001022506
 21
299.096566581299
 31
0.0
100
AcDbText
  0
ARC
  5
4EC1
330
1A
100
AcDbEntity
  8
寸法線
100
AcDbCircle
 10
109.419771703752
 20
301.26327232345
 30
0.0
 40
1.76059
100
AcDbArc
 50
252.903398883406
 51
337.412611017141
  0
ARC
  5
4EC2
330
1A
100
AcDbEntity
  8
寸法線
100
AcDbCircle
 10
104.873751703752
 20
304.58450032345
 30
0.0
 40
5.02039
100
AcDbArc
 50
274.628927150735
 51
33.374029121142
  0
ARC
  5
4EC3
330
1A
100
AcDbEntity
  8
寸法線
100
AcDbCircle
 10
104.882113703752
 20
304.58541632345
 30
0.0
 40
5.013138
100
AcDbArc
 50
273.280470979898
 51
33.415912335969
  0
ARC
  5
4EC4
330
1A
100
AcDbEntity
  8
寸法線
100
AcDbCircle
 10
111.232699703752
 20
303.58047232345
 30
0.0
 40
4.62938
100
AcDbArc
 50
123.469024399698
 51
239.774013712205
  0
ARC
  5
4EC5
330
1A
100
AcDbEntity
  8
寸法線
100
AcDbCircle
 10
111.232699703752
 20
303.58047232345
 30
0.0
 40
4.629386
100
AcDbArc
 50
123.469024399698
 51
239.773899120646
  0
ARC
  5
4EC6
330
1A
100
AcDbEntity
  8
寸法線
100
AcDbCircle
 10
108.829623703752
 20
307.21902232345
 30
0.0
 40
0.26895
100
AcDbArc
 50
28.23094836902
 51
123.883845843413
  0
TEXT
  5
4EC7
330
1A
100
AcDbEntity
  8
寸法線
100
AcDbText
 10
111.758577703752
 20
299.17269632345
 30
0.0
 40
4.0
  1
１
 41
1.5
  7
EXCADSTD
 72
     5
 11
115.758577703752
 21
299.17269632345
 31
0.0
100
AcDbText
  0
ARC
  5
4EC8
330
1A
100
AcDbEntity
  8
寸法線
100
AcDbCircle
 10
189.280421797241
 20
281.521740760447
 30
0.0
 40
1.76059
100
AcDbArc
 50
252.903398883406
 51
337.412611017141
  0
ARC
  5
4EC9
330
1A
100
AcDbEntity
  8
寸法線
100
AcDbCircle
 10
184.734401797241
 20
284.842968760447
 30
0.0
 40
5.02039
100
AcDbArc
 50
274.628927150735
 51
33.374029121142
  0
ARC
  5
4ECA
330
1A
100
AcDbEntity
  8
寸法線
100
AcDbCircle
 10
184.742701797241
 20
284.843884760447
 30
0.0
 40
5.013138
100
AcDbArc
 50
273.280470979895
 51
33.415912335969
  0
ARC
  5
4ECB
330
1A
100
AcDbEntity
  8
寸法線
100
AcDbCircle
 10
191.093287797241
 20
283.838940760448
 30
0.0
 40
4.62938
100
AcDbArc
 50
123.469024399698
 51
239.774013712205
  0
ARC
  5
4ECC
330
1A
100
AcDbEntity
  8
寸法線
100
AcDbCircle
 10
191.093287797241
 20
283.838940760448
 30
0.0
 40
4.629386
100
AcDbArc
 50
123.469024399698
 51
239.773899120643
  0
ARC
  5
4ECD
330
1A
100
AcDbEntity
  8
寸法線
100
AcDbCircle
 10
188.690211797241
 20
287.477490760447
 30
0.0
 40
0.26895
100
AcDbArc
 50
28.230948369017
 51
123.883845843401
  0
LINE
  5
50D5
330
1A
100
AcDbEntity
  8
寸法線
100
AcDbLine
 10
-48.109009758588
 20
193.539462921922
 30
0.0
 11
-48.109009758588
 21
212.289462921923
 31
0.0
  0
LINE
  5
50D6
330
1A
100
AcDbEntity
  8
寸法線
100
AcDbLine
 10
-19.359009758588
 20
193.539462921923
 30
0.0
 11
-48.109009758588
 21
193.539462921922
 31
0.0
  0
CIRCLE
  5
50D7
330
1A
100
AcDbEntity
  8
寸法線
100
AcDbCircle
 10
36.890990241412
 20
193.539462921923
 30
0.0
 40
3.75
  0
CIRCLE
  5
50D8
330
1A
100
AcDbEntity
  8
寸法線
100
AcDbCircle
 10
36.890990241412
 20
193.539462921923
 30
0.0
 40
2.5
  0
CIRCLE
  5
50D9
330
1A
100
AcDbEntity
  8
寸法線
100
AcDbCircle
 10
11.890990241412
 20
193.539462921923
 30
0.0
 40
2.5
  0
CIRCLE
  5
50DA
330
1A
100
AcDbEntity
  8
寸法線
100
AcDbCircle
 10
11.890990241412
 20
193.539462921923
 30
0.0
 40
3.75
  0
CIRCLE
  5
50DB
330
1A
100
AcDbEntity
  8
寸法線
100
AcDbCircle
 10
-13.109009758588
 20
193.539462921923
 30
0.0
 40
2.5
  0
CIRCLE
  5
50DC
330
1A
100
AcDbEntity
  8
寸法線
100
AcDbCircle
 10
-13.109009758588
 20
193.539462921923
 30
0.0
 40
3.75
  0
LINE
  5
50DD
330
1A
100
AcDbEntity
  8
寸法線
100
AcDbLine
 10
46.890990241412
 20
218.539462921923
 30
0.0
 11
46.890990241412
 21
227.289462921923
 31
0.0
  0
LINE
  5
50DE
330
1A
100
AcDbEntity
  8
寸法線
100
AcDbLine
 10
-23.109009758588
 20
227.289462921923
 30
0.0
 11
-23.109009758588
 21
218.539462921923
 31
0.0
  0
LINE
  5
50DF
330
1A
100
AcDbEntity
  8
寸法線
100
AcDbLine
 10
46.890990241412
 20
218.539462921923
 30
0.0
 11
-23.109009758588
 21
218.539462921923
 31
0.0
  0
LINE
  5
50E0
330
1A
100
AcDbEntity
  8
寸法線
100
AcDbLine
 10
43.140990241412
 20
193.539462921923
 30
0.0
 11
71.890990241412
 21
193.539462921923
 31
0.0
  0
LINE
  5
50E1
330
1A
100
AcDbEntity
  8
寸法線
100
AcDbLine
 10
71.890990241412
 20
193.539462921923
 30
0.0
 11
71.890990241412
 21
212.289462921923
 31
0.0
  0
LINE
  5
50E2
330
1A
100
AcDbEntity
  8
寸法線
100
AcDbLine
 10
36.890990241412
 20
218.539462921923
 30
0.0
 11
36.890990241412
 21
197.289462921923
 31
0.0
  0
LINE
  5
50E3
330
1A
100
AcDbEntity
  8
寸法線
100
AcDbLine
 10
11.890990241412
 20
218.539462921923
 30
0.0
 11
11.890990241412
 21
197.289462921923
 31
0.0
  0
LINE
  5
50E4
330
1A
100
AcDbEntity
  8
寸法線
100
AcDbLine
 10
-13.109009758588
 20
218.539462921923
 30
0.0
 11
-13.109009758588
 21
197.289462921923
 31
0.0
  0
TEXT
  5
50E5
330
1A
100
AcDbEntity
  8
寸法線
100
AcDbText
 10
-19.359009758588
 20
177.601962921923
 30
0.0
 40
8.75
  1
B1
100
AcDbText
  0
TEXT
  5
50E6
330
1A
100
AcDbEntity
  8
寸法線
100
AcDbText
 10
5.640990241412
 20
177.601962921923
 30
0.0
 40
8.75
  1
NC
100
AcDbText
  0
TEXT
  5
50E7
330
1A
100
AcDbEntity
  8
寸法線
100
AcDbText
 10
30.640990241412
 20
177.601962921923
 30
0.0
 40
8.75
  1
B2
100
AcDbText
  0
LINE
  5
50E8
330
1A
100
AcDbEntity
  8
寸法線
100
AcDbLine
 10
36.890990241412
 20
176.039462921923
 30
0.0
 11
36.890990241412
 21
156.039462921923
 31
0.0
  0
LINE
  5
50E9
330
1A
100
AcDbEntity
  8
寸法線
100
AcDbLine
 10
31.890990241412
 20
151.039462921923
 30
0.0
 11
-48.109009758588
 21
151.039462921923
 31
0.0
  0
TEXT
  5
50EA
330
1A
100
AcDbEntity
  8
寸法線
100
AcDbText
 10
-90.484009758588
 20
146.664462921923
 30
0.0
 40
8.75
  1
変換器へ
100
AcDbText
  0
ARC
  5
50EB
330
1A
100
AcDbEntity
  8
寸法線
100
AcDbCircle
 10
31.890990241412
 20
156.039462921923
 30
0.0
 40
5.0
100
AcDbArc
 50
270.0
 51
0.0
  0
ARC
  5
50EC
330
1A
100
AcDbEntity
  8
寸法線
100
AcDbCircle
 10
6.890990241412
 20
156.039462921923
 30
0.0
 40
5.0
100
AcDbArc
 50
270.0
 51
0.0
  0
LINE
  5
50ED
330
1A
100
AcDbEntity
  8
寸法線
100
AcDbLine
 10
11.890990241412
 20
176.039462921923
 30
0.0
 11
11.890990241412
 21
156.039462921923
 31
0.0
  0
ARC
  5
50EE
330
1A
100
AcDbEntity
  8
寸法線
100
AcDbCircle
 10
-18.109009758588
 20
156.039462921923
 30
0.0
 40
5.0
100
AcDbArc
 50
270.0
 51
0.0
  0
LINE
  5
50EF
330
1A
100
AcDbEntity
  8
寸法線
100
AcDbLine
 10
-13.109009758588
 20
176.039462921923
 30
0.0
 11
-13.109009758588
 21
156.039462921923
 31
0.0
  0
TEXT
  5
50F0
330
1A
100
AcDbEntity
  8
寸法線
100
AcDbText
 10
562.80224171289
 20
284.574133052772
 30
0.0
 40
8.75
  1
ia3nG5
100
AcDbText
  0
TEXT
  5
50F1
330
1A
100
AcDbEntity
  8
寸法線
100
AcDbText
 10
562.80224171289
 20
272.074133052772
 30
0.0
 40
8.75
  1
労検第T68867号
100
AcDbText
  0
TEXT
  5
50F2
330
1A
100
AcDbEntity
  8
寸法線
100
AcDbText
 10
562.80224171289
 20
259.574133052772
 30
0.0
 40
8.75
  1
本質安全防爆構造
100
AcDbText
  0
LINE
  5
50F3
330
1A
100
AcDbEntity
  8
寸法線
100
AcDbLine
 10
88.580560897747
 20
122.636317542787
 30
0.0
 11
658.53948410774
 21
122.636317542787
 31
0.0
  0
LINE
  5
50F4
330
1A
100
AcDbEntity
  8
寸法線
100
AcDbLine
 10
120.580530897748
 20
109.58369143521
 30
0.0
 11
120.580530897747
 21
228.074700295826
 31
0.0
  0
LINE
  5
50F5
330
1A
100
AcDbEntity
  8
寸法線
100
AcDbLine
 10
88.580560897747
 20
214.004700295826
 30
0.0
 11
658.53948410774
 21
214.004700295826
 31
0.0
  0
LINE
  5
50F6
330
1A
100
AcDbEntity
  8
寸法線
100
AcDbLine
 10
88.580560897747
 20
228.074700295826
 30
0.0
 11
658.53948410774
 21
228.074700295826
 31
0.0
  0
LINE
  5
50F7
330
1A
100
AcDbEntity
  8
寸法線
100
AcDbLine
 10
88.580560897747
 20
109.58369143521
 30
0.0
 11
88.580560897747
 21
228.074700295826
 31
0.0
  0
LINE
  5
50F8
330
1A
100
AcDbEntity
  8
寸法線
100
AcDbLine
 10
341.141369030931
 20
109.58369143521
 30
0.0
 11
341.141369030931
 21
228.074700295826
 31
0.0
  0
LINE
  5
50F9
330
1A
100
AcDbEntity
  8
寸法線
100
AcDbLine
 10
88.580560897747
 20
187.899448080672
 30
0.0
 11
658.53948410774
 21
187.899448080672
 31
0.0
  0
LINE
  5
50FA
330
1A
100
AcDbEntity
  8
寸法線
100
AcDbLine
 10
88.580560897747
 20
174.846821973096
 30
0.0
 11
658.53948410774
 21
174.846821973096
 31
0.0
  0
LINE
  5
50FB
330
1A
100
AcDbEntity
  8
寸法線
100
AcDbLine
 10
88.580560897747
 20
161.794195865519
 30
0.0
 11
658.53948410774
 21
161.794195865519
 31
0.0
  0
LINE
  5
50FC
330
1A
100
AcDbEntity
  8
寸法線
100
AcDbLine
 10
88.580560897747
 20
148.741569757941
 30
0.0
 11
658.53948410774
 21
148.741569757941
 31
0.0
  0
LINE
  5
50FD
330
1A
100
AcDbEntity
  8
寸法線
100
AcDbLine
 10
88.580560897747
 20
135.688943650364
 30
0.0
 11
658.53948410774
 21
135.688943650364
 31
0.0
  0
LINE
  5
50FE
330
1A
100
AcDbEntity
  8
寸法線
100
AcDbLine
 10
372.897687595219
 20
109.58369143521
 30
0.0
 11
372.897687595219
 21
228.074700295826
 31
0.0
  0
LINE
  5
50FF
330
1A
100
AcDbEntity
  8
寸法線
100
AcDbLine
 10
88.580560897747
 20
200.952074188249
 30
0.0
 11
658.53948410774
 21
200.952074188249
 31
0.0
  0
MTEXT
  5
5100
102
{ACAD_XDICTIONARY
360
5101
102
}
330
1A
100
AcDbEntity
  8
寸法線
 48
10.0
100
AcDbMText
 10
161.382522072146
 20
225.217919264432
 30
0.0
 40
8.0
 41
81.603982348796
 71
     2
 72
     5
  1
型式\PTSE-A1FA-025\PTSE-A1FA-030\PTSE-A1FA-035\PTSE-A1FA-040\PTSE-A1FA-045\PTSE-A1FA-050\PTSE-A1FA-055\PTSE-A1FA-060
1001
ACADANNOTATIVE
1000
AnnotativeData
1002
{
1070
     1
1070
     0
1002
}
1001
ACAD
1000
MTEXTBEGIN
1070
    44
1040
0.99
1000
MTEXTEND
  0
LINE
  5
5104
330
1A
100
AcDbEntity
  8
寸法線
 48
10.0
100
AcDbLine
 10
202.184513246544
 20
228.074700295826
 30
0.0
 11
202.184513246544
 21
109.58369143521
 31
0.0
  0
SPLINE
  5
5105
330
1A
100
AcDbEntity
  8
寸法線
 48
10.0
100
AcDbSpline
210
0.0
220
0.0
230
1.0
 70
  1064
 71
     3
 72
    13
 73
     9
 74
     7
 42
0.000000001
 43
0.0000000001
 44
0.0000000001
 40
0.0
 40
0.0
 40
0.0
 40
0.0
 40
3.546053604694618
 40
9.278996093298897
 40
13.89970108471585
 40
17.09539662994943
 40
18.79470455702451
 40
20.02704699455836
 40
20.02704699455836
 40
20.02704699455836
 40
20.02704699455836
 10
210.6201282965336
 20
217.1934759878125
 30
0.0
 10
211.6746565656119
 20
217.6806047220167
 30
0.0
 10
214.4340518765279
 20
218.9552796495558
 30
0.0
 10
215.0989887828881
 20
227.8537365223744
 30
0.0
 10
211.1656857637414
 20
221.4536496984324
 30
0.0
 10
211.3379219599428
 20
218.2046321398638
 30
0.0
 10
213.410203657592
 20
216.9318130630539
 30
0.0
 10
214.3268077358281
 20
217.3903301469236
 30
0.0
 10
214.7121095158981
 20
217.5830714327222
 30
0.0
 11
210.6201282965336
 21
217.1934759878125
 31
0.0
 11
213.4455437294824
 21
219.3362601110089
 31
0.0
 11
214.0788266226901
 21
225.0341178097247
 31
0.0
 11
211.5944102228318
 21
221.1381468434801
 31
0.0
 11
212.0328372092943
 21
217.9726687128706
 31
0.0
 11
213.5429716828551
 21
217.1934759878125
 31
0.0
 11
214.7121095158981
 21
217.5830714327222
 31
0.0
  0
SPLINE
  5
5106
330
1A
100
AcDbEntity
  8
寸法線
 48
10.0
100
AcDbSpline
210
0.0
220
0.0
230
1.0
 70
  1064
 71
     3
 72
    13
 73
     9
 74
     7
 42
0.000000001
 43
0.0000000001
 44
0.0000000001
 40
0.0
 40
0.0
 40
0.0
 40
0.0
 40
3.546053604694618
 40
9.278996093298897
 40
13.89970108471585
 40
17.09539662994943
 40
18.79470455702451
 40
20.02704699455836
 40
20.02704699455836
 40
20.02704699455836
 40
20.02704699455836
 10
234.8590214007535
 20
217.1934759878125
 30
0.0
 10
235.9135496698318
 20
217.6806047220167
 30
0.0
 10
238.6729449807477
 20
218.9552796495558
 30
0.0
 10
239.3378818871079
 20
227.8537365223744
 30
0.0
 10
235.4045788679613
 20
221.4536496984324
 30
0.0
 10
235.5768150641626
 20
218.2046321398638
 30
0.0
 10
237.6490967618118
 20
216.9318130630539
 30
0.0
 10
238.5657008400479
 20
217.3903301469236
 30
0.0
 10
238.9510026201179
 20
217.5830714327222
 30
0.0
 11
234.8590214007535
 21
217.1934759878125
 31
0.0
 11
237.6844368337023
 21
219.3362601110089
 31
0.0
 11
238.31771972691
 21
225.0341178097247
 31
0.0
 11
235.8333033270517
 21
221.1381468434801
 31
0.0
 11
236.2717303135141
 21
217.9726687128706
 31
0.0
 11
237.7818647870749
 21
217.1934759878125
 31
0.0
 11
238.9510026201179
 21
217.5830714327222
 31
0.0
  0
LINE
  5
5107
330
1A
100
AcDbEntity
  8
寸法線
 48
10.0
100
AcDbLine
 10
228.306977153661
 20
228.074700295826
 30
0.0
 11
228.306977153661
 21
109.58369143521
 31
0.0
  0
LINE
  5
5108
330
1A
100
AcDbEntity
  8
寸法線
 48
10.0
100
AcDbLine
 10
252.52621953354
 20
228.074700295826
 30
0.0
 11
252.52621953354
 21
109.58369143521
 31
0.0
  0
LINE
  5
5109
330
1A
100
AcDbEntity
  8
寸法線
 48
10.0
100
AcDbLine
 10
276.745461913419
 20
228.074700295826
 30
0.0
 11
276.745461913419
 21
109.58369143521
 31
0.0
  0
LINE
  5
510A
330
1A
100
AcDbEntity
  8
寸法線
 48
10.0
100
AcDbLine
 10
302.596037030931
 20
228.074700295826
 30
0.0
 11
302.596037030931
 21
109.58369143521
 31
0.0
  0
TEXT
  5
510B
330
1A
100
AcDbEntity
  8
寸法線
 48
10.0
100
AcDbText
 10
241.317050198238
 20
217.277803727156
 30
0.0
 40
5.2
  1
1
100
AcDbText
  0
SPLINE
  5
510C
330
1A
100
AcDbEntity
  8
寸法線
 48
10.0
100
AcDbSpline
210
0.0
220
0.0
230
1.0
 70
  1064
 71
     3
 72
    13
 73
     9
 74
     7
 42
0.000000001
 43
0.0000000001
 44
0.0000000001
 40
0.0
 40
0.0
 40
0.0
 40
0.0
 40
3.546053604694664
 40
9.278996093298936
 40
13.89970108471589
 40
17.09539662994947
 40
18.79470455702455
 40
20.0270469945584
 40
20.0270469945584
 40
20.0270469945584
 40
20.0270469945584
 10
260.7095965182654
 20
217.1934759878125
 30
0.0
 10
261.7641247873437
 20
217.6806047220167
 30
0.0
 10
264.5235200982596
 20
218.9552796495558
 30
0.0
 10
265.1884570046197
 20
227.8537365223744
 30
0.0
 10
261.2551539854733
 20
221.4536496984324
 30
0.0
 10
261.4273901816745
 20
218.2046321398638
 30
0.0
 10
263.4996718793238
 20
216.9318130630541
 30
0.0
 10
264.4162759575598
 20
217.3903301469236
 30
0.0
 10
264.8015777376298
 20
217.5830714327222
 30
0.0
 11
260.7095965182654
 21
217.1934759878125
 31
0.0
 11
263.5350119512142
 21
219.3362601110089
 31
0.0
 11
264.1682948444218
 21
225.0341178097247
 31
0.0
 11
261.6838784445636
 21
221.1381468434801
 31
0.0
 11
262.122305431026
 21
217.9726687128706
 31
0.0
 11
263.6324399045868
 21
217.1934759878125
 31
0.0
 11
264.8015777376298
 21
217.5830714327222
 31
0.0
  0
TEXT
  5
510D
330
1A
100
AcDbEntity
  8
寸法線
 48
10.0
100
AcDbText
 10
267.167625315749
 20
217.277803727156
 30
0.0
 40
5.2
  1
2
100
AcDbText
  0
TEXT
  5
510E
330
1A
100
AcDbEntity
  8
寸法線
 48
10.0
100
AcDbText
 10
293.018200433261
 20
217.277803727156
 30
0.0
 40
5.2
  1
3
100
AcDbText
  0
SPLINE
  5
510F
330
1A
100
AcDbEntity
  8
寸法線
 48
10.0
100
AcDbSpline
210
0.0
220
0.0
230
1.0
 70
  1064
 71
     3
 72
    13
 73
     9
 74
     7
 42
0.000000001
 43
0.0000000001
 44
0.0000000001
 40
0.0
 40
0.0
 40
0.0
 40
0.0
 40
3.546053604694664
 40
9.278996093298936
 40
13.89970108471589
 40
17.09539662994947
 40
18.79470455702455
 40
20.0270469945584
 40
20.0270469945584
 40
20.0270469945584
 40
20.0270469945584
 10
286.5601716357772
 20
217.1934759878125
 30
0.0
 10
287.6146999048556
 20
217.6806047220167
 30
0.0
 10
290.3740952157715
 20
218.9552796495558
 30
0.0
 10
291.0390321221317
 20
227.8537365223744
 30
0.0
 10
287.1057291029851
 20
221.4536496984324
 30
0.0
 10
287.2779652991864
 20
218.2046321398638
 30
0.0
 10
289.3502469968357
 20
216.9318130630541
 30
0.0
 10
290.2668510750717
 20
217.3903301469236
 30
0.0
 10
290.6521528551417
 20
217.5830714327222
 30
0.0
 11
286.5601716357772
 21
217.1934759878125
 31
0.0
 11
289.3855870687261
 21
219.3362601110089
 31
0.0
 11
290.0188699619337
 21
225.0341178097247
 31
0.0
 11
287.5344535620754
 21
221.1381468434801
 31
0.0
 11
287.9728805485379
 21
217.9726687128706
 31
0.0
 11
289.4830150220987
 21
217.1934759878125
 31
0.0
 11
290.6521528551417
 21
217.5830714327222
 31
0.0
  0
MTEXT
  5
5110
102
{ACAD_XDICTIONARY
360
5111
102
}
330
1A
100
AcDbEntity
  8
寸法線
 48
10.0
100
AcDbMText
 10
310.300825739142
 20
224.856882637799
 30
0.0
 40
8.0
 41
19.321844296148
 71
     1
 72
     5
  1
記事
1001
ACADANNOTATIVE
1000
AnnotativeData
1002
{
1070
     1
1070
     0
1002
}
  0
MTEXT
  5
5114
102
{ACAD_XDICTIONARY
360
5115
102
}
330
1A
100
AcDbEntity
  8
寸法線
 48
10.0
100
AcDbMText
 10
348.461391458641
 20
224.856882637799
 30
0.0
 40
8.0
 41
27.29696969697
 71
     1
 72
     5
  1
台数\P\P 
1001
ACADANNOTATIVE
1000
AnnotativeData
1002
{
1070
     1
1070
     0
1002
}
  0
LINE
  5
5118
330
1A
100
AcDbEntity
  8
寸法線
100
AcDbLine
 10
375.432187643896
 20
109.58369143521
 30
0.0
 11
375.432187643896
 21
228.074700295826
 31
0.0
  0
MTEXT
  5
5119
102
{ACAD_XDICTIONARY
360
511A
102
}
330
1A
100
AcDbEntity
  8
寸法線
 48
10.0
100
AcDbMText
 10
446.288665414684
 20
225.217919264432
 30
0.0
 40
8.0
 41
77.713015541577
 71
     2
 72
     5
  1
型式\PTSE-A1FA-065\PTSE-A1FA-070\PTSE-A1FA-075\PTSE-A1FA-080\PTSE-A1FA-085\PTSE-A1FA-090\PTSE-A1FA-095\PTSE-A1FA-100
1001
ACADANNOTATIVE
1000
AnnotativeData
1002
{
1070
     1
1070
     0
1002
}
1001
ACAD
1000
MTEXTBEGIN
1070
    44
1040
0.99
1000
MTEXTEND
  0
SPLINE
  5
511D
330
1A
100
AcDbEntity
  8
寸法線
 48
10.0
100
AcDbSpline
210
0.0
220
0.0
230
1.0
 70
  1064
 71
     3
 72
    13
 73
     9
 74
     7
 42
0.000000001
 43
0.0000000001
 44
0.0000000001
 40
0.0
 40
0.0
 40
0.0
 40
0.0
 40
3.546053604694664
 40
9.278996093298941
 40
13.89970108471593
 40
17.09539662994951
 40
18.79470455702458
 40
20.02704699455843
 40
20.02704699455843
 40
20.02704699455843
 40
20.02704699455843
 10
496.2619248090546
 20
217.1934759878125
 30
0.0
 10
497.3164530781329
 20
217.6806047220167
 30
0.0
 10
500.0758483890489
 20
218.9552796495558
 30
0.0
 10
500.7407852954091
 20
227.8537365223744
 30
0.0
 10
496.8074822762624
 20
221.4536496984323
 30
0.0
 10
496.9797184724637
 20
218.2046321398638
 30
0.0
 10
499.0520001701132
 20
216.931813063054
 30
0.0
 10
499.968604248349
 20
217.3903301469236
 30
0.0
 10
500.3539060284191
 20
217.5830714327222
 30
0.0
 11
496.2619248090546
 21
217.1934759878125
 31
0.0
 11
499.0873402420034
 21
219.3362601110089
 31
0.0
 11
499.7206231352112
 21
225.0341178097247
 31
0.0
 11
497.2362067353528
 21
221.1381468434801
 31
0.0
 11
497.6746337218153
 21
217.9726687128706
 31
0.0
 11
499.1847681953761
 21
217.1934759878125
 31
0.0
 11
500.3539060284191
 21
217.5830714327222
 31
0.0
  0
SPLINE
  5
511E
330
1A
100
AcDbEntity
  8
寸法線
 48
10.0
100
AcDbSpline
210
0.0
220
0.0
230
1.0
 70
  1064
 71
     3
 72
    13
 73
     9
 74
     7
 42
0.000000001
 43
0.0000000001
 44
0.0000000001
 40
0.0
 40
0.0
 40
0.0
 40
0.0
 40
3.546053604694664
 40
9.278996093298941
 40
13.89970108471586
 40
17.09539662994944
 40
18.79470455702452
 40
20.02704699455827
 40
20.02704699455827
 40
20.02704699455827
 40
20.02704699455827
 10
520.5008179132744
 20
217.1934759878125
 30
0.0
 10
521.5553461823527
 20
217.6806047220167
 30
0.0
 10
524.3147414932686
 20
218.9552796495558
 30
0.0
 10
524.979678399629
 20
227.8537365223745
 30
0.0
 10
521.0463753804825
 20
221.4536496984323
 30
0.0
 10
521.2186115766838
 20
218.2046321398639
 30
0.0
 10
523.2908932743328
 20
216.9318130630539
 30
0.0
 10
524.2074973525689
 20
217.3903301469236
 30
0.0
 10
524.5927991326389
 20
217.5830714327222
 30
0.0
 11
520.5008179132744
 21
217.1934759878125
 31
0.0
 11
523.3262333462233
 21
219.3362601110089
 31
0.0
 11
523.959516239431
 21
225.0341178097247
 31
0.0
 11
521.4750998395727
 21
221.1381468434801
 31
0.0
 11
521.9135268260352
 21
217.9726687128706
 31
0.0
 11
523.423661299596
 21
217.1934759878125
 31
0.0
 11
524.5927991326389
 21
217.5830714327222
 31
0.0
  0
TEXT
  5
511F
330
1A
100
AcDbEntity
  8
寸法線
 48
10.0
100
AcDbText
 10
526.958846710759
 20
217.277803727156
 30
0.0
 40
5.2
  1
1
100
AcDbText
  0
SPLINE
  5
5120
330
1A
100
AcDbEntity
  8
寸法線
 48
10.0
100
AcDbSpline
210
0.0
220
0.0
230
1.0
 70
  1064
 71
     3
 72
    13
 73
     9
 74
     7
 42
0.000000001
 43
0.0000000001
 44
0.0000000001
 40
0.0
 40
0.0
 40
0.0
 40
0.0
 40
3.546053604694664
 40
9.278996093298915
 40
13.89970108471584
 40
17.09539662994942
 40
18.7947045570245
 40
20.02704699455846
 40
20.02704699455846
 40
20.02704699455846
 40
20.02704699455846
 10
546.3513930307864
 20
217.1934759878125
 30
0.0
 10
547.4059212998648
 20
217.6806047220167
 30
0.0
 10
550.1653166107807
 20
218.9552796495558
 30
0.0
 10
550.8302535171408
 20
227.8537365223744
 30
0.0
 10
546.8969504979941
 20
221.4536496984323
 30
0.0
 10
547.0691866941957
 20
218.2046321398639
 30
0.0
 10
549.1414683918447
 20
216.931813063054
 30
0.0
 10
550.0580724700808
 20
217.3903301469235
 30
0.0
 10
550.4433742501509
 20
217.5830714327222
 30
0.0
 11
546.3513930307864
 21
217.1934759878125
 31
0.0
 11
549.1768084637353
 21
219.3362601110089
 31
0.0
 11
549.8100913569427
 21
225.0341178097247
 31
0.0
 11
547.3256749570845
 21
221.1381468434801
 31
0.0
 11
547.764101943547
 21
217.9726687128706
 31
0.0
 11
549.2742364171078
 21
217.1934759878125
 31
0.0
 11
550.4433742501509
 21
217.5830714327222
 31
0.0
  0
TEXT
  5
5121
330
1A
100
AcDbEntity
  8
寸法線
 48
10.0
100
AcDbText
 10
552.809421828271
 20
217.277803727156
 30
0.0
 40
5.2
  1
2
100
AcDbText
  0
SPLINE
  5
5122
330
1A
100
AcDbEntity
  8
寸法線
 48
10.0
100
AcDbSpline
210
0.0
220
0.0
230
1.0
 70
  1064
 71
     3
 72
    13
 73
     9
 74
     7
 42
0.000000001
 43
0.0000000001
 44
0.0000000001
 40
0.0
 40
0.0
 40
0.0
 40
0.0
 40
3.546053604694664
 40
9.278996093298915
 40
13.89970108471584
 40
17.09539662994942
 40
18.7947045570245
 40
20.02704699455846
 40
20.02704699455846
 40
20.02704699455846
 40
20.02704699455846
 10
572.2019681482983
 20
217.1934759878125
 30
0.0
 10
573.2564964173766
 20
217.6806047220167
 30
0.0
 10
576.0158917282927
 20
218.9552796495558
 30
0.0
 10
576.6808286346527
 20
227.8537365223744
 30
0.0
 10
572.7475256155059
 20
221.4536496984323
 30
0.0
 10
572.9197618117075
 20
218.2046321398639
 30
0.0
 10
574.9920435093566
 20
216.931813063054
 30
0.0
 10
575.9086475875927
 20
217.3903301469235
 30
0.0
 10
576.2939493676628
 20
217.5830714327222
 30
0.0
 11
572.2019681482983
 21
217.1934759878125
 31
0.0
 11
575.0273835812471
 21
219.3362601110089
 31
0.0
 11
575.6606664744546
 21
225.0341178097247
 31
0.0
 11
573.1762500745964
 21
221.1381468434801
 31
0.0
 11
573.6146770610588
 21
217.9726687128706
 31
0.0
 11
575.1248115346197
 21
217.1934759878125
 31
0.0
 11
576.2939493676628
 21
217.5830714327222
 31
0.0
  0
TEXT
  5
5123
330
1A
100
AcDbEntity
  8
寸法線
 48
10.0
100
AcDbText
 10
578.659996945782
 20
217.277803727156
 30
0.0
 40
5.2
  1
3
100
AcDbText
  0
LINE
  5
5124
330
1A
100
AcDbEntity
  8
寸法線
100
AcDbLine
 10
407.432157643896
 20
109.58369143521
 30
0.0
 11
407.432157643896
 21
228.074700295826
 31
0.0
  0
LINE
  5
5125
330
1A
100
AcDbEntity
  8
寸法線
 48
10.0
100
AcDbLine
 10
485.145173185473
 20
228.074700295826
 30
0.0
 11
485.145173185473
 21
109.58369143521
 31
0.0
  0
LINE
  5
5126
330
1A
100
AcDbEntity
  8
寸法線
 48
10.0
100
AcDbLine
 10
512.54394886333
 20
228.074700295826
 30
0.0
 11
512.54394886333
 21
109.58369143521
 31
0.0
  0
LINE
  5
5127
330
1A
100
AcDbEntity
  8
寸法線
 48
10.0
100
AcDbLine
 10
538.6219829506
 20
228.074700295826
 30
0.0
 11
538.6219829506
 21
109.58369143521
 31
0.0
  0
LINE
  5
5128
330
1A
100
AcDbEntity
  8
寸法線
 48
10.0
100
AcDbLine
 10
562.38725842594
 20
228.074700295826
 30
0.0
 11
562.38725842594
 21
109.58369143521
 31
0.0
  0
LINE
  5
5129
330
1A
100
AcDbEntity
  8
寸法線
 48
10.0
100
AcDbLine
 10
588.237833543452
 20
228.074700295826
 30
0.0
 11
588.237833543452
 21
109.58369143521
 31
0.0
  0
LINE
  5
512A
330
1A
100
AcDbEntity
  8
寸法線
100
AcDbLine
 10
626.783165543451
 20
109.58369143521
 30
0.0
 11
626.783165543451
 21
228.074700295826
 31
0.0
  0
LINE
  5
512B
330
1A
100
AcDbEntity
  8
寸法線
100
AcDbLine
 10
658.53948410774
 20
109.58369143521
 30
0.0
 11
658.53948410774
 21
228.074700295826
 31
0.0
  0
LINE
  5
512C
330
1A
100
AcDbEntity
  8
寸法線
100
AcDbLine
 10
88.580560897747
 20
109.58369143521
 30
0.0
 11
658.53948410774
 21
109.58369143521
 31
0.0
  0
MTEXT
  5
512D
102
{ACAD_XDICTIONARY
360
512E
102
}
330
1A
100
AcDbEntity
  8
寸法線
 48
10.0
100
AcDbMText
 10
214.269656239131
 20
211.321447328047
 30
0.0
 40
8.0
 41
23.854899029718
 71
     2
 72
     5
  1
250\P300\P350\P400\P450\P500\P550\P600
1001
ACADANNOTATIVE
1000
AnnotativeData
1002
{
1070
     1
1070
     0
1002
}
1001
ACAD
1000
MTEXTBEGIN
1070
    44
1040
0.98
1000
MTEXTEND
  0
MTEXT
  5
5131
102
{ACAD_XDICTIONARY
360
5132
102
}
330
1A
100
AcDbEntity
  8
寸法線
 48
10.0
100
AcDbMText
 10
238.703872628155
 20
211.321447328047
 30
0.0
 40
8.0
 41
23.854899029718
 71
     2
 72
     5
  1
100\P100\P100\P100\P100\P100\P150\P150
1001
ACADANNOTATIVE
1000
AnnotativeData
1002
{
1070
     1
1070
     0
1002
}
1001
ACAD
1000
MTEXTBEGIN
1070
    44
1040
0.98
1000
MTEXTEND
  0
MTEXT
  5
5135
102
{ACAD_XDICTIONARY
360
5136
102
}
330
1A
100
AcDbEntity
  8
寸法線
 48
10.0
100
AcDbMText
 10
264.533968068339
 20
211.321447328047
 30
0.0
 40
8.0
 41
23.854899029718
 71
     2
 72
     5
  1
50\P50\P50\P50\P50\P50\P50\P50
1001
ACADANNOTATIVE
1000
AnnotativeData
1002
{
1070
     1
1070
     0
1002
}
1001
ACAD
1000
MTEXTBEGIN
1070
    44
1040
0.98
1000
MTEXTEND
  0
MTEXT
  5
5139
102
{ACAD_XDICTIONARY
360
513A
102
}
330
1A
100
AcDbEntity
  8
寸法線
 48
10.0
100
AcDbMText
 10
289.021970091387
 20
211.321447328047
 30
0.0
 40
8.0
 41
23.854899029718
 71
     2
 72
     5
  1
100\P150\P200\P250\P300\P350\P350\P400
1001
ACADANNOTATIVE
1000
AnnotativeData
1002
{
1070
     1
1070
     0
1002
}
1001
ACAD
1000
MTEXTBEGIN
1070
    44
1040
0.98
1000
MTEXTEND
  0
MTEXT
  5
513D
102
{ACAD_XDICTIONARY
360
513E
102
}
330
1A
100
AcDbEntity
  8
寸法線
 48
10.0
100
AcDbMText
 10
525.23846655983
 20
211.321447328047
 30
0.0
 40
8.0
 41
23.854899029718
 71
     2
 72
     5
  1
150\P150\P150\P150\P150\P150\P150\P150
1001
ACADANNOTATIVE
1000
AnnotativeData
1002
{
1070
     1
1070
     0
1002
}
1001
ACAD
1000
MTEXTBEGIN
1070
    44
1040
0.98
1000
MTEXTEND
  0
MTEXT
  5
5141
102
{ACAD_XDICTIONARY
360
5142
102
}
330
1A
100
AcDbEntity
  8
寸法線
 48
10.0
100
AcDbMText
 10
550.231254551959
 20
211.321447328047
 30
0.0
 40
8.0
 41
23.854899029718
 71
     2
 72
     5
  1
50\P50\P50\P50\P50\P50\P50\P50
1001
ACADANNOTATIVE
1000
AnnotativeData
1002
{
1070
     1
1070
     0
1002
}
1001
ACAD
1000
MTEXTBEGIN
1070
    44
1040
0.98
1000
MTEXTEND
  0
MTEXT
  5
5145
102
{ACAD_XDICTIONARY
360
5146
102
}
330
1A
100
AcDbEntity
  8
寸法線
 48
10.0
100
AcDbMText
 10
574.469876844273
 20
211.321447328047
 30
0.0
 40
8.0
 41
23.854899029718
 71
     2
 72
     5
  1
450\P500\P550\P600\P650\P700\P750\P800
1001
ACADANNOTATIVE
1000
AnnotativeData
1002
{
1070
     1
1070
     0
1002
}
1001
ACAD
1000
MTEXTBEGIN
1070
    44
1040
0.98
1000
MTEXTEND
  0
MTEXT
  5
5149
102
{ACAD_XDICTIONARY
360
514A
102
}
330
1A
100
AcDbEntity
  8
寸法線
 48
10.0
100
AcDbMText
 10
498.73734716807
 20
211.321447328047
 30
0.0
 40
8.0
 41
23.854899029718
 71
     2
 72
     5
  1
650\P700\P750\P800\P850\P900\P950\P1000
1001
ACADANNOTATIVE
1000
AnnotativeData
1002
{
1070
     1
1070
     0
1002
}
1001
ACAD
1000
MTEXTBEGIN
1070
    44
1040
0.98
1000
MTEXTEND
  0
LINE
  5
514D
330
1A
100
AcDbEntity
  8
寸法線
 48
10.0
100
AcDbLine
 10
88.580560897747
 20
214.004700295826
 30
0.0
 11
120.580530897747
 21
228.074700295826
 31
0.0
  0
LINE
  5
514E
330
1A
100
AcDbEntity
  8
寸法線
 48
10.0
100
AcDbLine
 10
375.432187643896
 20
214.004700295826
 30
0.0
 11
407.432157643896
 21
228.074700295826
 31
0.0
  0
MTEXT
  5
514F
102
{ACAD_XDICTIONARY
360
5150
102
}
330
1A
100
AcDbEntity
  8
寸法線
 48
10.0
100
AcDbMText
 10
634.103187971162
 20
224.856882637799
 30
0.0
 40
8.0
 41
27.29696969697
 71
     1
 72
     5
  1
台数\P 
1001
ACADANNOTATIVE
1000
AnnotativeData
1002
{
1070
     1
1070
     0
1002
}
  0
MTEXT
  5
5153
102
{ACAD_XDICTIONARY
360
5154
102
}
330
1A
100
AcDbEntity
  8
寸法線
 48
10.0
100
AcDbMText
 10
595.942622251663
 20
224.856882637799
 30
0.0
 40
8.0
 41
19.321844296148
 71
     1
 72
     5
  1
記事
1001
ACADANNOTATIVE
1000
AnnotativeData
1002
{
1070
     1
1070
     0
1002
}
  0
TEXT
  5
5157
330
1A
100
AcDbEntity
  8
寸法線
 48
10.0
100
AcDbText
 10
519.437269222205
 20
96.454369318028
 30
0.0
 40
8.0
  1
○印が今回の貴社の御仕様です。
100
AcDbText
  0
LINE
  5
5187
330
1A
100
AcDbEntity
  8
中心線
 48
10.0
100
AcDbLine
 10
30.858605093531
 20
384.202631545086
 30
0.0
 11
489.321451659826
 21
384.202631545086
 31
0.0
  0
VIEWPORT
  5
2902
330
28FB
100
AcDbEntity
 67
     1
  8
0
 48
10.0
100
AcDbViewport
 10
0.0
 20
0.0
 30
0.0
 40
528.349942987457
 41
300.3
 68
     1
 69
     1
1001
ACAD
1000
MVIEW
1002
{
1070
    16
1010
0.0
1020
0.0
1030
0.0
1010
0.0
1020
0.0
1030
1.0
1040
0.0
1040
300.3
1040
205.756503333333
1040
143.551503333333
1040
50.0
1040
0.0
1040
0.0
1070
    16
1070
   100
1070
     0
1070
     1
1070
     0
1070
     0
1070
     0
1070
     0
1040
0.0
1040
0.0
1040
0.0
1040
10.0
1040
10.0
1040
10.0
1040
10.0
1070
     0
1002
{
1002
}
1002
}
  0
VIEWPORT
  5
2904
330
28FB
100
AcDbEntity
 67
     1
  8
図枠太線
 48
10.0
100
AcDbViewport
 10
204.746305129083
 20
162.478723388613
 30
0.0
 40
400.0
 41
240.0
 68
     2
 69
     2
1001
ACAD
1000
MVIEW
1002
{
1070
    16
1010
0.0
1020
0.0
1030
0.0
1010
0.0
1020
0.0
1030
1.0
1040
0.0
1040
480.000003226523
1040
270.617222638831
1040
305.947412887471
1040
50.0
1040
0.0
1040
0.0
1070
    16
1070
   100
1070
     0
1070
     0
1070
     0
1070
     0
1070
     0
1070
     0
1040
0.0
1040
0.0
1040
0.0
1040
1.0
1040
1.0
1040
0.0
1040
0.0
1070
     0
1002
{
1002
}
1002
}
  0
INSERT
  5
2A59
330
28FB
100
AcDbEntity
 67
     1
  8
図枠太線
100
AcDbBlockReference
  2
A3横用_タイトル
 10
-0.352109406709
 20
-1.047236364914
 30
0.0
  0
MTEXT
  5
2E70
330
28FB
100
AcDbEntity
 67
     1
  8
寸法線
 48
10.0
100
AcDbMText
 10
278.386366648153
 20
51.491782366418
 30
0.0
 40
5.0
 41
59.487124795261
 71
     1
 72
     5
  1
A3縮小図
  0
MTEXT
  5
2E71
330
28FB
100
AcDbEntity
 67
     1
  8
寸法線
 48
10.0
100
AcDbMText
 10
371.895692395313
 20
51.331502559653
 30
0.0
 40
5.0
 41
34.444444444444
 71
     1
 72
     5
  1
台数   台
  0
LINE
  5
2E72
330
28FB
100
AcDbEntity
 67
     1
  8
寸法線
 48
10.0
100
AcDbLine
 10
277.452744697109
 20
45.108183280159
 30
0.0
 11
303.087608306926
 21
45.108183280159
 31
0.0
  0
MTEXT
  5
2E7F
330
28FB
100
AcDbEntity
 67
     1
  8
寸法線
 48
10.0
100
AcDbMText
 10
367.400006362998
 20
38.906979377804
 30
0.0
 40
5.0
 41
44.607313995184
 71
     1
 72
     5
  1
静電容量式\Pレベルセンサ
  0
MTEXT
  5
2E81
102
{ACAD_XDICTIONARY
360
53B1
102
}
330
28FB
100
AcDbEntity
 67
     1
  8
寸法線
 48
10.0
100
AcDbMText
 10
307.627968433638
 20
34.31089057878
 30
0.0
 40
6.0
 41
53.585469274236
 71
     1
 72
     5
  1
TSE-A1FA-□
1001
ACADANNOTATIVE
1000
AnnotativeData
1002
{
1070
     1
1070
     0
1002
}
  0
MTEXT
  5
2E85
330
28FB
100
AcDbEntity
 67
     1
  8
寸法線
 48
10.0
100
AcDbMText
 10
149.12611673873
 20
15.337322955895
 30
0.0
 40
5.0
 41
11.452149180996
 71
     1
 72
     5
  1
{\H1.4x;1:2}
  0
MTEXT
  5
5220
102
{ACAD_XDICTIONARY
360
5221
102
}
330
28FB
100
AcDbEntity
 67
     1
  8
寸法線
 48
10.0
100
AcDbMText
 10
340.992722460896
 20
16.776011052622
 30
0.0
 40
8.0
 41
33.206594841881
 71
     1
 72
     5
  1
HE-14002
1001
ACADANNOTATIVE
1000
AnnotativeData
1002
{
1070
     1
1070
     0
1002
}
  0
MTEXT
  5
5317
102
{ACAD_XDICTIONARY
360
5318
102
}
330
28FB
100
AcDbEntity
 67
     1
  8
寸法線
 48
10.0
100
AcDbMText
 10
175.252680195869
 20
13.326352832008
 30
0.0
 40
4.5
 41
31.372065131184
 71
     1
 72
     5
  1
2016.09.26
1001
ACADANNOTATIVE
1000
AnnotativeData
1002
{
1070
     1
1070
     0
1002
}
  0
MTEXT
  5
534D
102
{ACAD_XDICTIONARY
360
534E
102
}
330
28FB
100
AcDbEntity
 67
     1
  8
寸法線
 48
10.0
100
AcDbMText
 10
188.213305129083
 20
33.661415948476
 30
0.0
 40
4.5
 41
33.066
 71
     2
 72
     5
  1
takahashi
1001
ACADANNOTATIVE
1000
AnnotativeData
1002
{
1070
     1
1070
     0
1002
}
  0
ENDSEC
  0
SECTION
  2
OBJECTS
  0
DICTIONARY
  5
C
330
0
100
AcDbDictionary
  3
ACAD_COLOR
350
2948
  3
ACAD_GROUP
350
D
  3
ACAD_LAYOUT
350
2816
  3
ACAD_MATERIAL
350
2947
  3
ACAD_MLEADERSTYLE
350
4C68
  3
ACAD_MLINESTYLE
350
E
  3
ACAD_PLOTSETTINGS
350
2817
  3
ACAD_SCALELIST
350
4C28
  3
ACAD_VISUALSTYLE
350
4C4D
  3
ACADDIM
350
4312
  3
ACDBHEADERROUNDTRIPXREC
350
5474
  3
ACDBVARIABLEDICTIONARY
350
4CBE
  3
DWGPROPS
350
5499
  0
DICTIONARY
  5
549A
330
8
100
AcDbDictionary
280
     1
  3
ACAD_XREC_ROUNDTRIP
360
549B
  0
DICTIONARY
  5
29EA
330
2
100
AcDbDictionary
280
     1
  3
ACAD_LAYERFILTERS
360
2B0C
  3
ACAD_LAYERSTATES
360
29EB
  0
DICTIONARY
  5
5101
330
5100
100
AcDbDictionary
280
     1
  3
ACDBCONTEXTDATAMANAGER
360
5102
  0
DICTIONARY
  5
5111
330
5110
100
AcDbDictionary
280
     1
  3
ACDBCONTEXTDATAMANAGER
360
5112
  0
DICTIONARY
  5
5115
330
5114
100
AcDbDictionary
280
     1
  3
ACDBCONTEXTDATAMANAGER
360
5116
  0
DICTIONARY
  5
511A
330
5119
100
AcDbDictionary
280
     1
  3
ACDBCONTEXTDATAMANAGER
360
511B
  0
DICTIONARY
  5
512E
330
512D
100
AcDbDictionary
280
     1
  3
ACDBCONTEXTDATAMANAGER
360
512F
  0
DICTIONARY
  5
5132
330
5131
100
AcDbDictionary
280
     1
  3
ACDBCONTEXTDATAMANAGER
360
5133
  0
DICTIONARY
  5
5136
330
5135
100
AcDbDictionary
280
     1
  3
ACDBCONTEXTDATAMANAGER
360
5137
  0
DICTIONARY
  5
513A
330
5139
100
AcDbDictionary
280
     1
  3
ACDBCONTEXTDATAMANAGER
360
513B
  0
DICTIONARY
  5
513E
330
513D
100
AcDbDictionary
280
     1
  3
ACDBCONTEXTDATAMANAGER
360
513F
  0
DICTIONARY
  5
5142
330
5141
100
AcDbDictionary
280
     1
  3
ACDBCONTEXTDATAMANAGER
360
5143
  0
DICTIONARY
  5
5146
330
5145
100
AcDbDictionary
280
     1
  3
ACDBCONTEXTDATAMANAGER
360
5147
  0
DICTIONARY
  5
514A
330
5149
100
AcDbDictionary
280
     1
  3
ACDBCONTEXTDATAMANAGER
360
514B
  0
DICTIONARY
  5
5150
330
514F
100
AcDbDictionary
280
     1
  3
ACDBCONTEXTDATAMANAGER
360
5151
  0
DICTIONARY
  5
5154
330
5153
100
AcDbDictionary
280
     1
  3
ACDBCONTEXTDATAMANAGER
360
5155
  0
DICTIONARY
  5
53B1
330
2E81
100
AcDbDictionary
280
     1
  3
ACDBCONTEXTDATAMANAGER
360
53B2
  0
DICTIONARY
  5
5221
330
5220
100
AcDbDictionary
280
     1
  3
ACDBCONTEXTDATAMANAGER
360
5222
  0
DICTIONARY
  5
5318
330
5317
100
AcDbDictionary
280
     1
  3
ACDBCONTEXTDATAMANAGER
360
5319
  0
DICTIONARY
  5
534E
330
534D
100
AcDbDictionary
280
     1
  3
ACDBCONTEXTDATAMANAGER
360
534F
  0
DICTIONARY
  5
2948
102
{ACAD_REACTORS
330
C
102
}
330
C
100
AcDbDictionary
  0
DICTIONARY
  5
D
102
{ACAD_REACTORS
330
C
102
}
330
C
100
AcDbDictionary
  0
DICTIONARY
  5
2816
102
{ACAD_REACTORS
330
C
102
}
330
C
100
AcDbDictionary
  0
DICTIONARY
  5
2947
102
{ACAD_REACTORS
330
C
102
}
330
C
100
AcDbDictionary
  3
BYBLOCK
350
4C4B
  3
BYLAYER
350
4C4A
  3
GLOBAL
350
4C4C
  0
DICTIONARY
  5
4C68
102
{ACAD_REACTORS
330
C
102
}
330
C
100
AcDbDictionary
  3
STANDARD
350
4CCD
  0
DICTIONARY
  5
E
102
{ACAD_REACTORS
330
C
102
}
330
C
100
AcDbDictionary
  3
STANDARD
350
13
  0
DICTIONARY
  5
2817
102
{ACAD_REACTORS
330
C
102
}
330
C
100
AcDbDictionary
  0
DICTIONARY
  5
4C28
102
{ACAD_REACTORS
330
C
102
}
330
C
100
AcDbDictionary
  3
A0
350
4C29
  3
A1
350
4C2A
  3
A2
350
4C2B
  3
A3
350
4C2C
  3
A4
350
4C2D
  3
A5
350
4C2E
  3
A6
350
4C2F
  3
A7
350
4C30
  3
A8
350
4C31
  3
A9
350
4C32
  3
B0
350
4C33
  3
B1
350
4C34
  3
B2
350
4C35
  3
B3
350
4C36
  3
B4
350
4C37
  3
B5
350
4C38
  3
B6
350
4C39
  3
B7
350
4C3A
  3
B8
350
4C3B
  3
B9
350
4C3C
  3
C0
350
4C3D
  3
C1
350
4C3E
  3
C2
350
4C3F
  3
C3
350
4C40
  3
C4
350
4C41
  3
C5
350
4C42
  3
C6
350
4C43
  3
C7
350
4C44
  3
C8
350
4C45
  3
C9
350
4C46
  3
D0
350
4C47
  3
D1
350
4C48
  3
D2
350
4C49
  0
DICTIONARY
  5
4C4D
102
{ACAD_REACTORS
330
C
102
}
330
C
100
AcDbDictionary
  3
2DWIREFRAME
350
4C52
  3
3D_HIDDEN
350
4C54
  3
3DWIREFRAME
350
4C53
  3
BASIC
350
4C55
  3
BRIGHTEN
350
4C59
  3
COLORCHANGE
350
4C5D
  3
CONCEPTUAL
350
4C57
  3
DIM
350
4C58
  3
EDGECOLOROFF
350
4CC6
  3
FACEPATTERN
350
4C5C
  3
FLAT
350
4C4E
  3
FLATWITHEDGES
350
4C4F
  3
GOURAUD
350
4C50
  3
GOURAUDWITHEDGES
350
4C51
  3
HIDDEN
350
4CC3
  3
JITTEROFF
350
4CC4
  3
LINEPATTERN
350
4C5B
  3
MODELING
350
4CCE
  3
OVERHANGOFF
350
4CC5
  3
REALISTIC
350
4C56
  3
SHADED
350
4CCB
  3
SHADED_WITH_EDGES
350
4CCA
  3
SHADES_OF_GRAY
350
4CC7
  3
SKETCHY
350
4CC8
  3
THICKEN
350
4C5A
  3
WIREFRAME
350
4CC2
  3
X-RAY
350
4CC9
  0
XRECORD
  5
4312
102
{ACAD_REACTORS
330
C
102
}
330
C
100
AcDbXrecord
 90
   990106
  3

 60
     0
 61
     0
 62
     4
 63
     4
 64
     0
 65
     0
 66
     0
 67
     3
 68
     1
 69
     0
 70
     0
 71
     0
 72
     0
 40
0.0
170
     2
340
0
  0
DICTIONARY
  5
5474
102
{ACAD_REACTORS
330
C
102
}
330
C
100
AcDbDictionary
  3
CEPSNID
350
547E
  3
CEPSNTYPE
350
547D
  3
COLORDICT
350
5497
  3
DIMSTYLEDATA
350
5494
  3
FINGERPRINTGUID
350
547F
  3
HYPERLINKBASE
350
5477
  3
INSUNITS
350
547C
  3
LAYOUTDICT
350
5479
  3
LWETCUNION
350
547B
  3
MATERIALDICT
350
5498
  3
PLOTSETDICT
350
547A
  3
PSVPSCALE
350
5481
  3
PUCSBASE
350
5484
  3
PUCSORGBACK
350
548A
  3
PUCSORGBOTTOM
350
5486
  3
PUCSORGFRONT
350
5489
  3
PUCSORGLEFT
350
5487
  3
PUCSORGRIGHT
350
5488
  3
PUCSORGTOP
350
5485
  3
PUCSORTHOREF
350
5482
  3
PUCSORTHOVIEW
350
5483
  3
STYLESHEET
350
5478
  3
TSTACKALIGN
350
5475
  3
TSTACKSIZE
350
5476
  3
UCSBASE
350
548D
  3
UCSORGBACK
350
5493
  3
UCSORGBOTTOM
350
548F
  3
UCSORGFRONT
350
5492
  3
UCSORGLEFT
350
5490
  3
UCSORGRIGHT
350
5491
  3
UCSORGTOP
350
548E
  3
UCSORTHOREF
350
548B
  3
UCSORTHOVIEW
350
548C
  3
VERSIONGUID
350
5480
  0
DICTIONARY
  5
4CBE
102
{ACAD_REACTORS
330
C
102
}
330
C
100
AcDbDictionary
  3
CANNOSCALE
350
4CBF
  3
CMLEADERSTYLE
350
51EB
  3
CTABLESTYLE
350
51EA
  3
DIMASSOC
350
5495
  3
HIDETEXT
350
5496
  3
MSLTSCALE
350
4CC0
  3
XCLIPFRAME
350
4CC1
  0
XRECORD
  5
5499
102
{ACAD_REACTORS
330
C
102
}
330
C
100
AcDbXrecord
  1
DWGPROPS COOKIE
  2

  3

  4

  6

  7

  8
takahashi
  9

300
=
301
=
302
=
303
=
304
=
305
=
306
=
307
=
308
=
309
=
 40
0.0
 41
2450576.222302431
 42
2457661.240105972
  1

 90
        0
  0
XRECORD
  5
549B
102
{ACAD_REACTORS
330
549A
102
}
330
549A
100
AcDbXrecord
102
VTR_0.000_0.000_1.000_1.000_VISUALSTYLE
340
4C52
102
VTR_0.000_0.000_1.000_1.000_GRIDDISPLAY
 70
     3
102
VTR_0.000_0.000_1.000_1.000_GRIDMAJOR
 70
     5
102
VTR_0.000_0.000_1.000_1.000_DEFAULTLIGHTING
280
     1
102
VTR_0.000_0.000_1.000_1.000_DEFAULTLIGHTINGTYPE
 70
     1
102
VTR_0.000_0.000_1.000_1.000_BRIGHTNESS
141
0.0
102
VTR_0.000_0.000_1.000_1.000_CONTRAST
142
0.0
  0
DICTIONARY
  5
2B0C
102
{ACAD_REACTORS
330
29EA
102
}
330
29EA
100
AcDbDictionary
  0
DICTIONARY
  5
29EB
102
{ACAD_REACTORS
330
29EA
102
}
330
29EA
100
AcDbDictionary
  0
DICTIONARY
  5
5102
102
{ACAD_REACTORS
330
5101
102
}
330
5101
100
AcDbDictionary
  3
ACDB_ANNOTATIONSCALES
350
5103
  0
DICTIONARY
  5
5112
102
{ACAD_REACTORS
330
5111
102
}
330
5111
100
AcDbDictionary
  3
ACDB_ANNOTATIONSCALES
350
5113
  0
DICTIONARY
  5
5116
102
{ACAD_REACTORS
330
5115
102
}
330
5115
100
AcDbDictionary
  3
ACDB_ANNOTATIONSCALES
350
5117
  0
DICTIONARY
  5
511B
102
{ACAD_REACTORS
330
511A
102
}
330
511A
100
AcDbDictionary
  3
ACDB_ANNOTATIONSCALES
350
511C
  0
DICTIONARY
  5
512F
102
{ACAD_REACTORS
330
512E
102
}
330
512E
100
AcDbDictionary
  3
ACDB_ANNOTATIONSCALES
350
5130
  0
DICTIONARY
  5
5133
102
{ACAD_REACTORS
330
5132
102
}
330
5132
100
AcDbDictionary
  3
ACDB_ANNOTATIONSCALES
350
5134
  0
DICTIONARY
  5
5137
102
{ACAD_REACTORS
330
5136
102
}
330
5136
100
AcDbDictionary
  3
ACDB_ANNOTATIONSCALES
350
5138
  0
DICTIONARY
  5
513B
102
{ACAD_REACTORS
330
513A
102
}
330
513A
100
AcDbDictionary
  3
ACDB_ANNOTATIONSCALES
350
513C
  0
DICTIONARY
  5
513F
102
{ACAD_REACTORS
330
513E
102
}
330
513E
100
AcDbDictionary
  3
ACDB_ANNOTATIONSCALES
350
5140
  0
DICTIONARY
  5
5143
102
{ACAD_REACTORS
330
5142
102
}
330
5142
100
AcDbDictionary
  3
ACDB_ANNOTATIONSCALES
350
5144
  0
DICTIONARY
  5
5147
102
{ACAD_REACTORS
330
5146
102
}
330
5146
100
AcDbDictionary
  3
ACDB_ANNOTATIONSCALES
350
5148
  0
DICTIONARY
  5
514B
102
{ACAD_REACTORS
330
514A
102
}
330
514A
100
AcDbDictionary
  3
ACDB_ANNOTATIONSCALES
350
514C
  0
DICTIONARY
  5
5151
102
{ACAD_REACTORS
330
5150
102
}
330
5150
100
AcDbDictionary
  3
ACDB_ANNOTATIONSCALES
350
5152
  0
DICTIONARY
  5
5155
102
{ACAD_REACTORS
330
5154
102
}
330
5154
100
AcDbDictionary
  3
ACDB_ANNOTATIONSCALES
350
5156
  0
DICTIONARY
  5
53B2
102
{ACAD_REACTORS
330
53B1
102
}
330
53B1
100
AcDbDictionary
  3
ACDB_ANNOTATIONSCALES
350
53B3
  0
DICTIONARY
  5
5222
102
{ACAD_REACTORS
330
5221
102
}
330
5221
100
AcDbDictionary
  3
ACDB_ANNOTATIONSCALES
350
5223
  0
DICTIONARY
  5
5319
102
{ACAD_REACTORS
330
5318
102
}
330
5318
100
AcDbDictionary
  3
ACDB_ANNOTATIONSCALES
350
531A
  0
DICTIONARY
  5
534F
102
{ACAD_REACTORS
330
534E
102
}
330
534E
100
AcDbDictionary
  3
ACDB_ANNOTATIONSCALES
350
5350
  0
MATERIAL
  5
4C4B
102
{ACAD_REACTORS
330
2947
102
}
102
{ACAD_XDICTIONARY
360
549E
102
}
330
2947
100
AcDbMaterial
  1
BYBLOCK
  0
MATERIAL
  5
4C4A
102
{ACAD_REACTORS
330
2947
102
}
102
{ACAD_XDICTIONARY
360
549C
102
}
330
2947
100
AcDbMaterial
  1
BYLAYER
  0
MATERIAL
  5
4C4C
102
{ACAD_REACTORS
330
2947
102
}
102
{ACAD_XDICTIONARY
360
54A0
102
}
330
2947
100
AcDbMaterial
  1
GLOBAL
  0
ACAD_PROXY_OBJECT
  5
4CCD
102
{ACAD_REACTORS
330
4C68
102
}
330
4C68
100
AcDbProxyObject
 90
      499
 91
      509
 93
      610
310
40901902A4063FBFFFFFE0000000000000020400000000000020404214DD185B99185C990000000000000104090141901A00000000000004100000000000000041025764000000000000039000
340
14
340
0
340
10
340
0
 94
        0
1001
ACAD_MLEADERVER
1070
     2
  0
MLINESTYLE
  5
13
102
{ACAD_REACTORS
330
E
102
}
330
E
100
AcDbMlineStyle
  2
STANDARD
 70
     0
  3

 62
     0
 51
90.0
 52
90.0
 71
     2
 49
0.5
 62
   256
  6
BYLAYER
 49
-0.5
 62
   256
  6
BYLAYER
  0
ACAD_PROXY_OBJECT
  5
4C29
102
{ACAD_REACTORS
330
4C28
102
}
330
4C28
100
AcDbProxyObject
 90
      499
 91
      504
 93
       41
310
903313A31580
  0
ACAD_PROXY_OBJECT
  5
4C2A
102
{ACAD_REACTORS
330
4C28
102
}
330
4C28
100
AcDbProxyObject
 90
      499
 91
      504
 93
      105
310
903313A324000000000000004000
  0
ACAD_PROXY_OBJECT
  5
4C2B
102
{ACAD_REACTORS
330
4C28
102
}
330
4C28
100
AcDbProxyObject
 90
      499
 91
      504
 93
      105
310
903313A344000000000000104000
  0
ACAD_PROXY_OBJECT
  5
4C2C
102
{ACAD_REACTORS
330
4C28
102
}
330
4C28
100
AcDbProxyObject
 90
      499
 91
      504
 93
      105
310
903313A354000000000000144000
  0
ACAD_PROXY_OBJECT
  5
4C2D
102
{ACAD_REACTORS
330
4C28
102
}
330
4C28
100
AcDbProxyObject
 90
      499
 91
      504
 93
      105
310
903313A384000000000000204000
  0
ACAD_PROXY_OBJECT
  5
4C2E
102
{ACAD_REACTORS
330
4C28
102
}
330
4C28
100
AcDbProxyObject
 90
      499
 91
      504
 93
      113
310
904313A31304000000000000244000
  0
ACAD_PROXY_OBJECT
  5
4C2F
102
{ACAD_REACTORS
330
4C28
102
}
330
4C28
100
AcDbProxyObject
 90
      499
 91
      504
 93
      113
310
904313A31364000000000000304000
  0
ACAD_PROXY_OBJECT
  5
4C30
102
{ACAD_REACTORS
330
4C28
102
}
330
4C28
100
AcDbProxyObject
 90
      499
 91
      504
 93
      113
310
904313A32304000000000000344000
  0
ACAD_PROXY_OBJECT
  5
4C31
102
{ACAD_REACTORS
330
4C28
102
}
330
4C28
100
AcDbProxyObject
 90
      499
 91
      504
 93
      113
310
904313A333040000000000003E4000
  0
ACAD_PROXY_OBJECT
  5
4C32
102
{ACAD_REACTORS
330
4C28
102
}
330
4C28
100
AcDbProxyObject
 90
      499
 91
      504
 93
      113
310
904313A34304000000000000444000
  0
ACAD_PROXY_OBJECT
  5
4C33
102
{ACAD_REACTORS
330
4C28
102
}
330
4C28
100
AcDbProxyObject
 90
      499
 91
      504
 93
      113
310
904313A35304000000000000494000
  0
ACAD_PROXY_OBJECT
  5
4C34
102
{ACAD_REACTORS
330
4C28
102
}
330
4C28
100
AcDbProxyObject
 90
      499
 91
      504
 93
      121
310
905313A3130304000000000000594000
  0
ACAD_PROXY_OBJECT
  5
4C35
102
{ACAD_REACTORS
330
4C28
102
}
330
4C28
100
AcDbProxyObject
 90
      499
 91
      504
 93
      105
310
903323A310000000000000010100
  0
ACAD_PROXY_OBJECT
  5
4C36
102
{ACAD_REACTORS
330
4C28
102
}
330
4C28
100
AcDbProxyObject
 90
      499
 91
      504
 93
      105
310
903343A310000000000000410100
  0
ACAD_PROXY_OBJECT
  5
4C37
102
{ACAD_REACTORS
330
4C28
102
}
330
4C28
100
AcDbProxyObject
 90
      499
 91
      504
 93
      105
310
903383A310000000000000810100
  0
ACAD_PROXY_OBJECT
  5
4C38
102
{ACAD_REACTORS
330
4C28
102
}
330
4C28
100
AcDbProxyObject
 90
      499
 91
      504
 93
      113
310
90431303A310000000000000910100
  0
ACAD_PROXY_OBJECT
  5
4C39
102
{ACAD_REACTORS
330
4C28
102
}
330
4C28
100
AcDbProxyObject
 90
      499
 91
      504
 93
      121
310
9053130303A310000000000001650100
  0
ACAD_PROXY_OBJECT
  5
4C3A
102
{ACAD_REACTORS
330
4C28
102
}
330
4C28
100
AcDbProxyObject
 90
      499
 91
      504
 93
      257
310
90E312F31323822203D2031272D3022000000000000200FC000000000000284000
  0
ACAD_PROXY_OBJECT
  5
4C3B
102
{ACAD_REACTORS
330
4C28
102
}
330
4C28
100
AcDbProxyObject
 90
      499
 91
      504
 93
      249
310
90D312F363422203D2031272D3022000000000000240FC000000000000284000
  0
ACAD_PROXY_OBJECT
  5
4C3C
102
{ACAD_REACTORS
330
4C28
102
}
330
4C28
100
AcDbProxyObject
 90
      499
 91
      504
 93
      249
310
90D312F333222203D2031272D3022000000000000280FC000000000000284000
  0
ACAD_PROXY_OBJECT
  5
4C3D
102
{ACAD_REACTORS
330
4C28
102
}
330
4C28
100
AcDbProxyObject
 90
      499
 91
      504
 93
      249
310
90D312F313622203D2031272D30220000000000002C0FC000000000000284000
  0
ACAD_PROXY_OBJECT
  5
4C3E
102
{ACAD_REACTORS
330
4C28
102
}
330
4C28
100
AcDbProxyObject
 90
      499
 91
      504
 93
      249
310
90D332F333222203D2031272D30220000000000002E0FC000000000000284000
  0
ACAD_PROXY_OBJECT
  5
4C3F
102
{ACAD_REACTORS
330
4C28
102
}
330
4C28
100
AcDbProxyObject
 90
      499
 91
      504
 93
      241
310
90C312F3822203D2031272D3022000000000000300FC000000000000284000
  0
ACAD_PROXY_OBJECT
  5
4C40
102
{ACAD_REACTORS
330
4C28
102
}
330
4C28
100
AcDbProxyObject
 90
      499
 91
      504
 93
      249
310
90D332F313622203D2031272D3022000000000000320FC000000000000284000
  0
ACAD_PROXY_OBJECT
  5
4C41
102
{ACAD_REACTORS
330
4C28
102
}
330
4C28
100
AcDbProxyObject
 90
      499
 91
      504
 93
      241
310
90C312F3422203D2031272D3022000000000000340FC000000000000284000
  0
ACAD_PROXY_OBJECT
  5
4C42
102
{ACAD_REACTORS
330
4C28
102
}
330
4C28
100
AcDbProxyObject
 90
      499
 91
      504
 93
      241
310
90C332F3822203D2031272D3022000000000000360FC000000000000284000
  0
ACAD_PROXY_OBJECT
  5
4C43
102
{ACAD_REACTORS
330
4C28
102
}
330
4C28
100
AcDbProxyObject
 90
      499
 91
      504
 93
      241
310
90C312F3222203D2031272D3022000000000000380FC000000000000284000
  0
ACAD_PROXY_OBJECT
  5
4C44
102
{ACAD_REACTORS
330
4C28
102
}
330
4C28
100
AcDbProxyObject
 90
      499
 91
      504
 93
      241
310
90C332F3422203D2031272D30220000000000003A0FC000000000000284000
  0
ACAD_PROXY_OBJECT
  5
4C45
102
{ACAD_REACTORS
330
4C28
102
}
330
4C28
100
AcDbProxyObject
 90
      499
 91
      504
 93
      161
310
90A3122203D2031272D30224000000000000284000
  0
ACAD_PROXY_OBJECT
  5
4C46
102
{ACAD_REACTORS
330
4C28
102
}
330
4C28
100
AcDbProxyObject
 90
      499
 91
      504
 93
      257
310
90E312D312F3222203D2031272D30220000000000003E0FC000000000000284000
  0
ACAD_PROXY_OBJECT
  5
4C47
102
{ACAD_REACTORS
330
4C28
102
}
330
4C28
100
AcDbProxyObject
 90
      499
 91
      504
 93
      225
310
90A3322203D2031272D302200000000000002100000000000000284000
  0
ACAD_PROXY_OBJECT
  5
4C48
102
{ACAD_REACTORS
330
4C28
102
}
330
4C28
100
AcDbProxyObject
 90
      499
 91
      504
 93
      225
310
90A3622203D2031272D302200000000000006100000000000000284000
  0
ACAD_PROXY_OBJECT
  5
4C49
102
{ACAD_REACTORS
330
4C28
102
}
330
4C28
100
AcDbProxyObject
 90
      499
 91
      504
 93
      249
310
90D31272D3022203D2031272D30220000000000000A100000000000000284000
  0
ACAD_PROXY_OBJECT
  5
4C52
102
{ACAD_REACTORS
330
4C4D
102
}
330
4C4D
100
AcDbProxyObject
 90
      499
 91
      506
 93
      436
310
42CC9915DA5C99599C985B595049028333333333333E3BF0000000000000FB0107901411070040501600405405064090741402480A0340
1001
ACAD
1000
AcDbSavedByObjectVersion
1070
     0
  0
ACAD_PROXY_OBJECT
  5
4C54
102
{ACAD_REACTORS
330
4C4D
102
}
330
4C4D
100
AcDbProxyObject
 90
      499
 91
      506
 93
      500
310
424CD108121A5919195B90640502408333333333333E3BF0000000000000FB01079024090700405020000000000001110200405405064090740C02480A0340
1001
ACAD
1000
AcDbSavedByObjectVersion
1070
     0
  0
ACAD_PROXY_OBJECT
  5
4C53
102
{ACAD_REACTORS
330
4C4D
102
}
330
4C4D
100
AcDbProxyObject
 90
      499
 91
      506
 93
      436
310
42CCD915DA5C99599C985B595059028333333333333E3BF0000000000000FB0107901411070040501600405405064090741402480A0340
1001
ACAD
1000
AcDbSavedByObjectVersion
1070
     0
  0
ACAD_PROXY_OBJECT
  5
4C55
102
{ACAD_REACTORS
330
4C4D
102
}
330
4C4D
100
AcDbProxyObject
 90
      499
 91
      506
 93
      388
310
4150985CDA58D07406404333333333333E3BF0000000000000FB0107A41107004050150841D405064090741402480A0350
1001
ACAD
1000
AcDbSavedByObjectVersion
1070
     0
  0
ACAD_PROXY_OBJECT
  5
4C59
102
{ACAD_REACTORS
330
4C4D
102
}
330
4C4D
100
AcDbProxyObject
 90
      499
 91
      506
 93
      428
310
42109C9A59DA1D195B90C409028333333333333E3BF0000000000000FB010790141107004050150841D405064090741402480A029950
1001
ACAD
1000
AcDbSavedByObjectVersion
1070
     0
  0
ACAD_PROXY_OBJECT
  5
4C5D
102
{ACAD_REACTORS
330
4C4D
102
}
330
4C4D
100
AcDbProxyObject
 90
      499
 91
      506
 93
      452
310
42D0DBDB1BDC90DA185B99D95104090240C333333333333E3BF0000000000000FB0108901411070040501508421405064090741402480A0350
1001
ACAD
1000
AcDbSavedByObjectVersion
1070
     0
  0
ACAD_PROXY_OBJECT
  5
4C57
102
{ACAD_REACTORS
330
4C4D
102
}
330
4C4D
100
AcDbProxyObject
 90
      499
 91
      506
 93
      500
310
4290DBDB98D95C1D1D585B10940D028333333333333E3BF0000000000000FB0107902409070040501000000000000111010841D405064090740C02480A0340
1001
ACAD
1000
AcDbSavedByObjectVersion
1070
     0
  0
ACAD_PROXY_OBJECT
  5
4C58
102
{ACAD_REACTORS
330
4C4D
102
}
330
4C4D
100
AcDbProxyObject
 90
      499
 91
      506
 93
      412
310
40D11A5B50B409028333333333333E3BF0000000000000FB010790141107004050150841D405064090741402480A02677FFFFFD0
1001
ACAD
1000
AcDbSavedByObjectVersion
1070
     0
  0
ACAD_PROXY_OBJECT
  5
4CC6
102
{ACAD_REACTORS
330
4C4D
102
}
330
4C4D
100
AcDbProxyObject
 90
      499
 91
      506
 93
      452
310
43115919D950DBDB1BDC93D999916409028333333333333E33F0000000000000F9010790141107004050150841D405064090741402480A0350
1001
ACAD
1000
AcDbSavedByObjectVersion
1070
     0
  0
ACAD_PROXY_OBJECT
  5
4C5C
102
{ACAD_REACTORS
330
4C4D
102
}
330
4C4D
100
AcDbProxyObject
 90
      499
 91
      506
 93
      444
310
42D19858D95C185D1D195C9B90F409028333333333333E3BF0000000000000FB010790141107004050150841D405064090741402480A0350
1001
ACAD
1000
AcDbSavedByObjectVersion
1070
     0
  0
ACAD_PROXY_OBJECT
  5
4C4E
102
{ACAD_REACTORS
330
4C4D
102
}
330
4C4D
100
AcDbProxyObject
 90
      499
 91
      506
 93
      388
310
41119B185D240901404333333333333E3BF0000000000000F9010740A41107004050150841D405064090741402480A1B50
1001
ACAD
1000
AcDbSavedByObjectVersion
1070
     0
  0
ACAD_PROXY_OBJECT
  5
4C4F
102
{ACAD_REACTORS
330
4C4D
102
}
330
4C4D
100
AcDbProxyObject
 90
      499
 91
      506
 93
      476
310
43519B185D15DA5D1A115919D95CD0140901404333333333333E3BF0000000000000F9010740901411070040501600405405064090741402480A1B50
1001
ACAD
1000
AcDbSavedByObjectVersion
1070
     0
  0
ACAD_PROXY_OBJECT
  5
4C50
102
{ACAD_REACTORS
330
4C4D
102
}
330
4C4D
100
AcDbProxyObject
 90
      499
 91
      506
 93
      412
310
41D1DBDD5C985D5910240902404333333333333E3BF0000000000000F9010740A411070040501641D405064090741402480A1B50
1001
ACAD
1000
AcDbSavedByObjectVersion
1070
     0
  0
ACAD_PROXY_OBJECT
  5
4C51
102
{ACAD_REACTORS
330
4C4D
102
}
330
4C4D
100
AcDbProxyObject
 90
      499
 91
      506
 93
      500
310
4411DBDD5C985D5915DA5D1A115919D95CD0340902404333333333333E3BF0000000000000F9010740901411070040501600405405064090741402480A1B50
1001
ACAD
1000
AcDbSavedByObjectVersion
1070
     0
  0
ACAD_PROXY_OBJECT
  5
4CC3
102
{ACAD_REACTORS
330
4C4D
102
}
330
4C4D
100
AcDbProxyObject
 90
      499
 91
      506
 93
      476
310
41921A5919195B90640502408333333333333E33F0000000000000F901079024090700405020000000000001110200405405064090740C02480A0340
1001
ACAD
1000
AcDbSavedByObjectVersion
1070
     0
  0
ACAD_PROXY_OBJECT
  5
4CC4
102
{ACAD_REACTORS
330
4C4D
102
}
330
4C4D
100
AcDbProxyObject
 90
      499
 91
      506
 93
      428
310
42529A5D1D195C93D999914409028333333333333E33F0000000000000F9010790141107004050150A41D405064090741402480A0350
1001
ACAD
1000
AcDbSavedByObjectVersion
1070
     0
  0
ACAD_PROXY_OBJECT
  5
4C5B
102
{ACAD_REACTORS
330
4C4D
102
}
330
4C4D
100
AcDbProxyObject
 90
      499
 91
      506
 93
      444
310
42D31A5B995C185D1D195C9B90E409028333333333333E3BF0000000000000FB010790141107004050750841D405064090741402483A0350
1001
ACAD
1000
AcDbSavedByObjectVersion
1070
     0
  0
ACAD_PROXY_OBJECT
  5
4CCE
102
{ACAD_REACTORS
330
4C4D
102
}
330
4C4D
100
AcDbProxyObject
 90
      499
 91
      506
 93
      412
310
90A409038333333333333E33F0000000000000F901074090290700405010000000000201990108421405064090741402480A1B40
1001
ACAD
1000
AcDbSavedByObjectVersion
1070
     0
  0
ACAD_PROXY_OBJECT
  5
4CC5
102
{ACAD_REACTORS
330
4C4D
102
}
330
4C4D
100
AcDbProxyObject
 90
      499
 91
      506
 93
      444
310
42D3DD995C9A185B99D3D999915409028333333333333E33F0000000000000F9010790141107004050150941D405064090741402480A0350
1001
ACAD
1000
AcDbSavedByObjectVersion
1070
     0
  0
ACAD_PROXY_OBJECT
  5
4C56
102
{ACAD_REACTORS
330
4C4D
102
}
330
4C4D
100
AcDbProxyObject
 90
      499
 91
      506
 93
      428
310
425499585B1A5CDD1A58D08409038333333333333E33F0000000000000F9010740A907004050150800405405064090740C02480A1B40
1001
ACAD
1000
AcDbSavedByObjectVersion
1070
     0
  0
ACAD_PROXY_OBJECT
  5
4CCB
102
{ACAD_REACTORS
330
4C4D
102
}
330
4C4D
100
AcDbProxyObject
 90
      499
 91
      506
 93
      420
310
4194DA1859195911B40902404333333333333E33F0000000000000F9010740A41107004050150800405405064090840C02480A0B40
1001
ACAD
1000
AcDbSavedByObjectVersion
1070
     0
  0
ACAD_PROXY_OBJECT
  5
4CCA
102
{ACAD_REACTORS
330
4C4D
102
}
330
4C4D
100
AcDbProxyObject
 90
      499
 91
      506
 93
      516
310
4454DA18591959081DDA5D1A08195919D95CD1A40902404333333333333E33F0000000000000F901074090142907004050250800405405064090740C02480A0B40
1001
ACAD
1000
AcDbSavedByObjectVersion
1070
     0
  0
ACAD_PROXY_OBJECT
  5
4CC7
102
{ACAD_REACTORS
330
4C4D
102
}
330
4C4D
100
AcDbProxyObject
 90
      499
 91
      506
 93
      532
310
4394DA1859195CC81BD98811DC985E5174090240C333333333333E33F0000000000000F901079024090741D01000000000000111010841D405064090740C02480A0340
1001
ACAD
1000
AcDbSavedByObjectVersion
1070
     0
  0
ACAD_PROXY_OBJECT
  5
4CC8
102
{ACAD_REACTORS
330
4C4D
102
}
330
4C4D
100
AcDbProxyObject
 90
      499
 91
      506
 93
      476
310
41D4DAD95D18DA1E51840502408333333333333E33F0000000000000F901079024090741D01000000000000111010B41D405064090741802480A0340
1001
ACAD
1000
AcDbSavedByObjectVersion
1070
     0
  0
ACAD_PROXY_OBJECT
  5
4C5A
102
{ACAD_REACTORS
330
4C4D
102
}
330
4C4D
100
AcDbProxyObject
 90
      499
 91
      506
 93
      412
310
41D51A1A58DAD95B90D409028333333333333E3BF0000000000000FB010790141107004050150C41D405064090741402480A0350
1001
ACAD
1000
AcDbSavedByObjectVersion
1070
     0
  0
ACAD_PROXY_OBJECT
  5
4CC2
102
{ACAD_REACTORS
330
4C4D
102
}
330
4C4D
100
AcDbProxyObject
 90
      499
 91
      506
 93
      420
310
4255DA5C99599C985B595059028333333333333E33F0000000000000F90107901411070040501600405405064090740C02480A0340
1001
ACAD
1000
AcDbSavedByObjectVersion
1070
     0
  0
ACAD_PROXY_OBJECT
  5
4CC9
102
{ACAD_REACTORS
330
4C4D
102
}
330
4C4D
100
AcDbProxyObject
 90
      499
 91
      506
 93
      404
310
41560B54985E51940902404000000000000E03F0000000000000F9010740501907004050150841D405064090740C02480A1B40
1001
ACAD
1000
AcDbSavedByObjectVersion
1070
     0
  0
XRECORD
  5
547E
102
{ACAD_REACTORS
330
5474
102
}
330
5474
100
AcDbXrecord
340
0
  0
XRECORD
  5
547D
102
{ACAD_REACTORS
330
5474
102
}
330
5474
100
AcDbXrecord
 90
        0
  0
XRECORD
  5
5497
102
{ACAD_REACTORS
330
5474
102
}
330
5474
100
AcDbXrecord
340
2948
  0
XRECORD
  5
5494
102
{ACAD_REACTORS
330
5474
102
}
330
5474
100
AcDbXrecord
1000
DSTYLE
1002
{
1070
   171
 70
     2
1070
   143
 40
0.0394
1070
   274
 70
     2
1070
    41
 40
6.0
1070
   342
340
2AF4
1070
   271
 70
     1
1070
   278
 70
    46
1070
   341
340
2AF4
1070
   272
 70
     1
1070
    48
 40
0.1
1070
   283
 70
     1
1070
    47
 40
0.1
1070
   145
 40
1.0
1070
   340
340
10
1070
   140
 40
8.0
1070
   284
 70
     0
1002
}
  0
XRECORD
  5
547F
102
{ACAD_REACTORS
330
5474
102
}
330
5474
100
AcDbXrecord
  1
{23698909-1D67-4744-B0E2-8DE11E3ED422}
  0
XRECORD
  5
5477
102
{ACAD_REACTORS
330
5474
102
}
330
5474
100
AcDbXrecord
  1

  0
XRECORD
  5
547C
102
{ACAD_REACTORS
330
5474
102
}
330
5474
100
AcDbXrecord
 90
        0
  0
XRECORD
  5
5479
102
{ACAD_REACTORS
330
5474
102
}
330
5474
100
AcDbXrecord
340
2816
  0
XRECORD
  5
547B
102
{ACAD_REACTORS
330
5474
102
}
330
5474
100
AcDbXrecord
 90
    10781
  0
XRECORD
  5
5498
102
{ACAD_REACTORS
330
5474
102
}
330
5474
100
AcDbXrecord
340
2947
  0
XRECORD
  5
547A
102
{ACAD_REACTORS
330
5474
102
}
330
5474
100
AcDbXrecord
340
2817
  0
XRECORD
  5
5481
102
{ACAD_REACTORS
330
5474
102
}
330
5474
100
AcDbXrecord
 40
0.25
  0
XRECORD
  5
5484
102
{ACAD_REACTORS
330
5474
102
}
330
5474
100
AcDbXrecord
340
0
  0
XRECORD
  5
548A
102
{ACAD_REACTORS
330
5474
102
}
330
5474
100
AcDbXrecord
 10
0.0
 20
0.0
 30
0.0
  0
XRECORD
  5
5486
102
{ACAD_REACTORS
330
5474
102
}
330
5474
100
AcDbXrecord
 10
0.0
 20
0.0
 30
0.0
  0
XRECORD
  5
5489
102
{ACAD_REACTORS
330
5474
102
}
330
5474
100
AcDbXrecord
 10
0.0
 20
0.0
 30
0.0
  0
XRECORD
  5
5487
102
{ACAD_REACTORS
330
5474
102
}
330
5474
100
AcDbXrecord
 10
0.0
 20
0.0
 30
0.0
  0
XRECORD
  5
5488
102
{ACAD_REACTORS
330
5474
102
}
330
5474
100
AcDbXrecord
 10
0.0
 20
0.0
 30
0.0
  0
XRECORD
  5
5485
102
{ACAD_REACTORS
330
5474
102
}
330
5474
100
AcDbXrecord
 10
0.0
 20
0.0
 30
0.0
  0
XRECORD
  5
5482
102
{ACAD_REACTORS
330
5474
102
}
330
5474
100
AcDbXrecord
340
0
  0
XRECORD
  5
5483
102
{ACAD_REACTORS
330
5474
102
}
330
5474
100
AcDbXrecord
 70
     0
  0
XRECORD
  5
5478
102
{ACAD_REACTORS
330
5474
102
}
330
5474
100
AcDbXrecord
  1

  0
XRECORD
  5
5475
102
{ACAD_REACTORS
330
5474
102
}
330
5474
100
AcDbXrecord
 90
        1
  0
XRECORD
  5
5476
102
{ACAD_REACTORS
330
5474
102
}
330
5474
100
AcDbXrecord
 90
       70
  0
XRECORD
  5
548D
102
{ACAD_REACTORS
330
5474
102
}
330
5474
100
AcDbXrecord
340
0
  0
XRECORD
  5
5493
102
{ACAD_REACTORS
330
5474
102
}
330
5474
100
AcDbXrecord
 10
0.0
 20
0.0
 30
0.0
  0
XRECORD
  5
548F
102
{ACAD_REACTORS
330
5474
102
}
330
5474
100
AcDbXrecord
 10
0.0
 20
0.0
 30
0.0
  0
XRECORD
  5
5492
102
{ACAD_REACTORS
330
5474
102
}
330
5474
100
AcDbXrecord
 10
0.0
 20
0.0
 30
0.0
  0
XRECORD
  5
5490
102
{ACAD_REACTORS
330
5474
102
}
330
5474
100
AcDbXrecord
 10
0.0
 20
0.0
 30
0.0
  0
XRECORD
  5
5491
102
{ACAD_REACTORS
330
5474
102
}
330
5474
100
AcDbXrecord
 10
0.0
 20
0.0
 30
0.0
  0
XRECORD
  5
548E
102
{ACAD_REACTORS
330
5474
102
}
330
5474
100
AcDbXrecord
 10
0.0
 20
0.0
 30
0.0
  0
XRECORD
  5
548B
102
{ACAD_REACTORS
330
5474
102
}
330
5474
100
AcDbXrecord
340
0
  0
XRECORD
  5
548C
102
{ACAD_REACTORS
330
5474
102
}
330
5474
100
AcDbXrecord
 70
     0
  0
XRECORD
  5
5480
102
{ACAD_REACTORS
330
5474
102
}
330
5474
100
AcDbXrecord
  1
{FB88D5A5-C2B3-44B9-87FE-AD228F2755C0}
  0
DICTIONARYVAR
  5
4CBF
102
{ACAD_REACTORS
330
4CBE
102
}
330
4CBE
100
DictionaryVariables
280
     0
  1
1:1
  0
DICTIONARYVAR
  5
51EB
102
{ACAD_REACTORS
330
4CBE
102
}
330
4CBE
100
DictionaryVariables
280
     0
  1
Standard
  0
DICTIONARYVAR
  5
51EA
102
{ACAD_REACTORS
330
4CBE
102
}
330
4CBE
100
DictionaryVariables
280
     0
  1
Standard
  0
DICTIONARYVAR
  5
5495
102
{ACAD_REACTORS
330
4CBE
102
}
330
4CBE
100
DictionaryVariables
280
     0
  1
1
  0
DICTIONARYVAR
  5
5496
102
{ACAD_REACTORS
330
4CBE
102
}
330
4CBE
100
DictionaryVariables
280
     0
  1
0
  0
DICTIONARYVAR
  5
4CC0
102
{ACAD_REACTORS
330
4CBE
102
}
330
4CBE
100
DictionaryVariables
280
     0
  1
0
  0
DICTIONARYVAR
  5
4CC1
102
{ACAD_REACTORS
330
4CBE
102
}
330
4CBE
100
DictionaryVariables
280
     0
  1
0
  0
DICTIONARY
  5
5103
102
{ACAD_REACTORS
330
5102
102
}
330
5102
100
AcDbDictionary
  0
DICTIONARY
  5
5113
102
{ACAD_REACTORS
330
5112
102
}
330
5112
100
AcDbDictionary
  0
DICTIONARY
  5
5117
102
{ACAD_REACTORS
330
5116
102
}
330
5116
100
AcDbDictionary
  0
DICTIONARY
  5
511C
102
{ACAD_REACTORS
330
511B
102
}
330
511B
100
AcDbDictionary
  0
DICTIONARY
  5
5130
102
{ACAD_REACTORS
330
512F
102
}
330
512F
100
AcDbDictionary
  0
DICTIONARY
  5
5134
102
{ACAD_REACTORS
330
5133
102
}
330
5133
100
AcDbDictionary
  0
DICTIONARY
  5
5138
102
{ACAD_REACTORS
330
5137
102
}
330
5137
100
AcDbDictionary
  0
DICTIONARY
  5
513C
102
{ACAD_REACTORS
330
513B
102
}
330
513B
100
AcDbDictionary
  0
DICTIONARY
  5
5140
102
{ACAD_REACTORS
330
513F
102
}
330
513F
100
AcDbDictionary
  0
DICTIONARY
  5
5144
102
{ACAD_REACTORS
330
5143
102
}
330
5143
100
AcDbDictionary
  0
DICTIONARY
  5
5148
102
{ACAD_REACTORS
330
5147
102
}
330
5147
100
AcDbDictionary
  0
DICTIONARY
  5
514C
102
{ACAD_REACTORS
330
514B
102
}
330
514B
100
AcDbDictionary
  0
DICTIONARY
  5
5152
102
{ACAD_REACTORS
330
5151
102
}
330
5151
100
AcDbDictionary
  0
DICTIONARY
  5
5156
102
{ACAD_REACTORS
330
5155
102
}
330
5155
100
AcDbDictionary
  0
DICTIONARY
  5
53B3
102
{ACAD_REACTORS
330
53B2
102
}
330
53B2
100
AcDbDictionary
  0
DICTIONARY
  5
5223
102
{ACAD_REACTORS
330
5222
102
}
330
5222
100
AcDbDictionary
  0
DICTIONARY
  5
531A
102
{ACAD_REACTORS
330
5319
102
}
330
5319
100
AcDbDictionary
  0
DICTIONARY
  5
5350
102
{ACAD_REACTORS
330
534F
102
}
330
534F
100
AcDbDictionary
  0
DICTIONARY
  5
549E
330
4C4B
100
AcDbDictionary
280
     1
  3
ACAD_XREC_ROUNDTRIP
360
549F
  0
DICTIONARY
  5
549C
330
4C4A
100
AcDbDictionary
280
     1
  3
ACAD_XREC_ROUNDTRIP
360
549D
  0
DICTIONARY
  5
54A0
330
4C4C
100
AcDbDictionary
280
     1
  3
ACAD_XREC_ROUNDTRIP
360
54A1
  0
XRECORD
  5
549F
102
{ACAD_REACTORS
330
549E
102
}
330
549E
100
AcDbXrecord
102
MATERIAL
148
0.0
149
0.0
149
0.0
 93
        0
 94
      127
282
     0
 72
     1
 77
     1
171
     1
175
     1
179
     1
273
     0
  0
XRECORD
  5
549D
102
{ACAD_REACTORS
330
549C
102
}
330
549C
100
AcDbXrecord
102
MATERIAL
148
0.0
149
0.0
149
0.0
 93
        0
 94
      127
282
     0
 72
     1
 77
     1
171
     1
175
     1
179
     1
273
     0
  0
XRECORD
  5
54A1
102
{ACAD_REACTORS
330
54A0
102
}
330
54A0
100
AcDbXrecord
102
MATERIAL
148
0.0
149
0.0
149
0.0
 93
        0
 94
      127
282
     0
 72
     1
 77
     1
171
     1
175
     1
179
     1
273
     0
  0
ENDSEC
  0
EOF
