  0
SECTION
  2
HEADER
  9
$ACADVER
  1
AC1014
  9
$ACADMAINTVER
 70
     9
  9
$DWGCODEPAGE
  3
ANSI_932
  9
$INSBASE
 10
0.0
 20
0.0
 30
0.0
  9
$EXTMIN
 10
-97.989982329813
 20
160.948327698435
 30
0.0
  9
$EXTMAX
 10
629.904201581763
 20
559.32394044125
 30
0.0
  9
$LIMMIN
 10
-360.747566795242
 20
4.457354754526
  9
$LIMMAX
 10
-162.153696144267
 20
287.675440264018
  9
$ORTHOMODE
 70
     0
  9
$REGENMODE
 70
     1
  9
$FILLMODE
 70
     1
  9
$QTEXTMODE
 70
     0
  9
$MIRRTEXT
 70
     1
  9
$DRAGMODE
 70
     2
  9
$LTSCALE
 40
1.0
  9
$OSMODE
 70
   935
  9
$ATTMODE
 70
     1
  9
$TEXTSIZE
 40
4.0
  9
$TRACEWID
 40
1.0
  9
$TEXTSTYLE
  7
STANDARD
  9
$CLAYER
  8
寸法線
  9
$CELTYPE
  6
BYLAYER
  9
$CECOLOR
 62
   256
  9
$CELTSCALE
 40
10.0
  9
$DELOBJ
 70
     1
  9
$DISPSILH
 70
     0
  9
$DIMSCALE
 40
1.0
  9
$DIMASZ
 40
6.0
  9
$DIMEXO
 40
0.625
  9
$DIMDLI
 40
3.75
  9
$DIMRND
 40
0.0
  9
$DIMDLE
 40
0.0
  9
$DIMEXE
 40
1.25
  9
$DIMTP
 40
0.1
  9
$DIMTM
 40
0.1
  9
$DIMTXT
 40
8.0
  9
$DIMCEN
 40
2.5
  9
$DIMTSZ
 40
0.0
  9
$DIMTOL
 70
     0
  9
$DIMLIM
 70
     0
  9
$DIMTIH
 70
     0
  9
$DIMTOH
 70
     0
  9
$DIMSE1
 70
     0
  9
$DIMSE2
 70
     0
  9
$DIMTAD
 70
     1
  9
$DIMZIN
 70
     8
  9
$DIMBLK
  1
OPEN30
  9
$DIMASO
 70
     1
  9
$DIMSHO
 70
     1
  9
$DIMPOST
  1

  9
$DIMAPOST
  1

  9
$DIMALT
 70
     0
  9
$DIMALTD
 70
     2
  9
$DIMALTF
 40
0.0394
  9
$DIMLFAC
 40
1.0
  9
$DIMTOFL
 70
     1
  9
$DIMTVP
 40
1.0
  9
$DIMTIX
 70
     0
  9
$DIMSOXD
 70
     0
  9
$DIMSAH
 70
     0
  9
$DIMBLK1
  1

  9
$DIMBLK2
  1

  9
$DIMSTYLE
  2
ISO-25
  9
$DIMCLRD
 70
     0
  9
$DIMCLRE
 70
     0
  9
$DIMCLRT
 70
     0
  9
$DIMTFAC
 40
1.0
  9
$DIMGAP
 40
0.625
  9
$DIMJUST
 70
     0
  9
$DIMSD1
 70
     0
  9
$DIMSD2
 70
     0
  9
$DIMTOLJ
 70
     1
  9
$DIMTZIN
 70
     0
  9
$DIMALTZ
 70
     0
  9
$DIMALTTZ
 70
     0
  9
$DIMFIT
 70
     5
  9
$DIMUPT
 70
     0
  9
$DIMUNIT
 70
     2
  9
$DIMDEC
 70
     1
  9
$DIMTDEC
 70
     1
  9
$DIMALTU
 70
     2
  9
$DIMALTTD
 70
     2
  9
$DIMTXSTY
  7
STANDARD
  9
$DIMAUNIT
 70
     0
  9
$LUNITS
 70
     2
  9
$LUPREC
 70
     4
  9
$SKETCHINC
 40
1.0
  9
$FILLETRAD
 40
1.0
  9
$AUNITS
 70
     0
  9
$AUPREC
 70
     0
  9
$MENU
  1
.
  9
$ELEVATION
 40
0.0
  9
$PELEVATION
 40
0.0
  9
$THICKNESS
 40
0.0
  9
$LIMCHECK
 70
     0
  9
$CHAMFERA
 40
0.5
  9
$CHAMFERB
 40
0.5
  9
$CHAMFERC
 40
20.0
  9
$CHAMFERD
 40
0.0
  9
$SKPOLY
 70
     0
  9
$TDCREATE
 40
2450576.597302431
  9
$TDUPDATE
 40
2457627.66649897
  9
$TDINDWG
 40
1.3247585532
  9
$TDUSRTIMER
 40
1.3247585532
  9
$USRTIMER
 70
     1
  9
$ANGBASE
 50
0.0
  9
$ANGDIR
 70
     0
  9
$PDMODE
 70
     0
  9
$PDSIZE
 40
0.0
  9
$PLINEWID
 40
0.0
  9
$COORDS
 70
     2
  9
$SPLFRAME
 70
     0
  9
$SPLINETYPE
 70
     6
  9
$SPLINESEGS
 70
     8
  9
$ATTDIA
 70
     0
  9
$ATTREQ
 70
     1
  9
$HANDLING
 70
     1
  9
$HANDSEED
  5
53F0
  9
$SURFTAB1
 70
     6
  9
$SURFTAB2
 70
     6
  9
$SURFTYPE
 70
     6
  9
$SURFU
 70
     6
  9
$SURFV
 70
     6
  9
$UCSNAME
  2

  9
$UCSORG
 10
0.0
 20
0.0
 30
0.0
  9
$UCSXDIR
 10
1.0
 20
0.0
 30
0.0
  9
$UCSYDIR
 10
0.0
 20
1.0
 30
0.0
  9
$PUCSNAME
  2

  9
$PUCSORG
 10
0.0
 20
0.0
 30
0.0
  9
$PUCSXDIR
 10
1.0
 20
0.0
 30
0.0
  9
$PUCSYDIR
 10
0.0
 20
1.0
 30
0.0
  9
$USERI1
 70
     0
  9
$USERI2
 70
     0
  9
$USERI3
 70
     0
  9
$USERI4
 70
     0
  9
$USERI5
 70
     0
  9
$USERR1
 40
0.0
  9
$USERR2
 40
0.0
  9
$USERR3
 40
0.0
  9
$USERR4
 40
0.0
  9
$USERR5
 40
0.0
  9
$WORLDVIEW
 70
     1
  9
$SHADEDGE
 70
     3
  9
$SHADEDIF
 70
    70
  9
$TILEMODE
 70
     0
  9
$MAXACTVP
 70
    16
  9
$PINSBASE
 10
0.0
 20
0.0
 30
0.0
  9
$PLIMCHECK
 70
     0
  9
$PEXTMIN
 10
4.746305129083
 20
1.396645458131
 30
0.0
  9
$PEXTMAX
 10
404.746305129083
 20
281.396645458131
 30
0.0
  9
$PLIMMIN
 10
-26.382099540178
 20
-10.276506292842
  9
$PLIMMAX
 10
435.874709798345
 20
316.571742734396
  9
$UNITMODE
 70
     0
  9
$VISRETAIN
 70
     0
  9
$PLINEGEN
 70
     0
  9
$PSLTSCALE
 70
     1
  9
$TREEDEPTH
 70
  3020
  9
$PICKSTYLE
 70
     1
  9
$CMLSTYLE
  2
STANDARD
  9
$CMLJUST
 70
     0
  9
$CMLSCALE
 40
1.0
  9
$PROXYGRAPHICS
 70
     1
  9
$MEASUREMENT
 70
     1
  0
ENDSEC
  0
SECTION
  2
CLASSES
  0
CLASS
  1
ACDBDICTIONARYWDFLT
  2
AcDbDictionaryWithDefault
  3
ObjectDBX Classes
 90
        0
280
     0
281
     0
  0
CLASS
  1
ACDBPLACEHOLDER
  2
AcDbPlaceHolder
  3
ObjectDBX Classes
 90
        0
280
     0
281
     0
  0
CLASS
  1
LAYOUT
  2
AcDbLayout
  3
ObjectDBX Classes
 90
        0
280
     0
281
     0
  0
CLASS
  1
VISUALSTYLE
  2
AcDbVisualStyle
  3
ObjectDBX Classes
 90
     4095
280
     0
281
     0
  0
CLASS
  1
SCALE
  2
AcDbScale
  3
ObjectDBX Classes
 90
     1153
280
     0
281
     0
  0
CLASS
  1
MATERIAL
  2
AcDbMaterial
  3
ObjectDBX Classes
 90
     1153
280
     0
281
     0
  0
CLASS
  1
TABLESTYLE
  2
AcDbTableStyle
  3
ObjectDBX Classes
 90
     4095
280
     0
281
     0
  0
CLASS
  1
MLEADERSTYLE
  2
AcDbMLeaderStyle
  3
ACDB_MLEADERSTYLE_CLASS
 90
     4095
280
     0
281
     0
  0
CLASS
  1
SUN
  2
AcDbSun
  3
SCENEOE
 90
     1153
280
     0
281
     0
  0
CLASS
  1
DICTIONARYVAR
  2
AcDbDictionaryVar
  3
ObjectDBX Classes
 90
        0
280
     0
281
     0
  0
CLASS
  1
SORTENTSTABLE
  2
AcDbSortentsTable
  3
ObjectDBX Classes
 90
        0
280
     0
281
     0
  0
CLASS
  1
CELLSTYLEMAP
  2
AcDbCellStyleMap
  3
ObjectDBX Classes
 90
     1152
280
     0
281
     0
  0
CLASS
  1
XRECORD
  2
AcDbXrecord
  3
ObjectDBX Classes
 90
        0
280
     0
281
     0
  0
CLASS
  1
LWPOLYLINE
  2
AcDbPolyline
  3
ObjectDBX Classes
 90
        0
280
     0
281
     1
  0
CLASS
  1
HATCH
  2
AcDbHatch
  3
ObjectDBX Classes
 90
        0
280
     0
281
     1
  0
ENDSEC
  0
SECTION
  2
TABLES
  0
TABLE
  2
VPORT
  5
8
102
{ACAD_XDICTIONARY
360
53E7
102
}
330
0
100
AcDbSymbolTable
 70
     1
  0
VPORT
  5
485D
330
8
100
AcDbSymbolTableRecord
100
AcDbViewportTableRecord
  2
*ACTIVE
 70
     0
 10
0.0
 20
0.0
 11
1.0
 21
1.0
 12
265.957109625975
 22
360.136134069842
 13
0.0
 23
0.0
 14
1.0
 24
1.0
 15
0.0
 25
0.0
 16
0.0
 26
0.0
 36
1.0
 17
0.0
 27
0.0
 37
0.0
 40
421.989930833611
 41
1.759407069555
 42
50.0
 43
0.0
 44
0.0
 50
0.0
 51
0.0
 71
    16
 72
   100
 73
     1
 74
     0
 75
     0
 76
     0
 77
     0
 78
     0
  0
ENDTAB
  0
TABLE
  2
LTYPE
  5
5
330
0
100
AcDbSymbolTable
 70
     6
  0
LTYPE
  5
14
330
5
100
AcDbSymbolTableRecord
100
AcDbLinetypeTableRecord
  2
BYBLOCK
 70
     0
  3

 72
    65
 73
     0
 40
0.0
  0
LTYPE
  5
15
330
5
100
AcDbSymbolTableRecord
100
AcDbLinetypeTableRecord
  2
BYLAYER
 70
     0
  3

 72
    65
 73
     0
 40
0.0
  0
LTYPE
  5
16
330
5
100
AcDbSymbolTableRecord
100
AcDbLinetypeTableRecord
  2
CONTINUOUS
 70
     0
  3
Solid line
 72
    65
 73
     0
 40
0.0
  0
LTYPE
  5
1EC
330
5
100
AcDbSymbolTableRecord
100
AcDbLinetypeTableRecord
  2
CENTER
 70
     0
  3
____ _ ____ _ ____ _ ____ _ ____ _ ____ _ ____ 
 72
    65
 73
     4
 40
2.0
 49
1.25
 74
     0
 49
-0.25
 74
     0
 49
0.25
 74
     0
 49
-0.25
 74
     0
  0
LTYPE
  5
1ED
330
5
100
AcDbSymbolTableRecord
100
AcDbLinetypeTableRecord
  2
DASHED
 70
     0
  3
__ __ __ __ __ __ __ __ __ __ __ __ __ __ __ __
 72
    65
 73
     2
 40
0.75
 49
0.5
 74
     0
 49
-0.25
 74
     0
  0
LTYPE
  5
2B1F
330
5
100
AcDbSymbolTableRecord
100
AcDbLinetypeTableRecord
  2
DASHDOT
 70
     0
  3
一点鎖線
 72
    65
 73
     4
 40
25.6
 49
20.0
 74
     0
 49
-2.0
 74
     0
 49
1.6
 74
     0
 49
-2.0
 74
     0
  0
LTYPE
  5
31A1
330
5
100
AcDbSymbolTableRecord
100
AcDbLinetypeTableRecord
  2
CENTER2
 70
     0
  3
Center (.5x) ___ _ ___ _ ___ _ ___ _ ___ _ ___
 72
    65
 73
     4
 40
28.575
 49
19.05
 74
     0
 49
-3.175
 74
     0
 49
3.175
 74
     0
 49
-3.175
 74
     0
  0
LTYPE
  5
4002
330
5
100
AcDbSymbolTableRecord
100
AcDbLinetypeTableRecord
  2
DASHED2
 70
     0
  3
Dashed (.5x) _ _ _ _ _ _ _ _ _ _ _ _ _ _ _ _ _
 72
    65
 73
     2
 40
9.525
 49
6.35
 74
     0
 49
-3.175
 74
     0
  0
ENDTAB
  0
TABLE
  2
LAYER
  5
2
102
{ACAD_XDICTIONARY
360
29EA
102
}
330
0
100
AcDbSymbolTable
 70
    12
  0
LAYER
  5
F
330
2
100
AcDbSymbolTableRecord
100
AcDbLayerTableRecord
  2
0
 70
     0
 62
     7
  6
CONTINUOUS
  0
LAYER
  5
61
330
2
100
AcDbSymbolTableRecord
100
AcDbLayerTableRecord
  2
図枠太線
 70
     0
 62
   251
  6
CONTINUOUS
  0
LAYER
  5
62
330
2
100
AcDbSymbolTableRecord
100
AcDbLayerTableRecord
  2
図枠細線
 70
     0
 62
   252
  6
CONTINUOUS
  0
LAYER
  5
63
330
2
100
AcDbSymbolTableRecord
100
AcDbLayerTableRecord
  2
図枠ロゴマーク
 70
     0
 62
   253
  6
CONTINUOUS
  0
LAYER
  5
1EF
330
2
100
AcDbSymbolTableRecord
100
AcDbLayerTableRecord
  2
外形線
 70
     0
 62
     7
  6
CONTINUOUS
  0
LAYER
  5
1F0
330
2
100
AcDbSymbolTableRecord
100
AcDbLayerTableRecord
  2
寸法線
 70
     0
 62
     1
  6
CONTINUOUS
  0
LAYER
  5
1F1
330
2
100
AcDbSymbolTableRecord
100
AcDbLayerTableRecord
  2
中心線
 70
     0
 62
     4
  6
CENTER
  0
LAYER
  5
1F4
330
2
100
AcDbSymbolTableRecord
100
AcDbLayerTableRecord
  2
DEFPOINTS
 70
     0
 62
     7
  6
CONTINUOUS
  0
LAYER
  5
2AA2
330
2
100
AcDbSymbolTableRecord
100
AcDbLayerTableRecord
  2
下書線
 70
     0
 62
     2
  6
CONTINUOUS
  0
LAYER
  5
2AA3
330
2
100
AcDbSymbolTableRecord
100
AcDbLayerTableRecord
  2
隠れ線
 70
     0
 62
     3
  6
DASHED
  0
LAYER
  5
2AA4
330
2
100
AcDbSymbolTableRecord
100
AcDbLayerTableRecord
  2
細線
 70
     0
 62
     6
  6
CONTINUOUS
  0
LAYER
  5
2AA5
330
2
100
AcDbSymbolTableRecord
100
AcDbLayerTableRecord
  2
太線
 70
     0
 62
   190
  6
CONTINUOUS
  0
ENDTAB
  0
TABLE
  2
STYLE
  5
3
330
0
100
AcDbSymbolTable
 70
     2
  0
STYLE
  5
10
330
3
100
AcDbSymbolTableRecord
100
AcDbTextStyleTableRecord
  2
STANDARD
 70
     0
 40
0.0
 41
1.0
 50
0.0
 71
     0
 42
4.0
  3
ISOCP
  4
bigfont.shx
  0
STYLE
  5
64
330
3
100
AcDbSymbolTableRecord
100
AcDbTextStyleTableRecord
  2
EXCADSTD
 70
     0
 40
0.0
 41
1.0
 50
0.0
 71
     0
 42
0.2
  3
monotxt
  4
bigfont
  0
ENDTAB
  0
TABLE
  2
VIEW
  5
6
330
0
100
AcDbSymbolTable
 70
     0
  0
ENDTAB
  0
TABLE
  2
UCS
  5
7
330
0
100
AcDbSymbolTable
 70
     0
  0
ENDTAB
  0
TABLE
  2
APPID
  5
9
330
0
100
AcDbSymbolTable
 70
     6
  0
APPID
  5
11
330
9
100
AcDbSymbolTableRecord
100
AcDbRegAppTableRecord
  2
ACAD
 70
     0
  0
APPID
  5
3507
330
9
100
AcDbSymbolTableRecord
100
AcDbRegAppTableRecord
  2
ACAD_DIMASSOC_CALC_DIMLFAC
 70
     0
  0
APPID
  5
3508
330
9
100
AcDbSymbolTableRecord
100
AcDbRegAppTableRecord
  2
ACAD_DIMASSOC_DIMLFAC
 70
     0
  0
APPID
  5
3509
330
9
100
AcDbSymbolTableRecord
100
AcDbRegAppTableRecord
  2
ACAD_DIMASSOC_OVERRIDDEN_D
 70
     0
  0
APPID
  5
48A1
330
9
100
AcDbSymbolTableRecord
100
AcDbRegAppTableRecord
  2
ACADANNOTATIVE
 70
     0
  0
APPID
  5
4E34
330
9
100
AcDbSymbolTableRecord
100
AcDbRegAppTableRecord
  2
ACAD_MLEADERVER
 70
     0
  0
ENDTAB
  0
TABLE
  2
DIMSTYLE
  5
A
330
0
100
AcDbSymbolTable
 70
     2
  0
DIMSTYLE
105
1D
330
A
100
AcDbSymbolTableRecord
100
AcDbDimStyleTableRecord
  2
STANDARD
 70
     0
  3

  4

  5

  6

  7

 40
1.0
 41
0.18
 42
0.0625
 43
0.38
 44
0.18
 45
0.0
 46
0.0
 47
0.0
 48
0.0
140
0.18
141
0.09
142
0.0
143
25.4
144
1.0
145
0.0
146
1.0
147
0.09
 71
     0
 72
     0
 73
     1
 74
     1
 75
     0
 76
     0
 77
     0
 78
     0
170
     0
171
     2
172
     0
173
     0
174
     0
175
     0
176
     0
177
     0
178
     0
270
     2
271
     4
272
     4
273
     2
274
     2
340
10
275
     0
280
     0
281
     0
282
     0
283
     1
284
     0
285
     0
286
     0
287
     3
288
     0
  0
DIMSTYLE
105
24
102
{ACAD_REACTORS
330
4618
330
4663
330
47EE
330
47FB
330
4845
330
4B4B
330
4B7C
330
4B7D
330
4B7E
330
4B7F
330
4B80
330
4B88
330
502D
102
}
330
A
100
AcDbSymbolTableRecord
100
AcDbDimStyleTableRecord
  2
ISO-25
 70
     0
  3

  4

  5

  6

  7

 40
1.0
 41
2.5
 42
0.625
 43
3.75
 44
1.25
 45
0.0
 46
0.0
 47
0.0
 48
0.0
140
2.5
141
2.5
142
0.0
143
0.0394
144
1.0
145
1.0
146
1.0
147
0.625
 71
     0
 72
     0
 73
     1
 74
     0
 75
     0
 76
     0
 77
     1
 78
     8
170
     0
171
     2
172
     1
173
     0
174
     0
175
     0
176
     0
177
     0
178
     0
270
     2
271
     4
272
     4
273
     2
274
     2
340
10
275
     0
280
     0
281
     0
282
     0
283
     1
284
     0
285
     0
286
     0
287
     3
288
     0
  0
ENDTAB
  0
TABLE
  2
BLOCK_RECORD
  5
1
330
0
100
AcDbSymbolTable
 70
    20
  0
BLOCK_RECORD
  5
1A
330
1
100
AcDbSymbolTableRecord
100
AcDbBlockTableRecord
  2
*MODEL_SPACE
  0
BLOCK_RECORD
  5
28FB
330
1
100
AcDbSymbolTableRecord
100
AcDbBlockTableRecord
  2
*PAPER_SPACE
  0
BLOCK_RECORD
  5
65
330
1
100
AcDbSymbolTableRecord
100
AcDbBlockTableRecord
  2
A$C3392
  0
BLOCK_RECORD
  5
29BF
330
1
100
AcDbSymbolTableRecord
100
AcDbBlockTableRecord
  2
A4横用_タイトル
1001
ACAD
1000
DesignCenter Data
1002
{
1070
     1
1070
     4
1002
}
  0
BLOCK_RECORD
  5
29F4
330
1
100
AcDbSymbolTableRecord
100
AcDbBlockTableRecord
  2
A4縦用_タイトル
1001
ACAD
1000
DesignCenter Data
1002
{
1070
     1
1070
     4
1002
}
  0
BLOCK_RECORD
  5
2A32
330
1
100
AcDbSymbolTableRecord
100
AcDbBlockTableRecord
  2
A3横用_タイトル
1001
ACAD
1000
DesignCenter Data
1002
{
1070
     1
1070
     4
1002
}
  0
BLOCK_RECORD
  5
2A6C
330
1
100
AcDbSymbolTableRecord
100
AcDbBlockTableRecord
  2
A3縦用_タイトル
1001
ACAD
1000
DesignCenter Data
1002
{
1070
     1
1070
     4
1002
}
  0
BLOCK_RECORD
  5
2AF4
330
1
100
AcDbSymbolTableRecord
100
AcDbBlockTableRecord
  2
_OPEN30
  0
BLOCK_RECORD
  5
4619
330
1
100
AcDbSymbolTableRecord
100
AcDbBlockTableRecord
  2
*D6
  0
BLOCK_RECORD
  5
4664
330
1
100
AcDbSymbolTableRecord
100
AcDbBlockTableRecord
  2
*D7
  0
BLOCK_RECORD
  5
46A0
330
1
100
AcDbSymbolTableRecord
100
AcDbBlockTableRecord
  2
静電容量センサ
  0
BLOCK_RECORD
  5
47EF
330
1
100
AcDbSymbolTableRecord
100
AcDbBlockTableRecord
  2
*D9
  0
BLOCK_RECORD
  5
47FC
330
1
100
AcDbSymbolTableRecord
100
AcDbBlockTableRecord
  2
*D10
  0
BLOCK_RECORD
  5
4846
330
1
100
AcDbSymbolTableRecord
100
AcDbBlockTableRecord
  2
*D11
  0
BLOCK_RECORD
  5
4BED
330
1
100
AcDbSymbolTableRecord
100
AcDbBlockTableRecord
  2
*D12
  0
BLOCK_RECORD
  5
4C11
330
1
100
AcDbSymbolTableRecord
100
AcDbBlockTableRecord
  2
*D13
  0
BLOCK_RECORD
  5
4C1C
330
1
100
AcDbSymbolTableRecord
100
AcDbBlockTableRecord
  2
*D14
  0
BLOCK_RECORD
  5
4C27
330
1
100
AcDbSymbolTableRecord
100
AcDbBlockTableRecord
  2
*D15
  0
BLOCK_RECORD
  5
4C32
330
1
100
AcDbSymbolTableRecord
100
AcDbBlockTableRecord
  2
*D16
  0
BLOCK_RECORD
  5
4C3D
330
1
100
AcDbSymbolTableRecord
100
AcDbBlockTableRecord
  2
*D17
  0
BLOCK_RECORD
  5
4C55
330
1
100
AcDbSymbolTableRecord
100
AcDbBlockTableRecord
  2
*D18
  0
BLOCK_RECORD
  5
503C
330
1
100
AcDbSymbolTableRecord
100
AcDbBlockTableRecord
  2
*D19
  0
ENDTAB
  0
ENDSEC
  0
SECTION
  2
BLOCKS
  0
BLOCK
  5
1B
330
1A
100
AcDbEntity
  8
0
100
AcDbBlockBegin
  2
*MODEL_SPACE
 70
     0
 10
0.0
 20
0.0
 30
0.0
  3
*MODEL_SPACE
  1

  0
ENDBLK
  5
1C
330
1A
100
AcDbEntity
  8
0
100
AcDbBlockEnd
  0
BLOCK
  5
28FD
330
28FB
100
AcDbEntity
 67
     1
  8
0
 48
10.0
100
AcDbBlockBegin
  2
*PAPER_SPACE
 70
     0
 10
0.0
 20
0.0
 30
0.0
  3
*PAPER_SPACE
  1

  0
ENDBLK
  5
28FE
330
28FB
100
AcDbEntity
 67
     1
  8
0
 48
10.0
100
AcDbBlockEnd
  0
BLOCK
  5
93
330
65
100
AcDbEntity
  8
0
100
AcDbBlockBegin
  2
A$C3392
 70
     0
 10
0.0
 20
0.0
 30
0.0
  3
A$C3392
  1

  0
LINE
  5
66
330
65
100
AcDbEntity
  8
図枠太線
  6
CONTINUOUS
100
AcDbLine
 10
211.858584505185
 20
30.927375675439
 30
0.0
 11
211.858584505185
 21
0.927375675439
 31
0.0
  0
LINE
  5
67
330
65
100
AcDbEntity
  8
図枠細線
  6
CONTINUOUS
100
AcDbLine
 10
231.858592505185
 20
15.927377675439
 30
0.0
 11
287.858592505185
 21
15.927375675439
 31
0.0
  0
LINE
  5
68
330
65
100
AcDbEntity
  8
図枠細線
  6
CONTINUOUS
100
AcDbLine
 10
211.858592505185
 20
15.927377675439
 30
0.0
 11
231.858592505185
 21
15.927377675439
 31
0.0
  0
LINE
  5
69
330
65
100
AcDbEntity
  8
図枠太線
  6
CONTINUOUS
 62
   251
100
AcDbLine
 10
1.858584505185
 20
0.927375675439
 30
0.0
 11
1.858584505185
 21
275.927375675439
 31
0.0
  0
TEXT
  5
6A
330
65
100
AcDbEntity
  8
図枠細線
  6
CONTINUOUS
 62
   252
100
AcDbText
 10
351.358592505185
 20
28.427377675439
 30
0.0
 40
2.0
  1
ＴＩＴＬＥ
 41
0.892857142857
  7
EXCADSTD
 72
     5
 11
361.358592505185
 21
28.427377675439
 31
0.0
100
AcDbText
  0
TEXT
  5
6B
330
65
100
AcDbEntity
  8
図枠細線
  6
CONTINUOUS
 62
   252
100
AcDbText
 10
345.358592505185
 20
28.427377675439
 30
0.0
 40
2.0
  1
名称
 41
1.136363636364
  7
EXCADSTD
 72
     5
 11
350.358592505185
 21
28.427377675439
 31
0.0
100
AcDbText
  0
TEXT
  5
6C
330
65
100
AcDbEntity
  8
図枠細線
  6
CONTINUOUS
 62
   252
100
AcDbText
 10
274.358592505185
 20
25.927377675439
 30
0.0
 40
2.0
  1
ＤＲＡＷＮ
 41
0.892857142857
  7
EXCADSTD
 72
     5
 11
284.358592505185
 21
25.927377675439
 31
0.0
100
AcDbText
  0
TEXT
  5
6D
330
65
100
AcDbEntity
  8
図枠細線
  6
CONTINUOUS
 62
   252
100
AcDbText
 10
260.358592505185
 20
25.927377675439
 30
0.0
 40
2.0
  1
ＤＥＳＩＧＮＥＤ
 41
0.713043472041
  7
EXCADSTD
 72
     5
 11
273.478592390744
 21
25.927377675439
 31
0.0
100
AcDbText
  0
TEXT
  5
6E
330
65
100
AcDbEntity
  8
図枠細線
  6
CONTINUOUS
 62
   252
100
AcDbText
 10
246.358592505185
 20
25.927377675439
 30
0.0
 40
2.0
  1
ＣＨＥＣＫＥＤ
 41
0.831249989569
  7
EXCADSTD
 72
     5
 11
259.658592338292
 21
25.927377675439
 31
0.0
100
AcDbText
  0
TEXT
  5
6F
330
65
100
AcDbEntity
  8
図枠細線
  6
CONTINUOUS
 62
   252
100
AcDbText
 10
274.358592505185
 20
28.427377675439
 30
0.0
 40
2.0
  1
製図
 41
1.171875
  7
EXCADSTD
 72
     5
 11
279.358592505185
 21
28.427377675439
 31
0.0
100
AcDbText
  0
TEXT
  5
70
330
65
100
AcDbEntity
  8
図枠細線
  6
CONTINUOUS
 62
   252
100
AcDbText
 10
260.358592505185
 20
28.427377675439
 30
0.0
 40
2.0
  1
設計
 41
1.136363636364
  7
EXCADSTD
 72
     5
 11
265.358592505185
 21
28.427377675439
 31
0.0
100
AcDbText
  0
TEXT
  5
71
330
65
100
AcDbEntity
  8
図枠細線
  6
CONTINUOUS
 62
   252
100
AcDbText
 10
246.358592505185
 20
28.427377675439
 30
0.0
 40
2.0
  1
検図
 41
1.171875
  7
EXCADSTD
 72
     5
 11
251.358592505185
 21
28.427377675439
 31
0.0
100
AcDbText
  0
TEXT
  5
72
330
65
100
AcDbEntity
  8
図枠細線
  6
CONTINUOUS
 62
   252
100
AcDbText
 10
232.358592505185
 20
25.927377675439
 30
0.0
 40
2.0
  1
ＡＰＰＲＯＶＥＤ
 41
0.695652184279
  7
EXCADSTD
 72
     5
 11
245.15859269592
 21
25.927377675439
 31
0.0
100
AcDbText
  0
TEXT
  5
73
330
65
100
AcDbEntity
  8
図枠細線
  6
CONTINUOUS
 62
   252
100
AcDbText
 10
232.358592505185
 20
28.427377675439
 30
0.0
 40
2.0
  1
承認
 41
1.136363636364
  7
EXCADSTD
 72
     5
 11
237.358592505185
 21
28.427377675439
 31
0.0
100
AcDbText
  0
TEXT
  5
74
330
65
100
AcDbEntity
  8
図枠細線
  6
CONTINUOUS
 62
   252
100
AcDbText
 10
290.069888505185
 20
2.574868675439
 30
0.0
 40
3.5
  1
ＴＯＷＡ　ＳＥＩＤＥＮ　ＩＮＤＵＳＴＲＩＡＬ　ＣＯ．，ＬＴＤ．
 41
0.41609778364
  7
EXCADSTD
 72
     5
 11
342.692388209546
 21
2.574868675439
 31
0.0
100
AcDbText
  0
TEXT
  5
75
330
65
100
AcDbEntity
  8
図枠ロゴマーク
  6
CONTINUOUS
 62
   253
100
AcDbText
 10
290.107348505185
 20
7.519769675439
 30
0.0
 40
7.0
  1
東和制電工業株式会社
 41
0.635593220339
  7
EXCADSTD
 72
     5
 11
342.607348505185
 21
7.519769675439
 31
0.0
100
AcDbText
  0
TEXT
  5
76
330
65
100
AcDbEntity
  8
図枠細線
  6
CONTINUOUS
 62
   252
100
AcDbText
 10
232.499705505185
 20
5.759088675439
 30
0.0
 40
2.0
  1
ＰＲＯＪＥＣＴＩＯＮ
 41
0.758620685544
  7
EXCADSTD
 72
     5
 11
250.099705409817
 21
5.759088675439
 31
0.0
100
AcDbText
  0
TEXT
  5
77
330
65
100
AcDbEntity
  8
図枠細線
  6
CONTINUOUS
 62
   252
100
AcDbText
 10
232.574629505185
 20
8.681077675439
 30
0.0
 40
2.0
  1
ＴＨＩＲＤ　ＡＮＧＬＥ
 41
0.687500010245
  7
EXCADSTD
 72
     5
 11
250.174629767445
 21
8.681077675439
 31
0.0
100
AcDbText
  0
TEXT
  5
78
330
65
100
AcDbEntity
  8
図枠細線
  6
CONTINUOUS
 62
   252
100
AcDbText
 10
256.823999505185
 20
13.427377675439
 30
0.0
 40
2.0
  1
ＳＣＡＬＥ
 41
0.892857142857
  7
EXCADSTD
 72
     5
 11
266.823999505185
 21
13.427377675439
 31
0.0
100
AcDbText
  0
TEXT
  5
79
330
65
100
AcDbEntity
  8
図枠細線
  6
CONTINUOUS
 62
   252
100
AcDbText
 10
274.858592505185
 20
13.427377675439
 30
0.0
 40
2.0
  1
ＤＡＴＥ
 41
0.909090909091
  7
EXCADSTD
 72
     5
 11
282.858592505185
 21
13.427377675439
 31
0.0
100
AcDbText
  0
TEXT
  5
7A
330
65
100
AcDbEntity
  8
図枠細線
  6
CONTINUOUS
 62
   252
100
AcDbText
 10
356.358592505185
 20
13.427377675439
 30
0.0
 40
2.0
  1
ＤＲＧ．ＮＯ．
 41
0.954545454545
  7
EXCADSTD
 72
     5
 11
370.358592505185
 21
13.427377675439
 31
0.0
100
AcDbText
  0
TEXT
  5
7B
330
65
100
AcDbEntity
  8
図枠細線
  6
CONTINUOUS
 62
   252
100
AcDbText
 10
345.358592505185
 20
13.427377675439
 30
0.0
 40
2.0
  1
図面番号
 41
1.094890510949
  7
EXCADSTD
 72
     5
 11
355.358592505185
 21
13.427377675439
 31
0.0
100
AcDbText
  0
TEXT
  5
7C
330
65
100
AcDbEntity
  8
図枠細線
  6
CONTINUOUS
 62
   252
100
AcDbText
 10
269.358592505185
 20
13.427377675439
 30
0.0
 40
2.0
  1
日付
 41
1.136363636364
  7
EXCADSTD
 72
     5
 11
274.358592505185
 21
13.427377675439
 31
0.0
100
AcDbText
  0
TEXT
  5
7D
330
65
100
AcDbEntity
  8
図枠細線
  6
CONTINUOUS
 62
   252
100
AcDbText
 10
251.451512505185
 20
13.427377675439
 30
0.0
 40
2.0
  1
尺度
 41
1.136363636364
  7
EXCADSTD
 72
     5
 11
256.451512505185
 21
13.427377675439
 31
0.0
100
AcDbText
  0
TEXT
  5
7E
330
65
100
AcDbEntity
  8
図枠細線
  6
CONTINUOUS
 62
   252
100
AcDbText
 10
232.358592505185
 20
13.427377675439
 30
0.0
 40
2.0
  1
第三角法
 41
1.086956521739
  7
EXCADSTD
 72
     5
 11
242.358592505185
 21
13.427377675439
 31
0.0
100
AcDbText
  0
TEXT
  5
7F
330
65
100
AcDbEntity
  8
図枠細線
  6
CONTINUOUS
 62
   252
100
AcDbText
 10
212.358592505185
 20
28.427377675439
 30
0.0
 40
2.0
  1
ＮＯＴＥ
 41
0.909090909091
  7
EXCADSTD
 72
     5
 11
220.358592505185
 21
28.427377675439
 31
0.0
100
AcDbText
  0
LINE
  5
80
330
65
100
AcDbEntity
  8
図枠細線
  6
CONTINUOUS
 62
   252
100
AcDbLine
 10
287.858592505185
 20
23.427375675439
 30
0.0
 11
344.858592505185
 21
23.427375675439
 31
0.0
  0
LINE
  5
81
330
65
100
AcDbEntity
  8
図枠太線
  6
CONTINUOUS
 62
   251
100
AcDbLine
 10
287.858584505185
 20
15.927375675439
 30
0.0
 11
344.858592505185
 21
15.927375675439
 31
0.0
  0
LINE
  5
82
330
65
100
AcDbEntity
  8
図枠細線
  6
CONTINUOUS
 62
   252
100
AcDbLine
 10
344.858592505185
 20
15.927375675439
 30
0.0
 11
401.858584505185
 21
15.927375675439
 31
0.0
  0
LINE
  5
83
330
65
100
AcDbEntity
  8
図枠太線
  6
CONTINUOUS
 62
   251
100
AcDbLine
 10
344.858592505185
 20
0.927377675439
 30
0.0
 11
344.858592505185
 21
30.927375675439
 31
0.0
  0
LINE
  5
84
330
65
100
AcDbEntity
  8
図枠太線
  6
CONTINUOUS
 62
   251
100
AcDbLine
 10
287.858592505185
 20
0.927377675439
 30
0.0
 11
287.858592505185
 21
30.927375675439
 31
0.0
  0
LINE
  5
85
330
65
100
AcDbEntity
  8
図枠細線
  6
CONTINUOUS
 62
   252
100
AcDbLine
 10
268.858592505185
 20
0.927377675439
 30
0.0
 11
268.858592505185
 21
15.927375675439
 31
0.0
  0
LINE
  5
86
330
65
100
AcDbEntity
  8
図枠細線
  6
CONTINUOUS
 62
   252
100
AcDbLine
 10
250.858592505185
 20
0.927377675439
 30
0.0
 11
250.858592505185
 21
15.927375675439
 31
0.0
  0
LINE
  5
87
330
65
100
AcDbEntity
  8
図枠細線
  6
CONTINUOUS
 62
   252
100
AcDbLine
 10
273.858592505185
 20
30.927375675439
 30
0.0
 11
273.858592505185
 21
15.927375675439
 31
0.0
  0
LINE
  5
88
330
65
100
AcDbEntity
  8
図枠細線
  6
CONTINUOUS
 62
   252
100
AcDbLine
 10
259.858592505185
 20
30.927375675439
 30
0.0
 11
259.858592505185
 21
15.927375675439
 31
0.0
  0
LINE
  5
89
330
65
100
AcDbEntity
  8
図枠細線
  6
CONTINUOUS
 62
   252
100
AcDbLine
 10
245.858592505185
 20
30.927375675439
 30
0.0
 11
245.858592505185
 21
15.927375675439
 31
0.0
  0
LINE
  5
8A
330
65
100
AcDbEntity
  8
図枠太線
  6
CONTINUOUS
 62
   251
100
AcDbLine
 10
231.858592505185
 20
0.927377675439
 30
0.0
 11
231.858592505185
 21
30.927375675439
 31
0.0
  0
LINE
  5
8B
330
65
100
AcDbEntity
  8
図枠細線
  6
CONTINUOUS
 62
   252
100
AcDbLine
 10
211.858592505185
 20
25.927375675439
 30
0.0
 11
231.858592505185
 21
25.927375675439
 31
0.0
  0
LINE
  5
8C
330
65
100
AcDbEntity
  8
図枠細線
  6
CONTINUOUS
 62
   252
100
AcDbLine
 10
211.858592505185
 20
20.927375675439
 30
0.0
 11
231.858592505185
 21
20.927375675439
 31
0.0
  0
LINE
  5
8D
330
65
100
AcDbEntity
  8
図枠細線
  6
CONTINUOUS
 62
   252
100
AcDbLine
 10
211.858592505185
 20
10.927375675439
 30
0.0
 11
231.858592505185
 21
10.927375675439
 31
0.0
  0
LINE
  5
8E
330
65
100
AcDbEntity
  8
図枠細線
  6
CONTINUOUS
 62
   252
100
AcDbLine
 10
211.858592505185
 20
5.927377675439
 30
0.0
 11
231.858592505185
 21
5.927377675439
 31
0.0
  0
LINE
  5
8F
330
65
100
AcDbEntity
  8
図枠太線
  6
CONTINUOUS
 62
   251
100
AcDbLine
 10
211.858592505185
 20
30.927375675439
 30
0.0
 11
401.858584505185
 21
30.927375675439
 31
0.0
  0
LINE
  5
90
330
65
100
AcDbEntity
  8
図枠太線
  6
CONTINUOUS
 62
   251
100
AcDbLine
 10
1.858584505185
 20
275.927375675439
 30
0.0
 11
401.858584505185
 21
275.927375675439
 31
0.0
  0
LINE
  5
91
330
65
100
AcDbEntity
  8
図枠太線
  6
CONTINUOUS
 62
   251
100
AcDbLine
 10
401.858584505185
 20
0.927375675439
 30
0.0
 11
401.858584505185
 21
275.927375675439
 31
0.0
  0
LINE
  5
92
330
65
100
AcDbEntity
  8
図枠太線
  6
CONTINUOUS
 62
   251
100
AcDbLine
 10
1.858584505185
 20
0.927375675439
 30
0.0
 11
401.858584505185
 21
0.927375675439
 31
0.0
  0
ENDBLK
  5
94
330
65
100
AcDbEntity
  8
0
100
AcDbBlockEnd
  0
BLOCK
  5
29C0
330
29BF
100
AcDbEntity
  8
0
100
AcDbBlockBegin
  2
A4横用_タイトル
 70
     0
 10
0.0
 20
0.0
 30
0.0
  3
A4横用_タイトル
  1

  0
LINE
  5
29C1
330
29BF
100
AcDbEntity
  8
図枠細線
  6
CONTINUOUS
100
AcDbLine
 10
75.061011071051
 20
16.806607253358
 30
0.0
 11
144.061011071051
 21
16.806604789072
 31
0.0
  0
LINE
  5
29C2
330
29BF
100
AcDbEntity
  8
図枠細線
  6
CONTINUOUS
 62
   252
100
AcDbLine
 10
4.061011071051
 20
11.806606253358
 30
0.0
 11
75.061011071051
 21
11.806606253358
 31
0.0
  0
LINE
  5
29C3
330
29BF
100
AcDbEntity
  8
図枠細線
  6
CONTINUOUS
 62
   252
100
AcDbLine
 10
4.061011071051
 20
21.806606253358
 30
0.0
 11
75.061011071051
 21
21.806606253358
 31
0.0
  0
LINE
  5
29C4
330
29BF
100
AcDbEntity
  8
図枠細線
  6
CONTINUOUS
 62
   252
100
AcDbLine
 10
4.061011071051
 20
26.806606253358
 30
0.0
 11
75.061011071051
 21
26.806606253358
 31
0.0
  0
LINE
  5
29C5
330
29BF
100
AcDbEntity
  8
図枠細線
  6
CONTINUOUS
100
AcDbLine
 10
4.061011071051
 20
16.806608253358
 30
0.0
 11
75.061011071051
 21
16.806608253358
 31
0.0
  0
TEXT
  5
29C6
330
29BF
100
AcDbEntity
  8
図枠細線
  6
CONTINUOUS
 62
   252
100
AcDbText
 10
76.405475827713
 20
9.560308253358
 30
0.0
 40
2.0
  1
ＴＨＩＲＤ　ＡＮＧＬＥ
 41
0.687500010245
  7
EXCADSTD
 72
     5
 11
94.005476089973
 21
9.560308253358
 31
0.0
100
AcDbText
  0
TEXT
  5
29C7
330
29BF
100
AcDbEntity
  8
図枠細線
  6
CONTINUOUS
 62
   252
100
AcDbText
 10
76.705775880921
 20
14.306608253358
 30
0.0
 40
2.0
  1
第三角法
 41
1.086956521739
  7
EXCADSTD
 72
     5
 11
86.705775880921
 21
14.306608253358
 31
0.0
100
AcDbText
  0
TEXT
  5
29C8
330
29BF
100
AcDbEntity
  8
図枠細線
  6
CONTINUOUS
 62
   252
100
AcDbText
 10
76.705775880921
 20
26.806608253358
 30
0.0
 40
2.0
  1
ＡＰＰＲＯＶＥＤ
 41
0.695652184279
  7
EXCADSTD
 72
     5
 11
89.505776071656
 21
26.806608253358
 31
0.0
100
AcDbText
  0
TEXT
  5
29C9
330
29BF
100
AcDbEntity
  8
図枠細線
  6
CONTINUOUS
 62
   252
100
AcDbText
 10
76.705775880921
 20
29.306608253358
 30
0.0
 40
2.0
  1
承認
 41
1.136363636364
  7
EXCADSTD
 72
     5
 11
81.705775880921
 21
29.306608253358
 31
0.0
100
AcDbText
  0
LINE
  5
29CA
330
29BF
100
AcDbEntity
  8
図枠細線
  6
CONTINUOUS
 62
   252
100
AcDbLine
 10
98.061011071051
 20
31.806606253358
 30
0.0
 11
98.061011071051
 21
16.806606253358
 31
0.0
  0
TEXT
  5
29CB
330
29BF
100
AcDbEntity
  8
図枠細線
  6
CONTINUOUS
 62
   252
100
AcDbText
 10
104.216531119804
 20
14.306608253358
 30
0.0
 40
2.0
  1
ＳＣＡＬＥ
 41
0.892857142857
  7
EXCADSTD
 72
     5
 11
114.216531119804
 21
14.306608253358
 31
0.0
100
AcDbText
  0
TEXT
  5
29CC
330
29BF
100
AcDbEntity
  8
図枠細線
  6
CONTINUOUS
 62
   252
100
AcDbText
 10
98.844044119804
 20
14.306608253358
 30
0.0
 40
2.0
  1
尺度
 41
1.136363636364
  7
EXCADSTD
 72
     5
 11
103.844044119804
 21
14.306608253358
 31
0.0
100
AcDbText
  0
TEXT
  5
29CD
330
29BF
100
AcDbEntity
  8
図枠細線
  6
CONTINUOUS
 62
   252
100
AcDbText
 10
98.968727707497
 20
26.806608253358
 30
0.0
 40
2.0
  1
ＣＨＥＣＫＥＤ
 41
0.831249989569
  7
EXCADSTD
 72
     5
 11
112.268727540604
 21
26.806608253358
 31
0.0
100
AcDbText
  0
TEXT
  5
29CE
330
29BF
100
AcDbEntity
  8
図枠細線
  6
CONTINUOUS
 62
   252
100
AcDbText
 10
98.968727707497
 20
29.306608253358
 30
0.0
 40
2.0
  1
検図
 41
1.171875
  7
EXCADSTD
 72
     5
 11
103.968727707497
 21
29.306608253358
 31
0.0
100
AcDbText
  0
LINE
  5
29CF
330
29BF
100
AcDbEntity
  8
図枠細線
  6
CONTINUOUS
 62
   252
100
AcDbLine
 10
121.061011071051
 20
31.806606253358
 30
0.0
 11
121.061011071051
 21
16.806606253358
 31
0.0
  0
TEXT
  5
29D0
330
29BF
100
AcDbEntity
  8
図枠細線
  6
CONTINUOUS
 62
   252
100
AcDbText
 10
128.001465247253
 20
14.306608253358
 30
0.0
 40
2.0
  1
ＤＡＴＥ
 41
0.909090909091
  7
EXCADSTD
 72
     5
 11
136.001465247253
 21
14.306608253358
 31
0.0
100
AcDbText
  0
TEXT
  5
29D1
330
29BF
100
AcDbEntity
  8
図枠細線
  6
CONTINUOUS
 62
   252
100
AcDbText
 10
122.066415498841
 20
14.306608253358
 30
0.0
 40
2.0
  1
日付
 41
1.136363636364
  7
EXCADSTD
 72
     5
 11
127.066415498841
 21
14.306608253358
 31
0.0
100
AcDbText
  0
TEXT
  5
29D2
330
29BF
100
AcDbEntity
  8
図枠細線
  6
CONTINUOUS
 62
   252
100
AcDbText
 10
121.59429406571
 20
29.306608253358
 30
0.0
 40
2.0
  1
製図
 41
1.171875
  7
EXCADSTD
 72
     5
 11
126.59429406571
 21
29.306608253358
 31
0.0
100
AcDbText
  0
TEXT
  5
29D3
330
29BF
100
AcDbEntity
  8
図枠細線
  6
CONTINUOUS
 62
   252
100
AcDbText
 10
121.59429406571
 20
26.806608253358
 30
0.0
 40
2.0
  1
ＤＲＡＷＮ
 41
0.892857142857
  7
EXCADSTD
 72
     5
 11
131.59429406571
 21
26.806608253358
 31
0.0
100
AcDbText
  0
TEXT
  5
29D4
330
29BF
100
AcDbEntity
  8
図枠細線
  6
CONTINUOUS
 62
   252
100
AcDbText
 10
226.591229661348
 20
14.306608253358
 30
0.0
 40
2.0
  1
ＤＲＧ．ＮＯ．
 41
0.954545454545
  7
EXCADSTD
 72
     5
 11
240.591229661348
 21
14.306608253358
 31
0.0
100
AcDbText
  0
LINE
  5
29D5
330
29BF
100
AcDbEntity
  8
図枠太線
  6
CONTINUOUS
 62
   251
100
AcDbLine
 10
144.061003071051
 20
16.806606253358
 30
0.0
 11
214.061011071051
 21
16.806606253358
 31
0.0
  0
LINE
  5
29D6
330
29BF
100
AcDbEntity
  8
図枠細線
  6
CONTINUOUS
 62
   252
100
AcDbLine
 10
144.061011071051
 20
24.306606253358
 30
0.0
 11
214.061011071051
 21
24.306606253358
 31
0.0
  0
TEXT
  5
29D7
330
29BF
100
AcDbEntity
  8
図枠ロゴマーク
  6
CONTINUOUS
 62
   253
100
AcDbText
 10
146.433776781596
 20
8.399000253358
 30
0.0
 40
7.0
  1
東和制電工業株式会社
 41
0.79907071013
  7
EXCADSTD
 72
     5
 11
212.437017438349
 21
8.399000253358
 31
0.0
100
AcDbText
  0
TEXT
  5
29D8
330
29BF
100
AcDbEntity
  8
図枠細線
  6
CONTINUOUS
 62
   252
100
AcDbText
 10
215.156179912936
 20
14.306608253358
 30
0.0
 40
2.0
  1
図面番号
 41
1.094890510949
  7
EXCADSTD
 72
     5
 11
225.156179912936
 21
14.306608253358
 31
0.0
100
AcDbText
  0
TEXT
  5
29D9
330
29BF
100
AcDbEntity
  8
図枠細線
  6
CONTINUOUS
 62
   252
100
AcDbText
 10
221.591229661348
 20
29.306608253358
 30
0.0
 40
2.0
  1
ＴＩＴＬＥ
 41
0.892857142857
  7
EXCADSTD
 72
     5
 11
231.591229661348
 21
29.306608253358
 31
0.0
100
AcDbText
  0
TEXT
  5
29DA
330
29BF
100
AcDbEntity
  8
図枠細線
  6
CONTINUOUS
 62
   252
100
AcDbText
 10
215.156179912936
 20
29.306608253358
 30
0.0
 40
2.0
  1
名称
 41
1.136363636364
  7
EXCADSTD
 72
     5
 11
220.156179912936
 21
29.306608253358
 31
0.0
100
AcDbText
  0
LINE
  5
29DB
330
29BF
100
AcDbEntity
  8
図枠太線
  6
CONTINUOUS
 62
   251
100
AcDbLine
 10
4.061011071051
 20
1.806608253358
 30
0.0
 11
284.061011071051
 21
1.806608253358
 31
0.0
  0
LINE
  5
29DC
330
29BF
100
AcDbEntity
  8
図枠細線
  6
CONTINUOUS
 62
   252
100
AcDbLine
 10
4.061011071051
 20
6.806608253358
 30
0.0
 11
75.061011071051
 21
6.806608253358
 31
0.0
  0
LINE
  5
29DD
330
29BF
100
AcDbEntity
  8
図枠太線
  6
CONTINUOUS
 62
   251
100
AcDbLine
 10
75.061011071051
 20
1.806608253358
 30
0.0
 11
75.061011071051
 21
31.806606253358
 31
0.0
  0
TEXT
  5
29DE
330
29BF
100
AcDbEntity
  8
図枠細線
  6
CONTINUOUS
 62
   252
100
AcDbText
 10
76.330551827713
 20
6.638319253358
 30
0.0
 40
2.0
  1
ＰＲＯＪＥＣＴＩＯＮ
 41
0.758620685545
  7
EXCADSTD
 72
     5
 11
93.930551732346
 21
6.638319253358
 31
0.0
100
AcDbText
  0
LINE
  5
29DF
330
29BF
100
AcDbEntity
  8
図枠細線
  6
CONTINUOUS
 62
   252
100
AcDbLine
 10
98.061011071051
 20
1.806606931929
 30
0.0
 11
98.061011071051
 21
16.806604931929
 31
0.0
  0
LINE
  5
29E0
330
29BF
100
AcDbEntity
  8
図枠細線
  6
CONTINUOUS
 62
   252
100
AcDbLine
 10
121.061011071051
 20
1.806607574787
 30
0.0
 11
121.061011071051
 21
16.806605574787
 31
0.0
  0
LINE
  5
29E1
330
29BF
100
AcDbEntity
  8
図枠太線
  6
CONTINUOUS
 62
   251
100
AcDbLine
 10
284.061011071051
 20
1.806608253358
 30
0.0
 11
284.061011071051
 21
31.806606253358
 31
0.0
  0
LINE
  5
29E2
330
29BF
100
AcDbEntity
  8
図枠細線
  6
CONTINUOUS
 62
   252
100
AcDbLine
 10
214.061011071051
 20
16.806606253358
 30
0.0
 11
284.061011071051
 21
16.806606253358
 31
0.0
  0
TEXT
  5
29E3
330
29BF
100
AcDbEntity
  8
図枠細線
  6
CONTINUOUS
 62
   252
100
AcDbText
 10
146.199593676182
 20
3.454099253358
 30
0.0
 40
3.5
  1
ＴＯＷＡ　ＳＥＩＤＥＮ　ＩＮＤＵＳＴＲＩＡＬ　ＣＯ．，ＬＴＤ．
 41
0.530889627006
  7
EXCADSTD
 72
     5
 11
213.339435171588
 21
3.454099253358
 31
0.0
100
AcDbText
  0
LINE
  5
29E4
330
29BF
100
AcDbEntity
  8
図枠太線
  6
CONTINUOUS
 62
   251
100
AcDbLine
 10
144.061011071051
 20
1.806608253358
 30
0.0
 11
144.061011071051
 21
31.806606253358
 31
0.0
  0
LINE
  5
29E5
330
29BF
100
AcDbEntity
  8
図枠太線
  6
CONTINUOUS
 62
   251
100
AcDbLine
 10
214.061011071051
 20
1.806608253358
 30
0.0
 11
214.061011071051
 21
31.806606253358
 31
0.0
  0
MTEXT
  5
29E6
330
29BF
100
AcDbEntity
  8
図枠太線
100
AcDbMText
 10
5.064337346478
 20
31.010982137407
 30
0.0
 40
2.5
 41
8.67856098472
 71
     1
 72
     5
  1
{\Fmonotxt.shx,bigfont.shx|c128;図暦}
  0
LINE
  5
29E7
330
29BF
100
AcDbEntity
  8
図枠太線
  6
CONTINUOUS
 62
   251
100
AcDbLine
 10
4.061011071051
 20
1.806608253358
 30
0.0
 11
4.061011071051
 21
31.806606253358
 31
0.0
  0
TEXT
  5
29E8
330
29BF
100
AcDbEntity
  8
図枠細線
 48
10.0
100
AcDbText
 10
12.260817420402
 20
28.625419626495
 30
0.0
 40
2.0
  1
CHANGE NOTICE
100
AcDbText
  0
ENDBLK
  5
29E9
330
29BF
100
AcDbEntity
  8
0
100
AcDbBlockEnd
  0
BLOCK
  5
29F5
330
29F4
100
AcDbEntity
  8
0
100
AcDbBlockBegin
  2
A4縦用_タイトル
 70
     0
 10
0.0
 20
0.0
 30
0.0
  3
A4縦用_タイトル
  1

  0
LINE
  5
29F6
330
29F4
100
AcDbEntity
  8
図枠太線
  6
CONTINUOUS
 62
   251
100
AcDbLine
 10
2.368253864267
 20
4.525433224584
 30
0.0
 11
192.368245864267
 21
4.525433224584
 31
0.0
  0
LINE
  5
29F7
330
29F4
100
AcDbEntity
  8
図枠太線
  6
CONTINUOUS
 62
   251
100
AcDbLine
 10
78.368245864267
 20
19.525431224584
 30
0.0
 11
135.368253864267
 21
19.525431224584
 31
0.0
  0
LINE
  5
29F8
330
29F4
100
AcDbEntity
  8
図枠細線
  6
CONTINUOUS
 62
   252
100
AcDbLine
 10
78.368253864267
 20
27.025431224584
 30
0.0
 11
135.368253864267
 21
27.025431224584
 31
0.0
  0
TEXT
  5
29F9
330
29F4
100
AcDbEntity
  8
図枠ロゴマーク
  6
CONTINUOUS
 62
   253
100
AcDbText
 10
80.617009864267
 20
11.117825224584
 30
0.0
 40
7.0
  1
東和制電工業株式会社
 41
0.635593220339
  7
EXCADSTD
 72
     5
 11
133.117009864267
 21
11.117825224584
 31
0.0
100
AcDbText
  0
TEXT
  5
29FA
330
29F4
100
AcDbEntity
  8
図枠細線
  6
CONTINUOUS
 62
   252
100
AcDbText
 10
80.579549864267
 20
6.172924224584
 30
0.0
 40
3.5
  1
ＴＯＷＡ　ＳＥＩＤＥＮ　ＩＮＤＵＳＴＲＩＡＬ　ＣＯ．，ＬＴＤ．
 41
0.41609778364
  7
EXCADSTD
 72
     5
 11
133.202049568628
 21
6.172924224584
 31
0.0
100
AcDbText
  0
LINE
  5
29FB
330
29F4
100
AcDbEntity
  8
図枠太線
  6
CONTINUOUS
 62
   251
100
AcDbLine
 10
2.368253864267
 20
4.525433224584
 30
0.0
 11
2.368253864267
 21
34.525431224584
 31
0.0
  0
TEXT
  5
29FC
330
29F4
100
AcDbEntity
  8
図枠細線
  6
CONTINUOUS
 62
   252
100
AcDbText
 10
22.504308136501
 20
12.279133224584
 30
0.0
 40
2.0
  1
ＴＨＩＲＤ　ＡＮＧＬＥ
 41
0.687500010245
  7
EXCADSTD
 72
     5
 11
40.104308398762
 21
12.279133224584
 31
0.0
100
AcDbText
  0
TEXT
  5
29FD
330
29F4
100
AcDbEntity
  8
図枠細線
  6
CONTINUOUS
 62
   252
100
AcDbText
 10
22.429384136501
 20
9.357144224584
 30
0.0
 40
2.0
  1
ＰＲＯＪＥＣＴＩＯＮ
 41
0.758620685545
  7
EXCADSTD
 72
     5
 11
40.029384041134
 21
9.357144224584
 31
0.0
100
AcDbText
  0
LINE
  5
29FE
330
29F4
100
AcDbEntity
  8
図枠細線
  6
CONTINUOUS
100
AcDbLine
 10
22.368253864267
 20
19.525433224584
 30
0.0
 11
78.368253864267
 21
19.525431224584
 31
0.0
  0
TEXT
  5
29FF
330
29F4
100
AcDbEntity
  8
図枠細線
  6
CONTINUOUS
 62
   252
100
AcDbText
 10
22.868253864267
 20
17.025433224584
 30
0.0
 40
2.0
  1
第三角法
 41
1.086956521739
  7
EXCADSTD
 72
     5
 11
32.868253864267
 21
17.025433224584
 31
0.0
100
AcDbText
  0
TEXT
  5
2A00
330
29F4
100
AcDbEntity
  8
図枠細線
  6
CONTINUOUS
 62
   252
100
AcDbText
 10
22.868253864267
 20
29.525433224584
 30
0.0
 40
2.0
  1
ＡＰＰＲＯＶＥＤ
 41
0.695652184279
  7
EXCADSTD
 72
     5
 11
35.668254055002
 21
29.525433224584
 31
0.0
100
AcDbText
  0
LINE
  5
2A01
330
29F4
100
AcDbEntity
  8
図枠細線
  6
CONTINUOUS
 62
   252
100
AcDbLine
 10
2.368253864267
 20
9.525433224584
 30
0.0
 11
22.368253864267
 21
9.525433224584
 31
0.0
  0
LINE
  5
2A02
330
29F4
100
AcDbEntity
  8
図枠細線
  6
CONTINUOUS
 62
   252
100
AcDbLine
 10
2.368253864267
 20
14.525431224584
 30
0.0
 11
22.368253864267
 21
14.525431224584
 31
0.0
  0
LINE
  5
2A03
330
29F4
100
AcDbEntity
  8
図枠細線
  6
CONTINUOUS
 62
   252
100
AcDbLine
 10
2.368253864267
 20
24.525431224584
 30
0.0
 11
22.368253864267
 21
24.525431224584
 31
0.0
  0
LINE
  5
2A04
330
29F4
100
AcDbEntity
  8
図枠細線
  6
CONTINUOUS
 62
   252
100
AcDbLine
 10
2.368253864267
 20
29.525431224584
 30
0.0
 11
22.368253864267
 21
29.525431224584
 31
0.0
  0
LINE
  5
2A05
330
29F4
100
AcDbEntity
  8
図枠細線
  6
CONTINUOUS
100
AcDbLine
 10
2.368253864267
 20
19.525433224584
 30
0.0
 11
22.368253864267
 21
19.525433224584
 31
0.0
  0
TEXT
  5
2A06
330
29F4
100
AcDbEntity
  8
図枠細線
  6
CONTINUOUS
 62
   252
100
AcDbText
 10
2.868253864267
 20
32.025433224584
 30
0.0
 40
2.0
  1
ＮＯＴＥ
 41
0.909090909091
  7
EXCADSTD
 72
     5
 11
10.868253864267
 21
32.025433224584
 31
0.0
100
AcDbText
  0
LINE
  5
2A07
330
29F4
100
AcDbEntity
  8
図枠太線
  6
CONTINUOUS
 62
   251
100
AcDbLine
 10
22.368253864267
 20
4.525433224584
 30
0.0
 11
22.368253864267
 21
34.525431224584
 31
0.0
  0
TEXT
  5
2A08
330
29F4
100
AcDbEntity
  8
図枠細線
  6
CONTINUOUS
 62
   252
100
AcDbText
 10
22.868253864267
 20
32.025433224584
 30
0.0
 40
2.0
  1
承認
 41
1.136363636364
  7
EXCADSTD
 72
     5
 11
27.868253864267
 21
32.025433224584
 31
0.0
100
AcDbText
  0
TEXT
  5
2A09
330
29F4
100
AcDbEntity
  8
図枠細線
  6
CONTINUOUS
 62
   252
100
AcDbText
 10
60.711709035982
 20
32.025433224584
 30
0.0
 40
2.0
  1
製図
 41
1.171875
  7
EXCADSTD
 72
     5
 11
65.711709035982
 21
32.025433224584
 31
0.0
100
AcDbText
  0
TEXT
  5
2A0A
330
29F4
100
AcDbEntity
  8
図枠細線
  6
CONTINUOUS
 62
   252
100
AcDbText
 10
60.711709035982
 20
29.525433224584
 30
0.0
 40
2.0
  1
ＤＲＡＷＮ
 41
0.892857142857
  7
EXCADSTD
 72
     5
 11
70.711709035982
 21
29.525433224584
 31
0.0
100
AcDbText
  0
TEXT
  5
2A0B
330
29F4
100
AcDbEntity
  8
図枠細線
  6
CONTINUOUS
 62
   252
100
AcDbText
 10
60.834891743877
 20
17.025433224584
 30
0.0
 40
2.0
  1
日付
 41
1.136363636364
  7
EXCADSTD
 72
     5
 11
65.834891743877
 21
17.025433224584
 31
0.0
100
AcDbText
  0
TEXT
  5
2A0C
330
29F4
100
AcDbEntity
  8
図枠細線
  6
CONTINUOUS
 62
   252
100
AcDbText
 10
47.333660864267
 20
17.025433224584
 30
0.0
 40
2.0
  1
ＳＣＡＬＥ
 41
0.892857142857
  7
EXCADSTD
 72
     5
 11
57.333660864267
 21
17.025433224584
 31
0.0
100
AcDbText
  0
TEXT
  5
2A0D
330
29F4
100
AcDbEntity
  8
図枠細線
  6
CONTINUOUS
 62
   252
100
AcDbText
 10
42.281425990082
 20
29.525433224584
 30
0.0
 40
2.0
  1
ＣＨＥＣＫＥＤ
 41
0.831249989569
  7
EXCADSTD
 72
     5
 11
55.581425823189
 21
29.525433224584
 31
0.0
100
AcDbText
  0
LINE
  5
2A0E
330
29F4
100
AcDbEntity
  8
図枠細線
  6
CONTINUOUS
 62
   252
100
AcDbLine
 10
40.968253864267
 20
34.525431224584
 30
0.0
 11
40.968253864267
 21
19.525431224584
 31
0.0
  0
LINE
  5
2A0F
330
29F4
100
AcDbEntity
  8
図枠細線
  6
CONTINUOUS
 62
   252
100
AcDbLine
 10
40.968253864267
 20
4.525433224584
 30
0.0
 11
40.968253864267
 21
19.525431224584
 31
0.0
  0
TEXT
  5
2A10
330
29F4
100
AcDbEntity
  8
図枠細線
  6
CONTINUOUS
 62
   252
100
AcDbText
 10
41.961173864267
 20
17.025433224584
 30
0.0
 40
2.0
  1
尺度
 41
1.136363636364
  7
EXCADSTD
 72
     5
 11
46.961173864267
 21
17.025433224584
 31
0.0
100
AcDbText
  0
TEXT
  5
2A11
330
29F4
100
AcDbEntity
  8
図枠細線
  6
CONTINUOUS
 62
   252
100
AcDbText
 10
42.281425990082
 20
32.025433224584
 30
0.0
 40
2.0
  1
検図
 41
1.171875
  7
EXCADSTD
 72
     5
 11
47.281425990082
 21
32.025433224584
 31
0.0
100
AcDbText
  0
LINE
  5
2A12
330
29F4
100
AcDbEntity
  8
図枠細線
  6
CONTINUOUS
 62
   252
100
AcDbLine
 10
59.768253864267
 20
34.525431224584
 30
0.0
 11
59.768253864267
 21
19.525431224584
 31
0.0
  0
LINE
  5
2A13
330
29F4
100
AcDbEntity
  8
図枠細線
  6
CONTINUOUS
 62
   252
100
AcDbLine
 10
59.768253864267
 20
4.525433224584
 30
0.0
 11
59.768253864267
 21
19.525431224584
 31
0.0
  0
LINE
  5
2A14
330
29F4
100
AcDbEntity
  8
図枠太線
  6
CONTINUOUS
 62
   251
100
AcDbLine
 10
78.368253864267
 20
4.525433224584
 30
0.0
 11
78.368253864267
 21
34.525431224584
 31
0.0
  0
TEXT
  5
2A15
330
29F4
100
AcDbEntity
  8
図枠細線
  6
CONTINUOUS
 62
   252
100
AcDbText
 10
66.334891743877
 20
17.025433224584
 30
0.0
 40
2.0
  1
ＤＡＴＥ
 41
0.909090909091
  7
EXCADSTD
 72
     5
 11
74.334891743877
 21
17.025433224584
 31
0.0
100
AcDbText
  0
LINE
  5
2A16
330
29F4
100
AcDbEntity
  8
図枠細線
  6
CONTINUOUS
 62
   252
100
AcDbLine
 10
135.368253864267
 20
19.525431224584
 30
0.0
 11
192.368245864267
 21
19.525431224584
 31
0.0
  0
TEXT
  5
2A17
330
29F4
100
AcDbEntity
  8
図枠細線
  6
CONTINUOUS
 62
   252
100
AcDbText
 10
141.868253864267
 20
32.025433224584
 30
0.0
 40
2.0
  1
ＴＩＴＬＥ
 41
0.892857142857
  7
EXCADSTD
 72
     5
 11
151.868253864267
 21
32.025433224584
 31
0.0
100
AcDbText
  0
LINE
  5
2A18
330
29F4
100
AcDbEntity
  8
図枠太線
  6
CONTINUOUS
 62
   251
100
AcDbLine
 10
135.368253864267
 20
4.525433224584
 30
0.0
 11
135.368253864267
 21
34.525431224584
 31
0.0
  0
TEXT
  5
2A19
330
29F4
100
AcDbEntity
  8
図枠細線
  6
CONTINUOUS
 62
   252
100
AcDbText
 10
135.868253864267
 20
17.025433224584
 30
0.0
 40
2.0
  1
図面番号
 41
1.094890510949
  7
EXCADSTD
 72
     5
 11
145.868253864267
 21
17.025433224584
 31
0.0
100
AcDbText
  0
TEXT
  5
2A1A
330
29F4
100
AcDbEntity
  8
図枠細線
  6
CONTINUOUS
 62
   252
100
AcDbText
 10
135.868253864267
 20
32.025433224584
 30
0.0
 40
2.0
  1
名称
 41
1.136363636364
  7
EXCADSTD
 72
     5
 11
140.868253864267
 21
32.025433224584
 31
0.0
100
AcDbText
  0
TEXT
  5
2A1B
330
29F4
100
AcDbEntity
  8
図枠細線
  6
CONTINUOUS
 62
   252
100
AcDbText
 10
146.868253864267
 20
17.025433224584
 30
0.0
 40
2.0
  1
ＤＲＧ．ＮＯ．
 41
0.954545454545
  7
EXCADSTD
 72
     5
 11
160.868253864267
 21
17.025433224584
 31
0.0
100
AcDbText
  0
LINE
  5
2A1C
330
29F4
100
AcDbEntity
  8
図枠太線
  6
CONTINUOUS
 62
   251
100
AcDbLine
 10
192.368245864267
 20
4.525433224584
 30
0.0
 11
192.368245864267
 21
34.525431224584
 31
0.0
  0
ENDBLK
  5
2A1D
330
29F4
100
AcDbEntity
  8
0
100
AcDbBlockEnd
  0
BLOCK
  5
2A33
330
2A32
100
AcDbEntity
  8
0
100
AcDbBlockBegin
  2
A3横用_タイトル
 70
     0
 10
0.0
 20
0.0
 30
0.0
  3
A3横用_タイトル
  1

  0
LINE
  5
2A34
330
2A32
100
AcDbEntity
  8
図枠細線
  6
CONTINUOUS
 62
   252
100
AcDbLine
 10
205.098414535793
 20
33.525959753527
 30
0.0
 11
305.098414535793
 21
33.525959753527
 31
0.0
  0
LINE
  5
2A35
330
2A32
100
AcDbEntity
  8
図枠太線
  6
CONTINUOUS
 62
   251
100
AcDbLine
 10
205.098414535793
 20
23.525959753527
 30
0.0
 11
305.098414535793
 21
23.525959753527
 31
0.0
  0
LINE
  5
2A36
330
2A32
100
AcDbEntity
  8
図枠細線
  6
CONTINUOUS
100
AcDbLine
 10
5.098414535793
 20
23.525959753527
 30
0.0
 11
105.098414535793
 21
23.525959753527
 31
0.0
  0
LINE
  5
2A37
330
2A32
100
AcDbEntity
  8
図枠細線
  6
CONTINUOUS
 62
   252
100
AcDbLine
 10
5.098414535793
 20
36.725957753527
 30
0.0
 11
105.098414535793
 21
36.725957753527
 31
0.0
  0
LINE
  5
2A38
330
2A32
100
AcDbEntity
  8
図枠細線
  6
CONTINUOUS
 62
   252
100
AcDbLine
 10
5.098414535793
 20
30.125957753527
 30
0.0
 11
105.098414535793
 21
30.125957753527
 31
0.0
  0
LINE
  5
2A39
330
2A32
100
AcDbEntity
  8
図枠細線
  6
CONTINUOUS
 62
   252
100
AcDbLine
 10
5.098414535793
 20
16.725959753527
 30
0.0
 11
105.098414535793
 21
16.725959753527
 31
0.0
  0
LINE
  5
2A3A
330
2A32
100
AcDbEntity
  8
図枠細線
  6
CONTINUOUS
 62
   252
100
AcDbLine
 10
5.098414535793
 20
10.125959753527
 30
0.0
 11
105.098414535793
 21
10.125959753527
 31
0.0
  0
LINE
  5
2A3B
330
2A32
100
AcDbEntity
  8
図枠細線
  6
CONTINUOUS
100
AcDbLine
 10
105.098414535793
 20
23.525961753527
 30
0.0
 11
205.098414535793
 21
23.525959753527
 31
0.0
  0
LINE
  5
2A3C
330
2A32
100
AcDbEntity
  8
図枠細線
  6
CONTINUOUS
 62
   252
100
AcDbLine
 10
138.398414535793
 20
43.525959753527
 30
0.0
 11
138.398414535793
 21
18.525957753527
 31
0.0
  0
LINE
  5
2A3D
330
2A32
100
AcDbEntity
  8
図枠細線
  6
CONTINUOUS
 62
   252
100
AcDbLine
 10
171.698414535793
 20
43.525959753527
 30
0.0
 11
171.698414535793
 21
18.525957753527
 31
0.0
  0
LINE
  5
2A3E
330
2A32
100
AcDbEntity
  8
図枠細線
  6
CONTINUOUS
 62
   252
100
AcDbLine
 10
305.098414535793
 20
23.525959753527
 30
0.0
 11
405.098414535793
 21
23.525959753527
 31
0.0
  0
TEXT
  5
2A3F
330
2A32
100
AcDbEntity
  8
図枠ロゴマーク
  6
CONTINUOUS
 62
   253
100
AcDbText
 10
206.102509212755
 20
13.294257570546
 30
0.0
 40
7.0
  1
東和制電工業株式会社
 50
0.016555220185
 41
1.179681394237
  7
EXCADSTD
 72
     5
 11
303.544188309143
 21
13.322412672217
 31
0.0
100
AcDbText
  0
MTEXT
  5
2A40
330
2A32
100
AcDbEntity
  8
図枠細線
100
AcDbMText
 10
6.356764112375
 20
41.976594175478
 30
0.0
 40
2.5
 41
49.938282706292
 71
     1
 72
     5
  1
{\Fmonotxt.shx,bigfont.shx|c128;図暦　CHANGE　NOTICE}
  0
MTEXT
  5
2A41
330
2A32
100
AcDbEntity
  8
図枠細線
 48
10.0
100
AcDbMText
 10
306.544114926828
 20
41.701835800934
 30
0.0
 40
2.5
 41
28.002809618823
 71
     1
 72
     5
  1
{\Fmonotxt.shx,bigfont.shx|c128;名称　TITLE}
  0
MTEXT
  5
2A42
330
2A32
100
AcDbEntity
  8
図枠細線
 48
10.0
100
AcDbMText
 10
307.329617114284
 20
21.606206797226
 30
0.0
 40
2.5
 41
24.385612216707
 71
     1
 72
     5
  1
{\Fmonotxt.shx,bigfont.shx|c128;図面番号\PDRG.　No.}
  0
MTEXT
  5
2A43
330
2A32
100
AcDbEntity
  8
図枠細線
 48
10.0
100
AcDbMText
 10
173.726349404609
 20
21.73680662198
 30
0.0
 40
2.5
 41
25.735090160813
 71
     1
 72
     5
  1
{\Fmonotxt.shx,bigfont.shx|c128;日付 DATE}
  0
MTEXT
  5
2A44
330
2A32
100
AcDbEntity
  8
図枠細線
 48
10.0
100
AcDbMText
 10
173.48708833982
 20
41.621592044998
 30
0.0
 40
2.5
 41
24.983741184205
 71
     1
 72
     5
  1
{\Fmonotxt.shx,bigfont.shx|c128;製図　DRAWN}
  0
MTEXT
  5
2A45
330
2A32
100
AcDbEntity
  8
図枠細線
 48
10.0
100
AcDbMText
 10
139.28009927741
 20
21.866713069868
 30
0.0
 40
2.5
 41
22.629632913243
 71
     1
 72
     5
  1
{\Fmonotxt.shx,bigfont.shx|c128;尺度　SCALE}
  0
MTEXT
  5
2A46
330
2A32
100
AcDbEntity
  8
図枠細線
 48
10.0
100
AcDbMText
 10
139.910091179835
 20
41.311840415554
 30
0.0
 40
2.5
 41
28.998753428368
 71
     1
 72
     5
  1
{\Fmonotxt.shx,bigfont.shx|c128;検図  CHECKED}
  0
MTEXT
  5
2A47
330
2A32
100
AcDbEntity
  8
図枠細線
 48
10.0
100
AcDbMText
 10
114.253294667728
 20
21.916124850174
 30
0.0
 40
3.0
 41
19.692400475383
 71
     1
 72
     5
  1
{\Fmonotxt.shx,bigfont.shx|c128;第三角法}
  0
MTEXT
  5
2A48
330
2A32
100
AcDbEntity
  8
図枠細線
 48
10.0
100
AcDbMText
 10
108.986959929915
 20
15.282880185837
 30
0.0
 40
2.5
 41
27.954882823547
 71
     1
 72
     5
  1
{\Fmonotxt.shx,bigfont.shx|c128;THIRD ANGLE\PPROJECTION}
  0
MTEXT
  5
2A49
330
2A32
100
AcDbEntity
  8
図枠細線
 48
10.0
100
AcDbMText
 10
106.319432640184
 20
41.511437145487
 30
0.0
 40
2.5
 41
28.233595265074
 71
     1
 72
     5
  1
{\Fmonotxt.shx,bigfont.shx|c128;承認 APPROVED}
  0
LINE
  5
2A4A
330
2A32
100
AcDbEntity
  8
図枠太線
  6
CONTINUOUS
 62
   251
100
AcDbLine
 10
5.098414535793
 20
3.525959753527
 30
0.0
 11
405.098414535793
 21
3.525959753527
 31
0.0
  0
LINE
  5
2A4B
330
2A32
100
AcDbEntity
  8
図枠太線
 48
10.0
100
AcDbLine
 10
5.098414535793
 20
3.525959753527
 30
0.0
 11
5.098414535793
 21
43.525959753527
 31
0.0
  0
LINE
  5
2A4C
330
2A32
100
AcDbEntity
  8
図枠太線
  6
CONTINUOUS
 62
   251
100
AcDbLine
 10
105.098414535793
 20
3.525959753527
 30
0.0
 11
105.098414535793
 21
43.525959753527
 31
0.0
  0
LINE
  5
2A4D
330
2A32
100
AcDbEntity
  8
図枠細線
  6
CONTINUOUS
 62
   252
100
AcDbLine
 10
138.398414535793
 20
3.525959753527
 30
0.0
 11
138.398414535793
 21
18.525957753527
 31
0.0
  0
LINE
  5
2A4E
330
2A32
100
AcDbEntity
  8
図枠細線
  6
CONTINUOUS
 62
   252
100
AcDbLine
 10
171.698414535793
 20
3.525959753527
 30
0.0
 11
171.698414535793
 21
18.525957753527
 31
0.0
  0
LINE
  5
2A4F
330
2A32
100
AcDbEntity
  8
図枠太線
  6
CONTINUOUS
 62
   251
100
AcDbLine
 10
205.098414535793
 20
3.525959753527
 30
0.0
 11
205.098414535793
 21
43.525959753527
 31
0.0
  0
LINE
  5
2A50
330
2A32
100
AcDbEntity
  8
図枠太線
 48
10.0
100
AcDbLine
 10
405.098414535793
 20
43.525959753527
 30
0.0
 11
405.098414535793
 21
3.525959753527
 31
0.0
  0
TEXT
  5
2A51
330
2A32
100
AcDbEntity
  8
図枠細線
  6
CONTINUOUS
 62
   252
100
AcDbText
 10
208.519754474572
 20
6.482358407285
 30
0.0
 40
3.5
  1
ＴＯＷＡ　ＳＥＩＤＥＮ　ＩＮＤＵＳＴＲＩＡＬ　ＣＯ．，ＬＴＤ．
 41
0.749411486799
  7
EXCADSTD
 72
     5
 11
303.295327171727
 21
6.482358407285
 31
0.0
100
AcDbText
  0
LINE
  5
2A52
330
2A32
100
AcDbEntity
  8
図枠太線
  6
CONTINUOUS
 62
   251
100
AcDbLine
 10
305.098414535793
 20
3.525959753527
 30
0.0
 11
305.098414535793
 21
43.525959753527
 31
0.0
  0
ENDBLK
  5
2A53
330
2A32
100
AcDbEntity
  8
0
100
AcDbBlockEnd
  0
BLOCK
  5
2A6D
330
2A6C
100
AcDbEntity
  8
0
100
AcDbBlockBegin
  2
A3縦用_タイトル
 70
     0
 10
0.0
 20
0.0
 30
0.0
  3
A3縦用_タイトル
  1

  0
MTEXT
  5
2A6E
330
2A6C
100
AcDbEntity
  8
図枠細線
100
AcDbMText
 10
5.040804501593
 20
31.626098649005
 30
0.0
 40
2.5
 41
49.938282706292
 71
     1
 72
     5
  1
{\Fmonotxt.shx,bigfont.shx|c128;図暦　CHANGE　NOTICE}
  0
LINE
  5
2A6F
330
2A6C
100
AcDbEntity
  8
図枠太線
  6
CONTINUOUS
 62
   251
100
AcDbLine
 10
283.577871882961
 20
2.820844689254
 30
0.0
 11
283.577871882961
 21
32.820842689254
 31
0.0
  0
MTEXT
  5
2A70
330
2A6C
100
AcDbEntity
  8
図枠細線
 48
10.0
100
AcDbMText
 10
214.912458947454
 20
31.621488632308
 30
0.0
 40
2.5
 41
28.002809618823
 71
     1
 72
     5
  1
{\Fmonotxt.shx,bigfont.shx|c128;名称　TITLE}
  0
MTEXT
  5
2A71
330
2A6C
100
AcDbEntity
  8
図枠細線
 48
10.0
100
AcDbMText
 10
214.740030458938
 20
16.310225796722
 30
0.0
 40
2.5
 41
24.385612216707
 71
     1
 72
     5
  1
{\Fmonotxt.shx,bigfont.shx|c128;図面番号\PDRG.　No.}
  0
LINE
  5
2A72
330
2A6C
100
AcDbEntity
  8
図枠太線
  6
CONTINUOUS
 62
   251
100
AcDbLine
 10
213.577871882961
 20
2.820844689254
 30
0.0
 11
213.577871882961
 21
32.820842689254
 31
0.0
  0
LINE
  5
2A73
330
2A6C
100
AcDbEntity
  8
図枠太線
  6
CONTINUOUS
 62
   251
100
AcDbLine
 10
143.577871882961
 20
2.820844689254
 30
0.0
 11
143.577871882961
 21
32.820842689254
 31
0.0
  0
TEXT
  5
2A74
330
2A6C
100
AcDbEntity
  8
図枠細線
  6
CONTINUOUS
 62
   252
100
AcDbText
 10
145.716454488093
 20
4.468335689254
 30
0.0
 40
3.5
  1
ＴＯＷＡ　ＳＥＩＤＥＮ　ＩＮＤＵＳＴＲＩＡＬ　ＣＯ．，ＬＴＤ．
 41
0.530889627006
  7
EXCADSTD
 72
     5
 11
212.856295983498
 21
4.468335689254
 31
0.0
100
AcDbText
  0
TEXT
  5
2A75
330
2A6C
100
AcDbEntity
  8
図枠ロゴマーク
  6
CONTINUOUS
 62
   253
100
AcDbText
 10
145.950637593507
 20
9.413236689254
 30
0.0
 40
7.0
  1
東和制電工業株式会社
 41
0.79907071013
  7
EXCADSTD
 72
     5
 11
211.953878250259
 21
9.413236689254
 31
0.0
100
AcDbText
  0
LINE
  5
2A76
330
2A6C
100
AcDbEntity
  8
図枠細線
  6
CONTINUOUS
 62
   252
100
AcDbLine
 10
143.577871882961
 20
25.320842689254
 30
0.0
 11
213.577871882961
 21
25.320842689254
 31
0.0
  0
LINE
  5
2A77
330
2A6C
100
AcDbEntity
  8
図枠太線
  6
CONTINUOUS
 62
   251
100
AcDbLine
 10
143.577863882961
 20
17.820842689254
 30
0.0
 11
213.577871882961
 21
17.820842689254
 31
0.0
  0
LINE
  5
2A78
330
2A6C
100
AcDbEntity
  8
図枠細線
  6
CONTINUOUS
 62
   252
100
AcDbLine
 10
213.577871882961
 20
17.820842689254
 30
0.0
 11
283.577871882961
 21
17.820842689254
 31
0.0
  0
LINE
  5
2A79
330
2A6C
100
AcDbEntity
  8
図枠細線
  6
CONTINUOUS
 62
   252
100
AcDbLine
 10
120.577871882961
 20
32.820842689254
 30
0.0
 11
120.577871882961
 21
17.820842689254
 31
0.0
  0
MTEXT
  5
2A7A
330
2A6C
100
AcDbEntity
  8
図枠細線
 48
10.0
100
AcDbMText
 10
121.100885670352
 20
16.33785922638
 30
0.0
 40
2.0
 41
17.705978285068
 71
     1
 72
     5
  1
{\Fmonotxt.shx,bigfont.shx|c128;日付 DATE}
  0
MTEXT
  5
2A7B
330
2A6C
100
AcDbEntity
  8
図枠細線
 48
10.0
100
AcDbMText
 10
121.254842273491
 20
31.208993514037
 30
0.0
 40
2.0
 41
18.363799568758
 71
     1
 72
     5
  1
{\Fmonotxt.shx,bigfont.shx|c128;製図　DRAWN}
  0
LINE
  5
2A7C
330
2A6C
100
AcDbEntity
  8
図枠細線
  6
CONTINUOUS
 62
   252
100
AcDbLine
 10
97.577871882961
 20
32.820842689254
 30
0.0
 11
97.577871882961
 21
17.820842689254
 31
0.0
  0
MTEXT
  5
2A7D
330
2A6C
100
AcDbEntity
  8
図枠細線
 48
10.0
100
AcDbMText
 10
98.239734796872
 20
16.467764839281
 30
0.0
 40
2.0
 41
17.757791689903
 71
     1
 72
     5
  1
{\Fmonotxt.shx,bigfont.shx|c128;尺度　SCALE}
  0
MTEXT
  5
2A7E
330
2A6C
100
AcDbEntity
  8
図枠細線
 48
10.0
100
AcDbMText
 10
97.864744625154
 20
31.298433377664
 30
0.0
 40
2.0
 41
23.162655920976
 71
     1
 72
     5
  1
{\Fmonotxt.shx,bigfont.shx|c128;検図  CHECKED}
  0
LINE
  5
2A7F
330
2A6C
100
AcDbEntity
  8
図枠細線
  6
CONTINUOUS
 62
   252
100
AcDbLine
 10
97.577871882961
 20
2.820843367826
 30
0.0
 11
97.577871882961
 21
17.820841367826
 31
0.0
  0
LINE
  5
2A80
330
2A6C
100
AcDbEntity
  8
図枠細線
  6
CONTINUOUS
 62
   252
100
AcDbLine
 10
120.577871882961
 20
2.820844010683
 30
0.0
 11
120.577871882961
 21
17.820842010683
 31
0.0
  0
MTEXT
  5
2A81
330
2A6C
100
AcDbEntity
  8
図枠細線
 48
10.0
100
AcDbMText
 10
81.402399084102
 20
16.316484117426
 30
0.0
 40
2.0
 41
12.920322819369
 71
     1
 72
     5
  1
{\Fmonotxt.shx,bigfont.shx|c128;第三角法}
  0
MTEXT
  5
2A82
330
2A6C
100
AcDbEntity
  8
図枠細線
 48
10.0
100
AcDbMText
 10
75.736576535096
 20
11.080410931319
 30
0.0
 40
2.0
 41
21.072870671471
 71
     1
 72
     5
  1
{\Fmonotxt.shx,bigfont.shx|c128;THIRD ANGLE\PPROJECTION}
  0
LINE
  5
2A83
330
2A6C
100
AcDbEntity
  8
図枠太線
  6
CONTINUOUS
 62
   251
100
AcDbLine
 10
74.577871882961
 20
2.820844689254
 30
0.0
 11
74.577871882961
 21
32.820842689254
 31
0.0
  0
MTEXT
  5
2A84
330
2A6C
100
AcDbEntity
  8
図枠細線
 48
10.0
100
AcDbMText
 10
75.060214781573
 20
31.298434778555
 30
0.0
 40
2.0
 41
22.240928805967
 71
     1
 72
     5
  1
{\Fmonotxt.shx,bigfont.shx|c128;承認 APPROVED}
  0
LINE
  5
2A85
330
2A6C
100
AcDbEntity
  8
図枠細線
  6
CONTINUOUS
100
AcDbLine
 10
3.577871882961
 20
17.820844689254
 30
0.0
 11
74.577871882961
 21
17.820844689254
 31
0.0
  0
LINE
  5
2A86
330
2A6C
100
AcDbEntity
  8
図枠細線
  6
CONTINUOUS
 62
   252
100
AcDbLine
 10
3.577871882961
 20
27.820842689254
 30
0.0
 11
74.577871882961
 21
27.820842689254
 31
0.0
  0
LINE
  5
2A87
330
2A6C
100
AcDbEntity
  8
図枠細線
  6
CONTINUOUS
 62
   252
100
AcDbLine
 10
3.577871882961
 20
22.820842689254
 30
0.0
 11
74.577871882961
 21
22.820842689254
 31
0.0
  0
LINE
  5
2A88
330
2A6C
100
AcDbEntity
  8
図枠細線
  6
CONTINUOUS
 62
   252
100
AcDbLine
 10
3.577871882961
 20
12.820842689254
 30
0.0
 11
74.577871882961
 21
12.820842689254
 31
0.0
  0
LINE
  5
2A89
330
2A6C
100
AcDbEntity
  8
図枠細線
  6
CONTINUOUS
 62
   252
100
AcDbLine
 10
3.577871882961
 20
7.820844689254
 30
0.0
 11
74.577871882961
 21
7.820844689254
 31
0.0
  0
LINE
  5
2A8A
330
2A6C
100
AcDbEntity
  8
図枠細線
  6
CONTINUOUS
100
AcDbLine
 10
74.577871882961
 20
17.820843689254
 30
0.0
 11
143.577871882961
 21
17.820841224969
 31
0.0
  0
LINE
  5
2A8B
330
2A6C
100
AcDbEntity
  8
図枠太線
  6
CONTINUOUS
 62
   251
100
AcDbLine
 10
3.577871882961
 20
2.820844689254
 30
0.0
 11
283.577871882961
 21
2.820844689254
 31
0.0
  0
LINE
  5
2A8C
330
2A6C
100
AcDbEntity
  8
図枠太線
  6
CONTINUOUS
 62
   251
100
AcDbLine
 10
3.577871882961
 20
2.820844689254
 30
0.0
 11
3.577871882961
 21
32.820842689254
 31
0.0
  0
ENDBLK
  5
2A8D
330
2A6C
100
AcDbEntity
  8
0
100
AcDbBlockEnd
  0
BLOCK
  5
2AF8
330
2AF4
100
AcDbEntity
  8
0
 48
10.0
100
AcDbBlockBegin
  2
_OPEN30
 70
     0
 10
0.0
 20
0.0
 30
0.0
  3
_OPEN30
  1

  0
LINE
  5
2AF5
330
2AF4
100
AcDbEntity
  8
0
  6
BYBLOCK
 62
     0
100
AcDbLine
 10
-1.0
 20
0.26794919
 30
0.0
 11
0.0
 21
0.0
 31
0.0
  0
LINE
  5
2AF6
330
2AF4
100
AcDbEntity
  8
0
  6
BYBLOCK
 62
     0
100
AcDbLine
 10
0.0
 20
0.0
 30
0.0
 11
-1.0
 21
-0.26794919
 31
0.0
  0
LINE
  5
2AF7
330
2AF4
100
AcDbEntity
  8
0
  6
BYBLOCK
 62
     0
100
AcDbLine
 10
0.0
 20
0.0
 30
0.0
 11
-1.0
 21
0.0
 31
0.0
  0
ENDBLK
  5
2AF9
330
2AF4
100
AcDbEntity
  8
0
 48
10.0
100
AcDbBlockEnd
  0
BLOCK
  5
4623
330
4619
100
AcDbEntity
  8
0
 48
10.0
100
AcDbBlockBegin
  2
*D6
 70
     1
 10
0.0
 20
0.0
 30
0.0
  3
*D6
  1

  0
LINE
  5
461A
330
4619
100
AcDbEntity
  8
寸法線
 62
     0
 48
10.0
100
AcDbLine
 10
301.037623110288
 20
404.825455859273
 30
0.0
 11
301.037623110288
 21
350.700455711744
 31
0.0
  0
LINE
  5
461B
330
4619
100
AcDbEntity
  8
寸法線
 62
     0
 48
10.0
100
AcDbLine
 10
326.037623110287
 20
417.824766088479
 30
0.0
 11
326.037623110287
 21
350.700455711744
 31
0.0
  0
LINE
  5
461C
330
4619
100
AcDbEntity
  8
寸法線
 62
     0
 48
10.0
100
AcDbLine
 10
307.037623110288
 20
351.950455711744
 30
0.0
 11
320.037623110287
 21
351.950455711744
 31
0.0
  0
INSERT
  5
461D
330
4619
100
AcDbEntity
  8
寸法線
 62
     0
100
AcDbBlockReference
  2
_OPEN30
 10
301.037623110288
 20
351.950455711744
 30
0.0
 41
6.0
 42
6.0
 43
6.0
 50
180.0
  0
INSERT
  5
461E
330
4619
100
AcDbEntity
  8
寸法線
 62
     0
100
AcDbBlockReference
  2
_OPEN30
 10
326.037623110287
 20
351.950455711744
 30
0.0
 41
6.0
 42
6.0
 43
6.0
  0
MTEXT
  5
461F
330
4619
100
AcDbEntity
  8
寸法線
 62
     0
 48
10.0
100
AcDbMText
 10
313.537623110287
 20
356.579622378411
 30
0.0
 40
8.0
 41
0.0
 71
     5
 72
     1
  1
\A1;25
  0
POINT
  5
4620
330
4619
100
AcDbEntity
  8
DEFPOINTS
 62
     0
100
AcDbPoint
 10
301.037623110288
 20
405.450455859273
 30
0.0
  0
POINT
  5
4621
330
4619
100
AcDbEntity
  8
DEFPOINTS
 62
     0
100
AcDbPoint
 10
326.037623110287
 20
418.449766088479
 30
0.0
  0
POINT
  5
4622
330
4619
100
AcDbEntity
  8
DEFPOINTS
 62
     0
100
AcDbPoint
 10
326.037623110287
 20
351.950455711744
 30
0.0
  0
ENDBLK
  5
4624
330
4619
100
AcDbEntity
  8
0
 48
10.0
100
AcDbBlockEnd
  0
BLOCK
  5
466E
330
4664
100
AcDbEntity
  8
0
 48
10.0
100
AcDbBlockBegin
  2
*D7
 70
     1
 10
0.0
 20
0.0
 30
0.0
  3
*D7
  1

  0
LINE
  5
4665
330
4664
100
AcDbEntity
  8
寸法線
 62
     0
 48
10.0
100
AcDbLine
 10
326.037623110287
 20
417.824766088479
 30
0.0
 11
326.037623110287
 21
350.700455711744
 31
0.0
  0
LINE
  5
4666
330
4664
100
AcDbEntity
  8
寸法線
 62
     0
 48
10.0
100
AcDbLine
 10
346.037623110287
 20
417.824766088479
 30
0.0
 11
346.037623110287
 21
350.700455711744
 31
0.0
  0
LINE
  5
4667
330
4664
100
AcDbEntity
  8
寸法線
 62
     0
 48
10.0
100
AcDbLine
 10
332.037623110287
 20
351.950455711744
 30
0.0
 11
340.037623110287
 21
351.950455711744
 31
0.0
  0
INSERT
  5
4668
330
4664
100
AcDbEntity
  8
寸法線
 62
     0
100
AcDbBlockReference
  2
_OPEN30
 10
326.037623110287
 20
351.950455711744
 30
0.0
 41
6.0
 42
6.0
 43
6.0
 50
180.0
  0
INSERT
  5
4669
330
4664
100
AcDbEntity
  8
寸法線
 62
     0
100
AcDbBlockReference
  2
_OPEN30
 10
346.037623110287
 20
351.950455711744
 30
0.0
 41
6.0
 42
6.0
 43
6.0
  0
MTEXT
  5
466A
330
4664
100
AcDbEntity
  8
寸法線
 62
     0
 48
10.0
100
AcDbMText
 10
336.037623110287
 20
356.579622378411
 30
0.0
 40
8.0
 41
0.0
 71
     5
 72
     1
  1
\A1;20
  0
POINT
  5
466B
330
4664
100
AcDbEntity
  8
DEFPOINTS
 62
     0
100
AcDbPoint
 10
326.037623110287
 20
418.449766088479
 30
0.0
  0
POINT
  5
466C
330
4664
100
AcDbEntity
  8
DEFPOINTS
 62
     0
100
AcDbPoint
 10
346.037623110287
 20
418.449766088479
 30
0.0
  0
POINT
  5
466D
330
4664
100
AcDbEntity
  8
DEFPOINTS
 62
     0
100
AcDbPoint
 10
346.037623110287
 20
351.950455711744
 30
0.0
  0
ENDBLK
  5
466F
330
4664
100
AcDbEntity
  8
0
 48
10.0
100
AcDbBlockEnd
  0
BLOCK
  5
46A1
330
46A0
100
AcDbEntity
  8
0
 48
10.0
100
AcDbBlockBegin
  2
静電容量センサ
 70
     0
 10
0.0
 20
0.0
 30
0.0
  3
静電容量センサ
  1

  0
ARC
  5
46A2
330
46A0
100
AcDbEntity
  8
外形線
 48
10.0
100
AcDbCircle
 10
1021.898525663106
 20
1073.412780408912
 30
0.0
 40
1.0
100
AcDbArc
 50
180.0
 51
268.999999999998
  0
ARC
  5
46A3
330
46A0
100
AcDbEntity
  8
外形線
 48
10.0
100
AcDbCircle
 10
1021.898525663106
 20
1115.960781516243
 30
0.0
 40
1.0
100
AcDbArc
 50
91.000000000002
 51
180.0
  0
LINE
  5
46A4
330
46A0
100
AcDbEntity
  8
外形線
 48
10.0
100
AcDbLine
 10
1020.898525663106
 20
1115.960781516243
 30
0.0
 11
1020.898525663106
 21
1073.412780408912
 31
0.0
  0
LINE
  5
46A5
330
46A0
100
AcDbEntity
  8
外形線
 48
10.0
100
AcDbLine
 10
1035.026308504175
 20
1117.944859066978
 30
0.0
 11
1041.278741748243
 21
1143.02199911049
 31
0.0
  0
ARC
  5
46A6
330
46A0
100
AcDbEntity
  8
外形線
 48
10.0
100
AcDbCircle
 10
1046.130220379623
 20
1141.812389632491
 30
0.0
 40
5.0
100
AcDbArc
 50
91.3
 51
166.000000000004
  0
ARC
  5
46A7
330
46A0
100
AcDbEntity
  8
外形線
 48
10.0
100
AcDbCircle
 10
1034.056012777899
 20
1118.186780962578
 30
0.0
 40
1.0
100
AcDbArc
 50
270.0
 51
346.000000000004
  0
ARC
  5
46A8
330
46A0
100
AcDbEntity
  8
外形線
 48
10.0
100
AcDbCircle
 10
1034.056012777899
 20
1118.186780962578
 30
0.0
 40
1.0
100
AcDbArc
 50
270.0
 51
346.000000000004
  0
LINE
  5
46A9
330
46A0
100
AcDbEntity
  8
外形線
 48
10.0
100
AcDbLine
 10
1021.881073256669
 20
1116.960629211399
 30
0.0
 11
1034.056012777899
 21
1117.186780962578
 31
0.0
  0
ARC
  5
46AA
330
46A0
100
AcDbEntity
  8
外形線
 48
10.0
100
AcDbCircle
 10
1122.899564892808
 20
1151.93622955513
 30
0.0
 40
0.5
100
AcDbArc
 50
359.999254274584
 51
88.999999999998
  0
ARC
  5
46AB
330
46A0
100
AcDbEntity
  8
細線
 48
10.0
100
AcDbCircle
 10
1123.898525663106
 20
1107.819822714047
 30
0.0
 40
0.5
100
AcDbArc
 50
180.0
 51
264.089361084595
  0
ARC
  5
46AC
330
46A0
100
AcDbEntity
  8
外形線
 48
10.0
100
AcDbCircle
 10
1123.898525663106
 20
1100.44543233102
 30
0.0
 40
0.5
100
AcDbArc
 50
91.000000000002
 51
180.0
  0
ARC
  5
46AD
330
46A0
100
AcDbEntity
  8
細線
 48
10.0
100
AcDbCircle
 10
1123.898525663106
 20
1108.078641759149
 30
0.0
 40
0.5
100
AcDbArc
 50
180.0
 51
264.089361084595
  0
ARC
  5
46AE
330
46A0
100
AcDbEntity
  8
細線
 48
10.0
100
AcDbCircle
 10
1123.898525663106
 20
1129.71320712675
 30
0.0
 40
0.5
100
AcDbArc
 50
180.0
 51
254.206830951738
  0
ARC
  5
46AF
330
46A0
100
AcDbEntity
  8
細線
 48
10.0
100
AcDbCircle
 10
1123.898525663106
 20
1130.420313907937
 30
0.0
 40
0.5
100
AcDbArc
 50
180.0
 51
254.206830951738
  0
ARC
  5
46B0
330
46A0
100
AcDbEntity
  8
細線
 48
10.0
100
AcDbCircle
 10
1123.898525663106
 20
1142.359984147006
 30
0.0
 40
0.5
100
AcDbArc
 50
180.0
 51
248.874947125989
  0
ARC
  5
46B1
330
46A0
100
AcDbEntity
  8
細線
 48
10.0
100
AcDbCircle
 10
1123.898525663106
 20
1143.325909973296
 30
0.0
 40
0.5
100
AcDbArc
 50
180.0
 51
248.874947125989
  0
ARC
  5
46B2
330
46A0
100
AcDbEntity
  8
外形線
 48
10.0
100
AcDbCircle
 10
1123.898413585187
 20
1144.632076415673
 30
0.0
 40
0.5
100
AcDbArc
 50
180.019033969455
 51
248.025023881972
  0
LINE
  5
46B3
330
46A0
100
AcDbEntity
  8
外形線
 48
10.0
100
AcDbLine
 10
1123.398525663106
 20
1143.325909973296
 30
0.0
 11
1123.398525663106
 21
1144.294618045039
 31
0.0
  0
LINE
  5
46B4
330
46A0
100
AcDbEntity
  8
外形線
 48
10.0
100
AcDbLine
 10
1123.398525663106
 20
1142.359984147006
 30
0.0
 11
1123.398525663106
 21
1142.98307227703
 31
0.0
  0
LINE
  5
46B5
330
46A0
100
AcDbEntity
  8
外形線
 48
10.0
100
AcDbLine
 10
1123.398525663106
 20
1130.420313907937
 30
0.0
 11
1123.398525663106
 21
1142.017146450741
 31
0.0
  0
LINE
  5
46B6
330
46A0
100
AcDbEntity
  8
外形線
 48
10.0
100
AcDbLine
 10
1123.398525663106
 20
1129.71320712675
 30
0.0
 11
1123.398525663106
 21
1130.042120021904
 31
0.0
  0
LINE
  5
46B7
330
46A0
100
AcDbEntity
  8
外形線
 48
10.0
100
AcDbLine
 10
1123.398525663106
 20
1108.078641759149
 30
0.0
 11
1123.398525663106
 21
1130.420313907937
 31
0.0
  0
LINE
  5
46B8
330
46A0
100
AcDbEntity
  8
外形線
 48
10.0
100
AcDbLine
 10
1123.398525663106
 20
1107.819822714047
 30
0.0
 11
1123.398525663106
 21
1108.700149198143
 31
0.0
  0
LINE
  5
46B9
330
46A0
100
AcDbEntity
  8
外形線
 48
10.0
100
AcDbLine
 10
1123.398525663106
 20
1100.44543233102
 30
0.0
 11
1123.398525663106
 21
1108.078641759149
 31
0.0
  0
ARC
  5
46BA
330
46A0
100
AcDbEntity
  8
外形線
 48
10.0
100
AcDbCircle
 10
1123.898525663106
 20
1088.928129594135
 30
0.0
 40
0.5
100
AcDbArc
 50
180.0
 51
268.999999999998
  0
LINE
  5
46BB
330
46A0
100
AcDbEntity
  8
外形線
 48
10.0
100
AcDbLine
 10
1123.398525663106
 20
1088.928129594135
 30
0.0
 11
1123.398525663106
 21
1100.44543233102
 31
0.0
  0
ARC
  5
46BC
330
46A0
100
AcDbEntity
  8
外形線
 48
10.0
100
AcDbCircle
 10
1135.396646406818
 20
1087.727276821958
 30
0.0
 40
0.5
100
AcDbArc
 50
0.002863323129
 51
88.999999999998
  0
ARC
  5
46BD
330
46A0
100
AcDbEntity
  8
外形線
 48
10.0
100
AcDbCircle
 10
1135.396646406818
 20
1101.646285103198
 30
0.0
 40
0.5
100
AcDbArc
 50
271.000000000002
 51
359.997136676878
  0
ARC
  5
46BE
330
46A0
100
AcDbEntity
  8
細線
 48
10.0
100
AcDbCircle
 10
1135.398359871226
 20
1105.882746614783
 30
0.0
 40
0.5
100
AcDbArc
 50
359.978936747976
 51
84.089361084595
  0
ARC
  5
46BF
330
46A0
100
AcDbEntity
  8
細線
 48
10.0
100
AcDbCircle
 10
1135.396845195015
 20
1105.6240843805
 30
0.0
 40
0.5
100
AcDbArc
 50
359.997136676878
 51
84.089361084595
  0
ARC
  5
46C0
330
46A0
100
AcDbEntity
  8
細線
 48
10.0
100
AcDbCircle
 10
1135.398405428356
 20
1136.84472607817
 30
0.0
 40
0.5
100
AcDbArc
 50
359.997136676878
 51
68.874947125989
  0
ARC
  5
46C1
330
46A0
100
AcDbEntity
  8
細線
 48
10.0
100
AcDbCircle
 10
1135.398453699003
 20
1137.810633254114
 30
0.0
 40
0.5
100
AcDbArc
 50
359.997136676878
 51
68.874947125989
  0
ARC
  5
46C2
330
46A0
100
AcDbEntity
  8
外形線
 48
10.0
100
AcDbCircle
 10
1135.398508800797
 20
1138.913233296621
 30
0.0
 40
0.5
100
AcDbArc
 50
359.997136676878
 51
68.025023881972
  0
LINE
  5
46C3
330
46A0
100
AcDbEntity
  8
外形線
 48
10.0
100
AcDbLine
 10
1135.405372610037
 20
1101.146361255619
 30
0.0
 11
1123.889799459887
 21
1100.945356178598
 31
0.0
  0
LINE
  5
46C4
330
46A0
100
AcDbEntity
  8
外形線
 48
10.0
100
AcDbLine
 10
1135.405372610037
 20
1088.227200669536
 30
0.0
 11
1123.889799459887
 21
1088.428205746557
 31
0.0
  0
LINE
  5
46C5
330
46A0
100
AcDbEntity
  8
外形線
 48
10.0
100
AcDbLine
 10
1123.711312779708
 20
1144.168402728055
 30
0.0
 11
1135.585609606275
 21
1139.376906984239
 31
0.0
  0
LINE
  5
46C6
330
46A0
100
AcDbEntity
  8
細線
 48
10.0
100
AcDbLine
 10
1135.448333812772
 20
1106.121426237015
 30
0.0
 11
1123.847037045349
 21
1107.322480857532
 31
0.0
  0
LINE
  5
46C7
330
46A0
100
AcDbEntity
  8
細線
 48
10.0
100
AcDbLine
 10
1135.449848488983
 20
1106.380088471297
 30
0.0
 11
1123.847037045349
 21
1107.581299902634
 31
0.0
  0
LINE
  5
46C8
330
46A0
100
AcDbEntity
  8
細線
 48
10.0
100
AcDbLine
 10
1135.533952658586
 20
1126.609702933466
 30
0.0
 11
1123.762442899618
 21
1129.939188683612
 31
0.0
  0
LINE
  5
46C9
330
46A0
100
AcDbEntity
  8
細線
 48
10.0
100
AcDbLine
 10
1135.578607784566
 20
1137.311124095764
 30
0.0
 11
1123.718323306896
 21
1141.893586129411
 31
0.0
  0
LINE
  5
46CA
330
46A0
100
AcDbEntity
  8
細線
 48
10.0
100
AcDbLine
 10
1135.578656055213
 20
1138.277031271709
 30
0.0
 11
1123.718323306896
 21
1142.859511955701
 31
0.0
  0
LINE
  5
46CB
330
46A0
100
AcDbEntity
  8
外形線
 48
10.0
100
AcDbLine
 10
1108.899561566736
 20
1152.686780962578
 30
0.0
 11
1122.908291096026
 21
1152.436153402709
 31
0.0
  0
LINE
  5
46CC
330
46A0
100
AcDbEntity
  8
外形線
 48
10.0
100
AcDbLine
 10
1108.899561566736
 20
1152.686780962578
 30
0.0
 11
1108.399561566736
 21
1152.180676686204
 31
0.0
  0
LINE
  5
46CD
330
46A0
100
AcDbEntity
  8
外形線
 48
10.0
100
AcDbLine
 10
1108.399561566736
 20
1151.192885238951
 30
0.0
 11
1108.399561566736
 21
1150.692885238951
 31
0.0
  0
ARC
  5
46CE
330
46A0
100
AcDbEntity
  8
外形線
 48
10.0
100
AcDbCircle
 10
1098.998525663106
 20
1152.414559409545
 30
0.0
 40
4.4
100
AcDbArc
 50
271.3
 51
0.0
  0
LINE
  5
46CF
330
46A0
100
AcDbEntity
  8
外形線
 48
10.0
100
AcDbLine
 10
1046.016783711759
 20
1146.811102679105
 30
0.0
 11
1099.098349930826
 21
1148.015691928525
 31
0.0
  0
LINE
  5
46D0
330
46A0
100
AcDbEntity
  8
外形線
 48
10.0
100
AcDbLine
 10
1103.398525663105
 20
1152.686780962578
 30
0.0
 11
1103.398525663105
 21
1152.414559409545
 31
0.0
  0
LINE
  5
46D1
330
46A0
100
AcDbEntity
  8
外形線
 48
10.0
100
AcDbLine
 10
1106.398525663105
 20
1152.686780962578
 30
0.0
 11
1103.398525663105
 21
1152.686780962578
 31
0.0
  0
ARC
  5
46D2
330
46A0
100
AcDbEntity
  8
外形線
 48
10.0
100
AcDbCircle
 10
1107.898525663105
 20
1150.161780962577
 30
0.0
 40
1.500000000000156
100
AcDbArc
 50
70.528779365514
 51
179.999999999993
  0
LINE
  5
46D3
330
46A0
100
AcDbEntity
  8
細線
 48
10.0
100
AcDbLine
 10
1108.899561566736
 20
1152.686780962578
 30
0.0
 11
1108.899561566736
 21
1036.686780962578
 31
0.0
  0
LINE
  5
46D4
330
46A0
100
AcDbEntity
  8
細線
 48
10.0
100
AcDbLine
 10
1108.899561566736
 20
1152.680676686204
 30
0.0
 11
1108.899561566736
 21
1036.692885238951
 31
0.0
  0
LINE
  5
46D5
330
46A0
100
AcDbEntity
  8
外形線
 48
10.0
100
AcDbLine
 10
1123.398525663106
 20
1072.956444458874
 30
0.0
 11
1123.398525663106
 21
1059.660354798405
 31
0.0
  0
ARC
  5
46D6
330
46A0
100
AcDbEntity
  8
細線
 48
10.0
100
AcDbCircle
 10
1123.898525663106
 20
1047.013577778149
 30
0.0
 40
0.5
100
AcDbArc
 50
111.125052874011
 51
180.0
  0
ARC
  5
46D7
330
46A0
100
AcDbEntity
  8
細線
 48
10.0
100
AcDbCircle
 10
1123.898066965619
 20
1046.04747472476
 30
0.0
 40
0.5
100
AcDbArc
 50
111.125052874011
 51
179.923306313171
  0
ARC
  5
46D8
330
46A0
100
AcDbEntity
  8
細線
 48
10.0
100
AcDbCircle
 10
1123.898525663106
 20
1059.660354798405
 30
0.0
 40
0.5
100
AcDbArc
 50
105.793169048262
 51
180.0
  0
ARC
  5
46D9
330
46A0
100
AcDbEntity
  8
細線
 48
10.0
100
AcDbCircle
 10
1123.898525663106
 20
1058.953248017218
 30
0.0
 40
0.5
100
AcDbArc
 50
105.793169048262
 51
180.0
  0
ARC
  5
46DA
330
46A0
100
AcDbEntity
  8
細線
 48
10.0
100
AcDbCircle
 10
1123.898525663106
 20
1081.294920166006
 30
0.0
 40
0.5
100
AcDbArc
 50
95.910638915405
 51
180.0
  0
ARC
  5
46DB
330
46A0
100
AcDbEntity
  8
細線
 48
10.0
100
AcDbCircle
 10
1123.898525663106
 20
1081.553739211108
 30
0.0
 40
0.5
100
AcDbArc
 50
95.910638915405
 51
180.0
  0
LINE
  5
46DC
330
46A0
100
AcDbEntity
  8
外形線
 48
10.0
100
AcDbLine
 10
1123.398525663106
 20
1081.294920166006
 30
0.0
 11
1123.398525663106
 21
1088.928129594135
 31
0.0
  0
LINE
  5
46DD
330
46A0
100
AcDbEntity
  8
外形線
 48
10.0
100
AcDbLine
 10
1123.398525663106
 20
1081.745828707453
 30
0.0
 11
1123.398525663106
 21
1082.004647752555
 31
0.0
  0
LINE
  5
46DE
330
46A0
100
AcDbEntity
  8
外形線
 48
10.0
100
AcDbLine
 10
1123.398525663106
 20
1072.956444458874
 30
0.0
 11
1123.398525663106
 21
1081.294920166006
 31
0.0
  0
LINE
  5
46DF
330
46A0
100
AcDbEntity
  8
外形線
 48
10.0
100
AcDbLine
 10
1123.398525663106
 20
1058.953248017218
 30
0.0
 11
1123.398525663106
 21
1059.660354798405
 31
0.0
  0
LINE
  5
46E0
330
46A0
100
AcDbEntity
  8
外形線
 48
10.0
100
AcDbLine
 10
1123.398525663106
 20
1047.013577778149
 30
0.0
 11
1123.398525663106
 21
1058.953248017218
 31
0.0
  0
LINE
  5
46E1
330
46A0
100
AcDbEntity
  8
外形線
 48
10.0
100
AcDbLine
 10
1123.398067413553
 20
1046.048144003235
 30
0.0
 11
1123.398525663106
 21
1047.013577778149
 31
0.0
  0
LINE
  5
46E2
330
46A0
100
AcDbEntity
  8
外形線
 48
10.0
100
AcDbLine
 10
1123.396317242873
 20
1044.740639597053
 30
0.0
 11
1123.398067413553
 21
1046.048144003235
 31
0.0
  0
ARC
  5
46E3
330
46A0
100
AcDbEntity
  8
外形線
 48
10.0
100
AcDbCircle
 10
1123.896317242873
 20
1044.740639597053
 30
0.0
 40
0.5
100
AcDbArc
 50
111.974976118028
 51
180.0
  0
ARC
  5
46E4
330
46A0
100
AcDbEntity
  8
細線
 48
10.0
100
AcDbCircle
 10
1135.398494161258
 20
1063.952267566336
 30
0.0
 40
0.5
100
AcDbArc
 50
285.793169048262
 51
0.004772330144
  0
ARC
  5
46E5
330
46A0
100
AcDbEntity
  8
細線
 48
10.0
100
AcDbCircle
 10
1135.398525663106
 20
1063.245169695216
 30
0.0
 40
0.5
100
AcDbArc
 50
285.793169048262
 51
0.0
  0
ARC
  5
46E6
330
46A0
100
AcDbEntity
  8
細線
 48
10.0
100
AcDbCircle
 10
1135.398525663106
 20
1052.528882302126
 30
0.0
 40
0.5
100
AcDbArc
 50
291.125052874011
 51
0.0
  0
ARC
  5
46E7
330
46A0
100
AcDbEntity
  8
細線
 48
10.0
100
AcDbCircle
 10
1135.398525663106
 20
1051.562956475835
 30
0.0
 40
0.5
100
AcDbArc
 50
291.125052874011
 51
0.0
  0
ARC
  5
46E8
330
46A0
100
AcDbEntity
  8
外形線
 48
10.0
100
AcDbCircle
 10
1135.398525663106
 20
1050.460335432784
 30
0.0
 40
0.5
100
AcDbArc
 50
291.974976118028
 51
0.0
  0
LINE
  5
46E9
330
46A0
100
AcDbEntity
  8
外形線
 48
10.0
100
AcDbLine
 10
1135.898525663106
 20
1051.562956475835
 30
0.0
 11
1135.898525663106
 21
1050.460335432784
 31
0.0
  0
LINE
  5
46EA
330
46A0
100
AcDbEntity
  8
外形線
 48
10.0
100
AcDbLine
 10
1135.898525663106
 20
1052.528882302126
 30
0.0
 11
1135.898525663106
 21
1051.562956475835
 31
0.0
  0
LINE
  5
46EB
330
46A0
100
AcDbEntity
  8
外形線
 48
10.0
100
AcDbLine
 10
1135.898525663106
 20
1063.245169695216
 30
0.0
 11
1135.898525663106
 21
1052.528882302126
 31
0.0
  0
LINE
  5
46EC
330
46A0
100
AcDbEntity
  8
外形線
 48
10.0
100
AcDbLine
 10
1135.898494159523
 20
1063.952309212773
 30
0.0
 11
1135.898525663106
 21
1063.245169695216
 31
0.0
  0
LINE
  5
46ED
330
46A0
100
AcDbEntity
  8
外形線
 48
10.0
100
AcDbLine
 10
1135.896845194391
 20
1083.749502531863
 30
0.0
 11
1135.898494159523
 21
1063.952309212773
 31
0.0
  0
ARC
  5
46EE
330
46A0
100
AcDbEntity
  8
細線
 48
10.0
100
AcDbCircle
 10
1135.396794220963
 20
1083.49065322233
 30
0.0
 40
0.5
100
AcDbArc
 50
275.910638915405
 51
0.00199902817
  0
ARC
  5
46EF
330
46A0
100
AcDbEntity
  8
細線
 48
10.0
100
AcDbCircle
 10
1135.396845195015
 20
1083.749477544655
 30
0.0
 40
0.5
100
AcDbArc
 50
275.910638915405
 51
0.002863323129
  0
ARC
  5
46F0
330
46A0
100
AcDbEntity
  8
外形線
 48
10.0
100
AcDbCircle
 10
1122.897486448612
 20
1037.437296090646
 30
0.0
 40
0.5
100
AcDbArc
 50
271.000000000002
 51
359.984453673186
  0
LINE
  5
46F1
330
46A0
100
AcDbEntity
  8
外形線
 48
10.0
100
AcDbLine
 10
1135.896646406194
 20
1087.727301809166
 30
0.0
 11
1135.896794220659
 21
1083.490670667142
 31
0.0
  0
LINE
  5
46F2
330
46A0
100
AcDbEntity
  8
外形線
 48
10.0
100
AcDbLine
 10
1123.709216437395
 20
1045.204313284671
 30
0.0
 11
1135.585626468584
 21
1049.996661745166
 31
0.0
  0
LINE
  5
46F3
330
46A0
100
AcDbEntity
  8
細線
 48
10.0
100
AcDbLine
 10
1135.578728019316
 20
1052.062484284531
 30
0.0
 11
1123.718323306896
 21
1047.479975795744
 31
0.0
  0
LINE
  5
46F4
330
46A0
100
AcDbEntity
  8
細線
 48
10.0
100
AcDbLine
 10
1135.578728019316
 20
1051.09655845824
 30
0.0
 11
1123.717864609409
 21
1046.513872742355
 31
0.0
  0
LINE
  5
46F5
330
46A0
100
AcDbEntity
  8
細線
 48
10.0
100
AcDbLine
 10
1135.534608426593
 20
1062.764044470891
 30
0.0
 11
1123.762442899618
 21
1059.434373241543
 31
0.0
  0
LINE
  5
46F6
330
46A0
100
AcDbEntity
  8
細線
 48
10.0
100
AcDbLine
 10
1135.534576924746
 20
1063.471142342011
 30
0.0
 11
1123.762442899618
 21
1060.141480022729
 31
0.0
  0
LINE
  5
46F7
330
46A0
100
AcDbEntity
  8
細線
 48
10.0
100
AcDbLine
 10
1135.44828283872
 20
1082.993311365815
 30
0.0
 11
1123.847037045349
 21
1081.792262022521
 31
0.0
  0
LINE
  5
46F8
330
46A0
100
AcDbEntity
  8
細線
 48
10.0
100
AcDbLine
 10
1135.448333812772
 20
1083.25213568814
 30
0.0
 11
1123.847037045349
 21
1082.051081067623
 31
0.0
  0
LINE
  5
46F9
330
46A0
100
AcDbEntity
  8
外形線
 48
10.0
100
AcDbLine
 10
1123.399470041665
 20
1044.747733739171
 30
0.0
 11
1123.397486430207
 21
1037.437160423353
 31
0.0
  0
LINE
  5
46FA
330
46A0
100
AcDbEntity
  8
外形線
 48
10.0
100
AcDbLine
 10
1123.399564892765
 20
1151.936223047449
 30
0.0
 11
1123.397486430207
 21
1037.437160423353
 31
0.0
  0
LINE
  5
46FB
330
46A0
100
AcDbEntity
  8
外形線
 48
10.0
100
AcDbLine
 10
1108.399561566736
 20
1152.180676686204
 30
0.0
 11
1108.399561566736
 21
1037.192885238951
 31
0.0
  0
LINE
  5
46FC
330
46A0
100
AcDbEntity
  8
外形線
 48
10.0
100
AcDbLine
 10
1108.899561566736
 20
1036.686780962578
 30
0.0
 11
1122.906212651831
 21
1036.937372243068
 31
0.0
  0
LINE
  5
46FD
330
46A0
100
AcDbEntity
  8
外形線
 48
10.0
100
AcDbLine
 10
1108.899561566736
 20
1036.686780962578
 30
0.0
 11
1108.399561566736
 21
1037.192885238951
 31
0.0
  0
LINE
  5
46FE
330
46A0
100
AcDbEntity
  8
外形線
 48
10.0
100
AcDbLine
 10
1108.399561566736
 20
1038.192885238951
 30
0.0
 11
1108.399561566736
 21
1038.692885238951
 31
0.0
  0
LINE
  5
46FF
330
46A0
100
AcDbEntity
  8
外形線
 48
10.0
100
AcDbLine
 10
1035.022931603883
 20
1071.442246865485
 30
0.0
 11
1041.278741748243
 21
1046.351562814666
 31
0.0
  0
ARC
  5
4700
330
46A0
100
AcDbEntity
  8
外形線
 48
10.0
100
AcDbCircle
 10
1046.130220379623
 20
1047.561172292664
 30
0.0
 40
5.0
100
AcDbArc
 50
193.999999999996
 51
268.7
  0
ARC
  5
4701
330
46A0
100
AcDbEntity
  8
外形線
 48
10.0
100
AcDbCircle
 10
1034.052635877606
 20
1071.200324969886
 30
0.0
 40
1.0
100
AcDbArc
 50
13.999999999996
 51
89.000000000011
  0
ARC
  5
4702
330
46A0
100
AcDbEntity
  8
外形線
 48
10.0
100
AcDbCircle
 10
1069.398525663106
 20
1041.031595836918
 30
0.0
 40
1.0
100
AcDbArc
 50
0.0
 51
88.7
  0
ARC
  5
4703
330
46A0
100
AcDbEntity
  8
外形線
 48
10.0
100
AcDbCircle
 10
1071.398525663106
 20
1031.186780962577
 30
0.0
 40
1.0
100
AcDbArc
 50
180.0
 51
270.0
  0
ARC
  5
4704
330
46A0
100
AcDbEntity
  8
外形線
 48
10.0
100
AcDbCircle
 10
1105.398525663105
 20
1031.186780962577
 30
0.0
 40
1.0
100
AcDbArc
 50
270.0
 51
0.0
  0
LINE
  5
4705
330
46A0
100
AcDbEntity
  8
外形線
 48
10.0
100
AcDbLine
 10
1070.398525663106
 20
1031.186780962577
 30
0.0
 11
1070.398525663106
 21
1041.031595836918
 31
0.0
  0
LINE
  5
4706
330
46A0
100
AcDbEntity
  8
外形線
 48
10.0
100
AcDbLine
 10
1046.016783711759
 20
1042.56245924605
 30
0.0
 11
1099.098349930826
 21
1041.35786999663
 31
0.0
  0
LINE
  5
4707
330
46A0
100
AcDbEntity
  8
外形線
 48
10.0
100
AcDbLine
 10
1021.881073256668
 20
1072.412932713756
 30
0.0
 11
1034.070088284044
 21
1072.200172665042
 31
0.0
  0
LINE
  5
4708
330
46A0
100
AcDbEntity
  8
外形線
 48
10.0
100
AcDbLine
 10
1106.398525663105
 20
1040.711780962577
 30
0.0
 11
1106.398525663105
 21
1031.186780962577
 31
0.0
  0
LINE
  5
4709
330
46A0
100
AcDbEntity
  8
外形線
 48
10.0
100
AcDbLine
 10
1106.398525663105
 20
1040.711780962577
 30
0.0
 11
1106.398525663105
 21
1152.686780962578
 31
0.0
  0
LINE
  5
470A
330
46A0
100
AcDbEntity
  8
外形線
 48
10.0
100
AcDbLine
 10
1105.398525663105
 20
1030.186780962577
 30
0.0
 11
1071.398525663106
 21
1030.186780962577
 31
0.0
  0
LINE
  5
470B
330
46A0
100
AcDbEntity
  8
外形線
 48
10.0
100
AcDbLine
 10
1103.398525663106
 20
1036.95900251561
 30
0.0
 11
1103.398525663105
 21
1036.692885238951
 31
0.0
  0
LINE
  5
470C
330
46A0
100
AcDbEntity
  8
外形線
 48
10.0
100
AcDbLine
 10
1106.398525663105
 20
1036.692885238951
 30
0.0
 11
1103.398525663105
 21
1036.692885238951
 31
0.0
  0
ARC
  5
470D
330
46A0
100
AcDbEntity
  8
外形線
 48
10.0
100
AcDbCircle
 10
1107.898525663105
 20
1039.211780962577
 30
0.0
 40
1.499999999999659
100
AcDbArc
 50
179.99999999998
 51
289.471220634515
  0
ARC
  5
470E
330
46A0
100
AcDbEntity
  8
外形線
 48
10.0
100
AcDbCircle
 10
1098.998525663106
 20
1036.95900251561
 30
0.0
 40
4.4
100
AcDbArc
 50
0.0
 51
88.7
  0
LINE
  5
470F
330
46A0
100
AcDbEntity
  8
細線
 48
10.0
100
AcDbLine
 10
1103.398525663105
 20
1152.686780962578
 30
0.0
 11
1103.398525663106
 21
1036.95900251561
 31
0.0
  0
LINE
  5
4710
330
46A0
100
AcDbEntity
  8
細線
 48
10.0
100
AcDbLine
 10
1034.837298404406
 20
1072.186780962578
 30
0.0
 11
1034.840933619068
 21
1117.201361012233
 31
0.0
  0
LINE
  5
4711
330
46A0
100
AcDbEntity
  8
細線
 48
10.0
100
AcDbLine
 10
1042.201886517784
 20
1144.905639229587
 30
0.0
 11
1042.201886517784
 21
1044.467922695569
 31
0.0
  0
LINE
  5
4712
330
46A0
100
AcDbEntity
  8
外形線
 48
10.0
100
AcDbLine
 10
1135.898508800172
 20
1138.913208309413
 30
0.0
 11
1135.896646406194
 21
1101.646260115989
 31
0.0
  0
ARC
  5
4713
330
46A0
100
AcDbEntity
  8
細線
 48
10.0
100
AcDbCircle
 10
1135.397834558349
 20
1125.421480922695
 30
0.0
 40
0.5
100
AcDbArc
 50
359.997136676878
 51
74.206830951738
  0
ARC
  5
4714
330
46A0
100
AcDbEntity
  8
細線
 48
10.0
100
AcDbCircle
 10
1135.397869895098
 20
1126.128577709141
 30
0.0
 40
0.5
100
AcDbArc
 50
359.997136676878
 51
74.206830951738
  0
LINE
  5
4715
330
46A0
100
AcDbEntity
  8
細線
 48
10.0
100
AcDbLine
 10
1135.533917321837
 20
1125.90260614702
 30
0.0
 11
1123.762442899618
 21
1129.232081902426
 31
0.0
  0
LINE
  5
4716
330
46A0
100
AcDbEntity
  8
中心線
 48
10.0
100
AcDbLine
 10
1088.398525663106
 20
1052.03299312045
 30
0.0
 11
1088.398525663106
 21
1013.722487401784
 31
0.0
  0
ENDBLK
  5
4717
330
46A0
100
AcDbEntity
  8
0
 48
10.0
100
AcDbBlockEnd
  0
BLOCK
  5
47F9
330
47EF
100
AcDbEntity
  8
0
 48
10.0
100
AcDbBlockBegin
  2
*D9
 70
     1
 10
0.0
 20
0.0
 30
0.0
  3
*D9
  1

  0
LINE
  5
4808
330
47EF
100
AcDbEntity
  8
寸法線
 62
     0
 48
10.0
100
AcDbLine
 10
434.537623110287
 20
373.325455859273
 30
0.0
 11
434.537623110287
 21
350.700455711744
 31
0.0
  0
LINE
  5
4809
330
47EF
100
AcDbEntity
  8
寸法線
 62
     0
 48
10.0
100
AcDbLine
 10
464.037623110288
 20
392.599010329479
 30
0.0
 11
464.037623110288
 21
350.700455711744
 31
0.0
  0
LINE
  5
480A
330
47EF
100
AcDbEntity
  8
寸法線
 62
     0
 48
10.0
100
AcDbLine
 10
440.537623110287
 20
351.950455711744
 30
0.0
 11
458.037623110288
 21
351.950455711744
 31
0.0
  0
INSERT
  5
480B
330
47EF
100
AcDbEntity
  8
寸法線
 62
     0
100
AcDbBlockReference
  2
_OPEN30
 10
434.537623110287
 20
351.950455711744
 30
0.0
 41
6.0
 42
6.0
 43
6.0
 50
180.0
  0
INSERT
  5
480C
330
47EF
100
AcDbEntity
  8
寸法線
 62
     0
100
AcDbBlockReference
  2
_OPEN30
 10
464.037623110288
 20
351.950455711744
 30
0.0
 41
6.0
 42
6.0
 43
6.0
  0
MTEXT
  5
480D
330
47EF
100
AcDbEntity
  8
寸法線
 62
     0
 48
10.0
100
AcDbMText
 10
449.287623110287
 20
356.579622378411
 30
0.0
 40
8.0
 41
0.0
 71
     5
 72
     1
  1
\A1;30
  0
POINT
  5
480E
330
47EF
100
AcDbEntity
  8
DEFPOINTS
 62
     0
100
AcDbPoint
 10
434.537623110287
 20
373.950455859273
 30
0.0
  0
POINT
  5
480F
330
47EF
100
AcDbEntity
  8
DEFPOINTS
 62
     0
100
AcDbPoint
 10
464.037623110288
 20
393.224010329479
 30
0.0
  0
POINT
  5
4810
330
47EF
100
AcDbEntity
  8
DEFPOINTS
 62
     0
100
AcDbPoint
 10
464.037623110288
 20
351.950455711744
 30
0.0
  0
ENDBLK
  5
47FA
330
47EF
100
AcDbEntity
  8
0
 48
10.0
100
AcDbBlockEnd
  0
BLOCK
  5
4806
330
47FC
100
AcDbEntity
  8
0
 48
10.0
100
AcDbBlockBegin
  2
*D10
 70
     1
 10
0.0
 20
0.0
 30
0.0
  3
*D10
  1

  0
LINE
  5
4811
330
47FC
100
AcDbEntity
  8
寸法線
 62
     0
 48
10.0
100
AcDbLine
 10
346.037623110287
 20
417.824766088479
 30
0.0
 11
346.037623110287
 21
350.700455711744
 31
0.0
  0
LINE
  5
4812
330
47FC
100
AcDbEntity
  8
寸法線
 62
     0
 48
10.0
100
AcDbLine
 10
434.537623110287
 20
373.325455859273
 30
0.0
 11
434.537623110287
 21
350.700455711744
 31
0.0
  0
LINE
  5
4813
330
47FC
100
AcDbEntity
  8
寸法線
 62
     0
 48
10.0
100
AcDbLine
 10
352.037623110287
 20
351.950455711744
 30
0.0
 11
428.537623110287
 21
351.950455711744
 31
0.0
  0
INSERT
  5
4814
330
47FC
100
AcDbEntity
  8
寸法線
 62
     0
100
AcDbBlockReference
  2
_OPEN30
 10
346.037623110287
 20
351.950455711744
 30
0.0
 41
6.0
 42
6.0
 43
6.0
 50
180.0
  0
INSERT
  5
4815
330
47FC
100
AcDbEntity
  8
寸法線
 62
     0
100
AcDbBlockReference
  2
_OPEN30
 10
434.537623110287
 20
351.950455711744
 30
0.0
 41
6.0
 42
6.0
 43
6.0
  0
MTEXT
  5
4816
330
47FC
100
AcDbEntity
  8
寸法線
 62
     0
 48
10.0
100
AcDbMText
 10
390.287623110287
 20
356.592122378411
 30
0.0
 40
8.0
 41
0.0
 71
     5
 72
     1
  1
\A1;88
  0
POINT
  5
4817
330
47FC
100
AcDbEntity
  8
DEFPOINTS
 62
     0
100
AcDbPoint
 10
346.037623110287
 20
418.449766088479
 30
0.0
  0
POINT
  5
4818
330
47FC
100
AcDbEntity
  8
DEFPOINTS
 62
     0
100
AcDbPoint
 10
434.537623110287
 20
373.950455859273
 30
0.0
  0
POINT
  5
4819
330
47FC
100
AcDbEntity
  8
DEFPOINTS
 62
     0
100
AcDbPoint
 10
434.537623110287
 20
351.950455711744
 30
0.0
  0
ENDBLK
  5
4807
330
47FC
100
AcDbEntity
  8
0
 48
10.0
100
AcDbBlockEnd
  0
BLOCK
  5
4850
330
4846
100
AcDbEntity
  8
0
 48
10.0
100
AcDbBlockBegin
  2
*D11
 70
     1
 10
0.0
 20
0.0
 30
0.0
  3
*D11
  1

  0
LINE
  5
4847
330
4846
100
AcDbEntity
  8
寸法線
 62
     0
 48
10.0
100
AcDbLine
 10
301.037623110288
 20
351.325455711744
 30
0.0
 11
301.037623110288
 21
330.700455711744
 31
0.0
  0
LINE
  5
4848
330
4846
100
AcDbEntity
  8
寸法線
 62
     0
 48
10.0
100
AcDbLine
 10
464.037623110288
 20
392.599010329479
 30
0.0
 11
464.037623110288
 21
330.700455711744
 31
0.0
  0
LINE
  5
4849
330
4846
100
AcDbEntity
  8
寸法線
 62
     0
 48
10.0
100
AcDbLine
 10
307.037623110288
 20
331.950455711744
 30
0.0
 11
458.037623110288
 21
331.950455711744
 31
0.0
  0
INSERT
  5
484A
330
4846
100
AcDbEntity
  8
寸法線
 62
     0
100
AcDbBlockReference
  2
_OPEN30
 10
301.037623110288
 20
331.950455711744
 30
0.0
 41
6.0
 42
6.0
 43
6.0
 50
180.0
  0
INSERT
  5
484B
330
4846
100
AcDbEntity
  8
寸法線
 62
     0
100
AcDbBlockReference
  2
_OPEN30
 10
464.037623110288
 20
331.950455711744
 30
0.0
 41
6.0
 42
6.0
 43
6.0
  0
MTEXT
  5
484C
330
4846
100
AcDbEntity
  8
寸法線
 62
     0
 48
10.0
100
AcDbMText
 10
382.537623110288
 20
336.575455711744
 30
0.0
 40
8.0
 41
0.0
 71
     5
 72
     1
  1
\A1;163
  0
POINT
  5
484D
330
4846
100
AcDbEntity
  8
DEFPOINTS
 62
     0
100
AcDbPoint
 10
301.037623110288
 20
351.950455711744
 30
0.0
  0
POINT
  5
484E
330
4846
100
AcDbEntity
  8
DEFPOINTS
 62
     0
100
AcDbPoint
 10
464.037623110288
 20
393.224010329479
 30
0.0
  0
POINT
  5
484F
330
4846
100
AcDbEntity
  8
DEFPOINTS
 62
     0
100
AcDbPoint
 10
464.037623110288
 20
331.950455711744
 30
0.0
  0
ENDBLK
  5
4851
330
4846
100
AcDbEntity
  8
0
 48
10.0
100
AcDbBlockEnd
  0
BLOCK
  5
4BEE
330
4BED
100
AcDbEntity
  8
0
100
AcDbBlockBegin
  2
*D12
 70
     1
 10
0.0
 20
0.0
 30
0.0
  3
*D12
  1

  0
LINE
  5
4BF0
330
4BED
100
AcDbEntity
  8
寸法線
 62
     0
 48
10.0
100
AcDbLine
 10
452.210805268457
 20
495.443661814628
 30
0.0
 11
488.553900961483
 21
495.443661814628
 31
0.0
  0
LINE
  5
4BF1
330
4BED
100
AcDbEntity
  8
寸法線
 62
     0
 48
10.0
100
AcDbLine
 10
452.816807053163
 20
379.449766091001
 30
0.0
 11
488.553900961483
 21
379.449766091001
 31
0.0
  0
LINE
  5
4BF2
330
4BED
100
AcDbEntity
  8
寸法線
 62
     0
 48
10.0
100
AcDbLine
 10
487.303900961483
 20
489.443661814628
 30
0.0
 11
487.303900961483
 21
385.449766091001
 31
0.0
  0
INSERT
  5
4BF3
330
4BED
100
AcDbEntity
  8
寸法線
 62
     0
100
AcDbBlockReference
  2
_OPEN30
 10
487.303900961483
 20
495.443661814628
 30
0.0
 41
6.0
 42
6.0
 43
6.0
 50
90.0
  0
INSERT
  5
4BF4
330
4BED
100
AcDbEntity
  8
寸法線
 62
     0
100
AcDbBlockReference
  2
_OPEN30
 10
487.303900961483
 20
379.449766091001
 30
0.0
 41
6.0
 42
6.0
 43
6.0
 50
270.0
  0
MTEXT
  5
4BF5
330
4BED
100
AcDbEntity
  8
寸法線
 62
     0
 48
10.0
100
AcDbMText
 10
482.678900961483
 20
437.446713952815
 30
0.0
 40
8.0
 41
0.0
 71
     5
 72
     1
  1
\A1;φ116
 11
0.0
 21
1.0
 31
0.0
  0
POINT
  5
4BF6
330
4BED
100
AcDbEntity
  8
DEFPOINTS
 62
     0
100
AcDbPoint
 10
451.585805268457
 20
495.443661814628
 30
0.0
  0
POINT
  5
4BF7
330
4BED
100
AcDbEntity
  8
DEFPOINTS
 62
     0
100
AcDbPoint
 10
452.191807053163
 20
379.449766091001
 30
0.0
  0
POINT
  5
4BF8
330
4BED
100
AcDbEntity
  8
DEFPOINTS
 62
     0
100
AcDbPoint
 10
487.303900961483
 20
379.449766091001
 30
0.0
  0
ENDBLK
  5
4BEF
330
4BED
100
AcDbEntity
  8
0
100
AcDbBlockEnd
  0
BLOCK
  5
4C12
330
4C11
100
AcDbEntity
  8
0
100
AcDbBlockBegin
  2
*D13
 70
     1
 10
0.0
 20
0.0
 30
0.0
  3
*D13
  1

  0
LINE
  5
4C14
330
4C11
100
AcDbEntity
  8
寸法線
 62
     0
 48
10.0
100
AcDbLine
 10
51.037623110288
 20
429.824766091001
 30
0.0
 11
51.037623110288
 21
330.700455711744
 31
0.0
  0
LINE
  5
4C15
330
4C11
100
AcDbEntity
  8
寸法線
 62
     0
 48
10.0
100
AcDbLine
 10
301.037623110288
 20
351.325455711744
 30
0.0
 11
301.037623110288
 21
330.700455711744
 31
0.0
  0
LINE
  5
4C16
330
4C11
100
AcDbEntity
  8
寸法線
 62
     0
 48
10.0
100
AcDbLine
 10
57.037623110288
 20
331.950455711744
 30
0.0
 11
295.037623110288
 21
331.950455711744
 31
0.0
  0
INSERT
  5
4C17
330
4C11
100
AcDbEntity
  8
寸法線
 62
     0
100
AcDbBlockReference
  2
_OPEN30
 10
51.037623110288
 20
331.950455711744
 30
0.0
 41
6.0
 42
6.0
 43
6.0
 50
180.0
  0
INSERT
  5
4C18
330
4C11
100
AcDbEntity
  8
寸法線
 62
     0
100
AcDbBlockReference
  2
_OPEN30
 10
301.037623110288
 20
331.950455711744
 30
0.0
 41
6.0
 42
6.0
 43
6.0
  0
POINT
  5
4C19
330
4C11
100
AcDbEntity
  8
DEFPOINTS
 62
     0
100
AcDbPoint
 10
51.037623110288
 20
430.449766091001
 30
0.0
  0
POINT
  5
4C1A
330
4C11
100
AcDbEntity
  8
DEFPOINTS
 62
     0
100
AcDbPoint
 10
301.037623110288
 20
351.950455711744
 30
0.0
  0
POINT
  5
4C1B
330
4C11
100
AcDbEntity
  8
DEFPOINTS
 62
     0
100
AcDbPoint
 10
301.037623110288
 20
331.950455711744
 30
0.0
  0
ENDBLK
  5
4C13
330
4C11
100
AcDbEntity
  8
0
100
AcDbBlockEnd
  0
BLOCK
  5
4C1D
330
4C1C
100
AcDbEntity
  8
0
100
AcDbBlockBegin
  2
*D14
 70
     1
 10
0.0
 20
0.0
 30
0.0
  3
*D14
  1

  0
LINE
  5
4C1F
330
4C1C
100
AcDbEntity
  8
寸法線
 62
     0
 48
10.0
100
AcDbLine
 10
201.037623110288
 20
426.074766091001
 30
0.0
 11
201.037623110288
 21
350.700455711744
 31
0.0
  0
LINE
  5
4C20
330
4C1C
100
AcDbEntity
  8
寸法線
 62
     0
 48
10.0
100
AcDbLine
 10
301.037623110288
 20
351.325455711744
 30
0.0
 11
301.037623110288
 21
350.700455711744
 31
0.0
  0
LINE
  5
4C21
330
4C1C
100
AcDbEntity
  8
寸法線
 62
     0
 48
10.0
100
AcDbLine
 10
207.037623110288
 20
351.950455711744
 30
0.0
 11
295.037623110288
 21
351.950455711744
 31
0.0
  0
INSERT
  5
4C22
330
4C1C
100
AcDbEntity
  8
寸法線
 62
     0
100
AcDbBlockReference
  2
_OPEN30
 10
201.037623110288
 20
351.950455711744
 30
0.0
 41
6.0
 42
6.0
 43
6.0
 50
180.0
  0
INSERT
  5
4C23
330
4C1C
100
AcDbEntity
  8
寸法線
 62
     0
100
AcDbBlockReference
  2
_OPEN30
 10
301.037623110288
 20
351.950455711744
 30
0.0
 41
6.0
 42
6.0
 43
6.0
  0
POINT
  5
4C24
330
4C1C
100
AcDbEntity
  8
DEFPOINTS
 62
     0
100
AcDbPoint
 10
201.037623110288
 20
426.699766091001
 30
0.0
  0
POINT
  5
4C25
330
4C1C
100
AcDbEntity
  8
DEFPOINTS
 62
     0
100
AcDbPoint
 10
301.037623110288
 20
351.950455711744
 30
0.0
  0
POINT
  5
4C26
330
4C1C
100
AcDbEntity
  8
DEFPOINTS
 62
     0
100
AcDbPoint
 10
301.037623110288
 20
351.950455711744
 30
0.0
  0
ENDBLK
  5
4C1E
330
4C1C
100
AcDbEntity
  8
0
100
AcDbBlockEnd
  0
BLOCK
  5
4C28
330
4C27
100
AcDbEntity
  8
0
100
AcDbBlockBegin
  2
*D15
 70
     1
 10
0.0
 20
0.0
 30
0.0
  3
*D15
  1

  0
LINE
  5
4C2A
330
4C27
100
AcDbEntity
  8
寸法線
 62
     0
 48
10.0
100
AcDbLine
 10
151.037623110288
 20
426.574766091001
 30
0.0
 11
151.037623110288
 21
350.700455711744
 31
0.0
  0
LINE
  5
4C2B
330
4C27
100
AcDbEntity
  8
寸法線
 62
     0
 48
10.0
100
AcDbLine
 10
201.037623110288
 20
426.074766091001
 30
0.0
 11
201.037623110288
 21
350.700455711744
 31
0.0
  0
LINE
  5
4C2C
330
4C27
100
AcDbEntity
  8
寸法線
 62
     0
 48
10.0
100
AcDbLine
 10
157.037623110288
 20
351.950455711744
 30
0.0
 11
195.037623110288
 21
351.950455711744
 31
0.0
  0
INSERT
  5
4C2D
330
4C27
100
AcDbEntity
  8
寸法線
 62
     0
100
AcDbBlockReference
  2
_OPEN30
 10
151.037623110288
 20
351.950455711744
 30
0.0
 41
6.0
 42
6.0
 43
6.0
 50
180.0
  0
INSERT
  5
4C2E
330
4C27
100
AcDbEntity
  8
寸法線
 62
     0
100
AcDbBlockReference
  2
_OPEN30
 10
201.037623110288
 20
351.950455711744
 30
0.0
 41
6.0
 42
6.0
 43
6.0
  0
POINT
  5
4C2F
330
4C27
100
AcDbEntity
  8
DEFPOINTS
 62
     0
100
AcDbPoint
 10
151.037623110288
 20
427.199766091001
 30
0.0
  0
POINT
  5
4C30
330
4C27
100
AcDbEntity
  8
DEFPOINTS
 62
     0
100
AcDbPoint
 10
201.037623110288
 20
426.699766091001
 30
0.0
  0
POINT
  5
4C31
330
4C27
100
AcDbEntity
  8
DEFPOINTS
 62
     0
100
AcDbPoint
 10
201.037623110288
 20
351.950455711744
 30
0.0
  0
ENDBLK
  5
4C29
330
4C27
100
AcDbEntity
  8
0
100
AcDbBlockEnd
  0
BLOCK
  5
4C33
330
4C32
100
AcDbEntity
  8
0
100
AcDbBlockBegin
  2
*D16
 70
     1
 10
0.0
 20
0.0
 30
0.0
  3
*D16
  1

  0
LINE
  5
4C35
330
4C32
100
AcDbEntity
  8
寸法線
 62
     0
 48
10.0
100
AcDbLine
 10
51.037623110288
 20
429.824766091001
 30
0.0
 11
51.037623110288
 21
350.700455711744
 31
0.0
  0
LINE
  5
4C36
330
4C32
100
AcDbEntity
  8
寸法線
 62
     0
 48
10.0
100
AcDbLine
 10
151.037623110288
 20
426.574766091001
 30
0.0
 11
151.037623110288
 21
350.700455711744
 31
0.0
  0
LINE
  5
4C37
330
4C32
100
AcDbEntity
  8
寸法線
 62
     0
 48
10.0
100
AcDbLine
 10
57.037623110288
 20
351.950455711744
 30
0.0
 11
145.037623110288
 21
351.950455711744
 31
0.0
  0
INSERT
  5
4C38
330
4C32
100
AcDbEntity
  8
寸法線
 62
     0
100
AcDbBlockReference
  2
_OPEN30
 10
51.037623110288
 20
351.950455711744
 30
0.0
 41
6.0
 42
6.0
 43
6.0
 50
180.0
  0
INSERT
  5
4C39
330
4C32
100
AcDbEntity
  8
寸法線
 62
     0
100
AcDbBlockReference
  2
_OPEN30
 10
151.037623110288
 20
351.950455711744
 30
0.0
 41
6.0
 42
6.0
 43
6.0
  0
POINT
  5
4C3A
330
4C32
100
AcDbEntity
  8
DEFPOINTS
 62
     0
100
AcDbPoint
 10
51.037623110288
 20
430.449766091001
 30
0.0
  0
POINT
  5
4C3B
330
4C32
100
AcDbEntity
  8
DEFPOINTS
 62
     0
100
AcDbPoint
 10
151.037623110288
 20
427.199766091001
 30
0.0
  0
POINT
  5
4C3C
330
4C32
100
AcDbEntity
  8
DEFPOINTS
 62
     0
100
AcDbPoint
 10
151.037623110288
 20
351.950455711744
 30
0.0
  0
ENDBLK
  5
4C34
330
4C32
100
AcDbEntity
  8
0
100
AcDbBlockEnd
  0
BLOCK
  5
4C3E
330
4C3D
100
AcDbEntity
  8
0
100
AcDbBlockBegin
  2
*D17
 70
     1
 10
0.0
 20
0.0
 30
0.0
  3
*D17
  1

  0
LINE
  5
4C40
330
4C3D
100
AcDbEntity
  8
寸法線
 62
     0
 48
10.0
100
AcDbLine
 10
188.399154854015
 20
448.199766091001
 30
0.0
 11
188.399154854015
 21
479.748784849284
 31
0.0
  0
LINE
  5
4C41
330
4C3D
100
AcDbEntity
  8
寸法線
 62
     0
 48
10.0
100
AcDbLine
 10
188.399154854015
 20
442.199766091001
 30
0.0
 11
188.399154854015
 21
432.699766091001
 31
0.0
  0
INSERT
  5
4C42
330
4C3D
100
AcDbEntity
  8
寸法線
 62
     0
100
AcDbBlockReference
  2
_OPEN30
 10
188.399154854015
 20
448.199766091001
 30
0.0
 41
6.0
 42
6.0
 43
6.0
 50
90.0
  0
INSERT
  5
4C43
330
4C3D
100
AcDbEntity
  8
寸法線
 62
     0
100
AcDbBlockReference
  2
_OPEN30
 10
188.399154854015
 20
426.699766091001
 30
0.0
 41
6.0
 42
6.0
 43
6.0
 50
270.0
  0
MTEXT
  5
4C44
330
4C3D
100
AcDbEntity
  8
寸法線
 62
     0
 48
10.0
100
AcDbMText
 10
183.769988187348
 20
467.19045151595
 30
0.0
 40
8.0
 41
0.0
 71
     5
 72
     1
  1
\A1;φ21.5
 11
0.0
 21
1.0
 31
0.0
  0
POINT
  5
4C45
330
4C3D
100
AcDbEntity
  8
DEFPOINTS
 62
     0
100
AcDbPoint
 10
201.037623110288
 20
448.199766091001
 30
0.0
  0
POINT
  5
4C46
330
4C3D
100
AcDbEntity
  8
DEFPOINTS
 62
     0
100
AcDbPoint
 10
201.037623110288
 20
426.699766091001
 30
0.0
  0
POINT
  5
4C47
330
4C3D
100
AcDbEntity
  8
DEFPOINTS
 62
     0
100
AcDbPoint
 10
188.399154854015
 20
426.699766091001
 30
0.0
  0
ENDBLK
  5
4C3F
330
4C3D
100
AcDbEntity
  8
0
100
AcDbBlockEnd
  0
BLOCK
  5
4C56
330
4C55
100
AcDbEntity
  8
0
100
AcDbBlockBegin
  2
*D18
 70
     1
 10
0.0
 20
0.0
 30
0.0
  3
*D18
  1

  0
LINE
  5
4C58
330
4C55
100
AcDbEntity
  8
寸法線
 62
     0
 48
10.0
100
AcDbLine
 10
275.902400785195
 20
448.199766091001
 30
0.0
 11
275.902400785195
 21
479.748784849284
 31
0.0
  0
LINE
  5
4C59
330
4C55
100
AcDbEntity
  8
寸法線
 62
     0
 48
10.0
100
AcDbLine
 10
275.902400785195
 20
442.199766091001
 30
0.0
 11
275.902400785195
 21
432.699766091001
 31
0.0
  0
INSERT
  5
4C5A
330
4C55
100
AcDbEntity
  8
寸法線
 62
     0
100
AcDbBlockReference
  2
_OPEN30
 10
275.902400785195
 20
448.199766091001
 30
0.0
 41
6.0
 42
6.0
 43
6.0
 50
90.0
  0
INSERT
  5
4C5B
330
4C55
100
AcDbEntity
  8
寸法線
 62
     0
100
AcDbBlockReference
  2
_OPEN30
 10
275.902400785195
 20
426.699766091001
 30
0.0
 41
6.0
 42
6.0
 43
6.0
 50
270.0
  0
MTEXT
  5
4C5C
330
4C55
100
AcDbEntity
  8
寸法線
 62
     0
 48
10.0
100
AcDbMText
 10
271.273234118529
 20
467.19045151595
 30
0.0
 40
8.0
 41
0.0
 71
     5
 72
     1
  1
\A1;φ21.5
 11
0.0
 21
1.0
 31
0.0
  0
POINT
  5
4C5D
330
4C55
100
AcDbEntity
  8
DEFPOINTS
 62
     0
100
AcDbPoint
 10
287.566266943612
 20
448.199766091001
 30
0.0
  0
POINT
  5
4C5E
330
4C55
100
AcDbEntity
  8
DEFPOINTS
 62
     0
100
AcDbPoint
 10
287.566266943612
 20
426.699766091001
 30
0.0
  0
POINT
  5
4C5F
330
4C55
100
AcDbEntity
  8
DEFPOINTS
 62
     0
100
AcDbPoint
 10
275.902400785195
 20
426.699766091001
 30
0.0
  0
ENDBLK
  5
4C57
330
4C55
100
AcDbEntity
  8
0
100
AcDbBlockEnd
  0
BLOCK
  5
503D
330
503C
100
AcDbEntity
  8
0
100
AcDbBlockBegin
  2
*D19
 70
     1
 10
0.0
 20
0.0
 30
0.0
  3
*D19
  1

  0
LINE
  5
503F
330
503C
100
AcDbEntity
  8
寸法線
 62
     0
 48
10.0
100
AcDbLine
 10
51.412623110288
 20
448.199766091001
 30
0.0
 11
37.149154854015
 21
448.199766091001
 31
0.0
  0
LINE
  5
5040
330
503C
100
AcDbEntity
  8
寸法線
 62
     0
 48
10.0
100
AcDbLine
 10
51.412623110288
 20
426.699766091001
 30
0.0
 11
37.149154854015
 21
426.699766091001
 31
0.0
  0
LINE
  5
5041
330
503C
100
AcDbEntity
  8
寸法線
 62
     0
 48
10.0
100
AcDbLine
 10
38.399154854015
 20
448.199766091001
 30
0.0
 11
38.399154854015
 21
479.316432757668
 31
0.0
  0
LINE
  5
5042
330
503C
100
AcDbEntity
  8
寸法線
 62
     0
 48
10.0
100
AcDbLine
 10
38.399154854015
 20
442.199766091001
 30
0.0
 11
38.399154854015
 21
432.699766091001
 31
0.0
  0
INSERT
  5
5043
330
503C
100
AcDbEntity
  8
寸法線
 62
     0
100
AcDbBlockReference
  2
_OPEN30
 10
38.399154854015
 20
448.199766091001
 30
0.0
 41
6.0
 42
6.0
 43
6.0
 50
90.0
  0
INSERT
  5
5044
330
503C
100
AcDbEntity
  8
寸法線
 62
     0
100
AcDbBlockReference
  2
_OPEN30
 10
38.399154854015
 20
426.699766091001
 30
0.0
 41
6.0
 42
6.0
 43
6.0
 50
270.0
  0
MTEXT
  5
5045
330
503C
100
AcDbEntity
  8
寸法線
 62
     0
 48
10.0
100
AcDbMText
 10
33.769988187348
 20
466.758099424334
 30
0.0
 40
8.0
 41
0.0
 71
     5
 72
     1
  1
\A1;φ21.5
 11
0.0
 21
1.0
 31
0.0
  0
POINT
  5
5046
330
503C
100
AcDbEntity
  8
DEFPOINTS
 62
     0
100
AcDbPoint
 10
52.037623110288
 20
448.199766091001
 30
0.0
  0
POINT
  5
5047
330
503C
100
AcDbEntity
  8
DEFPOINTS
 62
     0
100
AcDbPoint
 10
52.037623110288
 20
426.699766091001
 30
0.0
  0
POINT
  5
5048
330
503C
100
AcDbEntity
  8
DEFPOINTS
 62
     0
100
AcDbPoint
 10
38.399154854015
 20
426.699766091001
 30
0.0
  0
ENDBLK
  5
503E
330
503C
100
AcDbEntity
  8
0
100
AcDbBlockEnd
  0
ENDSEC
  0
SECTION
  2
ENTITIES
  0
LWPOLYLINE
  5
31A0
330
1A
100
AcDbEntity
  8
外形線
100
AcDbPolyline
 90
        4
 70
     1
 43
0.0
 10
346.037623110288
 20
418.450455859273
 10
349.037623110288
 20
418.450455859273
 10
349.037623110288
 20
456.450455859273
 10
346.037623110288
 20
456.450455859273
  0
LINE
  5
408F
330
1A
100
AcDbEntity
  8
中心線
 48
10.0
100
AcDbLine
 10
42.866556941192
 20
437.450455859273
 30
0.0
 11
465.632792833179
 21
437.450455859273
 31
0.0
  0
MTEXT
  5
4279
330
1A
100
AcDbEntity
  8
寸法線
 48
10.0
100
AcDbMText
 10
482.122509756143
 20
521.950455711744
 30
0.0
 40
8.0
 41
0.0
 71
     7
 72
     1
  1
アルミ\Pダイカスト
  0
MTEXT
  5
427B
330
1A
100
AcDbEntity
  8
寸法線
 48
10.0
100
AcDbMText
 10
368.632539173594
 20
521.950455711744
 30
0.0
 40
8.0
 41
0.0
 71
     7
 72
     1
  1
アルミ\Pダイカスト
  0
MTEXT
  5
4289
330
1A
100
AcDbEntity
  8
寸法線
 48
10.0
100
AcDbMText
 10
429.965201770874
 20
521.950455711744
 30
0.0
 40
8.0
 41
0.0
 71
     7
 72
     1
  1
Oリング
  0
MTEXT
  5
428B
330
1A
100
AcDbEntity
  8
寸法線
 48
10.0
100
AcDbMText
 10
230.33335555333
 20
521.950455711744
 30
0.0
 40
8.0
 41
0.0
 71
     7
 72
     1
  1
\A1;接地電極\PSUS304
  0
MTEXT
  5
428E
330
1A
100
AcDbEntity
  8
寸法線
 48
10.0
100
AcDbMText
 10
145.151638500159
 20
521.950455711744
 30
0.0
 40
8.0
 41
0.0
 71
     7
 72
     1
  1
\A1;シール\Pシリコンゴム
  0
MTEXT
  5
4290
330
1A
100
AcDbEntity
  8
寸法線
 48
10.0
100
AcDbMText
 10
130.326755208362
 20
521.950455711743
 30
0.0
 40
8.0
 41
0.0
 71
     9
 72
     1
  1
絶縁体\Pテフロン
  0
MTEXT
  5
4292
330
1A
100
AcDbEntity
  8
寸法線
 48
10.0
100
AcDbMText
 10
46.956770155357
 20
521.950455711743
 30
0.0
 40
8.0
 41
0.0
 71
     9
 72
     1
  1
\A1;検知電極\PSUS304
  0
LINE
  5
4415
102
{ACAD_REACTORS
330
4615
102
}
330
1A
100
AcDbEntity
  8
細線
100
AcDbLine
 10
311.037623110288
 20
462.850455859273
 30
0.0
 11
311.037623110288
 21
412.050455859273
 31
0.0
  0
LINE
  5
4416
102
{ACAD_REACTORS
330
4615
102
}
330
1A
100
AcDbEntity
  8
外形線
100
AcDbLine
 10
312.037623110288
 20
413.050455859273
 30
0.0
 11
311.037623110288
 21
412.050455859273
 31
0.0
  0
LINE
  5
4417
102
{ACAD_REACTORS
330
4615
102
}
330
1A
100
AcDbEntity
  8
外形線
100
AcDbLine
 10
306.629498240564
 20
412.050455859273
 30
0.0
 11
311.037623110288
 21
412.050455859273
 31
0.0
  0
LINE
  5
4418
102
{ACAD_REACTORS
330
4615
102
}
330
1A
100
AcDbEntity
  8
外形線
100
AcDbLine
 10
303.887623110288
 20
405.450455859273
 30
0.0
 11
305.672473836131
 21
411.340463254556
 31
0.0
  0
LWPOLYLINE
  5
4419
102
{ACAD_REACTORS
330
4615
102
}
330
1A
100
AcDbEntity
  8
外形線
100
AcDbPolyline
 90
        4
 70
     1
 43
0.0
 10
301.037623110288
 20
405.450455859273
 10
303.887623110288
 20
405.450455859273
 10
303.887623110288
 20
469.450455859273
 10
301.037623110288
 20
469.450455859273
  0
LINE
  5
441A
102
{ACAD_REACTORS
330
4615
102
}
330
1A
100
AcDbEntity
  8
細線
100
AcDbLine
 10
305.887623110288
 20
462.850455859273
 30
0.0
 11
305.887623110288
 21
412.050455859273
 31
0.0
  0
LINE
  5
441B
102
{ACAD_REACTORS
330
4615
102
}
330
1A
100
AcDbEntity
  8
外形線
100
AcDbLine
 10
303.887623110288
 20
469.450455859273
 30
0.0
 11
305.672473836131
 21
463.56044846399
 31
0.0
  0
LINE
  5
441C
102
{ACAD_REACTORS
330
4615
102
}
330
1A
100
AcDbEntity
  8
外形線
100
AcDbLine
 10
326.037623110288
 20
420.250455859273
 30
0.0
 11
312.037623110288
 21
420.250455859273
 31
0.0
  0
LINE
  5
441D
102
{ACAD_REACTORS
330
4615
102
}
330
1A
100
AcDbEntity
  8
外形線
100
AcDbLine
 10
312.037623110288
 20
461.850455859273
 30
0.0
 11
312.037623110288
 21
413.050455859273
 31
0.0
  0
LINE
  5
441E
102
{ACAD_REACTORS
330
4615
102
}
330
1A
100
AcDbEntity
  8
外形線
100
AcDbLine
 10
326.037623110288
 20
454.650455859273
 30
0.0
 11
312.037623110288
 21
454.650455859273
 31
0.0
  0
LINE
  5
4420
102
{ACAD_REACTORS
330
4615
102
}
330
1A
100
AcDbEntity
  8
外形線
100
AcDbLine
 10
306.629498240564
 20
462.850455859273
 30
0.0
 11
311.037623110288
 21
462.850455859273
 31
0.0
  0
LINE
  5
4421
102
{ACAD_REACTORS
330
4615
102
}
330
1A
100
AcDbEntity
  8
外形線
100
AcDbLine
 10
311.037623110288
 20
462.850455859273
 30
0.0
 11
312.037623110288
 21
461.850455859273
 31
0.0
  0
LINE
  5
4432
102
{ACAD_REACTORS
330
4615
102
}
330
1A
100
AcDbEntity
  8
外形線
 48
10.0
100
AcDbLine
 10
310.037623110288
 20
454.650455859273
 30
0.0
 11
312.037623110288
 21
456.650455859273
 31
0.0
  0
LINE
  5
4433
102
{ACAD_REACTORS
330
4615
102
}
330
1A
100
AcDbEntity
  8
外形線
 48
10.0
100
AcDbLine
 10
310.037623110288
 20
454.650455859273
 30
0.0
 11
312.037623110288
 21
453.650455859273
 31
0.0
  0
HATCH
  5
443B
102
{ACAD_REACTORS
330
4615
102
}
330
1A
100
AcDbEntity
  8
外形線
 48
10.0
100
AcDbHatch
 10
0.0
 20
0.0
 30
0.0
210
0.0
220
0.0
230
1.0
  2
SOLID
 70
     1
 71
     0
 91
        2
 92
        7
 72
     0
 73
     1
 93
        4
 10
312.0376231102875
 20
456.6504558592731
 10
311.0376231102875
 20
455.6504558592732
 10
311.0376231102875
 20
454.1504558592732
 10
312.0376231102875
 20
453.6504558592732
 97
        0
 92
        7
 72
     0
 73
     1
 93
        3
 10
311.0376231102875
 20
455.6504558592731
 10
310.0376231102876
 20
454.6504558592732
 10
311.0376231102875
 20
454.1504558592731
 97
        0
 75
     0
 76
     1
 47
0.021280244428
 98
        2
 10
311.8063231505324
 20
454.9752562707064
 10
310.7419952719618
 20
454.8901356301791
  0
HATCH
  5
443C
102
{ACAD_REACTORS
330
4615
102
}
330
1A
100
AcDbEntity
  8
外形線
 48
10.0
100
AcDbHatch
 10
0.0
 20
0.0
 30
0.0
210
0.0
220
0.0
230
1.0
  2
SOLID
 70
     1
 71
     0
 91
        2
 92
        7
 72
     0
 73
     1
 93
        4
 10
312.0376231102876
 20
418.2504558592733
 10
311.0376231102875
 20
419.2504558592732
 10
311.0376231102875
 20
420.7504558592731
 10
312.0376231102875
 20
421.2504558592732
 97
        0
 92
        7
 72
     0
 73
     1
 93
        3
 10
311.0376231102876
 20
419.2504558592732
 10
310.0376231102876
 20
420.2504558592732
 10
311.0376231102875
 20
420.7504558592731
 97
        0
 75
     0
 76
     1
 47
0.021280244428
 98
        2
 10
311.8063231505324
 20
419.92565544784
 10
310.7419952719618
 20
420.0107760883673
  0
LINE
  5
443D
102
{ACAD_REACTORS
330
4615
102
}
330
1A
100
AcDbEntity
  8
外形線
 48
10.0
100
AcDbLine
 10
310.037623110288
 20
420.250455859273
 30
0.0
 11
312.037623110288
 21
421.250455859273
 31
0.0
  0
LINE
  5
443E
102
{ACAD_REACTORS
330
4615
102
}
330
1A
100
AcDbEntity
  8
外形線
 48
10.0
100
AcDbLine
 10
310.037623110288
 20
420.250455859273
 30
0.0
 11
312.037623110288
 21
418.250455859273
 31
0.0
  0
MTEXT
  5
4482
330
1A
100
AcDbEntity
  8
寸法線
 48
10.0
100
AcDbMText
 10
305.613002610919
 20
521.950455711743
 30
0.0
 40
8.0
 41
0.0
 71
     7
 72
     1
  1
\A1;ヘルール2S\PSUS304
  0
MTEXT
  5
4487
102
{ACAD_XDICTIONARY
360
4C71
102
}
330
1A
100
AcDbEntity
  8
寸法線
 48
10.0
100
AcDbMText
 10
330.308778792205
 20
493.98900313853
 30
0.0
 40
8.0
 41
0.0
 71
     7
 72
     1
  1
\A1;熔接
1001
ACADANNOTATIVE
1000
AnnotativeData
1002
{
1070
     1
1070
     0
1002
}
  0
ARC
  5
449F
102
{ACAD_REACTORS
330
4615
102
}
330
1A
100
AcDbEntity
  8
外形線
100
AcDbCircle
 10
306.629498240564
 20
411.050455859273
 30
0.0
 40
1.0
100
AcDbArc
 50
90.0
 51
163.141601232261
  0
ARC
  5
44A0
102
{ACAD_REACTORS
330
4615
102
}
330
1A
100
AcDbEntity
  8
外形線
100
AcDbCircle
 10
306.629498240564
 20
463.850455859273
 30
0.0
 40
1.0
100
AcDbArc
 50
196.858398767739
 51
270.0
  0
LINE
  5
44B9
102
{ACAD_REACTORS
330
4615
102
}
330
1A
100
AcDbEntity
  8
中心線
 48
10.0
100
AcDbLine
 10
303.037623110288
 20
465.700455859274
 30
0.0
 11
299.037623110288
 21
465.700455859274
 31
0.0
  0
ARC
  5
44BB
102
{ACAD_REACTORS
330
4615
102
}
330
1A
100
AcDbEntity
  8
隠れ線
 48
10.0
100
AcDbCircle
 10
301.037623110288
 20
465.700455859274
 30
0.0
 40
1.0
100
AcDbArc
 50
270.0
 51
90.0
  0
ARC
  5
44BC
102
{ACAD_REACTORS
330
4615
102
}
330
1A
100
AcDbEntity
  8
隠れ線
 48
10.0
100
AcDbCircle
 10
301.037623110288
 20
409.200455859274
 30
0.0
 40
1.0
100
AcDbArc
 50
270.0
 51
90.0
  0
LINE
  5
44BD
102
{ACAD_REACTORS
330
4615
102
}
330
1A
100
AcDbEntity
  8
中心線
 48
10.0
100
AcDbLine
 10
303.037623110288
 20
409.200455859274
 30
0.0
 11
299.037623110288
 21
409.200455859274
 31
0.0
  0
LINE
  5
45F2
102
{ACAD_REACTORS
330
4615
102
}
330
1A
100
AcDbEntity
  8
細線
100
AcDbLine
 10
329.037623110288
 20
448.420455859273
 30
0.0
 11
343.037623110288
 21
448.420455859273
 31
0.0
  0
LINE
  5
45F3
102
{ACAD_REACTORS
330
4615
102
}
330
1A
100
AcDbEntity
  8
細線
100
AcDbLine
 10
329.037623110288
 20
426.480455859273
 30
0.0
 11
343.037623110288
 21
426.480455859273
 31
0.0
  0
ARC
  5
4606
102
{ACAD_REACTORS
330
4615
102
}
330
1A
100
AcDbEntity
  8
細線
 48
10.0
100
AcDbCircle
 10
347.594439697657
 20
437.450455859273
 30
0.0
 40
21.5568165984052
100
AcDbArc
 50
149.410227986311
 51
210.589772013689
  0
ARC
  5
4607
102
{ACAD_REACTORS
330
4615
102
}
330
1A
100
AcDbEntity
  8
細線
 48
10.0
100
AcDbCircle
 10
324.480806522919
 20
437.450455859273
 30
0.0
 40
21.55681659840436
100
AcDbArc
 50
329.41022798631
 51
30.589772013689
  0
LINE
  5
4608
102
{ACAD_REACTORS
330
4615
102
}
330
1A
100
AcDbEntity
  8
外形線
 48
10.0
100
AcDbLine
 10
329.037623110288
 20
459.390455859273
 30
0.0
 11
343.037623110288
 21
459.390455859273
 31
0.0
  0
LINE
  5
4609
102
{ACAD_REACTORS
330
4615
102
}
330
1A
100
AcDbEntity
  8
外形線
 48
10.0
100
AcDbLine
 10
329.037623110288
 20
415.511835400862
 30
0.0
 11
343.037623110288
 21
415.511835400862
 31
0.0
  0
ARC
  5
460A
102
{ACAD_REACTORS
330
4615
102
}
330
1A
100
AcDbEntity
  8
細線
 48
10.0
100
AcDbCircle
 10
347.328149013292
 20
459.828886445096
 30
0.0
 40
21.5568
100
AcDbArc
 50
189.014839552026
 51
211.953209848838
  0
ARC
  5
460B
102
{ACAD_REACTORS
330
4615
102
}
330
1A
100
AcDbEntity
  8
外形線
 48
10.0
100
AcDbCircle
 10
342.552283087623
 20
442.596123722001
 30
0.0
 40
21.5568
100
AcDbArc
 50
128.824173789179
 51
140.004933775737
  0
ARC
  5
460C
102
{ACAD_REACTORS
330
4615
102
}
330
1A
100
AcDbEntity
  8
外形線
 48
10.0
100
AcDbCircle
 10
329.522963132952
 20
442.596123722001
 30
0.0
 40
21.5568
100
AcDbArc
 50
39.995066224263
 51
51.175826210821
  0
ARC
  5
460D
102
{ACAD_REACTORS
330
4615
102
}
330
1A
100
AcDbEntity
  8
細線
 48
10.0
100
AcDbCircle
 10
324.747097207284
 20
459.828886445096
 30
0.0
 40
21.5568
100
AcDbArc
 50
328.046790151162
 51
350.985160447974
  0
ARC
  5
460E
102
{ACAD_REACTORS
330
4615
102
}
330
1A
100
AcDbEntity
  8
外形線
 48
10.0
100
AcDbCircle
 10
342.552283087623
 20
432.304787996545
 30
0.0
 40
21.5568
100
AcDbArc
 50
219.995066224261
 51
231.175826210819
  0
ARC
  5
460F
102
{ACAD_REACTORS
330
4615
102
}
330
1A
100
AcDbEntity
  8
外形線
 48
10.0
100
AcDbCircle
 10
329.522963132952
 20
432.304787996545
 30
0.0
 40
21.5568
100
AcDbArc
 50
308.824173789179
 51
320.004933775737
  0
ARC
  5
4610
102
{ACAD_REACTORS
330
4615
102
}
330
1A
100
AcDbEntity
  8
細線
 48
10.0
100
AcDbCircle
 10
324.747097207283
 20
415.07202527345
 30
0.0
 40
21.5568
100
AcDbArc
 50
9.014839552025
 51
31.953209848837
  0
ARC
  5
4611
102
{ACAD_REACTORS
330
4615
102
}
330
1A
100
AcDbEntity
  8
細線
 48
10.0
100
AcDbCircle
 10
347.328149013292
 20
415.07202527345
 30
0.0
 40
21.5568
100
AcDbArc
 50
148.046790151162
 51
170.985160447973
  0
LINE
  5
4612
102
{ACAD_REACTORS
330
4615
102
}
330
1A
100
AcDbEntity
  8
外形線
 48
10.0
100
AcDbLine
 10
326.037623110288
 20
456.451145630067
 30
0.0
 11
326.037623110287
 21
418.449766088479
 31
0.0
  0
LINE
  5
4613
102
{ACAD_REACTORS
330
4615
102
}
330
1A
100
AcDbEntity
  8
外形線
 48
10.0
100
AcDbLine
 10
346.037623110288
 20
456.451145630067
 30
0.0
 11
346.037623110287
 21
418.449766088479
 31
0.0
  0
DIMENSION
  5
4618
330
1A
100
AcDbEntity
  8
寸法線
 48
10.0
100
AcDbDimension
  2
*D6
 10
326.037623110287
 20
351.950455711744
 30
0.0
 11
313.537623110287
 21
356.579622378411
 31
0.0
 70
    32
  3
ISO-25
100
AcDbAlignedDimension
 13
301.037623110288
 23
405.450455859273
 33
0.0
 14
326.037623110287
 24
418.449766088479
 34
0.0
100
AcDbRotatedDimension
1001
ACAD
1000
DSTYLE
1002
{
1070
     5
1000
OPEN30
1070
    41
1040
6.0
1070
    47
1040
0.1
1070
    48
1040
0.1
1070
    73
1070
     0
1070
   140
1040
8.0
1070
   271
1070
     1
1070
   272
1070
     1
1070
   341
1005
2AF4
1002
}
  0
DIMENSION
  5
4663
330
1A
100
AcDbEntity
  8
寸法線
 48
10.0
100
AcDbDimension
  2
*D7
 10
346.037623110287
 20
351.950455711744
 30
0.0
 11
336.037623110287
 21
356.579622378411
 31
0.0
 70
    32
  3
ISO-25
100
AcDbAlignedDimension
 13
326.037623110287
 23
418.449766088479
 33
0.0
 14
346.037623110287
 24
418.449766088479
 34
0.0
100
AcDbRotatedDimension
1001
ACAD
1000
DSTYLE
1002
{
1070
     5
1000
OPEN30
1070
    41
1040
6.0
1070
    47
1040
0.1
1070
    48
1040
0.1
1070
    73
1070
     0
1070
   140
1040
8.0
1070
   271
1070
     1
1070
   272
1070
     1
1070
   341
1005
2AF4
1002
}
  0
TEXT
  5
47A0
330
1A
100
AcDbEntity
  8
寸法線
100
AcDbText
 10
-98.25664899648
 20
293.656744646236
 30
0.0
 40
8.0
  1
接点出力：AC250V 3A（抵抗負荷）
100
AcDbText
  0
LINE
  5
47A1
330
1A
100
AcDbEntity
  8
寸法線
100
AcDbLine
 10
-8.365771164233
 20
281.648962881561
 30
0.0
 11
-8.365771164233
 21
194.648962881561
 31
0.0
  0
TEXT
  5
47A2
330
1A
100
AcDbEntity
  8
寸法線
100
AcDbText
 10
-10.965771164233
 20
179.648962881561
 30
0.0
 40
7.0
  1
a
100
AcDbText
  0
CIRCLE
  5
47A3
330
1A
100
AcDbEntity
  8
寸法線
100
AcDbCircle
 10
-8.365771164233
 20
191.648962881561
 30
0.0
 40
3.0
  0
CIRCLE
  5
47A4
330
1A
100
AcDbEntity
  8
寸法線
100
AcDbCircle
 10
-8.365771164233
 20
191.648962881561
 30
0.0
 40
2.0
  0
CIRCLE
  5
47A5
330
1A
100
AcDbEntity
  8
寸法線
100
AcDbCircle
 10
11.634228835767
 20
191.648962881561
 30
0.0
 40
2.0
  0
CIRCLE
  5
47A6
330
1A
100
AcDbEntity
  8
寸法線
100
AcDbCircle
 10
11.634228835767
 20
191.648962881561
 30
0.0
 40
3.0
  0
TEXT
  5
47A7
330
1A
100
AcDbEntity
  8
寸法線
100
AcDbText
 10
9.234228835767
 20
179.648962881561
 30
0.0
 40
7.0
  1
c
100
AcDbText
  0
CIRCLE
  5
47A8
330
1A
100
AcDbEntity
  8
寸法線
100
AcDbCircle
 10
31.634228835767
 20
191.648962881561
 30
0.0
 40
2.0
  0
CIRCLE
  5
47A9
330
1A
100
AcDbEntity
  8
寸法線
100
AcDbCircle
 10
31.634228835767
 20
191.648962881561
 30
0.0
 40
3.0
  0
TEXT
  5
47AA
330
1A
100
AcDbEntity
  8
寸法線
100
AcDbText
 10
29.634228835767
 20
179.648962881561
 30
0.0
 40
7.0
  1
b
100
AcDbText
  0
CIRCLE
  5
47AB
330
1A
100
AcDbEntity
  8
寸法線
100
AcDbCircle
 10
6.634228835767
 20
256.648962881561
 30
0.0
 40
1.0
  0
CIRCLE
  5
47AC
330
1A
100
AcDbEntity
  8
寸法線
100
AcDbCircle
 10
16.634228835767
 20
256.648962881561
 30
0.0
 40
1.0
  0
CIRCLE
  5
47AD
330
1A
100
AcDbEntity
  8
寸法線
100
AcDbCircle
 10
11.634228835767
 20
241.648962881561
 30
0.0
 40
1.0
  0
LINE
  5
47AE
330
1A
100
AcDbEntity
  8
寸法線
100
AcDbLine
 10
-8.365771164233
 20
281.648962881561
 30
0.0
 11
6.634228835767
 21
281.648962881561
 31
0.0
  0
LINE
  5
47AF
330
1A
100
AcDbEntity
  8
寸法線
100
AcDbLine
 10
16.634228835767
 20
281.648962881561
 30
0.0
 11
31.634228835767
 21
281.648962881561
 31
0.0
  0
LINE
  5
47B0
330
1A
100
AcDbEntity
  8
寸法線
100
AcDbLine
 10
11.634228835767
 20
242.648962881561
 30
0.0
 11
15.671995543284
 21
256.921189057448
 31
0.0
  0
TEXT
  5
47B1
330
1A
100
AcDbEntity
  8
寸法線
100
AcDbText
 10
-4.365771164233
 20
167.648962881561
 30
0.0
 40
7.0
  1
出力接点
100
AcDbText
  0
LINE
  5
47B2
330
1A
100
AcDbEntity
  8
寸法線
100
AcDbLine
 10
31.634228835767
 20
281.648962881561
 30
0.0
 11
31.634228835767
 21
194.648962881561
 31
0.0
  0
LINE
  5
47B3
330
1A
100
AcDbEntity
  8
寸法線
100
AcDbLine
 10
6.634228835767
 20
281.648962881561
 30
0.0
 11
6.634228835767
 21
257.648962881561
 31
0.0
  0
LINE
  5
47B4
330
1A
100
AcDbEntity
  8
寸法線
100
AcDbLine
 10
16.634228835767
 20
281.648962881561
 30
0.0
 11
16.634228835767
 21
257.648962881561
 31
0.0
  0
LINE
  5
47B5
330
1A
100
AcDbEntity
  8
寸法線
100
AcDbLine
 10
11.634228835767
 20
240.648962881561
 30
0.0
 11
11.634228835767
 21
194.648962881561
 31
0.0
  0
LINE
  5
47B6
330
1A
100
AcDbEntity
  8
寸法線
100
AcDbLine
 10
-28.365771164233
 20
242.148962881561
 30
0.0
 11
-28.365771164233
 21
194.648962881561
 31
0.0
  0
LINE
  5
47B7
330
1A
100
AcDbEntity
  8
寸法線
100
AcDbLine
 10
-48.365771164233
 20
231.843796709625
 30
0.0
 11
-48.365771164233
 21
194.648962881561
 31
0.0
  0
LINE
  5
47B8
330
1A
100
AcDbEntity
  8
寸法線
100
AcDbLine
 10
-68.365771164233
 20
242.148962881561
 30
0.0
 11
-68.365771164233
 21
217.648962881561
 31
0.0
  0
TEXT
  5
47B9
330
1A
100
AcDbEntity
  8
寸法線
100
AcDbText
 10
-55.965771164233
 20
167.648962881561
 30
0.0
 40
7.0
  1
電源
100
AcDbText
  0
SPLINE
  5
47BA
330
1A
100
AcDbEntity
  8
寸法線
100
AcDbSpline
210
0.0
220
0.0
230
1.0
 70
  1064
 71
     3
 72
    11
 73
     7
 74
     5
 42
0.000000001
 43
0.0000000001
 44
0.0000000001
 40
0.0
 40
0.0
 40
0.0
 40
0.0
 40
0.7071067811865476
 40
2.288245611270737
 40
3.869384441354927
 40
4.576491222541475
 40
4.576491222541475
 40
4.576491222541475
 40
4.576491222541475
 10
-28.36577116423325
 20
242.1489628815615
 30
0.0
 10
-28.52364009681658
 20
242.3258765080615
 30
0.0
 10
-29.03451469419155
 20
242.8983810295615
 30
0.0
 10
-30.36577116423324
 20
243.3221106828115
 30
0.0
 10
-31.69702763427494
 20
242.8983810295613
 30
0.0
 10
-32.20790223164992
 20
242.3258765080615
 30
0.0
 10
-32.36577116423325
 20
242.1489628815615
 30
0.0
 11
-28.36577116423325
 21
242.1489628815615
 31
0.0
 11
-28.86577116423325
 21
242.6489628815615
 31
0.0
 11
-30.36577116423325
 21
243.1489628815615
 31
0.0
 11
-31.86577116423325
 21
242.6489628815615
 31
0.0
 11
-32.36577116423325
 21
242.1489628815615
 31
0.0
  0
SPLINE
  5
47BB
330
1A
100
AcDbEntity
  8
寸法線
100
AcDbSpline
210
0.0
220
0.0
230
1.0
 70
  1064
 71
     3
 72
    11
 73
     7
 74
     5
 42
0.000000001
 43
0.0000000001
 44
0.0000000001
 40
0.0
 40
0.0
 40
0.0
 40
0.0
 40
0.7071067811865476
 40
2.288245611270737
 40
3.869384441354927
 40
4.576491222541475
 40
4.576491222541475
 40
4.576491222541475
 40
4.576491222541475
 10
-32.36577116423325
 20
242.1489628815615
 30
0.0
 10
-32.52364009681658
 20
242.3258765080615
 30
0.0
 10
-33.03451469419156
 20
242.8983810295615
 30
0.0
 10
-34.36577116423324
 20
243.3221106828115
 30
0.0
 10
-35.69702763427495
 20
242.8983810295613
 30
0.0
 10
-36.20790223164992
 20
242.3258765080615
 30
0.0
 10
-36.36577116423325
 20
242.1489628815615
 30
0.0
 11
-32.36577116423325
 21
242.1489628815615
 31
0.0
 11
-32.86577116423325
 21
242.6489628815615
 31
0.0
 11
-34.36577116423325
 21
243.1489628815615
 31
0.0
 11
-35.86577116423325
 21
242.6489628815615
 31
0.0
 11
-36.36577116423325
 21
242.1489628815615
 31
0.0
  0
SPLINE
  5
47BC
330
1A
100
AcDbEntity
  8
寸法線
100
AcDbSpline
210
0.0
220
0.0
230
1.0
 70
  1064
 71
     3
 72
    11
 73
     7
 74
     5
 42
0.000000001
 43
0.0000000001
 44
0.0000000001
 40
0.0
 40
0.0
 40
0.0
 40
0.0
 40
0.7071067811865476
 40
2.288245611270737
 40
3.869384441354927
 40
4.576491222541475
 40
4.576491222541475
 40
4.576491222541475
 40
4.576491222541475
 10
-36.36577116423325
 20
242.1489628815615
 30
0.0
 10
-36.52364009681658
 20
242.3258765080615
 30
0.0
 10
-37.03451469419156
 20
242.8983810295615
 30
0.0
 10
-38.36577116423324
 20
243.3221106828115
 30
0.0
 10
-39.69702763427495
 20
242.8983810295613
 30
0.0
 10
-40.20790223164992
 20
242.3258765080615
 30
0.0
 10
-40.36577116423325
 20
242.1489628815615
 30
0.0
 11
-36.36577116423325
 21
242.1489628815615
 31
0.0
 11
-36.86577116423325
 21
242.6489628815615
 31
0.0
 11
-38.36577116423325
 21
243.1489628815615
 31
0.0
 11
-39.86577116423325
 21
242.6489628815615
 31
0.0
 11
-40.36577116423325
 21
242.1489628815615
 31
0.0
  0
SPLINE
  5
47BD
330
1A
100
AcDbEntity
  8
寸法線
100
AcDbSpline
210
0.0
220
0.0
230
1.0
 70
  1064
 71
     3
 72
    11
 73
     7
 74
     5
 42
0.000000001
 43
0.0000000001
 44
0.0000000001
 40
0.0
 40
0.0
 40
0.0
 40
0.0
 40
0.7071067811865476
 40
2.288245611270737
 40
3.869384441354927
 40
4.576491222541475
 40
4.576491222541475
 40
4.576491222541475
 40
4.576491222541475
 10
-40.36577116423325
 20
242.1489628815615
 30
0.0
 10
-40.52364009681658
 20
242.3258765080615
 30
0.0
 10
-41.03451469419155
 20
242.8983810295615
 30
0.0
 10
-42.36577116423324
 20
243.3221106828115
 30
0.0
 10
-43.69702763427494
 20
242.8983810295613
 30
0.0
 10
-44.20790223164992
 20
242.3258765080615
 30
0.0
 10
-44.36577116423325
 20
242.1489628815615
 30
0.0
 11
-40.36577116423325
 21
242.1489628815615
 31
0.0
 11
-40.86577116423325
 21
242.6489628815615
 31
0.0
 11
-42.36577116423325
 21
243.1489628815615
 31
0.0
 11
-43.86577116423325
 21
242.6489628815615
 31
0.0
 11
-44.36577116423325
 21
242.1489628815615
 31
0.0
  0
ARC
  5
47BE
330
1A
100
AcDbEntity
  8
寸法線
100
AcDbCircle
 10
-32.365771164233
 20
232.343796709625
 30
0.0
 40
0.5
100
AcDbArc
 50
224.049940080571
 51
315.950059919429
  0
SPLINE
  5
47BF
330
1A
100
AcDbEntity
  8
寸法線
100
AcDbSpline
210
0.0
220
0.0
230
1.0
 70
     8
 71
     3
 72
    11
 73
     7
 74
     0
 42
0.0000000001
 43
0.0000000001
 40
0.4969820892200875
 40
0.4969820892200875
 40
0.4969820892200875
 40
0.4969820892200875
 40
0.7071067811865476
 40
5.806126294779332
 40
10.41589852342578
 40
11.12300530461232
 40
11.12300530461232
 40
11.12300530461232
 40
11.12300530461232
 10
-32.00640413930944
 20
231.9961541613125
 30
0.0
 10
-31.95794408175664
 20
232.0462485665998
 30
0.0
 10
-30.76856456685425
 20
233.3306086112449
 30
0.0
 10
-30.90009188631291
 20
236.982258375465
 30
0.0
 10
-30.87948747078315
 20
240.7647071095017
 30
0.0
 10
-32.19130838910985
 20
241.9864763357301
 30
0.0
 10
-32.36577116423325
 20
242.1489628815615
 30
0.0
  0
SPLINE
  5
47C0
330
1A
100
AcDbEntity
  8
寸法線
100
AcDbSpline
210
0.0
220
0.0
230
1.0
 70
     8
 71
     3
 72
    11
 73
     7
 74
     0
 42
0.0000000001
 43
0.0000000001
 40
0.4969820892200875
 40
0.4969820892200875
 40
0.4969820892200875
 40
0.4969820892200875
 40
0.7071067811865476
 40
5.806126294779332
 40
10.41589852342578
 40
11.12300530461232
 40
11.12300530461232
 40
11.12300530461232
 40
11.12300530461232
 10
-32.72513818915706
 20
231.9961541613125
 30
0.0
 10
-32.77359824670987
 20
232.0462485665998
 30
0.0
 10
-33.96297776161225
 20
233.3306086112449
 30
0.0
 10
-33.8314504421536
 20
236.982258375465
 30
0.0
 10
-33.85205485768336
 20
240.7647071095017
 30
0.0
 10
-32.54023393935665
 20
241.9864763357301
 30
0.0
 10
-32.36577116423325
 20
242.1489628815615
 30
0.0
  0
ARC
  5
47C1
330
1A
100
AcDbEntity
  8
寸法線
100
AcDbCircle
 10
-36.365771164233
 20
232.343796709625
 30
0.0
 40
0.5
100
AcDbArc
 50
224.049940080571
 51
315.950059919429
  0
SPLINE
  5
47C2
330
1A
100
AcDbEntity
  8
寸法線
100
AcDbSpline
210
0.0
220
0.0
230
1.0
 70
     8
 71
     3
 72
    11
 73
     7
 74
     0
 42
0.0000000001
 43
0.0000000001
 40
0.4969820892200875
 40
0.4969820892200875
 40
0.4969820892200875
 40
0.4969820892200875
 40
0.7071067811865476
 40
5.806126294779332
 40
10.41589852342578
 40
11.12300530461232
 40
11.12300530461232
 40
11.12300530461232
 40
11.12300530461232
 10
-36.00640413930944
 20
231.9961541613125
 30
0.0
 10
-35.95794408175664
 20
232.0462485665998
 30
0.0
 10
-34.76856456685425
 20
233.3306086112449
 30
0.0
 10
-34.90009188631291
 20
236.982258375465
 30
0.0
 10
-34.87948747078315
 20
240.7647071095017
 30
0.0
 10
-36.19130838910985
 20
241.9864763357301
 30
0.0
 10
-36.36577116423325
 20
242.1489628815615
 30
0.0
  0
SPLINE
  5
47C3
330
1A
100
AcDbEntity
  8
寸法線
100
AcDbSpline
210
0.0
220
0.0
230
1.0
 70
     8
 71
     3
 72
    11
 73
     7
 74
     0
 42
0.0000000001
 43
0.0000000001
 40
0.4969820892200875
 40
0.4969820892200875
 40
0.4969820892200875
 40
0.4969820892200875
 40
0.7071067811865476
 40
5.806126294779332
 40
10.41589852342578
 40
11.12300530461232
 40
11.12300530461232
 40
11.12300530461232
 40
11.12300530461232
 10
-36.72513818915706
 20
231.9961541613125
 30
0.0
 10
-36.77359824670987
 20
232.0462485665998
 30
0.0
 10
-37.96297776161225
 20
233.3306086112449
 30
0.0
 10
-37.8314504421536
 20
236.982258375465
 30
0.0
 10
-37.85205485768336
 20
240.7647071095017
 30
0.0
 10
-36.54023393935665
 20
241.9864763357301
 30
0.0
 10
-36.36577116423325
 20
242.1489628815615
 30
0.0
  0
ARC
  5
47C4
330
1A
100
AcDbEntity
  8
寸法線
100
AcDbCircle
 10
-40.365771164233
 20
232.343796709625
 30
0.0
 40
0.5
100
AcDbArc
 50
224.049940080571
 51
315.950059919429
  0
SPLINE
  5
47C5
330
1A
100
AcDbEntity
  8
寸法線
100
AcDbSpline
210
0.0
220
0.0
230
1.0
 70
     8
 71
     3
 72
    11
 73
     7
 74
     0
 42
0.0000000001
 43
0.0000000001
 40
0.4969820892200875
 40
0.4969820892200875
 40
0.4969820892200875
 40
0.4969820892200875
 40
0.7071067811865476
 40
5.806126294779332
 40
10.41589852342578
 40
11.12300530461232
 40
11.12300530461232
 40
11.12300530461232
 40
11.12300530461232
 10
-40.00640413930944
 20
231.9961541613125
 30
0.0
 10
-39.95794408175664
 20
232.0462485665998
 30
0.0
 10
-38.76856456685425
 20
233.3306086112449
 30
0.0
 10
-38.90009188631291
 20
236.982258375465
 30
0.0
 10
-38.87948747078315
 20
240.7647071095017
 30
0.0
 10
-40.19130838910985
 20
241.9864763357301
 30
0.0
 10
-40.36577116423325
 20
242.1489628815615
 30
0.0
  0
SPLINE
  5
47C6
330
1A
100
AcDbEntity
  8
寸法線
100
AcDbSpline
210
0.0
220
0.0
230
1.0
 70
     8
 71
     3
 72
    11
 73
     7
 74
     0
 42
0.0000000001
 43
0.0000000001
 40
0.4969820892200875
 40
0.4969820892200875
 40
0.4969820892200875
 40
0.4969820892200875
 40
0.7071067811865476
 40
5.806126294779332
 40
10.41589852342578
 40
11.12300530461232
 40
11.12300530461232
 40
11.12300530461232
 40
11.12300530461232
 10
-40.72513818915706
 20
231.9961541613125
 30
0.0
 10
-40.77359824670987
 20
232.0462485665998
 30
0.0
 10
-41.96297776161225
 20
233.3306086112449
 30
0.0
 10
-41.8314504421536
 20
236.982258375465
 30
0.0
 10
-41.85205485768336
 20
240.7647071095017
 30
0.0
 10
-40.54023393935665
 20
241.9864763357301
 30
0.0
 10
-40.36577116423325
 20
242.1489628815615
 30
0.0
  0
ARC
  5
47C7
330
1A
100
AcDbEntity
  8
寸法線
100
AcDbCircle
 10
-44.365771164233
 20
232.343796709625
 30
0.0
 40
0.5
100
AcDbArc
 50
224.049940080571
 51
315.950059919429
  0
SPLINE
  5
47C8
330
1A
100
AcDbEntity
  8
寸法線
100
AcDbSpline
210
0.0
220
0.0
230
1.0
 70
     8
 71
     3
 72
    11
 73
     7
 74
     0
 42
0.0000000001
 43
0.0000000001
 40
0.4969820892200875
 40
0.4969820892200875
 40
0.4969820892200875
 40
0.4969820892200875
 40
0.7071067811865476
 40
5.806126294779332
 40
10.41589852342578
 40
11.12300530461232
 40
11.12300530461232
 40
11.12300530461232
 40
11.12300530461232
 10
-44.00640413930944
 20
231.9961541613125
 30
0.0
 10
-43.95794408175686
 20
232.0462485665998
 30
0.0
 10
-42.76856456685425
 20
233.3306086112449
 30
0.0
 10
-42.90009188631291
 20
236.982258375465
 30
0.0
 10
-42.87948747078315
 20
240.7647071095017
 30
0.0
 10
-44.19130838910985
 20
241.9864763357301
 30
0.0
 10
-44.36577116423325
 20
242.1489628815615
 30
0.0
  0
SPLINE
  5
47C9
330
1A
100
AcDbEntity
  8
寸法線
100
AcDbSpline
210
0.0
220
0.0
230
1.0
 70
     8
 71
     3
 72
    11
 73
     7
 74
     0
 42
0.0000000001
 43
0.0000000001
 40
0.4969820892200875
 40
0.4969820892200875
 40
0.4969820892200875
 40
0.4969820892200875
 40
0.7071067811865476
 40
5.806126294779332
 40
10.41589852342578
 40
11.12300530461232
 40
11.12300530461232
 40
11.12300530461232
 40
11.12300530461232
 10
-44.72513818915706
 20
231.9961541613125
 30
0.0
 10
-44.77359824670987
 20
232.0462485665998
 30
0.0
 10
-45.96297776161225
 20
233.3306086112449
 30
0.0
 10
-45.8314504421536
 20
236.982258375465
 30
0.0
 10
-45.85205485768336
 20
240.7647071095017
 30
0.0
 10
-44.54023393935665
 20
241.9864763357301
 30
0.0
 10
-44.36577116423325
 20
242.1489628815615
 30
0.0
  0
SPLINE
  5
47CA
330
1A
100
AcDbEntity
  8
寸法線
100
AcDbSpline
210
0.0
220
0.0
230
1.0
 70
  1064
 71
     3
 72
    11
 73
     7
 74
     5
 42
0.000000001
 43
0.0000000001
 44
0.0000000001
 40
0.0
 40
0.0
 40
0.0
 40
0.0
 40
0.7071067811865476
 40
2.288245611270737
 40
3.869384441354927
 40
4.576491222541475
 40
4.576491222541475
 40
4.576491222541475
 40
4.576491222541475
 10
-64.36577116423325
 20
242.1489628815615
 30
0.0
 10
-64.52364009681658
 20
242.3258765080615
 30
0.0
 10
-65.03451469419156
 20
242.8983810295615
 30
0.0
 10
-66.36577116423324
 20
243.3221106828115
 30
0.0
 10
-67.69702763427493
 20
242.8983810295613
 30
0.0
 10
-68.20790223164992
 20
242.3258765080615
 30
0.0
 10
-68.36577116423325
 20
242.1489628815615
 30
0.0
 11
-64.36577116423325
 21
242.1489628815615
 31
0.0
 11
-64.86577116423325
 21
242.6489628815615
 31
0.0
 11
-66.36577116423325
 21
243.1489628815615
 31
0.0
 11
-67.86577116423325
 21
242.6489628815615
 31
0.0
 11
-68.36577116423325
 21
242.1489628815615
 31
0.0
  0
ARC
  5
47CB
330
1A
100
AcDbEntity
  8
寸法線
100
AcDbCircle
 10
-64.365771164233
 20
232.343796709625
 30
0.0
 40
0.5
100
AcDbArc
 50
224.049940080571
 51
315.950059919429
  0
SPLINE
  5
47CC
330
1A
100
AcDbEntity
  8
寸法線
100
AcDbSpline
210
0.0
220
0.0
230
1.0
 70
     8
 71
     3
 72
    11
 73
     7
 74
     0
 42
0.0000000001
 43
0.0000000001
 40
0.4969820892200875
 40
0.4969820892200875
 40
0.4969820892200875
 40
0.4969820892200875
 40
0.7071067811865476
 40
5.806126294779332
 40
10.41589852342578
 40
11.12300530461232
 40
11.12300530461232
 40
11.12300530461232
 40
11.12300530461232
 10
-64.72513818915706
 20
231.9961541613125
 30
0.0
 10
-64.77359824670987
 20
232.0462485665998
 30
0.0
 10
-65.96297776161225
 20
233.3306086112449
 30
0.0
 10
-65.8314504421536
 20
236.982258375465
 30
0.0
 10
-65.85205485768336
 20
240.7647071095017
 30
0.0
 10
-64.54023393935665
 20
241.9864763357301
 30
0.0
 10
-64.36577116423325
 20
242.1489628815615
 30
0.0
  0
SPLINE
  5
47CD
330
1A
100
AcDbEntity
  8
寸法線
100
AcDbSpline
210
0.0
220
0.0
230
1.0
 70
     8
 71
     3
 72
    11
 73
     7
 74
     0
 42
0.0000000001
 43
0.0000000001
 40
0.4969820892200875
 40
0.4969820892200875
 40
0.4969820892200875
 40
0.4969820892200875
 40
0.7071067811865476
 40
5.806126294779332
 40
10.41589852342578
 40
11.12300530461232
 40
11.12300530461232
 40
11.12300530461232
 40
11.12300530461232
 10
-64.00640413930944
 20
231.9961541613125
 30
0.0
 10
-63.95794408175686
 20
232.0462485665998
 30
0.0
 10
-62.76856456685425
 20
233.3306086112449
 30
0.0
 10
-62.90009188631291
 20
236.982258375465
 30
0.0
 10
-62.87948747078315
 20
240.7647071095017
 30
0.0
 10
-64.19130838910985
 20
241.9864763357301
 30
0.0
 10
-64.36577116423325
 20
242.1489628815615
 30
0.0
  0
ARC
  5
47CE
330
1A
100
AcDbEntity
  8
寸法線
100
AcDbCircle
 10
-60.365771164233
 20
232.343796709625
 30
0.0
 40
0.5
100
AcDbArc
 50
224.049940080571
 51
315.950059919429
  0
SPLINE
  5
47CF
330
1A
100
AcDbEntity
  8
寸法線
100
AcDbSpline
210
0.0
220
0.0
230
1.0
 70
     8
 71
     3
 72
    11
 73
     7
 74
     0
 42
0.0000000001
 43
0.0000000001
 40
0.4969820892200875
 40
0.4969820892200875
 40
0.4969820892200875
 40
0.4969820892200875
 40
0.7071067811865476
 40
5.806126294779332
 40
10.41589852342578
 40
11.12300530461232
 40
11.12300530461232
 40
11.12300530461232
 40
11.12300530461232
 10
-60.72513818915706
 20
231.9961541613125
 30
0.0
 10
-60.77359824670987
 20
232.0462485665998
 30
0.0
 10
-61.96297776161225
 20
233.3306086112449
 30
0.0
 10
-61.8314504421536
 20
236.982258375465
 30
0.0
 10
-61.85205485768336
 20
240.7647071095017
 30
0.0
 10
-60.54023393935665
 20
241.9864763357301
 30
0.0
 10
-60.36577116423325
 20
242.1489628815615
 30
0.0
  0
SPLINE
  5
47D0
330
1A
100
AcDbEntity
  8
寸法線
100
AcDbSpline
210
0.0
220
0.0
230
1.0
 70
     8
 71
     3
 72
    11
 73
     7
 74
     0
 42
0.0000000001
 43
0.0000000001
 40
0.4969820892200875
 40
0.4969820892200875
 40
0.4969820892200875
 40
0.4969820892200875
 40
0.7071067811865476
 40
5.806126294779332
 40
10.41589852342578
 40
11.12300530461232
 40
11.12300530461232
 40
11.12300530461232
 40
11.12300530461232
 10
-60.00640413930944
 20
231.9961541613125
 30
0.0
 10
-59.95794408175686
 20
232.0462485665998
 30
0.0
 10
-58.76856456685425
 20
233.3306086112449
 30
0.0
 10
-58.90009188631291
 20
236.982258375465
 30
0.0
 10
-58.87948747078315
 20
240.7647071095017
 30
0.0
 10
-60.19130838910985
 20
241.9864763357301
 30
0.0
 10
-60.36577116423325
 20
242.1489628815615
 30
0.0
  0
SPLINE
  5
47D1
330
1A
100
AcDbEntity
  8
寸法線
100
AcDbSpline
210
0.0
220
0.0
230
1.0
 70
  1064
 71
     3
 72
    11
 73
     7
 74
     5
 42
0.000000001
 43
0.0000000001
 44
0.0000000001
 40
0.0
 40
0.0
 40
0.0
 40
0.0
 40
0.7071067811865476
 40
2.288245611270737
 40
3.869384441354927
 40
4.576491222541475
 40
4.576491222541475
 40
4.576491222541475
 40
4.576491222541475
 10
-60.36577116423325
 20
242.1489628815615
 30
0.0
 10
-60.52364009681657
 20
242.3258765080615
 30
0.0
 10
-61.03451469419154
 20
242.8983810295615
 30
0.0
 10
-62.36577116423324
 20
243.3221106828115
 30
0.0
 10
-63.69702763427493
 20
242.8983810295613
 30
0.0
 10
-64.20790223164991
 20
242.3258765080615
 30
0.0
 10
-64.36577116423325
 20
242.1489628815615
 30
0.0
 11
-60.36577116423325
 21
242.1489628815615
 31
0.0
 11
-60.86577116423325
 21
242.6489628815615
 31
0.0
 11
-62.36577116423325
 21
243.1489628815615
 31
0.0
 11
-63.86577116423325
 21
242.6489628815615
 31
0.0
 11
-64.36577116423325
 21
242.1489628815615
 31
0.0
  0
SPLINE
  5
47D2
330
1A
100
AcDbEntity
  8
寸法線
100
AcDbSpline
210
0.0
220
0.0
230
1.0
 70
  1064
 71
     3
 72
    11
 73
     7
 74
     5
 42
0.000000001
 43
0.0000000001
 44
0.0000000001
 40
0.0
 40
0.0
 40
0.0
 40
0.0
 40
0.7071067811865476
 40
2.288245611270737
 40
3.869384441354927
 40
4.576491222541475
 40
4.576491222541475
 40
4.576491222541475
 40
4.576491222541475
 10
-56.36577116423325
 20
242.1489628815615
 30
0.0
 10
-56.52364009681658
 20
242.3258765080615
 30
0.0
 10
-57.03451469419156
 20
242.8983810295615
 30
0.0
 10
-58.36577116423324
 20
243.3221106828115
 30
0.0
 10
-59.69702763427493
 20
242.8983810295613
 30
0.0
 10
-60.20790223164992
 20
242.3258765080615
 30
0.0
 10
-60.36577116423325
 20
242.1489628815615
 30
0.0
 11
-56.36577116423325
 21
242.1489628815615
 31
0.0
 11
-56.86577116423325
 21
242.6489628815615
 31
0.0
 11
-58.36577116423325
 21
243.1489628815615
 31
0.0
 11
-59.86577116423325
 21
242.6489628815615
 31
0.0
 11
-60.36577116423325
 21
242.1489628815615
 31
0.0
  0
SPLINE
  5
47D3
330
1A
100
AcDbEntity
  8
寸法線
100
AcDbSpline
210
0.0
220
0.0
230
1.0
 70
     8
 71
     3
 72
    11
 73
     7
 74
     0
 42
0.0000000001
 43
0.0000000001
 40
0.4969820892200875
 40
0.4969820892200875
 40
0.4969820892200875
 40
0.4969820892200875
 40
0.7071067811865476
 40
5.806126294779332
 40
10.41589852342578
 40
11.12300530461232
 40
11.12300530461232
 40
11.12300530461232
 40
11.12300530461232
 10
-56.00640413930944
 20
231.9961541613125
 30
0.0
 10
-55.95794408175686
 20
232.0462485665998
 30
0.0
 10
-54.76856456685425
 20
233.3306086112449
 30
0.0
 10
-54.90009188631291
 20
236.982258375465
 30
0.0
 10
-54.87948747078315
 20
240.7647071095017
 30
0.0
 10
-56.19130838910985
 20
241.9864763357301
 30
0.0
 10
-56.36577116423325
 20
242.1489628815615
 30
0.0
  0
ARC
  5
47D4
330
1A
100
AcDbEntity
  8
寸法線
100
AcDbCircle
 10
-56.365771164233
 20
232.343796709625
 30
0.0
 40
0.5
100
AcDbArc
 50
224.049940080571
 51
315.950059919429
  0
SPLINE
  5
47D5
330
1A
100
AcDbEntity
  8
寸法線
100
AcDbSpline
210
0.0
220
0.0
230
1.0
 70
     8
 71
     3
 72
    11
 73
     7
 74
     0
 42
0.0000000001
 43
0.0000000001
 40
0.4969820892200875
 40
0.4969820892200875
 40
0.4969820892200875
 40
0.4969820892200875
 40
0.7071067811865476
 40
5.806126294779332
 40
10.41589852342578
 40
11.12300530461232
 40
11.12300530461232
 40
11.12300530461232
 40
11.12300530461232
 10
-56.72513818915706
 20
231.9961541613125
 30
0.0
 10
-56.77359824670987
 20
232.0462485665998
 30
0.0
 10
-57.96297776161225
 20
233.3306086112449
 30
0.0
 10
-57.8314504421536
 20
236.982258375465
 30
0.0
 10
-57.85205485768336
 20
240.7647071095017
 30
0.0
 10
-56.54023393935665
 20
241.9864763357301
 30
0.0
 10
-56.36577116423325
 20
242.1489628815615
 30
0.0
  0
SPLINE
  5
47D6
330
1A
100
AcDbEntity
  8
寸法線
100
AcDbSpline
210
0.0
220
0.0
230
1.0
 70
  1064
 71
     3
 72
    11
 73
     7
 74
     5
 42
0.000000001
 43
0.0000000001
 44
0.0000000001
 40
0.0
 40
0.0
 40
0.0
 40
0.0
 40
0.7071067811865476
 40
2.288245611270737
 40
3.869384441354927
 40
4.576491222541475
 40
4.576491222541475
 40
4.576491222541475
 40
4.576491222541475
 10
-52.36577116423325
 20
242.1489628815615
 30
0.0
 10
-52.52364009681658
 20
242.3258765080615
 30
0.0
 10
-53.03451469419155
 20
242.8983810295615
 30
0.0
 10
-54.36577116423324
 20
243.3221106828115
 30
0.0
 10
-55.69702763427494
 20
242.8983810295613
 30
0.0
 10
-56.20790223164993
 20
242.3258765080615
 30
0.0
 10
-56.36577116423325
 20
242.1489628815615
 30
0.0
 11
-52.36577116423325
 21
242.1489628815615
 31
0.0
 11
-52.86577116423325
 21
242.6489628815615
 31
0.0
 11
-54.36577116423325
 21
243.1489628815615
 31
0.0
 11
-55.86577116423325
 21
242.6489628815615
 31
0.0
 11
-56.36577116423325
 21
242.1489628815615
 31
0.0
  0
SPLINE
  5
47D7
330
1A
100
AcDbEntity
  8
寸法線
100
AcDbSpline
210
0.0
220
0.0
230
1.0
 70
  1064
 71
     3
 72
    11
 73
     7
 74
     5
 42
0.000000001
 43
0.0000000001
 44
0.0000000001
 40
0.0
 40
0.0
 40
0.0
 40
0.0
 40
0.7071067811865476
 40
2.288245611270737
 40
3.869384441354927
 40
4.576491222541475
 40
4.576491222541475
 40
4.576491222541475
 40
4.576491222541475
 10
-44.36577116423325
 20
242.1489628815615
 30
0.0
 10
-44.52364009681658
 20
242.3258765080615
 30
0.0
 10
-45.03451469419156
 20
242.8983810295615
 30
0.0
 10
-46.36577116423324
 20
243.3221106828115
 30
0.0
 10
-47.69702763427494
 20
242.8983810295613
 30
0.0
 10
-48.20790223164992
 20
242.3258765080615
 30
0.0
 10
-48.36577116423325
 20
242.1489628815615
 30
0.0
 11
-44.36577116423325
 21
242.1489628815615
 31
0.0
 11
-44.86577116423325
 21
242.6489628815615
 31
0.0
 11
-46.36577116423325
 21
243.1489628815615
 31
0.0
 11
-47.86577116423325
 21
242.6489628815615
 31
0.0
 11
-48.36577116423325
 21
242.1489628815615
 31
0.0
  0
SPLINE
  5
47D8
330
1A
100
AcDbEntity
  8
寸法線
100
AcDbSpline
210
0.0
220
0.0
230
1.0
 70
  1064
 71
     3
 72
    11
 73
     7
 74
     5
 42
0.000000001
 43
0.0000000001
 44
0.0000000001
 40
0.0
 40
0.0
 40
0.0
 40
0.0
 40
0.7071067811865476
 40
2.288245611270737
 40
3.869384441354927
 40
4.576491222541475
 40
4.576491222541475
 40
4.576491222541475
 40
4.576491222541475
 10
-48.36577116423325
 20
242.1489628815615
 30
0.0
 10
-48.52364009681658
 20
242.3258765080615
 30
0.0
 10
-49.03451469419155
 20
242.8983810295615
 30
0.0
 10
-50.36577116423325
 20
243.3221106828115
 30
0.0
 10
-51.69702763427492
 20
242.8983810295613
 30
0.0
 10
-52.20790223164993
 20
242.3258765080615
 30
0.0
 10
-52.36577116423325
 20
242.1489628815615
 30
0.0
 11
-48.36577116423325
 21
242.1489628815615
 31
0.0
 11
-48.86577116423325
 21
242.6489628815615
 31
0.0
 11
-50.36577116423325
 21
243.1489628815615
 31
0.0
 11
-51.86577116423325
 21
242.6489628815615
 31
0.0
 11
-52.36577116423325
 21
242.1489628815615
 31
0.0
  0
SPLINE
  5
47D9
330
1A
100
AcDbEntity
  8
寸法線
100
AcDbSpline
210
0.0
220
0.0
230
1.0
 70
     8
 71
     3
 72
    11
 73
     7
 74
     0
 42
0.0000000001
 43
0.0000000001
 40
0.4969820892200875
 40
0.4969820892200875
 40
0.4969820892200875
 40
0.4969820892200875
 40
0.7071067811865476
 40
5.806126294779332
 40
10.41589852342578
 40
11.12300530461232
 40
11.12300530461232
 40
11.12300530461232
 40
11.12300530461232
 10
-52.72513818915706
 20
231.9961541613125
 30
0.0
 10
-52.77359824670987
 20
232.0462485665998
 30
0.0
 10
-53.96297776161225
 20
233.3306086112449
 30
0.0
 10
-53.8314504421536
 20
236.982258375465
 30
0.0
 10
-53.85205485768336
 20
240.7647071095017
 30
0.0
 10
-52.54023393935665
 20
241.9864763357301
 30
0.0
 10
-52.36577116423325
 20
242.1489628815615
 30
0.0
  0
SPLINE
  5
47DA
330
1A
100
AcDbEntity
  8
寸法線
100
AcDbSpline
210
0.0
220
0.0
230
1.0
 70
     8
 71
     3
 72
    11
 73
     7
 74
     0
 42
0.0000000001
 43
0.0000000001
 40
0.4969820892200875
 40
0.4969820892200875
 40
0.4969820892200875
 40
0.4969820892200875
 40
0.7071067811865476
 40
5.806126294779332
 40
10.41589852342578
 40
11.12300530461232
 40
11.12300530461232
 40
11.12300530461232
 40
11.12300530461232
 10
-52.00640413930944
 20
231.9961541613125
 30
0.0
 10
-51.95794408175686
 20
232.0462485665998
 30
0.0
 10
-50.76856456685425
 20
233.3306086112449
 30
0.0
 10
-50.90009188631291
 20
236.982258375465
 30
0.0
 10
-50.87948747078315
 20
240.7647071095017
 30
0.0
 10
-52.19130838910985
 20
241.9864763357301
 30
0.0
 10
-52.36577116423325
 20
242.1489628815615
 30
0.0
  0
ARC
  5
47DB
330
1A
100
AcDbEntity
  8
寸法線
100
AcDbCircle
 10
-52.365771164233
 20
232.343796709625
 30
0.0
 40
0.5
100
AcDbArc
 50
224.049940080571
 51
315.950059919429
  0
ARC
  5
47DC
330
1A
100
AcDbEntity
  8
寸法線
100
AcDbCircle
 10
-48.365771164233
 20
232.343796709625
 30
0.0
 40
0.5
100
AcDbArc
 50
224.049940080571
 51
315.950059919429
  0
SPLINE
  5
47DD
330
1A
100
AcDbEntity
  8
寸法線
100
AcDbSpline
210
0.0
220
0.0
230
1.0
 70
     8
 71
     3
 72
    11
 73
     7
 74
     0
 42
0.0000000001
 43
0.0000000001
 40
0.4969820892200875
 40
0.4969820892200875
 40
0.4969820892200875
 40
0.4969820892200875
 40
0.7071067811865476
 40
5.806126294779332
 40
10.41589852342578
 40
11.12300530461232
 40
11.12300530461232
 40
11.12300530461232
 40
11.12300530461232
 10
-48.00640413930944
 20
231.9961541613125
 30
0.0
 10
-47.95794408175686
 20
232.0462485665998
 30
0.0
 10
-46.76856456685425
 20
233.3306086112449
 30
0.0
 10
-46.90009188631291
 20
236.982258375465
 30
0.0
 10
-46.87948747078315
 20
240.7647071095017
 30
0.0
 10
-48.19130838910985
 20
241.9864763357301
 30
0.0
 10
-48.36577116423325
 20
242.1489628815615
 30
0.0
  0
SPLINE
  5
47DE
330
1A
100
AcDbEntity
  8
寸法線
100
AcDbSpline
210
0.0
220
0.0
230
1.0
 70
     8
 71
     3
 72
    11
 73
     7
 74
     0
 42
0.0000000001
 43
0.0000000001
 40
0.4969820892200875
 40
0.4969820892200875
 40
0.4969820892200875
 40
0.4969820892200875
 40
0.7071067811865476
 40
5.806126294779332
 40
10.41589852342578
 40
11.12300530461232
 40
11.12300530461232
 40
11.12300530461232
 40
11.12300530461232
 10
-48.72513818915706
 20
231.9961541613125
 30
0.0
 10
-48.77359824670987
 20
232.0462485665998
 30
0.0
 10
-49.96297776161225
 20
233.3306086112449
 30
0.0
 10
-49.8314504421536
 20
236.982258375465
 30
0.0
 10
-49.85205485768336
 20
240.7647071095017
 30
0.0
 10
-48.54023393935665
 20
241.9864763357301
 30
0.0
 10
-48.36577116423325
 20
242.1489628815615
 30
0.0
  0
LINE
  5
47DF
330
1A
100
AcDbEntity
  8
寸法線
100
AcDbLine
 10
-68.365771164233
 20
246.648962881561
 30
0.0
 11
-28.365771164233
 21
246.648962881561
 31
0.0
  0
SPLINE
  5
47E0
330
1A
100
AcDbEntity
  8
寸法線
100
AcDbSpline
210
0.0
220
0.0
230
1.0
 70
  1064
 71
     3
 72
    10
 73
     6
 74
     4
 42
0.000000001
 43
0.0000000001
 44
0.0000000001
 40
0.0
 40
0.0
 40
0.0
 40
0.0
 40
1.828427124746122
 40
13.53312703546575
 40
15.36155416021183
 40
15.36155416021183
 40
15.36155416021183
 40
15.36155416021183
 10
-67.65866438304658
 20
202.356069662748
 30
0.0
 10
-67.15161266895856
 20
202.7701541502449
 30
0.0
 10
-63.39866284261178
 20
205.8350058453815
 30
0.0
 10
-73.33287948585487
 20
212.4629199177417
 30
0.0
 10
-69.57992965950793
 20
215.527771612878
 30
0.0
 10
-69.07287794541992
 20
215.9418561003749
 30
0.0
 11
-67.65866438304658
 21
202.356069662748
 31
0.0
 11
-66.36577116423325
 21
203.6489628815615
 31
0.0
 11
-70.36577116423325
 21
214.6489628815615
 31
0.0
 11
-69.07287794541992
 21
215.9418561003749
 31
0.0
  0
CIRCLE
  5
47E1
330
1A
100
AcDbEntity
  8
寸法線
100
AcDbCircle
 10
-68.365771164233
 20
216.648962881561
 30
0.0
 40
1.0
  0
LINE
  5
47E2
330
1A
100
AcDbEntity
  8
寸法線
100
AcDbLine
 10
-68.365771164233
 20
194.648962881561
 30
0.0
 11
-68.365771164233
 21
200.648962881561
 31
0.0
  0
CIRCLE
  5
47E3
330
1A
100
AcDbEntity
  8
寸法線
100
AcDbCircle
 10
-68.365771164233
 20
201.648962881561
 30
0.0
 40
1.0
  0
LINE
  5
47E4
330
1A
100
AcDbEntity
  8
寸法線
100
AcDbLine
 10
-68.365771164233
 20
248.648962881561
 30
0.0
 11
-28.365771164233
 21
248.648962881561
 31
0.0
  0
CIRCLE
  5
47E5
330
1A
100
AcDbEntity
  8
寸法線
100
AcDbCircle
 10
-48.365771164233
 20
191.648962881561
 30
0.0
 40
2.0
  0
CIRCLE
  5
47E6
330
1A
100
AcDbEntity
  8
寸法線
100
AcDbCircle
 10
-48.365771164233
 20
191.648962881561
 30
0.0
 40
3.0
  0
TEXT
  5
47E7
330
1A
100
AcDbEntity
  8
寸法線
100
AcDbText
 10
-54.365771164233
 20
179.648962881561
 30
0.0
 40
7.0
  1
100
100
AcDbText
  0
CIRCLE
  5
47E8
330
1A
100
AcDbEntity
  8
寸法線
100
AcDbCircle
 10
-28.365771164233
 20
191.648962881561
 30
0.0
 40
2.0
  0
CIRCLE
  5
47E9
330
1A
100
AcDbEntity
  8
寸法線
100
AcDbCircle
 10
-28.365771164233
 20
191.648962881561
 30
0.0
 40
3.0
  0
TEXT
  5
47EA
330
1A
100
AcDbEntity
  8
寸法線
100
AcDbText
 10
-35.765771164233
 20
179.648962881561
 30
0.0
 40
7.0
  1
200
100
AcDbText
  0
CIRCLE
  5
47EB
330
1A
100
AcDbEntity
  8
寸法線
100
AcDbCircle
 10
-68.365771164233
 20
191.648962881561
 30
0.0
 40
2.0
  0
CIRCLE
  5
47EC
330
1A
100
AcDbEntity
  8
寸法線
100
AcDbCircle
 10
-68.365771164233
 20
191.648962881561
 30
0.0
 40
3.0
  0
TEXT
  5
47ED
330
1A
100
AcDbEntity
  8
寸法線
100
AcDbText
 10
-70.765771164233
 20
179.648962881561
 30
0.0
 40
7.0
  1
0
100
AcDbText
  0
DIMENSION
  5
47EE
330
1A
100
AcDbEntity
  8
寸法線
 48
10.0
100
AcDbDimension
  2
*D9
 10
464.037623110288
 20
351.950455711744
 30
0.0
 11
449.287623110287
 21
356.579622378411
 31
0.0
 70
    32
  1
30
  3
ISO-25
100
AcDbAlignedDimension
 13
434.537623110287
 23
373.950455859273
 33
0.0
 14
464.037623110288
 24
393.224010329479
 34
0.0
100
AcDbRotatedDimension
1001
ACAD
1000
DSTYLE
1002
{
1070
     5
1000
OPEN30
1070
    41
1040
6.0
1070
    47
1040
0.1
1070
    48
1040
0.1
1070
    73
1070
     0
1070
   140
1040
8.0
1070
   271
1070
     1
1070
   272
1070
     1
1070
   341
1005
2AF4
1002
}
  0
DIMENSION
  5
47FB
330
1A
100
AcDbEntity
  8
寸法線
 48
10.0
100
AcDbDimension
  2
*D10
 10
434.537623110287
 20
351.950455711744
 30
0.0
 11
390.287623110287
 21
356.592122378411
 31
0.0
 70
    32
  1
88
  3
ISO-25
100
AcDbAlignedDimension
 13
346.037623110287
 23
418.449766088479
 33
0.0
 14
434.537623110287
 24
373.950455859273
 34
0.0
100
AcDbRotatedDimension
1001
ACAD
1000
DSTYLE
1002
{
1070
     5
1000
OPEN30
1070
    41
1040
6.0
1070
    47
1040
0.1
1070
    48
1040
0.1
1070
    73
1070
     0
1070
   140
1040
8.0
1070
   271
1070
     1
1070
   272
1070
     1
1070
   341
1005
2AF4
1002
}
  0
DIMENSION
  5
4845
330
1A
100
AcDbEntity
  8
寸法線
 48
10.0
100
AcDbDimension
  2
*D11
 10
464.037623110288
 20
331.950455711744
 30
0.0
 11
382.537623110288
 21
336.575455711744
 31
0.0
 70
    32
  3
ISO-25
100
AcDbAlignedDimension
 13
301.037623110288
 23
351.950455711744
 33
0.0
 14
464.037623110288
 24
393.224010329479
 34
0.0
100
AcDbRotatedDimension
1001
ACAD
1000
DSTYLE
1002
{
1070
     5
1000
OPEN30
1070
    41
1040
6.0
1070
    47
1040
0.1
1070
    48
1040
0.1
1070
    73
1070
     0
1070
   140
1040
8.0
1070
   271
1070
     1
1070
   272
1070
     1
1070
   341
1005
2AF4
1002
}
  0
MTEXT
  5
485C
330
1A
100
AcDbEntity
  8
寸法線
 48
10.0
100
AcDbMText
 10
497.681035009673
 20
559.32394044125
 30
0.0
 40
8.0
 41
114.338813593862
 71
     1
 72
     5
  1
塗装色：10YR7.5/14
  0
MTEXT
  5
4AED
330
1A
100
AcDbEntity
  8
寸法線
 48
10.0
100
AcDbMText
 10
442.847213112817
 20
301.555305581971
 30
0.0
 40
8.0
 41
0.0
 71
     7
 72
     1
  1
導線取出口\PG 1/2"
  0
DIMENSION
  5
4B4B
330
1A
100
AcDbEntity
  8
寸法線
 48
10.0
100
AcDbDimension
  2
*D12
 10
487.303900961483
 20
379.449766091001
 30
0.0
 11
487.303900961483
 21
437.446713952815
 31
0.0
 70
   160
  1
φ<>
  3
ISO-25
100
AcDbAlignedDimension
 13
451.585805268457
 23
495.443661814628
 33
0.0
 14
452.191807053163
 24
379.449766091001
 34
0.0
 50
90.0
100
AcDbRotatedDimension
1001
ACAD
1000
DSTYLE
1002
{
1070
     5
1000
OPEN30
1070
    41
1040
6.0
1070
    47
1040
0.1
1070
    48
1040
0.1
1070
    73
1070
     0
1070
   140
1040
8.0
1070
   271
1070
     1
1070
   272
1070
     1
1070
   341
1005
2AF4
1002
}
  0
ARC
  5
4B69
330
1A
100
AcDbEntity
  8
細線
 48
10.0
100
AcDbCircle
 10
241.314966860288
 20
442.824766091001
 30
0.0
 40
8.222656249999796
100
AcDbArc
 50
319.180234332391
 51
40.819765667608
  0
ARC
  5
4B6A
330
1A
100
AcDbEntity
  8
細線
 48
10.0
100
AcDbCircle
 10
241.314966860288
 20
432.074766091001
 30
0.0
 40
8.222656249999796
100
AcDbArc
 50
319.180234332391
 51
40.819765667609
  0
ARC
  5
4B6B
330
1A
100
AcDbEntity
  8
細線
 48
10.0
100
AcDbCircle
 10
253.760279360287
 20
442.824766091001
 30
0.0
 40
8.222656249999796
100
AcDbArc
 50
139.180234332391
 51
220.819765667608
  0
ARC
  5
4B6C
330
1A
100
AcDbEntity
  8
細線
 48
10.0
100
AcDbCircle
 10
260.760279360287
 20
442.824766091001
 30
0.0
 40
8.222656249999796
100
AcDbArc
 50
139.180234332391
 51
220.819765667608
  0
ARC
  5
4B6D
330
1A
100
AcDbEntity
  8
細線
 48
10.0
100
AcDbCircle
 10
248.314966860287
 20
432.074766091002
 30
0.0
 40
8.222656249999796
100
AcDbArc
 50
319.180234332391
 51
40.819765667608
  0
ARC
  5
4B6E
330
1A
100
AcDbEntity
  8
細線
 48
10.0
100
AcDbCircle
 10
260.760279360287
 20
432.074766091001
 30
0.0
 40
8.222656249999796
100
AcDbArc
 50
139.180234332391
 51
220.819765667608
  0
ARC
  5
4B6F
330
1A
100
AcDbEntity
  8
細線
 48
10.0
100
AcDbCircle
 10
179.010279360287
 20
442.824766091001
 30
0.0
 40
8.222656249999796
100
AcDbArc
 50
139.180234332391
 51
220.819765667608
  0
ARC
  5
4B70
330
1A
100
AcDbEntity
  8
細線
 48
10.0
100
AcDbCircle
 10
166.564966860288
 20
442.824766091001
 30
0.0
 40
8.222656249999796
100
AcDbArc
 50
319.180234332391
 51
40.819765667609
  0
ARC
  5
4B71
330
1A
100
AcDbEntity
  8
細線
 48
10.0
100
AcDbCircle
 10
166.564966860288
 20
432.074766091001
 30
0.0
 40
8.222656249999796
100
AcDbArc
 50
319.180234332391
 51
40.819765667608
  0
ARC
  5
4B72
330
1A
100
AcDbEntity
  8
細線
 48
10.0
100
AcDbCircle
 10
186.010279360287
 20
432.074766091001
 30
0.0
 40
8.222656249999796
100
AcDbArc
 50
139.180234332391
 51
220.819765667608
  0
ARC
  5
4B73
330
1A
100
AcDbEntity
  8
細線
 48
10.0
100
AcDbCircle
 10
173.564966860287
 20
432.074766091001
 30
0.0
 40
8.222656249999796
100
AcDbArc
 50
319.180234332391
 51
40.819765667609
  0
ARC
  5
4B74
330
1A
100
AcDbEntity
  8
細線
 48
10.0
100
AcDbCircle
 10
186.010279360287
 20
442.824766091001
 30
0.0
 40
8.222656249999796
100
AcDbArc
 50
139.180234332391
 51
220.819765667608
  0
SPLINE
  5
4B75
330
1A
100
AcDbEntity
  8
寸法線
 48
10.0
100
AcDbSpline
210
0.0
220
0.0
230
1.0
 70
  1064
 71
     3
 72
    13
 73
     9
 74
     7
 42
0.000000001
 43
0.0000000001
 44
0.0000000001
 40
0.0
 40
0.0
 40
0.0
 40
0.0
 40
3.223685095177002
 40
8.435450993908097
 40
12.63609189519632
 40
15.54126966359044
 40
17.08609505184047
 40
18.20640635868946
 40
18.20640635868946
 40
18.20640635868946
 40
18.20640635868946
 10
97.05743555021968
 20
353.1278624819378
 30
0.0
 10
98.01609761301816
 20
353.5707067857598
 30
0.0
 10
100.5246388047599
 20
354.7295021744319
 30
0.0
 10
101.129126901451
 20
362.8190084224486
 30
0.0
 10
97.55339688404491
 20
357.0007476734105
 30
0.0
 10
97.70997524422802
 20
354.047095347439
 30
0.0
 10
99.59386769663641
 20
352.8899870957938
 30
0.0
 10
100.4271441313964
 20
353.3068208084024
 30
0.0
 10
100.7774184769146
 20
353.4820401591285
 30
0.0
 11
97.05743555021968
 21
353.1278624819378
 31
0.0
 11
99.62599503471858
 21
355.0758480484801
 31
0.0
 11
100.2017067558165
 21
360.2557186836762
 31
0.0
 11
97.9431463923089
 21
356.7139268961811
 31
0.0
 11
98.34171638000208
 21
353.8362195047179
 31
0.0
 11
99.71456590142094
 21
353.1278624819378
 31
0.0
 11
100.7774184769146
 21
353.4820401591285
 31
0.0
  0
TEXT
  5
4B76
330
1A
100
AcDbEntity
  8
寸法線
 48
10.0
100
AcDbText
 10
103.143466055034
 20
353.176772453563
 30
0.0
 40
5.2
  1
1
100
AcDbText
  0
SPLINE
  5
4B77
330
1A
100
AcDbEntity
  8
寸法線
 48
10.0
100
AcDbSpline
210
0.0
220
0.0
230
1.0
 70
  1064
 71
     3
 72
    13
 73
     9
 74
     7
 42
0.000000001
 43
0.0000000001
 44
0.0000000001
 40
0.0
 40
0.0
 40
0.0
 40
0.0
 40
3.223685095177002
 40
8.435450993908097
 40
12.63609189519633
 40
15.54126966359046
 40
17.08609505184044
 40
18.20640635868946
 40
18.20640635868946
 40
18.20640635868946
 40
18.20640635868946
 10
172.0601984976693
 20
353.1278624819378
 30
0.0
 10
173.0188605604678
 20
353.5707067857598
 30
0.0
 10
175.5274017522095
 20
354.7295021744318
 30
0.0
 10
176.1318898489007
 20
362.8190084224488
 30
0.0
 10
172.5561598314944
 20
357.0007476734102
 30
0.0
 10
172.7127381916777
 20
354.0470953474392
 30
0.0
 10
174.596630644086
 20
352.8899870957937
 30
0.0
 10
175.429907078846
 20
353.3068208084024
 30
0.0
 10
175.7801814243642
 20
353.4820401591285
 30
0.0
 11
172.0601984976693
 21
353.1278624819378
 31
0.0
 11
174.6287579821682
 21
355.0758480484801
 31
0.0
 11
175.2044697032661
 21
360.2557186836762
 31
0.0
 11
172.9459093397585
 21
356.7139268961811
 31
0.0
 11
173.3444793274517
 21
353.8362195047179
 31
0.0
 11
174.7173288488705
 21
353.1278624819378
 31
0.0
 11
175.7801814243642
 21
353.4820401591285
 31
0.0
  0
TEXT
  5
4B78
330
1A
100
AcDbEntity
  8
寸法線
 48
10.0
100
AcDbText
 10
178.146229002484
 20
353.176772453563
 30
0.0
 40
5.2
  1
2
100
AcDbText
  0
TEXT
  5
4B79
330
1A
100
AcDbEntity
  8
寸法線
 48
10.0
100
AcDbText
 10
252.349773045614
 20
353.176772453563
 30
0.0
 40
5.2
  1
3
100
AcDbText
  0
SPLINE
  5
4B7A
330
1A
100
AcDbEntity
  8
寸法線
 48
10.0
100
AcDbSpline
210
0.0
220
0.0
230
1.0
 70
  1064
 71
     3
 72
    13
 73
     9
 74
     7
 42
0.000000001
 43
0.0000000001
 44
0.0000000001
 40
0.0
 40
0.0
 40
0.0
 40
0.0
 40
3.223685095176979
 40
8.435450993908074
 40
12.63609189519625
 40
15.54126966359036
 40
17.08609505184044
 40
18.20640635868947
 40
18.20640635868947
 40
18.20640635868947
 40
18.20640635868947
 10
246.2637425407997
 20
353.1278624819378
 30
0.0
 10
247.2224046035982
 20
353.5707067857599
 30
0.0
 10
249.7309457953399
 20
354.729502174432
 30
0.0
 10
250.3354338920309
 20
362.8190084224486
 30
0.0
 10
246.7597038746251
 20
357.0007476734104
 30
0.0
 10
246.9162822348081
 20
354.0470953474392
 30
0.0
 10
248.8001746872164
 20
352.8899870957937
 30
0.0
 10
249.6334511219765
 20
353.3068208084024
 30
0.0
 10
249.9837254674947
 20
353.4820401591285
 30
0.0
 11
246.2637425407997
 21
353.1278624819378
 31
0.0
 11
248.8323020252986
 21
355.0758480484801
 31
0.0
 11
249.4080137463965
 21
360.2557186836762
 31
0.0
 11
247.149453382889
 21
356.7139268961811
 31
0.0
 11
247.5480233705821
 21
353.8362195047179
 31
0.0
 11
248.920872892001
 21
353.1278624819378
 31
0.0
 11
249.9837254674947
 21
353.4820401591285
 31
0.0
  0
SPLINE
  5
4B7B
330
1A
100
AcDbEntity
  8
寸法線
 48
10.0
100
AcDbSpline
210
0.0
220
0.0
230
1.0
 70
  1064
 71
     3
 72
    13
 73
     9
 74
     7
 42
0.000000001
 43
0.0000000001
 44
0.0000000001
 40
0.0
 40
0.0
 40
0.0
 40
0.0
 40
3.223685095177058
 40
8.43545099390825
 40
12.63609189519641
 40
15.54126966359059
 40
17.08609505184065
 40
18.20640635868955
 40
18.20640635868955
 40
18.20640635868955
 40
18.20640635868955
 10
174.7464240819507
 20
333.4470982856238
 30
0.0
 10
175.7050861447492
 20
333.8899425894457
 30
0.0
 10
178.2136273364911
 20
335.0487379781176
 30
0.0
 10
178.818115433182
 20
343.138244226135
 30
0.0
 10
175.242385415776
 20
337.3199834770962
 30
0.0
 10
175.3989637759591
 20
334.3663311511252
 30
0.0
 10
177.2828562283675
 20
333.2092228994796
 30
0.0
 10
178.1161326631275
 20
333.6260566120884
 30
0.0
 10
178.4664070086457
 20
333.8012759628144
 30
0.0
 11
174.7464240819507
 21
333.4470982856238
 31
0.0
 11
177.3149835664497
 21
335.395083852166
 31
0.0
 11
177.8906952875475
 21
340.5749544873622
 31
0.0
 11
175.63213492404
 21
337.0331626998671
 31
0.0
 11
176.0307049117332
 21
334.1554553084039
 31
0.0
 11
177.4035544331521
 21
333.4470982856238
 31
0.0
 11
178.4664070086457
 21
333.8012759628144
 31
0.0
  0
DIMENSION
  5
4B7C
330
1A
100
AcDbEntity
  8
寸法線
 48
10.0
100
AcDbDimension
  2
*D13
 10
301.037623110288
 20
331.950455711744
 30
0.0
 11
176.037623110288
 21
322.94735471493
 31
0.0
 70
    32
  1
 
  3
ISO-25
100
AcDbAlignedDimension
 13
51.037623110288
 23
430.449766091001
 33
0.0
 14
301.037623110288
 24
351.950455711744
 34
0.0
100
AcDbRotatedDimension
1001
ACAD
1000
DSTYLE
1002
{
1070
     5
1000
OPEN30
1070
    41
1040
6.0
1070
    47
1040
0.1
1070
    48
1040
0.1
1070
    73
1070
     0
1070
   140
1040
8.0
1070
   271
1070
     1
1070
   272
1070
     1
1070
   341
1005
2AF4
1002
}
  0
DIMENSION
  5
4B7D
330
1A
100
AcDbEntity
  8
寸法線
 48
10.0
100
AcDbDimension
  2
*D14
 10
301.037623110288
 20
351.950455711744
 30
0.0
 11
251.037623110288
 21
342.94735471493
 31
0.0
 70
    32
  1
 
  3
ISO-25
100
AcDbAlignedDimension
 13
201.037623110288
 23
426.699766091001
 33
0.0
 14
301.037623110288
 24
351.950455711744
 34
0.0
100
AcDbRotatedDimension
1001
ACAD
1000
DSTYLE
1002
{
1070
     5
1000
OPEN30
1070
    41
1040
6.0
1070
    47
1040
0.1
1070
    48
1040
0.1
1070
    73
1070
     0
1070
   140
1040
8.0
1070
   271
1070
     1
1070
   272
1070
     1
1070
   341
1005
2AF4
1002
}
  0
DIMENSION
  5
4B7E
330
1A
100
AcDbEntity
  8
寸法線
 48
10.0
100
AcDbDimension
  2
*D15
 10
201.037623110288
 20
351.950455711744
 30
0.0
 11
176.037623110288
 21
342.94735471493
 31
0.0
 70
    32
  1
 
  3
ISO-25
100
AcDbAlignedDimension
 13
151.037623110288
 23
427.199766091001
 33
0.0
 14
201.037623110288
 24
426.699766091001
 34
0.0
100
AcDbRotatedDimension
1001
ACAD
1000
DSTYLE
1002
{
1070
     5
1000
OPEN30
1070
    41
1040
6.0
1070
    47
1040
0.1
1070
    48
1040
0.1
1070
    73
1070
     0
1070
   140
1040
8.0
1070
   271
1070
     1
1070
   272
1070
     1
1070
   341
1005
2AF4
1002
}
  0
DIMENSION
  5
4B7F
330
1A
100
AcDbEntity
  8
寸法線
 48
10.0
100
AcDbDimension
  2
*D16
 10
151.037623110288
 20
351.950455711744
 30
0.0
 11
101.037623110288
 21
342.94735471493
 31
0.0
 70
    32
  1
 
  3
ISO-25
100
AcDbAlignedDimension
 13
51.037623110288
 23
430.449766091001
 33
0.0
 14
151.037623110288
 24
427.199766091001
 34
0.0
100
AcDbRotatedDimension
1001
ACAD
1000
DSTYLE
1002
{
1070
     5
1000
OPEN30
1070
    41
1040
6.0
1070
    47
1040
0.1
1070
    48
1040
0.1
1070
    73
1070
     0
1070
   140
1040
8.0
1070
   271
1070
     1
1070
   272
1070
     1
1070
   341
1005
2AF4
1002
}
  0
DIMENSION
  5
4B80
330
1A
100
AcDbEntity
  8
寸法線
 48
10.0
100
AcDbDimension
  2
*D17
 10
188.399154854015
 20
426.699766091001
 30
0.0
 11
188.399154854015
 21
467.19045151595
 31
0.0
 70
   160
  1
φ<>
  3
ISO-25
100
AcDbAlignedDimension
 13
201.037623110288
 23
448.199766091001
 33
0.0
 14
201.037623110288
 24
426.699766091001
 34
0.0
 50
90.0
100
AcDbRotatedDimension
1001
ACAD
1000
DSTYLE
1002
{
1070
     5
1000
OPEN30
1070
    76
1070
     1
1070
    75
1070
     1
1070
   282
1070
     0
1070
   281
1070
     0
1070
    41
1040
6.0
1070
    47
1040
0.1
1070
    48
1040
0.1
1070
    73
1070
     0
1070
   140
1040
8.0
1070
   271
1070
     1
1070
   272
1070
     1
1070
   341
1005
2AF4
1002
}
  0
LWPOLYLINE
  5
4B82
330
1A
100
AcDbEntity
  8
外形線
100
AcDbPolyline
 90
        6
 70
     0
 43
0.0
 10
247.537623110288
 20
448.199766091001
 10
201.537623110288
 20
448.199766091001
 10
201.037623110288
 20
447.699766091001
 10
201.037623110288
 20
427.199766091001
 10
201.537623110288
 20
426.699766091001
 10
247.537623110287
 20
426.699766091001
  0
LWPOLYLINE
  5
4B83
330
1A
100
AcDbEntity
  8
外形線
100
AcDbPolyline
 90
        6
 70
     0
 43
0.0
 10
172.787623110288
 20
448.199766091001
 10
151.537623110288
 20
448.199766091001
 10
151.037623110288
 20
447.699766091001
 10
151.037623110288
 20
427.199766091001
 10
151.537623110288
 20
426.699766091001
 10
172.787623110287
 20
426.699766091001
  0
LWPOLYLINE
  5
4B85
330
1A
100
AcDbEntity
  8
外形線
100
AcDbPolyline
 90
        4
 70
     0
 43
0.0
 10
254.537623110287
 20
426.699766091001
 10
301.037623110288
 20
426.699766091001
 10
301.037623110288
 20
448.199766091001
 10
254.537623110287
 20
448.199766091001
  0
LWPOLYLINE
  5
4B86
330
1A
100
AcDbEntity
  8
外形線
100
AcDbPolyline
 90
        4
 70
     0
 43
0.0
 10
179.787623110287
 20
426.699766091001
 10
201.037623110288
 20
426.699766091001
 10
201.037623110288
 20
448.199766091001
 10
179.787623110287
 20
448.199766091001
  0
DIMENSION
  5
4B88
330
1A
100
AcDbEntity
  8
寸法線
 48
10.0
100
AcDbDimension
  2
*D18
 10
275.902400785195
 20
426.699766091001
 30
0.0
 11
275.902400785195
 21
467.19045151595
 31
0.0
 70
   160
  1
φ<>
  3
ISO-25
100
AcDbAlignedDimension
 13
287.566266943612
 23
448.199766091001
 33
0.0
 14
287.566266943612
 24
426.699766091001
 34
0.0
 50
90.0
100
AcDbRotatedDimension
1001
ACAD
1000
DSTYLE
1002
{
1070
     5
1000
OPEN30
1070
    76
1070
     1
1070
    75
1070
     1
1070
    41
1040
6.0
1070
    47
1040
0.1
1070
    48
1040
0.1
1070
    73
1070
     0
1070
   140
1040
8.0
1070
   271
1070
     1
1070
   272
1070
     1
1070
   341
1005
2AF4
1002
}
  0
LINE
  5
4B8A
330
1A
100
AcDbEntity
  8
寸法線
100
AcDbLine
 10
75.961859464414
 20
187.130275923195
 30
0.0
 11
629.904201581763
 21
187.130275923195
 31
0.0
  0
LINE
  5
4B8B
330
1A
100
AcDbEntity
  8
寸法線
100
AcDbLine
 10
107.961829464414
 20
174.077649815618
 30
0.0
 11
107.961829464414
 21
292.568658676233
 31
0.0
  0
LINE
  5
4B8C
330
1A
100
AcDbEntity
  8
寸法線
100
AcDbLine
 10
75.961859464414
 20
278.498658676233
 30
0.0
 11
629.904201581763
 21
278.498658676233
 31
0.0
  0
LINE
  5
4B8D
330
1A
100
AcDbEntity
  8
寸法線
100
AcDbLine
 10
75.961859464414
 20
292.568658676233
 30
0.0
 11
629.904201581763
 21
292.568658676233
 31
0.0
  0
LINE
  5
4B8E
330
1A
100
AcDbEntity
  8
寸法線
100
AcDbLine
 10
75.961859464414
 20
174.077649815618
 30
0.0
 11
75.961859464414
 21
292.568658676233
 31
0.0
  0
LINE
  5
4B8F
330
1A
100
AcDbEntity
  8
寸法線
100
AcDbLine
 10
319.909461934461
 20
174.077649815618
 30
0.0
 11
319.909461934461
 21
292.568658676233
 31
0.0
  0
LINE
  5
4B90
330
1A
100
AcDbEntity
  8
寸法線
100
AcDbLine
 10
75.961859464414
 20
252.39340646108
 30
0.0
 11
629.904201581763
 21
252.39340646108
 31
0.0
  0
LINE
  5
4B91
330
1A
100
AcDbEntity
  8
寸法線
100
AcDbLine
 10
75.961859464414
 20
239.340780353503
 30
0.0
 11
629.904201581763
 21
239.340780353503
 31
0.0
  0
LINE
  5
4B92
330
1A
100
AcDbEntity
  8
寸法線
100
AcDbLine
 10
75.961859464414
 20
226.288154245927
 30
0.0
 11
629.904201581763
 21
226.288154245927
 31
0.0
  0
LINE
  5
4B93
330
1A
100
AcDbEntity
  8
寸法線
100
AcDbLine
 10
75.961859464414
 20
213.235528138349
 30
0.0
 11
629.904201581763
 21
213.235528138349
 31
0.0
  0
LINE
  5
4B94
330
1A
100
AcDbEntity
  8
寸法線
100
AcDbLine
 10
75.961859464414
 20
200.182902030772
 30
0.0
 11
629.904201581763
 21
200.182902030772
 31
0.0
  0
LINE
  5
4B95
330
1A
100
AcDbEntity
  8
寸法線
100
AcDbLine
 10
351.66578049875
 20
174.077649815618
 30
0.0
 11
351.66578049875
 21
292.568658676233
 31
0.0
  0
LINE
  5
4B96
330
1A
100
AcDbEntity
  8
寸法線
100
AcDbLine
 10
75.961859464414
 20
265.446032568657
 30
0.0
 11
629.904201581763
 21
265.446032568657
 31
0.0
  0
MTEXT
  5
4B97
102
{ACAD_XDICTIONARY
360
4B98
102
}
330
1A
100
AcDbEntity
  8
寸法線
 48
10.0
100
AcDbMText
 10
144.881663915113
 20
289.711877644839
 30
0.0
 40
8.0
 41
73.839668901398
 71
     2
 72
     5
  1
型式\P\W0.9;TSA-A5SA-025\PTSA-A5SA-030\PTSA-A5SA-035\PTSA-A5SA-040\PTSA-A5SA-045\PTSA-A5SA-050\PTSA-A5SA-055\PTSA-A5SA-060
1001
ACADANNOTATIVE
1000
AnnotativeData
1002
{
1070
     1
1070
     0
1002
}
  0
LINE
  5
4B9B
330
1A
100
AcDbEntity
  8
寸法線
 48
10.0
100
AcDbLine
 10
181.801498365812
 20
292.568658676233
 30
0.0
 11
181.801498365812
 21
174.077649815618
 31
0.0
  0
MTEXT
  5
4B9C
102
{ACAD_XDICTIONARY
360
4EC4
102
}
330
1A
100
AcDbEntity
  8
寸法線
 48
10.0
100
AcDbMText
 10
78.488766625354
 20
289.851442432199
 30
0.0
 40
8.0
 41
41.842424242424
 71
     1
 72
     5
  1
御仕様\P　\P\P　
1001
ACADANNOTATIVE
1000
AnnotativeData
1002
{
1070
     1
1070
     0
1002
}
  0
SPLINE
  5
4B9D
330
1A
100
AcDbEntity
  8
寸法線
 48
10.0
100
AcDbSpline
210
0.0
220
0.0
230
1.0
 70
  1064
 71
     3
 72
    13
 73
     9
 74
     7
 42
0.000000001
 43
0.0000000001
 44
0.0000000001
 40
0.0
 40
0.0
 40
0.0
 40
0.0
 40
3.546053604694641
 40
9.278996093298918
 40
13.89970108471589
 40
17.09539662994953
 40
18.79470455702456
 40
20.02704699455841
 40
20.02704699455841
 40
20.02704699455841
 40
20.02704699455841
 10
191.2745481701543
 20
281.68743436822
 30
0.0
 10
192.3290764392326
 20
282.1745631024241
 30
0.0
 10
195.0884717501486
 20
283.4492380299633
 30
0.0
 10
195.7534086565088
 20
292.3476949027821
 30
0.0
 10
191.8201056373621
 20
285.9476080788398
 30
0.0
 10
191.9923418335634
 20
282.6985905202712
 30
0.0
 10
194.0646235312128
 20
281.4257714434615
 30
0.0
 10
194.9812276094487
 20
281.884288527331
 30
0.0
 10
195.3665293895188
 20
282.0770298131297
 30
0.0
 11
191.2745481701543
 21
281.68743436822
 31
0.0
 11
194.0999636031031
 21
283.8302184914164
 31
0.0
 11
194.7332464963108
 21
289.5280761901322
 31
0.0
 11
192.2488300964525
 21
285.6321052238876
 31
0.0
 11
192.687257082915
 21
282.466627093278
 31
0.0
 11
194.1973915564758
 21
281.68743436822
 31
0.0
 11
195.3665293895188
 21
282.0770298131297
 31
0.0
  0
SPLINE
  5
4B9E
330
1A
100
AcDbEntity
  8
寸法線
 48
10.0
100
AcDbSpline
210
0.0
220
0.0
230
1.0
 70
  1064
 71
     3
 72
    13
 73
     9
 74
     7
 42
0.000000001
 43
0.0000000001
 44
0.0000000001
 40
0.0
 40
0.0
 40
0.0
 40
0.0
 40
3.546053604694641
 40
9.278996093298918
 40
13.89970108471589
 40
17.09539662994953
 40
18.79470455702459
 40
20.02704699455841
 40
20.02704699455841
 40
20.02704699455841
 40
20.02704699455841
 10
214.5702777893292
 20
281.68743436822
 30
0.0
 10
215.6248060584075
 20
282.1745631024241
 30
0.0
 10
218.3842013693235
 20
283.4492380299633
 30
0.0
 10
219.0491382756837
 20
292.3476949027821
 30
0.0
 10
215.115835256537
 20
285.9476080788397
 30
0.0
 10
215.2880714527384
 20
282.6985905202714
 30
0.0
 10
217.3603531503876
 20
281.4257714434614
 30
0.0
 10
218.2769572286236
 20
281.884288527331
 30
0.0
 10
218.6622590086937
 20
282.0770298131297
 30
0.0
 11
214.5702777893292
 21
281.68743436822
 31
0.0
 11
217.395693222278
 21
283.8302184914164
 31
0.0
 11
218.0289761154857
 21
289.5280761901322
 31
0.0
 11
215.5445597156274
 21
285.6321052238876
 31
0.0
 11
215.9829867020899
 21
282.466627093278
 31
0.0
 11
217.4931211756507
 21
281.68743436822
 31
0.0
 11
218.6622590086937
 21
282.0770298131297
 31
0.0
  0
LINE
  5
4BA3
330
1A
100
AcDbEntity
  8
寸法線
 48
10.0
100
AcDbLine
 10
206.956282865409
 20
292.568658676233
 30
0.0
 11
206.956282865409
 21
174.077649815618
 31
0.0
  0
LINE
  5
4BA4
330
1A
100
AcDbEntity
  8
寸法線
 48
10.0
100
AcDbLine
 10
231.863694497876
 20
292.568658676233
 30
0.0
 11
231.863694497876
 21
174.077649815618
 31
0.0
  0
LINE
  5
4BA5
330
1A
100
AcDbEntity
  8
寸法線
 48
10.0
100
AcDbLine
 10
255.513554816949
 20
292.568658676233
 30
0.0
 11
255.513554816949
 21
174.077649815618
 31
0.0
  0
LINE
  5
4BA6
330
1A
100
AcDbEntity
  8
寸法線
 48
10.0
100
AcDbLine
 10
281.364129934461
 20
292.568658676233
 30
0.0
 11
281.364129934461
 21
174.077649815618
 31
0.0
  0
TEXT
  5
4BA7
330
1A
100
AcDbEntity
  8
寸法線
 48
10.0
100
AcDbText
 10
221.028306586813
 20
281.771762107564
 30
0.0
 40
5.2
  1
1
100
AcDbText
  0
SPLINE
  5
4BA8
330
1A
100
AcDbEntity
  8
寸法線
 48
10.0
100
AcDbSpline
210
0.0
220
0.0
230
1.0
 70
  1064
 71
     3
 72
    13
 73
     9
 74
     7
 42
0.000000001
 43
0.0000000001
 44
0.0000000001
 40
0.0
 40
0.0
 40
0.0
 40
0.0
 40
3.546053604694618
 40
9.278996093298897
 40
13.89970108471587
 40
17.0953966299495
 40
18.79470455702453
 40
20.02704699455849
 40
20.02704699455849
 40
20.02704699455849
 40
20.02704699455849
 10
239.4776894217962
 20
281.68743436822
 30
0.0
 10
240.5322176908745
 20
282.1745631024241
 30
0.0
 10
243.2916130017904
 20
283.4492380299633
 30
0.0
 10
243.9565499081507
 20
292.3476949027819
 30
0.0
 10
240.0232468890041
 20
285.9476080788399
 30
0.0
 10
240.1954830852052
 20
282.6985905202712
 30
0.0
 10
242.2677647828546
 20
281.4257714434615
 30
0.0
 10
243.1843688610906
 20
281.884288527331
 30
0.0
 10
243.5696706411607
 20
282.0770298131297
 30
0.0
 11
239.4776894217962
 21
281.68743436822
 31
0.0
 11
242.303104854745
 21
283.8302184914164
 31
0.0
 11
242.9363877479527
 21
289.5280761901322
 31
0.0
 11
240.4519713480944
 21
285.6321052238876
 31
0.0
 11
240.8903983345568
 21
282.466627093278
 31
0.0
 11
242.4005328081176
 21
281.68743436822
 31
0.0
 11
243.5696706411607
 21
282.0770298131297
 31
0.0
  0
TEXT
  5
4BA9
330
1A
100
AcDbEntity
  8
寸法線
 48
10.0
100
AcDbText
 10
245.93571821928
 20
281.771762107564
 30
0.0
 40
5.2
  1
2
100
AcDbText
  0
TEXT
  5
4BAA
330
1A
100
AcDbEntity
  8
寸法線
 48
10.0
100
AcDbText
 10
271.786293336792
 20
281.771762107564
 30
0.0
 40
5.2
  1
3
100
AcDbText
  0
SPLINE
  5
4BAB
330
1A
100
AcDbEntity
  8
寸法線
 48
10.0
100
AcDbSpline
210
0.0
220
0.0
230
1.0
 70
  1064
 71
     3
 72
    13
 73
     9
 74
     7
 42
0.000000001
 43
0.0000000001
 44
0.0000000001
 40
0.0
 40
0.0
 40
0.0
 40
0.0
 40
3.546053604694618
 40
9.278996093298883
 40
13.89970108471578
 40
17.0953966299494
 40
18.79470455702446
 40
20.02704699455825
 40
20.02704699455825
 40
20.02704699455825
 40
20.02704699455825
 10
265.3282645393081
 20
281.68743436822
 30
0.0
 10
266.3827928083864
 20
282.1745631024241
 30
0.0
 10
269.1421881193024
 20
283.4492380299633
 30
0.0
 10
269.8071250256624
 20
292.347694902782
 30
0.0
 10
265.873822006516
 20
285.9476080788397
 30
0.0
 10
266.0460582027172
 20
282.6985905202713
 30
0.0
 10
268.1183399003665
 20
281.4257714434614
 30
0.0
 10
269.0349439786024
 20
281.8842885273311
 30
0.0
 10
269.4202457586725
 20
282.0770298131297
 30
0.0
 11
265.3282645393081
 21
281.68743436822
 31
0.0
 11
268.1536799722569
 21
283.8302184914164
 31
0.0
 11
268.7869628654645
 21
289.5280761901322
 31
0.0
 11
266.3025464656063
 21
285.6321052238876
 31
0.0
 11
266.7409734520687
 21
282.466627093278
 31
0.0
 11
268.2511079256295
 21
281.68743436822
 31
0.0
 11
269.4202457586725
 21
282.0770298131297
 31
0.0
  0
MTEXT
  5
4BAC
330
1A
100
AcDbEntity
  8
寸法線
 48
10.0
100
AcDbMText
 10
291.54285267119
 20
289.350841018207
 30
0.0
 40
8.0
 41
19.321844296148
 71
     1
 72
     5
  1
記事
  0
MTEXT
  5
4BAD
102
{ACAD_XDICTIONARY
360
4EC7
102
}
330
1A
100
AcDbEntity
  8
寸法線
 48
10.0
100
AcDbMText
 10
327.229484362172
 20
289.350841018207
 30
0.0
 40
8.0
 41
27.29696969697
 71
     1
 72
     5
  1
台数\P \P\P 
1001
ACADANNOTATIVE
1000
AnnotativeData
1002
{
1070
     1
1070
     0
1002
}
  0
LINE
  5
4BAE
330
1A
100
AcDbEntity
  8
寸法線
100
AcDbLine
 10
354.200280547426
 20
174.077649815618
 30
0.0
 11
354.200280547427
 21
292.568658676233
 31
0.0
  0
MTEXT
  5
4BAF
330
1A
100
AcDbEntity
  8
寸法線
 48
10.0
100
AcDbMText
 10
356.727187708367
 20
289.350841018207
 30
0.0
 40
8.0
 41
27.323158825411
 71
     1
 72
     5
  1
御仕様
  0
MTEXT
  5
4BB0
102
{ACAD_XDICTIONARY
360
4BB1
102
}
330
1A
100
AcDbEntity
  8
寸法線
 48
10.0
100
AcDbMText
 10
422.974315864544
 20
289.711877644839
 30
0.0
 40
8.0
 41
73.548130634236
 71
     2
 72
     5
  1
型式\P\W0.9;TSA-A5SA-065\PTSA-A5SA-070\PTSA-A5SA-075\PTSA-A5SA-080\PTSA-A5SA-085\PTSA-A5SA-090\PTSA-A5SA-095\PTSA-A5SA-100
1001
ACADANNOTATIVE
1000
AnnotativeData
1002
{
1070
     1
1070
     0
1002
}
  0
SPLINE
  5
4BB4
330
1A
100
AcDbEntity
  8
寸法線
 48
10.0
100
AcDbSpline
210
0.0
220
0.0
230
1.0
 70
  1064
 71
     3
 72
    13
 73
     9
 74
     7
 42
0.000000001
 43
0.0000000001
 44
0.0000000001
 40
0.0
 40
0.0
 40
0.0
 40
0.0
 40
3.546053604694618
 40
9.278996093298883
 40
13.89970108471581
 40
17.09539662994944
 40
18.79470455702445
 40
20.0270469945583
 40
20.0270469945583
 40
20.0270469945583
 40
20.0270469945583
 10
468.7007625056593
 20
281.68743436822
 30
0.0
 10
469.7552907747376
 20
282.1745631024241
 30
0.0
 10
472.5146860856535
 20
283.4492380299633
 30
0.0
 10
473.1796229920138
 20
292.347694902782
 30
0.0
 10
469.2463199728669
 20
285.9476080788397
 30
0.0
 10
469.4185561690685
 20
282.6985905202713
 30
0.0
 10
471.4908378667176
 20
281.4257714434615
 30
0.0
 10
472.4074419449537
 20
281.8842885273311
 30
0.0
 10
472.7927437250237
 20
282.0770298131297
 30
0.0
 11
468.7007625056593
 21
281.68743436822
 31
0.0
 11
471.5261779386081
 21
283.8302184914164
 31
0.0
 11
472.1594608318157
 21
289.5280761901322
 31
0.0
 11
469.6750444319575
 21
285.6321052238876
 31
0.0
 11
470.1134714184199
 21
282.466627093278
 31
0.0
 11
471.6236058919807
 21
281.68743436822
 31
0.0
 11
472.7927437250237
 21
282.0770298131297
 31
0.0
  0
SPLINE
  5
4BB5
330
1A
100
AcDbEntity
  8
寸法線
 48
10.0
100
AcDbSpline
210
0.0
220
0.0
230
1.0
 70
  1064
 71
     3
 72
    13
 73
     9
 74
     7
 42
0.000000001
 43
0.0000000001
 44
0.0000000001
 40
0.0
 40
0.0
 40
0.0
 40
0.0
 40
3.546053604694664
 40
9.278996093298929
 40
13.89970108471585
 40
17.09539662994948
 40
18.79470455702463
 40
20.02704699455848
 40
20.02704699455848
 40
20.02704699455848
 40
20.02704699455848
 10
494.7687360664607
 20
281.68743436822
 30
0.0
 10
495.8232643355391
 20
282.1745631024242
 30
0.0
 10
498.5826596464549
 20
283.4492380299632
 30
0.0
 10
499.2475965528151
 20
292.347694902782
 30
0.0
 10
495.3142935336686
 20
285.9476080788399
 30
0.0
 10
495.4865297298698
 20
282.6985905202712
 30
0.0
 10
497.5588114275191
 20
281.4257714434615
 30
0.0
 10
498.4754155057552
 20
281.8842885273311
 30
0.0
 10
498.8607172858252
 20
282.0770298131297
 30
0.0
 11
494.7687360664607
 21
281.68743436822
 31
0.0
 11
497.5941514994095
 21
283.8302184914164
 31
0.0
 11
498.2274343926171
 21
289.5280761901322
 31
0.0
 11
495.7430179927589
 21
285.6321052238876
 31
0.0
 11
496.1814449792213
 21
282.466627093278
 31
0.0
 11
497.6915794527822
 21
281.68743436822
 31
0.0
 11
498.8607172858252
 21
282.0770298131297
 31
0.0
  0
TEXT
  5
4BB6
330
1A
100
AcDbEntity
  8
寸法線
 48
10.0
100
AcDbText
 10
501.226764863945
 20
281.771762107564
 30
0.0
 40
5.2
  1
1
100
AcDbText
  0
SPLINE
  5
4BB7
330
1A
100
AcDbEntity
  8
寸法線
 48
10.0
100
AcDbSpline
210
0.0
220
0.0
230
1.0
 70
  1064
 71
     3
 72
    13
 73
     9
 74
     7
 42
0.000000001
 43
0.0000000001
 44
0.0000000001
 40
0.0
 40
0.0
 40
0.0
 40
0.0
 40
3.546053604694664
 40
9.278996093298929
 40
13.89970108471585
 40
17.09539662994949
 40
18.79470455702455
 40
20.0270469945584
 40
20.0270469945584
 40
20.0270469945584
 40
20.0270469945584
 10
517.7161105048089
 20
281.68743436822
 30
0.0
 10
518.7706387738872
 20
282.1745631024242
 30
0.0
 10
521.5300340848031
 20
283.4492380299632
 30
0.0
 10
522.1949709911634
 20
292.347694902782
 30
0.0
 10
518.2616679720167
 20
285.9476080788398
 30
0.0
 10
518.433904168218
 20
282.6985905202712
 30
0.0
 10
520.5061858658672
 20
281.4257714434615
 30
0.0
 10
521.4227899441033
 20
281.8842885273311
 30
0.0
 10
521.8080917241733
 20
282.0770298131297
 30
0.0
 11
517.7161105048089
 21
281.68743436822
 31
0.0
 11
520.5415259377577
 21
283.8302184914164
 31
0.0
 11
521.1748088309653
 21
289.5280761901322
 31
0.0
 11
518.690392431107
 21
285.6321052238876
 31
0.0
 11
519.1288194175695
 21
282.466627093278
 31
0.0
 11
520.6389538911303
 21
281.68743436822
 31
0.0
 11
521.8080917241733
 21
282.0770298131297
 31
0.0
  0
TEXT
  5
4BB8
330
1A
100
AcDbEntity
  8
寸法線
 48
10.0
100
AcDbText
 10
524.174139302293
 20
281.771762107564
 30
0.0
 40
5.2
  1
2
100
AcDbText
  0
SPLINE
  5
4BB9
330
1A
100
AcDbEntity
  8
寸法線
 48
10.0
100
AcDbSpline
210
0.0
220
0.0
230
1.0
 70
  1064
 71
     3
 72
    13
 73
     9
 74
     7
 42
0.000000001
 43
0.0000000001
 44
0.0000000001
 40
0.0
 40
0.0
 40
0.0
 40
0.0
 40
3.546053604694664
 40
9.278996093298929
 40
13.89970108471585
 40
17.09539662994949
 40
18.79470455702455
 40
20.0270469945584
 40
20.0270469945584
 40
20.0270469945584
 40
20.0270469945584
 10
543.5666856223207
 20
281.68743436822
 30
0.0
 10
544.6212138913991
 20
282.1745631024242
 30
0.0
 10
547.380609202315
 20
283.4492380299632
 30
0.0
 10
548.0455461086751
 20
292.347694902782
 30
0.0
 10
544.1122430895285
 20
285.9476080788398
 30
0.0
 10
544.2844792857297
 20
282.6985905202712
 30
0.0
 10
546.3567609833792
 20
281.4257714434615
 30
0.0
 10
547.2733650616151
 20
281.8842885273311
 30
0.0
 10
547.6586668416852
 20
282.0770298131297
 30
0.0
 11
543.5666856223207
 21
281.68743436822
 31
0.0
 11
546.3921010552696
 21
283.8302184914164
 31
0.0
 11
547.0253839484772
 21
289.5280761901322
 31
0.0
 11
544.5409675486189
 21
285.6321052238876
 31
0.0
 11
544.9793945350814
 21
282.466627093278
 31
0.0
 11
546.4895290086422
 21
281.68743436822
 31
0.0
 11
547.6586668416852
 21
282.0770298131297
 31
0.0
  0
TEXT
  5
4BBA
330
1A
100
AcDbEntity
  8
寸法線
 48
10.0
100
AcDbText
 10
550.024714419805
 20
281.771762107564
 30
0.0
 40
5.2
  1
3
100
AcDbText
  0
MTEXT
  5
4BBB
330
1A
100
AcDbEntity
  8
寸法線
 48
10.0
100
AcDbMText
 10
569.781273754203
 20
289.350841018207
 30
0.0
 40
8.0
 41
19.321844296148
 71
     1
 72
     5
  1
記事
  0
MTEXT
  5
4BBC
330
1A
100
AcDbEntity
  8
寸法線
 48
10.0
100
AcDbMText
 10
605.467905445184
 20
289.350841018207
 30
0.0
 40
8.0
 41
19.321844296148
 71
     1
 72
     5
  1
台数
  0
LINE
  5
4BC1
330
1A
100
AcDbEntity
  8
寸法線
100
AcDbLine
 10
386.200250547427
 20
174.077649815618
 30
0.0
 11
386.200250547426
 21
292.568658676233
 31
0.0
  0
LINE
  5
4BC2
330
1A
100
AcDbEntity
  8
寸法線
 48
10.0
100
AcDbLine
 10
459.748381181662
 20
292.568658676233
 30
0.0
 11
459.748381181662
 21
174.077649815618
 31
0.0
  0
LINE
  5
4BC3
330
1A
100
AcDbEntity
  8
寸法線
 48
10.0
100
AcDbLine
 10
486.028146566684
 20
292.568658676233
 30
0.0
 11
486.028146566684
 21
174.077649815618
 31
0.0
  0
LINE
  5
4BC4
330
1A
100
AcDbEntity
  8
寸法線
 48
10.0
100
AcDbLine
 10
512.889901103786
 20
292.568658676233
 30
0.0
 11
512.889901103786
 21
174.077649815618
 31
0.0
  0
LINE
  5
4BC5
330
1A
100
AcDbEntity
  8
寸法線
 48
10.0
100
AcDbLine
 10
533.751975899962
 20
292.568658676233
 30
0.0
 11
533.751975899962
 21
174.077649815618
 31
0.0
  0
LINE
  5
4BC6
330
1A
100
AcDbEntity
  8
寸法線
 48
10.0
100
AcDbLine
 10
559.602551017474
 20
292.568658676233
 30
0.0
 11
559.602551017474
 21
174.077649815618
 31
0.0
  0
LINE
  5
4BC7
330
1A
100
AcDbEntity
  8
寸法線
100
AcDbLine
 10
598.147883017474
 20
174.077649815618
 30
0.0
 11
598.147883017474
 21
292.568658676233
 31
0.0
  0
LINE
  5
4BC8
330
1A
100
AcDbEntity
  8
寸法線
100
AcDbLine
 10
629.904201581763
 20
174.077649815618
 30
0.0
 11
629.904201581763
 21
292.568658676233
 31
0.0
  0
TEXT
  5
4BC9
330
1A
100
AcDbEntity
  8
寸法線
 48
10.0
100
AcDbText
 10
468.616566926787
 20
160.948327698435
 30
0.0
 40
8.0
  1
○印が今回の貴社の御仕様です。
100
AcDbText
  0
LEADER
  5
4BCA
330
1A
100
AcDbEntity
  8
寸法線
 48
10.0
100
AcDbLeader
  3
ISO-25
 76
     3
 10
201.129202396548
 20
448.100553685314
 30
0.0
 10
201.129202396548
 20
520.813543417781
 30
0.0
 10
189.93453292731
 20
520.813543417781
 30
0.0
1001
ACAD
1000
DSTYLE
1002
{
1070
     5
1000
OPEN30
1070
   147
1040
0.625
1070
    77
1070
     0
1070
    41
1040
6.0
1070
    47
1040
0.1
1070
    48
1040
0.1
1070
    73
1070
     0
1070
   140
1040
8.0
1070
   271
1070
     1
1070
   272
1070
     1
1070
   341
1005
2AF4
1070
   342
1005
2AF4
1002
}
  0
LEADER
  5
4BCF
330
1A
100
AcDbEntity
  8
寸法線
 48
10.0
100
AcDbLeader
  3
ISO-25
 76
     3
 10
230.108137777204
 20
448.195191836421
 30
0.0
 10
230.108137777204
 20
521.478614371531
 30
0.0
 10
238.591056978914
 20
521.478614371531
 30
0.0
1001
ACAD
1000
DSTYLE
1002
{
1070
     5
1000
OPEN30
1070
   147
1040
0.625
1070
    77
1070
     0
1070
    41
1040
6.0
1070
    47
1040
0.1
1070
    48
1040
0.1
1070
    73
1070
     0
1070
   140
1040
8.0
1070
   271
1070
     1
1070
   272
1070
     1
1070
   341
1005
2AF4
1070
   342
1005
2AF4
1002
}
  0
LEADER
  5
4BD0
330
1A
100
AcDbEntity
  8
寸法線
 48
10.0
100
AcDbLeader
  3
ISO-25
 76
     3
 10
158.06564378583
 20
448.463628038671
 30
0.0
 10
129.333174875438
 20
521.61032724072
 30
0.0
 10
119.071578995081
 20
521.61032724072
 30
0.0
1001
ACAD
1000
DSTYLE
1002
{
1070
     5
1000
OPEN30
1070
   147
1040
0.625
1070
    77
1070
     0
1070
    41
1040
6.0
1070
    47
1040
0.1
1070
    48
1040
0.1
1070
    73
1070
     0
1070
   140
1040
8.0
1070
   271
1070
     1
1070
   272
1070
     1
1070
   341
1005
2AF4
1070
   342
1005
2AF4
1002
}
  0
LEADER
  5
4BD1
330
1A
100
AcDbEntity
  8
寸法線
 48
10.0
100
AcDbLeader
  3
ISO-25
 76
     3
 10
69.390360525092
 20
448.199766091001
 30
0.0
 10
47.627284073432
 20
521.746308244167
 30
0.0
 10
38.460258628163
 20
521.746308244167
 30
0.0
1001
ACAD
1000
DSTYLE
1002
{
1070
     5
1000
OPEN30
1070
   147
1040
0.625
1070
    77
1070
     0
1070
    41
1040
6.0
1070
    47
1040
0.1
1070
    48
1040
0.1
1070
    73
1070
     0
1070
   140
1040
8.0
1070
   271
1070
     1
1070
   272
1070
     1
1070
   341
1005
2AF4
1070
   342
1005
2AF4
1002
}
  0
LEADER
  5
4BD2
330
1A
100
AcDbEntity
  8
寸法線
 48
10.0
100
AcDbLeader
  3
ISO-25
 76
     3
 10
418.190774961944
 20
370.978821705987
 30
0.0
 10
440.562303624032
 20
301.331293357419
 30
0.0
 10
453.684064209941
 20
301.331293357419
 30
0.0
1001
ACAD
1000
DSTYLE
1002
{
1070
     5
1000
OPEN30
1070
   147
1040
0.625
1070
    77
1070
     0
1070
    41
1040
6.0
1070
    47
1040
0.1
1070
    48
1040
0.1
1070
    73
1070
     0
1070
   140
1040
8.0
1070
   271
1070
     1
1070
   272
1070
     1
1070
   341
1005
2AF4
1070
   342
1005
2AF4
1002
}
  0
LINE
  5
4BD4
330
1A
100
AcDbEntity
  8
寸法線
100
AcDbLine
 10
75.961859464414
 20
174.077649815618
 30
0.0
 11
629.904201581763
 21
174.077649815618
 31
0.0
  0
LEADER
  5
4C6C
330
1A
100
AcDbEntity
  8
寸法線
 48
10.0
100
AcDbLeader
  3
ISO-25
 76
     3
 10
302.240584489791
 20
469.688912043499
 30
0.0
 10
304.158335505267
 20
521.478614371531
 30
0.0
 10
312.641254706976
 20
521.478614371531
 30
0.0
1001
ACAD
1000
DSTYLE
1002
{
1070
     5
1000
OPEN30
1070
   147
1040
0.625
1070
    77
1070
     0
1070
    41
1040
6.0
1070
    47
1040
0.1
1070
    48
1040
0.1
1070
    73
1070
     0
1070
   140
1040
8.0
1070
   271
1070
     1
1070
   272
1070
     1
1070
   341
1005
2AF4
1070
   342
1005
2AF4
1002
}
  0
LEADER
  5
4C6D
330
1A
100
AcDbEntity
  8
寸法線
 48
10.0
100
AcDbLeader
  3
ISO-25
 76
     3
 10
374.155881158941
 20
489.5747775758
 30
0.0
 10
367.799870902076
 20
521.478614371531
 30
0.0
 10
376.282790103785
 20
521.478614371531
 30
0.0
1001
ACAD
1000
DSTYLE
1002
{
1070
     5
1000
OPEN30
1070
   147
1040
0.625
1070
    77
1070
     0
1070
    41
1040
6.0
1070
    47
1040
0.1
1070
    48
1040
0.1
1070
    73
1070
     0
1070
   140
1040
8.0
1070
   271
1070
     1
1070
   272
1070
     1
1070
   341
1005
2AF4
1070
   342
1005
2AF4
1002
}
  0
LEADER
  5
4C6E
330
1A
100
AcDbEntity
  8
寸法線
 48
10.0
100
AcDbLeader
  3
ISO-25
 76
     3
 10
435.613073880234
 20
494.688468974133
 30
0.0
 10
430.251844889598
 20
521.478614371531
 30
0.0
 10
438.734764091308
 20
521.478614371531
 30
0.0
1001
ACAD
1000
DSTYLE
1002
{
1070
     5
1000
OPEN30
1070
   147
1040
0.625
1070
    77
1070
     0
1070
    41
1040
6.0
1070
    47
1040
0.1
1070
    48
1040
0.1
1070
    73
1070
     0
1070
   140
1040
8.0
1070
   271
1070
     1
1070
   272
1070
     1
1070
   341
1005
2AF4
1070
   342
1005
2AF4
1002
}
  0
LEADER
  5
4C6F
330
1A
100
AcDbEntity
  8
寸法線
 48
10.0
100
AcDbLeader
  3
ISO-25
 76
     3
 10
312.319485725197
 20
455.260218164548
 30
0.0
 10
330.440148863671
 20
493.484624300616
 30
0.0
 10
338.923068065381
 20
493.484624300616
 30
0.0
1001
ACAD
1000
DSTYLE
1002
{
1070
     5
1000
OPEN30
1070
   147
1040
0.625
1070
    77
1070
     0
1070
    41
1040
6.0
1070
    47
1040
0.1
1070
    48
1040
0.1
1070
    73
1070
     0
1070
   140
1040
8.0
1070
   271
1070
     1
1070
   272
1070
     1
1070
   341
1005
2AF4
1070
   342
1005
2AF4
1002
}
  0
LEADER
  5
4C70
330
1A
100
AcDbEntity
  8
寸法線
 48
10.0
100
AcDbLeader
  3
ISO-25
 76
     3
 10
458.406086792233
 20
484.626921053854
 30
0.0
 10
479.618643374973
 20
521.478614371531
 30
0.0
 10
488.101562576683
 20
521.478614371531
 30
0.0
1001
ACAD
1000
DSTYLE
1002
{
1070
     5
1000
OPEN30
1070
   147
1040
0.625
1070
    77
1070
     0
1070
    41
1040
6.0
1070
    47
1040
0.1
1070
    48
1040
0.1
1070
    73
1070
     0
1070
   140
1040
8.0
1070
   271
1070
     1
1070
   272
1070
     1
1070
   341
1005
2AF4
1070
   342
1005
2AF4
1002
}
  0
MTEXT
  5
4D3F
102
{ACAD_XDICTIONARY
360
4D40
102
}
330
1A
100
AcDbEntity
  8
寸法線
 48
10.0
100
AcDbMText
 10
193.948592114639
 20
276.174579053505
 30
0.0
 40
8.0
 41
23.854899029718
 71
     2
 72
     5
  1
250\P300\P350\P400\P450\P500\P550\P600
1001
ACADANNOTATIVE
1000
AnnotativeData
1002
{
1070
     1
1070
     0
1002
}
  0
MTEXT
  5
4D43
102
{ACAD_XDICTIONARY
360
4D44
102
}
330
1A
100
AcDbEntity
  8
寸法線
 48
10.0
100
AcDbMText
 10
219.223203860836
 20
276.174579053505
 30
0.0
 40
8.0
 41
23.854899029718
 71
     2
 72
     5
  1
100\P100\P100\P100\P100\P100\P150\P150
1001
ACADANNOTATIVE
1000
AnnotativeData
1002
{
1070
     1
1070
     0
1002
}
  0
MTEXT
  5
4D47
102
{ACAD_XDICTIONARY
360
4D48
102
}
330
1A
100
AcDbEntity
  8
寸法線
 48
10.0
100
AcDbMText
 10
244.26236192056
 20
276.174579053505
 30
0.0
 40
8.0
 41
23.854899029718
 71
     2
 72
     5
  1
50\P50\P50\P50\P50\P50\P50\P50
1001
ACADANNOTATIVE
1000
AnnotativeData
1002
{
1070
     1
1070
     0
1002
}
  0
MTEXT
  5
4D4B
102
{ACAD_XDICTIONARY
360
4D4C
102
}
330
1A
100
AcDbEntity
  8
寸法線
 48
10.0
100
AcDbMText
 10
269.362520199974
 20
276.174579053505
 30
0.0
 40
8.0
 41
23.854899029718
 71
     2
 72
     5
  1
100\P150\P200\P250\P300\P350\P350\P400
1001
ACADANNOTATIVE
1000
AnnotativeData
1002
{
1070
     1
1070
     0
1002
}
  0
MTEXT
  5
4D4F
102
{ACAD_XDICTIONARY
360
4D50
102
}
330
1A
100
AcDbEntity
  8
寸法線
 48
10.0
100
AcDbMText
 10
499.300420835304
 20
275.759977784276
 30
0.0
 40
8.0
 41
23.854899029718
 71
     2
 72
     5
  1
150\P150\P150\P150\P150\P150\P150\P150
1001
ACADANNOTATIVE
1000
AnnotativeData
1002
{
1070
     1
1070
     0
1002
}
  0
MTEXT
  5
4D53
102
{ACAD_XDICTIONARY
360
4D54
102
}
330
1A
100
AcDbEntity
  8
寸法線
 48
10.0
100
AcDbMText
 10
523.827440995886
 20
275.759977784276
 30
0.0
 40
8.0
 41
23.854899029718
 71
     2
 72
     5
  1
50\P50\P50\P50\P50\P50\P50\P50
1001
ACADANNOTATIVE
1000
AnnotativeData
1002
{
1070
     1
1070
     0
1002
}
  0
MTEXT
  5
4D57
102
{ACAD_XDICTIONARY
360
4D58
102
}
330
1A
100
AcDbEntity
  8
寸法線
 48
10.0
100
AcDbMText
 10
546.968569215582
 20
275.759977784276
 30
0.0
 40
8.0
 41
23.854899029718
 71
     2
 72
     5
  1
450\P500\P550\P600\P650\P700\P750\P800
1001
ACADANNOTATIVE
1000
AnnotativeData
1002
{
1070
     1
1070
     0
1002
}
  0
MTEXT
  5
4D5B
102
{ACAD_XDICTIONARY
360
4D5C
102
}
330
1A
100
AcDbEntity
  8
寸法線
 48
10.0
100
AcDbMText
 10
472.310159761962
 20
275.759977784276
 30
0.0
 40
8.0
 41
23.854899029718
 71
     2
 72
     5
  1
650\P700\P750\P800\P850\P900\P950\P1000
1001
ACADANNOTATIVE
1000
AnnotativeData
1002
{
1070
     1
1070
     0
1002
}
  0
ARC
  5
4D65
330
1A
100
AcDbEntity
  8
外形線
 48
10.0
100
AcDbCircle
 10
350.037623110288
 20
416.176455305608
 30
0.0
 40
1.0
100
AcDbArc
 50
180.0
 51
268.999999999998
  0
ARC
  5
4D66
330
1A
100
AcDbEntity
  8
外形線
 48
10.0
100
AcDbCircle
 10
350.037623110288
 20
458.724456412938
 30
0.0
 40
1.0
100
AcDbArc
 50
91.000000000002
 51
180.0
  0
LINE
  5
4D67
330
1A
100
AcDbEntity
  8
外形線
 48
10.0
100
AcDbLine
 10
349.037623110288
 20
458.724456412938
 30
0.0
 11
349.037623110288
 21
416.176455305608
 31
0.0
  0
LINE
  5
4D68
330
1A
100
AcDbEntity
  8
外形線
 48
10.0
100
AcDbLine
 10
363.165405951357
 20
460.708533963673
 30
0.0
 11
369.417839195425
 21
485.785674007185
 31
0.0
  0
ARC
  5
4D69
330
1A
100
AcDbEntity
  8
外形線
 48
10.0
100
AcDbCircle
 10
374.269317826804
 20
484.576064529187
 30
0.0
 40
5.0
100
AcDbArc
 50
91.3
 51
166.000000000005
  0
ARC
  5
4D6A
330
1A
100
AcDbEntity
  8
外形線
 48
10.0
100
AcDbCircle
 10
362.195110225081
 20
460.950455859273
 30
0.0
 40
1.0
100
AcDbArc
 50
270.0
 51
346.000000000009
  0
ARC
  5
4D6B
330
1A
100
AcDbEntity
  8
外形線
 48
10.0
100
AcDbCircle
 10
362.195110225081
 20
460.950455859273
 30
0.0
 40
1.0
100
AcDbArc
 50
270.0
 51
346.000000000009
  0
LINE
  5
4D6C
330
1A
100
AcDbEntity
  8
外形線
 48
10.0
100
AcDbLine
 10
350.02017070385
 20
459.724304108095
 30
0.0
 11
362.195110225081
 21
459.950455859273
 31
0.0
  0
ARC
  5
4D6D
330
1A
100
AcDbEntity
  8
外形線
 48
10.0
100
AcDbCircle
 10
451.038662339989
 20
494.699904451826
 30
0.0
 40
0.5
100
AcDbArc
 50
359.999254274577
 51
88.999999999998
  0
ARC
  5
4D6E
330
1A
100
AcDbEntity
  8
細線
 48
10.0
100
AcDbCircle
 10
452.037623110288
 20
450.583497610742
 30
0.0
 40
0.5
100
AcDbArc
 50
180.0
 51
264.089361084594
  0
ARC
  5
4D6F
330
1A
100
AcDbEntity
  8
外形線
 48
10.0
100
AcDbCircle
 10
452.037623110288
 20
443.209107227715
 30
0.0
 40
0.5
100
AcDbArc
 50
91.000000000002
 51
180.0
  0
ARC
  5
4D70
330
1A
100
AcDbEntity
  8
細線
 48
10.0
100
AcDbCircle
 10
452.037623110288
 20
450.842316655844
 30
0.0
 40
0.5
100
AcDbArc
 50
180.0
 51
264.089361084594
  0
ARC
  5
4D71
330
1A
100
AcDbEntity
  8
細線
 48
10.0
100
AcDbCircle
 10
452.037623110288
 20
472.476882023446
 30
0.0
 40
0.5
100
AcDbArc
 50
180.0
 51
254.206830951723
  0
ARC
  5
4D72
330
1A
100
AcDbEntity
  8
細線
 48
10.0
100
AcDbCircle
 10
452.037623110288
 20
473.183988804632
 30
0.0
 40
0.5
100
AcDbArc
 50
180.0
 51
254.206830951723
  0
ARC
  5
4D73
330
1A
100
AcDbEntity
  8
細線
 48
10.0
100
AcDbCircle
 10
452.037623110288
 20
485.123659043702
 30
0.0
 40
0.5
100
AcDbArc
 50
180.0
 51
248.874947125992
  0
ARC
  5
4D74
330
1A
100
AcDbEntity
  8
細線
 48
10.0
100
AcDbCircle
 10
452.037623110288
 20
486.089584869991
 30
0.0
 40
0.5
100
AcDbArc
 50
180.0
 51
248.874947125992
  0
ARC
  5
4D75
330
1A
100
AcDbEntity
  8
外形線
 48
10.0
100
AcDbCircle
 10
452.037511032368
 20
487.395751312369
 30
0.0
 40
0.5
100
AcDbArc
 50
180.019033969441
 51
248.025023881981
  0
LINE
  5
4D76
330
1A
100
AcDbEntity
  8
外形線
 48
10.0
100
AcDbLine
 10
451.537623110288
 20
486.089584869991
 30
0.0
 11
451.537623110288
 21
487.058292941734
 31
0.0
  0
LINE
  5
4D77
330
1A
100
AcDbEntity
  8
外形線
 48
10.0
100
AcDbLine
 10
451.537623110288
 20
485.123659043702
 30
0.0
 11
451.537623110288
 21
485.746747173725
 31
0.0
  0
LINE
  5
4D78
330
1A
100
AcDbEntity
  8
外形線
 48
10.0
100
AcDbLine
 10
451.537623110288
 20
473.183988804632
 30
0.0
 11
451.537623110288
 21
484.780821347436
 31
0.0
  0
LINE
  5
4D79
330
1A
100
AcDbEntity
  8
外形線
 48
10.0
100
AcDbLine
 10
451.537623110288
 20
472.476882023446
 30
0.0
 11
451.537623110288
 21
472.805794918599
 31
0.0
  0
LINE
  5
4D7A
330
1A
100
AcDbEntity
  8
外形線
 48
10.0
100
AcDbLine
 10
451.537623110288
 20
450.842316655844
 30
0.0
 11
451.537623110288
 21
473.183988804632
 31
0.0
  0
LINE
  5
4D7B
330
1A
100
AcDbEntity
  8
外形線
 48
10.0
100
AcDbLine
 10
451.537623110288
 20
450.583497610742
 30
0.0
 11
451.537623110288
 21
451.463824094839
 31
0.0
  0
LINE
  5
4D7C
330
1A
100
AcDbEntity
  8
外形線
 48
10.0
100
AcDbLine
 10
451.537623110288
 20
443.209107227715
 30
0.0
 11
451.537623110288
 21
450.842316655844
 31
0.0
  0
ARC
  5
4D7D
330
1A
100
AcDbEntity
  8
外形線
 48
10.0
100
AcDbCircle
 10
452.037623110288
 20
431.691804490831
 30
0.0
 40
0.5
100
AcDbArc
 50
180.0
 51
268.999999999998
  0
LINE
  5
4D7E
330
1A
100
AcDbEntity
  8
外形線
 48
10.0
100
AcDbLine
 10
451.537623110288
 20
431.691804490831
 30
0.0
 11
451.537623110288
 21
443.209107227715
 31
0.0
  0
ARC
  5
4D7F
330
1A
100
AcDbEntity
  8
外形線
 48
10.0
100
AcDbCircle
 10
463.535743854
 20
430.490951718653
 30
0.0
 40
0.5
100
AcDbArc
 50
0.002863323122
 51
88.999999999998
  0
ARC
  5
4D80
330
1A
100
AcDbEntity
  8
外形線
 48
10.0
100
AcDbCircle
 10
463.535743854
 20
444.409959999893
 30
0.0
 40
0.5
100
AcDbArc
 50
271.000000000002
 51
359.997136676878
  0
ARC
  5
4D81
330
1A
100
AcDbEntity
  8
細線
 48
10.0
100
AcDbCircle
 10
463.537457318408
 20
448.646421511478
 30
0.0
 40
0.5
100
AcDbArc
 50
359.97893674797
 51
84.089361084594
  0
ARC
  5
4D82
330
1A
100
AcDbEntity
  8
細線
 48
10.0
100
AcDbCircle
 10
463.535942642197
 20
448.387759277195
 30
0.0
 40
0.5
100
AcDbArc
 50
359.997136676878
 51
84.089361084594
  0
ARC
  5
4D83
330
1A
100
AcDbEntity
  8
細線
 48
10.0
100
AcDbCircle
 10
463.537502875538
 20
479.608400974865
 30
0.0
 40
0.5
100
AcDbArc
 50
359.997136676878
 51
68.874947125992
  0
ARC
  5
4D84
330
1A
100
AcDbEntity
  8
細線
 48
10.0
100
AcDbCircle
 10
463.537551146185
 20
480.57430815081
 30
0.0
 40
0.5
100
AcDbArc
 50
359.997136676878
 51
68.874947125992
  0
ARC
  5
4D85
330
1A
100
AcDbEntity
  8
外形線
 48
10.0
100
AcDbCircle
 10
463.537606247978
 20
481.676908193316
 30
0.0
 40
0.5
100
AcDbArc
 50
359.997136676878
 51
68.025023881981
  0
LINE
  5
4D86
330
1A
100
AcDbEntity
  8
外形線
 48
10.0
100
AcDbLine
 10
463.544470057219
 20
443.910036152315
 30
0.0
 11
452.028896907069
 21
443.709031075293
 31
0.0
  0
LINE
  5
4D87
330
1A
100
AcDbEntity
  8
外形線
 48
10.0
100
AcDbLine
 10
463.544470057219
 20
430.990875566231
 30
0.0
 11
452.028896907069
 21
431.191880643252
 31
0.0
  0
LINE
  5
4D88
330
1A
100
AcDbEntity
  8
外形線
 48
10.0
100
AcDbLine
 10
451.85041022689
 20
486.932077624751
 30
0.0
 11
463.724707053457
 21
482.140581880934
 31
0.0
  0
LINE
  5
4D89
330
1A
100
AcDbEntity
  8
細線
 48
10.0
100
AcDbLine
 10
463.587431259954
 20
448.88510113371
 30
0.0
 11
451.986134492531
 21
450.086155754228
 31
0.0
  0
LINE
  5
4D8A
330
1A
100
AcDbEntity
  8
細線
 48
10.0
100
AcDbLine
 10
463.588945936165
 20
449.143763367993
 30
0.0
 11
451.986134492531
 21
450.34497479933
 31
0.0
  0
LINE
  5
4D8B
330
1A
100
AcDbEntity
  8
細線
 48
10.0
100
AcDbLine
 10
463.673050105768
 20
469.373377830161
 30
0.0
 11
451.9015403468
 21
472.702863580308
 31
0.0
  0
LINE
  5
4D8C
330
1A
100
AcDbEntity
  8
細線
 48
10.0
100
AcDbLine
 10
463.717705231748
 20
480.07479899246
 30
0.0
 11
451.857420754078
 21
484.657261026107
 31
0.0
  0
LINE
  5
4D8D
330
1A
100
AcDbEntity
  8
細線
 48
10.0
100
AcDbLine
 10
463.717753502395
 20
481.040706168405
 30
0.0
 11
451.857420754078
 21
485.623186852396
 31
0.0
  0
LINE
  5
4D8E
330
1A
100
AcDbEntity
  8
外形線
 48
10.0
100
AcDbLine
 10
437.038659013918
 20
495.450455859273
 30
0.0
 11
451.047388543208
 21
495.199828299404
 31
0.0
  0
LINE
  5
4D8F
330
1A
100
AcDbEntity
  8
外形線
 48
10.0
100
AcDbLine
 10
437.038659013918
 20
495.450455859273
 30
0.0
 11
436.538659013918
 21
494.9443515829
 31
0.0
  0
LINE
  5
4D90
330
1A
100
AcDbEntity
  8
外形線
 48
10.0
100
AcDbLine
 10
436.538659013918
 20
493.956560135646
 30
0.0
 11
436.538659013918
 21
493.456560135646
 31
0.0
  0
ARC
  5
4D91
330
1A
100
AcDbEntity
  8
外形線
 48
10.0
100
AcDbCircle
 10
427.137623110288
 20
495.17823430624
 30
0.0
 40
4.4
100
AcDbArc
 50
271.299999999999
 51
0.0
  0
LINE
  5
4D92
330
1A
100
AcDbEntity
  8
外形線
 48
10.0
100
AcDbLine
 10
374.155881158941
 20
489.5747775758
 30
0.0
 11
427.237447378008
 21
490.77936682522
 31
0.0
  0
LINE
  5
4D93
330
1A
100
AcDbEntity
  8
外形線
 48
10.0
100
AcDbLine
 10
431.537623110287
 20
495.450455859273
 30
0.0
 11
431.537623110287
 21
495.17823430624
 31
0.0
  0
LINE
  5
4D94
330
1A
100
AcDbEntity
  8
外形線
 48
10.0
100
AcDbLine
 10
434.537623110287
 20
495.450455859273
 30
0.0
 11
431.537623110287
 21
495.450455859273
 31
0.0
  0
ARC
  5
4D95
330
1A
100
AcDbEntity
  8
外形線
 48
10.0
100
AcDbCircle
 10
436.037623110287
 20
492.925455859273
 30
0.0
 40
1.500000000000156
100
AcDbArc
 50
70.528779365512
 51
179.999999999991
  0
LINE
  5
4D96
330
1A
100
AcDbEntity
  8
細線
 48
10.0
100
AcDbLine
 10
437.038659013918
 20
495.450455859273
 30
0.0
 11
437.038659013918
 21
379.450455859273
 31
0.0
  0
LINE
  5
4D97
330
1A
100
AcDbEntity
  8
細線
 48
10.0
100
AcDbLine
 10
437.038659013918
 20
495.4443515829
 30
0.0
 11
437.038659013918
 21
379.456560135646
 31
0.0
  0
LINE
  5
4D98
330
1A
100
AcDbEntity
  8
外形線
 48
10.0
100
AcDbLine
 10
451.537623110288
 20
415.72011935557
 30
0.0
 11
451.537623110288
 21
402.4240296951
 31
0.0
  0
ARC
  5
4D99
330
1A
100
AcDbEntity
  8
細線
 48
10.0
100
AcDbCircle
 10
452.037623110288
 20
389.777252674844
 30
0.0
 40
0.5
100
AcDbArc
 50
111.125052874008
 51
180.0
  0
ARC
  5
4D9A
330
1A
100
AcDbEntity
  8
細線
 48
10.0
100
AcDbCircle
 10
452.037164412801
 20
388.811149621455
 30
0.0
 40
0.5
100
AcDbArc
 50
111.125052874008
 51
179.923306313171
  0
ARC
  5
4D9B
330
1A
100
AcDbEntity
  8
細線
 48
10.0
100
AcDbCircle
 10
452.037623110288
 20
402.4240296951
 30
0.0
 40
0.5
100
AcDbArc
 50
105.793169048277
 51
180.0
  0
ARC
  5
4D9C
330
1A
100
AcDbEntity
  8
細線
 48
10.0
100
AcDbCircle
 10
452.037623110288
 20
401.716922913914
 30
0.0
 40
0.5
100
AcDbArc
 50
105.793169048277
 51
180.0
  0
ARC
  5
4D9D
330
1A
100
AcDbEntity
  8
細線
 48
10.0
100
AcDbCircle
 10
452.037623110288
 20
424.058595062701
 30
0.0
 40
0.5
100
AcDbArc
 50
95.910638915406
 51
180.0
  0
ARC
  5
4D9E
330
1A
100
AcDbEntity
  8
細線
 48
10.0
100
AcDbCircle
 10
452.037623110288
 20
424.317414107804
 30
0.0
 40
0.5
100
AcDbArc
 50
95.910638915406
 51
180.0
  0
LINE
  5
4D9F
330
1A
100
AcDbEntity
  8
外形線
 48
10.0
100
AcDbLine
 10
451.537623110288
 20
424.058595062701
 30
0.0
 11
451.537623110288
 21
431.691804490831
 31
0.0
  0
LINE
  5
4DA0
330
1A
100
AcDbEntity
  8
外形線
 48
10.0
100
AcDbLine
 10
451.537623110288
 20
424.509503604148
 30
0.0
 11
451.537623110288
 21
424.768322649251
 31
0.0
  0
LINE
  5
4DA1
330
1A
100
AcDbEntity
  8
外形線
 48
10.0
100
AcDbLine
 10
451.537623110288
 20
415.72011935557
 30
0.0
 11
451.537623110288
 21
424.058595062701
 31
0.0
  0
LINE
  5
4DA2
330
1A
100
AcDbEntity
  8
外形線
 48
10.0
100
AcDbLine
 10
451.537623110288
 20
401.716922913914
 30
0.0
 11
451.537623110288
 21
402.4240296951
 31
0.0
  0
LINE
  5
4DA3
330
1A
100
AcDbEntity
  8
外形線
 48
10.0
100
AcDbLine
 10
451.537623110288
 20
389.777252674844
 30
0.0
 11
451.537623110288
 21
401.716922913914
 31
0.0
  0
LINE
  5
4DA4
330
1A
100
AcDbEntity
  8
外形線
 48
10.0
100
AcDbLine
 10
451.537164860735
 20
388.811818899931
 30
0.0
 11
451.537623110288
 21
389.777252674844
 31
0.0
  0
LINE
  5
4DA5
330
1A
100
AcDbEntity
  8
外形線
 48
10.0
100
AcDbLine
 10
451.535414690055
 20
387.504314493748
 30
0.0
 11
451.537164860735
 21
388.811818899931
 31
0.0
  0
ARC
  5
4DA6
330
1A
100
AcDbEntity
  8
外形線
 48
10.0
100
AcDbCircle
 10
452.035414690055
 20
387.504314493748
 30
0.0
 40
0.5
100
AcDbArc
 50
111.974976118019
 51
180.0
  0
ARC
  5
4DA7
330
1A
100
AcDbEntity
  8
細線
 48
10.0
100
AcDbCircle
 10
463.537591608439
 20
406.715942463031
 30
0.0
 40
0.5
100
AcDbArc
 50
285.793169048277
 51
0.004772330151
  0
ARC
  5
4DA8
330
1A
100
AcDbEntity
  8
細線
 48
10.0
100
AcDbCircle
 10
463.537623110288
 20
406.008844591911
 30
0.0
 40
0.5
100
AcDbArc
 50
285.793169048277
 51
0.0
  0
ARC
  5
4DA9
330
1A
100
AcDbEntity
  8
細線
 48
10.0
100
AcDbCircle
 10
463.537623110288
 20
395.292557198821
 30
0.0
 40
0.5
100
AcDbArc
 50
291.125052874008
 51
0.0
  0
ARC
  5
4DAA
330
1A
100
AcDbEntity
  8
細線
 48
10.0
100
AcDbCircle
 10
463.537623110288
 20
394.32663137253
 30
0.0
 40
0.5
100
AcDbArc
 50
291.125052874008
 51
0.0
  0
ARC
  5
4DAB
330
1A
100
AcDbEntity
  8
外形線
 48
10.0
100
AcDbCircle
 10
463.537623110288
 20
393.224010329479
 30
0.0
 40
0.5
100
AcDbArc
 50
291.974976118019
 51
0.0
  0
LINE
  5
4DAC
330
1A
100
AcDbEntity
  8
外形線
 48
10.0
100
AcDbLine
 10
464.037623110288
 20
394.32663137253
 30
0.0
 11
464.037623110288
 21
393.224010329479
 31
0.0
  0
LINE
  5
4DAD
330
1A
100
AcDbEntity
  8
外形線
 48
10.0
100
AcDbLine
 10
464.037623110288
 20
395.292557198821
 30
0.0
 11
464.037623110288
 21
394.32663137253
 31
0.0
  0
LINE
  5
4DAE
330
1A
100
AcDbEntity
  8
外形線
 48
10.0
100
AcDbLine
 10
464.037623110288
 20
406.008844591911
 30
0.0
 11
464.037623110288
 21
395.292557198821
 31
0.0
  0
LINE
  5
4DAF
330
1A
100
AcDbEntity
  8
外形線
 48
10.0
100
AcDbLine
 10
464.037591606705
 20
406.715984109468
 30
0.0
 11
464.037623110288
 21
406.008844591911
 31
0.0
  0
LINE
  5
4DB0
330
1A
100
AcDbEntity
  8
外形線
 48
10.0
100
AcDbLine
 10
464.035942641572
 20
426.513177428559
 30
0.0
 11
464.037591606705
 21
406.715984109468
 31
0.0
  0
ARC
  5
4DB1
330
1A
100
AcDbEntity
  8
細線
 48
10.0
100
AcDbCircle
 10
463.535891668145
 20
426.254328119026
 30
0.0
 40
0.5
100
AcDbArc
 50
275.910638915406
 51
0.001999028164
  0
ARC
  5
4DB2
330
1A
100
AcDbEntity
  8
細線
 48
10.0
100
AcDbCircle
 10
463.535942642197
 20
426.513152441351
 30
0.0
 40
0.5
100
AcDbArc
 50
275.910638915406
 51
0.002863323122
  0
ARC
  5
4DB3
330
1A
100
AcDbEntity
  8
外形線
 48
10.0
100
AcDbCircle
 10
451.036583895794
 20
380.200970987341
 30
0.0
 40
0.5
100
AcDbArc
 50
271.000000000002
 51
359.984453673186
  0
LINE
  5
4DB4
330
1A
100
AcDbEntity
  8
外形線
 48
10.0
100
AcDbLine
 10
464.035743853376
 20
430.490976705861
 30
0.0
 11
464.035891667841
 21
426.254345563837
 31
0.0
  0
LINE
  5
4DB5
330
1A
100
AcDbEntity
  8
外形線
 48
10.0
100
AcDbLine
 10
451.848313884577
 20
387.967988181366
 30
0.0
 11
463.724723915766
 21
392.760336641861
 31
0.0
  0
LINE
  5
4DB6
330
1A
100
AcDbEntity
  8
細線
 48
10.0
100
AcDbLine
 10
463.717825466498
 20
394.826159181226
 30
0.0
 11
451.857420754078
 21
390.243650692439
 31
0.0
  0
LINE
  5
4DB7
330
1A
100
AcDbEntity
  8
細線
 48
10.0
100
AcDbLine
 10
463.717825466498
 20
393.860233354935
 30
0.0
 11
451.856962056591
 21
389.27754763905
 31
0.0
  0
LINE
  5
4DB8
330
1A
100
AcDbEntity
  8
細線
 48
10.0
100
AcDbLine
 10
463.673705873775
 20
405.527719367587
 30
0.0
 11
451.9015403468
 21
402.198048138238
 31
0.0
  0
LINE
  5
4DB9
330
1A
100
AcDbEntity
  8
細線
 48
10.0
100
AcDbLine
 10
463.673674371927
 20
406.234817238706
 30
0.0
 11
451.9015403468
 21
402.905154919425
 31
0.0
  0
LINE
  5
4DBA
330
1A
100
AcDbEntity
  8
細線
 48
10.0
100
AcDbLine
 10
463.587380285902
 20
425.756986262511
 30
0.0
 11
451.986134492531
 21
424.555936919216
 31
0.0
  0
LINE
  5
4DBB
330
1A
100
AcDbEntity
  8
細線
 48
10.0
100
AcDbLine
 10
463.587431259954
 20
426.015810584836
 30
0.0
 11
451.986134492531
 21
424.814755964318
 31
0.0
  0
LINE
  5
4DBC
330
1A
100
AcDbEntity
  8
外形線
 48
10.0
100
AcDbLine
 10
451.538567488847
 20
387.511408635866
 30
0.0
 11
451.536583877389
 21
380.200835320048
 31
0.0
  0
LINE
  5
4DBD
330
1A
100
AcDbEntity
  8
外形線
 48
10.0
100
AcDbLine
 10
451.538662339947
 20
494.699897944144
 30
0.0
 11
451.536583877389
 21
380.200835320048
 31
0.0
  0
LINE
  5
4DBE
330
1A
100
AcDbEntity
  8
外形線
 48
10.0
100
AcDbLine
 10
436.538659013918
 20
494.9443515829
 30
0.0
 11
436.538659013918
 21
379.956560135646
 31
0.0
  0
LINE
  5
4DBF
330
1A
100
AcDbEntity
  8
外形線
 48
10.0
100
AcDbLine
 10
437.038659013918
 20
379.450455859273
 30
0.0
 11
451.045310099013
 21
379.701047139763
 31
0.0
  0
LINE
  5
4DC0
330
1A
100
AcDbEntity
  8
外形線
 48
10.0
100
AcDbLine
 10
437.038659013918
 20
379.450455859273
 30
0.0
 11
436.538659013918
 21
379.956560135646
 31
0.0
  0
LINE
  5
4DC1
330
1A
100
AcDbEntity
  8
外形線
 48
10.0
100
AcDbLine
 10
436.538659013918
 20
380.956560135646
 30
0.0
 11
436.538659013918
 21
381.456560135646
 31
0.0
  0
LINE
  5
4DC2
330
1A
100
AcDbEntity
  8
外形線
 48
10.0
100
AcDbLine
 10
363.162029051064
 20
414.205921762181
 30
0.0
 11
369.417839195425
 21
389.115237711361
 31
0.0
  0
ARC
  5
4DC3
330
1A
100
AcDbEntity
  8
外形線
 48
10.0
100
AcDbCircle
 10
374.269317826805
 20
390.324847189359
 30
0.0
 40
5.0
100
AcDbArc
 50
193.999999999995
 51
268.7
  0
ARC
  5
4DC4
330
1A
100
AcDbEntity
  8
外形線
 48
10.0
100
AcDbCircle
 10
362.191733324788
 20
413.963999866581
 30
0.0
 40
1.0
100
AcDbArc
 50
13.999999999991
 51
89.000000000011
  0
ARC
  5
4DC5
330
1A
100
AcDbEntity
  8
外形線
 48
10.0
100
AcDbCircle
 10
397.537623110288
 20
383.795270733613
 30
0.0
 40
1.0
100
AcDbArc
 50
0.0
 51
88.7
  0
ARC
  5
4DC6
330
1A
100
AcDbEntity
  8
外形線
 48
10.0
100
AcDbCircle
 10
399.537623110288
 20
373.950455859273
 30
0.0
 40
1.0
100
AcDbArc
 50
180.0
 51
270.0
  0
ARC
  5
4DC7
330
1A
100
AcDbEntity
  8
外形線
 48
10.0
100
AcDbCircle
 10
433.537623110287
 20
373.950455859273
 30
0.0
 40
1.0
100
AcDbArc
 50
270.0
 51
0.0
  0
LINE
  5
4DC8
330
1A
100
AcDbEntity
  8
外形線
 48
10.0
100
AcDbLine
 10
398.537623110288
 20
373.950455859273
 30
0.0
 11
398.537623110288
 21
383.795270733613
 31
0.0
  0
LINE
  5
4DC9
330
1A
100
AcDbEntity
  8
外形線
 48
10.0
100
AcDbLine
 10
374.155881158941
 20
385.326134142746
 30
0.0
 11
427.237447378008
 21
384.121544893326
 31
0.0
  0
LINE
  5
4DCA
330
1A
100
AcDbEntity
  8
外形線
 48
10.0
100
AcDbLine
 10
350.02017070385
 20
415.176607610451
 30
0.0
 11
362.209185731226
 21
414.963847561738
 31
0.0
  0
LINE
  5
4DCB
330
1A
100
AcDbEntity
  8
外形線
 48
10.0
100
AcDbLine
 10
434.537623110287
 20
383.475455859273
 30
0.0
 11
434.537623110287
 21
373.950455859273
 31
0.0
  0
LINE
  5
4DCC
330
1A
100
AcDbEntity
  8
外形線
 48
10.0
100
AcDbLine
 10
434.537623110287
 20
383.475455859273
 30
0.0
 11
434.537623110287
 21
495.450455859273
 31
0.0
  0
LINE
  5
4DCD
330
1A
100
AcDbEntity
  8
外形線
 48
10.0
100
AcDbLine
 10
433.537623110287
 20
372.950455859273
 30
0.0
 11
399.537623110288
 21
372.950455859273
 31
0.0
  0
LINE
  5
4DCE
330
1A
100
AcDbEntity
  8
外形線
 48
10.0
100
AcDbLine
 10
431.537623110288
 20
379.722677412306
 30
0.0
 11
431.537623110287
 21
379.456560135646
 31
0.0
  0
LINE
  5
4DCF
330
1A
100
AcDbEntity
  8
外形線
 48
10.0
100
AcDbLine
 10
434.537623110287
 20
379.456560135646
 30
0.0
 11
431.537623110287
 21
379.456560135646
 31
0.0
  0
ARC
  5
4DD0
330
1A
100
AcDbEntity
  8
外形線
 48
10.0
100
AcDbCircle
 10
436.037623110287
 20
381.975455859272
 30
0.0
 40
1.499999999999659
100
AcDbArc
 50
179.999999999983
 51
289.471220634513
  0
ARC
  5
4DD1
330
1A
100
AcDbEntity
  8
外形線
 48
10.0
100
AcDbCircle
 10
427.137623110288
 20
379.722677412306
 30
0.0
 40
4.4
100
AcDbArc
 50
0.0
 51
88.700000000001
  0
LINE
  5
4DD2
330
1A
100
AcDbEntity
  8
細線
 48
10.0
100
AcDbLine
 10
431.537623110287
 20
495.450455859273
 30
0.0
 11
431.537623110288
 21
379.722677412306
 31
0.0
  0
LINE
  5
4DD3
330
1A
100
AcDbEntity
  8
細線
 48
10.0
100
AcDbLine
 10
362.976395851588
 20
414.950455859273
 30
0.0
 11
362.98003106625
 21
459.965035908928
 31
0.0
  0
LINE
  5
4DD4
330
1A
100
AcDbEntity
  8
細線
 48
10.0
100
AcDbLine
 10
370.340983964966
 20
487.669314126282
 30
0.0
 11
370.340983964966
 21
387.231597592264
 31
0.0
  0
LINE
  5
4DD5
330
1A
100
AcDbEntity
  8
外形線
 48
10.0
100
AcDbLine
 10
464.037606247354
 20
481.676883206108
 30
0.0
 11
464.035743853376
 21
444.409935012685
 31
0.0
  0
ARC
  5
4DD6
330
1A
100
AcDbEntity
  8
細線
 48
10.0
100
AcDbCircle
 10
463.536932005531
 20
468.185155819391
 30
0.0
 40
0.5
100
AcDbArc
 50
359.997136676878
 51
74.206830951723
  0
ARC
  5
4DD7
330
1A
100
AcDbEntity
  8
細線
 48
10.0
100
AcDbCircle
 10
463.53696734228
 20
468.892252605837
 30
0.0
 40
0.5
100
AcDbArc
 50
359.997136676878
 51
74.206830951723
  0
LINE
  5
4DD8
330
1A
100
AcDbEntity
  8
細線
 48
10.0
100
AcDbLine
 10
463.673014769019
 20
468.666281043716
 30
0.0
 11
451.9015403468
 21
471.995756799121
 31
0.0
  0
LINE
  5
4DD9
330
1A
100
AcDbEntity
  8
中心線
 48
10.0
100
AcDbLine
 10
416.537623110288
 20
391.697477454232
 30
0.0
 11
416.537623110288
 21
364.293398027797
 31
0.0
  0
DIMENSION
  5
502D
330
1A
100
AcDbEntity
  8
寸法線
 48
10.0
100
AcDbDimension
  2
*D19
 10
38.399154854015
 20
426.699766091001
 30
0.0
 11
38.399154854015
 21
466.758099424334
 31
0.0
 70
   160
  1
φ<>
  3
ISO-25
100
AcDbAlignedDimension
 13
52.037623110288
 23
448.199766091001
 33
0.0
 14
52.037623110288
 24
426.699766091001
 34
0.0
 50
90.0
100
AcDbRotatedDimension
1001
ACAD
1000
DSTYLE
1002
{
1070
     5
1000
OPEN30
1070
    41
1040
6.0
1070
    47
1040
0.1
1070
    48
1040
0.1
1070
    73
1070
     0
1070
   140
1040
8.0
1070
   271
1070
     1
1070
   272
1070
     1
1070
   341
1005
2AF4
1002
}
  0
LINE
  5
502E
330
1A
100
AcDbEntity
  8
外形線
100
AcDbLine
 10
151.037623110288
 20
426.699766091001
 30
0.0
 11
151.037623110288
 21
448.199766091001
 31
0.0
  0
LINE
  5
502F
330
1A
100
AcDbEntity
  8
外形線
100
AcDbLine
 10
151.037623110288
 20
448.199766091001
 30
0.0
 11
104.537623110287
 21
448.199766091001
 31
0.0
  0
LINE
  5
5030
330
1A
100
AcDbEntity
  8
外形線
100
AcDbLine
 10
52.037623110288
 20
448.199766091001
 30
0.0
 11
51.037623110288
 21
447.199766091001
 31
0.0
  0
LINE
  5
5031
330
1A
100
AcDbEntity
  8
外形線
100
AcDbLine
 10
51.037623110288
 20
447.199766091001
 30
0.0
 11
51.037623110288
 21
427.699766091001
 31
0.0
  0
LINE
  5
5032
330
1A
100
AcDbEntity
  8
外形線
100
AcDbLine
 10
52.037623110288
 20
426.699766091001
 30
0.0
 11
51.037623110288
 21
427.699766091001
 31
0.0
  0
LINE
  5
5033
330
1A
100
AcDbEntity
  8
外形線
100
AcDbLine
 10
151.037623110288
 20
426.699766091001
 30
0.0
 11
104.537623110287
 21
426.699766091001
 31
0.0
  0
ARC
  5
5034
330
1A
100
AcDbEntity
  8
細線
 48
10.0
100
AcDbCircle
 10
91.314966860288
 20
442.824766091001
 30
0.0
 40
8.222656249999796
100
AcDbArc
 50
319.180234332391
 51
40.819765667609
  0
ARC
  5
5035
330
1A
100
AcDbEntity
  8
細線
 48
10.0
100
AcDbCircle
 10
91.314966860288
 20
432.074766091002
 30
0.0
 40
8.222656249999796
100
AcDbArc
 50
319.180234332391
 51
40.819765667608
  0
ARC
  5
5036
330
1A
100
AcDbEntity
  8
細線
 48
10.0
100
AcDbCircle
 10
103.760279360287
 20
442.824766091001
 30
0.0
 40
8.222656249999796
100
AcDbArc
 50
139.180234332391
 51
220.819765667608
  0
ARC
  5
5037
330
1A
100
AcDbEntity
  8
細線
 48
10.0
100
AcDbCircle
 10
110.760279360287
 20
442.824766091001
 30
0.0
 40
8.222656249999796
100
AcDbArc
 50
139.18023433239
 51
220.819765667607
  0
ARC
  5
5038
330
1A
100
AcDbEntity
  8
細線
 48
10.0
100
AcDbCircle
 10
98.314966860287
 20
432.074766091002
 30
0.0
 40
8.222656249999796
100
AcDbArc
 50
319.180234332391
 51
40.819765667609
  0
ARC
  5
5039
330
1A
100
AcDbEntity
  8
細線
 48
10.0
100
AcDbCircle
 10
110.760279360287
 20
432.074766091001
 30
0.0
 40
8.222656249999796
100
AcDbArc
 50
139.18023433239
 51
220.819765667607
  0
LINE
  5
503A
330
1A
100
AcDbEntity
  8
外形線
100
AcDbLine
 10
97.537623110288
 20
448.199766091001
 30
0.0
 11
52.037623110288
 21
448.199766091001
 31
0.0
  0
LINE
  5
503B
330
1A
100
AcDbEntity
  8
外形線
100
AcDbLine
 10
97.537623110287
 20
426.699766091001
 30
0.0
 11
52.037623110288
 21
426.699766091001
 31
0.0
  0
VIEWPORT
  5
2902
330
28FB
100
AcDbEntity
 67
     1
  8
0
 48
10.0
100
AcDbViewport
 10
0.0
 20
0.0
 30
0.0
 40
502.486659064994
 41
285.6
 68
     1
 69
     1
1001
ACAD
1000
MVIEW
1002
{
1070
    16
1010
0.0
1020
0.0
1030
0.0
1010
0.0
1020
0.0
1030
1.0
1040
0.0
1040
285.6
1040
204.746305129083
1040
141.396645458131
1040
50.0
1040
0.0
1040
0.0
1070
    16
1070
   100
1070
     0
1070
     1
1070
     0
1070
     0
1070
     0
1070
     0
1040
0.0
1040
0.0
1040
0.0
1040
10.0
1040
10.0
1040
10.0
1040
10.0
1070
     0
1002
{
1002
}
1002
}
  0
VIEWPORT
  5
2904
330
28FB
100
AcDbEntity
 67
     1
  8
図枠太線
 48
10.0
100
AcDbViewport
 10
204.746305129083
 20
161.396645458131
 30
0.0
 40
400.0
 41
240.0
 68
     2
 69
     2
1001
ACAD
1000
MVIEW
1002
{
1070
    16
1010
0.0
1020
0.0
1030
0.0
1010
0.0
1020
0.0
1030
1.0
1040
0.0
1040
480.000003849169
1040
243.191488606713
1040
348.448180011995
1040
50.0
1040
0.0
1040
0.0
1070
    16
1070
   100
1070
     0
1070
     0
1070
     0
1070
     0
1070
     0
1070
     0
1040
0.0
1040
0.0
1040
0.0
1040
1.0
1040
1.0
1040
0.0
1040
0.0
1070
     0
1002
{
1002
}
1002
}
  0
INSERT
  5
2A59
330
28FB
100
AcDbEntity
 67
     1
  8
図枠太線
100
AcDbBlockReference
  2
A3横用_タイトル
 10
-0.352109406709
 20
-2.129314295396
 30
0.0
  0
MTEXT
  5
2E70
330
28FB
100
AcDbEntity
 67
     1
  8
寸法線
 48
10.0
100
AcDbMText
 10
290.692196981713
 20
50.409704435936
 30
0.0
 40
5.0
 41
59.487124795261
 71
     1
 72
     5
  1
A3縮小図
  0
MTEXT
  5
2E71
102
{ACAD_XDICTIONARY
360
48A5
102
}
330
28FB
100
AcDbEntity
 67
     1
  8
寸法線
 48
10.0
100
AcDbMText
 10
371.895692395313
 20
50.249424629171
 30
0.0
 40
5.0
 41
34.444444444444
 71
     1
 72
     5
  1
台数   台
1001
ACADANNOTATIVE
1000
AnnotativeData
1002
{
1070
     1
1070
     0
1002
}
  0
LINE
  5
2E72
330
28FB
100
AcDbEntity
 67
     1
  8
寸法線
 48
10.0
100
AcDbLine
 10
289.758575030668
 20
44.026105349677
 30
0.0
 11
315.393438640485
 21
44.026105349677
 31
0.0
  0
MTEXT
  5
2E85
330
28FB
100
AcDbEntity
 67
     1
  8
寸法線
 48
10.0
100
AcDbMText
 10
149.12611673873
 20
14.255245025413
 30
0.0
 40
5.0
 41
11.452149180996
 71
     1
 72
     5
  1
{\H1.4x;1:2}
  0
MTEXT
  5
5175
102
{ACAD_XDICTIONARY
360
5176
102
}
330
28FB
100
AcDbEntity
 67
     1
  8
寸法線
 48
10.0
100
AcDbMText
 10
178.291713392339
 20
12.378255572513
 30
0.0
 40
5.0
 41
31.372065131184
 71
     1
 72
     5
  1
\H0.9x;2016.8.4
1001
ACADANNOTATIVE
1000
AnnotativeData
1002
{
1070
     1
1070
     0
1002
}
  0
MTEXT
  5
5179
102
{ACAD_XDICTIONARY
360
517A
102
}
330
28FB
100
AcDbEntity
 67
     1
  8
寸法線
 48
10.0
100
AcDbMText
 10
173.844001466027
 20
32.126899520275
 30
0.0
 40
5.0
 41
31.372065131184
 71
     1
 72
     5
  1
takahashi
1001
ACADANNOTATIVE
1000
AnnotativeData
1002
{
1070
     1
1070
     0
1002
}
  0
MTEXT
  5
5267
102
{ACAD_XDICTIONARY
360
5268
102
}
330
28FB
100
AcDbEntity
 67
     1
  8
寸法線
 48
10.0
100
AcDbMText
 10
310.214176586136
 20
32.963791899491
 30
0.0
 40
6.0
 41
58.239684951579
 71
     1
 72
     5
  1
TSA-A5SA-□
1001
ACADANNOTATIVE
1000
AnnotativeData
1002
{
1070
     1
1070
     0
1002
}
  0
MTEXT
  5
5299
330
28FB
100
AcDbEntity
 67
     1
  8
寸法線
 48
10.0
100
AcDbMText
 10
370.673835800578
 20
36.896622040696
 30
0.0
 40
4.0
 41
39.417543602742
 71
     1
 72
     5
  1
{\H1.125x;静電容量式\Pレベルセンサ}
  0
MTEXT
  5
52CC
102
{ACAD_XDICTIONARY
360
52CD
102
}
330
28FB
100
AcDbEntity
 67
     1
  8
寸法線
 48
10.0
100
AcDbMText
 10
338.952685188947
 20
15.49393312214
 30
0.0
 40
8.0
 41
33.206594841881
 71
     1
 72
     5
  1
HE-11006
1001
ACADANNOTATIVE
1000
AnnotativeData
1002
{
1070
     1
1070
     0
1002
}
  0
ENDSEC
  0
SECTION
  2
OBJECTS
  0
DICTIONARY
  5
C
330
0
100
AcDbDictionary
  3
ACAD_COLOR
350
2948
  3
ACAD_GROUP
350
D
  3
ACAD_LAYOUT
350
2816
  3
ACAD_MATERIAL
350
2947
  3
ACAD_MLEADERSTYLE
350
489E
  3
ACAD_MLINESTYLE
350
E
  3
ACAD_PLOTSETTINGS
350
2817
  3
ACAD_SCALELIST
350
4877
  3
ACAD_VISUALSTYLE
350
485E
  3
ACADDIM
350
4312
  3
ACDBHEADERROUNDTRIPXREC
350
53C0
  3
ACDBVARIABLEDICTIONARY
350
4C77
  3
DWGPROPS
350
53E6
  0
DICTIONARY
  5
53E7
330
8
100
AcDbDictionary
280
     1
  3
ACAD_XREC_ROUNDTRIP
360
53E8
  0
DICTIONARY
  5
29EA
330
2
100
AcDbDictionary
280
     1
  3
ACAD_LAYERFILTERS
360
2B0C
  3
ACAD_LAYERSTATES
360
29EB
  0
DICTIONARY
  5
4C71
330
4487
100
AcDbDictionary
280
     1
  3
ACDBCONTEXTDATAMANAGER
360
4C72
  0
DICTIONARY
  5
4B98
330
4B97
100
AcDbDictionary
280
     1
  3
ACDBCONTEXTDATAMANAGER
360
4B99
  0
DICTIONARY
  5
4EC4
330
4B9C
100
AcDbDictionary
280
     1
  3
ACDBCONTEXTDATAMANAGER
360
4EC5
  0
DICTIONARY
  5
4EC7
330
4BAD
100
AcDbDictionary
280
     1
  3
ACDBCONTEXTDATAMANAGER
360
4EC8
  0
DICTIONARY
  5
4BB1
330
4BB0
100
AcDbDictionary
280
     1
  3
ACDBCONTEXTDATAMANAGER
360
4BB2
  0
DICTIONARY
  5
4D40
330
4D3F
100
AcDbDictionary
280
     1
  3
ACDBCONTEXTDATAMANAGER
360
4D41
  0
DICTIONARY
  5
4D44
330
4D43
100
AcDbDictionary
280
     1
  3
ACDBCONTEXTDATAMANAGER
360
4D45
  0
DICTIONARY
  5
4D48
330
4D47
100
AcDbDictionary
280
     1
  3
ACDBCONTEXTDATAMANAGER
360
4D49
  0
DICTIONARY
  5
4D4C
330
4D4B
100
AcDbDictionary
280
     1
  3
ACDBCONTEXTDATAMANAGER
360
4D4D
  0
DICTIONARY
  5
4D50
330
4D4F
100
AcDbDictionary
280
     1
  3
ACDBCONTEXTDATAMANAGER
360
4D51
  0
DICTIONARY
  5
4D54
330
4D53
100
AcDbDictionary
280
     1
  3
ACDBCONTEXTDATAMANAGER
360
4D55
  0
DICTIONARY
  5
4D58
330
4D57
100
AcDbDictionary
280
     1
  3
ACDBCONTEXTDATAMANAGER
360
4D59
  0
DICTIONARY
  5
4D5C
330
4D5B
100
AcDbDictionary
280
     1
  3
ACDBCONTEXTDATAMANAGER
360
4D5D
  0
DICTIONARY
  5
48A5
330
2E71
100
AcDbDictionary
280
     1
  3
ACDBCONTEXTDATAMANAGER
360
48A6
  0
DICTIONARY
  5
5176
330
5175
100
AcDbDictionary
280
     1
  3
ACDBCONTEXTDATAMANAGER
360
5177
  0
DICTIONARY
  5
517A
330
5179
100
AcDbDictionary
280
     1
  3
ACDBCONTEXTDATAMANAGER
360
517B
  0
DICTIONARY
  5
5268
330
5267
100
AcDbDictionary
280
     1
  3
ACDBCONTEXTDATAMANAGER
360
5269
  0
DICTIONARY
  5
52CD
330
52CC
100
AcDbDictionary
280
     1
  3
ACDBCONTEXTDATAMANAGER
360
52CE
  0
DICTIONARY
  5
2948
102
{ACAD_REACTORS
330
C
102
}
330
C
100
AcDbDictionary
  0
DICTIONARY
  5
D
102
{ACAD_REACTORS
330
C
102
}
330
C
100
AcDbDictionary
  3
*A1
350
4615
  0
DICTIONARY
  5
2816
102
{ACAD_REACTORS
330
C
102
}
330
C
100
AcDbDictionary
  0
DICTIONARY
  5
2947
102
{ACAD_REACTORS
330
C
102
}
330
C
100
AcDbDictionary
  3
BYBLOCK
350
489A
  3
BYLAYER
350
4899
  3
GLOBAL
350
489B
  0
DICTIONARY
  5
489E
102
{ACAD_REACTORS
330
C
102
}
330
C
100
AcDbDictionary
  3
STANDARD
350
489F
  0
DICTIONARY
  5
E
102
{ACAD_REACTORS
330
C
102
}
330
C
100
AcDbDictionary
  3
STANDARD
350
13
  0
DICTIONARY
  5
2817
102
{ACAD_REACTORS
330
C
102
}
330
C
100
AcDbDictionary
  0
DICTIONARY
  5
4877
102
{ACAD_REACTORS
330
C
102
}
330
C
100
AcDbDictionary
  3
A0
350
4878
  3
A1
350
4879
  3
A2
350
487A
  3
A3
350
487B
  3
A4
350
487C
  3
A5
350
487D
  3
A6
350
487E
  3
A7
350
487F
  3
A8
350
4880
  3
A9
350
4881
  3
B0
350
4882
  3
B1
350
4883
  3
B2
350
4884
  3
B3
350
4885
  3
B4
350
4886
  3
B5
350
4887
  3
B6
350
4888
  3
B7
350
4889
  3
B8
350
488A
  3
B9
350
488B
  3
C0
350
488C
  3
C1
350
488D
  3
C2
350
488E
  3
C3
350
488F
  3
C4
350
4890
  3
C5
350
4891
  3
C6
350
4892
  3
C7
350
4893
  3
C8
350
4894
  3
C9
350
4895
  3
D0
350
4896
  3
D1
350
4897
  3
D2
350
4898
  0
DICTIONARY
  5
485E
102
{ACAD_REACTORS
330
C
102
}
330
C
100
AcDbDictionary
  3
2DWIREFRAME
350
4863
  3
BASIC
350
4866
  3
BRIGHTEN
350
486A
  3
COLORCHANGE
350
486E
  3
CONCEPTUAL
350
4868
  3
DIM
350
4869
  3
EDGECOLOROFF
350
4871
  3
FACEPATTERN
350
486D
  3
FLAT
350
485F
  3
FLATWITHEDGES
350
4860
  3
GOURAUD
350
4861
  3
GOURAUDWITHEDGES
350
4862
  3
HIDDEN
350
4865
  3
JITTEROFF
350
486F
  3
LINEPATTERN
350
486C
  3
MODELING
350
4EC3
  3
OVERHANGOFF
350
4870
  3
REALISTIC
350
4867
  3
SHADED
350
4876
  3
Shaded with edges
350
53BC
  3
SHADED_WITH_EDGE0
350
4875
  3
Shades of Gray
350
53BB
  3
SHADES_OF_GRA0
350
4872
  3
SKETCHY
350
4873
  3
THICKEN
350
486B
  3
WIREFRAME
350
4864
  3
X-RAY
350
4874
  0
XRECORD
  5
4312
102
{ACAD_REACTORS
330
C
102
}
330
C
100
AcDbXrecord
 90
   990106
  3

 60
     0
 61
     0
 62
     4
 63
     4
 64
     0
 65
     0
 66
     0
 67
     3
 68
     1
 69
     0
 70
     0
 71
     0
 72
     0
 40
0.0
170
     2
340
4487
  0
DICTIONARY
  5
53C0
102
{ACAD_REACTORS
330
C
102
}
330
C
100
AcDbDictionary
  3
CEPSNID
350
53CA
  3
CEPSNTYPE
350
53C9
  3
COLORDICT
350
53E4
  3
DIMSTYLEDATA
350
53E0
  3
FINGERPRINTGUID
350
53CB
  3
HYPERLINKBASE
350
53C3
  3
INSUNITS
350
53C8
  3
LAYOUTDICT
350
53C5
  3
LWETCUNION
350
53C7
  3
MATERIALDICT
350
53E5
  3
PLOTSETDICT
350
53C6
  3
PSVPSCALE
350
53CD
  3
PUCSBASE
350
53D0
  3
PUCSORGBACK
350
53D6
  3
PUCSORGBOTTOM
350
53D2
  3
PUCSORGFRONT
350
53D5
  3
PUCSORGLEFT
350
53D3
  3
PUCSORGRIGHT
350
53D4
  3
PUCSORGTOP
350
53D1
  3
PUCSORTHOREF
350
53CE
  3
PUCSORTHOVIEW
350
53CF
  3
STYLESHEET
350
53C4
  3
TSTACKALIGN
350
53C1
  3
TSTACKSIZE
350
53C2
  3
UCSBASE
350
53D9
  3
UCSORGBACK
350
53DF
  3
UCSORGBOTTOM
350
53DB
  3
UCSORGFRONT
350
53DE
  3
UCSORGLEFT
350
53DC
  3
UCSORGRIGHT
350
53DD
  3
UCSORGTOP
350
53DA
  3
UCSORTHOREF
350
53D7
  3
UCSORTHOVIEW
350
53D8
  3
VERSIONGUID
350
53CC
  0
DICTIONARY
  5
4C77
102
{ACAD_REACTORS
330
C
102
}
330
C
100
AcDbDictionary
  3
CANNOSCALE
350
53E9
  3
CMLEADERSTYLE
350
4C7A
  3
CTABLESTYLE
350
53E1
  3
DIMASSOC
350
53A9
  3
HIDETEXT
350
53AA
  3
MSLTSCALE
350
4C7B
  3
XCLIPFRAME
350
4C7C
  0
XRECORD
  5
53E6
102
{ACAD_REACTORS
330
C
102
}
330
C
100
AcDbXrecord
  1
DWGPROPS COOKIE
  2

  3

  4

  6

  7

  8
takahashi
  9

300
=
301
=
302
=
303
=
304
=
305
=
306
=
307
=
308
=
309
=
 40
0.0
 41
2450576.222302431
 42
2457627.29149897
  1

 90
        0
  0
XRECORD
  5
53E8
102
{ACAD_REACTORS
330
53E7
102
}
330
53E7
100
AcDbXrecord
102
VTR_0.000_0.000_1.000_1.000_GRIDDISPLAY
 70
     3
102
VTR_0.000_0.000_1.000_1.000_GRIDMAJOR
 70
     5
102
VTR_0.000_0.000_1.000_1.000_DEFAULTLIGHTING
280
     1
102
VTR_0.000_0.000_1.000_1.000_DEFAULTLIGHTINGTYPE
 70
     1
102
VTR_0.000_0.000_1.000_1.000_BRIGHTNESS
141
0.0
102
VTR_0.000_0.000_1.000_1.000_CONTRAST
142
0.0
  0
DICTIONARY
  5
2B0C
102
{ACAD_REACTORS
330
29EA
102
}
330
29EA
100
AcDbDictionary
  0
DICTIONARY
  5
29EB
102
{ACAD_REACTORS
330
29EA
102
}
330
29EA
100
AcDbDictionary
  0
DICTIONARY
  5
4C72
102
{ACAD_REACTORS
330
4C71
102
}
330
4C71
100
AcDbDictionary
  3
ACDB_ANNOTATIONSCALES
350
4C73
  0
DICTIONARY
  5
4B99
102
{ACAD_REACTORS
330
4B98
102
}
330
4B98
100
AcDbDictionary
  3
ACDB_ANNOTATIONSCALES
350
4B9A
  0
DICTIONARY
  5
4EC5
102
{ACAD_REACTORS
330
4EC4
102
}
330
4EC4
100
AcDbDictionary
  3
ACDB_ANNOTATIONSCALES
350
4EC6
  0
DICTIONARY
  5
4EC8
102
{ACAD_REACTORS
330
4EC7
102
}
330
4EC7
100
AcDbDictionary
  3
ACDB_ANNOTATIONSCALES
350
4EC9
  0
DICTIONARY
  5
4BB2
102
{ACAD_REACTORS
330
4BB1
102
}
330
4BB1
100
AcDbDictionary
  3
ACDB_ANNOTATIONSCALES
350
4BB3
  0
DICTIONARY
  5
4D41
102
{ACAD_REACTORS
330
4D40
102
}
330
4D40
100
AcDbDictionary
  3
ACDB_ANNOTATIONSCALES
350
4D42
  0
DICTIONARY
  5
4D45
102
{ACAD_REACTORS
330
4D44
102
}
330
4D44
100
AcDbDictionary
  3
ACDB_ANNOTATIONSCALES
350
4D46
  0
DICTIONARY
  5
4D49
102
{ACAD_REACTORS
330
4D48
102
}
330
4D48
100
AcDbDictionary
  3
ACDB_ANNOTATIONSCALES
350
4D4A
  0
DICTIONARY
  5
4D4D
102
{ACAD_REACTORS
330
4D4C
102
}
330
4D4C
100
AcDbDictionary
  3
ACDB_ANNOTATIONSCALES
350
4D4E
  0
DICTIONARY
  5
4D51
102
{ACAD_REACTORS
330
4D50
102
}
330
4D50
100
AcDbDictionary
  3
ACDB_ANNOTATIONSCALES
350
4D52
  0
DICTIONARY
  5
4D55
102
{ACAD_REACTORS
330
4D54
102
}
330
4D54
100
AcDbDictionary
  3
ACDB_ANNOTATIONSCALES
350
4D56
  0
DICTIONARY
  5
4D59
102
{ACAD_REACTORS
330
4D58
102
}
330
4D58
100
AcDbDictionary
  3
ACDB_ANNOTATIONSCALES
350
4D5A
  0
DICTIONARY
  5
4D5D
102
{ACAD_REACTORS
330
4D5C
102
}
330
4D5C
100
AcDbDictionary
  3
ACDB_ANNOTATIONSCALES
350
4D5E
  0
DICTIONARY
  5
48A6
102
{ACAD_REACTORS
330
48A5
102
}
330
48A5
100
AcDbDictionary
  3
ACDB_ANNOTATIONSCALES
350
48A7
  0
DICTIONARY
  5
5177
102
{ACAD_REACTORS
330
5176
102
}
330
5176
100
AcDbDictionary
  3
ACDB_ANNOTATIONSCALES
350
5178
  0
DICTIONARY
  5
517B
102
{ACAD_REACTORS
330
517A
102
}
330
517A
100
AcDbDictionary
  3
ACDB_ANNOTATIONSCALES
350
517C
  0
DICTIONARY
  5
5269
102
{ACAD_REACTORS
330
5268
102
}
330
5268
100
AcDbDictionary
  3
ACDB_ANNOTATIONSCALES
350
526A
  0
DICTIONARY
  5
52CE
102
{ACAD_REACTORS
330
52CD
102
}
330
52CD
100
AcDbDictionary
  3
ACDB_ANNOTATIONSCALES
350
52CF
  0
GROUP
  5
4615
102
{ACAD_REACTORS
330
D
102
}
330
D
100
AcDbGroup
300

 70
     1
 71
     1
340
4613
340
4612
340
4611
340
4610
340
460F
340
460E
340
460D
340
460C
340
460B
340
460A
340
4609
340
4608
340
4607
340
4606
340
45F3
340
45F2
340
44BD
340
44BC
340
44BB
340
44B9
340
44A0
340
449F
340
443E
340
443D
340
443C
340
443B
340
4433
340
4432
340
4421
340
4420
340
441E
340
441D
340
441C
340
441B
340
441A
340
4419
340
4418
340
4417
340
4416
340
4415
  0
MATERIAL
  5
489A
102
{ACAD_REACTORS
330
2947
102
}
102
{ACAD_XDICTIONARY
360
53EA
102
}
330
2947
100
AcDbMaterial
  1
BYBLOCK
  0
MATERIAL
  5
4899
102
{ACAD_REACTORS
330
2947
102
}
102
{ACAD_XDICTIONARY
360
53EC
102
}
330
2947
100
AcDbMaterial
  1
BYLAYER
  0
MATERIAL
  5
489B
102
{ACAD_REACTORS
330
2947
102
}
102
{ACAD_XDICTIONARY
360
53EE
102
}
330
2947
100
AcDbMaterial
  1
GLOBAL
  0
ACAD_PROXY_OBJECT
  5
489F
102
{ACAD_REACTORS
330
489E
102
}
330
489E
100
AcDbProxyObject
 90
      499
 91
      507
 93
      610
310
40901902A4063FBFFFFFE0000000000000020400000000000020404214DD185B99185C990000000000000104090141901A00000000000004100000000000000041025764000000000000039000
340
14
340
0
340
10
340
0
 94
        0
1001
ACAD_MLEADERVER
1070
     2
  0
MLINESTYLE
  5
13
102
{ACAD_REACTORS
330
E
102
}
330
E
100
AcDbMlineStyle
  2
STANDARD
 70
     0
  3

 62
     0
 51
90.0
 52
90.0
 71
     2
 49
0.5
 62
   256
  6
BYLAYER
 49
-0.5
 62
   256
  6
BYLAYER
  0
ACAD_PROXY_OBJECT
  5
4878
102
{ACAD_REACTORS
330
4877
102
}
330
4877
100
AcDbProxyObject
 90
      499
 91
      504
 93
       41
310
903313A31580
  0
ACAD_PROXY_OBJECT
  5
4879
102
{ACAD_REACTORS
330
4877
102
}
330
4877
100
AcDbProxyObject
 90
      499
 91
      504
 93
      105
310
903313A324000000000000004000
  0
ACAD_PROXY_OBJECT
  5
487A
102
{ACAD_REACTORS
330
4877
102
}
330
4877
100
AcDbProxyObject
 90
      499
 91
      504
 93
      105
310
903313A344000000000000104000
  0
ACAD_PROXY_OBJECT
  5
487B
102
{ACAD_REACTORS
330
4877
102
}
330
4877
100
AcDbProxyObject
 90
      499
 91
      504
 93
      105
310
903313A354000000000000144000
  0
ACAD_PROXY_OBJECT
  5
487C
102
{ACAD_REACTORS
330
4877
102
}
330
4877
100
AcDbProxyObject
 90
      499
 91
      504
 93
      105
310
903313A384000000000000204000
  0
ACAD_PROXY_OBJECT
  5
487D
102
{ACAD_REACTORS
330
4877
102
}
330
4877
100
AcDbProxyObject
 90
      499
 91
      504
 93
      113
310
904313A31304000000000000244000
  0
ACAD_PROXY_OBJECT
  5
487E
102
{ACAD_REACTORS
330
4877
102
}
330
4877
100
AcDbProxyObject
 90
      499
 91
      504
 93
      113
310
904313A31364000000000000304000
  0
ACAD_PROXY_OBJECT
  5
487F
102
{ACAD_REACTORS
330
4877
102
}
330
4877
100
AcDbProxyObject
 90
      499
 91
      504
 93
      113
310
904313A32304000000000000344000
  0
ACAD_PROXY_OBJECT
  5
4880
102
{ACAD_REACTORS
330
4877
102
}
330
4877
100
AcDbProxyObject
 90
      499
 91
      504
 93
      113
310
904313A333040000000000003E4000
  0
ACAD_PROXY_OBJECT
  5
4881
102
{ACAD_REACTORS
330
4877
102
}
330
4877
100
AcDbProxyObject
 90
      499
 91
      504
 93
      113
310
904313A34304000000000000444000
  0
ACAD_PROXY_OBJECT
  5
4882
102
{ACAD_REACTORS
330
4877
102
}
330
4877
100
AcDbProxyObject
 90
      499
 91
      504
 93
      113
310
904313A35304000000000000494000
  0
ACAD_PROXY_OBJECT
  5
4883
102
{ACAD_REACTORS
330
4877
102
}
330
4877
100
AcDbProxyObject
 90
      499
 91
      504
 93
      121
310
905313A3130304000000000000594000
  0
ACAD_PROXY_OBJECT
  5
4884
102
{ACAD_REACTORS
330
4877
102
}
330
4877
100
AcDbProxyObject
 90
      499
 91
      504
 93
      105
310
903323A310000000000000010100
  0
ACAD_PROXY_OBJECT
  5
4885
102
{ACAD_REACTORS
330
4877
102
}
330
4877
100
AcDbProxyObject
 90
      499
 91
      504
 93
      105
310
903343A310000000000000410100
  0
ACAD_PROXY_OBJECT
  5
4886
102
{ACAD_REACTORS
330
4877
102
}
330
4877
100
AcDbProxyObject
 90
      499
 91
      504
 93
      105
310
903383A310000000000000810100
  0
ACAD_PROXY_OBJECT
  5
4887
102
{ACAD_REACTORS
330
4877
102
}
330
4877
100
AcDbProxyObject
 90
      499
 91
      504
 93
      113
310
90431303A310000000000000910100
  0
ACAD_PROXY_OBJECT
  5
4888
102
{ACAD_REACTORS
330
4877
102
}
330
4877
100
AcDbProxyObject
 90
      499
 91
      504
 93
      121
310
9053130303A310000000000001650100
  0
ACAD_PROXY_OBJECT
  5
4889
102
{ACAD_REACTORS
330
4877
102
}
330
4877
100
AcDbProxyObject
 90
      499
 91
      504
 93
      257
310
90E312F31323822203D2031272D3022000000000000200FC000000000000284000
  0
ACAD_PROXY_OBJECT
  5
488A
102
{ACAD_REACTORS
330
4877
102
}
330
4877
100
AcDbProxyObject
 90
      499
 91
      504
 93
      249
310
90D312F363422203D2031272D3022000000000000240FC000000000000284000
  0
ACAD_PROXY_OBJECT
  5
488B
102
{ACAD_REACTORS
330
4877
102
}
330
4877
100
AcDbProxyObject
 90
      499
 91
      504
 93
      249
310
90D312F333222203D2031272D3022000000000000280FC000000000000284000
  0
ACAD_PROXY_OBJECT
  5
488C
102
{ACAD_REACTORS
330
4877
102
}
330
4877
100
AcDbProxyObject
 90
      499
 91
      504
 93
      249
310
90D312F313622203D2031272D30220000000000002C0FC000000000000284000
  0
ACAD_PROXY_OBJECT
  5
488D
102
{ACAD_REACTORS
330
4877
102
}
330
4877
100
AcDbProxyObject
 90
      499
 91
      504
 93
      249
310
90D332F333222203D2031272D30220000000000002E0FC000000000000284000
  0
ACAD_PROXY_OBJECT
  5
488E
102
{ACAD_REACTORS
330
4877
102
}
330
4877
100
AcDbProxyObject
 90
      499
 91
      504
 93
      241
310
90C312F3822203D2031272D3022000000000000300FC000000000000284000
  0
ACAD_PROXY_OBJECT
  5
488F
102
{ACAD_REACTORS
330
4877
102
}
330
4877
100
AcDbProxyObject
 90
      499
 91
      504
 93
      249
310
90D332F313622203D2031272D3022000000000000320FC000000000000284000
  0
ACAD_PROXY_OBJECT
  5
4890
102
{ACAD_REACTORS
330
4877
102
}
330
4877
100
AcDbProxyObject
 90
      499
 91
      504
 93
      241
310
90C312F3422203D2031272D3022000000000000340FC000000000000284000
  0
ACAD_PROXY_OBJECT
  5
4891
102
{ACAD_REACTORS
330
4877
102
}
330
4877
100
AcDbProxyObject
 90
      499
 91
      504
 93
      241
310
90C332F3822203D2031272D3022000000000000360FC000000000000284000
  0
ACAD_PROXY_OBJECT
  5
4892
102
{ACAD_REACTORS
330
4877
102
}
330
4877
100
AcDbProxyObject
 90
      499
 91
      504
 93
      241
310
90C312F3222203D2031272D3022000000000000380FC000000000000284000
  0
ACAD_PROXY_OBJECT
  5
4893
102
{ACAD_REACTORS
330
4877
102
}
330
4877
100
AcDbProxyObject
 90
      499
 91
      504
 93
      241
310
90C332F3422203D2031272D30220000000000003A0FC000000000000284000
  0
ACAD_PROXY_OBJECT
  5
4894
102
{ACAD_REACTORS
330
4877
102
}
330
4877
100
AcDbProxyObject
 90
      499
 91
      504
 93
      161
310
90A3122203D2031272D30224000000000000284000
  0
ACAD_PROXY_OBJECT
  5
4895
102
{ACAD_REACTORS
330
4877
102
}
330
4877
100
AcDbProxyObject
 90
      499
 91
      504
 93
      257
310
90E312D312F3222203D2031272D30220000000000003E0FC000000000000284000
  0
ACAD_PROXY_OBJECT
  5
4896
102
{ACAD_REACTORS
330
4877
102
}
330
4877
100
AcDbProxyObject
 90
      499
 91
      504
 93
      225
310
90A3322203D2031272D302200000000000002100000000000000284000
  0
ACAD_PROXY_OBJECT
  5
4897
102
{ACAD_REACTORS
330
4877
102
}
330
4877
100
AcDbProxyObject
 90
      499
 91
      504
 93
      225
310
90A3622203D2031272D302200000000000006100000000000000284000
  0
ACAD_PROXY_OBJECT
  5
4898
102
{ACAD_REACTORS
330
4877
102
}
330
4877
100
AcDbProxyObject
 90
      499
 91
      504
 93
      249
310
90D31272D3022203D2031272D30220000000000000A100000000000000284000
  0
ACAD_PROXY_OBJECT
  5
4863
102
{ACAD_REACTORS
330
485E
102
}
330
485E
100
AcDbProxyObject
 90
      499
 91
      503
 93
      436
310
42CC9915DA5C99599C985B595049028333333333333E33F0000000000000F90107901411070040501600405405064090741402480A0340
1001
ACAD
1000
AcDbSavedByObjectVersion
1070
     0
  0
ACAD_PROXY_OBJECT
  5
4866
102
{ACAD_REACTORS
330
485E
102
}
330
485E
100
AcDbProxyObject
 90
      499
 91
      503
 93
      388
310
4150985CDA58D07406404333333333333E33F0000000000000F90107A41107004050150841D405064090741402480A0350
1001
ACAD
1000
AcDbSavedByObjectVersion
1070
     0
  0
ACAD_PROXY_OBJECT
  5
486A
102
{ACAD_REACTORS
330
485E
102
}
330
485E
100
AcDbProxyObject
 90
      499
 91
      503
 93
      428
310
42109C9A59DA1D195B90C409028333333333333E33F0000000000000F9010790141107004050150841D405064090741402480A029950
1001
ACAD
1000
AcDbSavedByObjectVersion
1070
     0
  0
ACAD_PROXY_OBJECT
  5
486E
102
{ACAD_REACTORS
330
485E
102
}
330
485E
100
AcDbProxyObject
 90
      499
 91
      503
 93
      452
310
42D0DBDB1BDC90DA185B99D95104090240C333333333333E33F0000000000000F90108901411070040501508421405064090741402480A0350
1001
ACAD
1000
AcDbSavedByObjectVersion
1070
     0
  0
ACAD_PROXY_OBJECT
  5
4868
102
{ACAD_REACTORS
330
485E
102
}
330
485E
100
AcDbProxyObject
 90
      499
 91
      503
 93
      500
310
4290DBDB98D95C1D1D585B10940D028333333333333E33F0000000000000F90107902409070040501000000000018199010841D405064090740C02480A0340
1001
ACAD
1000
AcDbSavedByObjectVersion
1070
     0
  0
ACAD_PROXY_OBJECT
  5
4869
102
{ACAD_REACTORS
330
485E
102
}
330
485E
100
AcDbProxyObject
 90
      499
 91
      503
 93
      412
310
40D11A5B50B409028333333333333E33F0000000000000F9010790141107004050150841D405064090741402480A02677FFFFFD0
1001
ACAD
1000
AcDbSavedByObjectVersion
1070
     0
  0
ACAD_PROXY_OBJECT
  5
4871
102
{ACAD_REACTORS
330
485E
102
}
330
485E
100
AcDbProxyObject
 90
      499
 91
      503
 93
      452
310
43115919D950DBDB1BDC93D999916409028333333333333E33F0000000000000F9010790141107004050150841D405064090741402480A0350
1001
ACAD
1000
AcDbSavedByObjectVersion
1070
     0
  0
ACAD_PROXY_OBJECT
  5
486D
102
{ACAD_REACTORS
330
485E
102
}
330
485E
100
AcDbProxyObject
 90
      499
 91
      503
 93
      444
310
42D19858D95C185D1D195C9B90F409028333333333333E33F0000000000000F9010790141107004050150841D405064090741402480A0350
1001
ACAD
1000
AcDbSavedByObjectVersion
1070
     0
  0
ACAD_PROXY_OBJECT
  5
485F
102
{ACAD_REACTORS
330
485E
102
}
330
485E
100
AcDbProxyObject
 90
      499
 91
      503
 93
      380
310
41119B185D240901404333333333333E33F0000000000000F9010740A907004050150841D405064090741402480A1B50
1001
ACAD
1000
AcDbSavedByObjectVersion
1070
     0
  0
ACAD_PROXY_OBJECT
  5
4860
102
{ACAD_REACTORS
330
485E
102
}
330
485E
100
AcDbProxyObject
 90
      499
 91
      503
 93
      468
310
43519B185D15DA5D1A115919D95CD0140901404333333333333E33F0000000000000F90107409019070040501600405405064090741402480A1B50
1001
ACAD
1000
AcDbSavedByObjectVersion
1070
     0
  0
ACAD_PROXY_OBJECT
  5
4861
102
{ACAD_REACTORS
330
485E
102
}
330
485E
100
AcDbProxyObject
 90
      499
 91
      503
 93
      404
310
41D1DBDD5C985D5910240902404333333333333E33F0000000000000F9010740A9070040501641D405064090741402480A1B50
1001
ACAD
1000
AcDbSavedByObjectVersion
1070
     0
  0
ACAD_PROXY_OBJECT
  5
4862
102
{ACAD_REACTORS
330
485E
102
}
330
485E
100
AcDbProxyObject
 90
      499
 91
      503
 93
      492
310
4411DBDD5C985D5915DA5D1A115919D95CD0340902404333333333333E33F0000000000000F90107409019070040501600405405064090741402480A1B50
1001
ACAD
1000
AcDbSavedByObjectVersion
1070
     0
  0
ACAD_PROXY_OBJECT
  5
4865
102
{ACAD_REACTORS
330
485E
102
}
330
485E
100
AcDbProxyObject
 90
      499
 91
      503
 93
      476
310
41921A5919195B90640502408333333333333E33F0000000000000F901079024090700405020000000000001110200405405064090740C02480A0340
1001
ACAD
1000
AcDbSavedByObjectVersion
1070
     0
  0
ACAD_PROXY_OBJECT
  5
486F
102
{ACAD_REACTORS
330
485E
102
}
330
485E
100
AcDbProxyObject
 90
      499
 91
      503
 93
      428
310
42529A5D1D195C93D999914409028333333333333E33F0000000000000F9010790141107004050150A41D405064090741402480A0350
1001
ACAD
1000
AcDbSavedByObjectVersion
1070
     0
  0
ACAD_PROXY_OBJECT
  5
486C
102
{ACAD_REACTORS
330
485E
102
}
330
485E
100
AcDbProxyObject
 90
      499
 91
      503
 93
      444
310
42D31A5B995C185D1D195C9B90E409028333333333333E33F0000000000000F9010790141107004050750841D405064090741402483A0350
1001
ACAD
1000
AcDbSavedByObjectVersion
1070
     0
  0
ACAD_PROXY_OBJECT
  5
4EC3
102
{ACAD_REACTORS
330
485E
102
}
330
485E
100
AcDbProxyObject
 90
      499
 91
      503
 93
      412
310
90A409038333333333333E33F0000000000000F901074090290700405010000000000201990108421405064090741402480A1B40
1001
ACAD
1000
AcDbSavedByObjectVersion
1070
     0
  0
ACAD_PROXY_OBJECT
  5
4870
102
{ACAD_REACTORS
330
485E
102
}
330
485E
100
AcDbProxyObject
 90
      499
 91
      503
 93
      444
310
42D3DD995C9A185B99D3D999915409028333333333333E33F0000000000000F9010790141107004050150941D405064090741402480A0350
1001
ACAD
1000
AcDbSavedByObjectVersion
1070
     0
  0
ACAD_PROXY_OBJECT
  5
4867
102
{ACAD_REACTORS
330
485E
102
}
330
485E
100
AcDbProxyObject
 90
      499
 91
      503
 93
      428
310
425499585B1A5CDD1A58D08409038333333333333E33F0000000000000F9010740A907004050150800405405064090740C02480A1B40
1001
ACAD
1000
AcDbSavedByObjectVersion
1070
     0
  0
ACAD_PROXY_OBJECT
  5
4876
102
{ACAD_REACTORS
330
485E
102
}
330
485E
100
AcDbProxyObject
 90
      499
 91
      503
 93
      420
310
4194DA1859195911B40902404333333333333E33F0000000000000F9010740A41107004050150800405405064090840C02480A0B40
1001
ACAD
1000
AcDbSavedByObjectVersion
1070
     0
  0
ACAD_PROXY_OBJECT
  5
53BC
102
{ACAD_REACTORS
330
485E
102
}
330
485E
100
AcDbProxyObject
 90
      499
 91
      503
 93
      516
310
4454DA18591959081DDA5D1A08195919D95CD1A40902404333333333333E33F0000000000000F901074090142907004050250800405405064090740C02480A0B40
1001
ACAD
1000
AcDbSavedByObjectVersion
1070
     0
  0
ACAD_PROXY_OBJECT
  5
4875
102
{ACAD_REACTORS
330
485E
102
}
330
485E
100
AcDbProxyObject
 90
      499
 91
      503
 93
      516
310
4454DA18591959081DDA5D1A08195919D95CD1A40902404333333333333E33F0000000000000F901074090142907004050250800405405064090740C02480A0B40
1001
ACAD
1000
AcDbSavedByObjectVersion
1070
     0
  0
ACAD_PROXY_OBJECT
  5
53BB
102
{ACAD_REACTORS
330
485E
102
}
330
485E
100
AcDbProxyObject
 90
      499
 91
      503
 93
      532
310
4394DA1859195CC81BD98811DC985E5174090240C333333333333E33F0000000000000F901079024090741D01000000000000111010841D405064090740C02480A0340
1001
ACAD
1000
AcDbSavedByObjectVersion
1070
     0
  0
ACAD_PROXY_OBJECT
  5
4872
102
{ACAD_REACTORS
330
485E
102
}
330
485E
100
AcDbProxyObject
 90
      499
 91
      503
 93
      532
310
4394DA1859195CC81BD98811DC985E5174090240C333333333333E33F0000000000000F901079024090741D01000000000000111010841D405064090740C02480A0340
1001
ACAD
1000
AcDbSavedByObjectVersion
1070
     0
  0
ACAD_PROXY_OBJECT
  5
4873
102
{ACAD_REACTORS
330
485E
102
}
330
485E
100
AcDbProxyObject
 90
      499
 91
      503
 93
      476
310
41D4DAD95D18DA1E51840502408333333333333E33F0000000000000F901079024090741D01000000000000111010B41D405064090741802480A0340
1001
ACAD
1000
AcDbSavedByObjectVersion
1070
     0
  0
ACAD_PROXY_OBJECT
  5
486B
102
{ACAD_REACTORS
330
485E
102
}
330
485E
100
AcDbProxyObject
 90
      499
 91
      503
 93
      412
310
41D51A1A58DAD95B90D409028333333333333E33F0000000000000F9010790141107004050150C41D405064090741402480A0350
1001
ACAD
1000
AcDbSavedByObjectVersion
1070
     0
  0
ACAD_PROXY_OBJECT
  5
4864
102
{ACAD_REACTORS
330
485E
102
}
330
485E
100
AcDbProxyObject
 90
      499
 91
      503
 93
      420
310
4255DA5C99599C985B595059028333333333333E33F0000000000000F90107901411070040501600405405064090740C02480A0340
1001
ACAD
1000
AcDbSavedByObjectVersion
1070
     0
  0
ACAD_PROXY_OBJECT
  5
4874
102
{ACAD_REACTORS
330
485E
102
}
330
485E
100
AcDbProxyObject
 90
      499
 91
      503
 93
      404
310
41560B54985E51940902404000000000000E03F0000000000000F9010740501907004050150841D405064090740C02480A1B40
1001
ACAD
1000
AcDbSavedByObjectVersion
1070
     0
  0
XRECORD
  5
53CA
102
{ACAD_REACTORS
330
53C0
102
}
330
53C0
100
AcDbXrecord
340
0
  0
XRECORD
  5
53C9
102
{ACAD_REACTORS
330
53C0
102
}
330
53C0
100
AcDbXrecord
 90
        0
  0
XRECORD
  5
53E4
102
{ACAD_REACTORS
330
53C0
102
}
330
53C0
100
AcDbXrecord
340
2948
  0
XRECORD
  5
53E0
102
{ACAD_REACTORS
330
53C0
102
}
330
53C0
100
AcDbXrecord
1000
DSTYLE
1002
{
1070
   171
 70
     2
1070
   143
 40
0.0394
1070
   274
 70
     2
1070
    41
 40
6.0
1070
   342
340
2AF4
1070
   271
 70
     1
1070
   278
 70
    46
1070
   341
340
2AF4
1070
   272
 70
     1
1070
    48
 40
0.1
1070
   279
 70
     2
1070
   283
 70
     1
1070
    47
 40
0.1
1070
   145
 40
1.0
1070
   340
340
10
1070
   140
 40
8.0
1070
   284
 70
     0
1002
}
  0
XRECORD
  5
53CB
102
{ACAD_REACTORS
330
53C0
102
}
330
53C0
100
AcDbXrecord
  1
{23698909-1D67-4744-B0E2-8DE11E3ED422}
  0
XRECORD
  5
53C3
102
{ACAD_REACTORS
330
53C0
102
}
330
53C0
100
AcDbXrecord
  1

  0
XRECORD
  5
53C8
102
{ACAD_REACTORS
330
53C0
102
}
330
53C0
100
AcDbXrecord
 90
        0
  0
XRECORD
  5
53C5
102
{ACAD_REACTORS
330
53C0
102
}
330
53C0
100
AcDbXrecord
340
2816
  0
XRECORD
  5
53C7
102
{ACAD_REACTORS
330
53C0
102
}
330
53C0
100
AcDbXrecord
 90
    10781
  0
XRECORD
  5
53E5
102
{ACAD_REACTORS
330
53C0
102
}
330
53C0
100
AcDbXrecord
340
2947
  0
XRECORD
  5
53C6
102
{ACAD_REACTORS
330
53C0
102
}
330
53C0
100
AcDbXrecord
340
2817
  0
XRECORD
  5
53CD
102
{ACAD_REACTORS
330
53C0
102
}
330
53C0
100
AcDbXrecord
 40
0.25
  0
XRECORD
  5
53D0
102
{ACAD_REACTORS
330
53C0
102
}
330
53C0
100
AcDbXrecord
340
0
  0
XRECORD
  5
53D6
102
{ACAD_REACTORS
330
53C0
102
}
330
53C0
100
AcDbXrecord
 10
0.0
 20
0.0
 30
0.0
  0
XRECORD
  5
53D2
102
{ACAD_REACTORS
330
53C0
102
}
330
53C0
100
AcDbXrecord
 10
0.0
 20
0.0
 30
0.0
  0
XRECORD
  5
53D5
102
{ACAD_REACTORS
330
53C0
102
}
330
53C0
100
AcDbXrecord
 10
0.0
 20
0.0
 30
0.0
  0
XRECORD
  5
53D3
102
{ACAD_REACTORS
330
53C0
102
}
330
53C0
100
AcDbXrecord
 10
0.0
 20
0.0
 30
0.0
  0
XRECORD
  5
53D4
102
{ACAD_REACTORS
330
53C0
102
}
330
53C0
100
AcDbXrecord
 10
0.0
 20
0.0
 30
0.0
  0
XRECORD
  5
53D1
102
{ACAD_REACTORS
330
53C0
102
}
330
53C0
100
AcDbXrecord
 10
0.0
 20
0.0
 30
0.0
  0
XRECORD
  5
53CE
102
{ACAD_REACTORS
330
53C0
102
}
330
53C0
100
AcDbXrecord
340
0
  0
XRECORD
  5
53CF
102
{ACAD_REACTORS
330
53C0
102
}
330
53C0
100
AcDbXrecord
 70
     0
  0
XRECORD
  5
53C4
102
{ACAD_REACTORS
330
53C0
102
}
330
53C0
100
AcDbXrecord
  1

  0
XRECORD
  5
53C1
102
{ACAD_REACTORS
330
53C0
102
}
330
53C0
100
AcDbXrecord
 90
        1
  0
XRECORD
  5
53C2
102
{ACAD_REACTORS
330
53C0
102
}
330
53C0
100
AcDbXrecord
 90
       70
  0
XRECORD
  5
53D9
102
{ACAD_REACTORS
330
53C0
102
}
330
53C0
100
AcDbXrecord
340
0
  0
XRECORD
  5
53DF
102
{ACAD_REACTORS
330
53C0
102
}
330
53C0
100
AcDbXrecord
 10
0.0
 20
0.0
 30
0.0
  0
XRECORD
  5
53DB
102
{ACAD_REACTORS
330
53C0
102
}
330
53C0
100
AcDbXrecord
 10
0.0
 20
0.0
 30
0.0
  0
XRECORD
  5
53DE
102
{ACAD_REACTORS
330
53C0
102
}
330
53C0
100
AcDbXrecord
 10
0.0
 20
0.0
 30
0.0
  0
XRECORD
  5
53DC
102
{ACAD_REACTORS
330
53C0
102
}
330
53C0
100
AcDbXrecord
 10
0.0
 20
0.0
 30
0.0
  0
XRECORD
  5
53DD
102
{ACAD_REACTORS
330
53C0
102
}
330
53C0
100
AcDbXrecord
 10
0.0
 20
0.0
 30
0.0
  0
XRECORD
  5
53DA
102
{ACAD_REACTORS
330
53C0
102
}
330
53C0
100
AcDbXrecord
 10
0.0
 20
0.0
 30
0.0
  0
XRECORD
  5
53D7
102
{ACAD_REACTORS
330
53C0
102
}
330
53C0
100
AcDbXrecord
340
0
  0
XRECORD
  5
53D8
102
{ACAD_REACTORS
330
53C0
102
}
330
53C0
100
AcDbXrecord
 70
     0
  0
XRECORD
  5
53CC
102
{ACAD_REACTORS
330
53C0
102
}
330
53C0
100
AcDbXrecord
  1
{992FBBED-F021-4F5A-8A32-CFA63A67BD09}
  0
DICTIONARYVAR
  5
53E9
102
{ACAD_REACTORS
330
4C77
102
}
330
4C77
100
DictionaryVariables
280
     0
  1
1:1
  0
DICTIONARYVAR
  5
4C7A
102
{ACAD_REACTORS
330
4C77
102
}
330
4C77
100
DictionaryVariables
280
     0
  1
STANDARD
  0
DICTIONARYVAR
  5
53E1
102
{ACAD_REACTORS
330
4C77
102
}
330
4C77
100
DictionaryVariables
280
     0
  1
Standard
  0
DICTIONARYVAR
  5
53A9
102
{ACAD_REACTORS
330
4C77
102
}
330
4C77
100
DictionaryVariables
280
     0
  1
1
  0
DICTIONARYVAR
  5
53AA
102
{ACAD_REACTORS
330
4C77
102
}
330
4C77
100
DictionaryVariables
280
     0
  1
0
  0
DICTIONARYVAR
  5
4C7B
102
{ACAD_REACTORS
330
4C77
102
}
330
4C77
100
DictionaryVariables
280
     0
  1
0
  0
DICTIONARYVAR
  5
4C7C
102
{ACAD_REACTORS
330
4C77
102
}
330
4C77
100
DictionaryVariables
280
     0
  1
0
  0
DICTIONARY
  5
4C73
102
{ACAD_REACTORS
330
4C72
102
}
330
4C72
100
AcDbDictionary
  0
DICTIONARY
  5
4B9A
102
{ACAD_REACTORS
330
4B99
102
}
330
4B99
100
AcDbDictionary
  0
DICTIONARY
  5
4EC6
102
{ACAD_REACTORS
330
4EC5
102
}
330
4EC5
100
AcDbDictionary
  0
DICTIONARY
  5
4EC9
102
{ACAD_REACTORS
330
4EC8
102
}
330
4EC8
100
AcDbDictionary
  0
DICTIONARY
  5
4BB3
102
{ACAD_REACTORS
330
4BB2
102
}
330
4BB2
100
AcDbDictionary
  0
DICTIONARY
  5
4D42
102
{ACAD_REACTORS
330
4D41
102
}
330
4D41
100
AcDbDictionary
  0
DICTIONARY
  5
4D46
102
{ACAD_REACTORS
330
4D45
102
}
330
4D45
100
AcDbDictionary
  0
DICTIONARY
  5
4D4A
102
{ACAD_REACTORS
330
4D49
102
}
330
4D49
100
AcDbDictionary
  0
DICTIONARY
  5
4D4E
102
{ACAD_REACTORS
330
4D4D
102
}
330
4D4D
100
AcDbDictionary
  0
DICTIONARY
  5
4D52
102
{ACAD_REACTORS
330
4D51
102
}
330
4D51
100
AcDbDictionary
  0
DICTIONARY
  5
4D56
102
{ACAD_REACTORS
330
4D55
102
}
330
4D55
100
AcDbDictionary
  0
DICTIONARY
  5
4D5A
102
{ACAD_REACTORS
330
4D59
102
}
330
4D59
100
AcDbDictionary
  0
DICTIONARY
  5
4D5E
102
{ACAD_REACTORS
330
4D5D
102
}
330
4D5D
100
AcDbDictionary
  0
DICTIONARY
  5
48A7
102
{ACAD_REACTORS
330
48A6
102
}
330
48A6
100
AcDbDictionary
  0
DICTIONARY
  5
5178
102
{ACAD_REACTORS
330
5177
102
}
330
5177
100
AcDbDictionary
  0
DICTIONARY
  5
517C
102
{ACAD_REACTORS
330
517B
102
}
330
517B
100
AcDbDictionary
  0
DICTIONARY
  5
526A
102
{ACAD_REACTORS
330
5269
102
}
330
5269
100
AcDbDictionary
  0
DICTIONARY
  5
52CF
102
{ACAD_REACTORS
330
52CE
102
}
330
52CE
100
AcDbDictionary
  0
DICTIONARY
  5
53EA
330
489A
100
AcDbDictionary
280
     1
  3
ACAD_XREC_ROUNDTRIP
360
53EB
  0
DICTIONARY
  5
53EC
330
4899
100
AcDbDictionary
280
     1
  3
ACAD_XREC_ROUNDTRIP
360
53ED
  0
DICTIONARY
  5
53EE
330
489B
100
AcDbDictionary
280
     1
  3
ACAD_XREC_ROUNDTRIP
360
53EF
  0
XRECORD
  5
53EB
102
{ACAD_REACTORS
330
53EA
102
}
330
53EA
100
AcDbXrecord
102
MATERIAL
148
0.0
149
0.0
149
0.0
 93
        0
 94
      127
282
     0
 72
     1
 77
     1
171
     1
175
     1
179
     1
273
     0
  0
XRECORD
  5
53ED
102
{ACAD_REACTORS
330
53EC
102
}
330
53EC
100
AcDbXrecord
102
MATERIAL
148
0.0
149
0.0
149
0.0
 93
        0
 94
      127
282
     0
 72
     1
 77
     1
171
     1
175
     1
179
     1
273
     0
  0
XRECORD
  5
53EF
102
{ACAD_REACTORS
330
53EE
102
}
330
53EE
100
AcDbXrecord
102
MATERIAL
148
0.0
149
0.0
149
0.0
 93
        0
 94
      127
282
     0
 72
     1
 77
     1
171
     1
175
     1
179
     1
273
     0
  0
ENDSEC
  0
EOF
