  0
SECTION
  2
HEADER
  9
$ACADVER
  1
AC1014
  9
$ACADMAINTVER
 70
     9
  9
$DWGCODEPAGE
  3
ANSI_932
  9
$INSBASE
 10
0.0
 20
0.0
 30
0.0
  9
$EXTMIN
 10
-90.463388532296
 20
110.520724174525
 30
0.0
  9
$EXTMAX
 10
660.688686071588
 20
562.134044292466
 30
0.0
  9
$LIMMIN
 10
-360.747566795242
 20
4.457354754526
  9
$LIMMAX
 10
-162.153696144267
 20
287.675440264018
  9
$ORTHOMODE
 70
     0
  9
$REGENMODE
 70
     1
  9
$FILLMODE
 70
     1
  9
$QTEXTMODE
 70
     0
  9
$MIRRTEXT
 70
     1
  9
$DRAGMODE
 70
     2
  9
$LTSCALE
 40
1.0
  9
$OSMODE
 70
   935
  9
$ATTMODE
 70
     1
  9
$TEXTSIZE
 40
4.0
  9
$TRACEWID
 40
1.0
  9
$TEXTSTYLE
  7
STANDARD
  9
$CLAYER
  8
寸法線
  9
$CELTYPE
  6
BYLAYER
  9
$CECOLOR
 62
   256
  9
$CELTSCALE
 40
10.0
  9
$DELOBJ
 70
     1
  9
$DISPSILH
 70
     0
  9
$DIMSCALE
 40
1.0
  9
$DIMASZ
 40
6.0
  9
$DIMEXO
 40
0.625
  9
$DIMDLI
 40
3.75
  9
$DIMRND
 40
0.0
  9
$DIMDLE
 40
0.0
  9
$DIMEXE
 40
1.25
  9
$DIMTP
 40
0.1
  9
$DIMTM
 40
0.1
  9
$DIMTXT
 40
8.0
  9
$DIMCEN
 40
2.5
  9
$DIMTSZ
 40
0.0
  9
$DIMTOL
 70
     0
  9
$DIMLIM
 70
     0
  9
$DIMTIH
 70
     0
  9
$DIMTOH
 70
     0
  9
$DIMSE1
 70
     0
  9
$DIMSE2
 70
     0
  9
$DIMTAD
 70
     1
  9
$DIMZIN
 70
     8
  9
$DIMBLK
  1
OPEN30
  9
$DIMASO
 70
     1
  9
$DIMSHO
 70
     1
  9
$DIMPOST
  1

  9
$DIMAPOST
  1

  9
$DIMALT
 70
     0
  9
$DIMALTD
 70
     2
  9
$DIMALTF
 40
0.0394
  9
$DIMLFAC
 40
1.0
  9
$DIMTOFL
 70
     1
  9
$DIMTVP
 40
1.0
  9
$DIMTIX
 70
     0
  9
$DIMSOXD
 70
     0
  9
$DIMSAH
 70
     0
  9
$DIMBLK1
  1

  9
$DIMBLK2
  1

  9
$DIMSTYLE
  2
ISO-25
  9
$DIMCLRD
 70
     0
  9
$DIMCLRE
 70
     0
  9
$DIMCLRT
 70
     0
  9
$DIMTFAC
 40
1.0
  9
$DIMGAP
 40
0.625
  9
$DIMJUST
 70
     0
  9
$DIMSD1
 70
     0
  9
$DIMSD2
 70
     0
  9
$DIMTOLJ
 70
     1
  9
$DIMTZIN
 70
     0
  9
$DIMALTZ
 70
     0
  9
$DIMALTTZ
 70
     0
  9
$DIMFIT
 70
     5
  9
$DIMUPT
 70
     0
  9
$DIMUNIT
 70
     2
  9
$DIMDEC
 70
     1
  9
$DIMTDEC
 70
     1
  9
$DIMALTU
 70
     2
  9
$DIMALTTD
 70
     2
  9
$DIMTXSTY
  7
STANDARD
  9
$DIMAUNIT
 70
     0
  9
$LUNITS
 70
     2
  9
$LUPREC
 70
     4
  9
$SKETCHINC
 40
1.0
  9
$FILLETRAD
 40
1.0
  9
$AUNITS
 70
     0
  9
$AUPREC
 70
     0
  9
$MENU
  1
.
  9
$ELEVATION
 40
0.0
  9
$PELEVATION
 40
0.0
  9
$THICKNESS
 40
0.0
  9
$LIMCHECK
 70
     0
  9
$CHAMFERA
 40
0.5
  9
$CHAMFERB
 40
0.5
  9
$CHAMFERC
 40
20.0
  9
$CHAMFERD
 40
0.0
  9
$SKPOLY
 70
     0
  9
$TDCREATE
 40
2450576.597302431
  9
$TDUPDATE
 40
2457627.665244224
  9
$TDINDWG
 40
1.4137460417
  9
$TDUSRTIMER
 40
1.4137460417
  9
$USRTIMER
 70
     1
  9
$ANGBASE
 50
0.0
  9
$ANGDIR
 70
     0
  9
$PDMODE
 70
     0
  9
$PDSIZE
 40
0.0
  9
$PLINEWID
 40
0.0
  9
$COORDS
 70
     2
  9
$SPLFRAME
 70
     0
  9
$SPLINETYPE
 70
     6
  9
$SPLINESEGS
 70
     8
  9
$ATTDIA
 70
     0
  9
$ATTREQ
 70
     1
  9
$HANDLING
 70
     1
  9
$HANDSEED
  5
5BF8
  9
$SURFTAB1
 70
     6
  9
$SURFTAB2
 70
     6
  9
$SURFTYPE
 70
     6
  9
$SURFU
 70
     6
  9
$SURFV
 70
     6
  9
$UCSNAME
  2

  9
$UCSORG
 10
0.0
 20
0.0
 30
0.0
  9
$UCSXDIR
 10
1.0
 20
0.0
 30
0.0
  9
$UCSYDIR
 10
0.0
 20
1.0
 30
0.0
  9
$PUCSNAME
  2

  9
$PUCSORG
 10
0.0
 20
0.0
 30
0.0
  9
$PUCSXDIR
 10
1.0
 20
0.0
 30
0.0
  9
$PUCSYDIR
 10
0.0
 20
1.0
 30
0.0
  9
$USERI1
 70
     0
  9
$USERI2
 70
     0
  9
$USERI3
 70
     0
  9
$USERI4
 70
     0
  9
$USERI5
 70
     0
  9
$USERR1
 40
0.0
  9
$USERR2
 40
0.0
  9
$USERR3
 40
0.0
  9
$USERR4
 40
0.0
  9
$USERR5
 40
0.0
  9
$WORLDVIEW
 70
     1
  9
$SHADEDGE
 70
     3
  9
$SHADEDIF
 70
    70
  9
$TILEMODE
 70
     0
  9
$MAXACTVP
 70
    16
  9
$PINSBASE
 10
0.0
 20
0.0
 30
0.0
  9
$PLIMCHECK
 70
     0
  9
$PEXTMIN
 10
4.746305129083
 20
2.201435859175
 30
0.0
  9
$PEXTMAX
 10
404.746305129083
 20
282.201435859175
 30
0.0
  9
$PLIMMIN
 10
-26.382099540178
 20
-9.471715891798
  9
$PLIMMAX
 10
435.874709798345
 20
317.37653313544
  9
$UNITMODE
 70
     0
  9
$VISRETAIN
 70
     0
  9
$PLINEGEN
 70
     0
  9
$PSLTSCALE
 70
     1
  9
$TREEDEPTH
 70
  3020
  9
$PICKSTYLE
 70
     1
  9
$CMLSTYLE
  2
STANDARD
  9
$CMLJUST
 70
     0
  9
$CMLSCALE
 40
1.0
  9
$PROXYGRAPHICS
 70
     1
  9
$MEASUREMENT
 70
     1
  0
ENDSEC
  0
SECTION
  2
CLASSES
  0
CLASS
  1
ACDBDICTIONARYWDFLT
  2
AcDbDictionaryWithDefault
  3
ObjectDBX Classes
 90
        0
280
     0
281
     0
  0
CLASS
  1
ACDBPLACEHOLDER
  2
AcDbPlaceHolder
  3
ObjectDBX Classes
 90
        0
280
     0
281
     0
  0
CLASS
  1
LAYOUT
  2
AcDbLayout
  3
ObjectDBX Classes
 90
        0
280
     0
281
     0
  0
CLASS
  1
VISUALSTYLE
  2
AcDbVisualStyle
  3
ObjectDBX Classes
 90
     4095
280
     0
281
     0
  0
CLASS
  1
SCALE
  2
AcDbScale
  3
ObjectDBX Classes
 90
     1153
280
     0
281
     0
  0
CLASS
  1
MATERIAL
  2
AcDbMaterial
  3
ObjectDBX Classes
 90
     1153
280
     0
281
     0
  0
CLASS
  1
TABLESTYLE
  2
AcDbTableStyle
  3
ObjectDBX Classes
 90
     4095
280
     0
281
     0
  0
CLASS
  1
MLEADERSTYLE
  2
AcDbMLeaderStyle
  3
ACDB_MLEADERSTYLE_CLASS
 90
     4095
280
     0
281
     0
  0
CLASS
  1
SUN
  2
AcDbSun
  3
SCENEOE
 90
     1153
280
     0
281
     0
  0
CLASS
  1
DICTIONARYVAR
  2
AcDbDictionaryVar
  3
ObjectDBX Classes
 90
        0
280
     0
281
     0
  0
CLASS
  1
CELLSTYLEMAP
  2
AcDbCellStyleMap
  3
ObjectDBX Classes
 90
     1152
280
     0
281
     0
  0
CLASS
  1
SORTENTSTABLE
  2
AcDbSortentsTable
  3
ObjectDBX Classes
 90
        0
280
     0
281
     0
  0
CLASS
  1
XRECORD
  2
AcDbXrecord
  3
ObjectDBX Classes
 90
        0
280
     0
281
     0
  0
CLASS
  1
LWPOLYLINE
  2
AcDbPolyline
  3
ObjectDBX Classes
 90
        0
280
     0
281
     1
  0
CLASS
  1
HATCH
  2
AcDbHatch
  3
ObjectDBX Classes
 90
        0
280
     0
281
     1
  0
ENDSEC
  0
SECTION
  2
TABLES
  0
TABLE
  2
VPORT
  5
8
102
{ACAD_XDICTIONARY
360
5BEF
102
}
330
0
100
AcDbSymbolTable
 70
     1
  0
VPORT
  5
56C6
330
8
100
AcDbSymbolTableRecord
100
AcDbViewportTableRecord
  2
*ACTIVE
 70
     0
 10
0.0
 20
0.0
 11
1.0
 21
1.0
 12
285.112648769646
 22
336.327384233496
 13
0.0
 23
0.0
 14
1.0
 24
1.0
 15
0.0
 25
0.0
 16
0.0
 26
0.0
 36
1.0
 17
0.0
 27
0.0
 37
0.0
 40
460.6455865203
 41
1.759407069555
 42
50.0
 43
0.0
 44
0.0
 50
0.0
 51
0.0
 71
    16
 72
   100
 73
     1
 74
     0
 75
     0
 76
     0
 77
     0
 78
     0
  0
ENDTAB
  0
TABLE
  2
LTYPE
  5
5
330
0
100
AcDbSymbolTable
 70
     6
  0
LTYPE
  5
14
330
5
100
AcDbSymbolTableRecord
100
AcDbLinetypeTableRecord
  2
BYBLOCK
 70
     0
  3

 72
    65
 73
     0
 40
0.0
  0
LTYPE
  5
15
330
5
100
AcDbSymbolTableRecord
100
AcDbLinetypeTableRecord
  2
BYLAYER
 70
     0
  3

 72
    65
 73
     0
 40
0.0
  0
LTYPE
  5
16
330
5
100
AcDbSymbolTableRecord
100
AcDbLinetypeTableRecord
  2
CONTINUOUS
 70
     0
  3
Solid line
 72
    65
 73
     0
 40
0.0
  0
LTYPE
  5
1EC
330
5
100
AcDbSymbolTableRecord
100
AcDbLinetypeTableRecord
  2
CENTER
 70
     0
  3
____ _ ____ _ ____ _ ____ _ ____ _ ____ _ ____ 
 72
    65
 73
     4
 40
2.0
 49
1.25
 74
     0
 49
-0.25
 74
     0
 49
0.25
 74
     0
 49
-0.25
 74
     0
  0
LTYPE
  5
1ED
330
5
100
AcDbSymbolTableRecord
100
AcDbLinetypeTableRecord
  2
DASHED
 70
     0
  3
__ __ __ __ __ __ __ __ __ __ __ __ __ __ __ __
 72
    65
 73
     2
 40
0.75
 49
0.5
 74
     0
 49
-0.25
 74
     0
  0
LTYPE
  5
2B1F
330
5
100
AcDbSymbolTableRecord
100
AcDbLinetypeTableRecord
  2
DASHDOT
 70
     0
  3
一点鎖線
 72
    65
 73
     4
 40
25.6
 49
20.0
 74
     0
 49
-2.0
 74
     0
 49
1.6
 74
     0
 49
-2.0
 74
     0
  0
LTYPE
  5
31A1
330
5
100
AcDbSymbolTableRecord
100
AcDbLinetypeTableRecord
  2
CENTER2
 70
     0
  3
Center (.5x) ___ _ ___ _ ___ _ ___ _ ___ _ ___
 72
    65
 73
     4
 40
28.575
 49
19.05
 74
     0
 49
-3.175
 74
     0
 49
3.175
 74
     0
 49
-3.175
 74
     0
  0
LTYPE
  5
4002
330
5
100
AcDbSymbolTableRecord
100
AcDbLinetypeTableRecord
  2
DASHED2
 70
     0
  3
Dashed (.5x) _ _ _ _ _ _ _ _ _ _ _ _ _ _ _ _ _
 72
    65
 73
     2
 40
9.525
 49
6.35
 74
     0
 49
-3.175
 74
     0
  0
ENDTAB
  0
TABLE
  2
LAYER
  5
2
102
{ACAD_XDICTIONARY
360
29EA
102
}
330
0
100
AcDbSymbolTable
 70
    12
  0
LAYER
  5
F
330
2
100
AcDbSymbolTableRecord
100
AcDbLayerTableRecord
  2
0
 70
     0
 62
     7
  6
CONTINUOUS
  0
LAYER
  5
61
330
2
100
AcDbSymbolTableRecord
100
AcDbLayerTableRecord
  2
図枠太線
 70
     0
 62
   251
  6
CONTINUOUS
  0
LAYER
  5
62
330
2
100
AcDbSymbolTableRecord
100
AcDbLayerTableRecord
  2
図枠細線
 70
     0
 62
   252
  6
CONTINUOUS
  0
LAYER
  5
63
330
2
100
AcDbSymbolTableRecord
100
AcDbLayerTableRecord
  2
図枠ロゴマーク
 70
     0
 62
   253
  6
CONTINUOUS
  0
LAYER
  5
1EF
330
2
100
AcDbSymbolTableRecord
100
AcDbLayerTableRecord
  2
外形線
 70
     0
 62
     7
  6
CONTINUOUS
  0
LAYER
  5
1F0
330
2
100
AcDbSymbolTableRecord
100
AcDbLayerTableRecord
  2
寸法線
 70
     0
 62
     1
  6
CONTINUOUS
  0
LAYER
  5
1F1
330
2
100
AcDbSymbolTableRecord
100
AcDbLayerTableRecord
  2
中心線
 70
     0
 62
     4
  6
CENTER
  0
LAYER
  5
1F4
330
2
100
AcDbSymbolTableRecord
100
AcDbLayerTableRecord
  2
DEFPOINTS
 70
     0
 62
     7
  6
CONTINUOUS
  0
LAYER
  5
2AA2
330
2
100
AcDbSymbolTableRecord
100
AcDbLayerTableRecord
  2
下書線
 70
     0
 62
     2
  6
CONTINUOUS
  0
LAYER
  5
2AA3
330
2
100
AcDbSymbolTableRecord
100
AcDbLayerTableRecord
  2
隠れ線
 70
     0
 62
     3
  6
DASHED
  0
LAYER
  5
2AA4
330
2
100
AcDbSymbolTableRecord
100
AcDbLayerTableRecord
  2
細線
 70
     0
 62
     6
  6
CONTINUOUS
  0
LAYER
  5
2AA5
330
2
100
AcDbSymbolTableRecord
100
AcDbLayerTableRecord
  2
太線
 70
     0
 62
   190
  6
CONTINUOUS
  0
ENDTAB
  0
TABLE
  2
STYLE
  5
3
330
0
100
AcDbSymbolTable
 70
     2
  0
STYLE
  5
10
330
3
100
AcDbSymbolTableRecord
100
AcDbTextStyleTableRecord
  2
STANDARD
 70
     0
 40
0.0
 41
1.0
 50
0.0
 71
     0
 42
4.0
  3
ISOCP
  4
bigfont.shx
  0
STYLE
  5
64
330
3
100
AcDbSymbolTableRecord
100
AcDbTextStyleTableRecord
  2
EXCADSTD
 70
     0
 40
0.0
 41
1.0
 50
0.0
 71
     0
 42
0.2
  3
monotxt
  4
bigfont
  0
ENDTAB
  0
TABLE
  2
VIEW
  5
6
330
0
100
AcDbSymbolTable
 70
     0
  0
ENDTAB
  0
TABLE
  2
UCS
  5
7
330
0
100
AcDbSymbolTable
 70
     0
  0
ENDTAB
  0
TABLE
  2
APPID
  5
9
330
0
100
AcDbSymbolTable
 70
     6
  0
APPID
  5
11
330
9
100
AcDbSymbolTableRecord
100
AcDbRegAppTableRecord
  2
ACAD
 70
     0
  0
APPID
  5
3507
330
9
100
AcDbSymbolTableRecord
100
AcDbRegAppTableRecord
  2
ACAD_DIMASSOC_CALC_DIMLFAC
 70
     0
  0
APPID
  5
3508
330
9
100
AcDbSymbolTableRecord
100
AcDbRegAppTableRecord
  2
ACAD_DIMASSOC_DIMLFAC
 70
     0
  0
APPID
  5
3509
330
9
100
AcDbSymbolTableRecord
100
AcDbRegAppTableRecord
  2
ACAD_DIMASSOC_OVERRIDDEN_D
 70
     0
  0
APPID
  5
570B
330
9
100
AcDbSymbolTableRecord
100
AcDbRegAppTableRecord
  2
ACADANNOTATIVE
 70
     0
  0
APPID
  5
5859
330
9
100
AcDbSymbolTableRecord
100
AcDbRegAppTableRecord
  2
ACAD_MLEADERVER
 70
     0
  0
ENDTAB
  0
TABLE
  2
DIMSTYLE
  5
A
330
0
100
AcDbSymbolTable
 70
     2
  0
DIMSTYLE
105
1D
330
A
100
AcDbSymbolTableRecord
100
AcDbDimStyleTableRecord
  2
STANDARD
 70
     0
  3

  4

  5

  6

  7

 40
1.0
 41
0.18
 42
0.0625
 43
0.38
 44
0.18
 45
0.0
 46
0.0
 47
0.0
 48
0.0
140
0.18
141
0.09
142
0.0
143
25.4
144
1.0
145
0.0
146
1.0
147
0.09
 71
     0
 72
     0
 73
     1
 74
     1
 75
     0
 76
     0
 77
     0
 78
     0
170
     0
171
     2
172
     0
173
     0
174
     0
175
     0
176
     0
177
     0
178
     0
270
     2
271
     4
272
     4
273
     2
274
     2
340
10
275
     0
280
     0
281
     0
282
     0
283
     1
284
     0
285
     0
286
     0
287
     3
288
     0
  0
DIMSTYLE
105
24
102
{ACAD_REACTORS
330
4759
330
478D
330
47B8
330
47EC
330
4AB1
330
50FC
330
5109
330
5116
330
5123
330
513F
330
514C
330
5159
330
516F
330
5185
330
519F
330
51B6
102
}
330
A
100
AcDbSymbolTableRecord
100
AcDbDimStyleTableRecord
  2
ISO-25
 70
     0
  3

  4

  5

  6

  7

 40
1.0
 41
2.5
 42
0.625
 43
3.75
 44
1.25
 45
0.0
 46
0.0
 47
0.0
 48
0.0
140
2.5
141
2.5
142
0.0
143
0.0394
144
1.0
145
1.0
146
1.0
147
0.625
 71
     0
 72
     0
 73
     1
 74
     0
 75
     0
 76
     0
 77
     1
 78
     8
170
     0
171
     2
172
     1
173
     0
174
     0
175
     0
176
     0
177
     0
178
     0
270
     2
271
     4
272
     4
273
     2
274
     2
340
10
275
     0
280
     0
281
     0
282
     0
283
     1
284
     0
285
     0
286
     0
287
     3
288
     0
  0
ENDTAB
  0
TABLE
  2
BLOCK_RECORD
  5
1
330
0
100
AcDbSymbolTable
 70
    24
  0
BLOCK_RECORD
  5
1A
330
1
100
AcDbSymbolTableRecord
100
AcDbBlockTableRecord
  2
*MODEL_SPACE
  0
BLOCK_RECORD
  5
28FB
330
1
100
AcDbSymbolTableRecord
100
AcDbBlockTableRecord
  2
*PAPER_SPACE
  0
BLOCK_RECORD
  5
65
330
1
100
AcDbSymbolTableRecord
100
AcDbBlockTableRecord
  2
A$C3392
  0
BLOCK_RECORD
  5
29BF
330
1
100
AcDbSymbolTableRecord
100
AcDbBlockTableRecord
  2
A4横用_タイトル
1001
ACAD
1000
DesignCenter Data
1002
{
1070
     1
1070
     4
1002
}
  0
BLOCK_RECORD
  5
29F4
330
1
100
AcDbSymbolTableRecord
100
AcDbBlockTableRecord
  2
A4縦用_タイトル
1001
ACAD
1000
DesignCenter Data
1002
{
1070
     1
1070
     4
1002
}
  0
BLOCK_RECORD
  5
2A32
330
1
100
AcDbSymbolTableRecord
100
AcDbBlockTableRecord
  2
A3横用_タイトル
1001
ACAD
1000
DesignCenter Data
1002
{
1070
     1
1070
     4
1002
}
  0
BLOCK_RECORD
  5
2A6C
330
1
100
AcDbSymbolTableRecord
100
AcDbBlockTableRecord
  2
A3縦用_タイトル
1001
ACAD
1000
DesignCenter Data
1002
{
1070
     1
1070
     4
1002
}
  0
BLOCK_RECORD
  5
2AF4
330
1
100
AcDbSymbolTableRecord
100
AcDbBlockTableRecord
  2
_OPEN30
  0
BLOCK_RECORD
  5
475A
330
1
100
AcDbSymbolTableRecord
100
AcDbBlockTableRecord
  2
*D6
  0
BLOCK_RECORD
  5
478E
330
1
100
AcDbSymbolTableRecord
100
AcDbBlockTableRecord
  2
*D7
  0
BLOCK_RECORD
  5
47B9
330
1
100
AcDbSymbolTableRecord
100
AcDbBlockTableRecord
  2
*D8
  0
BLOCK_RECORD
  5
47ED
330
1
100
AcDbSymbolTableRecord
100
AcDbBlockTableRecord
  2
*D9
  0
BLOCK_RECORD
  5
4AB2
330
1
100
AcDbSymbolTableRecord
100
AcDbBlockTableRecord
  2
*D10
  0
BLOCK_RECORD
  5
4B06
330
1
100
AcDbSymbolTableRecord
100
AcDbBlockTableRecord
  2
静電容量センサ
  0
BLOCK_RECORD
  5
50FD
330
1
100
AcDbSymbolTableRecord
100
AcDbBlockTableRecord
  2
*D12
  0
BLOCK_RECORD
  5
510A
330
1
100
AcDbSymbolTableRecord
100
AcDbBlockTableRecord
  2
*D13
  0
BLOCK_RECORD
  5
5117
330
1
100
AcDbSymbolTableRecord
100
AcDbBlockTableRecord
  2
*D14
  0
BLOCK_RECORD
  5
5124
330
1
100
AcDbSymbolTableRecord
100
AcDbBlockTableRecord
  2
*D15
  0
BLOCK_RECORD
  5
5140
330
1
100
AcDbSymbolTableRecord
100
AcDbBlockTableRecord
  2
*D16
  0
BLOCK_RECORD
  5
514D
330
1
100
AcDbSymbolTableRecord
100
AcDbBlockTableRecord
  2
*D17
  0
BLOCK_RECORD
  5
515A
330
1
100
AcDbSymbolTableRecord
100
AcDbBlockTableRecord
  2
*D18
  0
BLOCK_RECORD
  5
5170
330
1
100
AcDbSymbolTableRecord
100
AcDbBlockTableRecord
  2
*D19
  0
BLOCK_RECORD
  5
5186
330
1
100
AcDbSymbolTableRecord
100
AcDbBlockTableRecord
  2
*D20
  0
BLOCK_RECORD
  5
51A0
330
1
100
AcDbSymbolTableRecord
100
AcDbBlockTableRecord
  2
*D21
  0
BLOCK_RECORD
  5
51B7
330
1
100
AcDbSymbolTableRecord
100
AcDbBlockTableRecord
  2
*D22
  0
BLOCK_RECORD
  5
553A
330
1
100
AcDbSymbolTableRecord
100
AcDbBlockTableRecord
  2
エル2
  0
ENDTAB
  0
ENDSEC
  0
SECTION
  2
BLOCKS
  0
BLOCK
  5
1B
330
1A
100
AcDbEntity
  8
0
100
AcDbBlockBegin
  2
*MODEL_SPACE
 70
     0
 10
0.0
 20
0.0
 30
0.0
  3
*MODEL_SPACE
  1

  0
ENDBLK
  5
1C
330
1A
100
AcDbEntity
  8
0
100
AcDbBlockEnd
  0
BLOCK
  5
28FD
330
28FB
100
AcDbEntity
 67
     1
  8
0
 48
10.0
100
AcDbBlockBegin
  2
*PAPER_SPACE
 70
     0
 10
0.0
 20
0.0
 30
0.0
  3
*PAPER_SPACE
  1

  0
ENDBLK
  5
28FE
330
28FB
100
AcDbEntity
 67
     1
  8
0
 48
10.0
100
AcDbBlockEnd
  0
BLOCK
  5
93
330
65
100
AcDbEntity
  8
0
100
AcDbBlockBegin
  2
A$C3392
 70
     0
 10
0.0
 20
0.0
 30
0.0
  3
A$C3392
  1

  0
LINE
  5
66
330
65
100
AcDbEntity
  8
図枠太線
  6
CONTINUOUS
100
AcDbLine
 10
211.858584505185
 20
30.927375675439
 30
0.0
 11
211.858584505185
 21
0.927375675439
 31
0.0
  0
LINE
  5
67
330
65
100
AcDbEntity
  8
図枠細線
  6
CONTINUOUS
100
AcDbLine
 10
231.858592505185
 20
15.927377675439
 30
0.0
 11
287.858592505185
 21
15.927375675439
 31
0.0
  0
LINE
  5
68
330
65
100
AcDbEntity
  8
図枠細線
  6
CONTINUOUS
100
AcDbLine
 10
211.858592505185
 20
15.927377675439
 30
0.0
 11
231.858592505185
 21
15.927377675439
 31
0.0
  0
LINE
  5
69
330
65
100
AcDbEntity
  8
図枠太線
  6
CONTINUOUS
 62
   251
100
AcDbLine
 10
1.858584505185
 20
0.927375675439
 30
0.0
 11
1.858584505185
 21
275.927375675439
 31
0.0
  0
TEXT
  5
6A
330
65
100
AcDbEntity
  8
図枠細線
  6
CONTINUOUS
 62
   252
100
AcDbText
 10
351.358592505185
 20
28.427377675439
 30
0.0
 40
2.0
  1
ＴＩＴＬＥ
 41
0.892857142857
  7
EXCADSTD
 72
     5
 11
361.358592505185
 21
28.427377675439
 31
0.0
100
AcDbText
  0
TEXT
  5
6B
330
65
100
AcDbEntity
  8
図枠細線
  6
CONTINUOUS
 62
   252
100
AcDbText
 10
345.358592505185
 20
28.427377675439
 30
0.0
 40
2.0
  1
名称
 41
1.136363636364
  7
EXCADSTD
 72
     5
 11
350.358592505185
 21
28.427377675439
 31
0.0
100
AcDbText
  0
TEXT
  5
6C
330
65
100
AcDbEntity
  8
図枠細線
  6
CONTINUOUS
 62
   252
100
AcDbText
 10
274.358592505185
 20
25.927377675439
 30
0.0
 40
2.0
  1
ＤＲＡＷＮ
 41
0.892857142857
  7
EXCADSTD
 72
     5
 11
284.358592505185
 21
25.927377675439
 31
0.0
100
AcDbText
  0
TEXT
  5
6D
330
65
100
AcDbEntity
  8
図枠細線
  6
CONTINUOUS
 62
   252
100
AcDbText
 10
260.358592505185
 20
25.927377675439
 30
0.0
 40
2.0
  1
ＤＥＳＩＧＮＥＤ
 41
0.713043472041
  7
EXCADSTD
 72
     5
 11
273.478592390744
 21
25.927377675439
 31
0.0
100
AcDbText
  0
TEXT
  5
6E
330
65
100
AcDbEntity
  8
図枠細線
  6
CONTINUOUS
 62
   252
100
AcDbText
 10
246.358592505185
 20
25.927377675439
 30
0.0
 40
2.0
  1
ＣＨＥＣＫＥＤ
 41
0.831249989569
  7
EXCADSTD
 72
     5
 11
259.658592338292
 21
25.927377675439
 31
0.0
100
AcDbText
  0
TEXT
  5
6F
330
65
100
AcDbEntity
  8
図枠細線
  6
CONTINUOUS
 62
   252
100
AcDbText
 10
274.358592505185
 20
28.427377675439
 30
0.0
 40
2.0
  1
製図
 41
1.171875
  7
EXCADSTD
 72
     5
 11
279.358592505185
 21
28.427377675439
 31
0.0
100
AcDbText
  0
TEXT
  5
70
330
65
100
AcDbEntity
  8
図枠細線
  6
CONTINUOUS
 62
   252
100
AcDbText
 10
260.358592505185
 20
28.427377675439
 30
0.0
 40
2.0
  1
設計
 41
1.136363636364
  7
EXCADSTD
 72
     5
 11
265.358592505185
 21
28.427377675439
 31
0.0
100
AcDbText
  0
TEXT
  5
71
330
65
100
AcDbEntity
  8
図枠細線
  6
CONTINUOUS
 62
   252
100
AcDbText
 10
246.358592505185
 20
28.427377675439
 30
0.0
 40
2.0
  1
検図
 41
1.171875
  7
EXCADSTD
 72
     5
 11
251.358592505185
 21
28.427377675439
 31
0.0
100
AcDbText
  0
TEXT
  5
72
330
65
100
AcDbEntity
  8
図枠細線
  6
CONTINUOUS
 62
   252
100
AcDbText
 10
232.358592505185
 20
25.927377675439
 30
0.0
 40
2.0
  1
ＡＰＰＲＯＶＥＤ
 41
0.695652184279
  7
EXCADSTD
 72
     5
 11
245.15859269592
 21
25.927377675439
 31
0.0
100
AcDbText
  0
TEXT
  5
73
330
65
100
AcDbEntity
  8
図枠細線
  6
CONTINUOUS
 62
   252
100
AcDbText
 10
232.358592505185
 20
28.427377675439
 30
0.0
 40
2.0
  1
承認
 41
1.136363636364
  7
EXCADSTD
 72
     5
 11
237.358592505185
 21
28.427377675439
 31
0.0
100
AcDbText
  0
TEXT
  5
74
330
65
100
AcDbEntity
  8
図枠細線
  6
CONTINUOUS
 62
   252
100
AcDbText
 10
290.069888505185
 20
2.574868675439
 30
0.0
 40
3.5
  1
ＴＯＷＡ　ＳＥＩＤＥＮ　ＩＮＤＵＳＴＲＩＡＬ　ＣＯ．，ＬＴＤ．
 41
0.41609778364
  7
EXCADSTD
 72
     5
 11
342.692388209546
 21
2.574868675439
 31
0.0
100
AcDbText
  0
TEXT
  5
75
330
65
100
AcDbEntity
  8
図枠ロゴマーク
  6
CONTINUOUS
 62
   253
100
AcDbText
 10
290.107348505185
 20
7.519769675439
 30
0.0
 40
7.0
  1
東和制電工業株式会社
 41
0.635593220339
  7
EXCADSTD
 72
     5
 11
342.607348505185
 21
7.519769675439
 31
0.0
100
AcDbText
  0
TEXT
  5
76
330
65
100
AcDbEntity
  8
図枠細線
  6
CONTINUOUS
 62
   252
100
AcDbText
 10
232.499705505185
 20
5.759088675439
 30
0.0
 40
2.0
  1
ＰＲＯＪＥＣＴＩＯＮ
 41
0.758620685544
  7
EXCADSTD
 72
     5
 11
250.099705409817
 21
5.759088675439
 31
0.0
100
AcDbText
  0
TEXT
  5
77
330
65
100
AcDbEntity
  8
図枠細線
  6
CONTINUOUS
 62
   252
100
AcDbText
 10
232.574629505185
 20
8.681077675439
 30
0.0
 40
2.0
  1
ＴＨＩＲＤ　ＡＮＧＬＥ
 41
0.687500010245
  7
EXCADSTD
 72
     5
 11
250.174629767445
 21
8.681077675439
 31
0.0
100
AcDbText
  0
TEXT
  5
78
330
65
100
AcDbEntity
  8
図枠細線
  6
CONTINUOUS
 62
   252
100
AcDbText
 10
256.823999505185
 20
13.427377675439
 30
0.0
 40
2.0
  1
ＳＣＡＬＥ
 41
0.892857142857
  7
EXCADSTD
 72
     5
 11
266.823999505185
 21
13.427377675439
 31
0.0
100
AcDbText
  0
TEXT
  5
79
330
65
100
AcDbEntity
  8
図枠細線
  6
CONTINUOUS
 62
   252
100
AcDbText
 10
274.858592505185
 20
13.427377675439
 30
0.0
 40
2.0
  1
ＤＡＴＥ
 41
0.909090909091
  7
EXCADSTD
 72
     5
 11
282.858592505185
 21
13.427377675439
 31
0.0
100
AcDbText
  0
TEXT
  5
7A
330
65
100
AcDbEntity
  8
図枠細線
  6
CONTINUOUS
 62
   252
100
AcDbText
 10
356.358592505185
 20
13.427377675439
 30
0.0
 40
2.0
  1
ＤＲＧ．ＮＯ．
 41
0.954545454545
  7
EXCADSTD
 72
     5
 11
370.358592505185
 21
13.427377675439
 31
0.0
100
AcDbText
  0
TEXT
  5
7B
330
65
100
AcDbEntity
  8
図枠細線
  6
CONTINUOUS
 62
   252
100
AcDbText
 10
345.358592505185
 20
13.427377675439
 30
0.0
 40
2.0
  1
図面番号
 41
1.094890510949
  7
EXCADSTD
 72
     5
 11
355.358592505185
 21
13.427377675439
 31
0.0
100
AcDbText
  0
TEXT
  5
7C
330
65
100
AcDbEntity
  8
図枠細線
  6
CONTINUOUS
 62
   252
100
AcDbText
 10
269.358592505185
 20
13.427377675439
 30
0.0
 40
2.0
  1
日付
 41
1.136363636364
  7
EXCADSTD
 72
     5
 11
274.358592505185
 21
13.427377675439
 31
0.0
100
AcDbText
  0
TEXT
  5
7D
330
65
100
AcDbEntity
  8
図枠細線
  6
CONTINUOUS
 62
   252
100
AcDbText
 10
251.451512505185
 20
13.427377675439
 30
0.0
 40
2.0
  1
尺度
 41
1.136363636364
  7
EXCADSTD
 72
     5
 11
256.451512505185
 21
13.427377675439
 31
0.0
100
AcDbText
  0
TEXT
  5
7E
330
65
100
AcDbEntity
  8
図枠細線
  6
CONTINUOUS
 62
   252
100
AcDbText
 10
232.358592505185
 20
13.427377675439
 30
0.0
 40
2.0
  1
第三角法
 41
1.086956521739
  7
EXCADSTD
 72
     5
 11
242.358592505185
 21
13.427377675439
 31
0.0
100
AcDbText
  0
TEXT
  5
7F
330
65
100
AcDbEntity
  8
図枠細線
  6
CONTINUOUS
 62
   252
100
AcDbText
 10
212.358592505185
 20
28.427377675439
 30
0.0
 40
2.0
  1
ＮＯＴＥ
 41
0.909090909091
  7
EXCADSTD
 72
     5
 11
220.358592505185
 21
28.427377675439
 31
0.0
100
AcDbText
  0
LINE
  5
80
330
65
100
AcDbEntity
  8
図枠細線
  6
CONTINUOUS
 62
   252
100
AcDbLine
 10
287.858592505185
 20
23.427375675439
 30
0.0
 11
344.858592505185
 21
23.427375675439
 31
0.0
  0
LINE
  5
81
330
65
100
AcDbEntity
  8
図枠太線
  6
CONTINUOUS
 62
   251
100
AcDbLine
 10
287.858584505185
 20
15.927375675439
 30
0.0
 11
344.858592505185
 21
15.927375675439
 31
0.0
  0
LINE
  5
82
330
65
100
AcDbEntity
  8
図枠細線
  6
CONTINUOUS
 62
   252
100
AcDbLine
 10
344.858592505185
 20
15.927375675439
 30
0.0
 11
401.858584505185
 21
15.927375675439
 31
0.0
  0
LINE
  5
83
330
65
100
AcDbEntity
  8
図枠太線
  6
CONTINUOUS
 62
   251
100
AcDbLine
 10
344.858592505185
 20
0.927377675439
 30
0.0
 11
344.858592505185
 21
30.927375675439
 31
0.0
  0
LINE
  5
84
330
65
100
AcDbEntity
  8
図枠太線
  6
CONTINUOUS
 62
   251
100
AcDbLine
 10
287.858592505185
 20
0.927377675439
 30
0.0
 11
287.858592505185
 21
30.927375675439
 31
0.0
  0
LINE
  5
85
330
65
100
AcDbEntity
  8
図枠細線
  6
CONTINUOUS
 62
   252
100
AcDbLine
 10
268.858592505185
 20
0.927377675439
 30
0.0
 11
268.858592505185
 21
15.927375675439
 31
0.0
  0
LINE
  5
86
330
65
100
AcDbEntity
  8
図枠細線
  6
CONTINUOUS
 62
   252
100
AcDbLine
 10
250.858592505185
 20
0.927377675439
 30
0.0
 11
250.858592505185
 21
15.927375675439
 31
0.0
  0
LINE
  5
87
330
65
100
AcDbEntity
  8
図枠細線
  6
CONTINUOUS
 62
   252
100
AcDbLine
 10
273.858592505185
 20
30.927375675439
 30
0.0
 11
273.858592505185
 21
15.927375675439
 31
0.0
  0
LINE
  5
88
330
65
100
AcDbEntity
  8
図枠細線
  6
CONTINUOUS
 62
   252
100
AcDbLine
 10
259.858592505185
 20
30.927375675439
 30
0.0
 11
259.858592505185
 21
15.927375675439
 31
0.0
  0
LINE
  5
89
330
65
100
AcDbEntity
  8
図枠細線
  6
CONTINUOUS
 62
   252
100
AcDbLine
 10
245.858592505185
 20
30.927375675439
 30
0.0
 11
245.858592505185
 21
15.927375675439
 31
0.0
  0
LINE
  5
8A
330
65
100
AcDbEntity
  8
図枠太線
  6
CONTINUOUS
 62
   251
100
AcDbLine
 10
231.858592505185
 20
0.927377675439
 30
0.0
 11
231.858592505185
 21
30.927375675439
 31
0.0
  0
LINE
  5
8B
330
65
100
AcDbEntity
  8
図枠細線
  6
CONTINUOUS
 62
   252
100
AcDbLine
 10
211.858592505185
 20
25.927375675439
 30
0.0
 11
231.858592505185
 21
25.927375675439
 31
0.0
  0
LINE
  5
8C
330
65
100
AcDbEntity
  8
図枠細線
  6
CONTINUOUS
 62
   252
100
AcDbLine
 10
211.858592505185
 20
20.927375675439
 30
0.0
 11
231.858592505185
 21
20.927375675439
 31
0.0
  0
LINE
  5
8D
330
65
100
AcDbEntity
  8
図枠細線
  6
CONTINUOUS
 62
   252
100
AcDbLine
 10
211.858592505185
 20
10.927375675439
 30
0.0
 11
231.858592505185
 21
10.927375675439
 31
0.0
  0
LINE
  5
8E
330
65
100
AcDbEntity
  8
図枠細線
  6
CONTINUOUS
 62
   252
100
AcDbLine
 10
211.858592505185
 20
5.927377675439
 30
0.0
 11
231.858592505185
 21
5.927377675439
 31
0.0
  0
LINE
  5
8F
330
65
100
AcDbEntity
  8
図枠太線
  6
CONTINUOUS
 62
   251
100
AcDbLine
 10
211.858592505185
 20
30.927375675439
 30
0.0
 11
401.858584505185
 21
30.927375675439
 31
0.0
  0
LINE
  5
90
330
65
100
AcDbEntity
  8
図枠太線
  6
CONTINUOUS
 62
   251
100
AcDbLine
 10
1.858584505185
 20
275.927375675439
 30
0.0
 11
401.858584505185
 21
275.927375675439
 31
0.0
  0
LINE
  5
91
330
65
100
AcDbEntity
  8
図枠太線
  6
CONTINUOUS
 62
   251
100
AcDbLine
 10
401.858584505185
 20
0.927375675439
 30
0.0
 11
401.858584505185
 21
275.927375675439
 31
0.0
  0
LINE
  5
92
330
65
100
AcDbEntity
  8
図枠太線
  6
CONTINUOUS
 62
   251
100
AcDbLine
 10
1.858584505185
 20
0.927375675439
 30
0.0
 11
401.858584505185
 21
0.927375675439
 31
0.0
  0
ENDBLK
  5
94
330
65
100
AcDbEntity
  8
0
100
AcDbBlockEnd
  0
BLOCK
  5
29C0
330
29BF
100
AcDbEntity
  8
0
100
AcDbBlockBegin
  2
A4横用_タイトル
 70
     0
 10
0.0
 20
0.0
 30
0.0
  3
A4横用_タイトル
  1

  0
LINE
  5
29C1
330
29BF
100
AcDbEntity
  8
図枠細線
  6
CONTINUOUS
100
AcDbLine
 10
75.061011071051
 20
16.806607253358
 30
0.0
 11
144.061011071051
 21
16.806604789072
 31
0.0
  0
LINE
  5
29C2
330
29BF
100
AcDbEntity
  8
図枠細線
  6
CONTINUOUS
 62
   252
100
AcDbLine
 10
4.061011071051
 20
11.806606253358
 30
0.0
 11
75.061011071051
 21
11.806606253358
 31
0.0
  0
LINE
  5
29C3
330
29BF
100
AcDbEntity
  8
図枠細線
  6
CONTINUOUS
 62
   252
100
AcDbLine
 10
4.061011071051
 20
21.806606253358
 30
0.0
 11
75.061011071051
 21
21.806606253358
 31
0.0
  0
LINE
  5
29C4
330
29BF
100
AcDbEntity
  8
図枠細線
  6
CONTINUOUS
 62
   252
100
AcDbLine
 10
4.061011071051
 20
26.806606253358
 30
0.0
 11
75.061011071051
 21
26.806606253358
 31
0.0
  0
LINE
  5
29C5
330
29BF
100
AcDbEntity
  8
図枠細線
  6
CONTINUOUS
100
AcDbLine
 10
4.061011071051
 20
16.806608253358
 30
0.0
 11
75.061011071051
 21
16.806608253358
 31
0.0
  0
TEXT
  5
29C6
330
29BF
100
AcDbEntity
  8
図枠細線
  6
CONTINUOUS
 62
   252
100
AcDbText
 10
76.405475827713
 20
9.560308253358
 30
0.0
 40
2.0
  1
ＴＨＩＲＤ　ＡＮＧＬＥ
 41
0.687500010245
  7
EXCADSTD
 72
     5
 11
94.005476089973
 21
9.560308253358
 31
0.0
100
AcDbText
  0
TEXT
  5
29C7
330
29BF
100
AcDbEntity
  8
図枠細線
  6
CONTINUOUS
 62
   252
100
AcDbText
 10
76.705775880921
 20
14.306608253358
 30
0.0
 40
2.0
  1
第三角法
 41
1.086956521739
  7
EXCADSTD
 72
     5
 11
86.705775880921
 21
14.306608253358
 31
0.0
100
AcDbText
  0
TEXT
  5
29C8
330
29BF
100
AcDbEntity
  8
図枠細線
  6
CONTINUOUS
 62
   252
100
AcDbText
 10
76.705775880921
 20
26.806608253358
 30
0.0
 40
2.0
  1
ＡＰＰＲＯＶＥＤ
 41
0.695652184279
  7
EXCADSTD
 72
     5
 11
89.505776071656
 21
26.806608253358
 31
0.0
100
AcDbText
  0
TEXT
  5
29C9
330
29BF
100
AcDbEntity
  8
図枠細線
  6
CONTINUOUS
 62
   252
100
AcDbText
 10
76.705775880921
 20
29.306608253358
 30
0.0
 40
2.0
  1
承認
 41
1.136363636364
  7
EXCADSTD
 72
     5
 11
81.705775880921
 21
29.306608253358
 31
0.0
100
AcDbText
  0
LINE
  5
29CA
330
29BF
100
AcDbEntity
  8
図枠細線
  6
CONTINUOUS
 62
   252
100
AcDbLine
 10
98.061011071051
 20
31.806606253358
 30
0.0
 11
98.061011071051
 21
16.806606253358
 31
0.0
  0
TEXT
  5
29CB
330
29BF
100
AcDbEntity
  8
図枠細線
  6
CONTINUOUS
 62
   252
100
AcDbText
 10
104.216531119804
 20
14.306608253358
 30
0.0
 40
2.0
  1
ＳＣＡＬＥ
 41
0.892857142857
  7
EXCADSTD
 72
     5
 11
114.216531119804
 21
14.306608253358
 31
0.0
100
AcDbText
  0
TEXT
  5
29CC
330
29BF
100
AcDbEntity
  8
図枠細線
  6
CONTINUOUS
 62
   252
100
AcDbText
 10
98.844044119804
 20
14.306608253358
 30
0.0
 40
2.0
  1
尺度
 41
1.136363636364
  7
EXCADSTD
 72
     5
 11
103.844044119804
 21
14.306608253358
 31
0.0
100
AcDbText
  0
TEXT
  5
29CD
330
29BF
100
AcDbEntity
  8
図枠細線
  6
CONTINUOUS
 62
   252
100
AcDbText
 10
98.968727707497
 20
26.806608253358
 30
0.0
 40
2.0
  1
ＣＨＥＣＫＥＤ
 41
0.831249989569
  7
EXCADSTD
 72
     5
 11
112.268727540604
 21
26.806608253358
 31
0.0
100
AcDbText
  0
TEXT
  5
29CE
330
29BF
100
AcDbEntity
  8
図枠細線
  6
CONTINUOUS
 62
   252
100
AcDbText
 10
98.968727707497
 20
29.306608253358
 30
0.0
 40
2.0
  1
検図
 41
1.171875
  7
EXCADSTD
 72
     5
 11
103.968727707497
 21
29.306608253358
 31
0.0
100
AcDbText
  0
LINE
  5
29CF
330
29BF
100
AcDbEntity
  8
図枠細線
  6
CONTINUOUS
 62
   252
100
AcDbLine
 10
121.061011071051
 20
31.806606253358
 30
0.0
 11
121.061011071051
 21
16.806606253358
 31
0.0
  0
TEXT
  5
29D0
330
29BF
100
AcDbEntity
  8
図枠細線
  6
CONTINUOUS
 62
   252
100
AcDbText
 10
128.001465247253
 20
14.306608253358
 30
0.0
 40
2.0
  1
ＤＡＴＥ
 41
0.909090909091
  7
EXCADSTD
 72
     5
 11
136.001465247253
 21
14.306608253358
 31
0.0
100
AcDbText
  0
TEXT
  5
29D1
330
29BF
100
AcDbEntity
  8
図枠細線
  6
CONTINUOUS
 62
   252
100
AcDbText
 10
122.066415498841
 20
14.306608253358
 30
0.0
 40
2.0
  1
日付
 41
1.136363636364
  7
EXCADSTD
 72
     5
 11
127.066415498841
 21
14.306608253358
 31
0.0
100
AcDbText
  0
TEXT
  5
29D2
330
29BF
100
AcDbEntity
  8
図枠細線
  6
CONTINUOUS
 62
   252
100
AcDbText
 10
121.59429406571
 20
29.306608253358
 30
0.0
 40
2.0
  1
製図
 41
1.171875
  7
EXCADSTD
 72
     5
 11
126.59429406571
 21
29.306608253358
 31
0.0
100
AcDbText
  0
TEXT
  5
29D3
330
29BF
100
AcDbEntity
  8
図枠細線
  6
CONTINUOUS
 62
   252
100
AcDbText
 10
121.59429406571
 20
26.806608253358
 30
0.0
 40
2.0
  1
ＤＲＡＷＮ
 41
0.892857142857
  7
EXCADSTD
 72
     5
 11
131.59429406571
 21
26.806608253358
 31
0.0
100
AcDbText
  0
TEXT
  5
29D4
330
29BF
100
AcDbEntity
  8
図枠細線
  6
CONTINUOUS
 62
   252
100
AcDbText
 10
226.591229661348
 20
14.306608253358
 30
0.0
 40
2.0
  1
ＤＲＧ．ＮＯ．
 41
0.954545454545
  7
EXCADSTD
 72
     5
 11
240.591229661348
 21
14.306608253358
 31
0.0
100
AcDbText
  0
LINE
  5
29D5
330
29BF
100
AcDbEntity
  8
図枠太線
  6
CONTINUOUS
 62
   251
100
AcDbLine
 10
144.061003071051
 20
16.806606253358
 30
0.0
 11
214.061011071051
 21
16.806606253358
 31
0.0
  0
LINE
  5
29D6
330
29BF
100
AcDbEntity
  8
図枠細線
  6
CONTINUOUS
 62
   252
100
AcDbLine
 10
144.061011071051
 20
24.306606253358
 30
0.0
 11
214.061011071051
 21
24.306606253358
 31
0.0
  0
TEXT
  5
29D7
330
29BF
100
AcDbEntity
  8
図枠ロゴマーク
  6
CONTINUOUS
 62
   253
100
AcDbText
 10
146.433776781596
 20
8.399000253358
 30
0.0
 40
7.0
  1
東和制電工業株式会社
 41
0.79907071013
  7
EXCADSTD
 72
     5
 11
212.437017438349
 21
8.399000253358
 31
0.0
100
AcDbText
  0
TEXT
  5
29D8
330
29BF
100
AcDbEntity
  8
図枠細線
  6
CONTINUOUS
 62
   252
100
AcDbText
 10
215.156179912936
 20
14.306608253358
 30
0.0
 40
2.0
  1
図面番号
 41
1.094890510949
  7
EXCADSTD
 72
     5
 11
225.156179912936
 21
14.306608253358
 31
0.0
100
AcDbText
  0
TEXT
  5
29D9
330
29BF
100
AcDbEntity
  8
図枠細線
  6
CONTINUOUS
 62
   252
100
AcDbText
 10
221.591229661348
 20
29.306608253358
 30
0.0
 40
2.0
  1
ＴＩＴＬＥ
 41
0.892857142857
  7
EXCADSTD
 72
     5
 11
231.591229661348
 21
29.306608253358
 31
0.0
100
AcDbText
  0
TEXT
  5
29DA
330
29BF
100
AcDbEntity
  8
図枠細線
  6
CONTINUOUS
 62
   252
100
AcDbText
 10
215.156179912936
 20
29.306608253358
 30
0.0
 40
2.0
  1
名称
 41
1.136363636364
  7
EXCADSTD
 72
     5
 11
220.156179912936
 21
29.306608253358
 31
0.0
100
AcDbText
  0
LINE
  5
29DB
330
29BF
100
AcDbEntity
  8
図枠太線
  6
CONTINUOUS
 62
   251
100
AcDbLine
 10
4.061011071051
 20
1.806608253358
 30
0.0
 11
284.061011071051
 21
1.806608253358
 31
0.0
  0
LINE
  5
29DC
330
29BF
100
AcDbEntity
  8
図枠細線
  6
CONTINUOUS
 62
   252
100
AcDbLine
 10
4.061011071051
 20
6.806608253358
 30
0.0
 11
75.061011071051
 21
6.806608253358
 31
0.0
  0
LINE
  5
29DD
330
29BF
100
AcDbEntity
  8
図枠太線
  6
CONTINUOUS
 62
   251
100
AcDbLine
 10
75.061011071051
 20
1.806608253358
 30
0.0
 11
75.061011071051
 21
31.806606253358
 31
0.0
  0
TEXT
  5
29DE
330
29BF
100
AcDbEntity
  8
図枠細線
  6
CONTINUOUS
 62
   252
100
AcDbText
 10
76.330551827713
 20
6.638319253358
 30
0.0
 40
2.0
  1
ＰＲＯＪＥＣＴＩＯＮ
 41
0.758620685545
  7
EXCADSTD
 72
     5
 11
93.930551732346
 21
6.638319253358
 31
0.0
100
AcDbText
  0
LINE
  5
29DF
330
29BF
100
AcDbEntity
  8
図枠細線
  6
CONTINUOUS
 62
   252
100
AcDbLine
 10
98.061011071051
 20
1.806606931929
 30
0.0
 11
98.061011071051
 21
16.806604931929
 31
0.0
  0
LINE
  5
29E0
330
29BF
100
AcDbEntity
  8
図枠細線
  6
CONTINUOUS
 62
   252
100
AcDbLine
 10
121.061011071051
 20
1.806607574787
 30
0.0
 11
121.061011071051
 21
16.806605574787
 31
0.0
  0
LINE
  5
29E1
330
29BF
100
AcDbEntity
  8
図枠太線
  6
CONTINUOUS
 62
   251
100
AcDbLine
 10
284.061011071051
 20
1.806608253358
 30
0.0
 11
284.061011071051
 21
31.806606253358
 31
0.0
  0
LINE
  5
29E2
330
29BF
100
AcDbEntity
  8
図枠細線
  6
CONTINUOUS
 62
   252
100
AcDbLine
 10
214.061011071051
 20
16.806606253358
 30
0.0
 11
284.061011071051
 21
16.806606253358
 31
0.0
  0
TEXT
  5
29E3
330
29BF
100
AcDbEntity
  8
図枠細線
  6
CONTINUOUS
 62
   252
100
AcDbText
 10
146.199593676182
 20
3.454099253358
 30
0.0
 40
3.5
  1
ＴＯＷＡ　ＳＥＩＤＥＮ　ＩＮＤＵＳＴＲＩＡＬ　ＣＯ．，ＬＴＤ．
 41
0.530889627006
  7
EXCADSTD
 72
     5
 11
213.339435171588
 21
3.454099253358
 31
0.0
100
AcDbText
  0
LINE
  5
29E4
330
29BF
100
AcDbEntity
  8
図枠太線
  6
CONTINUOUS
 62
   251
100
AcDbLine
 10
144.061011071051
 20
1.806608253358
 30
0.0
 11
144.061011071051
 21
31.806606253358
 31
0.0
  0
LINE
  5
29E5
330
29BF
100
AcDbEntity
  8
図枠太線
  6
CONTINUOUS
 62
   251
100
AcDbLine
 10
214.061011071051
 20
1.806608253358
 30
0.0
 11
214.061011071051
 21
31.806606253358
 31
0.0
  0
MTEXT
  5
29E6
330
29BF
100
AcDbEntity
  8
図枠太線
100
AcDbMText
 10
5.064337346478
 20
31.010982137407
 30
0.0
 40
2.5
 41
8.67856098472
 71
     1
 72
     5
  1
{\Fmonotxt.shx,bigfont.shx|c128;図暦}
  0
LINE
  5
29E7
330
29BF
100
AcDbEntity
  8
図枠太線
  6
CONTINUOUS
 62
   251
100
AcDbLine
 10
4.061011071051
 20
1.806608253358
 30
0.0
 11
4.061011071051
 21
31.806606253358
 31
0.0
  0
TEXT
  5
29E8
330
29BF
100
AcDbEntity
  8
図枠細線
 48
10.0
100
AcDbText
 10
12.260817420402
 20
28.625419626495
 30
0.0
 40
2.0
  1
CHANGE NOTICE
100
AcDbText
  0
ENDBLK
  5
29E9
330
29BF
100
AcDbEntity
  8
0
100
AcDbBlockEnd
  0
BLOCK
  5
29F5
330
29F4
100
AcDbEntity
  8
0
100
AcDbBlockBegin
  2
A4縦用_タイトル
 70
     0
 10
0.0
 20
0.0
 30
0.0
  3
A4縦用_タイトル
  1

  0
LINE
  5
29F6
330
29F4
100
AcDbEntity
  8
図枠太線
  6
CONTINUOUS
 62
   251
100
AcDbLine
 10
2.368253864267
 20
4.525433224584
 30
0.0
 11
192.368245864267
 21
4.525433224584
 31
0.0
  0
LINE
  5
29F7
330
29F4
100
AcDbEntity
  8
図枠太線
  6
CONTINUOUS
 62
   251
100
AcDbLine
 10
78.368245864267
 20
19.525431224584
 30
0.0
 11
135.368253864267
 21
19.525431224584
 31
0.0
  0
LINE
  5
29F8
330
29F4
100
AcDbEntity
  8
図枠細線
  6
CONTINUOUS
 62
   252
100
AcDbLine
 10
78.368253864267
 20
27.025431224584
 30
0.0
 11
135.368253864267
 21
27.025431224584
 31
0.0
  0
TEXT
  5
29F9
330
29F4
100
AcDbEntity
  8
図枠ロゴマーク
  6
CONTINUOUS
 62
   253
100
AcDbText
 10
80.617009864267
 20
11.117825224584
 30
0.0
 40
7.0
  1
東和制電工業株式会社
 41
0.635593220339
  7
EXCADSTD
 72
     5
 11
133.117009864267
 21
11.117825224584
 31
0.0
100
AcDbText
  0
TEXT
  5
29FA
330
29F4
100
AcDbEntity
  8
図枠細線
  6
CONTINUOUS
 62
   252
100
AcDbText
 10
80.579549864267
 20
6.172924224584
 30
0.0
 40
3.5
  1
ＴＯＷＡ　ＳＥＩＤＥＮ　ＩＮＤＵＳＴＲＩＡＬ　ＣＯ．，ＬＴＤ．
 41
0.41609778364
  7
EXCADSTD
 72
     5
 11
133.202049568628
 21
6.172924224584
 31
0.0
100
AcDbText
  0
LINE
  5
29FB
330
29F4
100
AcDbEntity
  8
図枠太線
  6
CONTINUOUS
 62
   251
100
AcDbLine
 10
2.368253864267
 20
4.525433224584
 30
0.0
 11
2.368253864267
 21
34.525431224584
 31
0.0
  0
TEXT
  5
29FC
330
29F4
100
AcDbEntity
  8
図枠細線
  6
CONTINUOUS
 62
   252
100
AcDbText
 10
22.504308136501
 20
12.279133224584
 30
0.0
 40
2.0
  1
ＴＨＩＲＤ　ＡＮＧＬＥ
 41
0.687500010245
  7
EXCADSTD
 72
     5
 11
40.104308398762
 21
12.279133224584
 31
0.0
100
AcDbText
  0
TEXT
  5
29FD
330
29F4
100
AcDbEntity
  8
図枠細線
  6
CONTINUOUS
 62
   252
100
AcDbText
 10
22.429384136501
 20
9.357144224584
 30
0.0
 40
2.0
  1
ＰＲＯＪＥＣＴＩＯＮ
 41
0.758620685545
  7
EXCADSTD
 72
     5
 11
40.029384041134
 21
9.357144224584
 31
0.0
100
AcDbText
  0
LINE
  5
29FE
330
29F4
100
AcDbEntity
  8
図枠細線
  6
CONTINUOUS
100
AcDbLine
 10
22.368253864267
 20
19.525433224584
 30
0.0
 11
78.368253864267
 21
19.525431224584
 31
0.0
  0
TEXT
  5
29FF
330
29F4
100
AcDbEntity
  8
図枠細線
  6
CONTINUOUS
 62
   252
100
AcDbText
 10
22.868253864267
 20
17.025433224584
 30
0.0
 40
2.0
  1
第三角法
 41
1.086956521739
  7
EXCADSTD
 72
     5
 11
32.868253864267
 21
17.025433224584
 31
0.0
100
AcDbText
  0
TEXT
  5
2A00
330
29F4
100
AcDbEntity
  8
図枠細線
  6
CONTINUOUS
 62
   252
100
AcDbText
 10
22.868253864267
 20
29.525433224584
 30
0.0
 40
2.0
  1
ＡＰＰＲＯＶＥＤ
 41
0.695652184279
  7
EXCADSTD
 72
     5
 11
35.668254055002
 21
29.525433224584
 31
0.0
100
AcDbText
  0
LINE
  5
2A01
330
29F4
100
AcDbEntity
  8
図枠細線
  6
CONTINUOUS
 62
   252
100
AcDbLine
 10
2.368253864267
 20
9.525433224584
 30
0.0
 11
22.368253864267
 21
9.525433224584
 31
0.0
  0
LINE
  5
2A02
330
29F4
100
AcDbEntity
  8
図枠細線
  6
CONTINUOUS
 62
   252
100
AcDbLine
 10
2.368253864267
 20
14.525431224584
 30
0.0
 11
22.368253864267
 21
14.525431224584
 31
0.0
  0
LINE
  5
2A03
330
29F4
100
AcDbEntity
  8
図枠細線
  6
CONTINUOUS
 62
   252
100
AcDbLine
 10
2.368253864267
 20
24.525431224584
 30
0.0
 11
22.368253864267
 21
24.525431224584
 31
0.0
  0
LINE
  5
2A04
330
29F4
100
AcDbEntity
  8
図枠細線
  6
CONTINUOUS
 62
   252
100
AcDbLine
 10
2.368253864267
 20
29.525431224584
 30
0.0
 11
22.368253864267
 21
29.525431224584
 31
0.0
  0
LINE
  5
2A05
330
29F4
100
AcDbEntity
  8
図枠細線
  6
CONTINUOUS
100
AcDbLine
 10
2.368253864267
 20
19.525433224584
 30
0.0
 11
22.368253864267
 21
19.525433224584
 31
0.0
  0
TEXT
  5
2A06
330
29F4
100
AcDbEntity
  8
図枠細線
  6
CONTINUOUS
 62
   252
100
AcDbText
 10
2.868253864267
 20
32.025433224584
 30
0.0
 40
2.0
  1
ＮＯＴＥ
 41
0.909090909091
  7
EXCADSTD
 72
     5
 11
10.868253864267
 21
32.025433224584
 31
0.0
100
AcDbText
  0
LINE
  5
2A07
330
29F4
100
AcDbEntity
  8
図枠太線
  6
CONTINUOUS
 62
   251
100
AcDbLine
 10
22.368253864267
 20
4.525433224584
 30
0.0
 11
22.368253864267
 21
34.525431224584
 31
0.0
  0
TEXT
  5
2A08
330
29F4
100
AcDbEntity
  8
図枠細線
  6
CONTINUOUS
 62
   252
100
AcDbText
 10
22.868253864267
 20
32.025433224584
 30
0.0
 40
2.0
  1
承認
 41
1.136363636364
  7
EXCADSTD
 72
     5
 11
27.868253864267
 21
32.025433224584
 31
0.0
100
AcDbText
  0
TEXT
  5
2A09
330
29F4
100
AcDbEntity
  8
図枠細線
  6
CONTINUOUS
 62
   252
100
AcDbText
 10
60.711709035982
 20
32.025433224584
 30
0.0
 40
2.0
  1
製図
 41
1.171875
  7
EXCADSTD
 72
     5
 11
65.711709035982
 21
32.025433224584
 31
0.0
100
AcDbText
  0
TEXT
  5
2A0A
330
29F4
100
AcDbEntity
  8
図枠細線
  6
CONTINUOUS
 62
   252
100
AcDbText
 10
60.711709035982
 20
29.525433224584
 30
0.0
 40
2.0
  1
ＤＲＡＷＮ
 41
0.892857142857
  7
EXCADSTD
 72
     5
 11
70.711709035982
 21
29.525433224584
 31
0.0
100
AcDbText
  0
TEXT
  5
2A0B
330
29F4
100
AcDbEntity
  8
図枠細線
  6
CONTINUOUS
 62
   252
100
AcDbText
 10
60.834891743877
 20
17.025433224584
 30
0.0
 40
2.0
  1
日付
 41
1.136363636364
  7
EXCADSTD
 72
     5
 11
65.834891743877
 21
17.025433224584
 31
0.0
100
AcDbText
  0
TEXT
  5
2A0C
330
29F4
100
AcDbEntity
  8
図枠細線
  6
CONTINUOUS
 62
   252
100
AcDbText
 10
47.333660864267
 20
17.025433224584
 30
0.0
 40
2.0
  1
ＳＣＡＬＥ
 41
0.892857142857
  7
EXCADSTD
 72
     5
 11
57.333660864267
 21
17.025433224584
 31
0.0
100
AcDbText
  0
TEXT
  5
2A0D
330
29F4
100
AcDbEntity
  8
図枠細線
  6
CONTINUOUS
 62
   252
100
AcDbText
 10
42.281425990082
 20
29.525433224584
 30
0.0
 40
2.0
  1
ＣＨＥＣＫＥＤ
 41
0.831249989569
  7
EXCADSTD
 72
     5
 11
55.581425823189
 21
29.525433224584
 31
0.0
100
AcDbText
  0
LINE
  5
2A0E
330
29F4
100
AcDbEntity
  8
図枠細線
  6
CONTINUOUS
 62
   252
100
AcDbLine
 10
40.968253864267
 20
34.525431224584
 30
0.0
 11
40.968253864267
 21
19.525431224584
 31
0.0
  0
LINE
  5
2A0F
330
29F4
100
AcDbEntity
  8
図枠細線
  6
CONTINUOUS
 62
   252
100
AcDbLine
 10
40.968253864267
 20
4.525433224584
 30
0.0
 11
40.968253864267
 21
19.525431224584
 31
0.0
  0
TEXT
  5
2A10
330
29F4
100
AcDbEntity
  8
図枠細線
  6
CONTINUOUS
 62
   252
100
AcDbText
 10
41.961173864267
 20
17.025433224584
 30
0.0
 40
2.0
  1
尺度
 41
1.136363636364
  7
EXCADSTD
 72
     5
 11
46.961173864267
 21
17.025433224584
 31
0.0
100
AcDbText
  0
TEXT
  5
2A11
330
29F4
100
AcDbEntity
  8
図枠細線
  6
CONTINUOUS
 62
   252
100
AcDbText
 10
42.281425990082
 20
32.025433224584
 30
0.0
 40
2.0
  1
検図
 41
1.171875
  7
EXCADSTD
 72
     5
 11
47.281425990082
 21
32.025433224584
 31
0.0
100
AcDbText
  0
LINE
  5
2A12
330
29F4
100
AcDbEntity
  8
図枠細線
  6
CONTINUOUS
 62
   252
100
AcDbLine
 10
59.768253864267
 20
34.525431224584
 30
0.0
 11
59.768253864267
 21
19.525431224584
 31
0.0
  0
LINE
  5
2A13
330
29F4
100
AcDbEntity
  8
図枠細線
  6
CONTINUOUS
 62
   252
100
AcDbLine
 10
59.768253864267
 20
4.525433224584
 30
0.0
 11
59.768253864267
 21
19.525431224584
 31
0.0
  0
LINE
  5
2A14
330
29F4
100
AcDbEntity
  8
図枠太線
  6
CONTINUOUS
 62
   251
100
AcDbLine
 10
78.368253864267
 20
4.525433224584
 30
0.0
 11
78.368253864267
 21
34.525431224584
 31
0.0
  0
TEXT
  5
2A15
330
29F4
100
AcDbEntity
  8
図枠細線
  6
CONTINUOUS
 62
   252
100
AcDbText
 10
66.334891743877
 20
17.025433224584
 30
0.0
 40
2.0
  1
ＤＡＴＥ
 41
0.909090909091
  7
EXCADSTD
 72
     5
 11
74.334891743877
 21
17.025433224584
 31
0.0
100
AcDbText
  0
LINE
  5
2A16
330
29F4
100
AcDbEntity
  8
図枠細線
  6
CONTINUOUS
 62
   252
100
AcDbLine
 10
135.368253864267
 20
19.525431224584
 30
0.0
 11
192.368245864267
 21
19.525431224584
 31
0.0
  0
TEXT
  5
2A17
330
29F4
100
AcDbEntity
  8
図枠細線
  6
CONTINUOUS
 62
   252
100
AcDbText
 10
141.868253864267
 20
32.025433224584
 30
0.0
 40
2.0
  1
ＴＩＴＬＥ
 41
0.892857142857
  7
EXCADSTD
 72
     5
 11
151.868253864267
 21
32.025433224584
 31
0.0
100
AcDbText
  0
LINE
  5
2A18
330
29F4
100
AcDbEntity
  8
図枠太線
  6
CONTINUOUS
 62
   251
100
AcDbLine
 10
135.368253864267
 20
4.525433224584
 30
0.0
 11
135.368253864267
 21
34.525431224584
 31
0.0
  0
TEXT
  5
2A19
330
29F4
100
AcDbEntity
  8
図枠細線
  6
CONTINUOUS
 62
   252
100
AcDbText
 10
135.868253864267
 20
17.025433224584
 30
0.0
 40
2.0
  1
図面番号
 41
1.094890510949
  7
EXCADSTD
 72
     5
 11
145.868253864267
 21
17.025433224584
 31
0.0
100
AcDbText
  0
TEXT
  5
2A1A
330
29F4
100
AcDbEntity
  8
図枠細線
  6
CONTINUOUS
 62
   252
100
AcDbText
 10
135.868253864267
 20
32.025433224584
 30
0.0
 40
2.0
  1
名称
 41
1.136363636364
  7
EXCADSTD
 72
     5
 11
140.868253864267
 21
32.025433224584
 31
0.0
100
AcDbText
  0
TEXT
  5
2A1B
330
29F4
100
AcDbEntity
  8
図枠細線
  6
CONTINUOUS
 62
   252
100
AcDbText
 10
146.868253864267
 20
17.025433224584
 30
0.0
 40
2.0
  1
ＤＲＧ．ＮＯ．
 41
0.954545454545
  7
EXCADSTD
 72
     5
 11
160.868253864267
 21
17.025433224584
 31
0.0
100
AcDbText
  0
LINE
  5
2A1C
330
29F4
100
AcDbEntity
  8
図枠太線
  6
CONTINUOUS
 62
   251
100
AcDbLine
 10
192.368245864267
 20
4.525433224584
 30
0.0
 11
192.368245864267
 21
34.525431224584
 31
0.0
  0
ENDBLK
  5
2A1D
330
29F4
100
AcDbEntity
  8
0
100
AcDbBlockEnd
  0
BLOCK
  5
2A33
330
2A32
100
AcDbEntity
  8
0
100
AcDbBlockBegin
  2
A3横用_タイトル
 70
     0
 10
0.0
 20
0.0
 30
0.0
  3
A3横用_タイトル
  1

  0
LINE
  5
2A34
330
2A32
100
AcDbEntity
  8
図枠細線
  6
CONTINUOUS
 62
   252
100
AcDbLine
 10
205.098414535793
 20
33.525959753527
 30
0.0
 11
305.098414535793
 21
33.525959753527
 31
0.0
  0
LINE
  5
2A35
330
2A32
100
AcDbEntity
  8
図枠太線
  6
CONTINUOUS
 62
   251
100
AcDbLine
 10
205.098414535793
 20
23.525959753527
 30
0.0
 11
305.098414535793
 21
23.525959753527
 31
0.0
  0
LINE
  5
2A36
330
2A32
100
AcDbEntity
  8
図枠細線
  6
CONTINUOUS
100
AcDbLine
 10
5.098414535793
 20
23.525959753527
 30
0.0
 11
105.098414535793
 21
23.525959753527
 31
0.0
  0
LINE
  5
2A37
330
2A32
100
AcDbEntity
  8
図枠細線
  6
CONTINUOUS
 62
   252
100
AcDbLine
 10
5.098414535793
 20
36.725957753527
 30
0.0
 11
105.098414535793
 21
36.725957753527
 31
0.0
  0
LINE
  5
2A38
330
2A32
100
AcDbEntity
  8
図枠細線
  6
CONTINUOUS
 62
   252
100
AcDbLine
 10
5.098414535793
 20
30.125957753527
 30
0.0
 11
105.098414535793
 21
30.125957753527
 31
0.0
  0
LINE
  5
2A39
330
2A32
100
AcDbEntity
  8
図枠細線
  6
CONTINUOUS
 62
   252
100
AcDbLine
 10
5.098414535793
 20
16.725959753527
 30
0.0
 11
105.098414535793
 21
16.725959753527
 31
0.0
  0
LINE
  5
2A3A
330
2A32
100
AcDbEntity
  8
図枠細線
  6
CONTINUOUS
 62
   252
100
AcDbLine
 10
5.098414535793
 20
10.125959753527
 30
0.0
 11
105.098414535793
 21
10.125959753527
 31
0.0
  0
LINE
  5
2A3B
330
2A32
100
AcDbEntity
  8
図枠細線
  6
CONTINUOUS
100
AcDbLine
 10
105.098414535793
 20
23.525961753527
 30
0.0
 11
205.098414535793
 21
23.525959753527
 31
0.0
  0
LINE
  5
2A3C
330
2A32
100
AcDbEntity
  8
図枠細線
  6
CONTINUOUS
 62
   252
100
AcDbLine
 10
138.398414535793
 20
43.525959753527
 30
0.0
 11
138.398414535793
 21
18.525957753527
 31
0.0
  0
LINE
  5
2A3D
330
2A32
100
AcDbEntity
  8
図枠細線
  6
CONTINUOUS
 62
   252
100
AcDbLine
 10
171.698414535793
 20
43.525959753527
 30
0.0
 11
171.698414535793
 21
18.525957753527
 31
0.0
  0
LINE
  5
2A3E
330
2A32
100
AcDbEntity
  8
図枠細線
  6
CONTINUOUS
 62
   252
100
AcDbLine
 10
305.098414535793
 20
23.525959753527
 30
0.0
 11
405.098414535793
 21
23.525959753527
 31
0.0
  0
TEXT
  5
2A3F
330
2A32
100
AcDbEntity
  8
図枠ロゴマーク
  6
CONTINUOUS
 62
   253
100
AcDbText
 10
206.102509212755
 20
13.294257570546
 30
0.0
 40
7.0
  1
東和制電工業株式会社
 50
0.016555220185
 41
1.179681394237
  7
EXCADSTD
 72
     5
 11
303.544188309143
 21
13.322412672217
 31
0.0
100
AcDbText
  0
MTEXT
  5
2A40
330
2A32
100
AcDbEntity
  8
図枠細線
100
AcDbMText
 10
6.356764112375
 20
41.976594175478
 30
0.0
 40
2.5
 41
49.938282706292
 71
     1
 72
     5
  1
{\Fmonotxt.shx,bigfont.shx|c128;図暦　CHANGE　NOTICE}
  0
MTEXT
  5
2A41
330
2A32
100
AcDbEntity
  8
図枠細線
 48
10.0
100
AcDbMText
 10
306.544114926828
 20
41.701835800934
 30
0.0
 40
2.5
 41
28.002809618823
 71
     1
 72
     5
  1
{\Fmonotxt.shx,bigfont.shx|c128;名称　TITLE}
  0
MTEXT
  5
2A42
330
2A32
100
AcDbEntity
  8
図枠細線
 48
10.0
100
AcDbMText
 10
307.329617114284
 20
21.606206797226
 30
0.0
 40
2.5
 41
24.385612216707
 71
     1
 72
     5
  1
{\Fmonotxt.shx,bigfont.shx|c128;図面番号\PDRG.　No.}
  0
MTEXT
  5
2A43
330
2A32
100
AcDbEntity
  8
図枠細線
 48
10.0
100
AcDbMText
 10
173.726349404609
 20
21.73680662198
 30
0.0
 40
2.5
 41
25.735090160813
 71
     1
 72
     5
  1
{\Fmonotxt.shx,bigfont.shx|c128;日付 DATE}
  0
MTEXT
  5
2A44
330
2A32
100
AcDbEntity
  8
図枠細線
 48
10.0
100
AcDbMText
 10
173.48708833982
 20
41.621592044998
 30
0.0
 40
2.5
 41
24.983741184205
 71
     1
 72
     5
  1
{\Fmonotxt.shx,bigfont.shx|c128;製図　DRAWN}
  0
MTEXT
  5
2A45
330
2A32
100
AcDbEntity
  8
図枠細線
 48
10.0
100
AcDbMText
 10
139.28009927741
 20
21.866713069868
 30
0.0
 40
2.5
 41
22.629632913243
 71
     1
 72
     5
  1
{\Fmonotxt.shx,bigfont.shx|c128;尺度　SCALE}
  0
MTEXT
  5
2A46
330
2A32
100
AcDbEntity
  8
図枠細線
 48
10.0
100
AcDbMText
 10
139.910091179835
 20
41.311840415554
 30
0.0
 40
2.5
 41
28.998753428368
 71
     1
 72
     5
  1
{\Fmonotxt.shx,bigfont.shx|c128;検図  CHECKED}
  0
MTEXT
  5
2A47
330
2A32
100
AcDbEntity
  8
図枠細線
 48
10.0
100
AcDbMText
 10
114.253294667728
 20
21.916124850174
 30
0.0
 40
3.0
 41
19.692400475383
 71
     1
 72
     5
  1
{\Fmonotxt.shx,bigfont.shx|c128;第三角法}
  0
MTEXT
  5
2A48
330
2A32
100
AcDbEntity
  8
図枠細線
 48
10.0
100
AcDbMText
 10
108.986959929915
 20
15.282880185837
 30
0.0
 40
2.5
 41
27.954882823547
 71
     1
 72
     5
  1
{\Fmonotxt.shx,bigfont.shx|c128;THIRD ANGLE\PPROJECTION}
  0
MTEXT
  5
2A49
330
2A32
100
AcDbEntity
  8
図枠細線
 48
10.0
100
AcDbMText
 10
106.319432640184
 20
41.511437145487
 30
0.0
 40
2.5
 41
28.233595265074
 71
     1
 72
     5
  1
{\Fmonotxt.shx,bigfont.shx|c128;承認 APPROVED}
  0
LINE
  5
2A4A
330
2A32
100
AcDbEntity
  8
図枠太線
  6
CONTINUOUS
 62
   251
100
AcDbLine
 10
5.098414535793
 20
3.525959753527
 30
0.0
 11
405.098414535793
 21
3.525959753527
 31
0.0
  0
LINE
  5
2A4B
330
2A32
100
AcDbEntity
  8
図枠太線
 48
10.0
100
AcDbLine
 10
5.098414535793
 20
3.525959753527
 30
0.0
 11
5.098414535793
 21
43.525959753527
 31
0.0
  0
LINE
  5
2A4C
330
2A32
100
AcDbEntity
  8
図枠太線
  6
CONTINUOUS
 62
   251
100
AcDbLine
 10
105.098414535793
 20
3.525959753527
 30
0.0
 11
105.098414535793
 21
43.525959753527
 31
0.0
  0
LINE
  5
2A4D
330
2A32
100
AcDbEntity
  8
図枠細線
  6
CONTINUOUS
 62
   252
100
AcDbLine
 10
138.398414535793
 20
3.525959753527
 30
0.0
 11
138.398414535793
 21
18.525957753527
 31
0.0
  0
LINE
  5
2A4E
330
2A32
100
AcDbEntity
  8
図枠細線
  6
CONTINUOUS
 62
   252
100
AcDbLine
 10
171.698414535793
 20
3.525959753527
 30
0.0
 11
171.698414535793
 21
18.525957753527
 31
0.0
  0
LINE
  5
2A4F
330
2A32
100
AcDbEntity
  8
図枠太線
  6
CONTINUOUS
 62
   251
100
AcDbLine
 10
205.098414535793
 20
3.525959753527
 30
0.0
 11
205.098414535793
 21
43.525959753527
 31
0.0
  0
LINE
  5
2A50
330
2A32
100
AcDbEntity
  8
図枠太線
 48
10.0
100
AcDbLine
 10
405.098414535793
 20
43.525959753527
 30
0.0
 11
405.098414535793
 21
3.525959753527
 31
0.0
  0
TEXT
  5
2A51
330
2A32
100
AcDbEntity
  8
図枠細線
  6
CONTINUOUS
 62
   252
100
AcDbText
 10
208.519754474572
 20
6.482358407285
 30
0.0
 40
3.5
  1
ＴＯＷＡ　ＳＥＩＤＥＮ　ＩＮＤＵＳＴＲＩＡＬ　ＣＯ．，ＬＴＤ．
 41
0.749411486799
  7
EXCADSTD
 72
     5
 11
303.295327171727
 21
6.482358407285
 31
0.0
100
AcDbText
  0
LINE
  5
2A52
330
2A32
100
AcDbEntity
  8
図枠太線
  6
CONTINUOUS
 62
   251
100
AcDbLine
 10
305.098414535793
 20
3.525959753527
 30
0.0
 11
305.098414535793
 21
43.525959753527
 31
0.0
  0
ENDBLK
  5
2A53
330
2A32
100
AcDbEntity
  8
0
100
AcDbBlockEnd
  0
BLOCK
  5
2A6D
330
2A6C
100
AcDbEntity
  8
0
100
AcDbBlockBegin
  2
A3縦用_タイトル
 70
     0
 10
0.0
 20
0.0
 30
0.0
  3
A3縦用_タイトル
  1

  0
MTEXT
  5
2A6E
330
2A6C
100
AcDbEntity
  8
図枠細線
100
AcDbMText
 10
5.040804501593
 20
31.626098649005
 30
0.0
 40
2.5
 41
49.938282706292
 71
     1
 72
     5
  1
{\Fmonotxt.shx,bigfont.shx|c128;図暦　CHANGE　NOTICE}
  0
LINE
  5
2A6F
330
2A6C
100
AcDbEntity
  8
図枠太線
  6
CONTINUOUS
 62
   251
100
AcDbLine
 10
283.577871882961
 20
2.820844689254
 30
0.0
 11
283.577871882961
 21
32.820842689254
 31
0.0
  0
MTEXT
  5
2A70
330
2A6C
100
AcDbEntity
  8
図枠細線
 48
10.0
100
AcDbMText
 10
214.912458947454
 20
31.621488632308
 30
0.0
 40
2.5
 41
28.002809618823
 71
     1
 72
     5
  1
{\Fmonotxt.shx,bigfont.shx|c128;名称　TITLE}
  0
MTEXT
  5
2A71
330
2A6C
100
AcDbEntity
  8
図枠細線
 48
10.0
100
AcDbMText
 10
214.740030458938
 20
16.310225796722
 30
0.0
 40
2.5
 41
24.385612216707
 71
     1
 72
     5
  1
{\Fmonotxt.shx,bigfont.shx|c128;図面番号\PDRG.　No.}
  0
LINE
  5
2A72
330
2A6C
100
AcDbEntity
  8
図枠太線
  6
CONTINUOUS
 62
   251
100
AcDbLine
 10
213.577871882961
 20
2.820844689254
 30
0.0
 11
213.577871882961
 21
32.820842689254
 31
0.0
  0
LINE
  5
2A73
330
2A6C
100
AcDbEntity
  8
図枠太線
  6
CONTINUOUS
 62
   251
100
AcDbLine
 10
143.577871882961
 20
2.820844689254
 30
0.0
 11
143.577871882961
 21
32.820842689254
 31
0.0
  0
TEXT
  5
2A74
330
2A6C
100
AcDbEntity
  8
図枠細線
  6
CONTINUOUS
 62
   252
100
AcDbText
 10
145.716454488093
 20
4.468335689254
 30
0.0
 40
3.5
  1
ＴＯＷＡ　ＳＥＩＤＥＮ　ＩＮＤＵＳＴＲＩＡＬ　ＣＯ．，ＬＴＤ．
 41
0.530889627006
  7
EXCADSTD
 72
     5
 11
212.856295983498
 21
4.468335689254
 31
0.0
100
AcDbText
  0
TEXT
  5
2A75
330
2A6C
100
AcDbEntity
  8
図枠ロゴマーク
  6
CONTINUOUS
 62
   253
100
AcDbText
 10
145.950637593507
 20
9.413236689254
 30
0.0
 40
7.0
  1
東和制電工業株式会社
 41
0.79907071013
  7
EXCADSTD
 72
     5
 11
211.953878250259
 21
9.413236689254
 31
0.0
100
AcDbText
  0
LINE
  5
2A76
330
2A6C
100
AcDbEntity
  8
図枠細線
  6
CONTINUOUS
 62
   252
100
AcDbLine
 10
143.577871882961
 20
25.320842689254
 30
0.0
 11
213.577871882961
 21
25.320842689254
 31
0.0
  0
LINE
  5
2A77
330
2A6C
100
AcDbEntity
  8
図枠太線
  6
CONTINUOUS
 62
   251
100
AcDbLine
 10
143.577863882961
 20
17.820842689254
 30
0.0
 11
213.577871882961
 21
17.820842689254
 31
0.0
  0
LINE
  5
2A78
330
2A6C
100
AcDbEntity
  8
図枠細線
  6
CONTINUOUS
 62
   252
100
AcDbLine
 10
213.577871882961
 20
17.820842689254
 30
0.0
 11
283.577871882961
 21
17.820842689254
 31
0.0
  0
LINE
  5
2A79
330
2A6C
100
AcDbEntity
  8
図枠細線
  6
CONTINUOUS
 62
   252
100
AcDbLine
 10
120.577871882961
 20
32.820842689254
 30
0.0
 11
120.577871882961
 21
17.820842689254
 31
0.0
  0
MTEXT
  5
2A7A
330
2A6C
100
AcDbEntity
  8
図枠細線
 48
10.0
100
AcDbMText
 10
121.100885670352
 20
16.33785922638
 30
0.0
 40
2.0
 41
17.705978285068
 71
     1
 72
     5
  1
{\Fmonotxt.shx,bigfont.shx|c128;日付 DATE}
  0
MTEXT
  5
2A7B
330
2A6C
100
AcDbEntity
  8
図枠細線
 48
10.0
100
AcDbMText
 10
121.254842273491
 20
31.208993514037
 30
0.0
 40
2.0
 41
18.363799568758
 71
     1
 72
     5
  1
{\Fmonotxt.shx,bigfont.shx|c128;製図　DRAWN}
  0
LINE
  5
2A7C
330
2A6C
100
AcDbEntity
  8
図枠細線
  6
CONTINUOUS
 62
   252
100
AcDbLine
 10
97.577871882961
 20
32.820842689254
 30
0.0
 11
97.577871882961
 21
17.820842689254
 31
0.0
  0
MTEXT
  5
2A7D
330
2A6C
100
AcDbEntity
  8
図枠細線
 48
10.0
100
AcDbMText
 10
98.239734796872
 20
16.467764839281
 30
0.0
 40
2.0
 41
17.757791689903
 71
     1
 72
     5
  1
{\Fmonotxt.shx,bigfont.shx|c128;尺度　SCALE}
  0
MTEXT
  5
2A7E
330
2A6C
100
AcDbEntity
  8
図枠細線
 48
10.0
100
AcDbMText
 10
97.864744625154
 20
31.298433377664
 30
0.0
 40
2.0
 41
23.162655920976
 71
     1
 72
     5
  1
{\Fmonotxt.shx,bigfont.shx|c128;検図  CHECKED}
  0
LINE
  5
2A7F
330
2A6C
100
AcDbEntity
  8
図枠細線
  6
CONTINUOUS
 62
   252
100
AcDbLine
 10
97.577871882961
 20
2.820843367826
 30
0.0
 11
97.577871882961
 21
17.820841367826
 31
0.0
  0
LINE
  5
2A80
330
2A6C
100
AcDbEntity
  8
図枠細線
  6
CONTINUOUS
 62
   252
100
AcDbLine
 10
120.577871882961
 20
2.820844010683
 30
0.0
 11
120.577871882961
 21
17.820842010683
 31
0.0
  0
MTEXT
  5
2A81
330
2A6C
100
AcDbEntity
  8
図枠細線
 48
10.0
100
AcDbMText
 10
81.402399084102
 20
16.316484117426
 30
0.0
 40
2.0
 41
12.920322819369
 71
     1
 72
     5
  1
{\Fmonotxt.shx,bigfont.shx|c128;第三角法}
  0
MTEXT
  5
2A82
330
2A6C
100
AcDbEntity
  8
図枠細線
 48
10.0
100
AcDbMText
 10
75.736576535096
 20
11.080410931319
 30
0.0
 40
2.0
 41
21.072870671471
 71
     1
 72
     5
  1
{\Fmonotxt.shx,bigfont.shx|c128;THIRD ANGLE\PPROJECTION}
  0
LINE
  5
2A83
330
2A6C
100
AcDbEntity
  8
図枠太線
  6
CONTINUOUS
 62
   251
100
AcDbLine
 10
74.577871882961
 20
2.820844689254
 30
0.0
 11
74.577871882961
 21
32.820842689254
 31
0.0
  0
MTEXT
  5
2A84
330
2A6C
100
AcDbEntity
  8
図枠細線
 48
10.0
100
AcDbMText
 10
75.060214781573
 20
31.298434778555
 30
0.0
 40
2.0
 41
22.240928805967
 71
     1
 72
     5
  1
{\Fmonotxt.shx,bigfont.shx|c128;承認 APPROVED}
  0
LINE
  5
2A85
330
2A6C
100
AcDbEntity
  8
図枠細線
  6
CONTINUOUS
100
AcDbLine
 10
3.577871882961
 20
17.820844689254
 30
0.0
 11
74.577871882961
 21
17.820844689254
 31
0.0
  0
LINE
  5
2A86
330
2A6C
100
AcDbEntity
  8
図枠細線
  6
CONTINUOUS
 62
   252
100
AcDbLine
 10
3.577871882961
 20
27.820842689254
 30
0.0
 11
74.577871882961
 21
27.820842689254
 31
0.0
  0
LINE
  5
2A87
330
2A6C
100
AcDbEntity
  8
図枠細線
  6
CONTINUOUS
 62
   252
100
AcDbLine
 10
3.577871882961
 20
22.820842689254
 30
0.0
 11
74.577871882961
 21
22.820842689254
 31
0.0
  0
LINE
  5
2A88
330
2A6C
100
AcDbEntity
  8
図枠細線
  6
CONTINUOUS
 62
   252
100
AcDbLine
 10
3.577871882961
 20
12.820842689254
 30
0.0
 11
74.577871882961
 21
12.820842689254
 31
0.0
  0
LINE
  5
2A89
330
2A6C
100
AcDbEntity
  8
図枠細線
  6
CONTINUOUS
 62
   252
100
AcDbLine
 10
3.577871882961
 20
7.820844689254
 30
0.0
 11
74.577871882961
 21
7.820844689254
 31
0.0
  0
LINE
  5
2A8A
330
2A6C
100
AcDbEntity
  8
図枠細線
  6
CONTINUOUS
100
AcDbLine
 10
74.577871882961
 20
17.820843689254
 30
0.0
 11
143.577871882961
 21
17.820841224969
 31
0.0
  0
LINE
  5
2A8B
330
2A6C
100
AcDbEntity
  8
図枠太線
  6
CONTINUOUS
 62
   251
100
AcDbLine
 10
3.577871882961
 20
2.820844689254
 30
0.0
 11
283.577871882961
 21
2.820844689254
 31
0.0
  0
LINE
  5
2A8C
330
2A6C
100
AcDbEntity
  8
図枠太線
  6
CONTINUOUS
 62
   251
100
AcDbLine
 10
3.577871882961
 20
2.820844689254
 30
0.0
 11
3.577871882961
 21
32.820842689254
 31
0.0
  0
ENDBLK
  5
2A8D
330
2A6C
100
AcDbEntity
  8
0
100
AcDbBlockEnd
  0
BLOCK
  5
2AF8
330
2AF4
100
AcDbEntity
  8
0
 48
10.0
100
AcDbBlockBegin
  2
_OPEN30
 70
     0
 10
0.0
 20
0.0
 30
0.0
  3
_OPEN30
  1

  0
LINE
  5
2AF5
330
2AF4
100
AcDbEntity
  8
0
  6
BYBLOCK
 62
     0
100
AcDbLine
 10
-1.0
 20
0.26794919
 30
0.0
 11
0.0
 21
0.0
 31
0.0
  0
LINE
  5
2AF6
330
2AF4
100
AcDbEntity
  8
0
  6
BYBLOCK
 62
     0
100
AcDbLine
 10
0.0
 20
0.0
 30
0.0
 11
-1.0
 21
-0.26794919
 31
0.0
  0
LINE
  5
2AF7
330
2AF4
100
AcDbEntity
  8
0
  6
BYBLOCK
 62
     0
100
AcDbLine
 10
0.0
 20
0.0
 30
0.0
 11
-1.0
 21
0.0
 31
0.0
  0
ENDBLK
  5
2AF9
330
2AF4
100
AcDbEntity
  8
0
 48
10.0
100
AcDbBlockEnd
  0
BLOCK
  5
4764
330
475A
100
AcDbEntity
  8
0
 48
10.0
100
AcDbBlockBegin
  2
*D6
 70
     1
 10
0.0
 20
0.0
 30
0.0
  3
*D6
  1

  0
LINE
  5
52F2
330
475A
100
AcDbEntity
  8
寸法線
 62
     0
 48
10.0
100
AcDbLine
 10
397.099300609883
 20
408.038623815478
 30
0.0
 11
397.099300609883
 21
422.038623815478
 31
0.0
  0
LINE
  5
52F3
330
475A
100
AcDbEntity
  8
寸法線
 62
     0
 48
10.0
100
AcDbLine
 10
397.099300609883
 20
428.038623815478
 30
0.0
 11
397.099300609883
 21
453.685474209178
 31
0.0
  0
INSERT
  5
52F4
330
475A
100
AcDbEntity
  8
寸法線
 62
     0
 48
10.0
100
AcDbBlockReference
  2
_OPEN30
 10
397.099300609883
 20
402.038623815478
 30
0.0
 41
6.0
 42
6.0
 43
6.0
 50
270.0
  0
INSERT
  5
52F5
330
475A
100
AcDbEntity
  8
寸法線
 62
     0
 48
10.0
100
AcDbBlockReference
  2
_OPEN30
 10
397.099300609883
 20
428.038623815478
 30
0.0
 41
6.0
 42
6.0
 43
6.0
 50
90.0
  0
MTEXT
  5
52F6
330
475A
100
AcDbEntity
  8
寸法線
 62
     0
 48
10.0
100
AcDbMText
 10
392.473513208308
 20
443.862049012328
 30
0.0
 40
8.0
 41
0.0
 71
     5
 72
     1
  1
\A1;φ26
 11
6.123031769111886E-17
 21
1.0
 31
0.0
  0
POINT
  5
52F7
330
475A
100
AcDbEntity
  8
DEFPOINTS
 62
     0
 48
10.0
100
AcDbPoint
 10
425.443647827309
 20
428.038623815478
 30
0.0
  0
POINT
  5
52F8
330
475A
100
AcDbEntity
  8
DEFPOINTS
 62
     0
 48
10.0
100
AcDbPoint
 10
425.443647827309
 20
402.038623815478
 30
0.0
  0
POINT
  5
52F9
330
475A
100
AcDbEntity
  8
DEFPOINTS
 62
     0
 48
10.0
100
AcDbPoint
 10
397.099300609883
 20
402.038623815478
 30
0.0
  0
ENDBLK
  5
4765
330
475A
100
AcDbEntity
  8
0
 48
10.0
100
AcDbBlockEnd
  0
BLOCK
  5
4798
330
478E
100
AcDbEntity
  8
0
 48
10.0
100
AcDbBlockBegin
  2
*D7
 70
     1
 10
0.0
 20
0.0
 30
0.0
  3
*D7
  1

  0
LINE
  5
52EA
330
478E
100
AcDbEntity
  8
寸法線
 62
     0
 48
10.0
100
AcDbLine
 10
316.099300609883
 20
408.538623815478
 30
0.0
 11
316.099300609883
 21
421.538623815478
 31
0.0
  0
LINE
  5
52EB
330
478E
100
AcDbEntity
  8
寸法線
 62
     0
 48
10.0
100
AcDbLine
 10
316.099300609883
 20
427.538623815478
 30
0.0
 11
316.099300609883
 21
453.119994665376
 31
0.0
  0
INSERT
  5
52EC
330
478E
100
AcDbEntity
  8
寸法線
 62
     0
 48
10.0
100
AcDbBlockReference
  2
_OPEN30
 10
316.099300609883
 20
402.538623815478
 30
0.0
 41
6.0
 42
6.0
 43
6.0
 50
270.0
  0
INSERT
  5
52ED
330
478E
100
AcDbEntity
  8
寸法線
 62
     0
 48
10.0
100
AcDbBlockReference
  2
_OPEN30
 10
316.099300609883
 20
427.538623815478
 30
0.0
 41
6.0
 42
6.0
 43
6.0
 50
90.0
  0
MTEXT
  5
52EE
330
478E
100
AcDbEntity
  8
寸法線
 62
     0
 48
10.0
100
AcDbMText
 10
311.473513208308
 20
443.329309240427
 30
0.0
 40
8.0
 41
0.0
 71
     5
 72
     1
  1
\A1;φ25
 11
6.123031769111886E-17
 21
1.0
 31
0.0
  0
POINT
  5
52EF
330
478E
100
AcDbEntity
  8
DEFPOINTS
 62
     0
 48
10.0
100
AcDbPoint
 10
325.443647827309
 20
427.538623815478
 30
0.0
  0
POINT
  5
52F0
330
478E
100
AcDbEntity
  8
DEFPOINTS
 62
     0
 48
10.0
100
AcDbPoint
 10
325.443647827309
 20
402.538623815478
 30
0.0
  0
POINT
  5
52F1
330
478E
100
AcDbEntity
  8
DEFPOINTS
 62
     0
 48
10.0
100
AcDbPoint
 10
316.099300609883
 20
402.538623815478
 30
0.0
  0
ENDBLK
  5
4799
330
478E
100
AcDbEntity
  8
0
 48
10.0
100
AcDbBlockEnd
  0
BLOCK
  5
47C5
330
47B9
100
AcDbEntity
  8
0
 48
10.0
100
AcDbBlockBegin
  2
*D8
 70
     1
 10
0.0
 20
0.0
 30
0.0
  3
*D8
  1

  0
LINE
  5
52E1
330
47B9
100
AcDbEntity
  8
寸法線
 62
     0
 48
10.0
100
AcDbLine
 10
90.00678369887
 20
406.538623815478
 30
0.0
 11
90.00678369887
 21
400.538623815478
 31
0.0
  0
LINE
  5
52E2
330
47B9
100
AcDbEntity
  8
寸法線
 62
     0
 48
10.0
100
AcDbLine
 10
90.00678369887
 20
423.538623815478
 30
0.0
 11
90.00678369887
 21
443.519994665376
 31
0.0
  0
LINE
  5
52E3
330
47B9
100
AcDbEntity
  8
寸法線
 62
     0
 48
10.0
100
AcDbLine
 10
90.00678369887
 20
412.538623815478
 30
0.0
 11
90.00678369887
 21
417.538623815478
 31
0.0
  0
INSERT
  5
52E4
330
47B9
100
AcDbEntity
  8
寸法線
 62
     0
 48
10.0
100
AcDbBlockReference
  2
_OPEN30
 10
90.00678369887
 20
412.538623815478
 30
0.0
 41
6.0
 42
6.0
 43
6.0
 50
90.0
  0
INSERT
  5
52E5
330
47B9
100
AcDbEntity
  8
寸法線
 62
     0
 48
10.0
100
AcDbBlockReference
  2
_OPEN30
 10
90.00678369887
 20
417.538623815478
 30
0.0
 41
6.0
 42
6.0
 43
6.0
 50
270.0
  0
MTEXT
  5
52E6
330
47B9
100
AcDbEntity
  8
寸法線
 62
     0
 48
10.0
100
AcDbMText
 10
85.38178369887
 20
436.529309240427
 30
0.0
 40
8.0
 41
0.0
 71
     5
 72
     1
  1
\A1;φ5
 11
6.123031769111886E-17
 21
1.0
 31
0.0
  0
POINT
  5
52E7
330
47B9
100
AcDbEntity
  8
DEFPOINTS
 62
     0
 48
10.0
100
AcDbPoint
 10
61.351130916295
 20
417.538623815478
 30
0.0
  0
POINT
  5
52E8
330
47B9
100
AcDbEntity
  8
DEFPOINTS
 62
     0
 48
10.0
100
AcDbPoint
 10
61.351130916295
 20
412.538623815478
 30
0.0
  0
POINT
  5
52E9
330
47B9
100
AcDbEntity
  8
DEFPOINTS
 62
     0
 48
10.0
100
AcDbPoint
 10
90.00678369887
 20
412.538623815478
 30
0.0
  0
ENDBLK
  5
47C6
330
47B9
100
AcDbEntity
  8
0
 48
10.0
100
AcDbBlockEnd
  0
BLOCK
  5
47F7
330
47ED
100
AcDbEntity
  8
0
 48
10.0
100
AcDbBlockBegin
  2
*D9
 70
     1
 10
0.0
 20
0.0
 30
0.0
  3
*D9
  1

  0
LINE
  5
52D9
330
47ED
100
AcDbEntity
  8
寸法線
 62
     0
 48
10.0
100
AcDbLine
 10
30.00678369887
 20
411.038623815478
 30
0.0
 11
30.00678369887
 21
419.038623815478
 31
0.0
  0
LINE
  5
52DA
330
47ED
100
AcDbEntity
  8
寸法線
 62
     0
 48
10.0
100
AcDbLine
 10
30.00678369887
 20
425.038623815478
 30
0.0
 11
30.00678369887
 21
450.294923028076
 31
0.0
  0
INSERT
  5
52DB
330
47ED
100
AcDbEntity
  8
寸法線
 62
     0
 48
10.0
100
AcDbBlockReference
  2
_OPEN30
 10
30.00678369887
 20
405.038623815478
 30
0.0
 41
6.0
 42
6.0
 43
6.0
 50
270.0
  0
INSERT
  5
52DC
330
47ED
100
AcDbEntity
  8
寸法線
 62
     0
 48
10.0
100
AcDbBlockReference
  2
_OPEN30
 10
30.00678369887
 20
425.038623815478
 30
0.0
 41
6.0
 42
6.0
 43
6.0
 50
90.0
  0
MTEXT
  5
52DD
330
47ED
100
AcDbEntity
  8
寸法線
 62
     0
 48
10.0
100
AcDbMText
 10
25.380996297295
 20
440.666773421777
 30
0.0
 40
8.0
 41
0.0
 71
     5
 72
     1
  1
\A1;φ20
 11
6.123031769111886E-17
 21
1.0
 31
0.0
  0
POINT
  5
52DE
330
47ED
100
AcDbEntity
  8
DEFPOINTS
 62
     0
 48
10.0
100
AcDbPoint
 10
42.851130916295
 20
425.038623815478
 30
0.0
  0
POINT
  5
52DF
330
47ED
100
AcDbEntity
  8
DEFPOINTS
 62
     0
 48
10.0
100
AcDbPoint
 10
42.851130916295
 20
405.038623815478
 30
0.0
  0
POINT
  5
52E0
330
47ED
100
AcDbEntity
  8
DEFPOINTS
 62
     0
 48
10.0
100
AcDbPoint
 10
30.00678369887
 20
405.038623815478
 30
0.0
  0
ENDBLK
  5
47F8
330
47ED
100
AcDbEntity
  8
0
 48
10.0
100
AcDbBlockEnd
  0
BLOCK
  5
4ABC
330
4AB2
100
AcDbEntity
  8
0
 48
10.0
100
AcDbBlockBegin
  2
*D10
 70
     1
 10
0.0
 20
0.0
 30
0.0
  3
*D10
  1

  0
LINE
  5
5562
330
4AB2
100
AcDbEntity
  8
寸法線
 62
     0
 48
10.0
100
AcDbLine
 10
576.575736928191
 20
357.037934047206
 30
0.0
 11
614.931768122565
 21
357.037934047206
 31
0.0
  0
LINE
  5
5563
330
4AB2
100
AcDbEntity
  8
寸法線
 62
     0
 48
10.0
100
AcDbLine
 10
576.956020170333
 20
473.037934047206
 30
0.0
 11
614.931768122565
 21
473.037934047206
 31
0.0
  0
LINE
  5
5564
330
4AB2
100
AcDbEntity
  8
寸法線
 62
     0
 48
10.0
100
AcDbLine
 10
613.681768122565
 20
363.037934047206
 30
0.0
 11
613.681768122565
 21
467.037934047206
 31
0.0
  0
INSERT
  5
5565
330
4AB2
100
AcDbEntity
  8
寸法線
 62
     0
100
AcDbBlockReference
  2
_OPEN30
 10
613.681768122565
 20
357.037934047206
 30
0.0
 41
6.0
 42
6.0
 43
6.0
 50
270.0
  0
INSERT
  5
5566
330
4AB2
100
AcDbEntity
  8
寸法線
 62
     0
100
AcDbBlockReference
  2
_OPEN30
 10
613.681768122565
 20
473.037934047206
 30
0.0
 41
6.0
 42
6.0
 43
6.0
 50
90.0
  0
MTEXT
  5
5567
330
4AB2
100
AcDbEntity
  8
寸法線
 62
     0
 48
10.0
100
AcDbMText
 10
609.056768122565
 20
415.037934047206
 30
0.0
 40
8.0
 41
0.0
 71
     5
 72
     1
  1
\A1;φ116
 11
0.0
 21
1.0
 31
0.0
  0
POINT
  5
5568
330
4AB2
100
AcDbEntity
  8
DEFPOINTS
 62
     0
100
AcDbPoint
 10
575.950736928191
 20
357.037934047206
 30
0.0
  0
POINT
  5
5569
330
4AB2
100
AcDbEntity
  8
DEFPOINTS
 62
     0
100
AcDbPoint
 10
576.331020170333
 20
473.037934047206
 30
0.0
  0
POINT
  5
556A
330
4AB2
100
AcDbEntity
  8
DEFPOINTS
 62
     0
100
AcDbPoint
 10
613.681768122565
 20
473.037934047206
 30
0.0
  0
ENDBLK
  5
4ABD
330
4AB2
100
AcDbEntity
  8
0
 48
10.0
100
AcDbBlockEnd
  0
BLOCK
  5
4B07
330
4B06
100
AcDbEntity
  8
0
 48
10.0
100
AcDbBlockBegin
  2
静電容量センサ
 70
     0
 10
0.0
 20
0.0
 30
0.0
  3
静電容量センサ
  1

  0
ARC
  5
4B08
330
4B06
100
AcDbEntity
  8
外形線
 48
10.0
100
AcDbCircle
 10
1021.898525663106
 20
1073.412780408912
 30
0.0
 40
1.0
100
AcDbArc
 50
180.0
 51
268.999999999998
  0
ARC
  5
4B09
330
4B06
100
AcDbEntity
  8
外形線
 48
10.0
100
AcDbCircle
 10
1021.898525663106
 20
1115.960781516243
 30
0.0
 40
1.0
100
AcDbArc
 50
91.000000000002
 51
180.0
  0
LINE
  5
4B0A
330
4B06
100
AcDbEntity
  8
外形線
 48
10.0
100
AcDbLine
 10
1020.898525663106
 20
1115.960781516243
 30
0.0
 11
1020.898525663106
 21
1073.412780408912
 31
0.0
  0
LINE
  5
4B0B
330
4B06
100
AcDbEntity
  8
外形線
 48
10.0
100
AcDbLine
 10
1035.026308504175
 20
1117.944859066978
 30
0.0
 11
1041.278741748243
 21
1143.02199911049
 31
0.0
  0
ARC
  5
4B0C
330
4B06
100
AcDbEntity
  8
外形線
 48
10.0
100
AcDbCircle
 10
1046.130220379623
 20
1141.812389632491
 30
0.0
 40
5.0
100
AcDbArc
 50
91.3
 51
166.000000000004
  0
ARC
  5
4B0D
330
4B06
100
AcDbEntity
  8
外形線
 48
10.0
100
AcDbCircle
 10
1034.056012777899
 20
1118.186780962578
 30
0.0
 40
1.0
100
AcDbArc
 50
270.0
 51
346.000000000004
  0
ARC
  5
4B0E
330
4B06
100
AcDbEntity
  8
外形線
 48
10.0
100
AcDbCircle
 10
1034.056012777899
 20
1118.186780962578
 30
0.0
 40
1.0
100
AcDbArc
 50
270.0
 51
346.000000000004
  0
LINE
  5
4B0F
330
4B06
100
AcDbEntity
  8
外形線
 48
10.0
100
AcDbLine
 10
1021.881073256669
 20
1116.960629211399
 30
0.0
 11
1034.056012777899
 21
1117.186780962578
 31
0.0
  0
ARC
  5
4B10
330
4B06
100
AcDbEntity
  8
外形線
 48
10.0
100
AcDbCircle
 10
1122.899564892808
 20
1151.93622955513
 30
0.0
 40
0.5
100
AcDbArc
 50
359.999254274584
 51
88.999999999998
  0
ARC
  5
4B11
330
4B06
100
AcDbEntity
  8
細線
 48
10.0
100
AcDbCircle
 10
1123.898525663106
 20
1107.819822714047
 30
0.0
 40
0.5
100
AcDbArc
 50
180.0
 51
264.089361084595
  0
ARC
  5
4B12
330
4B06
100
AcDbEntity
  8
外形線
 48
10.0
100
AcDbCircle
 10
1123.898525663106
 20
1100.44543233102
 30
0.0
 40
0.5
100
AcDbArc
 50
91.000000000002
 51
180.0
  0
ARC
  5
4B13
330
4B06
100
AcDbEntity
  8
細線
 48
10.0
100
AcDbCircle
 10
1123.898525663106
 20
1108.078641759149
 30
0.0
 40
0.5
100
AcDbArc
 50
180.0
 51
264.089361084595
  0
ARC
  5
4B14
330
4B06
100
AcDbEntity
  8
細線
 48
10.0
100
AcDbCircle
 10
1123.898525663106
 20
1129.71320712675
 30
0.0
 40
0.5
100
AcDbArc
 50
180.0
 51
254.206830951738
  0
ARC
  5
4B15
330
4B06
100
AcDbEntity
  8
細線
 48
10.0
100
AcDbCircle
 10
1123.898525663106
 20
1130.420313907937
 30
0.0
 40
0.5
100
AcDbArc
 50
180.0
 51
254.206830951738
  0
ARC
  5
4B16
330
4B06
100
AcDbEntity
  8
細線
 48
10.0
100
AcDbCircle
 10
1123.898525663106
 20
1142.359984147006
 30
0.0
 40
0.5
100
AcDbArc
 50
180.0
 51
248.874947125989
  0
ARC
  5
4B17
330
4B06
100
AcDbEntity
  8
細線
 48
10.0
100
AcDbCircle
 10
1123.898525663106
 20
1143.325909973296
 30
0.0
 40
0.5
100
AcDbArc
 50
180.0
 51
248.874947125989
  0
ARC
  5
4B18
330
4B06
100
AcDbEntity
  8
外形線
 48
10.0
100
AcDbCircle
 10
1123.898413585187
 20
1144.632076415673
 30
0.0
 40
0.5
100
AcDbArc
 50
180.019033969455
 51
248.025023881972
  0
LINE
  5
4B19
330
4B06
100
AcDbEntity
  8
外形線
 48
10.0
100
AcDbLine
 10
1123.398525663106
 20
1143.325909973296
 30
0.0
 11
1123.398525663106
 21
1144.294618045039
 31
0.0
  0
LINE
  5
4B1A
330
4B06
100
AcDbEntity
  8
外形線
 48
10.0
100
AcDbLine
 10
1123.398525663106
 20
1142.359984147006
 30
0.0
 11
1123.398525663106
 21
1142.98307227703
 31
0.0
  0
LINE
  5
4B1B
330
4B06
100
AcDbEntity
  8
外形線
 48
10.0
100
AcDbLine
 10
1123.398525663106
 20
1130.420313907937
 30
0.0
 11
1123.398525663106
 21
1142.017146450741
 31
0.0
  0
LINE
  5
4B1C
330
4B06
100
AcDbEntity
  8
外形線
 48
10.0
100
AcDbLine
 10
1123.398525663106
 20
1129.71320712675
 30
0.0
 11
1123.398525663106
 21
1130.042120021904
 31
0.0
  0
LINE
  5
4B1D
330
4B06
100
AcDbEntity
  8
外形線
 48
10.0
100
AcDbLine
 10
1123.398525663106
 20
1108.078641759149
 30
0.0
 11
1123.398525663106
 21
1130.420313907937
 31
0.0
  0
LINE
  5
4B1E
330
4B06
100
AcDbEntity
  8
外形線
 48
10.0
100
AcDbLine
 10
1123.398525663106
 20
1107.819822714047
 30
0.0
 11
1123.398525663106
 21
1108.700149198143
 31
0.0
  0
LINE
  5
4B1F
330
4B06
100
AcDbEntity
  8
外形線
 48
10.0
100
AcDbLine
 10
1123.398525663106
 20
1100.44543233102
 30
0.0
 11
1123.398525663106
 21
1108.078641759149
 31
0.0
  0
ARC
  5
4B20
330
4B06
100
AcDbEntity
  8
外形線
 48
10.0
100
AcDbCircle
 10
1123.898525663106
 20
1088.928129594135
 30
0.0
 40
0.5
100
AcDbArc
 50
180.0
 51
268.999999999998
  0
LINE
  5
4B21
330
4B06
100
AcDbEntity
  8
外形線
 48
10.0
100
AcDbLine
 10
1123.398525663106
 20
1088.928129594135
 30
0.0
 11
1123.398525663106
 21
1100.44543233102
 31
0.0
  0
ARC
  5
4B22
330
4B06
100
AcDbEntity
  8
外形線
 48
10.0
100
AcDbCircle
 10
1135.396646406818
 20
1087.727276821958
 30
0.0
 40
0.5
100
AcDbArc
 50
0.002863323129
 51
88.999999999998
  0
ARC
  5
4B23
330
4B06
100
AcDbEntity
  8
外形線
 48
10.0
100
AcDbCircle
 10
1135.396646406818
 20
1101.646285103198
 30
0.0
 40
0.5
100
AcDbArc
 50
271.000000000002
 51
359.997136676878
  0
ARC
  5
4B24
330
4B06
100
AcDbEntity
  8
細線
 48
10.0
100
AcDbCircle
 10
1135.398359871226
 20
1105.882746614783
 30
0.0
 40
0.5
100
AcDbArc
 50
359.978936747976
 51
84.089361084595
  0
ARC
  5
4B25
330
4B06
100
AcDbEntity
  8
細線
 48
10.0
100
AcDbCircle
 10
1135.396845195015
 20
1105.6240843805
 30
0.0
 40
0.5
100
AcDbArc
 50
359.997136676878
 51
84.089361084595
  0
ARC
  5
4B26
330
4B06
100
AcDbEntity
  8
細線
 48
10.0
100
AcDbCircle
 10
1135.398405428356
 20
1136.84472607817
 30
0.0
 40
0.5
100
AcDbArc
 50
359.997136676878
 51
68.874947125989
  0
ARC
  5
4B27
330
4B06
100
AcDbEntity
  8
細線
 48
10.0
100
AcDbCircle
 10
1135.398453699003
 20
1137.810633254114
 30
0.0
 40
0.5
100
AcDbArc
 50
359.997136676878
 51
68.874947125989
  0
ARC
  5
4B28
330
4B06
100
AcDbEntity
  8
外形線
 48
10.0
100
AcDbCircle
 10
1135.398508800797
 20
1138.913233296621
 30
0.0
 40
0.5
100
AcDbArc
 50
359.997136676878
 51
68.025023881972
  0
LINE
  5
4B29
330
4B06
100
AcDbEntity
  8
外形線
 48
10.0
100
AcDbLine
 10
1135.405372610037
 20
1101.146361255619
 30
0.0
 11
1123.889799459887
 21
1100.945356178598
 31
0.0
  0
LINE
  5
4B2A
330
4B06
100
AcDbEntity
  8
外形線
 48
10.0
100
AcDbLine
 10
1135.405372610037
 20
1088.227200669536
 30
0.0
 11
1123.889799459887
 21
1088.428205746557
 31
0.0
  0
LINE
  5
4B2B
330
4B06
100
AcDbEntity
  8
外形線
 48
10.0
100
AcDbLine
 10
1123.711312779708
 20
1144.168402728055
 30
0.0
 11
1135.585609606275
 21
1139.376906984239
 31
0.0
  0
LINE
  5
4B2C
330
4B06
100
AcDbEntity
  8
細線
 48
10.0
100
AcDbLine
 10
1135.448333812772
 20
1106.121426237015
 30
0.0
 11
1123.847037045349
 21
1107.322480857532
 31
0.0
  0
LINE
  5
4B2D
330
4B06
100
AcDbEntity
  8
細線
 48
10.0
100
AcDbLine
 10
1135.449848488983
 20
1106.380088471297
 30
0.0
 11
1123.847037045349
 21
1107.581299902634
 31
0.0
  0
LINE
  5
4B2E
330
4B06
100
AcDbEntity
  8
細線
 48
10.0
100
AcDbLine
 10
1135.533952658586
 20
1126.609702933466
 30
0.0
 11
1123.762442899618
 21
1129.939188683612
 31
0.0
  0
LINE
  5
4B2F
330
4B06
100
AcDbEntity
  8
細線
 48
10.0
100
AcDbLine
 10
1135.578607784566
 20
1137.311124095764
 30
0.0
 11
1123.718323306896
 21
1141.893586129411
 31
0.0
  0
LINE
  5
4B30
330
4B06
100
AcDbEntity
  8
細線
 48
10.0
100
AcDbLine
 10
1135.578656055213
 20
1138.277031271709
 30
0.0
 11
1123.718323306896
 21
1142.859511955701
 31
0.0
  0
LINE
  5
4B31
330
4B06
100
AcDbEntity
  8
外形線
 48
10.0
100
AcDbLine
 10
1108.899561566736
 20
1152.686780962578
 30
0.0
 11
1122.908291096026
 21
1152.436153402709
 31
0.0
  0
LINE
  5
4B32
330
4B06
100
AcDbEntity
  8
外形線
 48
10.0
100
AcDbLine
 10
1108.899561566736
 20
1152.686780962578
 30
0.0
 11
1108.399561566736
 21
1152.180676686204
 31
0.0
  0
LINE
  5
4B33
330
4B06
100
AcDbEntity
  8
外形線
 48
10.0
100
AcDbLine
 10
1108.399561566736
 20
1151.192885238951
 30
0.0
 11
1108.399561566736
 21
1150.692885238951
 31
0.0
  0
ARC
  5
4B34
330
4B06
100
AcDbEntity
  8
外形線
 48
10.0
100
AcDbCircle
 10
1098.998525663106
 20
1152.414559409545
 30
0.0
 40
4.4
100
AcDbArc
 50
271.3
 51
0.0
  0
LINE
  5
4B35
330
4B06
100
AcDbEntity
  8
外形線
 48
10.0
100
AcDbLine
 10
1046.016783711759
 20
1146.811102679105
 30
0.0
 11
1099.098349930826
 21
1148.015691928525
 31
0.0
  0
LINE
  5
4B36
330
4B06
100
AcDbEntity
  8
外形線
 48
10.0
100
AcDbLine
 10
1103.398525663105
 20
1152.686780962578
 30
0.0
 11
1103.398525663105
 21
1152.414559409545
 31
0.0
  0
LINE
  5
4B37
330
4B06
100
AcDbEntity
  8
外形線
 48
10.0
100
AcDbLine
 10
1106.398525663105
 20
1152.686780962578
 30
0.0
 11
1103.398525663105
 21
1152.686780962578
 31
0.0
  0
ARC
  5
4B38
330
4B06
100
AcDbEntity
  8
外形線
 48
10.0
100
AcDbCircle
 10
1107.898525663105
 20
1150.161780962577
 30
0.0
 40
1.500000000000156
100
AcDbArc
 50
70.528779365514
 51
179.999999999993
  0
LINE
  5
4B39
330
4B06
100
AcDbEntity
  8
細線
 48
10.0
100
AcDbLine
 10
1108.899561566736
 20
1152.686780962578
 30
0.0
 11
1108.899561566736
 21
1036.686780962578
 31
0.0
  0
LINE
  5
4B3A
330
4B06
100
AcDbEntity
  8
細線
 48
10.0
100
AcDbLine
 10
1108.899561566736
 20
1152.680676686204
 30
0.0
 11
1108.899561566736
 21
1036.692885238951
 31
0.0
  0
LINE
  5
4B3B
330
4B06
100
AcDbEntity
  8
外形線
 48
10.0
100
AcDbLine
 10
1123.398525663106
 20
1072.956444458874
 30
0.0
 11
1123.398525663106
 21
1059.660354798405
 31
0.0
  0
ARC
  5
4B3C
330
4B06
100
AcDbEntity
  8
細線
 48
10.0
100
AcDbCircle
 10
1123.898525663106
 20
1047.013577778149
 30
0.0
 40
0.5
100
AcDbArc
 50
111.125052874011
 51
180.0
  0
ARC
  5
4B3D
330
4B06
100
AcDbEntity
  8
細線
 48
10.0
100
AcDbCircle
 10
1123.898066965619
 20
1046.04747472476
 30
0.0
 40
0.5
100
AcDbArc
 50
111.125052874011
 51
179.923306313171
  0
ARC
  5
4B3E
330
4B06
100
AcDbEntity
  8
細線
 48
10.0
100
AcDbCircle
 10
1123.898525663106
 20
1059.660354798405
 30
0.0
 40
0.5
100
AcDbArc
 50
105.793169048262
 51
180.0
  0
ARC
  5
4B3F
330
4B06
100
AcDbEntity
  8
細線
 48
10.0
100
AcDbCircle
 10
1123.898525663106
 20
1058.953248017218
 30
0.0
 40
0.5
100
AcDbArc
 50
105.793169048262
 51
180.0
  0
ARC
  5
4B40
330
4B06
100
AcDbEntity
  8
細線
 48
10.0
100
AcDbCircle
 10
1123.898525663106
 20
1081.294920166006
 30
0.0
 40
0.5
100
AcDbArc
 50
95.910638915405
 51
180.0
  0
ARC
  5
4B41
330
4B06
100
AcDbEntity
  8
細線
 48
10.0
100
AcDbCircle
 10
1123.898525663106
 20
1081.553739211108
 30
0.0
 40
0.5
100
AcDbArc
 50
95.910638915405
 51
180.0
  0
LINE
  5
4B42
330
4B06
100
AcDbEntity
  8
外形線
 48
10.0
100
AcDbLine
 10
1123.398525663106
 20
1081.294920166006
 30
0.0
 11
1123.398525663106
 21
1088.928129594135
 31
0.0
  0
LINE
  5
4B43
330
4B06
100
AcDbEntity
  8
外形線
 48
10.0
100
AcDbLine
 10
1123.398525663106
 20
1081.745828707453
 30
0.0
 11
1123.398525663106
 21
1082.004647752555
 31
0.0
  0
LINE
  5
4B44
330
4B06
100
AcDbEntity
  8
外形線
 48
10.0
100
AcDbLine
 10
1123.398525663106
 20
1072.956444458874
 30
0.0
 11
1123.398525663106
 21
1081.294920166006
 31
0.0
  0
LINE
  5
4B45
330
4B06
100
AcDbEntity
  8
外形線
 48
10.0
100
AcDbLine
 10
1123.398525663106
 20
1058.953248017218
 30
0.0
 11
1123.398525663106
 21
1059.660354798405
 31
0.0
  0
LINE
  5
4B46
330
4B06
100
AcDbEntity
  8
外形線
 48
10.0
100
AcDbLine
 10
1123.398525663106
 20
1047.013577778149
 30
0.0
 11
1123.398525663106
 21
1058.953248017218
 31
0.0
  0
LINE
  5
4B47
330
4B06
100
AcDbEntity
  8
外形線
 48
10.0
100
AcDbLine
 10
1123.398067413553
 20
1046.048144003235
 30
0.0
 11
1123.398525663106
 21
1047.013577778149
 31
0.0
  0
LINE
  5
4B48
330
4B06
100
AcDbEntity
  8
外形線
 48
10.0
100
AcDbLine
 10
1123.396317242873
 20
1044.740639597053
 30
0.0
 11
1123.398067413553
 21
1046.048144003235
 31
0.0
  0
ARC
  5
4B49
330
4B06
100
AcDbEntity
  8
外形線
 48
10.0
100
AcDbCircle
 10
1123.896317242873
 20
1044.740639597053
 30
0.0
 40
0.5
100
AcDbArc
 50
111.974976118028
 51
180.0
  0
ARC
  5
4B4A
330
4B06
100
AcDbEntity
  8
細線
 48
10.0
100
AcDbCircle
 10
1135.398494161258
 20
1063.952267566336
 30
0.0
 40
0.5
100
AcDbArc
 50
285.793169048262
 51
0.004772330144
  0
ARC
  5
4B4B
330
4B06
100
AcDbEntity
  8
細線
 48
10.0
100
AcDbCircle
 10
1135.398525663106
 20
1063.245169695216
 30
0.0
 40
0.5
100
AcDbArc
 50
285.793169048262
 51
0.0
  0
ARC
  5
4B4C
330
4B06
100
AcDbEntity
  8
細線
 48
10.0
100
AcDbCircle
 10
1135.398525663106
 20
1052.528882302126
 30
0.0
 40
0.5
100
AcDbArc
 50
291.125052874011
 51
0.0
  0
ARC
  5
4B4D
330
4B06
100
AcDbEntity
  8
細線
 48
10.0
100
AcDbCircle
 10
1135.398525663106
 20
1051.562956475835
 30
0.0
 40
0.5
100
AcDbArc
 50
291.125052874011
 51
0.0
  0
ARC
  5
4B4E
330
4B06
100
AcDbEntity
  8
外形線
 48
10.0
100
AcDbCircle
 10
1135.398525663106
 20
1050.460335432784
 30
0.0
 40
0.5
100
AcDbArc
 50
291.974976118028
 51
0.0
  0
LINE
  5
4B4F
330
4B06
100
AcDbEntity
  8
外形線
 48
10.0
100
AcDbLine
 10
1135.898525663106
 20
1051.562956475835
 30
0.0
 11
1135.898525663106
 21
1050.460335432784
 31
0.0
  0
LINE
  5
4B50
330
4B06
100
AcDbEntity
  8
外形線
 48
10.0
100
AcDbLine
 10
1135.898525663106
 20
1052.528882302126
 30
0.0
 11
1135.898525663106
 21
1051.562956475835
 31
0.0
  0
LINE
  5
4B51
330
4B06
100
AcDbEntity
  8
外形線
 48
10.0
100
AcDbLine
 10
1135.898525663106
 20
1063.245169695216
 30
0.0
 11
1135.898525663106
 21
1052.528882302126
 31
0.0
  0
LINE
  5
4B52
330
4B06
100
AcDbEntity
  8
外形線
 48
10.0
100
AcDbLine
 10
1135.898494159523
 20
1063.952309212773
 30
0.0
 11
1135.898525663106
 21
1063.245169695216
 31
0.0
  0
LINE
  5
4B53
330
4B06
100
AcDbEntity
  8
外形線
 48
10.0
100
AcDbLine
 10
1135.896845194391
 20
1083.749502531863
 30
0.0
 11
1135.898494159523
 21
1063.952309212773
 31
0.0
  0
ARC
  5
4B54
330
4B06
100
AcDbEntity
  8
細線
 48
10.0
100
AcDbCircle
 10
1135.396794220963
 20
1083.49065322233
 30
0.0
 40
0.5
100
AcDbArc
 50
275.910638915405
 51
0.00199902817
  0
ARC
  5
4B55
330
4B06
100
AcDbEntity
  8
細線
 48
10.0
100
AcDbCircle
 10
1135.396845195015
 20
1083.749477544655
 30
0.0
 40
0.5
100
AcDbArc
 50
275.910638915405
 51
0.002863323129
  0
ARC
  5
4B56
330
4B06
100
AcDbEntity
  8
外形線
 48
10.0
100
AcDbCircle
 10
1122.897486448612
 20
1037.437296090646
 30
0.0
 40
0.5
100
AcDbArc
 50
271.000000000002
 51
359.984453673186
  0
LINE
  5
4B57
330
4B06
100
AcDbEntity
  8
外形線
 48
10.0
100
AcDbLine
 10
1135.896646406194
 20
1087.727301809166
 30
0.0
 11
1135.896794220659
 21
1083.490670667142
 31
0.0
  0
LINE
  5
4B58
330
4B06
100
AcDbEntity
  8
外形線
 48
10.0
100
AcDbLine
 10
1123.709216437395
 20
1045.204313284671
 30
0.0
 11
1135.585626468584
 21
1049.996661745166
 31
0.0
  0
LINE
  5
4B59
330
4B06
100
AcDbEntity
  8
細線
 48
10.0
100
AcDbLine
 10
1135.578728019316
 20
1052.062484284531
 30
0.0
 11
1123.718323306896
 21
1047.479975795744
 31
0.0
  0
LINE
  5
4B5A
330
4B06
100
AcDbEntity
  8
細線
 48
10.0
100
AcDbLine
 10
1135.578728019316
 20
1051.09655845824
 30
0.0
 11
1123.717864609409
 21
1046.513872742355
 31
0.0
  0
LINE
  5
4B5B
330
4B06
100
AcDbEntity
  8
細線
 48
10.0
100
AcDbLine
 10
1135.534608426593
 20
1062.764044470891
 30
0.0
 11
1123.762442899618
 21
1059.434373241543
 31
0.0
  0
LINE
  5
4B5C
330
4B06
100
AcDbEntity
  8
細線
 48
10.0
100
AcDbLine
 10
1135.534576924746
 20
1063.471142342011
 30
0.0
 11
1123.762442899618
 21
1060.141480022729
 31
0.0
  0
LINE
  5
4B5D
330
4B06
100
AcDbEntity
  8
細線
 48
10.0
100
AcDbLine
 10
1135.44828283872
 20
1082.993311365815
 30
0.0
 11
1123.847037045349
 21
1081.792262022521
 31
0.0
  0
LINE
  5
4B5E
330
4B06
100
AcDbEntity
  8
細線
 48
10.0
100
AcDbLine
 10
1135.448333812772
 20
1083.25213568814
 30
0.0
 11
1123.847037045349
 21
1082.051081067623
 31
0.0
  0
LINE
  5
4B5F
330
4B06
100
AcDbEntity
  8
外形線
 48
10.0
100
AcDbLine
 10
1123.399470041665
 20
1044.747733739171
 30
0.0
 11
1123.397486430207
 21
1037.437160423353
 31
0.0
  0
LINE
  5
4B60
330
4B06
100
AcDbEntity
  8
外形線
 48
10.0
100
AcDbLine
 10
1123.399564892765
 20
1151.936223047449
 30
0.0
 11
1123.397486430207
 21
1037.437160423353
 31
0.0
  0
LINE
  5
4B61
330
4B06
100
AcDbEntity
  8
外形線
 48
10.0
100
AcDbLine
 10
1108.399561566736
 20
1152.180676686204
 30
0.0
 11
1108.399561566736
 21
1037.192885238951
 31
0.0
  0
LINE
  5
4B62
330
4B06
100
AcDbEntity
  8
外形線
 48
10.0
100
AcDbLine
 10
1108.899561566736
 20
1036.686780962578
 30
0.0
 11
1122.906212651831
 21
1036.937372243068
 31
0.0
  0
LINE
  5
4B63
330
4B06
100
AcDbEntity
  8
外形線
 48
10.0
100
AcDbLine
 10
1108.899561566736
 20
1036.686780962578
 30
0.0
 11
1108.399561566736
 21
1037.192885238951
 31
0.0
  0
LINE
  5
4B64
330
4B06
100
AcDbEntity
  8
外形線
 48
10.0
100
AcDbLine
 10
1108.399561566736
 20
1038.192885238951
 30
0.0
 11
1108.399561566736
 21
1038.692885238951
 31
0.0
  0
LINE
  5
4B65
330
4B06
100
AcDbEntity
  8
外形線
 48
10.0
100
AcDbLine
 10
1035.022931603883
 20
1071.442246865485
 30
0.0
 11
1041.278741748243
 21
1046.351562814666
 31
0.0
  0
ARC
  5
4B66
330
4B06
100
AcDbEntity
  8
外形線
 48
10.0
100
AcDbCircle
 10
1046.130220379623
 20
1047.561172292664
 30
0.0
 40
5.0
100
AcDbArc
 50
193.999999999996
 51
268.7
  0
ARC
  5
4B67
330
4B06
100
AcDbEntity
  8
外形線
 48
10.0
100
AcDbCircle
 10
1034.052635877606
 20
1071.200324969886
 30
0.0
 40
1.0
100
AcDbArc
 50
13.999999999996
 51
89.000000000011
  0
ARC
  5
4B68
330
4B06
100
AcDbEntity
  8
外形線
 48
10.0
100
AcDbCircle
 10
1069.398525663106
 20
1041.031595836918
 30
0.0
 40
1.0
100
AcDbArc
 50
0.0
 51
88.7
  0
ARC
  5
4B69
330
4B06
100
AcDbEntity
  8
外形線
 48
10.0
100
AcDbCircle
 10
1071.398525663106
 20
1031.186780962577
 30
0.0
 40
1.0
100
AcDbArc
 50
180.0
 51
270.0
  0
ARC
  5
4B6A
330
4B06
100
AcDbEntity
  8
外形線
 48
10.0
100
AcDbCircle
 10
1105.398525663105
 20
1031.186780962577
 30
0.0
 40
1.0
100
AcDbArc
 50
270.0
 51
0.0
  0
LINE
  5
4B6B
330
4B06
100
AcDbEntity
  8
外形線
 48
10.0
100
AcDbLine
 10
1070.398525663106
 20
1031.186780962577
 30
0.0
 11
1070.398525663106
 21
1041.031595836918
 31
0.0
  0
LINE
  5
4B6C
330
4B06
100
AcDbEntity
  8
外形線
 48
10.0
100
AcDbLine
 10
1046.016783711759
 20
1042.56245924605
 30
0.0
 11
1099.098349930826
 21
1041.35786999663
 31
0.0
  0
LINE
  5
4B6D
330
4B06
100
AcDbEntity
  8
外形線
 48
10.0
100
AcDbLine
 10
1021.881073256668
 20
1072.412932713756
 30
0.0
 11
1034.070088284044
 21
1072.200172665042
 31
0.0
  0
LINE
  5
4B6E
330
4B06
100
AcDbEntity
  8
外形線
 48
10.0
100
AcDbLine
 10
1106.398525663105
 20
1040.711780962577
 30
0.0
 11
1106.398525663105
 21
1031.186780962577
 31
0.0
  0
LINE
  5
4B6F
330
4B06
100
AcDbEntity
  8
外形線
 48
10.0
100
AcDbLine
 10
1106.398525663105
 20
1040.711780962577
 30
0.0
 11
1106.398525663105
 21
1152.686780962578
 31
0.0
  0
LINE
  5
4B70
330
4B06
100
AcDbEntity
  8
外形線
 48
10.0
100
AcDbLine
 10
1105.398525663105
 20
1030.186780962577
 30
0.0
 11
1071.398525663106
 21
1030.186780962577
 31
0.0
  0
LINE
  5
4B71
330
4B06
100
AcDbEntity
  8
外形線
 48
10.0
100
AcDbLine
 10
1103.398525663106
 20
1036.95900251561
 30
0.0
 11
1103.398525663105
 21
1036.692885238951
 31
0.0
  0
LINE
  5
4B72
330
4B06
100
AcDbEntity
  8
外形線
 48
10.0
100
AcDbLine
 10
1106.398525663105
 20
1036.692885238951
 30
0.0
 11
1103.398525663105
 21
1036.692885238951
 31
0.0
  0
ARC
  5
4B73
330
4B06
100
AcDbEntity
  8
外形線
 48
10.0
100
AcDbCircle
 10
1107.898525663105
 20
1039.211780962577
 30
0.0
 40
1.499999999999659
100
AcDbArc
 50
179.99999999998
 51
289.471220634515
  0
ARC
  5
4B74
330
4B06
100
AcDbEntity
  8
外形線
 48
10.0
100
AcDbCircle
 10
1098.998525663106
 20
1036.95900251561
 30
0.0
 40
4.4
100
AcDbArc
 50
0.0
 51
88.7
  0
LINE
  5
4B75
330
4B06
100
AcDbEntity
  8
細線
 48
10.0
100
AcDbLine
 10
1103.398525663105
 20
1152.686780962578
 30
0.0
 11
1103.398525663106
 21
1036.95900251561
 31
0.0
  0
LINE
  5
4B76
330
4B06
100
AcDbEntity
  8
細線
 48
10.0
100
AcDbLine
 10
1034.837298404406
 20
1072.186780962578
 30
0.0
 11
1034.840933619068
 21
1117.201361012233
 31
0.0
  0
LINE
  5
4B77
330
4B06
100
AcDbEntity
  8
細線
 48
10.0
100
AcDbLine
 10
1042.201886517784
 20
1144.905639229587
 30
0.0
 11
1042.201886517784
 21
1044.467922695569
 31
0.0
  0
LINE
  5
4B78
330
4B06
100
AcDbEntity
  8
外形線
 48
10.0
100
AcDbLine
 10
1135.898508800172
 20
1138.913208309413
 30
0.0
 11
1135.896646406194
 21
1101.646260115989
 31
0.0
  0
ARC
  5
4B79
330
4B06
100
AcDbEntity
  8
細線
 48
10.0
100
AcDbCircle
 10
1135.397834558349
 20
1125.421480922695
 30
0.0
 40
0.5
100
AcDbArc
 50
359.997136676878
 51
74.206830951738
  0
ARC
  5
4B7A
330
4B06
100
AcDbEntity
  8
細線
 48
10.0
100
AcDbCircle
 10
1135.397869895098
 20
1126.128577709141
 30
0.0
 40
0.5
100
AcDbArc
 50
359.997136676878
 51
74.206830951738
  0
LINE
  5
4B7B
330
4B06
100
AcDbEntity
  8
細線
 48
10.0
100
AcDbLine
 10
1135.533917321837
 20
1125.90260614702
 30
0.0
 11
1123.762442899618
 21
1129.232081902426
 31
0.0
  0
LINE
  5
4B7C
330
4B06
100
AcDbEntity
  8
中心線
 48
10.0
100
AcDbLine
 10
1088.398525663106
 20
1052.03299312045
 30
0.0
 11
1088.398525663106
 21
1013.722487401784
 31
0.0
  0
ENDBLK
  5
4B7D
330
4B06
100
AcDbEntity
  8
0
 48
10.0
100
AcDbBlockEnd
  0
BLOCK
  5
5107
330
50FD
100
AcDbEntity
  8
0
 48
10.0
100
AcDbBlockBegin
  2
*D12
 70
     1
 10
0.0
 20
0.0
 30
0.0
  3
*D12
  1

  0
LINE
  5
52C7
330
50FD
100
AcDbEntity
  8
寸法線
 62
     0
 48
10.0
100
AcDbLine
 10
210.443647827309
 20
405.713623815478
 30
0.0
 11
210.443647827309
 21
302.126965430172
 31
0.0
  0
LINE
  5
52C8
330
50FD
100
AcDbEntity
  8
寸法線
 62
     0
 48
10.0
100
AcDbLine
 10
260.443647827309
 20
405.713623815478
 30
0.0
 11
260.443647827309
 21
302.126965430172
 31
0.0
  0
LINE
  5
52C9
330
50FD
100
AcDbEntity
  8
寸法線
 62
     0
 48
10.0
100
AcDbLine
 10
216.443647827309
 20
303.376965430172
 30
0.0
 11
254.443647827309
 21
303.376965430172
 31
0.0
  0
INSERT
  5
52CA
330
50FD
100
AcDbEntity
  8
寸法線
 62
     0
 48
10.0
100
AcDbBlockReference
  2
_OPEN30
 10
210.443647827309
 20
303.376965430172
 30
0.0
 41
6.0
 42
6.0
 43
6.0
 50
180.0
  0
INSERT
  5
52CB
330
50FD
100
AcDbEntity
  8
寸法線
 62
     0
 48
10.0
100
AcDbBlockReference
  2
_OPEN30
 10
260.443647827309
 20
303.376965430172
 30
0.0
 41
6.0
 42
6.0
 43
6.0
  0
MTEXT
  5
52CC
330
50FD
100
AcDbEntity
  8
寸法線
 62
     0
 48
10.0
100
AcDbMText
 10
235.443647827309
 20
308.001965430172
 30
0.0
 40
8.0
 41
0.0
 71
     5
 72
     1
  1
\A1;50
  0
POINT
  5
52CD
330
50FD
100
AcDbEntity
  8
DEFPOINTS
 62
     0
 48
10.0
100
AcDbPoint
 10
210.443647827309
 20
406.338623815478
 30
0.0
  0
POINT
  5
52CE
330
50FD
100
AcDbEntity
  8
DEFPOINTS
 62
     0
 48
10.0
100
AcDbPoint
 10
260.443647827309
 20
406.338623815478
 30
0.0
  0
POINT
  5
52CF
330
50FD
100
AcDbEntity
  8
DEFPOINTS
 62
     0
 48
10.0
100
AcDbPoint
 10
260.443647827309
 20
303.376965430172
 30
0.0
  0
ENDBLK
  5
5108
330
50FD
100
AcDbEntity
  8
0
 48
10.0
100
AcDbBlockEnd
  0
BLOCK
  5
5114
330
510A
100
AcDbEntity
  8
0
 48
10.0
100
AcDbBlockBegin
  2
*D13
 70
     1
 10
0.0
 20
0.0
 30
0.0
  3
*D13
  1

  0
LINE
  5
52BE
330
510A
100
AcDbEntity
  8
寸法線
 62
     0
 48
10.0
100
AcDbLine
 10
260.443647827309
 20
405.713623815478
 30
0.0
 11
260.443647827309
 21
302.126965430172
 31
0.0
  0
LINE
  5
52BF
330
510A
100
AcDbEntity
  8
寸法線
 62
     0
 48
10.0
100
AcDbLine
 10
275.443647827309
 20
403.413623815478
 30
0.0
 11
275.443647827309
 21
302.126965430172
 31
0.0
  0
LINE
  5
52C0
330
510A
100
AcDbEntity
  8
寸法線
 62
     0
 48
10.0
100
AcDbLine
 10
266.443647827309
 20
303.376965430172
 30
0.0
 11
269.443647827309
 21
303.376965430172
 31
0.0
  0
INSERT
  5
52C1
330
510A
100
AcDbEntity
  8
寸法線
 62
     0
 48
10.0
100
AcDbBlockReference
  2
_OPEN30
 10
260.443647827309
 20
303.376965430172
 30
0.0
 41
6.0
 42
6.0
 43
6.0
 50
180.0
  0
INSERT
  5
52C2
330
510A
100
AcDbEntity
  8
寸法線
 62
     0
 48
10.0
100
AcDbBlockReference
  2
_OPEN30
 10
275.443647827309
 20
303.376965430172
 30
0.0
 41
6.0
 42
6.0
 43
6.0
  0
MTEXT
  5
52C3
330
510A
100
AcDbEntity
  8
寸法線
 62
     0
 48
10.0
100
AcDbMText
 10
267.943647827309
 20
308.001965430172
 30
0.0
 40
8.0
 41
0.0
 71
     5
 72
     1
  1
\A1;15
  0
POINT
  5
52C4
330
510A
100
AcDbEntity
  8
DEFPOINTS
 62
     0
 48
10.0
100
AcDbPoint
 10
260.443647827309
 20
406.338623815478
 30
0.0
  0
POINT
  5
52C5
330
510A
100
AcDbEntity
  8
DEFPOINTS
 62
     0
 48
10.0
100
AcDbPoint
 10
275.443647827309
 20
404.038623815478
 30
0.0
  0
POINT
  5
52C6
330
510A
100
AcDbEntity
  8
DEFPOINTS
 62
     0
 48
10.0
100
AcDbPoint
 10
275.443647827309
 20
303.376965430172
 30
0.0
  0
ENDBLK
  5
5115
330
510A
100
AcDbEntity
  8
0
 48
10.0
100
AcDbBlockEnd
  0
BLOCK
  5
5121
330
5117
100
AcDbEntity
  8
0
 48
10.0
100
AcDbBlockBegin
  2
*D14
 70
     1
 10
0.0
 20
0.0
 30
0.0
  3
*D14
  1

  0
LINE
  5
52B5
330
5117
100
AcDbEntity
  8
寸法線
 62
     0
 48
10.0
100
AcDbLine
 10
275.443647827309
 20
403.413623815478
 30
0.0
 11
275.443647827309
 21
302.126965430172
 31
0.0
  0
LINE
  5
52B6
330
5117
100
AcDbEntity
  8
寸法線
 62
     0
 48
10.0
100
AcDbLine
 10
325.443647827309
 20
401.913623815478
 30
0.0
 11
325.443647827309
 21
302.126965430172
 31
0.0
  0
LINE
  5
52B7
330
5117
100
AcDbEntity
  8
寸法線
 62
     0
 48
10.0
100
AcDbLine
 10
281.443647827309
 20
303.376965430172
 30
0.0
 11
319.443647827309
 21
303.376965430172
 31
0.0
  0
INSERT
  5
52B8
330
5117
100
AcDbEntity
  8
寸法線
 62
     0
 48
10.0
100
AcDbBlockReference
  2
_OPEN30
 10
275.443647827309
 20
303.376965430172
 30
0.0
 41
6.0
 42
6.0
 43
6.0
 50
180.0
  0
INSERT
  5
52B9
330
5117
100
AcDbEntity
  8
寸法線
 62
     0
 48
10.0
100
AcDbBlockReference
  2
_OPEN30
 10
325.443647827309
 20
303.376965430172
 30
0.0
 41
6.0
 42
6.0
 43
6.0
  0
MTEXT
  5
52BA
330
5117
100
AcDbEntity
  8
寸法線
 62
     0
 48
10.0
100
AcDbMText
 10
300.443647827309
 20
308.001965430172
 30
0.0
 40
8.0
 41
0.0
 71
     5
 72
     1
  1
\A1;50
  0
POINT
  5
52BB
330
5117
100
AcDbEntity
  8
DEFPOINTS
 62
     0
 48
10.0
100
AcDbPoint
 10
275.443647827309
 20
404.038623815478
 30
0.0
  0
POINT
  5
52BC
330
5117
100
AcDbEntity
  8
DEFPOINTS
 62
     0
 48
10.0
100
AcDbPoint
 10
325.443647827309
 20
402.538623815478
 30
0.0
  0
POINT
  5
52BD
330
5117
100
AcDbEntity
  8
DEFPOINTS
 62
     0
 48
10.0
100
AcDbPoint
 10
325.443647827309
 20
303.376965430172
 30
0.0
  0
ENDBLK
  5
5122
330
5117
100
AcDbEntity
  8
0
 48
10.0
100
AcDbBlockEnd
  0
BLOCK
  5
512E
330
5124
100
AcDbEntity
  8
0
 48
10.0
100
AcDbBlockBegin
  2
*D15
 70
     1
 10
0.0
 20
0.0
 30
0.0
  3
*D15
  1

  0
LINE
  5
535B
330
5124
100
AcDbEntity
  8
寸法線
 62
     0
 48
10.0
100
AcDbLine
 10
325.443647827309
 20
401.913623815478
 30
0.0
 11
325.443647827309
 21
302.126965430172
 31
0.0
  0
LINE
  5
535C
330
5124
100
AcDbEntity
  8
寸法線
 62
     0
 48
10.0
100
AcDbLine
 10
425.443647827309
 20
398.113811315478
 30
0.0
 11
425.443647827309
 21
302.126965430172
 31
0.0
  0
LINE
  5
535D
330
5124
100
AcDbEntity
  8
寸法線
 62
     0
 48
10.0
100
AcDbLine
 10
331.443647827309
 20
303.376965430172
 30
0.0
 11
419.443647827309
 21
303.376965430172
 31
0.0
  0
INSERT
  5
535E
330
5124
100
AcDbEntity
  8
寸法線
 62
     0
 48
10.0
100
AcDbBlockReference
  2
_OPEN30
 10
325.443647827309
 20
303.376965430172
 30
0.0
 41
6.0
 42
6.0
 43
6.0
 50
180.0
  0
INSERT
  5
535F
330
5124
100
AcDbEntity
  8
寸法線
 62
     0
 48
10.0
100
AcDbBlockReference
  2
_OPEN30
 10
425.443647827309
 20
303.376965430172
 30
0.0
 41
6.0
 42
6.0
 43
6.0
  0
MTEXT
  5
5360
330
5124
100
AcDbEntity
  8
寸法線
 62
     0
 48
10.0
100
AcDbMText
 10
375.443647827309
 20
308.001965430172
 30
0.0
 40
8.0
 41
0.0
 71
     5
 72
     1
  1
\A1;100
  0
POINT
  5
5361
330
5124
100
AcDbEntity
  8
DEFPOINTS
 62
     0
 48
10.0
100
AcDbPoint
 10
325.443647827309
 20
402.538623815478
 30
0.0
  0
POINT
  5
5362
330
5124
100
AcDbEntity
  8
DEFPOINTS
 62
     0
 48
10.0
100
AcDbPoint
 10
425.443647827309
 20
398.738811315478
 30
0.0
  0
POINT
  5
5363
330
5124
100
AcDbEntity
  8
DEFPOINTS
 62
     0
 48
10.0
100
AcDbPoint
 10
425.443647827309
 20
303.376965430172
 30
0.0
  0
ENDBLK
  5
512F
330
5124
100
AcDbEntity
  8
0
 48
10.0
100
AcDbBlockEnd
  0
BLOCK
  5
514A
330
5140
100
AcDbEntity
  8
0
 48
10.0
100
AcDbBlockBegin
  2
*D16
 70
     1
 10
0.0
 20
0.0
 30
0.0
  3
*D16
  1

  0
LINE
  5
536D
330
5140
100
AcDbEntity
  8
寸法線
 62
     0
 48
10.0
100
AcDbLine
 10
450.443647827309
 20
395.413623815477
 30
0.0
 11
450.443647827309
 21
302.126965430172
 31
0.0
  0
LINE
  5
536E
330
5140
100
AcDbEntity
  8
寸法線
 62
     0
 48
10.0
100
AcDbLine
 10
470.443647827309
 20
395.412934047206
 30
0.0
 11
470.443647827309
 21
302.126965430172
 31
0.0
  0
LINE
  5
536F
330
5140
100
AcDbEntity
  8
寸法線
 62
     0
 48
10.0
100
AcDbLine
 10
456.443647827309
 20
303.376965430172
 30
0.0
 11
464.443647827309
 21
303.376965430172
 31
0.0
  0
INSERT
  5
5370
330
5140
100
AcDbEntity
  8
寸法線
 62
     0
 48
10.0
100
AcDbBlockReference
  2
_OPEN30
 10
450.443647827309
 20
303.376965430172
 30
0.0
 41
6.0
 42
6.0
 43
6.0
 50
180.0
  0
INSERT
  5
5371
330
5140
100
AcDbEntity
  8
寸法線
 62
     0
 48
10.0
100
AcDbBlockReference
  2
_OPEN30
 10
470.443647827309
 20
303.376965430172
 30
0.0
 41
6.0
 42
6.0
 43
6.0
  0
MTEXT
  5
5372
330
5140
100
AcDbEntity
  8
寸法線
 62
     0
 48
10.0
100
AcDbMText
 10
460.443647827309
 20
308.002752831747
 30
0.0
 40
8.0
 41
0.0
 71
     5
 72
     1
  1
\A1;20
  0
POINT
  5
5373
330
5140
100
AcDbEntity
  8
DEFPOINTS
 62
     0
 48
10.0
100
AcDbPoint
 10
450.443647827309
 20
396.038623815477
 30
0.0
  0
POINT
  5
5374
330
5140
100
AcDbEntity
  8
DEFPOINTS
 62
     0
 48
10.0
100
AcDbPoint
 10
470.443647827309
 20
396.037934047206
 30
0.0
  0
POINT
  5
5375
330
5140
100
AcDbEntity
  8
DEFPOINTS
 62
     0
 48
10.0
100
AcDbPoint
 10
470.443647827309
 20
303.376965430172
 30
0.0
  0
ENDBLK
  5
514B
330
5140
100
AcDbEntity
  8
0
 48
10.0
100
AcDbBlockEnd
  0
BLOCK
  5
5157
330
514D
100
AcDbEntity
  8
0
 48
10.0
100
AcDbBlockBegin
  2
*D17
 70
     1
 10
0.0
 20
0.0
 30
0.0
  3
*D17
  1

  0
LINE
  5
5376
330
514D
100
AcDbEntity
  8
寸法線
 62
     0
 48
10.0
100
AcDbLine
 10
425.443647827309
 20
398.113811315478
 30
0.0
 11
425.443647827309
 21
302.126965430172
 31
0.0
  0
LINE
  5
5377
330
514D
100
AcDbEntity
  8
寸法線
 62
     0
 48
10.0
100
AcDbLine
 10
450.443647827309
 20
395.413623815477
 30
0.0
 11
450.443647827309
 21
302.126965430172
 31
0.0
  0
LINE
  5
5378
330
514D
100
AcDbEntity
  8
寸法線
 62
     0
 48
10.0
100
AcDbLine
 10
431.443647827309
 20
303.376965430172
 30
0.0
 11
444.443647827309
 21
303.376965430172
 31
0.0
  0
INSERT
  5
5379
330
514D
100
AcDbEntity
  8
寸法線
 62
     0
 48
10.0
100
AcDbBlockReference
  2
_OPEN30
 10
425.443647827309
 20
303.376965430172
 30
0.0
 41
6.0
 42
6.0
 43
6.0
 50
180.0
  0
INSERT
  5
537A
330
514D
100
AcDbEntity
  8
寸法線
 62
     0
 48
10.0
100
AcDbBlockReference
  2
_OPEN30
 10
450.443647827309
 20
303.376965430172
 30
0.0
 41
6.0
 42
6.0
 43
6.0
  0
MTEXT
  5
537B
330
514D
100
AcDbEntity
  8
寸法線
 62
     0
 48
10.0
100
AcDbMText
 10
437.943647827309
 20
308.002752831747
 30
0.0
 40
8.0
 41
0.0
 71
     5
 72
     1
  1
\A1;25
  0
POINT
  5
537C
330
514D
100
AcDbEntity
  8
DEFPOINTS
 62
     0
 48
10.0
100
AcDbPoint
 10
425.443647827309
 20
398.738811315478
 30
0.0
  0
POINT
  5
537D
330
514D
100
AcDbEntity
  8
DEFPOINTS
 62
     0
 48
10.0
100
AcDbPoint
 10
450.443647827309
 20
396.038623815477
 30
0.0
  0
POINT
  5
537E
330
514D
100
AcDbEntity
  8
DEFPOINTS
 62
     0
 48
10.0
100
AcDbPoint
 10
450.443647827309
 20
303.376965430172
 30
0.0
  0
ENDBLK
  5
5158
330
514D
100
AcDbEntity
  8
0
 48
10.0
100
AcDbBlockEnd
  0
BLOCK
  5
5164
330
515A
100
AcDbEntity
  8
0
 48
10.0
100
AcDbBlockBegin
  2
*D18
 70
     1
 10
0.0
 20
0.0
 30
0.0
  3
*D18
  1

  0
LINE
  5
537F
330
515A
100
AcDbEntity
  8
寸法線
 62
     0
 48
10.0
100
AcDbLine
 10
470.443647827309
 20
395.412934047206
 30
0.0
 11
470.443647827309
 21
302.126965430172
 31
0.0
  0
LINE
  5
5380
330
515A
100
AcDbEntity
  8
寸法線
 62
     0
 48
10.0
100
AcDbLine
 10
558.943647827308
 20
350.912934047206
 30
0.0
 11
558.943647827308
 21
302.126965430172
 31
0.0
  0
LINE
  5
5381
330
515A
100
AcDbEntity
  8
寸法線
 62
     0
 48
10.0
100
AcDbLine
 10
476.443647827309
 20
303.376965430172
 30
0.0
 11
552.943647827308
 21
303.376965430172
 31
0.0
  0
INSERT
  5
5382
330
515A
100
AcDbEntity
  8
寸法線
 62
     0
 48
10.0
100
AcDbBlockReference
  2
_OPEN30
 10
470.443647827309
 20
303.376965430172
 30
0.0
 41
6.0
 42
6.0
 43
6.0
 50
180.0
  0
INSERT
  5
5383
330
515A
100
AcDbEntity
  8
寸法線
 62
     0
 48
10.0
100
AcDbBlockReference
  2
_OPEN30
 10
558.943647827308
 20
303.376965430172
 30
0.0
 41
6.0
 42
6.0
 43
6.0
  0
MTEXT
  5
5384
330
515A
100
AcDbEntity
  8
寸法線
 62
     0
 48
10.0
100
AcDbMText
 10
514.693647827309
 20
308.001965430172
 30
0.0
 40
8.0
 41
0.0
 71
     5
 72
     1
  1
\A1;88
  0
POINT
  5
5385
330
515A
100
AcDbEntity
  8
DEFPOINTS
 62
     0
 48
10.0
100
AcDbPoint
 10
470.443647827309
 20
396.037934047206
 30
0.0
  0
POINT
  5
5386
330
515A
100
AcDbEntity
  8
DEFPOINTS
 62
     0
 48
10.0
100
AcDbPoint
 10
558.943647827308
 20
351.537934047206
 30
0.0
  0
POINT
  5
5387
330
515A
100
AcDbEntity
  8
DEFPOINTS
 62
     0
 48
10.0
100
AcDbPoint
 10
558.943647827308
 20
303.376965430172
 30
0.0
  0
ENDBLK
  5
5165
330
515A
100
AcDbEntity
  8
0
 48
10.0
100
AcDbBlockEnd
  0
BLOCK
  5
517A
330
5170
100
AcDbEntity
  8
0
 48
10.0
100
AcDbBlockBegin
  2
*D19
 70
     1
 10
0.0
 20
0.0
 30
0.0
  3
*D19
  1

  0
LINE
  5
5288
330
5170
100
AcDbEntity
  8
寸法線
 62
     0
 48
10.0
100
AcDbLine
 10
558.943647827308
 20
350.912934047206
 30
0.0
 11
558.943647827308
 21
302.126965430172
 31
0.0
  0
LINE
  5
5289
330
5170
100
AcDbEntity
  8
寸法線
 62
     0
 48
10.0
100
AcDbLine
 10
588.443647827309
 20
370.186488517412
 30
0.0
 11
588.443647827309
 21
302.126965430172
 31
0.0
  0
LINE
  5
528A
330
5170
100
AcDbEntity
  8
寸法線
 62
     0
 48
10.0
100
AcDbLine
 10
564.943647827308
 20
303.376965430172
 30
0.0
 11
582.443647827309
 21
303.376965430172
 31
0.0
  0
INSERT
  5
528B
330
5170
100
AcDbEntity
  8
寸法線
 62
     0
 48
10.0
100
AcDbBlockReference
  2
_OPEN30
 10
558.943647827308
 20
303.376965430172
 30
0.0
 41
6.0
 42
6.0
 43
6.0
 50
180.0
  0
INSERT
  5
528C
330
5170
100
AcDbEntity
  8
寸法線
 62
     0
 48
10.0
100
AcDbBlockReference
  2
_OPEN30
 10
588.443647827309
 20
303.376965430172
 30
0.0
 41
6.0
 42
6.0
 43
6.0
  0
MTEXT
  5
528D
330
5170
100
AcDbEntity
  8
寸法線
 62
     0
 48
10.0
100
AcDbMText
 10
573.693647827309
 20
308.001965430172
 30
0.0
 40
8.0
 41
0.0
 71
     5
 72
     1
  1
\A1;30
  0
POINT
  5
528E
330
5170
100
AcDbEntity
  8
DEFPOINTS
 62
     0
 48
10.0
100
AcDbPoint
 10
558.943647827308
 20
351.537934047206
 30
0.0
  0
POINT
  5
528F
330
5170
100
AcDbEntity
  8
DEFPOINTS
 62
     0
 48
10.0
100
AcDbPoint
 10
588.443647827309
 20
370.811488517412
 30
0.0
  0
POINT
  5
5290
330
5170
100
AcDbEntity
  8
DEFPOINTS
 62
     0
 48
10.0
100
AcDbPoint
 10
588.443647827309
 20
303.376965430172
 30
0.0
  0
ENDBLK
  5
517B
330
5170
100
AcDbEntity
  8
0
 48
10.0
100
AcDbBlockEnd
  0
BLOCK
  5
5190
330
5186
100
AcDbEntity
  8
0
 48
10.0
100
AcDbBlockBegin
  2
*D20
 70
     1
 10
0.0
 20
0.0
 30
0.0
  3
*D20
  1

  0
LINE
  5
5388
330
5186
100
AcDbEntity
  8
寸法線
 62
     0
 48
10.0
100
AcDbLine
 10
425.443647827309
 20
302.751965430172
 30
0.0
 11
425.443647827309
 21
276.863219967485
 31
0.0
  0
LINE
  5
5389
330
5186
100
AcDbEntity
  8
寸法線
 62
     0
 48
10.0
100
AcDbLine
 10
588.443647827309
 20
370.186488517412
 30
0.0
 11
588.443647827309
 21
276.863219967485
 31
0.0
  0
LINE
  5
538A
330
5186
100
AcDbEntity
  8
寸法線
 62
     0
 48
10.0
100
AcDbLine
 10
431.443647827309
 20
278.113219967485
 30
0.0
 11
582.443647827309
 21
278.113219967485
 31
0.0
  0
INSERT
  5
538B
330
5186
100
AcDbEntity
  8
寸法線
 62
     0
100
AcDbBlockReference
  2
_OPEN30
 10
425.443647827309
 20
278.113219967485
 30
0.0
 41
6.0
 42
6.0
 43
6.0
 50
180.0
  0
INSERT
  5
538C
330
5186
100
AcDbEntity
  8
寸法線
 62
     0
100
AcDbBlockReference
  2
_OPEN30
 10
588.443647827309
 20
278.113219967485
 30
0.0
 41
6.0
 42
6.0
 43
6.0
  0
MTEXT
  5
538D
330
5186
100
AcDbEntity
  8
寸法線
 62
     0
 48
10.0
100
AcDbMText
 10
506.943647827309
 20
282.738219967485
 30
0.0
 40
8.0
 41
0.0
 71
     5
 72
     1
  1
\A1;163
  0
POINT
  5
538E
330
5186
100
AcDbEntity
  8
DEFPOINTS
 62
     0
100
AcDbPoint
 10
425.443647827309
 20
303.376965430172
 30
0.0
  0
POINT
  5
538F
330
5186
100
AcDbEntity
  8
DEFPOINTS
 62
     0
100
AcDbPoint
 10
588.443647827309
 20
370.811488517412
 30
0.0
  0
POINT
  5
5390
330
5186
100
AcDbEntity
  8
DEFPOINTS
 62
     0
100
AcDbPoint
 10
588.443647827309
 20
278.113219967485
 30
0.0
  0
ENDBLK
  5
5191
330
5186
100
AcDbEntity
  8
0
 48
10.0
100
AcDbBlockEnd
  0
BLOCK
  5
51AA
330
51A0
100
AcDbEntity
  8
0
 48
10.0
100
AcDbBlockBegin
  2
*D21
 70
     1
 10
0.0
 20
0.0
 30
0.0
  3
*D21
  1

  0
LINE
  5
5418
330
51A0
100
AcDbEntity
  8
寸法線
 62
     0
 48
10.0
100
AcDbLine
 10
-56.648869083705
 20
406.413623815478
 30
0.0
 11
-56.648869083705
 21
276.863219967485
 31
0.0
  0
LINE
  5
5419
330
51A0
100
AcDbEntity
  8
寸法線
 62
     0
 48
10.0
100
AcDbLine
 10
425.443647827309
 20
398.113811315478
 30
0.0
 11
425.443647827309
 21
276.863219967485
 31
0.0
  0
LINE
  5
541A
330
51A0
100
AcDbEntity
  8
寸法線
 62
     0
 48
10.0
100
AcDbLine
 10
-50.648869083705
 20
278.113219967485
 30
0.0
 11
419.443647827309
 21
278.113219967485
 31
0.0
  0
INSERT
  5
541B
330
51A0
100
AcDbEntity
  8
寸法線
 62
     0
 48
10.0
100
AcDbBlockReference
  2
_OPEN30
 10
-56.648869083705
 20
278.113219967485
 30
0.0
 41
6.0
 42
6.0
 43
6.0
 50
180.0
  0
INSERT
  5
541C
330
51A0
100
AcDbEntity
  8
寸法線
 62
     0
 48
10.0
100
AcDbBlockReference
  2
_OPEN30
 10
425.443647827309
 20
278.113219967485
 30
0.0
 41
6.0
 42
6.0
 43
6.0
  0
POINT
  5
541D
330
51A0
100
AcDbEntity
  8
DEFPOINTS
 62
     0
 48
10.0
100
AcDbPoint
 10
-56.648869083705
 20
407.038623815478
 30
0.0
  0
POINT
  5
541E
330
51A0
100
AcDbEntity
  8
DEFPOINTS
 62
     0
 48
10.0
100
AcDbPoint
 10
425.443647827309
 20
398.738811315478
 30
0.0
  0
POINT
  5
541F
330
51A0
100
AcDbEntity
  8
DEFPOINTS
 62
     0
 48
10.0
100
AcDbPoint
 10
425.443647827309
 20
278.113219967485
 30
0.0
  0
ENDBLK
  5
51AB
330
51A0
100
AcDbEntity
  8
0
 48
10.0
100
AcDbBlockEnd
  0
BLOCK
  5
51C1
330
51B7
100
AcDbEntity
  8
0
 48
10.0
100
AcDbBlockBegin
  2
*D22
 70
     1
 10
0.0
 20
0.0
 30
0.0
  3
*D22
  1

  0
LINE
  5
5264
330
51B7
100
AcDbEntity
  8
寸法線
 62
     0
 48
10.0
100
AcDbLine
 10
-56.648869083705
 20
406.413623815478
 30
0.0
 11
-56.648869083705
 21
302.126965430172
 31
0.0
  0
LINE
  5
5265
330
51B7
100
AcDbEntity
  8
寸法線
 62
     0
 48
10.0
100
AcDbLine
 10
43.351130916295
 20
404.913623815478
 30
0.0
 11
43.351130916295
 21
302.126965430172
 31
0.0
  0
LINE
  5
5266
330
51B7
100
AcDbEntity
  8
寸法線
 62
     0
 48
10.0
100
AcDbLine
 10
-50.648869083705
 20
303.376965430172
 30
0.0
 11
37.351130916295
 21
303.376965430172
 31
0.0
  0
INSERT
  5
5267
330
51B7
100
AcDbEntity
  8
寸法線
 62
     0
 48
10.0
100
AcDbBlockReference
  2
_OPEN30
 10
-56.648869083705
 20
303.376965430172
 30
0.0
 41
6.0
 42
6.0
 43
6.0
 50
180.0
  0
INSERT
  5
5268
330
51B7
100
AcDbEntity
  8
寸法線
 62
     0
 48
10.0
100
AcDbBlockReference
  2
_OPEN30
 10
43.351130916295
 20
303.376965430172
 30
0.0
 41
6.0
 42
6.0
 43
6.0
  0
MTEXT
  5
5269
330
51B7
100
AcDbEntity
  8
寸法線
 62
     0
 48
10.0
100
AcDbMText
 10
-6.648869083705
 20
308.002752831747
 30
0.0
 40
8.0
 41
0.0
 71
     5
 72
     1
  1
\A1;220
  0
POINT
  5
526A
330
51B7
100
AcDbEntity
  8
DEFPOINTS
 62
     0
 48
10.0
100
AcDbPoint
 10
-56.648869083705
 20
407.038623815478
 30
0.0
  0
POINT
  5
526B
330
51B7
100
AcDbEntity
  8
DEFPOINTS
 62
     0
 48
10.0
100
AcDbPoint
 10
43.351130916295
 20
405.538623815478
 30
0.0
  0
POINT
  5
526C
330
51B7
100
AcDbEntity
  8
DEFPOINTS
 62
     0
 48
10.0
100
AcDbPoint
 10
43.351130916295
 20
303.376965430172
 30
0.0
  0
ENDBLK
  5
51C2
330
51B7
100
AcDbEntity
  8
0
 48
10.0
100
AcDbBlockEnd
  0
BLOCK
  5
553B
330
553A
100
AcDbEntity
  8
0
 48
10.0
100
AcDbBlockBegin
  2
エル2
 70
     0
 10
0.0
 20
0.0
 30
0.0
  3
エル2
  1

  0
SPLINE
  5
553C
330
553A
100
AcDbEntity
  8
寸法線
 48
10.0
100
AcDbSpline
210
0.0
220
0.0
230
1.0
 70
  1064
 71
     3
 72
    13
 73
     9
 74
     7
 42
0.000000001
 43
0.0000000001
 44
0.0000000001
 40
0.0
 40
0.0
 40
0.0
 40
0.0
 40
1.733053107167099
 40
4.534898454324925
 40
6.793163002857423
 40
8.354986571146185
 40
9.185484699869413
 40
9.787764058431357
 40
9.787764058431357
 40
9.787764058431357
 40
9.787764058431357
 10
0.3404176863031978
 20
-0.0801601613338576
 30
0.0
 10
0.855794411263654
 20
0.1579129364008262
 30
0.0
 10
2.204386155944025
 20
0.7808813373508537
 30
0.0
 10
2.529358956725084
 20
5.129799896284669
 30
0.0
 10
0.6070464993675226
 20
2.001902917601773
 30
0.0
 10
0.6912230258019743
 20
0.4140194271594774
 30
0.0
 10
1.704003608216778
 20
-0.2080419689248962
 30
0.0
 10
2.151973019543756
 20
0.0160478349734518
 30
0.0
 10
2.340280507694345
 20
0.110245757923721
 30
0.0
 11
0.3404176863031978
 21
-0.0801601613338576
 31
0.0
 11
1.721275265169794
 21
0.967076879239201
 31
0.0
 11
2.03077788643197
 21
3.751775332720619
 31
0.0
 11
0.8165758350102692
 21
1.847708067763307
 31
0.0
 11
1.030847060394152
 21
0.3006525741126325
 31
0.0
 11
1.768890963108987
 21
-0.0801601613338576
 31
0.0
 11
2.340280507694345
 21
0.110245757923721
 31
0.0
  0
ENDBLK
  5
553D
330
553A
100
AcDbEntity
  8
0
 48
10.0
100
AcDbBlockEnd
  0
ENDSEC
  0
SECTION
  2
ENTITIES
  0
LWPOLYLINE
  5
31A0
330
1A
100
AcDbEntity
  8
外形線
100
AcDbPolyline
 90
        4
 70
     1
 43
0.0
 10
470.443647827309
 20
396.037934047206
 10
473.443647827309
 20
396.037934047206
 10
473.443647827309
 20
434.037934047206
 10
470.443647827309
 20
434.037934047206
  0
MTEXT
  5
376D
330
1A
100
AcDbEntity
  8
寸法線
 48
10.0
100
AcDbMText
 10
596.336073867546
 20
303.376965430172
 30
0.0
 40
8.0
 41
0.0
 71
     7
 72
     1
  1
導線取出口\PG 1/2"
  0
MTEXT
  5
4279
330
1A
100
AcDbEntity
  8
寸法線
 48
10.0
100
AcDbMText
 10
607.12388273389
 20
517.823164815233
 30
0.0
 40
8.0
 41
0.0
 71
     7
 72
     1
  1
アルミ\Pダイカスト
  0
MTEXT
  5
427B
330
1A
100
AcDbEntity
  8
寸法線
 48
10.0
100
AcDbMText
 10
504.632817158523
 20
517.823164815233
 30
0.0
 40
8.0
 41
0.0
 71
     7
 72
     1
  1
アルミ\Pダイカスト
  0
MTEXT
  5
4289
330
1A
100
AcDbEntity
  8
寸法線
 48
10.0
100
AcDbMText
 10
562.902049267044
 20
517.823164815233
 30
0.0
 40
8.0
 41
0.0
 71
     7
 72
     1
  1
Oリング
  0
MTEXT
  5
428B
330
1A
100
AcDbEntity
  8
寸法線
 48
10.0
100
AcDbMText
 10
395.051664058527
 20
517.823164815233
 30
0.0
 40
8.0
 41
0.0
 71
     7
 72
     1
  1
\A1;接地電極\PSUS304
  0
MTEXT
  5
4290
330
1A
100
AcDbEntity
  8
寸法線
 48
10.0
100
AcDbMText
 10
291.29097333191
 20
517.823164815233
 30
0.0
 40
8.0
 41
0.0
 71
     9
 72
     1
  1
\A1;絶縁体\Pポリアセタール
  0
MTEXT
  5
4292
330
1A
100
AcDbEntity
  8
寸法線
 48
10.0
100
AcDbMText
 10
208.482756363652
 20
517.823164815233
 30
0.0
 40
8.0
 41
0.0
 71
     9
 72
     1
  1
接続金具\PSUS304
  0
LWPOLYLINE
  5
4533
102
{ACAD_REACTORS
330
456F
102
}
330
1A
100
AcDbEntity
  8
外形線
100
AcDbPolyline
 90
        6
 70
     0
 43
0.0
 10
-2.648869083705
 20
405.038623815478
 10
42.851130916295
 20
405.038623815478
 10
43.351130916295
 20
405.538623815478
 10
43.351130916295
 20
424.538623815478
 10
42.851130916295
 20
425.038623815478
 10
-2.648869083705
 20
425.038623815478
  0
ARC
  5
4534
102
{ACAD_REACTORS
330
456F
102
}
330
1A
100
AcDbEntity
  8
細線
100
AcDbCircle
 10
-15.898869083705
 20
420.038623815478
 30
0.0
 40
7.25
100
AcDbArc
 50
316.397181027297
 51
43.602818972703
  0
ARC
  5
4535
102
{ACAD_REACTORS
330
456F
102
}
330
1A
100
AcDbEntity
  8
細線
100
AcDbCircle
 10
-5.398869083705
 20
420.038623815478
 30
0.0
 40
7.25
100
AcDbArc
 50
136.397181027297
 51
223.602818972703
  0
ARC
  5
4536
102
{ACAD_REACTORS
330
456F
102
}
330
1A
100
AcDbEntity
  8
細線
100
AcDbCircle
 10
-15.898869083705
 20
410.038623815478
 30
0.0
 40
7.25
100
AcDbArc
 50
316.397181027297
 51
43.602818972703
  0
ARC
  5
4537
102
{ACAD_REACTORS
330
456F
102
}
330
1A
100
AcDbEntity
  8
細線
100
AcDbCircle
 10
2.601130916295
 20
410.038623815478
 30
0.0
 40
7.25
100
AcDbArc
 50
136.397181027297
 51
223.602818972703
  0
ARC
  5
4538
102
{ACAD_REACTORS
330
456F
102
}
330
1A
100
AcDbEntity
  8
細線
100
AcDbCircle
 10
-7.898869083705
 20
410.038623815477
 30
0.0
 40
7.25
100
AcDbArc
 50
316.397181027297
 51
43.602818972703
  0
ARC
  5
4539
102
{ACAD_REACTORS
330
456F
102
}
330
1A
100
AcDbEntity
  8
細線
100
AcDbCircle
 10
2.601130916295
 20
420.038623815477
 30
0.0
 40
7.25
100
AcDbArc
 50
136.397181027297
 51
223.602818972703
  0
LWPOLYLINE
  5
453A
102
{ACAD_REACTORS
330
456F
102
}
330
1A
100
AcDbEntity
  8
外形線
100
AcDbPolyline
 90
        6
 70
     0
 43
0.0
 10
-10.648869083705
 20
425.038623815478
 10
-54.648869083705
 20
425.038623815478
 10
-56.648869083705
 20
423.038623815478
 10
-56.648869083705
 20
407.038623815478
 10
-54.648869083705
 20
405.038623815478
 10
-10.648869083705
 20
405.038623815478
  0
LINE
  5
453B
102
{ACAD_REACTORS
330
456F
102
}
330
1A
100
AcDbEntity
  8
細線
100
AcDbLine
 10
-54.648869083705
 20
425.038623815478
 30
0.0
 11
-54.648869083705
 21
405.038623815478
 31
0.0
  0
LINE
  5
453C
102
{ACAD_REACTORS
330
4833
102
}
330
1A
100
AcDbEntity
  8
外形線
100
AcDbLine
 10
43.351130916295
 20
421.538623815478
 30
0.0
 11
43.351130916295
 21
408.538623815478
 31
0.0
  0
LINE
  5
453D
330
1A
100
AcDbEntity
  8
外形線
100
AcDbLine
 10
192.443647827309
 20
417.538623815478
 30
0.0
 11
192.443647827309
 21
412.538623815478
 31
0.0
  0
LINE
  5
453E
330
1A
100
AcDbEntity
  8
外形線
100
AcDbLine
 10
61.351130916295
 20
417.538623815478
 30
0.0
 11
61.351130916295
 21
412.538623815478
 31
0.0
  0
LINE
  5
453F
330
1A
100
AcDbEntity
  8
外形線
100
AcDbLine
 10
137.339430293205
 20
412.538623815478
 30
0.0
 11
192.443647827309
 21
412.538623815478
 31
0.0
  0
LINE
  5
4540
330
1A
100
AcDbEntity
  8
外形線
100
AcDbLine
 10
137.339430293205
 20
417.538623815478
 30
0.0
 11
192.443647827309
 21
417.538623815478
 31
0.0
  0
ARC
  5
4541
330
1A
100
AcDbEntity
  8
細線
100
AcDbCircle
 10
137.620680293205
 20
413.788623815478
 30
0.0
 40
1.28125
100
AcDbArc
 50
102.680383491818
 51
257.319616508182
  0
ARC
  5
4542
330
1A
100
AcDbEntity
  8
細線
100
AcDbCircle
 10
137.058180293205
 20
413.788623815478
 30
0.0
 40
1.28125
100
AcDbArc
 50
282.680383491818
 51
77.319616508182
  0
ARC
  5
4543
330
1A
100
AcDbEntity
  8
細線
100
AcDbCircle
 10
137.620680293205
 20
416.288623815478
 30
0.0
 40
1.28125
100
AcDbArc
 50
102.680383491818
 51
257.319616508182
  0
ARC
  5
4544
330
1A
100
AcDbEntity
  8
細線
100
AcDbCircle
 10
132.620680293205
 20
416.288623815478
 30
0.0
 40
1.28125
100
AcDbArc
 50
102.680383491818
 51
257.319616508182
  0
ARC
  5
4545
330
1A
100
AcDbEntity
  8
細線
100
AcDbCircle
 10
132.058180293205
 20
416.288623815478
 30
0.0
 40
1.28125
100
AcDbArc
 50
282.680383491818
 51
77.319616508182
  0
ARC
  5
4546
330
1A
100
AcDbEntity
  8
細線
100
AcDbCircle
 10
132.058180293205
 20
413.788623815478
 30
0.0
 40
1.28125
100
AcDbArc
 50
282.680383491818
 51
77.319616508182
  0
LINE
  5
4547
330
1A
100
AcDbEntity
  8
外形線
100
AcDbLine
 10
61.351130916295
 20
412.538623815478
 30
0.0
 11
132.339430293205
 21
412.538623815478
 31
0.0
  0
LINE
  5
4548
330
1A
100
AcDbEntity
  8
外形線
100
AcDbLine
 10
61.351130916295
 20
417.538623815478
 30
0.0
 11
132.339430293205
 21
417.538623815478
 31
0.0
  0
ARC
  5
4549
102
{ACAD_REACTORS
330
4833
102
}
330
1A
100
AcDbEntity
  8
細線
100
AcDbCircle
 10
49.089880916295
 20
424.738623815478
 30
0.0
 40
12.26124999999995
100
AcDbArc
 50
336.699401124926
 51
355.499148004291
  0
ARC
  5
454A
102
{ACAD_REACTORS
330
4833
102
}
330
1A
100
AcDbEntity
  8
細線
100
AcDbCircle
 10
49.089880916295
 20
415.038623815478
 30
0.0
 40
12.26124999999995
100
AcDbArc
 50
336.699401124926
 51
23.300598875074
  0
ARC
  5
454B
102
{ACAD_REACTORS
330
4833
102
}
330
1A
100
AcDbEntity
  8
細線
100
AcDbCircle
 10
49.089880916295
 20
405.338623815478
 30
0.0
 40
12.26124999999995
100
AcDbArc
 50
4.500851995706
 51
23.300598875074
  0
LINE
  5
454C
102
{ACAD_REACTORS
330
4833
102
}
330
1A
100
AcDbEntity
  8
細線
100
AcDbLine
 10
60.351130916295
 20
410.188623815478
 30
0.0
 11
46.351130916295
 21
410.188623815478
 31
0.0
  0
LINE
  5
454D
102
{ACAD_REACTORS
330
4833
102
}
330
1A
100
AcDbEntity
  8
細線
100
AcDbLine
 10
60.351130916295
 20
419.888623815478
 30
0.0
 11
46.351130916295
 21
419.888623815478
 31
0.0
  0
LWPOLYLINE
  5
454E
102
{ACAD_REACTORS
330
4833
102
}
330
1A
100
AcDbEntity
  8
外形線
100
AcDbPolyline
 90
        6
 70
     1
 43
0.0
 10
60.351130916295
 20
405.338623815478
 10
46.351130916295
 20
405.338623815478
 10
46.351130916295
 20
424.738623815478
 10
60.351130916295
 20
424.738623815478
 10
61.351130916295
 20
423.738623815478
 10
61.351130916295
 20
406.338623815478
  0
LINE
  5
454F
102
{ACAD_REACTORS
330
4833
102
}
330
1A
100
AcDbEntity
  8
外形線
100
AcDbLine
 10
46.351130916295
 20
421.538623815478
 30
0.0
 11
43.351130916295
 21
421.538623815478
 31
0.0
  0
LINE
  5
4550
102
{ACAD_REACTORS
330
4833
102
}
330
1A
100
AcDbEntity
  8
外形線
100
AcDbLine
 10
46.351130916295
 20
408.538623815478
 30
0.0
 11
43.351130916295
 21
408.538623815478
 31
0.0
  0
LINE
  5
4551
102
{ACAD_REACTORS
330
4832
102
}
330
1A
100
AcDbEntity
  8
外形線
100
AcDbLine
 10
210.443647827309
 20
421.538623815478
 30
0.0
 11
210.443647827309
 21
408.538623815478
 31
0.0
  0
LINE
  5
4552
102
{ACAD_REACTORS
330
4830
102
}
330
1A
100
AcDbEntity
  8
細線
100
AcDbLine
 10
261.443647827309
 20
419.888623815478
 30
0.0
 11
275.443647827309
 21
419.888623815478
 31
0.0
  0
LINE
  5
4553
102
{ACAD_REACTORS
330
4830
102
}
330
1A
100
AcDbEntity
  8
細線
100
AcDbLine
 10
261.443647827309
 20
410.188623815478
 30
0.0
 11
275.443647827309
 21
410.188623815478
 31
0.0
  0
ARC
  5
4554
102
{ACAD_REACTORS
330
4830
102
}
330
1A
100
AcDbEntity
  8
細線
100
AcDbCircle
 10
272.704897827309
 20
405.338623815478
 30
0.0
 40
12.26124999999995
100
AcDbArc
 50
156.699401124926
 51
175.499148004294
  0
ARC
  5
4555
102
{ACAD_REACTORS
330
4830
102
}
330
1A
100
AcDbEntity
  8
細線
100
AcDbCircle
 10
272.704897827309
 20
415.038623815478
 30
0.0
 40
12.26124999999995
100
AcDbArc
 50
156.699401124926
 51
203.300598875074
  0
ARC
  5
4556
102
{ACAD_REACTORS
330
4830
102
}
330
1A
100
AcDbEntity
  8
細線
100
AcDbCircle
 10
272.704897827309
 20
424.738623815478
 30
0.0
 40
12.26124999999995
100
AcDbArc
 50
184.500851995709
 51
203.300598875074
  0
LWPOLYLINE
  5
4557
102
{ACAD_REACTORS
330
4830
102
}
330
1A
100
AcDbEntity
  8
外形線
100
AcDbPolyline
 90
        6
 70
     1
 43
0.0
 10
261.443647827309
 20
405.338623815478
 10
275.443647827309
 20
405.338623815478
 10
275.443647827309
 20
424.738623815478
 10
261.443647827309
 20
424.738623815478
 10
260.443647827309
 20
423.738623815478
 10
260.443647827309
 20
406.338623815478
  0
ARC
  5
4558
102
{ACAD_REACTORS
330
4831
102
}
330
1A
100
AcDbEntity
  8
細線
100
AcDbCircle
 10
248.182397827309
 20
424.738623815477
 30
0.0
 40
12.26125000000018
100
AcDbArc
 50
336.699401124926
 51
355.499148004294
  0
ARC
  5
4559
102
{ACAD_REACTORS
330
4831
102
}
330
1A
100
AcDbEntity
  8
細線
100
AcDbCircle
 10
248.182397827309
 20
415.038623815478
 30
0.0
 40
12.26125000000018
100
AcDbArc
 50
336.699401124926
 51
23.300598875074
  0
ARC
  5
455A
102
{ACAD_REACTORS
330
4831
102
}
330
1A
100
AcDbEntity
  8
細線
100
AcDbCircle
 10
248.182397827309
 20
405.338623815478
 30
0.0
 40
12.26125000000018
100
AcDbArc
 50
4.500851995709
 51
23.300598875074
  0
ARC
  5
455B
102
{ACAD_REACTORS
330
4831
102
}
330
1A
100
AcDbEntity
  8
細線
100
AcDbCircle
 10
222.704897827309
 20
405.338623815478
 30
0.0
 40
12.26125000000014
100
AcDbArc
 50
156.699401124926
 51
175.499148004294
  0
ARC
  5
455C
102
{ACAD_REACTORS
330
4831
102
}
330
1A
100
AcDbEntity
  8
細線
100
AcDbCircle
 10
222.704897827309
 20
415.038623815478
 30
0.0
 40
12.26125000000014
100
AcDbArc
 50
156.699401124926
 51
203.300598875074
  0
ARC
  5
455D
102
{ACAD_REACTORS
330
4831
102
}
330
1A
100
AcDbEntity
  8
細線
100
AcDbCircle
 10
222.704897827309
 20
424.738623815478
 30
0.0
 40
12.26125000000014
100
AcDbArc
 50
184.500851995709
 51
203.300598875074
  0
LINE
  5
455E
102
{ACAD_REACTORS
330
4831
102
}
330
1A
100
AcDbEntity
  8
細線
100
AcDbLine
 10
211.443647827309
 20
419.888623815478
 30
0.0
 11
259.443647827309
 21
419.888623815478
 31
0.0
  0
LINE
  5
455F
102
{ACAD_REACTORS
330
4831
102
}
330
1A
100
AcDbEntity
  8
細線
100
AcDbLine
 10
211.443647827309
 20
410.188623815478
 30
0.0
 11
259.443647827309
 21
410.188623815478
 31
0.0
  0
LWPOLYLINE
  5
4560
102
{ACAD_REACTORS
330
4831
102
}
330
1A
100
AcDbEntity
  8
外形線
100
AcDbPolyline
 90
        8
 70
     1
 43
0.0
 10
211.443647827309
 20
405.338623815478
 10
259.443647827309
 20
405.338623815478
 10
260.443647827309
 20
406.338623815478
 10
260.443647827309
 20
423.738623815478
 10
259.443647827309
 20
424.738623815478
 10
211.443647827309
 20
424.738623815478
 10
210.443647827309
 20
423.738623815478
 10
210.443647827309
 20
406.338623815478
  0
LINE
  5
4561
102
{ACAD_REACTORS
330
4832
102
}
330
1A
100
AcDbEntity
  8
外形線
100
AcDbLine
 10
207.443647827309
 20
408.538623815478
 30
0.0
 11
210.443647827309
 21
408.538623815478
 31
0.0
  0
LINE
  5
4562
102
{ACAD_REACTORS
330
4832
102
}
330
1A
100
AcDbEntity
  8
外形線
100
AcDbLine
 10
207.443647827309
 20
421.538623815478
 30
0.0
 11
210.443647827309
 21
421.538623815478
 31
0.0
  0
LINE
  5
4563
102
{ACAD_REACTORS
330
4832
102
}
330
1A
100
AcDbEntity
  8
細線
100
AcDbLine
 10
193.443647827309
 20
419.888623815478
 30
0.0
 11
207.443647827309
 21
419.888623815478
 31
0.0
  0
LINE
  5
4564
102
{ACAD_REACTORS
330
4832
102
}
330
1A
100
AcDbEntity
  8
細線
100
AcDbLine
 10
193.443647827309
 20
410.188623815478
 30
0.0
 11
207.443647827309
 21
410.188623815478
 31
0.0
  0
ARC
  5
4565
102
{ACAD_REACTORS
330
4832
102
}
330
1A
100
AcDbEntity
  8
細線
100
AcDbCircle
 10
204.704897827309
 20
405.338623815478
 30
0.0
 40
12.26124999999995
100
AcDbArc
 50
156.699401124926
 51
175.499148004294
  0
ARC
  5
4566
102
{ACAD_REACTORS
330
4832
102
}
330
1A
100
AcDbEntity
  8
細線
100
AcDbCircle
 10
204.704897827309
 20
415.038623815478
 30
0.0
 40
12.26124999999995
100
AcDbArc
 50
156.699401124926
 51
203.300598875074
  0
ARC
  5
4567
102
{ACAD_REACTORS
330
4832
102
}
330
1A
100
AcDbEntity
  8
細線
100
AcDbCircle
 10
204.704897827309
 20
424.738623815478
 30
0.0
 40
12.26124999999995
100
AcDbArc
 50
184.500851995709
 51
203.300598875074
  0
LWPOLYLINE
  5
4568
102
{ACAD_REACTORS
330
4832
102
}
330
1A
100
AcDbEntity
  8
外形線
100
AcDbPolyline
 90
        6
 70
     1
 43
0.0
 10
193.443647827309
 20
405.338623815478
 10
207.443647827309
 20
405.338623815478
 10
207.443647827309
 20
424.738623815478
 10
193.443647827309
 20
424.738623815478
 10
192.443647827309
 20
423.738623815478
 10
192.443647827309
 20
406.338623815478
  0
LWPOLYLINE
  5
4569
330
1A
100
AcDbEntity
  8
外形線
100
AcDbPolyline
 90
        6
 70
     1
 43
0.0
 10
276.943647827309
 20
402.538623815478
 10
325.443647827309
 20
402.538623815478
 10
325.443647827309
 20
427.538623815478
 10
276.943647827309
 20
427.538623815478
 10
275.443647827309
 20
426.038623815478
 10
275.443647827309
 20
404.038623815478
  0
LWPOLYLINE
  5
456A
330
1A
100
AcDbEntity
  8
外形線
100
AcDbPolyline
 90
        6
 70
     1
 43
0.0
 10
325.943647827309
 20
402.038623815478
 10
425.443647827309
 20
402.038623815478
 10
425.443647827309
 20
428.038623815478
 10
325.943647827309
 20
428.038623815478
 10
325.443647827309
 20
427.538623815478
 10
325.443647827309
 20
402.538623815478
  0
LINE
  5
46C2
330
1A
100
AcDbEntity
  8
中心線
 48
10.0
100
AcDbLine
 10
-77.766206105266
 20
415.038623815478
 30
0.0
 11
589.02151432101
 21
415.038623815478
 31
0.0
  0
DIMENSION
  5
4759
330
1A
100
AcDbEntity
  8
寸法線
 48
10.0
100
AcDbDimension
  2
*D6
 10
397.099300609883
 20
402.038623815478
 30
0.0
 11
397.099300609883
 21
443.862049012328
 31
0.0
 70
   160
  1
φ<>
  3
ISO-25
100
AcDbAlignedDimension
 13
425.443647827309
 23
428.038623815478
 33
0.0
 14
425.443647827309
 24
402.038623815478
 34
0.0
 50
90.0
100
AcDbRotatedDimension
1001
ACAD
1000
DSTYLE
1002
{
1070
     5
1000
OPEN30
1070
    76
1070
     1
1070
    75
1070
     1
1070
    41
1040
6.0
1070
    47
1040
0.1
1070
    48
1040
0.1
1070
    73
1070
     0
1070
   140
1040
8.0
1070
   271
1070
     1
1070
   272
1070
     1
1070
   341
1005
2AF4
1002
}
  0
DIMENSION
  5
478D
330
1A
100
AcDbEntity
  8
寸法線
 48
10.0
100
AcDbDimension
  2
*D7
 10
316.099300609883
 20
402.538623815478
 30
0.0
 11
316.099300609883
 21
443.329309240427
 31
0.0
 70
   160
  1
φ<>
  3
ISO-25
100
AcDbAlignedDimension
 13
325.443647827309
 23
427.538623815478
 33
0.0
 14
325.443647827309
 24
402.538623815478
 34
0.0
 50
90.0
100
AcDbRotatedDimension
1001
ACAD
1000
DSTYLE
1002
{
1070
     5
1000
OPEN30
1070
    76
1070
     1
1070
    75
1070
     1
1070
    41
1040
6.0
1070
    47
1040
0.1
1070
    48
1040
0.1
1070
    73
1070
     0
1070
   140
1040
8.0
1070
   271
1070
     1
1070
   272
1070
     1
1070
   341
1005
2AF4
1002
}
  0
DIMENSION
  5
47B8
330
1A
100
AcDbEntity
  8
寸法線
 48
10.0
100
AcDbDimension
  2
*D8
 10
90.00678369887
 20
412.538623815478
 30
0.0
 11
90.00678369887
 21
436.529309240427
 31
0.0
 70
   160
  1
φ<>
  3
ISO-25
100
AcDbAlignedDimension
 13
61.351130916295
 23
417.538623815478
 33
0.0
 14
61.351130916295
 24
412.538623815478
 34
0.0
 50
90.0
100
AcDbRotatedDimension
1001
ACAD
1000
DSTYLE
1002
{
1070
     5
1000
OPEN30
1070
    76
1070
     1
1070
    75
1070
     1
1070
    41
1040
6.0
1070
    47
1040
0.1
1070
    48
1040
0.1
1070
    73
1070
     0
1070
   140
1040
8.0
1070
   271
1070
     1
1070
   272
1070
     1
1070
   341
1005
2AF4
1002
}
  0
DIMENSION
  5
47EC
330
1A
100
AcDbEntity
  8
寸法線
 48
10.0
100
AcDbDimension
  2
*D9
 10
30.00678369887
 20
405.038623815478
 30
0.0
 11
30.00678369887
 21
440.666773421777
 31
0.0
 70
   160
  1
φ<>
  3
ISO-25
100
AcDbAlignedDimension
 13
42.851130916295
 23
425.038623815478
 33
0.0
 14
42.851130916295
 24
405.038623815478
 34
0.0
 50
90.0
100
AcDbRotatedDimension
1001
ACAD
1000
DSTYLE
1002
{
1070
     5
1000
OPEN30
1070
    76
1070
     1
1070
    75
1070
     1
1070
    41
1040
6.0
1070
    47
1040
0.1
1070
    48
1040
0.1
1070
    73
1070
     0
1070
   140
1040
8.0
1070
   271
1070
     1
1070
   272
1070
     1
1070
   341
1005
2AF4
1002
}
  0
MTEXT
  5
4818
330
1A
100
AcDbEntity
  8
寸法線
 48
10.0
100
AcDbMText
 10
159.703567122301
 20
517.823164815233
 30
0.0
 40
8.0
 41
0.0
 71
     9
 72
     1
  1
締付金具\PSUS304
  0
MTEXT
  5
481E
330
1A
100
AcDbEntity
  8
寸法線
 48
10.0
100
AcDbMText
 10
100.617736947307
 20
517.823164815233
 30
0.0
 40
8.0
 41
0.0
 71
     9
 72
     1
  1
ステンレス\Pワイヤーロープ\Pスリーブにて固定
  0
MTEXT
  5
481F
330
1A
100
AcDbEntity
  8
寸法線
 48
10.0
100
AcDbMText
 10
9.842772606223
 20
517.823164815233
 30
0.0
 40
8.0
 41
0.0
 71
     9
 72
     1
  1
締付金具\PSUS304
  0
MTEXT
  5
4821
330
1A
100
AcDbEntity
  8
寸法線
 48
10.0
100
AcDbMText
 10
-53.663388532296
 20
517.823164815233
 30
0.0
 40
8.0
 41
0.0
 71
     9
 72
     1
  1
検知電極\PSUS304
  0
MTEXT
  5
4862
330
1A
100
AcDbEntity
  8
寸法線
 48
10.0
100
AcDbMText
 10
323.98690756101
 20
517.823164815233
 30
0.0
 40
8.0
 41
0.0
 71
     7
 72
     1
  1
\A1;シール\Pシリコンゴム
  0
DIMENSION
  5
4AB1
330
1A
100
AcDbEntity
  8
寸法線
 48
10.0
100
AcDbDimension
  2
*D10
 10
613.681768122565
 20
473.037934047206
 30
0.0
 11
613.681768122565
 21
415.037934047206
 31
0.0
 70
   160
  1
φ<>
  3
ISO-25
100
AcDbAlignedDimension
 13
575.950736928191
 23
357.037934047206
 33
0.0
 14
576.331020170333
 24
473.037934047206
 34
0.0
 50
90.0
100
AcDbRotatedDimension
1001
ACAD
1000
DSTYLE
1002
{
1070
     5
1000
OPEN30
1070
    41
1040
6.0
1070
    47
1040
0.1
1070
    48
1040
0.1
1070
    73
1070
     0
1070
   140
1040
8.0
1070
   271
1070
     1
1070
   272
1070
     1
1070
   341
1005
2AF4
1002
}
  0
TEXT
  5
4CE1
330
1A
100
AcDbEntity
  8
寸法線
100
AcDbText
 10
570.688686071588
 20
554.134044292466
 30
0.0
 40
8.0
  1
塗装色：10YR7.5/14
100
AcDbText
  0
TEXT
  5
4CE2
330
1A
100
AcDbEntity
  8
寸法線
100
AcDbText
 10
-53.06111925421
 20
245.244456053523
 30
0.0
 40
8.0
  1
接点出力：AC250V 3A（抵抗負荷）
100
AcDbText
  0
LINE
  5
4CE3
330
1A
100
AcDbEntity
  8
寸法線
100
AcDbLine
 10
36.829758578037
 20
233.236674288848
 30
0.0
 11
36.829758578037
 21
146.236674288848
 31
0.0
  0
TEXT
  5
4CE4
330
1A
100
AcDbEntity
  8
寸法線
100
AcDbText
 10
34.229758578037
 20
131.236674288848
 30
0.0
 40
7.0
  1
a
100
AcDbText
  0
CIRCLE
  5
4CE5
330
1A
100
AcDbEntity
  8
寸法線
100
AcDbCircle
 10
36.829758578037
 20
143.236674288848
 30
0.0
 40
3.0
  0
CIRCLE
  5
4CE6
330
1A
100
AcDbEntity
  8
寸法線
100
AcDbCircle
 10
36.829758578037
 20
143.236674288848
 30
0.0
 40
2.0
  0
CIRCLE
  5
4CE7
330
1A
100
AcDbEntity
  8
寸法線
100
AcDbCircle
 10
56.829758578037
 20
143.236674288848
 30
0.0
 40
2.0
  0
CIRCLE
  5
4CE8
330
1A
100
AcDbEntity
  8
寸法線
100
AcDbCircle
 10
56.829758578037
 20
143.236674288848
 30
0.0
 40
3.0
  0
TEXT
  5
4CE9
330
1A
100
AcDbEntity
  8
寸法線
100
AcDbText
 10
54.429758578037
 20
131.236674288848
 30
0.0
 40
7.0
  1
c
100
AcDbText
  0
CIRCLE
  5
4CEA
330
1A
100
AcDbEntity
  8
寸法線
100
AcDbCircle
 10
76.829758578037
 20
143.236674288848
 30
0.0
 40
2.0
  0
CIRCLE
  5
4CEB
330
1A
100
AcDbEntity
  8
寸法線
100
AcDbCircle
 10
76.829758578037
 20
143.236674288848
 30
0.0
 40
3.0
  0
TEXT
  5
4CEC
330
1A
100
AcDbEntity
  8
寸法線
100
AcDbText
 10
74.829758578037
 20
131.236674288848
 30
0.0
 40
7.0
  1
b
100
AcDbText
  0
CIRCLE
  5
4CED
330
1A
100
AcDbEntity
  8
寸法線
100
AcDbCircle
 10
51.829758578037
 20
208.236674288848
 30
0.0
 40
1.0
  0
CIRCLE
  5
4CEE
330
1A
100
AcDbEntity
  8
寸法線
100
AcDbCircle
 10
61.829758578037
 20
208.236674288848
 30
0.0
 40
1.0
  0
CIRCLE
  5
4CEF
330
1A
100
AcDbEntity
  8
寸法線
100
AcDbCircle
 10
56.829758578037
 20
193.236674288848
 30
0.0
 40
1.0
  0
LINE
  5
4CF0
330
1A
100
AcDbEntity
  8
寸法線
100
AcDbLine
 10
36.829758578037
 20
233.236674288848
 30
0.0
 11
51.829758578037
 21
233.236674288848
 31
0.0
  0
LINE
  5
4CF1
330
1A
100
AcDbEntity
  8
寸法線
100
AcDbLine
 10
61.829758578037
 20
233.236674288848
 30
0.0
 11
76.829758578037
 21
233.236674288848
 31
0.0
  0
LINE
  5
4CF2
330
1A
100
AcDbEntity
  8
寸法線
100
AcDbLine
 10
56.829758578037
 20
194.236674288848
 30
0.0
 11
60.867525285554
 21
208.508900464735
 31
0.0
  0
TEXT
  5
4CF3
330
1A
100
AcDbEntity
  8
寸法線
100
AcDbText
 10
40.829758578037
 20
119.236674288848
 30
0.0
 40
7.0
  1
出力接点
100
AcDbText
  0
LINE
  5
4CF4
330
1A
100
AcDbEntity
  8
寸法線
100
AcDbLine
 10
76.829758578037
 20
233.236674288848
 30
0.0
 11
76.829758578037
 21
146.236674288848
 31
0.0
  0
LINE
  5
4CF5
330
1A
100
AcDbEntity
  8
寸法線
100
AcDbLine
 10
51.829758578037
 20
233.236674288848
 30
0.0
 11
51.829758578037
 21
209.236674288848
 31
0.0
  0
LINE
  5
4CF6
330
1A
100
AcDbEntity
  8
寸法線
100
AcDbLine
 10
61.829758578037
 20
233.236674288848
 30
0.0
 11
61.829758578037
 21
209.236674288848
 31
0.0
  0
LINE
  5
4CF7
330
1A
100
AcDbEntity
  8
寸法線
100
AcDbLine
 10
56.829758578037
 20
192.236674288848
 30
0.0
 11
56.829758578037
 21
146.236674288848
 31
0.0
  0
LINE
  5
4CF8
330
1A
100
AcDbEntity
  8
寸法線
100
AcDbLine
 10
16.829758578037
 20
193.736674288848
 30
0.0
 11
16.829758578037
 21
146.236674288848
 31
0.0
  0
LINE
  5
4CF9
330
1A
100
AcDbEntity
  8
寸法線
100
AcDbLine
 10
-3.170241421963
 20
183.431508116912
 30
0.0
 11
-3.170241421963
 21
146.236674288848
 31
0.0
  0
LINE
  5
4CFA
330
1A
100
AcDbEntity
  8
寸法線
100
AcDbLine
 10
-23.170241421963
 20
193.736674288848
 30
0.0
 11
-23.170241421963
 21
169.236674288848
 31
0.0
  0
TEXT
  5
4CFB
330
1A
100
AcDbEntity
  8
寸法線
100
AcDbText
 10
-10.770241421963
 20
119.236674288848
 30
0.0
 40
7.0
  1
電源
100
AcDbText
  0
SPLINE
  5
4CFC
330
1A
100
AcDbEntity
  8
寸法線
100
AcDbSpline
210
0.0
220
0.0
230
1.0
 70
  1064
 71
     3
 72
    11
 73
     7
 74
     5
 42
0.000000001
 43
0.0000000001
 44
0.0000000001
 40
0.0
 40
0.0
 40
0.0
 40
0.0
 40
0.7071067811865476
 40
2.288245611270736
 40
3.869384441354925
 40
4.576491222541473
 40
4.576491222541473
 40
4.576491222541473
 40
4.576491222541473
 10
16.82975857803717
 20
193.7366742888485
 30
0.0
 10
16.67188964545384
 20
193.9135879153485
 30
0.0
 10
16.16101504807886
 20
194.4860924368484
 30
0.0
 10
14.82975857803717
 20
194.9098220900986
 30
0.0
 10
13.49850210799547
 20
194.4860924368485
 30
0.0
 10
12.9876275106205
 20
193.9135879153485
 30
0.0
 10
12.82975857803717
 20
193.7366742888485
 30
0.0
 11
16.82975857803717
 21
193.7366742888485
 31
0.0
 11
16.32975857803717
 21
194.2366742888485
 31
0.0
 11
14.82975857803717
 21
194.7366742888485
 31
0.0
 11
13.32975857803717
 21
194.2366742888485
 31
0.0
 11
12.82975857803717
 21
193.7366742888485
 31
0.0
  0
SPLINE
  5
4CFD
330
1A
100
AcDbEntity
  8
寸法線
100
AcDbSpline
210
0.0
220
0.0
230
1.0
 70
  1064
 71
     3
 72
    11
 73
     7
 74
     5
 42
0.000000001
 43
0.0000000001
 44
0.0000000001
 40
0.0
 40
0.0
 40
0.0
 40
0.0
 40
0.7071067811865476
 40
2.288245611270737
 40
3.869384441354925
 40
4.576491222541473
 40
4.576491222541473
 40
4.576491222541473
 40
4.576491222541473
 10
12.82975857803717
 20
193.7366742888485
 30
0.0
 10
12.67188964545384
 20
193.9135879153485
 30
0.0
 10
12.16101504807887
 20
194.4860924368484
 30
0.0
 10
10.82975857803717
 20
194.9098220900986
 30
0.0
 10
9.498502107995474
 20
194.4860924368485
 30
0.0
 10
8.987627510620497
 20
193.9135879153484
 30
0.0
 10
8.829758578037172
 20
193.7366742888485
 30
0.0
 11
12.82975857803717
 21
193.7366742888485
 31
0.0
 11
12.32975857803717
 21
194.2366742888485
 31
0.0
 11
10.82975857803717
 21
194.7366742888485
 31
0.0
 11
9.329758578037172
 21
194.2366742888485
 31
0.0
 11
8.829758578037172
 21
193.7366742888485
 31
0.0
  0
SPLINE
  5
4CFE
330
1A
100
AcDbEntity
  8
寸法線
100
AcDbSpline
210
0.0
220
0.0
230
1.0
 70
  1064
 71
     3
 72
    11
 73
     7
 74
     5
 42
0.000000001
 43
0.0000000001
 44
0.0000000001
 40
0.0
 40
0.0
 40
0.0
 40
0.0
 40
0.7071067811865476
 40
2.288245611270737
 40
3.869384441354927
 40
4.576491222541475
 40
4.576491222541475
 40
4.576491222541475
 40
4.576491222541475
 10
8.829758578037172
 20
193.7366742888485
 30
0.0
 10
8.671889645453845
 20
193.9135879153485
 30
0.0
 10
8.16101504807887
 20
194.4860924368485
 30
0.0
 10
6.82975857803717
 20
194.9098220900985
 30
0.0
 10
5.498502107995472
 20
194.4860924368484
 30
0.0
 10
4.987627510620499
 20
193.9135879153485
 30
0.0
 10
4.829758578037172
 20
193.7366742888485
 30
0.0
 11
8.829758578037172
 21
193.7366742888485
 31
0.0
 11
8.329758578037172
 21
194.2366742888485
 31
0.0
 11
6.829758578037172
 21
194.7366742888485
 31
0.0
 11
5.329758578037172
 21
194.2366742888485
 31
0.0
 11
4.829758578037172
 21
193.7366742888485
 31
0.0
  0
SPLINE
  5
4CFF
330
1A
100
AcDbEntity
  8
寸法線
100
AcDbSpline
210
0.0
220
0.0
230
1.0
 70
  1064
 71
     3
 72
    11
 73
     7
 74
     5
 42
0.000000001
 43
0.0000000001
 44
0.0000000001
 40
0.0
 40
0.0
 40
0.0
 40
0.0
 40
0.7071067811865476
 40
2.288245611270737
 40
3.869384441354927
 40
4.576491222541475
 40
4.576491222541475
 40
4.576491222541475
 40
4.576491222541475
 10
4.829758578037172
 20
193.7366742888485
 30
0.0
 10
4.671889645453845
 20
193.9135879153485
 30
0.0
 10
4.16101504807887
 20
194.4860924368485
 30
0.0
 10
2.829758578037172
 20
194.9098220900985
 30
0.0
 10
1.498502107995473
 20
194.4860924368484
 30
0.0
 10
0.9876275106204981
 20
193.9135879153485
 30
0.0
 10
0.8297585780371719
 20
193.7366742888485
 30
0.0
 11
4.829758578037172
 21
193.7366742888485
 31
0.0
 11
4.329758578037172
 21
194.2366742888485
 31
0.0
 11
2.829758578037172
 21
194.7366742888485
 31
0.0
 11
1.329758578037172
 21
194.2366742888485
 31
0.0
 11
0.8297585780371719
 21
193.7366742888485
 31
0.0
  0
ARC
  5
4D00
330
1A
100
AcDbEntity
  8
寸法線
100
AcDbCircle
 10
12.829758578037
 20
183.931508116912
 30
0.0
 40
0.5
100
AcDbArc
 50
224.049940080571
 51
315.950059919426
  0
SPLINE
  5
4D01
330
1A
100
AcDbEntity
  8
寸法線
100
AcDbSpline
210
0.0
220
0.0
230
1.0
 70
     8
 71
     3
 72
    11
 73
     7
 74
     0
 42
0.0000000001
 43
0.0000000001
 40
0.4969820892200875
 40
0.4969820892200875
 40
0.4969820892200875
 40
0.4969820892200875
 40
0.7071067811865476
 40
5.806126294779332
 40
10.41589852342578
 40
11.12300530461232
 40
11.12300530461232
 40
11.12300530461232
 40
11.12300530461232
 10
13.18912560296098
 20
183.5838655685994
 30
0.0
 10
13.23758566051379
 20
183.6339599738868
 30
0.0
 10
14.42696517541617
 20
184.9183200185319
 30
0.0
 10
14.29543785595752
 20
188.569969782752
 30
0.0
 10
14.31604227148728
 20
192.3524185167887
 30
0.0
 10
13.00422135316057
 20
193.5741877430171
 30
0.0
 10
12.82975857803717
 20
193.7366742888485
 30
0.0
  0
SPLINE
  5
4D02
330
1A
100
AcDbEntity
  8
寸法線
100
AcDbSpline
210
0.0
220
0.0
230
1.0
 70
     8
 71
     3
 72
    11
 73
     7
 74
     0
 42
0.0000000001
 43
0.0000000001
 40
0.4969820892200875
 40
0.4969820892200875
 40
0.4969820892200875
 40
0.4969820892200875
 40
0.7071067811865476
 40
5.806126294779332
 40
10.41589852342578
 40
11.12300530461232
 40
11.12300530461232
 40
11.12300530461232
 40
11.12300530461232
 10
12.47039155311336
 20
183.5838655685994
 30
0.0
 10
12.42193149556056
 20
183.6339599738868
 30
0.0
 10
11.23255198065817
 20
184.9183200185319
 30
0.0
 10
11.36407930011683
 20
188.569969782752
 30
0.0
 10
11.34347488458707
 20
192.3524185167887
 30
0.0
 10
12.65529580291377
 20
193.5741877430171
 30
0.0
 10
12.82975857803717
 20
193.7366742888485
 30
0.0
  0
ARC
  5
4D03
330
1A
100
AcDbEntity
  8
寸法線
100
AcDbCircle
 10
8.829758578037
 20
183.931508116912
 30
0.0
 40
0.5
100
AcDbArc
 50
224.049940080571
 51
315.950059919426
  0
SPLINE
  5
4D04
330
1A
100
AcDbEntity
  8
寸法線
100
AcDbSpline
210
0.0
220
0.0
230
1.0
 70
     8
 71
     3
 72
    11
 73
     7
 74
     0
 42
0.0000000001
 43
0.0000000001
 40
0.4969820892200875
 40
0.4969820892200875
 40
0.4969820892200875
 40
0.4969820892200875
 40
0.7071067811865476
 40
5.806126294779332
 40
10.41589852342578
 40
11.12300530461232
 40
11.12300530461232
 40
11.12300530461232
 40
11.12300530461232
 10
9.189125602960985
 20
183.5838655685994
 30
0.0
 10
9.237585660513787
 20
183.6339599738868
 30
0.0
 10
10.42696517541617
 20
184.9183200185319
 30
0.0
 10
10.29543785595752
 20
188.569969782752
 30
0.0
 10
10.31604227148728
 20
192.3524185167887
 30
0.0
 10
9.004221353160574
 20
193.5741877430171
 30
0.0
 10
8.829758578037172
 20
193.7366742888485
 30
0.0
  0
SPLINE
  5
4D05
330
1A
100
AcDbEntity
  8
寸法線
100
AcDbSpline
210
0.0
220
0.0
230
1.0
 70
     8
 71
     3
 72
    11
 73
     7
 74
     0
 42
0.0000000001
 43
0.0000000001
 40
0.4969820892200875
 40
0.4969820892200875
 40
0.4969820892200875
 40
0.4969820892200875
 40
0.7071067811865476
 40
5.806126294779332
 40
10.41589852342578
 40
11.12300530461232
 40
11.12300530461232
 40
11.12300530461232
 40
11.12300530461232
 10
8.470391553113359
 20
183.5838655685994
 30
0.0
 10
8.421931495560557
 20
183.6339599738868
 30
0.0
 10
7.232551980658172
 20
184.9183200185319
 30
0.0
 10
7.364079300116828
 20
188.569969782752
 30
0.0
 10
7.343474884587067
 20
192.3524185167887
 30
0.0
 10
8.65529580291377
 20
193.5741877430171
 30
0.0
 10
8.829758578037172
 20
193.7366742888485
 30
0.0
  0
ARC
  5
4D06
330
1A
100
AcDbEntity
  8
寸法線
100
AcDbCircle
 10
4.829758578037
 20
183.931508116912
 30
0.0
 40
0.5
100
AcDbArc
 50
224.049940080571
 51
315.950059919426
  0
SPLINE
  5
4D07
330
1A
100
AcDbEntity
  8
寸法線
100
AcDbSpline
210
0.0
220
0.0
230
1.0
 70
     8
 71
     3
 72
    11
 73
     7
 74
     0
 42
0.0000000001
 43
0.0000000001
 40
0.4969820892200875
 40
0.4969820892200875
 40
0.4969820892200875
 40
0.4969820892200875
 40
0.7071067811865476
 40
5.806126294779332
 40
10.41589852342578
 40
11.12300530461232
 40
11.12300530461232
 40
11.12300530461232
 40
11.12300530461232
 10
5.189125602960985
 20
183.5838655685994
 30
0.0
 10
5.237585660513787
 20
183.6339599738868
 30
0.0
 10
6.426965175416171
 20
184.9183200185319
 30
0.0
 10
6.295437855957516
 20
188.569969782752
 30
0.0
 10
6.316042271487277
 20
192.3524185167887
 30
0.0
 10
5.004221353160574
 20
193.5741877430171
 30
0.0
 10
4.829758578037172
 20
193.7366742888485
 30
0.0
  0
SPLINE
  5
4D08
330
1A
100
AcDbEntity
  8
寸法線
100
AcDbSpline
210
0.0
220
0.0
230
1.0
 70
     8
 71
     3
 72
    11
 73
     7
 74
     0
 42
0.0000000001
 43
0.0000000001
 40
0.4969820892200875
 40
0.4969820892200875
 40
0.4969820892200875
 40
0.4969820892200875
 40
0.7071067811865476
 40
5.806126294779332
 40
10.41589852342578
 40
11.12300530461232
 40
11.12300530461232
 40
11.12300530461232
 40
11.12300530461232
 10
4.470391553113359
 20
183.5838655685994
 30
0.0
 10
4.421931495560557
 20
183.6339599738868
 30
0.0
 10
3.232551980658172
 20
184.9183200185319
 30
0.0
 10
3.364079300116828
 20
188.569969782752
 30
0.0
 10
3.343474884587067
 20
192.3524185167887
 30
0.0
 10
4.65529580291377
 20
193.5741877430171
 30
0.0
 10
4.829758578037172
 20
193.7366742888485
 30
0.0
  0
ARC
  5
4D09
330
1A
100
AcDbEntity
  8
寸法線
100
AcDbCircle
 10
0.829758578037
 20
183.931508116912
 30
0.0
 40
0.5
100
AcDbArc
 50
224.049940080571
 51
315.950059919426
  0
SPLINE
  5
4D0A
330
1A
100
AcDbEntity
  8
寸法線
100
AcDbSpline
210
0.0
220
0.0
230
1.0
 70
     8
 71
     3
 72
    11
 73
     7
 74
     0
 42
0.0000000001
 43
0.0000000001
 40
0.4969820892200875
 40
0.4969820892200875
 40
0.4969820892200875
 40
0.4969820892200875
 40
0.7071067811865476
 40
5.806126294779332
 40
10.41589852342578
 40
11.12300530461232
 40
11.12300530461232
 40
11.12300530461232
 40
11.12300530461232
 10
1.189125602960985
 20
183.5838655685994
 30
0.0
 10
1.23758566051356
 20
183.6339599738868
 30
0.0
 10
2.426965175416171
 20
184.9183200185319
 30
0.0
 10
2.295437855957516
 20
188.569969782752
 30
0.0
 10
2.316042271487277
 20
192.3524185167887
 30
0.0
 10
1.004221353160574
 20
193.5741877430171
 30
0.0
 10
0.8297585780371719
 20
193.7366742888485
 30
0.0
  0
SPLINE
  5
4D0B
330
1A
100
AcDbEntity
  8
寸法線
100
AcDbSpline
210
0.0
220
0.0
230
1.0
 70
     8
 71
     3
 72
    11
 73
     7
 74
     0
 42
0.0000000001
 43
0.0000000001
 40
0.4969820892200875
 40
0.4969820892200875
 40
0.4969820892200875
 40
0.4969820892200875
 40
0.7071067811865476
 40
5.806126294779332
 40
10.41589852342578
 40
11.12300530461232
 40
11.12300530461232
 40
11.12300530461232
 40
11.12300530461232
 10
0.4703915531133589
 20
183.5838655685994
 30
0.0
 10
0.4219314955605569
 20
183.6339599738868
 30
0.0
 10
-0.7674480193418276
 20
184.9183200185319
 30
0.0
 10
-0.6359206998831723
 20
188.569969782752
 30
0.0
 10
-0.6565251154129328
 20
192.3524185167887
 30
0.0
 10
0.6552958029137699
 20
193.5741877430171
 30
0.0
 10
0.8297585780371719
 20
193.7366742888485
 30
0.0
  0
SPLINE
  5
4D0C
330
1A
100
AcDbEntity
  8
寸法線
100
AcDbSpline
210
0.0
220
0.0
230
1.0
 70
  1064
 71
     3
 72
    11
 73
     7
 74
     5
 42
0.000000001
 43
0.0000000001
 44
0.0000000001
 40
0.0
 40
0.0
 40
0.0
 40
0.0
 40
0.7071067811865476
 40
2.288245611270737
 40
3.869384441354927
 40
4.576491222541475
 40
4.576491222541475
 40
4.576491222541475
 40
4.576491222541475
 10
-19.17024142196283
 20
193.7366742888485
 30
0.0
 10
-19.32811035454616
 20
193.9135879153485
 30
0.0
 10
-19.83898495192113
 20
194.4860924368485
 30
0.0
 10
-21.17024142196282
 20
194.9098220900985
 30
0.0
 10
-22.50149789200452
 20
194.4860924368484
 30
0.0
 10
-23.0123724893795
 20
193.9135879153485
 30
0.0
 10
-23.17024142196283
 20
193.7366742888485
 30
0.0
 11
-19.17024142196283
 21
193.7366742888485
 31
0.0
 11
-19.67024142196283
 21
194.2366742888485
 31
0.0
 11
-21.17024142196283
 21
194.7366742888485
 31
0.0
 11
-22.67024142196283
 21
194.2366742888485
 31
0.0
 11
-23.17024142196283
 21
193.7366742888485
 31
0.0
  0
ARC
  5
4D0D
330
1A
100
AcDbEntity
  8
寸法線
100
AcDbCircle
 10
-19.170241421963
 20
183.931508116912
 30
0.0
 40
0.5
100
AcDbArc
 50
224.049940080571
 51
315.950059919426
  0
SPLINE
  5
4D0E
330
1A
100
AcDbEntity
  8
寸法線
100
AcDbSpline
210
0.0
220
0.0
230
1.0
 70
     8
 71
     3
 72
    11
 73
     7
 74
     0
 42
0.0000000001
 43
0.0000000001
 40
0.4969820892200875
 40
0.4969820892200875
 40
0.4969820892200875
 40
0.4969820892200875
 40
0.7071067811865476
 40
5.806126294779332
 40
10.41589852342578
 40
11.12300530461232
 40
11.12300530461232
 40
11.12300530461232
 40
11.12300530461232
 10
-19.52960844688664
 20
183.5838655685994
 30
0.0
 10
-19.57806850443944
 20
183.6339599738868
 30
0.0
 10
-20.76744801934183
 20
184.9183200185319
 30
0.0
 10
-20.63592069988317
 20
188.569969782752
 30
0.0
 10
-20.65652511541293
 20
192.3524185167887
 30
0.0
 10
-19.34470419708623
 20
193.5741877430171
 30
0.0
 10
-19.17024142196283
 20
193.7366742888485
 30
0.0
  0
SPLINE
  5
4D0F
330
1A
100
AcDbEntity
  8
寸法線
100
AcDbSpline
210
0.0
220
0.0
230
1.0
 70
     8
 71
     3
 72
    11
 73
     7
 74
     0
 42
0.0000000001
 43
0.0000000001
 40
0.4969820892200875
 40
0.4969820892200875
 40
0.4969820892200875
 40
0.4969820892200875
 40
0.7071067811865476
 40
5.806126294779332
 40
10.41589852342578
 40
11.12300530461232
 40
11.12300530461232
 40
11.12300530461232
 40
11.12300530461232
 10
-18.81087439703902
 20
183.5838655685994
 30
0.0
 10
-18.76241433948644
 20
183.6339599738868
 30
0.0
 10
-17.57303482458383
 20
184.9183200185319
 30
0.0
 10
-17.70456214404248
 20
188.569969782752
 30
0.0
 10
-17.68395772851272
 20
192.3524185167887
 30
0.0
 10
-18.99577864683943
 20
193.5741877430171
 30
0.0
 10
-19.17024142196283
 20
193.7366742888485
 30
0.0
  0
ARC
  5
4D10
330
1A
100
AcDbEntity
  8
寸法線
100
AcDbCircle
 10
-15.170241421963
 20
183.931508116912
 30
0.0
 40
0.5
100
AcDbArc
 50
224.049940080571
 51
315.950059919426
  0
SPLINE
  5
4D11
330
1A
100
AcDbEntity
  8
寸法線
100
AcDbSpline
210
0.0
220
0.0
230
1.0
 70
     8
 71
     3
 72
    11
 73
     7
 74
     0
 42
0.0000000001
 43
0.0000000001
 40
0.4969820892200875
 40
0.4969820892200875
 40
0.4969820892200875
 40
0.4969820892200875
 40
0.7071067811865476
 40
5.806126294779332
 40
10.41589852342578
 40
11.12300530461232
 40
11.12300530461232
 40
11.12300530461232
 40
11.12300530461232
 10
-15.52960844688664
 20
183.5838655685994
 30
0.0
 10
-15.57806850443944
 20
183.6339599738868
 30
0.0
 10
-16.76744801934183
 20
184.9183200185319
 30
0.0
 10
-16.63592069988317
 20
188.569969782752
 30
0.0
 10
-16.65652511541293
 20
192.3524185167887
 30
0.0
 10
-15.34470419708623
 20
193.5741877430171
 30
0.0
 10
-15.17024142196283
 20
193.7366742888485
 30
0.0
  0
SPLINE
  5
4D12
330
1A
100
AcDbEntity
  8
寸法線
100
AcDbSpline
210
0.0
220
0.0
230
1.0
 70
     8
 71
     3
 72
    11
 73
     7
 74
     0
 42
0.0000000001
 43
0.0000000001
 40
0.4969820892200875
 40
0.4969820892200875
 40
0.4969820892200875
 40
0.4969820892200875
 40
0.7071067811865476
 40
5.806126294779332
 40
10.41589852342578
 40
11.12300530461232
 40
11.12300530461232
 40
11.12300530461232
 40
11.12300530461232
 10
-14.81087439703902
 20
183.5838655685994
 30
0.0
 10
-14.76241433948644
 20
183.6339599738868
 30
0.0
 10
-13.57303482458383
 20
184.9183200185319
 30
0.0
 10
-13.70456214404248
 20
188.569969782752
 30
0.0
 10
-13.68395772851272
 20
192.3524185167887
 30
0.0
 10
-14.99577864683943
 20
193.5741877430171
 30
0.0
 10
-15.17024142196283
 20
193.7366742888485
 30
0.0
  0
SPLINE
  5
4D13
330
1A
100
AcDbEntity
  8
寸法線
100
AcDbSpline
210
0.0
220
0.0
230
1.0
 70
  1064
 71
     3
 72
    11
 73
     7
 74
     5
 42
0.000000001
 43
0.0000000001
 44
0.0000000001
 40
0.0
 40
0.0
 40
0.0
 40
0.0
 40
0.7071067811865476
 40
2.288245611270739
 40
3.869384441354929
 40
4.576491222541477
 40
4.576491222541477
 40
4.576491222541477
 40
4.576491222541477
 10
-15.17024142196283
 20
193.7366742888485
 30
0.0
 10
-15.32811035454616
 20
193.9135879153485
 30
0.0
 10
-15.83898495192113
 20
194.4860924368485
 30
0.0
 10
-17.17024142196283
 20
194.9098220900985
 30
0.0
 10
-18.50149789200453
 20
194.4860924368485
 30
0.0
 10
-19.0123724893795
 20
193.9135879153485
 30
0.0
 10
-19.17024142196283
 20
193.7366742888485
 30
0.0
 11
-15.17024142196283
 21
193.7366742888485
 31
0.0
 11
-15.67024142196283
 21
194.2366742888485
 31
0.0
 11
-17.17024142196283
 21
194.7366742888485
 31
0.0
 11
-18.67024142196283
 21
194.2366742888485
 31
0.0
 11
-19.17024142196283
 21
193.7366742888485
 31
0.0
  0
SPLINE
  5
4D14
330
1A
100
AcDbEntity
  8
寸法線
100
AcDbSpline
210
0.0
220
0.0
230
1.0
 70
  1064
 71
     3
 72
    11
 73
     7
 74
     5
 42
0.000000001
 43
0.0000000001
 44
0.0000000001
 40
0.0
 40
0.0
 40
0.0
 40
0.0
 40
0.7071067811865476
 40
2.288245611270737
 40
3.869384441354927
 40
4.576491222541475
 40
4.576491222541475
 40
4.576491222541475
 40
4.576491222541475
 10
-11.17024142196283
 20
193.7366742888485
 30
0.0
 10
-11.32811035454616
 20
193.9135879153485
 30
0.0
 10
-11.83898495192113
 20
194.4860924368485
 30
0.0
 10
-13.17024142196283
 20
194.9098220900985
 30
0.0
 10
-14.50149789200453
 20
194.4860924368484
 30
0.0
 10
-15.0123724893795
 20
193.9135879153485
 30
0.0
 10
-15.17024142196283
 20
193.7366742888485
 30
0.0
 11
-11.17024142196283
 21
193.7366742888485
 31
0.0
 11
-11.67024142196283
 21
194.2366742888485
 31
0.0
 11
-13.17024142196283
 21
194.7366742888485
 31
0.0
 11
-14.67024142196283
 21
194.2366742888485
 31
0.0
 11
-15.17024142196283
 21
193.7366742888485
 31
0.0
  0
SPLINE
  5
4D15
330
1A
100
AcDbEntity
  8
寸法線
100
AcDbSpline
210
0.0
220
0.0
230
1.0
 70
     8
 71
     3
 72
    11
 73
     7
 74
     0
 42
0.0000000001
 43
0.0000000001
 40
0.4969820892200875
 40
0.4969820892200875
 40
0.4969820892200875
 40
0.4969820892200875
 40
0.7071067811865476
 40
5.806126294779332
 40
10.41589852342578
 40
11.12300530461232
 40
11.12300530461232
 40
11.12300530461232
 40
11.12300530461232
 10
-10.81087439703902
 20
183.5838655685994
 30
0.0
 10
-10.76241433948644
 20
183.6339599738868
 30
0.0
 10
-9.573034824583829
 20
184.9183200185319
 30
0.0
 10
-9.704562144042484
 20
188.569969782752
 30
0.0
 10
-9.683957728512723
 20
192.3524185167887
 30
0.0
 10
-10.99577864683943
 20
193.5741877430171
 30
0.0
 10
-11.17024142196283
 20
193.7366742888485
 30
0.0
  0
ARC
  5
4D16
330
1A
100
AcDbEntity
  8
寸法線
100
AcDbCircle
 10
-11.170241421963
 20
183.931508116912
 30
0.0
 40
0.5
100
AcDbArc
 50
224.049940080571
 51
315.950059919426
  0
SPLINE
  5
4D17
330
1A
100
AcDbEntity
  8
寸法線
100
AcDbSpline
210
0.0
220
0.0
230
1.0
 70
     8
 71
     3
 72
    11
 73
     7
 74
     0
 42
0.0000000001
 43
0.0000000001
 40
0.4969820892200875
 40
0.4969820892200875
 40
0.4969820892200875
 40
0.4969820892200875
 40
0.7071067811865476
 40
5.806126294779332
 40
10.41589852342578
 40
11.12300530461232
 40
11.12300530461232
 40
11.12300530461232
 40
11.12300530461232
 10
-11.52960844688664
 20
183.5838655685994
 30
0.0
 10
-11.57806850443944
 20
183.6339599738868
 30
0.0
 10
-12.76744801934183
 20
184.9183200185319
 30
0.0
 10
-12.63592069988317
 20
188.569969782752
 30
0.0
 10
-12.65652511541293
 20
192.3524185167887
 30
0.0
 10
-11.34470419708623
 20
193.5741877430171
 30
0.0
 10
-11.17024142196283
 20
193.7366742888485
 30
0.0
  0
SPLINE
  5
4D18
330
1A
100
AcDbEntity
  8
寸法線
100
AcDbSpline
210
0.0
220
0.0
230
1.0
 70
  1064
 71
     3
 72
    11
 73
     7
 74
     5
 42
0.000000001
 43
0.0000000001
 44
0.0000000001
 40
0.0
 40
0.0
 40
0.0
 40
0.0
 40
0.7071067811865476
 40
2.288245611270737
 40
3.869384441354929
 40
4.576491222541477
 40
4.576491222541477
 40
4.576491222541477
 40
4.576491222541477
 10
-7.170241421962828
 20
193.7366742888485
 30
0.0
 10
-7.328110354546155
 20
193.9135879153485
 30
0.0
 10
-7.83898495192113
 20
194.4860924368485
 30
0.0
 10
-9.170241421962828
 20
194.9098220900986
 30
0.0
 10
-10.50149789200452
 20
194.4860924368483
 30
0.0
 10
-11.0123724893795
 20
193.9135879153485
 30
0.0
 10
-11.17024142196283
 20
193.7366742888485
 30
0.0
 11
-7.170241421962828
 21
193.7366742888485
 31
0.0
 11
-7.670241421962828
 21
194.2366742888485
 31
0.0
 11
-9.170241421962828
 21
194.7366742888485
 31
0.0
 11
-10.67024142196283
 21
194.2366742888485
 31
0.0
 11
-11.17024142196283
 21
193.7366742888485
 31
0.0
  0
SPLINE
  5
4D19
330
1A
100
AcDbEntity
  8
寸法線
100
AcDbSpline
210
0.0
220
0.0
230
1.0
 70
  1064
 71
     3
 72
    11
 73
     7
 74
     5
 42
0.000000001
 43
0.0000000001
 44
0.0000000001
 40
0.0
 40
0.0
 40
0.0
 40
0.0
 40
0.7071067811865476
 40
2.288245611270737
 40
3.869384441354927
 40
4.576491222541475
 40
4.576491222541475
 40
4.576491222541475
 40
4.576491222541475
 10
0.8297585780371719
 20
193.7366742888485
 30
0.0
 10
0.6718896454538456
 20
193.9135879153485
 30
0.0
 10
0.1610150480788701
 20
194.4860924368485
 30
0.0
 10
-1.170241421962828
 20
194.9098220900985
 30
0.0
 10
-2.501497892004525
 20
194.4860924368484
 30
0.0
 10
-3.012372489379502
 20
193.9135879153485
 30
0.0
 10
-3.170241421962828
 20
193.7366742888485
 30
0.0
 11
0.8297585780371719
 21
193.7366742888485
 31
0.0
 11
0.3297585780371719
 21
194.2366742888485
 31
0.0
 11
-1.170241421962828
 21
194.7366742888485
 31
0.0
 11
-2.670241421962828
 21
194.2366742888485
 31
0.0
 11
-3.170241421962828
 21
193.7366742888485
 31
0.0
  0
SPLINE
  5
4D1A
330
1A
100
AcDbEntity
  8
寸法線
100
AcDbSpline
210
0.0
220
0.0
230
1.0
 70
  1064
 71
     3
 72
    11
 73
     7
 74
     5
 42
0.000000001
 43
0.0000000001
 44
0.0000000001
 40
0.0
 40
0.0
 40
0.0
 40
0.0
 40
0.7071067811865476
 40
2.288245611270737
 40
3.869384441354927
 40
4.576491222541475
 40
4.576491222541475
 40
4.576491222541475
 40
4.576491222541475
 10
-3.170241421962828
 20
193.7366742888485
 30
0.0
 10
-3.328110354546155
 20
193.9135879153485
 30
0.0
 10
-3.83898495192113
 20
194.4860924368485
 30
0.0
 10
-5.170241421962825
 20
194.9098220900985
 30
0.0
 10
-6.501497892004526
 20
194.4860924368484
 30
0.0
 10
-7.012372489379501
 20
193.9135879153485
 30
0.0
 10
-7.170241421962828
 20
193.7366742888485
 30
0.0
 11
-3.170241421962828
 21
193.7366742888485
 31
0.0
 11
-3.670241421962828
 21
194.2366742888485
 31
0.0
 11
-5.170241421962828
 21
194.7366742888485
 31
0.0
 11
-6.670241421962828
 21
194.2366742888485
 31
0.0
 11
-7.170241421962828
 21
193.7366742888485
 31
0.0
  0
SPLINE
  5
4D1B
330
1A
100
AcDbEntity
  8
寸法線
100
AcDbSpline
210
0.0
220
0.0
230
1.0
 70
     8
 71
     3
 72
    11
 73
     7
 74
     0
 42
0.0000000001
 43
0.0000000001
 40
0.4969820892200875
 40
0.4969820892200875
 40
0.4969820892200875
 40
0.4969820892200875
 40
0.7071067811865476
 40
5.806126294779332
 40
10.41589852342578
 40
11.12300530461232
 40
11.12300530461232
 40
11.12300530461232
 40
11.12300530461232
 10
-7.529608446886641
 20
183.5838655685994
 30
0.0
 10
-7.578068504439443
 20
183.6339599738868
 30
0.0
 10
-8.767448019341828
 20
184.9183200185319
 30
0.0
 10
-8.635920699883172
 20
188.569969782752
 30
0.0
 10
-8.656525115412933
 20
192.3524185167887
 30
0.0
 10
-7.34470419708623
 20
193.5741877430171
 30
0.0
 10
-7.170241421962828
 20
193.7366742888485
 30
0.0
  0
SPLINE
  5
4D1C
330
1A
100
AcDbEntity
  8
寸法線
100
AcDbSpline
210
0.0
220
0.0
230
1.0
 70
     8
 71
     3
 72
    11
 73
     7
 74
     0
 42
0.0000000001
 43
0.0000000001
 40
0.4969820892200875
 40
0.4969820892200875
 40
0.4969820892200875
 40
0.4969820892200875
 40
0.7071067811865476
 40
5.806126294779332
 40
10.41589852342578
 40
11.12300530461232
 40
11.12300530461232
 40
11.12300530461232
 40
11.12300530461232
 10
-6.810874397039015
 20
183.5838655685994
 30
0.0
 10
-6.76241433948644
 20
183.6339599738868
 30
0.0
 10
-5.573034824583829
 20
184.9183200185319
 30
0.0
 10
-5.704562144042484
 20
188.569969782752
 30
0.0
 10
-5.683957728512723
 20
192.3524185167887
 30
0.0
 10
-6.995778646839426
 20
193.5741877430171
 30
0.0
 10
-7.170241421962828
 20
193.7366742888485
 30
0.0
  0
ARC
  5
4D1D
330
1A
100
AcDbEntity
  8
寸法線
100
AcDbCircle
 10
-7.170241421963
 20
183.931508116912
 30
0.0
 40
0.5
100
AcDbArc
 50
224.049940080571
 51
315.950059919426
  0
ARC
  5
4D1E
330
1A
100
AcDbEntity
  8
寸法線
100
AcDbCircle
 10
-3.170241421963
 20
183.931508116912
 30
0.0
 40
0.5
100
AcDbArc
 50
224.049940080571
 51
315.950059919426
  0
SPLINE
  5
4D1F
330
1A
100
AcDbEntity
  8
寸法線
100
AcDbSpline
210
0.0
220
0.0
230
1.0
 70
     8
 71
     3
 72
    11
 73
     7
 74
     0
 42
0.0000000001
 43
0.0000000001
 40
0.4969820892200875
 40
0.4969820892200875
 40
0.4969820892200875
 40
0.4969820892200875
 40
0.7071067811865476
 40
5.806126294779332
 40
10.41589852342578
 40
11.12300530461232
 40
11.12300530461232
 40
11.12300530461232
 40
11.12300530461232
 10
-2.810874397039015
 20
183.5838655685994
 30
0.0
 10
-2.76241433948644
 20
183.6339599738868
 30
0.0
 10
-1.573034824583829
 20
184.9183200185319
 30
0.0
 10
-1.704562144042484
 20
188.569969782752
 30
0.0
 10
-1.683957728512723
 20
192.3524185167887
 30
0.0
 10
-2.995778646839426
 20
193.5741877430171
 30
0.0
 10
-3.170241421962828
 20
193.7366742888485
 30
0.0
  0
SPLINE
  5
4D20
330
1A
100
AcDbEntity
  8
寸法線
100
AcDbSpline
210
0.0
220
0.0
230
1.0
 70
     8
 71
     3
 72
    11
 73
     7
 74
     0
 42
0.0000000001
 43
0.0000000001
 40
0.4969820892200875
 40
0.4969820892200875
 40
0.4969820892200875
 40
0.4969820892200875
 40
0.7071067811865476
 40
5.806126294779332
 40
10.41589852342578
 40
11.12300530461232
 40
11.12300530461232
 40
11.12300530461232
 40
11.12300530461232
 10
-3.529608446886641
 20
183.5838655685994
 30
0.0
 10
-3.578068504439443
 20
183.6339599738868
 30
0.0
 10
-4.767448019341828
 20
184.9183200185319
 30
0.0
 10
-4.635920699883172
 20
188.569969782752
 30
0.0
 10
-4.656525115412933
 20
192.3524185167887
 30
0.0
 10
-3.34470419708623
 20
193.5741877430171
 30
0.0
 10
-3.170241421962828
 20
193.7366742888485
 30
0.0
  0
LINE
  5
4D21
330
1A
100
AcDbEntity
  8
寸法線
100
AcDbLine
 10
-23.170241421963
 20
198.236674288848
 30
0.0
 11
16.829758578037
 21
198.236674288848
 31
0.0
  0
SPLINE
  5
4D22
330
1A
100
AcDbEntity
  8
寸法線
100
AcDbSpline
210
0.0
220
0.0
230
1.0
 70
  1064
 71
     3
 72
    10
 73
     6
 74
     4
 42
0.000000001
 43
0.0000000001
 44
0.0000000001
 40
0.0
 40
0.0
 40
0.0
 40
0.0
 40
1.828427124746139
 40
13.53312703546576
 40
15.36155416021185
 40
15.36155416021185
 40
15.36155416021185
 40
15.36155416021185
 10
-22.46313464077616
 20
153.943781070035
 30
0.0
 10
-21.95608292668814
 20
154.3578655575319
 30
0.0
 10
-18.20313310034134
 20
157.4227172526683
 30
0.0
 10
-28.13734974358439
 20
164.0506313250288
 30
0.0
 10
-24.38439991723752
 20
167.115483020165
 30
0.0
 10
-23.8773482031495
 20
167.5295675076619
 30
0.0
 11
-22.46313464077616
 21
153.943781070035
 31
0.0
 11
-21.17024142196283
 21
155.2366742888485
 31
0.0
 11
-25.17024142196283
 21
166.2366742888485
 31
0.0
 11
-23.8773482031495
 21
167.5295675076619
 31
0.0
  0
CIRCLE
  5
4D23
330
1A
100
AcDbEntity
  8
寸法線
100
AcDbCircle
 10
-23.170241421963
 20
168.236674288848
 30
0.0
 40
1.0
  0
LINE
  5
4D24
330
1A
100
AcDbEntity
  8
寸法線
100
AcDbLine
 10
-23.170241421963
 20
146.236674288848
 30
0.0
 11
-23.170241421963
 21
152.236674288848
 31
0.0
  0
CIRCLE
  5
4D25
330
1A
100
AcDbEntity
  8
寸法線
100
AcDbCircle
 10
-23.170241421963
 20
153.236674288848
 30
0.0
 40
1.0
  0
LINE
  5
4D26
330
1A
100
AcDbEntity
  8
寸法線
100
AcDbLine
 10
-23.170241421963
 20
200.236674288848
 30
0.0
 11
16.829758578037
 21
200.236674288848
 31
0.0
  0
CIRCLE
  5
4D27
330
1A
100
AcDbEntity
  8
寸法線
100
AcDbCircle
 10
-3.170241421963
 20
143.236674288848
 30
0.0
 40
2.0
  0
CIRCLE
  5
4D28
330
1A
100
AcDbEntity
  8
寸法線
100
AcDbCircle
 10
-3.170241421963
 20
143.236674288848
 30
0.0
 40
3.0
  0
TEXT
  5
4D29
330
1A
100
AcDbEntity
  8
寸法線
100
AcDbText
 10
-9.170241421963
 20
131.236674288848
 30
0.0
 40
7.0
  1
100
100
AcDbText
  0
CIRCLE
  5
4D2A
330
1A
100
AcDbEntity
  8
寸法線
100
AcDbCircle
 10
16.829758578037
 20
143.236674288848
 30
0.0
 40
2.0
  0
CIRCLE
  5
4D2B
330
1A
100
AcDbEntity
  8
寸法線
100
AcDbCircle
 10
16.829758578037
 20
143.236674288848
 30
0.0
 40
3.0
  0
TEXT
  5
4D2C
330
1A
100
AcDbEntity
  8
寸法線
100
AcDbText
 10
9.429758578037
 20
131.236674288848
 30
0.0
 40
7.0
  1
200
100
AcDbText
  0
CIRCLE
  5
4D2D
330
1A
100
AcDbEntity
  8
寸法線
100
AcDbCircle
 10
-23.170241421963
 20
143.236674288848
 30
0.0
 40
2.0
  0
CIRCLE
  5
4D2E
330
1A
100
AcDbEntity
  8
寸法線
100
AcDbCircle
 10
-23.170241421963
 20
143.236674288848
 30
0.0
 40
3.0
  0
TEXT
  5
4D2F
330
1A
100
AcDbEntity
  8
寸法線
100
AcDbText
 10
-25.570241421963
 20
131.236674288848
 30
0.0
 40
7.0
  1
0
100
AcDbText
  0
LWPOLYLINE
  5
4FA9
330
1A
100
AcDbEntity
  8
外形線
100
AcDbPolyline
 90
        8
 70
     1
 43
0.0
 10
428.443647827309
 20
337.538623815478
 10
437.443647827309
 20
337.538623815478
 10
439.443647827309
 20
339.538623815478
 10
439.443647827309
 20
490.538623815478
 10
437.443647827309
 20
492.538623815478
 10
428.443647827309
 20
492.538623815478
 10
427.443647827309
 20
491.538623815478
 10
427.443647827309
 20
338.538623815478
  0
LINE
  5
4FAA
330
1A
100
AcDbEntity
  8
中心線
 48
10.0
100
AcDbLine
 10
420.943647827309
 20
480.038623815478
 30
0.0
 11
445.943647827309
 21
480.038623815478
 31
0.0
  0
LINE
  5
4FAB
330
1A
100
AcDbEntity
  8
中心線
 48
10.0
100
AcDbLine
 10
420.943647827309
 20
350.038623815478
 30
0.0
 11
445.943647827309
 21
350.038623815478
 31
0.0
  0
LINE
  5
4FAC
330
1A
100
AcDbEntity
  8
外形線
100
AcDbLine
 10
442.443647827309
 20
385.038623815478
 30
0.0
 11
442.443647827309
 21
445.038623815478
 31
0.0
  0
LINE
  5
4FAD
330
1A
100
AcDbEntity
  8
外形線
100
AcDbLine
 10
442.443647827309
 20
385.038623815478
 30
0.0
 11
439.443647827309
 21
380.538623815478
 31
0.0
  0
LINE
  5
4FB9
330
1A
100
AcDbEntity
  8
外形線
100
AcDbLine
 10
439.443647827309
 20
449.538623815478
 30
0.0
 11
442.443647827309
 21
445.038623815478
 31
0.0
  0
LINE
  5
503B
330
1A
100
AcDbEntity
  8
寸法線
100
AcDbLine
 10
138.460480167215
 20
155.401881910062
 30
0.0
 11
286.660480167215
 21
155.401881910062
 31
0.0
  0
LINE
  5
503C
330
1A
100
AcDbEntity
  8
寸法線
100
AcDbLine
 10
138.460480167215
 20
168.745782025491
 30
0.0
 11
286.660480167215
 21
168.745782025491
 31
0.0
  0
LINE
  5
503D
330
1A
100
AcDbEntity
  8
寸法線
100
AcDbLine
 10
138.460480167215
 20
182.08968214092
 30
0.0
 11
286.660480167215
 21
182.08968214092
 31
0.0
  0
LINE
  5
503E
330
1A
100
AcDbEntity
  8
寸法線
100
AcDbLine
 10
138.460480167215
 20
195.43358225635
 30
0.0
 11
286.660480167215
 21
195.43358225635
 31
0.0
  0
LINE
  5
503F
330
1A
100
AcDbEntity
  8
寸法線
100
AcDbLine
 10
138.460480167215
 20
208.777482371779
 30
0.0
 11
286.660480167215
 21
208.777482371779
 31
0.0
  0
LINE
  5
5040
330
1A
100
AcDbEntity
  8
寸法線
100
AcDbLine
 10
138.460480167215
 20
222.121382487208
 30
0.0
 11
286.660480167215
 21
222.121382487208
 31
0.0
  0
LINE
  5
5041
330
1A
100
AcDbEntity
  8
寸法線
 48
10.0
100
AcDbLine
 10
286.660480167215
 20
235.465282602637
 30
0.0
 11
286.660480167215
 21
155.401881910062
 31
0.0
  0
LINE
  5
5042
330
1A
100
AcDbEntity
  8
寸法線
 48
10.0
100
AcDbLine
 10
206.363176551774
 20
235.465282602637
 30
0.0
 11
206.363176551774
 21
155.401881910062
 31
0.0
  0
LINE
  5
5043
330
1A
100
AcDbEntity
  8
寸法線
 48
10.0
100
AcDbLine
 10
138.460480167215
 20
235.465282602637
 30
0.0
 11
138.460480167215
 21
155.401881910062
 31
0.0
  0
LINE
  5
5044
330
1A
100
AcDbEntity
  8
寸法線
100
AcDbLine
 10
138.460480167215
 20
235.465282602637
 30
0.0
 11
286.660480167215
 21
235.465282602637
 31
0.0
  0
MTEXT
  5
5045
102
{ACAD_XDICTIONARY
360
570C
102
}
330
1A
100
AcDbEntity
  8
寸法線
 48
10.0
100
AcDbMText
 10
214.194942395505
 20
233.141038095052
 30
0.0
 40
8.0
 41
148.46544809231
 71
     1
 72
     5
  1
JIS5K 呼び65\P アルミ鋳物\P    φ155\P    φ130\P   4-φ15\P     12
1001
ACADANNOTATIVE
1000
AnnotativeData
1002
{
1070
     1
1070
     0
1002
}
  0
MTEXT
  5
5046
330
1A
100
AcDbEntity
  8
寸法線
 48
10.0
100
AcDbMText
 10
145.123153761985
 20
232.404038448472
 30
0.0
 40
8.0
 41
60.717249709215
 71
     1
 72
     5
  1
フ ラ ン ジ\P材　　　　質\Pフランジ外径\P取付穴中心径\P取　 付 　穴\P厚　　　　み
  0
MTEXT
  5
5047
330
1A
100
AcDbEntity
  8
寸法線
 48
10.0
100
AcDbMText
 10
459.40659545433
 20
472.719964312016
 30
0.0
 40
8.0
 41
0.0
 71
     7
 72
     1
  1
R1"
  0
MTEXT
  5
5049
330
1A
100
AcDbEntity
  8
寸法線
 48
10.0
100
AcDbMText
 10
445.252972716476
 20
517.823164815233
 30
0.0
 40
8.0
 41
0.0
 71
     7
 72
     1
  1
フランジ\Pアルミ鋳物
  0
DIMENSION
  5
50FC
330
1A
100
AcDbEntity
  8
寸法線
 48
10.0
100
AcDbDimension
  2
*D12
 10
260.443647827309
 20
303.376965430172
 30
0.0
 11
235.443647827309
 21
308.001965430172
 31
0.0
 70
    32
  3
ISO-25
100
AcDbAlignedDimension
 13
210.443647827309
 23
406.338623815478
 33
0.0
 14
260.443647827309
 24
406.338623815478
 34
0.0
100
AcDbRotatedDimension
1001
ACAD
1000
DSTYLE
1002
{
1070
     5
1000
OPEN30
1070
    41
1040
6.0
1070
    47
1040
0.1
1070
    48
1040
0.1
1070
    73
1070
     0
1070
   140
1040
8.0
1070
   271
1070
     1
1070
   272
1070
     1
1070
   341
1005
2AF4
1002
}
  0
DIMENSION
  5
5109
330
1A
100
AcDbEntity
  8
寸法線
 48
10.0
100
AcDbDimension
  2
*D13
 10
275.443647827309
 20
303.376965430172
 30
0.0
 11
267.943647827309
 21
308.001965430172
 31
0.0
 70
    32
  3
ISO-25
100
AcDbAlignedDimension
 13
260.443647827309
 23
406.338623815478
 33
0.0
 14
275.443647827309
 24
404.038623815478
 34
0.0
100
AcDbRotatedDimension
1001
ACAD
1000
DSTYLE
1002
{
1070
     5
1000
OPEN30
1070
    41
1040
6.0
1070
    47
1040
0.1
1070
    48
1040
0.1
1070
    73
1070
     0
1070
   140
1040
8.0
1070
   271
1070
     1
1070
   272
1070
     1
1070
   341
1005
2AF4
1002
}
  0
DIMENSION
  5
5116
330
1A
100
AcDbEntity
  8
寸法線
 48
10.0
100
AcDbDimension
  2
*D14
 10
325.443647827309
 20
303.376965430172
 30
0.0
 11
300.443647827309
 21
308.001965430172
 31
0.0
 70
    32
  3
ISO-25
100
AcDbAlignedDimension
 13
275.443647827309
 23
404.038623815478
 33
0.0
 14
325.443647827309
 24
402.538623815478
 34
0.0
100
AcDbRotatedDimension
1001
ACAD
1000
DSTYLE
1002
{
1070
     5
1000
OPEN30
1070
    41
1040
6.0
1070
    47
1040
0.1
1070
    48
1040
0.1
1070
    73
1070
     0
1070
   140
1040
8.0
1070
   271
1070
     1
1070
   272
1070
     1
1070
   341
1005
2AF4
1002
}
  0
DIMENSION
  5
5123
330
1A
100
AcDbEntity
  8
寸法線
 48
10.0
100
AcDbDimension
  2
*D15
 10
425.443647827309
 20
303.376965430172
 30
0.0
 11
375.443647827309
 21
308.001965430172
 31
0.0
 70
    32
  3
ISO-25
100
AcDbAlignedDimension
 13
325.443647827309
 23
402.538623815478
 33
0.0
 14
425.443647827309
 24
398.738811315478
 34
0.0
100
AcDbRotatedDimension
1001
ACAD
1000
DSTYLE
1002
{
1070
     5
1000
OPEN30
1070
    41
1040
6.0
1070
    47
1040
0.1
1070
    48
1040
0.1
1070
    73
1070
     0
1070
   140
1040
8.0
1070
   271
1070
     1
1070
   272
1070
     1
1070
   341
1005
2AF4
1002
}
  0
DIMENSION
  5
513F
330
1A
100
AcDbEntity
  8
寸法線
 48
10.0
100
AcDbDimension
  2
*D16
 10
470.443647827309
 20
303.376965430172
 30
0.0
 11
460.443647827309
 21
308.002752831747
 31
0.0
 70
    32
  3
ISO-25
100
AcDbAlignedDimension
 13
450.443647827309
 23
396.038623815477
 33
0.0
 14
470.443647827309
 24
396.037934047206
 34
0.0
100
AcDbRotatedDimension
1001
ACAD
1000
DSTYLE
1002
{
1070
     5
1000
OPEN30
1070
    41
1040
6.0
1070
    47
1040
0.1
1070
    48
1040
0.1
1070
    73
1070
     0
1070
   140
1040
8.0
1070
   271
1070
     1
1070
   272
1070
     1
1070
   341
1005
2AF4
1002
}
  0
DIMENSION
  5
514C
330
1A
100
AcDbEntity
  8
寸法線
 48
10.0
100
AcDbDimension
  2
*D17
 10
450.443647827309
 20
303.376965430172
 30
0.0
 11
437.943647827309
 21
308.002752831747
 31
0.0
 70
    32
  3
ISO-25
100
AcDbAlignedDimension
 13
425.443647827309
 23
398.738811315478
 33
0.0
 14
450.443647827309
 24
396.038623815477
 34
0.0
100
AcDbRotatedDimension
1001
ACAD
1000
DSTYLE
1002
{
1070
     5
1000
OPEN30
1070
    41
1040
6.0
1070
    47
1040
0.1
1070
    48
1040
0.1
1070
    73
1070
     0
1070
   140
1040
8.0
1070
   271
1070
     1
1070
   272
1070
     1
1070
   341
1005
2AF4
1002
}
  0
DIMENSION
  5
5159
330
1A
100
AcDbEntity
  8
寸法線
 48
10.0
100
AcDbDimension
  2
*D18
 10
558.943647827308
 20
303.376965430172
 30
0.0
 11
514.693647827309
 21
308.001965430172
 31
0.0
 70
    32
  1
88
  3
ISO-25
100
AcDbAlignedDimension
 13
470.443647827309
 23
396.037934047206
 33
0.0
 14
558.943647827308
 24
351.537934047206
 34
0.0
100
AcDbRotatedDimension
1001
ACAD
1000
DSTYLE
1002
{
1070
     5
1000
OPEN30
1070
    41
1040
6.0
1070
    47
1040
0.1
1070
    48
1040
0.1
1070
    73
1070
     0
1070
   140
1040
8.0
1070
   271
1070
     1
1070
   272
1070
     1
1070
   341
1005
2AF4
1002
}
  0
DIMENSION
  5
516F
330
1A
100
AcDbEntity
  8
寸法線
 48
10.0
100
AcDbDimension
  2
*D19
 10
588.443647827309
 20
303.376965430172
 30
0.0
 11
573.693647827309
 21
308.001965430172
 31
0.0
 70
    32
  1
30
  3
ISO-25
100
AcDbAlignedDimension
 13
558.943647827308
 23
351.537934047206
 33
0.0
 14
588.443647827309
 24
370.811488517412
 34
0.0
100
AcDbRotatedDimension
1001
ACAD
1000
DSTYLE
1002
{
1070
     5
1000
OPEN30
1070
    41
1040
6.0
1070
    47
1040
0.1
1070
    48
1040
0.1
1070
    73
1070
     0
1070
   140
1040
8.0
1070
   271
1070
     1
1070
   272
1070
     1
1070
   341
1005
2AF4
1002
}
  0
DIMENSION
  5
5185
330
1A
100
AcDbEntity
  8
寸法線
 48
10.0
100
AcDbDimension
  2
*D20
 10
588.443647827309
 20
278.113219967485
 30
0.0
 11
506.943647827309
 21
282.738219967485
 31
0.0
 70
    32
  3
ISO-25
100
AcDbAlignedDimension
 13
425.443647827309
 23
303.376965430172
 33
0.0
 14
588.443647827309
 24
370.811488517412
 34
0.0
100
AcDbRotatedDimension
1001
ACAD
1000
DSTYLE
1002
{
1070
     5
1000
OPEN30
1070
    41
1040
6.0
1070
    47
1040
0.1
1070
    48
1040
0.1
1070
    73
1070
     0
1070
   140
1040
8.0
1070
   271
1070
     1
1070
   272
1070
     1
1070
   341
1005
2AF4
1002
}
  0
DIMENSION
  5
519F
330
1A
100
AcDbEntity
  8
寸法線
 48
10.0
100
AcDbDimension
  2
*D21
 10
425.443647827309
 20
278.113219967485
 30
0.0
 11
184.397389371802
 21
278.113219967485
 31
0.0
 70
    32
  1
 
  3
ISO-25
100
AcDbAlignedDimension
 13
-56.648869083705
 23
407.038623815478
 33
0.0
 14
425.443647827309
 24
398.738811315478
 34
0.0
100
AcDbRotatedDimension
1001
ACAD
1000
DSTYLE
1002
{
1070
     5
1000
OPEN30
1070
    41
1040
6.0
1070
    47
1040
0.1
1070
    48
1040
0.1
1070
    73
1070
     0
1070
   140
1040
8.0
1070
   271
1070
     1
1070
   272
1070
     1
1070
   341
1005
2AF4
1002
}
  0
DIMENSION
  5
51B6
330
1A
100
AcDbEntity
  8
寸法線
 48
10.0
100
AcDbDimension
  2
*D22
 10
43.351130916295
 20
303.376965430172
 30
0.0
 11
-6.648869083705
 21
308.002752831747
 31
0.0
 70
    32
  1
220
  3
ISO-25
100
AcDbAlignedDimension
 13
-56.648869083705
 23
407.038623815478
 33
0.0
 14
43.351130916295
 24
405.538623815478
 34
0.0
100
AcDbRotatedDimension
1001
ACAD
1000
DSTYLE
1002
{
1070
     5
1000
OPEN30
1070
    41
1040
6.0
1070
    47
1040
0.1
1070
    48
1040
0.1
1070
    73
1070
     0
1070
   140
1040
8.0
1070
   271
1070
     1
1070
   272
1070
     1
1070
   341
1005
2AF4
1002
}
  0
MTEXT
  5
5316
330
1A
100
AcDbEntity
  8
寸法線
 48
10.0
100
AcDbMText
 10
445.252972716476
 20
504.684674170638
 30
0.0
 40
8.0
 41
0.0
 71
     7
 72
     1
  1
ねじ込み
  0
LINE
  5
5330
330
1A
100
AcDbEntity
  8
外形線
100
AcDbLine
 10
452.140659379373
 20
436.977934044683
 30
0.0
 11
468.746636275245
 21
436.977934044683
 31
0.0
  0
LINE
  5
5331
330
1A
100
AcDbEntity
  8
外形線
100
AcDbLine
 10
450.443647827309
 20
434.038623815478
 30
0.0
 11
450.443647827309
 21
396.038623815478
 31
0.0
  0
LINE
  5
5332
330
1A
100
AcDbEntity
  8
外形線
100
AcDbLine
 10
450.443647827309
 20
434.038623815478
 30
0.0
 11
452.140659379373
 21
436.977934044683
 31
0.0
  0
LINE
  5
5333
330
1A
100
AcDbEntity
  8
外形線
100
AcDbLine
 10
452.140659379373
 20
393.099313586272
 30
0.0
 11
468.746636275245
 21
393.099313586272
 31
0.0
  0
LINE
  5
5334
330
1A
100
AcDbEntity
  8
外形線
100
AcDbLine
 10
450.443647827309
 20
396.038623815478
 30
0.0
 11
452.140659379373
 21
393.099313586272
 31
0.0
  0
LINE
  5
5335
330
1A
100
AcDbEntity
  8
外形線
100
AcDbLine
 10
468.746636275245
 20
393.099313586272
 30
0.0
 11
470.443647827309
 21
396.038623815478
 31
0.0
  0
LINE
  5
5336
330
1A
100
AcDbEntity
  8
外形線
100
AcDbLine
 10
470.443647827309
 20
434.038623815478
 30
0.0
 11
470.443647827309
 21
396.038623815478
 31
0.0
  0
LINE
  5
5337
330
1A
100
AcDbEntity
  8
細線
100
AcDbLine
 10
452.140659379373
 20
426.008278930081
 30
0.0
 11
468.746636275245
 21
426.008278930081
 31
0.0
  0
LINE
  5
5338
330
1A
100
AcDbEntity
  8
細線
100
AcDbLine
 10
452.140659379373
 20
404.068968700875
 30
0.0
 11
468.746636275245
 21
404.068968700875
 31
0.0
  0
ARC
  5
5339
330
1A
100
AcDbEntity
  8
細線
100
AcDbCircle
 10
486.746636275244
 20
415.038623815478
 30
0.0
 40
36.30298844793568
100
AcDbArc
 50
162.412046226005
 51
197.587953773995
  0
ARC
  5
533A
330
1A
100
AcDbEntity
  8
細線
100
AcDbCircle
 10
434.140659379371
 20
415.038623815478
 30
0.0
 40
36.30298844793743
100
AcDbArc
 50
342.412046226005
 51
17.587953773995
  0
ARC
  5
533B
330
1A
100
AcDbEntity
  8
細線
100
AcDbCircle
 10
486.583042305077
 20
437.481293677703
 30
0.0
 40
36.303
100
AcDbArc
 50
185.441624729913
 51
198.423300686138
  0
ARC
  5
533C
330
1A
100
AcDbEntity
  8
細線
100
AcDbCircle
 10
434.304253349541
 20
437.481293677703
 30
0.0
 40
36.303
100
AcDbArc
 50
341.576699313862
 51
354.558375270087
  0
ARC
  5
533D
330
1A
100
AcDbEntity
  8
細線
100
AcDbCircle
 10
486.583042305077
 20
392.595953953252
 30
0.0
 40
36.303
100
AcDbArc
 50
161.576699313862
 51
174.558375270087
  0
ARC
  5
533E
330
1A
100
AcDbEntity
  8
細線
100
AcDbCircle
 10
434.304253349541
 20
392.595953953253
 30
0.0
 40
36.303
100
AcDbArc
 50
5.44162472991
 51
18.423300686138
  0
LINE
  5
533F
330
1A
100
AcDbEntity
  8
外形線
100
AcDbLine
 10
425.443647827309
 20
431.338436315478
 30
0.0
 11
427.443647827309
 21
431.400936315478
 31
0.0
  0
LINE
  5
5340
330
1A
100
AcDbEntity
  8
外形線
100
AcDbLine
 10
425.443647827309
 20
398.738811315478
 30
0.0
 11
425.443647827309
 21
431.338436315478
 31
0.0
  0
LINE
  5
5341
330
1A
100
AcDbEntity
  8
外形線
100
AcDbLine
 10
425.443647827309
 20
398.738811315478
 30
0.0
 11
427.443647827309
 21
398.676311315478
 31
0.0
  0
LINE
  5
5342
330
1A
100
AcDbEntity
  8
細線
100
AcDbLine
 10
425.443647827309
 20
429.859436315478
 30
0.0
 11
427.443647827309
 21
429.921936315478
 31
0.0
  0
LINE
  5
5343
330
1A
100
AcDbEntity
  8
細線
100
AcDbLine
 10
425.443647827309
 20
400.217811315478
 30
0.0
 11
427.443647827309
 21
400.155311315478
 31
0.0
  0
LINE
  5
5344
330
1A
100
AcDbEntity
  8
外形線
100
AcDbLine
 10
468.746636275245
 20
436.977934044683
 30
0.0
 11
470.443647827309
 21
434.038623815478
 31
0.0
  0
LINE
  5
5345
330
1A
100
AcDbEntity
  8
外形線
100
AcDbLine
 10
442.443647827309
 20
431.869686315478
 30
0.0
 11
450.443647827309
 21
432.119686315478
 31
0.0
  0
LINE
  5
5346
330
1A
100
AcDbEntity
  8
細線
100
AcDbLine
 10
442.443647827309
 20
430.390686315478
 30
0.0
 11
450.443647827309
 21
430.640686315478
 31
0.0
  0
LINE
  5
5347
330
1A
100
AcDbEntity
  8
細線
100
AcDbLine
 10
442.443647827309
 20
399.686561315478
 30
0.0
 11
450.443647827309
 21
399.436561315478
 31
0.0
  0
LINE
  5
5348
330
1A
100
AcDbEntity
  8
外形線
100
AcDbLine
 10
442.443647827309
 20
398.207561315478
 30
0.0
 11
450.443647827309
 21
397.957561315478
 31
0.0
  0
INSERT
  5
5543
330
1A
100
AcDbEntity
  8
寸法線
 48
10.0
100
AcDbBlockReference
  2
エル2
 10
186.396232857708
 20
279.832662495293
 30
0.0
 41
2.268500301619
 42
2.268500301619
 43
2.268500301619
  0
LEADER
  5
5544
330
1A
100
AcDbEntity
  8
寸法線
 48
10.0
100
AcDbLeader
  3
ISO-25
 76
     3
 10
-23.831365719781
 20
425.023974152261
 30
0.0
 10
-53.289594796683
 20
517.202214168764
 30
0.0
 10
-64.190323157041
 20
517.202214168764
 30
0.0
1001
ACAD
1000
DSTYLE
1002
{
1070
     5
1000
OPEN30
1070
   147
1040
0.625
1070
    77
1070
     0
1070
    41
1040
6.0
1070
    47
1040
0.1
1070
    48
1040
0.1
1070
    73
1070
     0
1070
   140
1040
8.0
1070
   271
1070
     1
1070
   272
1070
     1
1070
   341
1005
2AF4
1070
   342
1005
2AF4
1002
}
  0
LEADER
  5
5545
330
1A
100
AcDbEntity
  8
寸法線
 48
10.0
100
AcDbLeader
  3
ISO-25
 76
     3
 10
52.832223791394
 20
424.92146346667
 30
0.0
 10
10.191132021796
 20
517.202214168764
 30
0.0
 10
-0.068380617653
 20
517.202214168764
 30
0.0
1001
ACAD
1000
DSTYLE
1002
{
1070
     5
1000
OPEN30
1070
   147
1040
0.625
1070
    77
1070
     0
1070
    41
1040
6.0
1070
    47
1040
0.1
1070
    48
1040
0.1
1070
    73
1070
     0
1070
   140
1040
8.0
1070
   271
1070
     1
1070
   272
1070
     1
1070
   341
1005
2AF4
1070
   342
1005
2AF4
1002
}
  0
LEADER
  5
5547
330
1A
100
AcDbEntity
  8
寸法線
 48
10.0
100
AcDbLeader
  3
ISO-25
 76
     3
 10
119.547450630836
 20
417.244942399108
 30
0.0
 10
100.310868250925
 20
517.215758109139
 30
0.0
 10
89.41013607151
 20
517.215758109139
 30
0.0
1001
ACAD
1000
DSTYLE
1002
{
1070
     5
1000
OPEN30
1070
   147
1040
0.625
1070
    77
1070
     0
1070
    41
1040
6.0
1070
    47
1040
0.1
1070
    48
1040
0.1
1070
    73
1070
     0
1070
   140
1040
8.0
1070
   271
1070
     1
1070
   272
1070
     1
1070
   341
1005
2AF4
1070
   342
1005
2AF4
1002
}
  0
LEADER
  5
5548
330
1A
100
AcDbEntity
  8
寸法線
 48
10.0
100
AcDbLeader
  3
ISO-25
 76
     3
 10
198.738052359415
 20
424.935005307534
 30
0.0
 10
159.944274010554
 20
517.215758109139
 30
0.0
 10
147.761106570264
 20
517.215758109139
 30
0.0
1001
ACAD
1000
DSTYLE
1002
{
1070
     5
1000
OPEN30
1070
   147
1040
0.625
1070
    77
1070
     0
1070
    41
1040
6.0
1070
    47
1040
0.1
1070
    48
1040
0.1
1070
    73
1070
     0
1070
   140
1040
8.0
1070
   271
1070
     1
1070
   272
1070
     1
1070
   341
1005
2AF4
1070
   342
1005
2AF4
1002
}
  0
LEADER
  5
5549
330
1A
100
AcDbEntity
  8
寸法線
 48
10.0
100
AcDbLeader
  3
ISO-25
 76
     3
 10
229.592253419666
 20
425.000612902137
 30
0.0
 10
208.111402649876
 20
517.281363604231
 30
0.0
 10
196.890060700479
 20
517.281363604231
 30
0.0
1001
ACAD
1000
DSTYLE
1002
{
1070
     5
1000
OPEN30
1070
   147
1040
0.625
1070
    77
1070
     0
1070
    41
1040
6.0
1070
    47
1040
0.1
1070
    48
1040
0.1
1070
    73
1070
     0
1070
   140
1040
8.0
1070
   271
1070
     1
1070
   272
1070
     1
1070
   341
1005
2AF4
1070
   342
1005
2AF4
1002
}
  0
LEADER
  5
554A
330
1A
100
AcDbEntity
  8
寸法線
 48
10.0
100
AcDbLeader
  3
ISO-25
 76
     3
 10
294.070426066436
 20
427.586396972373
 30
0.0
 10
290.48542070337
 20
517.303794771332
 30
0.0
 10
277.458295304422
 20
517.303794771332
 30
0.0
1001
ACAD
1000
DSTYLE
1002
{
1070
     5
1000
OPEN30
1070
   147
1040
0.625
1070
    77
1070
     0
1070
    41
1040
6.0
1070
    47
1040
0.1
1070
    48
1040
0.1
1070
    73
1070
     0
1070
   140
1040
8.0
1070
   271
1070
     1
1070
   272
1070
     1
1070
   341
1005
2AF4
1070
   342
1005
2AF4
1002
}
  0
LEADER
  5
554B
330
1A
100
AcDbEntity
  8
寸法線
 48
10.0
100
AcDbLeader
  3
ISO-25
 76
     3
 10
325.309958442494
 20
427.819623163738
 30
0.0
 10
325.309958442494
 20
517.273744481673
 30
0.0
 10
335.655021760411
 20
517.273744481673
 30
0.0
1001
ACAD
1000
DSTYLE
1002
{
1070
     5
1000
OPEN30
1070
   147
1040
0.625
1070
    77
1070
     0
1070
    41
1040
6.0
1070
    47
1040
0.1
1070
    48
1040
0.1
1070
    73
1070
     0
1070
   140
1040
8.0
1070
   271
1070
     1
1070
   272
1070
     1
1070
   341
1005
2AF4
1070
   342
1005
2AF4
1002
}
  0
LEADER
  5
554C
330
1A
100
AcDbEntity
  8
寸法線
 48
10.0
100
AcDbLeader
  3
ISO-25
 76
     3
 10
371.506373870187
 20
428.062494505016
 30
0.0
 10
396.091139671483
 20
517.291854856758
 30
0.0
 10
411.364316959567
 20
517.291854856758
 30
0.0
1001
ACAD
1000
DSTYLE
1002
{
1070
     5
1000
OPEN30
1070
   147
1040
0.625
1070
    77
1070
     0
1070
    41
1040
6.0
1070
    47
1040
0.1
1070
    48
1040
0.1
1070
    73
1070
     0
1070
   140
1040
8.0
1070
   271
1070
     1
1070
   272
1070
     1
1070
   341
1005
2AF4
1070
   342
1005
2AF4
1002
}
  0
LEADER
  5
554D
330
1A
100
AcDbEntity
  8
寸法線
 48
10.0
100
AcDbLeader
  3
ISO-25
 76
     3
 10
433.576753777689
 20
492.568354327602
 30
0.0
 10
444.146709859453
 20
517.291854856758
 30
0.0
 10
458.314950162773
 20
517.291854856758
 30
0.0
1001
ACAD
1000
DSTYLE
1002
{
1070
     5
1000
OPEN30
1070
   147
1040
0.625
1070
    77
1070
     0
1070
    41
1040
6.0
1070
    47
1040
0.1
1070
    48
1040
0.1
1070
    73
1070
     0
1070
   140
1040
8.0
1070
   271
1070
     1
1070
   272
1070
     1
1070
   341
1005
2AF4
1070
   342
1005
2AF4
1002
}
  0
LEADER
  5
554E
330
1A
100
AcDbEntity
  8
寸法線
 48
10.0
100
AcDbLeader
  3
ISO-25
 76
     3
 10
446.234435134722
 20
432.145697546898
 30
0.0
 10
457.388099588778
 20
472.059288825614
 30
0.0
 10
467.462376544207
 20
472.059288825614
 30
0.0
1001
ACAD
1000
DSTYLE
1002
{
1070
     5
1000
OPEN30
1070
   147
1040
0.625
1070
    77
1070
     0
1070
    41
1040
6.0
1070
    47
1040
0.1
1070
    48
1040
0.1
1070
    73
1070
     0
1070
   140
1040
8.0
1070
   271
1070
     1
1070
   272
1070
     1
1070
   341
1005
2AF4
1070
   342
1005
2AF4
1002
}
  0
LEADER
  5
554F
330
1A
100
AcDbEntity
  8
寸法線
 48
10.0
100
AcDbLeader
  3
ISO-25
 76
     3
 10
502.362554510899
 20
467.384723040962
 30
0.0
 10
505.252697870281
 20
517.366607917842
 30
0.0
 10
515.674990143154
 20
517.366607917842
 30
0.0
1001
ACAD
1000
DSTYLE
1002
{
1070
     5
1000
OPEN30
1070
   147
1040
0.625
1070
    77
1070
     0
1070
    41
1040
6.0
1070
    47
1040
0.1
1070
    48
1040
0.1
1070
    73
1070
     0
1070
   140
1040
8.0
1070
   271
1070
     1
1070
   272
1070
     1
1070
   341
1005
2AF4
1070
   342
1005
2AF4
1002
}
  0
LEADER
  5
5551
330
1A
100
AcDbEntity
  8
寸法線
 48
10.0
100
AcDbLeader
  3
ISO-25
 76
     3
 10
560.266347897359
 20
471.695431108883
 30
0.0
 10
563.655447133317
 20
517.231871850013
 30
0.0
 10
572.921268076742
 20
517.231871850013
 30
0.0
1001
ACAD
1000
DSTYLE
1002
{
1070
     5
1000
OPEN30
1070
   147
1040
0.625
1070
    77
1070
     0
1070
    41
1040
6.0
1070
    47
1040
0.1
1070
    48
1040
0.1
1070
    73
1070
     0
1070
   140
1040
8.0
1070
   271
1070
     1
1070
   272
1070
     1
1070
   341
1005
2AF4
1070
   342
1005
2AF4
1002
}
  0
LEADER
  5
5552
330
1A
100
AcDbEntity
  8
寸法線
 48
10.0
100
AcDbLeader
  3
ISO-25
 76
     3
 10
585.374943088415
 20
460.916581374216
 30
0.0
 10
608.861424700889
 20
517.289956899527
 30
0.0
 10
618.969591961248
 20
517.289956899527
 30
0.0
1001
ACAD
1000
DSTYLE
1002
{
1070
     5
1000
OPEN30
1070
   147
1040
0.625
1070
    77
1070
     0
1070
    41
1040
6.0
1070
    47
1040
0.1
1070
    48
1040
0.1
1070
    73
1070
     0
1070
   140
1040
8.0
1070
   271
1070
     1
1070
   272
1070
     1
1070
   341
1005
2AF4
1070
   342
1005
2AF4
1002
}
  0
LEADER
  5
5561
330
1A
100
AcDbEntity
  8
寸法線
 48
10.0
100
AcDbLeader
  3
ISO-25
 76
     3
 10
542.992874346451
 20
348.784396288921
 30
0.0
 10
595.347011116172
 20
303.043828041707
 30
0.0
 10
603.64356985252
 20
303.043828041707
 30
0.0
1001
ACAD
1000
DSTYLE
1002
{
1070
     5
1000
OPEN30
1070
   147
1040
0.625
1070
    77
1070
     0
1070
    41
1040
6.0
1070
    47
1040
0.1
1070
    48
1040
0.1
1070
    73
1070
     0
1070
   140
1040
8.0
1070
   271
1070
     1
1070
   272
1070
     1
1070
   341
1005
2AF4
1070
   342
1005
2AF4
1002
}
  0
LINE
  5
575A
330
1A
100
AcDbEntity
  8
寸法線
100
AcDbLine
 10
318.268231643881
 20
162.208349839349
 30
0.0
 11
593.972152678218
 21
162.208349839349
 31
0.0
  0
LINE
  5
575B
330
1A
100
AcDbEntity
  8
寸法線
100
AcDbLine
 10
350.268201643882
 20
122.04432443934
 30
0.0
 11
350.268201643881
 21
267.646732592387
 31
0.0
  0
LINE
  5
575C
330
1A
100
AcDbEntity
  8
寸法線
100
AcDbLine
 10
318.268231643881
 20
253.576732592387
 30
0.0
 11
593.972152678218
 21
253.576732592387
 31
0.0
  0
LINE
  5
575D
330
1A
100
AcDbEntity
  8
寸法線
100
AcDbLine
 10
318.268231643881
 20
267.646732592387
 30
0.0
 11
593.972152678218
 21
267.646732592387
 31
0.0
  0
LINE
  5
575E
330
1A
100
AcDbEntity
  8
寸法線
100
AcDbLine
 10
318.268231643881
 20
122.04432443934
 30
0.0
 11
318.268231643881
 21
267.646732592387
 31
0.0
  0
LINE
  5
575F
330
1A
100
AcDbEntity
  8
寸法線
100
AcDbLine
 10
562.215834113929
 20
122.04432443934
 30
0.0
 11
562.215834113929
 21
267.646732592387
 31
0.0
  0
LINE
  5
5760
330
1A
100
AcDbEntity
  8
寸法線
100
AcDbLine
 10
318.268231643881
 20
227.471480377234
 30
0.0
 11
593.972152678218
 21
227.471480377234
 31
0.0
  0
LINE
  5
5761
330
1A
100
AcDbEntity
  8
寸法線
100
AcDbLine
 10
318.268231643881
 20
214.418854269658
 30
0.0
 11
593.972152678218
 21
214.418854269658
 31
0.0
  0
LINE
  5
5762
330
1A
100
AcDbEntity
  8
寸法線
100
AcDbLine
 10
318.268231643881
 20
201.366228162081
 30
0.0
 11
593.972152678218
 21
201.366228162081
 31
0.0
  0
LINE
  5
5763
330
1A
100
AcDbEntity
  8
寸法線
100
AcDbLine
 10
318.268231643881
 20
188.313602054503
 30
0.0
 11
593.972152678218
 21
188.313602054503
 31
0.0
  0
LINE
  5
5764
330
1A
100
AcDbEntity
  8
寸法線
100
AcDbLine
 10
318.268231643881
 20
175.260975946926
 30
0.0
 11
593.972152678218
 21
175.260975946926
 31
0.0
  0
LINE
  5
5765
330
1A
100
AcDbEntity
  8
寸法線
100
AcDbLine
 10
593.972152678218
 20
122.04432443934
 30
0.0
 11
593.972152678218
 21
267.646732592387
 31
0.0
  0
LINE
  5
5766
330
1A
100
AcDbEntity
  8
寸法線
100
AcDbLine
 10
318.268231643881
 20
240.524106484811
 30
0.0
 11
593.972152678218
 21
240.524106484811
 31
0.0
  0
MTEXT
  5
5767
102
{ACAD_XDICTIONARY
360
5768
102
}
330
1A
100
AcDbEntity
  8
寸法線
 48
10.0
100
AcDbMText
 10
389.711183797412
 20
264.789951560993
 30
0.0
 40
8.0
 41
78.885964307061
 71
     2
 72
     5
  1
型式\P\W0.9;TSA-A4WA-100\PTSA-A4WA-200\PTSA-A4WA-300\PTSA-A4WA-400\PTSA-A4WA-500\PTSA-A4WA-600\PTSA-A4WA-700\PTSA-A4WA-800\PTSA-A4WA-900\PTSA-A4WA-A10
1001
ACADANNOTATIVE
1000
AnnotativeData
1002
{
1070
     1
1070
     0
1002
}
  0
LINE
  5
576B
330
1A
100
AcDbEntity
  8
寸法線
 48
10.0
100
AcDbLine
 10
429.154165950943
 20
267.646732592387
 30
0.0
 11
429.154165950943
 21
122.04432443934
 31
0.0
  0
MTEXT
  5
576C
330
1A
100
AcDbEntity
  8
寸法線
 48
10.0
100
AcDbMText
 10
320.795138804822
 20
264.929516348353
 30
0.0
 40
8.0
 41
41.842424242424
 71
     1
 72
     5
  1
御仕様\P \P\P　
  0
SPLINE
  5
576D
330
1A
100
AcDbEntity
  8
寸法線
 48
10.0
100
AcDbSpline
210
0.0
220
0.0
230
1.0
 70
  1064
 71
     3
 72
    13
 73
     9
 74
     7
 42
0.000000001
 43
0.0000000001
 44
0.0000000001
 40
0.0
 40
0.0
 40
0.0
 40
0.0
 40
3.546053604694573
 40
9.27899609329885
 40
13.89970108471578
 40
17.09539662994935
 40
18.79470455702453
 40
20.02704699455838
 40
20.02704699455838
 40
20.02704699455838
 40
20.02704699455838
 10
445.0286515867104
 20
256.7655082843742
 30
0.0
 10
446.0831798557887
 20
257.2526370185784
 30
0.0
 10
448.8425751667046
 20
258.5273119461177
 30
0.0
 10
449.5075120730646
 20
267.425768818936
 30
0.0
 10
445.5742090539183
 20
261.0256819949941
 30
0.0
 10
445.7464452501193
 20
257.7766644364254
 30
0.0
 10
447.8187269477689
 20
256.5038453596157
 30
0.0
 10
448.7353310260049
 20
256.9623624434853
 30
0.0
 10
449.1206328060749
 20
257.1551037292839
 30
0.0
 11
445.0286515867104
 21
256.7655082843742
 31
0.0
 11
447.8540670196591
 21
258.9082924075706
 31
0.0
 11
448.4873499128668
 21
264.6061501062864
 31
0.0
 11
446.0029335130086
 21
260.7101791400418
 31
0.0
 11
446.441360499471
 21
257.5447010094323
 31
0.0
 11
447.9514949730319
 21
256.7655082843742
 31
0.0
 11
449.1206328060749
 21
257.1551037292839
 31
0.0
  0
MTEXT
  5
576E
102
{ACAD_XDICTIONARY
360
576F
102
}
330
1A
100
AcDbEntity
  8
寸法線
 48
10.0
100
AcDbMText
 10
447.683031957879
 20
250.719951560993
 30
0.0
 40
8.0
 41
104.940745969905
 71
     2
 72
     5
  1
1000\P2000\P3000\P4000\P5000\P6000\P7000\P8000\P9000\P10000
1001
ACADANNOTATIVE
1000
AnnotativeData
1002
{
1070
     1
1070
     0
1002
}
  0
LINE
  5
5772
330
1A
100
AcDbEntity
  8
寸法線
 48
10.0
100
AcDbLine
 10
466.52932015111
 20
267.646732592387
 30
0.0
 11
466.52932015111
 21
122.04432443934
 31
0.0
  0
MTEXT
  5
5773
330
1A
100
AcDbEntity
  8
寸法線
 48
10.0
100
AcDbMText
 10
503.117013963578
 20
264.428914934361
 30
0.0
 40
8.0
 41
19.321844296148
 71
     1
 72
     5
  1
記事
  0
MTEXT
  5
5774
330
1A
100
AcDbEntity
  8
寸法線
 48
10.0
100
AcDbMText
 10
569.535856541639
 20
264.428914934361
 30
0.0
 40
8.0
 41
27.29696969697
 71
     1
 72
     5
  1
台数\P\P 
  0
TEXT
  5
5775
330
1A
100
AcDbEntity
  8
寸法線
 48
10.0
100
AcDbText
 10
452.657056531876
 20
110.520724174525
 30
0.0
 40
8.0
  1
○印が今回の貴社の御仕様です。
100
AcDbText
  0
LINE
  5
5776
330
1A
100
AcDbEntity
  8
寸法線
100
AcDbLine
 10
318.268231643881
 20
149.155723731772
 30
0.0
 11
593.972152678218
 21
149.155723731772
 31
0.0
  0
LINE
  5
5777
330
1A
100
AcDbEntity
  8
寸法線
100
AcDbLine
 10
318.268231643881
 20
135.096950546917
 30
0.0
 11
593.972152678218
 21
135.096950546917
 31
0.0
  0
LINE
  5
5778
330
1A
100
AcDbEntity
  8
寸法線
100
AcDbLine
 10
318.268231643881
 20
122.04432443934
 30
0.0
 11
593.972152678218
 21
122.04432443934
 31
0.0
  0
ARC
  5
578D
330
1A
100
AcDbEntity
  8
外形線
 48
10.0
100
AcDbCircle
 10
474.443647827309
 20
393.763933493541
 30
0.0
 40
1.0
100
AcDbArc
 50
180.0
 51
268.999999999998
  0
ARC
  5
578E
330
1A
100
AcDbEntity
  8
外形線
 48
10.0
100
AcDbCircle
 10
474.443647827309
 20
436.311934600871
 30
0.0
 40
1.0
100
AcDbArc
 50
91.000000000002
 51
180.0
  0
LINE
  5
578F
330
1A
100
AcDbEntity
  8
外形線
 48
10.0
100
AcDbLine
 10
473.443647827309
 20
436.311934600871
 30
0.0
 11
473.443647827309
 21
393.763933493541
 31
0.0
  0
LINE
  5
5790
330
1A
100
AcDbEntity
  8
外形線
 48
10.0
100
AcDbLine
 10
487.571430668378
 20
438.296012151606
 30
0.0
 11
493.823863912446
 21
463.373152195118
 31
0.0
  0
ARC
  5
5791
330
1A
100
AcDbEntity
  8
外形線
 48
10.0
100
AcDbCircle
 10
498.675342543826
 20
462.16354271712
 30
0.0
 40
5.0
100
AcDbArc
 50
91.3
 51
166.000000000005
  0
ARC
  5
5792
330
1A
100
AcDbEntity
  8
外形線
 48
10.0
100
AcDbCircle
 10
486.601134942102
 20
438.537934047206
 30
0.0
 40
1.0
100
AcDbArc
 50
270.0
 51
346.000000000009
  0
ARC
  5
5793
330
1A
100
AcDbEntity
  8
外形線
 48
10.0
100
AcDbCircle
 10
486.601134942102
 20
438.537934047206
 30
0.0
 40
1.0
100
AcDbArc
 50
270.0
 51
346.000000000009
  0
LINE
  5
5794
330
1A
100
AcDbEntity
  8
外形線
 48
10.0
100
AcDbLine
 10
474.426195420872
 20
437.311782296028
 30
0.0
 11
486.601134942102
 21
437.537934047206
 31
0.0
  0
ARC
  5
5795
330
1A
100
AcDbEntity
  8
外形線
 48
10.0
100
AcDbCircle
 10
575.444687057011
 20
472.287382639759
 30
0.0
 40
0.5
100
AcDbArc
 50
359.999254274577
 51
88.999999999998
  0
ARC
  5
5796
330
1A
100
AcDbEntity
  8
細線
 48
10.0
100
AcDbCircle
 10
576.443647827309
 20
428.170975798675
 30
0.0
 40
0.5
100
AcDbArc
 50
180.0
 51
264.089361084594
  0
ARC
  5
5797
330
1A
100
AcDbEntity
  8
外形線
 48
10.0
100
AcDbCircle
 10
576.443647827309
 20
420.796585415648
 30
0.0
 40
0.5
100
AcDbArc
 50
91.000000000002
 51
180.0
  0
ARC
  5
5798
330
1A
100
AcDbEntity
  8
細線
 48
10.0
100
AcDbCircle
 10
576.443647827309
 20
428.429794843777
 30
0.0
 40
0.5
100
AcDbArc
 50
180.0
 51
264.089361084594
  0
ARC
  5
5799
330
1A
100
AcDbEntity
  8
細線
 48
10.0
100
AcDbCircle
 10
576.443647827309
 20
450.064360211379
 30
0.0
 40
0.5
100
AcDbArc
 50
180.0
 51
254.206830951723
  0
ARC
  5
579A
330
1A
100
AcDbEntity
  8
細線
 48
10.0
100
AcDbCircle
 10
576.443647827309
 20
450.771466992565
 30
0.0
 40
0.5
100
AcDbArc
 50
180.0
 51
254.206830951723
  0
ARC
  5
579B
330
1A
100
AcDbEntity
  8
細線
 48
10.0
100
AcDbCircle
 10
576.443647827309
 20
462.711137231634
 30
0.0
 40
0.5
100
AcDbArc
 50
180.0
 51
248.874947125992
  0
ARC
  5
579C
330
1A
100
AcDbEntity
  8
細線
 48
10.0
100
AcDbCircle
 10
576.443647827309
 20
463.677063057924
 30
0.0
 40
0.5
100
AcDbArc
 50
180.0
 51
248.874947125992
  0
ARC
  5
579D
330
1A
100
AcDbEntity
  8
外形線
 48
10.0
100
AcDbCircle
 10
576.44353574939
 20
464.983229500302
 30
0.0
 40
0.5
100
AcDbArc
 50
180.019033969441
 51
248.025023881981
  0
LINE
  5
579E
330
1A
100
AcDbEntity
  8
外形線
 48
10.0
100
AcDbLine
 10
575.943647827309
 20
463.677063057924
 30
0.0
 11
575.943647827309
 21
464.645771129667
 31
0.0
  0
LINE
  5
579F
330
1A
100
AcDbEntity
  8
外形線
 48
10.0
100
AcDbLine
 10
575.943647827309
 20
462.711137231634
 30
0.0
 11
575.943647827309
 21
463.334225361658
 31
0.0
  0
LINE
  5
57A0
330
1A
100
AcDbEntity
  8
外形線
 48
10.0
100
AcDbLine
 10
575.943647827309
 20
450.771466992565
 30
0.0
 11
575.943647827309
 21
462.368299535369
 31
0.0
  0
LINE
  5
57A1
330
1A
100
AcDbEntity
  8
外形線
 48
10.0
100
AcDbLine
 10
575.943647827309
 20
450.064360211379
 30
0.0
 11
575.943647827309
 21
450.393273106532
 31
0.0
  0
LINE
  5
57A2
330
1A
100
AcDbEntity
  8
外形線
 48
10.0
100
AcDbLine
 10
575.943647827309
 20
428.429794843777
 30
0.0
 11
575.943647827309
 21
450.771466992565
 31
0.0
  0
LINE
  5
57A3
330
1A
100
AcDbEntity
  8
外形線
 48
10.0
100
AcDbLine
 10
575.943647827309
 20
428.170975798675
 30
0.0
 11
575.943647827309
 21
429.051302282772
 31
0.0
  0
LINE
  5
57A4
330
1A
100
AcDbEntity
  8
外形線
 48
10.0
100
AcDbLine
 10
575.943647827309
 20
420.796585415648
 30
0.0
 11
575.943647827309
 21
428.429794843777
 31
0.0
  0
ARC
  5
57A5
330
1A
100
AcDbEntity
  8
外形線
 48
10.0
100
AcDbCircle
 10
576.443647827309
 20
409.279282678764
 30
0.0
 40
0.5
100
AcDbArc
 50
180.0
 51
268.999999999998
  0
LINE
  5
57A6
330
1A
100
AcDbEntity
  8
外形線
 48
10.0
100
AcDbLine
 10
575.943647827309
 20
409.279282678764
 30
0.0
 11
575.943647827309
 21
420.796585415648
 31
0.0
  0
ARC
  5
57A7
330
1A
100
AcDbEntity
  8
外形線
 48
10.0
100
AcDbCircle
 10
587.941768571022
 20
408.078429906586
 30
0.0
 40
0.5
100
AcDbArc
 50
0.002863323122
 51
88.999999999998
  0
ARC
  5
57A8
330
1A
100
AcDbEntity
  8
外形線
 48
10.0
100
AcDbCircle
 10
587.941768571022
 20
421.997438187826
 30
0.0
 40
0.5
100
AcDbArc
 50
271.000000000002
 51
359.997136676878
  0
ARC
  5
57A9
330
1A
100
AcDbEntity
  8
細線
 48
10.0
100
AcDbCircle
 10
587.943482035429
 20
426.233899699411
 30
0.0
 40
0.5
100
AcDbArc
 50
359.97893674797
 51
84.089361084594
  0
ARC
  5
57AA
330
1A
100
AcDbEntity
  8
細線
 48
10.0
100
AcDbCircle
 10
587.941967359218
 20
425.975237465128
 30
0.0
 40
0.5
100
AcDbArc
 50
359.997136676878
 51
84.089361084594
  0
ARC
  5
57AB
330
1A
100
AcDbEntity
  8
細線
 48
10.0
100
AcDbCircle
 10
587.943527592559
 20
457.195879162798
 30
0.0
 40
0.5
100
AcDbArc
 50
359.997136676878
 51
68.874947125992
  0
ARC
  5
57AC
330
1A
100
AcDbEntity
  8
細線
 48
10.0
100
AcDbCircle
 10
587.943575863206
 20
458.161786338743
 30
0.0
 40
0.5
100
AcDbArc
 50
359.997136676878
 51
68.874947125992
  0
ARC
  5
57AD
330
1A
100
AcDbEntity
  8
外形線
 48
10.0
100
AcDbCircle
 10
587.943630965
 20
459.264386381249
 30
0.0
 40
0.5
100
AcDbArc
 50
359.997136676878
 51
68.025023881981
  0
LINE
  5
57AE
330
1A
100
AcDbEntity
  8
外形線
 48
10.0
100
AcDbLine
 10
587.95049477424
 20
421.497514340248
 30
0.0
 11
576.43492162409
 21
421.296509263226
 31
0.0
  0
LINE
  5
57AF
330
1A
100
AcDbEntity
  8
外形線
 48
10.0
100
AcDbLine
 10
587.95049477424
 20
408.578353754164
 30
0.0
 11
576.43492162409
 21
408.779358831185
 31
0.0
  0
LINE
  5
57B0
330
1A
100
AcDbEntity
  8
外形線
 48
10.0
100
AcDbLine
 10
576.256434943911
 20
464.519555812684
 30
0.0
 11
588.130731770478
 21
459.728060068867
 31
0.0
  0
LINE
  5
57B1
330
1A
100
AcDbEntity
  8
細線
 48
10.0
100
AcDbLine
 10
587.993455976975
 20
426.472579321643
 30
0.0
 11
576.392159209552
 21
427.67363394216
 31
0.0
  0
LINE
  5
57B2
330
1A
100
AcDbEntity
  8
細線
 48
10.0
100
AcDbLine
 10
587.994970653186
 20
426.731241555926
 30
0.0
 11
576.392159209552
 21
427.932452987263
 31
0.0
  0
LINE
  5
57B3
330
1A
100
AcDbEntity
  8
細線
 48
10.0
100
AcDbLine
 10
588.079074822789
 20
446.960856018094
 30
0.0
 11
576.307565063821
 21
450.290341768241
 31
0.0
  0
LINE
  5
57B4
330
1A
100
AcDbEntity
  8
細線
 48
10.0
100
AcDbLine
 10
588.123729948769
 20
457.662277180393
 30
0.0
 11
576.263445471099
 21
462.24473921404
 31
0.0
  0
LINE
  5
57B5
330
1A
100
AcDbEntity
  8
細線
 48
10.0
100
AcDbLine
 10
588.123778219416
 20
458.628184356337
 30
0.0
 11
576.263445471099
 21
463.210665040329
 31
0.0
  0
LINE
  5
57B6
330
1A
100
AcDbEntity
  8
外形線
 48
10.0
100
AcDbLine
 10
561.444683730939
 20
473.037934047206
 30
0.0
 11
575.453413260229
 21
472.787306487337
 31
0.0
  0
LINE
  5
57B7
330
1A
100
AcDbEntity
  8
外形線
 48
10.0
100
AcDbLine
 10
561.444683730939
 20
473.037934047206
 30
0.0
 11
560.944683730939
 21
472.531829770833
 31
0.0
  0
LINE
  5
57B8
330
1A
100
AcDbEntity
  8
外形線
 48
10.0
100
AcDbLine
 10
560.944683730939
 20
471.544038323579
 30
0.0
 11
560.944683730939
 21
471.044038323579
 31
0.0
  0
ARC
  5
57B9
330
1A
100
AcDbEntity
  8
外形線
 48
10.0
100
AcDbCircle
 10
551.543647827309
 20
472.765712494173
 30
0.0
 40
4.4
100
AcDbArc
 50
271.299999999999
 51
0.0
  0
LINE
  5
57BA
330
1A
100
AcDbEntity
  8
外形線
 48
10.0
100
AcDbLine
 10
498.561905875962
 20
467.162255763733
 30
0.0
 11
551.643472095029
 21
468.366845013153
 31
0.0
  0
LINE
  5
57BB
330
1A
100
AcDbEntity
  8
外形線
 48
10.0
100
AcDbLine
 10
555.943647827308
 20
473.037934047206
 30
0.0
 11
555.943647827308
 21
472.765712494173
 31
0.0
  0
LINE
  5
57BC
330
1A
100
AcDbEntity
  8
外形線
 48
10.0
100
AcDbLine
 10
558.943647827308
 20
473.037934047206
 30
0.0
 11
555.943647827308
 21
473.037934047206
 31
0.0
  0
ARC
  5
57BD
330
1A
100
AcDbEntity
  8
外形線
 48
10.0
100
AcDbCircle
 10
560.443647827308
 20
470.512934047206
 30
0.0
 40
1.500000000000156
100
AcDbArc
 50
70.528779365512
 51
179.999999999991
  0
LINE
  5
57BE
330
1A
100
AcDbEntity
  8
細線
 48
10.0
100
AcDbLine
 10
561.444683730939
 20
473.037934047206
 30
0.0
 11
561.444683730939
 21
357.037934047206
 31
0.0
  0
LINE
  5
57BF
330
1A
100
AcDbEntity
  8
細線
 48
10.0
100
AcDbLine
 10
561.444683730939
 20
473.031829770833
 30
0.0
 11
561.444683730939
 21
357.044038323579
 31
0.0
  0
LINE
  5
57C0
330
1A
100
AcDbEntity
  8
外形線
 48
10.0
100
AcDbLine
 10
575.943647827309
 20
393.307597543502
 30
0.0
 11
575.943647827309
 21
380.011507883033
 31
0.0
  0
ARC
  5
57C1
330
1A
100
AcDbEntity
  8
細線
 48
10.0
100
AcDbCircle
 10
576.443647827309
 20
367.364730862777
 30
0.0
 40
0.5
100
AcDbArc
 50
111.125052874008
 51
180.0
  0
ARC
  5
57C2
330
1A
100
AcDbEntity
  8
細線
 48
10.0
100
AcDbCircle
 10
576.443189129822
 20
366.398627809388
 30
0.0
 40
0.5
100
AcDbArc
 50
111.125052874008
 51
179.923306313171
  0
ARC
  5
57C3
330
1A
100
AcDbEntity
  8
細線
 48
10.0
100
AcDbCircle
 10
576.443647827309
 20
380.011507883033
 30
0.0
 40
0.5
100
AcDbArc
 50
105.793169048277
 51
180.0
  0
ARC
  5
57C4
330
1A
100
AcDbEntity
  8
細線
 48
10.0
100
AcDbCircle
 10
576.443647827309
 20
379.304401101846
 30
0.0
 40
0.5
100
AcDbArc
 50
105.793169048277
 51
180.0
  0
ARC
  5
57C5
330
1A
100
AcDbEntity
  8
細線
 48
10.0
100
AcDbCircle
 10
576.443647827309
 20
401.646073250634
 30
0.0
 40
0.5
100
AcDbArc
 50
95.910638915406
 51
180.0
  0
ARC
  5
57C6
330
1A
100
AcDbEntity
  8
細線
 48
10.0
100
AcDbCircle
 10
576.443647827309
 20
401.904892295737
 30
0.0
 40
0.5
100
AcDbArc
 50
95.910638915406
 51
180.0
  0
LINE
  5
57C7
330
1A
100
AcDbEntity
  8
外形線
 48
10.0
100
AcDbLine
 10
575.943647827309
 20
401.646073250634
 30
0.0
 11
575.943647827309
 21
409.279282678764
 31
0.0
  0
LINE
  5
57C8
330
1A
100
AcDbEntity
  8
外形線
 48
10.0
100
AcDbLine
 10
575.943647827309
 20
402.096981792081
 30
0.0
 11
575.943647827309
 21
402.355800837184
 31
0.0
  0
LINE
  5
57C9
330
1A
100
AcDbEntity
  8
外形線
 48
10.0
100
AcDbLine
 10
575.943647827309
 20
393.307597543502
 30
0.0
 11
575.943647827309
 21
401.646073250634
 31
0.0
  0
LINE
  5
57CA
330
1A
100
AcDbEntity
  8
外形線
 48
10.0
100
AcDbLine
 10
575.943647827309
 20
379.304401101846
 30
0.0
 11
575.943647827309
 21
380.011507883033
 31
0.0
  0
LINE
  5
57CB
330
1A
100
AcDbEntity
  8
外形線
 48
10.0
100
AcDbLine
 10
575.943647827309
 20
367.364730862777
 30
0.0
 11
575.943647827309
 21
379.304401101846
 31
0.0
  0
LINE
  5
57CC
330
1A
100
AcDbEntity
  8
外形線
 48
10.0
100
AcDbLine
 10
575.943189577756
 20
366.399297087863
 30
0.0
 11
575.943647827309
 21
367.364730862777
 31
0.0
  0
LINE
  5
57CD
330
1A
100
AcDbEntity
  8
外形線
 48
10.0
100
AcDbLine
 10
575.941439407077
 20
365.091792681681
 30
0.0
 11
575.943189577756
 21
366.399297087863
 31
0.0
  0
ARC
  5
57CE
330
1A
100
AcDbEntity
  8
外形線
 48
10.0
100
AcDbCircle
 10
576.441439407077
 20
365.091792681681
 30
0.0
 40
0.5
100
AcDbArc
 50
111.974976118019
 51
180.0
  0
ARC
  5
57CF
330
1A
100
AcDbEntity
  8
細線
 48
10.0
100
AcDbCircle
 10
587.943616325461
 20
384.303420650964
 30
0.0
 40
0.5
100
AcDbArc
 50
285.793169048277
 51
0.004772330151
  0
ARC
  5
57D0
330
1A
100
AcDbEntity
  8
細線
 48
10.0
100
AcDbCircle
 10
587.943647827309
 20
383.596322779844
 30
0.0
 40
0.5
100
AcDbArc
 50
285.793169048277
 51
0.0
  0
ARC
  5
57D1
330
1A
100
AcDbEntity
  8
細線
 48
10.0
100
AcDbCircle
 10
587.943647827309
 20
372.880035386754
 30
0.0
 40
0.5
100
AcDbArc
 50
291.125052874008
 51
0.0
  0
ARC
  5
57D2
330
1A
100
AcDbEntity
  8
細線
 48
10.0
100
AcDbCircle
 10
587.943647827309
 20
371.914109560463
 30
0.0
 40
0.5
100
AcDbArc
 50
291.125052874008
 51
0.0
  0
ARC
  5
57D3
330
1A
100
AcDbEntity
  8
外形線
 48
10.0
100
AcDbCircle
 10
587.943647827309
 20
370.811488517412
 30
0.0
 40
0.5
100
AcDbArc
 50
291.974976118019
 51
0.0
  0
LINE
  5
57D4
330
1A
100
AcDbEntity
  8
外形線
 48
10.0
100
AcDbLine
 10
588.443647827309
 20
371.914109560463
 30
0.0
 11
588.443647827309
 21
370.811488517412
 31
0.0
  0
LINE
  5
57D5
330
1A
100
AcDbEntity
  8
外形線
 48
10.0
100
AcDbLine
 10
588.443647827309
 20
372.880035386754
 30
0.0
 11
588.443647827309
 21
371.914109560463
 31
0.0
  0
LINE
  5
57D6
330
1A
100
AcDbEntity
  8
外形線
 48
10.0
100
AcDbLine
 10
588.443647827309
 20
383.596322779844
 30
0.0
 11
588.443647827309
 21
372.880035386754
 31
0.0
  0
LINE
  5
57D7
330
1A
100
AcDbEntity
  8
外形線
 48
10.0
100
AcDbLine
 10
588.443616323726
 20
384.303462297401
 30
0.0
 11
588.443647827309
 21
383.596322779844
 31
0.0
  0
LINE
  5
57D8
330
1A
100
AcDbEntity
  8
外形線
 48
10.0
100
AcDbLine
 10
588.441967358594
 20
404.100655616492
 30
0.0
 11
588.443616323726
 21
384.303462297401
 31
0.0
  0
ARC
  5
57D9
330
1A
100
AcDbEntity
  8
細線
 48
10.0
100
AcDbCircle
 10
587.941916385166
 20
403.841806306958
 30
0.0
 40
0.5
100
AcDbArc
 50
275.910638915406
 51
0.001999028164
  0
ARC
  5
57DA
330
1A
100
AcDbEntity
  8
細線
 48
10.0
100
AcDbCircle
 10
587.941967359218
 20
404.100630629284
 30
0.0
 40
0.5
100
AcDbArc
 50
275.910638915406
 51
0.002863323122
  0
ARC
  5
57DB
330
1A
100
AcDbEntity
  8
外形線
 48
10.0
100
AcDbCircle
 10
575.442608612815
 20
357.788449175274
 30
0.0
 40
0.5
100
AcDbArc
 50
271.000000000002
 51
359.984453673186
  0
LINE
  5
57DC
330
1A
100
AcDbEntity
  8
外形線
 48
10.0
100
AcDbLine
 10
588.441768570397
 20
408.078454893794
 30
0.0
 11
588.441916384862
 21
403.84182375177
 31
0.0
  0
LINE
  5
57DD
330
1A
100
AcDbEntity
  8
外形線
 48
10.0
100
AcDbLine
 10
576.254338601598
 20
365.555466369299
 30
0.0
 11
588.130748632787
 21
370.347814829794
 31
0.0
  0
LINE
  5
57DE
330
1A
100
AcDbEntity
  8
細線
 48
10.0
100
AcDbLine
 10
588.123850183519
 20
372.413637369159
 30
0.0
 11
576.263445471099
 21
367.831128880372
 31
0.0
  0
LINE
  5
57DF
330
1A
100
AcDbEntity
  8
細線
 48
10.0
100
AcDbLine
 10
588.123850183519
 20
371.447711542868
 30
0.0
 11
576.262986773612
 21
366.865025826983
 31
0.0
  0
LINE
  5
57E0
330
1A
100
AcDbEntity
  8
細線
 48
10.0
100
AcDbLine
 10
588.079730590797
 20
383.115197555519
 30
0.0
 11
576.307565063821
 21
379.785526326171
 31
0.0
  0
LINE
  5
57E1
330
1A
100
AcDbEntity
  8
細線
 48
10.0
100
AcDbLine
 10
588.079699088949
 20
383.822295426639
 30
0.0
 11
576.307565063821
 21
380.492633107358
 31
0.0
  0
LINE
  5
57E2
330
1A
100
AcDbEntity
  8
細線
 48
10.0
100
AcDbLine
 10
587.993405002924
 20
403.344464450444
 30
0.0
 11
576.392159209552
 21
402.143415107149
 31
0.0
  0
LINE
  5
57E3
330
1A
100
AcDbEntity
  8
細線
 48
10.0
100
AcDbLine
 10
587.993455976975
 20
403.603288772769
 30
0.0
 11
576.392159209552
 21
402.402234152251
 31
0.0
  0
LINE
  5
57E4
330
1A
100
AcDbEntity
  8
外形線
 48
10.0
100
AcDbLine
 10
575.944592205868
 20
365.098886823799
 30
0.0
 11
575.94260859441
 21
357.788313507981
 31
0.0
  0
LINE
  5
57E5
330
1A
100
AcDbEntity
  8
外形線
 48
10.0
100
AcDbLine
 10
575.944687056968
 20
472.287376132077
 30
0.0
 11
575.94260859441
 21
357.788313507981
 31
0.0
  0
LINE
  5
57E6
330
1A
100
AcDbEntity
  8
外形線
 48
10.0
100
AcDbLine
 10
560.944683730939
 20
472.531829770833
 30
0.0
 11
560.944683730939
 21
357.544038323579
 31
0.0
  0
LINE
  5
57E7
330
1A
100
AcDbEntity
  8
外形線
 48
10.0
100
AcDbLine
 10
561.444683730939
 20
357.037934047206
 30
0.0
 11
575.451334816034
 21
357.288525327696
 31
0.0
  0
LINE
  5
57E8
330
1A
100
AcDbEntity
  8
外形線
 48
10.0
100
AcDbLine
 10
561.444683730939
 20
357.037934047206
 30
0.0
 11
560.944683730939
 21
357.544038323579
 31
0.0
  0
LINE
  5
57E9
330
1A
100
AcDbEntity
  8
外形線
 48
10.0
100
AcDbLine
 10
560.944683730939
 20
358.544038323579
 30
0.0
 11
560.944683730939
 21
359.044038323579
 31
0.0
  0
LINE
  5
57EA
330
1A
100
AcDbEntity
  8
外形線
 48
10.0
100
AcDbLine
 10
487.568053768086
 20
391.793399950114
 30
0.0
 11
493.823863912446
 21
366.702715899294
 31
0.0
  0
ARC
  5
57EB
330
1A
100
AcDbEntity
  8
外形線
 48
10.0
100
AcDbCircle
 10
498.675342543826
 20
367.912325377292
 30
0.0
 40
5.0
100
AcDbArc
 50
193.999999999995
 51
268.7
  0
ARC
  5
57EC
330
1A
100
AcDbEntity
  8
外形線
 48
10.0
100
AcDbCircle
 10
486.59775804181
 20
391.551478054514
 30
0.0
 40
1.0
100
AcDbArc
 50
13.999999999991
 51
89.000000000011
  0
ARC
  5
57ED
330
1A
100
AcDbEntity
  8
外形線
 48
10.0
100
AcDbCircle
 10
521.943647827309
 20
361.382748921546
 30
0.0
 40
1.0
100
AcDbArc
 50
0.0
 51
88.7
  0
ARC
  5
57EE
330
1A
100
AcDbEntity
  8
外形線
 48
10.0
100
AcDbCircle
 10
523.943647827309
 20
351.537934047206
 30
0.0
 40
1.0
100
AcDbArc
 50
180.0
 51
270.0
  0
ARC
  5
57EF
330
1A
100
AcDbEntity
  8
外形線
 48
10.0
100
AcDbCircle
 10
557.943647827308
 20
351.537934047206
 30
0.0
 40
1.0
100
AcDbArc
 50
270.0
 51
0.0
  0
LINE
  5
57F0
330
1A
100
AcDbEntity
  8
外形線
 48
10.0
100
AcDbLine
 10
522.943647827309
 20
351.537934047206
 30
0.0
 11
522.943647827309
 21
361.382748921546
 31
0.0
  0
LINE
  5
57F1
330
1A
100
AcDbEntity
  8
外形線
 48
10.0
100
AcDbLine
 10
498.561905875962
 20
362.913612330679
 30
0.0
 11
551.643472095029
 21
361.709023081258
 31
0.0
  0
LINE
  5
57F2
330
1A
100
AcDbEntity
  8
外形線
 48
10.0
100
AcDbLine
 10
474.426195420871
 20
392.764085798384
 30
0.0
 11
486.615210448247
 21
392.55132574967
 31
0.0
  0
LINE
  5
57F3
330
1A
100
AcDbEntity
  8
外形線
 48
10.0
100
AcDbLine
 10
558.943647827308
 20
361.062934047206
 30
0.0
 11
558.943647827308
 21
351.537934047206
 31
0.0
  0
LINE
  5
57F4
330
1A
100
AcDbEntity
  8
外形線
 48
10.0
100
AcDbLine
 10
558.943647827308
 20
361.062934047206
 30
0.0
 11
558.943647827308
 21
473.037934047206
 31
0.0
  0
LINE
  5
57F5
330
1A
100
AcDbEntity
  8
外形線
 48
10.0
100
AcDbLine
 10
557.943647827308
 20
350.537934047206
 30
0.0
 11
523.943647827309
 21
350.537934047206
 31
0.0
  0
LINE
  5
57F6
330
1A
100
AcDbEntity
  8
外形線
 48
10.0
100
AcDbLine
 10
555.943647827309
 20
357.310155600239
 30
0.0
 11
555.943647827308
 21
357.044038323579
 31
0.0
  0
LINE
  5
57F7
330
1A
100
AcDbEntity
  8
外形線
 48
10.0
100
AcDbLine
 10
558.943647827308
 20
357.044038323579
 30
0.0
 11
555.943647827308
 21
357.044038323579
 31
0.0
  0
ARC
  5
57F8
330
1A
100
AcDbEntity
  8
外形線
 48
10.0
100
AcDbCircle
 10
560.443647827308
 20
359.562934047205
 30
0.0
 40
1.499999999999659
100
AcDbArc
 50
179.999999999983
 51
289.471220634513
  0
ARC
  5
57F9
330
1A
100
AcDbEntity
  8
外形線
 48
10.0
100
AcDbCircle
 10
551.543647827309
 20
357.310155600239
 30
0.0
 40
4.4
100
AcDbArc
 50
0.0
 51
88.700000000001
  0
LINE
  5
57FA
330
1A
100
AcDbEntity
  8
細線
 48
10.0
100
AcDbLine
 10
555.943647827308
 20
473.037934047206
 30
0.0
 11
555.943647827309
 21
357.310155600239
 31
0.0
  0
LINE
  5
57FB
330
1A
100
AcDbEntity
  8
細線
 48
10.0
100
AcDbLine
 10
487.382420568609
 20
392.537934047206
 30
0.0
 11
487.386055783271
 21
437.552514096861
 31
0.0
  0
LINE
  5
57FC
330
1A
100
AcDbEntity
  8
細線
 48
10.0
100
AcDbLine
 10
494.747008681987
 20
465.256792314215
 30
0.0
 11
494.747008681987
 21
364.819075780197
 31
0.0
  0
LINE
  5
57FD
330
1A
100
AcDbEntity
  8
外形線
 48
10.0
100
AcDbLine
 10
588.443630964375
 20
459.264361394041
 30
0.0
 11
588.441768570397
 21
421.997413200618
 31
0.0
  0
ARC
  5
57FE
330
1A
100
AcDbEntity
  8
細線
 48
10.0
100
AcDbCircle
 10
587.942956722552
 20
445.772634007324
 30
0.0
 40
0.5
100
AcDbArc
 50
359.997136676878
 51
74.206830951723
  0
ARC
  5
57FF
330
1A
100
AcDbEntity
  8
細線
 48
10.0
100
AcDbCircle
 10
587.942992059301
 20
446.47973079377
 30
0.0
 40
0.5
100
AcDbArc
 50
359.997136676878
 51
74.206830951723
  0
LINE
  5
5800
330
1A
100
AcDbEntity
  8
細線
 48
10.0
100
AcDbLine
 10
588.07903948604
 20
446.253759231648
 30
0.0
 11
576.307565063821
 21
449.583234987054
 31
0.0
  0
LINE
  5
5801
330
1A
100
AcDbEntity
  8
中心線
 48
10.0
100
AcDbLine
 10
540.943647827309
 20
367.766517696615
 30
0.0
 11
540.943647827309
 21
343.469164489023
 31
0.0
  0
VIEWPORT
  5
2902
330
28FB
100
AcDbEntity
 67
     1
  8
0
 48
10.0
100
AcDbViewport
 10
0.0
 20
0.0
 30
0.0
 40
502.486659064994
 41
285.6
 68
     1
 69
     1
1001
ACAD
1000
MVIEW
1002
{
1070
    16
1010
0.0
1020
0.0
1030
0.0
1010
0.0
1020
0.0
1030
1.0
1040
0.0
1040
285.6
1040
204.746305129083
1040
142.201435859175
1040
50.0
1040
0.0
1040
0.0
1070
    16
1070
   100
1070
     0
1070
     1
1070
     0
1070
     0
1070
     0
1070
     0
1040
0.0
1040
0.0
1040
0.0
1040
10.0
1040
10.0
1040
10.0
1040
10.0
1070
     0
1002
{
1002
}
1002
}
  0
VIEWPORT
  5
2904
330
28FB
100
AcDbEntity
 67
     1
  8
図枠太線
 48
10.0
100
AcDbViewport
 10
204.746305129083
 20
162.201435859175
 30
0.0
 40
400.0
 41
240.0
 68
     2
 69
     2
1001
ACAD
1000
MVIEW
1002
{
1070
    16
1010
0.0
1020
0.0
1030
0.0
1010
0.0
1020
0.0
1030
1.0
1040
0.0
1040
480.000003578159
1040
282.611713550006
1040
341.364015912703
1040
50.0
1040
0.0
1040
0.0
1070
     0
1070
   100
1070
     0
1070
     0
1070
     0
1070
     0
1070
     0
1070
     0
1040
0.0
1040
0.0
1040
0.0
1040
1.0
1040
1.0
1040
0.0
1040
0.0
1070
     0
1002
{
1002
}
1002
}
  0
INSERT
  5
2A59
330
28FB
100
AcDbEntity
 67
     1
  8
図枠太線
100
AcDbBlockReference
  2
A3横用_タイトル
 10
-0.352109406709
 20
-1.324523894352
 30
0.0
  0
MTEXT
  5
2E70
330
28FB
100
AcDbEntity
 67
     1
  8
寸法線
 48
10.0
100
AcDbMText
 10
142.67231933437
 20
49.746187651432
 30
0.0
 40
5.0
 41
59.487124795261
 71
     1
 72
     5
  1
A3縮小図
  0
MTEXT
  5
2E71
102
{ACAD_XDICTIONARY
360
5779
102
}
330
28FB
100
AcDbEntity
 67
     1
  8
寸法線
 48
10.0
100
AcDbMText
 10
371.895692395313
 20
51.054215030215
 30
0.0
 40
5.0
 41
52.963194444444
 71
     1
 72
     5
  1
台数 　 台
1001
ACADANNOTATIVE
1000
AnnotativeData
1002
{
1070
     1
1070
     0
1002
}
  0
LINE
  5
2E72
330
28FB
100
AcDbEntity
 67
     1
  8
寸法線
 48
10.0
100
AcDbLine
 10
141.738697383326
 20
43.362588565173
 30
0.0
 11
167.373560993143
 21
43.362588565173
 31
0.0
  0
MTEXT
  5
2E85
330
28FB
100
AcDbEntity
 67
     1
  8
寸法線
 48
10.0
100
AcDbMText
 10
149.12611673873
 20
15.060035426457
 30
0.0
 40
5.0
 41
11.452149180996
 71
     1
 72
     5
  1
{\H1.4x;1:2}
  0
MTEXT
  5
597A
102
{ACAD_XDICTIONARY
360
597B
102
}
330
28FB
100
AcDbEntity
 67
     1
  8
寸法線
 48
10.0
100
AcDbMText
 10
178.291713392339
 20
13.183045973556
 30
0.0
 40
5.0
 41
31.372065131184
 71
     1
 72
     5
  1
\H0.9x;2016.8.4
1001
ACADANNOTATIVE
1000
AnnotativeData
1002
{
1070
     1
1070
     0
1002
}
  0
MTEXT
  5
597E
102
{ACAD_XDICTIONARY
360
597F
102
}
330
28FB
100
AcDbEntity
 67
     1
  8
寸法線
 48
10.0
100
AcDbMText
 10
173.844001466027
 20
32.931689921319
 30
0.0
 40
5.0
 41
31.372065131184
 71
     1
 72
     5
  1
takahashi
1001
ACADANNOTATIVE
1000
AnnotativeData
1002
{
1070
     1
1070
     0
1002
}
  0
MTEXT
  5
5A6F
102
{ACAD_XDICTIONARY
360
5A70
102
}
330
28FB
100
AcDbEntity
 67
     1
  8
寸法線
 48
10.0
100
AcDbMText
 10
310.214176586136
 20
33.768582300535
 30
0.0
 40
6.0
 41
58.239684951579
 71
     1
 72
     5
  1
TSA-A4WA-□
1001
ACADANNOTATIVE
1000
AnnotativeData
1002
{
1070
     1
1070
     0
1002
}
  0
MTEXT
  5
5AA1
330
28FB
100
AcDbEntity
 67
     1
  8
寸法線
 48
10.0
100
AcDbMText
 10
370.673835800578
 20
37.70141244174
 30
0.0
 40
4.0
 41
39.417543602742
 71
     1
 72
     5
  1
{\H1.125x;静電容量式\Pレベルセンサ}
  0
MTEXT
  5
5AD4
102
{ACAD_XDICTIONARY
360
5AD5
102
}
330
28FB
100
AcDbEntity
 67
     1
  8
寸法線
 48
10.0
100
AcDbMText
 10
338.952685188947
 20
16.298723523184
 30
0.0
 40
8.0
 41
33.206594841881
 71
     1
 72
     5
  1
HE-11011
1001
ACADANNOTATIVE
1000
AnnotativeData
1002
{
1070
     1
1070
     0
1002
}
  0
ENDSEC
  0
SECTION
  2
OBJECTS
  0
DICTIONARY
  5
C
330
0
100
AcDbDictionary
  3
ACAD_COLOR
350
2948
  3
ACAD_GROUP
350
D
  3
ACAD_LAYOUT
350
2816
  3
ACAD_MATERIAL
350
2947
  3
ACAD_MLEADERSTYLE
350
5707
  3
ACAD_MLINESTYLE
350
E
  3
ACAD_PLOTSETTINGS
350
2817
  3
ACAD_SCALELIST
350
56E0
  3
ACAD_VISUALSTYLE
350
56C7
  3
ACADDIM
350
5550
  3
ACDBHEADERROUNDTRIPXREC
350
5BC8
  3
ACDBVARIABLEDICTIONARY
350
577C
  3
DWGPROPS
350
5BEE
  0
DICTIONARY
  5
5BEF
330
8
100
AcDbDictionary
280
     1
  3
ACAD_XREC_ROUNDTRIP
360
5BF0
  0
DICTIONARY
  5
29EA
330
2
100
AcDbDictionary
280
     1
  3
ACAD_LAYERFILTERS
360
2B0C
  3
ACAD_LAYERSTATES
360
29EB
  0
DICTIONARY
  5
570C
330
5045
100
AcDbDictionary
280
     1
  3
ACDBCONTEXTDATAMANAGER
360
570D
  0
DICTIONARY
  5
5768
330
5767
100
AcDbDictionary
280
     1
  3
ACDBCONTEXTDATAMANAGER
360
5769
  0
DICTIONARY
  5
576F
330
576E
100
AcDbDictionary
280
     1
  3
ACDBCONTEXTDATAMANAGER
360
5770
  0
DICTIONARY
  5
5779
330
2E71
100
AcDbDictionary
280
     1
  3
ACDBCONTEXTDATAMANAGER
360
577A
  0
DICTIONARY
  5
597B
330
597A
100
AcDbDictionary
280
     1
  3
ACDBCONTEXTDATAMANAGER
360
597C
  0
DICTIONARY
  5
597F
330
597E
100
AcDbDictionary
280
     1
  3
ACDBCONTEXTDATAMANAGER
360
5980
  0
DICTIONARY
  5
5A70
330
5A6F
100
AcDbDictionary
280
     1
  3
ACDBCONTEXTDATAMANAGER
360
5A71
  0
DICTIONARY
  5
5AD5
330
5AD4
100
AcDbDictionary
280
     1
  3
ACDBCONTEXTDATAMANAGER
360
5AD6
  0
DICTIONARY
  5
2948
102
{ACAD_REACTORS
330
C
102
}
330
C
100
AcDbDictionary
  0
DICTIONARY
  5
D
102
{ACAD_REACTORS
330
C
102
}
330
C
100
AcDbDictionary
  3
*A1
350
4830
  3
*A2
350
4831
  3
*A3
350
4832
  3
*A4
350
4833
  3
*A5
350
456F
  0
DICTIONARY
  5
2816
102
{ACAD_REACTORS
330
C
102
}
330
C
100
AcDbDictionary
  0
DICTIONARY
  5
2947
102
{ACAD_REACTORS
330
C
102
}
330
C
100
AcDbDictionary
  3
BYBLOCK
350
5703
  3
BYLAYER
350
5702
  3
GLOBAL
350
5704
  0
DICTIONARY
  5
5707
102
{ACAD_REACTORS
330
C
102
}
330
C
100
AcDbDictionary
  3
STANDARD
350
5708
  0
DICTIONARY
  5
E
102
{ACAD_REACTORS
330
C
102
}
330
C
100
AcDbDictionary
  3
STANDARD
350
13
  0
DICTIONARY
  5
2817
102
{ACAD_REACTORS
330
C
102
}
330
C
100
AcDbDictionary
  0
DICTIONARY
  5
56E0
102
{ACAD_REACTORS
330
C
102
}
330
C
100
AcDbDictionary
  3
A0
350
56E1
  3
A1
350
56E2
  3
A2
350
56E3
  3
A3
350
56E4
  3
A4
350
56E5
  3
A5
350
56E6
  3
A6
350
56E7
  3
A7
350
56E8
  3
A8
350
56E9
  3
A9
350
56EA
  3
B0
350
56EB
  3
B1
350
56EC
  3
B2
350
56ED
  3
B3
350
56EE
  3
B4
350
56EF
  3
B5
350
56F0
  3
B6
350
56F1
  3
B7
350
56F2
  3
B8
350
56F3
  3
B9
350
56F4
  3
C0
350
56F5
  3
C1
350
56F6
  3
C2
350
56F7
  3
C3
350
56F8
  3
C4
350
56F9
  3
C5
350
56FA
  3
C6
350
56FB
  3
C7
350
56FC
  3
C8
350
56FD
  3
C9
350
56FE
  3
D0
350
56FF
  3
D1
350
5700
  3
D2
350
5701
  0
DICTIONARY
  5
56C7
102
{ACAD_REACTORS
330
C
102
}
330
C
100
AcDbDictionary
  3
2DWIREFRAME
350
56CC
  3
BASIC
350
56CF
  3
BRIGHTEN
350
56D3
  3
COLORCHANGE
350
56D7
  3
CONCEPTUAL
350
56D1
  3
DIM
350
56D2
  3
EDGECOLOROFF
350
56DA
  3
FACEPATTERN
350
56D6
  3
FLAT
350
56C8
  3
FLATWITHEDGES
350
56C9
  3
GOURAUD
350
56CA
  3
GOURAUDWITHEDGES
350
56CB
  3
HIDDEN
350
56CE
  3
JITTEROFF
350
56D8
  3
LINEPATTERN
350
56D5
  3
MODELING
350
58E8
  3
OVERHANGOFF
350
56D9
  3
REALISTIC
350
56D0
  3
SHADED
350
56DF
  3
Shaded with edges
350
5BC4
  3
SHADED_WITH_EDGE0
350
56DE
  3
Shades of Gray
350
5BC3
  3
SHADES_OF_GRA0
350
56DB
  3
SKETCHY
350
56DC
  3
THICKEN
350
56D4
  3
WIREFRAME
350
56CD
  3
X-RAY
350
56DD
  0
XRECORD
  5
5550
102
{ACAD_REACTORS
330
C
102
}
330
C
100
AcDbXrecord
 90
   990106
  3

 60
     0
 61
     0
 62
     4
 63
     4
 64
     0
 65
     0
 66
     0
 67
     3
 68
     1
 69
     0
 70
     0
 71
     0
 72
     0
 40
0.0
170
     2
340
481E
  0
DICTIONARY
  5
5BC8
102
{ACAD_REACTORS
330
C
102
}
330
C
100
AcDbDictionary
  3
CEPSNID
350
5BD2
  3
CEPSNTYPE
350
5BD1
  3
COLORDICT
350
5BEC
  3
DIMSTYLEDATA
350
5BE8
  3
FINGERPRINTGUID
350
5BD3
  3
HYPERLINKBASE
350
5BCB
  3
INSUNITS
350
5BD0
  3
LAYOUTDICT
350
5BCD
  3
LWETCUNION
350
5BCF
  3
MATERIALDICT
350
5BED
  3
PLOTSETDICT
350
5BCE
  3
PSVPSCALE
350
5BD5
  3
PUCSBASE
350
5BD8
  3
PUCSORGBACK
350
5BDE
  3
PUCSORGBOTTOM
350
5BDA
  3
PUCSORGFRONT
350
5BDD
  3
PUCSORGLEFT
350
5BDB
  3
PUCSORGRIGHT
350
5BDC
  3
PUCSORGTOP
350
5BD9
  3
PUCSORTHOREF
350
5BD6
  3
PUCSORTHOVIEW
350
5BD7
  3
STYLESHEET
350
5BCC
  3
TSTACKALIGN
350
5BC9
  3
TSTACKSIZE
350
5BCA
  3
UCSBASE
350
5BE1
  3
UCSORGBACK
350
5BE7
  3
UCSORGBOTTOM
350
5BE3
  3
UCSORGFRONT
350
5BE6
  3
UCSORGLEFT
350
5BE4
  3
UCSORGRIGHT
350
5BE5
  3
UCSORGTOP
350
5BE2
  3
UCSORTHOREF
350
5BDF
  3
UCSORTHOVIEW
350
5BE0
  3
VERSIONGUID
350
5BD4
  0
DICTIONARY
  5
577C
102
{ACAD_REACTORS
330
C
102
}
330
C
100
AcDbDictionary
  3
CANNOSCALE
350
5BF1
  3
CMLEADERSTYLE
350
577F
  3
CTABLESTYLE
350
5BE9
  3
DIMASSOC
350
5BB1
  3
HIDETEXT
350
5BB2
  3
MSLTSCALE
350
5780
  3
XCLIPFRAME
350
5781
  0
XRECORD
  5
5BEE
102
{ACAD_REACTORS
330
C
102
}
330
C
100
AcDbXrecord
  1
DWGPROPS COOKIE
  2

  3

  4

  6

  7

  8
takahashi
  9

300
=
301
=
302
=
303
=
304
=
305
=
306
=
307
=
308
=
309
=
 40
0.0
 41
2450576.222302431
 42
2457627.290244224
  1

 90
        0
  0
XRECORD
  5
5BF0
102
{ACAD_REACTORS
330
5BEF
102
}
330
5BEF
100
AcDbXrecord
102
VTR_0.000_0.000_1.000_1.000_GRIDDISPLAY
 70
     3
102
VTR_0.000_0.000_1.000_1.000_GRIDMAJOR
 70
     5
102
VTR_0.000_0.000_1.000_1.000_DEFAULTLIGHTING
280
     1
102
VTR_0.000_0.000_1.000_1.000_DEFAULTLIGHTINGTYPE
 70
     1
102
VTR_0.000_0.000_1.000_1.000_BRIGHTNESS
141
0.0
102
VTR_0.000_0.000_1.000_1.000_CONTRAST
142
0.0
  0
DICTIONARY
  5
2B0C
102
{ACAD_REACTORS
330
29EA
102
}
330
29EA
100
AcDbDictionary
  0
DICTIONARY
  5
29EB
102
{ACAD_REACTORS
330
29EA
102
}
330
29EA
100
AcDbDictionary
  0
DICTIONARY
  5
570D
102
{ACAD_REACTORS
330
570C
102
}
330
570C
100
AcDbDictionary
  3
ACDB_ANNOTATIONSCALES
350
570E
  0
DICTIONARY
  5
5769
102
{ACAD_REACTORS
330
5768
102
}
330
5768
100
AcDbDictionary
  3
ACDB_ANNOTATIONSCALES
350
576A
  0
DICTIONARY
  5
5770
102
{ACAD_REACTORS
330
576F
102
}
330
576F
100
AcDbDictionary
  3
ACDB_ANNOTATIONSCALES
350
5771
  0
DICTIONARY
  5
577A
102
{ACAD_REACTORS
330
5779
102
}
330
5779
100
AcDbDictionary
  3
ACDB_ANNOTATIONSCALES
350
577B
  0
DICTIONARY
  5
597C
102
{ACAD_REACTORS
330
597B
102
}
330
597B
100
AcDbDictionary
  3
ACDB_ANNOTATIONSCALES
350
597D
  0
DICTIONARY
  5
5980
102
{ACAD_REACTORS
330
597F
102
}
330
597F
100
AcDbDictionary
  3
ACDB_ANNOTATIONSCALES
350
5981
  0
DICTIONARY
  5
5A71
102
{ACAD_REACTORS
330
5A70
102
}
330
5A70
100
AcDbDictionary
  3
ACDB_ANNOTATIONSCALES
350
5A72
  0
DICTIONARY
  5
5AD6
102
{ACAD_REACTORS
330
5AD5
102
}
330
5AD5
100
AcDbDictionary
  3
ACDB_ANNOTATIONSCALES
350
5AD7
  0
GROUP
  5
4830
102
{ACAD_REACTORS
330
D
102
}
330
D
100
AcDbGroup
300

 70
     1
 71
     1
340
4556
340
4555
340
4554
340
4553
340
4552
340
4557
  0
GROUP
  5
4831
102
{ACAD_REACTORS
330
D
102
}
330
D
100
AcDbGroup
300

 70
     1
 71
     1
340
4558
340
4559
340
455A
340
455B
340
455C
340
455D
340
455E
340
455F
340
4560
  0
GROUP
  5
4832
102
{ACAD_REACTORS
330
D
102
}
330
D
100
AcDbGroup
300

 70
     1
 71
     1
340
4567
340
4566
340
4565
340
4563
340
4564
340
4551
340
4561
340
4562
340
4568
  0
GROUP
  5
4833
102
{ACAD_REACTORS
330
D
102
}
330
D
100
AcDbGroup
300

 70
     1
 71
     1
340
454D
340
454C
340
454B
340
454A
340
4549
340
4550
340
454F
340
454E
340
453C
  0
GROUP
  5
456F
102
{ACAD_REACTORS
330
D
102
}
330
D
100
AcDbGroup
300

 70
     1
 71
     1
340
453B
340
453A
340
4539
340
4538
340
4537
340
4536
340
4535
340
4534
340
4533
  0
MATERIAL
  5
5703
102
{ACAD_REACTORS
330
2947
102
}
102
{ACAD_XDICTIONARY
360
5BF2
102
}
330
2947
100
AcDbMaterial
  1
BYBLOCK
  0
MATERIAL
  5
5702
102
{ACAD_REACTORS
330
2947
102
}
102
{ACAD_XDICTIONARY
360
5BF4
102
}
330
2947
100
AcDbMaterial
  1
BYLAYER
  0
MATERIAL
  5
5704
102
{ACAD_REACTORS
330
2947
102
}
102
{ACAD_XDICTIONARY
360
5BF6
102
}
330
2947
100
AcDbMaterial
  1
GLOBAL
  0
ACAD_PROXY_OBJECT
  5
5708
102
{ACAD_REACTORS
330
5707
102
}
330
5707
100
AcDbProxyObject
 90
      499
 91
      507
 93
      610
310
40901902A4063FBFFFFFE0000000000000020400000000000020404214DD185B99185C990000000000000104090141901A00000000000004100000000000000041025764000000000000039000
340
14
340
0
340
10
340
0
 94
        0
1001
ACAD_MLEADERVER
1070
     2
  0
MLINESTYLE
  5
13
102
{ACAD_REACTORS
330
E
102
}
330
E
100
AcDbMlineStyle
  2
STANDARD
 70
     0
  3

 62
     0
 51
90.0
 52
90.0
 71
     2
 49
0.5
 62
   256
  6
BYLAYER
 49
-0.5
 62
   256
  6
BYLAYER
  0
ACAD_PROXY_OBJECT
  5
56E1
102
{ACAD_REACTORS
330
56E0
102
}
330
56E0
100
AcDbProxyObject
 90
      499
 91
      504
 93
       41
310
903313A31580
  0
ACAD_PROXY_OBJECT
  5
56E2
102
{ACAD_REACTORS
330
56E0
102
}
330
56E0
100
AcDbProxyObject
 90
      499
 91
      504
 93
      105
310
903313A324000000000000004000
  0
ACAD_PROXY_OBJECT
  5
56E3
102
{ACAD_REACTORS
330
56E0
102
}
330
56E0
100
AcDbProxyObject
 90
      499
 91
      504
 93
      105
310
903313A344000000000000104000
  0
ACAD_PROXY_OBJECT
  5
56E4
102
{ACAD_REACTORS
330
56E0
102
}
330
56E0
100
AcDbProxyObject
 90
      499
 91
      504
 93
      105
310
903313A354000000000000144000
  0
ACAD_PROXY_OBJECT
  5
56E5
102
{ACAD_REACTORS
330
56E0
102
}
330
56E0
100
AcDbProxyObject
 90
      499
 91
      504
 93
      105
310
903313A384000000000000204000
  0
ACAD_PROXY_OBJECT
  5
56E6
102
{ACAD_REACTORS
330
56E0
102
}
330
56E0
100
AcDbProxyObject
 90
      499
 91
      504
 93
      113
310
904313A31304000000000000244000
  0
ACAD_PROXY_OBJECT
  5
56E7
102
{ACAD_REACTORS
330
56E0
102
}
330
56E0
100
AcDbProxyObject
 90
      499
 91
      504
 93
      113
310
904313A31364000000000000304000
  0
ACAD_PROXY_OBJECT
  5
56E8
102
{ACAD_REACTORS
330
56E0
102
}
330
56E0
100
AcDbProxyObject
 90
      499
 91
      504
 93
      113
310
904313A32304000000000000344000
  0
ACAD_PROXY_OBJECT
  5
56E9
102
{ACAD_REACTORS
330
56E0
102
}
330
56E0
100
AcDbProxyObject
 90
      499
 91
      504
 93
      113
310
904313A333040000000000003E4000
  0
ACAD_PROXY_OBJECT
  5
56EA
102
{ACAD_REACTORS
330
56E0
102
}
330
56E0
100
AcDbProxyObject
 90
      499
 91
      504
 93
      113
310
904313A34304000000000000444000
  0
ACAD_PROXY_OBJECT
  5
56EB
102
{ACAD_REACTORS
330
56E0
102
}
330
56E0
100
AcDbProxyObject
 90
      499
 91
      504
 93
      113
310
904313A35304000000000000494000
  0
ACAD_PROXY_OBJECT
  5
56EC
102
{ACAD_REACTORS
330
56E0
102
}
330
56E0
100
AcDbProxyObject
 90
      499
 91
      504
 93
      121
310
905313A3130304000000000000594000
  0
ACAD_PROXY_OBJECT
  5
56ED
102
{ACAD_REACTORS
330
56E0
102
}
330
56E0
100
AcDbProxyObject
 90
      499
 91
      504
 93
      105
310
903323A310000000000000010100
  0
ACAD_PROXY_OBJECT
  5
56EE
102
{ACAD_REACTORS
330
56E0
102
}
330
56E0
100
AcDbProxyObject
 90
      499
 91
      504
 93
      105
310
903343A310000000000000410100
  0
ACAD_PROXY_OBJECT
  5
56EF
102
{ACAD_REACTORS
330
56E0
102
}
330
56E0
100
AcDbProxyObject
 90
      499
 91
      504
 93
      105
310
903383A310000000000000810100
  0
ACAD_PROXY_OBJECT
  5
56F0
102
{ACAD_REACTORS
330
56E0
102
}
330
56E0
100
AcDbProxyObject
 90
      499
 91
      504
 93
      113
310
90431303A310000000000000910100
  0
ACAD_PROXY_OBJECT
  5
56F1
102
{ACAD_REACTORS
330
56E0
102
}
330
56E0
100
AcDbProxyObject
 90
      499
 91
      504
 93
      121
310
9053130303A310000000000001650100
  0
ACAD_PROXY_OBJECT
  5
56F2
102
{ACAD_REACTORS
330
56E0
102
}
330
56E0
100
AcDbProxyObject
 90
      499
 91
      504
 93
      257
310
90E312F31323822203D2031272D3022000000000000200FC000000000000284000
  0
ACAD_PROXY_OBJECT
  5
56F3
102
{ACAD_REACTORS
330
56E0
102
}
330
56E0
100
AcDbProxyObject
 90
      499
 91
      504
 93
      249
310
90D312F363422203D2031272D3022000000000000240FC000000000000284000
  0
ACAD_PROXY_OBJECT
  5
56F4
102
{ACAD_REACTORS
330
56E0
102
}
330
56E0
100
AcDbProxyObject
 90
      499
 91
      504
 93
      249
310
90D312F333222203D2031272D3022000000000000280FC000000000000284000
  0
ACAD_PROXY_OBJECT
  5
56F5
102
{ACAD_REACTORS
330
56E0
102
}
330
56E0
100
AcDbProxyObject
 90
      499
 91
      504
 93
      249
310
90D312F313622203D2031272D30220000000000002C0FC000000000000284000
  0
ACAD_PROXY_OBJECT
  5
56F6
102
{ACAD_REACTORS
330
56E0
102
}
330
56E0
100
AcDbProxyObject
 90
      499
 91
      504
 93
      249
310
90D332F333222203D2031272D30220000000000002E0FC000000000000284000
  0
ACAD_PROXY_OBJECT
  5
56F7
102
{ACAD_REACTORS
330
56E0
102
}
330
56E0
100
AcDbProxyObject
 90
      499
 91
      504
 93
      241
310
90C312F3822203D2031272D3022000000000000300FC000000000000284000
  0
ACAD_PROXY_OBJECT
  5
56F8
102
{ACAD_REACTORS
330
56E0
102
}
330
56E0
100
AcDbProxyObject
 90
      499
 91
      504
 93
      249
310
90D332F313622203D2031272D3022000000000000320FC000000000000284000
  0
ACAD_PROXY_OBJECT
  5
56F9
102
{ACAD_REACTORS
330
56E0
102
}
330
56E0
100
AcDbProxyObject
 90
      499
 91
      504
 93
      241
310
90C312F3422203D2031272D3022000000000000340FC000000000000284000
  0
ACAD_PROXY_OBJECT
  5
56FA
102
{ACAD_REACTORS
330
56E0
102
}
330
56E0
100
AcDbProxyObject
 90
      499
 91
      504
 93
      241
310
90C332F3822203D2031272D3022000000000000360FC000000000000284000
  0
ACAD_PROXY_OBJECT
  5
56FB
102
{ACAD_REACTORS
330
56E0
102
}
330
56E0
100
AcDbProxyObject
 90
      499
 91
      504
 93
      241
310
90C312F3222203D2031272D3022000000000000380FC000000000000284000
  0
ACAD_PROXY_OBJECT
  5
56FC
102
{ACAD_REACTORS
330
56E0
102
}
330
56E0
100
AcDbProxyObject
 90
      499
 91
      504
 93
      241
310
90C332F3422203D2031272D30220000000000003A0FC000000000000284000
  0
ACAD_PROXY_OBJECT
  5
56FD
102
{ACAD_REACTORS
330
56E0
102
}
330
56E0
100
AcDbProxyObject
 90
      499
 91
      504
 93
      161
310
90A3122203D2031272D30224000000000000284000
  0
ACAD_PROXY_OBJECT
  5
56FE
102
{ACAD_REACTORS
330
56E0
102
}
330
56E0
100
AcDbProxyObject
 90
      499
 91
      504
 93
      257
310
90E312D312F3222203D2031272D30220000000000003E0FC000000000000284000
  0
ACAD_PROXY_OBJECT
  5
56FF
102
{ACAD_REACTORS
330
56E0
102
}
330
56E0
100
AcDbProxyObject
 90
      499
 91
      504
 93
      225
310
90A3322203D2031272D302200000000000002100000000000000284000
  0
ACAD_PROXY_OBJECT
  5
5700
102
{ACAD_REACTORS
330
56E0
102
}
330
56E0
100
AcDbProxyObject
 90
      499
 91
      504
 93
      225
310
90A3622203D2031272D302200000000000006100000000000000284000
  0
ACAD_PROXY_OBJECT
  5
5701
102
{ACAD_REACTORS
330
56E0
102
}
330
56E0
100
AcDbProxyObject
 90
      499
 91
      504
 93
      249
310
90D31272D3022203D2031272D30220000000000000A100000000000000284000
  0
ACAD_PROXY_OBJECT
  5
56CC
102
{ACAD_REACTORS
330
56C7
102
}
330
56C7
100
AcDbProxyObject
 90
      499
 91
      503
 93
      436
310
42CC9915DA5C99599C985B595049028333333333333E33F0000000000000F90107901411070040501600405405064090741402480A0340
1001
ACAD
1000
AcDbSavedByObjectVersion
1070
     0
  0
ACAD_PROXY_OBJECT
  5
56CF
102
{ACAD_REACTORS
330
56C7
102
}
330
56C7
100
AcDbProxyObject
 90
      499
 91
      503
 93
      388
310
4150985CDA58D07406404333333333333E33F0000000000000F90107A41107004050150841D405064090741402480A0350
1001
ACAD
1000
AcDbSavedByObjectVersion
1070
     0
  0
ACAD_PROXY_OBJECT
  5
56D3
102
{ACAD_REACTORS
330
56C7
102
}
330
56C7
100
AcDbProxyObject
 90
      499
 91
      503
 93
      428
310
42109C9A59DA1D195B90C409028333333333333E33F0000000000000F9010790141107004050150841D405064090741402480A029950
1001
ACAD
1000
AcDbSavedByObjectVersion
1070
     0
  0
ACAD_PROXY_OBJECT
  5
56D7
102
{ACAD_REACTORS
330
56C7
102
}
330
56C7
100
AcDbProxyObject
 90
      499
 91
      503
 93
      452
310
42D0DBDB1BDC90DA185B99D95104090240C333333333333E33F0000000000000F90108901411070040501508421405064090741402480A0350
1001
ACAD
1000
AcDbSavedByObjectVersion
1070
     0
  0
ACAD_PROXY_OBJECT
  5
56D1
102
{ACAD_REACTORS
330
56C7
102
}
330
56C7
100
AcDbProxyObject
 90
      499
 91
      503
 93
      500
310
4290DBDB98D95C1D1D585B10940D028333333333333E33F0000000000000F90107902409070040501000000000018199010841D405064090740C02480A0340
1001
ACAD
1000
AcDbSavedByObjectVersion
1070
     0
  0
ACAD_PROXY_OBJECT
  5
56D2
102
{ACAD_REACTORS
330
56C7
102
}
330
56C7
100
AcDbProxyObject
 90
      499
 91
      503
 93
      412
310
40D11A5B50B409028333333333333E33F0000000000000F9010790141107004050150841D405064090741402480A02677FFFFFD0
1001
ACAD
1000
AcDbSavedByObjectVersion
1070
     0
  0
ACAD_PROXY_OBJECT
  5
56DA
102
{ACAD_REACTORS
330
56C7
102
}
330
56C7
100
AcDbProxyObject
 90
      499
 91
      503
 93
      452
310
43115919D950DBDB1BDC93D999916409028333333333333E33F0000000000000F9010790141107004050150841D405064090741402480A0350
1001
ACAD
1000
AcDbSavedByObjectVersion
1070
     0
  0
ACAD_PROXY_OBJECT
  5
56D6
102
{ACAD_REACTORS
330
56C7
102
}
330
56C7
100
AcDbProxyObject
 90
      499
 91
      503
 93
      444
310
42D19858D95C185D1D195C9B90F409028333333333333E33F0000000000000F9010790141107004050150841D405064090741402480A0350
1001
ACAD
1000
AcDbSavedByObjectVersion
1070
     0
  0
ACAD_PROXY_OBJECT
  5
56C8
102
{ACAD_REACTORS
330
56C7
102
}
330
56C7
100
AcDbProxyObject
 90
      499
 91
      503
 93
      380
310
41119B185D240901404333333333333E33F0000000000000F9010740A907004050150841D405064090741402480A1B50
1001
ACAD
1000
AcDbSavedByObjectVersion
1070
     0
  0
ACAD_PROXY_OBJECT
  5
56C9
102
{ACAD_REACTORS
330
56C7
102
}
330
56C7
100
AcDbProxyObject
 90
      499
 91
      503
 93
      468
310
43519B185D15DA5D1A115919D95CD0140901404333333333333E33F0000000000000F90107409019070040501600405405064090741402480A1B50
1001
ACAD
1000
AcDbSavedByObjectVersion
1070
     0
  0
ACAD_PROXY_OBJECT
  5
56CA
102
{ACAD_REACTORS
330
56C7
102
}
330
56C7
100
AcDbProxyObject
 90
      499
 91
      503
 93
      404
310
41D1DBDD5C985D5910240902404333333333333E33F0000000000000F9010740A9070040501641D405064090741402480A1B50
1001
ACAD
1000
AcDbSavedByObjectVersion
1070
     0
  0
ACAD_PROXY_OBJECT
  5
56CB
102
{ACAD_REACTORS
330
56C7
102
}
330
56C7
100
AcDbProxyObject
 90
      499
 91
      503
 93
      492
310
4411DBDD5C985D5915DA5D1A115919D95CD0340902404333333333333E33F0000000000000F90107409019070040501600405405064090741402480A1B50
1001
ACAD
1000
AcDbSavedByObjectVersion
1070
     0
  0
ACAD_PROXY_OBJECT
  5
56CE
102
{ACAD_REACTORS
330
56C7
102
}
330
56C7
100
AcDbProxyObject
 90
      499
 91
      503
 93
      476
310
41921A5919195B90640502408333333333333E33F0000000000000F901079024090700405020000000000001110200405405064090740C02480A0340
1001
ACAD
1000
AcDbSavedByObjectVersion
1070
     0
  0
ACAD_PROXY_OBJECT
  5
56D8
102
{ACAD_REACTORS
330
56C7
102
}
330
56C7
100
AcDbProxyObject
 90
      499
 91
      503
 93
      428
310
42529A5D1D195C93D999914409028333333333333E33F0000000000000F9010790141107004050150A41D405064090741402480A0350
1001
ACAD
1000
AcDbSavedByObjectVersion
1070
     0
  0
ACAD_PROXY_OBJECT
  5
56D5
102
{ACAD_REACTORS
330
56C7
102
}
330
56C7
100
AcDbProxyObject
 90
      499
 91
      503
 93
      444
310
42D31A5B995C185D1D195C9B90E409028333333333333E33F0000000000000F9010790141107004050750841D405064090741402483A0350
1001
ACAD
1000
AcDbSavedByObjectVersion
1070
     0
  0
ACAD_PROXY_OBJECT
  5
58E8
102
{ACAD_REACTORS
330
56C7
102
}
330
56C7
100
AcDbProxyObject
 90
      499
 91
      503
 93
      412
310
90A409038333333333333E33F0000000000000F901074090290700405010000000000201990108421405064090741402480A1B40
1001
ACAD
1000
AcDbSavedByObjectVersion
1070
     0
  0
ACAD_PROXY_OBJECT
  5
56D9
102
{ACAD_REACTORS
330
56C7
102
}
330
56C7
100
AcDbProxyObject
 90
      499
 91
      503
 93
      444
310
42D3DD995C9A185B99D3D999915409028333333333333E33F0000000000000F9010790141107004050150941D405064090741402480A0350
1001
ACAD
1000
AcDbSavedByObjectVersion
1070
     0
  0
ACAD_PROXY_OBJECT
  5
56D0
102
{ACAD_REACTORS
330
56C7
102
}
330
56C7
100
AcDbProxyObject
 90
      499
 91
      503
 93
      428
310
425499585B1A5CDD1A58D08409038333333333333E33F0000000000000F9010740A907004050150800405405064090740C02480A1B40
1001
ACAD
1000
AcDbSavedByObjectVersion
1070
     0
  0
ACAD_PROXY_OBJECT
  5
56DF
102
{ACAD_REACTORS
330
56C7
102
}
330
56C7
100
AcDbProxyObject
 90
      499
 91
      503
 93
      420
310
4194DA1859195911B40902404333333333333E33F0000000000000F9010740A41107004050150800405405064090840C02480A0B40
1001
ACAD
1000
AcDbSavedByObjectVersion
1070
     0
  0
ACAD_PROXY_OBJECT
  5
5BC4
102
{ACAD_REACTORS
330
56C7
102
}
330
56C7
100
AcDbProxyObject
 90
      499
 91
      503
 93
      516
310
4454DA18591959081DDA5D1A08195919D95CD1A40902404333333333333E33F0000000000000F901074090142907004050250800405405064090740C02480A0B40
1001
ACAD
1000
AcDbSavedByObjectVersion
1070
     0
  0
ACAD_PROXY_OBJECT
  5
56DE
102
{ACAD_REACTORS
330
56C7
102
}
330
56C7
100
AcDbProxyObject
 90
      499
 91
      503
 93
      516
310
4454DA18591959081DDA5D1A08195919D95CD1A40902404333333333333E33F0000000000000F901074090142907004050250800405405064090740C02480A0B40
1001
ACAD
1000
AcDbSavedByObjectVersion
1070
     0
  0
ACAD_PROXY_OBJECT
  5
5BC3
102
{ACAD_REACTORS
330
56C7
102
}
330
56C7
100
AcDbProxyObject
 90
      499
 91
      503
 93
      532
310
4394DA1859195CC81BD98811DC985E5174090240C333333333333E33F0000000000000F901079024090741D01000000000000111010841D405064090740C02480A0340
1001
ACAD
1000
AcDbSavedByObjectVersion
1070
     0
  0
ACAD_PROXY_OBJECT
  5
56DB
102
{ACAD_REACTORS
330
56C7
102
}
330
56C7
100
AcDbProxyObject
 90
      499
 91
      503
 93
      532
310
4394DA1859195CC81BD98811DC985E5174090240C333333333333E33F0000000000000F901079024090741D01000000000000111010841D405064090740C02480A0340
1001
ACAD
1000
AcDbSavedByObjectVersion
1070
     0
  0
ACAD_PROXY_OBJECT
  5
56DC
102
{ACAD_REACTORS
330
56C7
102
}
330
56C7
100
AcDbProxyObject
 90
      499
 91
      503
 93
      476
310
41D4DAD95D18DA1E51840502408333333333333E33F0000000000000F901079024090741D01000000000000111010B41D405064090741802480A0340
1001
ACAD
1000
AcDbSavedByObjectVersion
1070
     0
  0
ACAD_PROXY_OBJECT
  5
56D4
102
{ACAD_REACTORS
330
56C7
102
}
330
56C7
100
AcDbProxyObject
 90
      499
 91
      503
 93
      412
310
41D51A1A58DAD95B90D409028333333333333E33F0000000000000F9010790141107004050150C41D405064090741402480A0350
1001
ACAD
1000
AcDbSavedByObjectVersion
1070
     0
  0
ACAD_PROXY_OBJECT
  5
56CD
102
{ACAD_REACTORS
330
56C7
102
}
330
56C7
100
AcDbProxyObject
 90
      499
 91
      503
 93
      420
310
4255DA5C99599C985B595059028333333333333E33F0000000000000F90107901411070040501600405405064090740C02480A0340
1001
ACAD
1000
AcDbSavedByObjectVersion
1070
     0
  0
ACAD_PROXY_OBJECT
  5
56DD
102
{ACAD_REACTORS
330
56C7
102
}
330
56C7
100
AcDbProxyObject
 90
      499
 91
      503
 93
      404
310
41560B54985E51940902404000000000000E03F0000000000000F9010740501907004050150841D405064090740C02480A1B40
1001
ACAD
1000
AcDbSavedByObjectVersion
1070
     0
  0
XRECORD
  5
5BD2
102
{ACAD_REACTORS
330
5BC8
102
}
330
5BC8
100
AcDbXrecord
340
0
  0
XRECORD
  5
5BD1
102
{ACAD_REACTORS
330
5BC8
102
}
330
5BC8
100
AcDbXrecord
 90
        0
  0
XRECORD
  5
5BEC
102
{ACAD_REACTORS
330
5BC8
102
}
330
5BC8
100
AcDbXrecord
340
2948
  0
XRECORD
  5
5BE8
102
{ACAD_REACTORS
330
5BC8
102
}
330
5BC8
100
AcDbXrecord
1000
DSTYLE
1002
{
1070
   171
 70
     2
1070
   143
 40
0.0394
1070
   274
 70
     2
1070
    41
 40
6.0
1070
   342
340
2AF4
1070
   271
 70
     1
1070
   278
 70
    46
1070
   341
340
2AF4
1070
   272
 70
     1
1070
    48
 40
0.1
1070
   279
 70
     2
1070
   283
 70
     1
1070
    47
 40
0.1
1070
   145
 40
1.0
1070
   340
340
10
1070
   140
 40
8.0
1070
   284
 70
     0
1002
}
  0
XRECORD
  5
5BD3
102
{ACAD_REACTORS
330
5BC8
102
}
330
5BC8
100
AcDbXrecord
  1
{23698909-1D67-4744-B0E2-8DE11E3ED422}
  0
XRECORD
  5
5BCB
102
{ACAD_REACTORS
330
5BC8
102
}
330
5BC8
100
AcDbXrecord
  1

  0
XRECORD
  5
5BD0
102
{ACAD_REACTORS
330
5BC8
102
}
330
5BC8
100
AcDbXrecord
 90
        0
  0
XRECORD
  5
5BCD
102
{ACAD_REACTORS
330
5BC8
102
}
330
5BC8
100
AcDbXrecord
340
2816
  0
XRECORD
  5
5BCF
102
{ACAD_REACTORS
330
5BC8
102
}
330
5BC8
100
AcDbXrecord
 90
    10781
  0
XRECORD
  5
5BED
102
{ACAD_REACTORS
330
5BC8
102
}
330
5BC8
100
AcDbXrecord
340
2947
  0
XRECORD
  5
5BCE
102
{ACAD_REACTORS
330
5BC8
102
}
330
5BC8
100
AcDbXrecord
340
2817
  0
XRECORD
  5
5BD5
102
{ACAD_REACTORS
330
5BC8
102
}
330
5BC8
100
AcDbXrecord
 40
0.25
  0
XRECORD
  5
5BD8
102
{ACAD_REACTORS
330
5BC8
102
}
330
5BC8
100
AcDbXrecord
340
0
  0
XRECORD
  5
5BDE
102
{ACAD_REACTORS
330
5BC8
102
}
330
5BC8
100
AcDbXrecord
 10
0.0
 20
0.0
 30
0.0
  0
XRECORD
  5
5BDA
102
{ACAD_REACTORS
330
5BC8
102
}
330
5BC8
100
AcDbXrecord
 10
0.0
 20
0.0
 30
0.0
  0
XRECORD
  5
5BDD
102
{ACAD_REACTORS
330
5BC8
102
}
330
5BC8
100
AcDbXrecord
 10
0.0
 20
0.0
 30
0.0
  0
XRECORD
  5
5BDB
102
{ACAD_REACTORS
330
5BC8
102
}
330
5BC8
100
AcDbXrecord
 10
0.0
 20
0.0
 30
0.0
  0
XRECORD
  5
5BDC
102
{ACAD_REACTORS
330
5BC8
102
}
330
5BC8
100
AcDbXrecord
 10
0.0
 20
0.0
 30
0.0
  0
XRECORD
  5
5BD9
102
{ACAD_REACTORS
330
5BC8
102
}
330
5BC8
100
AcDbXrecord
 10
0.0
 20
0.0
 30
0.0
  0
XRECORD
  5
5BD6
102
{ACAD_REACTORS
330
5BC8
102
}
330
5BC8
100
AcDbXrecord
340
0
  0
XRECORD
  5
5BD7
102
{ACAD_REACTORS
330
5BC8
102
}
330
5BC8
100
AcDbXrecord
 70
     0
  0
XRECORD
  5
5BCC
102
{ACAD_REACTORS
330
5BC8
102
}
330
5BC8
100
AcDbXrecord
  1

  0
XRECORD
  5
5BC9
102
{ACAD_REACTORS
330
5BC8
102
}
330
5BC8
100
AcDbXrecord
 90
        1
  0
XRECORD
  5
5BCA
102
{ACAD_REACTORS
330
5BC8
102
}
330
5BC8
100
AcDbXrecord
 90
       70
  0
XRECORD
  5
5BE1
102
{ACAD_REACTORS
330
5BC8
102
}
330
5BC8
100
AcDbXrecord
340
0
  0
XRECORD
  5
5BE7
102
{ACAD_REACTORS
330
5BC8
102
}
330
5BC8
100
AcDbXrecord
 10
0.0
 20
0.0
 30
0.0
  0
XRECORD
  5
5BE3
102
{ACAD_REACTORS
330
5BC8
102
}
330
5BC8
100
AcDbXrecord
 10
0.0
 20
0.0
 30
0.0
  0
XRECORD
  5
5BE6
102
{ACAD_REACTORS
330
5BC8
102
}
330
5BC8
100
AcDbXrecord
 10
0.0
 20
0.0
 30
0.0
  0
XRECORD
  5
5BE4
102
{ACAD_REACTORS
330
5BC8
102
}
330
5BC8
100
AcDbXrecord
 10
0.0
 20
0.0
 30
0.0
  0
XRECORD
  5
5BE5
102
{ACAD_REACTORS
330
5BC8
102
}
330
5BC8
100
AcDbXrecord
 10
0.0
 20
0.0
 30
0.0
  0
XRECORD
  5
5BE2
102
{ACAD_REACTORS
330
5BC8
102
}
330
5BC8
100
AcDbXrecord
 10
0.0
 20
0.0
 30
0.0
  0
XRECORD
  5
5BDF
102
{ACAD_REACTORS
330
5BC8
102
}
330
5BC8
100
AcDbXrecord
340
0
  0
XRECORD
  5
5BE0
102
{ACAD_REACTORS
330
5BC8
102
}
330
5BC8
100
AcDbXrecord
 70
     0
  0
XRECORD
  5
5BD4
102
{ACAD_REACTORS
330
5BC8
102
}
330
5BC8
100
AcDbXrecord
  1
{DDD0E2ED-643D-42AA-8310-E7A09D039C17}
  0
DICTIONARYVAR
  5
5BF1
102
{ACAD_REACTORS
330
577C
102
}
330
577C
100
DictionaryVariables
280
     0
  1
1:1
  0
DICTIONARYVAR
  5
577F
102
{ACAD_REACTORS
330
577C
102
}
330
577C
100
DictionaryVariables
280
     0
  1
STANDARD
  0
DICTIONARYVAR
  5
5BE9
102
{ACAD_REACTORS
330
577C
102
}
330
577C
100
DictionaryVariables
280
     0
  1
Standard
  0
DICTIONARYVAR
  5
5BB1
102
{ACAD_REACTORS
330
577C
102
}
330
577C
100
DictionaryVariables
280
     0
  1
1
  0
DICTIONARYVAR
  5
5BB2
102
{ACAD_REACTORS
330
577C
102
}
330
577C
100
DictionaryVariables
280
     0
  1
0
  0
DICTIONARYVAR
  5
5780
102
{ACAD_REACTORS
330
577C
102
}
330
577C
100
DictionaryVariables
280
     0
  1
0
  0
DICTIONARYVAR
  5
5781
102
{ACAD_REACTORS
330
577C
102
}
330
577C
100
DictionaryVariables
280
     0
  1
0
  0
DICTIONARY
  5
570E
102
{ACAD_REACTORS
330
570D
102
}
330
570D
100
AcDbDictionary
  0
DICTIONARY
  5
576A
102
{ACAD_REACTORS
330
5769
102
}
330
5769
100
AcDbDictionary
  0
DICTIONARY
  5
5771
102
{ACAD_REACTORS
330
5770
102
}
330
5770
100
AcDbDictionary
  0
DICTIONARY
  5
577B
102
{ACAD_REACTORS
330
577A
102
}
330
577A
100
AcDbDictionary
  0
DICTIONARY
  5
597D
102
{ACAD_REACTORS
330
597C
102
}
330
597C
100
AcDbDictionary
  0
DICTIONARY
  5
5981
102
{ACAD_REACTORS
330
5980
102
}
330
5980
100
AcDbDictionary
  0
DICTIONARY
  5
5A72
102
{ACAD_REACTORS
330
5A71
102
}
330
5A71
100
AcDbDictionary
  0
DICTIONARY
  5
5AD7
102
{ACAD_REACTORS
330
5AD6
102
}
330
5AD6
100
AcDbDictionary
  0
DICTIONARY
  5
5BF2
330
5703
100
AcDbDictionary
280
     1
  3
ACAD_XREC_ROUNDTRIP
360
5BF3
  0
DICTIONARY
  5
5BF4
330
5702
100
AcDbDictionary
280
     1
  3
ACAD_XREC_ROUNDTRIP
360
5BF5
  0
DICTIONARY
  5
5BF6
330
5704
100
AcDbDictionary
280
     1
  3
ACAD_XREC_ROUNDTRIP
360
5BF7
  0
XRECORD
  5
5BF3
102
{ACAD_REACTORS
330
5BF2
102
}
330
5BF2
100
AcDbXrecord
102
MATERIAL
148
0.0
149
0.0
149
0.0
 93
        0
 94
      127
282
     0
 72
     1
 77
     1
171
     1
175
     1
179
     1
273
     0
  0
XRECORD
  5
5BF5
102
{ACAD_REACTORS
330
5BF4
102
}
330
5BF4
100
AcDbXrecord
102
MATERIAL
148
0.0
149
0.0
149
0.0
 93
        0
 94
      127
282
     0
 72
     1
 77
     1
171
     1
175
     1
179
     1
273
     0
  0
XRECORD
  5
5BF7
102
{ACAD_REACTORS
330
5BF6
102
}
330
5BF6
100
AcDbXrecord
102
MATERIAL
148
0.0
149
0.0
149
0.0
 93
        0
 94
      127
282
     0
 72
     1
 77
     1
171
     1
175
     1
179
     1
273
     0
  0
ENDSEC
  0
EOF
