  0
SECTION
  2
HEADER
  9
$ACADVER
  1
AC1014
  9
$ACADMAINTVER
 70
     9
  9
$DWGCODEPAGE
  3
ANSI_932
  9
$INSBASE
 10
0.0
 20
0.0
 30
0.0
  9
$EXTMIN
 10
-95.258986036076
 20
163.550939127179
 30
0.0
  9
$EXTMAX
 10
624.177541839384
 20
580.512196764094
 30
0.0
  9
$LIMMIN
 10
-360.747566795242
 20
4.457354754526
  9
$LIMMAX
 10
-162.153696144267
 20
287.675440264018
  9
$ORTHOMODE
 70
     0
  9
$REGENMODE
 70
     1
  9
$FILLMODE
 70
     1
  9
$QTEXTMODE
 70
     0
  9
$MIRRTEXT
 70
     1
  9
$DRAGMODE
 70
     2
  9
$LTSCALE
 40
1.0
  9
$OSMODE
 70
   935
  9
$ATTMODE
 70
     1
  9
$TEXTSIZE
 40
4.0
  9
$TRACEWID
 40
1.0
  9
$TEXTSTYLE
  7
STANDARD
  9
$CLAYER
  8
寸法線
  9
$CELTYPE
  6
BYLAYER
  9
$CECOLOR
 62
   256
  9
$CELTSCALE
 40
10.0
  9
$DELOBJ
 70
     1
  9
$DISPSILH
 70
     0
  9
$DIMSCALE
 40
1.0
  9
$DIMASZ
 40
6.0
  9
$DIMEXO
 40
0.625
  9
$DIMDLI
 40
3.75
  9
$DIMRND
 40
0.0
  9
$DIMDLE
 40
0.0
  9
$DIMEXE
 40
1.25
  9
$DIMTP
 40
0.1
  9
$DIMTM
 40
0.1
  9
$DIMTXT
 40
8.0
  9
$DIMCEN
 40
2.5
  9
$DIMTSZ
 40
0.0
  9
$DIMTOL
 70
     0
  9
$DIMLIM
 70
     0
  9
$DIMTIH
 70
     0
  9
$DIMTOH
 70
     0
  9
$DIMSE1
 70
     0
  9
$DIMSE2
 70
     0
  9
$DIMTAD
 70
     1
  9
$DIMZIN
 70
     8
  9
$DIMBLK
  1
OPEN30
  9
$DIMASO
 70
     1
  9
$DIMSHO
 70
     1
  9
$DIMPOST
  1

  9
$DIMAPOST
  1

  9
$DIMALT
 70
     0
  9
$DIMALTD
 70
     2
  9
$DIMALTF
 40
0.0394
  9
$DIMLFAC
 40
1.0
  9
$DIMTOFL
 70
     1
  9
$DIMTVP
 40
1.0
  9
$DIMTIX
 70
     0
  9
$DIMSOXD
 70
     0
  9
$DIMSAH
 70
     0
  9
$DIMBLK1
  1

  9
$DIMBLK2
  1

  9
$DIMSTYLE
  2
ISO-25
  9
$DIMCLRD
 70
     0
  9
$DIMCLRE
 70
     0
  9
$DIMCLRT
 70
     0
  9
$DIMTFAC
 40
1.0
  9
$DIMGAP
 40
0.625
  9
$DIMJUST
 70
     0
  9
$DIMSD1
 70
     0
  9
$DIMSD2
 70
     0
  9
$DIMTOLJ
 70
     1
  9
$DIMTZIN
 70
     0
  9
$DIMALTZ
 70
     0
  9
$DIMALTTZ
 70
     0
  9
$DIMFIT
 70
     3
  9
$DIMUPT
 70
     0
  9
$DIMUNIT
 70
     2
  9
$DIMDEC
 70
     1
  9
$DIMTDEC
 70
     1
  9
$DIMALTU
 70
     2
  9
$DIMALTTD
 70
     2
  9
$DIMTXSTY
  7
STANDARD
  9
$DIMAUNIT
 70
     0
  9
$LUNITS
 70
     2
  9
$LUPREC
 70
     4
  9
$SKETCHINC
 40
1.0
  9
$FILLETRAD
 40
1.0
  9
$AUNITS
 70
     0
  9
$AUPREC
 70
     0
  9
$MENU
  1
.
  9
$ELEVATION
 40
0.0
  9
$PELEVATION
 40
0.0
  9
$THICKNESS
 40
0.0
  9
$LIMCHECK
 70
     0
  9
$CHAMFERA
 40
0.5
  9
$CHAMFERB
 40
0.5
  9
$CHAMFERC
 40
20.0
  9
$CHAMFERD
 40
0.0
  9
$SKPOLY
 70
     0
  9
$TDCREATE
 40
2450576.597302431
  9
$TDUPDATE
 40
2457658.778095984
  9
$TDINDWG
 40
1.3162662153
  9
$TDUSRTIMER
 40
1.3162662153
  9
$USRTIMER
 70
     1
  9
$ANGBASE
 50
0.0
  9
$ANGDIR
 70
     0
  9
$PDMODE
 70
     0
  9
$PDSIZE
 40
0.0
  9
$PLINEWID
 40
0.0
  9
$COORDS
 70
     2
  9
$SPLFRAME
 70
     0
  9
$SPLINETYPE
 70
     6
  9
$SPLINESEGS
 70
     8
  9
$ATTDIA
 70
     0
  9
$ATTREQ
 70
     1
  9
$HANDLING
 70
     1
  9
$HANDSEED
  5
56FB
  9
$SURFTAB1
 70
     6
  9
$SURFTAB2
 70
     6
  9
$SURFTYPE
 70
     6
  9
$SURFU
 70
     6
  9
$SURFV
 70
     6
  9
$UCSNAME
  2

  9
$UCSORG
 10
0.0
 20
0.0
 30
0.0
  9
$UCSXDIR
 10
1.0
 20
0.0
 30
0.0
  9
$UCSYDIR
 10
0.0
 20
1.0
 30
0.0
  9
$PUCSNAME
  2

  9
$PUCSORG
 10
0.0
 20
0.0
 30
0.0
  9
$PUCSXDIR
 10
1.0
 20
0.0
 30
0.0
  9
$PUCSYDIR
 10
0.0
 20
1.0
 30
0.0
  9
$USERI1
 70
     0
  9
$USERI2
 70
     0
  9
$USERI3
 70
     0
  9
$USERI4
 70
     0
  9
$USERI5
 70
     0
  9
$USERR1
 40
0.0
  9
$USERR2
 40
0.0
  9
$USERR3
 40
0.0
  9
$USERR4
 40
0.0
  9
$USERR5
 40
0.0
  9
$WORLDVIEW
 70
     1
  9
$SHADEDGE
 70
     3
  9
$SHADEDIF
 70
    70
  9
$TILEMODE
 70
     0
  9
$MAXACTVP
 70
    16
  9
$PINSBASE
 10
0.0
 20
0.0
 30
0.0
  9
$PLIMCHECK
 70
     0
  9
$PEXTMIN
 10
4.746305129083
 20
1.396645458131
 30
0.0
  9
$PEXTMAX
 10
404.746305129083
 20
281.396645458131
 30
0.0
  9
$PLIMMIN
 10
-6.946593322754
 20
-6.94658241272
  9
$PLIMMAX
 10
417.718108215332
 20
293.315276107788
  9
$UNITMODE
 70
     0
  9
$VISRETAIN
 70
     0
  9
$PLINEGEN
 70
     0
  9
$PSLTSCALE
 70
     1
  9
$TREEDEPTH
 70
  3020
  9
$PICKSTYLE
 70
     1
  9
$CMLSTYLE
  2
STANDARD
  9
$CMLJUST
 70
     0
  9
$CMLSCALE
 40
1.0
  9
$PROXYGRAPHICS
 70
     1
  9
$MEASUREMENT
 70
     1
  0
ENDSEC
  0
SECTION
  2
CLASSES
  0
CLASS
  1
ACDBDICTIONARYWDFLT
  2
AcDbDictionaryWithDefault
  3
ObjectDBX Classes
 90
        0
280
     0
281
     0
  0
CLASS
  1
ACDBPLACEHOLDER
  2
AcDbPlaceHolder
  3
ObjectDBX Classes
 90
        0
280
     0
281
     0
  0
CLASS
  1
LAYOUT
  2
AcDbLayout
  3
ObjectDBX Classes
 90
        0
280
     0
281
     0
  0
CLASS
  1
SORTENTSTABLE
  2
AcDbSortentsTable
  3
ObjectDBX Classes
 90
        0
280
     0
281
     0
  0
CLASS
  1
VISUALSTYLE
  2
AcDbVisualStyle
  3
ObjectDBX Classes
 90
     4095
280
     0
281
     0
  0
CLASS
  1
SCALE
  2
AcDbScale
  3
ObjectDBX Classes
 90
     1153
280
     0
281
     0
  0
CLASS
  1
MATERIAL
  2
AcDbMaterial
  3
ObjectDBX Classes
 90
     1153
280
     0
281
     0
  0
CLASS
  1
TABLESTYLE
  2
AcDbTableStyle
  3
ObjectDBX Classes
 90
     4095
280
     0
281
     0
  0
CLASS
  1
MLEADERSTYLE
  2
AcDbMLeaderStyle
  3
ACDB_MLEADERSTYLE_CLASS
 90
     4095
280
     0
281
     0
  0
CLASS
  1
SUN
  2
AcDbSun
  3
SCENEOE
 90
     1153
280
     0
281
     0
  0
CLASS
  1
DICTIONARYVAR
  2
AcDbDictionaryVar
  3
ObjectDBX Classes
 90
        0
280
     0
281
     0
  0
CLASS
  1
CELLSTYLEMAP
  2
AcDbCellStyleMap
  3
ObjectDBX Classes
 90
     1152
280
     0
281
     0
  0
CLASS
  1
XRECORD
  2
AcDbXrecord
  3
ObjectDBX Classes
 90
        0
280
     0
281
     0
  0
CLASS
  1
LWPOLYLINE
  2
AcDbPolyline
  3
ObjectDBX Classes
 90
        0
280
     0
281
     1
  0
CLASS
  1
HATCH
  2
AcDbHatch
  3
ObjectDBX Classes
 90
        0
280
     0
281
     1
  0
ENDSEC
  0
SECTION
  2
TABLES
  0
TABLE
  2
VPORT
  5
8
102
{ACAD_XDICTIONARY
360
56F3
102
}
330
0
100
AcDbSymbolTable
 70
     4
  0
VPORT
  5
4B47
330
8
100
AcDbSymbolTableRecord
100
AcDbViewportTableRecord
  2
*ACTIVE
 70
     0
 10
0.0
 20
0.0
 11
1.0
 21
1.0
 12
264.459277901654
 22
372.031567945636
 13
0.0
 23
0.0
 14
1.0
 24
1.0
 15
0.0
 25
0.0
 16
0.0
 26
0.0
 36
1.0
 17
0.0
 27
0.0
 37
0.0
 40
425.300482789653
 41
1.759407069555
 42
50.0
 43
0.0
 44
0.0
 50
0.0
 51
0.0
 71
    16
 72
   100
 73
     1
 74
     0
 75
     0
 76
     0
 77
     0
 78
     0
  0
ENDTAB
  0
TABLE
  2
LTYPE
  5
5
330
0
100
AcDbSymbolTable
 70
     6
  0
LTYPE
  5
14
330
5
100
AcDbSymbolTableRecord
100
AcDbLinetypeTableRecord
  2
BYBLOCK
 70
     0
  3

 72
    65
 73
     0
 40
0.0
  0
LTYPE
  5
15
330
5
100
AcDbSymbolTableRecord
100
AcDbLinetypeTableRecord
  2
BYLAYER
 70
     0
  3

 72
    65
 73
     0
 40
0.0
  0
LTYPE
  5
16
330
5
100
AcDbSymbolTableRecord
100
AcDbLinetypeTableRecord
  2
CONTINUOUS
 70
     0
  3
Solid line
 72
    65
 73
     0
 40
0.0
  0
LTYPE
  5
1EC
330
5
100
AcDbSymbolTableRecord
100
AcDbLinetypeTableRecord
  2
CENTER
 70
     0
  3
____ _ ____ _ ____ _ ____ _ ____ _ ____ _ ____ 
 72
    65
 73
     4
 40
2.0
 49
1.25
 74
     0
 49
-0.25
 74
     0
 49
0.25
 74
     0
 49
-0.25
 74
     0
  0
LTYPE
  5
1ED
330
5
100
AcDbSymbolTableRecord
100
AcDbLinetypeTableRecord
  2
DASHED
 70
     0
  3
__ __ __ __ __ __ __ __ __ __ __ __ __ __ __ __
 72
    65
 73
     2
 40
0.75
 49
0.5
 74
     0
 49
-0.25
 74
     0
  0
LTYPE
  5
2B1F
330
5
100
AcDbSymbolTableRecord
100
AcDbLinetypeTableRecord
  2
DASHDOT
 70
     0
  3
一点鎖線
 72
    65
 73
     4
 40
25.6
 49
20.0
 74
     0
 49
-2.0
 74
     0
 49
1.6
 74
     0
 49
-2.0
 74
     0
  0
LTYPE
  5
31A1
330
5
100
AcDbSymbolTableRecord
100
AcDbLinetypeTableRecord
  2
CENTER2
 70
     0
  3
Center (.5x) ___ _ ___ _ ___ _ ___ _ ___ _ ___
 72
    65
 73
     4
 40
28.575
 49
19.05
 74
     0
 49
-3.175
 74
     0
 49
3.175
 74
     0
 49
-3.175
 74
     0
  0
LTYPE
  5
4002
330
5
100
AcDbSymbolTableRecord
100
AcDbLinetypeTableRecord
  2
DASHED2
 70
     0
  3
Dashed (.5x) _ _ _ _ _ _ _ _ _ _ _ _ _ _ _ _ _
 72
    65
 73
     2
 40
9.525
 49
6.35
 74
     0
 49
-3.175
 74
     0
  0
ENDTAB
  0
TABLE
  2
LAYER
  5
2
102
{ACAD_XDICTIONARY
360
29EA
102
}
330
0
100
AcDbSymbolTable
 70
    12
  0
LAYER
  5
F
330
2
100
AcDbSymbolTableRecord
100
AcDbLayerTableRecord
  2
0
 70
     0
 62
     7
  6
CONTINUOUS
  0
LAYER
  5
61
330
2
100
AcDbSymbolTableRecord
100
AcDbLayerTableRecord
  2
図枠太線
 70
     0
 62
   251
  6
CONTINUOUS
  0
LAYER
  5
62
330
2
100
AcDbSymbolTableRecord
100
AcDbLayerTableRecord
  2
図枠細線
 70
     0
 62
   252
  6
CONTINUOUS
  0
LAYER
  5
63
330
2
100
AcDbSymbolTableRecord
100
AcDbLayerTableRecord
  2
図枠ロゴマーク
 70
     0
 62
   253
  6
CONTINUOUS
  0
LAYER
  5
1EF
330
2
100
AcDbSymbolTableRecord
100
AcDbLayerTableRecord
  2
外形線
 70
     0
 62
     7
  6
CONTINUOUS
  0
LAYER
  5
1F0
330
2
100
AcDbSymbolTableRecord
100
AcDbLayerTableRecord
  2
寸法線
 70
     0
 62
     1
  6
CONTINUOUS
  0
LAYER
  5
1F1
330
2
100
AcDbSymbolTableRecord
100
AcDbLayerTableRecord
  2
中心線
 70
     0
 62
     4
  6
CENTER
  0
LAYER
  5
1F4
330
2
100
AcDbSymbolTableRecord
100
AcDbLayerTableRecord
  2
DEFPOINTS
 70
     0
 62
     7
  6
CONTINUOUS
  0
LAYER
  5
2AA2
330
2
100
AcDbSymbolTableRecord
100
AcDbLayerTableRecord
  2
下書線
 70
     0
 62
     2
  6
CONTINUOUS
  0
LAYER
  5
2AA3
330
2
100
AcDbSymbolTableRecord
100
AcDbLayerTableRecord
  2
隠れ線
 70
     0
 62
     3
  6
DASHED
  0
LAYER
  5
2AA4
330
2
100
AcDbSymbolTableRecord
100
AcDbLayerTableRecord
  2
細線
 70
     0
 62
     6
  6
CONTINUOUS
  0
LAYER
  5
2AA5
330
2
100
AcDbSymbolTableRecord
100
AcDbLayerTableRecord
  2
太線
 70
     0
 62
   190
  6
CONTINUOUS
  0
ENDTAB
  0
TABLE
  2
STYLE
  5
3
330
0
100
AcDbSymbolTable
 70
     2
  0
STYLE
  5
10
330
3
100
AcDbSymbolTableRecord
100
AcDbTextStyleTableRecord
  2
STANDARD
 70
     0
 40
0.0
 41
1.0
 50
0.0
 71
     0
 42
4.0
  3
ISOCP
  4
bigfont.shx
  0
STYLE
  5
64
330
3
100
AcDbSymbolTableRecord
100
AcDbTextStyleTableRecord
  2
EXCADSTD
 70
     0
 40
0.0
 41
1.0
 50
0.0
 71
     0
 42
0.2
  3
monotxt
  4
bigfont
  0
ENDTAB
  0
TABLE
  2
VIEW
  5
6
330
0
100
AcDbSymbolTable
 70
     0
  0
ENDTAB
  0
TABLE
  2
UCS
  5
7
330
0
100
AcDbSymbolTable
 70
     0
  0
ENDTAB
  0
TABLE
  2
APPID
  5
9
330
0
100
AcDbSymbolTable
 70
     6
  0
APPID
  5
11
330
9
100
AcDbSymbolTableRecord
100
AcDbRegAppTableRecord
  2
ACAD
 70
     0
  0
APPID
  5
3507
330
9
100
AcDbSymbolTableRecord
100
AcDbRegAppTableRecord
  2
ACAD_DIMASSOC_CALC_DIMLFAC
 70
     0
  0
APPID
  5
3508
330
9
100
AcDbSymbolTableRecord
100
AcDbRegAppTableRecord
  2
ACAD_DIMASSOC_DIMLFAC
 70
     0
  0
APPID
  5
3509
330
9
100
AcDbSymbolTableRecord
100
AcDbRegAppTableRecord
  2
ACAD_DIMASSOC_OVERRIDDEN_D
 70
     0
  0
APPID
  5
4B8B
330
9
100
AcDbSymbolTableRecord
100
AcDbRegAppTableRecord
  2
ACADANNOTATIVE
 70
     0
  0
APPID
  5
4F19
330
9
100
AcDbSymbolTableRecord
100
AcDbRegAppTableRecord
  2
ACAD_MLEADERVER
 70
     0
  0
ENDTAB
  0
TABLE
  2
DIMSTYLE
  5
A
330
0
100
AcDbSymbolTable
 70
     2
  0
DIMSTYLE
105
1D
330
A
100
AcDbSymbolTableRecord
100
AcDbDimStyleTableRecord
  2
STANDARD
 70
     0
  3

  4

  5

  6

  7

 40
1.0
 41
0.18
 42
0.0625
 43
0.38
 44
0.18
 45
0.0
 46
0.0
 47
0.0
 48
0.0
140
0.18
141
0.09
142
0.0
143
25.4
144
1.0
145
0.0
146
1.0
147
0.09
 71
     0
 72
     0
 73
     1
 74
     1
 75
     0
 76
     0
 77
     0
 78
     0
170
     0
171
     2
172
     0
173
     0
174
     0
175
     0
176
     0
177
     0
178
     0
270
     2
271
     4
272
     4
273
     2
274
     2
340
10
275
     0
280
     0
281
     0
282
     0
283
     1
284
     0
285
     0
286
     0
287
     3
288
     0
  0
DIMSTYLE
105
24
102
{ACAD_REACTORS
330
4618
330
4663
330
4845
330
499E
330
4DDD
330
4DDE
330
4DDF
330
4DE0
330
4DE1
330
4DE9
330
4E75
330
5566
102
}
330
A
100
AcDbSymbolTableRecord
100
AcDbDimStyleTableRecord
  2
ISO-25
 70
     0
  3

  4

  5

  6

  7

 40
1.0
 41
2.5
 42
0.625
 43
3.75
 44
1.25
 45
0.0
 46
0.0
 47
0.0
 48
0.0
140
2.5
141
2.5
142
0.0
143
0.0394
144
1.0
145
1.0
146
1.0
147
0.625
 71
     0
 72
     0
 73
     1
 74
     0
 75
     0
 76
     0
 77
     1
 78
     8
170
     0
171
     2
172
     1
173
     0
174
     0
175
     0
176
     0
177
     0
178
     0
270
     2
271
     4
272
     4
273
     2
274
     2
340
10
275
     0
280
     0
281
     0
282
     0
283
     1
284
     0
285
     0
286
     0
287
     3
288
     0
  0
ENDTAB
  0
TABLE
  2
BLOCK_RECORD
  5
1
330
0
100
AcDbSymbolTable
 70
    75
  0
BLOCK_RECORD
  5
1A
330
1
100
AcDbSymbolTableRecord
100
AcDbBlockTableRecord
  2
*MODEL_SPACE
  0
BLOCK_RECORD
  5
28FB
330
1
100
AcDbSymbolTableRecord
100
AcDbBlockTableRecord
  2
*PAPER_SPACE
  0
BLOCK_RECORD
  5
65
330
1
100
AcDbSymbolTableRecord
100
AcDbBlockTableRecord
  2
A$C3392
  0
BLOCK_RECORD
  5
29BF
330
1
100
AcDbSymbolTableRecord
100
AcDbBlockTableRecord
  2
A4横用_タイトル
1001
ACAD
1000
DesignCenter Data
1002
{
1070
     1
1070
     4
1002
}
  0
BLOCK_RECORD
  5
29F4
330
1
100
AcDbSymbolTableRecord
100
AcDbBlockTableRecord
  2
A4縦用_タイトル
1001
ACAD
1000
DesignCenter Data
1002
{
1070
     1
1070
     4
1002
}
  0
BLOCK_RECORD
  5
2A32
330
1
100
AcDbSymbolTableRecord
100
AcDbBlockTableRecord
  2
A3横用_タイトル
1001
ACAD
1000
DesignCenter Data
1002
{
1070
     1
1070
     4
1002
}
  0
BLOCK_RECORD
  5
2A6C
330
1
100
AcDbSymbolTableRecord
100
AcDbBlockTableRecord
  2
A3縦用_タイトル
1001
ACAD
1000
DesignCenter Data
1002
{
1070
     1
1070
     4
1002
}
  0
BLOCK_RECORD
  5
2AF4
330
1
100
AcDbSymbolTableRecord
100
AcDbBlockTableRecord
  2
_OPEN30
  0
BLOCK_RECORD
  5
4619
330
1
100
AcDbSymbolTableRecord
100
AcDbBlockTableRecord
  2
*D13
  0
BLOCK_RECORD
  5
4664
330
1
100
AcDbSymbolTableRecord
100
AcDbBlockTableRecord
  2
*D15
  0
BLOCK_RECORD
  5
46A0
330
1
100
AcDbSymbolTableRecord
100
AcDbBlockTableRecord
  2
静電容量センサ
  0
BLOCK_RECORD
  5
4846
330
1
100
AcDbSymbolTableRecord
100
AcDbBlockTableRecord
  2
*D20
  0
BLOCK_RECORD
  5
4A1F
330
1
100
AcDbSymbolTableRecord
100
AcDbBlockTableRecord
  2
*D43
  0
BLOCK_RECORD
  5
4E26
330
1
100
AcDbSymbolTableRecord
100
AcDbBlockTableRecord
  2
*D64
  0
BLOCK_RECORD
  5
4E31
330
1
100
AcDbSymbolTableRecord
100
AcDbBlockTableRecord
  2
*D65
  0
BLOCK_RECORD
  5
4E3C
330
1
100
AcDbSymbolTableRecord
100
AcDbBlockTableRecord
  2
*D66
  0
BLOCK_RECORD
  5
4E47
330
1
100
AcDbSymbolTableRecord
100
AcDbBlockTableRecord
  2
*D67
  0
BLOCK_RECORD
  5
4E52
330
1
100
AcDbSymbolTableRecord
100
AcDbBlockTableRecord
  2
*D68
  0
BLOCK_RECORD
  5
4E6A
330
1
100
AcDbSymbolTableRecord
100
AcDbBlockTableRecord
  2
*D70
  0
BLOCK_RECORD
  5
4E76
330
1
100
AcDbSymbolTableRecord
100
AcDbBlockTableRecord
  2
*D71
  0
BLOCK_RECORD
  5
5575
330
1
100
AcDbSymbolTableRecord
100
AcDbBlockTableRecord
  2
*D74
  0
ENDTAB
  0
ENDSEC
  0
SECTION
  2
BLOCKS
  0
BLOCK
  5
1B
330
1A
100
AcDbEntity
  8
0
100
AcDbBlockBegin
  2
*MODEL_SPACE
 70
     0
 10
0.0
 20
0.0
 30
0.0
  3
*MODEL_SPACE
  1

  0
ENDBLK
  5
1C
330
1A
100
AcDbEntity
  8
0
100
AcDbBlockEnd
  0
BLOCK
  5
28FD
330
28FB
100
AcDbEntity
 67
     1
  8
0
 48
10.0
100
AcDbBlockBegin
  2
*PAPER_SPACE
 70
     0
 10
0.0
 20
0.0
 30
0.0
  3
*PAPER_SPACE
  1

  0
ENDBLK
  5
28FE
330
28FB
100
AcDbEntity
 67
     1
  8
0
 48
10.0
100
AcDbBlockEnd
  0
BLOCK
  5
93
330
65
100
AcDbEntity
  8
0
100
AcDbBlockBegin
  2
A$C3392
 70
     0
 10
0.0
 20
0.0
 30
0.0
  3
A$C3392
  1

  0
LINE
  5
66
330
65
100
AcDbEntity
  8
図枠太線
  6
CONTINUOUS
100
AcDbLine
 10
211.858584505185
 20
30.927375675439
 30
0.0
 11
211.858584505185
 21
0.927375675439
 31
0.0
  0
LINE
  5
67
330
65
100
AcDbEntity
  8
図枠細線
  6
CONTINUOUS
100
AcDbLine
 10
231.858592505185
 20
15.927377675439
 30
0.0
 11
287.858592505185
 21
15.927375675439
 31
0.0
  0
LINE
  5
68
330
65
100
AcDbEntity
  8
図枠細線
  6
CONTINUOUS
100
AcDbLine
 10
211.858592505185
 20
15.927377675439
 30
0.0
 11
231.858592505185
 21
15.927377675439
 31
0.0
  0
LINE
  5
69
330
65
100
AcDbEntity
  8
図枠太線
  6
CONTINUOUS
 62
   251
100
AcDbLine
 10
1.858584505185
 20
0.927375675439
 30
0.0
 11
1.858584505185
 21
275.927375675439
 31
0.0
  0
TEXT
  5
6A
330
65
100
AcDbEntity
  8
図枠細線
  6
CONTINUOUS
 62
   252
100
AcDbText
 10
351.358592505185
 20
28.427377675439
 30
0.0
 40
2.0
  1
ＴＩＴＬＥ
 41
0.903614457831
  7
EXCADSTD
 72
     5
 11
361.358592505185
 21
28.427377675439
 31
0.0
100
AcDbText
  0
TEXT
  5
6B
330
65
100
AcDbEntity
  8
図枠細線
  6
CONTINUOUS
 62
   252
100
AcDbText
 10
345.358592505185
 20
28.427377675439
 30
0.0
 40
2.0
  1
名称
 41
1.171875
  7
EXCADSTD
 72
     5
 11
350.358592505185
 21
28.427377675439
 31
0.0
100
AcDbText
  0
TEXT
  5
6C
330
65
100
AcDbEntity
  8
図枠細線
  6
CONTINUOUS
 62
   252
100
AcDbText
 10
274.358592505185
 20
25.927377675439
 30
0.0
 40
2.0
  1
ＤＲＡＷＮ
 41
0.882352941176
  7
EXCADSTD
 72
     5
 11
284.358592505185
 21
25.927377675439
 31
0.0
100
AcDbText
  0
TEXT
  5
6D
330
65
100
AcDbEntity
  8
図枠細線
  6
CONTINUOUS
 62
   252
100
AcDbText
 10
260.358592505185
 20
25.927377675439
 30
0.0
 40
2.0
  1
ＤＥＳＩＧＮＥＤ
 41
0.713043472041
  7
EXCADSTD
 72
     5
 11
273.478592390744
 21
25.927377675439
 31
0.0
100
AcDbText
  0
TEXT
  5
6E
330
65
100
AcDbEntity
  8
図枠細線
  6
CONTINUOUS
 62
   252
100
AcDbText
 10
246.358592505185
 20
25.927377675439
 30
0.0
 40
2.0
  1
ＣＨＥＣＫＥＤ
 41
0.831249989569
  7
EXCADSTD
 72
     5
 11
259.658592338292
 21
25.927377675439
 31
0.0
100
AcDbText
  0
TEXT
  5
6F
330
65
100
AcDbEntity
  8
図枠細線
  6
CONTINUOUS
 62
   252
100
AcDbText
 10
274.358592505185
 20
28.427377675439
 30
0.0
 40
2.0
  1
製図
 41
1.209677419355
  7
EXCADSTD
 72
     5
 11
279.358592505185
 21
28.427377675439
 31
0.0
100
AcDbText
  0
TEXT
  5
70
330
65
100
AcDbEntity
  8
図枠細線
  6
CONTINUOUS
 62
   252
100
AcDbText
 10
260.358592505185
 20
28.427377675439
 30
0.0
 40
2.0
  1
設計
 41
1.171875
  7
EXCADSTD
 72
     5
 11
265.358592505185
 21
28.427377675439
 31
0.0
100
AcDbText
  0
TEXT
  5
71
330
65
100
AcDbEntity
  8
図枠細線
  6
CONTINUOUS
 62
   252
100
AcDbText
 10
246.358592505185
 20
28.427377675439
 30
0.0
 40
2.0
  1
検図
 41
1.209677419355
  7
EXCADSTD
 72
     5
 11
251.358592505185
 21
28.427377675439
 31
0.0
100
AcDbText
  0
TEXT
  5
72
330
65
100
AcDbEntity
  8
図枠細線
  6
CONTINUOUS
 62
   252
100
AcDbText
 10
232.358592505185
 20
25.927377675439
 30
0.0
 40
2.0
  1
ＡＰＰＲＯＶＥＤ
 41
0.695652184279
  7
EXCADSTD
 72
     5
 11
245.15859269592
 21
25.927377675439
 31
0.0
100
AcDbText
  0
TEXT
  5
73
330
65
100
AcDbEntity
  8
図枠細線
  6
CONTINUOUS
 62
   252
100
AcDbText
 10
232.358592505185
 20
28.427377675439
 30
0.0
 40
2.0
  1
承認
 41
1.171875
  7
EXCADSTD
 72
     5
 11
237.358592505185
 21
28.427377675439
 31
0.0
100
AcDbText
  0
TEXT
  5
74
330
65
100
AcDbEntity
  8
図枠細線
  6
CONTINUOUS
 62
   252
100
AcDbText
 10
290.069888505185
 20
2.574868675439
 30
0.0
 40
3.5
  1
ＴＯＷＡ　ＳＥＩＤＥＮ　ＩＮＤＵＳＴＲＩＡＬ　ＣＯ．，ＬＴＤ．
 41
0.414568012377
  7
EXCADSTD
 72
     5
 11
342.692388209546
 21
2.574868675439
 31
0.0
100
AcDbText
  0
TEXT
  5
75
330
65
100
AcDbEntity
  8
図枠ロゴマーク
  6
CONTINUOUS
 62
   253
100
AcDbText
 10
290.107348505185
 20
7.519769675439
 30
0.0
 40
7.0
  1
東和制電工業株式会社
 41
0.639204545455
  7
EXCADSTD
 72
     5
 11
342.607348505185
 21
7.519769675439
 31
0.0
100
AcDbText
  0
TEXT
  5
76
330
65
100
AcDbEntity
  8
図枠細線
  6
CONTINUOUS
 62
   252
100
AcDbText
 10
232.499705505185
 20
5.759088675439
 30
0.0
 40
2.0
  1
ＰＲＯＪＥＣＴＩＯＮ
 41
0.754285710199
  7
EXCADSTD
 72
     5
 11
250.099705409817
 21
5.759088675439
 31
0.0
100
AcDbText
  0
TEXT
  5
77
330
65
100
AcDbEntity
  8
図枠細線
  6
CONTINUOUS
 62
   252
100
AcDbText
 10
232.574629505185
 20
8.681077675439
 30
0.0
 40
2.0
  1
ＴＨＩＲＤ　ＡＮＧＬＥ
 41
0.691099486738
  7
EXCADSTD
 72
     5
 11
250.174629767445
 21
8.681077675439
 31
0.0
100
AcDbText
  0
TEXT
  5
78
330
65
100
AcDbEntity
  8
図枠細線
  6
CONTINUOUS
 62
   252
100
AcDbText
 10
256.823999505185
 20
13.427377675439
 30
0.0
 40
2.0
  1
ＳＣＡＬＥ
 41
0.903614457831
  7
EXCADSTD
 72
     5
 11
266.823999505185
 21
13.427377675439
 31
0.0
100
AcDbText
  0
TEXT
  5
79
330
65
100
AcDbEntity
  8
図枠細線
  6
CONTINUOUS
 62
   252
100
AcDbText
 10
274.858592505185
 20
13.427377675439
 30
0.0
 40
2.0
  1
ＤＡＴＥ
 41
0.923076923077
  7
EXCADSTD
 72
     5
 11
282.858592505185
 21
13.427377675439
 31
0.0
100
AcDbText
  0
TEXT
  5
7A
330
65
100
AcDbEntity
  8
図枠細線
  6
CONTINUOUS
 62
   252
100
AcDbText
 10
356.358592505185
 20
13.427377675439
 30
0.0
 40
2.0
  1
ＤＲＧ．ＮＯ．
 41
0.9375
  7
EXCADSTD
 72
     5
 11
370.358592505185
 21
13.427377675439
 31
0.0
100
AcDbText
  0
TEXT
  5
7B
330
65
100
AcDbEntity
  8
図枠細線
  6
CONTINUOUS
 62
   252
100
AcDbText
 10
345.358592505185
 20
13.427377675439
 30
0.0
 40
2.0
  1
図面番号
 41
1.102941176471
  7
EXCADSTD
 72
     5
 11
355.358592505185
 21
13.427377675439
 31
0.0
100
AcDbText
  0
TEXT
  5
7C
330
65
100
AcDbEntity
  8
図枠細線
  6
CONTINUOUS
 62
   252
100
AcDbText
 10
269.358592505185
 20
13.427377675439
 30
0.0
 40
2.0
  1
日付
 41
1.171875
  7
EXCADSTD
 72
     5
 11
274.358592505185
 21
13.427377675439
 31
0.0
100
AcDbText
  0
TEXT
  5
7D
330
65
100
AcDbEntity
  8
図枠細線
  6
CONTINUOUS
 62
   252
100
AcDbText
 10
251.451512505185
 20
13.427377675439
 30
0.0
 40
2.0
  1
尺度
 41
1.171875
  7
EXCADSTD
 72
     5
 11
256.451512505185
 21
13.427377675439
 31
0.0
100
AcDbText
  0
TEXT
  5
7E
330
65
100
AcDbEntity
  8
図枠細線
  6
CONTINUOUS
 62
   252
100
AcDbText
 10
232.358592505185
 20
13.427377675439
 30
0.0
 40
2.0
  1
第三角法
 41
1.102941176471
  7
EXCADSTD
 72
     5
 11
242.358592505185
 21
13.427377675439
 31
0.0
100
AcDbText
  0
TEXT
  5
7F
330
65
100
AcDbEntity
  8
図枠細線
  6
CONTINUOUS
 62
   252
100
AcDbText
 10
212.358592505185
 20
28.427377675439
 30
0.0
 40
2.0
  1
ＮＯＴＥ
 41
0.923076923077
  7
EXCADSTD
 72
     5
 11
220.358592505185
 21
28.427377675439
 31
0.0
100
AcDbText
  0
LINE
  5
80
330
65
100
AcDbEntity
  8
図枠細線
  6
CONTINUOUS
 62
   252
100
AcDbLine
 10
287.858592505185
 20
23.427375675439
 30
0.0
 11
344.858592505185
 21
23.427375675439
 31
0.0
  0
LINE
  5
81
330
65
100
AcDbEntity
  8
図枠太線
  6
CONTINUOUS
 62
   251
100
AcDbLine
 10
287.858584505185
 20
15.927375675439
 30
0.0
 11
344.858592505185
 21
15.927375675439
 31
0.0
  0
LINE
  5
82
330
65
100
AcDbEntity
  8
図枠細線
  6
CONTINUOUS
 62
   252
100
AcDbLine
 10
344.858592505185
 20
15.927375675439
 30
0.0
 11
401.858584505185
 21
15.927375675439
 31
0.0
  0
LINE
  5
83
330
65
100
AcDbEntity
  8
図枠太線
  6
CONTINUOUS
 62
   251
100
AcDbLine
 10
344.858592505185
 20
0.927377675439
 30
0.0
 11
344.858592505185
 21
30.927375675439
 31
0.0
  0
LINE
  5
84
330
65
100
AcDbEntity
  8
図枠太線
  6
CONTINUOUS
 62
   251
100
AcDbLine
 10
287.858592505185
 20
0.927377675439
 30
0.0
 11
287.858592505185
 21
30.927375675439
 31
0.0
  0
LINE
  5
85
330
65
100
AcDbEntity
  8
図枠細線
  6
CONTINUOUS
 62
   252
100
AcDbLine
 10
268.858592505185
 20
0.927377675439
 30
0.0
 11
268.858592505185
 21
15.927375675439
 31
0.0
  0
LINE
  5
86
330
65
100
AcDbEntity
  8
図枠細線
  6
CONTINUOUS
 62
   252
100
AcDbLine
 10
250.858592505185
 20
0.927377675439
 30
0.0
 11
250.858592505185
 21
15.927375675439
 31
0.0
  0
LINE
  5
87
330
65
100
AcDbEntity
  8
図枠細線
  6
CONTINUOUS
 62
   252
100
AcDbLine
 10
273.858592505185
 20
30.927375675439
 30
0.0
 11
273.858592505185
 21
15.927375675439
 31
0.0
  0
LINE
  5
88
330
65
100
AcDbEntity
  8
図枠細線
  6
CONTINUOUS
 62
   252
100
AcDbLine
 10
259.858592505185
 20
30.927375675439
 30
0.0
 11
259.858592505185
 21
15.927375675439
 31
0.0
  0
LINE
  5
89
330
65
100
AcDbEntity
  8
図枠細線
  6
CONTINUOUS
 62
   252
100
AcDbLine
 10
245.858592505185
 20
30.927375675439
 30
0.0
 11
245.858592505185
 21
15.927375675439
 31
0.0
  0
LINE
  5
8A
330
65
100
AcDbEntity
  8
図枠太線
  6
CONTINUOUS
 62
   251
100
AcDbLine
 10
231.858592505185
 20
0.927377675439
 30
0.0
 11
231.858592505185
 21
30.927375675439
 31
0.0
  0
LINE
  5
8B
330
65
100
AcDbEntity
  8
図枠細線
  6
CONTINUOUS
 62
   252
100
AcDbLine
 10
211.858592505185
 20
25.927375675439
 30
0.0
 11
231.858592505185
 21
25.927375675439
 31
0.0
  0
LINE
  5
8C
330
65
100
AcDbEntity
  8
図枠細線
  6
CONTINUOUS
 62
   252
100
AcDbLine
 10
211.858592505185
 20
20.927375675439
 30
0.0
 11
231.858592505185
 21
20.927375675439
 31
0.0
  0
LINE
  5
8D
330
65
100
AcDbEntity
  8
図枠細線
  6
CONTINUOUS
 62
   252
100
AcDbLine
 10
211.858592505185
 20
10.927375675439
 30
0.0
 11
231.858592505185
 21
10.927375675439
 31
0.0
  0
LINE
  5
8E
330
65
100
AcDbEntity
  8
図枠細線
  6
CONTINUOUS
 62
   252
100
AcDbLine
 10
211.858592505185
 20
5.927377675439
 30
0.0
 11
231.858592505185
 21
5.927377675439
 31
0.0
  0
LINE
  5
8F
330
65
100
AcDbEntity
  8
図枠太線
  6
CONTINUOUS
 62
   251
100
AcDbLine
 10
211.858592505185
 20
30.927375675439
 30
0.0
 11
401.858584505185
 21
30.927375675439
 31
0.0
  0
LINE
  5
90
330
65
100
AcDbEntity
  8
図枠太線
  6
CONTINUOUS
 62
   251
100
AcDbLine
 10
1.858584505185
 20
275.927375675439
 30
0.0
 11
401.858584505185
 21
275.927375675439
 31
0.0
  0
LINE
  5
91
330
65
100
AcDbEntity
  8
図枠太線
  6
CONTINUOUS
 62
   251
100
AcDbLine
 10
401.858584505185
 20
0.927375675439
 30
0.0
 11
401.858584505185
 21
275.927375675439
 31
0.0
  0
LINE
  5
92
330
65
100
AcDbEntity
  8
図枠太線
  6
CONTINUOUS
 62
   251
100
AcDbLine
 10
1.858584505185
 20
0.927375675439
 30
0.0
 11
401.858584505185
 21
0.927375675439
 31
0.0
  0
ENDBLK
  5
94
330
65
100
AcDbEntity
  8
0
100
AcDbBlockEnd
  0
BLOCK
  5
29C0
330
29BF
100
AcDbEntity
  8
0
100
AcDbBlockBegin
  2
A4横用_タイトル
 70
     0
 10
0.0
 20
0.0
 30
0.0
  3
A4横用_タイトル
  1

  0
LINE
  5
29C1
330
29BF
100
AcDbEntity
  8
図枠細線
  6
CONTINUOUS
100
AcDbLine
 10
75.061011071051
 20
16.806607253358
 30
0.0
 11
144.061011071051
 21
16.806604789072
 31
0.0
  0
LINE
  5
29C2
330
29BF
100
AcDbEntity
  8
図枠細線
  6
CONTINUOUS
 62
   252
100
AcDbLine
 10
4.061011071051
 20
11.806606253358
 30
0.0
 11
75.061011071051
 21
11.806606253358
 31
0.0
  0
LINE
  5
29C3
330
29BF
100
AcDbEntity
  8
図枠細線
  6
CONTINUOUS
 62
   252
100
AcDbLine
 10
4.061011071051
 20
21.806606253358
 30
0.0
 11
75.061011071051
 21
21.806606253358
 31
0.0
  0
LINE
  5
29C4
330
29BF
100
AcDbEntity
  8
図枠細線
  6
CONTINUOUS
 62
   252
100
AcDbLine
 10
4.061011071051
 20
26.806606253358
 30
0.0
 11
75.061011071051
 21
26.806606253358
 31
0.0
  0
LINE
  5
29C5
330
29BF
100
AcDbEntity
  8
図枠細線
  6
CONTINUOUS
100
AcDbLine
 10
4.061011071051
 20
16.806608253358
 30
0.0
 11
75.061011071051
 21
16.806608253358
 31
0.0
  0
TEXT
  5
29C6
330
29BF
100
AcDbEntity
  8
図枠細線
  6
CONTINUOUS
 62
   252
100
AcDbText
 10
76.405475827713
 20
9.560308253358
 30
0.0
 40
2.0
  1
ＴＨＩＲＤ　ＡＮＧＬＥ
 41
0.691099486738
  7
EXCADSTD
 72
     5
 11
94.005476089973
 21
9.560308253358
 31
0.0
100
AcDbText
  0
TEXT
  5
29C7
330
29BF
100
AcDbEntity
  8
図枠細線
  6
CONTINUOUS
 62
   252
100
AcDbText
 10
76.705775880921
 20
14.306608253358
 30
0.0
 40
2.0
  1
第三角法
 41
1.102941176471
  7
EXCADSTD
 72
     5
 11
86.705775880921
 21
14.306608253358
 31
0.0
100
AcDbText
  0
TEXT
  5
29C8
330
29BF
100
AcDbEntity
  8
図枠細線
  6
CONTINUOUS
 62
   252
100
AcDbText
 10
76.705775880921
 20
26.806608253358
 30
0.0
 40
2.0
  1
ＡＰＰＲＯＶＥＤ
 41
0.695652184279
  7
EXCADSTD
 72
     5
 11
89.505776071656
 21
26.806608253358
 31
0.0
100
AcDbText
  0
TEXT
  5
29C9
330
29BF
100
AcDbEntity
  8
図枠細線
  6
CONTINUOUS
 62
   252
100
AcDbText
 10
76.705775880921
 20
29.306608253358
 30
0.0
 40
2.0
  1
承認
 41
1.171875
  7
EXCADSTD
 72
     5
 11
81.705775880921
 21
29.306608253358
 31
0.0
100
AcDbText
  0
LINE
  5
29CA
330
29BF
100
AcDbEntity
  8
図枠細線
  6
CONTINUOUS
 62
   252
100
AcDbLine
 10
98.061011071051
 20
31.806606253358
 30
0.0
 11
98.061011071051
 21
16.806606253358
 31
0.0
  0
TEXT
  5
29CB
330
29BF
100
AcDbEntity
  8
図枠細線
  6
CONTINUOUS
 62
   252
100
AcDbText
 10
104.216531119804
 20
14.306608253358
 30
0.0
 40
2.0
  1
ＳＣＡＬＥ
 41
0.903614457831
  7
EXCADSTD
 72
     5
 11
114.216531119804
 21
14.306608253358
 31
0.0
100
AcDbText
  0
TEXT
  5
29CC
330
29BF
100
AcDbEntity
  8
図枠細線
  6
CONTINUOUS
 62
   252
100
AcDbText
 10
98.844044119804
 20
14.306608253358
 30
0.0
 40
2.0
  1
尺度
 41
1.171875
  7
EXCADSTD
 72
     5
 11
103.844044119804
 21
14.306608253358
 31
0.0
100
AcDbText
  0
TEXT
  5
29CD
330
29BF
100
AcDbEntity
  8
図枠細線
  6
CONTINUOUS
 62
   252
100
AcDbText
 10
98.968727707497
 20
26.806608253358
 30
0.0
 40
2.0
  1
ＣＨＥＣＫＥＤ
 41
0.831249989569
  7
EXCADSTD
 72
     5
 11
112.268727540604
 21
26.806608253358
 31
0.0
100
AcDbText
  0
TEXT
  5
29CE
330
29BF
100
AcDbEntity
  8
図枠細線
  6
CONTINUOUS
 62
   252
100
AcDbText
 10
98.968727707497
 20
29.306608253358
 30
0.0
 40
2.0
  1
検図
 41
1.209677419355
  7
EXCADSTD
 72
     5
 11
103.968727707497
 21
29.306608253358
 31
0.0
100
AcDbText
  0
LINE
  5
29CF
330
29BF
100
AcDbEntity
  8
図枠細線
  6
CONTINUOUS
 62
   252
100
AcDbLine
 10
121.061011071051
 20
31.806606253358
 30
0.0
 11
121.061011071051
 21
16.806606253358
 31
0.0
  0
TEXT
  5
29D0
330
29BF
100
AcDbEntity
  8
図枠細線
  6
CONTINUOUS
 62
   252
100
AcDbText
 10
128.001465247253
 20
14.306608253358
 30
0.0
 40
2.0
  1
ＤＡＴＥ
 41
0.923076923077
  7
EXCADSTD
 72
     5
 11
136.001465247253
 21
14.306608253358
 31
0.0
100
AcDbText
  0
TEXT
  5
29D1
330
29BF
100
AcDbEntity
  8
図枠細線
  6
CONTINUOUS
 62
   252
100
AcDbText
 10
122.066415498841
 20
14.306608253358
 30
0.0
 40
2.0
  1
日付
 41
1.171875
  7
EXCADSTD
 72
     5
 11
127.066415498841
 21
14.306608253358
 31
0.0
100
AcDbText
  0
TEXT
  5
29D2
330
29BF
100
AcDbEntity
  8
図枠細線
  6
CONTINUOUS
 62
   252
100
AcDbText
 10
121.59429406571
 20
29.306608253358
 30
0.0
 40
2.0
  1
製図
 41
1.209677419355
  7
EXCADSTD
 72
     5
 11
126.59429406571
 21
29.306608253358
 31
0.0
100
AcDbText
  0
TEXT
  5
29D3
330
29BF
100
AcDbEntity
  8
図枠細線
  6
CONTINUOUS
 62
   252
100
AcDbText
 10
121.59429406571
 20
26.806608253358
 30
0.0
 40
2.0
  1
ＤＲＡＷＮ
 41
0.882352941176
  7
EXCADSTD
 72
     5
 11
131.59429406571
 21
26.806608253358
 31
0.0
100
AcDbText
  0
TEXT
  5
29D4
330
29BF
100
AcDbEntity
  8
図枠細線
  6
CONTINUOUS
 62
   252
100
AcDbText
 10
226.591229661348
 20
14.306608253358
 30
0.0
 40
2.0
  1
ＤＲＧ．ＮＯ．
 41
0.9375
  7
EXCADSTD
 72
     5
 11
240.591229661348
 21
14.306608253358
 31
0.0
100
AcDbText
  0
LINE
  5
29D5
330
29BF
100
AcDbEntity
  8
図枠太線
  6
CONTINUOUS
 62
   251
100
AcDbLine
 10
144.061003071051
 20
16.806606253358
 30
0.0
 11
214.061011071051
 21
16.806606253358
 31
0.0
  0
LINE
  5
29D6
330
29BF
100
AcDbEntity
  8
図枠細線
  6
CONTINUOUS
 62
   252
100
AcDbLine
 10
144.061011071051
 20
24.306606253358
 30
0.0
 11
214.061011071051
 21
24.306606253358
 31
0.0
  0
TEXT
  5
29D7
330
29BF
100
AcDbEntity
  8
図枠ロゴマーク
  6
CONTINUOUS
 62
   253
100
AcDbText
 10
146.433776781596
 20
8.399000253358
 30
0.0
 40
7.0
  1
東和制電工業株式会社
 41
0.80361088462
  7
EXCADSTD
 72
     5
 11
212.437017438349
 21
8.399000253358
 31
0.0
100
AcDbText
  0
TEXT
  5
29D8
330
29BF
100
AcDbEntity
  8
図枠細線
  6
CONTINUOUS
 62
   252
100
AcDbText
 10
215.156179912936
 20
14.306608253358
 30
0.0
 40
2.0
  1
図面番号
 41
1.102941176471
  7
EXCADSTD
 72
     5
 11
225.156179912936
 21
14.306608253358
 31
0.0
100
AcDbText
  0
TEXT
  5
29D9
330
29BF
100
AcDbEntity
  8
図枠細線
  6
CONTINUOUS
 62
   252
100
AcDbText
 10
221.591229661348
 20
29.306608253358
 30
0.0
 40
2.0
  1
ＴＩＴＬＥ
 41
0.903614457831
  7
EXCADSTD
 72
     5
 11
231.591229661348
 21
29.306608253358
 31
0.0
100
AcDbText
  0
TEXT
  5
29DA
330
29BF
100
AcDbEntity
  8
図枠細線
  6
CONTINUOUS
 62
   252
100
AcDbText
 10
215.156179912936
 20
29.306608253358
 30
0.0
 40
2.0
  1
名称
 41
1.171875
  7
EXCADSTD
 72
     5
 11
220.156179912936
 21
29.306608253358
 31
0.0
100
AcDbText
  0
LINE
  5
29DB
330
29BF
100
AcDbEntity
  8
図枠太線
  6
CONTINUOUS
 62
   251
100
AcDbLine
 10
4.061011071051
 20
1.806608253358
 30
0.0
 11
284.061011071051
 21
1.806608253358
 31
0.0
  0
LINE
  5
29DC
330
29BF
100
AcDbEntity
  8
図枠細線
  6
CONTINUOUS
 62
   252
100
AcDbLine
 10
4.061011071051
 20
6.806608253358
 30
0.0
 11
75.061011071051
 21
6.806608253358
 31
0.0
  0
LINE
  5
29DD
330
29BF
100
AcDbEntity
  8
図枠太線
  6
CONTINUOUS
 62
   251
100
AcDbLine
 10
75.061011071051
 20
1.806608253358
 30
0.0
 11
75.061011071051
 21
31.806606253358
 31
0.0
  0
TEXT
  5
29DE
330
29BF
100
AcDbEntity
  8
図枠細線
  6
CONTINUOUS
 62
   252
100
AcDbText
 10
76.330551827713
 20
6.638319253358
 30
0.0
 40
2.0
  1
ＰＲＯＪＥＣＴＩＯＮ
 41
0.754285710199
  7
EXCADSTD
 72
     5
 11
93.930551732346
 21
6.638319253358
 31
0.0
100
AcDbText
  0
LINE
  5
29DF
330
29BF
100
AcDbEntity
  8
図枠細線
  6
CONTINUOUS
 62
   252
100
AcDbLine
 10
98.061011071051
 20
1.806606931929
 30
0.0
 11
98.061011071051
 21
16.806604931929
 31
0.0
  0
LINE
  5
29E0
330
29BF
100
AcDbEntity
  8
図枠細線
  6
CONTINUOUS
 62
   252
100
AcDbLine
 10
121.061011071051
 20
1.806607574787
 30
0.0
 11
121.061011071051
 21
16.806605574787
 31
0.0
  0
LINE
  5
29E1
330
29BF
100
AcDbEntity
  8
図枠太線
  6
CONTINUOUS
 62
   251
100
AcDbLine
 10
284.061011071051
 20
1.806608253358
 30
0.0
 11
284.061011071051
 21
31.806606253358
 31
0.0
  0
LINE
  5
29E2
330
29BF
100
AcDbEntity
  8
図枠細線
  6
CONTINUOUS
 62
   252
100
AcDbLine
 10
214.061011071051
 20
16.806606253358
 30
0.0
 11
284.061011071051
 21
16.806606253358
 31
0.0
  0
TEXT
  5
29E3
330
29BF
100
AcDbEntity
  8
図枠細線
  6
CONTINUOUS
 62
   252
100
AcDbText
 10
146.199593676182
 20
3.454099253358
 30
0.0
 40
3.5
  1
ＴＯＷＡ　ＳＥＩＤＥＮ　ＩＮＤＵＳＴＲＩＡＬ　ＣＯ．，ＬＴＤ．
 41
0.528937826907
  7
EXCADSTD
 72
     5
 11
213.339435171588
 21
3.454099253358
 31
0.0
100
AcDbText
  0
LINE
  5
29E4
330
29BF
100
AcDbEntity
  8
図枠太線
  6
CONTINUOUS
 62
   251
100
AcDbLine
 10
144.061011071051
 20
1.806608253358
 30
0.0
 11
144.061011071051
 21
31.806606253358
 31
0.0
  0
LINE
  5
29E5
330
29BF
100
AcDbEntity
  8
図枠太線
  6
CONTINUOUS
 62
   251
100
AcDbLine
 10
214.061011071051
 20
1.806608253358
 30
0.0
 11
214.061011071051
 21
31.806606253358
 31
0.0
  0
MTEXT
  5
29E6
330
29BF
100
AcDbEntity
  8
図枠太線
100
AcDbMText
 10
5.064337346478
 20
31.010982137407
 30
0.0
 40
2.5
 41
8.67856098472
 71
     1
 72
     5
  1
{\Fmonotxt.shx,bigfont.shx|c128;図暦}
  0
LINE
  5
29E7
330
29BF
100
AcDbEntity
  8
図枠太線
  6
CONTINUOUS
 62
   251
100
AcDbLine
 10
4.061011071051
 20
1.806608253358
 30
0.0
 11
4.061011071051
 21
31.806606253358
 31
0.0
  0
TEXT
  5
29E8
330
29BF
100
AcDbEntity
  8
図枠細線
 48
10.0
100
AcDbText
 10
12.260817420402
 20
28.625419626495
 30
0.0
 40
2.0
  1
CHANGE NOTICE
100
AcDbText
  0
ENDBLK
  5
29E9
330
29BF
100
AcDbEntity
  8
0
100
AcDbBlockEnd
  0
BLOCK
  5
29F5
330
29F4
100
AcDbEntity
  8
0
100
AcDbBlockBegin
  2
A4縦用_タイトル
 70
     0
 10
0.0
 20
0.0
 30
0.0
  3
A4縦用_タイトル
  1

  0
LINE
  5
29F6
330
29F4
100
AcDbEntity
  8
図枠太線
  6
CONTINUOUS
 62
   251
100
AcDbLine
 10
2.368253864267
 20
4.525433224584
 30
0.0
 11
192.368245864267
 21
4.525433224584
 31
0.0
  0
LINE
  5
29F7
330
29F4
100
AcDbEntity
  8
図枠太線
  6
CONTINUOUS
 62
   251
100
AcDbLine
 10
78.368245864267
 20
19.525431224584
 30
0.0
 11
135.368253864267
 21
19.525431224584
 31
0.0
  0
LINE
  5
29F8
330
29F4
100
AcDbEntity
  8
図枠細線
  6
CONTINUOUS
 62
   252
100
AcDbLine
 10
78.368253864267
 20
27.025431224584
 30
0.0
 11
135.368253864267
 21
27.025431224584
 31
0.0
  0
TEXT
  5
29F9
330
29F4
100
AcDbEntity
  8
図枠ロゴマーク
  6
CONTINUOUS
 62
   253
100
AcDbText
 10
80.617009864267
 20
11.117825224584
 30
0.0
 40
7.0
  1
東和制電工業株式会社
 41
0.639204545455
  7
EXCADSTD
 72
     5
 11
133.117009864267
 21
11.117825224584
 31
0.0
100
AcDbText
  0
TEXT
  5
29FA
330
29F4
100
AcDbEntity
  8
図枠細線
  6
CONTINUOUS
 62
   252
100
AcDbText
 10
80.579549864267
 20
6.172924224584
 30
0.0
 40
3.5
  1
ＴＯＷＡ　ＳＥＩＤＥＮ　ＩＮＤＵＳＴＲＩＡＬ　ＣＯ．，ＬＴＤ．
 41
0.414568012377
  7
EXCADSTD
 72
     5
 11
133.202049568628
 21
6.172924224584
 31
0.0
100
AcDbText
  0
LINE
  5
29FB
330
29F4
100
AcDbEntity
  8
図枠太線
  6
CONTINUOUS
 62
   251
100
AcDbLine
 10
2.368253864267
 20
4.525433224584
 30
0.0
 11
2.368253864267
 21
34.525431224584
 31
0.0
  0
TEXT
  5
29FC
330
29F4
100
AcDbEntity
  8
図枠細線
  6
CONTINUOUS
 62
   252
100
AcDbText
 10
22.504308136501
 20
12.279133224584
 30
0.0
 40
2.0
  1
ＴＨＩＲＤ　ＡＮＧＬＥ
 41
0.691099486738
  7
EXCADSTD
 72
     5
 11
40.104308398762
 21
12.279133224584
 31
0.0
100
AcDbText
  0
TEXT
  5
29FD
330
29F4
100
AcDbEntity
  8
図枠細線
  6
CONTINUOUS
 62
   252
100
AcDbText
 10
22.429384136501
 20
9.357144224584
 30
0.0
 40
2.0
  1
ＰＲＯＪＥＣＴＩＯＮ
 41
0.754285710199
  7
EXCADSTD
 72
     5
 11
40.029384041134
 21
9.357144224584
 31
0.0
100
AcDbText
  0
LINE
  5
29FE
330
29F4
100
AcDbEntity
  8
図枠細線
  6
CONTINUOUS
100
AcDbLine
 10
22.368253864267
 20
19.525433224584
 30
0.0
 11
78.368253864267
 21
19.525431224584
 31
0.0
  0
TEXT
  5
29FF
330
29F4
100
AcDbEntity
  8
図枠細線
  6
CONTINUOUS
 62
   252
100
AcDbText
 10
22.868253864267
 20
17.025433224584
 30
0.0
 40
2.0
  1
第三角法
 41
1.102941176471
  7
EXCADSTD
 72
     5
 11
32.868253864267
 21
17.025433224584
 31
0.0
100
AcDbText
  0
TEXT
  5
2A00
330
29F4
100
AcDbEntity
  8
図枠細線
  6
CONTINUOUS
 62
   252
100
AcDbText
 10
22.868253864267
 20
29.525433224584
 30
0.0
 40
2.0
  1
ＡＰＰＲＯＶＥＤ
 41
0.695652184279
  7
EXCADSTD
 72
     5
 11
35.668254055002
 21
29.525433224584
 31
0.0
100
AcDbText
  0
LINE
  5
2A01
330
29F4
100
AcDbEntity
  8
図枠細線
  6
CONTINUOUS
 62
   252
100
AcDbLine
 10
2.368253864267
 20
9.525433224584
 30
0.0
 11
22.368253864267
 21
9.525433224584
 31
0.0
  0
LINE
  5
2A02
330
29F4
100
AcDbEntity
  8
図枠細線
  6
CONTINUOUS
 62
   252
100
AcDbLine
 10
2.368253864267
 20
14.525431224584
 30
0.0
 11
22.368253864267
 21
14.525431224584
 31
0.0
  0
LINE
  5
2A03
330
29F4
100
AcDbEntity
  8
図枠細線
  6
CONTINUOUS
 62
   252
100
AcDbLine
 10
2.368253864267
 20
24.525431224584
 30
0.0
 11
22.368253864267
 21
24.525431224584
 31
0.0
  0
LINE
  5
2A04
330
29F4
100
AcDbEntity
  8
図枠細線
  6
CONTINUOUS
 62
   252
100
AcDbLine
 10
2.368253864267
 20
29.525431224584
 30
0.0
 11
22.368253864267
 21
29.525431224584
 31
0.0
  0
LINE
  5
2A05
330
29F4
100
AcDbEntity
  8
図枠細線
  6
CONTINUOUS
100
AcDbLine
 10
2.368253864267
 20
19.525433224584
 30
0.0
 11
22.368253864267
 21
19.525433224584
 31
0.0
  0
TEXT
  5
2A06
330
29F4
100
AcDbEntity
  8
図枠細線
  6
CONTINUOUS
 62
   252
100
AcDbText
 10
2.868253864267
 20
32.025433224584
 30
0.0
 40
2.0
  1
ＮＯＴＥ
 41
0.923076923077
  7
EXCADSTD
 72
     5
 11
10.868253864267
 21
32.025433224584
 31
0.0
100
AcDbText
  0
LINE
  5
2A07
330
29F4
100
AcDbEntity
  8
図枠太線
  6
CONTINUOUS
 62
   251
100
AcDbLine
 10
22.368253864267
 20
4.525433224584
 30
0.0
 11
22.368253864267
 21
34.525431224584
 31
0.0
  0
TEXT
  5
2A08
330
29F4
100
AcDbEntity
  8
図枠細線
  6
CONTINUOUS
 62
   252
100
AcDbText
 10
22.868253864267
 20
32.025433224584
 30
0.0
 40
2.0
  1
承認
 41
1.171875
  7
EXCADSTD
 72
     5
 11
27.868253864267
 21
32.025433224584
 31
0.0
100
AcDbText
  0
TEXT
  5
2A09
330
29F4
100
AcDbEntity
  8
図枠細線
  6
CONTINUOUS
 62
   252
100
AcDbText
 10
60.711709035982
 20
32.025433224584
 30
0.0
 40
2.0
  1
製図
 41
1.209677419355
  7
EXCADSTD
 72
     5
 11
65.711709035982
 21
32.025433224584
 31
0.0
100
AcDbText
  0
TEXT
  5
2A0A
330
29F4
100
AcDbEntity
  8
図枠細線
  6
CONTINUOUS
 62
   252
100
AcDbText
 10
60.711709035982
 20
29.525433224584
 30
0.0
 40
2.0
  1
ＤＲＡＷＮ
 41
0.882352941176
  7
EXCADSTD
 72
     5
 11
70.711709035982
 21
29.525433224584
 31
0.0
100
AcDbText
  0
TEXT
  5
2A0B
330
29F4
100
AcDbEntity
  8
図枠細線
  6
CONTINUOUS
 62
   252
100
AcDbText
 10
60.834891743877
 20
17.025433224584
 30
0.0
 40
2.0
  1
日付
 41
1.171875
  7
EXCADSTD
 72
     5
 11
65.834891743877
 21
17.025433224584
 31
0.0
100
AcDbText
  0
TEXT
  5
2A0C
330
29F4
100
AcDbEntity
  8
図枠細線
  6
CONTINUOUS
 62
   252
100
AcDbText
 10
47.333660864267
 20
17.025433224584
 30
0.0
 40
2.0
  1
ＳＣＡＬＥ
 41
0.903614457831
  7
EXCADSTD
 72
     5
 11
57.333660864267
 21
17.025433224584
 31
0.0
100
AcDbText
  0
TEXT
  5
2A0D
330
29F4
100
AcDbEntity
  8
図枠細線
  6
CONTINUOUS
 62
   252
100
AcDbText
 10
42.281425990082
 20
29.525433224584
 30
0.0
 40
2.0
  1
ＣＨＥＣＫＥＤ
 41
0.831249989569
  7
EXCADSTD
 72
     5
 11
55.581425823189
 21
29.525433224584
 31
0.0
100
AcDbText
  0
LINE
  5
2A0E
330
29F4
100
AcDbEntity
  8
図枠細線
  6
CONTINUOUS
 62
   252
100
AcDbLine
 10
40.968253864267
 20
34.525431224584
 30
0.0
 11
40.968253864267
 21
19.525431224584
 31
0.0
  0
LINE
  5
2A0F
330
29F4
100
AcDbEntity
  8
図枠細線
  6
CONTINUOUS
 62
   252
100
AcDbLine
 10
40.968253864267
 20
4.525433224584
 30
0.0
 11
40.968253864267
 21
19.525431224584
 31
0.0
  0
TEXT
  5
2A10
330
29F4
100
AcDbEntity
  8
図枠細線
  6
CONTINUOUS
 62
   252
100
AcDbText
 10
41.961173864267
 20
17.025433224584
 30
0.0
 40
2.0
  1
尺度
 41
1.171875
  7
EXCADSTD
 72
     5
 11
46.961173864267
 21
17.025433224584
 31
0.0
100
AcDbText
  0
TEXT
  5
2A11
330
29F4
100
AcDbEntity
  8
図枠細線
  6
CONTINUOUS
 62
   252
100
AcDbText
 10
42.281425990082
 20
32.025433224584
 30
0.0
 40
2.0
  1
検図
 41
1.209677419355
  7
EXCADSTD
 72
     5
 11
47.281425990082
 21
32.025433224584
 31
0.0
100
AcDbText
  0
LINE
  5
2A12
330
29F4
100
AcDbEntity
  8
図枠細線
  6
CONTINUOUS
 62
   252
100
AcDbLine
 10
59.768253864267
 20
34.525431224584
 30
0.0
 11
59.768253864267
 21
19.525431224584
 31
0.0
  0
LINE
  5
2A13
330
29F4
100
AcDbEntity
  8
図枠細線
  6
CONTINUOUS
 62
   252
100
AcDbLine
 10
59.768253864267
 20
4.525433224584
 30
0.0
 11
59.768253864267
 21
19.525431224584
 31
0.0
  0
LINE
  5
2A14
330
29F4
100
AcDbEntity
  8
図枠太線
  6
CONTINUOUS
 62
   251
100
AcDbLine
 10
78.368253864267
 20
4.525433224584
 30
0.0
 11
78.368253864267
 21
34.525431224584
 31
0.0
  0
TEXT
  5
2A15
330
29F4
100
AcDbEntity
  8
図枠細線
  6
CONTINUOUS
 62
   252
100
AcDbText
 10
66.334891743877
 20
17.025433224584
 30
0.0
 40
2.0
  1
ＤＡＴＥ
 41
0.923076923077
  7
EXCADSTD
 72
     5
 11
74.334891743877
 21
17.025433224584
 31
0.0
100
AcDbText
  0
LINE
  5
2A16
330
29F4
100
AcDbEntity
  8
図枠細線
  6
CONTINUOUS
 62
   252
100
AcDbLine
 10
135.368253864267
 20
19.525431224584
 30
0.0
 11
192.368245864267
 21
19.525431224584
 31
0.0
  0
TEXT
  5
2A17
330
29F4
100
AcDbEntity
  8
図枠細線
  6
CONTINUOUS
 62
   252
100
AcDbText
 10
141.868253864267
 20
32.025433224584
 30
0.0
 40
2.0
  1
ＴＩＴＬＥ
 41
0.903614457831
  7
EXCADSTD
 72
     5
 11
151.868253864267
 21
32.025433224584
 31
0.0
100
AcDbText
  0
LINE
  5
2A18
330
29F4
100
AcDbEntity
  8
図枠太線
  6
CONTINUOUS
 62
   251
100
AcDbLine
 10
135.368253864267
 20
4.525433224584
 30
0.0
 11
135.368253864267
 21
34.525431224584
 31
0.0
  0
TEXT
  5
2A19
330
29F4
100
AcDbEntity
  8
図枠細線
  6
CONTINUOUS
 62
   252
100
AcDbText
 10
135.868253864267
 20
17.025433224584
 30
0.0
 40
2.0
  1
図面番号
 41
1.102941176471
  7
EXCADSTD
 72
     5
 11
145.868253864267
 21
17.025433224584
 31
0.0
100
AcDbText
  0
TEXT
  5
2A1A
330
29F4
100
AcDbEntity
  8
図枠細線
  6
CONTINUOUS
 62
   252
100
AcDbText
 10
135.868253864267
 20
32.025433224584
 30
0.0
 40
2.0
  1
名称
 41
1.171875
  7
EXCADSTD
 72
     5
 11
140.868253864267
 21
32.025433224584
 31
0.0
100
AcDbText
  0
TEXT
  5
2A1B
330
29F4
100
AcDbEntity
  8
図枠細線
  6
CONTINUOUS
 62
   252
100
AcDbText
 10
146.868253864267
 20
17.025433224584
 30
0.0
 40
2.0
  1
ＤＲＧ．ＮＯ．
 41
0.9375
  7
EXCADSTD
 72
     5
 11
160.868253864267
 21
17.025433224584
 31
0.0
100
AcDbText
  0
LINE
  5
2A1C
330
29F4
100
AcDbEntity
  8
図枠太線
  6
CONTINUOUS
 62
   251
100
AcDbLine
 10
192.368245864267
 20
4.525433224584
 30
0.0
 11
192.368245864267
 21
34.525431224584
 31
0.0
  0
ENDBLK
  5
2A1D
330
29F4
100
AcDbEntity
  8
0
100
AcDbBlockEnd
  0
BLOCK
  5
2A33
330
2A32
100
AcDbEntity
  8
0
100
AcDbBlockBegin
  2
A3横用_タイトル
 70
     0
 10
0.0
 20
0.0
 30
0.0
  3
A3横用_タイトル
  1

  0
LINE
  5
2A34
330
2A32
100
AcDbEntity
  8
図枠細線
  6
CONTINUOUS
 62
   252
100
AcDbLine
 10
205.098414535793
 20
33.525959753527
 30
0.0
 11
305.098414535793
 21
33.525959753527
 31
0.0
  0
LINE
  5
2A35
330
2A32
100
AcDbEntity
  8
図枠太線
  6
CONTINUOUS
 62
   251
100
AcDbLine
 10
205.098414535793
 20
23.525959753527
 30
0.0
 11
305.098414535793
 21
23.525959753527
 31
0.0
  0
LINE
  5
2A36
330
2A32
100
AcDbEntity
  8
図枠細線
  6
CONTINUOUS
100
AcDbLine
 10
5.098414535793
 20
23.525959753527
 30
0.0
 11
105.098414535793
 21
23.525959753527
 31
0.0
  0
LINE
  5
2A37
330
2A32
100
AcDbEntity
  8
図枠細線
  6
CONTINUOUS
 62
   252
100
AcDbLine
 10
5.098414535793
 20
36.725957753527
 30
0.0
 11
105.098414535793
 21
36.725957753527
 31
0.0
  0
LINE
  5
2A38
330
2A32
100
AcDbEntity
  8
図枠細線
  6
CONTINUOUS
 62
   252
100
AcDbLine
 10
5.098414535793
 20
30.125957753527
 30
0.0
 11
105.098414535793
 21
30.125957753527
 31
0.0
  0
LINE
  5
2A39
330
2A32
100
AcDbEntity
  8
図枠細線
  6
CONTINUOUS
 62
   252
100
AcDbLine
 10
5.098414535793
 20
16.725959753527
 30
0.0
 11
105.098414535793
 21
16.725959753527
 31
0.0
  0
LINE
  5
2A3A
330
2A32
100
AcDbEntity
  8
図枠細線
  6
CONTINUOUS
 62
   252
100
AcDbLine
 10
5.098414535793
 20
10.125959753527
 30
0.0
 11
105.098414535793
 21
10.125959753527
 31
0.0
  0
LINE
  5
2A3B
330
2A32
100
AcDbEntity
  8
図枠細線
  6
CONTINUOUS
100
AcDbLine
 10
105.098414535793
 20
23.525961753527
 30
0.0
 11
205.098414535793
 21
23.525959753527
 31
0.0
  0
LINE
  5
2A3C
330
2A32
100
AcDbEntity
  8
図枠細線
  6
CONTINUOUS
 62
   252
100
AcDbLine
 10
138.398414535793
 20
43.525959753527
 30
0.0
 11
138.398414535793
 21
18.525957753527
 31
0.0
  0
LINE
  5
2A3D
330
2A32
100
AcDbEntity
  8
図枠細線
  6
CONTINUOUS
 62
   252
100
AcDbLine
 10
171.698414535793
 20
43.525959753527
 30
0.0
 11
171.698414535793
 21
18.525957753527
 31
0.0
  0
LINE
  5
2A3E
330
2A32
100
AcDbEntity
  8
図枠細線
  6
CONTINUOUS
 62
   252
100
AcDbLine
 10
305.098414535793
 20
23.525959753527
 30
0.0
 11
405.098414535793
 21
23.525959753527
 31
0.0
  0
TEXT
  5
2A3F
330
2A32
100
AcDbEntity
  8
図枠ロゴマーク
  6
CONTINUOUS
 62
   253
100
AcDbText
 10
206.102509212755
 20
13.294257570546
 30
0.0
 40
7.0
  1
東和制電工業株式会社
 50
0.016555220185
 41
1.186384129432
  7
EXCADSTD
 72
     5
 11
303.544188309143
 21
13.322412672217
 31
0.0
100
AcDbText
  0
MTEXT
  5
2A40
330
2A32
100
AcDbEntity
  8
図枠細線
100
AcDbMText
 10
6.356764112375
 20
41.976594175478
 30
0.0
 40
2.5
 41
49.938282706292
 71
     1
 72
     5
  1
{\Fmonotxt.shx,bigfont.shx|c128;図暦　CHANGE　NOTICE}
  0
MTEXT
  5
2A41
330
2A32
100
AcDbEntity
  8
図枠細線
 48
10.0
100
AcDbMText
 10
306.544114926828
 20
41.701835800934
 30
0.0
 40
2.5
 41
28.002809618823
 71
     1
 72
     5
  1
{\Fmonotxt.shx,bigfont.shx|c128;名称　TITLE}
  0
MTEXT
  5
2A42
330
2A32
100
AcDbEntity
  8
図枠細線
 48
10.0
100
AcDbMText
 10
307.329617114284
 20
21.606206797226
 30
0.0
 40
2.5
 41
24.385612216707
 71
     1
 72
     5
  1
{\Fmonotxt.shx,bigfont.shx|c128;図面番号\PDRG.　No.}
  0
MTEXT
  5
2A43
330
2A32
100
AcDbEntity
  8
図枠細線
 48
10.0
100
AcDbMText
 10
173.726349404609
 20
21.73680662198
 30
0.0
 40
2.5
 41
25.735090160813
 71
     1
 72
     5
  1
{\Fmonotxt.shx,bigfont.shx|c128;日付 DATE}
  0
MTEXT
  5
2A44
330
2A32
100
AcDbEntity
  8
図枠細線
 48
10.0
100
AcDbMText
 10
173.48708833982
 20
41.621592044998
 30
0.0
 40
2.5
 41
24.983741184205
 71
     1
 72
     5
  1
{\Fmonotxt.shx,bigfont.shx|c128;製図　DRAWN}
  0
MTEXT
  5
2A45
330
2A32
100
AcDbEntity
  8
図枠細線
 48
10.0
100
AcDbMText
 10
139.28009927741
 20
21.866713069868
 30
0.0
 40
2.5
 41
22.629632913243
 71
     1
 72
     5
  1
{\Fmonotxt.shx,bigfont.shx|c128;尺度　SCALE}
  0
MTEXT
  5
2A46
330
2A32
100
AcDbEntity
  8
図枠細線
 48
10.0
100
AcDbMText
 10
139.910091179835
 20
41.311840415554
 30
0.0
 40
2.5
 41
28.998753428368
 71
     1
 72
     5
  1
{\Fmonotxt.shx,bigfont.shx|c128;検図  CHECKED}
  0
MTEXT
  5
2A47
330
2A32
100
AcDbEntity
  8
図枠細線
 48
10.0
100
AcDbMText
 10
114.253294667728
 20
21.916124850174
 30
0.0
 40
3.0
 41
19.692400475383
 71
     1
 72
     5
  1
{\Fmonotxt.shx,bigfont.shx|c128;第三角法}
  0
MTEXT
  5
2A48
330
2A32
100
AcDbEntity
  8
図枠細線
 48
10.0
100
AcDbMText
 10
108.986959929915
 20
15.282880185837
 30
0.0
 40
2.5
 41
27.954882823547
 71
     1
 72
     5
  1
{\Fmonotxt.shx,bigfont.shx|c128;THIRD ANGLE\PPROJECTION}
  0
MTEXT
  5
2A49
330
2A32
100
AcDbEntity
  8
図枠細線
 48
10.0
100
AcDbMText
 10
106.319432640184
 20
41.511437145487
 30
0.0
 40
2.5
 41
28.233595265074
 71
     1
 72
     5
  1
{\Fmonotxt.shx,bigfont.shx|c128;承認 APPROVED}
  0
LINE
  5
2A4A
330
2A32
100
AcDbEntity
  8
図枠太線
  6
CONTINUOUS
 62
   251
100
AcDbLine
 10
5.098414535793
 20
3.525959753527
 30
0.0
 11
405.098414535793
 21
3.525959753527
 31
0.0
  0
LINE
  5
2A4B
330
2A32
100
AcDbEntity
  8
図枠太線
 48
10.0
100
AcDbLine
 10
5.098414535793
 20
3.525959753527
 30
0.0
 11
5.098414535793
 21
43.525959753527
 31
0.0
  0
LINE
  5
2A4C
330
2A32
100
AcDbEntity
  8
図枠太線
  6
CONTINUOUS
 62
   251
100
AcDbLine
 10
105.098414535793
 20
3.525959753527
 30
0.0
 11
105.098414535793
 21
43.525959753527
 31
0.0
  0
LINE
  5
2A4D
330
2A32
100
AcDbEntity
  8
図枠細線
  6
CONTINUOUS
 62
   252
100
AcDbLine
 10
138.398414535793
 20
3.525959753527
 30
0.0
 11
138.398414535793
 21
18.525957753527
 31
0.0
  0
LINE
  5
2A4E
330
2A32
100
AcDbEntity
  8
図枠細線
  6
CONTINUOUS
 62
   252
100
AcDbLine
 10
171.698414535793
 20
3.525959753527
 30
0.0
 11
171.698414535793
 21
18.525957753527
 31
0.0
  0
LINE
  5
2A4F
330
2A32
100
AcDbEntity
  8
図枠太線
  6
CONTINUOUS
 62
   251
100
AcDbLine
 10
205.098414535793
 20
3.525959753527
 30
0.0
 11
205.098414535793
 21
43.525959753527
 31
0.0
  0
LINE
  5
2A50
330
2A32
100
AcDbEntity
  8
図枠太線
 48
10.0
100
AcDbLine
 10
405.098414535793
 20
43.525959753527
 30
0.0
 11
405.098414535793
 21
3.525959753527
 31
0.0
  0
TEXT
  5
2A51
330
2A32
100
AcDbEntity
  8
図枠細線
  6
CONTINUOUS
 62
   252
100
AcDbText
 10
208.519754474572
 20
6.482358407285
 30
0.0
 40
3.5
  1
ＴＯＷＡ　ＳＥＩＤＥＮ　ＩＮＤＵＳＴＲＩＡＬ　ＣＯ．，ＬＴＤ．
 41
0.746656297509
  7
EXCADSTD
 72
     5
 11
303.295327171727
 21
6.482358407285
 31
0.0
100
AcDbText
  0
LINE
  5
2A52
330
2A32
100
AcDbEntity
  8
図枠太線
  6
CONTINUOUS
 62
   251
100
AcDbLine
 10
305.098414535793
 20
3.525959753527
 30
0.0
 11
305.098414535793
 21
43.525959753527
 31
0.0
  0
ENDBLK
  5
2A53
330
2A32
100
AcDbEntity
  8
0
100
AcDbBlockEnd
  0
BLOCK
  5
2A6D
330
2A6C
100
AcDbEntity
  8
0
100
AcDbBlockBegin
  2
A3縦用_タイトル
 70
     0
 10
0.0
 20
0.0
 30
0.0
  3
A3縦用_タイトル
  1

  0
MTEXT
  5
2A6E
330
2A6C
100
AcDbEntity
  8
図枠細線
100
AcDbMText
 10
5.040804501593
 20
31.626098649005
 30
0.0
 40
2.5
 41
49.938282706292
 71
     1
 72
     5
  1
{\Fmonotxt.shx,bigfont.shx|c128;図暦　CHANGE　NOTICE}
  0
LINE
  5
2A6F
330
2A6C
100
AcDbEntity
  8
図枠太線
  6
CONTINUOUS
 62
   251
100
AcDbLine
 10
283.577871882961
 20
2.820844689254
 30
0.0
 11
283.577871882961
 21
32.820842689254
 31
0.0
  0
MTEXT
  5
2A70
330
2A6C
100
AcDbEntity
  8
図枠細線
 48
10.0
100
AcDbMText
 10
214.912458947454
 20
31.621488632308
 30
0.0
 40
2.5
 41
28.002809618823
 71
     1
 72
     5
  1
{\Fmonotxt.shx,bigfont.shx|c128;名称　TITLE}
  0
MTEXT
  5
2A71
330
2A6C
100
AcDbEntity
  8
図枠細線
 48
10.0
100
AcDbMText
 10
214.740030458938
 20
16.310225796722
 30
0.0
 40
2.5
 41
24.385612216707
 71
     1
 72
     5
  1
{\Fmonotxt.shx,bigfont.shx|c128;図面番号\PDRG.　No.}
  0
LINE
  5
2A72
330
2A6C
100
AcDbEntity
  8
図枠太線
  6
CONTINUOUS
 62
   251
100
AcDbLine
 10
213.577871882961
 20
2.820844689254
 30
0.0
 11
213.577871882961
 21
32.820842689254
 31
0.0
  0
LINE
  5
2A73
330
2A6C
100
AcDbEntity
  8
図枠太線
  6
CONTINUOUS
 62
   251
100
AcDbLine
 10
143.577871882961
 20
2.820844689254
 30
0.0
 11
143.577871882961
 21
32.820842689254
 31
0.0
  0
TEXT
  5
2A74
330
2A6C
100
AcDbEntity
  8
図枠細線
  6
CONTINUOUS
 62
   252
100
AcDbText
 10
145.716454488093
 20
4.468335689254
 30
0.0
 40
3.5
  1
ＴＯＷＡ　ＳＥＩＤＥＮ　ＩＮＤＵＳＴＲＩＡＬ　ＣＯ．，ＬＴＤ．
 41
0.528937826907
  7
EXCADSTD
 72
     5
 11
212.856295983498
 21
4.468335689254
 31
0.0
100
AcDbText
  0
TEXT
  5
2A75
330
2A6C
100
AcDbEntity
  8
図枠ロゴマーク
  6
CONTINUOUS
 62
   253
100
AcDbText
 10
145.950637593507
 20
9.413236689254
 30
0.0
 40
7.0
  1
東和制電工業株式会社
 41
0.80361088462
  7
EXCADSTD
 72
     5
 11
211.953878250259
 21
9.413236689254
 31
0.0
100
AcDbText
  0
LINE
  5
2A76
330
2A6C
100
AcDbEntity
  8
図枠細線
  6
CONTINUOUS
 62
   252
100
AcDbLine
 10
143.577871882961
 20
25.320842689254
 30
0.0
 11
213.577871882961
 21
25.320842689254
 31
0.0
  0
LINE
  5
2A77
330
2A6C
100
AcDbEntity
  8
図枠太線
  6
CONTINUOUS
 62
   251
100
AcDbLine
 10
143.577863882961
 20
17.820842689254
 30
0.0
 11
213.577871882961
 21
17.820842689254
 31
0.0
  0
LINE
  5
2A78
330
2A6C
100
AcDbEntity
  8
図枠細線
  6
CONTINUOUS
 62
   252
100
AcDbLine
 10
213.577871882961
 20
17.820842689254
 30
0.0
 11
283.577871882961
 21
17.820842689254
 31
0.0
  0
LINE
  5
2A79
330
2A6C
100
AcDbEntity
  8
図枠細線
  6
CONTINUOUS
 62
   252
100
AcDbLine
 10
120.577871882961
 20
32.820842689254
 30
0.0
 11
120.577871882961
 21
17.820842689254
 31
0.0
  0
MTEXT
  5
2A7A
330
2A6C
100
AcDbEntity
  8
図枠細線
 48
10.0
100
AcDbMText
 10
121.100885670352
 20
16.33785922638
 30
0.0
 40
2.0
 41
17.705978285068
 71
     1
 72
     5
  1
{\Fmonotxt.shx,bigfont.shx|c128;日付 DATE}
  0
MTEXT
  5
2A7B
330
2A6C
100
AcDbEntity
  8
図枠細線
 48
10.0
100
AcDbMText
 10
121.254842273491
 20
31.208993514037
 30
0.0
 40
2.0
 41
18.363799568758
 71
     1
 72
     5
  1
{\Fmonotxt.shx,bigfont.shx|c128;製図　DRAWN}
  0
LINE
  5
2A7C
330
2A6C
100
AcDbEntity
  8
図枠細線
  6
CONTINUOUS
 62
   252
100
AcDbLine
 10
97.577871882961
 20
32.820842689254
 30
0.0
 11
97.577871882961
 21
17.820842689254
 31
0.0
  0
MTEXT
  5
2A7D
330
2A6C
100
AcDbEntity
  8
図枠細線
 48
10.0
100
AcDbMText
 10
98.239734796872
 20
16.467764839281
 30
0.0
 40
2.0
 41
17.757791689903
 71
     1
 72
     5
  1
{\Fmonotxt.shx,bigfont.shx|c128;尺度　SCALE}
  0
MTEXT
  5
2A7E
330
2A6C
100
AcDbEntity
  8
図枠細線
 48
10.0
100
AcDbMText
 10
97.864744625154
 20
31.298433377664
 30
0.0
 40
2.0
 41
23.162655920976
 71
     1
 72
     5
  1
{\Fmonotxt.shx,bigfont.shx|c128;検図  CHECKED}
  0
LINE
  5
2A7F
330
2A6C
100
AcDbEntity
  8
図枠細線
  6
CONTINUOUS
 62
   252
100
AcDbLine
 10
97.577871882961
 20
2.820843367826
 30
0.0
 11
97.577871882961
 21
17.820841367826
 31
0.0
  0
LINE
  5
2A80
330
2A6C
100
AcDbEntity
  8
図枠細線
  6
CONTINUOUS
 62
   252
100
AcDbLine
 10
120.577871882961
 20
2.820844010683
 30
0.0
 11
120.577871882961
 21
17.820842010683
 31
0.0
  0
MTEXT
  5
2A81
330
2A6C
100
AcDbEntity
  8
図枠細線
 48
10.0
100
AcDbMText
 10
81.402399084102
 20
16.316484117426
 30
0.0
 40
2.0
 41
12.920322819369
 71
     1
 72
     5
  1
{\Fmonotxt.shx,bigfont.shx|c128;第三角法}
  0
MTEXT
  5
2A82
330
2A6C
100
AcDbEntity
  8
図枠細線
 48
10.0
100
AcDbMText
 10
75.736576535096
 20
11.080410931319
 30
0.0
 40
2.0
 41
21.072870671471
 71
     1
 72
     5
  1
{\Fmonotxt.shx,bigfont.shx|c128;THIRD ANGLE\PPROJECTION}
  0
LINE
  5
2A83
330
2A6C
100
AcDbEntity
  8
図枠太線
  6
CONTINUOUS
 62
   251
100
AcDbLine
 10
74.577871882961
 20
2.820844689254
 30
0.0
 11
74.577871882961
 21
32.820842689254
 31
0.0
  0
MTEXT
  5
2A84
330
2A6C
100
AcDbEntity
  8
図枠細線
 48
10.0
100
AcDbMText
 10
75.060214781573
 20
31.298434778555
 30
0.0
 40
2.0
 41
22.240928805967
 71
     1
 72
     5
  1
{\Fmonotxt.shx,bigfont.shx|c128;承認 APPROVED}
  0
LINE
  5
2A85
330
2A6C
100
AcDbEntity
  8
図枠細線
  6
CONTINUOUS
100
AcDbLine
 10
3.577871882961
 20
17.820844689254
 30
0.0
 11
74.577871882961
 21
17.820844689254
 31
0.0
  0
LINE
  5
2A86
330
2A6C
100
AcDbEntity
  8
図枠細線
  6
CONTINUOUS
 62
   252
100
AcDbLine
 10
3.577871882961
 20
27.820842689254
 30
0.0
 11
74.577871882961
 21
27.820842689254
 31
0.0
  0
LINE
  5
2A87
330
2A6C
100
AcDbEntity
  8
図枠細線
  6
CONTINUOUS
 62
   252
100
AcDbLine
 10
3.577871882961
 20
22.820842689254
 30
0.0
 11
74.577871882961
 21
22.820842689254
 31
0.0
  0
LINE
  5
2A88
330
2A6C
100
AcDbEntity
  8
図枠細線
  6
CONTINUOUS
 62
   252
100
AcDbLine
 10
3.577871882961
 20
12.820842689254
 30
0.0
 11
74.577871882961
 21
12.820842689254
 31
0.0
  0
LINE
  5
2A89
330
2A6C
100
AcDbEntity
  8
図枠細線
  6
CONTINUOUS
 62
   252
100
AcDbLine
 10
3.577871882961
 20
7.820844689254
 30
0.0
 11
74.577871882961
 21
7.820844689254
 31
0.0
  0
LINE
  5
2A8A
330
2A6C
100
AcDbEntity
  8
図枠細線
  6
CONTINUOUS
100
AcDbLine
 10
74.577871882961
 20
17.820843689254
 30
0.0
 11
143.577871882961
 21
17.820841224969
 31
0.0
  0
LINE
  5
2A8B
330
2A6C
100
AcDbEntity
  8
図枠太線
  6
CONTINUOUS
 62
   251
100
AcDbLine
 10
3.577871882961
 20
2.820844689254
 30
0.0
 11
283.577871882961
 21
2.820844689254
 31
0.0
  0
LINE
  5
2A8C
330
2A6C
100
AcDbEntity
  8
図枠太線
  6
CONTINUOUS
 62
   251
100
AcDbLine
 10
3.577871882961
 20
2.820844689254
 30
0.0
 11
3.577871882961
 21
32.820842689254
 31
0.0
  0
ENDBLK
  5
2A8D
330
2A6C
100
AcDbEntity
  8
0
100
AcDbBlockEnd
  0
BLOCK
  5
2AF8
330
2AF4
100
AcDbEntity
  8
0
 48
10.0
100
AcDbBlockBegin
  2
_OPEN30
 70
     0
 10
0.0
 20
0.0
 30
0.0
  3
_OPEN30
  1

  0
LINE
  5
2AF5
330
2AF4
100
AcDbEntity
  8
0
  6
BYBLOCK
 62
     0
100
AcDbLine
 10
-1.0
 20
0.26794919
 30
0.0
 11
0.0
 21
0.0
 31
0.0
  0
LINE
  5
2AF6
330
2AF4
100
AcDbEntity
  8
0
  6
BYBLOCK
 62
     0
100
AcDbLine
 10
0.0
 20
0.0
 30
0.0
 11
-1.0
 21
-0.26794919
 31
0.0
  0
LINE
  5
2AF7
330
2AF4
100
AcDbEntity
  8
0
  6
BYBLOCK
 62
     0
100
AcDbLine
 10
0.0
 20
0.0
 30
0.0
 11
-1.0
 21
0.0
 31
0.0
  0
ENDBLK
  5
2AF9
330
2AF4
100
AcDbEntity
  8
0
 48
10.0
100
AcDbBlockEnd
  0
BLOCK
  5
4623
330
4619
100
AcDbEntity
  8
0
 48
10.0
100
AcDbBlockBegin
  2
*D13
 70
     1
 10
0.0
 20
0.0
 30
0.0
  3
*D13
  1

  0
LINE
  5
4AFE
330
4619
100
AcDbEntity
  8
寸法線
 62
     0
 48
10.0
100
AcDbLine
 10
302.638468256273
 20
406.58948649626
 30
0.0
 11
302.638468256273
 21
362.151345307372
 31
0.0
  0
LINE
  5
4AFF
330
4619
100
AcDbEntity
  8
寸法線
 62
     0
 48
10.0
100
AcDbLine
 10
327.638468256272
 20
419.588796725467
 30
0.0
 11
327.638468256272
 21
362.151345307372
 31
0.0
  0
LINE
  5
4B00
330
4619
100
AcDbEntity
  8
寸法線
 62
     0
 48
10.0
100
AcDbLine
 10
308.638468256273
 20
363.401345307372
 30
0.0
 11
321.638468256272
 21
363.401345307372
 31
0.0
  0
INSERT
  5
4B01
330
4619
100
AcDbEntity
  8
寸法線
 62
     0
100
AcDbBlockReference
  2
_OPEN30
 10
302.638468256273
 20
363.401345307372
 30
0.0
 41
6.0
 42
6.0
 43
6.0
 50
180.0
  0
INSERT
  5
4B02
330
4619
100
AcDbEntity
  8
寸法線
 62
     0
100
AcDbBlockReference
  2
_OPEN30
 10
327.638468256272
 20
363.401345307372
 30
0.0
 41
6.0
 42
6.0
 43
6.0
  0
MTEXT
  5
4B03
330
4619
100
AcDbEntity
  8
寸法線
 62
     0
 48
10.0
100
AcDbMText
 10
315.138468256273
 20
368.030511974039
 30
0.0
 40
8.0
 41
0.0
 71
     5
 72
     1
  1
\A1;25
  0
POINT
  5
4B04
330
4619
100
AcDbEntity
  8
DEFPOINTS
 62
     0
100
AcDbPoint
 10
302.638468256273
 20
407.21448649626
 30
0.0
  0
POINT
  5
4B05
330
4619
100
AcDbEntity
  8
DEFPOINTS
 62
     0
100
AcDbPoint
 10
327.638468256272
 20
420.213796725467
 30
0.0
  0
POINT
  5
4B06
330
4619
100
AcDbEntity
  8
DEFPOINTS
 62
     0
100
AcDbPoint
 10
327.638468256272
 20
363.401345307372
 30
0.0
  0
ENDBLK
  5
4624
330
4619
100
AcDbEntity
  8
0
 48
10.0
100
AcDbBlockEnd
  0
BLOCK
  5
466E
330
4664
100
AcDbEntity
  8
0
 48
10.0
100
AcDbBlockBegin
  2
*D15
 70
     1
 10
0.0
 20
0.0
 30
0.0
  3
*D15
  1

  0
LINE
  5
4AEC
330
4664
100
AcDbEntity
  8
寸法線
 62
     0
 48
10.0
100
AcDbLine
 10
327.638468256273
 20
419.588796725466
 30
0.0
 11
327.638468256273
 21
362.151345307372
 31
0.0
  0
LINE
  5
4AED
330
4664
100
AcDbEntity
  8
寸法線
 62
     0
 48
10.0
100
AcDbLine
 10
347.638468256273
 20
419.588796725466
 30
0.0
 11
347.638468256273
 21
362.151345307372
 31
0.0
  0
LINE
  5
4AEE
330
4664
100
AcDbEntity
  8
寸法線
 62
     0
 48
10.0
100
AcDbLine
 10
333.638468256273
 20
363.401345307372
 30
0.0
 11
341.638468256273
 21
363.401345307372
 31
0.0
  0
INSERT
  5
4AEF
330
4664
100
AcDbEntity
  8
寸法線
 62
     0
100
AcDbBlockReference
  2
_OPEN30
 10
327.638468256273
 20
363.401345307372
 30
0.0
 41
6.0
 42
6.0
 43
6.0
 50
180.0
  0
INSERT
  5
4AF0
330
4664
100
AcDbEntity
  8
寸法線
 62
     0
100
AcDbBlockReference
  2
_OPEN30
 10
347.638468256273
 20
363.401345307372
 30
0.0
 41
6.0
 42
6.0
 43
6.0
  0
MTEXT
  5
4AF1
330
4664
100
AcDbEntity
  8
寸法線
 62
     0
 48
10.0
100
AcDbMText
 10
337.638468256273
 20
368.030511974039
 30
0.0
 40
8.0
 41
0.0
 71
     5
 72
     1
  1
\A1;20
  0
POINT
  5
4AF2
330
4664
100
AcDbEntity
  8
DEFPOINTS
 62
     0
100
AcDbPoint
 10
327.638468256273
 20
420.213796725466
 30
0.0
  0
POINT
  5
4AF3
330
4664
100
AcDbEntity
  8
DEFPOINTS
 62
     0
100
AcDbPoint
 10
347.638468256273
 20
420.213796725466
 30
0.0
  0
POINT
  5
4AF4
330
4664
100
AcDbEntity
  8
DEFPOINTS
 62
     0
100
AcDbPoint
 10
347.638468256273
 20
363.401345307372
 30
0.0
  0
ENDBLK
  5
466F
330
4664
100
AcDbEntity
  8
0
 48
10.0
100
AcDbBlockEnd
  0
BLOCK
  5
46A1
330
46A0
100
AcDbEntity
  8
0
 48
10.0
100
AcDbBlockBegin
  2
静電容量センサ
 70
     0
 10
0.0
 20
0.0
 30
0.0
  3
静電容量センサ
  1

  0
ARC
  5
46A2
330
46A0
100
AcDbEntity
  8
外形線
 48
10.0
100
AcDbCircle
 10
1021.898525663106
 20
1073.412780408912
 30
0.0
 40
1.0
100
AcDbArc
 50
180.0
 51
268.999999999998
  0
ARC
  5
46A3
330
46A0
100
AcDbEntity
  8
外形線
 48
10.0
100
AcDbCircle
 10
1021.898525663106
 20
1115.960781516243
 30
0.0
 40
1.0
100
AcDbArc
 50
91.000000000002
 51
180.0
  0
LINE
  5
46A4
330
46A0
100
AcDbEntity
  8
外形線
 48
10.0
100
AcDbLine
 10
1020.898525663106
 20
1115.960781516243
 30
0.0
 11
1020.898525663106
 21
1073.412780408912
 31
0.0
  0
LINE
  5
46A5
330
46A0
100
AcDbEntity
  8
外形線
 48
10.0
100
AcDbLine
 10
1035.026308504175
 20
1117.944859066978
 30
0.0
 11
1041.278741748243
 21
1143.02199911049
 31
0.0
  0
ARC
  5
46A6
330
46A0
100
AcDbEntity
  8
外形線
 48
10.0
100
AcDbCircle
 10
1046.130220379623
 20
1141.812389632491
 30
0.0
 40
5.0
100
AcDbArc
 50
91.3
 51
166.000000000004
  0
ARC
  5
46A7
330
46A0
100
AcDbEntity
  8
外形線
 48
10.0
100
AcDbCircle
 10
1034.056012777899
 20
1118.186780962578
 30
0.0
 40
1.0
100
AcDbArc
 50
270.0
 51
346.000000000004
  0
ARC
  5
46A8
330
46A0
100
AcDbEntity
  8
外形線
 48
10.0
100
AcDbCircle
 10
1034.056012777899
 20
1118.186780962578
 30
0.0
 40
1.0
100
AcDbArc
 50
270.0
 51
346.000000000004
  0
LINE
  5
46A9
330
46A0
100
AcDbEntity
  8
外形線
 48
10.0
100
AcDbLine
 10
1021.881073256669
 20
1116.960629211399
 30
0.0
 11
1034.056012777899
 21
1117.186780962578
 31
0.0
  0
ARC
  5
46AA
330
46A0
100
AcDbEntity
  8
外形線
 48
10.0
100
AcDbCircle
 10
1122.899564892808
 20
1151.93622955513
 30
0.0
 40
0.5
100
AcDbArc
 50
359.999254274584
 51
88.999999999998
  0
ARC
  5
46AB
330
46A0
100
AcDbEntity
  8
細線
 48
10.0
100
AcDbCircle
 10
1123.898525663106
 20
1107.819822714047
 30
0.0
 40
0.5
100
AcDbArc
 50
180.0
 51
264.089361084595
  0
ARC
  5
46AC
330
46A0
100
AcDbEntity
  8
外形線
 48
10.0
100
AcDbCircle
 10
1123.898525663106
 20
1100.44543233102
 30
0.0
 40
0.5
100
AcDbArc
 50
91.000000000002
 51
180.0
  0
ARC
  5
46AD
330
46A0
100
AcDbEntity
  8
細線
 48
10.0
100
AcDbCircle
 10
1123.898525663106
 20
1108.078641759149
 30
0.0
 40
0.5
100
AcDbArc
 50
180.0
 51
264.089361084595
  0
ARC
  5
46AE
330
46A0
100
AcDbEntity
  8
細線
 48
10.0
100
AcDbCircle
 10
1123.898525663106
 20
1129.71320712675
 30
0.0
 40
0.5
100
AcDbArc
 50
180.0
 51
254.206830951738
  0
ARC
  5
46AF
330
46A0
100
AcDbEntity
  8
細線
 48
10.0
100
AcDbCircle
 10
1123.898525663106
 20
1130.420313907937
 30
0.0
 40
0.5
100
AcDbArc
 50
180.0
 51
254.206830951738
  0
ARC
  5
46B0
330
46A0
100
AcDbEntity
  8
細線
 48
10.0
100
AcDbCircle
 10
1123.898525663106
 20
1142.359984147006
 30
0.0
 40
0.5
100
AcDbArc
 50
180.0
 51
248.874947125989
  0
ARC
  5
46B1
330
46A0
100
AcDbEntity
  8
細線
 48
10.0
100
AcDbCircle
 10
1123.898525663106
 20
1143.325909973296
 30
0.0
 40
0.5
100
AcDbArc
 50
180.0
 51
248.874947125989
  0
ARC
  5
46B2
330
46A0
100
AcDbEntity
  8
外形線
 48
10.0
100
AcDbCircle
 10
1123.898413585187
 20
1144.632076415673
 30
0.0
 40
0.5
100
AcDbArc
 50
180.019033969455
 51
248.025023881972
  0
LINE
  5
46B3
330
46A0
100
AcDbEntity
  8
外形線
 48
10.0
100
AcDbLine
 10
1123.398525663106
 20
1143.325909973296
 30
0.0
 11
1123.398525663106
 21
1144.294618045039
 31
0.0
  0
LINE
  5
46B4
330
46A0
100
AcDbEntity
  8
外形線
 48
10.0
100
AcDbLine
 10
1123.398525663106
 20
1142.359984147006
 30
0.0
 11
1123.398525663106
 21
1142.98307227703
 31
0.0
  0
LINE
  5
46B5
330
46A0
100
AcDbEntity
  8
外形線
 48
10.0
100
AcDbLine
 10
1123.398525663106
 20
1130.420313907937
 30
0.0
 11
1123.398525663106
 21
1142.017146450741
 31
0.0
  0
LINE
  5
46B6
330
46A0
100
AcDbEntity
  8
外形線
 48
10.0
100
AcDbLine
 10
1123.398525663106
 20
1129.71320712675
 30
0.0
 11
1123.398525663106
 21
1130.042120021904
 31
0.0
  0
LINE
  5
46B7
330
46A0
100
AcDbEntity
  8
外形線
 48
10.0
100
AcDbLine
 10
1123.398525663106
 20
1108.078641759149
 30
0.0
 11
1123.398525663106
 21
1130.420313907937
 31
0.0
  0
LINE
  5
46B8
330
46A0
100
AcDbEntity
  8
外形線
 48
10.0
100
AcDbLine
 10
1123.398525663106
 20
1107.819822714047
 30
0.0
 11
1123.398525663106
 21
1108.700149198143
 31
0.0
  0
LINE
  5
46B9
330
46A0
100
AcDbEntity
  8
外形線
 48
10.0
100
AcDbLine
 10
1123.398525663106
 20
1100.44543233102
 30
0.0
 11
1123.398525663106
 21
1108.078641759149
 31
0.0
  0
ARC
  5
46BA
330
46A0
100
AcDbEntity
  8
外形線
 48
10.0
100
AcDbCircle
 10
1123.898525663106
 20
1088.928129594135
 30
0.0
 40
0.5
100
AcDbArc
 50
180.0
 51
268.999999999998
  0
LINE
  5
46BB
330
46A0
100
AcDbEntity
  8
外形線
 48
10.0
100
AcDbLine
 10
1123.398525663106
 20
1088.928129594135
 30
0.0
 11
1123.398525663106
 21
1100.44543233102
 31
0.0
  0
ARC
  5
46BC
330
46A0
100
AcDbEntity
  8
外形線
 48
10.0
100
AcDbCircle
 10
1135.396646406818
 20
1087.727276821958
 30
0.0
 40
0.5
100
AcDbArc
 50
0.002863323129
 51
88.999999999998
  0
ARC
  5
46BD
330
46A0
100
AcDbEntity
  8
外形線
 48
10.0
100
AcDbCircle
 10
1135.396646406818
 20
1101.646285103198
 30
0.0
 40
0.5
100
AcDbArc
 50
271.000000000002
 51
359.997136676878
  0
ARC
  5
46BE
330
46A0
100
AcDbEntity
  8
細線
 48
10.0
100
AcDbCircle
 10
1135.398359871226
 20
1105.882746614783
 30
0.0
 40
0.5
100
AcDbArc
 50
359.978936747976
 51
84.089361084595
  0
ARC
  5
46BF
330
46A0
100
AcDbEntity
  8
細線
 48
10.0
100
AcDbCircle
 10
1135.396845195015
 20
1105.6240843805
 30
0.0
 40
0.5
100
AcDbArc
 50
359.997136676878
 51
84.089361084595
  0
ARC
  5
46C0
330
46A0
100
AcDbEntity
  8
細線
 48
10.0
100
AcDbCircle
 10
1135.398405428356
 20
1136.84472607817
 30
0.0
 40
0.5
100
AcDbArc
 50
359.997136676878
 51
68.874947125989
  0
ARC
  5
46C1
330
46A0
100
AcDbEntity
  8
細線
 48
10.0
100
AcDbCircle
 10
1135.398453699003
 20
1137.810633254114
 30
0.0
 40
0.5
100
AcDbArc
 50
359.997136676878
 51
68.874947125989
  0
ARC
  5
46C2
330
46A0
100
AcDbEntity
  8
外形線
 48
10.0
100
AcDbCircle
 10
1135.398508800797
 20
1138.913233296621
 30
0.0
 40
0.5
100
AcDbArc
 50
359.997136676878
 51
68.025023881972
  0
LINE
  5
46C3
330
46A0
100
AcDbEntity
  8
外形線
 48
10.0
100
AcDbLine
 10
1135.405372610037
 20
1101.146361255619
 30
0.0
 11
1123.889799459887
 21
1100.945356178598
 31
0.0
  0
LINE
  5
46C4
330
46A0
100
AcDbEntity
  8
外形線
 48
10.0
100
AcDbLine
 10
1135.405372610037
 20
1088.227200669536
 30
0.0
 11
1123.889799459887
 21
1088.428205746557
 31
0.0
  0
LINE
  5
46C5
330
46A0
100
AcDbEntity
  8
外形線
 48
10.0
100
AcDbLine
 10
1123.711312779708
 20
1144.168402728055
 30
0.0
 11
1135.585609606275
 21
1139.376906984239
 31
0.0
  0
LINE
  5
46C6
330
46A0
100
AcDbEntity
  8
細線
 48
10.0
100
AcDbLine
 10
1135.448333812772
 20
1106.121426237015
 30
0.0
 11
1123.847037045349
 21
1107.322480857532
 31
0.0
  0
LINE
  5
46C7
330
46A0
100
AcDbEntity
  8
細線
 48
10.0
100
AcDbLine
 10
1135.449848488983
 20
1106.380088471297
 30
0.0
 11
1123.847037045349
 21
1107.581299902634
 31
0.0
  0
LINE
  5
46C8
330
46A0
100
AcDbEntity
  8
細線
 48
10.0
100
AcDbLine
 10
1135.533952658586
 20
1126.609702933466
 30
0.0
 11
1123.762442899618
 21
1129.939188683612
 31
0.0
  0
LINE
  5
46C9
330
46A0
100
AcDbEntity
  8
細線
 48
10.0
100
AcDbLine
 10
1135.578607784566
 20
1137.311124095764
 30
0.0
 11
1123.718323306896
 21
1141.893586129411
 31
0.0
  0
LINE
  5
46CA
330
46A0
100
AcDbEntity
  8
細線
 48
10.0
100
AcDbLine
 10
1135.578656055213
 20
1138.277031271709
 30
0.0
 11
1123.718323306896
 21
1142.859511955701
 31
0.0
  0
LINE
  5
46CB
330
46A0
100
AcDbEntity
  8
外形線
 48
10.0
100
AcDbLine
 10
1108.899561566736
 20
1152.686780962578
 30
0.0
 11
1122.908291096026
 21
1152.436153402709
 31
0.0
  0
LINE
  5
46CC
330
46A0
100
AcDbEntity
  8
外形線
 48
10.0
100
AcDbLine
 10
1108.899561566736
 20
1152.686780962578
 30
0.0
 11
1108.399561566736
 21
1152.180676686204
 31
0.0
  0
LINE
  5
46CD
330
46A0
100
AcDbEntity
  8
外形線
 48
10.0
100
AcDbLine
 10
1108.399561566736
 20
1151.192885238951
 30
0.0
 11
1108.399561566736
 21
1150.692885238951
 31
0.0
  0
ARC
  5
46CE
330
46A0
100
AcDbEntity
  8
外形線
 48
10.0
100
AcDbCircle
 10
1098.998525663106
 20
1152.414559409545
 30
0.0
 40
4.4
100
AcDbArc
 50
271.3
 51
0.0
  0
LINE
  5
46CF
330
46A0
100
AcDbEntity
  8
外形線
 48
10.0
100
AcDbLine
 10
1046.016783711759
 20
1146.811102679105
 30
0.0
 11
1099.098349930826
 21
1148.015691928525
 31
0.0
  0
LINE
  5
46D0
330
46A0
100
AcDbEntity
  8
外形線
 48
10.0
100
AcDbLine
 10
1103.398525663105
 20
1152.686780962578
 30
0.0
 11
1103.398525663105
 21
1152.414559409545
 31
0.0
  0
LINE
  5
46D1
330
46A0
100
AcDbEntity
  8
外形線
 48
10.0
100
AcDbLine
 10
1106.398525663105
 20
1152.686780962578
 30
0.0
 11
1103.398525663105
 21
1152.686780962578
 31
0.0
  0
ARC
  5
46D2
330
46A0
100
AcDbEntity
  8
外形線
 48
10.0
100
AcDbCircle
 10
1107.898525663105
 20
1150.161780962577
 30
0.0
 40
1.500000000000156
100
AcDbArc
 50
70.528779365514
 51
179.999999999993
  0
LINE
  5
46D3
330
46A0
100
AcDbEntity
  8
細線
 48
10.0
100
AcDbLine
 10
1108.899561566736
 20
1152.686780962578
 30
0.0
 11
1108.899561566736
 21
1036.686780962578
 31
0.0
  0
LINE
  5
46D4
330
46A0
100
AcDbEntity
  8
細線
 48
10.0
100
AcDbLine
 10
1108.899561566736
 20
1152.680676686204
 30
0.0
 11
1108.899561566736
 21
1036.692885238951
 31
0.0
  0
LINE
  5
46D5
330
46A0
100
AcDbEntity
  8
外形線
 48
10.0
100
AcDbLine
 10
1123.398525663106
 20
1072.956444458874
 30
0.0
 11
1123.398525663106
 21
1059.660354798405
 31
0.0
  0
ARC
  5
46D6
330
46A0
100
AcDbEntity
  8
細線
 48
10.0
100
AcDbCircle
 10
1123.898525663106
 20
1047.013577778149
 30
0.0
 40
0.5
100
AcDbArc
 50
111.125052874011
 51
180.0
  0
ARC
  5
46D7
330
46A0
100
AcDbEntity
  8
細線
 48
10.0
100
AcDbCircle
 10
1123.898066965619
 20
1046.04747472476
 30
0.0
 40
0.5
100
AcDbArc
 50
111.125052874011
 51
179.923306313171
  0
ARC
  5
46D8
330
46A0
100
AcDbEntity
  8
細線
 48
10.0
100
AcDbCircle
 10
1123.898525663106
 20
1059.660354798405
 30
0.0
 40
0.5
100
AcDbArc
 50
105.793169048262
 51
180.0
  0
ARC
  5
46D9
330
46A0
100
AcDbEntity
  8
細線
 48
10.0
100
AcDbCircle
 10
1123.898525663106
 20
1058.953248017218
 30
0.0
 40
0.5
100
AcDbArc
 50
105.793169048262
 51
180.0
  0
ARC
  5
46DA
330
46A0
100
AcDbEntity
  8
細線
 48
10.0
100
AcDbCircle
 10
1123.898525663106
 20
1081.294920166006
 30
0.0
 40
0.5
100
AcDbArc
 50
95.910638915405
 51
180.0
  0
ARC
  5
46DB
330
46A0
100
AcDbEntity
  8
細線
 48
10.0
100
AcDbCircle
 10
1123.898525663106
 20
1081.553739211108
 30
0.0
 40
0.5
100
AcDbArc
 50
95.910638915405
 51
180.0
  0
LINE
  5
46DC
330
46A0
100
AcDbEntity
  8
外形線
 48
10.0
100
AcDbLine
 10
1123.398525663106
 20
1081.294920166006
 30
0.0
 11
1123.398525663106
 21
1088.928129594135
 31
0.0
  0
LINE
  5
46DD
330
46A0
100
AcDbEntity
  8
外形線
 48
10.0
100
AcDbLine
 10
1123.398525663106
 20
1081.745828707453
 30
0.0
 11
1123.398525663106
 21
1082.004647752555
 31
0.0
  0
LINE
  5
46DE
330
46A0
100
AcDbEntity
  8
外形線
 48
10.0
100
AcDbLine
 10
1123.398525663106
 20
1072.956444458874
 30
0.0
 11
1123.398525663106
 21
1081.294920166006
 31
0.0
  0
LINE
  5
46DF
330
46A0
100
AcDbEntity
  8
外形線
 48
10.0
100
AcDbLine
 10
1123.398525663106
 20
1058.953248017218
 30
0.0
 11
1123.398525663106
 21
1059.660354798405
 31
0.0
  0
LINE
  5
46E0
330
46A0
100
AcDbEntity
  8
外形線
 48
10.0
100
AcDbLine
 10
1123.398525663106
 20
1047.013577778149
 30
0.0
 11
1123.398525663106
 21
1058.953248017218
 31
0.0
  0
LINE
  5
46E1
330
46A0
100
AcDbEntity
  8
外形線
 48
10.0
100
AcDbLine
 10
1123.398067413553
 20
1046.048144003235
 30
0.0
 11
1123.398525663106
 21
1047.013577778149
 31
0.0
  0
LINE
  5
46E2
330
46A0
100
AcDbEntity
  8
外形線
 48
10.0
100
AcDbLine
 10
1123.396317242873
 20
1044.740639597053
 30
0.0
 11
1123.398067413553
 21
1046.048144003235
 31
0.0
  0
ARC
  5
46E3
330
46A0
100
AcDbEntity
  8
外形線
 48
10.0
100
AcDbCircle
 10
1123.896317242873
 20
1044.740639597053
 30
0.0
 40
0.5
100
AcDbArc
 50
111.974976118028
 51
180.0
  0
ARC
  5
46E4
330
46A0
100
AcDbEntity
  8
細線
 48
10.0
100
AcDbCircle
 10
1135.398494161258
 20
1063.952267566336
 30
0.0
 40
0.5
100
AcDbArc
 50
285.793169048262
 51
0.004772330144
  0
ARC
  5
46E5
330
46A0
100
AcDbEntity
  8
細線
 48
10.0
100
AcDbCircle
 10
1135.398525663106
 20
1063.245169695216
 30
0.0
 40
0.5
100
AcDbArc
 50
285.793169048262
 51
0.0
  0
ARC
  5
46E6
330
46A0
100
AcDbEntity
  8
細線
 48
10.0
100
AcDbCircle
 10
1135.398525663106
 20
1052.528882302126
 30
0.0
 40
0.5
100
AcDbArc
 50
291.125052874011
 51
0.0
  0
ARC
  5
46E7
330
46A0
100
AcDbEntity
  8
細線
 48
10.0
100
AcDbCircle
 10
1135.398525663106
 20
1051.562956475835
 30
0.0
 40
0.5
100
AcDbArc
 50
291.125052874011
 51
0.0
  0
ARC
  5
46E8
330
46A0
100
AcDbEntity
  8
外形線
 48
10.0
100
AcDbCircle
 10
1135.398525663106
 20
1050.460335432784
 30
0.0
 40
0.5
100
AcDbArc
 50
291.974976118028
 51
0.0
  0
LINE
  5
46E9
330
46A0
100
AcDbEntity
  8
外形線
 48
10.0
100
AcDbLine
 10
1135.898525663106
 20
1051.562956475835
 30
0.0
 11
1135.898525663106
 21
1050.460335432784
 31
0.0
  0
LINE
  5
46EA
330
46A0
100
AcDbEntity
  8
外形線
 48
10.0
100
AcDbLine
 10
1135.898525663106
 20
1052.528882302126
 30
0.0
 11
1135.898525663106
 21
1051.562956475835
 31
0.0
  0
LINE
  5
46EB
330
46A0
100
AcDbEntity
  8
外形線
 48
10.0
100
AcDbLine
 10
1135.898525663106
 20
1063.245169695216
 30
0.0
 11
1135.898525663106
 21
1052.528882302126
 31
0.0
  0
LINE
  5
46EC
330
46A0
100
AcDbEntity
  8
外形線
 48
10.0
100
AcDbLine
 10
1135.898494159523
 20
1063.952309212773
 30
0.0
 11
1135.898525663106
 21
1063.245169695216
 31
0.0
  0
LINE
  5
46ED
330
46A0
100
AcDbEntity
  8
外形線
 48
10.0
100
AcDbLine
 10
1135.896845194391
 20
1083.749502531863
 30
0.0
 11
1135.898494159523
 21
1063.952309212773
 31
0.0
  0
ARC
  5
46EE
330
46A0
100
AcDbEntity
  8
細線
 48
10.0
100
AcDbCircle
 10
1135.396794220963
 20
1083.49065322233
 30
0.0
 40
0.5
100
AcDbArc
 50
275.910638915405
 51
0.00199902817
  0
ARC
  5
46EF
330
46A0
100
AcDbEntity
  8
細線
 48
10.0
100
AcDbCircle
 10
1135.396845195015
 20
1083.749477544655
 30
0.0
 40
0.5
100
AcDbArc
 50
275.910638915405
 51
0.002863323129
  0
ARC
  5
46F0
330
46A0
100
AcDbEntity
  8
外形線
 48
10.0
100
AcDbCircle
 10
1122.897486448612
 20
1037.437296090646
 30
0.0
 40
0.5
100
AcDbArc
 50
271.000000000002
 51
359.984453673186
  0
LINE
  5
46F1
330
46A0
100
AcDbEntity
  8
外形線
 48
10.0
100
AcDbLine
 10
1135.896646406194
 20
1087.727301809166
 30
0.0
 11
1135.896794220659
 21
1083.490670667142
 31
0.0
  0
LINE
  5
46F2
330
46A0
100
AcDbEntity
  8
外形線
 48
10.0
100
AcDbLine
 10
1123.709216437395
 20
1045.204313284671
 30
0.0
 11
1135.585626468584
 21
1049.996661745166
 31
0.0
  0
LINE
  5
46F3
330
46A0
100
AcDbEntity
  8
細線
 48
10.0
100
AcDbLine
 10
1135.578728019316
 20
1052.062484284531
 30
0.0
 11
1123.718323306896
 21
1047.479975795744
 31
0.0
  0
LINE
  5
46F4
330
46A0
100
AcDbEntity
  8
細線
 48
10.0
100
AcDbLine
 10
1135.578728019316
 20
1051.09655845824
 30
0.0
 11
1123.717864609409
 21
1046.513872742355
 31
0.0
  0
LINE
  5
46F5
330
46A0
100
AcDbEntity
  8
細線
 48
10.0
100
AcDbLine
 10
1135.534608426593
 20
1062.764044470891
 30
0.0
 11
1123.762442899618
 21
1059.434373241543
 31
0.0
  0
LINE
  5
46F6
330
46A0
100
AcDbEntity
  8
細線
 48
10.0
100
AcDbLine
 10
1135.534576924746
 20
1063.471142342011
 30
0.0
 11
1123.762442899618
 21
1060.141480022729
 31
0.0
  0
LINE
  5
46F7
330
46A0
100
AcDbEntity
  8
細線
 48
10.0
100
AcDbLine
 10
1135.44828283872
 20
1082.993311365815
 30
0.0
 11
1123.847037045349
 21
1081.792262022521
 31
0.0
  0
LINE
  5
46F8
330
46A0
100
AcDbEntity
  8
細線
 48
10.0
100
AcDbLine
 10
1135.448333812772
 20
1083.25213568814
 30
0.0
 11
1123.847037045349
 21
1082.051081067623
 31
0.0
  0
LINE
  5
46F9
330
46A0
100
AcDbEntity
  8
外形線
 48
10.0
100
AcDbLine
 10
1123.399470041665
 20
1044.747733739171
 30
0.0
 11
1123.397486430207
 21
1037.437160423353
 31
0.0
  0
LINE
  5
46FA
330
46A0
100
AcDbEntity
  8
外形線
 48
10.0
100
AcDbLine
 10
1123.399564892765
 20
1151.936223047449
 30
0.0
 11
1123.397486430207
 21
1037.437160423353
 31
0.0
  0
LINE
  5
46FB
330
46A0
100
AcDbEntity
  8
外形線
 48
10.0
100
AcDbLine
 10
1108.399561566736
 20
1152.180676686204
 30
0.0
 11
1108.399561566736
 21
1037.192885238951
 31
0.0
  0
LINE
  5
46FC
330
46A0
100
AcDbEntity
  8
外形線
 48
10.0
100
AcDbLine
 10
1108.899561566736
 20
1036.686780962578
 30
0.0
 11
1122.906212651831
 21
1036.937372243068
 31
0.0
  0
LINE
  5
46FD
330
46A0
100
AcDbEntity
  8
外形線
 48
10.0
100
AcDbLine
 10
1108.899561566736
 20
1036.686780962578
 30
0.0
 11
1108.399561566736
 21
1037.192885238951
 31
0.0
  0
LINE
  5
46FE
330
46A0
100
AcDbEntity
  8
外形線
 48
10.0
100
AcDbLine
 10
1108.399561566736
 20
1038.192885238951
 30
0.0
 11
1108.399561566736
 21
1038.692885238951
 31
0.0
  0
LINE
  5
46FF
330
46A0
100
AcDbEntity
  8
外形線
 48
10.0
100
AcDbLine
 10
1035.022931603883
 20
1071.442246865485
 30
0.0
 11
1041.278741748243
 21
1046.351562814666
 31
0.0
  0
ARC
  5
4700
330
46A0
100
AcDbEntity
  8
外形線
 48
10.0
100
AcDbCircle
 10
1046.130220379623
 20
1047.561172292664
 30
0.0
 40
5.0
100
AcDbArc
 50
193.999999999996
 51
268.7
  0
ARC
  5
4701
330
46A0
100
AcDbEntity
  8
外形線
 48
10.0
100
AcDbCircle
 10
1034.052635877606
 20
1071.200324969886
 30
0.0
 40
1.0
100
AcDbArc
 50
13.999999999996
 51
89.000000000011
  0
ARC
  5
4702
330
46A0
100
AcDbEntity
  8
外形線
 48
10.0
100
AcDbCircle
 10
1069.398525663106
 20
1041.031595836918
 30
0.0
 40
1.0
100
AcDbArc
 50
0.0
 51
88.7
  0
ARC
  5
4703
330
46A0
100
AcDbEntity
  8
外形線
 48
10.0
100
AcDbCircle
 10
1071.398525663106
 20
1031.186780962577
 30
0.0
 40
1.0
100
AcDbArc
 50
180.0
 51
270.0
  0
ARC
  5
4704
330
46A0
100
AcDbEntity
  8
外形線
 48
10.0
100
AcDbCircle
 10
1105.398525663105
 20
1031.186780962577
 30
0.0
 40
1.0
100
AcDbArc
 50
270.0
 51
0.0
  0
LINE
  5
4705
330
46A0
100
AcDbEntity
  8
外形線
 48
10.0
100
AcDbLine
 10
1070.398525663106
 20
1031.186780962577
 30
0.0
 11
1070.398525663106
 21
1041.031595836918
 31
0.0
  0
LINE
  5
4706
330
46A0
100
AcDbEntity
  8
外形線
 48
10.0
100
AcDbLine
 10
1046.016783711759
 20
1042.56245924605
 30
0.0
 11
1099.098349930826
 21
1041.35786999663
 31
0.0
  0
LINE
  5
4707
330
46A0
100
AcDbEntity
  8
外形線
 48
10.0
100
AcDbLine
 10
1021.881073256668
 20
1072.412932713756
 30
0.0
 11
1034.070088284044
 21
1072.200172665042
 31
0.0
  0
LINE
  5
4708
330
46A0
100
AcDbEntity
  8
外形線
 48
10.0
100
AcDbLine
 10
1106.398525663105
 20
1040.711780962577
 30
0.0
 11
1106.398525663105
 21
1031.186780962577
 31
0.0
  0
LINE
  5
4709
330
46A0
100
AcDbEntity
  8
外形線
 48
10.0
100
AcDbLine
 10
1106.398525663105
 20
1040.711780962577
 30
0.0
 11
1106.398525663105
 21
1152.686780962578
 31
0.0
  0
LINE
  5
470A
330
46A0
100
AcDbEntity
  8
外形線
 48
10.0
100
AcDbLine
 10
1105.398525663105
 20
1030.186780962577
 30
0.0
 11
1071.398525663106
 21
1030.186780962577
 31
0.0
  0
LINE
  5
470B
330
46A0
100
AcDbEntity
  8
外形線
 48
10.0
100
AcDbLine
 10
1103.398525663106
 20
1036.95900251561
 30
0.0
 11
1103.398525663105
 21
1036.692885238951
 31
0.0
  0
LINE
  5
470C
330
46A0
100
AcDbEntity
  8
外形線
 48
10.0
100
AcDbLine
 10
1106.398525663105
 20
1036.692885238951
 30
0.0
 11
1103.398525663105
 21
1036.692885238951
 31
0.0
  0
ARC
  5
470D
330
46A0
100
AcDbEntity
  8
外形線
 48
10.0
100
AcDbCircle
 10
1107.898525663105
 20
1039.211780962577
 30
0.0
 40
1.499999999999659
100
AcDbArc
 50
179.99999999998
 51
289.471220634515
  0
ARC
  5
470E
330
46A0
100
AcDbEntity
  8
外形線
 48
10.0
100
AcDbCircle
 10
1098.998525663106
 20
1036.95900251561
 30
0.0
 40
4.4
100
AcDbArc
 50
0.0
 51
88.7
  0
LINE
  5
470F
330
46A0
100
AcDbEntity
  8
細線
 48
10.0
100
AcDbLine
 10
1103.398525663105
 20
1152.686780962578
 30
0.0
 11
1103.398525663106
 21
1036.95900251561
 31
0.0
  0
LINE
  5
4710
330
46A0
100
AcDbEntity
  8
細線
 48
10.0
100
AcDbLine
 10
1034.837298404406
 20
1072.186780962578
 30
0.0
 11
1034.840933619068
 21
1117.201361012233
 31
0.0
  0
LINE
  5
4711
330
46A0
100
AcDbEntity
  8
細線
 48
10.0
100
AcDbLine
 10
1042.201886517784
 20
1144.905639229587
 30
0.0
 11
1042.201886517784
 21
1044.467922695569
 31
0.0
  0
LINE
  5
4712
330
46A0
100
AcDbEntity
  8
外形線
 48
10.0
100
AcDbLine
 10
1135.898508800172
 20
1138.913208309413
 30
0.0
 11
1135.896646406194
 21
1101.646260115989
 31
0.0
  0
ARC
  5
4713
330
46A0
100
AcDbEntity
  8
細線
 48
10.0
100
AcDbCircle
 10
1135.397834558349
 20
1125.421480922695
 30
0.0
 40
0.5
100
AcDbArc
 50
359.997136676878
 51
74.206830951738
  0
ARC
  5
4714
330
46A0
100
AcDbEntity
  8
細線
 48
10.0
100
AcDbCircle
 10
1135.397869895098
 20
1126.128577709141
 30
0.0
 40
0.5
100
AcDbArc
 50
359.997136676878
 51
74.206830951738
  0
LINE
  5
4715
330
46A0
100
AcDbEntity
  8
細線
 48
10.0
100
AcDbLine
 10
1135.533917321837
 20
1125.90260614702
 30
0.0
 11
1123.762442899618
 21
1129.232081902426
 31
0.0
  0
LINE
  5
4716
330
46A0
100
AcDbEntity
  8
中心線
 48
10.0
100
AcDbLine
 10
1088.398525663106
 20
1052.03299312045
 30
0.0
 11
1088.398525663106
 21
1013.722487401784
 31
0.0
  0
ENDBLK
  5
4717
330
46A0
100
AcDbEntity
  8
0
 48
10.0
100
AcDbBlockEnd
  0
BLOCK
  5
4850
330
4846
100
AcDbEntity
  8
0
 48
10.0
100
AcDbBlockBegin
  2
*D20
 70
     1
 10
0.0
 20
0.0
 30
0.0
  3
*D20
  1

  0
LINE
  5
4B3D
330
4846
100
AcDbEntity
  8
寸法線
 62
     0
 48
10.0
100
AcDbLine
 10
302.638468256273
 20
362.776345307372
 30
0.0
 11
302.638468256273
 21
340.056282997388
 31
0.0
  0
LINE
  5
4B3E
330
4846
100
AcDbEntity
  8
寸法線
 62
     0
 48
10.0
100
AcDbLine
 10
437.638503829947
 20
407.626622814943
 30
0.0
 11
437.638503829947
 21
340.056282997388
 31
0.0
  0
LINE
  5
4B3F
330
4846
100
AcDbEntity
  8
寸法線
 62
     0
 48
10.0
100
AcDbLine
 10
308.638468256273
 20
341.306282997388
 30
0.0
 11
431.638503829947
 21
341.306282997388
 31
0.0
  0
INSERT
  5
4B40
330
4846
100
AcDbEntity
  8
寸法線
 62
     0
100
AcDbBlockReference
  2
_OPEN30
 10
302.638468256273
 20
341.306282997388
 30
0.0
 41
6.0
 42
6.0
 43
6.0
 50
180.0
  0
INSERT
  5
4B41
330
4846
100
AcDbEntity
  8
寸法線
 62
     0
100
AcDbBlockReference
  2
_OPEN30
 10
437.638503829947
 20
341.306282997388
 30
0.0
 41
6.0
 42
6.0
 43
6.0
  0
MTEXT
  5
4B42
330
4846
100
AcDbEntity
  8
寸法線
 62
     0
 48
10.0
100
AcDbMText
 10
370.13848604311
 20
345.935449664055
 30
0.0
 40
8.0
 41
0.0
 71
     5
 72
     1
  1
\A1;135
  0
POINT
  5
4B43
330
4846
100
AcDbEntity
  8
DEFPOINTS
 62
     0
100
AcDbPoint
 10
302.638468256273
 20
363.401345307372
 30
0.0
  0
POINT
  5
4B44
330
4846
100
AcDbEntity
  8
DEFPOINTS
 62
     0
100
AcDbPoint
 10
437.638503829947
 20
408.251622814943
 30
0.0
  0
POINT
  5
4B45
330
4846
100
AcDbEntity
  8
DEFPOINTS
 62
     0
100
AcDbPoint
 10
437.638503829947
 20
341.306282997388
 30
0.0
  0
ENDBLK
  5
4851
330
4846
100
AcDbEntity
  8
0
 48
10.0
100
AcDbBlockEnd
  0
BLOCK
  5
4A29
330
4A1F
100
AcDbEntity
  8
0
 48
10.0
100
AcDbBlockBegin
  2
*D43
 70
     1
 10
0.0
 20
0.0
 30
0.0
  3
*D43
  1

  0
LINE
  5
4AE3
330
4A1F
100
AcDbEntity
  8
寸法線
 62
     0
 48
10.0
100
AcDbLine
 10
403.386506966404
 20
478.213833833937
 30
0.0
 11
461.625
 21
478.213833833937
 31
0.0
  0
LINE
  5
4AE4
330
4A1F
100
AcDbEntity
  8
寸法線
 62
     0
 48
10.0
100
AcDbLine
 10
423.905468256273
 20
393.213796722261
 30
0.0
 11
461.625
 21
393.213796722261
 31
0.0
  0
LINE
  5
4AE5
330
4A1F
100
AcDbEntity
  8
寸法線
 62
     0
 48
10.0
100
AcDbLine
 10
460.375
 20
472.213833833937
 30
0.0
 11
460.375
 21
399.213796722261
 31
0.0
  0
INSERT
  5
4AE6
330
4A1F
100
AcDbEntity
  8
寸法線
 62
     0
100
AcDbBlockReference
  2
_OPEN30
 10
460.375
 20
478.213833833937
 30
0.0
 41
6.0
 42
6.0
 43
6.0
 50
90.0
  0
INSERT
  5
4AE7
330
4A1F
100
AcDbEntity
  8
寸法線
 62
     0
100
AcDbBlockReference
  2
_OPEN30
 10
460.375
 20
393.213796722261
 30
0.0
 41
6.0
 42
6.0
 43
6.0
 50
270.0
  0
MTEXT
  5
4AE8
330
4A1F
100
AcDbEntity
  8
寸法線
 62
     0
 48
10.0
100
AcDbMText
 10
455.741666666666
 20
435.713815278099
 30
0.0
 40
8.0
 41
0.0
 71
     5
 72
     1
  1
\A1;85
 11
0.0
 21
1.0
 31
0.0
  0
POINT
  5
4AE9
330
4A1F
100
AcDbEntity
  8
DEFPOINTS
 62
     0
100
AcDbPoint
 10
402.761506966404
 20
478.213833833937
 30
0.0
  0
POINT
  5
4AEA
330
4A1F
100
AcDbEntity
  8
DEFPOINTS
 62
     0
100
AcDbPoint
 10
423.280468256273
 20
393.213796722261
 30
0.0
  0
POINT
  5
4AEB
330
4A1F
100
AcDbEntity
  8
DEFPOINTS
 62
     0
100
AcDbPoint
 10
460.375
 20
393.213796722261
 30
0.0
  0
ENDBLK
  5
4A2A
330
4A1F
100
AcDbEntity
  8
0
 48
10.0
100
AcDbBlockEnd
  0
BLOCK
  5
4E27
330
4E26
100
AcDbEntity
  8
0
100
AcDbBlockBegin
  2
*D64
 70
     1
 10
0.0
 20
0.0
 30
0.0
  3
*D64
  1

  0
LINE
  5
4E29
330
4E26
100
AcDbEntity
  8
寸法線
 62
     0
 48
10.0
100
AcDbLine
 10
52.638468256273
 20
431.588796727988
 30
0.0
 11
52.638468256273
 21
340.056282997388
 31
0.0
  0
LINE
  5
4E2A
330
4E26
100
AcDbEntity
  8
寸法線
 62
     0
 48
10.0
100
AcDbLine
 10
302.638468256273
 20
353.089486348731
 30
0.0
 11
302.638468256273
 21
340.056282997388
 31
0.0
  0
LINE
  5
4E2B
330
4E26
100
AcDbEntity
  8
寸法線
 62
     0
 48
10.0
100
AcDbLine
 10
58.638468256273
 20
341.306282997388
 30
0.0
 11
296.638468256273
 21
341.306282997388
 31
0.0
  0
INSERT
  5
4E2C
330
4E26
100
AcDbEntity
  8
寸法線
 62
     0
100
AcDbBlockReference
  2
_OPEN30
 10
52.638468256273
 20
341.306282997388
 30
0.0
 41
6.0
 42
6.0
 43
6.0
 50
180.0
  0
INSERT
  5
4E2D
330
4E26
100
AcDbEntity
  8
寸法線
 62
     0
100
AcDbBlockReference
  2
_OPEN30
 10
302.638468256273
 20
341.306282997388
 30
0.0
 41
6.0
 42
6.0
 43
6.0
  0
POINT
  5
4E2E
330
4E26
100
AcDbEntity
  8
DEFPOINTS
 62
     0
100
AcDbPoint
 10
52.638468256273
 20
432.213796727988
 30
0.0
  0
POINT
  5
4E2F
330
4E26
100
AcDbEntity
  8
DEFPOINTS
 62
     0
100
AcDbPoint
 10
302.638468256273
 20
353.714486348731
 30
0.0
  0
POINT
  5
4E30
330
4E26
100
AcDbEntity
  8
DEFPOINTS
 62
     0
100
AcDbPoint
 10
302.638468256273
 20
341.306282997388
 30
0.0
  0
ENDBLK
  5
4E28
330
4E26
100
AcDbEntity
  8
0
100
AcDbBlockEnd
  0
BLOCK
  5
4E32
330
4E31
100
AcDbEntity
  8
0
100
AcDbBlockBegin
  2
*D65
 70
     1
 10
0.0
 20
0.0
 30
0.0
  3
*D65
  1

  0
LINE
  5
4E34
330
4E31
100
AcDbEntity
  8
寸法線
 62
     0
 48
10.0
100
AcDbLine
 10
202.638468256273
 20
427.838796727988
 30
0.0
 11
202.638468256273
 21
362.151345307372
 31
0.0
  0
LINE
  5
4E35
330
4E31
100
AcDbEntity
  8
寸法線
 62
     0
 48
10.0
100
AcDbLine
 10
302.638468256273
 20
406.58948649626
 30
0.0
 11
302.638468256273
 21
362.151345307372
 31
0.0
  0
LINE
  5
4E36
330
4E31
100
AcDbEntity
  8
寸法線
 62
     0
 48
10.0
100
AcDbLine
 10
208.638468256273
 20
363.401345307372
 30
0.0
 11
296.638468256273
 21
363.401345307372
 31
0.0
  0
INSERT
  5
4E37
330
4E31
100
AcDbEntity
  8
寸法線
 62
     0
100
AcDbBlockReference
  2
_OPEN30
 10
202.638468256273
 20
363.401345307372
 30
0.0
 41
6.0
 42
6.0
 43
6.0
 50
180.0
  0
INSERT
  5
4E38
330
4E31
100
AcDbEntity
  8
寸法線
 62
     0
100
AcDbBlockReference
  2
_OPEN30
 10
302.638468256273
 20
363.401345307372
 30
0.0
 41
6.0
 42
6.0
 43
6.0
  0
POINT
  5
4E39
330
4E31
100
AcDbEntity
  8
DEFPOINTS
 62
     0
100
AcDbPoint
 10
202.638468256273
 20
428.463796727988
 30
0.0
  0
POINT
  5
4E3A
330
4E31
100
AcDbEntity
  8
DEFPOINTS
 62
     0
100
AcDbPoint
 10
302.638468256273
 20
407.21448649626
 30
0.0
  0
POINT
  5
4E3B
330
4E31
100
AcDbEntity
  8
DEFPOINTS
 62
     0
100
AcDbPoint
 10
302.638468256273
 20
363.401345307372
 30
0.0
  0
ENDBLK
  5
4E33
330
4E31
100
AcDbEntity
  8
0
100
AcDbBlockEnd
  0
BLOCK
  5
4E3D
330
4E3C
100
AcDbEntity
  8
0
100
AcDbBlockBegin
  2
*D66
 70
     1
 10
0.0
 20
0.0
 30
0.0
  3
*D66
  1

  0
LINE
  5
4E3F
330
4E3C
100
AcDbEntity
  8
寸法線
 62
     0
 48
10.0
100
AcDbLine
 10
152.638468256273
 20
428.338796727988
 30
0.0
 11
152.638468256273
 21
362.151345307372
 31
0.0
  0
LINE
  5
4E40
330
4E3C
100
AcDbEntity
  8
寸法線
 62
     0
 48
10.0
100
AcDbLine
 10
202.638468256273
 20
427.838796727988
 30
0.0
 11
202.638468256273
 21
362.151345307372
 31
0.0
  0
LINE
  5
4E41
330
4E3C
100
AcDbEntity
  8
寸法線
 62
     0
 48
10.0
100
AcDbLine
 10
158.638468256273
 20
363.401345307372
 30
0.0
 11
196.638468256273
 21
363.401345307372
 31
0.0
  0
INSERT
  5
4E42
330
4E3C
100
AcDbEntity
  8
寸法線
 62
     0
100
AcDbBlockReference
  2
_OPEN30
 10
152.638468256273
 20
363.401345307372
 30
0.0
 41
6.0
 42
6.0
 43
6.0
 50
180.0
  0
INSERT
  5
4E43
330
4E3C
100
AcDbEntity
  8
寸法線
 62
     0
100
AcDbBlockReference
  2
_OPEN30
 10
202.638468256273
 20
363.401345307372
 30
0.0
 41
6.0
 42
6.0
 43
6.0
  0
POINT
  5
4E44
330
4E3C
100
AcDbEntity
  8
DEFPOINTS
 62
     0
100
AcDbPoint
 10
152.638468256273
 20
428.963796727988
 30
0.0
  0
POINT
  5
4E45
330
4E3C
100
AcDbEntity
  8
DEFPOINTS
 62
     0
100
AcDbPoint
 10
202.638468256273
 20
428.463796727988
 30
0.0
  0
POINT
  5
4E46
330
4E3C
100
AcDbEntity
  8
DEFPOINTS
 62
     0
100
AcDbPoint
 10
202.638468256273
 20
363.401345307372
 30
0.0
  0
ENDBLK
  5
4E3E
330
4E3C
100
AcDbEntity
  8
0
100
AcDbBlockEnd
  0
BLOCK
  5
4E48
330
4E47
100
AcDbEntity
  8
0
100
AcDbBlockBegin
  2
*D67
 70
     1
 10
0.0
 20
0.0
 30
0.0
  3
*D67
  1

  0
LINE
  5
4E4A
330
4E47
100
AcDbEntity
  8
寸法線
 62
     0
 48
10.0
100
AcDbLine
 10
52.638468256273
 20
431.588796727988
 30
0.0
 11
52.638468256273
 21
362.151345307372
 31
0.0
  0
LINE
  5
4E4B
330
4E47
100
AcDbEntity
  8
寸法線
 62
     0
 48
10.0
100
AcDbLine
 10
152.638468256273
 20
428.338796727988
 30
0.0
 11
152.638468256273
 21
362.151345307372
 31
0.0
  0
LINE
  5
4E4C
330
4E47
100
AcDbEntity
  8
寸法線
 62
     0
 48
10.0
100
AcDbLine
 10
58.638468256273
 20
363.401345307372
 30
0.0
 11
146.638468256273
 21
363.401345307372
 31
0.0
  0
INSERT
  5
4E4D
330
4E47
100
AcDbEntity
  8
寸法線
 62
     0
100
AcDbBlockReference
  2
_OPEN30
 10
52.638468256273
 20
363.401345307372
 30
0.0
 41
6.0
 42
6.0
 43
6.0
 50
180.0
  0
INSERT
  5
4E4E
330
4E47
100
AcDbEntity
  8
寸法線
 62
     0
100
AcDbBlockReference
  2
_OPEN30
 10
152.638468256273
 20
363.401345307372
 30
0.0
 41
6.0
 42
6.0
 43
6.0
  0
POINT
  5
4E4F
330
4E47
100
AcDbEntity
  8
DEFPOINTS
 62
     0
100
AcDbPoint
 10
52.638468256273
 20
432.213796727988
 30
0.0
  0
POINT
  5
4E50
330
4E47
100
AcDbEntity
  8
DEFPOINTS
 62
     0
100
AcDbPoint
 10
152.638468256273
 20
428.963796727988
 30
0.0
  0
POINT
  5
4E51
330
4E47
100
AcDbEntity
  8
DEFPOINTS
 62
     0
100
AcDbPoint
 10
152.638468256273
 20
363.401345307372
 30
0.0
  0
ENDBLK
  5
4E49
330
4E47
100
AcDbEntity
  8
0
100
AcDbBlockEnd
  0
BLOCK
  5
4E53
330
4E52
100
AcDbEntity
  8
0
100
AcDbBlockBegin
  2
*D68
 70
     1
 10
0.0
 20
0.0
 30
0.0
  3
*D68
  1

  0
LINE
  5
4E55
330
4E52
100
AcDbEntity
  8
寸法線
 62
     0
 48
10.0
100
AcDbLine
 10
190.0
 20
449.963796727988
 30
0.0
 11
190.0
 21
481.512815486271
 31
0.0
  0
LINE
  5
4E56
330
4E52
100
AcDbEntity
  8
寸法線
 62
     0
 48
10.0
100
AcDbLine
 10
190.0
 20
443.963796727988
 30
0.0
 11
190.0
 21
434.463796727988
 31
0.0
  0
INSERT
  5
4E57
330
4E52
100
AcDbEntity
  8
寸法線
 62
     0
100
AcDbBlockReference
  2
_OPEN30
 10
190.0
 20
449.963796727988
 30
0.0
 41
6.0
 42
6.0
 43
6.0
 50
90.0
  0
INSERT
  5
4E58
330
4E52
100
AcDbEntity
  8
寸法線
 62
     0
100
AcDbBlockReference
  2
_OPEN30
 10
190.0
 20
428.463796727988
 30
0.0
 41
6.0
 42
6.0
 43
6.0
 50
270.0
  0
MTEXT
  5
4E59
330
4E52
100
AcDbEntity
  8
寸法線
 62
     0
 48
10.0
100
AcDbMText
 10
185.370833333333
 20
468.954482152938
 30
0.0
 40
8.0
 41
0.0
 71
     5
 72
     1
  1
\A1;φ21.5
 11
0.0
 21
1.0
 31
0.0
  0
POINT
  5
4E5A
330
4E52
100
AcDbEntity
  8
DEFPOINTS
 62
     0
100
AcDbPoint
 10
202.638468256273
 20
449.963796727988
 30
0.0
  0
POINT
  5
4E5B
330
4E52
100
AcDbEntity
  8
DEFPOINTS
 62
     0
100
AcDbPoint
 10
202.638468256273
 20
428.463796727988
 30
0.0
  0
POINT
  5
4E5C
330
4E52
100
AcDbEntity
  8
DEFPOINTS
 62
     0
100
AcDbPoint
 10
190.0
 20
428.463796727988
 30
0.0
  0
ENDBLK
  5
4E54
330
4E52
100
AcDbEntity
  8
0
100
AcDbBlockEnd
  0
BLOCK
  5
4E6B
330
4E6A
100
AcDbEntity
  8
0
100
AcDbBlockBegin
  2
*D70
 70
     1
 10
0.0
 20
0.0
 30
0.0
  3
*D70
  1

  0
LINE
  5
4E6D
330
4E6A
100
AcDbEntity
  8
寸法線
 62
     0
 48
10.0
100
AcDbLine
 10
277.503245931181
 20
449.963796727988
 30
0.0
 11
277.503245931181
 21
481.512815486271
 31
0.0
  0
LINE
  5
4E6E
330
4E6A
100
AcDbEntity
  8
寸法線
 62
     0
 48
10.0
100
AcDbLine
 10
277.503245931181
 20
443.963796727988
 30
0.0
 11
277.503245931181
 21
434.463796727988
 31
0.0
  0
INSERT
  5
4E6F
330
4E6A
100
AcDbEntity
  8
寸法線
 62
     0
100
AcDbBlockReference
  2
_OPEN30
 10
277.503245931181
 20
449.963796727988
 30
0.0
 41
6.0
 42
6.0
 43
6.0
 50
90.0
  0
INSERT
  5
4E70
330
4E6A
100
AcDbEntity
  8
寸法線
 62
     0
100
AcDbBlockReference
  2
_OPEN30
 10
277.503245931181
 20
428.463796727988
 30
0.0
 41
6.0
 42
6.0
 43
6.0
 50
270.0
  0
MTEXT
  5
4E71
330
4E6A
100
AcDbEntity
  8
寸法線
 62
     0
 48
10.0
100
AcDbMText
 10
272.874079264514
 20
468.954482152938
 30
0.0
 40
8.0
 41
0.0
 71
     5
 72
     1
  1
\A1;φ21.5
 11
0.0
 21
1.0
 31
0.0
  0
POINT
  5
4E72
330
4E6A
100
AcDbEntity
  8
DEFPOINTS
 62
     0
100
AcDbPoint
 10
289.167112089597
 20
449.963796727988
 30
0.0
  0
POINT
  5
4E73
330
4E6A
100
AcDbEntity
  8
DEFPOINTS
 62
     0
100
AcDbPoint
 10
289.167112089597
 20
428.463796727988
 30
0.0
  0
POINT
  5
4E74
330
4E6A
100
AcDbEntity
  8
DEFPOINTS
 62
     0
100
AcDbPoint
 10
277.503245931181
 20
428.463796727988
 30
0.0
  0
ENDBLK
  5
4E6C
330
4E6A
100
AcDbEntity
  8
0
100
AcDbBlockEnd
  0
BLOCK
  5
4E77
330
4E76
100
AcDbEntity
  8
0
100
AcDbBlockBegin
  2
*D71
 70
     1
 10
0.0
 20
0.0
 30
0.0
  3
*D71
  1

  0
LINE
  5
4E79
330
4E76
100
AcDbEntity
  8
寸法線
 62
     0
 48
10.0
100
AcDbLine
 10
347.638468256781
 20
419.588796722261
 30
0.0
 11
347.638468256781
 21
362.151345307372
 31
0.0
  0
LINE
  5
4E7A
330
4E76
100
AcDbEntity
  8
寸法線
 62
     0
 48
10.0
100
AcDbLine
 10
437.638503829947
 20
392.588796722261
 30
0.0
 11
437.638503829947
 21
362.151345307372
 31
0.0
  0
LINE
  5
4E7B
330
4E76
100
AcDbEntity
  8
寸法線
 62
     0
 48
10.0
100
AcDbLine
 10
353.638468256781
 20
363.401345307372
 30
0.0
 11
431.638503829947
 21
363.401345307372
 31
0.0
  0
INSERT
  5
4E7C
330
4E76
100
AcDbEntity
  8
寸法線
 62
     0
100
AcDbBlockReference
  2
_OPEN30
 10
347.638468256781
 20
363.401345307372
 30
0.0
 41
6.0
 42
6.0
 43
6.0
 50
180.0
  0
INSERT
  5
4E7D
330
4E76
100
AcDbEntity
  8
寸法線
 62
     0
100
AcDbBlockReference
  2
_OPEN30
 10
437.638503829947
 20
363.401345307372
 30
0.0
 41
6.0
 42
6.0
 43
6.0
  0
MTEXT
  5
4E7E
330
4E76
100
AcDbEntity
  8
寸法線
 62
     0
 48
10.0
100
AcDbMText
 10
392.638486043364
 20
368.026345307372
 30
0.0
 40
8.0
 41
0.0
 71
     5
 72
     1
  1
\A1;90
  0
POINT
  5
4E7F
330
4E76
100
AcDbEntity
  8
DEFPOINTS
 62
     0
100
AcDbPoint
 10
347.638468256781
 20
420.213796722261
 30
0.0
  0
POINT
  5
4E80
330
4E76
100
AcDbEntity
  8
DEFPOINTS
 62
     0
100
AcDbPoint
 10
437.638503829947
 20
393.213796722261
 30
0.0
  0
POINT
  5
4E81
330
4E76
100
AcDbEntity
  8
DEFPOINTS
 62
     0
100
AcDbPoint
 10
437.638503829947
 20
363.401345307372
 30
0.0
  0
ENDBLK
  5
4E78
330
4E76
100
AcDbEntity
  8
0
100
AcDbBlockEnd
  0
BLOCK
  5
5576
330
5575
100
AcDbEntity
  8
0
100
AcDbBlockBegin
  2
*D74
 70
     1
 10
0.0
 20
0.0
 30
0.0
  3
*D74
  1

  0
LINE
  5
5578
330
5575
100
AcDbEntity
  8
寸法線
 62
     0
 48
10.0
100
AcDbLine
 10
53.013468256273
 20
449.963796727988
 30
0.0
 11
38.75
 21
449.963796727988
 31
0.0
  0
LINE
  5
5579
330
5575
100
AcDbEntity
  8
寸法線
 62
     0
 48
10.0
100
AcDbLine
 10
53.013468256273
 20
428.463796727989
 30
0.0
 11
38.75
 21
428.463796727989
 31
0.0
  0
LINE
  5
557A
330
5575
100
AcDbEntity
  8
寸法線
 62
     0
 48
10.0
100
AcDbLine
 10
40.0
 20
449.963796727988
 30
0.0
 11
40.0
 21
481.080463394655
 31
0.0
  0
LINE
  5
557B
330
5575
100
AcDbEntity
  8
寸法線
 62
     0
 48
10.0
100
AcDbLine
 10
40.0
 20
443.963796727988
 30
0.0
 11
40.0
 21
434.463796727989
 31
0.0
  0
INSERT
  5
557C
330
5575
100
AcDbEntity
  8
寸法線
 62
     0
100
AcDbBlockReference
  2
_OPEN30
 10
40.0
 20
449.963796727988
 30
0.0
 41
6.0
 42
6.0
 43
6.0
 50
90.0
  0
INSERT
  5
557D
330
5575
100
AcDbEntity
  8
寸法線
 62
     0
100
AcDbBlockReference
  2
_OPEN30
 10
40.0
 20
428.463796727989
 30
0.0
 41
6.0
 42
6.0
 43
6.0
 50
270.0
  0
MTEXT
  5
557E
330
5575
100
AcDbEntity
  8
寸法線
 62
     0
 48
10.0
100
AcDbMText
 10
35.370833333333
 20
468.522130061322
 30
0.0
 40
8.0
 41
0.0
 71
     5
 72
     1
  1
\A1;φ21.5
 11
0.0
 21
1.0
 31
0.0
  0
POINT
  5
557F
330
5575
100
AcDbEntity
  8
DEFPOINTS
 62
     0
100
AcDbPoint
 10
53.638468256273
 20
449.963796727988
 30
0.0
  0
POINT
  5
5580
330
5575
100
AcDbEntity
  8
DEFPOINTS
 62
     0
100
AcDbPoint
 10
53.638468256273
 20
428.463796727989
 30
0.0
  0
POINT
  5
5581
330
5575
100
AcDbEntity
  8
DEFPOINTS
 62
     0
100
AcDbPoint
 10
40.0
 20
428.463796727989
 30
0.0
  0
ENDBLK
  5
5577
330
5575
100
AcDbEntity
  8
0
100
AcDbBlockEnd
  0
ENDSEC
  0
SECTION
  2
ENTITIES
  0
LINE
  5
3E98
330
1A
100
AcDbEntity
  8
下書線
100
AcDbLine
 10
453.763782926379
 20
523.714486348731
 30
0.0
 11
24.465305219005
 21
523.714486348731
 31
0.0
  0
LINE
  5
408F
330
1A
100
AcDbEntity
  8
中心線
 48
10.0
100
AcDbLine
 10
44.467402087177
 20
439.214486496261
 30
0.0
 11
441.403831148162
 21
439.214486496261
 31
0.0
  0
LINE
  5
4415
102
{ACAD_REACTORS
330
4615
102
}
330
1A
100
AcDbEntity
  8
細線
100
AcDbLine
 10
312.638468256273
 20
464.61448649626
 30
0.0
 11
312.638468256273
 21
413.81448649626
 31
0.0
  0
LINE
  5
4416
102
{ACAD_REACTORS
330
4615
102
}
330
1A
100
AcDbEntity
  8
外形線
100
AcDbLine
 10
313.638468256273
 20
414.81448649626
 30
0.0
 11
312.638468256273
 21
413.81448649626
 31
0.0
  0
LINE
  5
4417
102
{ACAD_REACTORS
330
4615
102
}
330
1A
100
AcDbEntity
  8
外形線
100
AcDbLine
 10
308.23034338655
 20
413.81448649626
 30
0.0
 11
312.638468256273
 21
413.81448649626
 31
0.0
  0
LINE
  5
4418
102
{ACAD_REACTORS
330
4615
102
}
330
1A
100
AcDbEntity
  8
外形線
100
AcDbLine
 10
305.488468256273
 20
407.21448649626
 30
0.0
 11
307.273318982116
 21
413.104493891543
 31
0.0
  0
LWPOLYLINE
  5
4419
102
{ACAD_REACTORS
330
4615
102
}
330
1A
100
AcDbEntity
  8
外形線
100
AcDbPolyline
 90
        4
 70
     1
 43
0.0
 10
302.638468256273
 20
407.21448649626
 10
305.488468256273
 20
407.21448649626
 10
305.488468256273
 20
471.21448649626
 10
302.638468256273
 20
471.21448649626
  0
LINE
  5
441A
102
{ACAD_REACTORS
330
4615
102
}
330
1A
100
AcDbEntity
  8
細線
100
AcDbLine
 10
307.488468256273
 20
464.61448649626
 30
0.0
 11
307.488468256273
 21
413.81448649626
 31
0.0
  0
LINE
  5
441B
102
{ACAD_REACTORS
330
4615
102
}
330
1A
100
AcDbEntity
  8
外形線
100
AcDbLine
 10
305.488468256273
 20
471.21448649626
 30
0.0
 11
307.273318982116
 21
465.324479100978
 31
0.0
  0
LINE
  5
441C
102
{ACAD_REACTORS
330
4615
102
}
330
1A
100
AcDbEntity
  8
外形線
100
AcDbLine
 10
327.638468256273
 20
422.014486496261
 30
0.0
 11
313.638468256273
 21
422.014486496261
 31
0.0
  0
LINE
  5
441D
102
{ACAD_REACTORS
330
4615
102
}
330
1A
100
AcDbEntity
  8
外形線
100
AcDbLine
 10
313.638468256273
 20
463.61448649626
 30
0.0
 11
313.638468256273
 21
414.81448649626
 31
0.0
  0
LINE
  5
441E
102
{ACAD_REACTORS
330
4615
102
}
330
1A
100
AcDbEntity
  8
外形線
100
AcDbLine
 10
327.638468256273
 20
456.414486496261
 30
0.0
 11
313.638468256273
 21
456.414486496261
 31
0.0
  0
LINE
  5
4420
102
{ACAD_REACTORS
330
4615
102
}
330
1A
100
AcDbEntity
  8
外形線
100
AcDbLine
 10
308.23034338655
 20
464.61448649626
 30
0.0
 11
312.638468256273
 21
464.61448649626
 31
0.0
  0
LINE
  5
4421
102
{ACAD_REACTORS
330
4615
102
}
330
1A
100
AcDbEntity
  8
外形線
100
AcDbLine
 10
312.638468256273
 20
464.61448649626
 30
0.0
 11
313.638468256273
 21
463.61448649626
 31
0.0
  0
LINE
  5
4432
102
{ACAD_REACTORS
330
4615
102
}
330
1A
100
AcDbEntity
  8
外形線
 48
10.0
100
AcDbLine
 10
311.638468256273
 20
456.414486496261
 30
0.0
 11
313.638468256273
 21
458.41448649626
 31
0.0
  0
LINE
  5
4433
102
{ACAD_REACTORS
330
4615
102
}
330
1A
100
AcDbEntity
  8
外形線
 48
10.0
100
AcDbLine
 10
311.638468256273
 20
456.414486496261
 30
0.0
 11
313.638468256273
 21
455.414486496261
 31
0.0
  0
HATCH
  5
443B
102
{ACAD_REACTORS
330
4615
102
}
330
1A
100
AcDbEntity
  8
外形線
 48
10.0
100
AcDbHatch
 10
0.0
 20
0.0
 30
0.0
210
0.0
220
0.0
230
1.0
  2
SOLID
 70
     1
 71
     0
 91
        2
 92
        7
 72
     0
 73
     1
 93
        4
 10
313.6384682562727
 20
458.4144864962604
 10
312.6384682562727
 20
457.4144864962605
 10
312.6384682562727
 20
455.9144864962606
 10
313.6384682562727
 20
455.4144864962605
 97
        0
 92
        7
 72
     0
 73
     1
 93
        3
 10
312.6384682562727
 20
457.4144864962605
 10
311.6384682562728
 20
456.4144864962605
 10
312.6384682562727
 20
455.9144864962605
 97
        0
 75
     0
 76
     1
 47
0.021280244428
 98
        2
 10
313.4071682965176
 20
456.7392869076937
 10
312.342840417947
 20
456.6541662671664
  0
HATCH
  5
443C
102
{ACAD_REACTORS
330
4615
102
}
330
1A
100
AcDbEntity
  8
外形線
 48
10.0
100
AcDbHatch
 10
0.0
 20
0.0
 30
0.0
210
0.0
220
0.0
230
1.0
  2
SOLID
 70
     1
 71
     0
 91
        2
 92
        7
 72
     0
 73
     1
 93
        4
 10
313.6384682562728
 20
420.0144864962606
 10
312.6384682562727
 20
421.0144864962606
 10
312.6384682562727
 20
422.5144864962605
 10
313.6384682562727
 20
423.0144864962605
 97
        0
 92
        7
 72
     0
 73
     1
 93
        3
 10
312.6384682562728
 20
421.0144864962605
 10
311.6384682562728
 20
422.0144864962605
 10
312.6384682562727
 20
422.5144864962605
 97
        0
 75
     0
 76
     1
 47
0.021280244428
 98
        2
 10
313.4071682965176
 20
421.6896860848273
 10
312.342840417947
 20
421.7748067253546
  0
LINE
  5
443D
102
{ACAD_REACTORS
330
4615
102
}
330
1A
100
AcDbEntity
  8
外形線
 48
10.0
100
AcDbLine
 10
311.638468256273
 20
422.014486496261
 30
0.0
 11
313.638468256273
 21
423.014486496261
 31
0.0
  0
LINE
  5
443E
102
{ACAD_REACTORS
330
4615
102
}
330
1A
100
AcDbEntity
  8
外形線
 48
10.0
100
AcDbLine
 10
311.638468256273
 20
422.014486496261
 30
0.0
 11
313.638468256273
 21
420.014486496261
 31
0.0
  0
ARC
  5
449F
102
{ACAD_REACTORS
330
4615
102
}
330
1A
100
AcDbEntity
  8
外形線
100
AcDbCircle
 10
308.23034338655
 20
412.81448649626
 30
0.0
 40
1.0
100
AcDbArc
 50
90.0
 51
163.141601232261
  0
ARC
  5
44A0
102
{ACAD_REACTORS
330
4615
102
}
330
1A
100
AcDbEntity
  8
外形線
100
AcDbCircle
 10
308.23034338655
 20
465.61448649626
 30
0.0
 40
1.0
100
AcDbArc
 50
196.858398767739
 51
270.0
  0
LINE
  5
44B9
102
{ACAD_REACTORS
330
4615
102
}
330
1A
100
AcDbEntity
  8
中心線
 48
10.0
100
AcDbLine
 10
304.638468256273
 20
467.464486496261
 30
0.0
 11
300.638468256273
 21
467.464486496261
 31
0.0
  0
ARC
  5
44BB
102
{ACAD_REACTORS
330
4615
102
}
330
1A
100
AcDbEntity
  8
隠れ線
 48
10.0
100
AcDbCircle
 10
302.638468256273
 20
467.464486496261
 30
0.0
 40
1.0
100
AcDbArc
 50
270.0
 51
90.0
  0
ARC
  5
44BC
102
{ACAD_REACTORS
330
4615
102
}
330
1A
100
AcDbEntity
  8
隠れ線
 48
10.0
100
AcDbCircle
 10
302.638468256273
 20
410.964486496261
 30
0.0
 40
1.0
100
AcDbArc
 50
270.0
 51
90.0
  0
LINE
  5
44BD
102
{ACAD_REACTORS
330
4615
102
}
330
1A
100
AcDbEntity
  8
中心線
 48
10.0
100
AcDbLine
 10
304.638468256273
 20
410.964486496261
 30
0.0
 11
300.638468256273
 21
410.964486496261
 31
0.0
  0
LINE
  5
45F2
102
{ACAD_REACTORS
330
4615
102
}
330
1A
100
AcDbEntity
  8
細線
100
AcDbLine
 10
330.638468256273
 20
450.18448649626
 30
0.0
 11
344.638468256273
 21
450.18448649626
 31
0.0
  0
LINE
  5
45F3
102
{ACAD_REACTORS
330
4615
102
}
330
1A
100
AcDbEntity
  8
細線
100
AcDbLine
 10
330.638468256273
 20
428.24448649626
 30
0.0
 11
344.638468256273
 21
428.24448649626
 31
0.0
  0
ARC
  5
4606
102
{ACAD_REACTORS
330
4615
102
}
330
1A
100
AcDbEntity
  8
細線
 48
10.0
100
AcDbCircle
 10
349.195284843642
 20
439.21448649626
 30
0.0
 40
21.5568165984052
100
AcDbArc
 50
149.410227986311
 51
210.589772013689
  0
ARC
  5
4607
102
{ACAD_REACTORS
330
4615
102
}
330
1A
100
AcDbEntity
  8
細線
 48
10.0
100
AcDbCircle
 10
326.081651668904
 20
439.21448649626
 30
0.0
 40
21.55681659840436
100
AcDbArc
 50
329.41022798631
 51
30.589772013689
  0
LINE
  5
4608
102
{ACAD_REACTORS
330
4615
102
}
330
1A
100
AcDbEntity
  8
外形線
 48
10.0
100
AcDbLine
 10
330.638468256273
 20
461.154486496261
 30
0.0
 11
344.638468256273
 21
461.154486496261
 31
0.0
  0
LINE
  5
4609
102
{ACAD_REACTORS
330
4615
102
}
330
1A
100
AcDbEntity
  8
外形線
 48
10.0
100
AcDbLine
 10
330.638468256273
 20
417.275866037849
 30
0.0
 11
344.638468256273
 21
417.275866037849
 31
0.0
  0
ARC
  5
460A
102
{ACAD_REACTORS
330
4615
102
}
330
1A
100
AcDbEntity
  8
細線
 48
10.0
100
AcDbCircle
 10
348.928994159277
 20
461.592917082083
 30
0.0
 40
21.5568
100
AcDbArc
 50
189.014839552026
 51
211.953209848838
  0
ARC
  5
460B
102
{ACAD_REACTORS
330
4615
102
}
330
1A
100
AcDbEntity
  8
外形線
 48
10.0
100
AcDbCircle
 10
344.153128233608
 20
444.360154358989
 30
0.0
 40
21.5568
100
AcDbArc
 50
128.824173789179
 51
140.004933775737
  0
ARC
  5
460C
102
{ACAD_REACTORS
330
4615
102
}
330
1A
100
AcDbEntity
  8
外形線
 48
10.0
100
AcDbCircle
 10
331.123808278937
 20
444.360154358989
 30
0.0
 40
21.5568
100
AcDbArc
 50
39.995066224263
 51
51.175826210821
  0
ARC
  5
460D
102
{ACAD_REACTORS
330
4615
102
}
330
1A
100
AcDbEntity
  8
細線
 48
10.0
100
AcDbCircle
 10
326.347942353269
 20
461.592917082083
 30
0.0
 40
21.5568
100
AcDbArc
 50
328.046790151162
 51
350.985160447974
  0
ARC
  5
460E
102
{ACAD_REACTORS
330
4615
102
}
330
1A
100
AcDbEntity
  8
外形線
 48
10.0
100
AcDbCircle
 10
344.153128233608
 20
434.068818633532
 30
0.0
 40
21.5568
100
AcDbArc
 50
219.995066224261
 51
231.175826210819
  0
ARC
  5
460F
102
{ACAD_REACTORS
330
4615
102
}
330
1A
100
AcDbEntity
  8
外形線
 48
10.0
100
AcDbCircle
 10
331.123808278937
 20
434.068818633532
 30
0.0
 40
21.5568
100
AcDbArc
 50
308.824173789179
 51
320.004933775737
  0
ARC
  5
4610
102
{ACAD_REACTORS
330
4615
102
}
330
1A
100
AcDbEntity
  8
細線
 48
10.0
100
AcDbCircle
 10
326.347942353268
 20
416.836055910438
 30
0.0
 40
21.5568
100
AcDbArc
 50
9.014839552025
 51
31.953209848837
  0
ARC
  5
4611
102
{ACAD_REACTORS
330
4615
102
}
330
1A
100
AcDbEntity
  8
細線
 48
10.0
100
AcDbCircle
 10
348.928994159277
 20
416.836055910438
 30
0.0
 40
21.5568
100
AcDbArc
 50
148.046790151162
 51
170.985160447973
  0
LINE
  5
4612
102
{ACAD_REACTORS
330
4615
102
}
330
1A
100
AcDbEntity
  8
外形線
 48
10.0
100
AcDbLine
 10
327.638468256273
 20
458.215176267055
 30
0.0
 11
327.638468256273
 21
420.213796725466
 31
0.0
  0
LINE
  5
4613
102
{ACAD_REACTORS
330
4615
102
}
330
1A
100
AcDbEntity
  8
外形線
 48
10.0
100
AcDbLine
 10
347.638468256273
 20
458.215176267055
 30
0.0
 11
347.638468256273
 21
420.213796725466
 31
0.0
  0
DIMENSION
  5
4618
330
1A
100
AcDbEntity
  8
寸法線
 48
10.0
100
AcDbDimension
  2
*D13
 10
327.638468256272
 20
363.401345307372
 30
0.0
 11
315.138468256273
 21
368.030511974039
 31
0.0
 70
    32
  3
ISO-25
100
AcDbAlignedDimension
 13
302.638468256273
 23
407.21448649626
 33
0.0
 14
327.638468256272
 24
420.213796725467
 34
0.0
100
AcDbRotatedDimension
1001
ACAD
1000
DSTYLE
1002
{
1070
     5
1000
OPEN30
1070
    41
1040
6.0
1070
    47
1040
0.1
1070
    48
1040
0.1
1070
    73
1070
     0
1070
   140
1040
8.0
1070
   271
1070
     1
1070
   272
1070
     1
1070
   341
1005
2AF4
1002
}
  0
DIMENSION
  5
4663
330
1A
100
AcDbEntity
  8
寸法線
 48
10.0
100
AcDbDimension
  2
*D15
 10
347.638468256273
 20
363.401345307372
 30
0.0
 11
337.638468256273
 21
363.401345307372
 31
0.0
 70
   160
  3
ISO-25
100
AcDbAlignedDimension
 13
327.638468256273
 23
420.213796725466
 33
0.0
 14
347.638468256273
 24
420.213796725466
 34
0.0
100
AcDbRotatedDimension
1001
ACAD
1000
DSTYLE
1002
{
1070
     5
1000
OPEN30
1070
    41
1040
6.0
1070
    47
1040
0.1
1070
    48
1040
0.1
1070
    73
1070
     0
1070
   140
1040
8.0
1070
   271
1070
     1
1070
   272
1070
     1
1070
   341
1005
2AF4
1002
}
  0
DIMENSION
  5
4845
330
1A
100
AcDbEntity
  8
寸法線
 48
10.0
100
AcDbDimension
  2
*D20
 10
437.638503829947
 20
341.306282997388
 30
0.0
 11
370.13848604311
 21
345.935449664055
 31
0.0
 70
    32
  3
ISO-25
100
AcDbAlignedDimension
 13
302.638468256273
 23
363.401345307372
 33
0.0
 14
437.638503829947
 24
408.251622814943
 34
0.0
100
AcDbRotatedDimension
1001
ACAD
1000
DSTYLE
1002
{
1070
     5
1000
OPEN30
1070
    41
1040
6.0
1070
    47
1040
0.1
1070
    48
1040
0.1
1070
    73
1070
     0
1070
   140
1040
8.0
1070
   271
1070
     1
1070
   272
1070
     1
1070
   341
1005
2AF4
1002
}
  0
LWPOLYLINE
  5
4958
330
1A
100
AcDbEntity
  8
外形線
100
AcDbPolyline
 90
        4
 70
     1
 43
0.0
 10
347.638468256273
 20
420.213796722261
 10
350.638468256273
 20
420.213796722261
 10
350.638468256273
 20
458.213796722261
 10
347.638468256273
 20
458.213796722261
  0
LINE
  5
497A
330
1A
100
AcDbEntity
  8
外形線
100
AcDbLine
 10
350.638468256273
 20
455.213796722261
 30
0.0
 11
350.638468256273
 21
423.213796722261
 31
0.0
  0
ARC
  5
497B
330
1A
100
AcDbEntity
  8
外形線
100
AcDbCircle
 10
352.138468256273
 20
455.213796722261
 30
0.0
 40
1.5
100
AcDbArc
 50
90.0
 51
180.0
  0
ARC
  5
497C
330
1A
100
AcDbEntity
  8
外形線
100
AcDbCircle
 10
352.138468256273
 20
423.213796722261
 30
0.0
 40
1.5
100
AcDbArc
 50
180.0
 51
270.0
  0
LINE
  5
497D
330
1A
100
AcDbEntity
  8
外形線
100
AcDbLine
 10
373.780468256273
 20
460.213796722261
 30
0.0
 11
373.780468256273
 21
418.213796722261
 31
0.0
  0
ARC
  5
497E
330
1A
100
AcDbEntity
  8
外形線
100
AcDbCircle
 10
372.280468256273
 20
420.213796722261
 30
0.0
 40
1.5
100
AcDbArc
 50
0.0
 51
90.0
  0
ARC
  5
497F
330
1A
100
AcDbEntity
  8
外形線
100
AcDbCircle
 10
372.280468256273
 20
458.213796722261
 30
0.0
 40
1.5
100
AcDbArc
 50
270.0
 51
0.0
  0
LINE
  5
4980
330
1A
100
AcDbEntity
  8
外形線
100
AcDbLine
 10
424.731301547787
 20
409.309565029329
 30
0.0
 11
426.639524480497
 21
410.260969887644
 31
0.0
  0
LINE
  5
4981
330
1A
100
AcDbEntity
  8
外形線
100
AcDbLine
 10
394.911901697659
 20
469.118028415193
 30
0.0
 11
396.820124630369
 21
470.069433273508
 31
0.0
  0
LINE
  5
4982
330
1A
100
AcDbEntity
  8
外形線
100
AcDbLine
 10
396.820124630369
 20
470.069433273508
 30
0.0
 11
426.639524480497
 21
410.260969887644
 31
0.0
  0
LINE
  5
4983
330
1A
100
AcDbEntity
  8
外形線
100
AcDbLine
 10
424.731301547787
 20
409.309565029329
 30
0.0
 11
394.911901697659
 21
469.118028415193
 31
0.0
  0
ARC
  5
4984
330
1A
100
AcDbEntity
  8
細線
100
AcDbCircle
 10
408.277668664875
 20
380.202598356671
 30
0.0
 40
34.01119848081266
100
AcDbArc
 50
63.825050098629
 51
116.164440091243
  0
LINE
  5
4985
330
1A
100
AcDbEntity
  8
外形線
100
AcDbLine
 10
423.280468256273
 20
393.213796722261
 30
0.0
 11
424.280468256273
 21
394.213796722261
 31
0.0
  0
LINE
  5
4986
330
1A
100
AcDbEntity
  8
外形線
100
AcDbLine
 10
393.280468256273
 20
393.213796722261
 30
0.0
 11
423.280468256273
 21
393.213796722261
 31
0.0
  0
LINE
  5
4987
330
1A
100
AcDbEntity
  8
外形線
100
AcDbLine
 10
392.280468256273
 20
394.213796722261
 30
0.0
 11
393.280468256273
 21
393.213796722261
 31
0.0
  0
LINE
  5
4988
330
1A
100
AcDbEntity
  8
外形線
100
AcDbLine
 10
392.280468256273
 20
394.213796722261
 30
0.0
 11
392.280468256273
 21
409.213796722261
 31
0.0
  0
ARC
  5
4989
330
1A
100
AcDbEntity
  8
外形線
100
AcDbCircle
 10
391.280468256273
 20
409.213796722261
 30
0.0
 40
1.0
100
AcDbArc
 50
0.0
 51
90.0
  0
ARC
  5
498A
330
1A
100
AcDbEntity
  8
外形線
100
AcDbCircle
 10
381.780468256273
 20
460.213796722261
 30
0.0
 40
8.0
100
AcDbArc
 50
90.0
 51
180.0
  0
ARC
  5
498B
330
1A
100
AcDbEntity
  8
外形線
100
AcDbCircle
 10
381.780468256273
 20
418.213796722261
 30
0.0
 40
8.0
100
AcDbArc
 50
180.0
 51
270.0
  0
ARC
  5
498C
330
1A
100
AcDbEntity
  8
外形線
100
AcDbCircle
 10
402.287148653289
 20
475.251573853655
 30
0.0
 40
3.0
100
AcDbArc
 50
45.30448303075
 51
116.499999999995
  0
ARC
  5
498D
330
1A
100
AcDbEntity
  8
外形線
100
AcDbCircle
 10
434.6655227892
 20
411.808402079099
 30
0.0
 40
3.0
100
AcDbArc
 50
296.499999999995
 51
7.695516969253
  0
LINE
  5
498E
330
1A
100
AcDbEntity
  8
外形線
100
AcDbLine
 10
428.95811674645
 20
405.610593242174
 30
0.0
 11
436.004116228529
 21
409.123598994293
 31
0.0
  0
LINE
  5
498F
330
1A
100
AcDbEntity
  8
外形線
100
AcDbLine
 10
439.332854702249
 20
443.371790836514
 30
0.0
 11
430.100893928323
 21
438.768904988364
 31
0.0
  0
LINE
  5
4990
330
1A
100
AcDbEntity
  8
外形線
100
AcDbLine
 10
427.929423114125
 20
443.831951694227
 30
0.0
 11
436.878766730145
 21
448.293929825325
 31
0.0
  0
LINE
  5
4991
330
1A
100
AcDbEntity
  8
外形線
100
AcDbLine
 10
424.359840609246
 20
450.991426587043
 30
0.0
 11
433.309184225267
 21
455.453404718141
 31
0.0
  0
LINE
  5
4992
330
1A
100
AcDbEntity
  8
外形線
100
AcDbLine
 10
430.855096253163
 20
460.375543706952
 30
0.0
 11
421.623135479237
 21
455.772657858802
 31
0.0
  0
LINE
  5
4993
330
1A
100
AcDbEntity
  8
外形線
100
AcDbLine
 10
433.309184225267
 20
455.453404718141
 30
0.0
 11
430.855096253163
 21
460.375543706952
 31
0.0
  0
LINE
  5
4994
330
1A
100
AcDbEntity
  8
外形線
100
AcDbLine
 10
436.878766730145
 20
448.293929825325
 30
0.0
 11
439.332854702249
 21
443.371790836514
 31
0.0
  0
LINE
  5
4995
330
1A
100
AcDbEntity
  8
外形線
100
AcDbLine
 10
424.280468256273
 20
394.213796722261
 30
0.0
 11
424.280468256273
 21
410.213796722261
 31
0.0
  0
LINE
  5
4996
330
1A
100
AcDbEntity
  8
中心線
 48
10.0
100
AcDbLine
 10
408.280468256273
 20
419.213796722261
 30
0.0
 11
408.280468256273
 21
380.202598356671
 31
0.0
  0
LINE
  5
4997
330
1A
100
AcDbEntity
  8
外形線
 48
10.0
100
AcDbLine
 10
394.501532364416
 20
474.722009918978
 30
0.0
 11
400.94855521396
 21
477.936376938461
 31
0.0
  0
ARC
  5
4998
330
1A
100
AcDbEntity
  8
外形線
 48
10.0
100
AcDbCircle
 10
322.01779234723
 20
394.470295099286
 30
0.0
 40
116.880564807258
100
AcDbArc
 50
8.420101953746
 51
45.185262866733
  0
LINE
  5
4999
330
1A
100
AcDbEntity
  8
外形線
 48
10.0
100
AcDbLine
 10
394.501532364416
 20
474.722009918978
 30
0.0
 11
428.95811674645
 21
405.610593242174
 31
0.0
  0
LINE
  5
499A
330
1A
100
AcDbEntity
  8
外形線
 48
10.0
100
AcDbLine
 10
381.780468256273
 20
468.213796722261
 30
0.0
 11
395.321601622723
 21
468.213796722261
 31
0.0
  0
LINE
  5
499B
330
1A
100
AcDbEntity
  8
外形線
 48
10.0
100
AcDbLine
 10
352.138468256273
 20
456.713796722261
 30
0.0
 11
372.280468256273
 21
456.713796722261
 31
0.0
  0
LINE
  5
499C
330
1A
100
AcDbEntity
  8
外形線
 48
10.0
100
AcDbLine
 10
352.138468256273
 20
421.713796722261
 30
0.0
 11
372.280468256273
 21
421.713796722261
 31
0.0
  0
LINE
  5
499D
330
1A
100
AcDbEntity
  8
外形線
 48
10.0
100
AcDbLine
 10
381.780468256273
 20
410.213796722261
 30
0.0
 11
391.280468256273
 21
410.213796722261
 31
0.0
  0
DIMENSION
  5
499E
330
1A
100
AcDbEntity
  8
寸法線
 48
10.0
100
AcDbDimension
  2
*D43
 10
460.375
 20
393.213796722261
 30
0.0
 11
460.375
 21
435.713815278099
 31
0.0
 70
   160
  3
ISO-25
100
AcDbAlignedDimension
 13
402.761506966404
 23
478.213833833937
 33
0.0
 14
423.280468256273
 24
393.213796722261
 34
0.0
 50
90.0
100
AcDbRotatedDimension
1001
ACAD
1000
DSTYLE
1002
{
1070
     5
1000
OPEN30
1070
    41
1040
6.0
1070
    47
1040
0.1
1070
    48
1040
0.1
1070
    73
1070
     0
1070
   140
1040
8.0
1070
   271
1070
     1
1070
   272
1070
     1
1070
   341
1005
2AF4
1002
}
  0
LINE
  5
4D82
330
1A
100
AcDbEntity
  8
寸法線
100
AcDbLine
 10
52.439742126761
 20
196.428666739901
 30
0.0
 11
624.177541839384
 21
196.428666739901
 31
0.0
  0
LINE
  5
4D84
330
1A
100
AcDbEntity
  8
寸法線
100
AcDbLine
 10
52.439742126761
 20
287.79704949294
 30
0.0
 11
624.177541839384
 21
287.79704949294
 31
0.0
  0
LINE
  5
4D85
330
1A
100
AcDbEntity
  8
寸法線
100
AcDbLine
 10
52.439742126761
 20
301.86704949294
 30
0.0
 11
624.177541839384
 21
301.86704949294
 31
0.0
  0
LINE
  5
4D88
330
1A
100
AcDbEntity
  8
寸法線
100
AcDbLine
 10
52.439742126761
 20
261.691797277786
 30
0.0
 11
624.177541839384
 21
261.691797277786
 31
0.0
  0
LINE
  5
4D89
330
1A
100
AcDbEntity
  8
寸法線
100
AcDbLine
 10
52.439742126761
 20
248.63917117021
 30
0.0
 11
624.177541839384
 21
248.63917117021
 31
0.0
  0
LINE
  5
4D8A
330
1A
100
AcDbEntity
  8
寸法線
100
AcDbLine
 10
52.439742126761
 20
235.586545062633
 30
0.0
 11
624.177541839384
 21
235.586545062633
 31
0.0
  0
LINE
  5
4D8B
330
1A
100
AcDbEntity
  8
寸法線
100
AcDbLine
 10
52.439742126761
 20
222.533918955055
 30
0.0
 11
624.177541839384
 21
222.533918955055
 31
0.0
  0
LINE
  5
4D8C
330
1A
100
AcDbEntity
  8
寸法線
100
AcDbLine
 10
52.439742126761
 20
209.481292847478
 30
0.0
 11
624.177541839384
 21
209.481292847478
 31
0.0
  0
LINE
  5
4D8E
330
1A
100
AcDbEntity
  8
寸法線
100
AcDbLine
 10
52.439742126761
 20
274.744423385363
 30
0.0
 11
624.177541839384
 21
274.744423385363
 31
0.0
  0
MTEXT
  5
4D8F
102
{ACAD_XDICTIONARY
360
4D90
102
}
330
1A
100
AcDbEntity
  8
寸法線
 48
10.0
100
AcDbMText
 10
123.88857652558
 20
299.010268461545
 30
0.0
 40
8.0
 41
78.897728797637
 71
     2
 72
     5
  1
\PTSS-A5SA-025\PTSS-A5SA-030\PTSS-A5SA-035\PTSS-A5SA-040\PTSS-A5SA-045\PTSS-A5SA-050\PTSS-A5SA-055\PTSS-A5SA-060
1001
ACADANNOTATIVE
1000
AnnotativeData
1002
{
1070
     1
1070
     0
1002
}
1001
ACAD
1000
MTEXTBEGIN
1070
    44
1040
0.99
1000
MTEXTEND
  0
MTEXT
  5
4DA8
102
{ACAD_XDICTIONARY
360
4DA9
102
}
330
1A
100
AcDbEntity
  8
寸法線
 48
10.0
100
AcDbMText
 10
411.024726406229
 20
299.010268461545
 30
0.0
 40
8.0
 41
78.897728797637
 71
     2
 72
     5
  1
\PTSS-A5SA-065\PTSS-A5SA-070\PTSS-A5SA-075\PTSS-A5SA-080\PTSS-A5SA-085\PTSS-A5SA-090\PTSS-A5SA-095\PTSS-A5SA-100
1001
ACADANNOTATIVE
1000
AnnotativeData
1002
{
1070
     1
1070
     0
1002
}
1001
ACAD
1000
MTEXTBEGIN
1070
    44
1040
0.99
1000
MTEXTEND
  0
LINE
  5
4DC3
330
1A
100
AcDbEntity
  8
寸法線
100
AcDbLine
 10
52.439742126761
 20
183.376040632324
 30
0.0
 11
624.177541839384
 21
183.376040632324
 31
0.0
  0
ARC
  5
4DCA
330
1A
100
AcDbEntity
  8
細線
 48
10.0
100
AcDbCircle
 10
242.915812006273
 20
444.588796727989
 30
0.0
 40
8.222656249999796
100
AcDbArc
 50
319.180234332392
 51
40.819765667608
  0
ARC
  5
4DCB
330
1A
100
AcDbEntity
  8
細線
 48
10.0
100
AcDbCircle
 10
242.915812006273
 20
433.838796727989
 30
0.0
 40
8.222656249999796
100
AcDbArc
 50
319.180234332392
 51
40.819765667609
  0
ARC
  5
4DCC
330
1A
100
AcDbEntity
  8
細線
 48
10.0
100
AcDbCircle
 10
255.361124506273
 20
444.588796727988
 30
0.0
 40
8.222656249999796
100
AcDbArc
 50
139.180234332391
 51
220.819765667608
  0
ARC
  5
4DCD
330
1A
100
AcDbEntity
  8
細線
 48
10.0
100
AcDbCircle
 10
262.361124506272
 20
444.588796727989
 30
0.0
 40
8.222656249999796
100
AcDbArc
 50
139.180234332391
 51
220.819765667609
  0
ARC
  5
4DCE
330
1A
100
AcDbEntity
  8
細線
 48
10.0
100
AcDbCircle
 10
249.915812006273
 20
433.838796727989
 30
0.0
 40
8.222656249999796
100
AcDbArc
 50
319.180234332392
 51
40.819765667608
  0
ARC
  5
4DCF
330
1A
100
AcDbEntity
  8
細線
 48
10.0
100
AcDbCircle
 10
262.361124506272
 20
433.838796727989
 30
0.0
 40
8.222656249999796
100
AcDbArc
 50
139.180234332391
 51
220.819765667609
  0
ARC
  5
4DD0
330
1A
100
AcDbEntity
  8
細線
 48
10.0
100
AcDbCircle
 10
180.611124506273
 20
444.588796727988
 30
0.0
 40
8.222656249999796
100
AcDbArc
 50
139.180234332391
 51
220.819765667607
  0
ARC
  5
4DD1
330
1A
100
AcDbEntity
  8
細線
 48
10.0
100
AcDbCircle
 10
168.165812006273
 20
444.588796727989
 30
0.0
 40
8.222656249999796
100
AcDbArc
 50
319.180234332392
 51
40.819765667609
  0
ARC
  5
4DD2
330
1A
100
AcDbEntity
  8
細線
 48
10.0
100
AcDbCircle
 10
168.165812006273
 20
433.838796727989
 30
0.0
 40
8.222656249999796
100
AcDbArc
 50
319.180234332391
 51
40.819765667609
  0
ARC
  5
4DD3
330
1A
100
AcDbEntity
  8
細線
 48
10.0
100
AcDbCircle
 10
187.611124506272
 20
433.838796727989
 30
0.0
 40
8.222656249999796
100
AcDbArc
 50
139.180234332391
 51
220.819765667608
  0
ARC
  5
4DD4
330
1A
100
AcDbEntity
  8
細線
 48
10.0
100
AcDbCircle
 10
175.165812006273
 20
433.838796727989
 30
0.0
 40
8.222656249999796
100
AcDbArc
 50
319.180234332392
 51
40.819765667609
  0
ARC
  5
4DD5
330
1A
100
AcDbEntity
  8
細線
 48
10.0
100
AcDbCircle
 10
187.611124506272
 20
444.588796727988
 30
0.0
 40
8.222656249999796
100
AcDbArc
 50
139.180234332391
 51
220.819765667608
  0
SPLINE
  5
4DD6
330
1A
100
AcDbEntity
  8
寸法線
 48
10.0
100
AcDbSpline
210
0.0
220
0.0
230
1.0
 70
  1064
 71
     3
 72
    13
 73
     9
 74
     7
 42
0.000000001
 43
0.0000000001
 44
0.0000000001
 40
0.0
 40
0.0
 40
0.0
 40
0.0
 40
3.223685095176967
 40
8.435450993908002
 40
12.63609189519606
 40
15.54126966359024
 40
17.08609505184027
 40
18.20640635868928
 40
18.20640635868928
 40
18.20640635868928
 40
18.20640635868928
 10
98.65828069620497
 20
364.3745131037279
 30
0.0
 10
99.61694275900344
 20
364.8173574075498
 30
0.0
 10
102.1254839507452
 20
365.9761527962219
 30
0.0
 10
102.7299720474363
 20
374.0656590442385
 30
0.0
 10
99.15424203003016
 20
368.2473982952005
 30
0.0
 10
99.31082039021332
 20
365.2937459692292
 30
0.0
 10
101.1947128426217
 20
364.1366377175839
 30
0.0
 10
102.0279892773817
 20
364.5534714301924
 30
0.0
 10
102.3782636228999
 20
364.7286907809185
 30
0.0
 11
98.65828069620497
 21
364.3745131037279
 31
0.0
 11
101.2268401807039
 21
366.3224986702701
 31
0.0
 11
101.8025519018018
 21
371.5023693054662
 31
0.0
 11
99.5439915382942
 21
367.9605775179712
 31
0.0
 11
99.94256152598737
 21
365.082870126508
 31
0.0
 11
101.3154110474062
 21
364.3745131037279
 31
0.0
 11
102.3782636228999
 21
364.7286907809185
 31
0.0
  0
TEXT
  5
4DD7
330
1A
100
AcDbEntity
  8
寸法線
 48
10.0
100
AcDbText
 10
104.74431120102
 20
364.423423075353
 30
0.0
 40
5.2
  1
1
100
AcDbText
  0
SPLINE
  5
4DD8
330
1A
100
AcDbEntity
  8
寸法線
 48
10.0
100
AcDbSpline
210
0.0
220
0.0
230
1.0
 70
  1064
 71
     3
 72
    13
 73
     9
 74
     7
 42
0.000000001
 43
0.0000000001
 44
0.0000000001
 40
0.0
 40
0.0
 40
0.0
 40
0.0
 40
3.223685095176967
 40
8.435450993908002
 40
12.63609189519606
 40
15.54126966359024
 40
17.08609505184027
 40
18.20640635868928
 40
18.20640635868928
 40
18.20640635868928
 40
18.20640635868928
 10
173.6610436436546
 20
364.3745131037279
 30
0.0
 10
174.619705706453
 20
364.8173574075498
 30
0.0
 10
177.1282468981948
 20
365.9761527962219
 30
0.0
 10
177.7327349948858
 20
374.0656590442385
 30
0.0
 10
174.1570049774798
 20
368.2473982952005
 30
0.0
 10
174.3135833376629
 20
365.2937459692292
 30
0.0
 10
176.1974757900713
 20
364.1366377175839
 30
0.0
 10
177.0307522248312
 20
364.5534714301924
 30
0.0
 10
177.3810265703495
 20
364.7286907809185
 30
0.0
 11
173.6610436436546
 21
364.3745131037279
 31
0.0
 11
176.2296031281535
 21
366.3224986702701
 31
0.0
 11
176.8053148492513
 21
371.5023693054662
 31
0.0
 11
174.5467544857438
 21
367.9605775179712
 31
0.0
 11
174.945324473437
 21
365.082870126508
 31
0.0
 11
176.3181739948558
 21
364.3745131037279
 31
0.0
 11
177.3810265703495
 21
364.7286907809185
 31
0.0
  0
TEXT
  5
4DD9
330
1A
100
AcDbEntity
  8
寸法線
 48
10.0
100
AcDbText
 10
179.747074148469
 20
364.423423075353
 30
0.0
 40
5.2
  1
2
100
AcDbText
  0
TEXT
  5
4DDA
330
1A
100
AcDbEntity
  8
寸法線
 48
10.0
100
AcDbText
 10
253.9506181916
 20
364.423423075353
 30
0.0
 40
5.2
  1
3
100
AcDbText
  0
SPLINE
  5
4DDB
330
1A
100
AcDbEntity
  8
寸法線
 48
10.0
100
AcDbSpline
210
0.0
220
0.0
230
1.0
 70
  1064
 71
     3
 72
    13
 73
     9
 74
     7
 42
0.000000001
 43
0.0000000001
 44
0.0000000001
 40
0.0
 40
0.0
 40
0.0
 40
0.0
 40
3.223685095176967
 40
8.43545099390801
 40
12.6360918951961
 40
15.54126966359029
 40
17.08609505184032
 40
18.20640635868933
 40
18.20640635868933
 40
18.20640635868933
 40
18.20640635868933
 10
247.864587686785
 20
364.3745131037279
 30
0.0
 10
248.8232497495835
 20
364.8173574075499
 30
0.0
 10
251.3317909413253
 20
365.976152796222
 30
0.0
 10
251.9362790380164
 20
374.0656590442384
 30
0.0
 10
248.3605490206101
 20
368.2473982952005
 30
0.0
 10
248.5171273807934
 20
365.2937459692292
 30
0.0
 10
250.4010198332018
 20
364.1366377175837
 30
0.0
 10
251.2342962679618
 20
364.5534714301925
 30
0.0
 10
251.58457061348
 20
364.7286907809185
 30
0.0
 11
247.864587686785
 21
364.3745131037279
 31
0.0
 11
250.4331471712839
 21
366.3224986702701
 31
0.0
 11
251.0088588923819
 21
371.5023693054662
 31
0.0
 11
248.7502985288742
 21
367.9605775179712
 31
0.0
 11
249.1488685165675
 21
365.082870126508
 31
0.0
 11
250.5217180379863
 21
364.3745131037279
 31
0.0
 11
251.58457061348
 21
364.7286907809185
 31
0.0
  0
SPLINE
  5
4DDC
330
1A
100
AcDbEntity
  8
寸法線
 48
10.0
100
AcDbSpline
210
0.0
220
0.0
230
1.0
 70
  1064
 71
     3
 72
    13
 73
     9
 74
     7
 42
0.000000001
 43
0.0000000001
 44
0.0000000001
 40
0.0
 40
0.0
 40
0.0
 40
0.0
 40
3.223685095176967
 40
8.435450993908116
 40
12.63609189519624
 40
15.54126966359041
 40
17.08609505184049
 40
18.20640635868945
 40
18.20640635868945
 40
18.20640635868945
 40
18.20640635868945
 10
176.347269227936
 20
342.5310654569479
 30
0.0
 10
177.3059312907345
 20
342.9739097607699
 30
0.0
 10
179.8144724824763
 20
344.1327051494419
 30
0.0
 10
180.4189605791674
 20
352.2222113974589
 30
0.0
 10
176.8432305617613
 20
346.4039506484205
 30
0.0
 10
176.9998089219444
 20
343.4502983224492
 30
0.0
 10
178.8837013743528
 20
342.2931900708039
 30
0.0
 10
179.7169778091128
 20
342.7100237834126
 30
0.0
 10
180.067252154631
 20
342.8852431341385
 30
0.0
 11
176.347269227936
 21
342.5310654569479
 31
0.0
 11
178.9158287124349
 21
344.4790510234902
 31
0.0
 11
179.4915404335328
 21
349.6589216586863
 31
0.0
 11
177.2329800700253
 21
346.1171298711913
 31
0.0
 11
177.6315500577184
 21
343.239422479728
 31
0.0
 11
179.0043995791374
 21
342.5310654569479
 31
0.0
 11
180.067252154631
 21
342.8852431341385
 31
0.0
  0
DIMENSION
  5
4DDD
330
1A
100
AcDbEntity
  8
寸法線
 48
10.0
100
AcDbDimension
  2
*D64
 10
302.638468256273
 20
341.306282997388
 30
0.0
 11
177.638468256273
 21
324.711385351917
 31
0.0
 70
    32
  1
 
  3
ISO-25
100
AcDbAlignedDimension
 13
52.638468256273
 23
432.213796727988
 33
0.0
 14
302.638468256273
 24
353.714486348731
 34
0.0
100
AcDbRotatedDimension
1001
ACAD
1000
DSTYLE
1002
{
1070
     5
1000
OPEN30
1070
    41
1040
6.0
1070
    47
1040
0.1
1070
    48
1040
0.1
1070
    73
1070
     0
1070
   140
1040
8.0
1070
   271
1070
     1
1070
   272
1070
     1
1070
   341
1005
2AF4
1002
}
  0
DIMENSION
  5
4DDE
330
1A
100
AcDbEntity
  8
寸法線
 48
10.0
100
AcDbDimension
  2
*D65
 10
302.638468256273
 20
363.401345307372
 30
0.0
 11
252.638468256273
 21
344.711385351917
 31
0.0
 70
    32
  1
 
  3
ISO-25
100
AcDbAlignedDimension
 13
202.638468256273
 23
428.463796727988
 33
0.0
 14
302.638468256273
 24
407.21448649626
 34
0.0
100
AcDbRotatedDimension
1001
ACAD
1000
DSTYLE
1002
{
1070
     5
1000
OPEN30
1070
    41
1040
6.0
1070
    47
1040
0.1
1070
    48
1040
0.1
1070
    73
1070
     0
1070
   140
1040
8.0
1070
   271
1070
     1
1070
   272
1070
     1
1070
   341
1005
2AF4
1002
}
  0
DIMENSION
  5
4DDF
330
1A
100
AcDbEntity
  8
寸法線
 48
10.0
100
AcDbDimension
  2
*D66
 10
202.638468256273
 20
363.401345307372
 30
0.0
 11
177.638468256273
 21
344.711385351917
 31
0.0
 70
    32
  1
 
  3
ISO-25
100
AcDbAlignedDimension
 13
152.638468256273
 23
428.963796727988
 33
0.0
 14
202.638468256273
 24
428.463796727988
 34
0.0
100
AcDbRotatedDimension
1001
ACAD
1000
DSTYLE
1002
{
1070
     5
1000
OPEN30
1070
    41
1040
6.0
1070
    47
1040
0.1
1070
    48
1040
0.1
1070
    73
1070
     0
1070
   140
1040
8.0
1070
   271
1070
     1
1070
   272
1070
     1
1070
   341
1005
2AF4
1002
}
  0
DIMENSION
  5
4DE0
330
1A
100
AcDbEntity
  8
寸法線
 48
10.0
100
AcDbDimension
  2
*D67
 10
152.638468256273
 20
363.401345307372
 30
0.0
 11
102.638468256273
 21
344.711385351917
 31
0.0
 70
    32
  1
 
  3
ISO-25
100
AcDbAlignedDimension
 13
52.638468256273
 23
432.213796727988
 33
0.0
 14
152.638468256273
 24
428.963796727988
 34
0.0
100
AcDbRotatedDimension
1001
ACAD
1000
DSTYLE
1002
{
1070
     5
1000
OPEN30
1070
    41
1040
6.0
1070
    47
1040
0.1
1070
    48
1040
0.1
1070
    73
1070
     0
1070
   140
1040
8.0
1070
   271
1070
     1
1070
   272
1070
     1
1070
   341
1005
2AF4
1002
}
  0
DIMENSION
  5
4DE1
330
1A
100
AcDbEntity
  8
寸法線
 48
10.0
100
AcDbDimension
  2
*D68
 10
190.0
 20
428.463796727988
 30
0.0
 11
190.0
 21
468.954482152938
 31
0.0
 70
   160
  1
φ<>
  3
ISO-25
100
AcDbAlignedDimension
 13
202.638468256273
 23
449.963796727988
 33
0.0
 14
202.638468256273
 24
428.463796727988
 34
0.0
 50
90.0
100
AcDbRotatedDimension
1001
ACAD
1000
DSTYLE
1002
{
1070
     5
1000
OPEN30
1070
    76
1070
     1
1070
    75
1070
     1
1070
   282
1070
     0
1070
   281
1070
     0
1070
    41
1040
6.0
1070
    47
1040
0.1
1070
    48
1040
0.1
1070
    73
1070
     0
1070
   140
1040
8.0
1070
   271
1070
     1
1070
   272
1070
     1
1070
   341
1005
2AF4
1002
}
  0
LWPOLYLINE
  5
4DE3
330
1A
100
AcDbEntity
  8
外形線
100
AcDbPolyline
 90
        6
 70
     0
 43
0.0
 10
249.138468256273
 20
449.963796727989
 10
203.138468256273
 20
449.963796727989
 10
202.638468256273
 20
449.463796727989
 10
202.638468256273
 20
428.963796727989
 10
203.138468256273
 20
428.463796727989
 10
249.138468256273
 20
428.463796727989
  0
LWPOLYLINE
  5
4DE4
330
1A
100
AcDbEntity
  8
外形線
100
AcDbPolyline
 90
        6
 70
     0
 43
0.0
 10
174.388468256273
 20
449.963796727988
 10
153.138468256273
 20
449.963796727988
 10
152.638468256273
 20
449.463796727988
 10
152.638468256273
 20
428.963796727988
 10
153.138468256273
 20
428.463796727988
 10
174.388468256273
 20
428.463796727988
  0
LWPOLYLINE
  5
4DE6
330
1A
100
AcDbEntity
  8
外形線
100
AcDbPolyline
 90
        4
 70
     0
 43
0.0
 10
256.138468256272
 20
428.463796727989
 10
302.638468256273
 20
428.463796727989
 10
302.638468256273
 20
449.963796727989
 10
256.138468256273
 20
449.963796727989
  0
LWPOLYLINE
  5
4DE7
330
1A
100
AcDbEntity
  8
外形線
100
AcDbPolyline
 90
        4
 70
     0
 43
0.0
 10
181.388468256272
 20
428.463796727988
 10
202.638468256273
 20
428.463796727988
 10
202.638468256273
 20
449.963796727988
 10
181.388468256273
 20
449.963796727988
  0
DIMENSION
  5
4DE9
330
1A
100
AcDbEntity
  8
寸法線
 48
10.0
100
AcDbDimension
  2
*D70
 10
277.503245931181
 20
428.463796727988
 30
0.0
 11
277.503245931181
 21
468.954482152938
 31
0.0
 70
   160
  1
φ<>
  3
ISO-25
100
AcDbAlignedDimension
 13
289.167112089597
 23
449.963796727988
 33
0.0
 14
289.167112089597
 24
428.463796727988
 34
0.0
 50
90.0
100
AcDbRotatedDimension
1001
ACAD
1000
DSTYLE
1002
{
1070
     5
1000
OPEN30
1070
    76
1070
     1
1070
    75
1070
     1
1070
    41
1040
6.0
1070
    47
1040
0.1
1070
    48
1040
0.1
1070
    73
1070
     0
1070
   140
1040
8.0
1070
   271
1070
     1
1070
   272
1070
     1
1070
   341
1005
2AF4
1002
}
  0
DIMENSION
  5
4E75
330
1A
100
AcDbEntity
  8
寸法線
 48
10.0
100
AcDbDimension
  2
*D71
 10
437.638503829947
 20
363.401345307372
 30
0.0
 11
392.638486043364
 21
368.026345307372
 31
0.0
 70
    32
  3
ISO-25
100
AcDbAlignedDimension
 13
347.638468256781
 23
420.213796722261
 33
0.0
 14
437.638503829947
 24
393.213796722261
 34
0.0
100
AcDbRotatedDimension
1001
ACAD
1000
DSTYLE
1002
{
1070
     5
1000
OPEN30
1070
    41
1040
6.0
1070
   271
1070
     1
1070
   341
1005
2AF4
1070
   272
1070
     1
1070
    73
1070
     0
1070
    48
1040
0.1
1070
    47
1040
0.1
1070
   140
1040
8.0
1002
}
  0
MTEXT
  5
4E88
102
{ACAD_XDICTIONARY
360
4E89
102
}
330
1A
100
AcDbEntity
  8
寸法線
 48
10.0
100
AcDbMText
 10
177.038799907539
 20
284.757621851478
 30
0.0
 40
8.0
 41
23.854899029718
 71
     2
 72
     5
  1
250\P300\P350\P400\P450\P500\P550\P600
1001
ACADANNOTATIVE
1000
AnnotativeData
1002
{
1070
     1
1070
     0
1002
}
1001
ACAD
1000
MTEXTBEGIN
1070
    44
1040
0.98
1000
MTEXTEND
  0
MTEXT
  5
4E98
102
{ACAD_XDICTIONARY
360
4E99
102
}
330
1A
100
AcDbEntity
  8
寸法線
 48
10.0
100
AcDbMText
 10
202.850177060043
 20
284.757621851478
 30
0.0
 40
8.0
 41
23.854899029718
 71
     2
 72
     5
  1
100\P100\P100\P100\P100\P100\P150\P150
1001
ACADANNOTATIVE
1000
AnnotativeData
1002
{
1070
     1
1070
     0
1002
}
1001
ACAD
1000
MTEXTBEGIN
1070
    44
1040
0.98
1000
MTEXTEND
  0
MTEXT
  5
4E9C
102
{ACAD_XDICTIONARY
360
4E9D
102
}
330
1A
100
AcDbEntity
  8
寸法線
 48
10.0
100
AcDbMText
 10
227.048939762594
 20
284.757621851478
 30
0.0
 40
8.0
 41
23.854899029718
 71
     2
 72
     5
  1
50\P50\P50\P50\P50\P50\P50\P50
1001
ACADANNOTATIVE
1000
AnnotativeData
1002
{
1070
     1
1070
     0
1002
}
1001
ACAD
1000
MTEXTBEGIN
1070
    44
1040
0.98
1000
MTEXTEND
  0
MTEXT
  5
4EA0
102
{ACAD_XDICTIONARY
360
4EA1
102
}
330
1A
100
AcDbEntity
  8
寸法線
 48
10.0
100
AcDbMText
 10
253.168274523275
 20
284.757621851478
 30
0.0
 40
8.0
 41
23.854899029718
 71
     2
 72
     5
  1
100\P150\P200\P250\P300\P350\P350\P400
1001
ACADANNOTATIVE
1000
AnnotativeData
1002
{
1070
     1
1070
     0
1002
}
1001
ACAD
1000
MTEXTBEGIN
1070
    44
1040
0.98
1000
MTEXTEND
  0
MTEXT
  5
4EA4
102
{ACAD_XDICTIONARY
360
4EA5
102
}
330
1A
100
AcDbEntity
  8
寸法線
 48
10.0
100
AcDbMText
 10
492.037661306843
 20
284.757621851478
 30
0.0
 40
8.0
 41
23.854899029718
 71
     2
 72
     5
  1
150\P150\P150\P150\P150\P150\P150\P150
1001
ACADANNOTATIVE
1000
AnnotativeData
1002
{
1070
     1
1070
     0
1002
}
1001
ACAD
1000
MTEXTBEGIN
1070
    44
1040
0.98
1000
MTEXTEND
  0
MTEXT
  5
4EA8
102
{ACAD_XDICTIONARY
360
4EA9
102
}
330
1A
100
AcDbEntity
  8
寸法線
 48
10.0
100
AcDbMText
 10
517.030449298972
 20
284.757621851478
 30
0.0
 40
8.0
 41
23.854899029718
 71
     2
 72
     5
  1
50\P50\P50\P50\P50\P50\P50\P50
1001
ACADANNOTATIVE
1000
AnnotativeData
1002
{
1070
     1
1070
     0
1002
}
1001
ACAD
1000
MTEXTBEGIN
1070
    44
1040
0.98
1000
MTEXTEND
  0
MTEXT
  5
4EAC
102
{ACAD_XDICTIONARY
360
4EAD
102
}
330
1A
100
AcDbEntity
  8
寸法線
 48
10.0
100
AcDbMText
 10
541.269071591286
 20
284.757621851478
 30
0.0
 40
8.0
 41
23.854899029718
 71
     2
 72
     5
  1
450\P500\P550\P600\P650\P700\P750\P800
1001
ACADANNOTATIVE
1000
AnnotativeData
1002
{
1070
     1
1070
     0
1002
}
1001
ACAD
1000
MTEXTBEGIN
1070
    44
1040
0.98
1000
MTEXTEND
  0
MTEXT
  5
4EB0
102
{ACAD_XDICTIONARY
360
4EB1
102
}
330
1A
100
AcDbEntity
  8
寸法線
 48
10.0
100
AcDbMText
 10
465.536541915084
 20
284.757621851478
 30
0.0
 40
8.0
 41
23.854899029718
 71
     2
 72
     5
  1
650\P700\P750\P800\P850\P900\P950\P1000
1001
ACADANNOTATIVE
1000
AnnotativeData
1002
{
1070
     1
1070
     0
1002
}
1001
ACAD
1000
MTEXTBEGIN
1070
    44
1040
0.98
1000
MTEXTEND
  0
LEADER
  5
4FE1
330
1A
100
AcDbEntity
  8
寸法線
 48
10.0
100
AcDbLeader
  3
ISO-25
 76
     3
 10
77.718099097361
 20
449.963796727988
 30
0.0
 10
58.027707193749
 20
523.713812871226
 30
0.0
 10
48.86068174848
 20
523.713812871226
 30
0.0
1001
ACAD
1000
DSTYLE
1002
{
1070
     5
1000
OPEN30
1070
   147
1040
0.625
1070
    77
1070
     0
1070
    41
1040
6.0
1070
    47
1040
0.1
1070
    48
1040
0.1
1070
    73
1070
     0
1070
   140
1040
8.0
1070
   271
1070
     1
1070
   272
1070
     1
1070
   341
1005
2AF4
1070
   342
1005
2AF4
1002
}
  0
LEADER
  5
4FE2
330
1A
100
AcDbEntity
  8
寸法線
 48
10.0
100
AcDbLeader
  3
ISO-25
 76
     3
 10
160.14115045474
 20
449.963796727988
 30
0.0
 10
131.408681544348
 20
523.714486348731
 30
0.0
 10
121.147085663991
 20
523.714486348731
 30
0.0
1001
ACAD
1000
DSTYLE
1002
{
1070
     5
1000
OPEN30
1070
   147
1040
0.625
1070
    77
1070
     0
1070
    41
1040
6.0
1070
    47
1040
0.1
1070
    48
1040
0.1
1070
    73
1070
     0
1070
   140
1040
8.0
1070
   271
1070
     1
1070
   272
1070
     1
1070
   341
1005
2AF4
1070
   342
1005
2AF4
1002
}
  0
LEADER
  5
4FE3
330
1A
100
AcDbEntity
  8
寸法線
 48
10.0
100
AcDbLeader
  3
ISO-25
 76
     3
 10
226.138468256273
 20
449.963796727989
 30
0.0
 10
227.385685682798
 20
523.714486348731
 30
0.0
 10
239.101059610119
 20
523.714486348731
 30
0.0
1001
ACAD
1000
DSTYLE
1002
{
1070
     5
1000
OPEN30
1070
   147
1040
0.625
1070
    77
1070
     0
1070
    41
1040
6.0
1070
    47
1040
0.1
1070
    48
1040
0.1
1070
    73
1070
     0
1070
   140
1040
8.0
1070
   271
1070
     1
1070
   272
1070
     1
1070
   341
1005
2AF4
1070
   342
1005
2AF4
1002
}
  0
LEADER
  5
4FE4
330
1A
100
AcDbEntity
  8
寸法線
 48
10.0
100
AcDbLeader
  3
ISO-25
 76
     3
 10
304.354362073023
 20
471.21448649626
 30
0.0
 10
295.853119289779
 20
523.714486348731
 30
0.0
 10
307.418325660085
 20
523.714486348731
 30
0.0
1001
ACAD
1000
DSTYLE
1002
{
1070
     5
1000
OPEN30
1070
   147
1040
0.625
1070
    77
1070
     0
1070
    41
1040
6.0
1070
    47
1040
0.1
1070
    48
1040
0.1
1070
    73
1070
     0
1070
   140
1040
8.0
1070
   271
1070
     1
1070
   272
1070
     1
1070
   341
1005
2AF4
1070
   342
1005
2AF4
1002
}
  0
LEADER
  5
4FE5
330
1A
100
AcDbEntity
  8
寸法線
 48
10.0
100
AcDbLeader
  3
ISO-25
 76
     3
 10
202.638468256273
 20
449.963796727988
 30
0.0
 10
203.204709065458
 20
523.703567358221
 30
0.0
 10
192.01003959622
 20
523.703567358221
 30
0.0
1001
ACAD
1000
DSTYLE
1002
{
1070
     5
1000
OPEN30
1070
   147
1040
0.625
1070
    77
1070
     0
1070
    41
1040
6.0
1070
    47
1040
0.1
1070
    48
1040
0.1
1070
    73
1070
     0
1070
   140
1040
8.0
1070
   271
1070
     1
1070
   272
1070
     1
1070
   341
1005
2AF4
1070
   342
1005
2AF4
1002
}
  0
MTEXT
  5
4FE6
330
1A
100
AcDbEntity
  8
寸法線
 48
10.0
100
AcDbMText
 10
293.880391713029
 20
526.638387819526
 30
0.0
 40
8.0
 41
0.0
 71
     7
 72
     1
  1
FERRULE FLANGE\P2S\PSUS304
  0
MTEXT
  5
4FE7
330
1A
100
AcDbEntity
  8
寸法線
 48
10.0
100
AcDbMText
 10
226.894687208445
 20
527.0835546302
 30
0.0
 40
8.0
 41
0.0
 71
     7
 72
     1
  1
GROUNDING\PELECTRODE\PSUS304
  0
MTEXT
  5
4FE8
330
1A
100
AcDbEntity
  8
寸法線
 48
10.0
100
AcDbMText
 10
201.7247339574
 20
527.189621182775
 30
0.0
 40
8.0
 41
0.0
 71
     9
 72
     1
  1
SEAL\PSILICON\PRUBBER
  0
MTEXT
  5
4FE9
330
1A
100
AcDbEntity
  8
寸法線
 48
10.0
100
AcDbMText
 10
129.427111622746
 20
527.189621182774
 30
0.0
 40
8.0
 41
0.0
 71
     9
 72
     1
  1
INSULATOR\PTEFLON
  0
MTEXT
  5
4FEA
330
1A
100
AcDbEntity
  8
寸法線
 48
10.0
100
AcDbMText
 10
56.098995156058
 20
527.189621182774
 30
0.0
 40
8.0
 41
0.0
 71
     9
 72
     1
  1
DETECTING\PELECTRODE\PSUS304
  0
MTEXT
  5
4FEB
330
1A
100
AcDbEntity
  8
寸法線
 48
10.0
100
AcDbMText
 10
362.261323955688
 20
492.872571047886
 30
0.0
 40
8.0
 41
0.0
 71
     9
 72
     1
  1
\A1;WELDING
  0
LEADER
  5
4FEC
330
1A
100
AcDbEntity
  8
寸法線
 48
10.0
100
AcDbLeader
  3
ISO-25
 76
     3
 10
313.387751179482
 20
457.307733074144
 30
0.0
 10
322.89493484889
 20
492.103522470228
 30
0.0
 10
332.837374540232
 20
492.103522470228
 30
0.0
1001
ACAD
1000
DSTYLE
1002
{
1070
     5
1000
OPEN30
1070
   147
1040
0.625
1070
    77
1070
     0
1070
    41
1040
6.0
1070
    47
1040
0.1
1070
    48
1040
0.1
1070
    73
1070
     0
1070
   140
1040
8.0
1070
   271
1070
     1
1070
   272
1070
     1
1070
   341
1005
2AF4
1070
   342
1005
2AF4
1002
}
  0
MTEXT
  5
5023
102
{ACAD_XDICTIONARY
360
5024
102
}
330
1A
100
AcDbEntity
  8
寸法線
 48
10.0
100
AcDbMText
 10
417.87452868549
 20
524.608690904297
 30
0.0
 40
8.0
 41
0.0
 71
     7
 72
     1
  1
ALUMINUM\PCASTING
1001
ACADANNOTATIVE
1000
AnnotativeData
1002
{
1070
     1
1070
     0
1002
}
  0
LEADER
  5
5027
330
1A
100
AcDbEntity
  8
寸法線
 48
10.0
100
AcDbLeader
  3
ISO-25
 76
     3
 10
385.149136830295
 20
468.213796722261
 30
0.0
 10
415.825593473423
 20
523.714486348731
 30
0.0
 10
428.949598235736
 20
523.714486348731
 30
0.0
213
-5.684341886080801E-14
223
-0.08194239549834492
233
0.0
1001
ACAD
1000
DSTYLE
1002
{
1070
     5
1000
OPEN30
1070
   147
1040
0.625
1070
    77
1070
     0
1070
    41
1040
6.0
1070
    47
1040
0.1
1070
    48
1040
0.1
1070
    73
1070
     0
1070
   140
1040
8.0
1070
   271
1070
     1
1070
   272
1070
     1
1070
   341
1005
2AF4
1070
   342
1005
2AF4
1002
}
  0
TEXT
  5
5028
330
1A
100
AcDbEntity
  8
寸法線
100
AcDbText
 10
431.0210834741
 20
572.912196764094
 30
0.0
 40
8.0
  1
COLOR：10YR7.5/14
100
AcDbText
  0
MTEXT
  5
505A
330
1A
100
AcDbEntity
  8
寸法線
 48
10.0
100
AcDbMText
 10
451.000965320806
 20
363.777286706069
 30
0.0
 40
8.0
 41
0.0
 71
     7
 72
     1
  1
CONDUIT\PG 1/2"
  0
LEADER
  5
505B
330
1A
100
AcDbEntity
  8
寸法線
 48
10.0
100
AcDbLeader
  3
ISO-25
 76
     3
 10
409.374824679715
 20
391.879599008915
 30
0.0
 10
448.988124390906
 20
363.027137167643
 30
0.0
 10
486.784655202404
 20
363.027137167643
 30
0.0
1001
ACAD
1000
DSTYLE
1002
{
1070
     5
1000
OPEN30
1070
   147
1040
0.625
1070
    77
1070
     0
1070
    41
1040
6.0
1070
    47
1040
0.1
1070
    48
1040
0.1
1070
    73
1070
     0
1070
   140
1040
8.0
1070
   271
1070
     1
1070
   272
1070
     1
1070
   341
1005
2AF4
1070
   342
1005
2AF4
1002
}
  0
CIRCLE
  5
509C
330
1A
100
AcDbEntity
  8
寸法線
 48
10.0
100
AcDbCircle
 10
-72.897631318281
 20
243.972382827814
 30
0.0
 40
2.0
  0
CIRCLE
  5
509D
330
1A
100
AcDbEntity
  8
寸法線
 48
10.0
100
AcDbCircle
 10
-50.697191318281
 20
243.972382827814
 30
0.0
 40
2.0
  0
LINE
  5
509E
330
1A
100
AcDbEntity
  8
寸法線
 48
10.0
100
AcDbLine
 10
-84.297899318281
 20
229.972138827813
 30
0.0
 11
-81.297837318281
 21
225.171966827813
 31
0.0
  0
LINE
  5
509F
330
1A
100
AcDbEntity
  8
寸法線
 48
10.0
100
AcDbLine
 10
-81.297837318281
 20
225.171966827813
 30
0.0
 11
-42.296983318281
 21
225.171966827813
 31
0.0
  0
LINE
  5
50A0
330
1A
100
AcDbEntity
  8
寸法線
 48
10.0
100
AcDbLine
 10
-42.296983318281
 20
225.171966827813
 30
0.0
 11
-39.296923318281
 21
229.972138827813
 31
0.0
  0
LINE
  5
50A1
330
1A
100
AcDbEntity
  8
寸法線
 48
10.0
100
AcDbLine
 10
-85.095653359283
 20
262.724334827814
 30
0.0
 11
-36.991203424838
 21
262.724334827814
 31
0.0
  0
MTEXT
  5
50A2
330
1A
100
AcDbEntity
  8
寸法線
 62
     1
 48
10.0
100
AcDbMText
 10
-83.431871360949
 20
273.380909451218
 30
0.0
 40
8.0
 41
55.39356842411
 71
     1
 72
     5
  1
TERMINAL
  0
MTEXT
  5
50A3
330
1A
100
AcDbEntity
  8
寸法線
 62
     1
 48
10.0
100
AcDbMText
 10
-95.258986036076
 20
218.536766051195
 30
0.0
 40
8.0
 41
74.443410852713
 71
     1
 72
     5
  1
TO CONVERTER
  0
MTEXT
  5
50A4
102
{ACAD_XDICTIONARY
360
50A5
102
}
330
1A
100
AcDbEntity
  8
寸法線
 48
10.0
100
AcDbMText
 10
-72.897631318281
 20
238.850956858202
 30
0.0
 40
8.0
 41
5.580100571959
 71
     2
 72
     5
  1
P
1001
ACADANNOTATIVE
1000
AnnotativeData
1002
{
1070
     1
1070
     0
1002
}
  0
MTEXT
  5
50A8
102
{ACAD_XDICTIONARY
360
50A9
102
}
330
1A
100
AcDbEntity
  8
寸法線
 48
10.0
100
AcDbMText
 10
-50.697191318281
 20
238.850956858202
 30
0.0
 40
8.0
 41
5.580100571959
 71
     2
 72
     5
  1
E
1001
ACADANNOTATIVE
1000
AnnotativeData
1002
{
1070
     1
1070
     0
1002
}
  0
TEXT
  5
5140
330
1A
100
AcDbEntity
  8
寸法線
 48
10.0
100
AcDbText
 10
113.855480868485
 20
165.550939127179
 30
0.0
 40
8.0
  1
○（Required length）
100
AcDbText
  0
LEADER
  5
5141
330
1A
100
AcDbEntity
  8
寸法線
 48
10.0
100
AcDbLeader
  3
ISO-25
 76
     3
 10
68.732059281344
 20
182.045740757174
 30
0.0
 10
68.732059281344
 20
169.304207195124
 30
0.0
 10
110.080196706355
 20
169.304207195124
 30
0.0
1001
ACAD
1000
DSTYLE
1002
{
1070
     5
1000
OPEN30
1070
   147
1040
0.625
1070
    77
1070
     0
1070
    41
1040
6.0
1070
    47
1040
0.1
1070
    48
1040
0.1
1070
    73
1070
     0
1070
   140
1040
8.0
1070
   271
1070
     1
1070
   272
1070
     1
1070
   341
1005
2AF4
1070
   342
1005
2AF4
1002
}
  0
TEXT
  5
5142
330
1A
100
AcDbEntity
  8
寸法線
 48
10.0
100
AcDbText
 10
402.438602718831
 20
165.550939127179
 30
0.0
 40
8.0
  1
○（Required length）
100
AcDbText
  0
LEADER
  5
5143
330
1A
100
AcDbEntity
  8
寸法線
 48
10.0
100
AcDbLeader
  3
ISO-25
 76
     3
 10
357.31518113169
 20
182.045740757174
 30
0.0
 10
357.31518113169
 20
169.304207195124
 30
0.0
 10
398.663318556701
 20
169.304207195124
 30
0.0
1001
ACAD
1000
DSTYLE
1002
{
1070
     5
1000
OPEN30
1070
   147
1040
0.625
1070
    77
1070
     0
1070
    41
1040
6.0
1070
    47
1040
0.1
1070
    48
1040
0.1
1070
    73
1070
     0
1070
   140
1040
8.0
1070
   271
1070
     1
1070
   272
1070
     1
1070
   341
1005
2AF4
1070
   342
1005
2AF4
1002
}
  0
LINE
  5
5435
330
1A
100
AcDbEntity
  8
寸法線
100
AcDbLine
 10
84.439712126761
 20
183.376040632324
 30
0.0
 11
84.439712126761
 21
301.86704949294
 31
0.0
  0
LINE
  5
5436
330
1A
100
AcDbEntity
  8
寸法線
100
AcDbLine
 10
52.439742126761
 20
183.376040632324
 30
0.0
 11
52.439742126761
 21
301.86704949294
 31
0.0
  0
LINE
  5
5437
330
1A
100
AcDbEntity
  8
寸法線
100
AcDbLine
 10
305.285073394446
 20
183.376040632324
 30
0.0
 11
305.285073394446
 21
301.86704949294
 31
0.0
  0
LINE
  5
5438
330
1A
100
AcDbEntity
  8
寸法線
100
AcDbLine
 10
337.041391958734
 20
183.376040632324
 30
0.0
 11
337.041391958734
 21
301.86704949294
 31
0.0
  0
LINE
  5
5439
330
1A
100
AcDbEntity
  8
寸法線
 48
10.0
100
AcDbLine
 10
163.337440924398
 20
301.86704949294
 30
0.0
 11
163.337440924398
 21
183.376040632324
 31
0.0
  0
LINE
  5
543A
330
1A
100
AcDbEntity
  8
寸法線
 48
10.0
100
AcDbLine
 10
190.971574884128
 20
301.86704949294
 30
0.0
 11
190.971574884128
 21
183.376040632324
 31
0.0
  0
LINE
  5
543B
330
1A
100
AcDbEntity
  8
寸法線
 48
10.0
100
AcDbLine
 10
216.82215000164
 20
301.86704949294
 30
0.0
 11
216.82215000164
 21
183.376040632324
 31
0.0
  0
LINE
  5
543C
330
1A
100
AcDbEntity
  8
寸法線
 48
10.0
100
AcDbLine
 10
240.889166276934
 20
301.86704949294
 30
0.0
 11
240.889166276934
 21
183.376040632324
 31
0.0
  0
LINE
  5
543D
330
1A
100
AcDbEntity
  8
寸法線
 48
10.0
100
AcDbLine
 10
266.739741394446
 20
301.86704949294
 30
0.0
 11
266.739741394446
 21
183.376040632324
 31
0.0
  0
LINE
  5
543E
330
1A
100
AcDbEntity
  8
寸法線
100
AcDbLine
 10
339.575892007411
 20
183.376040632324
 30
0.0
 11
339.575892007411
 21
301.86704949294
 31
0.0
  0
SPLINE
  5
543F
330
1A
100
AcDbEntity
  8
寸法線
 48
10.0
100
AcDbSpline
210
0.0
220
0.0
230
1.0
 70
  1064
 71
     3
 72
    13
 73
     9
 74
     7
 42
0.000000001
 43
0.0000000001
 44
0.0000000001
 40
0.0
 40
0.0
 40
0.0
 40
0.0
 40
3.546053604694618
 40
9.278996093298897
 40
13.89970108471582
 40
17.09539662994939
 40
18.79470455702447
 40
20.02704699455832
 40
20.02704699455832
 40
20.02704699455832
 40
20.02704699455832
 10
174.4840560056477
 20
290.9858251849264
 30
0.0
 10
175.538584274726
 20
291.4729539191305
 30
0.0
 10
178.2979795856419
 20
292.7476288466696
 30
0.0
 10
178.9629164920021
 20
301.6460857194884
 30
0.0
 10
175.0296134728555
 20
295.2459988955461
 30
0.0
 10
175.2018496690568
 20
291.9969813369777
 30
0.0
 10
177.2741313667061
 20
290.7241622601679
 30
0.0
 10
178.1907354449421
 20
291.1826793440375
 30
0.0
 10
178.5760372250121
 20
291.3754206298361
 30
0.0
 11
174.4840560056477
 21
290.9858251849264
 31
0.0
 11
177.3094714385964
 21
293.1286093081228
 31
0.0
 11
177.9427543318041
 21
298.8264670068386
 31
0.0
 11
175.4583379319459
 21
294.930496040594
 31
0.0
 11
175.8967649184083
 21
291.7650179099845
 31
0.0
 11
177.4068993919691
 21
290.9858251849264
 31
0.0
 11
178.5760372250121
 21
291.3754206298361
 31
0.0
  0
SPLINE
  5
5440
330
1A
100
AcDbEntity
  8
寸法線
 48
10.0
100
AcDbSpline
210
0.0
220
0.0
230
1.0
 70
  1064
 71
     3
 72
    13
 73
     9
 74
     7
 42
0.000000001
 43
0.0000000001
 44
0.0000000001
 40
0.0
 40
0.0
 40
0.0
 40
0.0
 40
3.546053604694618
 40
9.278996093298897
 40
13.89970108471582
 40
17.09539662994939
 40
18.79470455702447
 40
20.02704699455832
 40
20.02704699455832
 40
20.02704699455832
 40
20.02704699455832
 10
200.5065079520859
 20
290.9858251849264
 30
0.0
 10
201.5610362211642
 20
291.4729539191305
 30
0.0
 10
204.3204315320801
 20
292.7476288466696
 30
0.0
 10
204.9853684384403
 20
301.6460857194884
 30
0.0
 10
201.0520654192937
 20
295.2459988955461
 30
0.0
 10
201.224301615495
 20
291.9969813369777
 30
0.0
 10
203.2965833131443
 20
290.7241622601679
 30
0.0
 10
204.2131873913803
 20
291.1826793440375
 30
0.0
 10
204.5984891714503
 20
291.3754206298361
 30
0.0
 11
200.5065079520859
 21
290.9858251849264
 31
0.0
 11
203.3319233850346
 21
293.1286093081228
 31
0.0
 11
203.9652062782423
 21
298.8264670068386
 31
0.0
 11
201.4807898783841
 21
294.930496040594
 31
0.0
 11
201.9192168648465
 21
291.7650179099845
 31
0.0
 11
203.4293513384073
 21
290.9858251849264
 31
0.0
 11
204.5984891714503
 21
291.3754206298361
 31
0.0
  0
TEXT
  5
5441
330
1A
100
AcDbEntity
  8
寸法線
 48
10.0
100
AcDbText
 10
206.96453674957
 20
291.07015292427
 30
0.0
 40
5.2
  1
1
100
AcDbText
  0
SPLINE
  5
5442
330
1A
100
AcDbEntity
  8
寸法線
 48
10.0
100
AcDbSpline
210
0.0
220
0.0
230
1.0
 70
  1064
 71
     3
 72
    13
 73
     9
 74
     7
 42
0.000000001
 43
0.0000000001
 44
0.0000000001
 40
0.0
 40
0.0
 40
0.0
 40
0.0
 40
3.546053604694664
 40
9.278996093298936
 40
13.89970108471586
 40
17.09539662994943
 40
18.79470455702451
 40
20.02704699455836
 40
20.02704699455836
 40
20.02704699455836
 40
20.02704699455836
 10
224.5735242273794
 20
290.9858251849264
 30
0.0
 10
225.6280524964578
 20
291.4729539191305
 30
0.0
 10
228.3874478073738
 20
292.7476288466697
 30
0.0
 10
229.0523847137337
 20
301.6460857194883
 30
0.0
 10
225.1190816945874
 20
295.2459988955461
 30
0.0
 10
225.2913178907885
 20
291.9969813369778
 30
0.0
 10
227.3635995884379
 20
290.7241622601678
 30
0.0
 10
228.2802036666738
 20
291.1826793440375
 30
0.0
 10
228.6655054467439
 20
291.3754206298361
 30
0.0
 11
224.5735242273794
 21
290.9858251849264
 31
0.0
 11
227.3989396603282
 21
293.1286093081228
 31
0.0
 11
228.0322225535359
 21
298.8264670068386
 31
0.0
 11
225.5478061536777
 21
294.930496040594
 31
0.0
 11
225.9862331401401
 21
291.7650179099845
 31
0.0
 11
227.4963676137009
 21
290.9858251849264
 31
0.0
 11
228.6655054467439
 21
291.3754206298361
 31
0.0
  0
TEXT
  5
5443
330
1A
100
AcDbEntity
  8
寸法線
 48
10.0
100
AcDbText
 10
231.031553024863
 20
291.07015292427
 30
0.0
 40
5.2
  1
2
100
AcDbText
  0
TEXT
  5
5444
330
1A
100
AcDbEntity
  8
寸法線
 48
10.0
100
AcDbText
 10
256.882128142375
 20
291.07015292427
 30
0.0
 40
5.2
  1
3
100
AcDbText
  0
SPLINE
  5
5445
330
1A
100
AcDbEntity
  8
寸法線
 48
10.0
100
AcDbSpline
210
0.0
220
0.0
230
1.0
 70
  1064
 71
     3
 72
    13
 73
     9
 74
     7
 42
0.000000001
 43
0.0000000001
 44
0.0000000001
 40
0.0
 40
0.0
 40
0.0
 40
0.0
 40
3.546053604694664
 40
9.278996093298936
 40
13.89970108471589
 40
17.09539662994947
 40
18.79470455702455
 40
20.0270469945584
 40
20.0270469945584
 40
20.0270469945584
 40
20.0270469945584
 10
250.4240993448913
 20
290.9858251849264
 30
0.0
 10
251.4786276139696
 20
291.4729539191305
 30
0.0
 10
254.2380229248856
 20
292.7476288466696
 30
0.0
 10
254.9029598312457
 20
301.6460857194884
 30
0.0
 10
250.9696568120992
 20
295.2459988955462
 30
0.0
 10
251.1418930083004
 20
291.9969813369777
 30
0.0
 10
253.2141747059497
 20
290.7241622601679
 30
0.0
 10
254.1307787841857
 20
291.1826793440375
 30
0.0
 10
254.5160805642558
 20
291.3754206298361
 30
0.0
 11
250.4240993448913
 21
290.9858251849264
 31
0.0
 11
253.2495147778401
 21
293.1286093081228
 31
0.0
 11
253.8827976710478
 21
298.8264670068386
 31
0.0
 11
251.3983812711895
 21
294.930496040594
 31
0.0
 11
251.8368082576519
 21
291.7650179099845
 31
0.0
 11
253.3469427312127
 21
290.9858251849264
 31
0.0
 11
254.5160805642558
 21
291.3754206298361
 31
0.0
  0
MTEXT
  5
5446
102
{ACAD_XDICTIONARY
360
5447
102
}
330
1A
100
AcDbEntity
  8
寸法線
 48
10.0
100
AcDbMText
 10
120.935100469592
 20
299.010268461545
 30
0.0
 40
8.0
 41
72.990776685661
 71
     2
 72
     5
  1
MODEL
1001
ACADANNOTATIVE
1000
AnnotativeData
1002
{
1070
     1
1070
     0
1002
}
1001
ACAD
1000
MTEXTBEGIN
1070
    44
1040
0.99
1000
MTEXTEND
  0
MTEXT
  5
544A
102
{ACAD_XDICTIONARY
360
544B
102
}
330
1A
100
AcDbEntity
  8
寸法線
 48
10.0
100
AcDbMText
 10
320.883456022189
 20
299.177746827291
 30
0.0
 40
8.0
 41
31.756318564289
 71
     2
 72
     5
  1
Q'ty
1001
ACADANNOTATIVE
1000
AnnotativeData
1002
{
1070
     1
1070
     0
1002
}
  0
MTEXT
  5
544E
102
{ACAD_XDICTIONARY
360
544F
102
}
330
1A
100
AcDbEntity
  8
寸法線
 48
10.0
100
AcDbMText
 10
285.732630740045
 20
298.122015967451
 30
0.0
 40
8.0
 41
38.545332
 71
     2
 72
     5
  1
NOTE
1001
ACADANNOTATIVE
1000
AnnotativeData
1002
{
1070
     1
1070
     0
1002
}
  0
LINE
  5
5452
330
1A
100
AcDbEntity
  8
寸法線
 48
10.0
100
AcDbLine
 10
52.439742126761
 20
287.79704949294
 30
0.0
 11
84.439712126761
 21
301.86704949294
 31
0.0
  0
LINE
  5
549E
330
1A
100
AcDbEntity
  8
寸法線
100
AcDbLine
 10
371.575862007411
 20
183.376040632324
 30
0.0
 11
371.575862007411
 21
301.86704949294
 31
0.0
  0
LINE
  5
549F
330
1A
100
AcDbEntity
  8
寸法線
100
AcDbLine
 10
339.575892007411
 20
183.376040632324
 30
0.0
 11
339.575892007411
 21
301.86704949294
 31
0.0
  0
LINE
  5
54A0
330
1A
100
AcDbEntity
  8
寸法線
100
AcDbLine
 10
592.421223275095
 20
183.376040632324
 30
0.0
 11
592.421223275095
 21
301.86704949294
 31
0.0
  0
LINE
  5
54A1
330
1A
100
AcDbEntity
  8
寸法線
100
AcDbLine
 10
624.177541839384
 20
183.376040632324
 30
0.0
 11
624.177541839384
 21
301.86704949294
 31
0.0
  0
LINE
  5
54A2
330
1A
100
AcDbEntity
  8
寸法線
 48
10.0
100
AcDbLine
 10
450.473590805048
 20
301.86704949294
 30
0.0
 11
450.473590805048
 21
183.376040632324
 31
0.0
  0
LINE
  5
54A3
330
1A
100
AcDbEntity
  8
寸法線
 48
10.0
100
AcDbLine
 10
478.107724764778
 20
301.86704949294
 30
0.0
 11
478.107724764778
 21
183.376040632324
 31
0.0
  0
LINE
  5
54A4
330
1A
100
AcDbEntity
  8
寸法線
 48
10.0
100
AcDbLine
 10
503.95829988229
 20
301.86704949294
 30
0.0
 11
503.95829988229
 21
183.376040632324
 31
0.0
  0
LINE
  5
54A5
330
1A
100
AcDbEntity
  8
寸法線
 48
10.0
100
AcDbLine
 10
528.025316157583
 20
301.86704949294
 30
0.0
 11
528.025316157583
 21
183.376040632324
 31
0.0
  0
LINE
  5
54A6
330
1A
100
AcDbEntity
  8
寸法線
 48
10.0
100
AcDbLine
 10
553.875891275095
 20
301.86704949294
 30
0.0
 11
553.875891275095
 21
183.376040632324
 31
0.0
  0
SPLINE
  5
54A8
330
1A
100
AcDbEntity
  8
寸法線
 48
10.0
100
AcDbSpline
210
0.0
220
0.0
230
1.0
 70
  1064
 71
     3
 72
    13
 73
     9
 74
     7
 42
0.000000001
 43
0.0000000001
 44
0.0000000001
 40
0.0
 40
0.0
 40
0.0
 40
0.0
 40
3.546053604694664
 40
9.278996093298941
 40
13.89970108471586
 40
17.09539662994943
 40
18.79470455702451
 40
20.02704699455835
 40
20.02704699455835
 40
20.02704699455835
 40
20.02704699455835
 10
461.6202058862972
 20
290.9858251849264
 30
0.0
 10
462.6747341553754
 20
291.4729539191305
 30
0.0
 10
465.4341294662915
 20
292.7476288466696
 30
0.0
 10
466.0990663726519
 20
301.6460857194885
 30
0.0
 10
462.1657633535051
 20
295.2459988955462
 30
0.0
 10
462.3379995497064
 20
291.9969813369777
 30
0.0
 10
464.4102812473556
 20
290.7241622601678
 30
0.0
 10
465.3268853255915
 20
291.1826793440375
 30
0.0
 10
465.7121871056617
 20
291.3754206298361
 30
0.0
 11
461.6202058862972
 21
290.9858251849264
 31
0.0
 11
464.445621319246
 21
293.1286093081228
 31
0.0
 11
465.0789042124537
 21
298.8264670068386
 31
0.0
 11
462.5944878125955
 21
294.930496040594
 31
0.0
 11
463.0329147990578
 21
291.7650179099845
 31
0.0
 11
464.5430492726186
 21
290.9858251849264
 31
0.0
 11
465.7121871056617
 21
291.3754206298361
 31
0.0
  0
SPLINE
  5
54A9
330
1A
100
AcDbEntity
  8
寸法線
 48
10.0
100
AcDbSpline
210
0.0
220
0.0
230
1.0
 70
  1064
 71
     3
 72
    13
 73
     9
 74
     7
 42
0.000000001
 43
0.0000000001
 44
0.0000000001
 40
0.0
 40
0.0
 40
0.0
 40
0.0
 40
3.546053604694664
 40
9.278996093298941
 40
13.89970108471586
 40
17.09539662994943
 40
18.79470455702451
 40
20.02704699455835
 40
20.02704699455835
 40
20.02704699455835
 40
20.02704699455835
 10
487.6426578327354
 20
290.9858251849264
 30
0.0
 10
488.6971861018136
 20
291.4729539191305
 30
0.0
 10
491.4565814127296
 20
292.7476288466696
 30
0.0
 10
492.1215183190901
 20
301.6460857194885
 30
0.0
 10
488.1882152999434
 20
295.2459988955462
 30
0.0
 10
488.3604514961444
 20
291.9969813369777
 30
0.0
 10
490.4327331937938
 20
290.7241622601678
 30
0.0
 10
491.3493372720299
 20
291.1826793440375
 30
0.0
 10
491.7346390520999
 20
291.3754206298361
 30
0.0
 11
487.6426578327354
 21
290.9858251849264
 31
0.0
 11
490.4680732656842
 21
293.1286093081228
 31
0.0
 11
491.1013561588919
 21
298.8264670068386
 31
0.0
 11
488.6169397590337
 21
294.930496040594
 31
0.0
 11
489.055366745496
 21
291.7650179099845
 31
0.0
 11
490.5655012190568
 21
290.9858251849264
 31
0.0
 11
491.7346390520999
 21
291.3754206298361
 31
0.0
  0
TEXT
  5
54AA
330
1A
100
AcDbEntity
  8
寸法線
 48
10.0
100
AcDbText
 10
494.100686630219
 20
291.07015292427
 30
0.0
 40
5.2
  1
1
100
AcDbText
  0
SPLINE
  5
54AB
330
1A
100
AcDbEntity
  8
寸法線
 48
10.0
100
AcDbSpline
210
0.0
220
0.0
230
1.0
 70
  1064
 71
     3
 72
    13
 73
     9
 74
     7
 42
0.000000001
 43
0.0000000001
 44
0.0000000001
 40
0.0
 40
0.0
 40
0.0
 40
0.0
 40
3.546053604694664
 40
9.278996093298941
 40
13.89970108471586
 40
17.09539662994943
 40
18.79470455702451
 40
20.02704699455835
 40
20.02704699455835
 40
20.02704699455835
 40
20.02704699455835
 10
511.7096741080289
 20
290.9858251849264
 30
0.0
 10
512.7642023771072
 20
291.4729539191305
 30
0.0
 10
515.5235976880231
 20
292.7476288466696
 30
0.0
 10
516.1885345943837
 20
301.6460857194885
 30
0.0
 10
512.255231575237
 20
295.2459988955462
 30
0.0
 10
512.427467771438
 20
291.9969813369777
 30
0.0
 10
514.4997494690874
 20
290.7241622601678
 30
0.0
 10
515.4163535473233
 20
291.1826793440375
 30
0.0
 10
515.8016553273934
 20
291.3754206298361
 30
0.0
 11
511.7096741080289
 21
290.9858251849264
 31
0.0
 11
514.5350895409778
 21
293.1286093081228
 31
0.0
 11
515.1683724341855
 21
298.8264670068386
 31
0.0
 11
512.6839560343273
 21
294.930496040594
 31
0.0
 11
513.1223830207896
 21
291.7650179099845
 31
0.0
 11
514.6325174943504
 21
290.9858251849264
 31
0.0
 11
515.8016553273934
 21
291.3754206298361
 31
0.0
  0
TEXT
  5
54AC
330
1A
100
AcDbEntity
  8
寸法線
 48
10.0
100
AcDbText
 10
518.167702905513
 20
291.07015292427
 30
0.0
 40
5.2
  1
2
100
AcDbText
  0
TEXT
  5
54AD
330
1A
100
AcDbEntity
  8
寸法線
 48
10.0
100
AcDbText
 10
544.018278023025
 20
291.07015292427
 30
0.0
 40
5.2
  1
3
100
AcDbText
  0
SPLINE
  5
54AE
330
1A
100
AcDbEntity
  8
寸法線
 48
10.0
100
AcDbSpline
210
0.0
220
0.0
230
1.0
 70
  1064
 71
     3
 72
    13
 73
     9
 74
     7
 42
0.000000001
 43
0.0000000001
 44
0.0000000001
 40
0.0
 40
0.0
 40
0.0
 40
0.0
 40
3.546053604694664
 40
9.278996093298941
 40
13.89970108471593
 40
17.09539662994951
 40
18.79470455702458
 40
20.02704699455843
 40
20.02704699455843
 40
20.02704699455843
 40
20.02704699455843
 10
537.5602492255408
 20
290.9858251849264
 30
0.0
 10
538.614777494619
 20
291.4729539191305
 30
0.0
 10
541.3741728055351
 20
292.7476288466696
 30
0.0
 10
542.0391097118952
 20
301.6460857194883
 30
0.0
 10
538.1058066927485
 20
295.2459988955461
 30
0.0
 10
538.2780428889499
 20
291.9969813369777
 30
0.0
 10
540.3503245865993
 20
290.7241622601679
 30
0.0
 10
541.2669286648353
 20
291.1826793440375
 30
0.0
 10
541.6522304449053
 20
291.3754206298361
 30
0.0
 11
537.5602492255408
 21
290.9858251849264
 31
0.0
 11
540.3856646584896
 21
293.1286093081228
 31
0.0
 11
541.0189475516974
 21
298.8264670068386
 31
0.0
 11
538.534531151839
 21
294.930496040594
 31
0.0
 11
538.9729581383015
 21
291.7650179099845
 31
0.0
 11
540.4830926118623
 21
290.9858251849264
 31
0.0
 11
541.6522304449053
 21
291.3754206298361
 31
0.0
  0
MTEXT
  5
54AF
102
{ACAD_XDICTIONARY
360
54B0
102
}
330
1A
100
AcDbEntity
  8
寸法線
 48
10.0
100
AcDbMText
 10
408.071250350241
 20
299.010268461545
 30
0.0
 40
8.0
 41
72.990776685661
 71
     2
 72
     5
  1
MODEL
1001
ACADANNOTATIVE
1000
AnnotativeData
1002
{
1070
     1
1070
     0
1002
}
1001
ACAD
1000
MTEXTBEGIN
1070
    44
1040
0.99
1000
MTEXTEND
  0
MTEXT
  5
54B3
102
{ACAD_XDICTIONARY
360
54B4
102
}
330
1A
100
AcDbEntity
  8
寸法線
 48
10.0
100
AcDbMText
 10
608.019605902839
 20
299.177746827291
 30
0.0
 40
8.0
 41
31.756318564289
 71
     2
 72
     5
  1
Q'ty
1001
ACADANNOTATIVE
1000
AnnotativeData
1002
{
1070
     1
1070
     0
1002
}
  0
MTEXT
  5
54B7
102
{ACAD_XDICTIONARY
360
54B8
102
}
330
1A
100
AcDbEntity
  8
寸法線
 48
10.0
100
AcDbMText
 10
572.868780620694
 20
298.122015967451
 30
0.0
 40
8.0
 41
38.545332
 71
     2
 72
     5
  1
NOTE
1001
ACADANNOTATIVE
1000
AnnotativeData
1002
{
1070
     1
1070
     0
1002
}
  0
LINE
  5
54BB
330
1A
100
AcDbEntity
  8
寸法線
 48
10.0
100
AcDbLine
 10
339.575892007411
 20
287.79704949294
 30
0.0
 11
371.575862007411
 21
301.86704949294
 31
0.0
  0
DIMENSION
  5
5566
330
1A
100
AcDbEntity
  8
寸法線
 48
10.0
100
AcDbDimension
  2
*D74
 10
40.0
 20
428.463796727989
 30
0.0
 11
40.0
 21
468.522130061322
 31
0.0
 70
   160
  1
φ<>
  3
ISO-25
100
AcDbAlignedDimension
 13
53.638468256273
 23
449.963796727988
 33
0.0
 14
53.638468256273
 24
428.463796727989
 34
0.0
 50
90.0
100
AcDbRotatedDimension
1001
ACAD
1000
DSTYLE
1002
{
1070
     5
1000
OPEN30
1070
    41
1040
6.0
1070
    47
1040
0.1
1070
    48
1040
0.1
1070
    73
1070
     0
1070
   140
1040
8.0
1070
   271
1070
     1
1070
   272
1070
     1
1070
   341
1005
2AF4
1002
}
  0
LINE
  5
5567
330
1A
100
AcDbEntity
  8
外形線
100
AcDbLine
 10
152.638468256273
 20
428.463796727989
 30
0.0
 11
152.638468256273
 21
449.963796727988
 31
0.0
  0
LINE
  5
5568
330
1A
100
AcDbEntity
  8
外形線
100
AcDbLine
 10
152.638468256273
 20
449.963796727988
 30
0.0
 11
106.138468256273
 21
449.963796727988
 31
0.0
  0
LINE
  5
5569
330
1A
100
AcDbEntity
  8
外形線
100
AcDbLine
 10
53.638468256273
 20
449.963796727988
 30
0.0
 11
52.638468256273
 21
448.963796727988
 31
0.0
  0
LINE
  5
556A
330
1A
100
AcDbEntity
  8
外形線
100
AcDbLine
 10
52.638468256273
 20
448.963796727988
 30
0.0
 11
52.638468256273
 21
429.463796727989
 31
0.0
  0
LINE
  5
556B
330
1A
100
AcDbEntity
  8
外形線
100
AcDbLine
 10
53.638468256273
 20
428.463796727989
 30
0.0
 11
52.638468256273
 21
429.463796727989
 31
0.0
  0
LINE
  5
556C
330
1A
100
AcDbEntity
  8
外形線
100
AcDbLine
 10
152.638468256273
 20
428.463796727989
 30
0.0
 11
106.138468256272
 21
428.463796727989
 31
0.0
  0
ARC
  5
556D
330
1A
100
AcDbEntity
  8
細線
 48
10.0
100
AcDbCircle
 10
92.915812006273
 20
444.588796727989
 30
0.0
 40
8.222656249999796
100
AcDbArc
 50
319.180234332391
 51
40.819765667609
  0
ARC
  5
556E
330
1A
100
AcDbEntity
  8
細線
 48
10.0
100
AcDbCircle
 10
92.915812006273
 20
433.838796727989
 30
0.0
 40
8.222656249999796
100
AcDbArc
 50
319.180234332391
 51
40.819765667609
  0
ARC
  5
556F
330
1A
100
AcDbEntity
  8
細線
 48
10.0
100
AcDbCircle
 10
105.361124506273
 20
444.588796727989
 30
0.0
 40
8.222656249999796
100
AcDbArc
 50
139.180234332391
 51
220.819765667608
  0
ARC
  5
5570
330
1A
100
AcDbEntity
  8
細線
 48
10.0
100
AcDbCircle
 10
112.361124506272
 20
444.588796727989
 30
0.0
 40
8.222656249999796
100
AcDbArc
 50
139.180234332391
 51
220.819765667608
  0
ARC
  5
5571
330
1A
100
AcDbEntity
  8
細線
 48
10.0
100
AcDbCircle
 10
99.915812006273
 20
433.838796727989
 30
0.0
 40
8.222656249999796
100
AcDbArc
 50
319.180234332391
 51
40.819765667609
  0
ARC
  5
5572
330
1A
100
AcDbEntity
  8
細線
 48
10.0
100
AcDbCircle
 10
112.361124506272
 20
433.838796727989
 30
0.0
 40
8.222656249999796
100
AcDbArc
 50
139.180234332391
 51
220.819765667608
  0
LINE
  5
5573
330
1A
100
AcDbEntity
  8
外形線
100
AcDbLine
 10
99.138468256273
 20
449.963796727988
 30
0.0
 11
53.638468256273
 21
449.963796727988
 31
0.0
  0
LINE
  5
5574
330
1A
100
AcDbEntity
  8
外形線
100
AcDbLine
 10
99.138468256272
 20
428.463796727989
 30
0.0
 11
53.638468256273
 21
428.463796727989
 31
0.0
  0
VIEWPORT
  5
2902
330
28FB
100
AcDbEntity
 67
     1
  8
0
 48
10.0
100
AcDbViewport
 10
0.0
 20
0.0
 30
0.0
 40
528.349942987457
 41
300.3
 68
     1
 69
     1
1001
ACAD
1000
MVIEW
1002
{
1070
    16
1010
0.0
1020
0.0
1030
0.0
1010
0.0
1020
0.0
1030
1.0
1040
0.0
1040
300.3
1040
205.756503333333
1040
143.551503333333
1040
50.0
1040
0.0
1040
0.0
1070
    16
1070
   100
1070
     0
1070
     1
1070
     0
1070
     0
1070
     0
1070
     0
1040
0.0
1040
0.0
1040
0.0
1040
10.0
1040
10.0
1040
10.0
1040
10.0
1070
     0
1002
{
1002
}
1002
}
  0
VIEWPORT
  5
2904
330
28FB
100
AcDbEntity
 67
     1
  8
図枠太線
 48
10.0
100
AcDbViewport
 10
204.746305129083
 20
161.396645458131
 30
0.0
 40
400.0
 41
240.0
 68
     2
 69
     2
1001
ACAD
1000
MVIEW
1002
{
1070
    16
1010
0.0
1020
0.0
1030
0.0
1010
0.0
1020
0.0
1030
1.0
1040
0.0
1040
480.000003849169
1040
242.540199591992
1040
364.079116365292
1040
50.0
1040
0.0
1040
0.0
1070
     0
1070
   100
1070
     0
1070
     0
1070
     0
1070
     0
1070
     0
1070
     0
1040
0.0
1040
0.0
1040
0.0
1040
1.0
1040
1.0
1040
0.0
1040
0.0
1070
     0
1002
{
1002
}
1002
}
  0
INSERT
  5
2A59
330
28FB
100
AcDbEntity
 67
     1
  8
図枠太線
100
AcDbBlockReference
  2
A3横用_タイトル
 10
-0.352109406709
 20
-2.129314295396
 30
0.0
  0
MTEXT
  5
2E85
330
28FB
100
AcDbEntity
 67
     1
  8
寸法線
 48
10.0
100
AcDbMText
 10
149.12611673873
 20
14.255245025413
 30
0.0
 40
5.0
 41
11.452149180996
 71
     1
 72
     5
  1
{\H1.4x;1:2}
  0
MTEXT
  5
518B
102
{ACAD_XDICTIONARY
360
518C
102
}
330
28FB
100
AcDbEntity
 67
     1
  8
寸法線
 48
10.0
100
AcDbMText
 10
188.374763351806
 20
33.486520483444
 30
0.0
 40
5.0
 41
33.4
 71
     2
 72
     5
  1
takahashi
1001
ACADANNOTATIVE
1000
AnnotativeData
1002
{
1070
     1
1070
     0
1002
}
  0
MTEXT
  5
518F
102
{ACAD_XDICTIONARY
360
5190
102
}
330
28FB
100
AcDbEntity
 67
     1
  8
寸法線
 48
10.0
100
AcDbMText
 10
377.920856708546
 20
50.834223925331
 30
0.0
 40
5.0
 41
21.364427237501
 71
     1
 72
     5
  1
Q'ty: 
1001
ACADANNOTATIVE
1000
AnnotativeData
1002
{
1070
     1
1070
     0
1002
}
  0
MTEXT
  5
5194
102
{ACAD_XDICTIONARY
360
5195
102
}
330
28FB
100
AcDbEntity
 67
     1
  8
寸法線
 48
10.0
100
AcDbMText
 10
341.155313110839
 20
15.69393312214
 30
0.0
 40
8.0
 41
33.206594841881
 71
     1
 72
     5
  1
HE-13020
1001
ACADANNOTATIVE
1000
AnnotativeData
1002
{
1070
     1
1070
     0
1002
}
  0
MTEXT
  5
5198
330
28FB
100
AcDbEntity
 67
     1
  8
寸法線
 48
10.0
100
AcDbMText
 10
212.548677740965
 20
51.185679132829
 30
0.0
 40
5.0
 41
106.699923235854
 71
     1
 72
     5
  1
a reduced drawing（A3size～）
  0
LINE
  5
5199
330
28FB
100
AcDbEntity
 67
     1
  8
寸法線
 48
10.0
100
AcDbLine
 10
208.834699746824
 20
44.330291551503
 30
0.0
 11
305.487818087333
 21
44.330291551503
 31
0.0
  0
MTEXT
  5
539A
102
{ACAD_XDICTIONARY
360
539B
102
}
330
28FB
100
AcDbEntity
 67
     1
  8
寸法線
 48
10.0
100
AcDbMText
 10
307.871917838935
 20
32.414406608895
 30
0.0
 40
6.0
 41
45.0
 71
     1
 72
     5
  1
TSS-A5SA-□
1001
ACADANNOTATIVE
1000
AnnotativeData
1002
{
1070
     1
1070
     0
1002
}
  0
MTEXT
  5
539E
330
28FB
100
AcDbEntity
 67
     1
  8
寸法線
 48
10.0
100
AcDbMText
 10
361.549497831478
 20
35.070077613205
 30
0.0
 40
3.5
 41
59.837375094616
 71
     1
 72
     5
  1
CAPACITANCE TYPE\PLEVEL SENSOR
  0
MTEXT
  5
566D
102
{ACAD_XDICTIONARY
360
566E
102
}
330
28FB
100
AcDbEntity
 67
     1
  8
寸法線
 48
10.0
100
AcDbMText
 10
188.046305129083
 20
12.62384379707
 30
0.0
 40
5.0
 41
33.4
 71
     2
 72
     5
  1
\H0.9x;Sep.14.2016
1001
ACADANNOTATIVE
1000
AnnotativeData
1002
{
1070
     1
1070
     0
1002
}
  0
ENDSEC
  0
SECTION
  2
OBJECTS
  0
DICTIONARY
  5
C
330
0
100
AcDbDictionary
  3
ACAD_COLOR
350
2948
  3
ACAD_GROUP
350
D
  3
ACAD_LAYOUT
350
2816
  3
ACAD_MATERIAL
350
2947
  3
ACAD_MLEADERSTYLE
350
4B88
  3
ACAD_MLINESTYLE
350
E
  3
ACAD_PLOTSETTINGS
350
2817
  3
ACAD_SCALELIST
350
4B61
  3
ACAD_VISUALSTYLE
350
4B48
  3
ACADDIM
350
4312
  3
ACDBHEADERROUNDTRIPXREC
350
56CD
  3
ACDBVARIABLEDICTIONARY
350
4EB4
  3
DWGPROPS
350
56F2
  0
DICTIONARY
  5
56F3
330
8
100
AcDbDictionary
280
     1
  3
ACAD_XREC_ROUNDTRIP
360
56F4
  0
DICTIONARY
  5
29EA
330
2
100
AcDbDictionary
280
     1
  3
ACAD_LAYERFILTERS
360
2B0C
  3
ACAD_LAYERSTATES
360
29EB
  0
DICTIONARY
  5
4D90
330
4D8F
100
AcDbDictionary
280
     1
  3
ACDBCONTEXTDATAMANAGER
360
4D91
  0
DICTIONARY
  5
4DA9
330
4DA8
100
AcDbDictionary
280
     1
  3
ACDBCONTEXTDATAMANAGER
360
4DAA
  0
DICTIONARY
  5
4E89
330
4E88
100
AcDbDictionary
280
     1
  3
ACDBCONTEXTDATAMANAGER
360
4E8A
  0
DICTIONARY
  5
4E99
330
4E98
100
AcDbDictionary
280
     1
  3
ACDBCONTEXTDATAMANAGER
360
4E9A
  0
DICTIONARY
  5
4E9D
330
4E9C
100
AcDbDictionary
280
     1
  3
ACDBCONTEXTDATAMANAGER
360
4E9E
  0
DICTIONARY
  5
4EA1
330
4EA0
100
AcDbDictionary
280
     1
  3
ACDBCONTEXTDATAMANAGER
360
4EA2
  0
DICTIONARY
  5
4EA5
330
4EA4
100
AcDbDictionary
280
     1
  3
ACDBCONTEXTDATAMANAGER
360
4EA6
  0
DICTIONARY
  5
4EA9
330
4EA8
100
AcDbDictionary
280
     1
  3
ACDBCONTEXTDATAMANAGER
360
4EAA
  0
DICTIONARY
  5
4EAD
330
4EAC
100
AcDbDictionary
280
     1
  3
ACDBCONTEXTDATAMANAGER
360
4EAE
  0
DICTIONARY
  5
4EB1
330
4EB0
100
AcDbDictionary
280
     1
  3
ACDBCONTEXTDATAMANAGER
360
4EB2
  0
DICTIONARY
  5
5024
330
5023
100
AcDbDictionary
280
     1
  3
ACDBCONTEXTDATAMANAGER
360
5025
  0
DICTIONARY
  5
50A5
330
50A4
100
AcDbDictionary
280
     1
  3
ACDBCONTEXTDATAMANAGER
360
50A6
  0
DICTIONARY
  5
50A9
330
50A8
100
AcDbDictionary
280
     1
  3
ACDBCONTEXTDATAMANAGER
360
50AA
  0
DICTIONARY
  5
5447
330
5446
100
AcDbDictionary
280
     1
  3
ACDBCONTEXTDATAMANAGER
360
5448
  0
DICTIONARY
  5
544B
330
544A
100
AcDbDictionary
280
     1
  3
ACDBCONTEXTDATAMANAGER
360
544C
  0
DICTIONARY
  5
544F
330
544E
100
AcDbDictionary
280
     1
  3
ACDBCONTEXTDATAMANAGER
360
5450
  0
DICTIONARY
  5
54B0
330
54AF
100
AcDbDictionary
280
     1
  3
ACDBCONTEXTDATAMANAGER
360
54B1
  0
DICTIONARY
  5
54B4
330
54B3
100
AcDbDictionary
280
     1
  3
ACDBCONTEXTDATAMANAGER
360
54B5
  0
DICTIONARY
  5
54B8
330
54B7
100
AcDbDictionary
280
     1
  3
ACDBCONTEXTDATAMANAGER
360
54B9
  0
DICTIONARY
  5
518C
330
518B
100
AcDbDictionary
280
     1
  3
ACDBCONTEXTDATAMANAGER
360
518D
  0
DICTIONARY
  5
5190
330
518F
100
AcDbDictionary
280
     1
  3
ACDBCONTEXTDATAMANAGER
360
5191
  0
DICTIONARY
  5
5195
330
5194
100
AcDbDictionary
280
     1
  3
ACDBCONTEXTDATAMANAGER
360
5196
  0
DICTIONARY
  5
539B
330
539A
100
AcDbDictionary
280
     1
  3
ACDBCONTEXTDATAMANAGER
360
539C
  0
DICTIONARY
  5
566E
330
566D
100
AcDbDictionary
280
     1
  3
ACDBCONTEXTDATAMANAGER
360
566F
  0
DICTIONARY
  5
2948
102
{ACAD_REACTORS
330
C
102
}
330
C
100
AcDbDictionary
  0
DICTIONARY
  5
D
102
{ACAD_REACTORS
330
C
102
}
330
C
100
AcDbDictionary
  3
*A1
350
4615
  0
DICTIONARY
  5
2816
102
{ACAD_REACTORS
330
C
102
}
330
C
100
AcDbDictionary
  0
DICTIONARY
  5
2947
102
{ACAD_REACTORS
330
C
102
}
330
C
100
AcDbDictionary
  3
BYBLOCK
350
4B84
  3
BYLAYER
350
4B83
  3
GLOBAL
350
4B85
  0
DICTIONARY
  5
4B88
102
{ACAD_REACTORS
330
C
102
}
330
C
100
AcDbDictionary
  3
STANDARD
350
4B89
  0
DICTIONARY
  5
E
102
{ACAD_REACTORS
330
C
102
}
330
C
100
AcDbDictionary
  3
STANDARD
350
13
  0
DICTIONARY
  5
2817
102
{ACAD_REACTORS
330
C
102
}
330
C
100
AcDbDictionary
  0
DICTIONARY
  5
4B61
102
{ACAD_REACTORS
330
C
102
}
330
C
100
AcDbDictionary
  3
A0
350
4B62
  3
A1
350
4B63
  3
A2
350
4B64
  3
A3
350
4B65
  3
A4
350
4B66
  3
A5
350
4B67
  3
A6
350
4B68
  3
A7
350
4B69
  3
A8
350
4B6A
  3
A9
350
4B6B
  3
B0
350
4B6C
  3
B1
350
4B6D
  3
B2
350
4B6E
  3
B3
350
4B6F
  3
B4
350
4B70
  3
B5
350
4B71
  3
B6
350
4B72
  3
B7
350
4B73
  3
B8
350
4B74
  3
B9
350
4B75
  3
C0
350
4B76
  3
C1
350
4B77
  3
C2
350
4B78
  3
C3
350
4B79
  3
C4
350
4B7A
  3
C5
350
4B7B
  3
C6
350
4B7C
  3
C7
350
4B7D
  3
C8
350
4B7E
  3
C9
350
4B7F
  3
D0
350
4B80
  3
D1
350
4B81
  3
D2
350
4B82
  0
DICTIONARY
  5
4B48
102
{ACAD_REACTORS
330
C
102
}
330
C
100
AcDbDictionary
  3
2DWIREFRAME
350
4B4D
  3
BASIC
350
4B50
  3
BRIGHTEN
350
4B54
  3
COLORCHANGE
350
4B58
  3
CONCEPTUAL
350
4B52
  3
DIM
350
4B53
  3
EDGECOLOROFF
350
4B5B
  3
FACEPATTERN
350
4B57
  3
FLAT
350
4B49
  3
FLATWITHEDGES
350
4B4A
  3
GOURAUD
350
4B4B
  3
GOURAUDWITHEDGES
350
4B4C
  3
HIDDEN
350
4B4F
  3
JITTEROFF
350
4B59
  3
LINEPATTERN
350
4B56
  3
MODELING
350
4FA8
  3
OVERHANGOFF
350
4B5A
  3
REALISTIC
350
4B51
  3
SHADED
350
4B60
  3
SHADED_WITH_EDGES
350
4B5F
  3
SHADES_OF_GRAY
350
4B5C
  3
SKETCHY
350
4B5D
  3
THICKEN
350
4B55
  3
WIREFRAME
350
4B4E
  3
X-RAY
350
4B5E
  0
XRECORD
  5
4312
102
{ACAD_REACTORS
330
C
102
}
330
C
100
AcDbXrecord
 90
   990106
  3

 60
     0
 61
     0
 62
     4
 63
     4
 64
     0
 65
     0
 66
     0
 67
     3
 68
     1
 69
     0
 70
     0
 71
     0
 72
     0
 40
0.0
170
     2
340
0
  0
DICTIONARY
  5
56CD
102
{ACAD_REACTORS
330
C
102
}
330
C
100
AcDbDictionary
  3
CEPSNID
350
56D7
  3
CEPSNTYPE
350
56D6
  3
COLORDICT
350
56F0
  3
DIMSTYLEDATA
350
56ED
  3
FINGERPRINTGUID
350
56D8
  3
HYPERLINKBASE
350
56D0
  3
INSUNITS
350
56D5
  3
LAYOUTDICT
350
56D2
  3
LWETCUNION
350
56D4
  3
MATERIALDICT
350
56F1
  3
PLOTSETDICT
350
56D3
  3
PSVPSCALE
350
56DA
  3
PUCSBASE
350
56DD
  3
PUCSORGBACK
350
56E3
  3
PUCSORGBOTTOM
350
56DF
  3
PUCSORGFRONT
350
56E2
  3
PUCSORGLEFT
350
56E0
  3
PUCSORGRIGHT
350
56E1
  3
PUCSORGTOP
350
56DE
  3
PUCSORTHOREF
350
56DB
  3
PUCSORTHOVIEW
350
56DC
  3
STYLESHEET
350
56D1
  3
TSTACKALIGN
350
56CE
  3
TSTACKSIZE
350
56CF
  3
UCSBASE
350
56E6
  3
UCSORGBACK
350
56EC
  3
UCSORGBOTTOM
350
56E8
  3
UCSORGFRONT
350
56EB
  3
UCSORGLEFT
350
56E9
  3
UCSORGRIGHT
350
56EA
  3
UCSORGTOP
350
56E7
  3
UCSORTHOREF
350
56E4
  3
UCSORTHOVIEW
350
56E5
  3
VERSIONGUID
350
56D9
  0
DICTIONARY
  5
4EB4
102
{ACAD_REACTORS
330
C
102
}
330
C
100
AcDbDictionary
  3
CANNOSCALE
350
4EB5
  3
CMLEADERSTYLE
350
4EB7
  3
CTABLESTYLE
350
4EB6
  3
DIMASSOC
350
56EE
  3
HIDETEXT
350
56EF
  3
MSLTSCALE
350
4EB8
  3
XCLIPFRAME
350
4EB9
  0
XRECORD
  5
56F2
102
{ACAD_REACTORS
330
C
102
}
330
C
100
AcDbXrecord
  1
DWGPROPS COOKIE
  2

  3

  4

  6

  7

  8
takahashi
  9

300
=
301
=
302
=
303
=
304
=
305
=
306
=
307
=
308
=
309
=
 40
0.0
 41
2450576.222302431
 42
2457658.403095984
  1

 90
        0
  0
XRECORD
  5
56F4
102
{ACAD_REACTORS
330
56F3
102
}
330
56F3
100
AcDbXrecord
102
VTR_0.000_0.000_1.000_1.000_VISUALSTYLE
340
4B4D
102
VTR_0.000_0.000_1.000_1.000_GRIDDISPLAY
 70
     3
102
VTR_0.000_0.000_1.000_1.000_GRIDMAJOR
 70
     5
102
VTR_0.000_0.000_1.000_1.000_DEFAULTLIGHTING
280
     1
102
VTR_0.000_0.000_1.000_1.000_DEFAULTLIGHTINGTYPE
 70
     1
102
VTR_0.000_0.000_1.000_1.000_BRIGHTNESS
141
0.0
102
VTR_0.000_0.000_1.000_1.000_CONTRAST
142
0.0
  0
DICTIONARY
  5
2B0C
102
{ACAD_REACTORS
330
29EA
102
}
330
29EA
100
AcDbDictionary
  0
DICTIONARY
  5
29EB
102
{ACAD_REACTORS
330
29EA
102
}
330
29EA
100
AcDbDictionary
  0
DICTIONARY
  5
4D91
102
{ACAD_REACTORS
330
4D90
102
}
330
4D90
100
AcDbDictionary
  3
ACDB_ANNOTATIONSCALES
350
4D92
  0
DICTIONARY
  5
4DAA
102
{ACAD_REACTORS
330
4DA9
102
}
330
4DA9
100
AcDbDictionary
  3
ACDB_ANNOTATIONSCALES
350
4DAB
  0
DICTIONARY
  5
4E8A
102
{ACAD_REACTORS
330
4E89
102
}
330
4E89
100
AcDbDictionary
  3
ACDB_ANNOTATIONSCALES
350
4E8B
  0
DICTIONARY
  5
4E9A
102
{ACAD_REACTORS
330
4E99
102
}
330
4E99
100
AcDbDictionary
  3
ACDB_ANNOTATIONSCALES
350
4E9B
  0
DICTIONARY
  5
4E9E
102
{ACAD_REACTORS
330
4E9D
102
}
330
4E9D
100
AcDbDictionary
  3
ACDB_ANNOTATIONSCALES
350
4E9F
  0
DICTIONARY
  5
4EA2
102
{ACAD_REACTORS
330
4EA1
102
}
330
4EA1
100
AcDbDictionary
  3
ACDB_ANNOTATIONSCALES
350
4EA3
  0
DICTIONARY
  5
4EA6
102
{ACAD_REACTORS
330
4EA5
102
}
330
4EA5
100
AcDbDictionary
  3
ACDB_ANNOTATIONSCALES
350
4EA7
  0
DICTIONARY
  5
4EAA
102
{ACAD_REACTORS
330
4EA9
102
}
330
4EA9
100
AcDbDictionary
  3
ACDB_ANNOTATIONSCALES
350
4EAB
  0
DICTIONARY
  5
4EAE
102
{ACAD_REACTORS
330
4EAD
102
}
330
4EAD
100
AcDbDictionary
  3
ACDB_ANNOTATIONSCALES
350
4EAF
  0
DICTIONARY
  5
4EB2
102
{ACAD_REACTORS
330
4EB1
102
}
330
4EB1
100
AcDbDictionary
  3
ACDB_ANNOTATIONSCALES
350
4EB3
  0
DICTIONARY
  5
5025
102
{ACAD_REACTORS
330
5024
102
}
330
5024
100
AcDbDictionary
  3
ACDB_ANNOTATIONSCALES
350
5026
  0
DICTIONARY
  5
50A6
102
{ACAD_REACTORS
330
50A5
102
}
330
50A5
100
AcDbDictionary
  3
ACDB_ANNOTATIONSCALES
350
50A7
  0
DICTIONARY
  5
50AA
102
{ACAD_REACTORS
330
50A9
102
}
330
50A9
100
AcDbDictionary
  3
ACDB_ANNOTATIONSCALES
350
50AB
  0
DICTIONARY
  5
5448
102
{ACAD_REACTORS
330
5447
102
}
330
5447
100
AcDbDictionary
  3
ACDB_ANNOTATIONSCALES
350
5449
  0
DICTIONARY
  5
544C
102
{ACAD_REACTORS
330
544B
102
}
330
544B
100
AcDbDictionary
  3
ACDB_ANNOTATIONSCALES
350
544D
  0
DICTIONARY
  5
5450
102
{ACAD_REACTORS
330
544F
102
}
330
544F
100
AcDbDictionary
  3
ACDB_ANNOTATIONSCALES
350
5451
  0
DICTIONARY
  5
54B1
102
{ACAD_REACTORS
330
54B0
102
}
330
54B0
100
AcDbDictionary
  3
ACDB_ANNOTATIONSCALES
350
54B2
  0
DICTIONARY
  5
54B5
102
{ACAD_REACTORS
330
54B4
102
}
330
54B4
100
AcDbDictionary
  3
ACDB_ANNOTATIONSCALES
350
54B6
  0
DICTIONARY
  5
54B9
102
{ACAD_REACTORS
330
54B8
102
}
330
54B8
100
AcDbDictionary
  3
ACDB_ANNOTATIONSCALES
350
54BA
  0
DICTIONARY
  5
518D
102
{ACAD_REACTORS
330
518C
102
}
330
518C
100
AcDbDictionary
  3
ACDB_ANNOTATIONSCALES
350
518E
  0
DICTIONARY
  5
5191
102
{ACAD_REACTORS
330
5190
102
}
330
5190
100
AcDbDictionary
  3
ACDB_ANNOTATIONSCALES
350
5192
  0
DICTIONARY
  5
5196
102
{ACAD_REACTORS
330
5195
102
}
330
5195
100
AcDbDictionary
  3
ACDB_ANNOTATIONSCALES
350
5197
  0
DICTIONARY
  5
539C
102
{ACAD_REACTORS
330
539B
102
}
330
539B
100
AcDbDictionary
  3
ACDB_ANNOTATIONSCALES
350
539D
  0
DICTIONARY
  5
566F
102
{ACAD_REACTORS
330
566E
102
}
330
566E
100
AcDbDictionary
  3
ACDB_ANNOTATIONSCALES
350
5670
  0
GROUP
  5
4615
102
{ACAD_REACTORS
330
D
102
}
330
D
100
AcDbGroup
300

 70
     1
 71
     1
340
4613
340
4612
340
4611
340
4610
340
460F
340
460E
340
460D
340
460C
340
460B
340
460A
340
4609
340
4608
340
4607
340
4606
340
45F3
340
45F2
340
44BD
340
44BC
340
44BB
340
44B9
340
44A0
340
449F
340
443E
340
443D
340
443C
340
443B
340
4433
340
4432
340
4421
340
4420
340
441E
340
441D
340
441C
340
441B
340
441A
340
4419
340
4418
340
4417
340
4416
340
4415
  0
MATERIAL
  5
4B84
102
{ACAD_REACTORS
330
2947
102
}
102
{ACAD_XDICTIONARY
360
56F7
102
}
330
2947
100
AcDbMaterial
  1
BYBLOCK
  0
MATERIAL
  5
4B83
102
{ACAD_REACTORS
330
2947
102
}
102
{ACAD_XDICTIONARY
360
56F5
102
}
330
2947
100
AcDbMaterial
  1
BYLAYER
  0
MATERIAL
  5
4B85
102
{ACAD_REACTORS
330
2947
102
}
102
{ACAD_XDICTIONARY
360
56F9
102
}
330
2947
100
AcDbMaterial
  1
GLOBAL
  0
ACAD_PROXY_OBJECT
  5
4B89
102
{ACAD_REACTORS
330
4B88
102
}
330
4B88
100
AcDbProxyObject
 90
      499
 91
      508
 93
      610
310
40901902A4063FBFFFFFE0000000000000020400000000000020404214DD185B99185C990000000000000104090141901A00000000000004100000000000000041025764000000000000039000
340
14
340
0
340
10
340
0
 94
        0
1001
ACAD_MLEADERVER
1070
     2
  0
MLINESTYLE
  5
13
102
{ACAD_REACTORS
330
E
102
}
330
E
100
AcDbMlineStyle
  2
STANDARD
 70
     0
  3

 62
     0
 51
90.0
 52
90.0
 71
     2
 49
0.5
 62
   256
  6
BYLAYER
 49
-0.5
 62
   256
  6
BYLAYER
  0
ACAD_PROXY_OBJECT
  5
4B62
102
{ACAD_REACTORS
330
4B61
102
}
330
4B61
100
AcDbProxyObject
 90
      499
 91
      505
 93
       41
310
903313A31580
  0
ACAD_PROXY_OBJECT
  5
4B63
102
{ACAD_REACTORS
330
4B61
102
}
330
4B61
100
AcDbProxyObject
 90
      499
 91
      505
 93
      105
310
903313A324000000000000004000
  0
ACAD_PROXY_OBJECT
  5
4B64
102
{ACAD_REACTORS
330
4B61
102
}
330
4B61
100
AcDbProxyObject
 90
      499
 91
      505
 93
      105
310
903313A344000000000000104000
  0
ACAD_PROXY_OBJECT
  5
4B65
102
{ACAD_REACTORS
330
4B61
102
}
330
4B61
100
AcDbProxyObject
 90
      499
 91
      505
 93
      105
310
903313A354000000000000144000
  0
ACAD_PROXY_OBJECT
  5
4B66
102
{ACAD_REACTORS
330
4B61
102
}
330
4B61
100
AcDbProxyObject
 90
      499
 91
      505
 93
      105
310
903313A384000000000000204000
  0
ACAD_PROXY_OBJECT
  5
4B67
102
{ACAD_REACTORS
330
4B61
102
}
330
4B61
100
AcDbProxyObject
 90
      499
 91
      505
 93
      113
310
904313A31304000000000000244000
  0
ACAD_PROXY_OBJECT
  5
4B68
102
{ACAD_REACTORS
330
4B61
102
}
330
4B61
100
AcDbProxyObject
 90
      499
 91
      505
 93
      113
310
904313A31364000000000000304000
  0
ACAD_PROXY_OBJECT
  5
4B69
102
{ACAD_REACTORS
330
4B61
102
}
330
4B61
100
AcDbProxyObject
 90
      499
 91
      505
 93
      113
310
904313A32304000000000000344000
  0
ACAD_PROXY_OBJECT
  5
4B6A
102
{ACAD_REACTORS
330
4B61
102
}
330
4B61
100
AcDbProxyObject
 90
      499
 91
      505
 93
      113
310
904313A333040000000000003E4000
  0
ACAD_PROXY_OBJECT
  5
4B6B
102
{ACAD_REACTORS
330
4B61
102
}
330
4B61
100
AcDbProxyObject
 90
      499
 91
      505
 93
      113
310
904313A34304000000000000444000
  0
ACAD_PROXY_OBJECT
  5
4B6C
102
{ACAD_REACTORS
330
4B61
102
}
330
4B61
100
AcDbProxyObject
 90
      499
 91
      505
 93
      113
310
904313A35304000000000000494000
  0
ACAD_PROXY_OBJECT
  5
4B6D
102
{ACAD_REACTORS
330
4B61
102
}
330
4B61
100
AcDbProxyObject
 90
      499
 91
      505
 93
      121
310
905313A3130304000000000000594000
  0
ACAD_PROXY_OBJECT
  5
4B6E
102
{ACAD_REACTORS
330
4B61
102
}
330
4B61
100
AcDbProxyObject
 90
      499
 91
      505
 93
      105
310
903323A310000000000000010100
  0
ACAD_PROXY_OBJECT
  5
4B6F
102
{ACAD_REACTORS
330
4B61
102
}
330
4B61
100
AcDbProxyObject
 90
      499
 91
      505
 93
      105
310
903343A310000000000000410100
  0
ACAD_PROXY_OBJECT
  5
4B70
102
{ACAD_REACTORS
330
4B61
102
}
330
4B61
100
AcDbProxyObject
 90
      499
 91
      505
 93
      105
310
903383A310000000000000810100
  0
ACAD_PROXY_OBJECT
  5
4B71
102
{ACAD_REACTORS
330
4B61
102
}
330
4B61
100
AcDbProxyObject
 90
      499
 91
      505
 93
      113
310
90431303A310000000000000910100
  0
ACAD_PROXY_OBJECT
  5
4B72
102
{ACAD_REACTORS
330
4B61
102
}
330
4B61
100
AcDbProxyObject
 90
      499
 91
      505
 93
      121
310
9053130303A310000000000001650100
  0
ACAD_PROXY_OBJECT
  5
4B73
102
{ACAD_REACTORS
330
4B61
102
}
330
4B61
100
AcDbProxyObject
 90
      499
 91
      505
 93
      257
310
90E312F31323822203D2031272D3022000000000000200FC000000000000284000
  0
ACAD_PROXY_OBJECT
  5
4B74
102
{ACAD_REACTORS
330
4B61
102
}
330
4B61
100
AcDbProxyObject
 90
      499
 91
      505
 93
      249
310
90D312F363422203D2031272D3022000000000000240FC000000000000284000
  0
ACAD_PROXY_OBJECT
  5
4B75
102
{ACAD_REACTORS
330
4B61
102
}
330
4B61
100
AcDbProxyObject
 90
      499
 91
      505
 93
      249
310
90D312F333222203D2031272D3022000000000000280FC000000000000284000
  0
ACAD_PROXY_OBJECT
  5
4B76
102
{ACAD_REACTORS
330
4B61
102
}
330
4B61
100
AcDbProxyObject
 90
      499
 91
      505
 93
      249
310
90D312F313622203D2031272D30220000000000002C0FC000000000000284000
  0
ACAD_PROXY_OBJECT
  5
4B77
102
{ACAD_REACTORS
330
4B61
102
}
330
4B61
100
AcDbProxyObject
 90
      499
 91
      505
 93
      249
310
90D332F333222203D2031272D30220000000000002E0FC000000000000284000
  0
ACAD_PROXY_OBJECT
  5
4B78
102
{ACAD_REACTORS
330
4B61
102
}
330
4B61
100
AcDbProxyObject
 90
      499
 91
      505
 93
      241
310
90C312F3822203D2031272D3022000000000000300FC000000000000284000
  0
ACAD_PROXY_OBJECT
  5
4B79
102
{ACAD_REACTORS
330
4B61
102
}
330
4B61
100
AcDbProxyObject
 90
      499
 91
      505
 93
      249
310
90D332F313622203D2031272D3022000000000000320FC000000000000284000
  0
ACAD_PROXY_OBJECT
  5
4B7A
102
{ACAD_REACTORS
330
4B61
102
}
330
4B61
100
AcDbProxyObject
 90
      499
 91
      505
 93
      241
310
90C312F3422203D2031272D3022000000000000340FC000000000000284000
  0
ACAD_PROXY_OBJECT
  5
4B7B
102
{ACAD_REACTORS
330
4B61
102
}
330
4B61
100
AcDbProxyObject
 90
      499
 91
      505
 93
      241
310
90C332F3822203D2031272D3022000000000000360FC000000000000284000
  0
ACAD_PROXY_OBJECT
  5
4B7C
102
{ACAD_REACTORS
330
4B61
102
}
330
4B61
100
AcDbProxyObject
 90
      499
 91
      505
 93
      241
310
90C312F3222203D2031272D3022000000000000380FC000000000000284000
  0
ACAD_PROXY_OBJECT
  5
4B7D
102
{ACAD_REACTORS
330
4B61
102
}
330
4B61
100
AcDbProxyObject
 90
      499
 91
      505
 93
      241
310
90C332F3422203D2031272D30220000000000003A0FC000000000000284000
  0
ACAD_PROXY_OBJECT
  5
4B7E
102
{ACAD_REACTORS
330
4B61
102
}
330
4B61
100
AcDbProxyObject
 90
      499
 91
      505
 93
      161
310
90A3122203D2031272D30224000000000000284000
  0
ACAD_PROXY_OBJECT
  5
4B7F
102
{ACAD_REACTORS
330
4B61
102
}
330
4B61
100
AcDbProxyObject
 90
      499
 91
      505
 93
      257
310
90E312D312F3222203D2031272D30220000000000003E0FC000000000000284000
  0
ACAD_PROXY_OBJECT
  5
4B80
102
{ACAD_REACTORS
330
4B61
102
}
330
4B61
100
AcDbProxyObject
 90
      499
 91
      505
 93
      225
310
90A3322203D2031272D302200000000000002100000000000000284000
  0
ACAD_PROXY_OBJECT
  5
4B81
102
{ACAD_REACTORS
330
4B61
102
}
330
4B61
100
AcDbProxyObject
 90
      499
 91
      505
 93
      225
310
90A3622203D2031272D302200000000000006100000000000000284000
  0
ACAD_PROXY_OBJECT
  5
4B82
102
{ACAD_REACTORS
330
4B61
102
}
330
4B61
100
AcDbProxyObject
 90
      499
 91
      505
 93
      249
310
90D31272D3022203D2031272D30220000000000000A100000000000000284000
  0
ACAD_PROXY_OBJECT
  5
4B4D
102
{ACAD_REACTORS
330
4B48
102
}
330
4B48
100
AcDbProxyObject
 90
      499
 91
      504
 93
      436
310
42CC9915DA5C99599C985B595049028333333333333E33F0000000000000F90107901411070040501600405405064090741402480A0340
1001
ACAD
1000
AcDbSavedByObjectVersion
1070
     0
  0
ACAD_PROXY_OBJECT
  5
4B50
102
{ACAD_REACTORS
330
4B48
102
}
330
4B48
100
AcDbProxyObject
 90
      499
 91
      504
 93
      388
310
4150985CDA58D07406404333333333333E33F0000000000000F90107A41107004050150841D405064090741402480A0350
1001
ACAD
1000
AcDbSavedByObjectVersion
1070
     0
  0
ACAD_PROXY_OBJECT
  5
4B54
102
{ACAD_REACTORS
330
4B48
102
}
330
4B48
100
AcDbProxyObject
 90
      499
 91
      504
 93
      428
310
42109C9A59DA1D195B90C409028333333333333E33F0000000000000F9010790141107004050150841D405064090741402480A029950
1001
ACAD
1000
AcDbSavedByObjectVersion
1070
     0
  0
ACAD_PROXY_OBJECT
  5
4B58
102
{ACAD_REACTORS
330
4B48
102
}
330
4B48
100
AcDbProxyObject
 90
      499
 91
      504
 93
      452
310
42D0DBDB1BDC90DA185B99D95104090240C333333333333E33F0000000000000F90108901411070040501508421405064090741402480A0350
1001
ACAD
1000
AcDbSavedByObjectVersion
1070
     0
  0
ACAD_PROXY_OBJECT
  5
4B52
102
{ACAD_REACTORS
330
4B48
102
}
330
4B48
100
AcDbProxyObject
 90
      499
 91
      504
 93
      500
310
4290DBDB98D95C1D1D585B10940D028333333333333E33F0000000000000F90107902409070040501000000000018199010841D405064090740C02480A0340
1001
ACAD
1000
AcDbSavedByObjectVersion
1070
     0
  0
ACAD_PROXY_OBJECT
  5
4B53
102
{ACAD_REACTORS
330
4B48
102
}
330
4B48
100
AcDbProxyObject
 90
      499
 91
      504
 93
      412
310
40D11A5B50B409028333333333333E33F0000000000000F9010790141107004050150841D405064090741402480A02677FFFFFD0
1001
ACAD
1000
AcDbSavedByObjectVersion
1070
     0
  0
ACAD_PROXY_OBJECT
  5
4B5B
102
{ACAD_REACTORS
330
4B48
102
}
330
4B48
100
AcDbProxyObject
 90
      499
 91
      504
 93
      452
310
43115919D950DBDB1BDC93D999916409028333333333333E33F0000000000000F9010790141107004050150841D405064090741402480A0350
1001
ACAD
1000
AcDbSavedByObjectVersion
1070
     0
  0
ACAD_PROXY_OBJECT
  5
4B57
102
{ACAD_REACTORS
330
4B48
102
}
330
4B48
100
AcDbProxyObject
 90
      499
 91
      504
 93
      444
310
42D19858D95C185D1D195C9B90F409028333333333333E33F0000000000000F9010790141107004050150841D405064090741402480A0350
1001
ACAD
1000
AcDbSavedByObjectVersion
1070
     0
  0
ACAD_PROXY_OBJECT
  5
4B49
102
{ACAD_REACTORS
330
4B48
102
}
330
4B48
100
AcDbProxyObject
 90
      499
 91
      504
 93
      380
310
41119B185D240901404333333333333E33F0000000000000F9010740A907004050150841D405064090741402480A1B50
1001
ACAD
1000
AcDbSavedByObjectVersion
1070
     0
  0
ACAD_PROXY_OBJECT
  5
4B4A
102
{ACAD_REACTORS
330
4B48
102
}
330
4B48
100
AcDbProxyObject
 90
      499
 91
      504
 93
      468
310
43519B185D15DA5D1A115919D95CD0140901404333333333333E33F0000000000000F90107409019070040501600405405064090741402480A1B50
1001
ACAD
1000
AcDbSavedByObjectVersion
1070
     0
  0
ACAD_PROXY_OBJECT
  5
4B4B
102
{ACAD_REACTORS
330
4B48
102
}
330
4B48
100
AcDbProxyObject
 90
      499
 91
      504
 93
      404
310
41D1DBDD5C985D5910240902404333333333333E33F0000000000000F9010740A9070040501641D405064090741402480A1B50
1001
ACAD
1000
AcDbSavedByObjectVersion
1070
     0
  0
ACAD_PROXY_OBJECT
  5
4B4C
102
{ACAD_REACTORS
330
4B48
102
}
330
4B48
100
AcDbProxyObject
 90
      499
 91
      504
 93
      492
310
4411DBDD5C985D5915DA5D1A115919D95CD0340902404333333333333E33F0000000000000F90107409019070040501600405405064090741402480A1B50
1001
ACAD
1000
AcDbSavedByObjectVersion
1070
     0
  0
ACAD_PROXY_OBJECT
  5
4B4F
102
{ACAD_REACTORS
330
4B48
102
}
330
4B48
100
AcDbProxyObject
 90
      499
 91
      504
 93
      476
310
41921A5919195B90640502408333333333333E33F0000000000000F901079024090700405020000000000001110200405405064090740C02480A0340
1001
ACAD
1000
AcDbSavedByObjectVersion
1070
     0
  0
ACAD_PROXY_OBJECT
  5
4B59
102
{ACAD_REACTORS
330
4B48
102
}
330
4B48
100
AcDbProxyObject
 90
      499
 91
      504
 93
      428
310
42529A5D1D195C93D999914409028333333333333E33F0000000000000F9010790141107004050150A41D405064090741402480A0350
1001
ACAD
1000
AcDbSavedByObjectVersion
1070
     0
  0
ACAD_PROXY_OBJECT
  5
4B56
102
{ACAD_REACTORS
330
4B48
102
}
330
4B48
100
AcDbProxyObject
 90
      499
 91
      504
 93
      444
310
42D31A5B995C185D1D195C9B90E409028333333333333E33F0000000000000F9010790141107004050750841D405064090741402483A0350
1001
ACAD
1000
AcDbSavedByObjectVersion
1070
     0
  0
ACAD_PROXY_OBJECT
  5
4FA8
102
{ACAD_REACTORS
330
4B48
102
}
330
4B48
100
AcDbProxyObject
 90
      499
 91
      504
 93
      412
310
90A409038333333333333E33F0000000000000F901074090290700405010000000000201990108421405064090741402480A1B40
1001
ACAD
1000
AcDbSavedByObjectVersion
1070
     0
  0
ACAD_PROXY_OBJECT
  5
4B5A
102
{ACAD_REACTORS
330
4B48
102
}
330
4B48
100
AcDbProxyObject
 90
      499
 91
      504
 93
      444
310
42D3DD995C9A185B99D3D999915409028333333333333E33F0000000000000F9010790141107004050150941D405064090741402480A0350
1001
ACAD
1000
AcDbSavedByObjectVersion
1070
     0
  0
ACAD_PROXY_OBJECT
  5
4B51
102
{ACAD_REACTORS
330
4B48
102
}
330
4B48
100
AcDbProxyObject
 90
      499
 91
      504
 93
      428
310
425499585B1A5CDD1A58D08409038333333333333E33F0000000000000F9010740A907004050150800405405064090740C02480A1B40
1001
ACAD
1000
AcDbSavedByObjectVersion
1070
     0
  0
ACAD_PROXY_OBJECT
  5
4B60
102
{ACAD_REACTORS
330
4B48
102
}
330
4B48
100
AcDbProxyObject
 90
      499
 91
      504
 93
      420
310
4194DA1859195911B40902404333333333333E33F0000000000000F9010740A41107004050150800405405064090840C02480A0B40
1001
ACAD
1000
AcDbSavedByObjectVersion
1070
     0
  0
ACAD_PROXY_OBJECT
  5
4B5F
102
{ACAD_REACTORS
330
4B48
102
}
330
4B48
100
AcDbProxyObject
 90
      499
 91
      504
 93
      516
310
4454DA18591959081DDA5D1A08195919D95CD1A40902404333333333333E33F0000000000000F901074090142907004050250800405405064090740C02480A0B40
1001
ACAD
1000
AcDbSavedByObjectVersion
1070
     0
  0
ACAD_PROXY_OBJECT
  5
4B5C
102
{ACAD_REACTORS
330
4B48
102
}
330
4B48
100
AcDbProxyObject
 90
      499
 91
      504
 93
      532
310
4394DA1859195CC81BD98811DC985E5174090240C333333333333E33F0000000000000F901079024090741D01000000000000111010841D405064090740C02480A0340
1001
ACAD
1000
AcDbSavedByObjectVersion
1070
     0
  0
ACAD_PROXY_OBJECT
  5
4B5D
102
{ACAD_REACTORS
330
4B48
102
}
330
4B48
100
AcDbProxyObject
 90
      499
 91
      504
 93
      476
310
41D4DAD95D18DA1E51840502408333333333333E33F0000000000000F901079024090741D01000000000000111010B41D405064090741802480A0340
1001
ACAD
1000
AcDbSavedByObjectVersion
1070
     0
  0
ACAD_PROXY_OBJECT
  5
4B55
102
{ACAD_REACTORS
330
4B48
102
}
330
4B48
100
AcDbProxyObject
 90
      499
 91
      504
 93
      412
310
41D51A1A58DAD95B90D409028333333333333E33F0000000000000F9010790141107004050150C41D405064090741402480A0350
1001
ACAD
1000
AcDbSavedByObjectVersion
1070
     0
  0
ACAD_PROXY_OBJECT
  5
4B4E
102
{ACAD_REACTORS
330
4B48
102
}
330
4B48
100
AcDbProxyObject
 90
      499
 91
      504
 93
      420
310
4255DA5C99599C985B595059028333333333333E33F0000000000000F90107901411070040501600405405064090740C02480A0340
1001
ACAD
1000
AcDbSavedByObjectVersion
1070
     0
  0
ACAD_PROXY_OBJECT
  5
4B5E
102
{ACAD_REACTORS
330
4B48
102
}
330
4B48
100
AcDbProxyObject
 90
      499
 91
      504
 93
      404
310
41560B54985E51940902404000000000000E03F0000000000000F9010740501907004050150841D405064090740C02480A1B40
1001
ACAD
1000
AcDbSavedByObjectVersion
1070
     0
  0
XRECORD
  5
56D7
102
{ACAD_REACTORS
330
56CD
102
}
330
56CD
100
AcDbXrecord
340
0
  0
XRECORD
  5
56D6
102
{ACAD_REACTORS
330
56CD
102
}
330
56CD
100
AcDbXrecord
 90
        0
  0
XRECORD
  5
56F0
102
{ACAD_REACTORS
330
56CD
102
}
330
56CD
100
AcDbXrecord
340
2948
  0
XRECORD
  5
56ED
102
{ACAD_REACTORS
330
56CD
102
}
330
56CD
100
AcDbXrecord
1000
DSTYLE
1002
{
1070
   171
 70
     2
1070
   143
 40
0.0394
1070
   274
 70
     2
1070
    41
 40
6.0
1070
   342
340
2AF4
1070
   271
 70
     1
1070
   278
 70
    46
1070
   341
340
2AF4
1070
   272
 70
     1
1070
    48
 40
0.1
1070
   283
 70
     1
1070
    47
 40
0.1
1070
   145
 40
1.0
1070
   340
340
10
1070
   140
 40
8.0
1070
   284
 70
     0
1002
}
  0
XRECORD
  5
56D8
102
{ACAD_REACTORS
330
56CD
102
}
330
56CD
100
AcDbXrecord
  1
{23698909-1D67-4744-B0E2-8DE11E3ED422}
  0
XRECORD
  5
56D0
102
{ACAD_REACTORS
330
56CD
102
}
330
56CD
100
AcDbXrecord
  1

  0
XRECORD
  5
56D5
102
{ACAD_REACTORS
330
56CD
102
}
330
56CD
100
AcDbXrecord
 90
        0
  0
XRECORD
  5
56D2
102
{ACAD_REACTORS
330
56CD
102
}
330
56CD
100
AcDbXrecord
340
2816
  0
XRECORD
  5
56D4
102
{ACAD_REACTORS
330
56CD
102
}
330
56CD
100
AcDbXrecord
 90
    10781
  0
XRECORD
  5
56F1
102
{ACAD_REACTORS
330
56CD
102
}
330
56CD
100
AcDbXrecord
340
2947
  0
XRECORD
  5
56D3
102
{ACAD_REACTORS
330
56CD
102
}
330
56CD
100
AcDbXrecord
340
2817
  0
XRECORD
  5
56DA
102
{ACAD_REACTORS
330
56CD
102
}
330
56CD
100
AcDbXrecord
 40
0.25
  0
XRECORD
  5
56DD
102
{ACAD_REACTORS
330
56CD
102
}
330
56CD
100
AcDbXrecord
340
0
  0
XRECORD
  5
56E3
102
{ACAD_REACTORS
330
56CD
102
}
330
56CD
100
AcDbXrecord
 10
0.0
 20
0.0
 30
0.0
  0
XRECORD
  5
56DF
102
{ACAD_REACTORS
330
56CD
102
}
330
56CD
100
AcDbXrecord
 10
0.0
 20
0.0
 30
0.0
  0
XRECORD
  5
56E2
102
{ACAD_REACTORS
330
56CD
102
}
330
56CD
100
AcDbXrecord
 10
0.0
 20
0.0
 30
0.0
  0
XRECORD
  5
56E0
102
{ACAD_REACTORS
330
56CD
102
}
330
56CD
100
AcDbXrecord
 10
0.0
 20
0.0
 30
0.0
  0
XRECORD
  5
56E1
102
{ACAD_REACTORS
330
56CD
102
}
330
56CD
100
AcDbXrecord
 10
0.0
 20
0.0
 30
0.0
  0
XRECORD
  5
56DE
102
{ACAD_REACTORS
330
56CD
102
}
330
56CD
100
AcDbXrecord
 10
0.0
 20
0.0
 30
0.0
  0
XRECORD
  5
56DB
102
{ACAD_REACTORS
330
56CD
102
}
330
56CD
100
AcDbXrecord
340
0
  0
XRECORD
  5
56DC
102
{ACAD_REACTORS
330
56CD
102
}
330
56CD
100
AcDbXrecord
 70
     0
  0
XRECORD
  5
56D1
102
{ACAD_REACTORS
330
56CD
102
}
330
56CD
100
AcDbXrecord
  1

  0
XRECORD
  5
56CE
102
{ACAD_REACTORS
330
56CD
102
}
330
56CD
100
AcDbXrecord
 90
        1
  0
XRECORD
  5
56CF
102
{ACAD_REACTORS
330
56CD
102
}
330
56CD
100
AcDbXrecord
 90
       70
  0
XRECORD
  5
56E6
102
{ACAD_REACTORS
330
56CD
102
}
330
56CD
100
AcDbXrecord
340
0
  0
XRECORD
  5
56EC
102
{ACAD_REACTORS
330
56CD
102
}
330
56CD
100
AcDbXrecord
 10
0.0
 20
0.0
 30
0.0
  0
XRECORD
  5
56E8
102
{ACAD_REACTORS
330
56CD
102
}
330
56CD
100
AcDbXrecord
 10
0.0
 20
0.0
 30
0.0
  0
XRECORD
  5
56EB
102
{ACAD_REACTORS
330
56CD
102
}
330
56CD
100
AcDbXrecord
 10
0.0
 20
0.0
 30
0.0
  0
XRECORD
  5
56E9
102
{ACAD_REACTORS
330
56CD
102
}
330
56CD
100
AcDbXrecord
 10
0.0
 20
0.0
 30
0.0
  0
XRECORD
  5
56EA
102
{ACAD_REACTORS
330
56CD
102
}
330
56CD
100
AcDbXrecord
 10
0.0
 20
0.0
 30
0.0
  0
XRECORD
  5
56E7
102
{ACAD_REACTORS
330
56CD
102
}
330
56CD
100
AcDbXrecord
 10
0.0
 20
0.0
 30
0.0
  0
XRECORD
  5
56E4
102
{ACAD_REACTORS
330
56CD
102
}
330
56CD
100
AcDbXrecord
340
0
  0
XRECORD
  5
56E5
102
{ACAD_REACTORS
330
56CD
102
}
330
56CD
100
AcDbXrecord
 70
     0
  0
XRECORD
  5
56D9
102
{ACAD_REACTORS
330
56CD
102
}
330
56CD
100
AcDbXrecord
  1
{A6A3C6CA-1178-4696-B360-21B090ED1A5A}
  0
DICTIONARYVAR
  5
4EB5
102
{ACAD_REACTORS
330
4EB4
102
}
330
4EB4
100
DictionaryVariables
280
     0
  1
1:1
  0
DICTIONARYVAR
  5
4EB7
102
{ACAD_REACTORS
330
4EB4
102
}
330
4EB4
100
DictionaryVariables
280
     0
  1
Standard
  0
DICTIONARYVAR
  5
4EB6
102
{ACAD_REACTORS
330
4EB4
102
}
330
4EB4
100
DictionaryVariables
280
     0
  1
Standard
  0
DICTIONARYVAR
  5
56EE
102
{ACAD_REACTORS
330
4EB4
102
}
330
4EB4
100
DictionaryVariables
280
     0
  1
1
  0
DICTIONARYVAR
  5
56EF
102
{ACAD_REACTORS
330
4EB4
102
}
330
4EB4
100
DictionaryVariables
280
     0
  1
0
  0
DICTIONARYVAR
  5
4EB8
102
{ACAD_REACTORS
330
4EB4
102
}
330
4EB4
100
DictionaryVariables
280
     0
  1
0
  0
DICTIONARYVAR
  5
4EB9
102
{ACAD_REACTORS
330
4EB4
102
}
330
4EB4
100
DictionaryVariables
280
     0
  1
0
  0
DICTIONARY
  5
4D92
102
{ACAD_REACTORS
330
4D91
102
}
330
4D91
100
AcDbDictionary
  0
DICTIONARY
  5
4DAB
102
{ACAD_REACTORS
330
4DAA
102
}
330
4DAA
100
AcDbDictionary
  0
DICTIONARY
  5
4E8B
102
{ACAD_REACTORS
330
4E8A
102
}
330
4E8A
100
AcDbDictionary
  0
DICTIONARY
  5
4E9B
102
{ACAD_REACTORS
330
4E9A
102
}
330
4E9A
100
AcDbDictionary
  0
DICTIONARY
  5
4E9F
102
{ACAD_REACTORS
330
4E9E
102
}
330
4E9E
100
AcDbDictionary
  0
DICTIONARY
  5
4EA3
102
{ACAD_REACTORS
330
4EA2
102
}
330
4EA2
100
AcDbDictionary
  0
DICTIONARY
  5
4EA7
102
{ACAD_REACTORS
330
4EA6
102
}
330
4EA6
100
AcDbDictionary
  0
DICTIONARY
  5
4EAB
102
{ACAD_REACTORS
330
4EAA
102
}
330
4EAA
100
AcDbDictionary
  0
DICTIONARY
  5
4EAF
102
{ACAD_REACTORS
330
4EAE
102
}
330
4EAE
100
AcDbDictionary
  0
DICTIONARY
  5
4EB3
102
{ACAD_REACTORS
330
4EB2
102
}
330
4EB2
100
AcDbDictionary
  0
DICTIONARY
  5
5026
102
{ACAD_REACTORS
330
5025
102
}
330
5025
100
AcDbDictionary
  0
DICTIONARY
  5
50A7
102
{ACAD_REACTORS
330
50A6
102
}
330
50A6
100
AcDbDictionary
  0
DICTIONARY
  5
50AB
102
{ACAD_REACTORS
330
50AA
102
}
330
50AA
100
AcDbDictionary
  0
DICTIONARY
  5
5449
102
{ACAD_REACTORS
330
5448
102
}
330
5448
100
AcDbDictionary
  0
DICTIONARY
  5
544D
102
{ACAD_REACTORS
330
544C
102
}
330
544C
100
AcDbDictionary
  0
DICTIONARY
  5
5451
102
{ACAD_REACTORS
330
5450
102
}
330
5450
100
AcDbDictionary
  0
DICTIONARY
  5
54B2
102
{ACAD_REACTORS
330
54B1
102
}
330
54B1
100
AcDbDictionary
  0
DICTIONARY
  5
54B6
102
{ACAD_REACTORS
330
54B5
102
}
330
54B5
100
AcDbDictionary
  0
DICTIONARY
  5
54BA
102
{ACAD_REACTORS
330
54B9
102
}
330
54B9
100
AcDbDictionary
  0
DICTIONARY
  5
518E
102
{ACAD_REACTORS
330
518D
102
}
330
518D
100
AcDbDictionary
  0
DICTIONARY
  5
5192
102
{ACAD_REACTORS
330
5191
102
}
330
5191
100
AcDbDictionary
  0
DICTIONARY
  5
5197
102
{ACAD_REACTORS
330
5196
102
}
330
5196
100
AcDbDictionary
  0
DICTIONARY
  5
539D
102
{ACAD_REACTORS
330
539C
102
}
330
539C
100
AcDbDictionary
  0
DICTIONARY
  5
5670
102
{ACAD_REACTORS
330
566F
102
}
330
566F
100
AcDbDictionary
  0
DICTIONARY
  5
56F7
330
4B84
100
AcDbDictionary
280
     1
  3
ACAD_XREC_ROUNDTRIP
360
56F8
  0
DICTIONARY
  5
56F5
330
4B83
100
AcDbDictionary
280
     1
  3
ACAD_XREC_ROUNDTRIP
360
56F6
  0
DICTIONARY
  5
56F9
330
4B85
100
AcDbDictionary
280
     1
  3
ACAD_XREC_ROUNDTRIP
360
56FA
  0
XRECORD
  5
56F8
102
{ACAD_REACTORS
330
56F7
102
}
330
56F7
100
AcDbXrecord
102
MATERIAL
148
0.0
149
0.0
149
0.0
 93
        0
 94
      127
282
     0
 72
     1
 77
     1
171
     1
175
     1
179
     1
273
     0
  0
XRECORD
  5
56F6
102
{ACAD_REACTORS
330
56F5
102
}
330
56F5
100
AcDbXrecord
102
MATERIAL
148
0.0
149
0.0
149
0.0
 93
        0
 94
      127
282
     0
 72
     1
 77
     1
171
     1
175
     1
179
     1
273
     0
  0
XRECORD
  5
56FA
102
{ACAD_REACTORS
330
56F9
102
}
330
56F9
100
AcDbXrecord
102
MATERIAL
148
0.0
149
0.0
149
0.0
 93
        0
 94
      127
282
     0
 72
     1
 77
     1
171
     1
175
     1
179
     1
273
     0
  0
ENDSEC
  0
EOF
