  0
SECTION
  2
HEADER
  9
$ACADVER
  1
AC1014
  9
$ACADMAINTVER
 70
     9
  9
$DWGCODEPAGE
  3
ANSI_932
  9
$INSBASE
 10
0.0
 20
0.0
 30
0.0
  9
$EXTMIN
 10
-61.031939548433
 20
126.087460683414
 30
0.0
  9
$EXTMAX
 10
608.877380705713
 20
545.603599651719
 30
0.0
  9
$LIMMIN
 10
-360.747566795242
 20
4.457354754526
  9
$LIMMAX
 10
-162.153696144267
 20
287.675440264018
  9
$ORTHOMODE
 70
     0
  9
$REGENMODE
 70
     1
  9
$FILLMODE
 70
     1
  9
$QTEXTMODE
 70
     0
  9
$MIRRTEXT
 70
     1
  9
$DRAGMODE
 70
     2
  9
$LTSCALE
 40
1.0
  9
$OSMODE
 70
   935
  9
$ATTMODE
 70
     1
  9
$TEXTSIZE
 40
4.0
  9
$TRACEWID
 40
1.0
  9
$TEXTSTYLE
  7
STANDARD
  9
$CLAYER
  8
寸法線
  9
$CELTYPE
  6
BYLAYER
  9
$CECOLOR
 62
   256
  9
$CELTSCALE
 40
10.0
  9
$DELOBJ
 70
     1
  9
$DISPSILH
 70
     0
  9
$DIMSCALE
 40
1.0
  9
$DIMASZ
 40
6.0
  9
$DIMEXO
 40
0.625
  9
$DIMDLI
 40
3.75
  9
$DIMRND
 40
0.0
  9
$DIMDLE
 40
0.0
  9
$DIMEXE
 40
1.25
  9
$DIMTP
 40
0.1
  9
$DIMTM
 40
0.1
  9
$DIMTXT
 40
8.0
  9
$DIMCEN
 40
2.5
  9
$DIMTSZ
 40
0.0
  9
$DIMTOL
 70
     0
  9
$DIMLIM
 70
     0
  9
$DIMTIH
 70
     0
  9
$DIMTOH
 70
     0
  9
$DIMSE1
 70
     0
  9
$DIMSE2
 70
     0
  9
$DIMTAD
 70
     1
  9
$DIMZIN
 70
     8
  9
$DIMBLK
  1
OPEN30
  9
$DIMASO
 70
     1
  9
$DIMSHO
 70
     1
  9
$DIMPOST
  1

  9
$DIMAPOST
  1

  9
$DIMALT
 70
     0
  9
$DIMALTD
 70
     2
  9
$DIMALTF
 40
0.0394
  9
$DIMLFAC
 40
1.0
  9
$DIMTOFL
 70
     1
  9
$DIMTVP
 40
1.0
  9
$DIMTIX
 70
     0
  9
$DIMSOXD
 70
     0
  9
$DIMSAH
 70
     0
  9
$DIMBLK1
  1

  9
$DIMBLK2
  1

  9
$DIMSTYLE
  2
ISO-25
  9
$DIMCLRD
 70
     0
  9
$DIMCLRE
 70
     0
  9
$DIMCLRT
 70
     0
  9
$DIMTFAC
 40
1.0
  9
$DIMGAP
 40
0.625
  9
$DIMJUST
 70
     0
  9
$DIMSD1
 70
     0
  9
$DIMSD2
 70
     0
  9
$DIMTOLJ
 70
     1
  9
$DIMTZIN
 70
     0
  9
$DIMALTZ
 70
     0
  9
$DIMALTTZ
 70
     0
  9
$DIMFIT
 70
     3
  9
$DIMUPT
 70
     0
  9
$DIMUNIT
 70
     2
  9
$DIMDEC
 70
     1
  9
$DIMTDEC
 70
     1
  9
$DIMALTU
 70
     2
  9
$DIMALTTD
 70
     2
  9
$DIMTXSTY
  7
STANDARD
  9
$DIMAUNIT
 70
     0
  9
$LUNITS
 70
     2
  9
$LUPREC
 70
     4
  9
$SKETCHINC
 40
1.0
  9
$FILLETRAD
 40
1.0
  9
$AUNITS
 70
     0
  9
$AUPREC
 70
     0
  9
$MENU
  1
.
  9
$ELEVATION
 40
0.0
  9
$PELEVATION
 40
0.0
  9
$THICKNESS
 40
0.0
  9
$LIMCHECK
 70
     0
  9
$CHAMFERA
 40
0.5
  9
$CHAMFERB
 40
0.5
  9
$CHAMFERC
 40
20.0
  9
$CHAMFERD
 40
0.0
  9
$SKPOLY
 70
     0
  9
$TDCREATE
 40
2450576.597302431
  9
$TDUPDATE
 40
2457658.777611609
  9
$TDINDWG
 40
1.3216185069
  9
$TDUSRTIMER
 40
1.3216185069
  9
$USRTIMER
 70
     1
  9
$ANGBASE
 50
0.0
  9
$ANGDIR
 70
     0
  9
$PDMODE
 70
     0
  9
$PDSIZE
 40
0.0
  9
$PLINEWID
 40
0.0
  9
$COORDS
 70
     2
  9
$SPLFRAME
 70
     0
  9
$SPLINETYPE
 70
     6
  9
$SPLINESEGS
 70
     8
  9
$ATTDIA
 70
     0
  9
$ATTREQ
 70
     1
  9
$HANDLING
 70
     1
  9
$HANDSEED
  5
5D80
  9
$SURFTAB1
 70
     6
  9
$SURFTAB2
 70
     6
  9
$SURFTYPE
 70
     6
  9
$SURFU
 70
     6
  9
$SURFV
 70
     6
  9
$UCSNAME
  2

  9
$UCSORG
 10
0.0
 20
0.0
 30
0.0
  9
$UCSXDIR
 10
1.0
 20
0.0
 30
0.0
  9
$UCSYDIR
 10
0.0
 20
1.0
 30
0.0
  9
$PUCSNAME
  2

  9
$PUCSORG
 10
0.0
 20
0.0
 30
0.0
  9
$PUCSXDIR
 10
1.0
 20
0.0
 30
0.0
  9
$PUCSYDIR
 10
0.0
 20
1.0
 30
0.0
  9
$USERI1
 70
     0
  9
$USERI2
 70
     0
  9
$USERI3
 70
     0
  9
$USERI4
 70
     0
  9
$USERI5
 70
     0
  9
$USERR1
 40
0.0
  9
$USERR2
 40
0.0
  9
$USERR3
 40
0.0
  9
$USERR4
 40
0.0
  9
$USERR5
 40
0.0
  9
$WORLDVIEW
 70
     1
  9
$SHADEDGE
 70
     3
  9
$SHADEDIF
 70
    70
  9
$TILEMODE
 70
     0
  9
$MAXACTVP
 70
    16
  9
$PINSBASE
 10
0.0
 20
0.0
 30
0.0
  9
$PLIMCHECK
 70
     0
  9
$PEXTMIN
 10
4.746305129083
 20
3.202754806829
 30
0.0
  9
$PEXTMAX
 10
404.746305129083
 20
283.202754806829
 30
0.0
  9
$PLIMMIN
 10
-7.007122192383
 20
-7.007118782997
  9
$PLIMMAX
 10
417.718108215332
 20
293.315290427208
  9
$UNITMODE
 70
     0
  9
$VISRETAIN
 70
     0
  9
$PLINEGEN
 70
     0
  9
$PSLTSCALE
 70
     1
  9
$TREEDEPTH
 70
  3020
  9
$PICKSTYLE
 70
     1
  9
$CMLSTYLE
  2
STANDARD
  9
$CMLJUST
 70
     0
  9
$CMLSCALE
 40
1.0
  9
$PROXYGRAPHICS
 70
     1
  9
$MEASUREMENT
 70
     1
  0
ENDSEC
  0
SECTION
  2
CLASSES
  0
CLASS
  1
ACDBDICTIONARYWDFLT
  2
AcDbDictionaryWithDefault
  3
ObjectDBX Classes
 90
        0
280
     0
281
     0
  0
CLASS
  1
ACDBPLACEHOLDER
  2
AcDbPlaceHolder
  3
ObjectDBX Classes
 90
        0
280
     0
281
     0
  0
CLASS
  1
LAYOUT
  2
AcDbLayout
  3
ObjectDBX Classes
 90
        0
280
     0
281
     0
  0
CLASS
  1
VISUALSTYLE
  2
AcDbVisualStyle
  3
ObjectDBX Classes
 90
     4095
280
     0
281
     0
  0
CLASS
  1
SCALE
  2
AcDbScale
  3
ObjectDBX Classes
 90
     1153
280
     0
281
     0
  0
CLASS
  1
MATERIAL
  2
AcDbMaterial
  3
ObjectDBX Classes
 90
     1153
280
     0
281
     0
  0
CLASS
  1
TABLESTYLE
  2
AcDbTableStyle
  3
ObjectDBX Classes
 90
     4095
280
     0
281
     0
  0
CLASS
  1
MLEADERSTYLE
  2
AcDbMLeaderStyle
  3
ACDB_MLEADERSTYLE_CLASS
 90
     4095
280
     0
281
     0
  0
CLASS
  1
SUN
  2
AcDbSun
  3
SCENEOE
 90
     1153
280
     0
281
     0
  0
CLASS
  1
SORTENTSTABLE
  2
AcDbSortentsTable
  3
ObjectDBX Classes
 90
        0
280
     0
281
     0
  0
CLASS
  1
DICTIONARYVAR
  2
AcDbDictionaryVar
  3
ObjectDBX Classes
 90
        0
280
     0
281
     0
  0
CLASS
  1
CELLSTYLEMAP
  2
AcDbCellStyleMap
  3
ObjectDBX Classes
 90
     1152
280
     0
281
     0
  0
CLASS
  1
XRECORD
  2
AcDbXrecord
  3
ObjectDBX Classes
 90
        0
280
     0
281
     0
  0
CLASS
  1
LWPOLYLINE
  2
AcDbPolyline
  3
ObjectDBX Classes
 90
        0
280
     0
281
     1
  0
CLASS
  1
HATCH
  2
AcDbHatch
  3
ObjectDBX Classes
 90
        0
280
     0
281
     1
  0
ENDSEC
  0
SECTION
  2
TABLES
  0
TABLE
  2
VPORT
  5
8
102
{ACAD_XDICTIONARY
360
5D78
102
}
330
0
100
AcDbSymbolTable
 70
     2
  0
VPORT
  5
4E46
330
8
100
AcDbSymbolTableRecord
100
AcDbViewportTableRecord
  2
*ACTIVE
 70
     0
 10
0.0
 20
0.0
 11
1.0
 21
1.0
 12
273.92272057864
 22
335.845530167567
 13
0.0
 23
0.0
 14
1.0
 24
1.0
 15
0.0
 25
0.0
 16
0.0
 26
0.0
 36
1.0
 17
0.0
 27
0.0
 37
0.0
 40
427.906461747672
 41
1.759407069555
 42
50.0
 43
0.0
 44
0.0
 50
0.0
 51
0.0
 71
    16
 72
   100
 73
     1
 74
     0
 75
     0
 76
     0
 77
     0
 78
     0
  0
ENDTAB
  0
TABLE
  2
LTYPE
  5
5
330
0
100
AcDbSymbolTable
 70
     6
  0
LTYPE
  5
14
330
5
100
AcDbSymbolTableRecord
100
AcDbLinetypeTableRecord
  2
BYBLOCK
 70
     0
  3

 72
    65
 73
     0
 40
0.0
  0
LTYPE
  5
15
330
5
100
AcDbSymbolTableRecord
100
AcDbLinetypeTableRecord
  2
BYLAYER
 70
     0
  3

 72
    65
 73
     0
 40
0.0
  0
LTYPE
  5
16
330
5
100
AcDbSymbolTableRecord
100
AcDbLinetypeTableRecord
  2
CONTINUOUS
 70
     0
  3
Solid line
 72
    65
 73
     0
 40
0.0
  0
LTYPE
  5
1EC
330
5
100
AcDbSymbolTableRecord
100
AcDbLinetypeTableRecord
  2
CENTER
 70
     0
  3
____ _ ____ _ ____ _ ____ _ ____ _ ____ _ ____ 
 72
    65
 73
     4
 40
2.0
 49
1.25
 74
     0
 49
-0.25
 74
     0
 49
0.25
 74
     0
 49
-0.25
 74
     0
  0
LTYPE
  5
1ED
330
5
100
AcDbSymbolTableRecord
100
AcDbLinetypeTableRecord
  2
DASHED
 70
     0
  3
__ __ __ __ __ __ __ __ __ __ __ __ __ __ __ __
 72
    65
 73
     2
 40
0.75
 49
0.5
 74
     0
 49
-0.25
 74
     0
  0
LTYPE
  5
2B1F
330
5
100
AcDbSymbolTableRecord
100
AcDbLinetypeTableRecord
  2
DASHDOT
 70
     0
  3
一点鎖線
 72
    65
 73
     4
 40
25.6
 49
20.0
 74
     0
 49
-2.0
 74
     0
 49
1.6
 74
     0
 49
-2.0
 74
     0
  0
LTYPE
  5
31A1
330
5
100
AcDbSymbolTableRecord
100
AcDbLinetypeTableRecord
  2
CENTER2
 70
     0
  3
Center (.5x) ___ _ ___ _ ___ _ ___ _ ___ _ ___
 72
    65
 73
     4
 40
28.575
 49
19.05
 74
     0
 49
-3.175
 74
     0
 49
3.175
 74
     0
 49
-3.175
 74
     0
  0
LTYPE
  5
4002
330
5
100
AcDbSymbolTableRecord
100
AcDbLinetypeTableRecord
  2
DASHED2
 70
     0
  3
Dashed (.5x) _ _ _ _ _ _ _ _ _ _ _ _ _ _ _ _ _
 72
    65
 73
     2
 40
9.525
 49
6.35
 74
     0
 49
-3.175
 74
     0
  0
ENDTAB
  0
TABLE
  2
LAYER
  5
2
102
{ACAD_XDICTIONARY
360
29EA
102
}
330
0
100
AcDbSymbolTable
 70
    12
  0
LAYER
  5
F
330
2
100
AcDbSymbolTableRecord
100
AcDbLayerTableRecord
  2
0
 70
     0
 62
     7
  6
CONTINUOUS
  0
LAYER
  5
61
330
2
100
AcDbSymbolTableRecord
100
AcDbLayerTableRecord
  2
図枠太線
 70
     0
 62
   251
  6
CONTINUOUS
  0
LAYER
  5
62
330
2
100
AcDbSymbolTableRecord
100
AcDbLayerTableRecord
  2
図枠細線
 70
     0
 62
   252
  6
CONTINUOUS
  0
LAYER
  5
63
330
2
100
AcDbSymbolTableRecord
100
AcDbLayerTableRecord
  2
図枠ロゴマーク
 70
     0
 62
   253
  6
CONTINUOUS
  0
LAYER
  5
1EF
330
2
100
AcDbSymbolTableRecord
100
AcDbLayerTableRecord
  2
外形線
 70
     0
 62
     7
  6
CONTINUOUS
  0
LAYER
  5
1F0
330
2
100
AcDbSymbolTableRecord
100
AcDbLayerTableRecord
  2
寸法線
 70
     0
 62
     1
  6
CONTINUOUS
  0
LAYER
  5
1F1
330
2
100
AcDbSymbolTableRecord
100
AcDbLayerTableRecord
  2
中心線
 70
     0
 62
     4
  6
CENTER
  0
LAYER
  5
1F4
330
2
100
AcDbSymbolTableRecord
100
AcDbLayerTableRecord
  2
DEFPOINTS
 70
     0
 62
     7
  6
CONTINUOUS
  0
LAYER
  5
2AA2
330
2
100
AcDbSymbolTableRecord
100
AcDbLayerTableRecord
  2
下書線
 70
     0
 62
     2
  6
CONTINUOUS
  0
LAYER
  5
2AA3
330
2
100
AcDbSymbolTableRecord
100
AcDbLayerTableRecord
  2
隠れ線
 70
     0
 62
     3
  6
DASHED
  0
LAYER
  5
2AA4
330
2
100
AcDbSymbolTableRecord
100
AcDbLayerTableRecord
  2
細線
 70
     0
 62
     6
  6
CONTINUOUS
  0
LAYER
  5
2AA5
330
2
100
AcDbSymbolTableRecord
100
AcDbLayerTableRecord
  2
太線
 70
     0
 62
   190
  6
CONTINUOUS
  0
ENDTAB
  0
TABLE
  2
STYLE
  5
3
330
0
100
AcDbSymbolTable
 70
     2
  0
STYLE
  5
10
330
3
100
AcDbSymbolTableRecord
100
AcDbTextStyleTableRecord
  2
STANDARD
 70
     0
 40
0.0
 41
1.0
 50
0.0
 71
     0
 42
4.0
  3
ISOCP
  4
bigfont.shx
  0
STYLE
  5
64
330
3
100
AcDbSymbolTableRecord
100
AcDbTextStyleTableRecord
  2
EXCADSTD
 70
     0
 40
0.0
 41
1.0
 50
0.0
 71
     0
 42
0.2
  3
monotxt
  4
bigfont
  0
ENDTAB
  0
TABLE
  2
VIEW
  5
6
330
0
100
AcDbSymbolTable
 70
     0
  0
ENDTAB
  0
TABLE
  2
UCS
  5
7
330
0
100
AcDbSymbolTable
 70
     0
  0
ENDTAB
  0
TABLE
  2
APPID
  5
9
330
0
100
AcDbSymbolTable
 70
     6
  0
APPID
  5
11
330
9
100
AcDbSymbolTableRecord
100
AcDbRegAppTableRecord
  2
ACAD
 70
     0
  0
APPID
  5
3507
330
9
100
AcDbSymbolTableRecord
100
AcDbRegAppTableRecord
  2
ACAD_DIMASSOC_CALC_DIMLFAC
 70
     0
  0
APPID
  5
3508
330
9
100
AcDbSymbolTableRecord
100
AcDbRegAppTableRecord
  2
ACAD_DIMASSOC_DIMLFAC
 70
     0
  0
APPID
  5
3509
330
9
100
AcDbSymbolTableRecord
100
AcDbRegAppTableRecord
  2
ACAD_DIMASSOC_OVERRIDDEN_D
 70
     0
  0
APPID
  5
4E8A
330
9
100
AcDbSymbolTableRecord
100
AcDbRegAppTableRecord
  2
ACADANNOTATIVE
 70
     0
  0
APPID
  5
52C1
330
9
100
AcDbSymbolTableRecord
100
AcDbRegAppTableRecord
  2
ACAD_MLEADERVER
 70
     0
  0
ENDTAB
  0
TABLE
  2
DIMSTYLE
  5
A
330
0
100
AcDbSymbolTable
 70
     2
  0
DIMSTYLE
105
1D
330
A
100
AcDbSymbolTableRecord
100
AcDbDimStyleTableRecord
  2
STANDARD
 70
     0
  3

  4

  5

  6

  7

 40
1.0
 41
0.18
 42
0.0625
 43
0.38
 44
0.18
 45
0.0
 46
0.0
 47
0.0
 48
0.0
140
0.18
141
0.09
142
0.0
143
25.4
144
1.0
145
0.0
146
1.0
147
0.09
 71
     0
 72
     0
 73
     1
 74
     1
 75
     0
 76
     0
 77
     0
 78
     0
170
     0
171
     2
172
     0
173
     0
174
     0
175
     0
176
     0
177
     0
178
     0
270
     2
271
     4
272
     4
273
     2
274
     2
340
10
275
     0
280
     0
281
     0
282
     0
283
     1
284
     0
285
     0
286
     0
287
     3
288
     0
  0
DIMSTYLE
105
24
102
{ACAD_REACTORS
330
46B6
330
46C3
330
46D0
330
46EA
330
4968
330
4B0A
330
4B0D
330
50DC
330
50DD
330
50DE
330
50DF
330
50E0
330
50E8
330
5BEB
102
}
330
A
100
AcDbSymbolTableRecord
100
AcDbDimStyleTableRecord
  2
ISO-25
 70
     0
  3

  4

  5

  6

  7

 40
1.0
 41
2.5
 42
0.625
 43
3.75
 44
1.25
 45
0.0
 46
0.0
 47
0.0
 48
0.0
140
2.5
141
2.5
142
0.0
143
0.0394
144
1.0
145
1.0
146
1.0
147
0.625
 71
     0
 72
     0
 73
     1
 74
     0
 75
     0
 76
     0
 77
     1
 78
     8
170
     0
171
     2
172
     1
173
     0
174
     0
175
     0
176
     0
177
     0
178
     0
270
     2
271
     4
272
     4
273
     2
274
     2
340
10
275
     0
280
     0
281
     0
282
     0
283
     1
284
     0
285
     0
286
     0
287
     3
288
     0
  0
ENDTAB
  0
TABLE
  2
BLOCK_RECORD
  5
1
330
0
100
AcDbSymbolTable
 70
    49
  0
BLOCK_RECORD
  5
1A
330
1
100
AcDbSymbolTableRecord
100
AcDbBlockTableRecord
  2
*MODEL_SPACE
  0
BLOCK_RECORD
  5
28FB
330
1
100
AcDbSymbolTableRecord
100
AcDbBlockTableRecord
  2
*PAPER_SPACE
  0
BLOCK_RECORD
  5
65
330
1
100
AcDbSymbolTableRecord
100
AcDbBlockTableRecord
  2
A$C3392
  0
BLOCK_RECORD
  5
29BF
330
1
100
AcDbSymbolTableRecord
100
AcDbBlockTableRecord
  2
A4横用_タイトル
1001
ACAD
1000
DesignCenter Data
1002
{
1070
     1
1070
     4
1002
}
  0
BLOCK_RECORD
  5
29F4
330
1
100
AcDbSymbolTableRecord
100
AcDbBlockTableRecord
  2
A4縦用_タイトル
1001
ACAD
1000
DesignCenter Data
1002
{
1070
     1
1070
     4
1002
}
  0
BLOCK_RECORD
  5
2A32
330
1
100
AcDbSymbolTableRecord
100
AcDbBlockTableRecord
  2
A3横用_タイトル
1001
ACAD
1000
DesignCenter Data
1002
{
1070
     1
1070
     4
1002
}
  0
BLOCK_RECORD
  5
2A6C
330
1
100
AcDbSymbolTableRecord
100
AcDbBlockTableRecord
  2
A3縦用_タイトル
1001
ACAD
1000
DesignCenter Data
1002
{
1070
     1
1070
     4
1002
}
  0
BLOCK_RECORD
  5
2AF4
330
1
100
AcDbSymbolTableRecord
100
AcDbBlockTableRecord
  2
_OPEN30
  0
BLOCK_RECORD
  5
46B7
330
1
100
AcDbSymbolTableRecord
100
AcDbBlockTableRecord
  2
*D13
  0
BLOCK_RECORD
  5
46C4
330
1
100
AcDbSymbolTableRecord
100
AcDbBlockTableRecord
  2
*D14
  0
BLOCK_RECORD
  5
46D1
330
1
100
AcDbSymbolTableRecord
100
AcDbBlockTableRecord
  2
*D15
  0
BLOCK_RECORD
  5
46EB
330
1
100
AcDbSymbolTableRecord
100
AcDbBlockTableRecord
  2
*D16
  0
BLOCK_RECORD
  5
47DB
330
1
100
AcDbSymbolTableRecord
100
AcDbBlockTableRecord
  2
静電容量センサ
  0
BLOCK_RECORD
  5
4969
330
1
100
AcDbSymbolTableRecord
100
AcDbBlockTableRecord
  2
*D18
  0
BLOCK_RECORD
  5
4B6C
330
1
100
AcDbSymbolTableRecord
100
AcDbBlockTableRecord
  2
*D19
  0
BLOCK_RECORD
  5
4B84
330
1
100
AcDbSymbolTableRecord
100
AcDbBlockTableRecord
  2
*D20
  0
BLOCK_RECORD
  5
5125
330
1
100
AcDbSymbolTableRecord
100
AcDbBlockTableRecord
  2
*D39
  0
BLOCK_RECORD
  5
5130
330
1
100
AcDbSymbolTableRecord
100
AcDbBlockTableRecord
  2
*D40
  0
BLOCK_RECORD
  5
513B
330
1
100
AcDbSymbolTableRecord
100
AcDbBlockTableRecord
  2
*D41
  0
BLOCK_RECORD
  5
5146
330
1
100
AcDbSymbolTableRecord
100
AcDbBlockTableRecord
  2
*D42
  0
BLOCK_RECORD
  5
5151
330
1
100
AcDbSymbolTableRecord
100
AcDbBlockTableRecord
  2
*D43
  0
BLOCK_RECORD
  5
5169
330
1
100
AcDbSymbolTableRecord
100
AcDbBlockTableRecord
  2
*D45
  0
BLOCK_RECORD
  5
5BFA
330
1
100
AcDbSymbolTableRecord
100
AcDbBlockTableRecord
  2
*D48
  0
ENDTAB
  0
ENDSEC
  0
SECTION
  2
BLOCKS
  0
BLOCK
  5
1B
330
1A
100
AcDbEntity
  8
0
100
AcDbBlockBegin
  2
*MODEL_SPACE
 70
     0
 10
0.0
 20
0.0
 30
0.0
  3
*MODEL_SPACE
  1

  0
ENDBLK
  5
1C
330
1A
100
AcDbEntity
  8
0
100
AcDbBlockEnd
  0
BLOCK
  5
28FD
330
28FB
100
AcDbEntity
 67
     1
  8
0
 48
10.0
100
AcDbBlockBegin
  2
*PAPER_SPACE
 70
     0
 10
0.0
 20
0.0
 30
0.0
  3
*PAPER_SPACE
  1

  0
ENDBLK
  5
28FE
330
28FB
100
AcDbEntity
 67
     1
  8
0
 48
10.0
100
AcDbBlockEnd
  0
BLOCK
  5
93
330
65
100
AcDbEntity
  8
0
100
AcDbBlockBegin
  2
A$C3392
 70
     0
 10
0.0
 20
0.0
 30
0.0
  3
A$C3392
  1

  0
LINE
  5
66
330
65
100
AcDbEntity
  8
図枠太線
  6
CONTINUOUS
100
AcDbLine
 10
211.858584505185
 20
30.927375675439
 30
0.0
 11
211.858584505185
 21
0.927375675439
 31
0.0
  0
LINE
  5
67
330
65
100
AcDbEntity
  8
図枠細線
  6
CONTINUOUS
100
AcDbLine
 10
231.858592505185
 20
15.927377675439
 30
0.0
 11
287.858592505185
 21
15.927375675439
 31
0.0
  0
LINE
  5
68
330
65
100
AcDbEntity
  8
図枠細線
  6
CONTINUOUS
100
AcDbLine
 10
211.858592505185
 20
15.927377675439
 30
0.0
 11
231.858592505185
 21
15.927377675439
 31
0.0
  0
LINE
  5
69
330
65
100
AcDbEntity
  8
図枠太線
  6
CONTINUOUS
 62
   251
100
AcDbLine
 10
1.858584505185
 20
0.927375675439
 30
0.0
 11
1.858584505185
 21
275.927375675439
 31
0.0
  0
TEXT
  5
6A
330
65
100
AcDbEntity
  8
図枠細線
  6
CONTINUOUS
 62
   252
100
AcDbText
 10
351.358592505185
 20
28.427377675439
 30
0.0
 40
2.0
  1
ＴＩＴＬＥ
 41
0.903614457831
  7
EXCADSTD
 72
     5
 11
361.358592505185
 21
28.427377675439
 31
0.0
100
AcDbText
  0
TEXT
  5
6B
330
65
100
AcDbEntity
  8
図枠細線
  6
CONTINUOUS
 62
   252
100
AcDbText
 10
345.358592505185
 20
28.427377675439
 30
0.0
 40
2.0
  1
名称
 41
1.171875
  7
EXCADSTD
 72
     5
 11
350.358592505185
 21
28.427377675439
 31
0.0
100
AcDbText
  0
TEXT
  5
6C
330
65
100
AcDbEntity
  8
図枠細線
  6
CONTINUOUS
 62
   252
100
AcDbText
 10
274.358592505185
 20
25.927377675439
 30
0.0
 40
2.0
  1
ＤＲＡＷＮ
 41
0.882352941176
  7
EXCADSTD
 72
     5
 11
284.358592505185
 21
25.927377675439
 31
0.0
100
AcDbText
  0
TEXT
  5
6D
330
65
100
AcDbEntity
  8
図枠細線
  6
CONTINUOUS
 62
   252
100
AcDbText
 10
260.358592505185
 20
25.927377675439
 30
0.0
 40
2.0
  1
ＤＥＳＩＧＮＥＤ
 41
0.713043472041
  7
EXCADSTD
 72
     5
 11
273.478592390744
 21
25.927377675439
 31
0.0
100
AcDbText
  0
TEXT
  5
6E
330
65
100
AcDbEntity
  8
図枠細線
  6
CONTINUOUS
 62
   252
100
AcDbText
 10
246.358592505185
 20
25.927377675439
 30
0.0
 40
2.0
  1
ＣＨＥＣＫＥＤ
 41
0.831249989569
  7
EXCADSTD
 72
     5
 11
259.658592338292
 21
25.927377675439
 31
0.0
100
AcDbText
  0
TEXT
  5
6F
330
65
100
AcDbEntity
  8
図枠細線
  6
CONTINUOUS
 62
   252
100
AcDbText
 10
274.358592505185
 20
28.427377675439
 30
0.0
 40
2.0
  1
製図
 41
1.209677419355
  7
EXCADSTD
 72
     5
 11
279.358592505185
 21
28.427377675439
 31
0.0
100
AcDbText
  0
TEXT
  5
70
330
65
100
AcDbEntity
  8
図枠細線
  6
CONTINUOUS
 62
   252
100
AcDbText
 10
260.358592505185
 20
28.427377675439
 30
0.0
 40
2.0
  1
設計
 41
1.171875
  7
EXCADSTD
 72
     5
 11
265.358592505185
 21
28.427377675439
 31
0.0
100
AcDbText
  0
TEXT
  5
71
330
65
100
AcDbEntity
  8
図枠細線
  6
CONTINUOUS
 62
   252
100
AcDbText
 10
246.358592505185
 20
28.427377675439
 30
0.0
 40
2.0
  1
検図
 41
1.209677419355
  7
EXCADSTD
 72
     5
 11
251.358592505185
 21
28.427377675439
 31
0.0
100
AcDbText
  0
TEXT
  5
72
330
65
100
AcDbEntity
  8
図枠細線
  6
CONTINUOUS
 62
   252
100
AcDbText
 10
232.358592505185
 20
25.927377675439
 30
0.0
 40
2.0
  1
ＡＰＰＲＯＶＥＤ
 41
0.695652184279
  7
EXCADSTD
 72
     5
 11
245.15859269592
 21
25.927377675439
 31
0.0
100
AcDbText
  0
TEXT
  5
73
330
65
100
AcDbEntity
  8
図枠細線
  6
CONTINUOUS
 62
   252
100
AcDbText
 10
232.358592505185
 20
28.427377675439
 30
0.0
 40
2.0
  1
承認
 41
1.171875
  7
EXCADSTD
 72
     5
 11
237.358592505185
 21
28.427377675439
 31
0.0
100
AcDbText
  0
TEXT
  5
74
330
65
100
AcDbEntity
  8
図枠細線
  6
CONTINUOUS
 62
   252
100
AcDbText
 10
290.069888505185
 20
2.574868675439
 30
0.0
 40
3.5
  1
ＴＯＷＡ　ＳＥＩＤＥＮ　ＩＮＤＵＳＴＲＩＡＬ　ＣＯ．，ＬＴＤ．
 41
0.414568012377
  7
EXCADSTD
 72
     5
 11
342.692388209546
 21
2.574868675439
 31
0.0
100
AcDbText
  0
TEXT
  5
75
330
65
100
AcDbEntity
  8
図枠ロゴマーク
  6
CONTINUOUS
 62
   253
100
AcDbText
 10
290.107348505185
 20
7.519769675439
 30
0.0
 40
7.0
  1
東和制電工業株式会社
 41
0.639204545455
  7
EXCADSTD
 72
     5
 11
342.607348505185
 21
7.519769675439
 31
0.0
100
AcDbText
  0
TEXT
  5
76
330
65
100
AcDbEntity
  8
図枠細線
  6
CONTINUOUS
 62
   252
100
AcDbText
 10
232.499705505185
 20
5.759088675439
 30
0.0
 40
2.0
  1
ＰＲＯＪＥＣＴＩＯＮ
 41
0.754285710199
  7
EXCADSTD
 72
     5
 11
250.099705409817
 21
5.759088675439
 31
0.0
100
AcDbText
  0
TEXT
  5
77
330
65
100
AcDbEntity
  8
図枠細線
  6
CONTINUOUS
 62
   252
100
AcDbText
 10
232.574629505185
 20
8.681077675439
 30
0.0
 40
2.0
  1
ＴＨＩＲＤ　ＡＮＧＬＥ
 41
0.691099486738
  7
EXCADSTD
 72
     5
 11
250.174629767445
 21
8.681077675439
 31
0.0
100
AcDbText
  0
TEXT
  5
78
330
65
100
AcDbEntity
  8
図枠細線
  6
CONTINUOUS
 62
   252
100
AcDbText
 10
256.823999505185
 20
13.427377675439
 30
0.0
 40
2.0
  1
ＳＣＡＬＥ
 41
0.903614457831
  7
EXCADSTD
 72
     5
 11
266.823999505185
 21
13.427377675439
 31
0.0
100
AcDbText
  0
TEXT
  5
79
330
65
100
AcDbEntity
  8
図枠細線
  6
CONTINUOUS
 62
   252
100
AcDbText
 10
274.858592505185
 20
13.427377675439
 30
0.0
 40
2.0
  1
ＤＡＴＥ
 41
0.923076923077
  7
EXCADSTD
 72
     5
 11
282.858592505185
 21
13.427377675439
 31
0.0
100
AcDbText
  0
TEXT
  5
7A
330
65
100
AcDbEntity
  8
図枠細線
  6
CONTINUOUS
 62
   252
100
AcDbText
 10
356.358592505185
 20
13.427377675439
 30
0.0
 40
2.0
  1
ＤＲＧ．ＮＯ．
 41
0.9375
  7
EXCADSTD
 72
     5
 11
370.358592505185
 21
13.427377675439
 31
0.0
100
AcDbText
  0
TEXT
  5
7B
330
65
100
AcDbEntity
  8
図枠細線
  6
CONTINUOUS
 62
   252
100
AcDbText
 10
345.358592505185
 20
13.427377675439
 30
0.0
 40
2.0
  1
図面番号
 41
1.102941176471
  7
EXCADSTD
 72
     5
 11
355.358592505185
 21
13.427377675439
 31
0.0
100
AcDbText
  0
TEXT
  5
7C
330
65
100
AcDbEntity
  8
図枠細線
  6
CONTINUOUS
 62
   252
100
AcDbText
 10
269.358592505185
 20
13.427377675439
 30
0.0
 40
2.0
  1
日付
 41
1.171875
  7
EXCADSTD
 72
     5
 11
274.358592505185
 21
13.427377675439
 31
0.0
100
AcDbText
  0
TEXT
  5
7D
330
65
100
AcDbEntity
  8
図枠細線
  6
CONTINUOUS
 62
   252
100
AcDbText
 10
251.451512505185
 20
13.427377675439
 30
0.0
 40
2.0
  1
尺度
 41
1.171875
  7
EXCADSTD
 72
     5
 11
256.451512505185
 21
13.427377675439
 31
0.0
100
AcDbText
  0
TEXT
  5
7E
330
65
100
AcDbEntity
  8
図枠細線
  6
CONTINUOUS
 62
   252
100
AcDbText
 10
232.358592505185
 20
13.427377675439
 30
0.0
 40
2.0
  1
第三角法
 41
1.102941176471
  7
EXCADSTD
 72
     5
 11
242.358592505185
 21
13.427377675439
 31
0.0
100
AcDbText
  0
TEXT
  5
7F
330
65
100
AcDbEntity
  8
図枠細線
  6
CONTINUOUS
 62
   252
100
AcDbText
 10
212.358592505185
 20
28.427377675439
 30
0.0
 40
2.0
  1
ＮＯＴＥ
 41
0.923076923077
  7
EXCADSTD
 72
     5
 11
220.358592505185
 21
28.427377675439
 31
0.0
100
AcDbText
  0
LINE
  5
80
330
65
100
AcDbEntity
  8
図枠細線
  6
CONTINUOUS
 62
   252
100
AcDbLine
 10
287.858592505185
 20
23.427375675439
 30
0.0
 11
344.858592505185
 21
23.427375675439
 31
0.0
  0
LINE
  5
81
330
65
100
AcDbEntity
  8
図枠太線
  6
CONTINUOUS
 62
   251
100
AcDbLine
 10
287.858584505185
 20
15.927375675439
 30
0.0
 11
344.858592505185
 21
15.927375675439
 31
0.0
  0
LINE
  5
82
330
65
100
AcDbEntity
  8
図枠細線
  6
CONTINUOUS
 62
   252
100
AcDbLine
 10
344.858592505185
 20
15.927375675439
 30
0.0
 11
401.858584505185
 21
15.927375675439
 31
0.0
  0
LINE
  5
83
330
65
100
AcDbEntity
  8
図枠太線
  6
CONTINUOUS
 62
   251
100
AcDbLine
 10
344.858592505185
 20
0.927377675439
 30
0.0
 11
344.858592505185
 21
30.927375675439
 31
0.0
  0
LINE
  5
84
330
65
100
AcDbEntity
  8
図枠太線
  6
CONTINUOUS
 62
   251
100
AcDbLine
 10
287.858592505185
 20
0.927377675439
 30
0.0
 11
287.858592505185
 21
30.927375675439
 31
0.0
  0
LINE
  5
85
330
65
100
AcDbEntity
  8
図枠細線
  6
CONTINUOUS
 62
   252
100
AcDbLine
 10
268.858592505185
 20
0.927377675439
 30
0.0
 11
268.858592505185
 21
15.927375675439
 31
0.0
  0
LINE
  5
86
330
65
100
AcDbEntity
  8
図枠細線
  6
CONTINUOUS
 62
   252
100
AcDbLine
 10
250.858592505185
 20
0.927377675439
 30
0.0
 11
250.858592505185
 21
15.927375675439
 31
0.0
  0
LINE
  5
87
330
65
100
AcDbEntity
  8
図枠細線
  6
CONTINUOUS
 62
   252
100
AcDbLine
 10
273.858592505185
 20
30.927375675439
 30
0.0
 11
273.858592505185
 21
15.927375675439
 31
0.0
  0
LINE
  5
88
330
65
100
AcDbEntity
  8
図枠細線
  6
CONTINUOUS
 62
   252
100
AcDbLine
 10
259.858592505185
 20
30.927375675439
 30
0.0
 11
259.858592505185
 21
15.927375675439
 31
0.0
  0
LINE
  5
89
330
65
100
AcDbEntity
  8
図枠細線
  6
CONTINUOUS
 62
   252
100
AcDbLine
 10
245.858592505185
 20
30.927375675439
 30
0.0
 11
245.858592505185
 21
15.927375675439
 31
0.0
  0
LINE
  5
8A
330
65
100
AcDbEntity
  8
図枠太線
  6
CONTINUOUS
 62
   251
100
AcDbLine
 10
231.858592505185
 20
0.927377675439
 30
0.0
 11
231.858592505185
 21
30.927375675439
 31
0.0
  0
LINE
  5
8B
330
65
100
AcDbEntity
  8
図枠細線
  6
CONTINUOUS
 62
   252
100
AcDbLine
 10
211.858592505185
 20
25.927375675439
 30
0.0
 11
231.858592505185
 21
25.927375675439
 31
0.0
  0
LINE
  5
8C
330
65
100
AcDbEntity
  8
図枠細線
  6
CONTINUOUS
 62
   252
100
AcDbLine
 10
211.858592505185
 20
20.927375675439
 30
0.0
 11
231.858592505185
 21
20.927375675439
 31
0.0
  0
LINE
  5
8D
330
65
100
AcDbEntity
  8
図枠細線
  6
CONTINUOUS
 62
   252
100
AcDbLine
 10
211.858592505185
 20
10.927375675439
 30
0.0
 11
231.858592505185
 21
10.927375675439
 31
0.0
  0
LINE
  5
8E
330
65
100
AcDbEntity
  8
図枠細線
  6
CONTINUOUS
 62
   252
100
AcDbLine
 10
211.858592505185
 20
5.927377675439
 30
0.0
 11
231.858592505185
 21
5.927377675439
 31
0.0
  0
LINE
  5
8F
330
65
100
AcDbEntity
  8
図枠太線
  6
CONTINUOUS
 62
   251
100
AcDbLine
 10
211.858592505185
 20
30.927375675439
 30
0.0
 11
401.858584505185
 21
30.927375675439
 31
0.0
  0
LINE
  5
90
330
65
100
AcDbEntity
  8
図枠太線
  6
CONTINUOUS
 62
   251
100
AcDbLine
 10
1.858584505185
 20
275.927375675439
 30
0.0
 11
401.858584505185
 21
275.927375675439
 31
0.0
  0
LINE
  5
91
330
65
100
AcDbEntity
  8
図枠太線
  6
CONTINUOUS
 62
   251
100
AcDbLine
 10
401.858584505185
 20
0.927375675439
 30
0.0
 11
401.858584505185
 21
275.927375675439
 31
0.0
  0
LINE
  5
92
330
65
100
AcDbEntity
  8
図枠太線
  6
CONTINUOUS
 62
   251
100
AcDbLine
 10
1.858584505185
 20
0.927375675439
 30
0.0
 11
401.858584505185
 21
0.927375675439
 31
0.0
  0
ENDBLK
  5
94
330
65
100
AcDbEntity
  8
0
100
AcDbBlockEnd
  0
BLOCK
  5
29C0
330
29BF
100
AcDbEntity
  8
0
100
AcDbBlockBegin
  2
A4横用_タイトル
 70
     0
 10
0.0
 20
0.0
 30
0.0
  3
A4横用_タイトル
  1

  0
LINE
  5
29C1
330
29BF
100
AcDbEntity
  8
図枠細線
  6
CONTINUOUS
100
AcDbLine
 10
75.061011071051
 20
16.806607253358
 30
0.0
 11
144.061011071051
 21
16.806604789072
 31
0.0
  0
LINE
  5
29C2
330
29BF
100
AcDbEntity
  8
図枠細線
  6
CONTINUOUS
 62
   252
100
AcDbLine
 10
4.061011071051
 20
11.806606253358
 30
0.0
 11
75.061011071051
 21
11.806606253358
 31
0.0
  0
LINE
  5
29C3
330
29BF
100
AcDbEntity
  8
図枠細線
  6
CONTINUOUS
 62
   252
100
AcDbLine
 10
4.061011071051
 20
21.806606253358
 30
0.0
 11
75.061011071051
 21
21.806606253358
 31
0.0
  0
LINE
  5
29C4
330
29BF
100
AcDbEntity
  8
図枠細線
  6
CONTINUOUS
 62
   252
100
AcDbLine
 10
4.061011071051
 20
26.806606253358
 30
0.0
 11
75.061011071051
 21
26.806606253358
 31
0.0
  0
LINE
  5
29C5
330
29BF
100
AcDbEntity
  8
図枠細線
  6
CONTINUOUS
100
AcDbLine
 10
4.061011071051
 20
16.806608253358
 30
0.0
 11
75.061011071051
 21
16.806608253358
 31
0.0
  0
TEXT
  5
29C6
330
29BF
100
AcDbEntity
  8
図枠細線
  6
CONTINUOUS
 62
   252
100
AcDbText
 10
76.405475827713
 20
9.560308253358
 30
0.0
 40
2.0
  1
ＴＨＩＲＤ　ＡＮＧＬＥ
 41
0.691099486738
  7
EXCADSTD
 72
     5
 11
94.005476089973
 21
9.560308253358
 31
0.0
100
AcDbText
  0
TEXT
  5
29C7
330
29BF
100
AcDbEntity
  8
図枠細線
  6
CONTINUOUS
 62
   252
100
AcDbText
 10
76.705775880921
 20
14.306608253358
 30
0.0
 40
2.0
  1
第三角法
 41
1.102941176471
  7
EXCADSTD
 72
     5
 11
86.705775880921
 21
14.306608253358
 31
0.0
100
AcDbText
  0
TEXT
  5
29C8
330
29BF
100
AcDbEntity
  8
図枠細線
  6
CONTINUOUS
 62
   252
100
AcDbText
 10
76.705775880921
 20
26.806608253358
 30
0.0
 40
2.0
  1
ＡＰＰＲＯＶＥＤ
 41
0.695652184279
  7
EXCADSTD
 72
     5
 11
89.505776071656
 21
26.806608253358
 31
0.0
100
AcDbText
  0
TEXT
  5
29C9
330
29BF
100
AcDbEntity
  8
図枠細線
  6
CONTINUOUS
 62
   252
100
AcDbText
 10
76.705775880921
 20
29.306608253358
 30
0.0
 40
2.0
  1
承認
 41
1.171875
  7
EXCADSTD
 72
     5
 11
81.705775880921
 21
29.306608253358
 31
0.0
100
AcDbText
  0
LINE
  5
29CA
330
29BF
100
AcDbEntity
  8
図枠細線
  6
CONTINUOUS
 62
   252
100
AcDbLine
 10
98.061011071051
 20
31.806606253358
 30
0.0
 11
98.061011071051
 21
16.806606253358
 31
0.0
  0
TEXT
  5
29CB
330
29BF
100
AcDbEntity
  8
図枠細線
  6
CONTINUOUS
 62
   252
100
AcDbText
 10
104.216531119804
 20
14.306608253358
 30
0.0
 40
2.0
  1
ＳＣＡＬＥ
 41
0.903614457831
  7
EXCADSTD
 72
     5
 11
114.216531119804
 21
14.306608253358
 31
0.0
100
AcDbText
  0
TEXT
  5
29CC
330
29BF
100
AcDbEntity
  8
図枠細線
  6
CONTINUOUS
 62
   252
100
AcDbText
 10
98.844044119804
 20
14.306608253358
 30
0.0
 40
2.0
  1
尺度
 41
1.171875
  7
EXCADSTD
 72
     5
 11
103.844044119804
 21
14.306608253358
 31
0.0
100
AcDbText
  0
TEXT
  5
29CD
330
29BF
100
AcDbEntity
  8
図枠細線
  6
CONTINUOUS
 62
   252
100
AcDbText
 10
98.968727707497
 20
26.806608253358
 30
0.0
 40
2.0
  1
ＣＨＥＣＫＥＤ
 41
0.831249989569
  7
EXCADSTD
 72
     5
 11
112.268727540604
 21
26.806608253358
 31
0.0
100
AcDbText
  0
TEXT
  5
29CE
330
29BF
100
AcDbEntity
  8
図枠細線
  6
CONTINUOUS
 62
   252
100
AcDbText
 10
98.968727707497
 20
29.306608253358
 30
0.0
 40
2.0
  1
検図
 41
1.209677419355
  7
EXCADSTD
 72
     5
 11
103.968727707497
 21
29.306608253358
 31
0.0
100
AcDbText
  0
LINE
  5
29CF
330
29BF
100
AcDbEntity
  8
図枠細線
  6
CONTINUOUS
 62
   252
100
AcDbLine
 10
121.061011071051
 20
31.806606253358
 30
0.0
 11
121.061011071051
 21
16.806606253358
 31
0.0
  0
TEXT
  5
29D0
330
29BF
100
AcDbEntity
  8
図枠細線
  6
CONTINUOUS
 62
   252
100
AcDbText
 10
128.001465247253
 20
14.306608253358
 30
0.0
 40
2.0
  1
ＤＡＴＥ
 41
0.923076923077
  7
EXCADSTD
 72
     5
 11
136.001465247253
 21
14.306608253358
 31
0.0
100
AcDbText
  0
TEXT
  5
29D1
330
29BF
100
AcDbEntity
  8
図枠細線
  6
CONTINUOUS
 62
   252
100
AcDbText
 10
122.066415498841
 20
14.306608253358
 30
0.0
 40
2.0
  1
日付
 41
1.171875
  7
EXCADSTD
 72
     5
 11
127.066415498841
 21
14.306608253358
 31
0.0
100
AcDbText
  0
TEXT
  5
29D2
330
29BF
100
AcDbEntity
  8
図枠細線
  6
CONTINUOUS
 62
   252
100
AcDbText
 10
121.59429406571
 20
29.306608253358
 30
0.0
 40
2.0
  1
製図
 41
1.209677419355
  7
EXCADSTD
 72
     5
 11
126.59429406571
 21
29.306608253358
 31
0.0
100
AcDbText
  0
TEXT
  5
29D3
330
29BF
100
AcDbEntity
  8
図枠細線
  6
CONTINUOUS
 62
   252
100
AcDbText
 10
121.59429406571
 20
26.806608253358
 30
0.0
 40
2.0
  1
ＤＲＡＷＮ
 41
0.882352941176
  7
EXCADSTD
 72
     5
 11
131.59429406571
 21
26.806608253358
 31
0.0
100
AcDbText
  0
TEXT
  5
29D4
330
29BF
100
AcDbEntity
  8
図枠細線
  6
CONTINUOUS
 62
   252
100
AcDbText
 10
226.591229661348
 20
14.306608253358
 30
0.0
 40
2.0
  1
ＤＲＧ．ＮＯ．
 41
0.9375
  7
EXCADSTD
 72
     5
 11
240.591229661348
 21
14.306608253358
 31
0.0
100
AcDbText
  0
LINE
  5
29D5
330
29BF
100
AcDbEntity
  8
図枠太線
  6
CONTINUOUS
 62
   251
100
AcDbLine
 10
144.061003071051
 20
16.806606253358
 30
0.0
 11
214.061011071051
 21
16.806606253358
 31
0.0
  0
LINE
  5
29D6
330
29BF
100
AcDbEntity
  8
図枠細線
  6
CONTINUOUS
 62
   252
100
AcDbLine
 10
144.061011071051
 20
24.306606253358
 30
0.0
 11
214.061011071051
 21
24.306606253358
 31
0.0
  0
TEXT
  5
29D7
330
29BF
100
AcDbEntity
  8
図枠ロゴマーク
  6
CONTINUOUS
 62
   253
100
AcDbText
 10
146.433776781596
 20
8.399000253358
 30
0.0
 40
7.0
  1
東和制電工業株式会社
 41
0.80361088462
  7
EXCADSTD
 72
     5
 11
212.437017438349
 21
8.399000253358
 31
0.0
100
AcDbText
  0
TEXT
  5
29D8
330
29BF
100
AcDbEntity
  8
図枠細線
  6
CONTINUOUS
 62
   252
100
AcDbText
 10
215.156179912936
 20
14.306608253358
 30
0.0
 40
2.0
  1
図面番号
 41
1.102941176471
  7
EXCADSTD
 72
     5
 11
225.156179912936
 21
14.306608253358
 31
0.0
100
AcDbText
  0
TEXT
  5
29D9
330
29BF
100
AcDbEntity
  8
図枠細線
  6
CONTINUOUS
 62
   252
100
AcDbText
 10
221.591229661348
 20
29.306608253358
 30
0.0
 40
2.0
  1
ＴＩＴＬＥ
 41
0.903614457831
  7
EXCADSTD
 72
     5
 11
231.591229661348
 21
29.306608253358
 31
0.0
100
AcDbText
  0
TEXT
  5
29DA
330
29BF
100
AcDbEntity
  8
図枠細線
  6
CONTINUOUS
 62
   252
100
AcDbText
 10
215.156179912936
 20
29.306608253358
 30
0.0
 40
2.0
  1
名称
 41
1.171875
  7
EXCADSTD
 72
     5
 11
220.156179912936
 21
29.306608253358
 31
0.0
100
AcDbText
  0
LINE
  5
29DB
330
29BF
100
AcDbEntity
  8
図枠太線
  6
CONTINUOUS
 62
   251
100
AcDbLine
 10
4.061011071051
 20
1.806608253358
 30
0.0
 11
284.061011071051
 21
1.806608253358
 31
0.0
  0
LINE
  5
29DC
330
29BF
100
AcDbEntity
  8
図枠細線
  6
CONTINUOUS
 62
   252
100
AcDbLine
 10
4.061011071051
 20
6.806608253358
 30
0.0
 11
75.061011071051
 21
6.806608253358
 31
0.0
  0
LINE
  5
29DD
330
29BF
100
AcDbEntity
  8
図枠太線
  6
CONTINUOUS
 62
   251
100
AcDbLine
 10
75.061011071051
 20
1.806608253358
 30
0.0
 11
75.061011071051
 21
31.806606253358
 31
0.0
  0
TEXT
  5
29DE
330
29BF
100
AcDbEntity
  8
図枠細線
  6
CONTINUOUS
 62
   252
100
AcDbText
 10
76.330551827713
 20
6.638319253358
 30
0.0
 40
2.0
  1
ＰＲＯＪＥＣＴＩＯＮ
 41
0.754285710199
  7
EXCADSTD
 72
     5
 11
93.930551732346
 21
6.638319253358
 31
0.0
100
AcDbText
  0
LINE
  5
29DF
330
29BF
100
AcDbEntity
  8
図枠細線
  6
CONTINUOUS
 62
   252
100
AcDbLine
 10
98.061011071051
 20
1.806606931929
 30
0.0
 11
98.061011071051
 21
16.806604931929
 31
0.0
  0
LINE
  5
29E0
330
29BF
100
AcDbEntity
  8
図枠細線
  6
CONTINUOUS
 62
   252
100
AcDbLine
 10
121.061011071051
 20
1.806607574787
 30
0.0
 11
121.061011071051
 21
16.806605574787
 31
0.0
  0
LINE
  5
29E1
330
29BF
100
AcDbEntity
  8
図枠太線
  6
CONTINUOUS
 62
   251
100
AcDbLine
 10
284.061011071051
 20
1.806608253358
 30
0.0
 11
284.061011071051
 21
31.806606253358
 31
0.0
  0
LINE
  5
29E2
330
29BF
100
AcDbEntity
  8
図枠細線
  6
CONTINUOUS
 62
   252
100
AcDbLine
 10
214.061011071051
 20
16.806606253358
 30
0.0
 11
284.061011071051
 21
16.806606253358
 31
0.0
  0
TEXT
  5
29E3
330
29BF
100
AcDbEntity
  8
図枠細線
  6
CONTINUOUS
 62
   252
100
AcDbText
 10
146.199593676182
 20
3.454099253358
 30
0.0
 40
3.5
  1
ＴＯＷＡ　ＳＥＩＤＥＮ　ＩＮＤＵＳＴＲＩＡＬ　ＣＯ．，ＬＴＤ．
 41
0.528937826907
  7
EXCADSTD
 72
     5
 11
213.339435171588
 21
3.454099253358
 31
0.0
100
AcDbText
  0
LINE
  5
29E4
330
29BF
100
AcDbEntity
  8
図枠太線
  6
CONTINUOUS
 62
   251
100
AcDbLine
 10
144.061011071051
 20
1.806608253358
 30
0.0
 11
144.061011071051
 21
31.806606253358
 31
0.0
  0
LINE
  5
29E5
330
29BF
100
AcDbEntity
  8
図枠太線
  6
CONTINUOUS
 62
   251
100
AcDbLine
 10
214.061011071051
 20
1.806608253358
 30
0.0
 11
214.061011071051
 21
31.806606253358
 31
0.0
  0
MTEXT
  5
29E6
330
29BF
100
AcDbEntity
  8
図枠太線
100
AcDbMText
 10
5.064337346478
 20
31.010982137407
 30
0.0
 40
2.5
 41
8.67856098472
 71
     1
 72
     5
  1
{\Fmonotxt.shx,bigfont.shx|c128;図暦}
  0
LINE
  5
29E7
330
29BF
100
AcDbEntity
  8
図枠太線
  6
CONTINUOUS
 62
   251
100
AcDbLine
 10
4.061011071051
 20
1.806608253358
 30
0.0
 11
4.061011071051
 21
31.806606253358
 31
0.0
  0
TEXT
  5
29E8
330
29BF
100
AcDbEntity
  8
図枠細線
 48
10.0
100
AcDbText
 10
12.260817420402
 20
28.625419626495
 30
0.0
 40
2.0
  1
CHANGE NOTICE
100
AcDbText
  0
ENDBLK
  5
29E9
330
29BF
100
AcDbEntity
  8
0
100
AcDbBlockEnd
  0
BLOCK
  5
29F5
330
29F4
100
AcDbEntity
  8
0
100
AcDbBlockBegin
  2
A4縦用_タイトル
 70
     0
 10
0.0
 20
0.0
 30
0.0
  3
A4縦用_タイトル
  1

  0
LINE
  5
29F6
330
29F4
100
AcDbEntity
  8
図枠太線
  6
CONTINUOUS
 62
   251
100
AcDbLine
 10
2.368253864267
 20
4.525433224584
 30
0.0
 11
192.368245864267
 21
4.525433224584
 31
0.0
  0
LINE
  5
29F7
330
29F4
100
AcDbEntity
  8
図枠太線
  6
CONTINUOUS
 62
   251
100
AcDbLine
 10
78.368245864267
 20
19.525431224584
 30
0.0
 11
135.368253864267
 21
19.525431224584
 31
0.0
  0
LINE
  5
29F8
330
29F4
100
AcDbEntity
  8
図枠細線
  6
CONTINUOUS
 62
   252
100
AcDbLine
 10
78.368253864267
 20
27.025431224584
 30
0.0
 11
135.368253864267
 21
27.025431224584
 31
0.0
  0
TEXT
  5
29F9
330
29F4
100
AcDbEntity
  8
図枠ロゴマーク
  6
CONTINUOUS
 62
   253
100
AcDbText
 10
80.617009864267
 20
11.117825224584
 30
0.0
 40
7.0
  1
東和制電工業株式会社
 41
0.639204545455
  7
EXCADSTD
 72
     5
 11
133.117009864267
 21
11.117825224584
 31
0.0
100
AcDbText
  0
TEXT
  5
29FA
330
29F4
100
AcDbEntity
  8
図枠細線
  6
CONTINUOUS
 62
   252
100
AcDbText
 10
80.579549864267
 20
6.172924224584
 30
0.0
 40
3.5
  1
ＴＯＷＡ　ＳＥＩＤＥＮ　ＩＮＤＵＳＴＲＩＡＬ　ＣＯ．，ＬＴＤ．
 41
0.414568012377
  7
EXCADSTD
 72
     5
 11
133.202049568628
 21
6.172924224584
 31
0.0
100
AcDbText
  0
LINE
  5
29FB
330
29F4
100
AcDbEntity
  8
図枠太線
  6
CONTINUOUS
 62
   251
100
AcDbLine
 10
2.368253864267
 20
4.525433224584
 30
0.0
 11
2.368253864267
 21
34.525431224584
 31
0.0
  0
TEXT
  5
29FC
330
29F4
100
AcDbEntity
  8
図枠細線
  6
CONTINUOUS
 62
   252
100
AcDbText
 10
22.504308136501
 20
12.279133224584
 30
0.0
 40
2.0
  1
ＴＨＩＲＤ　ＡＮＧＬＥ
 41
0.691099486738
  7
EXCADSTD
 72
     5
 11
40.104308398762
 21
12.279133224584
 31
0.0
100
AcDbText
  0
TEXT
  5
29FD
330
29F4
100
AcDbEntity
  8
図枠細線
  6
CONTINUOUS
 62
   252
100
AcDbText
 10
22.429384136501
 20
9.357144224584
 30
0.0
 40
2.0
  1
ＰＲＯＪＥＣＴＩＯＮ
 41
0.754285710199
  7
EXCADSTD
 72
     5
 11
40.029384041134
 21
9.357144224584
 31
0.0
100
AcDbText
  0
LINE
  5
29FE
330
29F4
100
AcDbEntity
  8
図枠細線
  6
CONTINUOUS
100
AcDbLine
 10
22.368253864267
 20
19.525433224584
 30
0.0
 11
78.368253864267
 21
19.525431224584
 31
0.0
  0
TEXT
  5
29FF
330
29F4
100
AcDbEntity
  8
図枠細線
  6
CONTINUOUS
 62
   252
100
AcDbText
 10
22.868253864267
 20
17.025433224584
 30
0.0
 40
2.0
  1
第三角法
 41
1.102941176471
  7
EXCADSTD
 72
     5
 11
32.868253864267
 21
17.025433224584
 31
0.0
100
AcDbText
  0
TEXT
  5
2A00
330
29F4
100
AcDbEntity
  8
図枠細線
  6
CONTINUOUS
 62
   252
100
AcDbText
 10
22.868253864267
 20
29.525433224584
 30
0.0
 40
2.0
  1
ＡＰＰＲＯＶＥＤ
 41
0.695652184279
  7
EXCADSTD
 72
     5
 11
35.668254055002
 21
29.525433224584
 31
0.0
100
AcDbText
  0
LINE
  5
2A01
330
29F4
100
AcDbEntity
  8
図枠細線
  6
CONTINUOUS
 62
   252
100
AcDbLine
 10
2.368253864267
 20
9.525433224584
 30
0.0
 11
22.368253864267
 21
9.525433224584
 31
0.0
  0
LINE
  5
2A02
330
29F4
100
AcDbEntity
  8
図枠細線
  6
CONTINUOUS
 62
   252
100
AcDbLine
 10
2.368253864267
 20
14.525431224584
 30
0.0
 11
22.368253864267
 21
14.525431224584
 31
0.0
  0
LINE
  5
2A03
330
29F4
100
AcDbEntity
  8
図枠細線
  6
CONTINUOUS
 62
   252
100
AcDbLine
 10
2.368253864267
 20
24.525431224584
 30
0.0
 11
22.368253864267
 21
24.525431224584
 31
0.0
  0
LINE
  5
2A04
330
29F4
100
AcDbEntity
  8
図枠細線
  6
CONTINUOUS
 62
   252
100
AcDbLine
 10
2.368253864267
 20
29.525431224584
 30
0.0
 11
22.368253864267
 21
29.525431224584
 31
0.0
  0
LINE
  5
2A05
330
29F4
100
AcDbEntity
  8
図枠細線
  6
CONTINUOUS
100
AcDbLine
 10
2.368253864267
 20
19.525433224584
 30
0.0
 11
22.368253864267
 21
19.525433224584
 31
0.0
  0
TEXT
  5
2A06
330
29F4
100
AcDbEntity
  8
図枠細線
  6
CONTINUOUS
 62
   252
100
AcDbText
 10
2.868253864267
 20
32.025433224584
 30
0.0
 40
2.0
  1
ＮＯＴＥ
 41
0.923076923077
  7
EXCADSTD
 72
     5
 11
10.868253864267
 21
32.025433224584
 31
0.0
100
AcDbText
  0
LINE
  5
2A07
330
29F4
100
AcDbEntity
  8
図枠太線
  6
CONTINUOUS
 62
   251
100
AcDbLine
 10
22.368253864267
 20
4.525433224584
 30
0.0
 11
22.368253864267
 21
34.525431224584
 31
0.0
  0
TEXT
  5
2A08
330
29F4
100
AcDbEntity
  8
図枠細線
  6
CONTINUOUS
 62
   252
100
AcDbText
 10
22.868253864267
 20
32.025433224584
 30
0.0
 40
2.0
  1
承認
 41
1.171875
  7
EXCADSTD
 72
     5
 11
27.868253864267
 21
32.025433224584
 31
0.0
100
AcDbText
  0
TEXT
  5
2A09
330
29F4
100
AcDbEntity
  8
図枠細線
  6
CONTINUOUS
 62
   252
100
AcDbText
 10
60.711709035982
 20
32.025433224584
 30
0.0
 40
2.0
  1
製図
 41
1.209677419355
  7
EXCADSTD
 72
     5
 11
65.711709035982
 21
32.025433224584
 31
0.0
100
AcDbText
  0
TEXT
  5
2A0A
330
29F4
100
AcDbEntity
  8
図枠細線
  6
CONTINUOUS
 62
   252
100
AcDbText
 10
60.711709035982
 20
29.525433224584
 30
0.0
 40
2.0
  1
ＤＲＡＷＮ
 41
0.882352941176
  7
EXCADSTD
 72
     5
 11
70.711709035982
 21
29.525433224584
 31
0.0
100
AcDbText
  0
TEXT
  5
2A0B
330
29F4
100
AcDbEntity
  8
図枠細線
  6
CONTINUOUS
 62
   252
100
AcDbText
 10
60.834891743877
 20
17.025433224584
 30
0.0
 40
2.0
  1
日付
 41
1.171875
  7
EXCADSTD
 72
     5
 11
65.834891743877
 21
17.025433224584
 31
0.0
100
AcDbText
  0
TEXT
  5
2A0C
330
29F4
100
AcDbEntity
  8
図枠細線
  6
CONTINUOUS
 62
   252
100
AcDbText
 10
47.333660864267
 20
17.025433224584
 30
0.0
 40
2.0
  1
ＳＣＡＬＥ
 41
0.903614457831
  7
EXCADSTD
 72
     5
 11
57.333660864267
 21
17.025433224584
 31
0.0
100
AcDbText
  0
TEXT
  5
2A0D
330
29F4
100
AcDbEntity
  8
図枠細線
  6
CONTINUOUS
 62
   252
100
AcDbText
 10
42.281425990082
 20
29.525433224584
 30
0.0
 40
2.0
  1
ＣＨＥＣＫＥＤ
 41
0.831249989569
  7
EXCADSTD
 72
     5
 11
55.581425823189
 21
29.525433224584
 31
0.0
100
AcDbText
  0
LINE
  5
2A0E
330
29F4
100
AcDbEntity
  8
図枠細線
  6
CONTINUOUS
 62
   252
100
AcDbLine
 10
40.968253864267
 20
34.525431224584
 30
0.0
 11
40.968253864267
 21
19.525431224584
 31
0.0
  0
LINE
  5
2A0F
330
29F4
100
AcDbEntity
  8
図枠細線
  6
CONTINUOUS
 62
   252
100
AcDbLine
 10
40.968253864267
 20
4.525433224584
 30
0.0
 11
40.968253864267
 21
19.525431224584
 31
0.0
  0
TEXT
  5
2A10
330
29F4
100
AcDbEntity
  8
図枠細線
  6
CONTINUOUS
 62
   252
100
AcDbText
 10
41.961173864267
 20
17.025433224584
 30
0.0
 40
2.0
  1
尺度
 41
1.171875
  7
EXCADSTD
 72
     5
 11
46.961173864267
 21
17.025433224584
 31
0.0
100
AcDbText
  0
TEXT
  5
2A11
330
29F4
100
AcDbEntity
  8
図枠細線
  6
CONTINUOUS
 62
   252
100
AcDbText
 10
42.281425990082
 20
32.025433224584
 30
0.0
 40
2.0
  1
検図
 41
1.209677419355
  7
EXCADSTD
 72
     5
 11
47.281425990082
 21
32.025433224584
 31
0.0
100
AcDbText
  0
LINE
  5
2A12
330
29F4
100
AcDbEntity
  8
図枠細線
  6
CONTINUOUS
 62
   252
100
AcDbLine
 10
59.768253864267
 20
34.525431224584
 30
0.0
 11
59.768253864267
 21
19.525431224584
 31
0.0
  0
LINE
  5
2A13
330
29F4
100
AcDbEntity
  8
図枠細線
  6
CONTINUOUS
 62
   252
100
AcDbLine
 10
59.768253864267
 20
4.525433224584
 30
0.0
 11
59.768253864267
 21
19.525431224584
 31
0.0
  0
LINE
  5
2A14
330
29F4
100
AcDbEntity
  8
図枠太線
  6
CONTINUOUS
 62
   251
100
AcDbLine
 10
78.368253864267
 20
4.525433224584
 30
0.0
 11
78.368253864267
 21
34.525431224584
 31
0.0
  0
TEXT
  5
2A15
330
29F4
100
AcDbEntity
  8
図枠細線
  6
CONTINUOUS
 62
   252
100
AcDbText
 10
66.334891743877
 20
17.025433224584
 30
0.0
 40
2.0
  1
ＤＡＴＥ
 41
0.923076923077
  7
EXCADSTD
 72
     5
 11
74.334891743877
 21
17.025433224584
 31
0.0
100
AcDbText
  0
LINE
  5
2A16
330
29F4
100
AcDbEntity
  8
図枠細線
  6
CONTINUOUS
 62
   252
100
AcDbLine
 10
135.368253864267
 20
19.525431224584
 30
0.0
 11
192.368245864267
 21
19.525431224584
 31
0.0
  0
TEXT
  5
2A17
330
29F4
100
AcDbEntity
  8
図枠細線
  6
CONTINUOUS
 62
   252
100
AcDbText
 10
141.868253864267
 20
32.025433224584
 30
0.0
 40
2.0
  1
ＴＩＴＬＥ
 41
0.903614457831
  7
EXCADSTD
 72
     5
 11
151.868253864267
 21
32.025433224584
 31
0.0
100
AcDbText
  0
LINE
  5
2A18
330
29F4
100
AcDbEntity
  8
図枠太線
  6
CONTINUOUS
 62
   251
100
AcDbLine
 10
135.368253864267
 20
4.525433224584
 30
0.0
 11
135.368253864267
 21
34.525431224584
 31
0.0
  0
TEXT
  5
2A19
330
29F4
100
AcDbEntity
  8
図枠細線
  6
CONTINUOUS
 62
   252
100
AcDbText
 10
135.868253864267
 20
17.025433224584
 30
0.0
 40
2.0
  1
図面番号
 41
1.102941176471
  7
EXCADSTD
 72
     5
 11
145.868253864267
 21
17.025433224584
 31
0.0
100
AcDbText
  0
TEXT
  5
2A1A
330
29F4
100
AcDbEntity
  8
図枠細線
  6
CONTINUOUS
 62
   252
100
AcDbText
 10
135.868253864267
 20
32.025433224584
 30
0.0
 40
2.0
  1
名称
 41
1.171875
  7
EXCADSTD
 72
     5
 11
140.868253864267
 21
32.025433224584
 31
0.0
100
AcDbText
  0
TEXT
  5
2A1B
330
29F4
100
AcDbEntity
  8
図枠細線
  6
CONTINUOUS
 62
   252
100
AcDbText
 10
146.868253864267
 20
17.025433224584
 30
0.0
 40
2.0
  1
ＤＲＧ．ＮＯ．
 41
0.9375
  7
EXCADSTD
 72
     5
 11
160.868253864267
 21
17.025433224584
 31
0.0
100
AcDbText
  0
LINE
  5
2A1C
330
29F4
100
AcDbEntity
  8
図枠太線
  6
CONTINUOUS
 62
   251
100
AcDbLine
 10
192.368245864267
 20
4.525433224584
 30
0.0
 11
192.368245864267
 21
34.525431224584
 31
0.0
  0
ENDBLK
  5
2A1D
330
29F4
100
AcDbEntity
  8
0
100
AcDbBlockEnd
  0
BLOCK
  5
2A33
330
2A32
100
AcDbEntity
  8
0
100
AcDbBlockBegin
  2
A3横用_タイトル
 70
     0
 10
0.0
 20
0.0
 30
0.0
  3
A3横用_タイトル
  1

  0
LINE
  5
2A34
330
2A32
100
AcDbEntity
  8
図枠細線
  6
CONTINUOUS
 62
   252
100
AcDbLine
 10
205.098414535793
 20
33.525959753527
 30
0.0
 11
305.098414535793
 21
33.525959753527
 31
0.0
  0
LINE
  5
2A35
330
2A32
100
AcDbEntity
  8
図枠太線
  6
CONTINUOUS
 62
   251
100
AcDbLine
 10
205.098414535793
 20
23.525959753527
 30
0.0
 11
305.098414535793
 21
23.525959753527
 31
0.0
  0
LINE
  5
2A36
330
2A32
100
AcDbEntity
  8
図枠細線
  6
CONTINUOUS
100
AcDbLine
 10
5.098414535793
 20
23.525959753527
 30
0.0
 11
105.098414535793
 21
23.525959753527
 31
0.0
  0
LINE
  5
2A37
330
2A32
100
AcDbEntity
  8
図枠細線
  6
CONTINUOUS
 62
   252
100
AcDbLine
 10
5.098414535793
 20
36.725957753527
 30
0.0
 11
105.098414535793
 21
36.725957753527
 31
0.0
  0
LINE
  5
2A38
330
2A32
100
AcDbEntity
  8
図枠細線
  6
CONTINUOUS
 62
   252
100
AcDbLine
 10
5.098414535793
 20
30.125957753527
 30
0.0
 11
105.098414535793
 21
30.125957753527
 31
0.0
  0
LINE
  5
2A39
330
2A32
100
AcDbEntity
  8
図枠細線
  6
CONTINUOUS
 62
   252
100
AcDbLine
 10
5.098414535793
 20
16.725959753527
 30
0.0
 11
105.098414535793
 21
16.725959753527
 31
0.0
  0
LINE
  5
2A3A
330
2A32
100
AcDbEntity
  8
図枠細線
  6
CONTINUOUS
 62
   252
100
AcDbLine
 10
5.098414535793
 20
10.125959753527
 30
0.0
 11
105.098414535793
 21
10.125959753527
 31
0.0
  0
LINE
  5
2A3B
330
2A32
100
AcDbEntity
  8
図枠細線
  6
CONTINUOUS
100
AcDbLine
 10
105.098414535793
 20
23.525961753527
 30
0.0
 11
205.098414535793
 21
23.525959753527
 31
0.0
  0
LINE
  5
2A3C
330
2A32
100
AcDbEntity
  8
図枠細線
  6
CONTINUOUS
 62
   252
100
AcDbLine
 10
138.398414535793
 20
43.525959753527
 30
0.0
 11
138.398414535793
 21
18.525957753527
 31
0.0
  0
LINE
  5
2A3D
330
2A32
100
AcDbEntity
  8
図枠細線
  6
CONTINUOUS
 62
   252
100
AcDbLine
 10
171.698414535793
 20
43.525959753527
 30
0.0
 11
171.698414535793
 21
18.525957753527
 31
0.0
  0
LINE
  5
2A3E
330
2A32
100
AcDbEntity
  8
図枠細線
  6
CONTINUOUS
 62
   252
100
AcDbLine
 10
305.098414535793
 20
23.525959753527
 30
0.0
 11
405.098414535793
 21
23.525959753527
 31
0.0
  0
TEXT
  5
2A3F
330
2A32
100
AcDbEntity
  8
図枠ロゴマーク
  6
CONTINUOUS
 62
   253
100
AcDbText
 10
206.102509212755
 20
13.294257570546
 30
0.0
 40
7.0
  1
東和制電工業株式会社
 50
0.016555220185
 41
1.186384129432
  7
EXCADSTD
 72
     5
 11
303.544188309143
 21
13.322412672217
 31
0.0
100
AcDbText
  0
MTEXT
  5
2A40
330
2A32
100
AcDbEntity
  8
図枠細線
100
AcDbMText
 10
6.356764112375
 20
41.976594175478
 30
0.0
 40
2.5
 41
49.938282706292
 71
     1
 72
     5
  1
{\Fmonotxt.shx,bigfont.shx|c128;図暦　CHANGE　NOTICE}
  0
MTEXT
  5
2A41
330
2A32
100
AcDbEntity
  8
図枠細線
 48
10.0
100
AcDbMText
 10
306.544114926828
 20
41.701835800934
 30
0.0
 40
2.5
 41
28.002809618823
 71
     1
 72
     5
  1
{\Fmonotxt.shx,bigfont.shx|c128;名称　TITLE}
  0
MTEXT
  5
2A42
330
2A32
100
AcDbEntity
  8
図枠細線
 48
10.0
100
AcDbMText
 10
307.329617114284
 20
21.606206797226
 30
0.0
 40
2.5
 41
24.385612216707
 71
     1
 72
     5
  1
{\Fmonotxt.shx,bigfont.shx|c128;図面番号\PDRG.　No.}
  0
MTEXT
  5
2A43
330
2A32
100
AcDbEntity
  8
図枠細線
 48
10.0
100
AcDbMText
 10
173.726349404609
 20
21.73680662198
 30
0.0
 40
2.5
 41
25.735090160813
 71
     1
 72
     5
  1
{\Fmonotxt.shx,bigfont.shx|c128;日付 DATE}
  0
MTEXT
  5
2A44
330
2A32
100
AcDbEntity
  8
図枠細線
 48
10.0
100
AcDbMText
 10
173.48708833982
 20
41.621592044998
 30
0.0
 40
2.5
 41
24.983741184205
 71
     1
 72
     5
  1
{\Fmonotxt.shx,bigfont.shx|c128;製図　DRAWN}
  0
MTEXT
  5
2A45
330
2A32
100
AcDbEntity
  8
図枠細線
 48
10.0
100
AcDbMText
 10
139.28009927741
 20
21.866713069868
 30
0.0
 40
2.5
 41
22.629632913243
 71
     1
 72
     5
  1
{\Fmonotxt.shx,bigfont.shx|c128;尺度　SCALE}
  0
MTEXT
  5
2A46
330
2A32
100
AcDbEntity
  8
図枠細線
 48
10.0
100
AcDbMText
 10
139.910091179835
 20
41.311840415554
 30
0.0
 40
2.5
 41
28.998753428368
 71
     1
 72
     5
  1
{\Fmonotxt.shx,bigfont.shx|c128;検図  CHECKED}
  0
MTEXT
  5
2A47
330
2A32
100
AcDbEntity
  8
図枠細線
 48
10.0
100
AcDbMText
 10
114.253294667728
 20
21.916124850174
 30
0.0
 40
3.0
 41
19.692400475383
 71
     1
 72
     5
  1
{\Fmonotxt.shx,bigfont.shx|c128;第三角法}
  0
MTEXT
  5
2A48
330
2A32
100
AcDbEntity
  8
図枠細線
 48
10.0
100
AcDbMText
 10
108.986959929915
 20
15.282880185837
 30
0.0
 40
2.5
 41
27.954882823547
 71
     1
 72
     5
  1
{\Fmonotxt.shx,bigfont.shx|c128;THIRD ANGLE\PPROJECTION}
  0
MTEXT
  5
2A49
330
2A32
100
AcDbEntity
  8
図枠細線
 48
10.0
100
AcDbMText
 10
106.319432640184
 20
41.511437145487
 30
0.0
 40
2.5
 41
28.233595265074
 71
     1
 72
     5
  1
{\Fmonotxt.shx,bigfont.shx|c128;承認 APPROVED}
  0
LINE
  5
2A4A
330
2A32
100
AcDbEntity
  8
図枠太線
  6
CONTINUOUS
 62
   251
100
AcDbLine
 10
5.098414535793
 20
3.525959753527
 30
0.0
 11
405.098414535793
 21
3.525959753527
 31
0.0
  0
LINE
  5
2A4B
330
2A32
100
AcDbEntity
  8
図枠太線
 48
10.0
100
AcDbLine
 10
5.098414535793
 20
3.525959753527
 30
0.0
 11
5.098414535793
 21
43.525959753527
 31
0.0
  0
LINE
  5
2A4C
330
2A32
100
AcDbEntity
  8
図枠太線
  6
CONTINUOUS
 62
   251
100
AcDbLine
 10
105.098414535793
 20
3.525959753527
 30
0.0
 11
105.098414535793
 21
43.525959753527
 31
0.0
  0
LINE
  5
2A4D
330
2A32
100
AcDbEntity
  8
図枠細線
  6
CONTINUOUS
 62
   252
100
AcDbLine
 10
138.398414535793
 20
3.525959753527
 30
0.0
 11
138.398414535793
 21
18.525957753527
 31
0.0
  0
LINE
  5
2A4E
330
2A32
100
AcDbEntity
  8
図枠細線
  6
CONTINUOUS
 62
   252
100
AcDbLine
 10
171.698414535793
 20
3.525959753527
 30
0.0
 11
171.698414535793
 21
18.525957753527
 31
0.0
  0
LINE
  5
2A4F
330
2A32
100
AcDbEntity
  8
図枠太線
  6
CONTINUOUS
 62
   251
100
AcDbLine
 10
205.098414535793
 20
3.525959753527
 30
0.0
 11
205.098414535793
 21
43.525959753527
 31
0.0
  0
LINE
  5
2A50
330
2A32
100
AcDbEntity
  8
図枠太線
 48
10.0
100
AcDbLine
 10
405.098414535793
 20
43.525959753527
 30
0.0
 11
405.098414535793
 21
3.525959753527
 31
0.0
  0
TEXT
  5
2A51
330
2A32
100
AcDbEntity
  8
図枠細線
  6
CONTINUOUS
 62
   252
100
AcDbText
 10
208.519754474572
 20
6.482358407285
 30
0.0
 40
3.5
  1
ＴＯＷＡ　ＳＥＩＤＥＮ　ＩＮＤＵＳＴＲＩＡＬ　ＣＯ．，ＬＴＤ．
 41
0.746656297509
  7
EXCADSTD
 72
     5
 11
303.295327171727
 21
6.482358407285
 31
0.0
100
AcDbText
  0
LINE
  5
2A52
330
2A32
100
AcDbEntity
  8
図枠太線
  6
CONTINUOUS
 62
   251
100
AcDbLine
 10
305.098414535793
 20
3.525959753527
 30
0.0
 11
305.098414535793
 21
43.525959753527
 31
0.0
  0
ENDBLK
  5
2A53
330
2A32
100
AcDbEntity
  8
0
100
AcDbBlockEnd
  0
BLOCK
  5
2A6D
330
2A6C
100
AcDbEntity
  8
0
100
AcDbBlockBegin
  2
A3縦用_タイトル
 70
     0
 10
0.0
 20
0.0
 30
0.0
  3
A3縦用_タイトル
  1

  0
MTEXT
  5
2A6E
330
2A6C
100
AcDbEntity
  8
図枠細線
100
AcDbMText
 10
5.040804501593
 20
31.626098649005
 30
0.0
 40
2.5
 41
49.938282706292
 71
     1
 72
     5
  1
{\Fmonotxt.shx,bigfont.shx|c128;図暦　CHANGE　NOTICE}
  0
LINE
  5
2A6F
330
2A6C
100
AcDbEntity
  8
図枠太線
  6
CONTINUOUS
 62
   251
100
AcDbLine
 10
283.577871882961
 20
2.820844689254
 30
0.0
 11
283.577871882961
 21
32.820842689254
 31
0.0
  0
MTEXT
  5
2A70
330
2A6C
100
AcDbEntity
  8
図枠細線
 48
10.0
100
AcDbMText
 10
214.912458947454
 20
31.621488632308
 30
0.0
 40
2.5
 41
28.002809618823
 71
     1
 72
     5
  1
{\Fmonotxt.shx,bigfont.shx|c128;名称　TITLE}
  0
MTEXT
  5
2A71
330
2A6C
100
AcDbEntity
  8
図枠細線
 48
10.0
100
AcDbMText
 10
214.740030458938
 20
16.310225796722
 30
0.0
 40
2.5
 41
24.385612216707
 71
     1
 72
     5
  1
{\Fmonotxt.shx,bigfont.shx|c128;図面番号\PDRG.　No.}
  0
LINE
  5
2A72
330
2A6C
100
AcDbEntity
  8
図枠太線
  6
CONTINUOUS
 62
   251
100
AcDbLine
 10
213.577871882961
 20
2.820844689254
 30
0.0
 11
213.577871882961
 21
32.820842689254
 31
0.0
  0
LINE
  5
2A73
330
2A6C
100
AcDbEntity
  8
図枠太線
  6
CONTINUOUS
 62
   251
100
AcDbLine
 10
143.577871882961
 20
2.820844689254
 30
0.0
 11
143.577871882961
 21
32.820842689254
 31
0.0
  0
TEXT
  5
2A74
330
2A6C
100
AcDbEntity
  8
図枠細線
  6
CONTINUOUS
 62
   252
100
AcDbText
 10
145.716454488093
 20
4.468335689254
 30
0.0
 40
3.5
  1
ＴＯＷＡ　ＳＥＩＤＥＮ　ＩＮＤＵＳＴＲＩＡＬ　ＣＯ．，ＬＴＤ．
 41
0.528937826907
  7
EXCADSTD
 72
     5
 11
212.856295983498
 21
4.468335689254
 31
0.0
100
AcDbText
  0
TEXT
  5
2A75
330
2A6C
100
AcDbEntity
  8
図枠ロゴマーク
  6
CONTINUOUS
 62
   253
100
AcDbText
 10
145.950637593507
 20
9.413236689254
 30
0.0
 40
7.0
  1
東和制電工業株式会社
 41
0.80361088462
  7
EXCADSTD
 72
     5
 11
211.953878250259
 21
9.413236689254
 31
0.0
100
AcDbText
  0
LINE
  5
2A76
330
2A6C
100
AcDbEntity
  8
図枠細線
  6
CONTINUOUS
 62
   252
100
AcDbLine
 10
143.577871882961
 20
25.320842689254
 30
0.0
 11
213.577871882961
 21
25.320842689254
 31
0.0
  0
LINE
  5
2A77
330
2A6C
100
AcDbEntity
  8
図枠太線
  6
CONTINUOUS
 62
   251
100
AcDbLine
 10
143.577863882961
 20
17.820842689254
 30
0.0
 11
213.577871882961
 21
17.820842689254
 31
0.0
  0
LINE
  5
2A78
330
2A6C
100
AcDbEntity
  8
図枠細線
  6
CONTINUOUS
 62
   252
100
AcDbLine
 10
213.577871882961
 20
17.820842689254
 30
0.0
 11
283.577871882961
 21
17.820842689254
 31
0.0
  0
LINE
  5
2A79
330
2A6C
100
AcDbEntity
  8
図枠細線
  6
CONTINUOUS
 62
   252
100
AcDbLine
 10
120.577871882961
 20
32.820842689254
 30
0.0
 11
120.577871882961
 21
17.820842689254
 31
0.0
  0
MTEXT
  5
2A7A
330
2A6C
100
AcDbEntity
  8
図枠細線
 48
10.0
100
AcDbMText
 10
121.100885670352
 20
16.33785922638
 30
0.0
 40
2.0
 41
17.705978285068
 71
     1
 72
     5
  1
{\Fmonotxt.shx,bigfont.shx|c128;日付 DATE}
  0
MTEXT
  5
2A7B
330
2A6C
100
AcDbEntity
  8
図枠細線
 48
10.0
100
AcDbMText
 10
121.254842273491
 20
31.208993514037
 30
0.0
 40
2.0
 41
18.363799568758
 71
     1
 72
     5
  1
{\Fmonotxt.shx,bigfont.shx|c128;製図　DRAWN}
  0
LINE
  5
2A7C
330
2A6C
100
AcDbEntity
  8
図枠細線
  6
CONTINUOUS
 62
   252
100
AcDbLine
 10
97.577871882961
 20
32.820842689254
 30
0.0
 11
97.577871882961
 21
17.820842689254
 31
0.0
  0
MTEXT
  5
2A7D
330
2A6C
100
AcDbEntity
  8
図枠細線
 48
10.0
100
AcDbMText
 10
98.239734796872
 20
16.467764839281
 30
0.0
 40
2.0
 41
17.757791689903
 71
     1
 72
     5
  1
{\Fmonotxt.shx,bigfont.shx|c128;尺度　SCALE}
  0
MTEXT
  5
2A7E
330
2A6C
100
AcDbEntity
  8
図枠細線
 48
10.0
100
AcDbMText
 10
97.864744625154
 20
31.298433377664
 30
0.0
 40
2.0
 41
23.162655920976
 71
     1
 72
     5
  1
{\Fmonotxt.shx,bigfont.shx|c128;検図  CHECKED}
  0
LINE
  5
2A7F
330
2A6C
100
AcDbEntity
  8
図枠細線
  6
CONTINUOUS
 62
   252
100
AcDbLine
 10
97.577871882961
 20
2.820843367826
 30
0.0
 11
97.577871882961
 21
17.820841367826
 31
0.0
  0
LINE
  5
2A80
330
2A6C
100
AcDbEntity
  8
図枠細線
  6
CONTINUOUS
 62
   252
100
AcDbLine
 10
120.577871882961
 20
2.820844010683
 30
0.0
 11
120.577871882961
 21
17.820842010683
 31
0.0
  0
MTEXT
  5
2A81
330
2A6C
100
AcDbEntity
  8
図枠細線
 48
10.0
100
AcDbMText
 10
81.402399084102
 20
16.316484117426
 30
0.0
 40
2.0
 41
12.920322819369
 71
     1
 72
     5
  1
{\Fmonotxt.shx,bigfont.shx|c128;第三角法}
  0
MTEXT
  5
2A82
330
2A6C
100
AcDbEntity
  8
図枠細線
 48
10.0
100
AcDbMText
 10
75.736576535096
 20
11.080410931319
 30
0.0
 40
2.0
 41
21.072870671471
 71
     1
 72
     5
  1
{\Fmonotxt.shx,bigfont.shx|c128;THIRD ANGLE\PPROJECTION}
  0
LINE
  5
2A83
330
2A6C
100
AcDbEntity
  8
図枠太線
  6
CONTINUOUS
 62
   251
100
AcDbLine
 10
74.577871882961
 20
2.820844689254
 30
0.0
 11
74.577871882961
 21
32.820842689254
 31
0.0
  0
MTEXT
  5
2A84
330
2A6C
100
AcDbEntity
  8
図枠細線
 48
10.0
100
AcDbMText
 10
75.060214781573
 20
31.298434778555
 30
0.0
 40
2.0
 41
22.240928805967
 71
     1
 72
     5
  1
{\Fmonotxt.shx,bigfont.shx|c128;承認 APPROVED}
  0
LINE
  5
2A85
330
2A6C
100
AcDbEntity
  8
図枠細線
  6
CONTINUOUS
100
AcDbLine
 10
3.577871882961
 20
17.820844689254
 30
0.0
 11
74.577871882961
 21
17.820844689254
 31
0.0
  0
LINE
  5
2A86
330
2A6C
100
AcDbEntity
  8
図枠細線
  6
CONTINUOUS
 62
   252
100
AcDbLine
 10
3.577871882961
 20
27.820842689254
 30
0.0
 11
74.577871882961
 21
27.820842689254
 31
0.0
  0
LINE
  5
2A87
330
2A6C
100
AcDbEntity
  8
図枠細線
  6
CONTINUOUS
 62
   252
100
AcDbLine
 10
3.577871882961
 20
22.820842689254
 30
0.0
 11
74.577871882961
 21
22.820842689254
 31
0.0
  0
LINE
  5
2A88
330
2A6C
100
AcDbEntity
  8
図枠細線
  6
CONTINUOUS
 62
   252
100
AcDbLine
 10
3.577871882961
 20
12.820842689254
 30
0.0
 11
74.577871882961
 21
12.820842689254
 31
0.0
  0
LINE
  5
2A89
330
2A6C
100
AcDbEntity
  8
図枠細線
  6
CONTINUOUS
 62
   252
100
AcDbLine
 10
3.577871882961
 20
7.820844689254
 30
0.0
 11
74.577871882961
 21
7.820844689254
 31
0.0
  0
LINE
  5
2A8A
330
2A6C
100
AcDbEntity
  8
図枠細線
  6
CONTINUOUS
100
AcDbLine
 10
74.577871882961
 20
17.820843689254
 30
0.0
 11
143.577871882961
 21
17.820841224969
 31
0.0
  0
LINE
  5
2A8B
330
2A6C
100
AcDbEntity
  8
図枠太線
  6
CONTINUOUS
 62
   251
100
AcDbLine
 10
3.577871882961
 20
2.820844689254
 30
0.0
 11
283.577871882961
 21
2.820844689254
 31
0.0
  0
LINE
  5
2A8C
330
2A6C
100
AcDbEntity
  8
図枠太線
  6
CONTINUOUS
 62
   251
100
AcDbLine
 10
3.577871882961
 20
2.820844689254
 30
0.0
 11
3.577871882961
 21
32.820842689254
 31
0.0
  0
ENDBLK
  5
2A8D
330
2A6C
100
AcDbEntity
  8
0
100
AcDbBlockEnd
  0
BLOCK
  5
2AF8
330
2AF4
100
AcDbEntity
  8
0
 48
10.0
100
AcDbBlockBegin
  2
_OPEN30
 70
     0
 10
0.0
 20
0.0
 30
0.0
  3
_OPEN30
  1

  0
LINE
  5
2AF5
330
2AF4
100
AcDbEntity
  8
0
  6
BYBLOCK
 62
     0
100
AcDbLine
 10
-1.0
 20
0.26794919
 30
0.0
 11
0.0
 21
0.0
 31
0.0
  0
LINE
  5
2AF6
330
2AF4
100
AcDbEntity
  8
0
  6
BYBLOCK
 62
     0
100
AcDbLine
 10
0.0
 20
0.0
 30
0.0
 11
-1.0
 21
-0.26794919
 31
0.0
  0
LINE
  5
2AF7
330
2AF4
100
AcDbEntity
  8
0
  6
BYBLOCK
 62
     0
100
AcDbLine
 10
0.0
 20
0.0
 30
0.0
 11
-1.0
 21
0.0
 31
0.0
  0
ENDBLK
  5
2AF9
330
2AF4
100
AcDbEntity
  8
0
 48
10.0
100
AcDbBlockEnd
  0
BLOCK
  5
46C1
330
46B7
100
AcDbEntity
  8
0
 48
10.0
100
AcDbBlockBegin
  2
*D13
 70
     1
 10
0.0
 20
0.0
 30
0.0
  3
*D13
  1

  0
LINE
  5
4DFF
330
46B7
100
AcDbEntity
  8
寸法線
 62
     0
 48
10.0
100
AcDbLine
 10
307.434851932764
 20
399.003054438411
 30
0.0
 11
307.434851932764
 21
337.941584665002
 31
0.0
  0
LINE
  5
4E00
330
46B7
100
AcDbEntity
  8
寸法線
 62
     0
 48
10.0
100
AcDbLine
 10
332.434851932764
 20
395.751174899345
 30
0.0
 11
332.434851932764
 21
337.941584665002
 31
0.0
  0
LINE
  5
4E01
330
46B7
100
AcDbEntity
  8
寸法線
 62
     0
 48
10.0
100
AcDbLine
 10
313.434851932764
 20
339.191584665002
 30
0.0
 11
326.434851932764
 21
339.191584665002
 31
0.0
  0
INSERT
  5
4E02
330
46B7
100
AcDbEntity
  8
寸法線
 62
     0
100
AcDbBlockReference
  2
_OPEN30
 10
307.434851932764
 20
339.191584665002
 30
0.0
 41
6.0
 42
6.0
 43
6.0
 50
180.0
  0
INSERT
  5
4E03
330
46B7
100
AcDbEntity
  8
寸法線
 62
     0
100
AcDbBlockReference
  2
_OPEN30
 10
332.434851932764
 20
339.191584665002
 30
0.0
 41
6.0
 42
6.0
 43
6.0
  0
MTEXT
  5
4E04
330
46B7
100
AcDbEntity
  8
寸法線
 62
     0
 48
10.0
100
AcDbMText
 10
319.934851932764
 20
343.820751331669
 30
0.0
 40
8.0
 41
0.0
 71
     5
 72
     1
  1
\A1;25
  0
POINT
  5
4E05
330
46B7
100
AcDbEntity
  8
DEFPOINTS
 62
     0
100
AcDbPoint
 10
307.434851932764
 20
399.628054438411
 30
0.0
  0
POINT
  5
4E06
330
46B7
100
AcDbEntity
  8
DEFPOINTS
 62
     0
100
AcDbPoint
 10
332.434851932764
 20
396.376174899345
 30
0.0
  0
POINT
  5
4E07
330
46B7
100
AcDbEntity
  8
DEFPOINTS
 62
     0
100
AcDbPoint
 10
332.434851932764
 20
339.191584665002
 30
0.0
  0
ENDBLK
  5
46C2
330
46B7
100
AcDbEntity
  8
0
 48
10.0
100
AcDbBlockEnd
  0
BLOCK
  5
46CE
330
46C4
100
AcDbEntity
  8
0
 48
10.0
100
AcDbBlockBegin
  2
*D14
 70
     1
 10
0.0
 20
0.0
 30
0.0
  3
*D14
  1

  0
LINE
  5
4DF6
330
46C4
100
AcDbEntity
  8
寸法線
 62
     0
 48
10.0
100
AcDbLine
 10
332.434851932764
 20
395.751174899345
 30
0.0
 11
332.434851932764
 21
337.941584665002
 31
0.0
  0
LINE
  5
4DF7
330
46C4
100
AcDbEntity
  8
寸法線
 62
     0
 48
10.0
100
AcDbLine
 10
352.434851932764
 20
395.751174899345
 30
0.0
 11
352.434851932764
 21
337.941584665002
 31
0.0
  0
LINE
  5
4DF8
330
46C4
100
AcDbEntity
  8
寸法線
 62
     0
 48
10.0
100
AcDbLine
 10
338.434851932764
 20
339.191584665002
 30
0.0
 11
346.434851932764
 21
339.191584665002
 31
0.0
  0
INSERT
  5
4DF9
330
46C4
100
AcDbEntity
  8
寸法線
 62
     0
100
AcDbBlockReference
  2
_OPEN30
 10
332.434851932764
 20
339.191584665002
 30
0.0
 41
6.0
 42
6.0
 43
6.0
 50
180.0
  0
INSERT
  5
4DFA
330
46C4
100
AcDbEntity
  8
寸法線
 62
     0
100
AcDbBlockReference
  2
_OPEN30
 10
352.434851932764
 20
339.191584665002
 30
0.0
 41
6.0
 42
6.0
 43
6.0
  0
MTEXT
  5
4DFB
330
46C4
100
AcDbEntity
  8
寸法線
 62
     0
 48
10.0
100
AcDbMText
 10
342.434851932764
 20
343.820751331669
 30
0.0
 40
8.0
 41
0.0
 71
     5
 72
     1
  1
\A1;20
  0
POINT
  5
4DFC
330
46C4
100
AcDbEntity
  8
DEFPOINTS
 62
     0
100
AcDbPoint
 10
332.434851932764
 20
396.376174899345
 30
0.0
  0
POINT
  5
4DFD
330
46C4
100
AcDbEntity
  8
DEFPOINTS
 62
     0
100
AcDbPoint
 10
352.434851932764
 20
396.376174899345
 30
0.0
  0
POINT
  5
4DFE
330
46C4
100
AcDbEntity
  8
DEFPOINTS
 62
     0
100
AcDbPoint
 10
352.434851932764
 20
339.191584665002
 30
0.0
  0
ENDBLK
  5
46CF
330
46C4
100
AcDbEntity
  8
0
 48
10.0
100
AcDbBlockEnd
  0
BLOCK
  5
46DB
330
46D1
100
AcDbEntity
  8
0
 48
10.0
100
AcDbBlockBegin
  2
*D15
 70
     1
 10
0.0
 20
0.0
 30
0.0
  3
*D15
  1

  0
LINE
  5
4DED
330
46D1
100
AcDbEntity
  8
寸法線
 62
     0
 48
10.0
100
AcDbLine
 10
307.434851932764
 20
399.003054438411
 30
0.0
 11
307.434851932764
 21
316.470708499581
 31
0.0
  0
LINE
  5
4DEE
330
46D1
100
AcDbEntity
  8
寸法線
 62
     0
 48
10.0
100
AcDbLine
 10
352.434851932764
 20
395.751864673344
 30
0.0
 11
352.434851932764
 21
316.470708499581
 31
0.0
  0
LINE
  5
4DEF
330
46D1
100
AcDbEntity
  8
寸法線
 62
     0
 48
10.0
100
AcDbLine
 10
313.434851932764
 20
317.720708499581
 30
0.0
 11
346.434851932764
 21
317.720708499581
 31
0.0
  0
INSERT
  5
4DF0
330
46D1
100
AcDbEntity
  8
寸法線
 62
     0
100
AcDbBlockReference
  2
_OPEN30
 10
307.434851932764
 20
317.720708499581
 30
0.0
 41
6.0
 42
6.0
 43
6.0
 50
180.0
  0
INSERT
  5
4DF1
330
46D1
100
AcDbEntity
  8
寸法線
 62
     0
100
AcDbBlockReference
  2
_OPEN30
 10
352.434851932764
 20
317.720708499581
 30
0.0
 41
6.0
 42
6.0
 43
6.0
  0
MTEXT
  5
4DF2
330
46D1
100
AcDbEntity
  8
寸法線
 62
     0
 48
10.0
100
AcDbMText
 10
329.934851932764
 20
322.345708499581
 30
0.0
 40
8.0
 41
0.0
 71
     5
 72
     1
  1
\A1;45
  0
POINT
  5
4DF3
330
46D1
100
AcDbEntity
  8
DEFPOINTS
 62
     0
100
AcDbPoint
 10
307.434851932764
 20
399.628054438411
 30
0.0
  0
POINT
  5
4DF4
330
46D1
100
AcDbEntity
  8
DEFPOINTS
 62
     0
100
AcDbPoint
 10
352.434851932764
 20
396.376864673344
 30
0.0
  0
POINT
  5
4DF5
330
46D1
100
AcDbEntity
  8
DEFPOINTS
 62
     0
100
AcDbPoint
 10
352.434851932764
 20
317.720708499581
 30
0.0
  0
ENDBLK
  5
46DC
330
46D1
100
AcDbEntity
  8
0
 48
10.0
100
AcDbBlockEnd
  0
BLOCK
  5
46F5
330
46EB
100
AcDbEntity
  8
0
 48
10.0
100
AcDbBlockBegin
  2
*D16
 70
     1
 10
0.0
 20
0.0
 30
0.0
  3
*D16
  1

  0
LINE
  5
4DE4
330
46EB
100
AcDbEntity
  8
寸法線
 62
     0
 48
10.0
100
AcDbLine
 10
352.434851932764
 20
395.751864673344
 30
0.0
 11
352.434851932764
 21
316.470708499581
 31
0.0
  0
LINE
  5
4DE5
330
46EB
100
AcDbEntity
  8
寸法線
 62
     0
 48
10.0
100
AcDbLine
 10
462.434887506439
 20
338.566584665002
 30
0.0
 11
462.434887506439
 21
316.470708499581
 31
0.0
  0
LINE
  5
4DE6
330
46EB
100
AcDbEntity
  8
寸法線
 62
     0
 48
10.0
100
AcDbLine
 10
358.434851932764
 20
317.720708499581
 30
0.0
 11
456.434887506439
 21
317.720708499581
 31
0.0
  0
INSERT
  5
4DE7
330
46EB
100
AcDbEntity
  8
寸法線
 62
     0
100
AcDbBlockReference
  2
_OPEN30
 10
352.434851932764
 20
317.720708499581
 30
0.0
 41
6.0
 42
6.0
 43
6.0
 50
180.0
  0
INSERT
  5
4DE8
330
46EB
100
AcDbEntity
  8
寸法線
 62
     0
100
AcDbBlockReference
  2
_OPEN30
 10
462.434887506439
 20
317.720708499581
 30
0.0
 41
6.0
 42
6.0
 43
6.0
  0
MTEXT
  5
4DE9
330
46EB
100
AcDbEntity
  8
寸法線
 62
     0
 48
10.0
100
AcDbMText
 10
407.434869719601
 20
322.345708499581
 30
0.0
 40
8.0
 41
0.0
 71
     5
 72
     1
  1
\A1;110
  0
POINT
  5
4DEA
330
46EB
100
AcDbEntity
  8
DEFPOINTS
 62
     0
100
AcDbPoint
 10
352.434851932764
 20
396.376864673344
 30
0.0
  0
POINT
  5
4DEB
330
46EB
100
AcDbEntity
  8
DEFPOINTS
 62
     0
100
AcDbPoint
 10
462.434887506439
 20
339.191584665002
 30
0.0
  0
POINT
  5
4DEC
330
46EB
100
AcDbEntity
  8
DEFPOINTS
 62
     0
100
AcDbPoint
 10
462.434887506439
 20
317.720708499581
 30
0.0
  0
ENDBLK
  5
46F6
330
46EB
100
AcDbEntity
  8
0
 48
10.0
100
AcDbBlockEnd
  0
BLOCK
  5
47DC
330
47DB
100
AcDbEntity
  8
0
 48
10.0
100
AcDbBlockBegin
  2
静電容量センサ
 70
     0
 10
0.0
 20
0.0
 30
0.0
  3
静電容量センサ
  1

  0
ARC
  5
47DD
330
47DB
100
AcDbEntity
  8
外形線
 48
10.0
100
AcDbCircle
 10
1021.898525663106
 20
1073.412780408912
 30
0.0
 40
1.0
100
AcDbArc
 50
180.0
 51
268.999999999998
  0
ARC
  5
47DE
330
47DB
100
AcDbEntity
  8
外形線
 48
10.0
100
AcDbCircle
 10
1021.898525663106
 20
1115.960781516243
 30
0.0
 40
1.0
100
AcDbArc
 50
91.000000000002
 51
180.0
  0
LINE
  5
47DF
330
47DB
100
AcDbEntity
  8
外形線
 48
10.0
100
AcDbLine
 10
1020.898525663106
 20
1115.960781516243
 30
0.0
 11
1020.898525663106
 21
1073.412780408912
 31
0.0
  0
LINE
  5
47E0
330
47DB
100
AcDbEntity
  8
外形線
 48
10.0
100
AcDbLine
 10
1035.026308504175
 20
1117.944859066978
 30
0.0
 11
1041.278741748243
 21
1143.02199911049
 31
0.0
  0
ARC
  5
47E1
330
47DB
100
AcDbEntity
  8
外形線
 48
10.0
100
AcDbCircle
 10
1046.130220379623
 20
1141.812389632491
 30
0.0
 40
5.0
100
AcDbArc
 50
91.3
 51
166.000000000004
  0
ARC
  5
47E2
330
47DB
100
AcDbEntity
  8
外形線
 48
10.0
100
AcDbCircle
 10
1034.056012777899
 20
1118.186780962578
 30
0.0
 40
1.0
100
AcDbArc
 50
270.0
 51
346.000000000004
  0
ARC
  5
47E3
330
47DB
100
AcDbEntity
  8
外形線
 48
10.0
100
AcDbCircle
 10
1034.056012777899
 20
1118.186780962578
 30
0.0
 40
1.0
100
AcDbArc
 50
270.0
 51
346.000000000004
  0
LINE
  5
47E4
330
47DB
100
AcDbEntity
  8
外形線
 48
10.0
100
AcDbLine
 10
1021.881073256669
 20
1116.960629211399
 30
0.0
 11
1034.056012777899
 21
1117.186780962578
 31
0.0
  0
ARC
  5
47E5
330
47DB
100
AcDbEntity
  8
外形線
 48
10.0
100
AcDbCircle
 10
1122.899564892808
 20
1151.93622955513
 30
0.0
 40
0.5
100
AcDbArc
 50
359.999254274584
 51
88.999999999998
  0
ARC
  5
47E6
330
47DB
100
AcDbEntity
  8
細線
 48
10.0
100
AcDbCircle
 10
1123.898525663106
 20
1107.819822714047
 30
0.0
 40
0.5
100
AcDbArc
 50
180.0
 51
264.089361084595
  0
ARC
  5
47E7
330
47DB
100
AcDbEntity
  8
外形線
 48
10.0
100
AcDbCircle
 10
1123.898525663106
 20
1100.44543233102
 30
0.0
 40
0.5
100
AcDbArc
 50
91.000000000002
 51
180.0
  0
ARC
  5
47E8
330
47DB
100
AcDbEntity
  8
細線
 48
10.0
100
AcDbCircle
 10
1123.898525663106
 20
1108.078641759149
 30
0.0
 40
0.5
100
AcDbArc
 50
180.0
 51
264.089361084595
  0
ARC
  5
47E9
330
47DB
100
AcDbEntity
  8
細線
 48
10.0
100
AcDbCircle
 10
1123.898525663106
 20
1129.71320712675
 30
0.0
 40
0.5
100
AcDbArc
 50
180.0
 51
254.206830951738
  0
ARC
  5
47EA
330
47DB
100
AcDbEntity
  8
細線
 48
10.0
100
AcDbCircle
 10
1123.898525663106
 20
1130.420313907937
 30
0.0
 40
0.5
100
AcDbArc
 50
180.0
 51
254.206830951738
  0
ARC
  5
47EB
330
47DB
100
AcDbEntity
  8
細線
 48
10.0
100
AcDbCircle
 10
1123.898525663106
 20
1142.359984147006
 30
0.0
 40
0.5
100
AcDbArc
 50
180.0
 51
248.874947125989
  0
ARC
  5
47EC
330
47DB
100
AcDbEntity
  8
細線
 48
10.0
100
AcDbCircle
 10
1123.898525663106
 20
1143.325909973296
 30
0.0
 40
0.5
100
AcDbArc
 50
180.0
 51
248.874947125989
  0
ARC
  5
47ED
330
47DB
100
AcDbEntity
  8
外形線
 48
10.0
100
AcDbCircle
 10
1123.898413585187
 20
1144.632076415673
 30
0.0
 40
0.5
100
AcDbArc
 50
180.019033969455
 51
248.025023881972
  0
LINE
  5
47EE
330
47DB
100
AcDbEntity
  8
外形線
 48
10.0
100
AcDbLine
 10
1123.398525663106
 20
1143.325909973296
 30
0.0
 11
1123.398525663106
 21
1144.294618045039
 31
0.0
  0
LINE
  5
47EF
330
47DB
100
AcDbEntity
  8
外形線
 48
10.0
100
AcDbLine
 10
1123.398525663106
 20
1142.359984147006
 30
0.0
 11
1123.398525663106
 21
1142.98307227703
 31
0.0
  0
LINE
  5
47F0
330
47DB
100
AcDbEntity
  8
外形線
 48
10.0
100
AcDbLine
 10
1123.398525663106
 20
1130.420313907937
 30
0.0
 11
1123.398525663106
 21
1142.017146450741
 31
0.0
  0
LINE
  5
47F1
330
47DB
100
AcDbEntity
  8
外形線
 48
10.0
100
AcDbLine
 10
1123.398525663106
 20
1129.71320712675
 30
0.0
 11
1123.398525663106
 21
1130.042120021904
 31
0.0
  0
LINE
  5
47F2
330
47DB
100
AcDbEntity
  8
外形線
 48
10.0
100
AcDbLine
 10
1123.398525663106
 20
1108.078641759149
 30
0.0
 11
1123.398525663106
 21
1130.420313907937
 31
0.0
  0
LINE
  5
47F3
330
47DB
100
AcDbEntity
  8
外形線
 48
10.0
100
AcDbLine
 10
1123.398525663106
 20
1107.819822714047
 30
0.0
 11
1123.398525663106
 21
1108.700149198143
 31
0.0
  0
LINE
  5
47F4
330
47DB
100
AcDbEntity
  8
外形線
 48
10.0
100
AcDbLine
 10
1123.398525663106
 20
1100.44543233102
 30
0.0
 11
1123.398525663106
 21
1108.078641759149
 31
0.0
  0
ARC
  5
47F5
330
47DB
100
AcDbEntity
  8
外形線
 48
10.0
100
AcDbCircle
 10
1123.898525663106
 20
1088.928129594135
 30
0.0
 40
0.5
100
AcDbArc
 50
180.0
 51
268.999999999998
  0
LINE
  5
47F6
330
47DB
100
AcDbEntity
  8
外形線
 48
10.0
100
AcDbLine
 10
1123.398525663106
 20
1088.928129594135
 30
0.0
 11
1123.398525663106
 21
1100.44543233102
 31
0.0
  0
ARC
  5
47F7
330
47DB
100
AcDbEntity
  8
外形線
 48
10.0
100
AcDbCircle
 10
1135.396646406818
 20
1087.727276821958
 30
0.0
 40
0.5
100
AcDbArc
 50
0.002863323129
 51
88.999999999998
  0
ARC
  5
47F8
330
47DB
100
AcDbEntity
  8
外形線
 48
10.0
100
AcDbCircle
 10
1135.396646406818
 20
1101.646285103198
 30
0.0
 40
0.5
100
AcDbArc
 50
271.000000000002
 51
359.997136676878
  0
ARC
  5
47F9
330
47DB
100
AcDbEntity
  8
細線
 48
10.0
100
AcDbCircle
 10
1135.398359871226
 20
1105.882746614783
 30
0.0
 40
0.5
100
AcDbArc
 50
359.978936747976
 51
84.089361084595
  0
ARC
  5
47FA
330
47DB
100
AcDbEntity
  8
細線
 48
10.0
100
AcDbCircle
 10
1135.396845195015
 20
1105.6240843805
 30
0.0
 40
0.5
100
AcDbArc
 50
359.997136676878
 51
84.089361084595
  0
ARC
  5
47FB
330
47DB
100
AcDbEntity
  8
細線
 48
10.0
100
AcDbCircle
 10
1135.398405428356
 20
1136.84472607817
 30
0.0
 40
0.5
100
AcDbArc
 50
359.997136676878
 51
68.874947125989
  0
ARC
  5
47FC
330
47DB
100
AcDbEntity
  8
細線
 48
10.0
100
AcDbCircle
 10
1135.398453699003
 20
1137.810633254114
 30
0.0
 40
0.5
100
AcDbArc
 50
359.997136676878
 51
68.874947125989
  0
ARC
  5
47FD
330
47DB
100
AcDbEntity
  8
外形線
 48
10.0
100
AcDbCircle
 10
1135.398508800797
 20
1138.913233296621
 30
0.0
 40
0.5
100
AcDbArc
 50
359.997136676878
 51
68.025023881972
  0
LINE
  5
47FE
330
47DB
100
AcDbEntity
  8
外形線
 48
10.0
100
AcDbLine
 10
1135.405372610037
 20
1101.146361255619
 30
0.0
 11
1123.889799459887
 21
1100.945356178598
 31
0.0
  0
LINE
  5
47FF
330
47DB
100
AcDbEntity
  8
外形線
 48
10.0
100
AcDbLine
 10
1135.405372610037
 20
1088.227200669536
 30
0.0
 11
1123.889799459887
 21
1088.428205746557
 31
0.0
  0
LINE
  5
4800
330
47DB
100
AcDbEntity
  8
外形線
 48
10.0
100
AcDbLine
 10
1123.711312779708
 20
1144.168402728055
 30
0.0
 11
1135.585609606275
 21
1139.376906984239
 31
0.0
  0
LINE
  5
4801
330
47DB
100
AcDbEntity
  8
細線
 48
10.0
100
AcDbLine
 10
1135.448333812772
 20
1106.121426237015
 30
0.0
 11
1123.847037045349
 21
1107.322480857532
 31
0.0
  0
LINE
  5
4802
330
47DB
100
AcDbEntity
  8
細線
 48
10.0
100
AcDbLine
 10
1135.449848488983
 20
1106.380088471297
 30
0.0
 11
1123.847037045349
 21
1107.581299902634
 31
0.0
  0
LINE
  5
4803
330
47DB
100
AcDbEntity
  8
細線
 48
10.0
100
AcDbLine
 10
1135.533952658586
 20
1126.609702933466
 30
0.0
 11
1123.762442899618
 21
1129.939188683612
 31
0.0
  0
LINE
  5
4804
330
47DB
100
AcDbEntity
  8
細線
 48
10.0
100
AcDbLine
 10
1135.578607784566
 20
1137.311124095764
 30
0.0
 11
1123.718323306896
 21
1141.893586129411
 31
0.0
  0
LINE
  5
4805
330
47DB
100
AcDbEntity
  8
細線
 48
10.0
100
AcDbLine
 10
1135.578656055213
 20
1138.277031271709
 30
0.0
 11
1123.718323306896
 21
1142.859511955701
 31
0.0
  0
LINE
  5
4806
330
47DB
100
AcDbEntity
  8
外形線
 48
10.0
100
AcDbLine
 10
1108.899561566736
 20
1152.686780962578
 30
0.0
 11
1122.908291096026
 21
1152.436153402709
 31
0.0
  0
LINE
  5
4807
330
47DB
100
AcDbEntity
  8
外形線
 48
10.0
100
AcDbLine
 10
1108.899561566736
 20
1152.686780962578
 30
0.0
 11
1108.399561566736
 21
1152.180676686204
 31
0.0
  0
LINE
  5
4808
330
47DB
100
AcDbEntity
  8
外形線
 48
10.0
100
AcDbLine
 10
1108.399561566736
 20
1151.192885238951
 30
0.0
 11
1108.399561566736
 21
1150.692885238951
 31
0.0
  0
ARC
  5
4809
330
47DB
100
AcDbEntity
  8
外形線
 48
10.0
100
AcDbCircle
 10
1098.998525663106
 20
1152.414559409545
 30
0.0
 40
4.4
100
AcDbArc
 50
271.3
 51
0.0
  0
LINE
  5
480A
330
47DB
100
AcDbEntity
  8
外形線
 48
10.0
100
AcDbLine
 10
1046.016783711759
 20
1146.811102679105
 30
0.0
 11
1099.098349930826
 21
1148.015691928525
 31
0.0
  0
LINE
  5
480B
330
47DB
100
AcDbEntity
  8
外形線
 48
10.0
100
AcDbLine
 10
1103.398525663105
 20
1152.686780962578
 30
0.0
 11
1103.398525663105
 21
1152.414559409545
 31
0.0
  0
LINE
  5
480C
330
47DB
100
AcDbEntity
  8
外形線
 48
10.0
100
AcDbLine
 10
1106.398525663105
 20
1152.686780962578
 30
0.0
 11
1103.398525663105
 21
1152.686780962578
 31
0.0
  0
ARC
  5
480D
330
47DB
100
AcDbEntity
  8
外形線
 48
10.0
100
AcDbCircle
 10
1107.898525663105
 20
1150.161780962577
 30
0.0
 40
1.500000000000156
100
AcDbArc
 50
70.528779365514
 51
179.999999999993
  0
LINE
  5
480E
330
47DB
100
AcDbEntity
  8
細線
 48
10.0
100
AcDbLine
 10
1108.899561566736
 20
1152.686780962578
 30
0.0
 11
1108.899561566736
 21
1036.686780962578
 31
0.0
  0
LINE
  5
480F
330
47DB
100
AcDbEntity
  8
細線
 48
10.0
100
AcDbLine
 10
1108.899561566736
 20
1152.680676686204
 30
0.0
 11
1108.899561566736
 21
1036.692885238951
 31
0.0
  0
LINE
  5
4810
330
47DB
100
AcDbEntity
  8
外形線
 48
10.0
100
AcDbLine
 10
1123.398525663106
 20
1072.956444458874
 30
0.0
 11
1123.398525663106
 21
1059.660354798405
 31
0.0
  0
ARC
  5
4811
330
47DB
100
AcDbEntity
  8
細線
 48
10.0
100
AcDbCircle
 10
1123.898525663106
 20
1047.013577778149
 30
0.0
 40
0.5
100
AcDbArc
 50
111.125052874011
 51
180.0
  0
ARC
  5
4812
330
47DB
100
AcDbEntity
  8
細線
 48
10.0
100
AcDbCircle
 10
1123.898066965619
 20
1046.04747472476
 30
0.0
 40
0.5
100
AcDbArc
 50
111.125052874011
 51
179.923306313171
  0
ARC
  5
4813
330
47DB
100
AcDbEntity
  8
細線
 48
10.0
100
AcDbCircle
 10
1123.898525663106
 20
1059.660354798405
 30
0.0
 40
0.5
100
AcDbArc
 50
105.793169048262
 51
180.0
  0
ARC
  5
4814
330
47DB
100
AcDbEntity
  8
細線
 48
10.0
100
AcDbCircle
 10
1123.898525663106
 20
1058.953248017218
 30
0.0
 40
0.5
100
AcDbArc
 50
105.793169048262
 51
180.0
  0
ARC
  5
4815
330
47DB
100
AcDbEntity
  8
細線
 48
10.0
100
AcDbCircle
 10
1123.898525663106
 20
1081.294920166006
 30
0.0
 40
0.5
100
AcDbArc
 50
95.910638915405
 51
180.0
  0
ARC
  5
4816
330
47DB
100
AcDbEntity
  8
細線
 48
10.0
100
AcDbCircle
 10
1123.898525663106
 20
1081.553739211108
 30
0.0
 40
0.5
100
AcDbArc
 50
95.910638915405
 51
180.0
  0
LINE
  5
4817
330
47DB
100
AcDbEntity
  8
外形線
 48
10.0
100
AcDbLine
 10
1123.398525663106
 20
1081.294920166006
 30
0.0
 11
1123.398525663106
 21
1088.928129594135
 31
0.0
  0
LINE
  5
4818
330
47DB
100
AcDbEntity
  8
外形線
 48
10.0
100
AcDbLine
 10
1123.398525663106
 20
1081.745828707453
 30
0.0
 11
1123.398525663106
 21
1082.004647752555
 31
0.0
  0
LINE
  5
4819
330
47DB
100
AcDbEntity
  8
外形線
 48
10.0
100
AcDbLine
 10
1123.398525663106
 20
1072.956444458874
 30
0.0
 11
1123.398525663106
 21
1081.294920166006
 31
0.0
  0
LINE
  5
481A
330
47DB
100
AcDbEntity
  8
外形線
 48
10.0
100
AcDbLine
 10
1123.398525663106
 20
1058.953248017218
 30
0.0
 11
1123.398525663106
 21
1059.660354798405
 31
0.0
  0
LINE
  5
481B
330
47DB
100
AcDbEntity
  8
外形線
 48
10.0
100
AcDbLine
 10
1123.398525663106
 20
1047.013577778149
 30
0.0
 11
1123.398525663106
 21
1058.953248017218
 31
0.0
  0
LINE
  5
481C
330
47DB
100
AcDbEntity
  8
外形線
 48
10.0
100
AcDbLine
 10
1123.398067413553
 20
1046.048144003235
 30
0.0
 11
1123.398525663106
 21
1047.013577778149
 31
0.0
  0
LINE
  5
481D
330
47DB
100
AcDbEntity
  8
外形線
 48
10.0
100
AcDbLine
 10
1123.396317242873
 20
1044.740639597053
 30
0.0
 11
1123.398067413553
 21
1046.048144003235
 31
0.0
  0
ARC
  5
481E
330
47DB
100
AcDbEntity
  8
外形線
 48
10.0
100
AcDbCircle
 10
1123.896317242873
 20
1044.740639597053
 30
0.0
 40
0.5
100
AcDbArc
 50
111.974976118028
 51
180.0
  0
ARC
  5
481F
330
47DB
100
AcDbEntity
  8
細線
 48
10.0
100
AcDbCircle
 10
1135.398494161258
 20
1063.952267566336
 30
0.0
 40
0.5
100
AcDbArc
 50
285.793169048262
 51
0.004772330144
  0
ARC
  5
4820
330
47DB
100
AcDbEntity
  8
細線
 48
10.0
100
AcDbCircle
 10
1135.398525663106
 20
1063.245169695216
 30
0.0
 40
0.5
100
AcDbArc
 50
285.793169048262
 51
0.0
  0
ARC
  5
4821
330
47DB
100
AcDbEntity
  8
細線
 48
10.0
100
AcDbCircle
 10
1135.398525663106
 20
1052.528882302126
 30
0.0
 40
0.5
100
AcDbArc
 50
291.125052874011
 51
0.0
  0
ARC
  5
4822
330
47DB
100
AcDbEntity
  8
細線
 48
10.0
100
AcDbCircle
 10
1135.398525663106
 20
1051.562956475835
 30
0.0
 40
0.5
100
AcDbArc
 50
291.125052874011
 51
0.0
  0
ARC
  5
4823
330
47DB
100
AcDbEntity
  8
外形線
 48
10.0
100
AcDbCircle
 10
1135.398525663106
 20
1050.460335432784
 30
0.0
 40
0.5
100
AcDbArc
 50
291.974976118028
 51
0.0
  0
LINE
  5
4824
330
47DB
100
AcDbEntity
  8
外形線
 48
10.0
100
AcDbLine
 10
1135.898525663106
 20
1051.562956475835
 30
0.0
 11
1135.898525663106
 21
1050.460335432784
 31
0.0
  0
LINE
  5
4825
330
47DB
100
AcDbEntity
  8
外形線
 48
10.0
100
AcDbLine
 10
1135.898525663106
 20
1052.528882302126
 30
0.0
 11
1135.898525663106
 21
1051.562956475835
 31
0.0
  0
LINE
  5
4826
330
47DB
100
AcDbEntity
  8
外形線
 48
10.0
100
AcDbLine
 10
1135.898525663106
 20
1063.245169695216
 30
0.0
 11
1135.898525663106
 21
1052.528882302126
 31
0.0
  0
LINE
  5
4827
330
47DB
100
AcDbEntity
  8
外形線
 48
10.0
100
AcDbLine
 10
1135.898494159523
 20
1063.952309212773
 30
0.0
 11
1135.898525663106
 21
1063.245169695216
 31
0.0
  0
LINE
  5
4828
330
47DB
100
AcDbEntity
  8
外形線
 48
10.0
100
AcDbLine
 10
1135.896845194391
 20
1083.749502531863
 30
0.0
 11
1135.898494159523
 21
1063.952309212773
 31
0.0
  0
ARC
  5
4829
330
47DB
100
AcDbEntity
  8
細線
 48
10.0
100
AcDbCircle
 10
1135.396794220963
 20
1083.49065322233
 30
0.0
 40
0.5
100
AcDbArc
 50
275.910638915405
 51
0.00199902817
  0
ARC
  5
482A
330
47DB
100
AcDbEntity
  8
細線
 48
10.0
100
AcDbCircle
 10
1135.396845195015
 20
1083.749477544655
 30
0.0
 40
0.5
100
AcDbArc
 50
275.910638915405
 51
0.002863323129
  0
ARC
  5
482B
330
47DB
100
AcDbEntity
  8
外形線
 48
10.0
100
AcDbCircle
 10
1122.897486448612
 20
1037.437296090646
 30
0.0
 40
0.5
100
AcDbArc
 50
271.000000000002
 51
359.984453673186
  0
LINE
  5
482C
330
47DB
100
AcDbEntity
  8
外形線
 48
10.0
100
AcDbLine
 10
1135.896646406194
 20
1087.727301809166
 30
0.0
 11
1135.896794220659
 21
1083.490670667142
 31
0.0
  0
LINE
  5
482D
330
47DB
100
AcDbEntity
  8
外形線
 48
10.0
100
AcDbLine
 10
1123.709216437395
 20
1045.204313284671
 30
0.0
 11
1135.585626468584
 21
1049.996661745166
 31
0.0
  0
LINE
  5
482E
330
47DB
100
AcDbEntity
  8
細線
 48
10.0
100
AcDbLine
 10
1135.578728019316
 20
1052.062484284531
 30
0.0
 11
1123.718323306896
 21
1047.479975795744
 31
0.0
  0
LINE
  5
482F
330
47DB
100
AcDbEntity
  8
細線
 48
10.0
100
AcDbLine
 10
1135.578728019316
 20
1051.09655845824
 30
0.0
 11
1123.717864609409
 21
1046.513872742355
 31
0.0
  0
LINE
  5
4830
330
47DB
100
AcDbEntity
  8
細線
 48
10.0
100
AcDbLine
 10
1135.534608426593
 20
1062.764044470891
 30
0.0
 11
1123.762442899618
 21
1059.434373241543
 31
0.0
  0
LINE
  5
4831
330
47DB
100
AcDbEntity
  8
細線
 48
10.0
100
AcDbLine
 10
1135.534576924746
 20
1063.471142342011
 30
0.0
 11
1123.762442899618
 21
1060.141480022729
 31
0.0
  0
LINE
  5
4832
330
47DB
100
AcDbEntity
  8
細線
 48
10.0
100
AcDbLine
 10
1135.44828283872
 20
1082.993311365815
 30
0.0
 11
1123.847037045349
 21
1081.792262022521
 31
0.0
  0
LINE
  5
4833
330
47DB
100
AcDbEntity
  8
細線
 48
10.0
100
AcDbLine
 10
1135.448333812772
 20
1083.25213568814
 30
0.0
 11
1123.847037045349
 21
1082.051081067623
 31
0.0
  0
LINE
  5
4834
330
47DB
100
AcDbEntity
  8
外形線
 48
10.0
100
AcDbLine
 10
1123.399470041665
 20
1044.747733739171
 30
0.0
 11
1123.397486430207
 21
1037.437160423353
 31
0.0
  0
LINE
  5
4835
330
47DB
100
AcDbEntity
  8
外形線
 48
10.0
100
AcDbLine
 10
1123.399564892765
 20
1151.936223047449
 30
0.0
 11
1123.397486430207
 21
1037.437160423353
 31
0.0
  0
LINE
  5
4836
330
47DB
100
AcDbEntity
  8
外形線
 48
10.0
100
AcDbLine
 10
1108.399561566736
 20
1152.180676686204
 30
0.0
 11
1108.399561566736
 21
1037.192885238951
 31
0.0
  0
LINE
  5
4837
330
47DB
100
AcDbEntity
  8
外形線
 48
10.0
100
AcDbLine
 10
1108.899561566736
 20
1036.686780962578
 30
0.0
 11
1122.906212651831
 21
1036.937372243068
 31
0.0
  0
LINE
  5
4838
330
47DB
100
AcDbEntity
  8
外形線
 48
10.0
100
AcDbLine
 10
1108.899561566736
 20
1036.686780962578
 30
0.0
 11
1108.399561566736
 21
1037.192885238951
 31
0.0
  0
LINE
  5
4839
330
47DB
100
AcDbEntity
  8
外形線
 48
10.0
100
AcDbLine
 10
1108.399561566736
 20
1038.192885238951
 30
0.0
 11
1108.399561566736
 21
1038.692885238951
 31
0.0
  0
LINE
  5
483A
330
47DB
100
AcDbEntity
  8
外形線
 48
10.0
100
AcDbLine
 10
1035.022931603883
 20
1071.442246865485
 30
0.0
 11
1041.278741748243
 21
1046.351562814666
 31
0.0
  0
ARC
  5
483B
330
47DB
100
AcDbEntity
  8
外形線
 48
10.0
100
AcDbCircle
 10
1046.130220379623
 20
1047.561172292664
 30
0.0
 40
5.0
100
AcDbArc
 50
193.999999999996
 51
268.7
  0
ARC
  5
483C
330
47DB
100
AcDbEntity
  8
外形線
 48
10.0
100
AcDbCircle
 10
1034.052635877606
 20
1071.200324969886
 30
0.0
 40
1.0
100
AcDbArc
 50
13.999999999996
 51
89.000000000011
  0
ARC
  5
483D
330
47DB
100
AcDbEntity
  8
外形線
 48
10.0
100
AcDbCircle
 10
1069.398525663106
 20
1041.031595836918
 30
0.0
 40
1.0
100
AcDbArc
 50
0.0
 51
88.7
  0
ARC
  5
483E
330
47DB
100
AcDbEntity
  8
外形線
 48
10.0
100
AcDbCircle
 10
1071.398525663106
 20
1031.186780962577
 30
0.0
 40
1.0
100
AcDbArc
 50
180.0
 51
270.0
  0
ARC
  5
483F
330
47DB
100
AcDbEntity
  8
外形線
 48
10.0
100
AcDbCircle
 10
1105.398525663105
 20
1031.186780962577
 30
0.0
 40
1.0
100
AcDbArc
 50
270.0
 51
0.0
  0
LINE
  5
4840
330
47DB
100
AcDbEntity
  8
外形線
 48
10.0
100
AcDbLine
 10
1070.398525663106
 20
1031.186780962577
 30
0.0
 11
1070.398525663106
 21
1041.031595836918
 31
0.0
  0
LINE
  5
4841
330
47DB
100
AcDbEntity
  8
外形線
 48
10.0
100
AcDbLine
 10
1046.016783711759
 20
1042.56245924605
 30
0.0
 11
1099.098349930826
 21
1041.35786999663
 31
0.0
  0
LINE
  5
4842
330
47DB
100
AcDbEntity
  8
外形線
 48
10.0
100
AcDbLine
 10
1021.881073256668
 20
1072.412932713756
 30
0.0
 11
1034.070088284044
 21
1072.200172665042
 31
0.0
  0
LINE
  5
4843
330
47DB
100
AcDbEntity
  8
外形線
 48
10.0
100
AcDbLine
 10
1106.398525663105
 20
1040.711780962577
 30
0.0
 11
1106.398525663105
 21
1031.186780962577
 31
0.0
  0
LINE
  5
4844
330
47DB
100
AcDbEntity
  8
外形線
 48
10.0
100
AcDbLine
 10
1106.398525663105
 20
1040.711780962577
 30
0.0
 11
1106.398525663105
 21
1152.686780962578
 31
0.0
  0
LINE
  5
4845
330
47DB
100
AcDbEntity
  8
外形線
 48
10.0
100
AcDbLine
 10
1105.398525663105
 20
1030.186780962577
 30
0.0
 11
1071.398525663106
 21
1030.186780962577
 31
0.0
  0
LINE
  5
4846
330
47DB
100
AcDbEntity
  8
外形線
 48
10.0
100
AcDbLine
 10
1103.398525663106
 20
1036.95900251561
 30
0.0
 11
1103.398525663105
 21
1036.692885238951
 31
0.0
  0
LINE
  5
4847
330
47DB
100
AcDbEntity
  8
外形線
 48
10.0
100
AcDbLine
 10
1106.398525663105
 20
1036.692885238951
 30
0.0
 11
1103.398525663105
 21
1036.692885238951
 31
0.0
  0
ARC
  5
4848
330
47DB
100
AcDbEntity
  8
外形線
 48
10.0
100
AcDbCircle
 10
1107.898525663105
 20
1039.211780962577
 30
0.0
 40
1.499999999999659
100
AcDbArc
 50
179.99999999998
 51
289.471220634515
  0
ARC
  5
4849
330
47DB
100
AcDbEntity
  8
外形線
 48
10.0
100
AcDbCircle
 10
1098.998525663106
 20
1036.95900251561
 30
0.0
 40
4.4
100
AcDbArc
 50
0.0
 51
88.7
  0
LINE
  5
484A
330
47DB
100
AcDbEntity
  8
細線
 48
10.0
100
AcDbLine
 10
1103.398525663105
 20
1152.686780962578
 30
0.0
 11
1103.398525663106
 21
1036.95900251561
 31
0.0
  0
LINE
  5
484B
330
47DB
100
AcDbEntity
  8
細線
 48
10.0
100
AcDbLine
 10
1034.837298404406
 20
1072.186780962578
 30
0.0
 11
1034.840933619068
 21
1117.201361012233
 31
0.0
  0
LINE
  5
484C
330
47DB
100
AcDbEntity
  8
細線
 48
10.0
100
AcDbLine
 10
1042.201886517784
 20
1144.905639229587
 30
0.0
 11
1042.201886517784
 21
1044.467922695569
 31
0.0
  0
LINE
  5
484D
330
47DB
100
AcDbEntity
  8
外形線
 48
10.0
100
AcDbLine
 10
1135.898508800172
 20
1138.913208309413
 30
0.0
 11
1135.896646406194
 21
1101.646260115989
 31
0.0
  0
ARC
  5
484E
330
47DB
100
AcDbEntity
  8
細線
 48
10.0
100
AcDbCircle
 10
1135.397834558349
 20
1125.421480922695
 30
0.0
 40
0.5
100
AcDbArc
 50
359.997136676878
 51
74.206830951738
  0
ARC
  5
484F
330
47DB
100
AcDbEntity
  8
細線
 48
10.0
100
AcDbCircle
 10
1135.397869895098
 20
1126.128577709141
 30
0.0
 40
0.5
100
AcDbArc
 50
359.997136676878
 51
74.206830951738
  0
LINE
  5
4850
330
47DB
100
AcDbEntity
  8
細線
 48
10.0
100
AcDbLine
 10
1135.533917321837
 20
1125.90260614702
 30
0.0
 11
1123.762442899618
 21
1129.232081902426
 31
0.0
  0
LINE
  5
4851
330
47DB
100
AcDbEntity
  8
中心線
 48
10.0
100
AcDbLine
 10
1088.398525663106
 20
1052.03299312045
 30
0.0
 11
1088.398525663106
 21
1013.722487401784
 31
0.0
  0
ENDBLK
  5
4852
330
47DB
100
AcDbEntity
  8
0
 48
10.0
100
AcDbBlockEnd
  0
BLOCK
  5
4973
330
4969
100
AcDbEntity
  8
0
 48
10.0
100
AcDbBlockBegin
  2
*D18
 70
     1
 10
0.0
 20
0.0
 30
0.0
  3
*D18
  1

  0
LINE
  5
4DDB
330
4969
100
AcDbEntity
  8
寸法線
 62
     0
 48
10.0
100
AcDbLine
 10
352.434851932764
 20
395.751864673344
 30
0.0
 11
352.434851932764
 21
337.941584665002
 31
0.0
  0
LINE
  5
4DDC
330
4969
100
AcDbEntity
  8
寸法線
 62
     0
 48
10.0
100
AcDbLine
 10
372.434851932764
 20
395.751864673344
 30
0.0
 11
372.434851932764
 21
337.941584665002
 31
0.0
  0
LINE
  5
4DDD
330
4969
100
AcDbEntity
  8
寸法線
 62
     0
 48
10.0
100
AcDbLine
 10
358.434851932764
 20
339.191584665002
 30
0.0
 11
366.434851932764
 21
339.191584665002
 31
0.0
  0
INSERT
  5
4DDE
330
4969
100
AcDbEntity
  8
寸法線
 62
     0
100
AcDbBlockReference
  2
_OPEN30
 10
352.434851932764
 20
339.191584665002
 30
0.0
 41
6.0
 42
6.0
 43
6.0
 50
180.0
  0
INSERT
  5
4DDF
330
4969
100
AcDbEntity
  8
寸法線
 62
     0
100
AcDbBlockReference
  2
_OPEN30
 10
372.434851932764
 20
339.191584665002
 30
0.0
 41
6.0
 42
6.0
 43
6.0
  0
MTEXT
  5
4DE0
330
4969
100
AcDbEntity
  8
寸法線
 62
     0
 48
10.0
100
AcDbMText
 10
362.434851932764
 20
343.820751331669
 30
0.0
 40
8.0
 41
0.0
 71
     5
 72
     1
  1
\A1;20
  0
POINT
  5
4DE1
330
4969
100
AcDbEntity
  8
DEFPOINTS
 62
     0
100
AcDbPoint
 10
352.434851932764
 20
396.376864673344
 30
0.0
  0
POINT
  5
4DE2
330
4969
100
AcDbEntity
  8
DEFPOINTS
 62
     0
100
AcDbPoint
 10
372.434851932764
 20
396.376864673344
 30
0.0
  0
POINT
  5
4DE3
330
4969
100
AcDbEntity
  8
DEFPOINTS
 62
     0
100
AcDbPoint
 10
372.434851932764
 20
339.191584665002
 30
0.0
  0
ENDBLK
  5
4974
330
4969
100
AcDbEntity
  8
0
 48
10.0
100
AcDbBlockEnd
  0
BLOCK
  5
4B76
330
4B6C
100
AcDbEntity
  8
0
 48
10.0
100
AcDbBlockBegin
  2
*D19
 70
     1
 10
0.0
 20
0.0
 30
0.0
  3
*D19
  1

  0
LINE
  5
4DD2
330
4B6C
100
AcDbEntity
  8
寸法線
 62
     0
 48
10.0
100
AcDbLine
 10
372.434851932764
 20
395.753244219621
 30
0.0
 11
372.434851932764
 21
337.941584665002
 31
0.0
  0
LINE
  5
4DD3
330
4B6C
100
AcDbEntity
  8
寸法線
 62
     0
 48
10.0
100
AcDbLine
 10
462.434887506439
 20
387.749575517064
 30
0.0
 11
462.434887506439
 21
337.941584665002
 31
0.0
  0
LINE
  5
4DD4
330
4B6C
100
AcDbEntity
  8
寸法線
 62
     0
 48
10.0
100
AcDbLine
 10
378.434851932764
 20
339.191584665002
 30
0.0
 11
456.434887506439
 21
339.191584665002
 31
0.0
  0
INSERT
  5
4DD5
330
4B6C
100
AcDbEntity
  8
寸法線
 62
     0
100
AcDbBlockReference
  2
_OPEN30
 10
372.434851932764
 20
339.191584665002
 30
0.0
 41
6.0
 42
6.0
 43
6.0
 50
180.0
  0
INSERT
  5
4DD6
330
4B6C
100
AcDbEntity
  8
寸法線
 62
     0
100
AcDbBlockReference
  2
_OPEN30
 10
462.434887506439
 20
339.191584665002
 30
0.0
 41
6.0
 42
6.0
 43
6.0
  0
MTEXT
  5
4DD7
330
4B6C
100
AcDbEntity
  8
寸法線
 62
     0
 48
10.0
100
AcDbMText
 10
417.434869719601
 20
343.816584665002
 30
0.0
 40
8.0
 41
0.0
 71
     5
 72
     1
  1
\A1;90
  0
POINT
  5
4DD8
330
4B6C
100
AcDbEntity
  8
DEFPOINTS
 62
     0
100
AcDbPoint
 10
372.434851932764
 20
396.378244219621
 30
0.0
  0
POINT
  5
4DD9
330
4B6C
100
AcDbEntity
  8
DEFPOINTS
 62
     0
100
AcDbPoint
 10
462.434887506439
 20
388.374575517064
 30
0.0
  0
POINT
  5
4DDA
330
4B6C
100
AcDbEntity
  8
DEFPOINTS
 62
     0
100
AcDbPoint
 10
462.434887506439
 20
339.191584665002
 30
0.0
  0
ENDBLK
  5
4B77
330
4B6C
100
AcDbEntity
  8
0
 48
10.0
100
AcDbBlockEnd
  0
BLOCK
  5
4B8E
330
4B84
100
AcDbEntity
  8
0
 48
10.0
100
AcDbBlockBegin
  2
*D20
 70
     1
 10
0.0
 20
0.0
 30
0.0
  3
*D20
  1

  0
LINE
  5
4DC9
330
4B84
100
AcDbEntity
  8
寸法線
 62
     0
 48
10.0
100
AcDbLine
 10
428.182890642895
 20
454.378281331296
 30
0.0
 11
486.421383676491
 21
454.378281331296
 31
0.0
  0
LINE
  5
4DCA
330
4B84
100
AcDbEntity
  8
寸法線
 62
     0
 48
10.0
100
AcDbLine
 10
448.701851932764
 20
369.37824421962
 30
0.0
 11
486.421383676491
 21
369.37824421962
 31
0.0
  0
LINE
  5
4DCB
330
4B84
100
AcDbEntity
  8
寸法線
 62
     0
 48
10.0
100
AcDbLine
 10
485.171383676491
 20
448.378281331296
 30
0.0
 11
485.171383676491
 21
375.37824421962
 31
0.0
  0
INSERT
  5
4DCC
330
4B84
100
AcDbEntity
  8
寸法線
 62
     0
100
AcDbBlockReference
  2
_OPEN30
 10
485.171383676491
 20
454.378281331296
 30
0.0
 41
6.0
 42
6.0
 43
6.0
 50
90.0
  0
INSERT
  5
4DCD
330
4B84
100
AcDbEntity
  8
寸法線
 62
     0
100
AcDbBlockReference
  2
_OPEN30
 10
485.171383676491
 20
369.37824421962
 30
0.0
 41
6.0
 42
6.0
 43
6.0
 50
270.0
  0
MTEXT
  5
4DCE
330
4B84
100
AcDbEntity
  8
寸法線
 62
     0
 48
10.0
100
AcDbMText
 10
480.538050343158
 20
411.878262775458
 30
0.0
 40
8.0
 41
0.0
 71
     5
 72
     1
  1
\A1;85
 11
0.0
 21
1.0
 31
0.0
  0
POINT
  5
4DCF
330
4B84
100
AcDbEntity
  8
DEFPOINTS
 62
     0
100
AcDbPoint
 10
427.557890642895
 20
454.378281331296
 30
0.0
  0
POINT
  5
4DD0
330
4B84
100
AcDbEntity
  8
DEFPOINTS
 62
     0
100
AcDbPoint
 10
448.076851932764
 20
369.37824421962
 30
0.0
  0
POINT
  5
4DD1
330
4B84
100
AcDbEntity
  8
DEFPOINTS
 62
     0
100
AcDbPoint
 10
485.171383676491
 20
369.37824421962
 30
0.0
  0
ENDBLK
  5
4B8F
330
4B84
100
AcDbEntity
  8
0
 48
10.0
100
AcDbBlockEnd
  0
BLOCK
  5
5126
330
5125
100
AcDbEntity
  8
0
100
AcDbBlockBegin
  2
*D39
 70
     1
 10
0.0
 20
0.0
 30
0.0
  3
*D39
  1

  0
LINE
  5
5128
330
5125
100
AcDbEntity
  8
寸法線
 62
     0
 48
10.0
100
AcDbLine
 10
57.434851932764
 20
407.752554451348
 30
0.0
 11
57.434851932764
 21
316.470708499581
 31
0.0
  0
LINE
  5
5129
330
5125
100
AcDbEntity
  8
寸法線
 62
     0
 48
10.0
100
AcDbLine
 10
307.434851932764
 20
399.003054451348
 30
0.0
 11
307.434851932764
 21
316.470708499581
 31
0.0
  0
LINE
  5
512A
330
5125
100
AcDbEntity
  8
寸法線
 62
     0
 48
10.0
100
AcDbLine
 10
63.434851932764
 20
317.720708499581
 30
0.0
 11
301.434851932764
 21
317.720708499581
 31
0.0
  0
INSERT
  5
512B
330
5125
100
AcDbEntity
  8
寸法線
 62
     0
100
AcDbBlockReference
  2
_OPEN30
 10
57.434851932764
 20
317.720708499581
 30
0.0
 41
6.0
 42
6.0
 43
6.0
 50
180.0
  0
INSERT
  5
512C
330
5125
100
AcDbEntity
  8
寸法線
 62
     0
100
AcDbBlockReference
  2
_OPEN30
 10
307.434851932764
 20
317.720708499581
 30
0.0
 41
6.0
 42
6.0
 43
6.0
  0
POINT
  5
512D
330
5125
100
AcDbEntity
  8
DEFPOINTS
 62
     0
100
AcDbPoint
 10
57.434851932764
 20
408.377554451348
 30
0.0
  0
POINT
  5
512E
330
5125
100
AcDbEntity
  8
DEFPOINTS
 62
     0
100
AcDbPoint
 10
307.434851932764
 20
399.628054451348
 30
0.0
  0
POINT
  5
512F
330
5125
100
AcDbEntity
  8
DEFPOINTS
 62
     0
100
AcDbPoint
 10
307.434851932764
 20
317.720708499581
 30
0.0
  0
ENDBLK
  5
5127
330
5125
100
AcDbEntity
  8
0
100
AcDbBlockEnd
  0
BLOCK
  5
5131
330
5130
100
AcDbEntity
  8
0
100
AcDbBlockBegin
  2
*D40
 70
     1
 10
0.0
 20
0.0
 30
0.0
  3
*D40
  1

  0
LINE
  5
5133
330
5130
100
AcDbEntity
  8
寸法線
 62
     0
 48
10.0
100
AcDbLine
 10
207.434851932764
 20
404.002554451348
 30
0.0
 11
207.434851932764
 21
337.941584665002
 31
0.0
  0
LINE
  5
5134
330
5130
100
AcDbEntity
  8
寸法線
 62
     0
 48
10.0
100
AcDbLine
 10
307.434851932764
 20
399.003054451348
 30
0.0
 11
307.434851932764
 21
337.941584665002
 31
0.0
  0
LINE
  5
5135
330
5130
100
AcDbEntity
  8
寸法線
 62
     0
 48
10.0
100
AcDbLine
 10
213.434851932764
 20
339.191584665002
 30
0.0
 11
301.434851932764
 21
339.191584665002
 31
0.0
  0
INSERT
  5
5136
330
5130
100
AcDbEntity
  8
寸法線
 62
     0
100
AcDbBlockReference
  2
_OPEN30
 10
207.434851932764
 20
339.191584665002
 30
0.0
 41
6.0
 42
6.0
 43
6.0
 50
180.0
  0
INSERT
  5
5137
330
5130
100
AcDbEntity
  8
寸法線
 62
     0
100
AcDbBlockReference
  2
_OPEN30
 10
307.434851932764
 20
339.191584665002
 30
0.0
 41
6.0
 42
6.0
 43
6.0
  0
POINT
  5
5138
330
5130
100
AcDbEntity
  8
DEFPOINTS
 62
     0
100
AcDbPoint
 10
207.434851932764
 20
404.627554451348
 30
0.0
  0
POINT
  5
5139
330
5130
100
AcDbEntity
  8
DEFPOINTS
 62
     0
100
AcDbPoint
 10
307.434851932764
 20
399.628054451348
 30
0.0
  0
POINT
  5
513A
330
5130
100
AcDbEntity
  8
DEFPOINTS
 62
     0
100
AcDbPoint
 10
307.434851932764
 20
339.191584665002
 30
0.0
  0
ENDBLK
  5
5132
330
5130
100
AcDbEntity
  8
0
100
AcDbBlockEnd
  0
BLOCK
  5
513C
330
513B
100
AcDbEntity
  8
0
100
AcDbBlockBegin
  2
*D41
 70
     1
 10
0.0
 20
0.0
 30
0.0
  3
*D41
  1

  0
LINE
  5
513E
330
513B
100
AcDbEntity
  8
寸法線
 62
     0
 48
10.0
100
AcDbLine
 10
157.434851932764
 20
404.502554451348
 30
0.0
 11
157.434851932764
 21
337.941584665002
 31
0.0
  0
LINE
  5
513F
330
513B
100
AcDbEntity
  8
寸法線
 62
     0
 48
10.0
100
AcDbLine
 10
207.434851932764
 20
404.002554451348
 30
0.0
 11
207.434851932764
 21
337.941584665002
 31
0.0
  0
LINE
  5
5140
330
513B
100
AcDbEntity
  8
寸法線
 62
     0
 48
10.0
100
AcDbLine
 10
163.434851932764
 20
339.191584665002
 30
0.0
 11
201.434851932764
 21
339.191584665002
 31
0.0
  0
INSERT
  5
5141
330
513B
100
AcDbEntity
  8
寸法線
 62
     0
100
AcDbBlockReference
  2
_OPEN30
 10
157.434851932764
 20
339.191584665002
 30
0.0
 41
6.0
 42
6.0
 43
6.0
 50
180.0
  0
INSERT
  5
5142
330
513B
100
AcDbEntity
  8
寸法線
 62
     0
100
AcDbBlockReference
  2
_OPEN30
 10
207.434851932764
 20
339.191584665002
 30
0.0
 41
6.0
 42
6.0
 43
6.0
  0
POINT
  5
5143
330
513B
100
AcDbEntity
  8
DEFPOINTS
 62
     0
100
AcDbPoint
 10
157.434851932764
 20
405.127554451348
 30
0.0
  0
POINT
  5
5144
330
513B
100
AcDbEntity
  8
DEFPOINTS
 62
     0
100
AcDbPoint
 10
207.434851932764
 20
404.627554451348
 30
0.0
  0
POINT
  5
5145
330
513B
100
AcDbEntity
  8
DEFPOINTS
 62
     0
100
AcDbPoint
 10
207.434851932764
 20
339.191584665002
 30
0.0
  0
ENDBLK
  5
513D
330
513B
100
AcDbEntity
  8
0
100
AcDbBlockEnd
  0
BLOCK
  5
5147
330
5146
100
AcDbEntity
  8
0
100
AcDbBlockBegin
  2
*D42
 70
     1
 10
0.0
 20
0.0
 30
0.0
  3
*D42
  1

  0
LINE
  5
5149
330
5146
100
AcDbEntity
  8
寸法線
 62
     0
 48
10.0
100
AcDbLine
 10
57.434851932764
 20
407.752554451348
 30
0.0
 11
57.434851932764
 21
337.941584665002
 31
0.0
  0
LINE
  5
514A
330
5146
100
AcDbEntity
  8
寸法線
 62
     0
 48
10.0
100
AcDbLine
 10
157.434851932764
 20
404.502554451348
 30
0.0
 11
157.434851932764
 21
337.941584665002
 31
0.0
  0
LINE
  5
514B
330
5146
100
AcDbEntity
  8
寸法線
 62
     0
 48
10.0
100
AcDbLine
 10
63.434851932764
 20
339.191584665002
 30
0.0
 11
151.434851932764
 21
339.191584665002
 31
0.0
  0
INSERT
  5
514C
330
5146
100
AcDbEntity
  8
寸法線
 62
     0
100
AcDbBlockReference
  2
_OPEN30
 10
57.434851932764
 20
339.191584665002
 30
0.0
 41
6.0
 42
6.0
 43
6.0
 50
180.0
  0
INSERT
  5
514D
330
5146
100
AcDbEntity
  8
寸法線
 62
     0
100
AcDbBlockReference
  2
_OPEN30
 10
157.434851932764
 20
339.191584665002
 30
0.0
 41
6.0
 42
6.0
 43
6.0
  0
POINT
  5
514E
330
5146
100
AcDbEntity
  8
DEFPOINTS
 62
     0
100
AcDbPoint
 10
57.434851932764
 20
408.377554451348
 30
0.0
  0
POINT
  5
514F
330
5146
100
AcDbEntity
  8
DEFPOINTS
 62
     0
100
AcDbPoint
 10
157.434851932764
 20
405.127554451348
 30
0.0
  0
POINT
  5
5150
330
5146
100
AcDbEntity
  8
DEFPOINTS
 62
     0
100
AcDbPoint
 10
157.434851932764
 20
339.191584665002
 30
0.0
  0
ENDBLK
  5
5148
330
5146
100
AcDbEntity
  8
0
100
AcDbBlockEnd
  0
BLOCK
  5
5152
330
5151
100
AcDbEntity
  8
0
100
AcDbBlockBegin
  2
*D43
 70
     1
 10
0.0
 20
0.0
 30
0.0
  3
*D43
  1

  0
LINE
  5
5154
330
5151
100
AcDbEntity
  8
寸法線
 62
     0
 48
10.0
100
AcDbLine
 10
194.796383676491
 20
426.127554451348
 30
0.0
 11
194.796383676491
 21
457.676573209631
 31
0.0
  0
LINE
  5
5155
330
5151
100
AcDbEntity
  8
寸法線
 62
     0
 48
10.0
100
AcDbLine
 10
194.796383676491
 20
420.127554451348
 30
0.0
 11
194.796383676491
 21
410.627554451348
 31
0.0
  0
INSERT
  5
5156
330
5151
100
AcDbEntity
  8
寸法線
 62
     0
100
AcDbBlockReference
  2
_OPEN30
 10
194.796383676491
 20
426.127554451348
 30
0.0
 41
6.0
 42
6.0
 43
6.0
 50
90.0
  0
INSERT
  5
5157
330
5151
100
AcDbEntity
  8
寸法線
 62
     0
100
AcDbBlockReference
  2
_OPEN30
 10
194.796383676491
 20
404.627554451348
 30
0.0
 41
6.0
 42
6.0
 43
6.0
 50
270.0
  0
MTEXT
  5
5158
330
5151
100
AcDbEntity
  8
寸法線
 62
     0
 48
10.0
100
AcDbMText
 10
190.167217009825
 20
445.118239876298
 30
0.0
 40
8.0
 41
0.0
 71
     5
 72
     1
  1
\A1;φ21.5
 11
0.0
 21
1.0
 31
0.0
  0
POINT
  5
5159
330
5151
100
AcDbEntity
  8
DEFPOINTS
 62
     0
100
AcDbPoint
 10
207.434851932764
 20
426.127554451348
 30
0.0
  0
POINT
  5
515A
330
5151
100
AcDbEntity
  8
DEFPOINTS
 62
     0
100
AcDbPoint
 10
207.434851932764
 20
404.627554451348
 30
0.0
  0
POINT
  5
515B
330
5151
100
AcDbEntity
  8
DEFPOINTS
 62
     0
100
AcDbPoint
 10
194.796383676491
 20
404.627554451348
 30
0.0
  0
ENDBLK
  5
5153
330
5151
100
AcDbEntity
  8
0
100
AcDbBlockEnd
  0
BLOCK
  5
516A
330
5169
100
AcDbEntity
  8
0
100
AcDbBlockBegin
  2
*D45
 70
     1
 10
0.0
 20
0.0
 30
0.0
  3
*D45
  1

  0
LINE
  5
516C
330
5169
100
AcDbEntity
  8
寸法線
 62
     0
 48
10.0
100
AcDbLine
 10
282.299629607672
 20
426.127554451348
 30
0.0
 11
282.299629607672
 21
457.676573209631
 31
0.0
  0
LINE
  5
516D
330
5169
100
AcDbEntity
  8
寸法線
 62
     0
 48
10.0
100
AcDbLine
 10
282.299629607672
 20
420.127554451348
 30
0.0
 11
282.299629607672
 21
410.627554451348
 31
0.0
  0
INSERT
  5
516E
330
5169
100
AcDbEntity
  8
寸法線
 62
     0
100
AcDbBlockReference
  2
_OPEN30
 10
282.299629607672
 20
426.127554451348
 30
0.0
 41
6.0
 42
6.0
 43
6.0
 50
90.0
  0
INSERT
  5
516F
330
5169
100
AcDbEntity
  8
寸法線
 62
     0
100
AcDbBlockReference
  2
_OPEN30
 10
282.299629607672
 20
404.627554451348
 30
0.0
 41
6.0
 42
6.0
 43
6.0
 50
270.0
  0
MTEXT
  5
5170
330
5169
100
AcDbEntity
  8
寸法線
 62
     0
 48
10.0
100
AcDbMText
 10
277.670462941005
 20
445.118239876298
 30
0.0
 40
8.0
 41
0.0
 71
     5
 72
     1
  1
\A1;φ21.5
 11
0.0
 21
1.0
 31
0.0
  0
POINT
  5
5171
330
5169
100
AcDbEntity
  8
DEFPOINTS
 62
     0
100
AcDbPoint
 10
293.963495766088
 20
426.127554451348
 30
0.0
  0
POINT
  5
5172
330
5169
100
AcDbEntity
  8
DEFPOINTS
 62
     0
100
AcDbPoint
 10
293.963495766088
 20
404.627554451348
 30
0.0
  0
POINT
  5
5173
330
5169
100
AcDbEntity
  8
DEFPOINTS
 62
     0
100
AcDbPoint
 10
282.299629607672
 20
404.627554451348
 30
0.0
  0
ENDBLK
  5
516B
330
5169
100
AcDbEntity
  8
0
100
AcDbBlockEnd
  0
BLOCK
  5
5BFB
330
5BFA
100
AcDbEntity
  8
0
100
AcDbBlockBegin
  2
*D48
 70
     1
 10
0.0
 20
0.0
 30
0.0
  3
*D48
  1

  0
LINE
  5
5BFD
330
5BFA
100
AcDbEntity
  8
寸法線
 62
     0
 48
10.0
100
AcDbLine
 10
57.809851932764
 20
426.127554451348
 30
0.0
 11
43.546383676491
 21
426.127554451348
 31
0.0
  0
LINE
  5
5BFE
330
5BFA
100
AcDbEntity
  8
寸法線
 62
     0
 48
10.0
100
AcDbLine
 10
57.809851932764
 20
404.627554451348
 30
0.0
 11
43.546383676491
 21
404.627554451348
 31
0.0
  0
LINE
  5
5BFF
330
5BFA
100
AcDbEntity
  8
寸法線
 62
     0
 48
10.0
100
AcDbLine
 10
44.796383676491
 20
426.127554451348
 30
0.0
 11
44.796383676491
 21
457.244221118015
 31
0.0
  0
LINE
  5
5C00
330
5BFA
100
AcDbEntity
  8
寸法線
 62
     0
 48
10.0
100
AcDbLine
 10
44.796383676491
 20
420.127554451348
 30
0.0
 11
44.796383676491
 21
410.627554451348
 31
0.0
  0
INSERT
  5
5C01
330
5BFA
100
AcDbEntity
  8
寸法線
 62
     0
100
AcDbBlockReference
  2
_OPEN30
 10
44.796383676491
 20
426.127554451348
 30
0.0
 41
6.0
 42
6.0
 43
6.0
 50
90.0
  0
INSERT
  5
5C02
330
5BFA
100
AcDbEntity
  8
寸法線
 62
     0
100
AcDbBlockReference
  2
_OPEN30
 10
44.796383676491
 20
404.627554451348
 30
0.0
 41
6.0
 42
6.0
 43
6.0
 50
270.0
  0
MTEXT
  5
5C03
330
5BFA
100
AcDbEntity
  8
寸法線
 62
     0
 48
10.0
100
AcDbMText
 10
40.167217009825
 20
444.685887784682
 30
0.0
 40
8.0
 41
0.0
 71
     5
 72
     1
  1
\A1;φ21.5
 11
0.0
 21
1.0
 31
0.0
  0
POINT
  5
5C04
330
5BFA
100
AcDbEntity
  8
DEFPOINTS
 62
     0
100
AcDbPoint
 10
58.434851932764
 20
426.127554451348
 30
0.0
  0
POINT
  5
5C05
330
5BFA
100
AcDbEntity
  8
DEFPOINTS
 62
     0
100
AcDbPoint
 10
58.434851932764
 20
404.627554451348
 30
0.0
  0
POINT
  5
5C06
330
5BFA
100
AcDbEntity
  8
DEFPOINTS
 62
     0
100
AcDbPoint
 10
44.796383676491
 20
404.627554451348
 30
0.0
  0
ENDBLK
  5
5BFC
330
5BFA
100
AcDbEntity
  8
0
100
AcDbBlockEnd
  0
ENDSEC
  0
SECTION
  2
ENTITIES
  0
LINE
  5
4420
102
{ACAD_REACTORS
330
46B4
102
}
330
1A
100
AcDbEntity
  8
細線
100
AcDbLine
 10
342.434851932764
 20
444.676864670139
 30
0.0
 11
342.434851932764
 21
429.676864670139
 31
0.0
  0
LINE
  5
4515
330
1A
100
AcDbEntity
  8
中心線
 48
10.0
100
AcDbLine
 10
50.825585193445
 20
415.37824421962
 30
0.0
 11
464.687341161507
 21
415.378244219621
 31
0.0
  0
LINE
  5
4521
102
{ACAD_REACTORS
330
47D0
102
}
330
1A
100
AcDbEntity
  8
隠れ線
 48
10.0
100
AcDbLine
 10
307.434851932764
 20
426.128244219621
 30
0.0
 11
352.434851932764
 21
426.128244219621
 31
0.0
  0
LINE
  5
4523
102
{ACAD_REACTORS
330
47D0
102
}
330
1A
100
AcDbEntity
  8
隠れ線
 48
10.0
100
AcDbLine
 10
307.434851932764
 20
404.628244219621
 30
0.0
 11
352.434851932764
 21
404.628244219621
 31
0.0
  0
LINE
  5
4635
102
{ACAD_REACTORS
330
46B4
102
}
330
1A
100
AcDbEntity
  8
外形線
 48
10.0
100
AcDbLine
 10
352.434851932764
 20
434.377554440934
 30
0.0
 11
352.434851932764
 21
396.376174899345
 31
0.0
  0
LINE
  5
4636
102
{ACAD_REACTORS
330
46B4
102
}
330
1A
100
AcDbEntity
  8
外形線
 48
10.0
100
AcDbLine
 10
332.434851932764
 20
434.377554440934
 30
0.0
 11
332.434851932764
 21
396.376174899345
 31
0.0
  0
ARC
  5
4637
102
{ACAD_REACTORS
330
46B4
102
}
330
1A
100
AcDbEntity
  8
細線
 48
10.0
100
AcDbCircle
 10
353.725377835768
 20
392.998434084317
 30
0.0
 40
21.5568
100
AcDbArc
 50
148.046790151163
 51
170.985160447973
  0
ARC
  5
4638
102
{ACAD_REACTORS
330
46B4
102
}
330
1A
100
AcDbEntity
  8
細線
 48
10.0
100
AcDbCircle
 10
331.14432602976
 20
392.998434084317
 30
0.0
 40
21.5568
100
AcDbArc
 50
9.014839552025
 51
31.953209848837
  0
ARC
  5
4639
102
{ACAD_REACTORS
330
46B4
102
}
330
1A
100
AcDbEntity
  8
外形線
 48
10.0
100
AcDbCircle
 10
335.920191955429
 20
410.231196807411
 30
0.0
 40
21.5568
100
AcDbArc
 50
308.824173789179
 51
320.004933775737
  0
ARC
  5
463A
102
{ACAD_REACTORS
330
46B4
102
}
330
1A
100
AcDbEntity
  8
外形線
 48
10.0
100
AcDbCircle
 10
348.9495119101
 20
410.231196807411
 30
0.0
 40
21.5568
100
AcDbArc
 50
219.995066224262
 51
231.17582621082
  0
ARC
  5
463B
102
{ACAD_REACTORS
330
46B4
102
}
330
1A
100
AcDbEntity
  8
細線
 48
10.0
100
AcDbCircle
 10
331.14432602976
 20
437.755295255962
 30
0.0
 40
21.5568
100
AcDbArc
 50
328.046790151163
 51
350.985160447974
  0
ARC
  5
463C
102
{ACAD_REACTORS
330
46B4
102
}
330
1A
100
AcDbEntity
  8
外形線
 48
10.0
100
AcDbCircle
 10
335.920191955429
 20
420.522532532868
 30
0.0
 40
21.5568
100
AcDbArc
 50
39.995066224263
 51
51.175826210821
  0
ARC
  5
463D
102
{ACAD_REACTORS
330
46B4
102
}
330
1A
100
AcDbEntity
  8
外形線
 48
10.0
100
AcDbCircle
 10
348.9495119101
 20
420.522532532868
 30
0.0
 40
21.5568
100
AcDbArc
 50
128.824173789179
 51
140.004933775737
  0
ARC
  5
463E
102
{ACAD_REACTORS
330
46B4
102
}
330
1A
100
AcDbEntity
  8
細線
 48
10.0
100
AcDbCircle
 10
353.725377835768
 20
437.755295255962
 30
0.0
 40
21.5568
100
AcDbArc
 50
189.014839552026
 51
211.953209848837
  0
LINE
  5
463F
102
{ACAD_REACTORS
330
46B4
102
}
330
1A
100
AcDbEntity
  8
外形線
 48
10.0
100
AcDbLine
 10
335.434851932764
 20
393.438244211728
 30
0.0
 11
349.434851932764
 21
393.438244211728
 31
0.0
  0
LINE
  5
4640
102
{ACAD_REACTORS
330
46B4
102
}
330
1A
100
AcDbEntity
  8
外形線
 48
10.0
100
AcDbLine
 10
335.434851932764
 20
437.31686467014
 30
0.0
 11
349.434851932764
 21
437.316864670139
 31
0.0
  0
ARC
  5
4641
102
{ACAD_REACTORS
330
46B4
102
}
330
1A
100
AcDbEntity
  8
細線
 48
10.0
100
AcDbCircle
 10
330.878035345395
 20
415.376864670139
 30
0.0
 40
21.55681659840436
100
AcDbArc
 50
329.41022798631
 51
30.589772013689
  0
ARC
  5
4642
102
{ACAD_REACTORS
330
46B4
102
}
330
1A
100
AcDbEntity
  8
細線
 48
10.0
100
AcDbCircle
 10
353.991668520134
 20
415.376864670139
 30
0.0
 40
21.5568165984052
100
AcDbArc
 50
149.410227986311
 51
210.589772013689
  0
LINE
  5
4654
102
{ACAD_REACTORS
330
46B4
102
}
330
1A
100
AcDbEntity
  8
外形線
100
AcDbLine
 10
307.434851932764
 20
431.127054438411
 30
0.0
 11
332.434851932764
 21
432.689554438411
 31
0.0
  0
LINE
  5
4655
102
{ACAD_REACTORS
330
46B4
102
}
330
1A
100
AcDbEntity
  8
外形線
100
AcDbLine
 10
307.434851932764
 20
431.127054438411
 30
0.0
 11
307.434851932764
 21
399.628054438411
 31
0.0
  0
LINE
  5
4656
102
{ACAD_REACTORS
330
46B4
102
}
330
1A
100
AcDbEntity
  8
細線
100
AcDbLine
 10
307.434851932764
 20
429.648054438411
 30
0.0
 11
332.434851932764
 21
431.210554438411
 31
0.0
  0
LINE
  5
4657
102
{ACAD_REACTORS
330
46B4
102
}
330
1A
100
AcDbEntity
  8
細線
100
AcDbLine
 10
307.434851932764
 20
401.107054438411
 30
0.0
 11
332.434851932764
 21
399.544554438411
 31
0.0
  0
LINE
  5
4658
102
{ACAD_REACTORS
330
46B4
102
}
330
1A
100
AcDbEntity
  8
外形線
100
AcDbLine
 10
307.434851932764
 20
399.628054438411
 30
0.0
 11
332.434851932764
 21
398.065554438411
 31
0.0
  0
LINE
  5
4659
102
{ACAD_REACTORS
330
46B4
102
}
330
1A
100
AcDbEntity
  8
細線
100
AcDbLine
 10
335.434851932764
 20
404.406864670139
 30
0.0
 11
349.434851932764
 21
404.406864670139
 31
0.0
  0
LINE
  5
465A
102
{ACAD_REACTORS
330
46B4
102
}
330
1A
100
AcDbEntity
  8
細線
100
AcDbLine
 10
335.434851932764
 20
426.346864670139
 30
0.0
 11
349.434851932764
 21
426.346864670139
 31
0.0
  0
LINE
  5
469F
102
{ACAD_REACTORS
330
46B5
102
}
330
1A
100
AcDbEntity
  8
細線
100
AcDbLine
 10
355.434851932764
 20
426.347554444138
 30
0.0
 11
369.434851932764
 21
426.347554444138
 31
0.0
  0
LINE
  5
46A0
102
{ACAD_REACTORS
330
46B5
102
}
330
1A
100
AcDbEntity
  8
細線
100
AcDbLine
 10
355.434851932764
 20
404.407554444138
 30
0.0
 11
369.434851932764
 21
404.407554444138
 31
0.0
  0
ARC
  5
46A6
102
{ACAD_REACTORS
330
46B5
102
}
330
1A
100
AcDbEntity
  8
細線
 48
10.0
100
AcDbCircle
 10
373.991668520134
 20
415.377554444138
 30
0.0
 40
21.5568165984052
100
AcDbArc
 50
149.410227986311
 51
210.589772013689
  0
ARC
  5
46A7
102
{ACAD_REACTORS
330
46B5
102
}
330
1A
100
AcDbEntity
  8
細線
 48
10.0
100
AcDbCircle
 10
350.878035345395
 20
415.377554444138
 30
0.0
 40
21.55681659840436
100
AcDbArc
 50
329.41022798631
 51
30.589772013689
  0
LINE
  5
46A8
102
{ACAD_REACTORS
330
46B5
102
}
330
1A
100
AcDbEntity
  8
外形線
 48
10.0
100
AcDbLine
 10
355.434851932764
 20
437.317554444138
 30
0.0
 11
369.434851932764
 21
437.317554444138
 31
0.0
  0
LINE
  5
46A9
102
{ACAD_REACTORS
330
46B5
102
}
330
1A
100
AcDbEntity
  8
外形線
 48
10.0
100
AcDbLine
 10
355.434851932764
 20
393.438933985727
 30
0.0
 11
369.434851932764
 21
393.438933985727
 31
0.0
  0
ARC
  5
46AA
102
{ACAD_REACTORS
330
46B5
102
}
330
1A
100
AcDbEntity
  8
細線
 48
10.0
100
AcDbCircle
 10
373.725377835768
 20
437.755985029961
 30
0.0
 40
21.5568
100
AcDbArc
 50
189.014839552026
 51
211.953209848837
  0
ARC
  5
46AB
102
{ACAD_REACTORS
330
46B5
102
}
330
1A
100
AcDbEntity
  8
外形線
 48
10.0
100
AcDbCircle
 10
368.9495119101
 20
420.523222306866
 30
0.0
 40
21.5568
100
AcDbArc
 50
128.824173789179
 51
140.004933775737
  0
ARC
  5
46AC
102
{ACAD_REACTORS
330
46B5
102
}
330
1A
100
AcDbEntity
  8
外形線
 48
10.0
100
AcDbCircle
 10
355.920191955429
 20
420.523222306866
 30
0.0
 40
21.5568
100
AcDbArc
 50
39.995066224263
 51
51.175826210821
  0
ARC
  5
46AD
102
{ACAD_REACTORS
330
46B5
102
}
330
1A
100
AcDbEntity
  8
細線
 48
10.0
100
AcDbCircle
 10
351.14432602976
 20
437.755985029961
 30
0.0
 40
21.5568
100
AcDbArc
 50
328.046790151163
 51
350.985160447974
  0
ARC
  5
46AE
102
{ACAD_REACTORS
330
46B5
102
}
330
1A
100
AcDbEntity
  8
外形線
 48
10.0
100
AcDbCircle
 10
368.9495119101
 20
410.23188658141
 30
0.0
 40
21.5568
100
AcDbArc
 50
219.995066224262
 51
231.17582621082
  0
ARC
  5
46AF
102
{ACAD_REACTORS
330
46B5
102
}
330
1A
100
AcDbEntity
  8
外形線
 48
10.0
100
AcDbCircle
 10
355.920191955429
 20
410.23188658141
 30
0.0
 40
21.5568
100
AcDbArc
 50
308.824173789179
 51
320.004933775737
  0
ARC
  5
46B0
102
{ACAD_REACTORS
330
46B5
102
}
330
1A
100
AcDbEntity
  8
細線
 48
10.0
100
AcDbCircle
 10
351.14432602976
 20
392.999123858315
 30
0.0
 40
21.5568
100
AcDbArc
 50
9.014839552025
 51
31.953209848837
  0
ARC
  5
46B1
102
{ACAD_REACTORS
330
46B5
102
}
330
1A
100
AcDbEntity
  8
細線
 48
10.0
100
AcDbCircle
 10
373.725377835768
 20
392.999123858315
 30
0.0
 40
21.5568
100
AcDbArc
 50
148.046790151163
 51
170.985160447973
  0
LINE
  5
46B2
102
{ACAD_REACTORS
330
46B5
102
}
330
1A
100
AcDbEntity
  8
外形線
 48
10.0
100
AcDbLine
 10
352.434851932764
 20
434.378244214933
 30
0.0
 11
352.434851932764
 21
396.376864673344
 31
0.0
  0
LINE
  5
46B3
102
{ACAD_REACTORS
330
46B5
102
}
330
1A
100
AcDbEntity
  8
外形線
 48
10.0
100
AcDbLine
 10
372.434851932764
 20
434.378244214932
 30
0.0
 11
372.434851932764
 21
396.376864673344
 31
0.0
  0
DIMENSION
  5
46B6
330
1A
100
AcDbEntity
  8
寸法線
 48
10.0
100
AcDbDimension
  2
*D13
 10
332.434851932764
 20
339.191584665002
 30
0.0
 11
319.934851932764
 21
343.820751331669
 31
0.0
 70
    32
  3
ISO-25
100
AcDbAlignedDimension
 13
307.434851932764
 23
399.628054438411
 33
0.0
 14
332.434851932764
 24
396.376174899345
 34
0.0
100
AcDbRotatedDimension
1001
ACAD
1000
DSTYLE
1002
{
1070
     5
1000
OPEN30
1070
    41
1040
6.0
1070
    47
1040
0.1
1070
    48
1040
0.1
1070
    73
1070
     0
1070
   140
1040
8.0
1070
   271
1070
     1
1070
   272
1070
     1
1070
   341
1005
2AF4
1002
}
  0
DIMENSION
  5
46C3
330
1A
100
AcDbEntity
  8
寸法線
 48
10.0
100
AcDbDimension
  2
*D14
 10
352.434851932764
 20
339.191584665002
 30
0.0
 11
342.434851932764
 21
343.820751331669
 31
0.0
 70
    32
  3
ISO-25
100
AcDbAlignedDimension
 13
332.434851932764
 23
396.376174899345
 33
0.0
 14
352.434851932764
 24
396.376174899345
 34
0.0
100
AcDbRotatedDimension
1001
ACAD
1000
DSTYLE
1002
{
1070
     5
1000
OPEN30
1070
    41
1040
6.0
1070
    47
1040
0.1
1070
    48
1040
0.1
1070
    73
1070
     0
1070
   140
1040
8.0
1070
   271
1070
     1
1070
   272
1070
     1
1070
   341
1005
2AF4
1002
}
  0
DIMENSION
  5
46D0
330
1A
100
AcDbEntity
  8
寸法線
 48
10.0
100
AcDbDimension
  2
*D15
 10
352.434851932764
 20
317.720708499581
 30
0.0
 11
329.934851932764
 21
322.345708499581
 31
0.0
 70
    32
  3
ISO-25
100
AcDbAlignedDimension
 13
307.434851932764
 23
399.628054438411
 33
0.0
 14
352.434851932764
 24
396.376864673344
 34
0.0
100
AcDbRotatedDimension
1001
ACAD
1000
DSTYLE
1002
{
1070
     5
1000
OPEN30
1070
    41
1040
6.0
1070
    47
1040
0.1
1070
    48
1040
0.1
1070
    73
1070
     0
1070
   140
1040
8.0
1070
   271
1070
     1
1070
   272
1070
     1
1070
   341
1005
2AF4
1002
}
  0
DIMENSION
  5
46EA
330
1A
100
AcDbEntity
  8
寸法線
 48
10.0
100
AcDbDimension
  2
*D16
 10
462.434887506439
 20
317.720708499581
 30
0.0
 11
407.434869719601
 21
317.720708499581
 31
0.0
 70
   160
  3
ISO-25
100
AcDbAlignedDimension
 13
352.434851932764
 23
396.376864673344
 33
0.0
 14
462.434887506439
 24
339.191584665002
 34
0.0
100
AcDbRotatedDimension
1001
ACAD
1000
DSTYLE
1002
{
1070
     5
1000
OPEN30
1070
    41
1040
6.0
1070
    47
1040
0.1
1070
    48
1040
0.1
1070
    73
1070
     0
1070
   140
1040
8.0
1070
   271
1070
     1
1070
   272
1070
     1
1070
   341
1005
2AF4
1002
}
  0
DIMENSION
  5
4968
330
1A
100
AcDbEntity
  8
寸法線
 48
10.0
100
AcDbDimension
  2
*D18
 10
372.434851932764
 20
339.191584665002
 30
0.0
 11
362.434851932764
 21
343.820751331669
 31
0.0
 70
    32
  3
ISO-25
100
AcDbAlignedDimension
 13
352.434851932764
 23
396.376864673344
 33
0.0
 14
372.434851932764
 24
396.376864673344
 34
0.0
100
AcDbRotatedDimension
1001
ACAD
1000
DSTYLE
1002
{
1070
     5
1000
OPEN30
1070
    41
1040
6.0
1070
    47
1040
0.1
1070
    48
1040
0.1
1070
    73
1070
     0
1070
   140
1040
8.0
1070
   271
1070
     1
1070
   272
1070
     1
1070
   341
1005
2AF4
1002
}
  0
DIMENSION
  5
4B0A
330
1A
100
AcDbEntity
  8
寸法線
 48
10.0
100
AcDbDimension
  2
*D19
 10
462.434887506439
 20
339.191584665002
 30
0.0
 11
417.434869719601
 21
339.191584665002
 31
0.0
 70
   160
  3
ISO-25
100
AcDbAlignedDimension
 13
372.434851932764
 23
396.378244219621
 33
0.0
 14
462.434887506439
 24
388.374575517064
 34
0.0
100
AcDbRotatedDimension
1001
ACAD
1000
DSTYLE
1002
{
1070
     5
1000
OPEN30
1070
    41
1040
6.0
1070
    47
1040
0.1
1070
    48
1040
0.1
1070
    73
1070
     0
1070
   140
1040
8.0
1070
   271
1070
     1
1070
   272
1070
     1
1070
   341
1005
2AF4
1002
}
  0
DIMENSION
  5
4B0D
330
1A
100
AcDbEntity
  8
寸法線
 48
10.0
100
AcDbDimension
  2
*D20
 10
485.171383676491
 20
369.37824421962
 30
0.0
 11
485.171383676491
 21
411.878262775458
 31
0.0
 70
   160
  3
ISO-25
100
AcDbAlignedDimension
 13
427.557890642895
 23
454.378281331296
 33
0.0
 14
448.076851932764
 24
369.37824421962
 34
0.0
 50
90.0
100
AcDbRotatedDimension
1001
ACAD
1000
DSTYLE
1002
{
1070
     5
1000
OPEN30
1070
    41
1040
6.0
1070
    47
1040
0.1
1070
    48
1040
0.1
1070
    73
1070
     0
1070
   140
1040
8.0
1070
   271
1070
     1
1070
   272
1070
     1
1070
   341
1005
2AF4
1002
}
  0
LINE
  5
4B0E
330
1A
100
AcDbEntity
  8
外形線
 48
10.0
100
AcDbLine
 10
406.576851932764
 20
386.37824421962
 30
0.0
 11
416.076851932764
 21
386.37824421962
 31
0.0
  0
LINE
  5
4B0F
330
1A
100
AcDbEntity
  8
外形線
 48
10.0
100
AcDbLine
 10
376.934851932764
 20
397.87824421962
 30
0.0
 11
397.076851932764
 21
397.87824421962
 31
0.0
  0
LINE
  5
4B10
330
1A
100
AcDbEntity
  8
外形線
 48
10.0
100
AcDbLine
 10
376.934851932764
 20
432.878244219621
 30
0.0
 11
397.076851932764
 21
432.878244219621
 31
0.0
  0
LINE
  5
4B11
330
1A
100
AcDbEntity
  8
外形線
 48
10.0
100
AcDbLine
 10
406.576851932764
 20
444.37824421962
 30
0.0
 11
420.117985299214
 21
444.37824421962
 31
0.0
  0
LINE
  5
4B12
330
1A
100
AcDbEntity
  8
外形線
 48
10.0
100
AcDbLine
 10
419.297916040907
 20
450.886457416337
 30
0.0
 11
453.754500422941
 21
381.775040739533
 31
0.0
  0
ARC
  5
4B13
330
1A
100
AcDbEntity
  8
外形線
 48
10.0
100
AcDbCircle
 10
346.814176023721
 20
370.634742596645
 30
0.0
 40
116.880564807258
100
AcDbArc
 50
8.420101953746
 51
45.185262866739
  0
LINE
  5
4B14
330
1A
100
AcDbEntity
  8
外形線
 48
10.0
100
AcDbLine
 10
419.297916040907
 20
450.886457416337
 30
0.0
 11
425.744938890452
 21
454.10082443582
 31
0.0
  0
LINE
  5
4B15
330
1A
100
AcDbEntity
  8
中心線
 48
10.0
100
AcDbLine
 10
433.076851932764
 20
395.378244219621
 30
0.0
 11
433.076851932764
 21
356.36704585403
 31
0.0
  0
LINE
  5
4B16
330
1A
100
AcDbEntity
  8
外形線
100
AcDbLine
 10
449.076851932764
 20
370.37824421962
 30
0.0
 11
449.076851932764
 21
386.37824421962
 31
0.0
  0
LINE
  5
4B17
330
1A
100
AcDbEntity
  8
外形線
100
AcDbLine
 10
461.675150406637
 20
424.458377322684
 30
0.0
 11
464.129238378741
 21
419.536238333873
 31
0.0
  0
LINE
  5
4B18
330
1A
100
AcDbEntity
  8
外形線
100
AcDbLine
 10
458.105567901758
 20
431.6178522155
 30
0.0
 11
455.651479929654
 21
436.539991204312
 31
0.0
  0
LINE
  5
4B19
330
1A
100
AcDbEntity
  8
外形線
100
AcDbLine
 10
455.651479929654
 20
436.539991204312
 30
0.0
 11
446.419519155728
 21
431.937105356161
 31
0.0
  0
LINE
  5
4B1A
330
1A
100
AcDbEntity
  8
外形線
100
AcDbLine
 10
449.156224285738
 20
427.155874084402
 30
0.0
 11
458.105567901758
 21
431.6178522155
 31
0.0
  0
LINE
  5
4B1B
330
1A
100
AcDbEntity
  8
外形線
100
AcDbLine
 10
452.725806790616
 20
419.996399191586
 30
0.0
 11
461.675150406637
 21
424.458377322684
 31
0.0
  0
LINE
  5
4B1C
330
1A
100
AcDbEntity
  8
外形線
100
AcDbLine
 10
464.129238378741
 20
419.536238333873
 30
0.0
 11
454.897277604814
 21
414.933352485723
 31
0.0
  0
LINE
  5
4B1D
330
1A
100
AcDbEntity
  8
外形線
100
AcDbLine
 10
453.754500422941
 20
381.775040739533
 30
0.0
 11
460.800499905021
 21
385.288046491652
 31
0.0
  0
ARC
  5
4B1E
330
1A
100
AcDbEntity
  8
外形線
100
AcDbCircle
 10
459.461906465691
 20
387.972849576458
 30
0.0
 40
3.0
100
AcDbArc
 50
296.499999999995
 51
7.695516969247
  0
ARC
  5
4B1F
330
1A
100
AcDbEntity
  8
外形線
100
AcDbCircle
 10
427.083532329781
 20
451.416021351014
 30
0.0
 40
3.0
100
AcDbArc
 50
45.30448303075
 51
116.499999999995
  0
ARC
  5
4B20
330
1A
100
AcDbEntity
  8
外形線
100
AcDbCircle
 10
406.576851932764
 20
394.37824421962
 30
0.0
 40
8.0
100
AcDbArc
 50
180.0
 51
270.0
  0
ARC
  5
4B21
330
1A
100
AcDbEntity
  8
外形線
100
AcDbCircle
 10
406.576851932764
 20
436.37824421962
 30
0.0
 40
8.0
100
AcDbArc
 50
90.0
 51
180.0
  0
ARC
  5
4B22
330
1A
100
AcDbEntity
  8
外形線
100
AcDbCircle
 10
416.076851932764
 20
385.37824421962
 30
0.0
 40
1.0
100
AcDbArc
 50
0.0
 51
90.0
  0
LINE
  5
4B23
330
1A
100
AcDbEntity
  8
外形線
100
AcDbLine
 10
417.076851932764
 20
370.37824421962
 30
0.0
 11
417.076851932764
 21
385.37824421962
 31
0.0
  0
LINE
  5
4B24
330
1A
100
AcDbEntity
  8
外形線
100
AcDbLine
 10
417.076851932764
 20
370.37824421962
 30
0.0
 11
418.076851932764
 21
369.37824421962
 31
0.0
  0
LINE
  5
4B25
330
1A
100
AcDbEntity
  8
外形線
100
AcDbLine
 10
418.076851932764
 20
369.37824421962
 30
0.0
 11
448.076851932764
 21
369.37824421962
 31
0.0
  0
LINE
  5
4B26
330
1A
100
AcDbEntity
  8
外形線
100
AcDbLine
 10
448.076851932764
 20
369.37824421962
 30
0.0
 11
449.076851932764
 21
370.37824421962
 31
0.0
  0
ARC
  5
4B27
330
1A
100
AcDbEntity
  8
細線
100
AcDbCircle
 10
433.074052341366
 20
356.36704585403
 30
0.0
 40
34.01119848081266
100
AcDbArc
 50
63.82505009863
 51
116.164440091244
  0
LINE
  5
4B28
330
1A
100
AcDbEntity
  8
外形線
100
AcDbLine
 10
449.527685224279
 20
385.474012526689
 30
0.0
 11
419.70828537415
 21
445.282475912552
 31
0.0
  0
LINE
  5
4B29
330
1A
100
AcDbEntity
  8
外形線
100
AcDbLine
 10
421.61650830686
 20
446.233880770867
 30
0.0
 11
451.435908156988
 21
386.425417385004
 31
0.0
  0
LINE
  5
4B2A
330
1A
100
AcDbEntity
  8
外形線
100
AcDbLine
 10
419.70828537415
 20
445.282475912552
 30
0.0
 11
421.61650830686
 21
446.233880770867
 31
0.0
  0
LINE
  5
4B2B
330
1A
100
AcDbEntity
  8
外形線
100
AcDbLine
 10
449.527685224279
 20
385.474012526689
 30
0.0
 11
451.435908156988
 21
386.425417385004
 31
0.0
  0
ARC
  5
4B2C
330
1A
100
AcDbEntity
  8
外形線
100
AcDbCircle
 10
397.076851932764
 20
434.378244219621
 30
0.0
 40
1.5
100
AcDbArc
 50
270.0
 51
0.0
  0
ARC
  5
4B2D
330
1A
100
AcDbEntity
  8
外形線
100
AcDbCircle
 10
397.076851932764
 20
396.37824421962
 30
0.0
 40
1.5
100
AcDbArc
 50
0.0
 51
90.0
  0
LINE
  5
4B2E
330
1A
100
AcDbEntity
  8
外形線
100
AcDbLine
 10
398.576851932764
 20
436.37824421962
 30
0.0
 11
398.576851932764
 21
394.37824421962
 31
0.0
  0
ARC
  5
4B2F
330
1A
100
AcDbEntity
  8
外形線
100
AcDbCircle
 10
376.934851932764
 20
399.37824421962
 30
0.0
 40
1.5
100
AcDbArc
 50
180.0
 51
270.0
  0
ARC
  5
4B30
330
1A
100
AcDbEntity
  8
外形線
100
AcDbCircle
 10
376.934851932764
 20
431.378244219621
 30
0.0
 40
1.5
100
AcDbArc
 50
90.0
 51
180.0
  0
LINE
  5
4B31
330
1A
100
AcDbEntity
  8
外形線
100
AcDbLine
 10
375.434851932764
 20
431.378244219621
 30
0.0
 11
375.434851932764
 21
399.37824421962
 31
0.0
  0
LWPOLYLINE
  5
4B5E
330
1A
100
AcDbEntity
  8
外形線
100
AcDbPolyline
 90
        4
 70
     1
 43
0.0
 10
372.434851932764
 20
396.378244219621
 10
375.434851932764
 20
396.378244219621
 10
375.434851932764
 20
434.37824421962
 10
372.434851932764
 20
434.37824421962
  0
LINE
  5
506B
330
1A
100
AcDbEntity
  8
外形線
100
AcDbLine
 10
307.434851932764
 20
427.236494219621
 30
0.0
 11
307.434851932764
 21
403.519994219621
 31
0.0
  0
LINE
  5
5081
330
1A
100
AcDbEntity
  8
寸法線
100
AcDbLine
 10
37.139580993091
 20
189.510277296591
 30
0.0
 11
608.877380705713
 21
189.510277296592
 31
0.0
  0
LINE
  5
5083
330
1A
100
AcDbEntity
  8
寸法線
100
AcDbLine
 10
37.139580993091
 20
280.87866004963
 30
0.0
 11
608.877380705713
 21
280.87866004963
 31
0.0
  0
LINE
  5
5084
330
1A
100
AcDbEntity
  8
寸法線
100
AcDbLine
 10
37.139580993091
 20
294.94866004963
 30
0.0
 11
608.877380705713
 21
294.94866004963
 31
0.0
  0
LINE
  5
5087
330
1A
100
AcDbEntity
  8
寸法線
100
AcDbLine
 10
37.139580993091
 20
254.773407834477
 30
0.0
 11
608.877380705713
 21
254.773407834477
 31
0.0
  0
LINE
  5
5088
330
1A
100
AcDbEntity
  8
寸法線
100
AcDbLine
 10
37.139580993091
 20
241.7207817269
 30
0.0
 11
608.877380705713
 21
241.7207817269
 31
0.0
  0
LINE
  5
5089
330
1A
100
AcDbEntity
  8
寸法線
100
AcDbLine
 10
37.139580993091
 20
228.668155619323
 30
0.0
 11
608.877380705713
 21
228.668155619323
 31
0.0
  0
LINE
  5
508A
330
1A
100
AcDbEntity
  8
寸法線
100
AcDbLine
 10
37.139580993091
 20
215.615529511746
 30
0.0
 11
608.877380705713
 21
215.615529511746
 31
0.0
  0
LINE
  5
508B
330
1A
100
AcDbEntity
  8
寸法線
100
AcDbLine
 10
37.139580993091
 20
202.562903404169
 30
0.0
 11
608.877380705713
 21
202.562903404169
 31
0.0
  0
LINE
  5
508D
330
1A
100
AcDbEntity
  8
寸法線
100
AcDbLine
 10
37.139580993091
 20
267.826033942053
 30
0.0
 11
608.877380705713
 21
267.826033942053
 31
0.0
  0
MTEXT
  5
508E
102
{ACAD_XDICTIONARY
360
508F
102
}
330
1A
100
AcDbEntity
  8
寸法線
 48
10.0
100
AcDbMText
 10
108.588415391909
 20
292.091879018236
 30
0.0
 40
8.0
 41
78.897728797637
 71
     2
 72
     5
  1
\PTSS-A3SA-025\PTSS-A3SA-030\PTSS-A3SA-035\PTSS-A3SA-040\PTSS-A3SA-045\PTSS-A3SA-050\PTSS-A3SA-055\PTSS-A3SA-060
1001
ACADANNOTATIVE
1000
AnnotativeData
1002
{
1070
     1
1070
     0
1002
}
1001
ACAD
1000
MTEXTBEGIN
1070
    44
1040
0.99
1000
MTEXTEND
  0
MTEXT
  5
50A7
102
{ACAD_XDICTIONARY
360
50A8
102
}
330
1A
100
AcDbEntity
  8
寸法線
 48
10.0
100
AcDbMText
 10
395.724565272559
 20
290.601901641397
 30
0.0
 40
8.0
 41
78.897728797637
 71
     2
 72
     5
  1
\PTSS-A3SA-065\PTSS-A3SA-070\PTSS-A3SA-075\PTSS-A3SA-080\PTSS-A3SA-085\PTSS-A3SA-090\PTSS-A3SA-095\PTSS-A3SA-100
1001
ACADANNOTATIVE
1000
AnnotativeData
1002
{
1070
     1
1070
     0
1002
}
1001
ACAD
1000
MTEXTBEGIN
1070
    44
1040
0.99
1000
MTEXTEND
  0
LINE
  5
50C2
330
1A
100
AcDbEntity
  8
寸法線
100
AcDbLine
 10
37.139580993091
 20
176.457651189014
 30
0.0
 11
608.877380705713
 21
176.457651189014
 31
0.0
  0
ARC
  5
50C9
330
1A
100
AcDbEntity
  8
細線
 48
10.0
100
AcDbCircle
 10
247.712195682764
 20
420.752554451349
 30
0.0
 40
8.222656249999796
100
AcDbArc
 50
319.180234332392
 51
40.819765667608
  0
ARC
  5
50CA
330
1A
100
AcDbEntity
  8
細線
 48
10.0
100
AcDbCircle
 10
247.712195682764
 20
410.002554451349
 30
0.0
 40
8.222656249999796
100
AcDbArc
 50
319.180234332392
 51
40.819765667609
  0
ARC
  5
50CB
330
1A
100
AcDbEntity
  8
細線
 48
10.0
100
AcDbCircle
 10
260.157508182764
 20
420.752554451348
 30
0.0
 40
8.222656249999796
100
AcDbArc
 50
139.180234332391
 51
220.819765667608
  0
ARC
  5
50CC
330
1A
100
AcDbEntity
  8
細線
 48
10.0
100
AcDbCircle
 10
267.157508182764
 20
420.752554451349
 30
0.0
 40
8.222656249999796
100
AcDbArc
 50
139.180234332391
 51
220.819765667609
  0
ARC
  5
50CD
330
1A
100
AcDbEntity
  8
細線
 48
10.0
100
AcDbCircle
 10
254.712195682764
 20
410.002554451349
 30
0.0
 40
8.222656249999796
100
AcDbArc
 50
319.180234332392
 51
40.819765667608
  0
ARC
  5
50CE
330
1A
100
AcDbEntity
  8
細線
 48
10.0
100
AcDbCircle
 10
267.157508182764
 20
410.002554451349
 30
0.0
 40
8.222656249999796
100
AcDbArc
 50
139.180234332391
 51
220.819765667609
  0
ARC
  5
50CF
330
1A
100
AcDbEntity
  8
細線
 48
10.0
100
AcDbCircle
 10
185.407508182764
 20
420.752554451348
 30
0.0
 40
8.222656249999796
100
AcDbArc
 50
139.180234332391
 51
220.819765667607
  0
ARC
  5
50D0
330
1A
100
AcDbEntity
  8
細線
 48
10.0
100
AcDbCircle
 10
172.962195682764
 20
420.752554451349
 30
0.0
 40
8.222656249999796
100
AcDbArc
 50
319.180234332392
 51
40.819765667609
  0
ARC
  5
50D1
330
1A
100
AcDbEntity
  8
細線
 48
10.0
100
AcDbCircle
 10
172.962195682764
 20
410.002554451349
 30
0.0
 40
8.222656249999796
100
AcDbArc
 50
319.180234332391
 51
40.819765667609
  0
ARC
  5
50D2
330
1A
100
AcDbEntity
  8
細線
 48
10.0
100
AcDbCircle
 10
192.407508182764
 20
410.002554451349
 30
0.0
 40
8.222656249999796
100
AcDbArc
 50
139.180234332391
 51
220.819765667608
  0
ARC
  5
50D3
330
1A
100
AcDbEntity
  8
細線
 48
10.0
100
AcDbCircle
 10
179.962195682764
 20
410.002554451349
 30
0.0
 40
8.222656249999796
100
AcDbArc
 50
319.180234332392
 51
40.819765667609
  0
ARC
  5
50D4
330
1A
100
AcDbEntity
  8
細線
 48
10.0
100
AcDbCircle
 10
192.407508182764
 20
420.752554451348
 30
0.0
 40
8.222656249999796
100
AcDbArc
 50
139.180234332391
 51
220.819765667608
  0
SPLINE
  5
50D5
330
1A
100
AcDbEntity
  8
寸法線
 48
10.0
100
AcDbSpline
210
0.0
220
0.0
230
1.0
 70
  1064
 71
     3
 72
    13
 73
     9
 74
     7
 42
0.000000001
 43
0.0000000001
 44
0.0000000001
 40
0.0
 40
0.0
 40
0.0
 40
0.0
 40
3.223685095176967
 40
8.435450993908002
 40
12.63609189519606
 40
15.54126966359024
 40
17.08609505184027
 40
18.20640635868928
 40
18.20640635868928
 40
18.20640635868928
 40
18.20640635868928
 10
103.4546643726963
 20
340.1265619248223
 30
0.0
 10
104.4133264354948
 20
340.5694062286443
 30
0.0
 10
106.9218676272365
 20
341.7282016173163
 30
0.0
 10
107.5263557239276
 20
349.8177078653329
 30
0.0
 10
103.9506257065215
 20
343.999447116295
 30
0.0
 10
104.1072040667046
 20
341.0457947903235
 30
0.0
 10
105.991096519113
 20
339.8886865386783
 30
0.0
 10
106.824372953873
 20
340.3055202512868
 30
0.0
 10
107.1746472993913
 20
340.4807396020129
 30
0.0
 11
103.4546643726963
 21
340.1265619248223
 31
0.0
 11
106.0232238571952
 21
342.0745474913645
 31
0.0
 11
106.5989355782931
 21
347.2544181265606
 31
0.0
 11
104.3403752147855
 21
343.7126263390656
 31
0.0
 11
104.7389452024787
 21
340.8349189476024
 31
0.0
 11
106.1117947238976
 21
340.1265619248223
 31
0.0
 11
107.1746472993913
 21
340.4807396020129
 31
0.0
  0
TEXT
  5
50D6
330
1A
100
AcDbEntity
  8
寸法線
 48
10.0
100
AcDbText
 10
109.540694877511
 20
340.175471896447
 30
0.0
 40
5.2
  1
1
100
AcDbText
  0
SPLINE
  5
50D7
330
1A
100
AcDbEntity
  8
寸法線
 48
10.0
100
AcDbSpline
210
0.0
220
0.0
230
1.0
 70
  1064
 71
     3
 72
    13
 73
     9
 74
     7
 42
0.000000001
 43
0.0000000001
 44
0.0000000001
 40
0.0
 40
0.0
 40
0.0
 40
0.0
 40
3.223685095176967
 40
8.435450993908002
 40
12.63609189519606
 40
15.54126966359024
 40
17.08609505184027
 40
18.20640635868928
 40
18.20640635868928
 40
18.20640635868928
 40
18.20640635868928
 10
178.4574273201459
 20
340.1265619248223
 30
0.0
 10
179.4160893829443
 20
340.5694062286443
 30
0.0
 10
181.9246305746861
 20
341.7282016173163
 30
0.0
 10
182.5291186713772
 20
349.8177078653329
 30
0.0
 10
178.9533886539711
 20
343.999447116295
 30
0.0
 10
179.1099670141542
 20
341.0457947903235
 30
0.0
 10
180.9938594665626
 20
339.8886865386783
 30
0.0
 10
181.8271359013226
 20
340.3055202512868
 30
0.0
 10
182.1774102468409
 20
340.4807396020129
 30
0.0
 11
178.4574273201459
 21
340.1265619248223
 31
0.0
 11
181.0259868046448
 21
342.0745474913645
 31
0.0
 11
181.6016985257427
 21
347.2544181265606
 31
0.0
 11
179.3431381622351
 21
343.7126263390656
 31
0.0
 11
179.7417081499283
 21
340.8349189476024
 31
0.0
 11
181.1145576713471
 21
340.1265619248223
 31
0.0
 11
182.1774102468409
 21
340.4807396020129
 31
0.0
  0
TEXT
  5
50D8
330
1A
100
AcDbEntity
  8
寸法線
 48
10.0
100
AcDbText
 10
184.54345782496
 20
340.175471896447
 30
0.0
 40
5.2
  1
2
100
AcDbText
  0
TEXT
  5
50D9
330
1A
100
AcDbEntity
  8
寸法線
 48
10.0
100
AcDbText
 10
258.747001868091
 20
340.175471896447
 30
0.0
 40
5.2
  1
3
100
AcDbText
  0
SPLINE
  5
50DA
330
1A
100
AcDbEntity
  8
寸法線
 48
10.0
100
AcDbSpline
210
0.0
220
0.0
230
1.0
 70
  1064
 71
     3
 72
    13
 73
     9
 74
     7
 42
0.000000001
 43
0.0000000001
 44
0.0000000001
 40
0.0
 40
0.0
 40
0.0
 40
0.0
 40
3.223685095176967
 40
8.43545099390801
 40
12.6360918951961
 40
15.54126966359029
 40
17.08609505184032
 40
18.2064063586893
 40
18.2064063586893
 40
18.2064063586893
 40
18.2064063586893
 10
252.6609713632763
 20
340.1265619248223
 30
0.0
 10
253.6196334260748
 20
340.5694062286443
 30
0.0
 10
256.1281746178166
 20
341.7282016173164
 30
0.0
 10
256.7326627145077
 20
349.8177078653329
 30
0.0
 10
253.1569326971015
 20
343.9994471162948
 30
0.0
 10
253.3135110572847
 20
341.0457947903236
 30
0.0
 10
255.1974035096931
 20
339.8886865386781
 30
0.0
 10
256.0306799444531
 20
340.3055202512869
 30
0.0
 10
256.3809542899713
 20
340.4807396020129
 30
0.0
 11
252.6609713632763
 21
340.1265619248223
 31
0.0
 11
255.2295308477752
 21
342.0745474913645
 31
0.0
 11
255.8052425688732
 21
347.2544181265606
 31
0.0
 11
253.5466822053656
 21
343.7126263390656
 31
0.0
 11
253.9452521930588
 21
340.8349189476024
 31
0.0
 11
255.3181017144776
 21
340.1265619248223
 31
0.0
 11
256.3809542899713
 21
340.4807396020129
 31
0.0
  0
SPLINE
  5
50DB
330
1A
100
AcDbEntity
  8
寸法線
 48
10.0
100
AcDbSpline
210
0.0
220
0.0
230
1.0
 70
  1064
 71
     3
 72
    13
 73
     9
 74
     7
 42
0.000000001
 43
0.0000000001
 44
0.0000000001
 40
0.0
 40
0.0
 40
0.0
 40
0.0
 40
3.223685095176967
 40
8.435450993908116
 40
12.63609189519624
 40
15.54126966359041
 40
17.08609505184049
 40
18.20640635868945
 40
18.20640635868945
 40
18.20640635868945
 40
18.20640635868945
 10
181.1436529044274
 20
318.88088981025
 30
0.0
 10
182.1023149672258
 20
319.323734114072
 30
0.0
 10
184.6108561589677
 20
320.4825295027441
 30
0.0
 10
185.2153442556587
 20
328.5720357507609
 30
0.0
 10
181.6396142382526
 20
322.7537750017226
 30
0.0
 10
181.7961925984357
 20
319.8001226757513
 30
0.0
 10
183.6800850508441
 20
318.6430144241059
 30
0.0
 10
184.5133614856042
 20
319.0598481367147
 30
0.0
 10
184.8636358311223
 20
319.2350674874406
 30
0.0
 11
181.1436529044274
 21
318.88088981025
 31
0.0
 11
183.7122123889263
 21
320.8288753767923
 31
0.0
 11
184.2879241100242
 21
326.0087460119884
 31
0.0
 11
182.0293637465167
 21
322.4669542244933
 31
0.0
 11
182.4279337342098
 21
319.5892468330301
 31
0.0
 11
183.8007832556287
 21
318.88088981025
 31
0.0
 11
184.8636358311223
 21
319.2350674874406
 31
0.0
  0
DIMENSION
  5
50DC
330
1A
100
AcDbEntity
  8
寸法線
 48
10.0
100
AcDbDimension
  2
*D39
 10
307.434851932764
 20
317.720708499581
 30
0.0
 11
182.434851932764
 21
300.875143075277
 31
0.0
 70
    32
  1
 
  3
ISO-25
100
AcDbAlignedDimension
 13
57.434851932764
 23
408.377554451348
 33
0.0
 14
307.434851932764
 24
399.628054451348
 34
0.0
100
AcDbRotatedDimension
1001
ACAD
1000
DSTYLE
1002
{
1070
     5
1000
OPEN30
1070
    41
1040
6.0
1070
    47
1040
0.1
1070
    48
1040
0.1
1070
    73
1070
     0
1070
   140
1040
8.0
1070
   271
1070
     1
1070
   272
1070
     1
1070
   341
1005
2AF4
1002
}
  0
DIMENSION
  5
50DD
330
1A
100
AcDbEntity
  8
寸法線
 48
10.0
100
AcDbDimension
  2
*D40
 10
307.434851932764
 20
339.191584665002
 30
0.0
 11
257.434851932764
 21
320.875143075277
 31
0.0
 70
    32
  1
 
  3
ISO-25
100
AcDbAlignedDimension
 13
207.434851932764
 23
404.627554451348
 33
0.0
 14
307.434851932764
 24
399.628054451348
 34
0.0
100
AcDbRotatedDimension
1001
ACAD
1000
DSTYLE
1002
{
1070
     5
1000
OPEN30
1070
    41
1040
6.0
1070
    47
1040
0.1
1070
    48
1040
0.1
1070
    73
1070
     0
1070
   140
1040
8.0
1070
   271
1070
     1
1070
   272
1070
     1
1070
   341
1005
2AF4
1002
}
  0
DIMENSION
  5
50DE
330
1A
100
AcDbEntity
  8
寸法線
 48
10.0
100
AcDbDimension
  2
*D41
 10
207.434851932764
 20
339.191584665002
 30
0.0
 11
182.434851932764
 21
320.875143075277
 31
0.0
 70
    32
  1
 
  3
ISO-25
100
AcDbAlignedDimension
 13
157.434851932764
 23
405.127554451348
 33
0.0
 14
207.434851932764
 24
404.627554451348
 34
0.0
100
AcDbRotatedDimension
1001
ACAD
1000
DSTYLE
1002
{
1070
     5
1000
OPEN30
1070
    41
1040
6.0
1070
    47
1040
0.1
1070
    48
1040
0.1
1070
    73
1070
     0
1070
   140
1040
8.0
1070
   271
1070
     1
1070
   272
1070
     1
1070
   341
1005
2AF4
1002
}
  0
DIMENSION
  5
50DF
330
1A
100
AcDbEntity
  8
寸法線
 48
10.0
100
AcDbDimension
  2
*D42
 10
157.434851932764
 20
339.191584665002
 30
0.0
 11
107.434851932764
 21
320.875143075277
 31
0.0
 70
    32
  1
 
  3
ISO-25
100
AcDbAlignedDimension
 13
57.434851932764
 23
408.377554451348
 33
0.0
 14
157.434851932764
 24
405.127554451348
 34
0.0
100
AcDbRotatedDimension
1001
ACAD
1000
DSTYLE
1002
{
1070
     5
1000
OPEN30
1070
    41
1040
6.0
1070
    47
1040
0.1
1070
    48
1040
0.1
1070
    73
1070
     0
1070
   140
1040
8.0
1070
   271
1070
     1
1070
   272
1070
     1
1070
   341
1005
2AF4
1002
}
  0
DIMENSION
  5
50E0
330
1A
100
AcDbEntity
  8
寸法線
 48
10.0
100
AcDbDimension
  2
*D43
 10
194.796383676491
 20
404.627554451348
 30
0.0
 11
194.796383676491
 21
445.118239876298
 31
0.0
 70
   160
  1
φ<>
  3
ISO-25
100
AcDbAlignedDimension
 13
207.434851932764
 23
426.127554451348
 33
0.0
 14
207.434851932764
 24
404.627554451348
 34
0.0
 50
90.0
100
AcDbRotatedDimension
1001
ACAD
1000
DSTYLE
1002
{
1070
     5
1000
OPEN30
1070
    76
1070
     1
1070
    75
1070
     1
1070
   282
1070
     0
1070
   281
1070
     0
1070
    41
1040
6.0
1070
    47
1040
0.1
1070
    48
1040
0.1
1070
    73
1070
     0
1070
   140
1040
8.0
1070
   271
1070
     1
1070
   272
1070
     1
1070
   341
1005
2AF4
1002
}
  0
LWPOLYLINE
  5
50E2
330
1A
100
AcDbEntity
  8
外形線
100
AcDbPolyline
 90
        6
 70
     0
 43
0.0
 10
253.934851932764
 20
426.127554451349
 10
207.934851932764
 20
426.127554451349
 10
207.434851932764
 20
425.627554451349
 10
207.434851932764
 20
405.127554451349
 10
207.934851932764
 20
404.627554451349
 10
253.934851932764
 20
404.627554451349
  0
LWPOLYLINE
  5
50E3
330
1A
100
AcDbEntity
  8
外形線
100
AcDbPolyline
 90
        6
 70
     0
 43
0.0
 10
179.184851932764
 20
426.127554451348
 10
157.934851932764
 20
426.127554451348
 10
157.434851932764
 20
425.627554451348
 10
157.434851932764
 20
405.127554451348
 10
157.934851932764
 20
404.627554451348
 10
179.184851932764
 20
404.627554451348
  0
LWPOLYLINE
  5
50E5
330
1A
100
AcDbEntity
  8
外形線
100
AcDbPolyline
 90
        4
 70
     0
 43
0.0
 10
260.934851932763
 20
404.627554451349
 10
307.434851932764
 20
404.627554451349
 10
307.434851932764
 20
426.127554451349
 10
260.934851932764
 20
426.127554451349
  0
LWPOLYLINE
  5
50E6
330
1A
100
AcDbEntity
  8
外形線
100
AcDbPolyline
 90
        4
 70
     0
 43
0.0
 10
186.184851932764
 20
404.627554451348
 10
207.434851932764
 20
404.627554451348
 10
207.434851932764
 20
426.127554451348
 10
186.184851932764
 20
426.127554451348
  0
DIMENSION
  5
50E8
330
1A
100
AcDbEntity
  8
寸法線
 48
10.0
100
AcDbDimension
  2
*D45
 10
282.299629607672
 20
404.627554451348
 30
0.0
 11
282.299629607672
 21
445.118239876298
 31
0.0
 70
   160
  1
φ<>
  3
ISO-25
100
AcDbAlignedDimension
 13
293.963495766088
 23
426.127554451348
 33
0.0
 14
293.963495766088
 24
404.627554451348
 34
0.0
 50
90.0
100
AcDbRotatedDimension
1001
ACAD
1000
DSTYLE
1002
{
1070
     5
1000
OPEN30
1070
    76
1070
     1
1070
    75
1070
     1
1070
    41
1040
6.0
1070
    47
1040
0.1
1070
    48
1040
0.1
1070
    73
1070
     0
1070
   140
1040
8.0
1070
   271
1070
     1
1070
   272
1070
     1
1070
   341
1005
2AF4
1002
}
  0
LINE
  5
5175
330
1A
100
AcDbEntity
  8
外形線
100
AcDbLine
 10
307.434851932764
 20
404.628244219621
 30
0.0
 11
307.434851932764
 21
426.128244219621
 31
0.0
  0
MTEXT
  5
5243
102
{ACAD_XDICTIONARY
360
5244
102
}
330
1A
100
AcDbEntity
  8
寸法線
 48
10.0
100
AcDbMText
 10
161.193354455186
 20
278.059001612363
 30
0.0
 40
8.0
 41
23.854899029718
 71
     2
 72
     5
  1
250\P300\P350\P400\P450\P500\P550\P600
1001
ACADANNOTATIVE
1000
AnnotativeData
1002
{
1070
     1
1070
     0
1002
}
1001
ACAD
1000
MTEXTBEGIN
1070
    44
1040
0.98
1000
MTEXTEND
  0
MTEXT
  5
5247
102
{ACAD_XDICTIONARY
360
5248
102
}
330
1A
100
AcDbEntity
  8
寸法線
 48
10.0
100
AcDbMText
 10
187.947674994686
 20
278.059001612363
 30
0.0
 40
8.0
 41
23.854899029718
 71
     2
 72
     5
  1
100\P100\P100\P100\P100\P100\P150\P150
1001
ACADANNOTATIVE
1000
AnnotativeData
1002
{
1070
     1
1070
     0
1002
}
1001
ACAD
1000
MTEXTBEGIN
1070
    44
1040
0.98
1000
MTEXTEND
  0
MTEXT
  5
524B
102
{ACAD_XDICTIONARY
360
524C
102
}
330
1A
100
AcDbEntity
  8
寸法線
 48
10.0
100
AcDbMText
 10
213.445412094744
 20
278.059001612363
 30
0.0
 40
8.0
 41
23.854899029718
 71
     2
 72
     5
  1
50\P50\P50\P50\P50\P50\P50\P50
1001
ACADANNOTATIVE
1000
AnnotativeData
1002
{
1070
     1
1070
     0
1002
}
1001
ACAD
1000
MTEXTBEGIN
1070
    44
1040
0.98
1000
MTEXTEND
  0
MTEXT
  5
524F
102
{ACAD_XDICTIONARY
360
5250
102
}
330
1A
100
AcDbEntity
  8
寸法線
 48
10.0
100
AcDbMText
 10
238.265772457917
 20
278.059001612363
 30
0.0
 40
8.0
 41
23.854899029718
 71
     2
 72
     5
  1
100\P150\P200\P250\P300\P350\P350\P400
1001
ACADANNOTATIVE
1000
AnnotativeData
1002
{
1070
     1
1070
     0
1002
}
1001
ACAD
1000
MTEXTBEGIN
1070
    44
1040
0.98
1000
MTEXTEND
  0
MTEXT
  5
5253
102
{ACAD_XDICTIONARY
360
5254
102
}
330
1A
100
AcDbEntity
  8
寸法線
 48
10.0
100
AcDbMText
 10
476.350796010969
 20
278.059001612363
 30
0.0
 40
8.0
 41
23.854899029718
 71
     2
 72
     5
  1
150\P150\P150\P150\P150\P150\P150\P150
1001
ACADANNOTATIVE
1000
AnnotativeData
1002
{
1070
     1
1070
     0
1002
}
1001
ACAD
1000
MTEXTBEGIN
1070
    44
1040
0.98
1000
MTEXTEND
  0
MTEXT
  5
5257
102
{ACAD_XDICTIONARY
360
5258
102
}
330
1A
100
AcDbEntity
  8
寸法線
 48
10.0
100
AcDbMText
 10
502.523779722404
 20
278.059001612363
 30
0.0
 40
8.0
 41
23.854899029718
 71
     2
 72
     5
  1
50\P50\P50\P50\P50\P50\P50\P50
1001
ACADANNOTATIVE
1000
AnnotativeData
1002
{
1070
     1
1070
     0
1002
}
1001
ACAD
1000
MTEXTBEGIN
1070
    44
1040
0.98
1000
MTEXTEND
  0
MTEXT
  5
525B
102
{ACAD_XDICTIONARY
360
525C
102
}
330
1A
100
AcDbEntity
  8
寸法線
 48
10.0
100
AcDbMText
 10
525.582206295413
 20
278.059001612363
 30
0.0
 40
8.0
 41
23.854899029718
 71
     2
 72
     5
  1
450\P500\P550\P600\P650\P700\P750\P800
1001
ACADANNOTATIVE
1000
AnnotativeData
1002
{
1070
     1
1070
     0
1002
}
1001
ACAD
1000
MTEXTBEGIN
1070
    44
1040
0.98
1000
MTEXTEND
  0
MTEXT
  5
525F
102
{ACAD_XDICTIONARY
360
5260
102
}
330
1A
100
AcDbEntity
  8
寸法線
 48
10.0
100
AcDbMText
 10
450.499163817964
 20
278.059001612363
 30
0.0
 40
8.0
 41
23.854899029718
 71
     2
 72
     5
  1
650\P700\P750\P800\P850\P900\P950\P1000
1001
ACADANNOTATIVE
1000
AnnotativeData
1002
{
1070
     1
1070
     0
1002
}
1001
ACAD
1000
MTEXTBEGIN
1070
    44
1040
0.98
1000
MTEXTEND
  0
LINE
  5
5269
330
1A
100
AcDbEntity
  8
下書線
 48
10.0
100
AcDbLine
 10
19.262641743169
 20
498.356130708197
 30
0.0
 11
545.634063423035
 21
498.356130708197
 31
0.0
  0
MTEXT
  5
538F
102
{ACAD_XDICTIONARY
360
5390
102
}
330
1A
100
AcDbEntity
  8
寸法線
 48
10.0
100
AcDbMText
 10
165.282000699362
 20
499.250335263763
 30
0.0
 40
8.0
 41
0.0
 71
     7
 72
     1
  1
SEAL\PSILICON RUBBER
1001
ACADANNOTATIVE
1000
AnnotativeData
1002
{
1070
     1
1070
     0
1002
}
  0
MTEXT
  5
5393
102
{ACAD_XDICTIONARY
360
5394
102
}
330
1A
100
AcDbEntity
  8
寸法線
 48
10.0
100
AcDbMText
 10
148.806240068414
 20
499.250335263763
 30
0.0
 40
8.0
 41
0.0
 71
     9
 72
     1
  1
INSULATOR\PPOLYACETAL
1001
ACADANNOTATIVE
1000
AnnotativeData
1002
{
1070
     1
1070
     0
1002
}
  0
MTEXT
  5
5397
102
{ACAD_XDICTIONARY
360
5398
102
}
330
1A
100
AcDbEntity
  8
寸法線
 48
10.0
100
AcDbMText
 10
62.793739602405
 20
499.250335263763
 30
0.0
 40
8.0
 41
0.0
 71
     9
 72
     1
  1
DETECTING\PELECTRODE\A1;\PSUS304
1001
ACADANNOTATIVE
1000
AnnotativeData
1002
{
1070
     1
1070
     0
1002
}
  0
LEADER
  5
539B
330
1A
100
AcDbEntity
  8
寸法線
 48
10.0
100
AcDbLeader
  3
ISO-25
 76
     3
 10
168.526278649545
 20
426.108965190136
 30
0.0
 10
149.579228258381
 20
498.356130708197
 30
0.0
 10
137.198879710832
 20
498.398358034566
 30
0.0
213
2.947423883473732
223
-0.01005317659638649
233
0.0
1001
ACAD
1000
DSTYLE
1002
{
1070
     5
1000
OPEN30
1070
   147
1040
0.625
1070
    77
1070
     0
1070
    41
1040
6.0
1070
    47
1040
0.1
1070
    48
1040
0.1
1070
    73
1070
     0
1070
   140
1040
8.0
1070
   271
1070
     1
1070
   272
1070
     1
1070
   341
1005
2AF4
1070
   342
1005
2AF4
1002
}
  0
LEADER
  5
539C
330
1A
100
AcDbEntity
  8
寸法線
 48
10.0
100
AcDbLeader
  3
ISO-25
 76
     3
 10
90.708980720723
 20
426.127554451348
 30
0.0
 10
61.197515989309
 20
498.356130708197
 30
0.0
 10
53.323117062541
 20
498.356130708197
 30
0.0
1001
ACAD
1000
DSTYLE
1002
{
1070
     5
1000
OPEN30
1070
   147
1040
0.625
1070
    77
1070
     0
1070
    41
1040
6.0
1070
    47
1040
0.1
1070
    48
1040
0.1
1070
    73
1070
     0
1070
   140
1040
8.0
1070
   271
1070
     1
1070
   272
1070
     1
1070
   341
1005
2AF4
1070
   342
1005
2AF4
1002
}
  0
LEADER
  5
539D
330
1A
100
AcDbEntity
  8
寸法線
 48
10.0
100
AcDbLeader
  3
ISO-25
 76
     3
 10
207.434851932764
 20
426.127554451348
 30
0.0
 10
242.085437254454
 20
498.356130708197
 30
0.0
 10
230.794348730955
 20
498.356130708197
 30
0.0
213
22.69443645724175
223
0.01558638966929493
233
0.0
1001
ACAD
1000
DSTYLE
1002
{
1070
     5
1000
OPEN30
1070
   147
1040
0.625
1070
    77
1070
     0
1070
    41
1040
6.0
1070
    47
1040
0.1
1070
    48
1040
0.1
1070
    73
1070
     0
1070
   140
1040
8.0
1070
   271
1070
     1
1070
   272
1070
     1
1070
   341
1005
2AF4
1070
   342
1005
2AF4
1002
}
  0
MTEXT
  5
53D2
102
{ACAD_XDICTIONARY
360
53D3
102
}
330
1A
100
AcDbEntity
  8
寸法線
 48
10.0
100
AcDbMText
 10
254.659797475751
 20
499.250335263763
 30
0.0
 40
8.0
 41
0.0
 71
     7
 72
     1
  1
GROUNDING\PELECTRODE\A1;\PSUS304
1001
ACADANNOTATIVE
1000
AnnotativeData
1002
{
1070
     1
1070
     0
1002
}
  0
LEADER
  5
53D6
330
1A
100
AcDbEntity
  8
寸法線
 48
10.0
100
AcDbLeader
  3
ISO-25
 76
     3
 10
228.722762659045
 20
426.216632672034
 30
0.0
 10
253.553875623178
 20
498.356130708197
 30
0.0
 10
265.195016262592
 20
498.356130708197
 30
0.0
213
0.533466143987539
223
-0.02470762574876062
233
0.0
1001
ACAD
1000
DSTYLE
1002
{
1070
     5
1000
OPEN30
1070
   147
1040
0.625
1070
    77
1070
     0
1070
    41
1040
6.0
1070
    47
1040
0.1
1070
    48
1040
0.1
1070
    73
1070
     0
1070
   140
1040
8.0
1070
   271
1070
     1
1070
   272
1070
     1
1070
   341
1005
2AF4
1070
   342
1005
2AF4
1002
}
  0
LEADER
  5
5407
330
1A
100
AcDbEntity
  8
寸法線
 48
10.0
100
AcDbLeader
  3
ISO-25
 76
     3
 10
317.078430795056
 20
431.729778117304
 30
0.0
 10
323.557797424537
 20
498.356130708197
 30
0.0
 10
338.635833131451
 20
498.356130708197
 30
0.0
1001
ACAD
1000
DSTYLE
1002
{
1070
     5
1000
OPEN30
1070
   147
1040
0.625
1070
    77
1070
     0
1070
    41
1040
6.0
1070
    47
1040
0.1
1070
    48
1040
0.1
1070
    73
1070
     0
1070
   140
1040
8.0
1070
   271
1070
     1
1070
   272
1070
     1
1070
   341
1005
2AF4
1070
   342
1005
2AF4
1002
}
  0
LEADER
  5
5408
330
1A
100
AcDbEntity
  8
寸法線
 48
10.0
100
AcDbLeader
  3
ISO-25
 76
     3
 10
342.407504307892
 20
445.566363572138
 30
0.0
 10
341.479853246475
 20
473.512233491052
 30
0.0
 10
361.554580263948
 20
473.512233491052
 30
0.0
213
19.69336215294231
223
0.0
233
0.0
1001
ACAD
1000
DSTYLE
1002
{
1070
     5
1000
OPEN30
1070
   147
1040
0.625
1070
    77
1070
     0
1070
    41
1040
6.0
1070
    47
1040
0.1
1070
    48
1040
0.1
1070
    73
1070
     0
1070
   140
1040
8.0
1070
   271
1070
     1
1070
   272
1070
     1
1070
   341
1005
2AF4
1070
   342
1005
2AF4
1002
}
  0
MTEXT
  5
5409
330
1A
100
AcDbEntity
  8
寸法線
 48
10.0
100
AcDbMText
 10
327.717752832462
 20
500.659707561146
 30
0.0
 40
8.0
 41
0.0
 71
     7
 72
     1
  1
SLIDE SCREW\PR1″\PSUS304
  0
MTEXT
  5
540A
330
1A
100
AcDbEntity
  8
寸法線
 48
10.0
100
AcDbMText
 10
415.614907971818
 20
473.849946223447
 30
0.0
 40
6.5
 41
0.0
 71
     9
 72
     1
  1
HEXAGON SOCKET\PHEAD CAP SCREWS
  0
MTEXT
  5
543F
102
{ACAD_XDICTIONARY
360
5440
102
}
330
1A
100
AcDbEntity
  8
寸法線
 48
10.0
100
AcDbMText
 10
442.670912361981
 20
499.250335263763
 30
0.0
 40
8.0
 41
0.0
 71
     7
 72
     1
  1
ALUMINUM\PCASTING
1001
ACADANNOTATIVE
1000
AnnotativeData
1002
{
1070
     1
1070
     0
1002
}
  0
LEADER
  5
5443
330
1A
100
AcDbEntity
  8
寸法線
 48
10.0
100
AcDbLeader
  3
ISO-25
 76
     3
 10
409.945520506786
 20
444.37824421962
 30
0.0
 10
440.621977149914
 20
498.356130708197
 30
0.0
 10
453.745981912227
 20
498.356130708197
 30
0.0
213
-5.684341886080801E-14
223
-0.08194239549834492
233
0.0
1001
ACAD
1000
DSTYLE
1002
{
1070
     5
1000
OPEN30
1070
   147
1040
0.625
1070
    77
1070
     0
1070
    41
1040
6.0
1070
    47
1040
0.1
1070
    48
1040
0.1
1070
    73
1070
     0
1070
   140
1040
8.0
1070
   271
1070
     1
1070
   272
1070
     1
1070
   341
1005
2AF4
1070
   342
1005
2AF4
1002
}
  0
MTEXT
  5
5474
330
1A
100
AcDbEntity
  8
寸法線
 48
10.0
100
AcDbMText
 10
475.797348997297
 20
339.941734203428
 30
0.0
 40
8.0
 41
0.0
 71
     7
 72
     1
  1
CONDUIT\PG 1/2"
  0
LEADER
  5
5475
330
1A
100
AcDbEntity
  8
寸法線
 48
10.0
100
AcDbLeader
  3
ISO-25
 76
     3
 10
434.171208356206
 20
368.044046506274
 30
0.0
 10
473.784508067398
 20
339.191584665002
 30
0.0
 10
511.581038878895
 20
339.191584665002
 30
0.0
1001
ACAD
1000
DSTYLE
1002
{
1070
     5
1000
OPEN30
1070
   147
1040
0.625
1070
    77
1070
     0
1070
    41
1040
6.0
1070
    47
1040
0.1
1070
    48
1040
0.1
1070
    73
1070
     0
1070
   140
1040
8.0
1070
   271
1070
     1
1070
   272
1070
     1
1070
   341
1005
2AF4
1070
   342
1005
2AF4
1002
}
  0
TEXT
  5
550B
330
1A
100
AcDbEntity
  8
寸法線
 48
10.0
100
AcDbText
 10
98.555319734814
 20
158.632549683869
 30
0.0
 40
8.0
  1
○（Required length）
100
AcDbText
  0
LEADER
  5
550C
330
1A
100
AcDbEntity
  8
寸法線
 48
10.0
100
AcDbLeader
  3
ISO-25
 76
     3
 10
53.431898147674
 20
175.127351313864
 30
0.0
 10
53.431898147674
 20
162.385817751815
 30
0.0
 10
94.780035572684
 20
162.385817751815
 30
0.0
1001
ACAD
1000
DSTYLE
1002
{
1070
     5
1000
OPEN30
1070
   147
1040
0.625
1070
    77
1070
     0
1070
    41
1040
6.0
1070
    47
1040
0.1
1070
    48
1040
0.1
1070
    73
1070
     0
1070
   140
1040
8.0
1070
   271
1070
     1
1070
   272
1070
     1
1070
   341
1005
2AF4
1070
   342
1005
2AF4
1002
}
  0
TEXT
  5
550D
330
1A
100
AcDbEntity
  8
寸法線
 48
10.0
100
AcDbText
 10
385.387177079687
 20
158.632549683869
 30
0.0
 40
8.0
  1
○（Required length）
100
AcDbText
  0
LEADER
  5
550E
330
1A
100
AcDbEntity
  8
寸法線
 48
10.0
100
AcDbLeader
  3
ISO-25
 76
     3
 10
340.263755492547
 20
175.127351313864
 30
0.0
 10
340.263755492547
 20
162.385817751815
 30
0.0
 10
381.611892917557
 20
162.385817751815
 30
0.0
1001
ACAD
1000
DSTYLE
1002
{
1070
     5
1000
OPEN30
1070
   147
1040
0.625
1070
    77
1070
     0
1070
    41
1040
6.0
1070
    47
1040
0.1
1070
    48
1040
0.1
1070
    73
1070
     0
1070
   140
1040
8.0
1070
   271
1070
     1
1070
   272
1070
     1
1070
   341
1005
2AF4
1070
   342
1005
2AF4
1002
}
  0
MTEXT
  5
5540
102
{ACAD_XDICTIONARY
360
5541
102
}
330
1A
100
AcDbEntity
  8
寸法線
 48
10.0
100
AcDbMText
 10
-22.451804215287
 20
147.953085683414
 30
0.0
 40
7.5
 41
390.657230944623
 71
     1
 72
     5
  1
Please tighten the HEXAGON SOCKET HEAD CAP SCREWS \Psurely after deciding the installation position.
1001
ACADANNOTATIVE
1000
AnnotativeData
1002
{
1070
     1
1070
     0
1002
}
  0
CIRCLE
  5
5583
330
1A
100
AcDbEntity
  8
寸法線
 48
10.0
100
AcDbCircle
 10
-38.670584830638
 20
238.748265447717
 30
0.0
 40
2.0
  0
CIRCLE
  5
5584
330
1A
100
AcDbEntity
  8
寸法線
 48
10.0
100
AcDbCircle
 10
-16.470144830638
 20
238.748265447717
 30
0.0
 40
2.0
  0
LINE
  5
5585
330
1A
100
AcDbEntity
  8
寸法線
 48
10.0
100
AcDbLine
 10
-50.070852830638
 20
224.748021447716
 30
0.0
 11
-47.070790830638
 21
219.947849447716
 31
0.0
  0
LINE
  5
5586
330
1A
100
AcDbEntity
  8
寸法線
 48
10.0
100
AcDbLine
 10
-47.070790830638
 20
219.947849447716
 30
0.0
 11
-8.069936830638
 21
219.947849447716
 31
0.0
  0
LINE
  5
5587
330
1A
100
AcDbEntity
  8
寸法線
 48
10.0
100
AcDbLine
 10
-8.069936830638
 20
219.947849447716
 30
0.0
 11
-5.069876830638
 21
224.748021447716
 31
0.0
  0
LINE
  5
5588
330
1A
100
AcDbEntity
  8
寸法線
 48
10.0
100
AcDbLine
 10
-50.86860687164
 20
257.500217447717
 30
0.0
 11
-2.764156937195
 21
257.500217447717
 31
0.0
  0
MTEXT
  5
5589
330
1A
100
AcDbEntity
  8
寸法線
 62
     1
 48
10.0
100
AcDbMText
 10
-49.204824873305
 20
268.156792071121
 30
0.0
 40
8.0
 41
55.39356842411
 71
     1
 72
     5
  1
TERMINAL
  0
MTEXT
  5
558A
330
1A
100
AcDbEntity
  8
寸法線
 62
     1
 48
10.0
100
AcDbMText
 10
-61.031939548433
 20
213.312648671098
 30
0.0
 40
8.0
 41
74.443410852713
 71
     1
 72
     5
  1
TO CONVERTER
  0
MTEXT
  5
558B
102
{ACAD_XDICTIONARY
360
558C
102
}
330
1A
100
AcDbEntity
  8
寸法線
 48
10.0
100
AcDbMText
 10
-38.670584830638
 20
233.626839478104
 30
0.0
 40
8.0
 41
5.580100571959
 71
     2
 72
     5
  1
P
1001
ACADANNOTATIVE
1000
AnnotativeData
1002
{
1070
     1
1070
     0
1002
}
  0
MTEXT
  5
558F
102
{ACAD_XDICTIONARY
360
5590
102
}
330
1A
100
AcDbEntity
  8
寸法線
 48
10.0
100
AcDbMText
 10
-16.470144830638
 20
233.626839478104
 30
0.0
 40
8.0
 41
5.580100571959
 71
     2
 72
     5
  1
E
1001
ACADANNOTATIVE
1000
AnnotativeData
1002
{
1070
     1
1070
     0
1002
}
  0
TEXT
  5
55F5
330
1A
100
AcDbEntity
  8
寸法線
100
AcDbText
 10
455.817467150591
 20
538.003599651719
 30
0.0
 40
8.0
  1
COLOR：10YR7.5/14
100
AcDbText
  0
LINE
  5
5ABA
330
1A
100
AcDbEntity
  8
寸法線
100
AcDbLine
 10
69.139550993091
 20
176.457651189014
 30
0.0
 11
69.139550993091
 21
294.94866004963
 31
0.0
  0
LINE
  5
5ABB
330
1A
100
AcDbEntity
  8
寸法線
100
AcDbLine
 10
37.139580993091
 20
176.457651189014
 30
0.0
 11
37.139580993091
 21
294.94866004963
 31
0.0
  0
LINE
  5
5ABC
330
1A
100
AcDbEntity
  8
寸法線
100
AcDbLine
 10
289.984912260775
 20
176.457651189014
 30
0.0
 11
289.984912260775
 21
294.94866004963
 31
0.0
  0
LINE
  5
5ABD
330
1A
100
AcDbEntity
  8
寸法線
100
AcDbLine
 10
321.741230825064
 20
176.457651189014
 30
0.0
 11
321.741230825064
 21
294.94866004963
 31
0.0
  0
LINE
  5
5ABE
330
1A
100
AcDbEntity
  8
寸法線
 48
10.0
100
AcDbLine
 10
148.037279790728
 20
294.94866004963
 30
0.0
 11
148.037279790728
 21
176.457651189014
 31
0.0
  0
LINE
  5
5ABF
330
1A
100
AcDbEntity
  8
寸法線
 48
10.0
100
AcDbLine
 10
175.671413750458
 20
294.94866004963
 30
0.0
 11
175.671413750458
 21
176.457651189014
 31
0.0
  0
LINE
  5
5AC0
330
1A
100
AcDbEntity
  8
寸法線
 48
10.0
100
AcDbLine
 10
201.52198886797
 20
294.94866004963
 30
0.0
 11
201.52198886797
 21
176.457651189014
 31
0.0
  0
LINE
  5
5AC1
330
1A
100
AcDbEntity
  8
寸法線
 48
10.0
100
AcDbLine
 10
225.589005143263
 20
294.94866004963
 30
0.0
 11
225.589005143263
 21
176.457651189014
 31
0.0
  0
LINE
  5
5AC2
330
1A
100
AcDbEntity
  8
寸法線
 48
10.0
100
AcDbLine
 10
251.439580260775
 20
294.94866004963
 30
0.0
 11
251.439580260775
 21
176.457651189014
 31
0.0
  0
LINE
  5
5AC3
330
1A
100
AcDbEntity
  8
寸法線
100
AcDbLine
 10
324.27573087374
 20
176.457651189014
 30
0.0
 11
324.27573087374
 21
294.94866004963
 31
0.0
  0
SPLINE
  5
5AC4
330
1A
100
AcDbEntity
  8
寸法線
 48
10.0
100
AcDbSpline
210
0.0
220
0.0
230
1.0
 70
  1064
 71
     3
 72
    13
 73
     9
 74
     7
 42
0.000000001
 43
0.0000000001
 44
0.0000000001
 40
0.0
 40
0.0
 40
0.0
 40
0.0
 40
3.546053604694618
 40
9.278996093298897
 40
13.89970108471582
 40
17.09539662994939
 40
18.79470455702447
 40
20.02704699455832
 40
20.02704699455832
 40
20.02704699455832
 40
20.02704699455832
 10
159.1838948719772
 20
284.0674357416166
 30
0.0
 10
160.2384231410555
 20
284.5545644758207
 30
0.0
 10
162.9978184519714
 20
285.8292394033599
 30
0.0
 10
163.6627553583316
 20
294.7276962761786
 30
0.0
 10
159.7294523391851
 20
288.3276094522363
 30
0.0
 10
159.9016885353863
 20
285.0785918936679
 30
0.0
 10
161.9739702330356
 20
283.8057728168581
 30
0.0
 10
162.8905743112716
 20
284.2642899007276
 30
0.0
 10
163.2758760913416
 20
284.4570311865263
 30
0.0
 11
159.1838948719772
 21
284.0674357416166
 31
0.0
 11
162.0093103049259
 21
286.210219864813
 31
0.0
 11
162.6425931981337
 21
291.9080775635288
 31
0.0
 11
160.1581767982754
 21
288.0121065972842
 31
0.0
 11
160.5966037847378
 21
284.8466284666746
 31
0.0
 11
162.1067382582986
 21
284.0674357416166
 31
0.0
 11
163.2758760913416
 21
284.4570311865263
 31
0.0
  0
SPLINE
  5
5AC5
330
1A
100
AcDbEntity
  8
寸法線
 48
10.0
100
AcDbSpline
210
0.0
220
0.0
230
1.0
 70
  1064
 71
     3
 72
    13
 73
     9
 74
     7
 42
0.000000001
 43
0.0000000001
 44
0.0000000001
 40
0.0
 40
0.0
 40
0.0
 40
0.0
 40
3.546053604694618
 40
9.278996093298897
 40
13.89970108471582
 40
17.09539662994939
 40
18.79470455702447
 40
20.02704699455832
 40
20.02704699455832
 40
20.02704699455832
 40
20.02704699455832
 10
185.2063468184154
 20
284.0674357416166
 30
0.0
 10
186.2608750874937
 20
284.5545644758207
 30
0.0
 10
189.0202703984096
 20
285.8292394033599
 30
0.0
 10
189.6852073047698
 20
294.7276962761786
 30
0.0
 10
185.7519042856233
 20
288.3276094522363
 30
0.0
 10
185.9241404818245
 20
285.0785918936679
 30
0.0
 10
187.9964221794738
 20
283.8057728168581
 30
0.0
 10
188.9130262577098
 20
284.2642899007276
 30
0.0
 10
189.2983280377798
 20
284.4570311865263
 30
0.0
 11
185.2063468184154
 21
284.0674357416166
 31
0.0
 11
188.0317622513641
 21
286.210219864813
 31
0.0
 11
188.6650451445718
 21
291.9080775635288
 31
0.0
 11
186.1806287447136
 21
288.0121065972842
 31
0.0
 11
186.619055731176
 21
284.8466284666746
 31
0.0
 11
188.1291902047368
 21
284.0674357416166
 31
0.0
 11
189.2983280377798
 21
284.4570311865263
 31
0.0
  0
TEXT
  5
5AC6
330
1A
100
AcDbEntity
  8
寸法線
 48
10.0
100
AcDbText
 10
191.664375615899
 20
284.15176348096
 30
0.0
 40
5.2
  1
1
100
AcDbText
  0
SPLINE
  5
5AC7
330
1A
100
AcDbEntity
  8
寸法線
 48
10.0
100
AcDbSpline
210
0.0
220
0.0
230
1.0
 70
  1064
 71
     3
 72
    13
 73
     9
 74
     7
 42
0.000000001
 43
0.0000000001
 44
0.0000000001
 40
0.0
 40
0.0
 40
0.0
 40
0.0
 40
3.546053604694664
 40
9.278996093298936
 40
13.89970108471586
 40
17.09539662994943
 40
18.79470455702451
 40
20.02704699455836
 40
20.02704699455836
 40
20.02704699455836
 40
20.02704699455836
 10
209.2733630937089
 20
284.0674357416166
 30
0.0
 10
210.3278913627873
 20
284.5545644758208
 30
0.0
 10
213.0872866737033
 20
285.8292394033598
 30
0.0
 10
213.7522235800633
 20
294.7276962761784
 30
0.0
 10
209.8189205609168
 20
288.3276094522363
 30
0.0
 10
209.9911567571181
 20
285.078591893668
 30
0.0
 10
212.0634384547674
 20
283.8057728168581
 30
0.0
 10
212.9800425330034
 20
284.2642899007276
 30
0.0
 10
213.3653443130734
 20
284.4570311865263
 30
0.0
 11
209.2733630937089
 21
284.0674357416166
 31
0.0
 11
212.0987785266578
 21
286.210219864813
 31
0.0
 11
212.7320614198654
 21
291.9080775635288
 31
0.0
 11
210.2476450200072
 21
288.0121065972842
 31
0.0
 11
210.6860720064696
 21
284.8466284666746
 31
0.0
 11
212.1962064800304
 21
284.0674357416166
 31
0.0
 11
213.3653443130734
 21
284.4570311865263
 31
0.0
  0
TEXT
  5
5AC8
330
1A
100
AcDbEntity
  8
寸法線
 48
10.0
100
AcDbText
 10
215.731391891193
 20
284.15176348096
 30
0.0
 40
5.2
  1
2
100
AcDbText
  0
TEXT
  5
5AC9
330
1A
100
AcDbEntity
  8
寸法線
 48
10.0
100
AcDbText
 10
241.581967008705
 20
284.15176348096
 30
0.0
 40
5.2
  1
3
100
AcDbText
  0
SPLINE
  5
5ACA
330
1A
100
AcDbEntity
  8
寸法線
 48
10.0
100
AcDbSpline
210
0.0
220
0.0
230
1.0
 70
  1064
 71
     3
 72
    13
 73
     9
 74
     7
 42
0.000000001
 43
0.0000000001
 44
0.0000000001
 40
0.0
 40
0.0
 40
0.0
 40
0.0
 40
3.546053604694664
 40
9.278996093298936
 40
13.89970108471589
 40
17.09539662994947
 40
18.79470455702455
 40
20.0270469945584
 40
20.0270469945584
 40
20.0270469945584
 40
20.0270469945584
 10
235.1239382112208
 20
284.0674357416166
 30
0.0
 10
236.1784664802992
 20
284.5545644758207
 30
0.0
 10
238.9378617912151
 20
285.8292394033598
 30
0.0
 10
239.6027986975752
 20
294.7276962761785
 30
0.0
 10
235.6694956784287
 20
288.3276094522364
 30
0.0
 10
235.8417318746299
 20
285.0785918936679
 30
0.0
 10
237.9140135722793
 20
283.8057728168581
 30
0.0
 10
238.8306176505153
 20
284.2642899007276
 30
0.0
 10
239.2159194305853
 20
284.4570311865263
 30
0.0
 11
235.1239382112208
 21
284.0674357416166
 31
0.0
 11
237.9493536441696
 21
286.210219864813
 31
0.0
 11
238.5826365373773
 21
291.9080775635288
 31
0.0
 11
236.098220137519
 21
288.0121065972842
 31
0.0
 11
236.5366471239815
 21
284.8466284666746
 31
0.0
 11
238.0467815975423
 21
284.0674357416166
 31
0.0
 11
239.2159194305853
 21
284.4570311865263
 31
0.0
  0
MTEXT
  5
5ACB
102
{ACAD_XDICTIONARY
360
5ACC
102
}
330
1A
100
AcDbEntity
  8
寸法線
 48
10.0
100
AcDbMText
 10
105.634939335921
 20
292.091879018236
 30
0.0
 40
8.0
 41
72.990776685661
 71
     2
 72
     5
  1
MODEL
1001
ACADANNOTATIVE
1000
AnnotativeData
1002
{
1070
     1
1070
     0
1002
}
1001
ACAD
1000
MTEXTBEGIN
1070
    44
1040
0.99
1000
MTEXTEND
  0
MTEXT
  5
5ACF
102
{ACAD_XDICTIONARY
360
5AD0
102
}
330
1A
100
AcDbEntity
  8
寸法線
 48
10.0
100
AcDbMText
 10
305.583294888518
 20
292.259357383981
 30
0.0
 40
8.0
 41
31.756318564289
 71
     2
 72
     5
  1
Q'ty
1001
ACADANNOTATIVE
1000
AnnotativeData
1002
{
1070
     1
1070
     0
1002
}
  0
MTEXT
  5
5AD3
102
{ACAD_XDICTIONARY
360
5AD4
102
}
330
1A
100
AcDbEntity
  8
寸法線
 48
10.0
100
AcDbMText
 10
270.432469606374
 20
291.203626524141
 30
0.0
 40
8.0
 41
38.545332
 71
     2
 72
     5
  1
NOTE
1001
ACADANNOTATIVE
1000
AnnotativeData
1002
{
1070
     1
1070
     0
1002
}
  0
LINE
  5
5AD7
330
1A
100
AcDbEntity
  8
寸法線
 48
10.0
100
AcDbLine
 10
37.139580993091
 20
280.87866004963
 30
0.0
 11
69.139550993091
 21
294.94866004963
 31
0.0
  0
LINE
  5
5B23
330
1A
100
AcDbEntity
  8
寸法線
100
AcDbLine
 10
356.27570087374
 20
176.457651189014
 30
0.0
 11
356.27570087374
 21
294.94866004963
 31
0.0
  0
LINE
  5
5B24
330
1A
100
AcDbEntity
  8
寸法線
100
AcDbLine
 10
324.27573087374
 20
176.457651189014
 30
0.0
 11
324.27573087374
 21
294.94866004963
 31
0.0
  0
LINE
  5
5B25
330
1A
100
AcDbEntity
  8
寸法線
100
AcDbLine
 10
577.121062141425
 20
176.457651189014
 30
0.0
 11
577.121062141425
 21
294.94866004963
 31
0.0
  0
LINE
  5
5B26
330
1A
100
AcDbEntity
  8
寸法線
100
AcDbLine
 10
608.877380705713
 20
176.457651189014
 30
0.0
 11
608.877380705713
 21
294.94866004963
 31
0.0
  0
LINE
  5
5B27
330
1A
100
AcDbEntity
  8
寸法線
 48
10.0
100
AcDbLine
 10
435.173429671377
 20
294.94866004963
 30
0.0
 11
435.173429671377
 21
176.457651189014
 31
0.0
  0
LINE
  5
5B28
330
1A
100
AcDbEntity
  8
寸法線
 48
10.0
100
AcDbLine
 10
462.807563631107
 20
294.94866004963
 30
0.0
 11
462.807563631107
 21
176.457651189014
 31
0.0
  0
LINE
  5
5B29
330
1A
100
AcDbEntity
  8
寸法線
 48
10.0
100
AcDbLine
 10
488.658138748619
 20
294.94866004963
 30
0.0
 11
488.658138748619
 21
176.457651189014
 31
0.0
  0
LINE
  5
5B2A
330
1A
100
AcDbEntity
  8
寸法線
 48
10.0
100
AcDbLine
 10
512.725155023913
 20
294.94866004963
 30
0.0
 11
512.725155023913
 21
176.457651189014
 31
0.0
  0
LINE
  5
5B2B
330
1A
100
AcDbEntity
  8
寸法線
 48
10.0
100
AcDbLine
 10
538.575730141425
 20
294.94866004963
 30
0.0
 11
538.575730141425
 21
176.457651189014
 31
0.0
  0
SPLINE
  5
5B2D
330
1A
100
AcDbEntity
  8
寸法線
 48
10.0
100
AcDbSpline
210
0.0
220
0.0
230
1.0
 70
  1064
 71
     3
 72
    13
 73
     9
 74
     7
 42
0.000000001
 43
0.0000000001
 44
0.0000000001
 40
0.0
 40
0.0
 40
0.0
 40
0.0
 40
3.546053604694664
 40
9.278996093298941
 40
13.89970108471586
 40
17.09539662994943
 40
18.79470455702451
 40
20.02704699455835
 40
20.02704699455835
 40
20.02704699455835
 40
20.02704699455835
 10
446.3200447526267
 20
284.0674357416166
 30
0.0
 10
447.3745730217049
 20
284.5545644758207
 30
0.0
 10
450.1339683326208
 20
285.8292394033597
 30
0.0
 10
450.7989052389814
 20
294.7276962761787
 30
0.0
 10
446.8656022198347
 20
288.3276094522363
 30
0.0
 10
447.0378384160358
 20
285.0785918936679
 30
0.0
 10
449.1101201136851
 20
283.8057728168581
 30
0.0
 10
450.0267241919211
 20
284.2642899007276
 30
0.0
 10
450.4120259719912
 20
284.4570311865263
 30
0.0
 11
446.3200447526267
 21
284.0674357416166
 31
0.0
 11
449.1454601855755
 21
286.210219864813
 31
0.0
 11
449.7787430787832
 21
291.9080775635288
 31
0.0
 11
447.294326678925
 21
288.0121065972842
 31
0.0
 11
447.7327536653873
 21
284.8466284666746
 31
0.0
 11
449.2428881389482
 21
284.0674357416166
 31
0.0
 11
450.4120259719912
 21
284.4570311865263
 31
0.0
  0
SPLINE
  5
5B2E
330
1A
100
AcDbEntity
  8
寸法線
 48
10.0
100
AcDbSpline
210
0.0
220
0.0
230
1.0
 70
  1064
 71
     3
 72
    13
 73
     9
 74
     7
 42
0.000000001
 43
0.0000000001
 44
0.0000000001
 40
0.0
 40
0.0
 40
0.0
 40
0.0
 40
3.546053604694664
 40
9.278996093298941
 40
13.89970108471586
 40
17.09539662994943
 40
18.79470455702451
 40
20.02704699455835
 40
20.02704699455835
 40
20.02704699455835
 40
20.02704699455835
 10
472.3424966990649
 20
284.0674357416166
 30
0.0
 10
473.3970249681431
 20
284.5545644758207
 30
0.0
 10
476.156420279059
 20
285.8292394033597
 30
0.0
 10
476.8213571854197
 20
294.7276962761787
 30
0.0
 10
472.8880541662728
 20
288.3276094522363
 30
0.0
 10
473.0602903624741
 20
285.0785918936679
 30
0.0
 10
475.1325720601233
 20
283.8057728168581
 30
0.0
 10
476.0491761383593
 20
284.2642899007276
 30
0.0
 10
476.4344779184294
 20
284.4570311865263
 30
0.0
 11
472.3424966990649
 21
284.0674357416166
 31
0.0
 11
475.1679121320137
 21
286.210219864813
 31
0.0
 11
475.8011950252214
 21
291.9080775635288
 31
0.0
 11
473.3167786253632
 21
288.0121065972842
 31
0.0
 11
473.7552056118255
 21
284.8466284666746
 31
0.0
 11
475.2653400853864
 21
284.0674357416166
 31
0.0
 11
476.4344779184294
 21
284.4570311865263
 31
0.0
  0
TEXT
  5
5B2F
330
1A
100
AcDbEntity
  8
寸法線
 48
10.0
100
AcDbText
 10
478.800525496549
 20
284.15176348096
 30
0.0
 40
5.2
  1
1
100
AcDbText
  0
SPLINE
  5
5B30
330
1A
100
AcDbEntity
  8
寸法線
 48
10.0
100
AcDbSpline
210
0.0
220
0.0
230
1.0
 70
  1064
 71
     3
 72
    13
 73
     9
 74
     7
 42
0.000000001
 43
0.0000000001
 44
0.0000000001
 40
0.0
 40
0.0
 40
0.0
 40
0.0
 40
3.546053604694664
 40
9.278996093298941
 40
13.89970108471586
 40
17.09539662994943
 40
18.79470455702451
 40
20.02704699455835
 40
20.02704699455835
 40
20.02704699455835
 40
20.02704699455835
 10
496.4095129743584
 20
284.0674357416166
 30
0.0
 10
497.4640412434367
 20
284.5545644758207
 30
0.0
 10
500.2234365543526
 20
285.8292394033597
 30
0.0
 10
500.8883734607132
 20
294.7276962761787
 30
0.0
 10
496.9550704415664
 20
288.3276094522363
 30
0.0
 10
497.1273066377676
 20
285.0785918936679
 30
0.0
 10
499.1995883354169
 20
283.8057728168581
 30
0.0
 10
500.1161924136529
 20
284.2642899007276
 30
0.0
 10
500.5014941937229
 20
284.4570311865263
 30
0.0
 11
496.4095129743584
 21
284.0674357416166
 31
0.0
 11
499.2349284073073
 21
286.210219864813
 31
0.0
 11
499.868211300515
 21
291.9080775635288
 31
0.0
 11
497.3837949006568
 21
288.0121065972842
 31
0.0
 11
497.8222218871191
 21
284.8466284666746
 31
0.0
 11
499.3323563606799
 21
284.0674357416166
 31
0.0
 11
500.5014941937229
 21
284.4570311865263
 31
0.0
  0
TEXT
  5
5B31
330
1A
100
AcDbEntity
  8
寸法線
 48
10.0
100
AcDbText
 10
502.867541771843
 20
284.15176348096
 30
0.0
 40
5.2
  1
2
100
AcDbText
  0
TEXT
  5
5B32
330
1A
100
AcDbEntity
  8
寸法線
 48
10.0
100
AcDbText
 10
528.718116889354
 20
284.15176348096
 30
0.0
 40
5.2
  1
3
100
AcDbText
  0
SPLINE
  5
5B33
330
1A
100
AcDbEntity
  8
寸法線
 48
10.0
100
AcDbSpline
210
0.0
220
0.0
230
1.0
 70
  1064
 71
     3
 72
    13
 73
     9
 74
     7
 42
0.000000001
 43
0.0000000001
 44
0.0000000001
 40
0.0
 40
0.0
 40
0.0
 40
0.0
 40
3.546053604694664
 40
9.278996093298941
 40
13.89970108471593
 40
17.09539662994951
 40
18.79470455702458
 40
20.02704699455843
 40
20.02704699455843
 40
20.02704699455843
 40
20.02704699455843
 10
522.2600880918703
 20
284.0674357416166
 30
0.0
 10
523.3146163609485
 20
284.5545644758207
 30
0.0
 10
526.0740116718646
 20
285.8292394033598
 30
0.0
 10
526.7389485782247
 20
294.7276962761784
 30
0.0
 10
522.805645559078
 20
288.3276094522363
 30
0.0
 10
522.9778817552794
 20
285.0785918936679
 30
0.0
 10
525.0501634529288
 20
283.8057728168581
 30
0.0
 10
525.9667675311648
 20
284.2642899007276
 30
0.0
 10
526.3520693112348
 20
284.4570311865263
 30
0.0
 11
522.2600880918703
 21
284.0674357416166
 31
0.0
 11
525.0855035248192
 21
286.210219864813
 31
0.0
 11
525.7187864180269
 21
291.9080775635288
 31
0.0
 11
523.2343700181685
 21
288.0121065972842
 31
0.0
 11
523.672797004631
 21
284.8466284666746
 31
0.0
 11
525.1829314781918
 21
284.0674357416166
 31
0.0
 11
526.3520693112348
 21
284.4570311865263
 31
0.0
  0
MTEXT
  5
5B34
102
{ACAD_XDICTIONARY
360
5B35
102
}
330
1A
100
AcDbEntity
  8
寸法線
 48
10.0
100
AcDbMText
 10
392.771089216571
 20
292.091879018236
 30
0.0
 40
8.0
 41
72.990776685661
 71
     2
 72
     5
  1
MODEL
1001
ACADANNOTATIVE
1000
AnnotativeData
1002
{
1070
     1
1070
     0
1002
}
1001
ACAD
1000
MTEXTBEGIN
1070
    44
1040
0.99
1000
MTEXTEND
  0
MTEXT
  5
5B38
102
{ACAD_XDICTIONARY
360
5B39
102
}
330
1A
100
AcDbEntity
  8
寸法線
 48
10.0
100
AcDbMText
 10
592.719444769168
 20
292.259357383981
 30
0.0
 40
8.0
 41
31.756318564289
 71
     2
 72
     5
  1
Q'ty
1001
ACADANNOTATIVE
1000
AnnotativeData
1002
{
1070
     1
1070
     0
1002
}
  0
MTEXT
  5
5B3C
102
{ACAD_XDICTIONARY
360
5B3D
102
}
330
1A
100
AcDbEntity
  8
寸法線
 48
10.0
100
AcDbMText
 10
557.568619487024
 20
291.203626524141
 30
0.0
 40
8.0
 41
38.545332
 71
     2
 72
     5
  1
NOTE
1001
ACADANNOTATIVE
1000
AnnotativeData
1002
{
1070
     1
1070
     0
1002
}
  0
LINE
  5
5B40
330
1A
100
AcDbEntity
  8
寸法線
 48
10.0
100
AcDbLine
 10
324.27573087374
 20
280.87866004963
 30
0.0
 11
356.27570087374
 21
294.94866004963
 31
0.0
  0
DIMENSION
  5
5BEB
330
1A
100
AcDbEntity
  8
寸法線
 48
10.0
100
AcDbDimension
  2
*D48
 10
44.796383676491
 20
404.627554451348
 30
0.0
 11
44.796383676491
 21
444.685887784682
 31
0.0
 70
   160
  1
φ<>
  3
ISO-25
100
AcDbAlignedDimension
 13
58.434851932764
 23
426.127554451348
 33
0.0
 14
58.434851932764
 24
404.627554451348
 34
0.0
 50
90.0
100
AcDbRotatedDimension
1001
ACAD
1000
DSTYLE
1002
{
1070
     5
1000
OPEN30
1070
    41
1040
6.0
1070
    47
1040
0.1
1070
    48
1040
0.1
1070
    73
1070
     0
1070
   140
1040
8.0
1070
   271
1070
     1
1070
   272
1070
     1
1070
   341
1005
2AF4
1002
}
  0
LINE
  5
5BEC
330
1A
100
AcDbEntity
  8
外形線
100
AcDbLine
 10
157.434851932764
 20
404.627554451348
 30
0.0
 11
157.434851932764
 21
426.127554451348
 31
0.0
  0
LINE
  5
5BED
330
1A
100
AcDbEntity
  8
外形線
100
AcDbLine
 10
157.434851932764
 20
426.127554451348
 30
0.0
 11
110.934851932764
 21
426.127554451348
 31
0.0
  0
LINE
  5
5BEE
330
1A
100
AcDbEntity
  8
外形線
100
AcDbLine
 10
58.434851932764
 20
426.127554451348
 30
0.0
 11
57.434851932764
 21
425.127554451348
 31
0.0
  0
LINE
  5
5BEF
330
1A
100
AcDbEntity
  8
外形線
100
AcDbLine
 10
57.434851932764
 20
425.127554451348
 30
0.0
 11
57.434851932764
 21
405.627554451348
 31
0.0
  0
LINE
  5
5BF0
330
1A
100
AcDbEntity
  8
外形線
100
AcDbLine
 10
58.434851932764
 20
404.627554451348
 30
0.0
 11
57.434851932764
 21
405.627554451348
 31
0.0
  0
LINE
  5
5BF1
330
1A
100
AcDbEntity
  8
外形線
100
AcDbLine
 10
157.434851932764
 20
404.627554451348
 30
0.0
 11
110.934851932763
 21
404.627554451348
 31
0.0
  0
ARC
  5
5BF2
330
1A
100
AcDbEntity
  8
細線
 48
10.0
100
AcDbCircle
 10
97.712195682764
 20
420.752554451349
 30
0.0
 40
8.222656249999796
100
AcDbArc
 50
319.180234332391
 51
40.819765667609
  0
ARC
  5
5BF3
330
1A
100
AcDbEntity
  8
細線
 48
10.0
100
AcDbCircle
 10
97.712195682764
 20
410.002554451349
 30
0.0
 40
8.222656249999796
100
AcDbArc
 50
319.180234332391
 51
40.819765667609
  0
ARC
  5
5BF4
330
1A
100
AcDbEntity
  8
細線
 48
10.0
100
AcDbCircle
 10
110.157508182764
 20
420.752554451348
 30
0.0
 40
8.222656249999796
100
AcDbArc
 50
139.180234332391
 51
220.819765667608
  0
ARC
  5
5BF5
330
1A
100
AcDbEntity
  8
細線
 48
10.0
100
AcDbCircle
 10
117.157508182764
 20
420.752554451349
 30
0.0
 40
8.222656249999796
100
AcDbArc
 50
139.180234332391
 51
220.819765667608
  0
ARC
  5
5BF6
330
1A
100
AcDbEntity
  8
細線
 48
10.0
100
AcDbCircle
 10
104.712195682764
 20
410.002554451349
 30
0.0
 40
8.222656249999796
100
AcDbArc
 50
319.180234332391
 51
40.819765667609
  0
ARC
  5
5BF7
330
1A
100
AcDbEntity
  8
細線
 48
10.0
100
AcDbCircle
 10
117.157508182764
 20
410.002554451349
 30
0.0
 40
8.222656249999796
100
AcDbArc
 50
139.180234332391
 51
220.819765667608
  0
LINE
  5
5BF8
330
1A
100
AcDbEntity
  8
外形線
100
AcDbLine
 10
103.934851932764
 20
426.127554451348
 30
0.0
 11
58.434851932764
 21
426.127554451348
 31
0.0
  0
LINE
  5
5BF9
330
1A
100
AcDbEntity
  8
外形線
100
AcDbLine
 10
103.934851932764
 20
404.627554451348
 30
0.0
 11
58.434851932764
 21
404.627554451348
 31
0.0
  0
VIEWPORT
  5
2902
330
28FB
100
AcDbEntity
 67
     1
  8
0
 48
10.0
100
AcDbViewport
 10
0.0
 20
0.0
 30
0.0
 40
528.349942987457
 41
300.3
 68
     1
 69
     1
1001
ACAD
1000
MVIEW
1002
{
1070
    16
1010
0.0
1020
0.0
1030
0.0
1010
0.0
1020
0.0
1030
1.0
1040
0.0
1040
300.3
1040
205.756503333333
1040
143.551503333333
1040
50.0
1040
0.0
1040
0.0
1070
    16
1070
   100
1070
     0
1070
     1
1070
     0
1070
     0
1070
     0
1070
     0
1040
0.0
1040
0.0
1040
0.0
1040
10.0
1040
10.0
1040
10.0
1040
10.0
1070
     0
1002
{
1002
}
1002
}
  0
VIEWPORT
  5
2904
330
28FB
100
AcDbEntity
 67
     1
  8
図枠太線
 48
10.0
100
AcDbViewport
 10
204.746305129083
 20
163.202754806829
 30
0.0
 40
400.0
 41
240.0
 68
     2
 69
     2
1001
ACAD
1000
MVIEW
1002
{
1070
    16
1010
0.0
1020
0.0
1030
0.0
1010
0.0
1020
0.0
1030
1.0
1040
0.0
1040
480.000003497283
1040
252.266967153209
1040
333.962957578306
1040
50.0
1040
0.0
1040
0.0
1070
    16
1070
   100
1070
     0
1070
     0
1070
     0
1070
     0
1070
     0
1070
     0
1040
0.0
1040
0.0
1040
0.0
1040
1.0
1040
1.0
1040
0.0
1040
0.0
1070
     0
1002
{
1002
}
1002
}
  0
INSERT
  5
2A59
330
28FB
100
AcDbEntity
 67
     1
  8
図枠太線
100
AcDbBlockReference
  2
A3横用_タイトル
 10
-0.352109406709
 20
-0.323204946698
 30
0.0
  0
MTEXT
  5
2E85
330
28FB
100
AcDbEntity
 67
     1
  8
寸法線
 48
10.0
100
AcDbMText
 10
149.12611673873
 20
16.061354374111
 30
0.0
 40
5.0
 41
11.452149180996
 71
     1
 72
     5
  1
{\H1.4x;1:2}
  0
MTEXT
  5
569C
102
{ACAD_XDICTIONARY
360
569D
102
}
330
28FB
100
AcDbEntity
 67
     1
  8
寸法線
 48
10.0
100
AcDbMText
 10
341.155313110839
 20
17.300042470838
 30
0.0
 40
8.0
 41
33.206594841881
 71
     1
 72
     5
  1
HE-13018
1001
ACADANNOTATIVE
1000
AnnotativeData
1002
{
1070
     1
1070
     0
1002
}
  0
MTEXT
  5
56A4
102
{ACAD_XDICTIONARY
360
56A5
102
}
330
28FB
100
AcDbEntity
 67
     1
  8
寸法線
 48
10.0
100
AcDbMText
 10
188.046305129083
 20
35.092629832141
 30
0.0
 40
5.0
 41
33.4
 71
     2
 72
     5
  1
takahashi
1001
ACADANNOTATIVE
1000
AnnotativeData
1002
{
1070
     1
1070
     0
1002
}
  0
MTEXT
  5
56A8
102
{ACAD_XDICTIONARY
360
56A9
102
}
330
28FB
100
AcDbEntity
 67
     1
  8
寸法線
 48
10.0
100
AcDbMText
 10
377.920856708546
 20
52.440333274029
 30
0.0
 40
5.0
 41
21.364427237501
 71
     1
 72
     5
  1
Q'ty: 
1001
ACADANNOTATIVE
1000
AnnotativeData
1002
{
1070
     1
1070
     0
1002
}
  0
MTEXT
  5
56AC
330
28FB
100
AcDbEntity
 67
     1
  8
寸法線
 48
10.0
100
AcDbMText
 10
210.548677740965
 20
52.991788481526
 30
0.0
 40
5.0
 41
106.699923235854
 71
     1
 72
     5
  1
a reduced drawing（A3size～）
  0
LINE
  5
56AD
330
28FB
100
AcDbEntity
 67
     1
  8
寸法線
 48
10.0
100
AcDbLine
 10
206.834699746824
 20
46.136400900201
 30
0.0
 11
303.487818087333
 21
46.136400900201
 31
0.0
  0
MTEXT
  5
5A1F
102
{ACAD_XDICTIONARY
360
5A20
102
}
330
28FB
100
AcDbEntity
 67
     1
  8
寸法線
 48
10.0
100
AcDbMText
 10
307.871917838935
 20
34.220515957593
 30
0.0
 40
6.0
 41
45.0
 71
     1
 72
     5
  1
TSS-A3SA-□
1001
ACADANNOTATIVE
1000
AnnotativeData
1002
{
1070
     1
1070
     0
1002
}
  0
MTEXT
  5
5A23
330
28FB
100
AcDbEntity
 67
     1
  8
寸法線
 48
10.0
100
AcDbMText
 10
361.549497831478
 20
36.876186961903
 30
0.0
 40
3.5
 41
59.837375094616
 71
     1
 72
     5
  1
CAPACITANCE TYPE\PLEVEL SENSOR
  0
MTEXT
  5
5CF2
102
{ACAD_XDICTIONARY
360
5CF3
102
}
330
28FB
100
AcDbEntity
 67
     1
  8
寸法線
 48
10.0
100
AcDbMText
 10
188.046305129083
 20
14.429953145767
 30
0.0
 40
5.0
 41
33.4
 71
     2
 72
     5
  1
\H0.9x;Sep.14.2016
1001
ACADANNOTATIVE
1000
AnnotativeData
1002
{
1070
     1
1070
     0
1002
}
  0
ENDSEC
  0
SECTION
  2
OBJECTS
  0
DICTIONARY
  5
C
330
0
100
AcDbDictionary
  3
ACAD_COLOR
350
2948
  3
ACAD_GROUP
350
D
  3
ACAD_LAYOUT
350
2816
  3
ACAD_MATERIAL
350
2947
  3
ACAD_MLEADERSTYLE
350
4E87
  3
ACAD_MLINESTYLE
350
E
  3
ACAD_PLOTSETTINGS
350
2817
  3
ACAD_SCALELIST
350
4E60
  3
ACAD_VISUALSTYLE
350
4E47
  3
ACADDIM
350
4312
  3
ACDBHEADERROUNDTRIPXREC
350
5D52
  3
ACDBVARIABLEDICTIONARY
350
517D
  3
DWGPROPS
350
5D77
  0
DICTIONARY
  5
5D78
330
8
100
AcDbDictionary
280
     1
  3
ACAD_XREC_ROUNDTRIP
360
5D79
  0
DICTIONARY
  5
29EA
330
2
100
AcDbDictionary
280
     1
  3
ACAD_LAYERFILTERS
360
2B0C
  3
ACAD_LAYERSTATES
360
29EB
  0
DICTIONARY
  5
508F
330
508E
100
AcDbDictionary
280
     1
  3
ACDBCONTEXTDATAMANAGER
360
5090
  0
DICTIONARY
  5
50A8
330
50A7
100
AcDbDictionary
280
     1
  3
ACDBCONTEXTDATAMANAGER
360
50A9
  0
DICTIONARY
  5
5244
330
5243
100
AcDbDictionary
280
     1
  3
ACDBCONTEXTDATAMANAGER
360
5245
  0
DICTIONARY
  5
5248
330
5247
100
AcDbDictionary
280
     1
  3
ACDBCONTEXTDATAMANAGER
360
5249
  0
DICTIONARY
  5
524C
330
524B
100
AcDbDictionary
280
     1
  3
ACDBCONTEXTDATAMANAGER
360
524D
  0
DICTIONARY
  5
5250
330
524F
100
AcDbDictionary
280
     1
  3
ACDBCONTEXTDATAMANAGER
360
5251
  0
DICTIONARY
  5
5254
330
5253
100
AcDbDictionary
280
     1
  3
ACDBCONTEXTDATAMANAGER
360
5255
  0
DICTIONARY
  5
5258
330
5257
100
AcDbDictionary
280
     1
  3
ACDBCONTEXTDATAMANAGER
360
5259
  0
DICTIONARY
  5
525C
330
525B
100
AcDbDictionary
280
     1
  3
ACDBCONTEXTDATAMANAGER
360
525D
  0
DICTIONARY
  5
5260
330
525F
100
AcDbDictionary
280
     1
  3
ACDBCONTEXTDATAMANAGER
360
5261
  0
DICTIONARY
  5
5390
330
538F
100
AcDbDictionary
280
     1
  3
ACDBCONTEXTDATAMANAGER
360
5391
  0
DICTIONARY
  5
5394
330
5393
100
AcDbDictionary
280
     1
  3
ACDBCONTEXTDATAMANAGER
360
5395
  0
DICTIONARY
  5
5398
330
5397
100
AcDbDictionary
280
     1
  3
ACDBCONTEXTDATAMANAGER
360
5399
  0
DICTIONARY
  5
53D3
330
53D2
100
AcDbDictionary
280
     1
  3
ACDBCONTEXTDATAMANAGER
360
53D4
  0
DICTIONARY
  5
5440
330
543F
100
AcDbDictionary
280
     1
  3
ACDBCONTEXTDATAMANAGER
360
5441
  0
DICTIONARY
  5
5541
330
5540
100
AcDbDictionary
280
     1
  3
ACDBCONTEXTDATAMANAGER
360
5542
  0
DICTIONARY
  5
558C
330
558B
100
AcDbDictionary
280
     1
  3
ACDBCONTEXTDATAMANAGER
360
558D
  0
DICTIONARY
  5
5590
330
558F
100
AcDbDictionary
280
     1
  3
ACDBCONTEXTDATAMANAGER
360
5591
  0
DICTIONARY
  5
5ACC
330
5ACB
100
AcDbDictionary
280
     1
  3
ACDBCONTEXTDATAMANAGER
360
5ACD
  0
DICTIONARY
  5
5AD0
330
5ACF
100
AcDbDictionary
280
     1
  3
ACDBCONTEXTDATAMANAGER
360
5AD1
  0
DICTIONARY
  5
5AD4
330
5AD3
100
AcDbDictionary
280
     1
  3
ACDBCONTEXTDATAMANAGER
360
5AD5
  0
DICTIONARY
  5
5B35
330
5B34
100
AcDbDictionary
280
     1
  3
ACDBCONTEXTDATAMANAGER
360
5B36
  0
DICTIONARY
  5
5B39
330
5B38
100
AcDbDictionary
280
     1
  3
ACDBCONTEXTDATAMANAGER
360
5B3A
  0
DICTIONARY
  5
5B3D
330
5B3C
100
AcDbDictionary
280
     1
  3
ACDBCONTEXTDATAMANAGER
360
5B3E
  0
DICTIONARY
  5
569D
330
569C
100
AcDbDictionary
280
     1
  3
ACDBCONTEXTDATAMANAGER
360
569E
  0
DICTIONARY
  5
56A5
330
56A4
100
AcDbDictionary
280
     1
  3
ACDBCONTEXTDATAMANAGER
360
56A6
  0
DICTIONARY
  5
56A9
330
56A8
100
AcDbDictionary
280
     1
  3
ACDBCONTEXTDATAMANAGER
360
56AA
  0
DICTIONARY
  5
5A20
330
5A1F
100
AcDbDictionary
280
     1
  3
ACDBCONTEXTDATAMANAGER
360
5A21
  0
DICTIONARY
  5
5CF3
330
5CF2
100
AcDbDictionary
280
     1
  3
ACDBCONTEXTDATAMANAGER
360
5CF4
  0
DICTIONARY
  5
2948
102
{ACAD_REACTORS
330
C
102
}
330
C
100
AcDbDictionary
  0
DICTIONARY
  5
D
102
{ACAD_REACTORS
330
C
102
}
330
C
100
AcDbDictionary
  3
*A1
350
46B4
  3
*A2
350
46B5
  3
*A3
350
47D0
  0
DICTIONARY
  5
2816
102
{ACAD_REACTORS
330
C
102
}
330
C
100
AcDbDictionary
  0
DICTIONARY
  5
2947
102
{ACAD_REACTORS
330
C
102
}
330
C
100
AcDbDictionary
  3
BYBLOCK
350
4E83
  3
BYLAYER
350
4E82
  3
GLOBAL
350
4E84
  0
DICTIONARY
  5
4E87
102
{ACAD_REACTORS
330
C
102
}
330
C
100
AcDbDictionary
  3
STANDARD
350
4E88
  0
DICTIONARY
  5
E
102
{ACAD_REACTORS
330
C
102
}
330
C
100
AcDbDictionary
  3
STANDARD
350
13
  0
DICTIONARY
  5
2817
102
{ACAD_REACTORS
330
C
102
}
330
C
100
AcDbDictionary
  0
DICTIONARY
  5
4E60
102
{ACAD_REACTORS
330
C
102
}
330
C
100
AcDbDictionary
  3
A0
350
4E61
  3
A1
350
4E62
  3
A2
350
4E63
  3
A3
350
4E64
  3
A4
350
4E65
  3
A5
350
4E66
  3
A6
350
4E67
  3
A7
350
4E68
  3
A8
350
4E69
  3
A9
350
4E6A
  3
B0
350
4E6B
  3
B1
350
4E6C
  3
B2
350
4E6D
  3
B3
350
4E6E
  3
B4
350
4E6F
  3
B5
350
4E70
  3
B6
350
4E71
  3
B7
350
4E72
  3
B8
350
4E73
  3
B9
350
4E74
  3
C0
350
4E75
  3
C1
350
4E76
  3
C2
350
4E77
  3
C3
350
4E78
  3
C4
350
4E79
  3
C5
350
4E7A
  3
C6
350
4E7B
  3
C7
350
4E7C
  3
C8
350
4E7D
  3
C9
350
4E7E
  3
D0
350
4E7F
  3
D1
350
4E80
  3
D2
350
4E81
  0
DICTIONARY
  5
4E47
102
{ACAD_REACTORS
330
C
102
}
330
C
100
AcDbDictionary
  3
2DWIREFRAME
350
4E4C
  3
BASIC
350
4E4F
  3
BRIGHTEN
350
4E53
  3
COLORCHANGE
350
4E57
  3
CONCEPTUAL
350
4E51
  3
DIM
350
4E52
  3
EDGECOLOROFF
350
4E5A
  3
FACEPATTERN
350
4E56
  3
FLAT
350
4E48
  3
FLATWITHEDGES
350
4E49
  3
GOURAUD
350
4E4A
  3
GOURAUDWITHEDGES
350
4E4B
  3
HIDDEN
350
4E4E
  3
JITTEROFF
350
4E58
  3
LINEPATTERN
350
4E55
  3
MODELING
350
5350
  3
OVERHANGOFF
350
4E59
  3
REALISTIC
350
4E50
  3
SHADED
350
4E5F
  3
SHADED_WITH_EDGES
350
4E5E
  3
SHADES_OF_GRAY
350
4E5B
  3
SKETCHY
350
4E5C
  3
THICKEN
350
4E54
  3
WIREFRAME
350
4E4D
  3
X-RAY
350
4E5D
  0
XRECORD
  5
4312
102
{ACAD_REACTORS
330
C
102
}
330
C
100
AcDbXrecord
 90
   990106
  3

 60
     0
 61
     0
 62
     4
 63
     4
 64
     0
 65
     0
 66
     0
 67
     3
 68
     1
 69
     0
 70
     0
 71
     0
 72
     0
 40
0.0
170
     2
340
0
  0
DICTIONARY
  5
5D52
102
{ACAD_REACTORS
330
C
102
}
330
C
100
AcDbDictionary
  3
CEPSNID
350
5D5C
  3
CEPSNTYPE
350
5D5B
  3
COLORDICT
350
5D75
  3
DIMSTYLEDATA
350
5D72
  3
FINGERPRINTGUID
350
5D5D
  3
HYPERLINKBASE
350
5D55
  3
INSUNITS
350
5D5A
  3
LAYOUTDICT
350
5D57
  3
LWETCUNION
350
5D59
  3
MATERIALDICT
350
5D76
  3
PLOTSETDICT
350
5D58
  3
PSVPSCALE
350
5D5F
  3
PUCSBASE
350
5D62
  3
PUCSORGBACK
350
5D68
  3
PUCSORGBOTTOM
350
5D64
  3
PUCSORGFRONT
350
5D67
  3
PUCSORGLEFT
350
5D65
  3
PUCSORGRIGHT
350
5D66
  3
PUCSORGTOP
350
5D63
  3
PUCSORTHOREF
350
5D60
  3
PUCSORTHOVIEW
350
5D61
  3
STYLESHEET
350
5D56
  3
TSTACKALIGN
350
5D53
  3
TSTACKSIZE
350
5D54
  3
UCSBASE
350
5D6B
  3
UCSORGBACK
350
5D71
  3
UCSORGBOTTOM
350
5D6D
  3
UCSORGFRONT
350
5D70
  3
UCSORGLEFT
350
5D6E
  3
UCSORGRIGHT
350
5D6F
  3
UCSORGTOP
350
5D6C
  3
UCSORTHOREF
350
5D69
  3
UCSORTHOVIEW
350
5D6A
  3
VERSIONGUID
350
5D5E
  0
DICTIONARY
  5
517D
102
{ACAD_REACTORS
330
C
102
}
330
C
100
AcDbDictionary
  3
CANNOSCALE
350
517E
  3
CMLEADERSTYLE
350
5180
  3
CTABLESTYLE
350
517F
  3
DIMASSOC
350
5D73
  3
HIDETEXT
350
5D74
  3
MSLTSCALE
350
5181
  3
XCLIPFRAME
350
5182
  0
XRECORD
  5
5D77
102
{ACAD_REACTORS
330
C
102
}
330
C
100
AcDbXrecord
  1
DWGPROPS COOKIE
  2

  3

  4

  6

  7

  8
takahashi
  9

300
=
301
=
302
=
303
=
304
=
305
=
306
=
307
=
308
=
309
=
 40
0.0
 41
2450576.222302431
 42
2457658.402611609
  1

 90
        0
  0
XRECORD
  5
5D79
102
{ACAD_REACTORS
330
5D78
102
}
330
5D78
100
AcDbXrecord
102
VTR_0.000_0.000_1.000_1.000_VISUALSTYLE
340
4E4C
102
VTR_0.000_0.000_1.000_1.000_GRIDDISPLAY
 70
     3
102
VTR_0.000_0.000_1.000_1.000_GRIDMAJOR
 70
     5
102
VTR_0.000_0.000_1.000_1.000_DEFAULTLIGHTING
280
     1
102
VTR_0.000_0.000_1.000_1.000_DEFAULTLIGHTINGTYPE
 70
     1
102
VTR_0.000_0.000_1.000_1.000_BRIGHTNESS
141
0.0
102
VTR_0.000_0.000_1.000_1.000_CONTRAST
142
0.0
  0
DICTIONARY
  5
2B0C
102
{ACAD_REACTORS
330
29EA
102
}
330
29EA
100
AcDbDictionary
  0
DICTIONARY
  5
29EB
102
{ACAD_REACTORS
330
29EA
102
}
330
29EA
100
AcDbDictionary
  0
DICTIONARY
  5
5090
102
{ACAD_REACTORS
330
508F
102
}
330
508F
100
AcDbDictionary
  3
ACDB_ANNOTATIONSCALES
350
5091
  0
DICTIONARY
  5
50A9
102
{ACAD_REACTORS
330
50A8
102
}
330
50A8
100
AcDbDictionary
  3
ACDB_ANNOTATIONSCALES
350
50AA
  0
DICTIONARY
  5
5245
102
{ACAD_REACTORS
330
5244
102
}
330
5244
100
AcDbDictionary
  3
ACDB_ANNOTATIONSCALES
350
5246
  0
DICTIONARY
  5
5249
102
{ACAD_REACTORS
330
5248
102
}
330
5248
100
AcDbDictionary
  3
ACDB_ANNOTATIONSCALES
350
524A
  0
DICTIONARY
  5
524D
102
{ACAD_REACTORS
330
524C
102
}
330
524C
100
AcDbDictionary
  3
ACDB_ANNOTATIONSCALES
350
524E
  0
DICTIONARY
  5
5251
102
{ACAD_REACTORS
330
5250
102
}
330
5250
100
AcDbDictionary
  3
ACDB_ANNOTATIONSCALES
350
5252
  0
DICTIONARY
  5
5255
102
{ACAD_REACTORS
330
5254
102
}
330
5254
100
AcDbDictionary
  3
ACDB_ANNOTATIONSCALES
350
5256
  0
DICTIONARY
  5
5259
102
{ACAD_REACTORS
330
5258
102
}
330
5258
100
AcDbDictionary
  3
ACDB_ANNOTATIONSCALES
350
525A
  0
DICTIONARY
  5
525D
102
{ACAD_REACTORS
330
525C
102
}
330
525C
100
AcDbDictionary
  3
ACDB_ANNOTATIONSCALES
350
525E
  0
DICTIONARY
  5
5261
102
{ACAD_REACTORS
330
5260
102
}
330
5260
100
AcDbDictionary
  3
ACDB_ANNOTATIONSCALES
350
5262
  0
DICTIONARY
  5
5391
102
{ACAD_REACTORS
330
5390
102
}
330
5390
100
AcDbDictionary
  3
ACDB_ANNOTATIONSCALES
350
5392
  0
DICTIONARY
  5
5395
102
{ACAD_REACTORS
330
5394
102
}
330
5394
100
AcDbDictionary
  3
ACDB_ANNOTATIONSCALES
350
5396
  0
DICTIONARY
  5
5399
102
{ACAD_REACTORS
330
5398
102
}
330
5398
100
AcDbDictionary
  3
ACDB_ANNOTATIONSCALES
350
539A
  0
DICTIONARY
  5
53D4
102
{ACAD_REACTORS
330
53D3
102
}
330
53D3
100
AcDbDictionary
  3
ACDB_ANNOTATIONSCALES
350
53D5
  0
DICTIONARY
  5
5441
102
{ACAD_REACTORS
330
5440
102
}
330
5440
100
AcDbDictionary
  3
ACDB_ANNOTATIONSCALES
350
5442
  0
DICTIONARY
  5
5542
102
{ACAD_REACTORS
330
5541
102
}
330
5541
100
AcDbDictionary
  3
ACDB_ANNOTATIONSCALES
350
5543
  0
DICTIONARY
  5
558D
102
{ACAD_REACTORS
330
558C
102
}
330
558C
100
AcDbDictionary
  3
ACDB_ANNOTATIONSCALES
350
558E
  0
DICTIONARY
  5
5591
102
{ACAD_REACTORS
330
5590
102
}
330
5590
100
AcDbDictionary
  3
ACDB_ANNOTATIONSCALES
350
5592
  0
DICTIONARY
  5
5ACD
102
{ACAD_REACTORS
330
5ACC
102
}
330
5ACC
100
AcDbDictionary
  3
ACDB_ANNOTATIONSCALES
350
5ACE
  0
DICTIONARY
  5
5AD1
102
{ACAD_REACTORS
330
5AD0
102
}
330
5AD0
100
AcDbDictionary
  3
ACDB_ANNOTATIONSCALES
350
5AD2
  0
DICTIONARY
  5
5AD5
102
{ACAD_REACTORS
330
5AD4
102
}
330
5AD4
100
AcDbDictionary
  3
ACDB_ANNOTATIONSCALES
350
5AD6
  0
DICTIONARY
  5
5B36
102
{ACAD_REACTORS
330
5B35
102
}
330
5B35
100
AcDbDictionary
  3
ACDB_ANNOTATIONSCALES
350
5B37
  0
DICTIONARY
  5
5B3A
102
{ACAD_REACTORS
330
5B39
102
}
330
5B39
100
AcDbDictionary
  3
ACDB_ANNOTATIONSCALES
350
5B3B
  0
DICTIONARY
  5
5B3E
102
{ACAD_REACTORS
330
5B3D
102
}
330
5B3D
100
AcDbDictionary
  3
ACDB_ANNOTATIONSCALES
350
5B3F
  0
DICTIONARY
  5
569E
102
{ACAD_REACTORS
330
569D
102
}
330
569D
100
AcDbDictionary
  3
ACDB_ANNOTATIONSCALES
350
569F
  0
DICTIONARY
  5
56A6
102
{ACAD_REACTORS
330
56A5
102
}
330
56A5
100
AcDbDictionary
  3
ACDB_ANNOTATIONSCALES
350
56A7
  0
DICTIONARY
  5
56AA
102
{ACAD_REACTORS
330
56A9
102
}
330
56A9
100
AcDbDictionary
  3
ACDB_ANNOTATIONSCALES
350
56AB
  0
DICTIONARY
  5
5A21
102
{ACAD_REACTORS
330
5A20
102
}
330
5A20
100
AcDbDictionary
  3
ACDB_ANNOTATIONSCALES
350
5A22
  0
DICTIONARY
  5
5CF4
102
{ACAD_REACTORS
330
5CF3
102
}
330
5CF3
100
AcDbDictionary
  3
ACDB_ANNOTATIONSCALES
350
5CF5
  0
GROUP
  5
46B4
102
{ACAD_REACTORS
330
D
102
}
330
D
100
AcDbGroup
300

 70
     1
 71
     1
340
465A
340
4659
340
4658
340
4657
340
4656
340
4655
340
4654
340
4642
340
4641
340
4640
340
463F
340
463E
340
463D
340
463C
340
463B
340
463A
340
4639
340
4638
340
4637
340
4636
340
4635
340
4420
  0
GROUP
  5
46B5
102
{ACAD_REACTORS
330
D
102
}
330
D
100
AcDbGroup
300

 70
     1
 71
     1
340
46B3
340
46B2
340
46B1
340
46B0
340
46AF
340
46AE
340
46AD
340
46AC
340
46AB
340
46AA
340
46A9
340
46A8
340
46A7
340
46A6
340
46A0
340
469F
  0
GROUP
  5
47D0
102
{ACAD_REACTORS
330
D
102
}
330
D
100
AcDbGroup
300

 70
     1
 71
     1
340
4521
340
4523
  0
MATERIAL
  5
4E83
102
{ACAD_REACTORS
330
2947
102
}
102
{ACAD_XDICTIONARY
360
5D7C
102
}
330
2947
100
AcDbMaterial
  1
BYBLOCK
  0
MATERIAL
  5
4E82
102
{ACAD_REACTORS
330
2947
102
}
102
{ACAD_XDICTIONARY
360
5D7A
102
}
330
2947
100
AcDbMaterial
  1
BYLAYER
  0
MATERIAL
  5
4E84
102
{ACAD_REACTORS
330
2947
102
}
102
{ACAD_XDICTIONARY
360
5D7E
102
}
330
2947
100
AcDbMaterial
  1
GLOBAL
  0
ACAD_PROXY_OBJECT
  5
4E88
102
{ACAD_REACTORS
330
4E87
102
}
330
4E87
100
AcDbProxyObject
 90
      499
 91
      507
 93
      610
310
40901902A4063FBFFFFFE0000000000000020400000000000020404214DD185B99185C990000000000000104090141901A00000000000004100000000000000041025764000000000000039000
340
14
340
0
340
10
340
0
 94
        0
1001
ACAD_MLEADERVER
1070
     2
  0
MLINESTYLE
  5
13
102
{ACAD_REACTORS
330
E
102
}
330
E
100
AcDbMlineStyle
  2
STANDARD
 70
     0
  3

 62
     0
 51
90.0
 52
90.0
 71
     2
 49
0.5
 62
   256
  6
BYLAYER
 49
-0.5
 62
   256
  6
BYLAYER
  0
ACAD_PROXY_OBJECT
  5
4E61
102
{ACAD_REACTORS
330
4E60
102
}
330
4E60
100
AcDbProxyObject
 90
      499
 91
      504
 93
       41
310
903313A31580
  0
ACAD_PROXY_OBJECT
  5
4E62
102
{ACAD_REACTORS
330
4E60
102
}
330
4E60
100
AcDbProxyObject
 90
      499
 91
      504
 93
      105
310
903313A324000000000000004000
  0
ACAD_PROXY_OBJECT
  5
4E63
102
{ACAD_REACTORS
330
4E60
102
}
330
4E60
100
AcDbProxyObject
 90
      499
 91
      504
 93
      105
310
903313A344000000000000104000
  0
ACAD_PROXY_OBJECT
  5
4E64
102
{ACAD_REACTORS
330
4E60
102
}
330
4E60
100
AcDbProxyObject
 90
      499
 91
      504
 93
      105
310
903313A354000000000000144000
  0
ACAD_PROXY_OBJECT
  5
4E65
102
{ACAD_REACTORS
330
4E60
102
}
330
4E60
100
AcDbProxyObject
 90
      499
 91
      504
 93
      105
310
903313A384000000000000204000
  0
ACAD_PROXY_OBJECT
  5
4E66
102
{ACAD_REACTORS
330
4E60
102
}
330
4E60
100
AcDbProxyObject
 90
      499
 91
      504
 93
      113
310
904313A31304000000000000244000
  0
ACAD_PROXY_OBJECT
  5
4E67
102
{ACAD_REACTORS
330
4E60
102
}
330
4E60
100
AcDbProxyObject
 90
      499
 91
      504
 93
      113
310
904313A31364000000000000304000
  0
ACAD_PROXY_OBJECT
  5
4E68
102
{ACAD_REACTORS
330
4E60
102
}
330
4E60
100
AcDbProxyObject
 90
      499
 91
      504
 93
      113
310
904313A32304000000000000344000
  0
ACAD_PROXY_OBJECT
  5
4E69
102
{ACAD_REACTORS
330
4E60
102
}
330
4E60
100
AcDbProxyObject
 90
      499
 91
      504
 93
      113
310
904313A333040000000000003E4000
  0
ACAD_PROXY_OBJECT
  5
4E6A
102
{ACAD_REACTORS
330
4E60
102
}
330
4E60
100
AcDbProxyObject
 90
      499
 91
      504
 93
      113
310
904313A34304000000000000444000
  0
ACAD_PROXY_OBJECT
  5
4E6B
102
{ACAD_REACTORS
330
4E60
102
}
330
4E60
100
AcDbProxyObject
 90
      499
 91
      504
 93
      113
310
904313A35304000000000000494000
  0
ACAD_PROXY_OBJECT
  5
4E6C
102
{ACAD_REACTORS
330
4E60
102
}
330
4E60
100
AcDbProxyObject
 90
      499
 91
      504
 93
      121
310
905313A3130304000000000000594000
  0
ACAD_PROXY_OBJECT
  5
4E6D
102
{ACAD_REACTORS
330
4E60
102
}
330
4E60
100
AcDbProxyObject
 90
      499
 91
      504
 93
      105
310
903323A310000000000000010100
  0
ACAD_PROXY_OBJECT
  5
4E6E
102
{ACAD_REACTORS
330
4E60
102
}
330
4E60
100
AcDbProxyObject
 90
      499
 91
      504
 93
      105
310
903343A310000000000000410100
  0
ACAD_PROXY_OBJECT
  5
4E6F
102
{ACAD_REACTORS
330
4E60
102
}
330
4E60
100
AcDbProxyObject
 90
      499
 91
      504
 93
      105
310
903383A310000000000000810100
  0
ACAD_PROXY_OBJECT
  5
4E70
102
{ACAD_REACTORS
330
4E60
102
}
330
4E60
100
AcDbProxyObject
 90
      499
 91
      504
 93
      113
310
90431303A310000000000000910100
  0
ACAD_PROXY_OBJECT
  5
4E71
102
{ACAD_REACTORS
330
4E60
102
}
330
4E60
100
AcDbProxyObject
 90
      499
 91
      504
 93
      121
310
9053130303A310000000000001650100
  0
ACAD_PROXY_OBJECT
  5
4E72
102
{ACAD_REACTORS
330
4E60
102
}
330
4E60
100
AcDbProxyObject
 90
      499
 91
      504
 93
      257
310
90E312F31323822203D2031272D3022000000000000200FC000000000000284000
  0
ACAD_PROXY_OBJECT
  5
4E73
102
{ACAD_REACTORS
330
4E60
102
}
330
4E60
100
AcDbProxyObject
 90
      499
 91
      504
 93
      249
310
90D312F363422203D2031272D3022000000000000240FC000000000000284000
  0
ACAD_PROXY_OBJECT
  5
4E74
102
{ACAD_REACTORS
330
4E60
102
}
330
4E60
100
AcDbProxyObject
 90
      499
 91
      504
 93
      249
310
90D312F333222203D2031272D3022000000000000280FC000000000000284000
  0
ACAD_PROXY_OBJECT
  5
4E75
102
{ACAD_REACTORS
330
4E60
102
}
330
4E60
100
AcDbProxyObject
 90
      499
 91
      504
 93
      249
310
90D312F313622203D2031272D30220000000000002C0FC000000000000284000
  0
ACAD_PROXY_OBJECT
  5
4E76
102
{ACAD_REACTORS
330
4E60
102
}
330
4E60
100
AcDbProxyObject
 90
      499
 91
      504
 93
      249
310
90D332F333222203D2031272D30220000000000002E0FC000000000000284000
  0
ACAD_PROXY_OBJECT
  5
4E77
102
{ACAD_REACTORS
330
4E60
102
}
330
4E60
100
AcDbProxyObject
 90
      499
 91
      504
 93
      241
310
90C312F3822203D2031272D3022000000000000300FC000000000000284000
  0
ACAD_PROXY_OBJECT
  5
4E78
102
{ACAD_REACTORS
330
4E60
102
}
330
4E60
100
AcDbProxyObject
 90
      499
 91
      504
 93
      249
310
90D332F313622203D2031272D3022000000000000320FC000000000000284000
  0
ACAD_PROXY_OBJECT
  5
4E79
102
{ACAD_REACTORS
330
4E60
102
}
330
4E60
100
AcDbProxyObject
 90
      499
 91
      504
 93
      241
310
90C312F3422203D2031272D3022000000000000340FC000000000000284000
  0
ACAD_PROXY_OBJECT
  5
4E7A
102
{ACAD_REACTORS
330
4E60
102
}
330
4E60
100
AcDbProxyObject
 90
      499
 91
      504
 93
      241
310
90C332F3822203D2031272D3022000000000000360FC000000000000284000
  0
ACAD_PROXY_OBJECT
  5
4E7B
102
{ACAD_REACTORS
330
4E60
102
}
330
4E60
100
AcDbProxyObject
 90
      499
 91
      504
 93
      241
310
90C312F3222203D2031272D3022000000000000380FC000000000000284000
  0
ACAD_PROXY_OBJECT
  5
4E7C
102
{ACAD_REACTORS
330
4E60
102
}
330
4E60
100
AcDbProxyObject
 90
      499
 91
      504
 93
      241
310
90C332F3422203D2031272D30220000000000003A0FC000000000000284000
  0
ACAD_PROXY_OBJECT
  5
4E7D
102
{ACAD_REACTORS
330
4E60
102
}
330
4E60
100
AcDbProxyObject
 90
      499
 91
      504
 93
      161
310
90A3122203D2031272D30224000000000000284000
  0
ACAD_PROXY_OBJECT
  5
4E7E
102
{ACAD_REACTORS
330
4E60
102
}
330
4E60
100
AcDbProxyObject
 90
      499
 91
      504
 93
      257
310
90E312D312F3222203D2031272D30220000000000003E0FC000000000000284000
  0
ACAD_PROXY_OBJECT
  5
4E7F
102
{ACAD_REACTORS
330
4E60
102
}
330
4E60
100
AcDbProxyObject
 90
      499
 91
      504
 93
      225
310
90A3322203D2031272D302200000000000002100000000000000284000
  0
ACAD_PROXY_OBJECT
  5
4E80
102
{ACAD_REACTORS
330
4E60
102
}
330
4E60
100
AcDbProxyObject
 90
      499
 91
      504
 93
      225
310
90A3622203D2031272D302200000000000006100000000000000284000
  0
ACAD_PROXY_OBJECT
  5
4E81
102
{ACAD_REACTORS
330
4E60
102
}
330
4E60
100
AcDbProxyObject
 90
      499
 91
      504
 93
      249
310
90D31272D3022203D2031272D30220000000000000A100000000000000284000
  0
ACAD_PROXY_OBJECT
  5
4E4C
102
{ACAD_REACTORS
330
4E47
102
}
330
4E47
100
AcDbProxyObject
 90
      499
 91
      503
 93
      436
310
42CC9915DA5C99599C985B595049028333333333333E33F0000000000000F90107901411070040501600405405064090741402480A0340
1001
ACAD
1000
AcDbSavedByObjectVersion
1070
     0
  0
ACAD_PROXY_OBJECT
  5
4E4F
102
{ACAD_REACTORS
330
4E47
102
}
330
4E47
100
AcDbProxyObject
 90
      499
 91
      503
 93
      388
310
4150985CDA58D07406404333333333333E33F0000000000000F90107A41107004050150841D405064090741402480A0350
1001
ACAD
1000
AcDbSavedByObjectVersion
1070
     0
  0
ACAD_PROXY_OBJECT
  5
4E53
102
{ACAD_REACTORS
330
4E47
102
}
330
4E47
100
AcDbProxyObject
 90
      499
 91
      503
 93
      428
310
42109C9A59DA1D195B90C409028333333333333E33F0000000000000F9010790141107004050150841D405064090741402480A029950
1001
ACAD
1000
AcDbSavedByObjectVersion
1070
     0
  0
ACAD_PROXY_OBJECT
  5
4E57
102
{ACAD_REACTORS
330
4E47
102
}
330
4E47
100
AcDbProxyObject
 90
      499
 91
      503
 93
      452
310
42D0DBDB1BDC90DA185B99D95104090240C333333333333E33F0000000000000F90108901411070040501508421405064090741402480A0350
1001
ACAD
1000
AcDbSavedByObjectVersion
1070
     0
  0
ACAD_PROXY_OBJECT
  5
4E51
102
{ACAD_REACTORS
330
4E47
102
}
330
4E47
100
AcDbProxyObject
 90
      499
 91
      503
 93
      500
310
4290DBDB98D95C1D1D585B10940D028333333333333E33F0000000000000F90107902409070040501000000000018199010841D405064090740C02480A0340
1001
ACAD
1000
AcDbSavedByObjectVersion
1070
     0
  0
ACAD_PROXY_OBJECT
  5
4E52
102
{ACAD_REACTORS
330
4E47
102
}
330
4E47
100
AcDbProxyObject
 90
      499
 91
      503
 93
      412
310
40D11A5B50B409028333333333333E33F0000000000000F9010790141107004050150841D405064090741402480A02677FFFFFD0
1001
ACAD
1000
AcDbSavedByObjectVersion
1070
     0
  0
ACAD_PROXY_OBJECT
  5
4E5A
102
{ACAD_REACTORS
330
4E47
102
}
330
4E47
100
AcDbProxyObject
 90
      499
 91
      503
 93
      452
310
43115919D950DBDB1BDC93D999916409028333333333333E33F0000000000000F9010790141107004050150841D405064090741402480A0350
1001
ACAD
1000
AcDbSavedByObjectVersion
1070
     0
  0
ACAD_PROXY_OBJECT
  5
4E56
102
{ACAD_REACTORS
330
4E47
102
}
330
4E47
100
AcDbProxyObject
 90
      499
 91
      503
 93
      444
310
42D19858D95C185D1D195C9B90F409028333333333333E33F0000000000000F9010790141107004050150841D405064090741402480A0350
1001
ACAD
1000
AcDbSavedByObjectVersion
1070
     0
  0
ACAD_PROXY_OBJECT
  5
4E48
102
{ACAD_REACTORS
330
4E47
102
}
330
4E47
100
AcDbProxyObject
 90
      499
 91
      503
 93
      380
310
41119B185D240901404333333333333E33F0000000000000F9010740A907004050150841D405064090741402480A1B50
1001
ACAD
1000
AcDbSavedByObjectVersion
1070
     0
  0
ACAD_PROXY_OBJECT
  5
4E49
102
{ACAD_REACTORS
330
4E47
102
}
330
4E47
100
AcDbProxyObject
 90
      499
 91
      503
 93
      468
310
43519B185D15DA5D1A115919D95CD0140901404333333333333E33F0000000000000F90107409019070040501600405405064090741402480A1B50
1001
ACAD
1000
AcDbSavedByObjectVersion
1070
     0
  0
ACAD_PROXY_OBJECT
  5
4E4A
102
{ACAD_REACTORS
330
4E47
102
}
330
4E47
100
AcDbProxyObject
 90
      499
 91
      503
 93
      404
310
41D1DBDD5C985D5910240902404333333333333E33F0000000000000F9010740A9070040501641D405064090741402480A1B50
1001
ACAD
1000
AcDbSavedByObjectVersion
1070
     0
  0
ACAD_PROXY_OBJECT
  5
4E4B
102
{ACAD_REACTORS
330
4E47
102
}
330
4E47
100
AcDbProxyObject
 90
      499
 91
      503
 93
      492
310
4411DBDD5C985D5915DA5D1A115919D95CD0340902404333333333333E33F0000000000000F90107409019070040501600405405064090741402480A1B50
1001
ACAD
1000
AcDbSavedByObjectVersion
1070
     0
  0
ACAD_PROXY_OBJECT
  5
4E4E
102
{ACAD_REACTORS
330
4E47
102
}
330
4E47
100
AcDbProxyObject
 90
      499
 91
      503
 93
      476
310
41921A5919195B90640502408333333333333E33F0000000000000F901079024090700405020000000000001110200405405064090740C02480A0340
1001
ACAD
1000
AcDbSavedByObjectVersion
1070
     0
  0
ACAD_PROXY_OBJECT
  5
4E58
102
{ACAD_REACTORS
330
4E47
102
}
330
4E47
100
AcDbProxyObject
 90
      499
 91
      503
 93
      428
310
42529A5D1D195C93D999914409028333333333333E33F0000000000000F9010790141107004050150A41D405064090741402480A0350
1001
ACAD
1000
AcDbSavedByObjectVersion
1070
     0
  0
ACAD_PROXY_OBJECT
  5
4E55
102
{ACAD_REACTORS
330
4E47
102
}
330
4E47
100
AcDbProxyObject
 90
      499
 91
      503
 93
      444
310
42D31A5B995C185D1D195C9B90E409028333333333333E33F0000000000000F9010790141107004050750841D405064090741402483A0350
1001
ACAD
1000
AcDbSavedByObjectVersion
1070
     0
  0
ACAD_PROXY_OBJECT
  5
5350
102
{ACAD_REACTORS
330
4E47
102
}
330
4E47
100
AcDbProxyObject
 90
      499
 91
      503
 93
      412
310
90A409038333333333333E33F0000000000000F901074090290700405010000000000201990108421405064090741402480A1B40
1001
ACAD
1000
AcDbSavedByObjectVersion
1070
     0
  0
ACAD_PROXY_OBJECT
  5
4E59
102
{ACAD_REACTORS
330
4E47
102
}
330
4E47
100
AcDbProxyObject
 90
      499
 91
      503
 93
      444
310
42D3DD995C9A185B99D3D999915409028333333333333E33F0000000000000F9010790141107004050150941D405064090741402480A0350
1001
ACAD
1000
AcDbSavedByObjectVersion
1070
     0
  0
ACAD_PROXY_OBJECT
  5
4E50
102
{ACAD_REACTORS
330
4E47
102
}
330
4E47
100
AcDbProxyObject
 90
      499
 91
      503
 93
      428
310
425499585B1A5CDD1A58D08409038333333333333E33F0000000000000F9010740A907004050150800405405064090740C02480A1B40
1001
ACAD
1000
AcDbSavedByObjectVersion
1070
     0
  0
ACAD_PROXY_OBJECT
  5
4E5F
102
{ACAD_REACTORS
330
4E47
102
}
330
4E47
100
AcDbProxyObject
 90
      499
 91
      503
 93
      420
310
4194DA1859195911B40902404333333333333E33F0000000000000F9010740A41107004050150800405405064090840C02480A0B40
1001
ACAD
1000
AcDbSavedByObjectVersion
1070
     0
  0
ACAD_PROXY_OBJECT
  5
4E5E
102
{ACAD_REACTORS
330
4E47
102
}
330
4E47
100
AcDbProxyObject
 90
      499
 91
      503
 93
      516
310
4454DA18591959081DDA5D1A08195919D95CD1A40902404333333333333E33F0000000000000F901074090142907004050250800405405064090740C02480A0B40
1001
ACAD
1000
AcDbSavedByObjectVersion
1070
     0
  0
ACAD_PROXY_OBJECT
  5
4E5B
102
{ACAD_REACTORS
330
4E47
102
}
330
4E47
100
AcDbProxyObject
 90
      499
 91
      503
 93
      532
310
4394DA1859195CC81BD98811DC985E5174090240C333333333333E33F0000000000000F901079024090741D01000000000000111010841D405064090740C02480A0340
1001
ACAD
1000
AcDbSavedByObjectVersion
1070
     0
  0
ACAD_PROXY_OBJECT
  5
4E5C
102
{ACAD_REACTORS
330
4E47
102
}
330
4E47
100
AcDbProxyObject
 90
      499
 91
      503
 93
      476
310
41D4DAD95D18DA1E51840502408333333333333E33F0000000000000F901079024090741D01000000000000111010B41D405064090741802480A0340
1001
ACAD
1000
AcDbSavedByObjectVersion
1070
     0
  0
ACAD_PROXY_OBJECT
  5
4E54
102
{ACAD_REACTORS
330
4E47
102
}
330
4E47
100
AcDbProxyObject
 90
      499
 91
      503
 93
      412
310
41D51A1A58DAD95B90D409028333333333333E33F0000000000000F9010790141107004050150C41D405064090741402480A0350
1001
ACAD
1000
AcDbSavedByObjectVersion
1070
     0
  0
ACAD_PROXY_OBJECT
  5
4E4D
102
{ACAD_REACTORS
330
4E47
102
}
330
4E47
100
AcDbProxyObject
 90
      499
 91
      503
 93
      420
310
4255DA5C99599C985B595059028333333333333E33F0000000000000F90107901411070040501600405405064090740C02480A0340
1001
ACAD
1000
AcDbSavedByObjectVersion
1070
     0
  0
ACAD_PROXY_OBJECT
  5
4E5D
102
{ACAD_REACTORS
330
4E47
102
}
330
4E47
100
AcDbProxyObject
 90
      499
 91
      503
 93
      404
310
41560B54985E51940902404000000000000E03F0000000000000F9010740501907004050150841D405064090740C02480A1B40
1001
ACAD
1000
AcDbSavedByObjectVersion
1070
     0
  0
XRECORD
  5
5D5C
102
{ACAD_REACTORS
330
5D52
102
}
330
5D52
100
AcDbXrecord
340
0
  0
XRECORD
  5
5D5B
102
{ACAD_REACTORS
330
5D52
102
}
330
5D52
100
AcDbXrecord
 90
        0
  0
XRECORD
  5
5D75
102
{ACAD_REACTORS
330
5D52
102
}
330
5D52
100
AcDbXrecord
340
2948
  0
XRECORD
  5
5D72
102
{ACAD_REACTORS
330
5D52
102
}
330
5D52
100
AcDbXrecord
1000
DSTYLE
1002
{
1070
   171
 70
     2
1070
   143
 40
0.0394
1070
   274
 70
     2
1070
    41
 40
6.0
1070
   342
340
2AF4
1070
   271
 70
     1
1070
   278
 70
    46
1070
   341
340
2AF4
1070
   272
 70
     1
1070
    48
 40
0.1
1070
   283
 70
     1
1070
    47
 40
0.1
1070
   145
 40
1.0
1070
   340
340
10
1070
   140
 40
8.0
1070
   284
 70
     0
1002
}
  0
XRECORD
  5
5D5D
102
{ACAD_REACTORS
330
5D52
102
}
330
5D52
100
AcDbXrecord
  1
{23698909-1D67-4744-B0E2-8DE11E3ED422}
  0
XRECORD
  5
5D55
102
{ACAD_REACTORS
330
5D52
102
}
330
5D52
100
AcDbXrecord
  1

  0
XRECORD
  5
5D5A
102
{ACAD_REACTORS
330
5D52
102
}
330
5D52
100
AcDbXrecord
 90
        0
  0
XRECORD
  5
5D57
102
{ACAD_REACTORS
330
5D52
102
}
330
5D52
100
AcDbXrecord
340
2816
  0
XRECORD
  5
5D59
102
{ACAD_REACTORS
330
5D52
102
}
330
5D52
100
AcDbXrecord
 90
    10781
  0
XRECORD
  5
5D76
102
{ACAD_REACTORS
330
5D52
102
}
330
5D52
100
AcDbXrecord
340
2947
  0
XRECORD
  5
5D58
102
{ACAD_REACTORS
330
5D52
102
}
330
5D52
100
AcDbXrecord
340
2817
  0
XRECORD
  5
5D5F
102
{ACAD_REACTORS
330
5D52
102
}
330
5D52
100
AcDbXrecord
 40
0.25
  0
XRECORD
  5
5D62
102
{ACAD_REACTORS
330
5D52
102
}
330
5D52
100
AcDbXrecord
340
0
  0
XRECORD
  5
5D68
102
{ACAD_REACTORS
330
5D52
102
}
330
5D52
100
AcDbXrecord
 10
0.0
 20
0.0
 30
0.0
  0
XRECORD
  5
5D64
102
{ACAD_REACTORS
330
5D52
102
}
330
5D52
100
AcDbXrecord
 10
0.0
 20
0.0
 30
0.0
  0
XRECORD
  5
5D67
102
{ACAD_REACTORS
330
5D52
102
}
330
5D52
100
AcDbXrecord
 10
0.0
 20
0.0
 30
0.0
  0
XRECORD
  5
5D65
102
{ACAD_REACTORS
330
5D52
102
}
330
5D52
100
AcDbXrecord
 10
0.0
 20
0.0
 30
0.0
  0
XRECORD
  5
5D66
102
{ACAD_REACTORS
330
5D52
102
}
330
5D52
100
AcDbXrecord
 10
0.0
 20
0.0
 30
0.0
  0
XRECORD
  5
5D63
102
{ACAD_REACTORS
330
5D52
102
}
330
5D52
100
AcDbXrecord
 10
0.0
 20
0.0
 30
0.0
  0
XRECORD
  5
5D60
102
{ACAD_REACTORS
330
5D52
102
}
330
5D52
100
AcDbXrecord
340
0
  0
XRECORD
  5
5D61
102
{ACAD_REACTORS
330
5D52
102
}
330
5D52
100
AcDbXrecord
 70
     0
  0
XRECORD
  5
5D56
102
{ACAD_REACTORS
330
5D52
102
}
330
5D52
100
AcDbXrecord
  1

  0
XRECORD
  5
5D53
102
{ACAD_REACTORS
330
5D52
102
}
330
5D52
100
AcDbXrecord
 90
        1
  0
XRECORD
  5
5D54
102
{ACAD_REACTORS
330
5D52
102
}
330
5D52
100
AcDbXrecord
 90
       70
  0
XRECORD
  5
5D6B
102
{ACAD_REACTORS
330
5D52
102
}
330
5D52
100
AcDbXrecord
340
0
  0
XRECORD
  5
5D71
102
{ACAD_REACTORS
330
5D52
102
}
330
5D52
100
AcDbXrecord
 10
0.0
 20
0.0
 30
0.0
  0
XRECORD
  5
5D6D
102
{ACAD_REACTORS
330
5D52
102
}
330
5D52
100
AcDbXrecord
 10
0.0
 20
0.0
 30
0.0
  0
XRECORD
  5
5D70
102
{ACAD_REACTORS
330
5D52
102
}
330
5D52
100
AcDbXrecord
 10
0.0
 20
0.0
 30
0.0
  0
XRECORD
  5
5D6E
102
{ACAD_REACTORS
330
5D52
102
}
330
5D52
100
AcDbXrecord
 10
0.0
 20
0.0
 30
0.0
  0
XRECORD
  5
5D6F
102
{ACAD_REACTORS
330
5D52
102
}
330
5D52
100
AcDbXrecord
 10
0.0
 20
0.0
 30
0.0
  0
XRECORD
  5
5D6C
102
{ACAD_REACTORS
330
5D52
102
}
330
5D52
100
AcDbXrecord
 10
0.0
 20
0.0
 30
0.0
  0
XRECORD
  5
5D69
102
{ACAD_REACTORS
330
5D52
102
}
330
5D52
100
AcDbXrecord
340
0
  0
XRECORD
  5
5D6A
102
{ACAD_REACTORS
330
5D52
102
}
330
5D52
100
AcDbXrecord
 70
     0
  0
XRECORD
  5
5D5E
102
{ACAD_REACTORS
330
5D52
102
}
330
5D52
100
AcDbXrecord
  1
{52BEE2FC-2002-413F-B13C-AD4CBB0A79B4}
  0
DICTIONARYVAR
  5
517E
102
{ACAD_REACTORS
330
517D
102
}
330
517D
100
DictionaryVariables
280
     0
  1
1:1
  0
DICTIONARYVAR
  5
5180
102
{ACAD_REACTORS
330
517D
102
}
330
517D
100
DictionaryVariables
280
     0
  1
Standard
  0
DICTIONARYVAR
  5
517F
102
{ACAD_REACTORS
330
517D
102
}
330
517D
100
DictionaryVariables
280
     0
  1
Standard
  0
DICTIONARYVAR
  5
5D73
102
{ACAD_REACTORS
330
517D
102
}
330
517D
100
DictionaryVariables
280
     0
  1
1
  0
DICTIONARYVAR
  5
5D74
102
{ACAD_REACTORS
330
517D
102
}
330
517D
100
DictionaryVariables
280
     0
  1
0
  0
DICTIONARYVAR
  5
5181
102
{ACAD_REACTORS
330
517D
102
}
330
517D
100
DictionaryVariables
280
     0
  1
0
  0
DICTIONARYVAR
  5
5182
102
{ACAD_REACTORS
330
517D
102
}
330
517D
100
DictionaryVariables
280
     0
  1
0
  0
DICTIONARY
  5
5091
102
{ACAD_REACTORS
330
5090
102
}
330
5090
100
AcDbDictionary
  0
DICTIONARY
  5
50AA
102
{ACAD_REACTORS
330
50A9
102
}
330
50A9
100
AcDbDictionary
  0
DICTIONARY
  5
5246
102
{ACAD_REACTORS
330
5245
102
}
330
5245
100
AcDbDictionary
  0
DICTIONARY
  5
524A
102
{ACAD_REACTORS
330
5249
102
}
330
5249
100
AcDbDictionary
  0
DICTIONARY
  5
524E
102
{ACAD_REACTORS
330
524D
102
}
330
524D
100
AcDbDictionary
  0
DICTIONARY
  5
5252
102
{ACAD_REACTORS
330
5251
102
}
330
5251
100
AcDbDictionary
  0
DICTIONARY
  5
5256
102
{ACAD_REACTORS
330
5255
102
}
330
5255
100
AcDbDictionary
  0
DICTIONARY
  5
525A
102
{ACAD_REACTORS
330
5259
102
}
330
5259
100
AcDbDictionary
  0
DICTIONARY
  5
525E
102
{ACAD_REACTORS
330
525D
102
}
330
525D
100
AcDbDictionary
  0
DICTIONARY
  5
5262
102
{ACAD_REACTORS
330
5261
102
}
330
5261
100
AcDbDictionary
  0
DICTIONARY
  5
5392
102
{ACAD_REACTORS
330
5391
102
}
330
5391
100
AcDbDictionary
  0
DICTIONARY
  5
5396
102
{ACAD_REACTORS
330
5395
102
}
330
5395
100
AcDbDictionary
  0
DICTIONARY
  5
539A
102
{ACAD_REACTORS
330
5399
102
}
330
5399
100
AcDbDictionary
  0
DICTIONARY
  5
53D5
102
{ACAD_REACTORS
330
53D4
102
}
330
53D4
100
AcDbDictionary
  0
DICTIONARY
  5
5442
102
{ACAD_REACTORS
330
5441
102
}
330
5441
100
AcDbDictionary
  0
DICTIONARY
  5
5543
102
{ACAD_REACTORS
330
5542
102
}
330
5542
100
AcDbDictionary
  0
DICTIONARY
  5
558E
102
{ACAD_REACTORS
330
558D
102
}
330
558D
100
AcDbDictionary
  0
DICTIONARY
  5
5592
102
{ACAD_REACTORS
330
5591
102
}
330
5591
100
AcDbDictionary
  0
DICTIONARY
  5
5ACE
102
{ACAD_REACTORS
330
5ACD
102
}
330
5ACD
100
AcDbDictionary
  0
DICTIONARY
  5
5AD2
102
{ACAD_REACTORS
330
5AD1
102
}
330
5AD1
100
AcDbDictionary
  0
DICTIONARY
  5
5AD6
102
{ACAD_REACTORS
330
5AD5
102
}
330
5AD5
100
AcDbDictionary
  0
DICTIONARY
  5
5B37
102
{ACAD_REACTORS
330
5B36
102
}
330
5B36
100
AcDbDictionary
  0
DICTIONARY
  5
5B3B
102
{ACAD_REACTORS
330
5B3A
102
}
330
5B3A
100
AcDbDictionary
  0
DICTIONARY
  5
5B3F
102
{ACAD_REACTORS
330
5B3E
102
}
330
5B3E
100
AcDbDictionary
  0
DICTIONARY
  5
569F
102
{ACAD_REACTORS
330
569E
102
}
330
569E
100
AcDbDictionary
  0
DICTIONARY
  5
56A7
102
{ACAD_REACTORS
330
56A6
102
}
330
56A6
100
AcDbDictionary
  0
DICTIONARY
  5
56AB
102
{ACAD_REACTORS
330
56AA
102
}
330
56AA
100
AcDbDictionary
  0
DICTIONARY
  5
5A22
102
{ACAD_REACTORS
330
5A21
102
}
330
5A21
100
AcDbDictionary
  0
DICTIONARY
  5
5CF5
102
{ACAD_REACTORS
330
5CF4
102
}
330
5CF4
100
AcDbDictionary
  0
DICTIONARY
  5
5D7C
330
4E83
100
AcDbDictionary
280
     1
  3
ACAD_XREC_ROUNDTRIP
360
5D7D
  0
DICTIONARY
  5
5D7A
330
4E82
100
AcDbDictionary
280
     1
  3
ACAD_XREC_ROUNDTRIP
360
5D7B
  0
DICTIONARY
  5
5D7E
330
4E84
100
AcDbDictionary
280
     1
  3
ACAD_XREC_ROUNDTRIP
360
5D7F
  0
XRECORD
  5
5D7D
102
{ACAD_REACTORS
330
5D7C
102
}
330
5D7C
100
AcDbXrecord
102
MATERIAL
148
0.0
149
0.0
149
0.0
 93
        0
 94
      127
282
     0
 72
     1
 77
     1
171
     1
175
     1
179
     1
273
     0
  0
XRECORD
  5
5D7B
102
{ACAD_REACTORS
330
5D7A
102
}
330
5D7A
100
AcDbXrecord
102
MATERIAL
148
0.0
149
0.0
149
0.0
 93
        0
 94
      127
282
     0
 72
     1
 77
     1
171
     1
175
     1
179
     1
273
     0
  0
XRECORD
  5
5D7F
102
{ACAD_REACTORS
330
5D7E
102
}
330
5D7E
100
AcDbXrecord
102
MATERIAL
148
0.0
149
0.0
149
0.0
 93
        0
 94
      127
282
     0
 72
     1
 77
     1
171
     1
175
     1
179
     1
273
     0
  0
ENDSEC
  0
EOF
